  0
SECTION
  2
HEADER
  9
$ACADVER
  1
AC1015
  9
$DWGCODEPAGE
  3
ANSI_1252
  9
$EXTMAX
 10
297.0
 20
210.0
 30
0.0
  9
$EXTMIN
 10
0.0
 20
0.0
 30
0.0
  9
$LIMMIN
 10
0.0
 20
0.0
  9
$LIMMAX
 10
297.0
 20
210.0
  9
$VIEWCTR
 10
148.5
 20
105.0
  9
$VIEWSIZE
 40
210.0
  9
$CLAYER
  8
0
  9
$LTSCALE
 40
16.335
  9
$CELTYPE
  6
BYLAYER
  9
$DIMSCALE
 40
1.0
  9
$DIMASZ
 40
3.0
  9
$DIMEXO
 40
1.85625
  9
$DIMDLI
 40
11.286
  9
$DIMEXE
 40
5.346
  9
$DIMCEN
 40
2.673
  9
$DIMLFAC
 40
1.0
  9
$DIMBLK
  1
_FILLED
  9
$DIMTXT
 40
3.0
  9
$DIMTOL
 70
1
  9
$DIMLIM
 70
0
  9
$DIMTFAC
 40
1.0
  9
$DIMTP
 40
0.01
  9
$DIMTM
 40
0.01
  9
$PDMODE
 70
3
  9
$PDSIZE
 40
3.0
  9
$HANDSEED
  5
324
  9
$TILEMODE
 70
1
  9
$MEASUREMENT
 70
1
  9
$INSUNITS
 70
4
  0
ENDSEC
  0
SECTION
  2
CLASSES
  0
CLASS
  1
ACDBDICTIONARYWDFLT
  2
AcDbDictionaryWithDefault
  3
AutoCAD 2000
 90
0
280
0
281
0
  0
CLASS
  1
ACDBPLACEHOLDER
  2
AcDbPlaceHolder
  3
AutoCAD 2000
 90
0
280
0
281
0
  0
CLASS
  1
LAYOUT
  2
AcDbLayout
  3
AutoCAD 2000
 90
0
280
0
281
0
  0
ENDSEC
  0
SECTION
  2
TABLES
  0
TABLE
  2
VPORT
  5
8
100
AcDbSymbolTable
 70
2
  0
VPORT
  5
1F4
100
AcDbSymbolTableRecord
100
AcDbViewportTableRecord
  2
*ACTIVE
 70
0
 10
0.0
 20
0.0
 11
1.0
 21
1.0
 12
148.5
 22
105.0
 13
0.0
 23
0.0
 14
1.0
 24
1.0
 15
0.0
 25
0.0
 16
0.0
 26
0.0
 36
1.0
 17
0.0
 27
0.0
 37
0.0
 40
210.0
 41
1.4142857143
 42
50.0
 43
0.0
 44
0.0
 50
0.0
 51
0.0
 71
0
 72
100
 73
1
 74
1
 75
0
 76
0
 77
0
 78
0
  0
ENDTAB
  0
TABLE
  2
LTYPE
  5
5
100
AcDbSymbolTable
 70
6
  0
LTYPE
  5
14
100
AcDbSymbolTableRecord
100
AcDbLinetypeTableRecord
  2
BYBLOCK
 70
0
  3

 72
65
 73
0
 40
0.0
  0
LTYPE
  5
15
100
AcDbSymbolTableRecord
100
AcDbLinetypeTableRecord
  2
BYLAYER
 70
0
  3

 72
65
 73
0
 40
0.0
  0
LTYPE
  5
16
100
AcDbSymbolTableRecord
100
AcDbLinetypeTableRecord
  2
CONTINUOUS
 70
64
  3
Solid line
 72
65
 73
0
 40
0.0
  0
LTYPE
  5
1F5
100
AcDbSymbolTableRecord
100
AcDbLinetypeTableRecord
  2
CENTER
 70
64
  3
____ _ ____ _ ____ _ ____ _ ____ _ ____ _ ____
 72
65
 73
4
 40
0.6
 49
0.375
 74
0
 49
-0.075
 74
0
 49
0.075
 74
0
 49
-0.075
 74
0
  0
LTYPE
  5
1F6
100
AcDbSymbolTableRecord
100
AcDbLinetypeTableRecord
  2
HIDDEN
 70
64
  3
- - - - - - - - - - - - - - - - - - - -
 72
65
 73
2
 40
0.2
 49
0.1
 74
0
 49
-0.1
 74
0
  0
LTYPE
  5
1F7
100
AcDbSymbolTableRecord
100
AcDbLinetypeTableRecord
  2
PHANTOM
 70
64
  3
_____ _ _ _____ _ _ _____ _ _ _____
 72
65
 73
6
 40
0.8
 49
0.45
 74
0
 49
-0.05
 74
0
 49
0.1
 74
0
 49
-0.05
 74
0
 49
0.1
 74
0
 49
-0.05
 74
0
  0
LTYPE
  5
1F8
100
AcDbSymbolTableRecord
100
AcDbLinetypeTableRecord
  2
DOT
 70
64
  3
. . . . . . . . . . . . . . . . . . . .
 72
65
 73
2
 40
0.2
 49
0.1
 74
0
 49
-0.1
 74
0
  0
LTYPE
  5
1F9
100
AcDbSymbolTableRecord
100
AcDbLinetypeTableRecord
  2
DASHED
 70
64
  3
- - - - - - - - - - - - - - - - - - - -
 72
65
 73
2
 40
0.2
 49
0.1
 74
0
 49
-0.1
 74
0
  0
ENDTAB
  0
TABLE
  2
LAYER
  5
2
100
AcDbSymbolTable
 70
36
  0
LAYER
  5
10
100
AcDbSymbolTableRecord
100
AcDbLayerTableRecord
  2
0
 70
0
 62
7
  6
CONTINUOUS
370
-3
390
F
  0
LAYER
  5
1FA
100
AcDbSymbolTableRecord
100
AcDbLayerTableRecord
  2
DEFAULT_1
 70
0
 62
7
  6
CENTER
370
-3
390
F
  0
LAYER
  5
1FB
100
AcDbSymbolTableRecord
100
AcDbLayerTableRecord
  2
DEFAULT_2
 70
0
 62
7
  6
HIDDEN
370
-3
390
F
  0
LAYER
  5
1FC
100
AcDbSymbolTableRecord
100
AcDbLayerTableRecord
  2
DEFAULT_3
 70
0
 62
7
  6
PHANTOM
370
-3
390
F
  0
LAYER
  5
1FD
100
AcDbSymbolTableRecord
100
AcDbLayerTableRecord
  2
ASSI
 70
0
 62
7
  6
CONTINUOUS
370
-3
390
F
  0
LAYER
  5
1FE
100
AcDbSymbolTableRecord
100
AcDbLayerTableRecord
  2
COLOR9
 70
0
 62
7
  6
CONTINUOUS
370
-3
390
F
  0
LAYER
  5
1FF
100
AcDbSymbolTableRecord
100
AcDbLayerTableRecord
  2
COORDINATE
 70
0
 62
7
  6
CONTINUOUS
370
-3
390
F
  0
LAYER
  5
200
100
AcDbSymbolTableRecord
100
AcDbLayerTableRecord
  2
COORD_ORIGINE
 70
0
 62
7
  6
CONTINUOUS
370
-3
390
F
  0
LAYER
  5
201
100
AcDbSymbolTableRecord
100
AcDbLayerTableRecord
  2
COSMETICI
 70
0
 62
7
  6
CONTINUOUS
370
-3
390
F
  0
LAYER
  5
202
100
AcDbSymbolTableRecord
100
AcDbLayerTableRecord
  2
CURVE
 70
0
 62
7
  6
CONTINUOUS
370
-3
390
F
  0
LAYER
  5
203
100
AcDbSymbolTableRecord
100
AcDbLayerTableRecord
  2
DRAFT
 70
0
 62
7
  6
CONTINUOUS
370
-3
390
F
  0
LAYER
  5
204
100
AcDbSymbolTableRecord
100
AcDbLayerTableRecord
  2
IMPORT_IGES
 70
0
 62
7
  6
CONTINUOUS
370
-3
390
F
  0
LAYER
  5
205
100
AcDbSymbolTableRecord
100
AcDbLayerTableRecord
  2
INTF_1
 70
0
 62
7
  6
CONTINUOUS
370
-3
390
F
  0
LAYER
  5
206
100
AcDbSymbolTableRecord
100
AcDbLayerTableRecord
  2
INTF_8
 70
0
 62
7
  6
CONTINUOUS
370
-3
390
F
  0
LAYER
  5
207
100
AcDbSymbolTableRecord
100
AcDbLayerTableRecord
  2
INTF_YELLOW
 70
0
 62
7
  6
CONTINUOUS
370
-3
390
F
  0
LAYER
  5
208
100
AcDbSymbolTableRecord
100
AcDbLayerTableRecord
  2
NOTE
 70
0
 62
7
  6
CONTINUOUS
370
-3
390
F
  0
LAYER
  5
209
100
AcDbSymbolTableRecord
100
AcDbLayerTableRecord
  2
PIANI
 70
0
 62
7
  6
CONTINUOUS
370
-3
390
F
  0
LAYER
  5
20A
100
AcDbSymbolTableRecord
100
AcDbLayerTableRecord
  2
PIANI_ORIGINE
 70
0
 62
7
  6
CONTINUOUS
370
-3
390
F
  0
LAYER
  5
20B
100
AcDbSymbolTableRecord
100
AcDbLayerTableRecord
  2
PIANI_RIFERIMENTO
 70
0
 62
7
  6
CONTINUOUS
370
-3
390
F
  0
LAYER
  5
20C
100
AcDbSymbolTableRecord
100
AcDbLayerTableRecord
  2
PUNTI
 70
0
 62
7
  6
CONTINUOUS
370
-3
390
F
  0
LAYER
  5
20D
100
AcDbSymbolTableRecord
100
AcDbLayerTableRecord
  2
RACCORDO
 70
0
 62
7
  6
CONTINUOUS
370
-3
390
F
  0
LAYER
  5
20E
100
AcDbSymbolTableRecord
100
AcDbLayerTableRecord
  2
RGB__255__255__255__
 70
0
 62
7
  6
CONTINUOUS
370
-3
390
F
  0
LAYER
  5
20F
100
AcDbSymbolTableRecord
100
AcDbLayerTableRecord
  2
RGB____0____0____0__
 70
0
 62
7
  6
CONTINUOUS
370
-3
390
F
  0
LAYER
  5
210
100
AcDbSymbolTableRecord
100
AcDbLayerTableRecord
  2
SIMBOLI
 70
0
 62
7
  6
CONTINUOUS
370
-3
390
F
  0
LAYER
  5
211
100
AcDbSymbolTableRecord
100
AcDbLayerTableRecord
  2
SMUSSO
 70
0
 62
7
  6
CONTINUOUS
370
-3
390
F
  0
LAYER
  5
212
100
AcDbSymbolTableRecord
100
AcDbLayerTableRecord
  2
SNAPLINE
 70
0
 62
7
  6
CONTINUOUS
370
-3
390
F
  0
LAYER
  5
213
100
AcDbSymbolTableRecord
100
AcDbLayerTableRecord
  2
SUPERFICI
 70
0
 62
7
  6
CONTINUOUS
370
-3
390
F
  0
LAYER
  5
214
100
AcDbSymbolTableRecord
100
AcDbLayerTableRecord
  2
TRASH
 70
0
 62
7
  6
CONTINUOUS
370
-3
390
F
  0
LAYER
  5
215
100
AcDbSymbolTableRecord
100
AcDbLayerTableRecord
  2
XSEC_DATUMS
 70
0
 62
7
  6
CONTINUOUS
370
-3
390
F
  0
ENDTAB
  0
TABLE
  2
STYLE
  5
3
100
AcDbSymbolTable
 70
1
  0
STYLE
  5
11
100
AcDbSymbolTableRecord
100
AcDbTextStyleTableRecord
  2
STANDARD
 70
0
 40
0.0
 41
0.8
 50
0.0
 71
0
 42
0.2
  3
txt
  4

  0
STYLE
  5
216
100
AcDbSymbolTableRecord
100
AcDbTextStyleTableRecord
  2
TEXTSTYLE_1
 70
0
 40
0.0
 41
0.8
 50
0.0
 71
0
 42
0.2
  3
gdt
  4

  0
ENDTAB
  0
TABLE
  2
VIEW
  5
6
100
AcDbSymbolTable
 70
0
  0
ENDTAB
  0
TABLE
  2
UCS
  5
7
100
AcDbSymbolTable
 70
0
  0
ENDTAB
  0
TABLE
  2
APPID
  5
9
100
AcDbSymbolTable
 70
1
  0
APPID
  5
217
100
AcDbSymbolTableRecord
100
AcDbRegAppTableRecord
  2
ACAD
 70
0
  0
ENDTAB
  0
TABLE
  2
BLOCK_RECORD
  5
1
100
AcDbSymbolTable
 70
0
  0
BLOCK_RECORD
  5
218
100
AcDbSymbolTableRecord
100
AcDbBlockTableRecord
  2
*Model_Space
  0
BLOCK_RECORD
  5
219
100
AcDbSymbolTableRecord
100
AcDbBlockTableRecord
  2
*Paper_Space
  0
BLOCK_RECORD
  5
21A
100
AcDbSymbolTableRecord
100
AcDbBlockTableRecord
  2
_FILLED
  0
BLOCK_RECORD
  5
21B
100
AcDbSymbolTableRecord
100
AcDbBlockTableRecord
  2
*D0
  0
BLOCK_RECORD
  5
21C
100
AcDbSymbolTableRecord
100
AcDbBlockTableRecord
  2
*D1
  0
BLOCK_RECORD
  5
21D
100
AcDbSymbolTableRecord
100
AcDbBlockTableRecord
  2
*D2
  0
ENDTAB
  0
TABLE
  2
DIMSTYLE
  5
A
100
AcDbSymbolTable
 70
1
100
AcDbDimStyleTable
 71
0
  0
DIMSTYLE
105
21E
100
AcDbSymbolTableRecord
100
AcDbDimStyleTableRecord
  2
STANDARD
 70
0
  3

  4

 40
1.0
 41
3.0
 42
0.0625
 43
0.38
 44
0.18
 45
0.0
 46
0.0
 47
0.01
 48
0.01
140
3.0
141
0.09
142
0.0
143
25.4
144
1.0
145
0.0
146
1.0
147
0.09
 71
1.0
 72
0.0
 73
0
 74
0
 75
0
 76
0
 77
1
 78
8
170
0
171
2
172
0
173
0
174
0
175
0
176
0
177
0
178
0
270
2
271
2
272
2
273
2
274
2
275
0
280
0
281
0
282
0
283
1
284
8
285
0
286
0
287
3
288
0
340
11
341
21A
342
21A
343
21A
344
21A
  0
DIMSTYLE
105
21F
100
AcDbSymbolTableRecord
100
AcDbDimStyleTableRecord
  2
DIMSTYLE_1
 70
0
  3

  4

 40
1.0
 41
3.0
 42
0.0625
 43
0.38
 44
0.18
 45
0.0
 46
0.0
 47
0.0
 48
0.0
140
3.0
141
0.09
142
0.0
143
25.4
144
1.0
145
0.0
146
1.0
147
0.09
 71
0.0
 72
0.0
 73
0
 74
0
 75
0
 76
0
 77
1
 78
8
170
0
171
2
172
0
173
0
174
0
175
0
176
0
177
0
178
0
270
2
271
1
272
1
273
2
274
2
275
0
280
0
281
0
282
0
283
1
284
8
285
0
286
0
287
3
288
0
340
11
341
21A
342
21A
343
21A
344
21A
  0
DIMSTYLE
105
220
100
AcDbSymbolTableRecord
100
AcDbDimStyleTableRecord
  2
DIMSTYLE_2
 70
0
  3

  4

 40
1.0
 41
3.0
 42
0.0625
 43
0.38
 44
0.18
 45
0.0
 46
0.0
 47
0.0
 48
0.0
140
3.0
141
0.09
142
0.0
143
25.4
144
1.0
145
0.0
146
1.0
147
0.09
 71
0.0
 72
0.0
 73
0
 74
0
 75
0
 76
0
 77
1
 78
8
170
0
171
2
172
0
173
0
174
0
175
0
176
0
177
0
178
0
270
2
271
2
272
2
273
2
274
2
275
0
280
0
281
0
282
0
283
1
284
8
285
0
286
0
287
3
288
0
340
11
341
21A
342
21A
343
21A
344
21A
  0
ENDTAB
  0
ENDSEC
  0
SECTION
  2
BLOCKS
  0
BLOCK
  5
20
100
AcDbEntity
  8
0
100
AcDbBlockBegin
  2
*Model_Space
 70
0
 10
0.0
 20
0.0
 30
0.0
  3
*Model_Space
  1

  0
ENDBLK
  5
21
100
AcDbEntity
  8
0
100
AcDbBlockEnd
  0
BLOCK
  5
1C
100
AcDbEntity
  8
0
100
AcDbBlockBegin
  2
*Paper_Space
 70
0
 10
0.0
 20
0.0
 30
0.0
  3
*Paper_Space
  1

  0
ENDBLK
  5
1D
100
AcDbEntity
  8
0
100
AcDbBlockEnd
  0
BLOCK
  5
221
100
AcDbEntity
  8
0
100
AcDbBlockBegin
  2
_FILLED
 70
64
 10
0.0
 20
0.0
  3
_FILLED
  1

  0
SOLID
  5
222
100
AcDbEntity
  8
0
  6
BYBLOCK
 62
0
100
AcDbTrace
 10
0.0
 20
0.0
 11
-1.0
 21
0.3166666667
 12
-1.0
 22
-0.3166666667
 13
-1.0
 23
-0.3166666667
  0
ENDBLK
  5
223
100
AcDbEntity
  8
0
  6
BYBLOCK
 62
0
100
AcDbBlockEnd
  0
BLOCK
  5
224
100
AcDbEntity
  8
0
100
AcDbBlockBegin
 62
7
  6
CONTINUOUS
  2
*D0
 70
65
 10
0.0
 20
0.0
  3
*D0
  1

  0
LINE
  5
225
100
AcDbEntity
  8
0
100
AcDbLine
 62
7
  6
CONTINUOUS
 10
-22.3014422353
 20
24.0643361161
 11
-22.3014422353
 21
31.6114422353
  0
LINE
  5
226
100
AcDbEntity
  8
0
100
AcDbLine
 62
7
  6
CONTINUOUS
 10
22.3014422353
 20
23.4640834845
 11
22.3014422353
 21
31.6114422353
  0
LINE
  5
227
100
AcDbEntity
  8
0
100
AcDbLine
 62
7
  6
CONTINUOUS
 10
-22.3014422353
 20
30.1114422353
 11
0.0
 21
30.1114422353
  0
LINE
  5
228
100
AcDbEntity
  8
0
100
AcDbLine
 62
7
  6
CONTINUOUS
 10
22.3014422353
 20
30.1114422353
 11
0.0
 21
30.1114422353
  0
INSERT
  5
229
100
AcDbEntity
  8
0
100
AcDbBlockReference
 62
7
  6
CONTINUOUS
  2
_FILLED
 10
-22.3014422353
 20
30.1114422353
 41
3.0
 42
3.0
 43
3.0
 50
180.0
  0
INSERT
  5
22A
100
AcDbEntity
  8
0
100
AcDbBlockReference
 62
7
  6
CONTINUOUS
  2
_FILLED
 10
22.3014422353
 20
30.1114422353
 41
3.0
 42
3.0
 43
3.0
  0
ENDBLK
  5
22B
100
AcDbEntity
  8
0
  6
BYBLOCK
 62
0
100
AcDbBlockEnd
  0
BLOCK
  5
22C
100
AcDbEntity
  8
0
100
AcDbBlockBegin
 62
7
  6
CONTINUOUS
  2
*D1
 70
65
 10
0.0
 20
0.0
  3
*D1
  1

  0
LINE
  5
22D
100
AcDbEntity
  8
0
100
AcDbLine
 62
7
  6
CONTINUOUS
 10
23.4432437041
 20
22.1114422353
 11
31.88
 21
22.1114422353
  0
LINE
  5
22E
100
AcDbEntity
  8
0
100
AcDbLine
 62
7
  6
CONTINUOUS
 10
20.9701083423
 20
-22.1114422353
 11
31.88
 21
-22.1114422353
  0
LINE
  5
22F
100
AcDbEntity
  8
0
100
AcDbLine
 62
7
  6
CONTINUOUS
 10
30.38
 20
22.1114422353
 11
30.38
 21
0.0
  0
LINE
  5
230
100
AcDbEntity
  8
0
100
AcDbLine
 62
7
  6
CONTINUOUS
 10
30.38
 20
-22.1114422353
 11
30.38
 21
0.0
  0
INSERT
  5
231
100
AcDbEntity
  8
0
100
AcDbBlockReference
 62
7
  6
CONTINUOUS
  2
_FILLED
 10
30.38
 20
22.1114422353
 41
3.0
 42
3.0
 43
3.0
 50
90.0
  0
INSERT
  5
232
100
AcDbEntity
  8
0
100
AcDbBlockReference
 62
7
  6
CONTINUOUS
  2
_FILLED
 10
30.38
 20
-22.1114422353
 41
3.0
 42
3.0
 43
3.0
 50
270.0
  0
ENDBLK
  5
233
100
AcDbEntity
  8
0
  6
BYBLOCK
 62
0
100
AcDbBlockEnd
  0
BLOCK
  5
234
100
AcDbEntity
  8
0
100
AcDbBlockBegin
 62
7
  6
CONTINUOUS
  2
*D2
 70
65
 10
0.0
 20
0.0
  3
*D2
  1

  0
LINE
  5
235
100
AcDbEntity
  8
0
100
AcDbLine
 62
7
  6
CONTINUOUS
 10
-34.3602173581
 20
10.2310194482
 11
-34.3602173581
 21
31.6114422353
  0
LINE
  5
236
100
AcDbEntity
  8
0
100
AcDbLine
 62
7
  6
CONTINUOUS
 10
-38.3602173581
 20
0.5
 11
-38.3602173581
 21
31.6114422353
  0
LINE
  5
237
100
AcDbEntity
  8
0
100
AcDbLine
 62
7
  6
CONTINUOUS
 10
-34.3602173581
 20
30.1114422353
 11
-30.3602173581
 21
30.1114422353
  0
LINE
  5
238
100
AcDbEntity
  8
0
100
AcDbLine
 62
7
  6
CONTINUOUS
 10
-30.3602173581
 20
30.1114422353
 11
-36.3602173581
 21
30.1114422353
  0
LINE
  5
239
100
AcDbEntity
  8
0
100
AcDbLine
 62
7
  6
CONTINUOUS
 10
-38.3602173581
 20
30.1114422353
 11
-45.9495183215
 21
30.1114422353
  0
LINE
  5
23A
100
AcDbEntity
  8
0
100
AcDbLine
 62
7
  6
CONTINUOUS
 10
-45.9495183215
 20
30.1114422353
 11
-36.3602173581
 21
30.1114422353
  0
INSERT
  5
23B
100
AcDbEntity
  8
0
100
AcDbBlockReference
 62
7
  6
CONTINUOUS
  2
_FILLED
 10
-34.3602173581
 20
30.1114422353
 41
3.0
 42
3.0
 43
3.0
 50
180.0
  0
INSERT
  5
23C
100
AcDbEntity
  8
0
100
AcDbBlockReference
 62
7
  6
CONTINUOUS
  2
_FILLED
 10
-38.3602173581
 20
30.1114422353
 41
3.0
 42
3.0
 43
3.0
  0
ENDBLK
  5
23D
100
AcDbEntity
  8
0
  6
BYBLOCK
 62
0
100
AcDbBlockEnd
  0
ENDSEC
  0
SECTION
  2
ENTITIES
  0
DIMENSION
  5
23E
100
AcDbEntity
  8
0
100
AcDbDimension
 62
7
  6
CONTINUOUS
  2
*D0
 10
22.3014422353
 20
30.1114422353
 11
-4.3928571429
 21
30.8614422353
 70
160
 71
2
 42
44.6028844706
  3
DIMSTYLE_1
100
AcDbAlignedDimension
 13
-22.3014422353
 23
24.0643361161
 14
22.3014422353
 24
23.4640834845
100
AcDbRotatedDimension
  0
DIMENSION
  5
23F
100
AcDbEntity
  8
0
100
AcDbDimension
 62
7
  6
CONTINUOUS
  2
*D1
 10
30.38
 20
-22.1114422353
 11
29.63
 21
-4.3928571429
 70
160
 71
2
 42
44.2228844706
  3
DIMSTYLE_1
100
AcDbAlignedDimension
 13
23.4432437041
 23
22.1114422353
 14
20.9701083423
 24
-22.1114422353
 50
270.0
100
AcDbRotatedDimension
  0
DIMENSION
  5
240
100
AcDbEntity
  8
0
100
AcDbDimension
 62
7
  6
CONTINUOUS
  2
*D2
 10
-38.3602173581
 20
30.1114422353
 11
-45.9495183215
 21
30.8614422353
 70
160
 71
3
 42
4.0
  3
DIMSTYLE_2
100
AcDbAlignedDimension
 13
-34.3602173581
 23
10.2310194482
 14
-38.3602173581
 24
0.5
 50
180.0
100
AcDbRotatedDimension
  0
LWPOLYLINE
  5
241
100
AcDbEntity
  8
RACCORDO
100
AcDbPolyline
 62
253
  6
CONTINUOUS
 90
16
 70
0
 10
-22.2638766931
 20
21.1615238967
 10
-22.2598965
 20
21.1692064438
 10
-22.2506612473
 20
21.1768075537
 10
-22.2362688116
 20
21.1842466688
 10
-22.2168717254
 20
21.1914449486
 10
-22.1926755615
 20
21.1983261048
 10
-22.1639367539
 20
21.2048172101
 10
-22.1309598798
 20
21.2108494709
 10
-22.0940944322
 20
21.2163589566
 10
-22.0537311155
 20
21.221287277
 10
-22.0102977052
 20
21.2255822012
 10
-21.9642545137
 20
21.2291982111
 10
-21.9160895124
 20
21.232096984
 10
-21.8663131598
 20
21.2342477985
 10
-21.8154529919
 20
21.2356278599
 10
-21.7640480307
 20
21.2362225423
  0
LWPOLYLINE
  5
242
100
AcDbEntity
  8
RACCORDO
100
AcDbPolyline
 62
253
  6
CONTINUOUS
 90
16
 70
0
 10
-22.2638766932
 20
-21.1615238967
 10
-22.2598974611
 20
-21.1692066574
 10
-22.2506630216
 20
-21.176807993
 10
-22.2362712449
 20
-21.1842473417
 10
-22.2168746607
 20
-21.1914458583
 10
-22.1926788416
 20
-21.1983272502
 10
-22.1639402246
 20
-21.2048185855
 10
-22.1309633926
 20
-21.2108510667
 10
-22.0940978473
 20
-21.216360759
 10
-22.053734304
 20
-21.2212892686
 10
-22.0103005516
 20
-21.2255843612
 10
-21.9642569181
 20
-21.2292005157
 10
-21.9160913919
 20
-21.232099407
 10
-21.8663144504
 20
-21.2342503114
 10
-21.8154536491
 20
-21.2356304329
 10
-21.7640480307
 20
-21.2362251442
  0
LWPOLYLINE
  5
243
100
AcDbEntity
  8
RACCORDO
100
AcDbPolyline
 62
253
  6
CONTINUOUS
 90
16
 70
0
 10
-22.2764799709
 20
-21.5866513084
 10
-22.2737085608
 20
-21.638873962
 10
-22.2654962044
 20
-21.6905251247
 10
-22.2519327487
 20
-21.7410393988
 10
-22.2331666165
 20
-21.7898638266
 10
-22.2094031858
 20
-21.8364639333
 10
-22.1809025464
 20
-21.8803295793
 10
-22.147976642
 20
-21.9209805652
 10
-22.1109858676
 20
-21.9579718672
 10
-22.0703351383
 20
-21.9908985062
 10
-22.0264694206
 20
-22.0194000157
 10
-21.979868886
 20
-22.0431643617
 10
-21.9310436815
 20
-22.0619313551
 10
-21.8805282932
 20
-22.0754955292
 10
-21.8288756908
 20
-22.0837083782
 10
-21.7766513085
 20
-22.086479971
  0
LWPOLYLINE
  5
244
100
AcDbEntity
  8
RACCORDO
100
AcDbPolyline
 62
253
  6
CONTINUOUS
 90
16
 70
0
 10
-22.2764799709
 20
21.5866513084
 10
-22.2737084581
 20
21.6388749344
 10
-22.265495829
 20
21.690526886
 10
-22.2519319847
 20
21.7410417469
 10
-22.2331654039
 20
21.789866548
 10
-22.2094015179
 20
21.8364668207
 10
-22.180900462
 20
21.8803324476
 10
-22.1479742277
 20
21.9209832467
 10
-22.1109832471
 20
21.9579742273
 10
-22.0703324481
 20
21.9909004617
 10
-22.0264668212
 20
22.0194015177
 10
-21.9798665484
 20
22.0431654037
 10
-21.9310417473
 20
22.0619319846
 10
-21.8805268863
 20
22.075495829
 10
-21.8288749345
 20
22.0837084581
 10
-21.7766513084
 20
22.0864799709
  0
LWPOLYLINE
  5
245
100
AcDbEntity
  8
RACCORDO
100
AcDbPolyline
 62
253
  6
CONTINUOUS
 90
10
 70
0
 10
-22.2681568186
 20
21.4616298466
 10
-22.2689431232
 20
21.4861047249
 10
-22.2697813036
 20
21.5083229653
 10
-22.2706563049
 20
21.5278932804
 10
-22.271569386
 20
21.5447694949
 10
-22.2725192882
 20
21.5589977841
 10
-22.2734871808
 20
21.5703253862
 10
-22.274466787
 20
21.5786680473
 10
-22.2754643837
 20
21.5841100214
 10
-22.2764799709
 20
21.5866513084
  0
LWPOLYLINE
  5
246
100
AcDbEntity
  8
RACCORDO
100
AcDbPolyline
 62
253
  6
CONTINUOUS
 90
7
 70
0
 10
-21.7708205485
 20
21.968635596
 10
-21.7717310492
 20
22.0024936657
 10
-21.772678348
 20
22.0308586736
 10
-21.773645698
 20
22.0535589575
 10
-21.7746275169
 20
22.0704577735
 10
-21.7756293871
 20
22.0814535722
 10
-21.7766513084
 20
22.0864799709
  0
LINE
  5
247
100
AcDbEntity
  8
RACCORDO
100
AcDbLine
 62
253
  6
CONTINUOUS
 10
-22.2667415586
 20
21.4058170317
 11
-22.2681568186
 21
21.4616298466
  0
LINE
  5
248
100
AcDbEntity
  8
RACCORDO
100
AcDbLine
 62
253
  6
CONTINUOUS
 10
-21.7691111237
 20
21.8852903227
 11
-21.7708205485
 21
21.968635596
  0
LINE
  5
249
100
AcDbEntity
  8
RACCORDO
100
AcDbLine
 62
253
  6
CONTINUOUS
 10
-22.2655723942
 20
21.3425178419
 11
-22.2667415586
 21
21.4058170317
  0
LINE
  5
24A
100
AcDbEntity
  8
RACCORDO
100
AcDbLine
 62
253
  6
CONTINUOUS
 10
-22.264670723
 20
21.2729528004
 11
-22.2655723942
 21
21.3425178419
  0
LINE
  5
24B
100
AcDbEntity
  8
RACCORDO
100
AcDbLine
 62
253
  6
CONTINUOUS
 10
-21.7669146285
 20
21.7251570648
 11
-21.7691111237
 21
21.8852903227
  0
LINE
  5
24C
100
AcDbEntity
  8
RACCORDO
100
AcDbLine
 62
253
  6
CONTINUOUS
 10
-21.7648466607
 20
21.4599831598
 11
-21.7669146285
 21
21.7251570648
  0
LINE
  5
24D
100
AcDbEntity
  8
RACCORDO
100
AcDbLine
 62
253
  6
CONTINUOUS
 10
-22.2638766932
 20
21.1615238967
 11
-22.264670723
 21
21.2729528004
  0
LINE
  5
24E
100
AcDbEntity
  8
RACCORDO
100
AcDbLine
 62
253
  6
CONTINUOUS
 10
-22.2474325226
 20
15.9909603469
 11
-22.2638766932
 21
21.1615238967
  0
LINE
  5
24F
100
AcDbEntity
  8
RACCORDO
100
AcDbLine
 62
253
  6
CONTINUOUS
 10
-21.7476037727
 20
16.0366547986
 11
-21.7640480307
 21
21.2362251476
  0
LINE
  5
250
100
AcDbEntity
  8
RACCORDO
100
AcDbLine
 62
253
  6
CONTINUOUS
 10
-21.7640480307
 20
21.2362251476
 11
-21.7648466607
 21
21.4599831598
  0
LINE
  5
251
100
AcDbEntity
  8
RACCORDO
100
AcDbLine
 62
253
  6
CONTINUOUS
 10
-22.23889248
 20
10.7928354503
 11
-22.2474325226
 21
15.9909603469
  0
LINE
  5
252
100
AcDbEntity
  8
RACCORDO
100
AcDbLine
 62
253
  6
CONTINUOUS
 10
-21.7390638443
 20
10.8091626086
 11
-21.7476037727
 21
16.0366547986
  0
LINE
  5
253
100
AcDbEntity
  8
0
100
AcDbLine
 62
7
  6
CONTINUOUS
 10
-22.3014422353
 20
21.6116135728
 11
-22.3014422353
 21
-21.6116135728
  0
LINE
  5
254
100
AcDbEntity
  8
RACCORDO
100
AcDbLine
 62
253
  6
CONTINUOUS
 10
-22.2402843163
 20
-12.0939699785
 11
-22.23889248
 21
10.7928354503
  0
LINE
  5
255
100
AcDbEntity
  8
RACCORDO
100
AcDbLine
 62
253
  6
CONTINUOUS
 10
-21.7404557226
 20
-12.1176863817
 11
-21.7390638443
 21
10.8091626086
  0
LINE
  5
256
100
AcDbEntity
  8
RACCORDO
100
AcDbLine
 62
253
  6
CONTINUOUS
 10
-22.2508039357
 20
-17.2868145217
 11
-22.2402843163
 21
-12.0939699785
  0
LINE
  5
257
100
AcDbEntity
  8
RACCORDO
100
AcDbLine
 62
253
  6
CONTINUOUS
 10
-21.750975233
 20
-17.339854897
 11
-21.7404557226
 21
-12.1176863817
  0
LINE
  5
258
100
AcDbEntity
  8
RACCORDO
100
AcDbLine
 62
253
  6
CONTINUOUS
 10
-21.7652609176
 20
-21.5306766563
 11
-21.750975233
 21
-17.339854897
  0
LINE
  5
259
100
AcDbEntity
  8
RACCORDO
100
AcDbLine
 62
253
  6
CONTINUOUS
 10
-22.2643326477
 20
-21.2368235579
 11
-22.2508039357
 21
-17.2868145217
  0
LINE
  5
25A
100
AcDbEntity
  8
RACCORDO
100
AcDbLine
 62
253
  6
CONTINUOUS
 10
-21.7669142997
 20
-21.7251528619
 11
-21.7652609176
 21
-21.5306766563
  0
LINE
  5
25B
100
AcDbEntity
  8
RACCORDO
100
AcDbLine
 62
253
  6
CONTINUOUS
 10
-22.2650841564
 20
-21.3081932214
 11
-22.2643326477
 21
-21.2368235579
  0
LINE
  5
25C
100
AcDbEntity
  8
RACCORDO
100
AcDbLine
 62
253
  6
CONTINUOUS
 10
-21.7691102789
 20
-21.8852865879
 11
-21.7669142997
 21
-21.7251528619
  0
LINE
  5
25D
100
AcDbEntity
  8
RACCORDO
100
AcDbLine
 62
253
  6
CONTINUOUS
 10
-22.2661223366
 20
-21.3749505517
 11
-22.2650841564
 21
-21.3081932214
  0
LWPOLYLINE
  5
25E
100
AcDbEntity
  8
0
100
AcDbPolyline
 62
7
  6
CONTINUOUS
 90
10
 70
0
 43
0.3500000006
 10
3.1071428747
 20
33.8614438934
 10
2.464285738
 20
33.218585907
 10
2.0357142191
 20
32.3614434357
 10
2.0357142191
 20
31.2900119476
 10
2.464285738
 20
30.8614429779
 10
3.1071428747
 20
30.8614429779
 10
3.5357143936
 20
31.2900119476
 10
3.5357143936
 20
32.1471544189
 10
3.1071428747
 20
32.5757279205
 10
2.1785714865
 20
32.5757279205
  0
LINE
  5
25F
100
AcDbEntity
  8
0
100
AcDbLine
 62
7
  6
CONTINUOUS
 10
21.8016135728
 20
-22.1114422353
 11
-21.8016135728
 21
-22.1114422353
  0
LINE
  5
260
100
AcDbEntity
  8
RACCORDO
100
AcDbLine
 62
253
  6
CONTINUOUS
 10
21.7766513084
 20
-22.0864799709
 11
-21.7766513084
 21
-22.0864799709
  0
LINE
  5
261
100
AcDbEntity
  8
RACCORDO
100
AcDbLine
 62
253
  6
CONTINUOUS
 10
21.7640480307
 20
-21.2362251476
 11
-21.7640480307
 21
-21.2362251476
  0
LWPOLYLINE
  5
262
100
AcDbEntity
  8
RACCORDO
100
AcDbPolyline
 62
253
  6
CONTINUOUS
 90
8
 70
0
 10
-21.7766513084
 20
-22.0864799709
 10
-21.7756293033
 20
-22.0814536019
 10
-21.7746273547
 20
-22.070457797
 10
-21.7736454625
 20
-22.0535588376
 10
-21.7726780577
 20
-22.0308580893
 10
-21.7717307095
 20
-22.0024922519
 10
-21.7708201249
 20
-21.9686332738
 10
-21.7691102789
 20
-21.8852865879
  0
LWPOLYLINE
  5
263
100
AcDbEntity
  8
RACCORDO
100
AcDbPolyline
 62
253
  6
CONTINUOUS
 90
7
 70
0
 10
22.2379958269
 20
-9.4905
 10
22.2340029648
 20
-9.4914768667
 10
22.2247570053
 20
-9.492443384
 10
22.210355904
 20
-9.4933893122
 10
22.1909522323
 20
-9.4943046298
 10
22.1667515612
 20
-9.4951796396
 10
22.1380102829
 20
-9.4960050712
  0
LWPOLYLINE
  5
264
100
AcDbEntity
  8
RACCORDO
100
AcDbPolyline
 62
253
  6
CONTINUOUS
 90
9
 70
0
 10
-22.2379958269
 20
-9.4905
 10
-22.2340029683
 20
-9.4914768667
 10
-22.2247570117
 20
-9.4924433841
 10
-22.2103559128
 20
-9.4933893124
 10
-22.1909522429
 20
-9.4943046301
 10
-22.1667515731
 20
-9.4951796399
 10
-22.1380102954
 20
-9.4960050715
 10
-22.1050329075
 20
-9.4967721801
 10
-22.0278084852
 20
-9.4980996237
  0
LWPOLYLINE
  5
265
100
AcDbEntity
  8
RACCORDO
100
AcDbPolyline
 62
253
  6
CONTINUOUS
 90
12
 70
0
 10
-22.2764799709
 20
-21.5866513084
 10
-22.2754641326
 20
-21.5841111763
 10
-22.2744661856
 20
-21.5786660206
 10
-22.2734861298
 20
-21.5703158414
 10
-22.2725176243
 20
-21.5589761121
 10
-22.2715670101
 20
-21.5447313594
 10
-22.27065331
 20
-21.5278351628
 10
-22.2697777543
 20
-21.5082362811
 10
-22.2689391127
 20
-21.4859859557
 10
-22.2681527169
 20
-21.4614914897
 10
-22.267419671
 20
-21.4347145028
 10
-22.2661223366
 20
-21.3749505517
  0
LWPOLYLINE
  5
266
100
AcDbEntity
  8
0
100
AcDbPolyline
 62
7
  6
CONTINUOUS
 90
3
 70
0
 43
0.3500000006
 10
1.035714268
 20
31.1471586456
 10
0.9642857051
 20
30.9328696289
 10
0.8214285793
 20
30.647158493
  0
LINE
  5
267
100
AcDbEntity
  8
RACCORDO
100
AcDbLine
 62
253
  6
CONTINUOUS
 10
22.1380102829
 20
-9.4960050712
 11
22.0681687736
 21
-9.4974728381
  0
LINE
  5
268
100
AcDbEntity
  8
RACCORDO
100
AcDbLine
 62
253
  6
CONTINUOUS
 10
22.0681687736
 20
-9.4974728381
 11
21.9843795892
 21
-9.4986458946
  0
LINE
  5
269
100
AcDbEntity
  8
RACCORDO
100
AcDbLine
 62
253
  6
CONTINUOUS
 10
21.9843795892
 20
-9.4986458946
 11
21.8901841195
 21
-9.499474661
  0
LINE
  5
26A
100
AcDbEntity
  8
RACCORDO
100
AcDbLine
 62
253
  6
CONTINUOUS
 10
21.8901841195
 20
-9.499474661
 11
21.7381671644
 21
-9.4999999993
  0
LINE
  5
26B
100
AcDbEntity
  8
RACCORDO
100
AcDbLine
 62
253
  6
CONTINUOUS
 10
-21.8404154861
 20
-9.4997483763
 11
21.7381671644
 21
-9.5
  0
LINE
  5
26C
100
AcDbEntity
  8
RACCORDO
100
AcDbLine
 62
253
  6
CONTINUOUS
 10
-21.9383422333
 20
-9.4991058655
 11
-21.8404154861
 21
-9.4997483763
  0
LINE
  5
26D
100
AcDbEntity
  8
RACCORDO
100
AcDbLine
 62
253
  6
CONTINUOUS
 10
-22.0278084852
 20
-9.4980996237
 11
-21.9383422333
 21
-9.4991058655
  0
LWPOLYLINE
  5
26E
100
AcDbEntity
  8
SUPERFICI
100
AcDbPolyline
 62
7
  6
CONTINUOUS
 90
17
 70
0
 10
-4.5257251991
 20
0.154787685
 10
-4.5356704229
 20
0.1369480917
 10
-4.5443378352
 20
0.1185619254
 10
-4.5517551981
 20
0.0995321768
 10
-4.5578947494
 20
0.0799558552
 10
-4.5626732028
 20
0.060123989
 10
-4.566067522
 20
0.040039933
 10
-4.5681007433
 20
0.0197003325
 10
-4.568758689
 20
-0.0006138478
 10
-4.5680251137
 20
-0.0208944254
 10
-4.5659162628
 20
-0.0411495827
 10
-4.5624666942
 20
-0.0611229027
 10
-4.5576575102
 20
-0.0808198078
 10
-4.5515076086
 20
-0.1002348756
 10
-4.5441082407
 20
-0.1190954211
 10
-4.5354898237
 20
-0.1373105493
 10
-4.5256333315
 20
-0.1549507686
  0
LWPOLYLINE
  5
26F
100
AcDbEntity
  8
0
100
AcDbPolyline
 62
7
  6
CONTINUOUS
 90
2
 70
0
 43
0.3500000006
 10
-3.3928571262
 20
30.8614429779
 10
-3.3928571262
 20
32.3614434357
  0
LWPOLYLINE
  5
270
100
AcDbEntity
  8
SUPERFICI
100
AcDbPolyline
 62
7
  6
CONTINUOUS
 90
22
 70
0
 10
-2.1456156687
 20
-0.4478608303
 10
-2.1360422008
 20
-0.4144907914
 10
-2.1304627779
 20
-0.3801407644
 10
-2.1287758973
 20
-0.3459827525
 10
-2.1310206438
 20
-0.3120607597
 10
-2.1371579325
 20
-0.2783307824
 10
-2.1469690053
 20
-0.2458328128
 10
-2.1605856077
 20
-0.2145005412
 10
-2.1778759943
 20
-0.1844002778
 10
-2.1982261704
 20
-0.1567709444
 10
-2.2218188802
 20
-0.1317057079
 10
-2.2484713796
 20
-0.1091114019
 10
-2.2770214417
 20
-0.0899474482
 10
-2.3074731461
 20
-0.0744058956
 10
-2.3398224131
 20
-0.0622946956
 10
-2.3728947766
 20
-0.0539971247
 10
-2.4066672104
 20
-0.0495927269
 10
-2.4411627408
 20
-0.0490019582
 10
-2.4752759794
 20
-0.0523694633
 10
-2.5090309044
 20
-0.0597223462
 10
-2.5424035376
 20
-0.0710335028
 10
-2.574216557
 20
-0.0863662657
  0
LINE
  5
271
100
AcDbEntity
  8
SUPERFICI
100
AcDbLine
 62
7
  6
CONTINUOUS
 10
-4.5145021637
 20
0.1720807054
 11
-4.5257185929
 21
0.1547978642
  0
LINE
  5
272
100
AcDbEntity
  8
SUPERFICI
100
AcDbLine
 62
7
  6
CONTINUOUS
 10
-3.8563327272
 20
1.1120656354
 11
-4.5145021637
 21
0.1720807054
  0
LINE
  5
273
100
AcDbEntity
  8
0
100
AcDbLine
 62
7
  6
CONTINUOUS
 10
-4.5145021634
 20
0.1720807058
 11
-3.8563327375
 21
1.1120656206
  0
LINE
  5
274
100
AcDbEntity
  8
0
100
AcDbLine
 62
7
  6
CONTINUOUS
 10
-3.4551226581
 20
0.64
 11
-3.9032426661
 21
0.0000000001
  0
LINE
  5
275
100
AcDbEntity
  8
SUPERFICI
100
AcDbLine
 62
7
  6
CONTINUOUS
 10
-3.9032426661
 20
0.0000000001
 11
-3.4551226581
 21
0.64
  0
LWPOLYLINE
  5
276
100
AcDbEntity
  8
0
100
AcDbPolyline
 62
7
  6
CONTINUOUS
 90
19
 70
0
 10
-3.8563327375
 20
1.1120656206
 10
-3.847038249
 20
1.1246312996
 10
-3.8371570496
 20
1.1366392937
 10
-3.8266891391
 20
1.148089603
 10
-3.815612795
 20
1.1590035789
 10
-3.8039497399
 20
1.1693598702
 10
-3.791765142
 20
1.1790944229
 10
-3.7790301597
 20
1.1882228741
 10
-3.7657736346
 20
1.1967295868
 10
-3.7521472604
 20
1.2045035962
 10
-3.7382453464
 20
1.2115053428
 10
-3.7239735833
 20
1.2177743864
 10
-3.7092007368
 20
1.2233184414
 10
-3.6938540758
 20
1.2281909476
 10
-3.6780063314
 20
1.2323384653
 10
-3.661744462
 20
1.2356083898
 10
-3.6450974536
 20
1.2379498527
 10
-3.6280363202
 20
1.2394137225
 10
-3.6105610617
 20
1.2399999991
  0
LINE
  5
277
100
AcDbEntity
  8
SUPERFICI
100
AcDbLine
 62
7
  6
CONTINUOUS
 10
-3.847037611
 20
1.124632075
 11
-3.8563327272
 21
1.1120656354
  0
LINE
  5
278
100
AcDbEntity
  8
SUPERFICI
100
AcDbLine
 62
7
  6
CONTINUOUS
 10
-2.6591206091
 20
-0.1565575233
 11
-3.0624426713
 21
-0.6400000001
  0
LINE
  5
279
100
AcDbEntity
  8
0
100
AcDbLine
 62
7
  6
CONTINUOUS
 10
-3.0624426713
 20
-0.6400000001
 11
-2.6591206029
 21
-0.1565575159
  0
LWPOLYLINE
  5
27A
100
AcDbEntity
  8
0
100
AcDbPolyline
 62
7
  6
CONTINUOUS
 90
2
 70
0
 43
0.3500000006
 10
29.630000885
 20
-3.3928568802
 10
28.1300004272
 20
-3.3928568802
  0
LWPOLYLINE
  5
27B
100
AcDbEntity
  8
SUPERFICI
100
AcDbPolyline
 62
7
  6
CONTINUOUS
 90
17
 70
0
 10
-3.8352083471
 20
-1.1387985674
 10
-3.8238442906
 20
-1.1510007894
 10
-3.8118880905
 20
-1.162440212
 10
-3.7993938195
 20
-1.1731084607
 10
-3.7865236958
 20
-1.1829804119
 10
-3.7733076831
 20
-1.1920418596
 10
-3.7597158177
 20
-1.20030701
 10
-3.7458204269
 20
-1.2077933574
 10
-3.7316160526
 20
-1.2145067685
 10
-3.717108153
 20
-1.2204413768
 10
-3.7023854302
 20
-1.2255970775
 10
-3.6874469036
 20
-1.229980281
 10
-3.6722935539
 20
-1.233584577
 10
-3.6570170251
 20
-1.2363906304
 10
-3.6416478654
 20
-1.2383919962
 10
-3.6261555266
 20
-1.2395951194
 10
-3.6105400087
 20
-1.24
  0
LWPOLYLINE
  5
27C
100
AcDbEntity
  8
SUPERFICI
100
AcDbPolyline
 62
7
  6
CONTINUOUS
 90
3
 70
0
 10
-3.8563222477
 20
-1.112080601
 10
-3.8460343328
 20
-1.1258251713
 10
-3.8352102065
 20
-1.1387963392
  0
LINE
  5
27D
100
AcDbEntity
  8
SUPERFICI
100
AcDbLine
 62
7
  6
CONTINUOUS
 10
-4.5145045908
 20
-0.172077239
 11
-3.8563222477
 21
-1.112080601
  0
LINE
  5
27E
100
AcDbEntity
  8
0
100
AcDbLine
 62
7
  6
CONTINUOUS
 10
-3.8563222464
 20
-1.1120806028
 11
-4.5145045917
 21
-0.1720772378
  0
LINE
  5
27F
100
AcDbEntity
  8
0
100
AcDbLine
 62
7
  6
CONTINUOUS
 10
-3.9032426661
 20
0.0000000001
 11
-3.4551226581
 21
-0.6400000001
  0
LINE
  5
280
100
AcDbEntity
  8
SUPERFICI
100
AcDbLine
 62
7
  6
CONTINUOUS
 10
-3.4551226581
 20
-0.6400000001
 11
-3.9032426661
 21
0.0000000001
  0
LINE
  5
281
100
AcDbEntity
  8
SUPERFICI
100
AcDbLine
 62
7
  6
CONTINUOUS
 10
-4.5256333315
 20
-0.1549507686
 11
-4.5145045908
 21
-0.172077239
  0
LWPOLYLINE
  5
282
100
AcDbEntity
  8
0
100
AcDbPolyline
 62
7
  6
CONTINUOUS
 90
19
 70
0
 10
-4.5145045917
 20
-0.1720772378
 10
-4.5256498852
 20
-0.1549252935
 10
-4.5355390924
 20
-0.1372152477
 10
-4.5441722134
 20
-0.1189471006
 10
-4.5515801324
 20
-0.1000255514
 10
-4.5577319651
 20
-0.0805459009
 10
-4.5625350588
 20
-0.0607940507
 10
-4.5659676639
 20
-0.0407774366
 10
-4.56805153
 20
-0.0204886229
 10
-4.5687592533
 20
-0.0001912044
 10
-4.5680740932
 20
0.0201194408
 10
-4.5660127903
 20
0.0404386908
 10
-4.5625981627
 20
0.0604890848
 10
-4.557809448
 20
0.0802710932
 10
-4.5516674086
 20
0.0997842456
 10
-4.5442571499
 20
0.1187496702
 10
-4.5356070404
 20
0.1370744099
 10
-4.5256887115
 20
0.1548514217
 10
-4.5145021634
 20
0.1720807058
  0
LWPOLYLINE
  5
283
100
AcDbEntity
  8
0
100
AcDbPolyline
 62
7
  6
CONTINUOUS
 90
2
 70
0
 43
0.3500000006
 10
-1.035714268
 20
30.8614429779
 10
-1.035714268
 20
32.3614434357
  0
LWPOLYLINE
  5
284
100
AcDbEntity
  8
SUPERFICI
100
AcDbPolyline
 62
7
  6
CONTINUOUS
 90
31
 70
0
 10
0.2074916703
 20
0.79838281
 10
0.279914048
 20
0.9431447175
 10
0.3522782452
 20
1.0648900717
 10
0.4330686717
 20
1.180730803
 10
0.5229014879
 20
1.2913506641
 10
0.6211605334
 20
1.3960659087
 10
0.7259973273
 20
1.4928252944
 10
0.83734675
 20
1.5813083349
 10
0.955273921
 20
1.6618355368
 10
1.0781257179
 20
1.7333171532
 10
1.2061696286
 20
1.7956932974
 10
1.3391381651
 20
1.8490238788
 10
1.4745757412
 20
1.8923988465
 10
1.612232596
 20
1.9255956392
 10
1.7523584903
 20
1.948836835
 10
1.8932471203
 20
1.9618800914
 10
2.0352239274
 20
1.9645876604
 10
2.1779634701
 20
1.9570972937
 10
2.3187831201
 20
1.9395798943
 10
2.4572909243
 20
1.9119615946
 10
2.5938788357
 20
1.8743162518
 10
2.7270400847
 20
1.827036353
 10
2.8571218579
 20
1.7698131176
 10
2.9837769686
 20
1.7029553052
 10
3.1044570869
 20
1.6277817136
 10
3.2187078078
 20
1.5444128488
 10
3.3269835363
 20
1.4527281833
 10
3.4280991571
 20
1.3536849677
 10
3.5222699333
 20
1.2468043753
 10
3.6092806019
 20
1.1325652167
 10
3.6873002581
 20
1.0133612054
  0
LWPOLYLINE
  5
285
100
AcDbEntity
  8
0
100
AcDbPolyline
 62
7
  6
CONTINUOUS
 90
18
 70
0
 10
0.2074758894
 20
0.7983509819
 10
0.1979863235
 20
0.7818954448
 10
0.1875073752
 20
0.7661281113
 10
0.1759846027
 20
0.7509855156
 10
0.1634724477
 20
0.7365311236
 10
0.1501342354
 20
0.7229553332
 10
0.1359672606
 20
0.7102773026
 10
0.1209742285
 20
0.6984778737
 10
0.1053265799
 20
0.6876899708
 10
0.0890138747
 20
0.6779222936
 10
0.0720465531
 20
0.6691661425
 10
0.0546273762
 20
0.6615283421
 10
0.0367498371
 20
0.655022299
 10
0.0184204428
 20
0.6496346067
 10
-0.0001385242
 20
0.6454318702
 10
-0.0188529699
 20
0.642436291
 10
-0.0377969883
 20
0.6406256676
 10
-0.0569705794
 20
0.64
  0
LINE
  5
286
100
AcDbEntity
  8
SUPERFICI
100
AcDbLine
 62
7
  6
CONTINUOUS
 10
-0.147751572
 20
1.3958589672
 11
-0.2415826664
 21
1.2399999991
  0
LWPOLYLINE
  5
287
100
AcDbEntity
  8
0
100
AcDbPolyline
 62
7
  6
CONTINUOUS
 90
47
 70
0
 10
-0.2415826664
 20
1.2399999991
 10
-0.1477515087
 20
1.3958590723
 10
-0.0448257893
 20
1.5431606278
 10
0.0671944919
 20
1.681904675
 10
0.1891558059
 20
1.8126760416
 10
0.3202116816
 20
1.9348899256
 10
0.4578227062
 20
2.0467918995
 10
0.6016157746
 20
2.1479605458
 10
0.7519639918
 20
2.2388173267
 10
0.9074472598
 20
2.3188721417
 10
1.0685388609
 20
2.3882497465
 10
1.2347655128
 20
2.4468254264
 10
1.4032872712
 20
2.4937348755
 10
1.5736427768
 20
2.528745533
 10
1.746293389
 20
2.5520899878
 10
1.9197832408
 20
2.5636016542
 10
2.0947586076
 20
2.5631417955
 10
2.270573214
 20
2.5508491525
 10
2.4438323675
 20
2.5269733505
 10
2.6138555454
 20
2.4914608763
 10
2.7813232704
 20
2.4443652225
 10
2.9448824176
 20
2.386096519
 10
3.105051713
 20
2.3162996115
 10
3.2613124307
 20
2.2353296152
 10
3.4107552682
 20
2.1446620636
 10
3.5527960536
 20
2.0445049993
 10
3.6880189588
 20
1.9346503396
 10
3.8152671975
 20
1.815949435
 10
3.9348711201
 20
1.6878703987
 10
4.0465003762
 20
1.5509450843
 10
4.148007128
 20
1.4076204639
 10
4.2389756409
 20
1.2581910572
 10
4.3198216495
 20
1.1023623386
 10
4.3896445199
 20
0.9416977266
 10
4.448451182
 20
0.7757635859
 10
4.496234706
 20
0.6049935682
 10
4.5320736686
 20
0.4322520341
 10
4.5557048204
 20
0.2576769755
 10
4.5673914108
 20
0.0811304388
 10
4.5670017651
 20
-0.0949371269
 10
4.5543852497
 20
-0.2704966431
 10
4.5296924982
 20
-0.4455771451
 10
4.4932437366
 20
-0.6178153561
 10
4.4447657954
 20
-0.7873559
 10
4.3845318441
 20
-0.9540541201
 10
4.3136816176
 20
-1.1151128285
 10
4.2322613542
 20
-1.2700921005
  0
LWPOLYLINE
  5
288
100
AcDbEntity
  8
SUPERFICI
100
AcDbPolyline
 62
7
  6
CONTINUOUS
 90
4
 70
0
 10
-2.1984018455
 20
-0.5409190153
 10
-2.1768124082
 20
-0.5108796083
 10
-2.1592170159
 20
-0.4798602133
 10
-2.1456156879
 20
-0.4478608755
  0
LWPOLYLINE
  5
289
100
AcDbEntity
  8
SUPERFICI
100
AcDbPolyline
 62
7
  6
CONTINUOUS
 90
31
 70
0
 10
-0.7658818806
 20
-0.5409190514
 10
-0.7463492742
 20
-0.5142823349
 10
-0.730023306
 20
-0.4866894896
 10
-0.7169039762
 20
-0.4581405154
 10
-0.7070021377
 20
-0.4282990865
 10
-0.7003069375
 20
-0.3975015285
 10
-0.6967858168
 20
-0.3667568191
 10
-0.6964551425
 20
-0.3362214702
 10
-0.6992985478
 20
-0.3057389702
 10
-0.7052343732
 20
-0.2758487609
 10
-0.7143709356
 20
-0.2463558663
 10
-0.7265999182
 20
-0.2174552627
 10
-0.7415147101
 20
-0.1902713213
 10
-0.759168561
 20
-0.1649533621
 10
-0.7795082213
 20
-0.1413520655
 10
-0.8019673312
 20
-0.1201438436
 10
-0.8266929942
 20
-0.1013577885
 10
-0.8535381068
 20
-0.0849648084
 10
-0.8814949984
 20
-0.0715540401
 10
-0.9105041484
 20
-0.0612702401
 10
-0.9406250773
 20
-0.053968652
 10
-0.9710286763
 20
-0.0498041426
 10
-1.0016857695
 20
-0.0487998714
 10
-1.0326255328
 20
-0.0509326789
 10
-1.0631063853
 20
-0.0562879537
 10
-1.0931873633
 20
-0.0648831149
 10
-1.1228094304
 20
-0.0767007433
 10
-1.1510538966
 20
-0.0917739713
 10
-1.177614532
 20
-0.1101138428
 10
-1.2027975666
 20
-0.1317093135
 10
-1.2266030002
 20
-0.1565603835
  0
LWPOLYLINE
  5
28A
100
AcDbEntity
  8
SUPERFICI
100
AcDbPolyline
 62
7
  6
CONTINUOUS
 90
26
 70
0
 10
-1.7198622834
 20
-0.7478195255
 10
-1.7393952125
 20
-0.7744564316
 10
-1.7557214497
 20
-0.8020494319
 10
-1.768840995
 20
-0.8305985259
 10
-1.7787429819
 20
-0.8604400258
 10
-1.7854382769
 20
-0.8912376186
 10
-1.7889594794
 20
-0.9219823669
 10
-1.7892902366
 20
-0.9525177708
 10
-1.7864469013
 20
-0.9830003299
 10
-1.7805111313
 20
-1.0128906066
 10
-1.7713746089
 20
-1.0423835833
 10
-1.7591456517
 20
-1.0712842777
 10
-1.7442308703
 20
-1.098468306
 10
-1.7265770093
 20
-1.1237863491
 10
-1.7062373241
 20
-1.1473877272
 10
-1.6837781911
 20
-1.1685960149
 10
-1.6590525143
 20
-1.1873821139
 10
-1.6322073898
 20
-1.2037751239
 10
-1.6042504818
 20
-1.2171859169
 10
-1.5752413051
 20
-1.2274697398
 10
-1.545120345
 20
-1.2347713469
 10
-1.514716721
 20
-1.2389358707
 10
-1.484059615
 20
-1.2399401509
 10
-1.4531198452
 20
-1.2378073481
 10
-1.4226389853
 20
-1.2324520762
 10
-1.3925579896
 20
-1.2238569107
  0
LINE
  5
28B
100
AcDbEntity
  8
0
100
AcDbLine
 62
7
  6
CONTINUOUS
 10
-2.1984018459
 20
-0.5409190157
 11
-2.691663564
 21
-1.1321810763
  0
LINE
  5
28C
100
AcDbEntity
  8
SUPERFICI
100
AcDbLine
 62
7
  6
CONTINUOUS
 10
-2.6916636013
 20
-1.132181121
 11
-2.1984018455
 21
-0.5409190153
  0
LINE
  5
28D
100
AcDbEntity
  8
SUPERFICI
100
AcDbLine
 62
7
  6
CONTINUOUS
 10
-1.2266030002
 20
-0.1565603835
 11
-1.7198622834
 21
-0.7478195255
  0
LINE
  5
28E
100
AcDbEntity
  8
0
100
AcDbLine
 62
7
  6
CONTINUOUS
 10
-1.7198630194
 20
-0.7478204078
 11
-1.226602994
 21
-0.156560376
  0
LINE
  5
28F
100
AcDbEntity
  8
0
100
AcDbLine
 62
7
  6
CONTINUOUS
 10
-0.765881881
 20
-0.5409190518
 11
-1.259142573
 21
-1.1321798824
  0
LINE
  5
290
100
AcDbEntity
  8
SUPERFICI
100
AcDbLine
 62
7
  6
CONTINUOUS
 10
-1.2591424864
 20
-1.1321797786
 11
-0.7658818806
 21
-0.5409190514
  0
LWPOLYLINE
  5
291
100
AcDbEntity
  8
0
100
AcDbPolyline
 62
7
  6
CONTINUOUS
 90
10
 70
0
 10
-2.691663564
 20
-1.1321810763
 10
-2.7113042164
 20
-1.1535528177
 10
-2.7326254764
 20
-1.1726976774
 10
-2.7556273439
 20
-1.1896156559
 10
-2.7805656369
 20
-1.2044682
 10
-2.8071845375
 20
-1.2170938639
 10
-2.8347165922
 20
-1.2270083094
 10
-2.8629059834
 20
-1.2340500906
 10
-2.8920085289
 20
-1.2383806541
 10
-2.9220242285
 20
-1.24
  0
LWPOLYLINE
  5
292
100
AcDbEntity
  8
0
100
AcDbPolyline
 62
7
  6
CONTINUOUS
 90
31
 70
0
 10
-1.226602994
 20
-0.156560376
 10
-1.2027975599
 20
-0.1317093072
 10
-1.1776145251
 20
-0.1101138375
 10
-1.1510538895
 20
-0.091773967
 10
-1.1228094232
 20
-0.07670074
 10
-1.0931873561
 20
-0.0648831124
 10
-1.0631063783
 20
-0.0562879521
 10
-1.032625526
 20
-0.050932678
 10
-1.001685763
 20
-0.0487998712
 10
-0.9710286701
 20
-0.0498041431
 10
-0.9406250714
 20
-0.0539686531
 10
-0.9105041428
 20
-0.0612702418
 10
-0.8814949933
 20
-0.0715540422
 10
-0.8535381022
 20
-0.0849648109
 10
-0.8266929901
 20
-0.1013577913
 10
-0.8019673276
 20
-0.1201438466
 10
-0.7795082183
 20
-0.1413520686
 10
-0.7591685585
 20
-0.1649533653
 10
-0.741514708
 20
-0.1902713246
 10
-0.7265999166
 20
-0.2174552658
 10
-0.7143709345
 20
-0.2463558693
 10
-0.7052343724
 20
-0.2758487638
 10
-0.6992985474
 20
-0.3057389728
 10
-0.6964551424
 20
-0.3362214726
 10
-0.6967858169
 20
-0.3667568212
 10
-0.7003069378
 20
-0.3975015304
 10
-0.7070021381
 20
-0.428299088
 10
-0.7169039767
 20
-0.4581405167
 10
-0.7300233065
 20
-0.4866894906
 10
-0.7463492746
 20
-0.5142823356
 10
-0.765881881
 20
-0.5409190518
  0
LWPOLYLINE
  5
293
100
AcDbEntity
  8
0
100
AcDbPolyline
 62
7
  6
CONTINUOUS
 90
31
 70
0
 10
-1.259142573
 20
-1.1321798824
 10
-1.2829479112
 20
-1.1570308514
 10
-1.308130867
 20
-1.1786262428
 10
-1.3346914406
 20
-1.1969660576
 10
-1.3629358679
 20
-1.2120392587
 10
-1.3925579128
 20
-1.2238568848
 10
-1.4226388678
 20
-1.2324520493
 10
-1.4531196876
 20
-1.2378073286
 10
-1.4840594175
 20
-1.239940147
 10
-1.5147164853
 20
-1.2389358906
 10
-1.5451200716
 20
-1.2347713993
 10
-1.575240996
 20
-1.2274698329
 10
-1.6042501449
 20
-1.2171860563
 10
-1.6322070354
 20
-1.2037753152
 10
-1.6590521505
 20
-1.1873823628
 10
-1.6837778261
 20
-1.168596325
 10
-1.7062369653
 20
-1.1473881035
 10
-1.726576665
 20
-1.1237867952
 10
-1.7442305516
 20
-1.0984688184
 10
-1.7591453719
 20
-1.0712848508
 10
-1.7713743791
 20
-1.0423842135
 10
-1.7805109598
 20
-1.0128912909
 10
-1.7864467952
 20
-0.9830010669
 10
-1.789290204
 20
-0.9525185575
 10
-1.7889595293
 20
-0.921983195
 10
-1.7854384182
 20
-0.8912384783
 10
-1.7787432234
 20
-0.8604409087
 10
-1.7688413461
 20
-0.8305994228
 10
-1.7557219198
 20
-0.8020503332
 10
-1.7393958109
 20
-0.7744573281
 10
-1.7198630194
 20
-0.7478204078
  0
LWPOLYLINE
  5
294
100
AcDbEntity
  8
0
100
AcDbPolyline
 62
7
  6
CONTINUOUS
 90
28
 70
0
 10
-2.6591206029
 20
-0.1565575159
 10
-2.63237893
 20
-0.1291388679
 10
-2.6040776281
 20
-0.1057418103
 10
-2.5742166971
 20
-0.0863663433
 10
-2.5424036941
 20
-0.0710335723
 10
-2.509031062
 20
-0.059722392
 10
-2.4752761301
 20
-0.052369487
 10
-2.4411628756
 20
-0.0490019662
 10
-2.4066673214
 20
-0.0495927206
 10
-2.3728948652
 20
-0.0539971079
 10
-2.3398224842
 20
-0.0622946733
 10
-2.3074732013
 20
-0.0744058714
 10
-2.2770214832
 20
-0.0899474239
 10
-2.2484714103
 20
-0.109111378
 10
-2.2218189021
 20
-0.1317056862
 10
-2.1982261845
 20
-0.1567709275
 10
-2.1778760005
 20
-0.1844002685
 10
-2.160585607
 20
-0.2145005421
 10
-2.1469690002
 20
-0.2458328267
 10
-2.137157926
 20
-0.2783308142
 10
-2.1310206385
 20
-0.3120608122
 10
-2.1287758966
 20
-0.3459828226
 10
-2.1304627894
 20
-0.3801408509
 10
-2.1360422277
 20
-0.4144908914
 10
-2.1456157034
 20
-0.4478609295
 10
-2.1592170469
 20
-0.4798602938
 10
-2.1768124277
 20
-0.5108796558
 10
-2.1984018459
 20
-0.5409190157
  0
LINE
  5
295
100
AcDbEntity
  8
0
100
AcDbLine
 62
253
  6
CONTINUOUS
 10
-22.3014422353
 20
-21.6116135728
 11
-22.2764799709
 21
-21.5866513084
  0
LINE
  5
296
100
AcDbEntity
  8
0
100
AcDbLine
 62
253
  6
CONTINUOUS
 10
21.8016135728
 20
22.1114422353
 11
21.7766513084
 21
22.0864799709
  0
LINE
  5
297
100
AcDbEntity
  8
0
100
AcDbLine
 62
253
  6
CONTINUOUS
 10
-21.8016135728
 20
-22.1114422353
 11
-21.7766513084
 21
-22.0864799709
  0
LWPOLYLINE
  5
298
100
AcDbEntity
  8
SUPERFICI
100
AcDbPolyline
 62
7
  6
CONTINUOUS
 90
4
 70
0
 10
-2.5742166177
 20
-0.086366305
 10
-2.6040775216
 20
-0.1057417456
 10
-2.6323788723
 20
-0.1291388315
 10
-2.6591206091
 20
-0.1565575233
  0
LWPOLYLINE
  5
299
100
AcDbEntity
  8
SUPERFICI
100
AcDbPolyline
 62
7
  6
CONTINUOUS
 90
6
 70
0
 10
-2.8071844761
 20
-1.2170938397
 10
-2.7805655855
 20
-1.2044681717
 10
-2.7556273079
 20
-1.1896156318
 10
-2.7326254595
 20
-1.172697668
 10
-2.7113042239
 20
-1.1535528312
 10
-2.6916636013
 20
-1.132181121
  0
LINE
  5
29A
100
AcDbEntity
  8
SUPERFICI
100
AcDbLine
 62
7
  6
CONTINUOUS
 10
-2.8347165305
 20
-1.2270082906
 11
-2.8071844761
 21
-1.2170938397
  0
LWPOLYLINE
  5
29B
100
AcDbEntity
  8
SUPERFICI
100
AcDbPolyline
 62
7
  6
CONTINUOUS
 90
4
 70
0
 10
-2.9220242285
 20
-1.24
 10
-2.8920084986
 20
-1.2383806464
 10
-2.8629059326
 20
-1.2340500766
 10
-2.834716562
 20
-1.2270082985
  0
LINE
  5
29C
100
AcDbEntity
  8
SUPERFICI
100
AcDbLine
 62
7
  6
CONTINUOUS
 10
-2.9220244101
 20
-1.24
 11
-3.6105400409
 21
-1.24
  0
LINE
  5
29D
100
AcDbEntity
  8
0
100
AcDbLine
 62
7
  6
CONTINUOUS
 10
-2.9220244101
 20
-1.24
 11
-3.6105400409
 21
-1.24
  0
LWPOLYLINE
  5
29E
100
AcDbEntity
  8
0
100
AcDbPolyline
 62
7
  6
CONTINUOUS
 90
2
 70
0
 43
0.3500000006
 10
29.630000885
 20
-1.0357139511
 10
28.1300004272
 20
-1.0357139511
  0
LINE
  5
29F
100
AcDbEntity
  8
SUPERFICI
100
AcDbLine
 62
7
  6
CONTINUOUS
 10
-3.0624426713
 20
-0.6400000001
 11
-3.4551226581
 21
-0.6400000001
  0
LINE
  5
2A0
100
AcDbEntity
  8
0
100
AcDbLine
 62
7
  6
CONTINUOUS
 10
-3.0624426713
 20
-0.6400000001
 11
-3.4551226581
 21
-0.6400000001
  0
LWPOLYLINE
  5
2A1
100
AcDbEntity
  8
0
100
AcDbPolyline
 62
7
  6
CONTINUOUS
 90
19
 70
0
 10
-3.6105445733
 20
-1.24
 10
-3.6261689535
 20
-1.239594446
 10
-3.6416701072
 20
-1.2383896973
 10
-3.6570480345
 20
-1.2363857541
 10
-3.6723337822
 20
-1.2335759708
 10
-3.6874963036
 20
-1.2299669929
 10
-3.7024424576
 20
-1.2255787563
 10
-3.7171708015
 20
-1.2204176279
 10
-3.7316827781
 20
-1.2144772407
 10
-3.7458895749
 20
-1.2077584301
 10
-3.7597859833
 20
-1.2002666942
 10
-3.7733772118
 20
-1.1919965348
 10
-3.7865900736
 20
-1.1829322928
 10
-3.7994539849
 20
-1.1730598293
 10
-3.8119395295
 20
-1.1623932831
 10
-3.8238852715
 20
-1.1509594117
 10
-3.835237399
 20
-1.1387671342
 10
-3.846049724
 20
-1.1258075313
 10
-3.8563222464
 20
-1.1120806028
  0
LINE
  5
2A2
100
AcDbEntity
  8
0
100
AcDbLine
 62
253
  6
CONTINUOUS
 10
-22.2764799709
 20
21.5866513084
 11
-22.3014422353
 21
21.6116135728
  0
LINE
  5
2A3
100
AcDbEntity
  8
0
100
AcDbLine
 62
253
  6
CONTINUOUS
 10
21.7766513084
 20
-22.0864799709
 11
21.8016135728
 21
-22.1114422353
  0
LINE
  5
2A4
100
AcDbEntity
  8
0
100
AcDbLine
 62
253
  6
CONTINUOUS
 10
-21.7766513084
 20
22.0864799709
 11
-21.8016135728
 21
22.1114422353
  0
LWPOLYLINE
  5
2A5
100
AcDbEntity
  8
SUPERFICI
100
AcDbPolyline
 62
7
  6
CONTINUOUS
 90
26
 70
0
 10
0.1982384933
 20
-0.7830331545
 10
0.1778896571
 20
-0.7537469945
 10
0.1549288176
 20
-0.7276371134
 10
0.1289890368
 20
-0.7045648874
 10
0.1004372527
 20
-0.6846689418
 10
0.0703742795
 20
-0.6683651513
 10
0.0388232455
 20
-0.6557078971
 10
0.0057610225
 20
-0.6466427989
 10
-0.0277809601
 20
-0.641422589
 10
-0.0619199797
 20
-0.6401372827
 10
-0.0965387587
 20
-0.6426968649
 10
-0.1302540359
 20
-0.6490840228
 10
-0.1630605331
 20
-0.6595037941
 10
-0.1949635283
 20
-0.6737511407
 10
-0.2245955943
 20
-0.6911936354
 10
-0.2517855107
 20
-0.71191803
 10
-0.2767044978
 20
-0.7358375717
 10
-0.2984987887
 20
-0.7620595774
 10
-0.3170867703
 20
-0.790597552
 10
-0.3325500557
 20
-0.8214379893
 10
-0.3442797177
 20
-0.8536476899
 10
-0.3522617194
 20
-0.8872613788
 10
-0.3565100978
 20
-0.9222443298
 10
-0.3564580359
 20
-0.9575591672
 10
-0.3519165949
 20
-0.9928600991
 10
-0.3430747138
 20
-1.0284929168
  0
LINE
  5
2A6
100
AcDbEntity
  8
SUPERFICI
100
AcDbLine
 62
7
  6
CONTINUOUS
 10
0.2159753262
 20
-0.8154955925
 11
0.198238594
 21
-0.7830333389
  0
LWPOLYLINE
  5
2A7
100
AcDbEntity
  8
SUPERFICI
100
AcDbPolyline
 62
7
  6
CONTINUOUS
 90
32
 70
0
 10
-0.3299323924
 20
-1.06445762
 10
-0.2477736409
 20
-1.2279002036
 10
-0.1559211676
 20
-1.3833267673
 10
-0.0543749722
 20
-1.5307373156
 10
0.057650916
 20
-1.6707390044
 10
0.1793705261
 20
-1.802724695
 10
0.3084259454
 20
-1.9248729588
 10
0.4445127456
 20
-2.0367798703
 10
0.587935355
 20
-2.1388493958
 10
0.7372491457
 20
-2.2304719524
 10
0.8928599047
 20
-2.3117881895
 10
1.054361845
 20
-2.3826575004
 10
1.2190929778
 20
-2.4420484204
 10
1.386682638
 20
-2.4897173395
 10
1.5575014907
 20
-2.5259079026
 10
1.7299995427
 20
-2.5503195256
 10
1.9047841533
 20
-2.5628511471
 10
2.0812479631
 20
-2.5636038417
 10
2.2560189008
 20
-2.5525802245
 10
2.4284560715
 20
-2.5296644073
 10
2.5992003701
 20
-2.4949722661
 10
2.7668024096
 20
-2.4488540555
 10
2.9317638255
 20
-2.391010352
 10
3.0935829822
 20
-2.3217405454
 10
3.2493055858
 20
-2.2422931089
 10
3.3983588126
 20
-2.1528149994
 10
3.5413154863
 20
-2.0531592191
 10
3.6769397847
 20
-1.9441333121
 10
3.8055807304
 20
-1.8252553352
 10
3.9268893007
 20
-1.697007193
 10
4.0385826059
 20
-1.5616422113
 10
4.14023335
 20
-1.4194190221
  0
LINE
  5
2A8
100
AcDbEntity
  8
SUPERFICI
100
AcDbLine
 62
7
  6
CONTINUOUS
 10
0.279703876
 20
-0.9427775554
 11
0.2159753262
 21
-0.8154955925
  0
LWPOLYLINE
  5
2A9
100
AcDbEntity
  8
0
100
AcDbPolyline
 62
7
  6
CONTINUOUS
 90
45
 70
0
 10
0.2159753364
 20
-0.8154956071
 10
0.2797038731
 20
-0.9427775496
 10
0.3518260764
 20
-1.064202465
 10
0.4323419463
 20
-1.1797703547
 10
0.521874779
 20
-1.2901699278
 10
0.6198012783
 20
-1.3947124815
 10
0.7242515557
 20
-1.4913319051
 10
0.8351139532
 20
-1.5796840778
 10
0.9525001287
 20
-1.6601131404
 10
1.0748751674
 20
-1.7315853799
 10
1.2025552576
 20
-1.7940763997
 10
1.335224211
 20
-1.8476106189
 10
1.4703985479
 20
-1.8912275491
 10
1.6078065886
 20
-1.9246961445
 10
1.7477200128
 20
-1.9482474679
 10
1.8884703804
 20
-1.9616141924
 10
2.0304271915
 20
-1.9646499961
 10
2.173220946
 20
-1.9575012048
 10
2.3140747036
 20
-1.9403394601
 10
2.4525409054
 20
-1.9130979514
 10
2.5890671102
 20
-1.875843479
 10
2.7222190543
 20
-1.8289480986
 10
2.8523693428
 20
-1.772103125
 10
2.9791453705
 20
-1.7056172225
 10
3.0999950578
 20
-1.6307884717
 10
3.2144617533
 20
-1.5477483253
 10
3.3230021083
 20
-1.456365309
 10
3.4244339976
 20
-1.3575431163
 10
3.5189953059
 20
-1.2507722632
 10
3.6064481485
 20
-1.136562217
 10
3.6848967464
 20
-1.017345105
 10
3.7539174639
 20
-0.8934830014
 10
3.8139339367
 20
-0.7646138319
 10
3.8643212928
 20
-0.6320835083
 10
3.9050838152
 20
-0.4953501478
 10
3.936217221
 20
-0.3549556451
 10
3.9570837894
 20
-0.2138715839
 10
3.9674643519
 20
-0.0726138363
 10
3.967578077
 20
0.0693334475
 10
3.9574447496
 20
0.2105462638
 10
3.9368560024
 20
0.351519922
 10
3.9060202027
 20
0.4917590906
 10
3.8655822382
 20
0.6283538067
 10
3.8155533537
 20
0.7607742083
 10
3.7559223045
 20
0.8895501456
  0
LINE
  5
2AA
100
AcDbEntity
  8
SUPERFICI
100
AcDbLine
 62
7
  6
CONTINUOUS
 10
-0.3430747138
 20
-1.0284929168
 11
-0.3299323924
 21
-1.06445762
  0
LWPOLYLINE
  5
2AB
100
AcDbEntity
  8
0
100
AcDbPolyline
 62
7
  6
CONTINUOUS
 90
28
 70
0
 10
-0.3299436076
 20
-1.064433034
 10
-0.3430822641
 20
-1.0284689487
 10
-0.3519208386
 20
-0.9928369431
 10
-0.3564593311
 20
-0.9575370175
 10
-0.3565088243
 20
-0.9222234098
 10
-0.3522582356
 20
-0.8872418827
 10
-0.3442743172
 20
-0.8536297239
 10
-0.3325430227
 20
-0.82142166
 10
-0.3170783985
 20
-0.7905829657
 10
-0.2984893364
 20
-0.7620467513
 10
-0.2766942065
 20
-0.735826514
 10
-0.2517746387
 20
-0.7119087579
 10
-0.2245844135
 20
-0.6911861045
 10
-0.194952339
 20
-0.673745326
 10
-0.1630496073
 20
-0.6594996513
 10
-0.1302435751
 20
-0.649081387
 10
-0.0965289893
 20
-0.6426955466
 10
-0.061911103
 20
-0.6401371171
 10
-0.0277730328
 20
-0.6414233653
 10
0.0057679682
 20
-0.6466442879
 10
0.0388291531
 20
-0.655709888
 10
0.0703791649
 20
-0.6683674414
 10
0.1004411268
 20
-0.6846713253
 10
0.1289919156
 20
-0.7045671618
 10
0.1549308036
 20
-0.7276390945
 10
0.1778908819
 20
-0.7537485042
 10
0.1982390595
 20
-0.7830340087
 10
0.2159753364
 20
-0.8154956071
  0
LINE
  5
2AC
100
AcDbEntity
  8
0
100
AcDbLine
 62
253
  6
CONTINUOUS
 10
22.3014422353
 20
21.6116135728
 11
22.2764799709
 21
21.5866513084
  0
LWPOLYLINE
  5
2AD
100
AcDbEntity
  8
SUPERFICI
100
AcDbPolyline
 62
7
  6
CONTINUOUS
 90
6
 70
0
 10
-1.3925579538
 20
-1.2238568965
 10
-1.3629359038
 20
-1.2120392756
 10
-1.3346914394
 20
-1.1969660568
 10
-1.3081308336
 20
-1.1786262161
 10
-1.2829478493
 20
-1.1570307903
 10
-1.2591424864
 20
-1.1321797786
  0
LWPOLYLINE
  5
2AE
100
AcDbEntity
  8
SUPERFICI
100
AcDbPolyline
 62
7
  6
CONTINUOUS
 90
16
 70
0
 10
-3.6450968628
 20
1.2379499034
 10
-3.6617311087
 20
1.2356107092
 10
-3.6779903711
 20
1.2323420969
 10
-3.6938364226
 20
1.2281960895
 10
-3.7091822561
 20
1.2233248647
 10
-3.7239553257
 20
1.2177817296
 10
-3.7382281775
 20
1.2115133769
 10
-3.752131443
 20
1.2045120623
 10
-3.7657592744
 20
1.1967382463
 10
-3.7790175195
 20
1.1882314684
 10
-3.7917543535
 20
1.1791026024
 10
-3.8039409958
 20
1.1693671866
 10
-3.8156062268
 20
1.1590096826
 10
-3.8266845638
 20
1.1480943496
 10
-3.837154179
 20
1.1366426074
 10
-3.8470369001
 20
1.124633036
  0
LWPOLYLINE
  5
2AF
100
AcDbEntity
  8
SUPERFICI
100
AcDbPolyline
 62
7
  6
CONTINUOUS
 90
17
 70
0
 10
-0.0377113977
 20
0.6406331769
 10
-0.0186849569
 20
0.6424594705
 10
0.000103869
 20
0.6454788808
 10
0.0187325347
 20
0.6497167531
 10
0.0371235857
 20
0.655147742
 10
0.0550446583
 20
0.6616958114
 10
0.0724852818
 20
0.669374667
 10
0.089455927
 20
0.678170603
 10
0.1057556427
 20
0.687966465
 10
0.1213707993
 20
0.6987682622
 10
0.1363150265
 20
0.7105699852
 10
0.1504282626
 20
0.723236452
 10
0.1637075486
 20
0.736782963
 10
0.1761558435
 20
0.7511942174
 10
0.1876219626
 20
0.7662891308
 10
0.1980555109
 20
0.7820073414
 10
0.2074916703
 20
0.79838281
  0
LWPOLYLINE
  5
2B0
100
AcDbEntity
  8
SUPERFICI
100
AcDbPolyline
 62
7
  6
CONTINUOUS
 90
3
 70
0
 10
-3.6105610616
 20
1.2399999991
 10
-3.628030955
 20
1.2394142974
 10
-3.6450876374
 20
1.2379512007
  0
LINE
  5
2B1
100
AcDbEntity
  8
SUPERFICI
100
AcDbLine
 62
7
  6
CONTINUOUS
 10
-0.0569754532
 20
0.64
 11
-0.0377221015
 21
0.6406328251
  0
LINE
  5
2B2
100
AcDbEntity
  8
SUPERFICI
100
AcDbLine
 62
7
  6
CONTINUOUS
 10
-0.0569755496
 20
0.64
 11
-3.4551226581
 21
0.64
  0
LINE
  5
2B3
100
AcDbEntity
  8
0
100
AcDbLine
 62
7
  6
CONTINUOUS
 10
-0.0569755496
 20
0.64
 11
-3.4551226581
 21
0.64
  0
LINE
  5
2B4
100
AcDbEntity
  8
SUPERFICI
100
AcDbLine
 62
7
  6
CONTINUOUS
 10
-0.2415826664
 20
1.2399999991
 11
-3.6105609061
 21
1.2399999991
  0
LINE
  5
2B5
100
AcDbEntity
  8
0
100
AcDbLine
 62
7
  6
CONTINUOUS
 10
-0.2415826664
 20
1.2399999991
 11
-3.6105609061
 21
1.2399999991
  0
LINE
  5
2B6
100
AcDbEntity
  8
0
100
AcDbLine
 62
253
  6
CONTINUOUS
 10
22.2764799709
 20
-21.5866513084
 11
22.3014422353
 21
-21.6116135728
  0
LWPOLYLINE
  5
2B7
100
AcDbEntity
  8
SUPERFICI
100
AcDbPolyline
 62
7
  6
CONTINUOUS
 90
15
 70
0
 10
4.2322688289
 20
-1.2700789784
 10
4.3136880409
 20
-1.1150995005
 10
4.3845372249
 20
-0.9540406763
 10
4.444770142
 20
-0.7873424253
 10
4.493247074
 20
-0.6178019278
 10
4.5296948507
 20
-0.4455638435
 10
4.5543866422
 20
-0.2704835455
 10
4.5670022403
 20
-0.0949242943
 10
4.5673910126
 20
0.0811429481
 10
4.5557035915
 20
0.2576891006
 10
4.532071666
 20
0.4322637226
 10
4.4962319905
 20
0.6050047622
 10
4.4484478105
 20
0.7757742329
 10
4.3896405521
 20
0.9417077986
 10
4.3198171439
 20
1.1023718102
  0
LWPOLYLINE
  5
2B8
100
AcDbEntity
  8
SUPERFICI
100
AcDbPolyline
 62
7
  6
CONTINUOUS
 90
31
 70
0
 10
3.7539174396
 20
-0.8934830487
 10
3.6848967168
 20
-1.0173451539
 10
3.606448113
 20
-1.1365622669
 10
3.5189952642
 20
-1.2507723134
 10
3.4244339507
 20
-1.3575431655
 10
3.3230020571
 20
-1.4563653555
 10
3.2144616988
 20
-1.5477483677
 10
3.0999950017
 20
-1.6307885093
 10
2.9791453148
 20
-1.7056172545
 10
2.8523692893
 20
-1.7721031507
 10
2.722219004
 20
-1.8289481184
 10
2.5890670645
 20
-1.8758434934
 10
2.4525408652
 20
-1.9130979609
 10
2.3140746691
 20
-1.9403394656
 10
2.1732209171
 20
-1.9575012073
 10
2.0304271683
 20
-1.9646499965
 10
1.8884703624
 20
-1.9616141913
 10
1.7477199994
 20
-1.9482474661
 10
1.6078065794
 20
-1.9246961427
 10
1.4703985422
 20
-1.8912275474
 10
1.3352242079
 20
-1.8476106176
 10
1.2025552563
 20
-1.7940763992
 10
1.0748751676
 20
-1.73158538
 10
0.9525001299
 20
-1.6601131411
 10
0.835113955
 20
-1.5796840791
 10
0.7242515581
 20
-1.4913319071
 10
0.6198012817
 20
-1.3947124852
 10
0.5218747833
 20
-1.2901699332
 10
0.4323419498
 20
-1.1797703593
 10
0.351826077
 20
-1.0642024656
 10
0.279703876
 20
-0.9427775554
  0
LWPOLYLINE
  5
2B9
100
AcDbEntity
  8
0
100
AcDbPolyline
 62
7
  6
CONTINUOUS
 90
33
 70
0
 10
4.2322613542
 20
-1.2700921005
 10
4.1402248155
 20
-1.4194318536
 10
4.0385730223
 20
-1.5616546755
 10
3.9268786766
 20
-1.6970192208
 10
3.8055690763
 20
-1.8252668499
 10
3.6769271356
 20
-1.9441442222
 10
3.5413018841
 20
-2.0531694186
 10
3.3983442921
 20
-2.1528243968
 10
3.2492901848
 20
-2.24230164
 10
3.0935667249
 20
-2.3217481603
 10
2.9317467496
 20
-2.3910169867
 10
2.7667845961
 20
-2.4488596304
 10
2.59918192
 20
-2.4949766855
 10
2.4284370658
 20
-2.5296675919
 10
2.255999404
 20
-2.5525821277
 10
2.0812280138
 20
-2.5636044255
 10
1.9047638162
 20
-2.5628503649
 10
1.7299789448
 20
-2.5503173386
 10
1.5574807969
 20
-2.5259042674
 10
1.3866619753
 20
-2.4897122173
 10
1.2190724219
 20
-2.4420417926
 10
1.0543414358
 20
-2.3826493477
 10
0.8928397179
 20
-2.3117784935
 10
0.7372293136
 20
-2.2304607167
 10
0.587916043
 20
-2.1388366324
 10
0.444494086
 20
-2.0367655829
 10
0.3084080282
 20
-1.924857148
 10
0.1793534107
 20
-1.8027073472
 10
0.0576346923
 20
-1.6707201202
 10
-0.0543901649
 20
-1.5307169355
 10
-0.1559351737
 20
-1.3833049449
 10
-0.2477863212
 20
-1.2278769792
 10
-0.3299436076
 20
-1.064433034
  0
LINE
  5
2BA
100
AcDbEntity
  8
SUPERFICI
100
AcDbLine
 62
7
  6
CONTINUOUS
 10
4.14023335
 20
-1.4194190221
 11
4.2322609104
 21
-1.2700918271
  0
LINE
  5
2BB
100
AcDbEntity
  8
SUPERFICI
100
AcDbLine
 62
7
  6
CONTINUOUS
 10
3.6873002581
 20
1.0133612054
 11
3.7559223036
 21
0.8895501451
  0
LWPOLYLINE
  5
2BC
100
AcDbEntity
  8
0
100
AcDbPolyline
 62
7
  6
CONTINUOUS
 90
32
 70
0
 10
3.7559223045
 20
0.8895501456
 10
3.6873002432
 20
1.0133612303
 10
3.6092805859
 20
1.1325652396
 10
3.5222699165
 20
1.2468043961
 10
3.4280991392
 20
1.3536849866
 10
3.326983517
 20
1.4527282008
 10
3.218707787
 20
1.5444128653
 10
3.1044570637
 20
1.6277817293
 10
2.9837769422
 20
1.7029553203
 10
2.8571218274
 20
1.7698131323
 10
2.7270400496
 20
1.8270363669
 10
2.5938787952
 20
1.8743162644
 10
2.4572908778
 20
1.9119616055
 10
2.3187830677
 20
1.9395799027
 10
2.1779634118
 20
1.9570972988
 10
2.0352238631
 20
1.9645876613
 10
1.8932470513
 20
1.9618800876
 10
1.7523584182
 20
1.9488368257
 10
1.6122325219
 20
1.9255956239
 10
1.4745756669
 20
1.8923988257
 10
1.3391380929
 20
1.8490238529
 10
1.2061695602
 20
1.795693267
 10
1.0781256542
 20
1.7333171192
 10
0.9552738631
 20
1.6618355004
 10
0.8373466988
 20
1.5813082972
 10
0.7259972826
 20
1.4928252561
 10
0.6211604946
 20
1.39606587
 10
0.5229014548
 20
1.2913506258
 10
0.4330686446
 20
1.180730767
 10
0.3522782244
 20
1.0648900404
 10
0.2799140338
 20
0.9431446927
 10
0.2074758894
 20
0.7983509819
  0
LWPOLYLINE
  5
2BD
100
AcDbEntity
  8
SUPERFICI
100
AcDbPolyline
 62
7
  6
CONTINUOUS
 90
32
 70
0
 10
4.3198171439
 20
1.1023718102
 10
4.2389706573
 20
1.2581999002
 10
4.1480017321
 20
1.4076286669
 10
4.0464946378
 20
1.5509526371
 10
3.9348651048
 20
1.6878772899
 10
3.8152609645
 20
1.8159556666
 10
3.6880125669
 20
1.9346559114
 10
3.5527895618
 20
2.0445099132
 10
3.4107487298
 20
2.1446663414
 10
3.2613058992
 20
2.2353332838
 10
3.1050452418
 20
2.3163026928
 10
2.9448760528
 20
2.386099039
 10
2.781317061
 20
2.4443672041
 10
2.6138495377
 20
2.4914623455
 10
2.4438265929
 20
2.5269743485
 10
2.2705677013
 20
2.5508497246
 10
2.0947533882
 20
2.5631419829
 10
1.9197783396
 20
2.5636014998
 10
1.7462888357
 20
2.5520895336
 10
1.5736385964
 20
2.5287448221
 10
1.4032834671
 20
2.4937339551
 10
1.2347620838
 20
2.4468243458
 10
1.0685358105
 20
2.3882485529
 10
0.9074445843
 20
2.3188708803
 10
0.7519616902
 20
2.2388160432
 10
0.6016138433
 20
2.1479592852
 10
0.4578211256
 20
2.0467907032
 10
0.3202104297
 20
1.9348888349
 10
0.1891548631
 20
1.8126750979
 10
0.0671938298
 20
1.6819039143
 10
-0.0448262022
 20
1.5431600846
 10
-0.147751572
 20
1.3958589672
  0
LWPOLYLINE
  5
2BE
100
AcDbEntity
  8
SUPERFICI
100
AcDbPolyline
 62
7
  6
CONTINUOUS
 90
14
 70
0
 10
3.755922318
 20
0.8895501191
 10
3.8155533656
 20
0.7607741802
 10
3.8655822481
 20
0.6283537772
 10
3.9060202106
 20
0.4917590601
 10
3.9368560081
 20
0.3515198908
 10
3.9574447531
 20
0.2105462316
 10
3.9675780781
 20
0.0693334142
 10
3.9674643506
 20
-0.072613871
 10
3.9570837854
 20
-0.2138716201
 10
3.9362172139
 20
-0.3549556833
 10
3.9050838047
 20
-0.4953501883
 10
3.8643212783
 20
-0.632083551
 10
3.8139339176
 20
-0.7646138769
 10
3.7539174396
 20
-0.8934830487
  0
LINE
  5
2BF
100
AcDbEntity
  8
RACCORDO
100
AcDbLine
 62
253
  6
CONTINUOUS
 10
-22.1380102879
 20
9.4960050713
 11
-22.0681687786
 21
9.4974728383
  0
LINE
  5
2C0
100
AcDbEntity
  8
RACCORDO
100
AcDbLine
 62
253
  6
CONTINUOUS
 10
-22.0681687786
 20
9.4974728383
 11
-21.9843795934
 21
9.4986458948
  0
LINE
  5
2C1
100
AcDbEntity
  8
RACCORDO
100
AcDbLine
 62
253
  6
CONTINUOUS
 10
-21.9843795934
 20
9.4986458948
 11
-21.8901841222
 21
9.4994746612
  0
LINE
  5
2C2
100
AcDbEntity
  8
RACCORDO
100
AcDbLine
 62
253
  6
CONTINUOUS
 10
-21.8901841222
 20
9.4994746612
 11
-21.7381671644
 21
9.4999999996
  0
LINE
  5
2C3
100
AcDbEntity
  8
RACCORDO
100
AcDbLine
 62
253
  6
CONTINUOUS
 10
21.840415486
 20
9.4997483763
 11
-21.7381671644
 21
9.5
  0
LINE
  5
2C4
100
AcDbEntity
  8
RACCORDO
100
AcDbLine
 62
253
  6
CONTINUOUS
 10
21.9383422333
 20
9.4991058655
 11
21.840415486
 21
9.4997483763
  0
LINE
  5
2C5
100
AcDbEntity
  8
RACCORDO
100
AcDbLine
 62
253
  6
CONTINUOUS
 10
22.0278084851
 20
9.4980996237
 11
21.9383422333
 21
9.4991058655
  0
LWPOLYLINE
  5
2C6
100
AcDbEntity
  8
0
100
AcDbPolyline
 62
7
  6
CONTINUOUS
 90
3
 70
0
 43
0.3500000006
 10
29.3442852173
 20
1.0357133102
 10
29.5585719681
 20
0.9642866592
 10
29.8442853699
 20
0.8214288254
  0
LWPOLYLINE
  5
2C7
100
AcDbEntity
  8
RACCORDO
100
AcDbPolyline
 62
253
  6
CONTINUOUS
 90
12
 70
0
 10
22.2764799709
 20
21.5866513084
 10
22.2754643837
 20
21.5841100213
 10
22.274466787
 20
21.5786680472
 10
22.2734871808
 20
21.5703253861
 10
22.2725192882
 20
21.558997784
 10
22.271569386
 20
21.5447694949
 10
22.2706563049
 20
21.5278932804
 10
22.2697813035
 20
21.5083229654
 10
22.2689431232
 20
21.4861047249
 10
22.2681568186
 20
21.4616298466
 10
22.2674232508
 20
21.4348517581
 10
22.2661242127
 20
21.3750566723
  0
LWPOLYLINE
  5
2C8
100
AcDbEntity
  8
0
100
AcDbPolyline
 62
7
  6
CONTINUOUS
 90
10
 70
0
 43
0.3500000006
 10
29.1300007324
 20
0.9642866592
 10
29.2728563004
 20
1.0357133102
 10
29.3442852173
 20
1.0357133102
 10
29.4871430511
 20
0.8928577423
 10
29.4871430511
 20
0.8214288254
 10
29.4157141342
 20
0.7499999084
 10
29.3442852173
 20
0.7499999084
 10
29.2014296494
 20
0.8214288254
 10
29.1300007324
 20
0.8928577423
 10
29.1300007324
 20
0.9642866592
  0
LWPOLYLINE
  5
2C9
100
AcDbEntity
  8
RACCORDO
100
AcDbPolyline
 62
253
  6
CONTINUOUS
 90
7
 70
0
 10
-22.2379958269
 20
9.4905
 10
-22.2340029662
 20
9.4914768667
 10
-22.2247570079
 20
9.492443384
 10
-22.2103559075
 20
9.4933893123
 10
-22.1909522366
 20
9.4943046299
 10
-22.166751566
 20
9.4951796397
 10
-22.1380102879
 20
9.4960050713
  0
LWPOLYLINE
  5
2CA
100
AcDbEntity
  8
RACCORDO
100
AcDbPolyline
 62
253
  6
CONTINUOUS
 90
9
 70
0
 10
22.2379958269
 20
9.4905
 10
22.2340029682
 20
9.4914768667
 10
22.2247570116
 20
9.4924433841
 10
22.2103559127
 20
9.4933893124
 10
22.1909522429
 20
9.4943046301
 10
22.166751573
 20
9.4951796399
 10
22.1380102953
 20
9.4960050715
 10
22.1050329074
 20
9.4967721801
 10
22.0278084851
 20
9.4980996237
  0
LWPOLYLINE
  5
2CB
100
AcDbEntity
  8
0
100
AcDbPolyline
 62
7
  6
CONTINUOUS
 90
10
 70
0
 43
0.3500000006
 10
0.9642857051
 20
31.3614431305
 10
1.035714268
 20
31.2185852966
 10
1.035714268
 20
31.1471586456
 10
0.8928571422
 20
31.0043008118
 10
0.8214285793
 20
31.0043008118
 10
0.7500000165
 20
31.0757274628
 10
0.7500000165
 20
31.1471586456
 10
0.8214285793
 20
31.2900119476
 10
0.8928571422
 20
31.3614431305
 10
0.9642857051
 20
31.3614431305
  0
LWPOLYLINE
  5
2CC
100
AcDbEntity
  8
RACCORDO
100
AcDbPolyline
 62
253
  6
CONTINUOUS
 90
8
 70
0
 10
21.7766513084
 20
22.0864799709
 10
21.7756293871
 20
22.0814535722
 10
21.7746275169
 20
22.0704577735
 10
21.773645698
 20
22.0535589575
 10
21.772678348
 20
22.0308586736
 10
21.7717310492
 20
22.0024936657
 10
21.7708205485
 20
21.968635596
 10
21.7691111237
 20
21.8852903227
  0
LWPOLYLINE
  5
2CD
100
AcDbEntity
  8
RACCORDO
100
AcDbPolyline
 62
253
  6
CONTINUOUS
 90
7
 70
0
 10
21.7708201249
 20
-21.9686332738
 10
21.7717307095
 20
-22.0024922519
 10
21.7726780577
 20
-22.0308580893
 10
21.7736454625
 20
-22.0535588376
 10
21.7746273547
 20
-22.070457797
 10
21.7756293033
 20
-22.0814536019
 10
21.7766513084
 20
-22.0864799709
  0
LINE
  5
2CE
100
AcDbEntity
  8
RACCORDO
100
AcDbLine
 62
253
  6
CONTINUOUS
 10
21.7640480307
 20
21.2362251476
 11
-21.7640480307
 21
21.2362251476
  0
LWPOLYLINE
  5
2CF
100
AcDbEntity
  8
RACCORDO
100
AcDbPolyline
 62
253
  6
CONTINUOUS
 90
10
 70
0
 10
22.2681527169
 20
-21.4614914897
 10
22.2689391127
 20
-21.4859859557
 10
22.2697777543
 20
-21.5082362811
 10
22.27065331
 20
-21.5278351628
 10
22.2715670101
 20
-21.5447313594
 10
22.2725176243
 20
-21.5589761122
 10
22.2734861298
 20
-21.5703158414
 10
22.2744661856
 20
-21.5786660206
 10
22.2754641326
 20
-21.5841111763
 10
22.2764799709
 20
-21.5866513084
  0
LINE
  5
2D0
100
AcDbEntity
  8
RACCORDO
100
AcDbLine
 62
253
  6
CONTINUOUS
 10
22.266738871
 20
-21.4056933754
 11
22.2681527169
 21
-21.4614914897
  0
LINE
  5
2D1
100
AcDbEntity
  8
RACCORDO
100
AcDbLine
 62
253
  6
CONTINUOUS
 10
21.7691102789
 20
-21.8852865879
 11
21.7708201249
 21
-21.9686332738
  0
LINE
  5
2D2
100
AcDbEntity
  8
RACCORDO
100
AcDbLine
 62
253
  6
CONTINUOUS
 10
22.2655711136
 20
-21.3424327347
 11
22.266738871
 21
-21.4056933754
  0
LINE
  5
2D3
100
AcDbEntity
  8
RACCORDO
100
AcDbLine
 62
253
  6
CONTINUOUS
 10
21.7669142997
 20
-21.7251528619
 11
21.7691102789
 21
-21.8852865879
  0
LINE
  5
2D4
100
AcDbEntity
  8
RACCORDO
100
AcDbLine
 62
253
  6
CONTINUOUS
 10
22.2646703475
 20
-21.2729143474
 11
22.2655711136
 21
-21.3424327347
  0
LINE
  5
2D5
100
AcDbEntity
  8
RACCORDO
100
AcDbLine
 62
253
  6
CONTINUOUS
 10
21.7648466646
 20
-21.4599830018
 11
21.7669142997
 21
-21.7251528619
  0
LINE
  5
2D6
100
AcDbEntity
  8
RACCORDO
100
AcDbLine
 62
253
  6
CONTINUOUS
 10
22.2638766932
 20
-21.1615238967
 11
22.2646703475
 21
-21.2729143474
  0
LINE
  5
2D7
100
AcDbEntity
  8
RACCORDO
100
AcDbLine
 62
253
  6
CONTINUOUS
 10
21.7476037732
 20
-16.0366548119
 11
21.7640480307
 21
-21.2362251476
  0
LINE
  5
2D8
100
AcDbEntity
  8
RACCORDO
100
AcDbLine
 62
253
  6
CONTINUOUS
 10
22.2474324428
 20
-15.9909275752
 11
22.2638766932
 21
-21.1615238967
  0
LINE
  5
2D9
100
AcDbEntity
  8
RACCORDO
100
AcDbLine
 62
253
  6
CONTINUOUS
 10
21.7640480307
 20
-21.2362251476
 11
21.7648466646
 21
-21.4599830018
  0
LINE
  5
2DA
100
AcDbEntity
  8
RACCORDO
100
AcDbLine
 62
253
  6
CONTINUOUS
 10
21.7390638437
 20
-10.809162614
 11
21.7476037732
 21
-16.0366548119
  0
LINE
  5
2DB
100
AcDbEntity
  8
RACCORDO
100
AcDbLine
 62
253
  6
CONTINUOUS
 10
22.2388924616
 20
-10.7928222982
 11
22.2474324428
 21
-15.9909275752
  0
LINE
  5
2DC
100
AcDbEntity
  8
RACCORDO
100
AcDbLine
 62
253
  6
CONTINUOUS
 10
21.735835169
 20
1.0555621241
 11
21.7390638437
 21
-10.809162614
  0
LINE
  5
2DD
100
AcDbEntity
  8
RACCORDO
100
AcDbLine
 62
253
  6
CONTINUOUS
 10
22.235663832
 20
1.0545216111
 11
22.2388924616
 21
-10.7928222982
  0
LINE
  5
2DE
100
AcDbEntity
  8
0
100
AcDbLine
 62
7
  6
CONTINUOUS
 10
22.3014422353
 20
21.6116135728
 11
22.3014422353
 21
-21.6116135728
  0
LINE
  5
2DF
100
AcDbEntity
  8
RACCORDO
100
AcDbLine
 62
253
  6
CONTINUOUS
 10
21.7423428018
 20
13.4252942234
 11
21.735835169
 21
1.0555621241
  0
LINE
  5
2E0
100
AcDbEntity
  8
RACCORDO
100
AcDbLine
 62
253
  6
CONTINUOUS
 10
22.2421714406
 20
13.3939726076
 11
22.235663832
 21
1.0545216111
  0
LINE
  5
2E1
100
AcDbEntity
  8
RACCORDO
100
AcDbLine
 62
253
  6
CONTINUOUS
 10
21.7548394573
 20
18.6410336052
 11
21.7423428018
 21
13.4252942234
  0
LINE
  5
2E2
100
AcDbEntity
  8
RACCORDO
100
AcDbLine
 62
253
  6
CONTINUOUS
 10
22.2546682314
 20
18.5804252298
 11
22.2421714406
 21
13.3939726076
  0
LINE
  5
2E3
100
AcDbEntity
  8
RACCORDO
100
AcDbLine
 62
253
  6
CONTINUOUS
 10
21.7652608966
 20
21.5306779274
 11
21.7548394573
 21
18.6410336052
  0
LINE
  5
2E4
100
AcDbEntity
  8
RACCORDO
100
AcDbLine
 62
253
  6
CONTINUOUS
 10
22.2643327731
 20
21.2368459471
 11
22.2546682314
 21
18.5804252298
  0
LINE
  5
2E5
100
AcDbEntity
  8
RACCORDO
100
AcDbLine
 62
253
  6
CONTINUOUS
 10
21.7669146285
 20
21.7251570648
 11
21.7652608966
 21
21.5306779274
  0
LINE
  5
2E6
100
AcDbEntity
  8
RACCORDO
100
AcDbLine
 62
253
  6
CONTINUOUS
 10
22.265084922
 20
21.3082533785
 11
22.2643327731
 21
21.2368459471
  0
LINE
  5
2E7
100
AcDbEntity
  8
RACCORDO
100
AcDbLine
 62
253
  6
CONTINUOUS
 10
21.7691111237
 20
21.8852903227
 11
21.7669146285
 21
21.7251570648
  0
LINE
  5
2E8
100
AcDbEntity
  8
RACCORDO
100
AcDbLine
 62
253
  6
CONTINUOUS
 10
22.2661242127
 20
21.3750566723
 11
22.265084922
 21
21.3082533785
  0
LINE
  5
2E9
100
AcDbEntity
  8
RACCORDO
100
AcDbLine
 62
253
  6
CONTINUOUS
 10
21.7766513084
 20
22.0864799709
 11
-21.7766513084
 21
22.0864799709
  0
LINE
  5
2EA
100
AcDbEntity
  8
0
100
AcDbLine
 62
7
  6
CONTINUOUS
 10
21.8016135728
 20
22.1114422353
 11
-21.8016135728
 21
22.1114422353
  0
LWPOLYLINE
  5
2EB
100
AcDbEntity
  8
RACCORDO
100
AcDbPolyline
 62
253
  6
CONTINUOUS
 90
16
 70
0
 10
22.2764799709
 20
21.5866513084
 10
22.2737085996
 20
21.6388735973
 10
22.2654963459
 20
21.690524463
 10
22.2519330371
 20
21.7410385151
 10
22.2331670751
 20
21.7898627998
 10
22.2094038183
 20
21.8364628405
 10
22.180903339
 20
21.8803284908
 10
22.1479775626
 20
21.9209795447
 10
22.1109868701
 20
21.957970966
 10
22.0703361707
 20
21.9908977572
 10
22.0264704213
 20
22.0193994387
 10
21.9798697895
 20
22.04316396
 10
21.9310444317
 20
22.0619311116
 10
21.8805288403
 20
22.075495413
 10
21.8288759856
 20
22.0837083472
 10
21.7766513085
 20
22.086479971
  0
LWPOLYLINE
  5
2EC
100
AcDbEntity
  8
RACCORDO
100
AcDbPolyline
 62
253
  6
CONTINUOUS
 90
16
 70
0
 10
22.2764799709
 20
-21.5866513084
 10
22.2737084581
 20
-21.6388749344
 10
22.265495829
 20
-21.6905268861
 10
22.2519319847
 20
-21.741041747
 10
22.2331654038
 20
-21.7898665481
 10
22.2094015179
 20
-21.8364668208
 10
22.180900462
 20
-21.8803324477
 10
22.1479742276
 20
-21.9209832468
 10
22.110983247
 20
-21.9579742274
 10
22.070332448
 20
-21.9909004618
 10
22.026466821
 20
-22.0194015178
 10
21.9798665483
 20
-22.0431654038
 10
21.9310417472
 20
-22.0619319847
 10
21.8805268862
 20
-22.0754958291
 10
21.8288749345
 20
-22.0837084581
 10
21.7766513084
 20
-22.0864799709
  0
LWPOLYLINE
  5
2ED
100
AcDbEntity
  8
0
100
AcDbPolyline
 62
7
  6
CONTINUOUS
 90
3
 70
0
 43
0.3500000006
 10
28.9871428986
 20
-0.5357137985
 10
28.9871428986
 20
-2.0357142563
 10
26.6299999695
 20
-1.3928574028
  0
LWPOLYLINE
  5
2EE
100
AcDbEntity
  8
0
100
AcDbPolyline
 62
7
  6
CONTINUOUS
 90
3
 70
0
 43
0.3500000006
 10
28.9871428986
 20
-2.8928567276
 10
28.9871428986
 20
-4.3928571854
 10
26.6299999695
 20
-3.7500003319
  0
LWPOLYLINE
  5
2EF
100
AcDbEntity
  8
0
100
AcDbPolyline
 62
7
  6
CONTINUOUS
 90
7
 70
0
 43
0.3500000006
 10
29.630000885
 20
3.5357140732
 10
29.630000885
 20
2.0357136154
 10
27.4871424408
 20
3.5357140732
 10
27.0585712051
 20
3.5357140732
 10
26.6299999695
 20
3.1071428375
 10
26.6299999695
 20
2.4642848511
 10
27.2728579559
 20
2.0357136154
  0
LWPOLYLINE
  5
2F0
100
AcDbEntity
  8
RACCORDO
100
AcDbPolyline
 62
253
  6
CONTINUOUS
 90
16
 70
0
 10
22.263876693
 20
-21.1615238967
 10
22.2598961887
 20
-21.1692063518
 10
22.2506606727
 20
-21.1768073667
 10
22.2362680235
 20
-21.1842463858
 10
22.2168707748
 20
-21.19144457
 10
22.1926744993
 20
-21.1983256327
 10
22.1639356299
 20
-21.2048166483
 10
22.1309587422
 20
-21.2108488247
 10
22.0940933262
 20
-21.2163582328
 10
22.053730083
 20
-21.2212864835
 10
22.0102967834
 20
-21.2255813472
 10
21.9642537351
 20
-21.2291973067
 10
21.9160889038
 20
-21.2320960401
 10
21.866312742
 20
-21.2342468266
 10
21.8154527791
 20
-21.235626872
 10
21.7640480308
 20
-21.2362215505
  0
LWPOLYLINE
  5
2F1
100
AcDbEntity
  8
0
100
AcDbPolyline
 62
7
  6
CONTINUOUS
 90
3
 70
0
 43
0.3500000006
 10
-0.5357142924
 20
31.5043009644
 10
-2.0357142191
 20
31.5043009644
 10
-1.3928570824
 20
33.8614438934
  0
LWPOLYLINE
  5
2F2
100
AcDbEntity
  8
0
100
AcDbPolyline
 62
7
  6
CONTINUOUS
 90
3
 70
0
 43
0.3500000006
 10
-2.8928572569
 20
31.5043009644
 10
-4.3928571482
 20
31.5043009644
 10
-3.7500000114
 20
33.8614438934
  0
LWPOLYLINE
  5
2F3
100
AcDbEntity
  8
RACCORDO
100
AcDbPolyline
 62
253
  6
CONTINUOUS
 90
16
 70
0
 10
22.2638766932
 20
21.1615238967
 10
22.2598974597
 20
21.1692066572
 10
22.250663019
 20
21.1768079927
 10
22.2362712413
 20
21.1842473412
 10
22.2168746564
 20
21.1914458576
 10
22.1926788368
 20
21.1983272491
 10
22.1639402194
 20
21.2048185843
 10
22.1309633874
 20
21.2108510651
 10
22.0940978422
 20
21.2163607572
 10
22.0537342993
 20
21.2212892666
 10
22.0103005474
 20
21.225584359
 10
21.9642569145
 20
21.2292005133
 10
21.9160913891
 20
21.2320994044
 10
21.8663144484
 20
21.2342503089
 10
21.815453648
 20
21.2356304304
 10
21.7640480307
 20
21.236225142
  0
LINE
  5
2F4
100
AcDbEntity
  8
RACCORDO
100
AcDbLine
 62
7
  6
CONTINUOUS
 10
-36.3134877757
 20
-22.0864799709
 11
-35.3602173581
 21
-22.1114422353
  0
LINE
  5
2F5
100
AcDbEntity
  8
0
100
AcDbLine
 62
7
  6
CONTINUOUS
 10
-36.3134877757
 20
-22.0864799709
 11
-35.3602173581
 21
-22.1114422353
  0
LINE
  5
2F6
100
AcDbEntity
  8
0
100
AcDbLine
 62
253
  6
CONTINUOUS
 10
-36.3134877757
 20
-21.5866513084
 11
-35.3602173581
 21
-21.6116135728
  0
LWPOLYLINE
  5
2F7
100
AcDbEntity
  8
RACCORDO
100
AcDbPolyline
 62
253
  6
CONTINUOUS
 90
4
 70
0
 10
-37.2527414738
 20
-21.2320960401
 10
-37.2656723548
 20
-21.2342468266
 10
-37.2734739261
 20
-21.235626872
 10
-37.2760635064
 20
-21.2362215505
  0
LINE
  5
2F8
100
AcDbEntity
  8
RACCORDO
100
AcDbLine
 62
253
  6
CONTINUOUS
 10
-37.1848059199
 20
-21.2212864835
 11
-37.2527414738
 21
-21.2320960401
  0
LWPOLYLINE
  5
2F9
100
AcDbEntity
  8
RACCORDO
100
AcDbPolyline
 62
253
  6
CONTINUOUS
 90
3
 70
0
 10
-36.7947875327
 20
-21.1615238967
 10
-36.8455274098
 20
-21.1692063518
 10
-37.1848059199
 20
-21.2212864835
  0
LINE
  5
2FA
100
AcDbEntity
  8
0
100
AcDbLine
 62
7
  6
CONTINUOUS
 10
-34.3602173581
 20
-13.2689805518
 11
-35.3602173581
 21
-13.3213883311
  0
LWPOLYLINE
  5
2FB
100
AcDbEntity
  8
0
100
AcDbPolyline
 62
7
  6
CONTINUOUS
 90
2
 70
0
 43
0.3500000006
 10
-44.9495197449
 20
30.8614429779
 10
-44.9495197449
 20
32.3614434357
  0
LINE
  5
2FC
100
AcDbEntity
  8
RACCORDO
100
AcDbLine
 62
253
  6
CONTINUOUS
 10
-38.2673115311
 20
-9.499924109
 11
-38.2699591744
 21
-9.4999999993
  0
LINE
  5
2FD
100
AcDbEntity
  8
RACCORDO
100
AcDbLine
 62
253
  6
CONTINUOUS
 10
-37.7831379439
 20
-9.4905
 11
-38.2673115311
 21
-9.499924109
  0
LINE
  5
2FE
100
AcDbEntity
  8
0
100
AcDbLine
 62
7
  6
CONTINUOUS
 10
-34.3602173581
 20
-9.7310194482
 11
-35.3602173581
 21
-9.6786116689
  0
LWPOLYLINE
  5
2FF
100
AcDbEntity
  8
RACCORDO
100
AcDbPolyline
 62
253
  6
CONTINUOUS
 90
10
 70
0
 10
-36.7947875327
 20
21.1615238967
 10
-36.9800360491
 20
19.8719852003
 10
-37.1464445025
 20
18.5804252298
 10
-37.2940128932
 20
17.2868439853
 10
-37.4227650719
 20
15.9909603469
 10
-37.5326771877
 20
14.6930554344
 10
-37.623677688
 20
13.3939726076
 10
-37.6957427221
 20
12.0939929862
 10
-37.7488961407
 20
10.7928354503
 10
-37.7831379439
 20
9.4905
  0
LWPOLYLINE
  5
300
100
AcDbEntity
  8
RACCORDO
100
AcDbPolyline
 62
253
  6
CONTINUOUS
 90
19
 70
0
 10
-36.7947875327
 20
-21.1615238967
 10
-36.7874781433
 20
-21.1996934077
 10
-36.7773753322
 20
-21.2368235579
 10
-36.7644790996
 20
-21.2729143474
 10
-36.7486763741
 20
-21.3081932214
 10
-36.730080227
 20
-21.3424327347
 10
-36.7090298721
 20
-21.3749505517
 10
-36.6854853747
 20
-21.4056933754
 10
-36.6594866696
 20
-21.4347145028
 10
-36.6314927755
 20
-21.4614914897
 10
-36.6014615329
 20
-21.4859859557
 10
-36.5694351015
 20
-21.5082362811
 10
-36.5359989783
 20
-21.5278351628
 10
-36.5011061785
 20
-21.5447313594
 10
-36.464803687
 20
-21.5589761122
 10
-36.4278179558
 20
-21.5703158414
 10
-36.3903911355
 20
-21.5786660206
 10
-36.3522810755
 20
-21.5841111763
 10
-36.3134877757
 20
-21.5866513084
  0
LWPOLYLINE
  5
301
100
AcDbEntity
  8
RACCORDO
100
AcDbPolyline
 62
253
  6
CONTINUOUS
 90
10
 70
0
 10
-37.7831379439
 20
-9.4905
 10
-37.7488968459
 20
-10.7928222982
 10
-37.6957440575
 20
-12.0939699785
 10
-37.6236795789
 20
-13.393943041
 10
-37.5326796944
 20
-14.693022617
 10
-37.4227681195
 20
-15.9909275752
 10
-37.2940160012
 20
-17.2868145217
 10
-37.1464470552
 20
-18.5804023251
 10
-36.9800375656
 20
-19.8719721168
 10
-36.7947875327
 20
-21.1615238967
  0
LWPOLYLINE
  5
302
100
AcDbEntity
  8
RACCORDO
100
AcDbPolyline
 62
253
  6
CONTINUOUS
 90
10
 70
0
 10
-37.7831379439
 20
9.4905
 10
-37.8187600531
 20
7.381529647
 10
-37.8454766374
 20
5.2725447223
 10
-37.8632876967
 20
3.1635452259
 10
-37.872193234
 20
1.0545216111
 10
-37.8721932464
 20
-1.0545165753
 10
-37.8632877245
 20
-3.1635406936
 10
-37.8454766652
 20
-5.2725411972
 10
-37.8187600717
 20
-7.3815276327
 10
-37.7831379439
 20
-9.4905
  0
LINE
  5
303
100
AcDbEntity
  8
RACCORDO
100
AcDbLine
 62
253
  6
CONTINUOUS
 10
-36.3134877757
 20
21.5866513084
 11
-36.3159201622
 21
21.690524463
  0
LINE
  5
304
100
AcDbEntity
  8
RACCORDO
100
AcDbLine
 62
253
  6
CONTINUOUS
 10
-36.3159201622
 20
21.690524463
 11
-36.317674848
 21
21.7898627998
  0
LWPOLYLINE
  5
305
100
AcDbEntity
  8
RACCORDO
100
AcDbPolyline
 62
253
  6
CONTINUOUS
 90
11
 70
0
 10
-36.317674848
 20
21.7898627998
 10
-36.3186751962
 20
21.8803284908
 10
-36.3188774884
 20
21.9209795447
 10
-36.318877507
 20
21.957970966
 10
-36.3186752498
 20
21.9908977572
 10
-36.3182729289
 20
22.0193994387
 10
-36.3176749465
 20
22.04316396
 10
-36.316887848
 20
22.0619311116
 10
-36.3159202487
 20
22.075495413
 10
-36.3147827397
 20
22.0837083472
 10
-36.3134877724
 20
22.086479971
  0
LWPOLYLINE
  5
306
100
AcDbEntity
  8
RACCORDO
100
AcDbPolyline
 62
253
  6
CONTINUOUS
 90
9
 70
0
 10
-36.3188775234
 20
-21.9209832468
 10
-36.3188775232
 20
-21.9579742274
 10
-36.3186752481
 20
-21.9909004618
 10
-36.3182729123
 20
-22.0194015178
 10
-36.3176749202
 20
-22.0431654038
 10
-36.316887818
 20
-22.0619319847
 10
-36.3159202219
 20
-22.0754958291
 10
-36.3147827239
 20
-22.0837084581
 10
-36.3134877757
 20
-22.0864799709
  0
LINE
  5
307
100
AcDbEntity
  8
0
100
AcDbLine
 62
7
  6
CONTINUOUS
 10
-35.3602173581
 20
-22.1114422353
 11
-35.3602173581
 21
22.1114422353
  0
LINE
  5
308
100
AcDbEntity
  8
RACCORDO
100
AcDbLine
 62
253
  6
CONTINUOUS
 10
-36.3182729135
 20
-21.8364668208
 11
-36.3188775234
 21
-21.9209832468
  0
LINE
  5
309
100
AcDbEntity
  8
RACCORDO
100
AcDbLine
 62
253
  6
CONTINUOUS
 10
-36.3168878198
 20
-21.741041747
 11
-36.3182729135
 21
-21.8364668208
  0
LWPOLYLINE
  5
30A
100
AcDbEntity
  8
RACCORDO
100
AcDbPolyline
 62
253
  6
CONTINUOUS
 90
3
 70
0
 10
-36.3134877757
 20
-21.5866513084
 10
-36.3147827248
 20
-21.6388749344
 10
-36.3168878198
 20
-21.741041747
  0
LINE
  5
30B
100
AcDbEntity
  8
0
100
AcDbLine
 62
253
  6
CONTINUOUS
 10
-34.7392829756
 20
-13.288846539
 11
-34.7392829756
 21
-9.711153461
  0
LINE
  5
30C
100
AcDbEntity
  8
0
100
AcDbLine
 62
253
  6
CONTINUOUS
 10
-34.7392829756
 20
9.711153461
 11
-34.7392829756
 21
13.288846539
  0
LINE
  5
30D
100
AcDbEntity
  8
0
100
AcDbLine
 62
7
  6
CONTINUOUS
 10
-34.3602173581
 20
-13.2689805518
 11
-34.3602173581
 21
-9.7310194482
  0
LINE
  5
30E
100
AcDbEntity
  8
0
100
AcDbLine
 62
7
  6
CONTINUOUS
 10
-34.3602173581
 20
9.7310194482
 11
-34.3602173581
 21
13.2689805518
  0
LINE
  5
30F
100
AcDbEntity
  8
0
100
AcDbLine
 62
7
  6
CONTINUOUS
 10
-34.3602173581
 20
9.7310194482
 11
-35.3602173581
 21
9.6786116689
  0
LWPOLYLINE
  5
310
100
AcDbEntity
  8
RACCORDO
100
AcDbPolyline
 62
253
  6
CONTINUOUS
 90
3
 70
0
 10
-37.7831379439
 20
9.4905
 10
-38.2673115672
 20
9.4999241097
 10
-38.2699592108
 20
9.5
  0
LINE
  5
311
100
AcDbEntity
  8
0
100
AcDbLine
 62
7
  6
CONTINUOUS
 10
-34.3602173581
 20
13.2689805518
 11
-35.3602173581
 21
13.3213883311
  0
LWPOLYLINE
  5
312
100
AcDbEntity
  8
RACCORDO
100
AcDbPolyline
 62
253
  6
CONTINUOUS
 90
19
 70
0
 10
-36.3134877757
 20
21.5866513084
 10
-36.3522714852
 20
21.5841100213
 10
-36.3903681663
 20
21.5786680472
 10
-36.4277778191
 20
21.5703253861
 10
-36.4647401472
 20
21.558997784
 10
-36.501015447
 20
21.5447694949
 10
-36.5358846073
 20
21.5278932804
 10
-36.5692995613
 20
21.5083229654
 10
-36.6013083757
 20
21.4861047249
 10
-36.6313361404
 20
21.4616298466
 10
-36.6593499631
 20
21.4348517581
 10
-36.6853827359
 20
21.4058170317
 10
-36.7089582252
 20
21.3750566723
 10
-36.7300313237
 20
21.3425178419
 10
-36.7486471386
 20
21.3082533785
 10
-36.7644647582
 20
21.2729528004
 10
-36.7773705451
 20
21.2368459471
 10
-36.7874781366
 20
21.1997029793
 10
-36.7947875327
 20
21.1615238967
  0
LINE
  5
313
100
AcDbEntity
  8
0
100
AcDbLine
 62
253
  6
CONTINUOUS
 10
-35.3602173581
 20
21.6116135728
 11
-36.3134877757
 21
21.5866513084
  0
LINE
  5
314
100
AcDbEntity
  8
RACCORDO
100
AcDbLine
 62
7
  6
CONTINUOUS
 10
-35.3602173581
 20
22.1114422353
 11
-36.3134877724
 21
22.086479971
  0
LINE
  5
315
100
AcDbEntity
  8
0
100
AcDbLine
 62
7
  6
CONTINUOUS
 10
-35.3602173581
 20
22.1114422353
 11
-36.3134877757
 21
22.0864799709
  0
LWPOLYLINE
  5
316
100
AcDbEntity
  8
0
100
AcDbPolyline
 62
7
  6
CONTINUOUS
 90
3
 70
0
 43
0.3500000006
 10
-44.4495195923
 20
31.5043009644
 10
-45.94952005
 20
31.5043009644
 10
-45.3066620636
 20
33.8614438934
  0
LINE
  5
317
100
AcDbEntity
  8
RACCORDO
100
AcDbLine
 62
253
  6
CONTINUOUS
 10
-36.7947875327
 20
21.1615238967
 11
-37.1532633375
 21
21.2163607572
  0
LWPOLYLINE
  5
318
100
AcDbEntity
  8
RACCORDO
100
AcDbPolyline
 62
253
  6
CONTINUOUS
 90
6
 70
0
 10
-37.1532633375
 20
21.2163607572
 10
-37.2348394835
 20
21.2292005133
 10
-37.2527636823
 20
21.2320994044
 10
-37.2656953525
 20
21.2342503089
 10
-37.2734974393
 20
21.2356304304
 10
-37.276087253
 20
21.236225142
  0
ARC
  5
319
100
AcDbEntity
  8
RACCORDO
100
AcDbCircle
 62
7
  6
CONTINUOUS
 10
461.6397826419
 20
0.0
 40
500.0
100
AcDbArc
 50
178.91131468
 51
181.08868532
  0
ARC
  5
31A
100
AcDbEntity
  8
RACCORDO
100
AcDbCircle
 62
7
  6
CONTINUOUS
 10
51.7137943221
 20
-7.79
 40
90.0
100
AcDbArc
 50
181.08868532
 51
188.592302252
  0
ARC
  5
31B
100
AcDbEntity
  8
RACCORDO
100
AcDbCircle
 62
7
  6
CONTINUOUS
 10
51.7137943221
 20
7.79
 40
90.0
100
AcDbArc
 50
171.407697748
 51
178.91131468
  0
ARC
  5
31C
100
AcDbEntity
  8
RACCORDO
100
AcDbCircle
 62
7
  6
CONTINUOUS
 10
-36.2873108274
 20
-21.0868226459
 40
1.0
100
AcDbArc
 50
188.592302252
 51
268.5
  0
ARC
  5
31D
100
AcDbEntity
  8
RACCORDO
100
AcDbCircle
 62
7
  6
CONTINUOUS
 10
-36.2873108274
 20
21.0868226459
 40
1.0
100
AcDbArc
 50
91.5
 51
171.407697748
  0
ELLIPSE
  5
31E
100
AcDbEntity
  8
0
100
AcDbEllipse
 62
7
  6
CONTINUOUS
 10
21.801270839
 20
21.611270839
 30
0.0
 11
-0.35379574
 21
-0.35379574
 31
0.0
 40
0.999315002
 41
2.3565371065
 42
3.9266482006
  0
ELLIPSE
  5
31F
100
AcDbEntity
  8
0
100
AcDbEllipse
 62
7
  6
CONTINUOUS
 10
21.801270839
 20
-21.611270839
 30
0.0
 11
-0.35379574
 21
0.35379574
 31
0.0
 40
0.999315002
 41
-3.9266482006
 42
-2.3565371065
  0
ELLIPSE
  5
320
100
AcDbEntity
  8
0
100
AcDbEllipse
 62
7
  6
CONTINUOUS
 10
-21.801270839
 20
-21.611270839
 30
0.0
 11
0.35379574
 21
0.35379574
 31
0.0
 40
0.999315002
 41
2.3565371065
 42
3.9266482006
  0
ELLIPSE
  5
321
100
AcDbEntity
  8
0
100
AcDbEllipse
 62
7
  6
CONTINUOUS
 10
-21.801270839
 20
21.611270839
 30
0.0
 11
-0.35379574
 21
0.35379574
 31
0.0
 40
0.999315002
 41
-0.7850555471
 42
0.7850555471
  0
ENDSEC
  0
SECTION
  2
OBJECTS
  0
DICTIONARY
  5
C
100
AcDbDictionary
280
0
281
1
  3
ACAD_GROUP
350
D
  3
ACAD_MLINESTYLE
350
17
  3
ACAD_LAYOUT
350
1A
  3
ACAD_PLOTSETTINGS
350
19
  3
ACAD_PLOTSTYLENAME
350
E
  0
DICTIONARY
  5
D
102
{ACAD_REACTORS
330
C
102
}
100
AcDbDictionary
280
0
281
1
  0
ACDBDICTIONARYWDFLT
  5
E
102
{ACAD_REACTORS
330
C
102
}
100
AcDbDictionary
281
1
  3
Normal
350
F
100
AcDbDictionaryWithDefault
340
F
  0
DICTIONARY
  5
17
102
{ACAD_REACTORS
330
C
102
}
100
AcDbDictionary
280
0
281
1
  3
Standard
350
18
  0
DICTIONARY
  5
19
102
{ACAD_REACTORS
330
C
102
}
100
AcDbDictionary
281
1
  0
DICTIONARY
  5
1A
102
{ACAD_REACTORS
330
C
102
}
100
AcDbDictionary
281
1
  3
Model
350
322
  3
Layout1
350
323
  0
ACDBPLACEHOLDER
  5
F
102
{ACAD_REACTORS
330
E
102
}
  0
MLINESTYLE
  5
18
102
{ACAD_REACTORS
330
17
102
}
100
AcDbMlineStyle
  2
STANDARD
 70
0
  3

 62
256
 51
90.0
 52
90.0
 71
2
 49
0.5
 62
256
  6
BYLAYER
 49
-0.5
 62
256
  6
BYLAYER
  0
LAYOUT
  5
322
102
{ACAD_REACTORS
330
1A
102
}
100
AcDbPlotSettings
  1

  2
none_device
  4
ISO_A4_(297.00_x_210.00_MM)
  6

 40
0.0
 41
0.0
 42
0.0
 43
0.0
 44
297.0
 45
210.0
 46
0.0
 47
0.0
 48
0.0
 49
0.0
140
0.0
141
0.0
142
1.0
143
1.0
 70
1024
 72
1
 73
0
 74
0
  7

 75
0
147
1.0
148
0.0
149
0.0
100
AcDbLayout
  1
Model
 70
0
 71
0
 10
0.0
 20
0.0
 11
297.0
 21
210.0
 12
0.0
 22
0.0
 32
0.0
 14
0.0
 24
0.0
 34
0.0
 15
0.0
 25
0.0
 35
0.0
146
0.0
 13
0.0
 23
0.0
 33
0.0
 16
1.0
 26
0.0
 36
0.0
 17
0.0
 27
1.0
 37
0.0
 76
0
330
218
345
0
346
0
  0
LAYOUT
  5
323
102
{ACAD_REACTORS
330
1A
102
}
100
AcDbPlotSettings
  1

  2
none_device
  4
ISO_A4_(297.00_x_210.00_MM)
  6

 40
0.0
 41
0.0
 42
0.0
 43
0.0
 44
297.0
 45
210.0
 46
0.0
 47
0.0
 48
0.0
 49
0.0
140
0.0
141
0.0
142
1.0
143
1.0
 70
0
 72
1
 73
0
 74
0
  7

 75
0
147
1.0
148
0.0
149
0.0
100
AcDbLayout
  1
Layout1
 70
0
 71
1
 10
0.0
 20
0.0
 11
297.0
 21
210.0
 12
0.0
 22
0.0
 32
0.0
 14
0.0
 24
0.0
 34
0.0
 15
0.0
 25
0.0
 35
0.0
146
0.0
 13
0.0
 23
0.0
 33
0.0
 16
1.0
 26
0.0
 36
0.0
 17
0.0
 27
1.0
 37
0.0
 76
0
330
219
345
0
346
0
  0
ENDSEC
  0
EOF
