  0
SECTION
  2
HEADER
  9
$ACADVER
  1
AC1024
  9
$DWGCODEPAGE
  3
ANSI_1252
  9
$EXTMAX
 10
297.0
 20
210.0
 30
0.0
  9
$EXTMIN
 10
0.0
 20
0.0
 30
0.0
  9
$LIMMIN
 10
0.0
 20
0.0
  9
$LIMMAX
 10
297.0
 20
210.0
  9
$VIEWCTR
 10
148.5
 20
105.0
  9
$VIEWSIZE
 40
210.0
  9
$CLAYER
  8
0
  9
$LTSCALE
 40
16.335
  9
$CELTYPE
  6
BYLAYER
  9
$DIMSCALE
 40
1.0
  9
$DIMASZ
 40
3.0
  9
$DIMEXO
 40
0.5
  9
$DIMDLI
 40
11.286
  9
$DIMEXE
 40
1.5
  9
$DIMCEN
 40
2.673
  9
$DIMLFAC
 40
1.0
  9
$DIMBLK
  1
_FILLED
  9
$DIMALT
 70
0
  9
$DIMALTF
 40
0.0393700787
  9
$DIMTXT
 40
3.0
  9
$DIMTOL
 70
1
  9
$DIMLIM
 70
0
  9
$DIMTFAC
 40
1.0
  9
$DIMTP
 40
0.01
  9
$DIMTM
 40
0.01
  9
$DIMGAP
 40
0.625
  9
$DIMDSEP
 70
44
  9
$AUNITS
 70
0
  9
$PDMODE
 70
3
  9
$PDSIZE
 40
3.0
  9
$HANDSEED
  5
7AC
  9
$TILEMODE
 70
1
  9
$MEASUREMENT
 70
1
  9
$INSUNITS
 70
4
  0
ENDSEC
  0
SECTION
  2
CLASSES
  0
CLASS
  1
ACDBDICTIONARYWDFLT
  2
AcDbDictionaryWithDefault
  3
AutoCAD 2000
 90
0
 91
1
280
0
281
0
  0
CLASS
  1
ACDBPLACEHOLDER
  2
AcDbPlaceHolder
  3
AutoCAD 2000
 90
0
 91
1
280
0
281
0
  0
CLASS
  1
LAYOUT
  2
AcDbLayout
  3
AutoCAD 2000
 90
0
 91
0
280
0
281
0
  0
ENDSEC
  0
SECTION
  2
TABLES
  0
TABLE
  2
VPORT
  5
8
100
AcDbSymbolTable
 70
2
  0
VPORT
  5
1F4
100
AcDbSymbolTableRecord
100
AcDbViewportTableRecord
  2
*ACTIVE
 70
0
 10
0.0
 20
0.0
 11
1.0
 21
1.0
 12
148.5
 22
105.0
 13
0.0
 23
0.0
 14
1.0
 24
1.0
 15
0.0
 25
0.0
 16
0.0
 26
0.0
 36
1.0
 17
0.0
 27
0.0
 37
0.0
 40
210.0
 41
1.4142857143
 42
50.0
 43
0.0
 44
0.0
 50
0.0
 51
0.0
 71
0
 72
100
 73
1
 74
1
 75
0
 76
0
 77
0
 78
0
  0
ENDTAB
  0
TABLE
  2
LTYPE
  5
5
100
AcDbSymbolTable
 70
6
  0
LTYPE
  5
14
100
AcDbSymbolTableRecord
100
AcDbLinetypeTableRecord
  2
BYBLOCK
 70
0
  3

 72
65
 73
0
 40
0.0
  0
LTYPE
  5
15
100
AcDbSymbolTableRecord
100
AcDbLinetypeTableRecord
  2
BYLAYER
 70
0
  3

 72
65
 73
0
 40
0.0
  0
LTYPE
  5
16
100
AcDbSymbolTableRecord
100
AcDbLinetypeTableRecord
  2
CONTINUOUS
 70
64
  3
Solid line
 72
65
 73
0
 40
0.0
  0
LTYPE
  5
1F5
100
AcDbSymbolTableRecord
100
AcDbLinetypeTableRecord
  2
CENTER
 70
64
  3
____ _ ____ _ ____ _ ____ _ ____ _ ____ _ ____
 72
65
 73
4
 40
0.6
 49
0.375
 74
0
 49
-0.075
 74
0
 49
0.075
 74
0
 49
-0.075
 74
0
  0
LTYPE
  5
1F6
100
AcDbSymbolTableRecord
100
AcDbLinetypeTableRecord
  2
HIDDEN
 70
64
  3
- - - - - - - - - - - - - - - - - - - -
 72
65
 73
2
 40
0.2
 49
0.1
 74
0
 49
-0.1
 74
0
  0
LTYPE
  5
1F7
100
AcDbSymbolTableRecord
100
AcDbLinetypeTableRecord
  2
PHANTOM
 70
64
  3
_____ _ _ _____ _ _ _____ _ _ _____
 72
65
 73
6
 40
0.8
 49
0.45
 74
0
 49
-0.05
 74
0
 49
0.1
 74
0
 49
-0.05
 74
0
 49
0.1
 74
0
 49
-0.05
 74
0
  0
LTYPE
  5
1F8
100
AcDbSymbolTableRecord
100
AcDbLinetypeTableRecord
  2
DOT
 70
64
  3
. . . . . . . . . . . . . . . . . . . .
 72
65
 73
2
 40
0.2
 49
0.1
 74
0
 49
-0.1
 74
0
  0
LTYPE
  5
1F9
100
AcDbSymbolTableRecord
100
AcDbLinetypeTableRecord
  2
DASHED
 70
64
  3
- - - - - - - - - - - - - - - - - - - -
 72
65
 73
2
 40
0.2
 49
0.1
 74
0
 49
-0.1
 74
0
  0
ENDTAB
  0
TABLE
  2
LAYER
  5
2
100
AcDbSymbolTable
 70
36
  0
LAYER
  5
10
100
AcDbSymbolTableRecord
100
AcDbLayerTableRecord
  2
0
 70
0
 62
7
  6
CONTINUOUS
370
-3
390
F
  0
LAYER
  5
1FA
100
AcDbSymbolTableRecord
100
AcDbLayerTableRecord
  2
DEFAULT_1
 70
0
 62
7
  6
CENTER
370
-3
390
F
  0
LAYER
  5
1FB
100
AcDbSymbolTableRecord
100
AcDbLayerTableRecord
  2
DEFAULT_2
 70
0
 62
7
  6
HIDDEN
370
-3
390
F
  0
LAYER
  5
1FC
100
AcDbSymbolTableRecord
100
AcDbLayerTableRecord
  2
DEFAULT_3
 70
0
 62
7
  6
PHANTOM
370
-3
390
F
  0
LAYER
  5
1FD
100
AcDbSymbolTableRecord
100
AcDbLayerTableRecord
  2
ASSI
 70
0
 62
7
  6
CONTINUOUS
370
-3
390
F
  0
LAYER
  5
1FE
100
AcDbSymbolTableRecord
100
AcDbLayerTableRecord
  2
COORDINATE
 70
0
 62
7
  6
CONTINUOUS
370
-3
390
F
  0
LAYER
  5
1FF
100
AcDbSymbolTableRecord
100
AcDbLayerTableRecord
  2
COORD_ORIGINE
 70
0
 62
7
  6
CONTINUOUS
370
-3
390
F
  0
LAYER
  5
200
100
AcDbSymbolTableRecord
100
AcDbLayerTableRecord
  2
COPY
 70
0
 62
7
  6
CONTINUOUS
370
-3
390
F
  0
LAYER
  5
201
100
AcDbSymbolTableRecord
100
AcDbLayerTableRecord
  2
COPY_PUBLISH
 70
0
 62
7
  6
CONTINUOUS
370
-3
390
F
  0
LAYER
  5
202
100
AcDbSymbolTableRecord
100
AcDbLayerTableRecord
  2
COSMETICI
 70
0
 62
7
  6
CONTINUOUS
370
-3
390
F
  0
LAYER
  5
203
100
AcDbSymbolTableRecord
100
AcDbLayerTableRecord
  2
CURVE
 70
0
 62
7
  6
CONTINUOUS
370
-3
390
F
  0
LAYER
  5
204
100
AcDbSymbolTableRecord
100
AcDbLayerTableRecord
  2
DRAFT
 70
0
 62
7
  6
CONTINUOUS
370
-3
390
F
  0
LAYER
  5
205
100
AcDbSymbolTableRecord
100
AcDbLayerTableRecord
  2
IMPORT_IGES
 70
0
 62
7
  6
CONTINUOUS
370
-3
390
F
  0
LAYER
  5
206
100
AcDbSymbolTableRecord
100
AcDbLayerTableRecord
  2
INTFCLR_2
 70
0
 62
7
  6
CONTINUOUS
370
-3
390
F
  0
LAYER
  5
207
100
AcDbSymbolTableRecord
100
AcDbLayerTableRecord
  2
INTF_1
 70
0
 62
7
  6
CONTINUOUS
370
-3
390
F
  0
LAYER
  5
208
100
AcDbSymbolTableRecord
100
AcDbLayerTableRecord
  2
INTF_CYAN
 70
0
 62
7
  6
CONTINUOUS
370
-3
390
F
  0
LAYER
  5
209
100
AcDbSymbolTableRecord
100
AcDbLayerTableRecord
  2
INTF_YELLOW
 70
0
 62
7
  6
CONTINUOUS
370
-3
390
F
  0
LAYER
  5
20A
100
AcDbSymbolTableRecord
100
AcDbLayerTableRecord
  2
NOTE
 70
0
 62
7
  6
CONTINUOUS
370
-3
390
F
  0
LAYER
  5
20B
100
AcDbSymbolTableRecord
100
AcDbLayerTableRecord
  2
PIANI
 70
0
 62
7
  6
CONTINUOUS
370
-3
390
F
  0
LAYER
  5
20C
100
AcDbSymbolTableRecord
100
AcDbLayerTableRecord
  2
PIANI_ORIGINE
 70
0
 62
7
  6
CONTINUOUS
370
-3
390
F
  0
LAYER
  5
20D
100
AcDbSymbolTableRecord
100
AcDbLayerTableRecord
  2
PIANI_RIFERIMENTO
 70
0
 62
7
  6
CONTINUOUS
370
-3
390
F
  0
LAYER
  5
20E
100
AcDbSymbolTableRecord
100
AcDbLayerTableRecord
  2
PIANI_SFORMO
 70
0
 62
7
  6
CONTINUOUS
370
-3
390
F
  0
LAYER
  5
20F
100
AcDbSymbolTableRecord
100
AcDbLayerTableRecord
  2
PUNTI
 70
0
 62
7
  6
CONTINUOUS
370
-3
390
F
  0
LAYER
  5
210
100
AcDbSymbolTableRecord
100
AcDbLayerTableRecord
  2
RACCORDO
 70
0
 62
7
  6
CONTINUOUS
370
-3
390
F
  0
LAYER
  5
211
100
AcDbSymbolTableRecord
100
AcDbLayerTableRecord
  2
SIMBOLI
 70
0
 62
7
  6
CONTINUOUS
370
-3
390
F
  0
LAYER
  5
212
100
AcDbSymbolTableRecord
100
AcDbLayerTableRecord
  2
SMUSSO
 70
0
 62
7
  6
CONTINUOUS
370
-3
390
F
  0
LAYER
  5
213
100
AcDbSymbolTableRecord
100
AcDbLayerTableRecord
  2
SNAPLINE
 70
0
 62
7
  6
CONTINUOUS
370
-3
390
F
  0
LAYER
  5
214
100
AcDbSymbolTableRecord
100
AcDbLayerTableRecord
  2
SUPERFICI
 70
0
 62
7
  6
CONTINUOUS
370
-3
390
F
  0
LAYER
  5
215
100
AcDbSymbolTableRecord
100
AcDbLayerTableRecord
  2
TRASH
 70
0
 62
7
  6
CONTINUOUS
370
-3
390
F
  0
LAYER
  5
216
100
AcDbSymbolTableRecord
100
AcDbLayerTableRecord
  2
XSEC_DATUMS
 70
0
 62
7
  6
CONTINUOUS
370
-3
390
F
  0
ENDTAB
  0
TABLE
  2
STYLE
  5
3
100
AcDbSymbolTable
 70
1
  0
STYLE
  5
11
100
AcDbSymbolTableRecord
100
AcDbTextStyleTableRecord
  2
STANDARD
 70
0
 40
0.0
 41
0.8
 50
0.0
 71
0
 42
0.2
  3
txt
  4

  0
STYLE
  5
217
100
AcDbSymbolTableRecord
100
AcDbTextStyleTableRecord
  2
TEXTSTYLE_1
 70
0
 40
0.0
 41
0.8
 50
0.0
 71
0
 42
0.2
  3
gdt
  4

  0
ENDTAB
  0
TABLE
  2
VIEW
  5
6
100
AcDbSymbolTable
 70
0
  0
ENDTAB
  0
TABLE
  2
UCS
  5
7
100
AcDbSymbolTable
 70
0
  0
ENDTAB
  0
TABLE
  2
APPID
  5
9
100
AcDbSymbolTable
 70
1
  0
APPID
  5
218
100
AcDbSymbolTableRecord
100
AcDbRegAppTableRecord
  2
ACAD
 70
0
  0
ENDTAB
  0
TABLE
  2
BLOCK_RECORD
  5
1
100
AcDbSymbolTable
 70
0
  0
BLOCK_RECORD
  5
219
100
AcDbSymbolTableRecord
100
AcDbBlockTableRecord
  2
*Model_Space
  0
BLOCK_RECORD
  5
21A
100
AcDbSymbolTableRecord
100
AcDbBlockTableRecord
  2
*Paper_Space
  0
BLOCK_RECORD
  5
21B
100
AcDbSymbolTableRecord
100
AcDbBlockTableRecord
  2
_FILLED
  0
BLOCK_RECORD
  5
21C
100
AcDbSymbolTableRecord
100
AcDbBlockTableRecord
  2
*D0
  0
BLOCK_RECORD
  5
21D
100
AcDbSymbolTableRecord
100
AcDbBlockTableRecord
  2
*D1
  0
BLOCK_RECORD
  5
21E
100
AcDbSymbolTableRecord
100
AcDbBlockTableRecord
  2
*D2
  0
ENDTAB
  0
TABLE
  2
DIMSTYLE
  5
A
100
AcDbSymbolTable
 70
1
100
AcDbDimStyleTable
 71
0
  0
DIMSTYLE
105
21F
100
AcDbSymbolTableRecord
100
AcDbDimStyleTableRecord
  2
STANDARD
 70
0
  3

  4

 40
1.0
 41
3.0
 42
0.5
 43
0.38
 44
1.5
 45
0.0
 46
0.0
 47
0.01
 48
0.01
140
3.0
141
0.0
142
0.0
143
25.4
144
1.0
145
0.0
146
1.0
147
0.625
 71
1
 72
0
 73
0
 74
0
 75
0
 76
0
 77
1
 78
8
 79
2
170
0
171
1
172
0
173
0
174
0
175
0
176
0
177
0
178
0
270
2
179
2
271
2
272
2
273
2
274
2
275
0
280
0
281
0
282
0
283
1
284
8
285
0
286
0
287
3
288
0
340
11
278
44
341
21B
342
21B
343
21B
344
21B
  0
DIMSTYLE
105
220
100
AcDbSymbolTableRecord
100
AcDbDimStyleTableRecord
  2
DIMSTYLE_1
 70
0
  3

  4

 40
1.0
 41
3.0
 42
0.5
 43
0.38
 44
1.5
 45
0.0
 46
0.0
 47
0.0
 48
0.0
140
3.0
141
0.0
142
0.0
143
25.4
144
1.0
145
0.0
146
1.0
147
0.75
 71
0
 72
0
 73
0
 74
0
 75
0
 76
0
 77
1
 78
8
 79
2
170
0
171
1
172
0
173
0
174
0
175
0
176
0
177
0
178
0
270
2
179
2
271
2
272
2
273
2
274
2
275
0
280
0
281
0
282
0
283
1
284
8
285
0
286
0
287
3
288
0
340
11
278
44
341
21B
342
21B
343
21B
344
21B
  0
ENDTAB
  0
ENDSEC
  0
SECTION
  2
BLOCKS
  0
BLOCK
  5
20
100
AcDbEntity
  8
0
100
AcDbBlockBegin
  2
*Model_Space
 70
0
 10
0.0
 20
0.0
 30
0.0
  3
*Model_Space
  1

  0
ENDBLK
  5
21
100
AcDbEntity
  8
0
100
AcDbBlockEnd
  0
BLOCK
  5
1C
100
AcDbEntity
  8
0
100
AcDbBlockBegin
  2
*Paper_Space
 70
0
 10
0.0
 20
0.0
 30
0.0
  3
*Paper_Space
  1

  0
ENDBLK
  5
1D
100
AcDbEntity
  8
0
100
AcDbBlockEnd
  0
BLOCK
  5
221
100
AcDbEntity
  8
0
100
AcDbBlockBegin
  2
_FILLED
 70
64
 10
0.0
 20
0.0
 30
0.0
  3
_FILLED
  1

  0
SOLID
  5
222
100
AcDbEntity
  8
0
  6
BYBLOCK
 62
0
100
AcDbTrace
 10
0.0
 20
0.0
 30
0.0
 11
-1.0
 21
0.3166666667
 31
0.0
 12
-1.0
 22
-0.3166666667
 32
0.0
 13
-1.0
 23
-0.3166666667
 33
0.0
  0
ENDBLK
  5
223
100
AcDbEntity
  8
0
  6
BYBLOCK
 62
0
100
AcDbBlockEnd
  0
BLOCK
  5
224
100
AcDbEntity
  8
0
100
AcDbBlockBegin
 62
7
  6
CONTINUOUS
  2
*D0
 70
65
 10
0.0
 20
0.0
 30
0.0
  3
*D0
  1

  0
MTEXT
  5
225
100
AcDbEntity
  8
0
100
AcDbMText
 62
7
  6
CONTINUOUS
  7
STANDARD
 71
2
 72
1
 10
2.1517732781
 20
21.2970593112
 30
0.0
 11
0.0
 21
1.0
 31
0.0
 73
2
 44
0.9
  1
{\ftxt;\W0.0001;\H0.0001;\~}{\ftxt;\W1.5714285714;\H3.0; }{\ftxt;\W0.0001;\H0.0001;\~}
 40
3.0
 41
7.0714285714
  0
LINE
  5
226
100
AcDbEntity
  8
0
100
AcDbLine
 62
7
  6
CONTINUOUS
 10
-2.8482224912
 20
45.7970593112
 30
0.0
 11
7.4017732781
 21
45.7970593112
 31
0.0
  0
LINE
  5
227
100
AcDbEntity
  8
0
100
AcDbLine
 62
7
  6
CONTINUOUS
 10
-2.8482224912
 20
-3.2029406888
 30
0.0
 11
7.4017732781
 21
-3.2029406888
 31
0.0
  0
LINE
  5
228
100
AcDbEntity
  8
0
100
AcDbLine
 62
7
  6
CONTINUOUS
 10
5.9017732781
 20
45.7970593112
 30
0.0
 11
5.9017732781
 21
21.2970593112
 31
0.0
  0
LINE
  5
229
100
AcDbEntity
  8
0
100
AcDbLine
 62
7
  6
CONTINUOUS
 10
5.9017732781
 20
-3.2029406888
 30
0.0
 11
5.9017732781
 21
21.2970593112
 31
0.0
  0
INSERT
  5
22A
100
AcDbEntity
  8
0
100
AcDbBlockReference
 62
7
  6
CONTINUOUS
  2
_FILLED
 10
5.9017732781
 20
45.7970593112
 30
0.0
 41
3.0
 42
3.0
 43
3.0
 50
90.0
  0
INSERT
  5
22B
100
AcDbEntity
  8
0
100
AcDbBlockReference
 62
7
  6
CONTINUOUS
  2
_FILLED
 10
5.9017732781
 20
-3.2029406888
 30
0.0
 41
3.0
 42
3.0
 43
3.0
 50
270.0
  0
ENDBLK
  5
22C
100
AcDbEntity
  8
0
  6
BYBLOCK
 62
0
100
AcDbBlockEnd
  0
BLOCK
  5
22D
100
AcDbEntity
  8
0
100
AcDbBlockBegin
 62
7
  6
CONTINUOUS
  2
*D1
 70
65
 10
0.0
 20
0.0
 30
0.0
  3
*D1
  1

  0
MTEXT
  5
22E
100
AcDbEntity
  8
0
100
AcDbMText
 62
7
  6
CONTINUOUS
  7
STANDARD
 71
2
 72
1
 10
-68.1298738069
 20
57.5470593112
 30
0.0
 11
1.0
 21
0.0
 31
0.0
 73
2
 44
0.9
  1
{\ftxt;\W0.0001;\H0.0001;\~}{\ftxt;\W2.6428571429;\H3.0; }{\ftxt;\W0.0001;\H0.0001;\~}
 40
3.0
 41
11.8928571429
  0
LINE
  5
22F
100
AcDbEntity
  8
0
100
AcDbLine
 62
7
  6
CONTINUOUS
 10
-47.3798738069
 20
37.9470593112
 30
0.0
 11
-47.3798738069
 21
55.2970593112
 31
0.0
  0
LINE
  5
230
100
AcDbEntity
  8
0
100
AcDbLine
 62
7
  6
CONTINUOUS
 10
-88.8798738069
 20
46.042691708
 30
0.0
 11
-88.8798738069
 21
55.2970593112
 31
0.0
  0
LINE
  5
231
100
AcDbEntity
  8
0
100
AcDbLine
 62
7
  6
CONTINUOUS
 10
-47.3798738069
 20
53.7970593112
 30
0.0
 11
-68.1298738069
 21
53.7970593112
 31
0.0
  0
LINE
  5
232
100
AcDbEntity
  8
0
100
AcDbLine
 62
7
  6
CONTINUOUS
 10
-88.8798738069
 20
53.7970593112
 30
0.0
 11
-68.1298738069
 21
53.7970593112
 31
0.0
  0
INSERT
  5
233
100
AcDbEntity
  8
0
100
AcDbBlockReference
 62
7
  6
CONTINUOUS
  2
_FILLED
 10
-47.3798738069
 20
53.7970593112
 30
0.0
 41
3.0
 42
3.0
 43
3.0
  0
INSERT
  5
234
100
AcDbEntity
  8
0
100
AcDbBlockReference
 62
7
  6
CONTINUOUS
  2
_FILLED
 10
-88.8798738069
 20
53.7970593112
 30
0.0
 41
3.0
 42
3.0
 43
3.0
 50
180.0
  0
ENDBLK
  5
235
100
AcDbEntity
  8
0
  6
BYBLOCK
 62
0
100
AcDbBlockEnd
  0
BLOCK
  5
236
100
AcDbEntity
  8
0
100
AcDbBlockBegin
 62
7
  6
CONTINUOUS
  2
*D2
 70
65
 10
0.0
 20
0.0
 30
0.0
  3
*D2
  1

  0
MTEXT
  5
237
100
AcDbEntity
  8
0
100
AcDbMText
 62
7
  6
CONTINUOUS
  7
STANDARD
 71
2
 72
1
 10
-72.8798738069
 20
67.5470593112
 30
0.0
 11
1.0
 21
0.0
 31
0.0
 73
2
 44
0.9
  1
{\ftxt;\W0.0001;\H0.0001;\~}{\ftxt;\W1.2857142857;\H3.0; }{\ftxt;\W0.0001;\H0.0001;\~}
 40
3.0
 41
5.7857142857
  0
LINE
  5
238
100
AcDbEntity
  8
0
100
AcDbLine
 62
7
  6
CONTINUOUS
 10
-98.3798738069
 20
21.7970593112
 30
0.0
 11
-98.3798738069
 21
65.2970593112
 31
0.0
  0
LINE
  5
239
100
AcDbEntity
  8
0
100
AcDbLine
 62
7
  6
CONTINUOUS
 10
-47.3798738069
 20
37.9470593112
 30
0.0
 11
-47.3798738069
 21
65.2970593112
 31
0.0
  0
LINE
  5
23A
100
AcDbEntity
  8
0
100
AcDbLine
 62
7
  6
CONTINUOUS
 10
-98.3798738069
 20
63.7970593112
 30
0.0
 11
-72.8798738069
 21
63.7970593112
 31
0.0
  0
LINE
  5
23B
100
AcDbEntity
  8
0
100
AcDbLine
 62
7
  6
CONTINUOUS
 10
-47.3798738069
 20
63.7970593112
 30
0.0
 11
-72.8798738069
 21
63.7970593112
 31
0.0
  0
INSERT
  5
23C
100
AcDbEntity
  8
0
100
AcDbBlockReference
 62
7
  6
CONTINUOUS
  2
_FILLED
 10
-98.3798738069
 20
63.7970593112
 30
0.0
 41
3.0
 42
3.0
 43
3.0
 50
180.0
  0
INSERT
  5
23D
100
AcDbEntity
  8
0
100
AcDbBlockReference
 62
7
  6
CONTINUOUS
  2
_FILLED
 10
-47.3798738069
 20
63.7970593112
 30
0.0
 41
3.0
 42
3.0
 43
3.0
  0
ENDBLK
  5
23E
100
AcDbEntity
  8
0
  6
BYBLOCK
 62
0
100
AcDbBlockEnd
  0
ENDSEC
  0
SECTION
  2
ENTITIES
  0
DIMENSION
  5
23F
100
AcDbEntity
  8
0
100
AcDbDimension
 62
7
  6
CONTINUOUS
  2
*D0
 10
5.9017732781
 20
-3.2029406888
 30
0.0
 11
5.9017732781
 21
20.8684881153
 31
0.0
 70
160
 71
2
 72
2
 41
0.9
 42
49.0
  1
{\ftxt;\W0.0001;\H0.0001;\~}{\ftxt;\W1.5714285714;\H3.0; }{\ftxt;\W0.0001;\H0.0001;\~}
  3
DIMSTYLE_1
100
AcDbAlignedDimension
 13
-3.3482224912
 23
45.7970593112
 33
0.0
 14
-3.3482224912
 24
-3.2029406888
 34
0.0
 50
270.0
100
AcDbRotatedDimension
  0
DIMENSION
  5
240
100
AcDbEntity
  8
0
100
AcDbDimension
 62
7
  6
CONTINUOUS
  2
*D1
 10
-88.8798738069
 20
53.7970593112
 30
0.0
 11
-68.5584433823
 21
53.7970593112
 31
0.0
 70
160
 71
2
 72
2
 41
0.9
 42
41.5
  1
{\ftxt;\W0.0001;\H0.0001;\~}{\ftxt;\W2.6428571429;\H3.0; }{\ftxt;\W0.0001;\H0.0001;\~}
  3
DIMSTYLE_1
100
AcDbAlignedDimension
 13
-47.3798738069
 23
37.4470593112
 33
0.0
 14
-88.8798738069
 24
45.542691708
 34
0.0
 50
180.0
100
AcDbRotatedDimension
  0
DIMENSION
  5
241
100
AcDbEntity
  8
0
100
AcDbDimension
 62
7
  6
CONTINUOUS
  2
*D2
 10
-47.3798738069
 20
63.7970593112
 30
0.0
 11
-73.3084448318
 21
63.7970593112
 31
0.0
 70
160
 71
2
 72
2
 41
0.9
 42
51.0
  1
{\ftxt;\W0.0001;\H0.0001;\~}{\ftxt;\W1.2857142857;\H3.0; }{\ftxt;\W0.0001;\H0.0001;\~}
  3
DIMSTYLE_1
100
AcDbAlignedDimension
 13
-98.3798738069
 23
21.2970593112
 33
0.0
 14
-47.3798738069
 24
37.4470593112
 34
0.0
100
AcDbRotatedDimension
  0
LINE
  5
242
100
AcDbEntity
  8
0
100
AcDbLine
 62
7
  6
CONTINUOUS
 10
-23.1482309527
 20
-3.2029406888
 30
0.0
 11
-20.7482224912
 21
-3.2029406888
 31
0.0
  0
LINE
  5
243
100
AcDbEntity
  8
0
100
AcDbLine
 62
7
  6
CONTINUOUS
 10
-5.7482309527
 20
-3.2029406888
 30
0.0
 11
-3.3482224912
 21
-3.2029406888
 31
0.0
  0
LINE
  5
244
100
AcDbEntity
  8
0
100
AcDbLine
 62
7
  6
CONTINUOUS
 10
-23.135132374
 20
-3.1898421101
 30
0.0
 11
-20.7613210699
 21
-3.1898421101
 31
0.0
  0
LINE
  5
245
100
AcDbEntity
  8
0
100
AcDbLine
 62
7
  6
CONTINUOUS
 10
-5.735132374
 20
-3.1898421101
 30
0.0
 11
-3.3613210699
 21
-3.1898421101
 31
0.0
  0
LINE
  5
246
100
AcDbEntity
  8
0
100
AcDbLine
 62
250
  6
CONTINUOUS
 10
-3.1113253007
 20
-2.9398463408
 30
0.0
 11
-5.9851281432
 21
-2.9398463408
 31
0.0
  0
LINE
  5
247
100
AcDbEntity
  8
0
100
AcDbLine
 62
250
  6
CONTINUOUS
 10
-20.5113253007
 20
-2.9398463408
 30
0.0
 11
-23.3851281432
 21
-2.9398463408
 31
0.0
  0
LINE
  5
248
100
AcDbEntity
  8
0
100
AcDbLine
 62
7
  6
CONTINUOUS
 10
-8.7982267219
 20
-2.7029406888
 30
0.0
 11
-9.7499619414
 21
-2.7029406888
 31
0.0
  0
LINE
  5
249
100
AcDbEntity
  8
0
100
AcDbLine
 62
7
  6
CONTINUOUS
 10
-16.7464915025
 20
-2.7029406888
 30
0.0
 11
-17.6982267219
 21
-2.7029406888
 31
0.0
  0
LINE
  5
24A
100
AcDbEntity
  8
0
100
AcDbLine
 62
7
  6
CONTINUOUS
 10
-16.7464915025
 20
-2.7011885705
 30
0.0
 11
-14.450852398
 21
-2.7011885705
 31
0.0
  0
LINE
  5
24B
100
AcDbEntity
  8
0
100
AcDbLine
 62
7
  6
CONTINUOUS
 10
-12.0456010459
 20
-2.7011885705
 30
0.0
 11
-9.7499619414
 21
-2.7011885705
 31
0.0
  0
LINE
  5
24C
100
AcDbEntity
  8
0
100
AcDbLine
 62
7
  6
CONTINUOUS
 10
-8.8069534667
 20
-2.6942139441
 30
0.0
 11
-9.7394998541
 21
-2.6942139441
 31
0.0
  0
LINE
  5
24D
100
AcDbEntity
  8
0
100
AcDbLine
 62
7
  6
CONTINUOUS
 10
-16.7569535897
 20
-2.6942139441
 30
0.0
 11
-17.6894999772
 21
-2.6942139441
 31
0.0
  0
LINE
  5
24E
100
AcDbEntity
  8
0
100
AcDbLine
 62
250
  6
CONTINUOUS
 10
-3.1113253007
 20
-2.5472782561
 30
0.0
 11
-5.9851281432
 21
-2.5472782561
 31
0.0
  0
LINE
  5
24F
100
AcDbEntity
  8
0
100
AcDbLine
 62
250
  6
CONTINUOUS
 10
-20.5113253007
 20
-2.5472782561
 30
0.0
 11
-23.3851281432
 21
-2.5472782561
 31
0.0
  0
LINE
  5
250
100
AcDbEntity
  8
0
100
AcDbLine
 62
250
  6
CONTINUOUS
 10
-16.7482267219
 20
-2.5011919551
 30
0.0
 11
-14.2508600133
 21
-2.5011919551
 31
0.0
  0
LINE
  5
251
100
AcDbEntity
  8
0
100
AcDbLine
 62
250
  6
CONTINUOUS
 10
-9.7482267219
 20
-2.5011919551
 30
0.0
 11
-12.2455934305
 21
-2.5011919551
 31
0.0
  0
LINE
  5
252
100
AcDbEntity
  8
0
100
AcDbLine
 62
250
  6
CONTINUOUS
 10
-3.3613210699
 20
-2.3307719051
 30
0.0
 11
-5.735132374
 21
-2.3307719051
 31
0.0
  0
LINE
  5
253
100
AcDbEntity
  8
0
100
AcDbLine
 62
250
  6
CONTINUOUS
 10
-20.7613210699
 20
-2.3307719051
 30
0.0
 11
-23.135132374
 21
-2.3307719051
 31
0.0
  0
LINE
  5
254
100
AcDbEntity
  8
0
100
AcDbLine
 62
7
  6
CONTINUOUS
 10
-23.1409502038
 20
-1.8255904196
 30
0.0
 11
-20.7555032401
 21
-1.8255904196
 31
0.0
  0
LINE
  5
255
100
AcDbEntity
  8
0
100
AcDbLine
 62
7
  6
CONTINUOUS
 10
-3.3555032401
 20
-1.8255904196
 30
0.0
 11
-5.7409502038
 21
-1.8255904196
 31
0.0
  0
LINE
  5
256
100
AcDbEntity
  8
0
100
AcDbLine
 62
250
  6
CONTINUOUS
 10
-20.7613210699
 20
45.7839607325
 30
0.0
 11
-20.7482224912
 21
45.7970593112
 31
0.0
  0
LINE
  5
257
100
AcDbEntity
  8
0
100
AcDbLine
 62
250
  6
CONTINUOUS
 10
-20.5113253007
 20
45.5339649633
 30
0.0
 11
-20.4982267219
 21
45.547063542
 31
0.0
  0
LINE
  5
258
100
AcDbEntity
  8
0
100
AcDbLine
 62
7
  6
CONTINUOUS
 10
-16.7569535897
 20
45.2883325665
 30
0.0
 11
-16.7464915025
 21
45.295307193
 31
0.0
  0
LINE
  5
259
100
AcDbEntity
  8
ASSI
100
AcDbLine
 62
7
  6
CONTINUOUS
 10
-9.6482267219
 20
-1.0243290199
 30
0.0
 11
-8.9482267219
 21
-0.9876435744
 31
0.0
  0
LINE
  5
25A
100
AcDbEntity
  8
0
100
AcDbLine
 62
7
  6
CONTINUOUS
 10
-9.6482267219
 20
-1.0243290199
 30
0.0
 11
-8.9482267219
 21
-0.9876435744
 31
0.0
  0
LINE
  5
25B
100
AcDbEntity
  8
ASSI
100
AcDbLine
 62
7
  6
CONTINUOUS
 10
-20.8482267219
 20
-1.0243290199
 30
0.0
 11
-20.1482267219
 21
-0.9876435744
 31
0.0
  0
LINE
  5
25C
100
AcDbEntity
  8
0
100
AcDbLine
 62
7
  6
CONTINUOUS
 10
-20.8482267219
 20
-1.0243290199
 30
0.0
 11
-20.1482267219
 21
-0.9876435744
 31
0.0
  0
LINE
  5
25D
100
AcDbEntity
  8
0
100
AcDbLine
 62
7
  6
CONTINUOUS
 10
-14.2482267219
 20
-1.1029406888
 30
0.0
 11
-12.2482267219
 21
-1.1029406888
 31
0.0
  0
LINE
  5
25E
100
AcDbEntity
  8
0
100
AcDbLine
 62
7
  6
CONTINUOUS
 10
-2.5978461222
 20
-1.1029406888
 30
0.0
 11
-3.0982267219
 21
-1.1029406888
 31
0.0
  0
LINE
  5
25F
100
AcDbEntity
  8
0
100
AcDbLine
 62
7
  6
CONTINUOUS
 10
-5.9982267219
 20
-1.1029406888
 30
0.0
 11
-8.7982267219
 21
-1.1029406888
 31
0.0
  0
LINE
  5
260
100
AcDbEntity
  8
0
100
AcDbLine
 62
7
  6
CONTINUOUS
 10
-17.6982267219
 20
-1.1029406888
 30
0.0
 11
-20.4982267219
 21
-1.1029406888
 31
0.0
  0
LINE
  5
261
100
AcDbEntity
  8
0
100
AcDbLine
 62
7
  6
CONTINUOUS
 10
-23.3982267219
 20
-1.1029406888
 30
0.0
 11
-23.8986073217
 21
-1.1029406888
 31
0.0
  0
LINE
  5
262
100
AcDbEntity
  8
0
100
AcDbLine
 62
7
  6
CONTINUOUS
 10
-9.7482267219
 20
-1.0767367991
 30
0.0
 11
-12.0456010459
 21
-1.0767367991
 31
0.0
  0
LINE
  5
263
100
AcDbEntity
  8
0
100
AcDbLine
 62
7
  6
CONTINUOUS
 10
-14.450852398
 20
-1.0767367991
 30
0.0
 11
-16.7482267219
 21
-1.0767367991
 31
0.0
  0
LINE
  5
264
100
AcDbEntity
  8
ASSI
100
AcDbLine
 62
7
  6
CONTINUOUS
 10
-23.8486073217
 20
-1.0243290199
 30
0.0
 11
-20.8482267219
 21
-1.0243290199
 31
0.0
  0
LINE
  5
265
100
AcDbEntity
  8
RACCORDO
100
AcDbLine
 62
7
  6
CONTINUOUS
 10
-23.8486073217
 20
-1.0243290199
 30
0.0
 11
-20.8482267219
 21
-1.0243290199
 31
0.0
  0
LINE
  5
266
100
AcDbEntity
  8
ASSI
100
AcDbLine
 62
7
  6
CONTINUOUS
 10
-16.8482267219
 20
-1.0243290199
 30
0.0
 11
-9.6482267219
 21
-1.0243290199
 31
0.0
  0
LINE
  5
267
100
AcDbEntity
  8
0
100
AcDbLine
 62
7
  6
CONTINUOUS
 10
-16.8482267219
 20
-1.0243290199
 30
0.0
 11
-9.6482267219
 21
-1.0243290199
 31
0.0
  0
LINE
  5
268
100
AcDbEntity
  8
ASSI
100
AcDbLine
 62
7
  6
CONTINUOUS
 10
-5.6482267219
 20
-1.0243290199
 30
0.0
 11
-2.6478461222
 21
-1.0243290199
 31
0.0
  0
LINE
  5
269
100
AcDbEntity
  8
RACCORDO
100
AcDbLine
 62
7
  6
CONTINUOUS
 10
-5.6482267219
 20
-1.0243290199
 30
0.0
 11
-2.6478461222
 21
-1.0243290199
 31
0.0
  0
LINE
  5
26A
100
AcDbEntity
  8
0
100
AcDbLine
 62
7
  6
CONTINUOUS
 10
-2.6240287196
 20
-1.0243290199
 30
0.0
 11
-3.3555032401
 21
-1.0243290199
 31
0.0
  0
LINE
  5
26B
100
AcDbEntity
  8
0
100
AcDbLine
 62
7
  6
CONTINUOUS
 10
-5.7482267219
 20
-1.0243290199
 30
0.0
 11
-9.5482267219
 21
-1.0243290199
 31
0.0
  0
LINE
  5
26C
100
AcDbEntity
  8
0
100
AcDbLine
 62
7
  6
CONTINUOUS
 10
-16.9482267219
 20
-1.0243290199
 30
0.0
 11
-20.7482267219
 21
-1.0243290199
 31
0.0
  0
LINE
  5
26D
100
AcDbEntity
  8
0
100
AcDbLine
 62
7
  6
CONTINUOUS
 10
-23.1409502038
 20
-1.0243290199
 30
0.0
 11
-23.8724247243
 21
-1.0243290199
 31
0.0
  0
LINE
  5
26E
100
AcDbEntity
  8
ASSI
100
AcDbLine
 62
7
  6
CONTINUOUS
 10
-20.1482267219
 20
-0.9876435744
 30
0.0
 11
-17.5482267219
 21
-0.9876435744
 31
0.0
  0
LINE
  5
26F
100
AcDbEntity
  8
0
100
AcDbLine
 62
7
  6
CONTINUOUS
 10
-20.1482267219
 20
-0.9876435744
 30
0.0
 11
-17.5482267219
 21
-0.9876435744
 31
0.0
  0
LINE
  5
270
100
AcDbEntity
  8
ASSI
100
AcDbLine
 62
7
  6
CONTINUOUS
 10
-8.9482267219
 20
-0.9876435744
 30
0.0
 11
-6.3482267219
 21
-0.9876435744
 31
0.0
  0
LINE
  5
271
100
AcDbEntity
  8
0
100
AcDbLine
 62
7
  6
CONTINUOUS
 10
-8.9482267219
 20
-0.9876435744
 30
0.0
 11
-6.3482267219
 21
-0.9876435744
 31
0.0
  0
LINE
  5
272
100
AcDbEntity
  8
ASSI
100
AcDbLine
 62
250
  6
CONTINUOUS
 10
-2.7348288488
 20
-0.7631686314
 30
0.0
 11
-23.7616245951
 21
-0.7631686314
 31
0.0
  0
LINE
  5
273
100
AcDbEntity
  8
RACCORDO
100
AcDbLine
 62
250
  6
CONTINUOUS
 10
-2.7348288488
 20
-0.7631686314
 30
0.0
 11
-23.7616245951
 21
-0.7631686314
 31
0.0
  0
LINE
  5
274
100
AcDbEntity
  8
ASSI
100
AcDbLine
 62
7
  6
CONTINUOUS
 10
-17.5482267219
 20
-0.9876435744
 30
0.0
 11
-16.8482267219
 21
-1.0243290199
 31
0.0
  0
LINE
  5
275
100
AcDbEntity
  8
0
100
AcDbLine
 62
7
  6
CONTINUOUS
 10
-17.5482267219
 20
-0.9876435744
 30
0.0
 11
-16.8482267219
 21
-1.0243290199
 31
0.0
  0
LINE
  5
276
100
AcDbEntity
  8
ASSI
100
AcDbLine
 62
7
  6
CONTINUOUS
 10
-6.3482267219
 20
-0.9876435744
 30
0.0
 11
-5.6482267219
 21
-1.0243290199
 31
0.0
  0
LINE
  5
277
100
AcDbEntity
  8
0
100
AcDbLine
 62
7
  6
CONTINUOUS
 10
-6.3482267219
 20
-0.9876435744
 30
0.0
 11
-5.6482267219
 21
-1.0243290199
 31
0.0
  0
LINE
  5
278
100
AcDbEntity
  8
0
100
AcDbLine
 62
7
  6
CONTINUOUS
 10
-16.7464915025
 20
-2.7011885705
 30
0.0
 11
-16.7569535897
 21
-2.6942139441
 31
0.0
  0
LINE
  5
279
100
AcDbEntity
  8
0
100
AcDbLine
 62
250
  6
CONTINUOUS
 10
-20.7613210699
 20
-3.1898421101
 30
0.0
 11
-20.7482224912
 21
-3.2029406888
 31
0.0
  0
LINE
  5
27A
100
AcDbEntity
  8
0
100
AcDbLine
 62
250
  6
CONTINUOUS
 10
-20.5113253007
 20
-2.9398463408
 30
0.0
 11
-20.4982267219
 21
-2.9529449196
 31
0.0
  0
LINE
  5
27B
100
AcDbEntity
  8
ASSI
100
AcDbLine
 62
250
  6
CONTINUOUS
 10
-2.7430020375
 20
0.0863420186
 30
0.0
 11
-23.7534514063
 21
0.0863420186
 31
0.0
  0
LINE
  5
27C
100
AcDbEntity
  8
RACCORDO
100
AcDbLine
 62
250
  6
CONTINUOUS
 10
-2.7430020375
 20
0.0863420186
 30
0.0
 11
-23.7534514063
 21
0.0863420186
 31
0.0
  0
LINE
  5
27D
100
AcDbEntity
  8
CURVE
100
AcDbLine
 62
250
  6
CONTINUOUS
 10
-21.5266200407
 20
5.0326959263
 30
0.0
 11
-21.54953718
 21
5.0381662419
 31
0.0
  0
LINE
  5
27E
100
AcDbEntity
  8
CURVE
100
AcDbLine
 62
250
  6
CONTINUOUS
 10
-21.54953718
 20
5.0381662419
 30
0.0
 11
-21.5713471033
 21
5.0471684846
 31
0.0
  0
LINE
  5
27F
100
AcDbEntity
  8
CURVE
100
AcDbLine
 62
250
  6
CONTINUOUS
 10
-21.5713471033
 20
5.0471684846
 30
0.0
 11
-21.5915554238
 21
5.0595262011
 31
0.0
  0
LINE
  5
280
100
AcDbEntity
  8
CURVE
100
AcDbLine
 62
250
  6
CONTINUOUS
 10
-21.5915554238
 20
5.0595262011
 30
0.0
 11
-21.5973431259
 21
5.0639419156
 31
0.0
  0
LINE
  5
281
100
AcDbEntity
  8
0
100
AcDbLine
 62
7
  6
CONTINUOUS
 10
-24.3982267219
 20
34.4970593112
 30
0.0
 11
-24.3720441245
 21
34.5232419086
 31
0.0
  0
LINE
  5
282
100
AcDbEntity
  8
CURVE
100
AcDbLine
 62
250
  6
CONTINUOUS
 10
-17.7912771353
 20
5.0308579921
 30
0.0
 11
-21.5030254598
 21
5.0308579921
 31
0.0
  0
LINE
  5
283
100
AcDbEntity
  8
CURVE
100
AcDbLine
 62
250
  6
CONTINUOUS
 10
-20.9435415839
 20
5.330581497
 30
0.0
 11
-17.940794378
 21
5.330581497
 31
0.0
  0
LINE
  5
284
100
AcDbEntity
  8
CURVE
100
AcDbLine
 62
250
  6
CONTINUOUS
 10
-21.5030254598
 20
5.0308579921
 30
0.0
 11
-21.5266200407
 21
5.0326959263
 31
0.0
  0
LINE
  5
285
100
AcDbEntity
  8
CURVE
100
AcDbLine
 62
250
  6
CONTINUOUS
 10
-21.5973431259
 20
5.0639419156
 30
0.0
 11
-21.6146164819
 21
5.0801848975
 31
0.0
  0
LINE
  5
286
100
AcDbEntity
  8
0
100
AcDbLine
 62
7
  6
CONTINUOUS
 10
-24.3982267219
 20
8.0970593112
 30
0.0
 11
-24.3720441245
 21
8.0708767138
 31
0.0
  0
LINE
  5
287
100
AcDbEntity
  8
CURVE
100
AcDbLine
 62
250
  6
CONTINUOUS
 10
-21.6146164819
 20
5.0801848975
 30
0.0
 11
-21.6290750767
 21
5.098863388
 31
0.0
  0
LINE
  5
288
100
AcDbEntity
  8
CURVE
100
AcDbLine
 62
250
  6
CONTINUOUS
 10
-17.7449152582
 20
5.0381422887
 30
0.0
 11
-17.76773753
 21
5.0326911901
 31
0.0
  0
LINE
  5
289
100
AcDbEntity
  8
CURVE
100
AcDbLine
 62
250
  6
CONTINUOUS
 10
-17.76773753
 20
5.0326911901
 30
0.0
 11
-17.7912771353
 21
5.0308579921
 31
0.0
  0
LINE
  5
28A
100
AcDbEntity
  8
CURVE
100
AcDbLine
 62
250
  6
CONTINUOUS
 10
-17.7912771353
 20
7.474121322
 30
0.0
 11
-17.7678196247
 21
7.4722610615
 31
0.0
  0
LINE
  5
28B
100
AcDbEntity
  8
CURVE
100
AcDbLine
 62
250
  6
CONTINUOUS
 10
-17.7678196247
 20
7.4722610615
 30
0.0
 11
-17.744770983
 21
7.4666928987
 31
0.0
  0
LINE
  5
28C
100
AcDbEntity
  8
CURVE
100
AcDbLine
 62
250
  6
CONTINUOUS
 10
-17.744770983
 20
7.4666928987
 30
0.0
 11
-17.7223292144
 21
7.4574127238
 31
0.0
  0
LINE
  5
28D
100
AcDbEntity
  8
CURVE
100
AcDbLine
 62
250
  6
CONTINUOUS
 10
-17.7223292144
 20
7.4574127238
 30
0.0
 11
-17.7161740042
 21
7.454139755
 31
0.0
  0
LINE
  5
28E
100
AcDbEntity
  8
CURVE
100
AcDbLine
 62
250
  6
CONTINUOUS
 10
-15.1026180157
 20
5.5571555007
 30
0.0
 11
-15.3624256368
 21
5.7071555007
 31
0.0
  0
LINE
  5
28F
100
AcDbEntity
  8
CURVE
100
AcDbLine
 62
250
  6
CONTINUOUS
 10
-16.8000278071
 20
6.5371555007
 30
0.0
 11
-17.0598354282
 21
6.6871555007
 31
0.0
  0
LINE
  5
290
100
AcDbEntity
  8
CURVE
100
AcDbLine
 62
250
  6
CONTINUOUS
 10
-16.9098354282
 20
6.9469631218
 30
0.0
 11
-16.6500278071
 21
6.7969631218
 31
0.0
  0
LINE
  5
291
100
AcDbEntity
  8
CURVE
100
AcDbLine
 62
250
  6
CONTINUOUS
 10
-15.2124256368
 20
5.9669631218
 30
0.0
 11
-14.9526180157
 21
5.8169631218
 31
0.0
  0
LINE
  5
292
100
AcDbEntity
  8
CURVE
100
AcDbLine
 62
250
  6
CONTINUOUS
 10
-21.6290750767
 20
5.098863388
 30
0.0
 11
-21.6404106256
 21
5.1195337448
 31
0.0
  0
LINE
  5
293
100
AcDbEntity
  8
0
100
AcDbLine
 62
7
  6
CONTINUOUS
 10
-8.7982267219
 20
45.2970593112
 30
0.0
 11
-8.8069534667
 21
45.2883325665
 31
0.0
  0
LINE
  5
294
100
AcDbEntity
  8
CURVE
100
AcDbLine
 62
250
  6
CONTINUOUS
 10
-17.8377923878
 20
7.4666269401
 30
0.0
 11
-17.8144305748
 21
7.4722610615
 31
0.0
  0
LINE
  5
295
100
AcDbEntity
  8
CURVE
100
AcDbLine
 62
250
  6
CONTINUOUS
 10
-17.8144305748
 20
7.4722610615
 30
0.0
 11
-17.7912771353
 21
7.474121322
 31
0.0
  0
LINE
  5
296
100
AcDbEntity
  8
0
100
AcDbLine
 62
7
  6
CONTINUOUS
 10
-2.1244093193
 20
8.0708767138
 30
0.0
 11
-2.1482267219
 21
8.0708767138
 31
0.0
  0
LINE
  5
297
100
AcDbEntity
  8
0
100
AcDbLine
 62
7
  6
CONTINUOUS
 10
-24.3482267219
 20
8.0708767138
 30
0.0
 11
-24.3720441245
 21
8.0708767138
 31
0.0
  0
LINE
  5
298
100
AcDbEntity
  8
0
100
AcDbLine
 62
7
  6
CONTINUOUS
 10
-24.3982267219
 20
8.0970593112
 30
0.0
 11
-24.3482267219
 21
8.0970593112
 31
0.0
  0
LINE
  5
299
100
AcDbEntity
  8
0
100
AcDbLine
 62
7
  6
CONTINUOUS
 10
-2.1482267219
 20
8.0970593112
 30
0.0
 11
-2.0982267219
 21
8.0970593112
 31
0.0
  0
LINE
  5
29A
100
AcDbEntity
  8
CURVE
100
AcDbLine
 62
250
  6
CONTINUOUS
 10
-17.7161740042
 20
7.454139755
 30
0.0
 11
-17.6967575568
 21
7.4407020996
 31
0.0
  0
LINE
  5
29B
100
AcDbEntity
  8
CURVE
100
AcDbLine
 62
250
  6
CONTINUOUS
 10
-17.6967575568
 20
7.4407020996
 30
0.0
 11
-17.6796189552
 21
7.4243469835
 31
0.0
  0
LINE
  5
29C
100
AcDbEntity
  8
0
100
AcDbLine
 62
7
  6
CONTINUOUS
 10
-8.7982267219
 20
-2.7029406888
 30
0.0
 11
-8.8069534667
 21
-2.6942139441
 31
0.0
  0
LINE
  5
29D
100
AcDbEntity
  8
CURVE
100
AcDbLine
 62
250
  6
CONTINUOUS
 10
-21.6404106256
 20
5.1195337448
 30
0.0
 11
-21.6484085851
 21
5.1417901399
 31
0.0
  0
LINE
  5
29E
100
AcDbEntity
  8
RACCORDO
100
AcDbLine
 62
7
  6
CONTINUOUS
 10
-24.3982267219
 20
8.0970593112
 30
0.0
 11
-24.3982267219
 21
12.2970593112
 31
0.0
  0
LINE
  5
29F
100
AcDbEntity
  8
0
100
AcDbLine
 62
7
  6
CONTINUOUS
 10
-24.3982267219
 20
-0.6029576118
 30
0.0
 11
-24.3982267219
 21
43.1970762343
 31
0.0
  0
LINE
  5
2A0
100
AcDbEntity
  8
RACCORDO
100
AcDbLine
 62
7
  6
CONTINUOUS
 10
-24.3982267219
 20
30.2970593112
 30
0.0
 11
-24.3982267219
 21
34.4970593112
 31
0.0
  0
LINE
  5
2A1
100
AcDbEntity
  8
0
100
AcDbLine
 62
7
  6
CONTINUOUS
 10
-24.3720441245
 20
43.1182187902
 30
0.0
 11
-24.3720441245
 21
34.5232419086
 31
0.0
  0
LINE
  5
2A2
100
AcDbEntity
  8
0
100
AcDbLine
 62
7
  6
CONTINUOUS
 10
-24.3720441245
 20
30.2708767138
 30
0.0
 11
-24.3720441245
 21
12.3232419086
 31
0.0
  0
LINE
  5
2A3
100
AcDbEntity
  8
0
100
AcDbLine
 62
7
  6
CONTINUOUS
 10
-24.3720441245
 20
8.0708767138
 30
0.0
 11
-24.3720441245
 21
-0.5241001678
 31
0.0
  0
LINE
  5
2A4
100
AcDbEntity
  8
RACCORDO
100
AcDbLine
 62
7
  6
CONTINUOUS
 10
-24.3482267219
 20
43.1182187902
 30
0.0
 11
-24.3482267219
 21
34.4470593112
 31
0.0
  0
LINE
  5
2A5
100
AcDbEntity
  8
RACCORDO
100
AcDbLine
 62
7
  6
CONTINUOUS
 10
-24.3482267219
 20
8.1470593112
 30
0.0
 11
-24.3482267219
 21
-0.5241001678
 31
0.0
  0
LINE
  5
2A6
100
AcDbEntity
  8
ASSI
100
AcDbLine
 62
7
  6
CONTINUOUS
 10
-24.3482267219
 20
-0.5241001678
 30
0.0
 11
-24.3482267219
 21
43.1182187902
 31
0.0
  0
LINE
  5
2A7
100
AcDbEntity
  8
DRAFT
100
AcDbLine
 62
7
  6
CONTINUOUS
 10
-24.3482267219
 20
8.1470593112
 30
0.0
 11
-24.3482267219
 21
34.4470593112
 31
0.0
  0
LINE
  5
2A8
100
AcDbEntity
  8
CURVE
100
AcDbLine
 62
250
  6
CONTINUOUS
 10
-17.6796189552
 20
7.4243469835
 30
0.0
 11
-17.6651840582
 21
7.4054361802
 31
0.0
  0
LINE
  5
2A9
100
AcDbEntity
  8
CURVE
100
AcDbLine
 62
250
  6
CONTINUOUS
 10
-17.6651840582
 20
7.4054361802
 30
0.0
 11
-17.6574818412
 21
7.3920624521
 31
0.0
  0
LINE
  5
2AA
100
AcDbEntity
  8
CURVE
100
AcDbLine
 62
250
  6
CONTINUOUS
 10
-21.6484085851
 20
5.1417901399
 30
0.0
 11
-21.6525911655
 21
5.1650230805
 31
0.0
  0
LINE
  5
2AB
100
AcDbEntity
  8
CURVE
100
AcDbLine
 62
250
  6
CONTINUOUS
 10
-21.6525911655
 20
5.1650230805
 30
0.0
 11
-21.6530998096
 21
5.1885884551
 31
0.0
  0
LINE
  5
2AC
100
AcDbEntity
  8
0
100
AcDbLine
 62
250
  6
CONTINUOUS
 10
-23.3851281432
 20
-2.5472782561
 30
0.0
 11
-23.390945973
 21
-1.9699279869
 31
0.0
  0
LINE
  5
2AD
100
AcDbEntity
  8
0
100
AcDbLine
 62
250
  6
CONTINUOUS
 10
-23.135132374
 20
-2.3307719051
 30
0.0
 11
-23.1402229751
 21
-1.8255904196
 31
0.0
  0
LINE
  5
2AE
100
AcDbEntity
  8
ASSI
100
AcDbLine
 62
250
  6
CONTINUOUS
 10
-23.7362665173
 20
30.797037094
 30
0.0
 11
-23.7362665171
 21
11.7970825971
 31
0.0
  0
LINE
  5
2AF
100
AcDbEntity
  8
RACCORDO
100
AcDbLine
 62
250
  6
CONTINUOUS
 10
-23.7362665173
 20
30.797037094
 30
0.0
 11
-23.7362665171
 21
11.7970825971
 31
0.0
  0
LINE
  5
2B0
100
AcDbEntity
  8
0
100
AcDbLine
 62
7
  6
CONTINUOUS
 10
-23.3982267219
 20
-2.9529449196
 30
0.0
 11
-23.3982267219
 21
-1.1029406888
 31
0.0
  0
LINE
  5
2B1
100
AcDbEntity
  8
0
100
AcDbLine
 62
7
  6
CONTINUOUS
 10
-23.3982267219
 20
43.6970593112
 30
0.0
 11
-23.3982267219
 21
45.547063542
 31
0.0
  0
LINE
  5
2B2
100
AcDbEntity
  8
0
100
AcDbLine
 62
7
  6
CONTINUOUS
 10
-23.390945973
 20
44.5640466093
 30
0.0
 11
-23.390945973
 21
43.6314733635
 31
0.0
  0
LINE
  5
2B3
100
AcDbEntity
  8
0
100
AcDbLine
 62
7
  6
CONTINUOUS
 10
-23.390945973
 20
-1.0373547411
 30
0.0
 11
-23.390945973
 21
-1.9699279869
 31
0.0
  0
LINE
  5
2B4
100
AcDbEntity
  8
0
100
AcDbLine
 62
7
  6
CONTINUOUS
 10
-23.3851281432
 20
45.5339649633
 30
0.0
 11
-23.3851281432
 21
45.1413968785
 31
0.0
  0
LINE
  5
2B5
100
AcDbEntity
  8
0
100
AcDbLine
 62
7
  6
CONTINUOUS
 10
-23.3851281432
 20
-2.5472782561
 30
0.0
 11
-23.3851281432
 21
-2.9398463408
 31
0.0
  0
LINE
  5
2B6
100
AcDbEntity
  8
0
100
AcDbLine
 62
250
  6
CONTINUOUS
 10
-23.1409502038
 20
44.419709042
 30
0.0
 11
-23.1409502038
 21
43.6184476423
 31
0.0
  0
LINE
  5
2B7
100
AcDbEntity
  8
0
100
AcDbLine
 62
250
  6
CONTINUOUS
 10
-23.1409502038
 20
-1.0243290199
 30
0.0
 11
-23.1409502038
 21
-1.8255904196
 31
0.0
  0
LINE
  5
2B8
100
AcDbEntity
  8
0
100
AcDbLine
 62
250
  6
CONTINUOUS
 10
-23.135132374
 20
-3.1898421101
 30
0.0
 11
-23.135132374
 21
-2.3307719051
 31
0.0
  0
LINE
  5
2B9
100
AcDbEntity
  8
0
100
AcDbLine
 62
250
  6
CONTINUOUS
 10
-23.135132374
 20
44.9248905276
 30
0.0
 11
-23.135132374
 21
45.7839607325
 31
0.0
  0
LINE
  5
2BA
100
AcDbEntity
  8
0
100
AcDbLine
 62
250
  6
CONTINUOUS
 10
-23.390945973
 20
44.5640466093
 30
0.0
 11
-23.3851281432
 21
45.1413968785
 31
0.0
  0
LINE
  5
2BB
100
AcDbEntity
  8
0
100
AcDbLine
 62
250
  6
CONTINUOUS
 10
-23.1402229751
 20
44.419709042
 30
0.0
 11
-23.135132374
 21
44.9248905276
 31
0.0
  0
LINE
  5
2BC
100
AcDbEntity
  8
0
100
AcDbLine
 62
250
  6
CONTINUOUS
 10
-3.3613210699
 20
45.7839607325
 30
0.0
 11
-3.3482224912
 21
45.7970593112
 31
0.0
  0
LINE
  5
2BD
100
AcDbEntity
  8
0
100
AcDbLine
 62
250
  6
CONTINUOUS
 10
-3.1113253007
 20
45.5339649633
 30
0.0
 11
-3.0982267219
 21
45.547063542
 31
0.0
  0
LINE
  5
2BE
100
AcDbEntity
  8
ASSI
100
AcDbLine
 62
250
  6
CONTINUOUS
 10
-23.7362665057
 20
11.7970825971
 30
0.0
 11
-2.7601869381
 21
11.7970825972
 31
0.0
  0
LINE
  5
2BF
100
AcDbEntity
  8
RACCORDO
100
AcDbLine
 62
250
  6
CONTINUOUS
 10
-23.7362665057
 20
11.7970825971
 30
0.0
 11
-2.7601869381
 21
11.7970825972
 31
0.0
  0
LINE
  5
2C0
100
AcDbEntity
  8
0
100
AcDbLine
 62
7
  6
CONTINUOUS
 10
-2.0982267219
 20
12.2970593112
 30
0.0
 11
-2.1482267219
 21
12.2970593112
 31
0.0
  0
LINE
  5
2C1
100
AcDbEntity
  8
0
100
AcDbLine
 62
7
  6
CONTINUOUS
 10
-24.3482267219
 20
12.2970593112
 30
0.0
 11
-24.3982267219
 21
12.2970593112
 31
0.0
  0
LINE
  5
2C2
100
AcDbEntity
  8
0
100
AcDbLine
 62
7
  6
CONTINUOUS
 10
-24.3720441245
 20
12.3232419086
 30
0.0
 11
-24.3482267219
 21
12.3232419086
 31
0.0
  0
LINE
  5
2C3
100
AcDbEntity
  8
0
100
AcDbLine
 62
7
  6
CONTINUOUS
 10
-2.1482267219
 20
12.3232419086
 30
0.0
 11
-2.1244093193
 21
12.3232419086
 31
0.0
  0
LINE
  5
2C4
100
AcDbEntity
  8
0
100
AcDbLine
 62
250
  6
CONTINUOUS
 10
-3.3613210699
 20
-3.1898421101
 30
0.0
 11
-3.3482224912
 21
-3.2029406888
 31
0.0
  0
LINE
  5
2C5
100
AcDbEntity
  8
0
100
AcDbLine
 62
250
  6
CONTINUOUS
 10
-3.1113253007
 20
-2.9398463408
 30
0.0
 11
-3.0982267219
 21
-2.9529449196
 31
0.0
  0
LINE
  5
2C6
100
AcDbEntity
  8
CURVE
100
AcDbLine
 62
250
  6
CONTINUOUS
 10
-17.6574818412
 20
7.3920624521
 30
0.0
 11
-17.6484127909
 21
7.3701908576
 31
0.0
  0
LINE
  5
2C7
100
AcDbEntity
  8
0
100
AcDbLine
 62
250
  6
CONTINUOUS
 10
-20.7613210699
 20
44.9248905276
 30
0.0
 11
-20.7562304688
 21
44.419709042
 31
0.0
  0
LINE
  5
2C8
100
AcDbEntity
  8
0
100
AcDbLine
 62
250
  6
CONTINUOUS
 10
-20.5113253007
 20
45.1413968785
 30
0.0
 11
-20.5055074708
 21
44.5640466093
 31
0.0
  0
LINE
  5
2C9
100
AcDbEntity
  8
0
100
AcDbLine
 62
250
  6
CONTINUOUS
 10
-20.7613210699
 20
-3.1898421101
 30
0.0
 11
-20.7613210699
 21
-2.3307719051
 31
0.0
  0
LINE
  5
2CA
100
AcDbEntity
  8
0
100
AcDbLine
 62
250
  6
CONTINUOUS
 10
-20.7613210699
 20
44.9248905276
 30
0.0
 11
-20.7613210699
 21
45.7839607325
 31
0.0
  0
LINE
  5
2CB
100
AcDbEntity
  8
0
100
AcDbLine
 62
250
  6
CONTINUOUS
 10
-20.7555032401
 20
-1.8255904196
 30
0.0
 11
-20.7555032401
 21
-1.0243290199
 31
0.0
  0
LINE
  5
2CC
100
AcDbEntity
  8
0
100
AcDbLine
 62
250
  6
CONTINUOUS
 10
-20.7555032401
 20
43.6184476423
 30
0.0
 11
-20.7555032401
 21
44.419709042
 31
0.0
  0
LINE
  5
2CD
100
AcDbEntity
  8
0
100
AcDbLine
 62
7
  6
CONTINUOUS
 10
-20.7482267219
 20
43.618453192
 30
0.0
 11
-20.7482267219
 21
43.6132068644
 31
0.0
  0
LINE
  5
2CE
100
AcDbEntity
  8
0
100
AcDbLine
 62
7
  6
CONTINUOUS
 10
-20.7482267219
 20
-1.0190882419
 30
0.0
 11
-20.7482267219
 21
-1.0243345696
 31
0.0
  0
LINE
  5
2CF
100
AcDbEntity
  8
0
100
AcDbLine
 62
7
  6
CONTINUOUS
 10
-20.5113253007
 20
-2.9398463408
 30
0.0
 11
-20.5113253007
 21
-2.5472782561
 31
0.0
  0
LINE
  5
2D0
100
AcDbEntity
  8
0
100
AcDbLine
 62
7
  6
CONTINUOUS
 10
-20.5113253007
 20
45.1413968785
 30
0.0
 11
-20.5113253007
 21
45.5339649633
 31
0.0
  0
LINE
  5
2D1
100
AcDbEntity
  8
0
100
AcDbLine
 62
7
  6
CONTINUOUS
 10
-20.5055074708
 20
-1.9699279869
 30
0.0
 11
-20.5055074708
 21
-1.0373547411
 31
0.0
  0
LINE
  5
2D2
100
AcDbEntity
  8
0
100
AcDbLine
 62
7
  6
CONTINUOUS
 10
-20.5055074708
 20
43.6314733635
 30
0.0
 11
-20.5055074708
 21
44.5640466093
 31
0.0
  0
LINE
  5
2D3
100
AcDbEntity
  8
0
100
AcDbLine
 62
7
  6
CONTINUOUS
 10
-20.4982267219
 20
-2.9529449196
 30
0.0
 11
-20.4982267219
 21
-1.1029406888
 31
0.0
  0
LINE
  5
2D4
100
AcDbEntity
  8
0
100
AcDbLine
 62
7
  6
CONTINUOUS
 10
-20.4982267219
 20
43.6970593112
 30
0.0
 11
-20.4982267219
 21
45.547063542
 31
0.0
  0
LINE
  5
2D5
100
AcDbEntity
  8
0
100
AcDbLine
 62
250
  6
CONTINUOUS
 10
-20.7562304688
 20
-1.8255904196
 30
0.0
 11
-20.7613210699
 21
-2.3307719051
 31
0.0
  0
LINE
  5
2D6
100
AcDbEntity
  8
0
100
AcDbLine
 62
250
  6
CONTINUOUS
 10
-20.5055074708
 20
-1.9699279869
 30
0.0
 11
-20.5113253007
 21
-2.5472782561
 31
0.0
  0
LINE
  5
2D7
100
AcDbEntity
  8
0
100
AcDbLine
 62
7
  6
CONTINUOUS
 10
-16.7569535897
 20
43.6184476423
 30
0.0
 11
-16.7482267219
 21
43.6708554216
 31
0.0
  0
LINE
  5
2D8
100
AcDbEntity
  8
CURVE
100
AcDbLine
 62
250
  6
CONTINUOUS
 10
-17.6484127909
 20
7.3701908576
 30
0.0
 11
-17.6429127189
 21
7.347308024
 31
0.0
  0
LINE
  5
2D9
100
AcDbEntity
  8
0
100
AcDbLine
 62
7
  6
CONTINUOUS
 10
-16.7482267219
 20
-1.0767367991
 30
0.0
 11
-16.7569535897
 21
-1.0243290199
 31
0.0
  0
LINE
  5
2DA
100
AcDbEntity
  8
CURVE
100
AcDbLine
 62
250
  6
CONTINUOUS
 10
-17.6429127189
 20
7.347308024
 30
0.0
 11
-17.6410708731
 21
7.3239150598
 31
0.0
  0
LINE
  5
2DB
100
AcDbEntity
  8
0
100
AcDbLine
 62
7
  6
CONTINUOUS
 10
-20.1482267219
 20
43.6184476423
 30
0.0
 11
-20.1482267219
 21
43.5817621968
 31
0.0
  0
LINE
  5
2DC
100
AcDbEntity
  8
0
100
AcDbLine
 62
7
  6
CONTINUOUS
 10
-20.1482267219
 20
-0.9876435744
 30
0.0
 11
-20.1482267219
 21
-1.0243290199
 31
0.0
  0
LINE
  5
2DD
100
AcDbEntity
  8
CURVE
100
AcDbLine
 62
250
  6
CONTINUOUS
 10
-21.6530998096
 20
5.1885884551
 30
0.0
 11
-21.649911909
 21
5.2120258991
 31
0.0
  0
LINE
  5
2DE
100
AcDbEntity
  8
CURVE
100
AcDbLine
 62
250
  6
CONTINUOUS
 10
-17.940794378
 20
5.330581497
 30
0.0
 11
-17.940794378
 21
7.064154694
 31
0.0
  0
LINE
  5
2DF
100
AcDbEntity
  8
0
100
AcDbLine
 62
7
  6
CONTINUOUS
 10
-17.6982267219
 20
-2.7029406888
 30
0.0
 11
-17.6982267219
 21
-1.1029406888
 31
0.0
  0
LINE
  5
2E0
100
AcDbEntity
  8
0
100
AcDbLine
 62
7
  6
CONTINUOUS
 10
-17.6982267219
 20
43.6970593112
 30
0.0
 11
-17.6982267219
 21
45.2970593112
 31
0.0
  0
LINE
  5
2E1
100
AcDbEntity
  8
0
100
AcDbLine
 62
7
  6
CONTINUOUS
 10
-17.6894999772
 20
45.2883325665
 30
0.0
 11
-17.6894999772
 21
43.6184476423
 31
0.0
  0
LINE
  5
2E2
100
AcDbEntity
  8
0
100
AcDbLine
 62
7
  6
CONTINUOUS
 10
-17.6894999772
 20
-1.0243290199
 30
0.0
 11
-17.6894999772
 21
-2.6942139441
 31
0.0
  0
LINE
  5
2E3
100
AcDbEntity
  8
CURVE
100
AcDbLine
 62
250
  6
CONTINUOUS
 10
-17.6410708731
 20
7.3239150598
 30
0.0
 11
-17.6410708731
 21
5.1807197395
 31
0.0
  0
LINE
  5
2E4
100
AcDbEntity
  8
0
100
AcDbLine
 62
7
  6
CONTINUOUS
 10
-17.5482267219
 20
-1.0243290199
 30
0.0
 11
-17.5482267219
 21
-0.9876435744
 31
0.0
  0
LINE
  5
2E5
100
AcDbEntity
  8
0
100
AcDbLine
 62
7
  6
CONTINUOUS
 10
-17.5482267219
 20
43.5817621968
 30
0.0
 11
-17.5482267219
 21
43.6184476423
 31
0.0
  0
LINE
  5
2E6
100
AcDbEntity
  8
0
100
AcDbLine
 62
7
  6
CONTINUOUS
 10
-16.9482267219
 20
-1.0243290199
 30
0.0
 11
-16.9482267219
 21
-1.0190882419
 31
0.0
  0
LINE
  5
2E7
100
AcDbEntity
  8
0
100
AcDbLine
 62
7
  6
CONTINUOUS
 10
-16.9482267219
 20
43.6132068644
 30
0.0
 11
-16.9482267219
 21
43.6184476423
 31
0.0
  0
LINE
  5
2E8
100
AcDbEntity
  8
0
100
AcDbLine
 62
7
  6
CONTINUOUS
 10
-16.7569535897
 20
-2.6942139441
 30
0.0
 11
-16.7569535897
 21
-1.0243290199
 31
0.0
  0
LINE
  5
2E9
100
AcDbEntity
  8
0
100
AcDbLine
 62
7
  6
CONTINUOUS
 10
-16.7569535897
 20
43.6184476423
 30
0.0
 11
-16.7569535897
 21
45.2883325665
 31
0.0
  0
LINE
  5
2EA
100
AcDbEntity
  8
0
100
AcDbLine
 62
7
  6
CONTINUOUS
 10
-16.7482267219
 20
45.0953105776
 30
0.0
 11
-16.7482267219
 21
43.6708554216
 31
0.0
  0
LINE
  5
2EB
100
AcDbEntity
  8
0
100
AcDbLine
 62
7
  6
CONTINUOUS
 10
-16.7482267219
 20
-2.5011919551
 30
0.0
 11
-16.7482267219
 21
-1.0767367991
 31
0.0
  0
LINE
  5
2EC
100
AcDbEntity
  8
CURVE
100
AcDbLine
 62
250
  6
CONTINUOUS
 10
-21.649911909
 20
5.2120258991
 30
0.0
 11
-21.6430690507
 21
5.2347857777
 31
0.0
  0
LINE
  5
2ED
100
AcDbEntity
  8
0
100
AcDbLine
 62
250
  6
CONTINUOUS
 10
-24.3982267219
 20
-0.6027118367
 30
0.0
 11
-24.3720441245
 21
-0.5241001678
 31
0.0
  0
LINE
  5
2EE
100
AcDbEntity
  8
ASSI
100
AcDbLine
 62
250
  6
CONTINUOUS
 10
-24.2615484427
 20
-0.263853864
 30
0.0
 11
-24.3482267219
 21
-0.5241001678
 31
0.0
  0
LINE
  5
2EF
100
AcDbEntity
  8
RACCORDO
100
AcDbLine
 62
250
  6
CONTINUOUS
 10
-24.2615484427
 20
-0.263853864
 30
0.0
 11
-24.3482267219
 21
-0.5241001678
 31
0.0
  0
LINE
  5
2F0
100
AcDbEntity
  8
0
100
AcDbLine
 62
250
  6
CONTINUOUS
 10
-24.3720441245
 20
43.1182187902
 30
0.0
 11
-24.3982267219
 21
43.1968304592
 31
0.0
  0
LINE
  5
2F1
100
AcDbEntity
  8
ASSI
100
AcDbLine
 62
250
  6
CONTINUOUS
 10
-24.3482267219
 20
43.1182187902
 30
0.0
 11
-24.2615484427
 21
42.8579724865
 31
0.0
  0
LINE
  5
2F2
100
AcDbEntity
  8
RACCORDO
100
AcDbLine
 62
250
  6
CONTINUOUS
 10
-24.3482267219
 20
43.1182187902
 30
0.0
 11
-24.2615484427
 21
42.8579724865
 31
0.0
  0
LINE
  5
2F3
100
AcDbEntity
  8
CURVE
100
AcDbLine
 62
250
  6
CONTINUOUS
 10
-16.1520866424
 20
5.1220242488
 30
0.0
 11
-16.1520866424
 21
5.4221110908
 31
0.0
  0
LINE
  5
2F4
100
AcDbEntity
  8
CURVE
100
AcDbLine
 62
250
  6
CONTINUOUS
 10
-16.1520866424
 20
7.0820075302
 30
0.0
 11
-16.1520866424
 21
7.3820943717
 31
0.0
  0
LINE
  5
2F5
100
AcDbEntity
  8
CURVE
100
AcDbLine
 62
250
  6
CONTINUOUS
 10
-15.8521708028
 20
7.3820935451
 30
0.0
 11
-15.8521708028
 21
7.0820067038
 31
0.0
  0
LINE
  5
2F6
100
AcDbEntity
  8
CURVE
100
AcDbLine
 62
250
  6
CONTINUOUS
 10
-15.8521708027
 20
5.4221119208
 30
0.0
 11
-15.8521708027
 21
5.1220250786
 31
0.0
  0
LINE
  5
2F7
100
AcDbEntity
  8
CURVE
100
AcDbLine
 62
250
  6
CONTINUOUS
 10
-17.6410708731
 20
5.1807197446
 30
0.0
 11
-17.6429032336
 21
5.1572255757
 31
0.0
  0
LINE
  5
2F8
100
AcDbEntity
  8
0
100
AcDbLine
 62
7
  6
CONTINUOUS
 10
-17.6982267219
 20
-1.1029406888
 30
0.0
 11
-17.6894999772
 21
-1.0243290199
 31
0.0
  0
LINE
  5
2F9
100
AcDbEntity
  8
0
100
AcDbLine
 62
250
  6
CONTINUOUS
 10
-23.8986073217
 20
-1.1029406888
 30
0.0
 11
-23.8724247243
 21
-1.0243290199
 31
0.0
  0
LINE
  5
2FA
100
AcDbEntity
  8
ASSI
100
AcDbLine
 62
250
  6
CONTINUOUS
 10
-23.7616245951
 20
-0.7631686314
 30
0.0
 11
-23.8486073217
 21
-1.0243290199
 31
0.0
  0
LINE
  5
2FB
100
AcDbEntity
  8
RACCORDO
100
AcDbLine
 62
250
  6
CONTINUOUS
 10
-23.7616245951
 20
-0.7631686314
 30
0.0
 11
-23.8486073217
 21
-1.0243290199
 31
0.0
  0
LINE
  5
2FC
100
AcDbEntity
  8
CURVE
100
AcDbLine
 62
250
  6
CONTINUOUS
 10
-21.6430690507
 20
5.2347857777
 30
0.0
 11
-21.640230252
 21
5.2415970579
 31
0.0
  0
LINE
  5
2FD
100
AcDbEntity
  8
0
100
AcDbLine
 62
250
  6
CONTINUOUS
 10
-23.8724247243
 20
43.6184476423
 30
0.0
 11
-23.8986073217
 21
43.6970593112
 31
0.0
  0
LINE
  5
2FE
100
AcDbEntity
  8
ASSI
100
AcDbLine
 62
250
  6
CONTINUOUS
 10
-23.8486073217
 20
43.6184476423
 30
0.0
 11
-23.7616245951
 21
43.3572872539
 31
0.0
  0
LINE
  5
2FF
100
AcDbEntity
  8
RACCORDO
100
AcDbLine
 62
250
  6
CONTINUOUS
 10
-23.8486073217
 20
43.6184476423
 30
0.0
 11
-23.7616245951
 21
43.3572872539
 31
0.0
  0
LINE
  5
300
100
AcDbEntity
  8
0
100
AcDbLine
 62
7
  6
CONTINUOUS
 10
-17.6894999772
 20
43.6184476423
 30
0.0
 11
-17.6982267219
 21
43.6970593112
 31
0.0
  0
LINE
  5
301
100
AcDbEntity
  8
0
100
AcDbLine
 62
250
  6
CONTINUOUS
 10
-14.450852398
 20
-2.7011885705
 30
0.0
 11
-14.450852398
 21
-1.0767367991
 31
0.0
  0
LINE
  5
302
100
AcDbEntity
  8
0
100
AcDbLine
 62
250
  6
CONTINUOUS
 10
-14.450852398
 20
43.6708554216
 30
0.0
 11
-14.450852398
 21
45.295307193
 31
0.0
  0
LINE
  5
303
100
AcDbEntity
  8
0
100
AcDbLine
 62
7
  6
CONTINUOUS
 10
-14.2508600133
 20
-2.5011919551
 30
0.0
 11
-14.2508600133
 21
-1.0871268873
 31
0.0
  0
LINE
  5
304
100
AcDbEntity
  8
0
100
AcDbLine
 62
7
  6
CONTINUOUS
 10
-14.2508600133
 20
43.6812455098
 30
0.0
 11
-14.2508600133
 21
45.0953105776
 31
0.0
  0
LINE
  5
305
100
AcDbEntity
  8
CURVE
100
AcDbLine
 62
250
  6
CONTINUOUS
 10
-17.6429032336
 20
5.1572255757
 30
0.0
 11
-17.6483475663
 21
5.1344879767
 31
0.0
  0
LINE
  5
306
100
AcDbEntity
  8
0
100
AcDbLine
 62
7
  6
CONTINUOUS
 10
-24.3982267219
 20
12.2970593112
 30
0.0
 11
-24.3720441245
 21
12.3232419086
 31
0.0
  0
LWPOLYLINE
  5
307
100
AcDbEntity
  8
0
100
AcDbPolyline
 62
7
  6
CONTINUOUS
 90
2
 70
0
 43
0.3500000006
 10
5.1517735291
 20
19.9399178467
 10
3.6517733545
 20
19.9399178467
  0
LINE
  5
308
100
AcDbEntity
  8
0
100
AcDbLine
 62
7
  6
CONTINUOUS
 10
-24.3982267219
 20
30.2970593112
 30
0.0
 11
-24.3720441245
 21
30.2708767138
 31
0.0
  0
LINE
  5
309
100
AcDbEntity
  8
0
100
AcDbLine
 62
7
  6
CONTINUOUS
 10
-12.2455934305
 20
45.0953105776
 30
0.0
 11
-12.2455934305
 21
43.6812455098
 31
0.0
  0
LINE
  5
30A
100
AcDbEntity
  8
0
100
AcDbLine
 62
7
  6
CONTINUOUS
 10
-12.2455934305
 20
-1.0871268873
 30
0.0
 11
-12.2455934305
 21
-2.5011919551
 31
0.0
  0
LINE
  5
30B
100
AcDbEntity
  8
0
100
AcDbLine
 62
250
  6
CONTINUOUS
 10
-12.0456010459
 20
-1.0767367991
 30
0.0
 11
-12.0456010459
 21
-2.7011885705
 31
0.0
  0
LINE
  5
30C
100
AcDbEntity
  8
0
100
AcDbLine
 62
250
  6
CONTINUOUS
 10
-12.0456010459
 20
43.6708554216
 30
0.0
 11
-12.0456010459
 21
45.295307193
 31
0.0
  0
LINE
  5
30D
100
AcDbEntity
  8
0
100
AcDbLine
 62
7
  6
CONTINUOUS
 10
-8.7982267219
 20
43.6970593112
 30
0.0
 11
-8.8069534667
 21
43.6184476423
 31
0.0
  0
LINE
  5
30E
100
AcDbEntity
  8
CURVE
100
AcDbLine
 62
250
  6
CONTINUOUS
 10
-21.640230252
 20
5.2415970579
 30
0.0
 11
-21.6288938621
 21
5.2624590772
 31
0.0
  0
LINE
  5
30F
100
AcDbEntity
  8
0
100
AcDbLine
 62
7
  6
CONTINUOUS
 10
-2.0982267219
 20
30.2970593112
 30
0.0
 11
-2.1244093193
 21
30.2708767138
 31
0.0
  0
LINE
  5
310
100
AcDbEntity
  8
0
100
AcDbLine
 62
7
  6
CONTINUOUS
 10
-2.0982267219
 20
12.2970593112
 30
0.0
 11
-2.1244093193
 21
12.3232419086
 31
0.0
  0
LINE
  5
311
100
AcDbEntity
  8
0
100
AcDbLine
 62
7
  6
CONTINUOUS
 10
-8.8069534667
 20
-1.0243290199
 30
0.0
 11
-8.7982267219
 21
-1.1029406888
 31
0.0
  0
LINE
  5
312
100
AcDbEntity
  8
0
100
AcDbLine
 62
7
  6
CONTINUOUS
 10
-9.7482267219
 20
45.0953105776
 30
0.0
 11
-9.7482267219
 21
43.6708554216
 31
0.0
  0
LINE
  5
313
100
AcDbEntity
  8
0
100
AcDbLine
 62
7
  6
CONTINUOUS
 10
-9.7482267219
 20
-2.5011919551
 30
0.0
 11
-9.7482267219
 21
-1.0767367991
 31
0.0
  0
LINE
  5
314
100
AcDbEntity
  8
0
100
AcDbLine
 62
7
  6
CONTINUOUS
 10
-9.7394998541
 20
45.2883325665
 30
0.0
 11
-9.7394998541
 21
43.6184476423
 31
0.0
  0
LINE
  5
315
100
AcDbEntity
  8
0
100
AcDbLine
 62
7
  6
CONTINUOUS
 10
-9.7394998541
 20
-1.0243290199
 30
0.0
 11
-9.7394998541
 21
-2.6942139441
 31
0.0
  0
LINE
  5
316
100
AcDbEntity
  8
0
100
AcDbLine
 62
7
  6
CONTINUOUS
 10
-9.5482267219
 20
43.6184476423
 30
0.0
 11
-9.5482267219
 21
43.6132068644
 31
0.0
  0
LINE
  5
317
100
AcDbEntity
  8
0
100
AcDbLine
 62
7
  6
CONTINUOUS
 10
-9.5482267219
 20
-1.0190882419
 30
0.0
 11
-9.5482267219
 21
-1.0243290199
 31
0.0
  0
LINE
  5
318
100
AcDbEntity
  8
ASSI
100
AcDbLine
 62
250
  6
CONTINUOUS
 10
-2.7348288488
 20
43.3572872539
 30
0.0
 11
-2.6478461222
 21
43.6184476423
 31
0.0
  0
LINE
  5
319
100
AcDbEntity
  8
RACCORDO
100
AcDbLine
 62
250
  6
CONTINUOUS
 10
-2.7348288488
 20
43.3572872539
 30
0.0
 11
-2.6478461222
 21
43.6184476423
 31
0.0
  0
LINE
  5
31A
100
AcDbEntity
  8
0
100
AcDbLine
 62
250
  6
CONTINUOUS
 10
-2.5978461222
 20
43.6970593112
 30
0.0
 11
-2.6240287196
 21
43.6184476423
 31
0.0
  0
LINE
  5
31B
100
AcDbEntity
  8
ASSI
100
AcDbLine
 62
250
  6
CONTINUOUS
 10
-2.2349050012
 20
42.8579724865
 30
0.0
 11
-2.1482267219
 21
43.1182187902
 31
0.0
  0
LINE
  5
31C
100
AcDbEntity
  8
RACCORDO
100
AcDbLine
 62
250
  6
CONTINUOUS
 10
-2.2349050012
 20
42.8579724865
 30
0.0
 11
-2.1482267219
 21
43.1182187902
 31
0.0
  0
LINE
  5
31D
100
AcDbEntity
  8
0
100
AcDbLine
 62
250
  6
CONTINUOUS
 10
-2.0982267219
 20
43.1968304592
 30
0.0
 11
-2.1244093193
 21
43.1182187902
 31
0.0
  0
LINE
  5
31E
100
AcDbEntity
  8
CURVE
100
AcDbLine
 62
250
  6
CONTINUOUS
 10
-17.6483475663
 20
5.1344879767
 30
0.0
 11
-17.657305551
 21
5.1128659568
 31
0.0
  0
LINE
  5
31F
100
AcDbEntity
  8
CURVE
100
AcDbLine
 62
250
  6
CONTINUOUS
 10
-21.6288938621
 20
5.2624590772
 30
0.0
 11
-21.6145233927
 21
5.2811711574
 31
0.0
  0
LINE
  5
320
100
AcDbEntity
  8
ASSI
100
AcDbLine
 62
250
  6
CONTINUOUS
 10
-2.6478461222
 20
-1.0243290199
 30
0.0
 11
-2.7348288488
 21
-0.7631686314
 31
0.0
  0
LINE
  5
321
100
AcDbEntity
  8
RACCORDO
100
AcDbLine
 62
250
  6
CONTINUOUS
 10
-2.6478461222
 20
-1.0243290199
 30
0.0
 11
-2.7348288488
 21
-0.7631686314
 31
0.0
  0
LINE
  5
322
100
AcDbEntity
  8
0
100
AcDbLine
 62
250
  6
CONTINUOUS
 10
-2.6240287196
 20
-1.0243290199
 30
0.0
 11
-2.5978461222
 21
-1.1029406888
 31
0.0
  0
LINE
  5
323
100
AcDbEntity
  8
ASSI
100
AcDbLine
 62
250
  6
CONTINUOUS
 10
-2.1482267219
 20
-0.5241001678
 30
0.0
 11
-2.2349050012
 21
-0.263853864
 31
0.0
  0
LINE
  5
324
100
AcDbEntity
  8
RACCORDO
100
AcDbLine
 62
250
  6
CONTINUOUS
 10
-2.1482267219
 20
-0.5241001678
 30
0.0
 11
-2.2349050012
 21
-0.263853864
 31
0.0
  0
LINE
  5
325
100
AcDbEntity
  8
0
100
AcDbLine
 62
250
  6
CONTINUOUS
 10
-2.1244093193
 20
-0.5241001678
 30
0.0
 11
-2.0982267219
 21
-0.6027118367
 31
0.0
  0
LINE
  5
326
100
AcDbEntity
  8
0
100
AcDbLine
 62
7
  6
CONTINUOUS
 10
-8.9482267219
 20
43.6184476423
 30
0.0
 11
-8.9482267219
 21
43.5817621968
 31
0.0
  0
LINE
  5
327
100
AcDbEntity
  8
0
100
AcDbLine
 62
7
  6
CONTINUOUS
 10
-8.9482267219
 20
-0.9876435744
 30
0.0
 11
-8.9482267219
 21
-1.0243290199
 31
0.0
  0
LINE
  5
328
100
AcDbEntity
  8
0
100
AcDbLine
 62
7
  6
CONTINUOUS
 10
-8.8069534667
 20
-2.6942139441
 30
0.0
 11
-8.8069534667
 21
-1.0243290199
 31
0.0
  0
LINE
  5
329
100
AcDbEntity
  8
0
100
AcDbLine
 62
7
  6
CONTINUOUS
 10
-8.8069534667
 20
43.6184476423
 30
0.0
 11
-8.8069534667
 21
45.2883325665
 31
0.0
  0
LINE
  5
32A
100
AcDbEntity
  8
0
100
AcDbLine
 62
7
  6
CONTINUOUS
 10
-8.7982267219
 20
-1.1029406888
 30
0.0
 11
-8.7982267219
 21
-2.7029406888
 31
0.0
  0
LINE
  5
32B
100
AcDbEntity
  8
0
100
AcDbLine
 62
7
  6
CONTINUOUS
 10
-8.7982267219
 20
43.6970593112
 30
0.0
 11
-8.7982267219
 21
45.2970593112
 31
0.0
  0
LINE
  5
32C
100
AcDbEntity
  8
CURVE
100
AcDbLine
 62
250
  6
CONTINUOUS
 10
-17.657305551
 20
5.1128659568
 30
0.0
 11
-17.669618449
 21
5.0928009142
 31
0.0
  0
LINE
  5
32D
100
AcDbEntity
  8
0
100
AcDbLine
 62
250
  6
CONTINUOUS
 10
-5.9851281432
 20
-2.5472782561
 30
0.0
 11
-5.990945973
 21
-1.9699279869
 31
0.0
  0
LINE
  5
32E
100
AcDbEntity
  8
0
100
AcDbLine
 62
250
  6
CONTINUOUS
 10
-5.735132374
 20
-2.3307719051
 30
0.0
 11
-5.7402229751
 21
-1.8255904196
 31
0.0
  0
LINE
  5
32F
100
AcDbEntity
  8
0
100
AcDbLine
 62
7
  6
CONTINUOUS
 10
-6.3482267219
 20
-1.0243290199
 30
0.0
 11
-6.3482267219
 21
-0.9876435744
 31
0.0
  0
LINE
  5
330
100
AcDbEntity
  8
0
100
AcDbLine
 62
7
  6
CONTINUOUS
 10
-6.3482267219
 20
43.5817621968
 30
0.0
 11
-6.3482267219
 21
43.6184476423
 31
0.0
  0
LINE
  5
331
100
AcDbEntity
  8
0
100
AcDbLine
 62
7
  6
CONTINUOUS
 10
-5.9982267219
 20
-2.9529449196
 30
0.0
 11
-5.9982267219
 21
-1.1029406888
 31
0.0
  0
LINE
  5
332
100
AcDbEntity
  8
0
100
AcDbLine
 62
7
  6
CONTINUOUS
 10
-5.9982267219
 20
43.6970593112
 30
0.0
 11
-5.9982267219
 21
45.547063542
 31
0.0
  0
LINE
  5
333
100
AcDbEntity
  8
0
100
AcDbLine
 62
7
  6
CONTINUOUS
 10
-5.990945973
 20
44.5640466093
 30
0.0
 11
-5.990945973
 21
43.6314733635
 31
0.0
  0
LINE
  5
334
100
AcDbEntity
  8
0
100
AcDbLine
 62
7
  6
CONTINUOUS
 10
-5.990945973
 20
-1.0373547411
 30
0.0
 11
-5.990945973
 21
-1.9699279869
 31
0.0
  0
LINE
  5
335
100
AcDbEntity
  8
0
100
AcDbLine
 62
7
  6
CONTINUOUS
 10
-5.9851281432
 20
45.5339649633
 30
0.0
 11
-5.9851281432
 21
45.1413968785
 31
0.0
  0
LINE
  5
336
100
AcDbEntity
  8
0
100
AcDbLine
 62
7
  6
CONTINUOUS
 10
-5.9851281432
 20
-2.5472782561
 30
0.0
 11
-5.9851281432
 21
-2.9398463408
 31
0.0
  0
LINE
  5
337
100
AcDbEntity
  8
0
100
AcDbLine
 62
250
  6
CONTINUOUS
 10
-5.990945973
 20
44.5640466093
 30
0.0
 11
-5.9851281432
 21
45.1413968785
 31
0.0
  0
LINE
  5
338
100
AcDbEntity
  8
0
100
AcDbLine
 62
250
  6
CONTINUOUS
 10
-5.7402229751
 20
44.419709042
 30
0.0
 11
-5.735132374
 21
44.9248905276
 31
0.0
  0
LINE
  5
339
100
AcDbEntity
  8
0
100
AcDbLine
 62
7
  6
CONTINUOUS
 10
-9.7482267219
 20
-1.0767367991
 30
0.0
 11
-9.7394998541
 21
-1.0243290199
 31
0.0
  0
LINE
  5
33A
100
AcDbEntity
  8
CURVE
100
AcDbLine
 62
250
  6
CONTINUOUS
 10
-17.669618449
 20
5.0928009142
 30
0.0
 11
-17.6850285082
 21
5.0747929323
 31
0.0
  0
LINE
  5
33B
100
AcDbEntity
  8
CURVE
100
AcDbLine
 62
250
  6
CONTINUOUS
 10
-21.6145233927
 20
5.2811711574
 30
0.0
 11
-21.5974855857
 21
5.2973195884
 31
0.0
  0
LINE
  5
33C
100
AcDbEntity
  8
0
100
AcDbLine
 62
7
  6
CONTINUOUS
 10
-9.7482267219
 20
43.6708554216
 30
0.0
 11
-9.7394998541
 21
43.6184476423
 31
0.0
  0
LINE
  5
33D
100
AcDbEntity
  8
0
100
AcDbLine
 62
7
  6
CONTINUOUS
 10
-5.7482267219
 20
-1.0243345696
 30
0.0
 11
-5.7482267219
 21
-1.0190882419
 31
0.0
  0
LINE
  5
33E
100
AcDbEntity
  8
0
100
AcDbLine
 62
7
  6
CONTINUOUS
 10
-5.7482267219
 20
43.6132068644
 30
0.0
 11
-5.7482267219
 21
43.618453192
 31
0.0
  0
LINE
  5
33F
100
AcDbEntity
  8
0
100
AcDbLine
 62
250
  6
CONTINUOUS
 10
-5.7409502038
 20
44.419709042
 30
0.0
 11
-5.7409502038
 21
43.6184476423
 31
0.0
  0
LINE
  5
340
100
AcDbEntity
  8
0
100
AcDbLine
 62
250
  6
CONTINUOUS
 10
-5.7409502038
 20
-1.0243290199
 30
0.0
 11
-5.7409502038
 21
-1.8255904196
 31
0.0
  0
LINE
  5
341
100
AcDbEntity
  8
0
100
AcDbLine
 62
250
  6
CONTINUOUS
 10
-5.735132374
 20
-3.1898421101
 30
0.0
 11
-5.735132374
 21
-2.3307719051
 31
0.0
  0
LINE
  5
342
100
AcDbEntity
  8
0
100
AcDbLine
 62
250
  6
CONTINUOUS
 10
-5.735132374
 20
44.9248905276
 30
0.0
 11
-5.735132374
 21
45.7839607325
 31
0.0
  0
LINE
  5
343
100
AcDbEntity
  8
CURVE
100
AcDbLine
 62
250
  6
CONTINUOUS
 10
-21.5974855857
 20
5.2973195884
 30
0.0
 11
-21.5781285909
 21
5.31059993
 31
0.0
  0
LINE
  5
344
100
AcDbEntity
  8
0
100
AcDbLine
 62
7
  6
CONTINUOUS
 10
-2.1244093193
 20
30.2708767138
 30
0.0
 11
-2.1482267219
 21
30.2708767138
 31
0.0
  0
LINE
  5
345
100
AcDbEntity
  8
0
100
AcDbLine
 62
7
  6
CONTINUOUS
 10
-24.3482267219
 20
30.2708767138
 30
0.0
 11
-24.3720441245
 21
30.2708767138
 31
0.0
  0
LINE
  5
346
100
AcDbEntity
  8
0
100
AcDbLine
 62
7
  6
CONTINUOUS
 10
-24.3982267219
 20
30.2970593112
 30
0.0
 11
-24.3482267219
 21
30.2970593112
 31
0.0
  0
LINE
  5
347
100
AcDbEntity
  8
0
100
AcDbLine
 62
7
  6
CONTINUOUS
 10
-2.1482267219
 20
30.2970593112
 30
0.0
 11
-2.0982267219
 21
30.2970593112
 31
0.0
  0
LINE
  5
348
100
AcDbEntity
  8
0
100
AcDbLine
 62
250
  6
CONTINUOUS
 10
-3.3613210699
 20
44.9248905276
 30
0.0
 11
-3.3562304688
 21
44.419709042
 31
0.0
  0
LINE
  5
349
100
AcDbEntity
  8
0
100
AcDbLine
 62
250
  6
CONTINUOUS
 10
-3.1113253007
 20
45.1413968785
 30
0.0
 11
-3.1055074708
 21
44.5640466093
 31
0.0
  0
LINE
  5
34A
100
AcDbEntity
  8
0
100
AcDbLine
 62
250
  6
CONTINUOUS
 10
-3.3613210699
 20
-3.1898421101
 30
0.0
 11
-3.3613210699
 21
-2.3307719051
 31
0.0
  0
LINE
  5
34B
100
AcDbEntity
  8
0
100
AcDbLine
 62
250
  6
CONTINUOUS
 10
-3.3613210699
 20
44.9248905276
 30
0.0
 11
-3.3613210699
 21
45.7839607325
 31
0.0
  0
LINE
  5
34C
100
AcDbEntity
  8
0
100
AcDbLine
 62
250
  6
CONTINUOUS
 10
-3.3555032401
 20
-1.8255904196
 30
0.0
 11
-3.3555032401
 21
-1.0243290199
 31
0.0
  0
LINE
  5
34D
100
AcDbEntity
  8
0
100
AcDbLine
 62
250
  6
CONTINUOUS
 10
-3.3555032401
 20
43.6184476423
 30
0.0
 11
-3.3555032401
 21
44.419709042
 31
0.0
  0
LINE
  5
34E
100
AcDbEntity
  8
0
100
AcDbLine
 62
7
  6
CONTINUOUS
 10
-3.1113253007
 20
-2.9398463408
 30
0.0
 11
-3.1113253007
 21
-2.5472782561
 31
0.0
  0
LINE
  5
34F
100
AcDbEntity
  8
0
100
AcDbLine
 62
7
  6
CONTINUOUS
 10
-3.1113253007
 20
45.1413968785
 30
0.0
 11
-3.1113253007
 21
45.5339649633
 31
0.0
  0
LINE
  5
350
100
AcDbEntity
  8
0
100
AcDbLine
 62
7
  6
CONTINUOUS
 10
-3.1055074708
 20
-1.9699279869
 30
0.0
 11
-3.1055074708
 21
-1.0373547411
 31
0.0
  0
LINE
  5
351
100
AcDbEntity
  8
0
100
AcDbLine
 62
7
  6
CONTINUOUS
 10
-3.1055074708
 20
43.6314733635
 30
0.0
 11
-3.1055074708
 21
44.5640466093
 31
0.0
  0
LINE
  5
352
100
AcDbEntity
  8
0
100
AcDbLine
 62
7
  6
CONTINUOUS
 10
-3.0982267219
 20
-2.9529449196
 30
0.0
 11
-3.0982267219
 21
-1.1029406888
 31
0.0
  0
LINE
  5
353
100
AcDbEntity
  8
0
100
AcDbLine
 62
7
  6
CONTINUOUS
 10
-3.0982267219
 20
43.6970593112
 30
0.0
 11
-3.0982267219
 21
45.547063542
 31
0.0
  0
LINE
  5
354
100
AcDbEntity
  8
ASSI
100
AcDbLine
 62
250
  6
CONTINUOUS
 10
-2.7601869268
 20
11.7970825972
 30
0.0
 11
-2.7601869266
 21
30.7970370941
 31
0.0
  0
LINE
  5
355
100
AcDbEntity
  8
RACCORDO
100
AcDbLine
 62
250
  6
CONTINUOUS
 10
-2.7601869268
 20
11.7970825972
 30
0.0
 11
-2.7601869266
 21
30.7970370941
 31
0.0
  0
LINE
  5
356
100
AcDbEntity
  8
0
100
AcDbLine
 62
250
  6
CONTINUOUS
 10
-3.3562304688
 20
-1.8255904196
 30
0.0
 11
-3.3613210699
 21
-2.3307719051
 31
0.0
  0
LINE
  5
357
100
AcDbEntity
  8
0
100
AcDbLine
 62
250
  6
CONTINUOUS
 10
-3.1055074708
 20
-1.9699279869
 30
0.0
 11
-3.1113253007
 21
-2.5472782561
 31
0.0
  0
LINE
  5
358
100
AcDbEntity
  8
0
100
AcDbLine
 62
250
  6
CONTINUOUS
 10
-23.3851281432
 20
-2.9398463408
 30
0.0
 11
-23.3982267219
 21
-2.9529449196
 31
0.0
  0
LINE
  5
359
100
AcDbEntity
  8
0
100
AcDbLine
 62
250
  6
CONTINUOUS
 10
-23.135132374
 20
-3.1898421101
 30
0.0
 11
-23.1482309527
 21
-3.2029406888
 31
0.0
  0
LINE
  5
35A
100
AcDbEntity
  8
CURVE
100
AcDbLine
 62
250
  6
CONTINUOUS
 10
-17.6850285082
 20
5.0747929323
 30
0.0
 11
-17.703041153
 21
5.0594390868
 31
0.0
  0
LINE
  5
35B
100
AcDbEntity
  8
CURVE
100
AcDbLine
 62
250
  6
CONTINUOUS
 10
-21.5781285909
 20
5.31059993
 30
0.0
 11
-17.8663802664
 21
7.454139755
 31
0.0
  0
LINE
  5
35C
100
AcDbEntity
  8
CURVE
100
AcDbLine
 62
250
  6
CONTINUOUS
 10
-17.940794378
 20
7.0641546888
 30
0.0
 11
-20.9435415839
 21
5.330581497
 31
0.0
  0
LINE
  5
35D
100
AcDbEntity
  8
CURVE
100
AcDbLine
 62
250
  6
CONTINUOUS
 10
-17.8663802664
 20
7.454139755
 30
0.0
 11
-17.8443142203
 21
7.4643530102
 31
0.0
  0
LINE
  5
35E
100
AcDbEntity
  8
ASSI
100
AcDbLine
 62
250
  6
CONTINUOUS
 10
-23.7362665173
 20
30.797037094
 30
0.0
 11
-2.7601869266
 21
30.7970370941
 31
0.0
  0
LINE
  5
35F
100
AcDbEntity
  8
RACCORDO
100
AcDbLine
 62
250
  6
CONTINUOUS
 10
-23.7362665173
 20
30.797037094
 30
0.0
 11
-2.7601869266
 21
30.7970370941
 31
0.0
  0
LINE
  5
360
100
AcDbEntity
  8
0
100
AcDbLine
 62
250
  6
CONTINUOUS
 10
-23.3851281432
 20
45.5339649633
 30
0.0
 11
-23.3982267219
 21
45.547063542
 31
0.0
  0
LINE
  5
361
100
AcDbEntity
  8
0
100
AcDbLine
 62
250
  6
CONTINUOUS
 10
-23.135132374
 20
45.7839607325
 30
0.0
 11
-23.1482309527
 21
45.7970593112
 31
0.0
  0
LINE
  5
362
100
AcDbEntity
  8
RACCORDO
100
AcDbLine
 62
7
  6
CONTINUOUS
 10
-2.1482267219
 20
-0.5241001678
 30
0.0
 11
-2.1482267219
 21
8.1470593112
 31
0.0
  0
LINE
  5
363
100
AcDbEntity
  8
DRAFT
100
AcDbLine
 62
7
  6
CONTINUOUS
 10
-2.1482267219
 20
8.1470593112
 30
0.0
 11
-2.1482267219
 21
34.4470593112
 31
0.0
  0
LINE
  5
364
100
AcDbEntity
  8
ASSI
100
AcDbLine
 62
7
  6
CONTINUOUS
 10
-2.1482267219
 20
-0.5241001678
 30
0.0
 11
-2.1482267219
 21
43.1182187902
 31
0.0
  0
LINE
  5
365
100
AcDbEntity
  8
RACCORDO
100
AcDbLine
 62
7
  6
CONTINUOUS
 10
-2.1482267219
 20
34.4470593112
 30
0.0
 11
-2.1482267219
 21
43.1182187902
 31
0.0
  0
LINE
  5
366
100
AcDbEntity
  8
0
100
AcDbLine
 62
7
  6
CONTINUOUS
 10
-2.1244093193
 20
43.1182187902
 30
0.0
 11
-2.1244093193
 21
34.5232419086
 31
0.0
  0
LINE
  5
367
100
AcDbEntity
  8
0
100
AcDbLine
 62
7
  6
CONTINUOUS
 10
-2.1244093193
 20
30.2708767138
 30
0.0
 11
-2.1244093193
 21
12.3232419086
 31
0.0
  0
LINE
  5
368
100
AcDbEntity
  8
0
100
AcDbLine
 62
7
  6
CONTINUOUS
 10
-2.1244093193
 20
8.0708767138
 30
0.0
 11
-2.1244093193
 21
-0.5241001678
 31
0.0
  0
LINE
  5
369
100
AcDbEntity
  8
RACCORDO
100
AcDbLine
 62
7
  6
CONTINUOUS
 10
-2.0982267219
 20
34.4970593112
 30
0.0
 11
-2.0982267219
 21
30.2970593112
 31
0.0
  0
LINE
  5
36A
100
AcDbEntity
  8
RACCORDO
100
AcDbLine
 62
7
  6
CONTINUOUS
 10
-2.0982267219
 20
12.2970593112
 30
0.0
 11
-2.0982267219
 21
8.0970593112
 31
0.0
  0
LINE
  5
36B
100
AcDbEntity
  8
0
100
AcDbLine
 62
7
  6
CONTINUOUS
 10
-2.0982267219
 20
43.1970762343
 30
0.0
 11
-2.0982267219
 21
-0.6029576118
 31
0.0
  0
LINE
  5
36C
100
AcDbEntity
  8
CURVE
100
AcDbLine
 62
250
  6
CONTINUOUS
 10
-17.703041153
 20
5.0594390868
 30
0.0
 11
-17.7231947032
 21
5.0471135122
 31
0.0
  0
LINE
  5
36D
100
AcDbEntity
  8
CURVE
100
AcDbLine
 62
250
  6
CONTINUOUS
 10
-17.0598354282
 20
5.8169631218
 30
0.0
 11
-16.8000278071
 21
5.9669631218
 31
0.0
  0
LINE
  5
36E
100
AcDbEntity
  8
CURVE
100
AcDbLine
 62
250
  6
CONTINUOUS
 10
-15.3624256368
 20
6.7969631218
 30
0.0
 11
-15.1026180157
 21
6.9469631218
 31
0.0
  0
LINE
  5
36F
100
AcDbEntity
  8
CURVE
100
AcDbLine
 62
250
  6
CONTINUOUS
 10
-14.9526180157
 20
6.6871555007
 30
0.0
 11
-15.2124256368
 21
6.5371555007
 31
0.0
  0
LINE
  5
370
100
AcDbEntity
  8
CURVE
100
AcDbLine
 62
250
  6
CONTINUOUS
 10
-16.6500278071
 20
5.7071555007
 30
0.0
 11
-16.9098354282
 21
5.5571555007
 31
0.0
  0
LINE
  5
371
100
AcDbEntity
  8
CURVE
100
AcDbLine
 62
250
  6
CONTINUOUS
 10
-17.8443142203
 20
7.4643530102
 30
0.0
 11
-17.8377923878
 21
7.4666269401
 31
0.0
  0
LINE
  5
372
100
AcDbEntity
  8
0
100
AcDbLine
 62
7
  6
CONTINUOUS
 10
-17.6894999772
 20
-2.6942139441
 30
0.0
 11
-17.6982267219
 21
-2.7029406888
 31
0.0
  0
LINE
  5
373
100
AcDbEntity
  8
CURVE
100
AcDbLine
 62
250
  6
CONTINUOUS
 10
-17.7231947032
 20
5.0471135122
 30
0.0
 11
-17.7449152582
 21
5.0381422887
 31
0.0
  0
LINE
  5
374
100
AcDbEntity
  8
0
100
AcDbLine
 62
7
  6
CONTINUOUS
 10
-2.0982267219
 20
34.4970593112
 30
0.0
 11
-2.1482267219
 21
34.4970593112
 31
0.0
  0
LINE
  5
375
100
AcDbEntity
  8
0
100
AcDbLine
 62
7
  6
CONTINUOUS
 10
-24.3482267219
 20
34.4970593112
 30
0.0
 11
-24.3982267219
 21
34.4970593112
 31
0.0
  0
LINE
  5
376
100
AcDbEntity
  8
0
100
AcDbLine
 62
7
  6
CONTINUOUS
 10
-24.3720441245
 20
34.5232419086
 30
0.0
 11
-24.3482267219
 21
34.5232419086
 31
0.0
  0
LINE
  5
377
100
AcDbEntity
  8
0
100
AcDbLine
 62
7
  6
CONTINUOUS
 10
-2.1482267219
 20
34.5232419086
 30
0.0
 11
-2.1244093193
 21
34.5232419086
 31
0.0
  0
LWPOLYLINE
  5
378
100
AcDbEntity
  8
0
100
AcDbPolyline
 62
7
  6
CONTINUOUS
 90
10
 70
0
 43
0.3500000006
 10
5.1517735291
 20
21.7256294403
 10
4.2946304913
 20
22.5827719116
 10
3.4374874535
 20
22.7970609283
 10
2.5803446989
 20
22.7970609283
 10
2.1517733216
 20
22.3684874268
 10
2.1517733216
 20
21.7256294403
 10
2.5803446989
 20
21.2970604706
 10
3.4374874535
 20
21.2970604706
 10
3.8660589724
 20
21.7256294403
 10
3.8660589724
 20
22.6542030945
  0
LINE
  5
379
100
AcDbEntity
  8
0
100
AcDbLine
 62
7
  6
CONTINUOUS
 10
-17.6982267219
 20
45.2970593112
 30
0.0
 11
-17.6894999772
 21
45.2883325665
 31
0.0
  0
LWPOLYLINE
  5
37A
100
AcDbEntity
  8
0
100
AcDbPolyline
 62
7
  6
CONTINUOUS
 90
3
 70
0
 43
0.3500000006
 10
4.5089161091
 20
20.4399179993
 10
4.5089161091
 20
18.9399175415
 10
2.1517733216
 20
19.582775528
  0
LINE
  5
37B
100
AcDbEntity
  8
0
100
AcDbLine
 62
7
  6
CONTINUOUS
 10
-2.0982267219
 20
8.0970593112
 30
0.0
 11
-2.1244093193
 21
8.0708767138
 31
0.0
  0
LINE
  5
37C
100
AcDbEntity
  8
0
100
AcDbLine
 62
7
  6
CONTINUOUS
 10
-2.0982267219
 20
34.4970593112
 30
0.0
 11
-2.1244093193
 21
34.5232419086
 31
0.0
  0
LINE
  5
37D
100
AcDbEntity
  8
ASSI
100
AcDbLine
 62
250
  6
CONTINUOUS
 10
-2.7430020376
 20
42.5077765939
 30
0.0
 11
-23.7534514063
 21
42.5077765939
 31
0.0
  0
LINE
  5
37E
100
AcDbEntity
  8
RACCORDO
100
AcDbLine
 62
250
  6
CONTINUOUS
 10
-2.7430020376
 20
42.5077765939
 30
0.0
 11
-23.7534514063
 21
42.5077765939
 31
0.0
  0
LINE
  5
37F
100
AcDbEntity
  8
0
100
AcDbLine
 62
250
  6
CONTINUOUS
 10
-5.9851281432
 20
-2.9398463408
 30
0.0
 11
-5.9982267219
 21
-2.9529449196
 31
0.0
  0
LINE
  5
380
100
AcDbEntity
  8
0
100
AcDbLine
 62
250
  6
CONTINUOUS
 10
-5.735132374
 20
-3.1898421101
 30
0.0
 11
-5.7482309527
 21
-3.2029406888
 31
0.0
  0
LINE
  5
381
100
AcDbEntity
  8
0
100
AcDbLine
 62
7
  6
CONTINUOUS
 10
-9.7394998541
 20
-2.6942139441
 30
0.0
 11
-9.7499619414
 21
-2.7011885705
 31
0.0
  0
LINE
  5
382
100
AcDbEntity
  8
ASSI
100
AcDbLine
 62
7
  6
CONTINUOUS
 10
-6.3482267219
 20
43.5817621968
 30
0.0
 11
-5.6482267219
 21
43.6184476423
 31
0.0
  0
LINE
  5
383
100
AcDbEntity
  8
0
100
AcDbLine
 62
7
  6
CONTINUOUS
 10
-6.3482267219
 20
43.5817621968
 30
0.0
 11
-5.6482267219
 21
43.6184476423
 31
0.0
  0
LINE
  5
384
100
AcDbEntity
  8
ASSI
100
AcDbLine
 62
7
  6
CONTINUOUS
 10
-17.5482267219
 20
43.5817621968
 30
0.0
 11
-16.8482267219
 21
43.6184476423
 31
0.0
  0
LINE
  5
385
100
AcDbEntity
  8
0
100
AcDbLine
 62
7
  6
CONTINUOUS
 10
-17.5482267219
 20
43.5817621968
 30
0.0
 11
-16.8482267219
 21
43.6184476423
 31
0.0
  0
LINE
  5
386
100
AcDbEntity
  8
ASSI
100
AcDbLine
 62
250
  6
CONTINUOUS
 10
-2.7348288488
 20
43.3572872539
 30
0.0
 11
-23.7616245951
 21
43.3572872539
 31
0.0
  0
LINE
  5
387
100
AcDbEntity
  8
RACCORDO
100
AcDbLine
 62
250
  6
CONTINUOUS
 10
-2.7348288488
 20
43.3572872539
 30
0.0
 11
-23.7616245951
 21
43.3572872539
 31
0.0
  0
LINE
  5
388
100
AcDbEntity
  8
ASSI
100
AcDbLine
 62
7
  6
CONTINUOUS
 10
-20.1482267219
 20
43.5817621968
 30
0.0
 11
-17.5482267219
 21
43.5817621968
 31
0.0
  0
LINE
  5
389
100
AcDbEntity
  8
0
100
AcDbLine
 62
7
  6
CONTINUOUS
 10
-20.1482267219
 20
43.5817621968
 30
0.0
 11
-17.5482267219
 21
43.5817621968
 31
0.0
  0
LINE
  5
38A
100
AcDbEntity
  8
ASSI
100
AcDbLine
 62
7
  6
CONTINUOUS
 10
-8.9482267219
 20
43.5817621968
 30
0.0
 11
-6.3482267219
 21
43.5817621968
 31
0.0
  0
LINE
  5
38B
100
AcDbEntity
  8
0
100
AcDbLine
 62
7
  6
CONTINUOUS
 10
-8.9482267219
 20
43.5817621968
 30
0.0
 11
-6.3482267219
 21
43.5817621968
 31
0.0
  0
LINE
  5
38C
100
AcDbEntity
  8
ASSI
100
AcDbLine
 62
7
  6
CONTINUOUS
 10
-23.8486073217
 20
43.6184476423
 30
0.0
 11
-20.8482267219
 21
43.6184476423
 31
0.0
  0
LINE
  5
38D
100
AcDbEntity
  8
RACCORDO
100
AcDbLine
 62
7
  6
CONTINUOUS
 10
-23.8486073217
 20
43.6184476423
 30
0.0
 11
-20.8482267219
 21
43.6184476423
 31
0.0
  0
LINE
  5
38E
100
AcDbEntity
  8
ASSI
100
AcDbLine
 62
7
  6
CONTINUOUS
 10
-16.8482267219
 20
43.6184476423
 30
0.0
 11
-9.6482267219
 21
43.6184476423
 31
0.0
  0
LINE
  5
38F
100
AcDbEntity
  8
0
100
AcDbLine
 62
7
  6
CONTINUOUS
 10
-16.8482267219
 20
43.6184476423
 30
0.0
 11
-9.6482267219
 21
43.6184476423
 31
0.0
  0
LINE
  5
390
100
AcDbEntity
  8
ASSI
100
AcDbLine
 62
7
  6
CONTINUOUS
 10
-5.6482267219
 20
43.6184476423
 30
0.0
 11
-2.6478461222
 21
43.6184476423
 31
0.0
  0
LINE
  5
391
100
AcDbEntity
  8
RACCORDO
100
AcDbLine
 62
7
  6
CONTINUOUS
 10
-5.6482267219
 20
43.6184476423
 30
0.0
 11
-2.6478461222
 21
43.6184476423
 31
0.0
  0
LINE
  5
392
100
AcDbEntity
  8
0
100
AcDbLine
 62
7
  6
CONTINUOUS
 10
-2.6240287196
 20
43.6184476423
 30
0.0
 11
-3.3555032401
 21
43.6184476423
 31
0.0
  0
LINE
  5
393
100
AcDbEntity
  8
0
100
AcDbLine
 62
7
  6
CONTINUOUS
 10
-5.7482267219
 20
43.6184476423
 30
0.0
 11
-9.5482267219
 21
43.6184476423
 31
0.0
  0
LINE
  5
394
100
AcDbEntity
  8
0
100
AcDbLine
 62
7
  6
CONTINUOUS
 10
-16.9482267219
 20
43.6184476423
 30
0.0
 11
-20.7482267219
 21
43.6184476423
 31
0.0
  0
LINE
  5
395
100
AcDbEntity
  8
0
100
AcDbLine
 62
7
  6
CONTINUOUS
 10
-23.1409502038
 20
43.6184476423
 30
0.0
 11
-23.8724247243
 21
43.6184476423
 31
0.0
  0
LINE
  5
396
100
AcDbEntity
  8
0
100
AcDbLine
 62
7
  6
CONTINUOUS
 10
-9.7482267219
 20
43.6708554216
 30
0.0
 11
-12.0456010459
 21
43.6708554216
 31
0.0
  0
LINE
  5
397
100
AcDbEntity
  8
0
100
AcDbLine
 62
7
  6
CONTINUOUS
 10
-14.450852398
 20
43.6708554216
 30
0.0
 11
-16.7482267219
 21
43.6708554216
 31
0.0
  0
LINE
  5
398
100
AcDbEntity
  8
0
100
AcDbLine
 62
7
  6
CONTINUOUS
 10
-14.2482267219
 20
43.6970593112
 30
0.0
 11
-12.2482267219
 21
43.6970593112
 31
0.0
  0
LINE
  5
399
100
AcDbEntity
  8
0
100
AcDbLine
 62
7
  6
CONTINUOUS
 10
-2.5982203758
 20
43.6970593112
 30
0.0
 11
-3.0982267219
 21
43.6970593112
 31
0.0
  0
LINE
  5
39A
100
AcDbEntity
  8
0
100
AcDbLine
 62
7
  6
CONTINUOUS
 10
-5.9982267219
 20
43.6970593112
 30
0.0
 11
-8.7982267219
 21
43.6970593112
 31
0.0
  0
LINE
  5
39B
100
AcDbEntity
  8
0
100
AcDbLine
 62
7
  6
CONTINUOUS
 10
-17.6982267219
 20
43.6970593112
 30
0.0
 11
-20.4982267219
 21
43.6970593112
 31
0.0
  0
LINE
  5
39C
100
AcDbEntity
  8
0
100
AcDbLine
 62
7
  6
CONTINUOUS
 10
-23.3982267219
 20
43.6970593112
 30
0.0
 11
-23.898233068
 21
43.6970593112
 31
0.0
  0
LINE
  5
39D
100
AcDbEntity
  8
0
100
AcDbLine
 62
7
  6
CONTINUOUS
 10
-23.1409502038
 20
44.419709042
 30
0.0
 11
-20.7555032401
 21
44.419709042
 31
0.0
  0
LINE
  5
39E
100
AcDbEntity
  8
0
100
AcDbLine
 62
7
  6
CONTINUOUS
 10
-3.3555032401
 20
44.419709042
 30
0.0
 11
-5.7409502038
 21
44.419709042
 31
0.0
  0
LINE
  5
39F
100
AcDbEntity
  8
ASSI
100
AcDbLine
 62
7
  6
CONTINUOUS
 10
-20.8482267219
 20
43.6184476423
 30
0.0
 11
-20.1482267219
 21
43.5817621968
 31
0.0
  0
LINE
  5
3A0
100
AcDbEntity
  8
0
100
AcDbLine
 62
7
  6
CONTINUOUS
 10
-20.8482267219
 20
43.6184476423
 30
0.0
 11
-20.1482267219
 21
43.5817621968
 31
0.0
  0
LINE
  5
3A1
100
AcDbEntity
  8
ASSI
100
AcDbLine
 62
7
  6
CONTINUOUS
 10
-9.6482267219
 20
43.6184476423
 30
0.0
 11
-8.9482267219
 21
43.5817621968
 31
0.0
  0
LINE
  5
3A2
100
AcDbEntity
  8
0
100
AcDbLine
 62
7
  6
CONTINUOUS
 10
-9.6482267219
 20
43.6184476423
 30
0.0
 11
-8.9482267219
 21
43.5817621968
 31
0.0
  0
LINE
  5
3A3
100
AcDbEntity
  8
0
100
AcDbLine
 62
7
  6
CONTINUOUS
 10
-9.7499619414
 20
45.295307193
 30
0.0
 11
-9.7394998541
 21
45.2883325665
 31
0.0
  0
LINE
  5
3A4
100
AcDbEntity
  8
0
100
AcDbLine
 62
250
  6
CONTINUOUS
 10
-5.9851281432
 20
45.5339649633
 30
0.0
 11
-5.9982267219
 21
45.547063542
 31
0.0
  0
LINE
  5
3A5
100
AcDbEntity
  8
0
100
AcDbLine
 62
250
  6
CONTINUOUS
 10
-5.735132374
 20
45.7839607325
 30
0.0
 11
-5.7482309527
 21
45.7970593112
 31
0.0
  0
LINE
  5
3A6
100
AcDbEntity
  8
0
100
AcDbLine
 62
250
  6
CONTINUOUS
 10
-23.135132374
 20
44.9248905276
 30
0.0
 11
-20.7613210699
 21
44.9248905276
 31
0.0
  0
LINE
  5
3A7
100
AcDbEntity
  8
0
100
AcDbLine
 62
250
  6
CONTINUOUS
 10
-5.735132374
 20
44.9248905276
 30
0.0
 11
-3.3613210699
 21
44.9248905276
 31
0.0
  0
LINE
  5
3A8
100
AcDbEntity
  8
0
100
AcDbLine
 62
250
  6
CONTINUOUS
 10
-9.7482267219
 20
45.0953105776
 30
0.0
 11
-12.2455934305
 21
45.0953105776
 31
0.0
  0
LINE
  5
3A9
100
AcDbEntity
  8
0
100
AcDbLine
 62
250
  6
CONTINUOUS
 10
-14.2508600133
 20
45.0953105776
 30
0.0
 11
-16.7482267219
 21
45.0953105776
 31
0.0
  0
LINE
  5
3AA
100
AcDbEntity
  8
0
100
AcDbLine
 62
250
  6
CONTINUOUS
 10
-3.1113253007
 20
45.1413968785
 30
0.0
 11
-5.9851281432
 21
45.1413968785
 31
0.0
  0
LINE
  5
3AB
100
AcDbEntity
  8
0
100
AcDbLine
 62
250
  6
CONTINUOUS
 10
-20.5113253007
 20
45.1413968785
 30
0.0
 11
-23.3851281432
 21
45.1413968785
 31
0.0
  0
LINE
  5
3AC
100
AcDbEntity
  8
0
100
AcDbLine
 62
7
  6
CONTINUOUS
 10
-17.6894999772
 20
45.2883325665
 30
0.0
 11
-16.7569535897
 21
45.2883325665
 31
0.0
  0
LINE
  5
3AD
100
AcDbEntity
  8
0
100
AcDbLine
 62
7
  6
CONTINUOUS
 10
-9.7394998541
 20
45.2883325665
 30
0.0
 11
-8.8069534667
 21
45.2883325665
 31
0.0
  0
LINE
  5
3AE
100
AcDbEntity
  8
0
100
AcDbLine
 62
7
  6
CONTINUOUS
 10
-9.7499619414
 20
45.295307193
 30
0.0
 11
-12.0456010459
 21
45.295307193
 31
0.0
  0
LINE
  5
3AF
100
AcDbEntity
  8
0
100
AcDbLine
 62
7
  6
CONTINUOUS
 10
-14.450852398
 20
45.295307193
 30
0.0
 11
-16.7464915025
 21
45.295307193
 31
0.0
  0
LINE
  5
3B0
100
AcDbEntity
  8
0
100
AcDbLine
 62
7
  6
CONTINUOUS
 10
-17.6982267219
 20
45.2970593112
 30
0.0
 11
-16.7464915025
 21
45.2970593112
 31
0.0
  0
LINE
  5
3B1
100
AcDbEntity
  8
0
100
AcDbLine
 62
7
  6
CONTINUOUS
 10
-9.7499619414
 20
45.2970593112
 30
0.0
 11
-8.7982267219
 21
45.2970593112
 31
0.0
  0
LINE
  5
3B2
100
AcDbEntity
  8
0
100
AcDbLine
 62
250
  6
CONTINUOUS
 10
-3.1113253007
 20
45.5339649633
 30
0.0
 11
-5.9851281432
 21
45.5339649633
 31
0.0
  0
LINE
  5
3B3
100
AcDbEntity
  8
0
100
AcDbLine
 62
250
  6
CONTINUOUS
 10
-20.5113253007
 20
45.5339649633
 30
0.0
 11
-23.3851281432
 21
45.5339649633
 31
0.0
  0
LINE
  5
3B4
100
AcDbEntity
  8
0
100
AcDbLine
 62
7
  6
CONTINUOUS
 10
-3.3613210699
 20
45.7839607325
 30
0.0
 11
-5.735132374
 21
45.7839607325
 31
0.0
  0
LINE
  5
3B5
100
AcDbEntity
  8
0
100
AcDbLine
 62
7
  6
CONTINUOUS
 10
-20.7613210699
 20
45.7839607325
 30
0.0
 11
-23.135132374
 21
45.7839607325
 31
0.0
  0
LINE
  5
3B6
100
AcDbEntity
  8
0
100
AcDbLine
 62
7
  6
CONTINUOUS
 10
-3.3482224912
 20
45.7970593112
 30
0.0
 11
-5.7482309527
 21
45.7970593112
 31
0.0
  0
LINE
  5
3B7
100
AcDbEntity
  8
0
100
AcDbLine
 62
7
  6
CONTINUOUS
 10
-20.7482224912
 20
45.7970593112
 30
0.0
 11
-23.1482309527
 21
45.7970593112
 31
0.0
  0
LWPOLYLINE
  5
3B8
100
AcDbEntity
  8
0
100
AcDbPolyline
 62
7
  6
CONTINUOUS
 90
3
 70
0
 43
0.3500000006
 10
-72.6655891113
 20
66.6899185181
 10
-71.80844664
 20
67.5470564575
 10
-71.80844664
 20
64.547055542
  0
LINE
  5
3B9
100
AcDbEntity
  8
0
100
AcDbLine
 62
250
  6
CONTINUOUS
 10
-89.8798738069
 20
44.7075444594
 30
0.0
 11
-89.128419374
 21
45.1413968785
 31
0.0
  0
LINE
  5
3BA
100
AcDbEntity
  8
0
100
AcDbLine
 62
7
  6
CONTINUOUS
 10
-89.8798738069
 20
44.419709042
 30
0.0
 11
-89.0048738069
 21
44.9248905276
 31
0.0
  0
LINE
  5
3BB
100
AcDbEntity
  8
0
100
AcDbLine
 62
250
  6
CONTINUOUS
 10
-89.128419374
 20
-2.5472782561
 30
0.0
 11
-89.8798738069
 21
-2.113425837
 31
0.0
  0
LINE
  5
3BC
100
AcDbEntity
  8
0
100
AcDbLine
 62
7
  6
CONTINUOUS
 10
-89.0048738069
 20
-2.3307719051
 30
0.0
 11
-89.8798738069
 21
-1.8255904196
 31
0.0
  0
LINE
  5
3BD
100
AcDbEntity
  8
CURVE
100
AcDbLine
 62
250
  6
CONTINUOUS
 10
-98.067927264
 20
6.9670544742
 30
0.0
 11
-98.0470951916
 21
6.6871555007
 31
0.0
  0
LINE
  5
3BE
100
AcDbEntity
  8
CURVE
100
AcDbLine
 62
250
  6
CONTINUOUS
 10
-98.0762286123
 20
7.0820067016
 30
0.0
 11
-98.0653699473
 21
6.9320493564
 31
0.0
  0
LINE
  5
3BF
100
AcDbEntity
  8
CURVE
100
AcDbLine
 62
250
  6
CONTINUOUS
 10
-98.0972024915
 20
7.3820943736
 30
0.0
 11
-98.1073057918
 21
7.5320517163
 31
0.0
  0
LINE
  5
3C0
100
AcDbEntity
  8
CURVE
100
AcDbLine
 62
250
  6
CONTINUOUS
 10
-98.1027757739
 20
7.4643530102
 30
0.0
 11
-98.1029287646
 21
7.4666269401
 31
0.0
  0
LINE
  5
3C1
100
AcDbEntity
  8
0
100
AcDbLine
 62
7
  6
CONTINUOUS
 10
-89.8798738069
 20
-3.2029406888
 30
0.0
 11
-89.128419374
 21
-3.1985688548
 31
0.0
  0
LINE
  5
3C2
100
AcDbEntity
  8
0
100
AcDbLine
 62
250
  6
CONTINUOUS
 10
-89.8798738069
 20
-2.9529449196
 30
0.0
 11
-89.128419374
 21
-2.9485730856
 31
0.0
  0
LINE
  5
3C3
100
AcDbEntity
  8
0
100
AcDbLine
 62
7
  6
CONTINUOUS
 10
-82.3769649412
 20
-2.6592900419
 30
0.0
 11
-88.8798738069
 21
-2.697122859
 31
0.0
  0
LINE
  5
3C4
100
AcDbEntity
  8
0
100
AcDbLine
 62
250
  6
CONTINUOUS
 10
-88.8798738069
 20
-2.9485730856
 30
0.0
 11
-89.128419374
 21
-2.9485730856
 31
0.0
  0
LINE
  5
3C5
100
AcDbEntity
  8
0
100
AcDbLine
 62
250
  6
CONTINUOUS
 10
-92.3798738069
 20
-2.9398463408
 30
0.0
 11
-92.1313282397
 21
-2.9398463408
 31
0.0
  0
LINE
  5
3C6
100
AcDbEntity
  8
0
100
AcDbLine
 62
250
  6
CONTINUOUS
 10
-92.3798738069
 20
-2.5472782561
 30
0.0
 11
-92.1313282397
 21
-2.5472782561
 31
0.0
  0
LINE
  5
3C7
100
AcDbEntity
  8
0
100
AcDbLine
 62
250
  6
CONTINUOUS
 10
-88.8798738069
 20
-2.5472782561
 30
0.0
 11
-89.128419374
 21
-2.5472782561
 31
0.0
  0
LINE
  5
3C8
100
AcDbEntity
  8
0
100
AcDbLine
 62
7
  6
CONTINUOUS
 10
-92.1313282397
 20
-3.1898421101
 30
0.0
 11
-89.8798738069
 21
-3.2029406888
 31
0.0
  0
LINE
  5
3C9
100
AcDbEntity
  8
0
100
AcDbLine
 62
250
  6
CONTINUOUS
 10
-92.1313282397
 20
-2.9398463408
 30
0.0
 11
-89.8798738069
 21
-2.9529449196
 31
0.0
  0
LINE
  5
3CA
100
AcDbEntity
  8
0
100
AcDbLine
 62
7
  6
CONTINUOUS
 10
-91.3798738069
 20
-1.0243290199
 30
0.0
 11
-89.8798738069
 21
-1.1029406888
 31
0.0
  0
LINE
  5
3CB
100
AcDbEntity
  8
ASSI
100
AcDbLine
 62
7
  6
CONTINUOUS
 10
-91.3798738069
 20
-1.0243290199
 30
0.0
 11
-96.3631108759
 21
-0.7631686314
 31
0.0
  0
LINE
  5
3CC
100
AcDbEntity
  8
RACCORDO
100
AcDbLine
 62
7
  6
CONTINUOUS
 10
-91.3798738069
 20
-1.0243290199
 30
0.0
 11
-96.3631108759
 21
-0.7631686314
 31
0.0
  0
LWPOLYLINE
  5
3CD
100
AcDbEntity
  8
0
100
AcDbPolyline
 62
7
  6
CONTINUOUS
 90
3
 70
0
 43
0.3500000006
 10
-69.7370148468
 20
56.6899154663
 10
-68.8798723755
 20
57.5470624695
 10
-68.8798723755
 20
54.547061554
  0
LINE
  5
3CE
100
AcDbEntity
  8
0
100
AcDbLine
 62
7
  6
CONTINUOUS
 10
-78.8740560755
 20
-1.0389107143
 30
0.0
 11
-89.8798738069
 21
-1.1029406888
 31
0.0
  0
LINE
  5
3CF
100
AcDbEntity
  8
0
100
AcDbLine
 62
250
  6
CONTINUOUS
 10
-89.8798738069
 20
-0.6029576118
 30
0.0
 11
-88.8798738069
 21
-0.597139782
 31
0.0
  0
LINE
  5
3D0
100
AcDbEntity
  8
0
100
AcDbLine
 62
7
  6
CONTINUOUS
 10
-91.3798738069
 20
-1.0243290199
 30
0.0
 11
-91.9798738069
 21
-1.0243290199
 31
0.0
  0
LINE
  5
3D1
100
AcDbEntity
  8
0
100
AcDbLine
 62
7
  6
CONTINUOUS
 10
-87.8798738069
 20
-0.286371187
 30
0.0
 11
-88.8798738069
 21
-0.286371187
 31
0.0
  0
LINE
  5
3D2
100
AcDbEntity
  8
0
100
AcDbLine
 62
7
  6
CONTINUOUS
 10
-78.3711476036
 20
-0.1566761159
 30
0.0
 11
-87.8798738069
 21
-0.1080540989
 31
0.0
  0
LINE
  5
3D3
100
AcDbEntity
  8
0
100
AcDbLine
 62
7
  6
CONTINUOUS
 10
-77.8798738069
 20
0.3010637655
 30
0.0
 11
-87.8798738069
 21
0.3883324434
 31
0.0
  0
LINE
  5
3D4
100
AcDbEntity
  8
0
100
AcDbLine
 62
250
  6
CONTINUOUS
 10
-91.3798738069
 20
-0.5241001678
 30
0.0
 11
-89.8798738069
 21
-0.6027118367
 31
0.0
  0
LINE
  5
3D5
100
AcDbEntity
  8
ASSI
100
AcDbLine
 62
250
  6
CONTINUOUS
 10
-91.3798738069
 20
-0.5241001678
 30
0.0
 11
-96.345669101
 21
-0.263853864
 31
0.0
  0
LINE
  5
3D6
100
AcDbEntity
  8
RACCORDO
100
AcDbLine
 62
250
  6
CONTINUOUS
 10
-91.3798738069
 20
-0.5241001678
 30
0.0
 11
-96.345669101
 21
-0.263853864
 31
0.0
  0
LINE
  5
3D7
100
AcDbEntity
  8
0
100
AcDbLine
 62
7
  6
CONTINUOUS
 10
-91.1717955044
 20
8.0745087341
 30
0.0
 11
-91.1797879551
 21
8.1505518228
 31
0.0
  0
LINE
  5
3D8
100
AcDbEntity
  8
0
100
AcDbLine
 62
7
  6
CONTINUOUS
 10
-92.3798738069
 20
-2.9398463408
 30
0.0
 11
-92.3798738069
 21
-2.5472782561
 31
0.0
  0
LINE
  5
3D9
100
AcDbEntity
  8
0
100
AcDbLine
 62
7
  6
CONTINUOUS
 10
-92.3798738069
 20
45.1413968785
 30
0.0
 11
-92.3798738069
 21
45.5339649633
 31
0.0
  0
LINE
  5
3DA
100
AcDbEntity
  8
0
100
AcDbLine
 62
250
  6
CONTINUOUS
 10
-92.1313282397
 20
-2.9398463408
 30
0.0
 11
-92.1313282397
 21
-2.5472782561
 31
0.0
  0
LINE
  5
3DB
100
AcDbEntity
  8
0
100
AcDbLine
 62
250
  6
CONTINUOUS
 10
-92.1313282397
 20
45.1413968785
 30
0.0
 11
-92.1313282397
 21
45.5339649633
 31
0.0
  0
LINE
  5
3DC
100
AcDbEntity
  8
0
100
AcDbLine
 62
7
  6
CONTINUOUS
 10
-91.9798738069
 20
-1.0243290199
 30
0.0
 11
-91.9798738069
 21
-0.9928843523
 31
0.0
  0
LINE
  5
3DD
100
AcDbEntity
  8
0
100
AcDbLine
 62
7
  6
CONTINUOUS
 10
-91.9798738069
 20
43.5870029747
 30
0.0
 11
-91.9798738069
 21
43.6184476423
 31
0.0
  0
LINE
  5
3DE
100
AcDbEntity
  8
0
100
AcDbLine
 62
7
  6
CONTINUOUS
 10
-91.1797879551
 20
34.4435667997
 30
0.0
 11
-91.1717955044
 21
34.5196098883
 31
0.0
  0
LINE
  5
3DF
100
AcDbEntity
  8
CURVE
100
AcDbLine
 62
250
  6
CONTINUOUS
 10
-83.0806048701
 20
38.0256308692
 30
0.0
 11
-82.8092176547
 21
38.2970593112
 31
0.0
  0
LINE
  5
3E0
100
AcDbEntity
  8
CURVE
100
AcDbLine
 62
7
  6
CONTINUOUS
 10
-86.3787285858
 20
36.4631603112
 30
0.0
 11
-84.3317782492
 21
37.8000583112
 31
0.0
  0
LINE
  5
3E1
100
AcDbEntity
  8
CURVE
100
AcDbLine
 62
7
  6
CONTINUOUS
 10
-83.4805176107
 20
37.7811373112
 30
0.0
 11
-85.5051267542
 21
36.4627153112
 31
0.0
  0
LINE
  5
3E2
100
AcDbEntity
  8
CURVE
100
AcDbLine
 62
250
  6
CONTINUOUS
 10
-82.8092176547
 20
38.2970593112
 30
0.0
 11
-82.5378304394
 21
38.4327739852
 31
0.0
  0
LINE
  5
3E3
100
AcDbEntity
  8
RACCORDO
100
AcDbLine
 62
7
  6
CONTINUOUS
 10
-79.8798738069
 20
1.9511700125
 30
0.0
 11
-77.1746380849
 21
1.9983900777
 31
0.0
  0
LINE
  5
3E4
100
AcDbEntity
  8
0
100
AcDbLine
 62
7
  6
CONTINUOUS
 10
-79.8798738069
 20
1.9511700125
 30
0.0
 11
-77.1746380849
 21
1.9983900777
 31
0.0
  0
LINE
  5
3E5
100
AcDbEntity
  8
RACCORDO
100
AcDbLine
 62
250
  6
CONTINUOUS
 10
-78.7334271974
 20
2.2675242325
 30
0.0
 11
-77.0263204163
 21
2.2973218922
 31
0.0
  0
LINE
  5
3E6
100
AcDbEntity
  8
0
100
AcDbLine
 62
250
  6
CONTINUOUS
 10
-78.7334271974
 20
2.2675242325
 30
0.0
 11
-77.0263204163
 21
2.2973218922
 31
0.0
  0
LINE
  5
3E7
100
AcDbEntity
  8
RACCORDO
100
AcDbLine
 62
250
  6
CONTINUOUS
 10
-79.8798738069
 20
2.2512157109
 30
0.0
 11
-79.086980588
 21
2.2650557135
 31
0.0
  0
LINE
  5
3E8
100
AcDbEntity
  8
0
100
AcDbLine
 62
250
  6
CONTINUOUS
 10
-79.8798738069
 20
2.2512157109
 30
0.0
 11
-79.086980588
 21
2.2650557135
 31
0.0
  0
LINE
  5
3E9
100
AcDbEntity
  8
RACCORDO
100
AcDbLine
 62
250
  6
CONTINUOUS
 10
-87.8798738069
 20
2.2113620917
 30
0.0
 11
-80.8798738069
 21
2.2619729641
 31
0.0
  0
LINE
  5
3EA
100
AcDbEntity
  8
0
100
AcDbLine
 62
250
  6
CONTINUOUS
 10
-87.8798738069
 20
2.2113620917
 30
0.0
 11
-80.8798738069
 21
2.2619729641
 31
0.0
  0
LINE
  5
3EB
100
AcDbEntity
  8
DRAFT
100
AcDbLine
 62
7
  6
CONTINUOUS
 10
-87.8798738069
 20
0.4470593112
 30
0.0
 11
-80.8798738069
 21
0.4470593112
 31
0.0
  0
LINE
  5
3EC
100
AcDbEntity
  8
0
100
AcDbLine
 62
7
  6
CONTINUOUS
 10
-87.8798738069
 20
0.4470593112
 30
0.0
 11
-79.8798738069
 21
0.4470593112
 31
0.0
  0
LINE
  5
3ED
100
AcDbEntity
  8
ASSI
100
AcDbLine
 62
7
  6
CONTINUOUS
 10
-48.8798738069
 20
1.6970593112
 30
0.0
 11
-79.8798738069
 21
1.6970593112
 31
0.0
  0
LINE
  5
3EE
100
AcDbEntity
  8
ASSI
100
AcDbLine
 62
250
  6
CONTINUOUS
 10
-52.8749411891
 20
2.4070593112
 30
0.0
 11
-76.8798738069
 21
2.4070593112
 31
0.0
  0
LINE
  5
3EF
100
AcDbEntity
  8
0
100
AcDbLine
 62
7
  6
CONTINUOUS
 10
-77.5798738069
 20
2.6970593112
 30
0.0
 11
-72.5798738069
 21
2.6970593112
 31
0.0
  0
LINE
  5
3F0
100
AcDbEntity
  8
ASSI
100
AcDbLine
 62
7
  6
CONTINUOUS
 10
-72.5798738069
 20
2.6970593112
 30
0.0
 11
-67.0798738069
 21
2.6970593112
 31
0.0
  0
LINE
  5
3F1
100
AcDbEntity
  8
0
100
AcDbLine
 62
7
  6
CONTINUOUS
 10
-67.0798738069
 20
2.6970593112
 30
0.0
 11
-62.0798738069
 21
2.6970593112
 31
0.0
  0
LINE
  5
3F2
100
AcDbEntity
  8
ASSI
100
AcDbLine
 62
7
  6
CONTINUOUS
 10
-62.0798738069
 20
2.6970593112
 30
0.0
 11
-56.5798738069
 21
2.6970593112
 31
0.0
  0
LINE
  5
3F3
100
AcDbEntity
  8
0
100
AcDbLine
 62
7
  6
CONTINUOUS
 10
-56.5798738069
 20
2.6970593112
 30
0.0
 11
-51.5798738069
 21
2.6970593112
 31
0.0
  0
LINE
  5
3F4
100
AcDbEntity
  8
DRAFT
100
AcDbLine
 62
7
  6
CONTINUOUS
 10
-77.8798738069
 20
1.4923368977
 30
0.0
 11
-79.8798738069
 21
1.5097906333
 31
0.0
  0
LINE
  5
3F5
100
AcDbEntity
  8
RACCORDO
100
AcDbLine
 62
7
  6
CONTINUOUS
 10
-52.5775591498
 20
1.7293285223
 30
0.0
 11
-47.3798738069
 21
1.6839690095
 31
0.0
  0
LINE
  5
3F6
100
AcDbEntity
  8
ASSI
100
AcDbLine
 62
7
  6
CONTINUOUS
 10
-52.5775591498
 20
1.7293285223
 30
0.0
 11
-47.3798738069
 21
1.6839690095
 31
0.0
  0
LINE
  5
3F7
100
AcDbEntity
  8
RACCORDO
100
AcDbLine
 62
250
  6
CONTINUOUS
 10
-52.7284945797
 20
2.0288058912
 30
0.0
 11
-51.0371476678
 21
2.0140457303
 31
0.0
  0
LINE
  5
3F8
100
AcDbEntity
  8
ASSI
100
AcDbLine
 62
250
  6
CONTINUOUS
 10
-52.7284945797
 20
2.0288058912
 30
0.0
 11
-51.0371476678
 21
2.0140457303
 31
0.0
  0
LINE
  5
3F9
100
AcDbEntity
  8
RACCORDO
100
AcDbLine
 62
250
  6
CONTINUOUS
 10
-50.687957545
 20
2.0128267959
 30
0.0
 11
-47.3798738069
 21
1.9839575865
 31
0.0
  0
LINE
  5
3FA
100
AcDbEntity
  8
ASSI
100
AcDbLine
 62
250
  6
CONTINUOUS
 10
-50.687957545
 20
2.0128267959
 30
0.0
 11
-47.3798738069
 21
1.9839575865
 31
0.0
  0
LINE
  5
3FB
100
AcDbEntity
  8
0
100
AcDbLine
 62
7
  6
CONTINUOUS
 10
-88.8798738069
 20
2.7883324434
 30
0.0
 11
-87.8798738069
 21
2.7796055756
 31
0.0
  0
LINE
  5
3FC
100
AcDbEntity
  8
0
100
AcDbLine
 62
7
  6
CONTINUOUS
 10
-79.7169751037
 20
3.0410383068
 30
0.0
 11
-79.8819179204
 21
3.0791183566
 31
0.0
  0
LINE
  5
3FD
100
AcDbEntity
  8
CURVE
100
AcDbLine
 62
250
  6
CONTINUOUS
 10
-82.2950102635
 20
4.2970593112
 30
0.0
 11
-82.480696253
 21
4.4734878905
 31
0.0
  0
LINE
  5
3FE
100
AcDbEntity
  8
0
100
AcDbLine
 62
7
  6
CONTINUOUS
 10
-91.3798738069
 20
30.2708767138
 30
0.0
 11
-91.3798738069
 21
12.3232419086
 31
0.0
  0
LINE
  5
3FF
100
AcDbEntity
  8
0
100
AcDbLine
 62
7
  6
CONTINUOUS
 10
-91.3798738069
 20
-1.8255904196
 30
0.0
 11
-91.3798738069
 21
8.0708767138
 31
0.0
  0
LINE
  5
400
100
AcDbEntity
  8
RACCORDO
100
AcDbLine
 62
7
  6
CONTINUOUS
 10
-91.3798738069
 20
8.0708767138
 30
0.0
 11
-91.3798738069
 21
8.1470593112
 31
0.0
  0
LINE
  5
401
100
AcDbEntity
  8
ASSI
100
AcDbLine
 62
7
  6
CONTINUOUS
 10
-91.3798738069
 20
8.0708767138
 30
0.0
 11
-91.3798738069
 21
12.3232419086
 31
0.0
  0
LINE
  5
402
100
AcDbEntity
  8
DRAFT
100
AcDbLine
 62
7
  6
CONTINUOUS
 10
-91.3798738069
 20
8.1470593112
 30
0.0
 11
-91.3798738069
 21
12.3232419086
 31
0.0
  0
LINE
  5
403
100
AcDbEntity
  8
ASSI
100
AcDbLine
 62
7
  6
CONTINUOUS
 10
-91.3798738069
 20
30.2708767138
 30
0.0
 11
-91.3798738069
 21
34.5232419086
 31
0.0
  0
LINE
  5
404
100
AcDbEntity
  8
RACCORDO
100
AcDbLine
 62
7
  6
CONTINUOUS
 10
-91.3798738069
 20
34.4470593112
 30
0.0
 11
-91.3798738069
 21
34.5232419086
 31
0.0
  0
LINE
  5
405
100
AcDbEntity
  8
DRAFT
100
AcDbLine
 62
7
  6
CONTINUOUS
 10
-91.3798738069
 20
30.2708767138
 30
0.0
 11
-91.3798738069
 21
34.4470593112
 31
0.0
  0
LINE
  5
406
100
AcDbEntity
  8
0
100
AcDbLine
 62
7
  6
CONTINUOUS
 10
-91.3798738069
 20
34.5232419086
 30
0.0
 11
-91.3798738069
 21
44.419709042
 31
0.0
  0
LINE
  5
407
100
AcDbEntity
  8
0
100
AcDbLine
 62
250
  6
CONTINUOUS
 10
-91.1313282397
 20
-1.9699279869
 30
0.0
 11
-91.1313282397
 21
-1.0373547411
 31
0.0
  0
LINE
  5
408
100
AcDbEntity
  8
0
100
AcDbLine
 62
250
  6
CONTINUOUS
 10
-91.1313282397
 20
43.6314733635
 30
0.0
 11
-91.1313282397
 21
44.5640466093
 31
0.0
  0
LINE
  5
409
100
AcDbEntity
  8
0
100
AcDbLine
 62
7
  6
CONTINUOUS
 10
-90.5798738069
 20
8.0848407658
 30
0.0
 11
-90.5798738069
 21
8.1610233632
 31
0.0
  0
LINE
  5
40A
100
AcDbEntity
  8
0
100
AcDbLine
 62
7
  6
CONTINUOUS
 10
-90.5798738069
 20
12.2330952593
 30
0.0
 11
-90.5798738069
 21
12.3092778567
 31
0.0
  0
LINE
  5
40B
100
AcDbEntity
  8
0
100
AcDbLine
 62
7
  6
CONTINUOUS
 10
-90.5798738069
 20
30.2848407658
 30
0.0
 11
-90.5798738069
 21
30.3610233632
 31
0.0
  0
LINE
  5
40C
100
AcDbEntity
  8
0
100
AcDbLine
 62
7
  6
CONTINUOUS
 10
-90.5798738069
 20
34.4330952593
 30
0.0
 11
-90.5798738069
 21
34.5092778567
 31
0.0
  0
LINE
  5
40D
100
AcDbEntity
  8
0
100
AcDbLine
 62
7
  6
CONTINUOUS
 10
-89.8798738069
 20
43.1970762343
 30
0.0
 11
-89.8798738069
 21
34.4208767138
 31
0.0
  0
LINE
  5
40E
100
AcDbEntity
  8
0
100
AcDbLine
 62
7
  6
CONTINUOUS
 10
-89.8798738069
 20
30.3732419086
 30
0.0
 11
-89.8798738069
 21
12.2208767138
 31
0.0
  0
LINE
  5
40F
100
AcDbEntity
  8
0
100
AcDbLine
 62
7
  6
CONTINUOUS
 10
-89.8798738069
 20
8.1732419086
 30
0.0
 11
-89.8798738069
 21
-0.6029576118
 31
0.0
  0
LINE
  5
410
100
AcDbEntity
  8
0
100
AcDbLine
 62
7
  6
CONTINUOUS
 10
-89.8798738069
 20
-2.9529449196
 30
0.0
 11
-89.8798738069
 21
-1.1029406888
 31
0.0
  0
LINE
  5
411
100
AcDbEntity
  8
0
100
AcDbLine
 62
7
  6
CONTINUOUS
 10
-89.8798738069
 20
43.6970593112
 30
0.0
 11
-89.8798738069
 21
45.547063542
 31
0.0
  0
LINE
  5
412
100
AcDbEntity
  8
ASSI
100
AcDbLine
 62
250
  6
CONTINUOUS
 10
-89.3271169713
 20
34.4112283074
 30
0.0
 11
-89.3271169713
 21
30.3828903151
 31
0.0
  0
LINE
  5
413
100
AcDbEntity
  8
RACCORDO
100
AcDbLine
 62
250
  6
CONTINUOUS
 10
-89.3271169713
 20
34.4112283074
 30
0.0
 11
-89.3271169713
 21
30.3828903151
 31
0.0
  0
LINE
  5
414
100
AcDbEntity
  8
ASSI
100
AcDbLine
 62
250
  6
CONTINUOUS
 10
-89.3271169713
 20
12.2112283074
 30
0.0
 11
-89.3271169713
 21
8.1828903151
 31
0.0
  0
LINE
  5
415
100
AcDbEntity
  8
RACCORDO
100
AcDbLine
 62
250
  6
CONTINUOUS
 10
-89.3271169713
 20
12.2112283074
 30
0.0
 11
-89.3271169713
 21
8.1828903151
 31
0.0
  0
LINE
  5
416
100
AcDbEntity
  8
0
100
AcDbLine
 62
250
  6
CONTINUOUS
 10
-89.128419374
 20
45.542691708
 30
0.0
 11
-89.128419374
 21
45.1413968785
 31
0.0
  0
LINE
  5
417
100
AcDbEntity
  8
0
100
AcDbLine
 62
250
  6
CONTINUOUS
 10
-89.128419374
 20
-2.5472782561
 30
0.0
 11
-89.128419374
 21
-2.9485730856
 31
0.0
  0
LINE
  5
418
100
AcDbEntity
  8
CURVE
100
AcDbLine
 62
250
  6
CONTINUOUS
 10
-82.8092176547
 20
36.9399161952
 30
0.0
 11
-83.0806048701
 21
36.6684877532
 31
0.0
  0
LINE
  5
419
100
AcDbEntity
  8
CURVE
100
AcDbLine
 62
250
  6
CONTINUOUS
 10
-81.1808942493
 20
37.8899161952
 30
0.0
 11
-81.452281493
 21
37.6184877532
 31
0.0
  0
LINE
  5
41A
100
AcDbEntity
  8
CURVE
100
AcDbLine
 62
250
  6
CONTINUOUS
 10
-81.452281493
 20
37.6184877532
 30
0.0
 11
-81.7236687367
 21
37.4827739852
 31
0.0
  0
LINE
  5
41B
100
AcDbEntity
  8
RACCORDO
100
AcDbLine
 62
250
  6
CONTINUOUS
 10
-77.1506942001
 20
39.4970593112
 30
0.0
 11
-77.0845970223
 21
39.5301079001
 31
0.0
  0
LINE
  5
41C
100
AcDbEntity
  8
0
100
AcDbLine
 62
250
  6
CONTINUOUS
 10
-77.1506942001
 20
39.4970593112
 30
0.0
 11
-77.0845970223
 21
39.5301079001
 31
0.0
  0
LINE
  5
41D
100
AcDbEntity
  8
DRAFT
100
AcDbLine
 62
7
  6
CONTINUOUS
 10
-80.8798738069
 20
3.0308898436
 30
0.0
 11
-79.8798738069
 21
3.0396167114
 31
0.0
  0
LINE
  5
41E
100
AcDbEntity
  8
RACCORDO
100
AcDbLine
 62
7
  6
CONTINUOUS
 10
-77.5795477016
 20
3.0596913532
 30
0.0
 11
-79.8798738069
 21
3.0396167114
 31
0.0
  0
LINE
  5
41F
100
AcDbEntity
  8
0
100
AcDbLine
 62
7
  6
CONTINUOUS
 10
-77.5795477016
 20
3.0596913532
 30
0.0
 11
-80.8798738069
 21
3.0308898436
 31
0.0
  0
LINE
  5
420
100
AcDbEntity
  8
RACCORDO
100
AcDbLine
 62
250
  6
CONTINUOUS
 10
-87.8798738069
 20
3.6253602625
 30
0.0
 11
-80.8798738069
 21
3.6759711349
 31
0.0
  0
LINE
  5
421
100
AcDbEntity
  8
0
100
AcDbLine
 62
250
  6
CONTINUOUS
 10
-87.8798738069
 20
3.6253602625
 30
0.0
 11
-80.8798738069
 21
3.6759711349
 31
0.0
  0
LINE
  5
422
100
AcDbEntity
  8
RACCORDO
100
AcDbLine
 62
7
  6
CONTINUOUS
 10
-48.8798738069
 20
2.9970593112
 30
0.0
 11
-51.5798738069
 21
2.9970593112
 31
0.0
  0
LINE
  5
423
100
AcDbEntity
  8
ASSI
100
AcDbLine
 62
7
  6
CONTINUOUS
 10
-48.8798738069
 20
2.9970593112
 30
0.0
 11
-51.5798738069
 21
2.9970593112
 31
0.0
  0
LINE
  5
424
100
AcDbEntity
  8
ASSI
100
AcDbLine
 62
250
  6
CONTINUOUS
 10
-80.8798738069
 20
3.0870593112
 30
0.0
 11
-79.9215269284
 21
3.0870593112
 31
0.0
  0
LINE
  5
425
100
AcDbEntity
  8
ASSI
100
AcDbLine
 62
250
  6
CONTINUOUS
 10
-79.0174861148
 20
3.0870593112
 30
0.0
 11
-78.8798738069
 21
3.0870593112
 31
0.0
  0
LINE
  5
426
100
AcDbEntity
  8
ASSI
100
AcDbLine
 62
250
  6
CONTINUOUS
 10
-50.8749411891
 20
3.0870593112
 30
0.0
 11
-48.8798738069
 21
3.0870593112
 31
0.0
  0
LINE
  5
427
100
AcDbEntity
  8
ASSI
100
AcDbLine
 62
7
  6
CONTINUOUS
 10
-48.8798738069
 20
3.0970593112
 30
0.0
 11
-51.5798738069
 21
3.0970593112
 31
0.0
  0
LINE
  5
428
100
AcDbEntity
  8
ASSI
100
AcDbLine
 62
7
  6
CONTINUOUS
 10
-56.5798738069
 20
3.0970593112
 30
0.0
 11
-62.0798738069
 21
3.0970593112
 31
0.0
  0
LINE
  5
429
100
AcDbEntity
  8
ASSI
100
AcDbLine
 62
7
  6
CONTINUOUS
 10
-67.0798738069
 20
3.0970593112
 30
0.0
 11
-72.5798738069
 21
3.0970593112
 31
0.0
  0
LINE
  5
42A
100
AcDbEntity
  8
ASSI
100
AcDbLine
 62
7
  6
CONTINUOUS
 10
-77.5798738069
 20
3.0970593112
 30
0.0
 11
-80.8798738069
 21
3.0970593112
 31
0.0
  0
LINE
  5
42B
100
AcDbEntity
  8
0
100
AcDbLine
 62
7
  6
CONTINUOUS
 10
-56.5798738069
 20
3.1033216006
 30
0.0
 11
-57.1298738069
 21
3.1033216006
 31
0.0
  0
LINE
  5
42C
100
AcDbEntity
  8
0
100
AcDbLine
 62
7
  6
CONTINUOUS
 10
-67.0798738069
 20
3.1033216006
 30
0.0
 11
-67.6298738069
 21
3.1033216006
 31
0.0
  0
LINE
  5
42D
100
AcDbEntity
  8
0
100
AcDbLine
 62
7
  6
CONTINUOUS
 10
-77.5798738069
 20
3.1033216006
 30
0.0
 11
-78.1298738069
 21
3.1033216006
 31
0.0
  0
LINE
  5
42E
100
AcDbEntity
  8
0
100
AcDbLine
 62
250
  6
CONTINUOUS
 10
-48.8798738069
 20
3.3050134966
 30
0.0
 11
-51.5798738069
 21
3.3050134966
 31
0.0
  0
LINE
  5
42F
100
AcDbEntity
  8
0
100
AcDbLine
 62
250
  6
CONTINUOUS
 10
-57.1298738069
 20
3.3050134966
 30
0.0
 11
-62.0798738069
 21
3.3050134966
 31
0.0
  0
LINE
  5
430
100
AcDbEntity
  8
0
100
AcDbLine
 62
250
  6
CONTINUOUS
 10
-67.6298738069
 20
3.3050134966
 30
0.0
 11
-72.5798738069
 21
3.3050134966
 31
0.0
  0
LINE
  5
431
100
AcDbEntity
  8
0
100
AcDbLine
 62
250
  6
CONTINUOUS
 10
-78.1298738069
 20
3.3050134966
 30
0.0
 11
-80.8798738069
 21
3.3050134966
 31
0.0
  0
LINE
  5
432
100
AcDbEntity
  8
ASSI
100
AcDbLine
 62
7
  6
CONTINUOUS
 10
-56.5798738069
 20
3.7970593112
 30
0.0
 11
-57.1298738069
 21
3.7970593112
 31
0.0
  0
LINE
  5
433
100
AcDbEntity
  8
ASSI
100
AcDbLine
 62
7
  6
CONTINUOUS
 10
-67.0798738069
 20
3.7970593112
 30
0.0
 11
-67.6298738069
 21
3.7970593112
 31
0.0
  0
LINE
  5
434
100
AcDbEntity
  8
ASSI
100
AcDbLine
 62
7
  6
CONTINUOUS
 10
-77.5798738069
 20
3.7970593112
 30
0.0
 11
-78.1298738069
 21
3.7970593112
 31
0.0
  0
LINE
  5
435
100
AcDbEntity
  8
0
100
AcDbLine
 62
7
  6
CONTINUOUS
 10
-56.5798738069
 20
3.7971475125
 30
0.0
 11
-57.1298738069
 21
3.7971475125
 31
0.0
  0
LINE
  5
436
100
AcDbEntity
  8
0
100
AcDbLine
 62
7
  6
CONTINUOUS
 10
-67.0798738069
 20
3.7971475125
 30
0.0
 11
-67.6298738069
 21
3.7971475125
 31
0.0
  0
LINE
  5
437
100
AcDbEntity
  8
0
100
AcDbLine
 62
7
  6
CONTINUOUS
 10
-77.5798738069
 20
3.7971475125
 30
0.0
 11
-78.1298738069
 21
3.7971475125
 31
0.0
  0
LINE
  5
438
100
AcDbEntity
  8
0
100
AcDbLine
 62
7
  6
CONTINUOUS
 10
-78.0798738069
 20
3.8970593112
 30
0.0
 11
-77.5798738069
 21
3.8970593112
 31
0.0
  0
LINE
  5
439
100
AcDbEntity
  8
0
100
AcDbLine
 62
7
  6
CONTINUOUS
 10
-67.6298738069
 20
3.8970593112
 30
0.0
 11
-67.0798738069
 21
3.8970593112
 31
0.0
  0
LINE
  5
43A
100
AcDbEntity
  8
0
100
AcDbLine
 62
7
  6
CONTINUOUS
 10
-57.1298738069
 20
3.8970593112
 30
0.0
 11
-56.5798738069
 21
3.8970593112
 31
0.0
  0
LINE
  5
43B
100
AcDbEntity
  8
0
100
AcDbLine
 62
250
  6
CONTINUOUS
 10
-48.8798738069
 20
4.0891051259
 30
0.0
 11
-51.6298738069
 21
4.0891051259
 31
0.0
  0
LINE
  5
43C
100
AcDbEntity
  8
0
100
AcDbLine
 62
250
  6
CONTINUOUS
 10
-57.1298738069
 20
4.0891051259
 30
0.0
 11
-62.1298738069
 21
4.0891051259
 31
0.0
  0
LINE
  5
43D
100
AcDbEntity
  8
0
100
AcDbLine
 62
250
  6
CONTINUOUS
 10
-67.6298738069
 20
4.0891051259
 30
0.0
 11
-72.6298738069
 21
4.0891051259
 31
0.0
  0
LINE
  5
43E
100
AcDbEntity
  8
0
100
AcDbLine
 62
250
  6
CONTINUOUS
 10
-78.1298738069
 20
4.0891051259
 30
0.0
 11
-80.8798738069
 21
4.0891051259
 31
0.0
  0
LINE
  5
43F
100
AcDbEntity
  8
0
100
AcDbLine
 62
250
  6
CONTINUOUS
 10
-77.5798738069
 20
4.0970593112
 30
0.0
 11
-72.6298738069
 21
4.0970593112
 31
0.0
  0
LINE
  5
440
100
AcDbEntity
  8
0
100
AcDbLine
 62
250
  6
CONTINUOUS
 10
-67.0798738069
 20
4.0970593112
 30
0.0
 11
-62.1298738069
 21
4.0970593112
 31
0.0
  0
LINE
  5
441
100
AcDbEntity
  8
0
100
AcDbLine
 62
250
  6
CONTINUOUS
 10
-56.5798738069
 20
4.0970593112
 30
0.0
 11
-51.6298738069
 21
4.0970593112
 31
0.0
  0
LINE
  5
442
100
AcDbEntity
  8
0
100
AcDbLine
 62
7
  6
CONTINUOUS
 10
-78.1298738069
 20
4.2470593112
 30
0.0
 11
-77.5798738069
 21
4.2470593112
 31
0.0
  0
LINE
  5
443
100
AcDbEntity
  8
0
100
AcDbLine
 62
7
  6
CONTINUOUS
 10
-67.6298738069
 20
4.2470593112
 30
0.0
 11
-67.0798738069
 21
4.2470593112
 31
0.0
  0
LINE
  5
444
100
AcDbEntity
  8
0
100
AcDbLine
 62
7
  6
CONTINUOUS
 10
-57.1298738069
 20
4.2470593112
 30
0.0
 11
-56.5798738069
 21
4.2470593112
 31
0.0
  0
LINE
  5
445
100
AcDbEntity
  8
CURVE
100
AcDbLine
 62
250
  6
CONTINUOUS
 10
-82.1093242741
 20
4.2970593112
 30
0.0
 11
-82.2950102635
 21
4.2970593112
 31
0.0
  0
LINE
  5
446
100
AcDbEntity
  8
0
100
AcDbLine
 62
250
  6
CONTINUOUS
 10
-48.8798738069
 20
4.5911509405
 30
0.0
 11
-51.6298738069
 21
4.5911509405
 31
0.0
  0
LINE
  5
447
100
AcDbEntity
  8
0
100
AcDbLine
 62
250
  6
CONTINUOUS
 10
-57.1298738069
 20
4.5911509405
 30
0.0
 11
-62.1298738069
 21
4.5911509405
 31
0.0
  0
LINE
  5
448
100
AcDbEntity
  8
0
100
AcDbLine
 62
250
  6
CONTINUOUS
 10
-67.6298738069
 20
4.5911509405
 30
0.0
 11
-72.6298738069
 21
4.5911509405
 31
0.0
  0
LINE
  5
449
100
AcDbEntity
  8
0
100
AcDbLine
 62
250
  6
CONTINUOUS
 10
-78.1298738069
 20
4.5911509405
 30
0.0
 11
-80.8798738069
 21
4.5911509405
 31
0.0
  0
LINE
  5
44A
100
AcDbEntity
  8
CURVE
100
AcDbLine
 62
250
  6
CONTINUOUS
 10
-81.3665802581
 20
4.9145593112
 30
0.0
 11
-81.552266267
 21
4.9145593112
 31
0.0
  0
LINE
  5
44B
100
AcDbEntity
  8
RACCORDO
100
AcDbLine
 62
250
  6
CONTINUOUS
 10
-47.3798738069
 20
3.9987550644
 30
0.0
 11
-48.8798738069
 21
4.0041772449
 31
0.0
  0
LINE
  5
44C
100
AcDbEntity
  8
ASSI
100
AcDbLine
 62
250
  6
CONTINUOUS
 10
-47.3798738069
 20
3.9987550644
 30
0.0
 11
-48.8798738069
 21
4.0041772449
 31
0.0
  0
LINE
  5
44D
100
AcDbEntity
  8
RACCORDO
100
AcDbLine
 62
250
  6
CONTINUOUS
 10
-47.3798738069
 20
4.7058349211
 30
0.0
 11
-48.8798738069
 21
4.7112571016
 31
0.0
  0
LINE
  5
44E
100
AcDbEntity
  8
ASSI
100
AcDbLine
 62
250
  6
CONTINUOUS
 10
-47.3798738069
 20
4.7058349211
 30
0.0
 11
-48.8798738069
 21
4.7112571016
 31
0.0
  0
LINE
  5
44F
100
AcDbEntity
  8
RACCORDO
100
AcDbLine
 62
7
  6
CONTINUOUS
 10
-48.8798738069
 20
3.0970593112
 30
0.0
 11
-47.3798738069
 21
3.0839690095
 31
0.0
  0
LINE
  5
450
100
AcDbEntity
  8
ASSI
100
AcDbLine
 62
7
  6
CONTINUOUS
 10
-48.8798738069
 20
3.0970593112
 30
0.0
 11
-47.3798738069
 21
3.0839690095
 31
0.0
  0
LINE
  5
451
100
AcDbEntity
  8
RACCORDO
100
AcDbLine
 62
250
  6
CONTINUOUS
 10
-48.8798738069
 20
3.3899413776
 30
0.0
 11
-47.3798738069
 21
3.3768510759
 31
0.0
  0
LINE
  5
452
100
AcDbEntity
  8
ASSI
100
AcDbLine
 62
250
  6
CONTINUOUS
 10
-48.8798738069
 20
3.3899413776
 30
0.0
 11
-47.3798738069
 21
3.3768510759
 31
0.0
  0
LINE
  5
453
100
AcDbEntity
  8
CURVE
100
AcDbLine
 62
250
  6
CONTINUOUS
 10
-81.1808942493
 20
6.0613450676
 30
0.0
 11
-82.480696253
 21
6.4142021894
 31
0.0
  0
LINE
  5
454
100
AcDbEntity
  8
CURVE
100
AcDbLine
 62
7
  6
CONTINUOUS
 10
-84.3913321044
 20
5.5070383112
 30
0.0
 11
-86.3866451738
 21
6.0766493112
 31
0.0
  0
LINE
  5
455
100
AcDbEntity
  8
CURVE
100
AcDbLine
 62
7
  6
CONTINUOUS
 10
-86.3866451738
 20
6.6815073112
 30
0.0
 11
-83.4878753689
 21
5.7494423112
 31
0.0
  0
LINE
  5
456
100
AcDbEntity
  8
RACCORDO
100
AcDbLine
 62
7
  6
CONTINUOUS
 10
-77.8798738069
 20
3.7970593112
 30
0.0
 11
-78.1298738069
 21
3.9220593112
 31
0.0
  0
LINE
  5
457
100
AcDbEntity
  8
0
100
AcDbLine
 62
7
  6
CONTINUOUS
 10
-77.8798738069
 20
3.7970593112
 30
0.0
 11
-78.1298738069
 21
3.9220593112
 31
0.0
  0
LINE
  5
458
100
AcDbEntity
  8
CURVE
100
AcDbLine
 62
250
  6
CONTINUOUS
 10
-81.1808942493
 20
4.7381307503
 30
0.0
 11
-81.3665802581
 21
4.9145593112
 31
0.0
  0
LINE
  5
459
100
AcDbEntity
  8
0
100
AcDbLine
 62
7
  6
CONTINUOUS
 10
-88.8798738069
 20
45.542691708
 30
0.0
 11
-88.8798738069
 21
45.1413968785
 31
0.0
  0
LINE
  5
45A
100
AcDbEntity
  8
0
100
AcDbLine
 62
7
  6
CONTINUOUS
 10
-88.8798738069
 20
43.6912414814
 30
0.0
 11
-88.8798738069
 21
39.805786179
 31
0.0
  0
LINE
  5
45B
100
AcDbEntity
  8
0
100
AcDbLine
 62
7
  6
CONTINUOUS
 10
-88.8798738069
 20
2.7883324434
 30
0.0
 11
-88.8798738069
 21
-1.097122859
 31
0.0
  0
LINE
  5
45C
100
AcDbEntity
  8
0
100
AcDbLine
 62
7
  6
CONTINUOUS
 10
-88.8798738069
 20
-2.5472782561
 30
0.0
 11
-88.8798738069
 21
-2.9485730856
 31
0.0
  0
LINE
  5
45D
100
AcDbEntity
  8
ASSI
100
AcDbLine
 62
7
  6
CONTINUOUS
 10
-88.4334636453
 20
34.3956295306
 30
0.0
 11
-88.4334636453
 21
30.3984890919
 31
0.0
  0
LINE
  5
45E
100
AcDbEntity
  8
RACCORDO
100
AcDbLine
 62
7
  6
CONTINUOUS
 10
-88.4334636453
 20
34.3956295306
 30
0.0
 11
-88.4334636453
 21
30.3984890919
 31
0.0
  0
LINE
  5
45F
100
AcDbEntity
  8
ASSI
100
AcDbLine
 62
7
  6
CONTINUOUS
 10
-88.4334636453
 20
12.1956295306
 30
0.0
 11
-88.4334636453
 21
8.1984890919
 31
0.0
  0
LINE
  5
460
100
AcDbEntity
  8
RACCORDO
100
AcDbLine
 62
7
  6
CONTINUOUS
 10
-88.4334636453
 20
12.1956295306
 30
0.0
 11
-88.4334636453
 21
8.1984890919
 31
0.0
  0
LINE
  5
461
100
AcDbEntity
  8
RACCORDO
100
AcDbLine
 62
7
  6
CONTINUOUS
 10
-87.8798738069
 20
42.1470593112
 30
0.0
 11
-87.8798738069
 21
40.3827565307
 31
0.0
  0
LINE
  5
462
100
AcDbEntity
  8
RACCORDO
100
AcDbLine
 62
7
  6
CONTINUOUS
 10
-87.8798738069
 20
2.2113620917
 30
0.0
 11
-87.8798738069
 21
0.4470593112
 31
0.0
  0
LINE
  5
463
100
AcDbEntity
  8
0
100
AcDbLine
 62
7
  6
CONTINUOUS
 10
-87.8798738069
 20
42.8804898094
 30
0.0
 11
-87.8798738069
 21
-0.286371187
 31
0.0
  0
LINE
  5
464
100
AcDbEntity
  8
RACCORDO
100
AcDbLine
 62
7
  6
CONTINUOUS
 10
-87.8798738069
 20
3.3777698989
 30
0.0
 11
-87.8798738069
 21
39.2163487236
 31
0.0
  0
LINE
  5
465
100
AcDbEntity
  8
CURVE
100
AcDbLine
 62
250
  6
CONTINUOUS
 10
-81.995055952
 20
31.7827735322
 30
0.0
 11
-82.266443224
 21
31.5113450902
 31
0.0
  0
LINE
  5
466
100
AcDbEntity
  8
CURVE
100
AcDbLine
 62
250
  6
CONTINUOUS
 10
-82.8092176547
 20
31.7375356096
 30
0.0
 11
-83.0806048701
 21
31.5113450902
 31
0.0
  0
LINE
  5
467
100
AcDbEntity
  8
CURVE
100
AcDbLine
 62
7
  6
CONTINUOUS
 10
-85.1861419423
 20
31.4012793112
 30
0.0
 11
-83.4805176107
 21
32.6549433112
 31
0.0
  0
LINE
  5
468
100
AcDbEntity
  8
CURVE
100
AcDbLine
 62
7
  6
CONTINUOUS
 10
-83.4805176107
 20
32.0036403112
 30
0.0
 11
-84.8301354101
 21
31.0388783112
 31
0.0
  0
LINE
  5
469
100
AcDbEntity
  8
CURVE
100
AcDbLine
 62
250
  6
CONTINUOUS
 10
-81.4975126955
 20
34.2256308692
 30
0.0
 11
-81.4070502763
 21
34.2708687919
 31
0.0
  0
LINE
  5
46A
100
AcDbEntity
  8
CURVE
100
AcDbLine
 62
250
  6
CONTINUOUS
 10
-81.2713566615
 20
34.1351545709
 30
0.0
 11
-81.3618190737
 21
34.0899166482
 31
0.0
  0
LINE
  5
46B
100
AcDbEntity
  8
CURVE
100
AcDbLine
 62
250
  6
CONTINUOUS
 10
-82.480696253
 20
5.267416433
 30
0.0
 11
-81.1808942493
 21
5.267416433
 31
0.0
  0
LINE
  5
46C
100
AcDbEntity
  8
0
100
AcDbLine
 62
250
  6
CONTINUOUS
 10
-51.6298738069
 20
5.5243771651
 30
0.0
 11
-56.5798738069
 21
5.5243771651
 31
0.0
  0
LINE
  5
46D
100
AcDbEntity
  8
0
100
AcDbLine
 62
7
  6
CONTINUOUS
 10
-56.5798738069
 20
5.5470593112
 30
0.0
 11
-57.1298738069
 21
5.5470593112
 31
0.0
  0
LINE
  5
46E
100
AcDbEntity
  8
0
100
AcDbLine
 62
250
  6
CONTINUOUS
 10
-77.5798738069
 20
6.2245847033
 30
0.0
 11
-72.6298738069
 21
6.2245847033
 31
0.0
  0
LINE
  5
46F
100
AcDbEntity
  8
0
100
AcDbLine
 62
250
  6
CONTINUOUS
 10
-67.0798738069
 20
6.2245847033
 30
0.0
 11
-62.1298738069
 21
6.2245847033
 31
0.0
  0
LINE
  5
470
100
AcDbEntity
  8
0
100
AcDbLine
 62
7
  6
CONTINUOUS
 10
-51.6298738069
 20
6.6695224634
 30
0.0
 11
-56.5798738069
 21
6.6695224634
 31
0.0
  0
LINE
  5
471
100
AcDbEntity
  8
0
100
AcDbLine
 62
7
  6
CONTINUOUS
 10
-67.0798738069
 20
6.7470593112
 30
0.0
 11
-67.6298738069
 21
6.7470593112
 31
0.0
  0
LINE
  5
472
100
AcDbEntity
  8
0
100
AcDbLine
 62
7
  6
CONTINUOUS
 10
-77.5798738069
 20
6.7470593112
 30
0.0
 11
-78.1298738069
 21
6.7470593112
 31
0.0
  0
LINE
  5
473
100
AcDbEntity
  8
CURVE
100
AcDbLine
 62
7
  6
CONTINUOUS
 10
-86.3868191208
 20
6.9061243112
 30
0.0
 11
-83.4878753689
 21
6.9061243112
 31
0.0
  0
LINE
  5
474
100
AcDbEntity
  8
CURVE
100
AcDbLine
 62
7
  6
CONTINUOUS
 10
-83.4878753689
 20
7.8372323112
 30
0.0
 11
-86.3866451738
 21
8.0990543112
 31
0.0
  0
LINE
  5
475
100
AcDbEntity
  8
CURVE
100
AcDbLine
 62
250
  6
CONTINUOUS
 10
-81.1808942493
 20
7.4727735549
 30
0.0
 11
-82.480696253
 21
7.8256308239
 31
0.0
  0
LINE
  5
476
100
AcDbEntity
  8
CURVE
100
AcDbLine
 62
7
  6
CONTINUOUS
 10
-84.7772395264
 20
9.3027043112
 30
0.0
 11
-86.3866451738
 21
9.9079753112
 31
0.0
  0
LINE
  5
477
100
AcDbEntity
  8
CURVE
100
AcDbLine
 62
7
  6
CONTINUOUS
 10
-85.3728270632
 20
10.0615113112
 30
0.0
 11
-83.4878753689
 21
9.3418433112
 31
0.0
  0
LINE
  5
478
100
AcDbEntity
  8
CURVE
100
AcDbLine
 62
7
  6
CONTINUOUS
 10
-86.3868191208
 20
7.5113953112
 30
0.0
 11
-86.3868191208
 21
6.9061243112
 31
0.0
  0
LINE
  5
479
100
AcDbEntity
  8
CURVE
100
AcDbLine
 62
7
  6
CONTINUOUS
 10
-86.3866451738
 20
4.2967993112
 30
0.0
 11
-86.3866451738
 21
4.9543113112
 31
0.0
  0
LINE
  5
47A
100
AcDbEntity
  8
CURVE
100
AcDbLine
 62
7
  6
CONTINUOUS
 10
-86.3866451738
 20
6.0766493112
 30
0.0
 11
-86.3866451738
 21
6.6815073112
 31
0.0
  0
LINE
  5
47B
100
AcDbEntity
  8
CURVE
100
AcDbLine
 62
7
  6
CONTINUOUS
 10
-86.3866451738
 20
8.0990543112
 30
0.0
 11
-86.3866451738
 21
8.7038253112
 31
0.0
  0
LINE
  5
47C
100
AcDbEntity
  8
CURVE
100
AcDbLine
 62
7
  6
CONTINUOUS
 10
-86.3866451738
 20
9.9079753112
 30
0.0
 11
-86.3866451738
 21
10.5068323112
 31
0.0
  0
LINE
  5
47D
100
AcDbEntity
  8
CURVE
100
AcDbLine
 62
7
  6
CONTINUOUS
 10
-86.3866451738
 20
11.7825423112
 30
0.0
 11
-86.3866451738
 21
12.3680693112
 31
0.0
  0
LINE
  5
47E
100
AcDbEntity
  8
CURVE
100
AcDbLine
 62
7
  6
CONTINUOUS
 10
-86.3787285858
 20
26.3341533112
 30
0.0
 11
-86.3787285858
 21
28.3830723112
 31
0.0
  0
LINE
  5
47F
100
AcDbEntity
  8
CURVE
100
AcDbLine
 62
7
  6
CONTINUOUS
 10
-86.3787285858
 20
29.0173973112
 30
0.0
 11
-86.3787285858
 21
29.5351663112
 31
0.0
  0
LINE
  5
480
100
AcDbEntity
  8
CURVE
100
AcDbLine
 62
7
  6
CONTINUOUS
 10
-86.3787285858
 20
30.1508973112
 30
0.0
 11
-86.3787285858
 21
30.6686443112
 31
0.0
  0
LINE
  5
481
100
AcDbEntity
  8
CURVE
100
AcDbLine
 62
7
  6
CONTINUOUS
 10
-86.3787285858
 20
31.9538953112
 30
0.0
 11
-86.3787285858
 21
32.6481093112
 31
0.0
  0
LINE
  5
482
100
AcDbEntity
  8
CURVE
100
AcDbLine
 62
7
  6
CONTINUOUS
 10
-86.3787285858
 20
35.9572693112
 30
0.0
 11
-86.3787285858
 21
36.4631603112
 31
0.0
  0
LINE
  5
483
100
AcDbEntity
  8
CURVE
100
AcDbLine
 62
7
  6
CONTINUOUS
 10
-86.3787285858
 20
37.8000683112
 30
0.0
 11
-86.3787285858
 21
38.2984963112
 31
0.0
  0
LINE
  5
484
100
AcDbEntity
  8
CURVE
100
AcDbLine
 62
7
  6
CONTINUOUS
 10
-85.9187487322
 20
28.3830723112
 30
0.0
 11
-85.9187547303
 21
26.8518913112
 31
0.0
  0
LINE
  5
485
100
AcDbEntity
  8
CURVE
100
AcDbLine
 62
250
  6
CONTINUOUS
 10
-85.8801784165
 20
21.4142021894
 30
0.0
 11
-85.8801784165
 21
21.8552735549
 31
0.0
  0
LINE
  5
486
100
AcDbEntity
  8
CURVE
100
AcDbLine
 62
250
  6
CONTINUOUS
 10
-85.8801784165
 20
22.5315831488
 30
0.0
 11
-85.8801784165
 21
23.0608689051
 31
0.0
  0
LINE
  5
487
100
AcDbEntity
  8
CURVE
100
AcDbLine
 62
250
  6
CONTINUOUS
 10
-85.3231204482
 20
22.8844401234
 30
0.0
 11
-85.3231204482
 21
22.5315831488
 31
0.0
  0
LINE
  5
488
100
AcDbEntity
  8
CURVE
100
AcDbLine
 62
7
  6
CONTINUOUS
 10
-85.1981042976
 20
26.8518913112
 30
0.0
 11
-85.1980943006
 21
28.2791863112
 31
0.0
  0
LINE
  5
489
100
AcDbEntity
  8
CURVE
100
AcDbLine
 62
7
  6
CONTINUOUS
 10
-85.0970419904
 20
14.3641646355
 30
0.0
 11
-85.0970419904
 21
14.0182580394
 31
0.0
  0
LINE
  5
48A
100
AcDbEntity
  8
CURVE
100
AcDbLine
 62
250
  6
CONTINUOUS
 10
-84.9517484305
 20
20.4732497909
 30
0.0
 11
-84.9517484305
 21
20.943726027
 31
0.0
  0
LINE
  5
48B
100
AcDbEntity
  8
CURVE
100
AcDbLine
 62
7
  6
CONTINUOUS
 10
-84.73810445
 20
28.2791863112
 30
0.0
 11
-84.7380944531
 21
26.8518913112
 31
0.0
  0
LINE
  5
48C
100
AcDbEntity
  8
CURVE
100
AcDbLine
 62
7
  6
CONTINUOUS
 10
-84.6222934972
 20
14.038327928
 30
0.0
 11
-84.6222934972
 21
14.362859984
 31
0.0
  0
LINE
  5
48D
100
AcDbEntity
  8
CURVE
100
AcDbLine
 62
250
  6
CONTINUOUS
 10
-84.5803764128
 20
21.8552735549
 30
0.0
 11
-84.5803764128
 21
21.4142021894
 31
0.0
  0
LINE
  5
48E
100
AcDbEntity
  8
CURVE
100
AcDbLine
 62
250
  6
CONTINUOUS
 10
-84.5803764128
 20
22.5315831488
 30
0.0
 11
-84.5803764128
 21
23.0608689051
 31
0.0
  0
LINE
  5
48F
100
AcDbEntity
  8
CURVE
100
AcDbLine
 62
7
  6
CONTINUOUS
 10
-84.5143666183
 20
11.7625593112
 30
0.0
 11
-84.5143666183
 21
12.3420633112
 31
0.0
  0
LINE
  5
490
100
AcDbEntity
  8
CURVE
100
AcDbLine
 62
250
  6
CONTINUOUS
 10
-83.0806048701
 20
28.9327735322
 30
0.0
 11
-82.8092176547
 21
29.2042022007
 31
0.0
  0
LINE
  5
491
100
AcDbEntity
  8
CURVE
100
AcDbLine
 62
250
  6
CONTINUOUS
 10
-82.8092176547
 20
27.8470593112
 30
0.0
 11
-83.0806048701
 21
27.575630756
 31
0.0
  0
LINE
  5
492
100
AcDbEntity
  8
CURVE
100
AcDbLine
 62
250
  6
CONTINUOUS
 10
-82.8092176547
 20
29.2042022007
 30
0.0
 11
-82.5378304394
 21
29.3399164217
 31
0.0
  0
LINE
  5
493
100
AcDbEntity
  8
CURVE
100
AcDbLine
 62
7
  6
CONTINUOUS
 10
-86.3866451738
 20
4.9543113112
 30
0.0
 11
-84.3913321044
 21
5.5070383112
 31
0.0
  0
LINE
  5
494
100
AcDbEntity
  8
CURVE
100
AcDbLine
 62
250
  6
CONTINUOUS
 10
-82.480696253
 20
6.4142021894
 30
0.0
 11
-81.1808942493
 21
6.7670593112
 31
0.0
  0
LINE
  5
495
100
AcDbEntity
  8
0
100
AcDbLine
 62
7
  6
CONTINUOUS
 10
-89.8798738069
 20
8.0970593112
 30
0.0
 11
-91.3798738069
 21
8.0708767138
 31
0.0
  0
LINE
  5
496
100
AcDbEntity
  8
ASSI
100
AcDbLine
 62
7
  6
CONTINUOUS
 10
-88.4334636453
 20
8.1984890919
 30
0.0
 11
-91.3798738069
 21
8.1470593112
 31
0.0
  0
LINE
  5
497
100
AcDbEntity
  8
RACCORDO
100
AcDbLine
 62
7
  6
CONTINUOUS
 10
-88.4334636453
 20
8.1984890919
 30
0.0
 11
-91.3798738069
 21
8.1470593112
 31
0.0
  0
LINE
  5
498
100
AcDbEntity
  8
CURVE
100
AcDbLine
 62
7
  6
CONTINUOUS
 10
-83.4878753689
 20
7.5113953112
 30
0.0
 11
-86.3868191208
 21
7.5113953112
 31
0.0
  0
LINE
  5
499
100
AcDbEntity
  8
0
100
AcDbLine
 62
7
  6
CONTINUOUS
 10
-57.1298738069
 20
7.5970593112
 30
0.0
 11
-51.6298738069
 21
7.5970593112
 31
0.0
  0
LINE
  5
49A
100
AcDbEntity
  8
0
100
AcDbLine
 62
7
  6
CONTINUOUS
 10
-77.5798738069
 20
7.6245847033
 30
0.0
 11
-72.6298738069
 21
7.6245847033
 31
0.0
  0
LINE
  5
49B
100
AcDbEntity
  8
0
100
AcDbLine
 62
7
  6
CONTINUOUS
 10
-67.0798738069
 20
7.6245847033
 30
0.0
 11
-62.1298738069
 21
7.6245847033
 31
0.0
  0
LINE
  5
49C
100
AcDbEntity
  8
CURVE
100
AcDbLine
 62
250
  6
CONTINUOUS
 10
-81.1808942493
 20
8.1490831488
 30
0.0
 11
-82.480696253
 21
8.1490831488
 31
0.0
  0
LINE
  5
49D
100
AcDbEntity
  8
0
100
AcDbLine
 62
7
  6
CONTINUOUS
 10
-78.1298738069
 20
8.3970593112
 30
0.0
 11
-72.6298738069
 21
8.3970593112
 31
0.0
  0
LINE
  5
49E
100
AcDbEntity
  8
0
100
AcDbLine
 62
7
  6
CONTINUOUS
 10
-67.6298738069
 20
8.3970593112
 30
0.0
 11
-62.1298738069
 21
8.3970593112
 31
0.0
  0
LINE
  5
49F
100
AcDbEntity
  8
0
100
AcDbLine
 62
7
  6
CONTINUOUS
 10
-87.8798738069
 20
8.0621491814
 30
0.0
 11
-89.8798738069
 21
8.0970593112
 31
0.0
  0
LINE
  5
4A0
100
AcDbEntity
  8
CURVE
100
AcDbLine
 62
7
  6
CONTINUOUS
 10
-85.3807176591
 20
8.5468973112
 30
0.0
 11
-83.4878753689
 21
8.4162803112
 31
0.0
  0
LINE
  5
4A1
100
AcDbEntity
  8
CURVE
100
AcDbLine
 62
7
  6
CONTINUOUS
 10
-85.5901368534
 20
12.0639333112
 30
0.0
 11
-84.5143666183
 21
11.7625593112
 31
0.0
  0
LINE
  5
4A2
100
AcDbEntity
  8
CURVE
100
AcDbLine
 62
7
  6
CONTINUOUS
 10
-84.0665730517
 20
11.6387473112
 30
0.0
 11
-83.4878753689
 21
11.4717303112
 31
0.0
  0
LINE
  5
4A3
100
AcDbEntity
  8
CURVE
100
AcDbLine
 62
7
  6
CONTINUOUS
 10
-83.4878753689
 20
10.8730263112
 30
0.0
 11
-86.3866451738
 21
11.7825423112
 31
0.0
  0
LINE
  5
4A4
100
AcDbEntity
  8
CURVE
100
AcDbLine
 62
250
  6
CONTINUOUS
 10
-81.7379522564
 20
12.2657500118
 30
0.0
 11
-82.480696253
 21
12.6186069864
 31
0.0
  0
LINE
  5
4A5
100
AcDbEntity
  8
CURVE
100
AcDbLine
 62
250
  6
CONTINUOUS
 10
-81.3665802581
 20
10.6190831488
 30
0.0
 11
-81.1808942493
 21
10.4426546615
 31
0.0
  0
LINE
  5
4A6
100
AcDbEntity
  8
CURVE
100
AcDbLine
 62
7
  6
CONTINUOUS
 10
-84.0665730517
 20
12.4630263112
 30
0.0
 11
-84.0665730517
 21
11.6387473112
 31
0.0
  0
LINE
  5
4A7
100
AcDbEntity
  8
CURVE
100
AcDbLine
 62
7
  6
CONTINUOUS
 10
-83.9404814692
 20
26.8518913112
 30
0.0
 11
-83.9404974644
 21
28.3947253112
 31
0.0
  0
LINE
  5
4A8
100
AcDbEntity
  8
CURVE
100
AcDbLine
 62
7
  6
CONTINUOUS
 10
-83.4878753689
 20
13.2577553112
 30
0.0
 11
-83.4878753689
 21
12.6198243112
 31
0.0
  0
LINE
  5
4A9
100
AcDbEntity
  8
CURVE
100
AcDbLine
 62
7
  6
CONTINUOUS
 10
-83.4878753689
 20
11.4717303112
 30
0.0
 11
-83.4878753689
 21
10.8730263112
 31
0.0
  0
LINE
  5
4AA
100
AcDbEntity
  8
CURVE
100
AcDbLine
 62
7
  6
CONTINUOUS
 10
-83.4878753689
 20
10.7779823112
 30
0.0
 11
-83.4878753689
 21
10.1858663112
 31
0.0
  0
LINE
  5
4AB
100
AcDbEntity
  8
CURVE
100
AcDbLine
 62
7
  6
CONTINUOUS
 10
-83.4878753689
 20
9.3418433112
 30
0.0
 11
-83.4878753689
 21
9.2569543112
 31
0.0
  0
LINE
  5
4AC
100
AcDbEntity
  8
CURVE
100
AcDbLine
 62
7
  6
CONTINUOUS
 10
-83.4878753689
 20
8.4162803112
 30
0.0
 11
-83.4878753689
 21
7.8372323112
 31
0.0
  0
LINE
  5
4AD
100
AcDbEntity
  8
CURVE
100
AcDbLine
 62
7
  6
CONTINUOUS
 10
-83.4878753689
 20
5.7494423112
 30
0.0
 11
-83.4878753689
 21
5.2160463112
 31
0.0
  0
LINE
  5
4AE
100
AcDbEntity
  8
CURVE
100
AcDbLine
 62
7
  6
CONTINUOUS
 10
-83.4878753689
 20
6.9061243112
 30
0.0
 11
-83.4878753689
 21
7.5113953112
 31
0.0
  0
LINE
  5
4AF
100
AcDbEntity
  8
CURVE
100
AcDbLine
 62
7
  6
CONTINUOUS
 10
-83.4878750168
 20
13.4354919669
 30
0.0
 11
-83.4878750168
 21
14.038327928
 31
0.0
  0
LINE
  5
4B0
100
AcDbEntity
  8
CURVE
100
AcDbLine
 62
7
  6
CONTINUOUS
 10
-83.4878750168
 20
14.9652175729
 30
0.0
 11
-83.4878750168
 21
15.5474182964
 31
0.0
  0
LINE
  5
4B1
100
AcDbEntity
  8
CURVE
100
AcDbLine
 62
7
  6
CONTINUOUS
 10
-83.4805176107
 20
38.2984963112
 30
0.0
 11
-83.4805176107
 21
37.7811373112
 31
0.0
  0
LINE
  5
4B2
100
AcDbEntity
  8
CURVE
100
AcDbLine
 62
7
  6
CONTINUOUS
 10
-83.4805176107
 20
36.4556913112
 30
0.0
 11
-83.4805176107
 21
35.9572693112
 31
0.0
  0
LINE
  5
4B3
100
AcDbEntity
  8
CURVE
100
AcDbLine
 62
7
  6
CONTINUOUS
 10
-83.4805176107
 20
32.6549433112
 30
0.0
 11
-83.4805176107
 21
32.0036403112
 31
0.0
  0
LINE
  5
4B4
100
AcDbEntity
  8
CURVE
100
AcDbLine
 62
7
  6
CONTINUOUS
 10
-83.4805176107
 20
30.6686443112
 30
0.0
 11
-83.4805176107
 21
30.1508973112
 31
0.0
  0
LINE
  5
4B5
100
AcDbEntity
  8
CURVE
100
AcDbLine
 62
7
  6
CONTINUOUS
 10
-83.4805176107
 20
29.5351663112
 30
0.0
 11
-83.4805176107
 21
29.0173973112
 31
0.0
  0
LINE
  5
4B6
100
AcDbEntity
  8
CURVE
100
AcDbLine
 62
7
  6
CONTINUOUS
 10
-83.4805176107
 20
28.3947253112
 30
0.0
 11
-83.4805176107
 21
26.3341533112
 31
0.0
  0
LINE
  5
4B7
100
AcDbEntity
  8
CURVE
100
AcDbLine
 62
250
  6
CONTINUOUS
 10
-83.0806048701
 20
36.6684877532
 30
0.0
 11
-83.0806048701
 21
36.2613446372
 31
0.0
  0
LINE
  5
4B8
100
AcDbEntity
  8
CURVE
100
AcDbLine
 62
250
  6
CONTINUOUS
 10
-83.0806048701
 20
31.5113450902
 30
0.0
 11
-83.0806048701
 21
30.9684877532
 31
0.0
  0
LINE
  5
4B9
100
AcDbEntity
  8
CURVE
100
AcDbLine
 62
250
  6
CONTINUOUS
 10
-83.0806048701
 20
27.575630756
 30
0.0
 11
-83.0806048701
 21
27.1684878948
 31
0.0
  0
LINE
  5
4BA
100
AcDbEntity
  8
CURVE
100
AcDbLine
 62
250
  6
CONTINUOUS
 10
-83.0806048701
 20
28.7970593112
 30
0.0
 11
-83.0806048701
 21
28.9327735322
 31
0.0
  0
LINE
  5
4BB
100
AcDbEntity
  8
CURVE
100
AcDbLine
 62
250
  6
CONTINUOUS
 10
-83.0806048701
 20
32.3256308692
 30
0.0
 11
-83.0806048701
 21
33.2756308692
 31
0.0
  0
LINE
  5
4BC
100
AcDbEntity
  8
CURVE
100
AcDbLine
 62
250
  6
CONTINUOUS
 10
-83.0806048701
 20
37.8899161952
 30
0.0
 11
-83.0806048701
 21
38.0256308692
 31
0.0
  0
LINE
  5
4BD
100
AcDbEntity
  8
CURVE
100
AcDbLine
 62
250
  6
CONTINUOUS
 10
-82.480696253
 20
4.4734878905
 30
0.0
 11
-82.480696253
 21
4.8263450308
 31
0.0
  0
LINE
  5
4BE
100
AcDbEntity
  8
CURVE
100
AcDbLine
 62
250
  6
CONTINUOUS
 10
-82.480696253
 20
8.1490831488
 30
0.0
 11
-82.480696253
 21
8.6783689051
 31
0.0
  0
LINE
  5
4BF
100
AcDbEntity
  8
CURVE
100
AcDbLine
 62
250
  6
CONTINUOUS
 10
-82.480696253
 20
10.0015831488
 30
0.0
 11
-82.480696253
 21
10.4426546615
 31
0.0
  0
LINE
  5
4C0
100
AcDbEntity
  8
CURVE
100
AcDbLine
 62
250
  6
CONTINUOUS
 10
-82.480696253
 20
14.0300354737
 30
0.0
 11
-82.480696253
 21
14.5593209356
 31
0.0
  0
LINE
  5
4C1
100
AcDbEntity
  8
CURVE
100
AcDbLine
 62
250
  6
CONTINUOUS
 10
-82.480696253
 20
14.9121779102
 30
0.0
 11
-82.480696253
 21
15.3532500118
 31
0.0
  0
LINE
  5
4C2
100
AcDbEntity
  8
CURVE
100
AcDbLine
 62
250
  6
CONTINUOUS
 10
-82.480696253
 20
19.6851545381
 30
0.0
 11
-82.480696253
 21
20.4280117142
 31
0.0
  0
LINE
  5
4C3
100
AcDbEntity
  8
0
100
AcDbLine
 62
7
  6
CONTINUOUS
 10
-82.3798738069
 20
-2.1442591561
 30
0.0
 11
-82.3798738069
 21
-1.5616222215
 31
0.0
  0
LINE
  5
4C4
100
AcDbEntity
  8
0
100
AcDbLine
 62
7
  6
CONTINUOUS
 10
-82.3798738069
 20
44.1557408439
 30
0.0
 11
-82.3798738069
 21
44.7383777785
 31
0.0
  0
LINE
  5
4C5
100
AcDbEntity
  8
0
100
AcDbLine
 62
250
  6
CONTINUOUS
 10
-82.330280836
 20
-2.6568329618
 30
0.0
 11
-82.330280836
 21
-1.0590184417
 31
0.0
  0
LINE
  5
4C6
100
AcDbEntity
  8
0
100
AcDbLine
 62
250
  6
CONTINUOUS
 10
-82.330280836
 20
43.6531370642
 30
0.0
 11
-82.330280836
 21
45.2509515843
 31
0.0
  0
LINE
  5
4C7
100
AcDbEntity
  8
CURVE
100
AcDbLine
 62
250
  6
CONTINUOUS
 10
-82.266443224
 20
31.5113450902
 30
0.0
 11
-82.266443224
 21
31.2399166482
 31
0.0
  0
LINE
  5
4C8
100
AcDbEntity
  8
CURVE
100
AcDbLine
 62
250
  6
CONTINUOUS
 10
-81.1808942493
 20
28.7970593112
 30
0.0
 11
-81.452281493
 21
28.525630756
 31
0.0
  0
LINE
  5
4C9
100
AcDbEntity
  8
CURVE
100
AcDbLine
 62
250
  6
CONTINUOUS
 10
-85.8801784165
 20
21.8552735549
 30
0.0
 11
-85.6944924271
 21
22.0317020422
 31
0.0
  0
LINE
  5
4CA
100
AcDbEntity
  8
CURVE
100
AcDbLine
 62
250
  6
CONTINUOUS
 10
-81.452281493
 20
28.525630756
 30
0.0
 11
-81.7236687367
 21
28.3899164217
 31
0.0
  0
LINE
  5
4CB
100
AcDbEntity
  8
CURVE
100
AcDbLine
 62
250
  6
CONTINUOUS
 10
-82.480696253
 20
7.1199165803
 30
0.0
 11
-81.1808942493
 21
7.4727735549
 31
0.0
  0
LINE
  5
4CC
100
AcDbEntity
  8
CURVE
100
AcDbLine
 62
7
  6
CONTINUOUS
 10
-86.3866451738
 20
10.5068323112
 30
0.0
 11
-83.4878753689
 21
10.7779823112
 31
0.0
  0
LINE
  5
4CD
100
AcDbEntity
  8
CURVE
100
AcDbLine
 62
7
  6
CONTINUOUS
 10
-83.4878753689
 20
10.1858663112
 30
0.0
 11
-85.3728270632
 21
10.0615113112
 31
0.0
  0
LINE
  5
4CE
100
AcDbEntity
  8
CURVE
100
AcDbLine
 62
250
  6
CONTINUOUS
 10
-81.1808942493
 20
10.0015831488
 30
0.0
 11
-82.480696253
 21
10.0015831488
 31
0.0
  0
LINE
  5
4CF
100
AcDbEntity
  8
CURVE
100
AcDbLine
 62
250
  6
CONTINUOUS
 10
-82.2950102635
 20
10.6190831488
 30
0.0
 11
-81.3665802581
 21
10.6190831488
 31
0.0
  0
LINE
  5
4D0
100
AcDbEntity
  8
CURVE
100
AcDbLine
 62
250
  6
CONTINUOUS
 10
-81.1808942493
 20
11.3542023366
 30
0.0
 11
-82.480696253
 21
11.3542023366
 31
0.0
  0
LINE
  5
4D1
100
AcDbEntity
  8
CURVE
100
AcDbLine
 62
250
  6
CONTINUOUS
 10
-81.1808942493
 20
11.9128924483
 30
0.0
 11
-82.480696253
 21
11.9128924483
 31
0.0
  0
LINE
  5
4D2
100
AcDbEntity
  8
ASSI
100
AcDbLine
 62
7
  6
CONTINUOUS
 10
-88.4334636453
 20
12.1956295306
 30
0.0
 11
-91.3798738069
 21
12.2470593112
 31
0.0
  0
LINE
  5
4D3
100
AcDbEntity
  8
RACCORDO
100
AcDbLine
 62
7
  6
CONTINUOUS
 10
-88.4334636453
 20
12.1956295306
 30
0.0
 11
-91.3798738069
 21
12.2470593112
 31
0.0
  0
LINE
  5
4D4
100
AcDbEntity
  8
0
100
AcDbLine
 62
7
  6
CONTINUOUS
 10
-89.8798738069
 20
12.2970593112
 30
0.0
 11
-91.3798738069
 21
12.3232419086
 31
0.0
  0
LINE
  5
4D5
100
AcDbEntity
  8
CURVE
100
AcDbLine
 62
250
  6
CONTINUOUS
 10
-81.7379522564
 20
13.3243209356
 30
0.0
 11
-82.480696253
 21
13.6771784991
 31
0.0
  0
LINE
  5
4D6
100
AcDbEntity
  8
CURVE
100
AcDbLine
 62
250
  6
CONTINUOUS
 10
-81.9236382846
 20
15.5296779102
 30
0.0
 11
-81.7379522564
 21
15.3532500118
 31
0.0
  0
LINE
  5
4D7
100
AcDbEntity
  8
CURVE
100
AcDbLine
 62
250
  6
CONTINUOUS
 10
-81.9236382846
 20
14.3828930372
 30
0.0
 11
-81.9236382846
 21
14.0300354737
 31
0.0
  0
LINE
  5
4D8
100
AcDbEntity
  8
CURVE
100
AcDbLine
 62
250
  6
CONTINUOUS
 10
-81.9236382846
 20
8.5019401234
 30
0.0
 11
-81.9236382846
 21
8.1490831488
 31
0.0
  0
LINE
  5
4D9
100
AcDbEntity
  8
0
100
AcDbLine
 62
7
  6
CONTINUOUS
 10
-81.8798738069
 20
-2.1592985035
 30
0.0
 11
-81.8798738069
 21
-1.0564022207
 31
0.0
  0
LINE
  5
4DA
100
AcDbEntity
  8
0
100
AcDbLine
 62
7
  6
CONTINUOUS
 10
-81.8798738069
 20
43.6505208432
 30
0.0
 11
-81.8798738069
 21
44.7534171259
 31
0.0
  0
LINE
  5
4DB
100
AcDbEntity
  8
CURVE
100
AcDbLine
 62
250
  6
CONTINUOUS
 10
-81.7379522564
 20
15.3532500118
 30
0.0
 11
-81.7379522564
 21
14.9121779102
 31
0.0
  0
LINE
  5
4DC
100
AcDbEntity
  8
CURVE
100
AcDbLine
 62
250
  6
CONTINUOUS
 10
-81.552266267
 20
6.1789641082
 30
0.0
 11
-81.552266267
 21
6.6494402706
 31
0.0
  0
LINE
  5
4DD
100
AcDbEntity
  8
CURVE
100
AcDbLine
 62
250
  6
CONTINUOUS
 10
-81.552266267
 20
20.9232497799
 30
0.0
 11
-81.552266267
 21
21.4184878456
 31
0.0
  0
LINE
  5
4DE
100
AcDbEntity
  8
CURVE
100
AcDbLine
 62
250
  6
CONTINUOUS
 10
-81.4975126955
 20
34.1351545709
 30
0.0
 11
-81.4975126955
 21
34.2256308692
 31
0.0
  0
LINE
  5
4DF
100
AcDbEntity
  8
CURVE
100
AcDbLine
 62
250
  6
CONTINUOUS
 10
-81.2713566615
 20
34.2256308692
 30
0.0
 11
-81.2713566615
 21
34.1351545709
 31
0.0
  0
LINE
  5
4E0
100
AcDbEntity
  8
CURVE
100
AcDbLine
 62
250
  6
CONTINUOUS
 10
-81.1808942493
 20
38.0256308692
 30
0.0
 11
-81.1808942493
 21
37.8899161952
 31
0.0
  0
LINE
  5
4E1
100
AcDbEntity
  8
CURVE
100
AcDbLine
 62
250
  6
CONTINUOUS
 10
-81.1808942493
 20
36.9399161952
 30
0.0
 11
-81.1808942493
 21
35.9899161952
 31
0.0
  0
LINE
  5
4E2
100
AcDbEntity
  8
CURVE
100
AcDbLine
 62
250
  6
CONTINUOUS
 10
-81.1808942493
 20
28.9327735322
 30
0.0
 11
-81.1808942493
 21
28.7970593112
 31
0.0
  0
LINE
  5
4E3
100
AcDbEntity
  8
CURVE
100
AcDbLine
 62
250
  6
CONTINUOUS
 10
-81.1808942493
 20
27.8470593112
 30
0.0
 11
-81.1808942493
 21
26.8970593112
 31
0.0
  0
LINE
  5
4E4
100
AcDbEntity
  8
CURVE
100
AcDbLine
 62
250
  6
CONTINUOUS
 10
-81.1808942493
 20
10.4426546615
 30
0.0
 11
-81.1808942493
 21
10.0015831488
 31
0.0
  0
LINE
  5
4E5
100
AcDbEntity
  8
CURVE
100
AcDbLine
 62
250
  6
CONTINUOUS
 10
-81.1808942493
 20
4.3852736009
 30
0.0
 11
-81.1808942493
 21
4.7381307503
 31
0.0
  0
LINE
  5
4E6
100
AcDbEntity
  8
CURVE
100
AcDbLine
 62
250
  6
CONTINUOUS
 10
-81.1808942493
 20
5.267416433
 30
0.0
 11
-81.1808942493
 21
5.7084879457
 31
0.0
  0
LINE
  5
4E7
100
AcDbEntity
  8
CURVE
100
AcDbLine
 62
250
  6
CONTINUOUS
 10
-81.1808942493
 20
8.1490831488
 30
0.0
 11
-81.1808942493
 21
8.6783689051
 31
0.0
  0
LINE
  5
4E8
100
AcDbEntity
  8
CURVE
100
AcDbLine
 62
250
  6
CONTINUOUS
 10
-81.1808942493
 20
14.0300354737
 30
0.0
 11
-81.1808942493
 21
14.5593209356
 31
0.0
  0
LINE
  5
4E9
100
AcDbEntity
  8
CURVE
100
AcDbLine
 62
250
  6
CONTINUOUS
 10
-81.1808942493
 20
21.9137260663
 30
0.0
 11
-81.1808942493
 21
22.3780115592
 31
0.0
  0
LINE
  5
4EA
100
AcDbEntity
  8
CURVE
100
AcDbLine
 62
250
  6
CONTINUOUS
 10
-81.1808942493
 20
30.9684877532
 30
0.0
 11
-81.1808942493
 21
31.6470593112
 31
0.0
  0
LINE
  5
4EB
100
AcDbEntity
  8
RACCORDO
100
AcDbLine
 62
7
  6
CONTINUOUS
 10
-80.8798738069
 20
42.1470593112
 30
0.0
 11
-80.8798738069
 21
0.4470593112
 31
0.0
  0
LINE
  5
4EC
100
AcDbEntity
  8
0
100
AcDbLine
 62
7
  6
CONTINUOUS
 10
-80.8798738069
 20
42.1470593112
 30
0.0
 11
-80.8798738069
 21
0.4470593112
 31
0.0
  0
LINE
  5
4ED
100
AcDbEntity
  8
DRAFT
100
AcDbLine
 62
7
  6
CONTINUOUS
 10
-79.8798738069
 20
42.1470593112
 30
0.0
 11
-79.8798738069
 21
39.5545019111
 31
0.0
  0
LINE
  5
4EE
100
AcDbEntity
  8
0
100
AcDbLine
 62
7
  6
CONTINUOUS
 10
-79.8798738069
 20
42.1470593112
 30
0.0
 11
-79.8798738069
 21
39.5545019111
 31
0.0
  0
LINE
  5
4EF
100
AcDbEntity
  8
DRAFT
100
AcDbLine
 62
7
  6
CONTINUOUS
 10
-79.8798738069
 20
3.0396167114
 30
0.0
 11
-79.8798738069
 21
0.4470593112
 31
0.0
  0
LINE
  5
4F0
100
AcDbEntity
  8
0
100
AcDbLine
 62
7
  6
CONTINUOUS
 10
-79.8798738069
 20
3.0396167114
 30
0.0
 11
-79.8798738069
 21
0.4470593112
 31
0.0
  0
LINE
  5
4F1
100
AcDbEntity
  8
ASSI
100
AcDbLine
 62
250
  6
CONTINUOUS
 10
-98.2896156599
 20
11.7970593112
 30
0.0
 11
-97.7984321217
 21
11.8065593112
 31
0.0
  0
LINE
  5
4F2
100
AcDbEntity
  8
RACCORDO
100
AcDbLine
 62
250
  6
CONTINUOUS
 10
-98.2896156599
 20
11.7970593112
 30
0.0
 11
-97.7984321217
 21
11.8065593112
 31
0.0
  0
LINE
  5
4F3
100
AcDbEntity
  8
0
100
AcDbLine
 62
7
  6
CONTINUOUS
 10
-87.8798738069
 20
12.3319694411
 30
0.0
 11
-89.8798738069
 21
12.2970593112
 31
0.0
  0
LINE
  5
4F4
100
AcDbEntity
  8
CURVE
100
AcDbLine
 62
250
  6
CONTINUOUS
 10
-82.480696253
 20
12.6186069864
 30
0.0
 11
-81.1808942493
 21
12.6186069864
 31
0.0
  0
LINE
  5
4F5
100
AcDbEntity
  8
CURVE
100
AcDbLine
 62
250
  6
CONTINUOUS
 10
-81.1808942493
 20
12.971463961
 30
0.0
 11
-82.480696253
 21
12.971463961
 31
0.0
  0
LINE
  5
4F6
100
AcDbEntity
  8
CURVE
100
AcDbLine
 62
7
  6
CONTINUOUS
 10
-86.3527778398
 20
13.4354919669
 30
0.0
 11
-83.4878750168
 21
13.4354919669
 31
0.0
  0
LINE
  5
4F7
100
AcDbEntity
  8
CURVE
100
AcDbLine
 62
250
  6
CONTINUOUS
 10
-82.480696253
 20
13.6771784991
 30
0.0
 11
-81.1808942493
 21
13.6771784991
 31
0.0
  0
LINE
  5
4F8
100
AcDbEntity
  8
CURVE
100
AcDbLine
 62
7
  6
CONTINUOUS
 10
-85.0970419904
 20
14.0182580394
 30
0.0
 11
-85.8928108932
 21
14.0182580394
 31
0.0
  0
LINE
  5
4F9
100
AcDbEntity
  8
CURVE
100
AcDbLine
 62
250
  6
CONTINUOUS
 10
-81.1808942493
 20
14.0300354737
 30
0.0
 11
-82.480696253
 21
14.0300354737
 31
0.0
  0
LINE
  5
4FA
100
AcDbEntity
  8
CURVE
100
AcDbLine
 62
7
  6
CONTINUOUS
 10
-83.4878750168
 20
14.038327928
 30
0.0
 11
-84.6222934972
 21
14.038327928
 31
0.0
  0
LINE
  5
4FB
100
AcDbEntity
  8
CURVE
100
AcDbLine
 62
250
  6
CONTINUOUS
 10
-84.7660624217
 20
22.0317020422
 30
0.0
 11
-84.5803764128
 21
21.8552735549
 31
0.0
  0
LINE
  5
4FC
100
AcDbEntity
  8
RACCORDO
100
AcDbLine
 62
250
  6
CONTINUOUS
 10
-79.086980588
 20
2.2650557135
 30
0.0
 11
-79.0817448661
 21
1.965101405
 31
0.0
  0
LINE
  5
4FD
100
AcDbEntity
  8
0
100
AcDbLine
 62
250
  6
CONTINUOUS
 10
-79.086980588
 20
2.2650557135
 30
0.0
 11
-79.0817448661
 21
1.965101405
 31
0.0
  0
LINE
  5
4FE
100
AcDbEntity
  8
RACCORDO
100
AcDbLine
 62
250
  6
CONTINUOUS
 10
-79.086980588
 20
40.3290629089
 30
0.0
 11
-79.086980588
 21
39.5475824368
 31
0.0
  0
LINE
  5
4FF
100
AcDbEntity
  8
0
100
AcDbLine
 62
250
  6
CONTINUOUS
 10
-79.086980588
 20
40.3290629089
 30
0.0
 11
-79.086980588
 21
39.5475824368
 31
0.0
  0
LINE
  5
500
100
AcDbEntity
  8
RACCORDO
100
AcDbLine
 62
250
  6
CONTINUOUS
 10
-79.086980588
 20
3.0465361857
 30
0.0
 11
-79.086980588
 21
2.2650557135
 31
0.0
  0
LINE
  5
501
100
AcDbEntity
  8
0
100
AcDbLine
 62
250
  6
CONTINUOUS
 10
-79.086980588
 20
3.0465361857
 30
0.0
 11
-79.086980588
 21
2.2650557135
 31
0.0
  0
LINE
  5
502
100
AcDbEntity
  8
RACCORDO
100
AcDbLine
 62
7
  6
CONTINUOUS
 10
-78.8798738069
 20
39.5457750433
 30
0.0
 11
-78.8798738069
 21
39.4970593112
 31
0.0
  0
LINE
  5
503
100
AcDbEntity
  8
0
100
AcDbLine
 62
7
  6
CONTINUOUS
 10
-78.8798738069
 20
39.5457750433
 30
0.0
 11
-78.8798738069
 21
39.4970593112
 31
0.0
  0
LINE
  5
504
100
AcDbEntity
  8
RACCORDO
100
AcDbLine
 62
7
  6
CONTINUOUS
 10
-78.8798738069
 20
3.0970593112
 30
0.0
 11
-78.8798738069
 21
3.0483435792
 31
0.0
  0
LINE
  5
505
100
AcDbEntity
  8
0
100
AcDbLine
 62
7
  6
CONTINUOUS
 10
-78.8798738069
 20
3.0970593112
 30
0.0
 11
-78.8798738069
 21
3.0483435792
 31
0.0
  0
LINE
  5
506
100
AcDbEntity
  8
RACCORDO
100
AcDbLine
 62
250
  6
CONTINUOUS
 10
-78.7334271974
 20
40.32659439
 30
0.0
 11
-78.7334271974
 21
39.5444970231
 31
0.0
  0
LINE
  5
507
100
AcDbEntity
  8
0
100
AcDbLine
 62
250
  6
CONTINUOUS
 10
-78.7334271974
 20
40.32659439
 30
0.0
 11
-78.7334271974
 21
39.5444970231
 31
0.0
  0
LINE
  5
508
100
AcDbEntity
  8
RACCORDO
100
AcDbLine
 62
250
  6
CONTINUOUS
 10
-78.7334271974
 20
3.0496215994
 30
0.0
 11
-78.7334271974
 21
2.2675242325
 31
0.0
  0
LINE
  5
509
100
AcDbEntity
  8
0
100
AcDbLine
 62
250
  6
CONTINUOUS
 10
-78.7334271974
 20
3.0496215994
 30
0.0
 11
-78.7334271974
 21
2.2675242325
 31
0.0
  0
LINE
  5
50A
100
AcDbEntity
  8
0
100
AcDbLine
 62
250
  6
CONTINUOUS
 10
-78.3711476036
 20
42.7507947384
 30
0.0
 11
-78.3711476036
 21
42.2887675754
 31
0.0
  0
LINE
  5
50B
100
AcDbEntity
  8
0
100
AcDbLine
 62
250
  6
CONTINUOUS
 10
-78.3711476036
 20
0.305351047
 30
0.0
 11
-78.3711476036
 21
-0.1566761159
 31
0.0
  0
LINE
  5
50C
100
AcDbEntity
  8
0
100
AcDbLine
 62
7
  6
CONTINUOUS
 10
-78.1298738069
 20
3.1033216006
 30
0.0
 11
-78.1298738069
 21
8.3970593112
 31
0.0
  0
LINE
  5
50D
100
AcDbEntity
  8
0
100
AcDbLine
 62
7
  6
CONTINUOUS
 10
-77.8798738069
 20
42.6330462599
 30
0.0
 11
-77.8798738069
 21
42.2930548569
 31
0.0
  0
LINE
  5
50E
100
AcDbEntity
  8
DRAFT
100
AcDbLine
 62
7
  6
CONTINUOUS
 10
-77.8798738069
 20
42.2930548569
 30
0.0
 11
-77.8798738069
 21
41.1017817247
 31
0.0
  0
LINE
  5
50F
100
AcDbEntity
  8
DRAFT
100
AcDbLine
 62
7
  6
CONTINUOUS
 10
-77.8798738069
 20
1.4923368977
 30
0.0
 11
-77.8798738069
 21
0.3010637655
 31
0.0
  0
LINE
  5
510
100
AcDbEntity
  8
0
100
AcDbLine
 62
7
  6
CONTINUOUS
 10
-77.8798738069
 20
0.3010637655
 30
0.0
 11
-77.8798738069
 21
-0.0389276374
 31
0.0
  0
LINE
  5
511
100
AcDbEntity
  8
0
100
AcDbLine
 62
7
  6
CONTINUOUS
 10
-77.5798738069
 20
7.6245846837
 30
0.0
 11
-77.5798738069
 21
6.2245847033
 31
0.0
  0
LINE
  5
512
100
AcDbEntity
  8
ASSI
100
AcDbLine
 62
7
  6
CONTINUOUS
 10
-77.5798738069
 20
6.2245847033
 30
0.0
 11
-77.5798738069
 21
4.0970593112
 31
0.0
  0
LINE
  5
513
100
AcDbEntity
  8
0
100
AcDbLine
 62
7
  6
CONTINUOUS
 10
-77.5798738069
 20
4.0970593112
 30
0.0
 11
-77.5798738069
 21
2.6970593112
 31
0.0
  0
LINE
  5
514
100
AcDbEntity
  8
RACCORDO
100
AcDbLine
 62
250
  6
CONTINUOUS
 10
-79.0817448661
 20
40.6290172175
 30
0.0
 11
-79.0869805877
 21
40.3290629089
 31
0.0
  0
LINE
  5
515
100
AcDbEntity
  8
0
100
AcDbLine
 62
250
  6
CONTINUOUS
 10
-79.0817448661
 20
40.6290172175
 30
0.0
 11
-79.0869805877
 21
40.3290629089
 31
0.0
  0
LWPOLYLINE
  5
516
100
AcDbEntity
  8
0
100
AcDbPolyline
 62
7
  6
CONTINUOUS
 90
3
 70
0
 43
0.3500000006
 10
-67.3084452667
 20
54.8327726898
 10
-67.3798719177
 20
54.618488205
 10
-67.5227297516
 20
54.3327725372
  0
LINE
  5
517
100
AcDbEntity
  8
CURVE
100
AcDbLine
 62
250
  6
CONTINUOUS
 10
-82.480696253
 20
22.7494402635
 30
0.0
 11
-81.9236382846
 21
23.1208689677
 31
0.0
  0
LINE
  5
518
100
AcDbEntity
  8
CURVE
100
AcDbLine
 62
250
  6
CONTINUOUS
 10
-84.1804373348
 20
21.0851545381
 30
0.0
 11
-82.8806353311
 21
21.7351546156
 31
0.0
  0
LINE
  5
519
100
AcDbEntity
  8
CURVE
100
AcDbLine
 62
7
  6
CONTINUOUS
 10
-83.4878753689
 20
12.6198243112
 30
0.0
 11
-84.0665730517
 21
12.4630263112
 31
0.0
  0
LINE
  5
51A
100
AcDbEntity
  8
CURVE
100
AcDbLine
 62
7
  6
CONTINUOUS
 10
-84.5143666183
 20
12.3420633112
 30
0.0
 11
-85.5901368534
 21
12.0639333112
 31
0.0
  0
LINE
  5
51B
100
AcDbEntity
  8
CURVE
100
AcDbLine
 62
250
  6
CONTINUOUS
 10
-81.1808942493
 20
14.9121779102
 30
0.0
 11
-82.480696253
 21
14.9121779102
 31
0.0
  0
LINE
  5
51C
100
AcDbEntity
  8
CURVE
100
AcDbLine
 62
7
  6
CONTINUOUS
 10
-84.8409951725
 20
14.9916150212
 30
0.0
 11
-84.8581243764
 21
14.9916150212
 31
0.0
  0
LINE
  5
51D
100
AcDbEntity
  8
CURVE
100
AcDbLine
 62
250
  6
CONTINUOUS
 10
-82.2950102635
 20
15.5296779102
 30
0.0
 11
-81.9236382846
 21
15.5296779102
 31
0.0
  0
LINE
  5
51E
100
AcDbEntity
  8
ASSI
100
AcDbLine
 62
7
  6
CONTINUOUS
 10
-48.8798738069
 20
16.1970593112
 30
0.0
 11
-57.3798738069
 21
16.1970593112
 31
0.0
  0
LINE
  5
51F
100
AcDbEntity
  8
RACCORDO
100
AcDbLine
 62
7
  6
CONTINUOUS
 10
-48.8798738069
 20
16.2970593112
 30
0.0
 11
-57.2798738069
 21
16.2970593112
 31
0.0
  0
LINE
  5
520
100
AcDbEntity
  8
ASSI
100
AcDbLine
 62
7
  6
CONTINUOUS
 10
-48.8798738069
 20
16.2970593112
 30
0.0
 11
-57.2798738069
 21
16.2970593112
 31
0.0
  0
LINE
  5
521
100
AcDbEntity
  8
CURVE
100
AcDbLine
 62
250
  6
CONTINUOUS
 10
-85.13743442
 20
19.6499164699
 30
0.0
 11
-85.8801784165
 21
20.0027736285
 31
0.0
  0
LINE
  5
522
100
AcDbEntity
  8
RACCORDO
100
AcDbLine
 62
250
  6
CONTINUOUS
 10
-77.0263204163
 20
2.2973218922
 30
0.0
 11
-77.0263204163
 21
2.6970593112
 31
0.0
  0
LINE
  5
523
100
AcDbEntity
  8
0
100
AcDbLine
 62
250
  6
CONTINUOUS
 10
-77.0263204163
 20
2.2973218922
 30
0.0
 11
-77.0263204163
 21
2.6970593112
 31
0.0
  0
LINE
  5
524
100
AcDbEntity
  8
RACCORDO
100
AcDbLine
 62
250
  6
CONTINUOUS
 10
-77.0263204163
 20
39.5295993279
 30
0.0
 11
-77.0263204163
 21
40.2967967303
 31
0.0
  0
LINE
  5
525
100
AcDbEntity
  8
0
100
AcDbLine
 62
250
  6
CONTINUOUS
 10
-77.0263204163
 20
39.5295993279
 30
0.0
 11
-77.0263204163
 21
40.2967967303
 31
0.0
  0
LINE
  5
526
100
AcDbEntity
  8
RACCORDO
100
AcDbLine
 62
7
  6
CONTINUOUS
 10
-76.8798738069
 20
2.2983443862
 30
0.0
 11
-76.8798738069
 21
2.6970593112
 31
0.0
  0
LINE
  5
527
100
AcDbEntity
  8
0
100
AcDbLine
 62
7
  6
CONTINUOUS
 10
-76.8798738069
 20
2.2983443862
 30
0.0
 11
-76.8798738069
 21
2.6970593112
 31
0.0
  0
LINE
  5
528
100
AcDbEntity
  8
RACCORDO
100
AcDbLine
 62
7
  6
CONTINUOUS
 10
-76.8798738069
 20
39.4970593112
 30
0.0
 11
-76.8798738069
 21
40.2957742362
 31
0.0
  0
LINE
  5
529
100
AcDbEntity
  8
0
100
AcDbLine
 62
7
  6
CONTINUOUS
 10
-76.8798738069
 20
39.4970593112
 30
0.0
 11
-76.8798738069
 21
40.2957742362
 31
0.0
  0
LINE
  5
52A
100
AcDbEntity
  8
0
100
AcDbLine
 62
250
  6
CONTINUOUS
 10
-79.9260988881
 20
3.0970593112
 30
0.0
 11
-79.9275538727
 21
3.0880687895
 31
0.0
  0
LINE
  5
52B
100
AcDbEntity
  8
0
100
AcDbLine
 62
250
  6
CONTINUOUS
 10
-79.8777759247
 20
3.0970593112
 30
0.0
 11
-79.8819179204
 21
3.0791183566
 31
0.0
  0
LINE
  5
52C
100
AcDbEntity
  8
CURVE
100
AcDbLine
 62
250
  6
CONTINUOUS
 10
-82.480696253
 20
15.3532500118
 30
0.0
 11
-82.2950102635
 21
15.5296779102
 31
0.0
  0
LINE
  5
52D
100
AcDbEntity
  8
CURVE
100
AcDbLine
 62
250
  6
CONTINUOUS
 10
-85.8801784165
 20
19.2970593112
 30
0.0
 11
-85.13743442
 21
19.6499164699
 31
0.0
  0
LINE
  5
52E
100
AcDbEntity
  8
CURVE
100
AcDbLine
 62
250
  6
CONTINUOUS
 10
-82.480696253
 20
21.1708688128
 30
0.0
 11
-81.1808942493
 21
21.542297362
 31
0.0
  0
LINE
  5
52F
100
AcDbEntity
  8
0
100
AcDbLine
 62
7
  6
CONTINUOUS
 10
-57.8798738069
 20
17.7970593112
 30
0.0
 11
-57.7798738069
 21
17.7970593112
 31
0.0
  0
LINE
  5
530
100
AcDbEntity
  8
RACCORDO
100
AcDbLine
 62
250
  6
CONTINUOUS
 10
-47.3798738069
 20
17.8470593112
 30
0.0
 11
-53.6324917675
 21
17.8470593112
 31
0.0
  0
LINE
  5
531
100
AcDbEntity
  8
ASSI
100
AcDbLine
 62
250
  6
CONTINUOUS
 10
-47.3798738069
 20
17.8470593112
 30
0.0
 11
-53.6324917675
 21
17.8470593112
 31
0.0
  0
LINE
  5
532
100
AcDbEntity
  8
RACCORDO
100
AcDbLine
 62
7
  6
CONTINUOUS
 10
-47.3798738069
 20
18.1470593112
 30
0.0
 11
-53.6298738041
 21
18.1470593112
 31
0.0
  0
LINE
  5
533
100
AcDbEntity
  8
ASSI
100
AcDbLine
 62
7
  6
CONTINUOUS
 10
-47.3798738069
 20
18.1470593112
 30
0.0
 11
-53.6298738041
 21
18.1470593112
 31
0.0
  0
LINE
  5
534
100
AcDbEntity
  8
CURVE
100
AcDbLine
 62
250
  6
CONTINUOUS
 10
-81.1808942493
 20
19.0970593157
 30
0.0
 11
-82.480696253
 21
19.0970593157
 31
0.0
  0
LINE
  5
535
100
AcDbEntity
  8
CURVE
100
AcDbLine
 62
250
  6
CONTINUOUS
 10
-84.5803764128
 20
20.3556307503
 30
0.0
 11
-85.8801784165
 21
20.7084879457
 31
0.0
  0
LINE
  5
536
100
AcDbEntity
  8
CURVE
100
AcDbLine
 62
250
  6
CONTINUOUS
 10
-81.1808942493
 20
20.7994402635
 30
0.0
 11
-82.480696253
 21
21.1708688128
 31
0.0
  0
LINE
  5
537
100
AcDbEntity
  8
CURVE
100
AcDbLine
 62
250
  6
CONTINUOUS
 10
-81.9236382846
 20
23.1208689677
 30
0.0
 11
-82.480696253
 21
23.492297362
 31
0.0
  0
LINE
  5
538
100
AcDbEntity
  8
CURVE
100
AcDbLine
 62
7
  6
CONTINUOUS
 10
-85.1151035862
 20
30.6686343112
 30
0.0
 11
-86.3787285858
 21
31.9538953112
 31
0.0
  0
LINE
  5
539
100
AcDbEntity
  8
CURVE
100
AcDbLine
 62
7
  6
CONTINUOUS
 10
-84.8301354101
 20
31.0388783112
 30
0.0
 11
-84.4849445826
 21
30.6686343112
 31
0.0
  0
LINE
  5
53A
100
AcDbEntity
  8
CURVE
100
AcDbLine
 62
250
  6
CONTINUOUS
 10
-82.266443224
 20
31.5113450902
 30
0.0
 11
-82.4021367751
 21
31.7375356096
 31
0.0
  0
LINE
  5
53B
100
AcDbEntity
  8
0
100
AcDbLine
 62
250
  6
CONTINUOUS
 10
-79.8777759247
 20
39.4970593112
 30
0.0
 11
-79.8819179204
 21
39.5150002659
 31
0.0
  0
LINE
  5
53C
100
AcDbEntity
  8
0
100
AcDbLine
 62
250
  6
CONTINUOUS
 10
-79.9260988881
 20
39.4970593112
 30
0.0
 11
-79.9275538727
 21
39.506049833
 31
0.0
  0
LINE
  5
53D
100
AcDbEntity
  8
0
100
AcDbLine
 62
7
  6
CONTINUOUS
 10
-72.6298738069
 20
3.7970593112
 30
0.0
 11
-72.6298738069
 21
8.3970593112
 31
0.0
  0
LINE
  5
53E
100
AcDbEntity
  8
0
100
AcDbLine
 62
7
  6
CONTINUOUS
 10
-72.5798738069
 20
4.0970593112
 30
0.0
 11
-72.5798738069
 21
2.6970593112
 31
0.0
  0
LINE
  5
53F
100
AcDbEntity
  8
0
100
AcDbLine
 62
7
  6
CONTINUOUS
 10
-79.0151774328
 20
3.0970593112
 30
0.0
 11
-79.0267202055
 21
3.0470620701
 31
0.0
  0
LINE
  5
540
100
AcDbEntity
  8
CURVE
100
AcDbLine
 62
250
  6
CONTINUOUS
 10
-84.5803764128
 20
19.2970593112
 30
0.0
 11
-85.8801784165
 21
19.2970593112
 31
0.0
  0
LINE
  5
541
100
AcDbEntity
  8
CURVE
100
AcDbLine
 62
250
  6
CONTINUOUS
 10
-85.8801784165
 20
20.0027736285
 30
0.0
 11
-84.5803764128
 21
20.0027736285
 31
0.0
  0
LINE
  5
542
100
AcDbEntity
  8
CURVE
100
AcDbLine
 62
250
  6
CONTINUOUS
 10
-81.1808942493
 20
20.0565830874
 30
0.0
 11
-82.480696253
 21
20.0565830874
 31
0.0
  0
LINE
  5
543
100
AcDbEntity
  8
CURVE
100
AcDbLine
 62
250
  6
CONTINUOUS
 10
-82.8806353311
 20
20.4970593157
 30
0.0
 11
-84.1804373348
 21
20.4970593157
 31
0.0
  0
LINE
  5
544
100
AcDbEntity
  8
CURVE
100
AcDbLine
 62
250
  6
CONTINUOUS
 10
-82.8806353311
 20
21.0851545381
 30
0.0
 11
-84.1804373348
 21
21.0851545381
 31
0.0
  0
LINE
  5
545
100
AcDbEntity
  8
CURVE
100
AcDbLine
 62
250
  6
CONTINUOUS
 10
-84.5803764128
 20
21.4142021894
 30
0.0
 11
-85.8801784165
 21
21.4142021894
 31
0.0
  0
LINE
  5
546
100
AcDbEntity
  8
CURVE
100
AcDbLine
 62
250
  6
CONTINUOUS
 10
-83.0806048701
 20
27.1684878948
 30
0.0
 11
-82.6735239904
 21
26.8970593112
 31
0.0
  0
LINE
  5
547
100
AcDbEntity
  8
CURVE
100
AcDbLine
 62
250
  6
CONTINUOUS
 10
-81.1808942493
 20
26.8970593112
 30
0.0
 11
-82.5378304394
 21
27.8470593112
 31
0.0
  0
LINE
  5
548
100
AcDbEntity
  8
CURVE
100
AcDbLine
 62
250
  6
CONTINUOUS
 10
-82.8092176547
 20
28.525630756
 30
0.0
 11
-83.0806048701
 21
28.7970593112
 31
0.0
  0
LINE
  5
549
100
AcDbEntity
  8
CURVE
100
AcDbLine
 62
250
  6
CONTINUOUS
 10
-82.5378304394
 20
29.8827735322
 30
0.0
 11
-83.0806048701
 21
30.4256306427
 31
0.0
  0
LINE
  5
54A
100
AcDbEntity
  8
CURVE
100
AcDbLine
 62
250
  6
CONTINUOUS
 10
-81.452281493
 20
29.2042022007
 30
0.0
 11
-81.1808942493
 21
28.9327735322
 31
0.0
  0
LINE
  5
54B
100
AcDbEntity
  8
CURVE
100
AcDbLine
 62
7
  6
CONTINUOUS
 10
-86.3787285858
 20
32.6481093112
 30
0.0
 11
-85.1861419423
 21
31.4012793112
 31
0.0
  0
LINE
  5
54C
100
AcDbEntity
  8
0
100
AcDbLine
 62
7
  6
CONTINUOUS
 10
-79.0151774328
 20
39.4970593112
 30
0.0
 11
-79.0267202055
 21
39.5470565524
 31
0.0
  0
LWPOLYLINE
  5
54D
100
AcDbEntity
  8
0
100
AcDbPolyline
 62
7
  6
CONTINUOUS
 90
2
 70
0
 43
0.3500000006
 10
-71.0941574707
 20
54.547061554
 10
-71.0941574707
 20
56.0470620117
  0
LINE
  5
54E
100
AcDbEntity
  8
CURVE
100
AcDbLine
 62
250
  6
CONTINUOUS
 10
-82.480696253
 20
10.4426546615
 30
0.0
 11
-82.2950102635
 21
10.6190831488
 31
0.0
  0
LINE
  5
54F
100
AcDbEntity
  8
CURVE
100
AcDbLine
 62
250
  6
CONTINUOUS
 10
-81.7379522564
 20
15.1768209356
 30
0.0
 11
-81.1808942493
 21
15.5296779102
 31
0.0
  0
LINE
  5
550
100
AcDbEntity
  8
CURVE
100
AcDbLine
 62
250
  6
CONTINUOUS
 10
-82.8806353311
 20
21.7351546156
 30
0.0
 11
-84.1804373348
 21
21.7351546156
 31
0.0
  0
LINE
  5
551
100
AcDbEntity
  8
CURVE
100
AcDbLine
 62
250
  6
CONTINUOUS
 10
-82.480696253
 20
21.9137260663
 30
0.0
 11
-81.1808942493
 21
21.9137260663
 31
0.0
  0
LINE
  5
552
100
AcDbEntity
  8
CURVE
100
AcDbLine
 62
250
  6
CONTINUOUS
 10
-85.6944924271
 20
22.0317020422
 30
0.0
 11
-84.7660624217
 21
22.0317020422
 31
0.0
  0
LINE
  5
553
100
AcDbEntity
  8
RACCORDO
100
AcDbLine
 62
7
  6
CONTINUOUS
 10
-53.6298738069
 20
22.4470593112
 30
0.0
 11
-47.3798738069
 21
22.4470593112
 31
0.0
  0
LINE
  5
554
100
AcDbEntity
  8
ASSI
100
AcDbLine
 62
7
  6
CONTINUOUS
 10
-53.6298738069
 20
22.4470593112
 30
0.0
 11
-47.3798738069
 21
22.4470593112
 31
0.0
  0
LINE
  5
555
100
AcDbEntity
  8
CURVE
100
AcDbLine
 62
250
  6
CONTINUOUS
 10
-84.5803764128
 20
22.5315831488
 30
0.0
 11
-85.8801784165
 21
22.5315831488
 31
0.0
  0
LINE
  5
556
100
AcDbEntity
  8
RACCORDO
100
AcDbLine
 62
250
  6
CONTINUOUS
 10
-53.6324917675
 20
22.7470593112
 30
0.0
 11
-47.3798738069
 21
22.7470593112
 31
0.0
  0
LINE
  5
557
100
AcDbEntity
  8
ASSI
100
AcDbLine
 62
250
  6
CONTINUOUS
 10
-53.6324917675
 20
22.7470593112
 30
0.0
 11
-47.3798738069
 21
22.7470593112
 31
0.0
  0
LINE
  5
558
100
AcDbEntity
  8
RACCORDO
100
AcDbLine
 62
250
  6
CONTINUOUS
 10
-47.3798738069
 20
22.8470593112
 30
0.0
 11
-53.6324917675
 21
22.8470593112
 31
0.0
  0
LINE
  5
559
100
AcDbEntity
  8
ASSI
100
AcDbLine
 62
250
  6
CONTINUOUS
 10
-47.3798738069
 20
22.8470593112
 30
0.0
 11
-53.6324917675
 21
22.8470593112
 31
0.0
  0
LINE
  5
55A
100
AcDbEntity
  8
CURVE
100
AcDbLine
 62
250
  6
CONTINUOUS
 10
-81.9236382846
 20
23.1208689677
 30
0.0
 11
-81.1808942493
 21
23.1208689677
 31
0.0
  0
LINE
  5
55B
100
AcDbEntity
  8
RACCORDO
100
AcDbLine
 62
7
  6
CONTINUOUS
 10
-47.3798738069
 20
23.1470593112
 30
0.0
 11
-53.6298738041
 21
23.1470593112
 31
0.0
  0
LINE
  5
55C
100
AcDbEntity
  8
ASSI
100
AcDbLine
 62
7
  6
CONTINUOUS
 10
-47.3798738069
 20
23.1470593112
 30
0.0
 11
-53.6298738041
 21
23.1470593112
 31
0.0
  0
LINE
  5
55D
100
AcDbEntity
  8
CURVE
100
AcDbLine
 62
250
  6
CONTINUOUS
 10
-82.5378304394
 20
28.3899164217
 30
0.0
 11
-82.8092176547
 21
28.525630756
 31
0.0
  0
LINE
  5
55E
100
AcDbEntity
  8
CURVE
100
AcDbLine
 62
250
  6
CONTINUOUS
 10
-81.1808942493
 20
31.6470593112
 30
0.0
 11
-81.3165878711
 21
31.7827735322
 31
0.0
  0
LINE
  5
55F
100
AcDbEntity
  8
CURVE
100
AcDbLine
 62
250
  6
CONTINUOUS
 10
-81.552266267
 20
4.9145593112
 30
0.0
 11
-82.1093242741
 21
4.2970593112
 31
0.0
  0
LINE
  5
560
100
AcDbEntity
  8
CURVE
100
AcDbLine
 62
250
  6
CONTINUOUS
 10
-82.480696253
 20
12.971463961
 30
0.0
 11
-81.7379522564
 21
13.3243209356
 31
0.0
  0
LINE
  5
561
100
AcDbEntity
  8
CURVE
100
AcDbLine
 62
250
  6
CONTINUOUS
 10
-82.480696253
 20
11.9128924483
 30
0.0
 11
-81.7379522564
 21
12.2657500118
 31
0.0
  0
LINE
  5
562
100
AcDbEntity
  8
CURVE
100
AcDbLine
 62
7
  6
CONTINUOUS
 10
-86.3866451738
 20
12.3680693112
 30
0.0
 11
-83.4878753689
 21
13.2577553112
 31
0.0
  0
LINE
  5
563
100
AcDbEntity
  8
CURVE
100
AcDbLine
 62
250
  6
CONTINUOUS
 10
-85.8801784165
 20
20.7084879457
 30
0.0
 11
-84.5803764128
 21
21.0613450676
 31
0.0
  0
LINE
  5
564
100
AcDbEntity
  8
CURVE
100
AcDbLine
 62
250
  6
CONTINUOUS
 10
-81.7236687367
 20
29.3399164217
 30
0.0
 11
-81.452281493
 21
29.2042022007
 31
0.0
  0
LINE
  5
565
100
AcDbEntity
  8
CURVE
100
AcDbLine
 62
250
  6
CONTINUOUS
 10
-82.5378304394
 20
34.9042024272
 30
0.0
 11
-83.0806048701
 21
35.4470593112
 31
0.0
  0
LINE
  5
566
100
AcDbEntity
  8
CURVE
100
AcDbLine
 62
250
  6
CONTINUOUS
 10
-82.8092176547
 20
37.6184877532
 30
0.0
 11
-83.0806048701
 21
37.8899161952
 31
0.0
  0
LINE
  5
567
100
AcDbEntity
  8
0
100
AcDbLine
 62
7
  6
CONTINUOUS
 10
-67.6298738069
 20
3.1033216006
 30
0.0
 11
-67.6298738069
 21
8.3970593112
 31
0.0
  0
LINE
  5
568
100
AcDbEntity
  8
0
100
AcDbLine
 62
7
  6
CONTINUOUS
 10
-67.0798738069
 20
7.6245846837
 30
0.0
 11
-67.0798738069
 21
6.2245847033
 31
0.0
  0
LINE
  5
569
100
AcDbEntity
  8
ASSI
100
AcDbLine
 62
7
  6
CONTINUOUS
 10
-67.0798738069
 20
6.2245847033
 30
0.0
 11
-67.0798738069
 21
4.0970593112
 31
0.0
  0
LINE
  5
56A
100
AcDbEntity
  8
0
100
AcDbLine
 62
7
  6
CONTINUOUS
 10
-67.0798738069
 20
4.0970593112
 30
0.0
 11
-67.0798738069
 21
2.6970593112
 31
0.0
  0
LINE
  5
56B
100
AcDbEntity
  8
CURVE
100
AcDbLine
 62
250
  6
CONTINUOUS
 10
-82.480696253
 20
4.8263450308
 30
0.0
 11
-82.3878532195
 21
4.9145593112
 31
0.0
  0
LINE
  5
56C
100
AcDbEntity
  8
CURVE
100
AcDbLine
 62
250
  6
CONTINUOUS
 10
-81.2737372537
 20
4.2970593112
 30
0.0
 11
-81.1808942493
 21
4.3852736009
 31
0.0
  0
LINE
  5
56D
100
AcDbEntity
  8
CURVE
100
AcDbLine
 62
7
  6
CONTINUOUS
 10
-86.3866451738
 20
8.7038253112
 30
0.0
 11
-84.7772395264
 21
9.3027043112
 31
0.0
  0
LINE
  5
56E
100
AcDbEntity
  8
CURVE
100
AcDbLine
 62
7
  6
CONTINUOUS
 10
-83.4805176107
 20
26.3341533112
 30
0.0
 11
-86.3787285858
 21
26.3341533112
 31
0.0
  0
LINE
  5
56F
100
AcDbEntity
  8
CURVE
100
AcDbLine
 62
7
  6
CONTINUOUS
 10
-85.9187547303
 20
26.8518913112
 30
0.0
 11
-85.1981042976
 21
26.8518913112
 31
0.0
  0
LINE
  5
570
100
AcDbEntity
  8
CURVE
100
AcDbLine
 62
7
  6
CONTINUOUS
 10
-84.7380944531
 20
26.8518913112
 30
0.0
 11
-83.9404814692
 21
26.8518913112
 31
0.0
  0
LINE
  5
571
100
AcDbEntity
  8
RACCORDO
100
AcDbLine
 62
7
  6
CONTINUOUS
 10
-53.6298738069
 20
27.4470593112
 30
0.0
 11
-47.3798738069
 21
27.4470593112
 31
0.0
  0
LINE
  5
572
100
AcDbEntity
  8
ASSI
100
AcDbLine
 62
7
  6
CONTINUOUS
 10
-53.6298738069
 20
27.4470593112
 30
0.0
 11
-47.3798738069
 21
27.4470593112
 31
0.0
  0
LINE
  5
573
100
AcDbEntity
  8
RACCORDO
100
AcDbLine
 62
250
  6
CONTINUOUS
 10
-53.6324917675
 20
27.7470593112
 30
0.0
 11
-47.3798738069
 21
27.7470593112
 31
0.0
  0
LINE
  5
574
100
AcDbEntity
  8
ASSI
100
AcDbLine
 62
250
  6
CONTINUOUS
 10
-53.6324917675
 20
27.7470593112
 30
0.0
 11
-47.3798738069
 21
27.7470593112
 31
0.0
  0
LINE
  5
575
100
AcDbEntity
  8
RACCORDO
100
AcDbLine
 62
250
  6
CONTINUOUS
 10
-47.3798738069
 20
27.8470593112
 30
0.0
 11
-53.6324917675
 21
27.8470593112
 31
0.0
  0
LINE
  5
576
100
AcDbEntity
  8
ASSI
100
AcDbLine
 62
250
  6
CONTINUOUS
 10
-47.3798738069
 20
27.8470593112
 30
0.0
 11
-53.6324917675
 21
27.8470593112
 31
0.0
  0
LINE
  5
577
100
AcDbEntity
  8
CURVE
100
AcDbLine
 62
250
  6
CONTINUOUS
 10
-82.5378304394
 20
27.8470593112
 30
0.0
 11
-82.8092176547
 21
27.8470593112
 31
0.0
  0
LINE
  5
578
100
AcDbEntity
  8
RACCORDO
100
AcDbLine
 62
7
  6
CONTINUOUS
 10
-47.3798738069
 20
28.1470593112
 30
0.0
 11
-53.6298738069
 21
28.1470593112
 31
0.0
  0
LINE
  5
579
100
AcDbEntity
  8
ASSI
100
AcDbLine
 62
7
  6
CONTINUOUS
 10
-47.3798738069
 20
28.1470593112
 30
0.0
 11
-53.6298738069
 21
28.1470593112
 31
0.0
  0
LINE
  5
57A
100
AcDbEntity
  8
CURVE
100
AcDbLine
 62
7
  6
CONTINUOUS
 10
-85.1980943006
 20
28.2791863112
 30
0.0
 11
-84.73810445
 21
28.2791863112
 31
0.0
  0
LINE
  5
57B
100
AcDbEntity
  8
CURVE
100
AcDbLine
 62
7
  6
CONTINUOUS
 10
-86.3787285858
 20
28.3830723112
 30
0.0
 11
-85.9187487322
 21
28.3830723112
 31
0.0
  0
LINE
  5
57C
100
AcDbEntity
  8
CURVE
100
AcDbLine
 62
250
  6
CONTINUOUS
 10
-81.7236687367
 20
28.3899164217
 30
0.0
 11
-82.5378304394
 21
28.3899164217
 31
0.0
  0
LINE
  5
57D
100
AcDbEntity
  8
CURVE
100
AcDbLine
 62
7
  6
CONTINUOUS
 10
-83.9404974644
 20
28.3947253112
 30
0.0
 11
-83.4805176107
 21
28.3947253112
 31
0.0
  0
LINE
  5
57E
100
AcDbEntity
  8
CURVE
100
AcDbLine
 62
250
  6
CONTINUOUS
 10
-83.0806048701
 20
36.2613446372
 30
0.0
 11
-82.6735239904
 21
35.9899161952
 31
0.0
  0
LINE
  5
57F
100
AcDbEntity
  8
CURVE
100
AcDbLine
 62
250
  6
CONTINUOUS
 10
-81.1808942493
 20
35.9899161952
 30
0.0
 11
-82.5378304394
 21
36.9399161952
 31
0.0
  0
LINE
  5
580
100
AcDbEntity
  8
CURVE
100
AcDbLine
 62
250
  6
CONTINUOUS
 10
-81.452281493
 20
38.2970593112
 30
0.0
 11
-81.1808942493
 21
38.0256308692
 31
0.0
  0
LINE
  5
581
100
AcDbEntity
  8
CURVE
100
AcDbLine
 62
7
  6
CONTINUOUS
 10
-83.4878753689
 20
9.2569543112
 30
0.0
 11
-85.3807176591
 21
8.5468973112
 31
0.0
  0
LINE
  5
582
100
AcDbEntity
  8
0
100
AcDbLine
 62
7
  6
CONTINUOUS
 10
-89.8798738069
 20
30.2970593112
 30
0.0
 11
-91.3798738069
 21
30.2708767138
 31
0.0
  0
LINE
  5
583
100
AcDbEntity
  8
ASSI
100
AcDbLine
 62
7
  6
CONTINUOUS
 10
-88.4334636453
 20
30.3984890919
 30
0.0
 11
-91.3798738069
 21
30.3470593112
 31
0.0
  0
LINE
  5
584
100
AcDbEntity
  8
RACCORDO
100
AcDbLine
 62
7
  6
CONTINUOUS
 10
-88.4334636453
 20
30.3984890919
 30
0.0
 11
-91.3798738069
 21
30.3470593112
 31
0.0
  0
LINE
  5
585
100
AcDbEntity
  8
CURVE
100
AcDbLine
 62
7
  6
CONTINUOUS
 10
-83.4805176107
 20
29.0173973112
 30
0.0
 11
-86.3787285858
 21
29.0173973112
 31
0.0
  0
LINE
  5
586
100
AcDbEntity
  8
CURVE
100
AcDbLine
 62
250
  6
CONTINUOUS
 10
-82.5378304394
 20
29.3399164217
 30
0.0
 11
-81.7236687367
 21
29.3399164217
 31
0.0
  0
LINE
  5
587
100
AcDbEntity
  8
CURVE
100
AcDbLine
 62
7
  6
CONTINUOUS
 10
-86.3787285858
 20
29.5351663112
 30
0.0
 11
-83.4805176107
 21
29.5351663112
 31
0.0
  0
LINE
  5
588
100
AcDbEntity
  8
CURVE
100
AcDbLine
 62
7
  6
CONTINUOUS
 10
-83.4805176107
 20
30.1508973112
 30
0.0
 11
-86.3787285858
 21
30.1508973112
 31
0.0
  0
LINE
  5
589
100
AcDbEntity
  8
CURVE
100
AcDbLine
 62
250
  6
CONTINUOUS
 10
-83.0806048701
 20
30.4256306427
 30
0.0
 11
-81.1808942493
 21
30.4256306427
 31
0.0
  0
LINE
  5
58A
100
AcDbEntity
  8
CURVE
100
AcDbLine
 62
7
  6
CONTINUOUS
 10
-86.3787285858
 20
30.6686443112
 30
0.0
 11
-85.1151035862
 21
30.6686343112
 31
0.0
  0
LINE
  5
58B
100
AcDbEntity
  8
CURVE
100
AcDbLine
 62
7
  6
CONTINUOUS
 10
-84.4849445826
 20
30.6686343112
 30
0.0
 11
-83.4805176107
 21
30.6686443112
 31
0.0
  0
LINE
  5
58C
100
AcDbEntity
  8
0
100
AcDbLine
 62
7
  6
CONTINUOUS
 10
-87.8798738069
 20
30.2621491814
 30
0.0
 11
-89.8798738069
 21
30.2970593112
 31
0.0
  0
LINE
  5
58D
100
AcDbEntity
  8
0
100
AcDbLine
 62
250
  6
CONTINUOUS
 10
-88.4334636453
 20
30.471781667
 30
0.0
 11
-87.8798738069
 21
30.4621187204
 31
0.0
  0
LINE
  5
58E
100
AcDbEntity
  8
ASSI
100
AcDbLine
 62
250
  6
CONTINUOUS
 10
-98.2896156394
 20
30.7970593108
 30
0.0
 11
-97.7984321217
 21
30.7875593112
 31
0.0
  0
LINE
  5
58F
100
AcDbEntity
  8
RACCORDO
100
AcDbLine
 62
250
  6
CONTINUOUS
 10
-98.2896156394
 20
30.7970593108
 30
0.0
 11
-97.7984321217
 21
30.7875593112
 31
0.0
  0
LINE
  5
590
100
AcDbEntity
  8
CURVE
100
AcDbLine
 62
250
  6
CONTINUOUS
 10
-83.0806048701
 20
33.2756308692
 30
0.0
 11
-81.1808942493
 21
32.7327735322
 31
0.0
  0
LINE
  5
591
100
AcDbEntity
  8
CURVE
100
AcDbLine
 62
250
  6
CONTINUOUS
 10
-81.4070502763
 20
34.0899166482
 30
0.0
 11
-81.4975126955
 21
34.1351545709
 31
0.0
  0
LINE
  5
592
100
AcDbEntity
  8
CURVE
100
AcDbLine
 62
250
  6
CONTINUOUS
 10
-81.3618190737
 20
34.2708687919
 30
0.0
 11
-81.2713566615
 21
34.2256308692
 31
0.0
  0
LINE
  5
593
100
AcDbEntity
  8
0
100
AcDbLine
 62
7
  6
CONTINUOUS
 10
-62.1298738069
 20
3.7970593112
 30
0.0
 11
-62.1298738069
 21
8.3970593112
 31
0.0
  0
LINE
  5
594
100
AcDbEntity
  8
0
100
AcDbLine
 62
7
  6
CONTINUOUS
 10
-62.0798738069
 20
4.0970593112
 30
0.0
 11
-62.0798738069
 21
2.6970593112
 31
0.0
  0
LINE
  5
595
100
AcDbEntity
  8
RACCORDO
100
AcDbLine
 62
7
  6
CONTINUOUS
 10
-61.8798738069
 20
40.4862166668
 30
0.0
 11
-61.8798738069
 21
39.5970593112
 31
0.0
  0
LINE
  5
596
100
AcDbEntity
  8
ASSI
100
AcDbLine
 62
7
  6
CONTINUOUS
 10
-61.8798738069
 20
40.4862166668
 30
0.0
 11
-61.8798738069
 21
39.5970593112
 31
0.0
  0
LINE
  5
597
100
AcDbEntity
  8
RACCORDO
100
AcDbLine
 62
250
  6
CONTINUOUS
 10
-61.7334271974
 20
40.4867278748
 30
0.0
 11
-61.7334271974
 21
39.5970593112
 31
0.0
  0
LINE
  5
598
100
AcDbEntity
  8
ASSI
100
AcDbLine
 62
250
  6
CONTINUOUS
 10
-61.7334271974
 20
40.4867278748
 30
0.0
 11
-61.7334271974
 21
39.5970593112
 31
0.0
  0
LINE
  5
599
100
AcDbEntity
  8
0
100
AcDbLine
 62
7
  6
CONTINUOUS
 10
-91.3798738069
 20
-1.8255904196
 30
0.0
 11
-92.2548738069
 21
-2.3307719051
 31
0.0
  0
LINE
  5
59A
100
AcDbEntity
  8
0
100
AcDbLine
 62
250
  6
CONTINUOUS
 10
-91.1313282397
 20
-1.9699279869
 30
0.0
 11
-92.1313282397
 21
-2.5472782561
 31
0.0
  0
LINE
  5
59B
100
AcDbEntity
  8
CURVE
100
AcDbLine
 62
250
  6
CONTINUOUS
 10
-82.4021367751
 20
31.7375356096
 30
0.0
 11
-82.8092176547
 21
31.7375356096
 31
0.0
  0
LINE
  5
59C
100
AcDbEntity
  8
CURVE
100
AcDbLine
 62
250
  6
CONTINUOUS
 10
-81.3165878711
 20
31.7827735322
 30
0.0
 11
-81.995055952
 21
31.7827735322
 31
0.0
  0
LINE
  5
59D
100
AcDbEntity
  8
CURVE
100
AcDbLine
 62
250
  6
CONTINUOUS
 10
-82.6735239904
 20
32.3256308692
 30
0.0
 11
-83.0806048701
 21
32.3256308692
 31
0.0
  0
LINE
  5
59E
100
AcDbEntity
  8
RACCORDO
100
AcDbLine
 62
7
  6
CONTINUOUS
 10
-53.6298738069
 20
32.4470593112
 30
0.0
 11
-47.3798738069
 21
32.4470593112
 31
0.0
  0
LINE
  5
59F
100
AcDbEntity
  8
ASSI
100
AcDbLine
 62
7
  6
CONTINUOUS
 10
-53.6298738069
 20
32.4470593112
 30
0.0
 11
-47.3798738069
 21
32.4470593112
 31
0.0
  0
LINE
  5
5A0
100
AcDbEntity
  8
RACCORDO
100
AcDbLine
 62
250
  6
CONTINUOUS
 10
-57.7798738069
 20
32.4970593112
 30
0.0
 11
-57.8798738069
 21
32.4970593112
 31
0.0
  0
LINE
  5
5A1
100
AcDbEntity
  8
ASSI
100
AcDbLine
 62
250
  6
CONTINUOUS
 10
-57.7798738069
 20
32.4970593112
 30
0.0
 11
-57.8798738069
 21
32.4970593112
 31
0.0
  0
LINE
  5
5A2
100
AcDbEntity
  8
RACCORDO
100
AcDbLine
 62
250
  6
CONTINUOUS
 10
-53.6324917675
 20
32.7470593112
 30
0.0
 11
-47.3798738069
 21
32.7470593112
 31
0.0
  0
LINE
  5
5A3
100
AcDbEntity
  8
ASSI
100
AcDbLine
 62
250
  6
CONTINUOUS
 10
-53.6324917675
 20
32.7470593112
 30
0.0
 11
-47.3798738069
 21
32.7470593112
 31
0.0
  0
LINE
  5
5A4
100
AcDbEntity
  8
RACCORDO
100
AcDbLine
 62
250
  6
CONTINUOUS
 10
-47.3798738069
 20
32.8470593112
 30
0.0
 11
-53.6324917675
 21
32.8470593112
 31
0.0
  0
LINE
  5
5A5
100
AcDbEntity
  8
ASSI
100
AcDbLine
 62
250
  6
CONTINUOUS
 10
-47.3798738069
 20
32.8470593112
 30
0.0
 11
-53.6324917675
 21
32.8470593112
 31
0.0
  0
LINE
  5
5A6
100
AcDbEntity
  8
RACCORDO
100
AcDbLine
 62
7
  6
CONTINUOUS
 10
-47.3798738069
 20
33.1470593112
 30
0.0
 11
-53.6298738069
 21
33.1470593112
 31
0.0
  0
LINE
  5
5A7
100
AcDbEntity
  8
ASSI
100
AcDbLine
 62
7
  6
CONTINUOUS
 10
-47.3798738069
 20
33.1470593112
 30
0.0
 11
-53.6298738069
 21
33.1470593112
 31
0.0
  0
LINE
  5
5A8
100
AcDbEntity
  8
CURVE
100
AcDbLine
 62
250
  6
CONTINUOUS
 10
-82.5378304394
 20
37.4827739852
 30
0.0
 11
-82.8092176547
 21
37.6184877532
 31
0.0
  0
LINE
  5
5A9
100
AcDbEntity
  8
CURVE
100
AcDbLine
 62
250
  6
CONTINUOUS
 10
-81.7236687367
 20
38.4327739852
 30
0.0
 11
-81.452281493
 21
38.2970593112
 31
0.0
  0
LINE
  5
5AA
100
AcDbEntity
  8
0
100
AcDbLine
 62
7
  6
CONTINUOUS
 10
-92.2548738069
 20
44.9248905276
 30
0.0
 11
-91.3798738069
 21
44.419709042
 31
0.0
  0
LINE
  5
5AB
100
AcDbEntity
  8
0
100
AcDbLine
 62
250
  6
CONTINUOUS
 10
-92.1313282397
 20
45.1413968785
 30
0.0
 11
-91.1313282397
 21
44.5640466093
 31
0.0
  0
LINE
  5
5AC
100
AcDbEntity
  8
RACCORDO
100
AcDbLine
 62
250
  6
CONTINUOUS
 10
-60.1213569792
 20
39.5970593112
 30
0.0
 11
-60.1213569792
 21
40.5007961985
 31
0.0
  0
LINE
  5
5AD
100
AcDbEntity
  8
ASSI
100
AcDbLine
 62
250
  6
CONTINUOUS
 10
-60.1213569792
 20
39.5970593112
 30
0.0
 11
-60.1213569792
 21
40.5007961985
 31
0.0
  0
LINE
  5
5AE
100
AcDbEntity
  8
RACCORDO
100
AcDbLine
 62
7
  6
CONTINUOUS
 10
-59.8798738069
 20
39.4970593112
 30
0.0
 11
-59.8798738069
 21
39.5970593112
 31
0.0
  0
LINE
  5
5AF
100
AcDbEntity
  8
ASSI
100
AcDbLine
 62
7
  6
CONTINUOUS
 10
-59.8798738069
 20
39.4970593112
 30
0.0
 11
-59.8798738069
 21
39.5970593112
 31
0.0
  0
LINE
  5
5B0
100
AcDbEntity
  8
RACCORDO
100
AcDbLine
 62
250
  6
CONTINUOUS
 10
-59.7721668563
 20
39.5970593112
 30
0.0
 11
-59.7721668563
 21
40.5020151329
 31
0.0
  0
LINE
  5
5B1
100
AcDbEntity
  8
ASSI
100
AcDbLine
 62
250
  6
CONTINUOUS
 10
-59.7721668563
 20
39.5970593112
 30
0.0
 11
-59.7721668563
 21
40.5020151329
 31
0.0
  0
LINE
  5
5B2
100
AcDbEntity
  8
CURVE
100
AcDbLine
 62
7
  6
CONTINUOUS
 10
-83.4878753689
 20
5.2160463112
 30
0.0
 11
-86.3866451738
 21
4.2967993112
 31
0.0
  0
LINE
  5
5B3
100
AcDbEntity
  8
0
100
AcDbLine
 62
7
  6
CONTINUOUS
 10
-87.8798738069
 20
34.5319694411
 30
0.0
 11
-89.8798738069
 21
34.4970593112
 31
0.0
  0
LINE
  5
5B4
100
AcDbEntity
  8
CURVE
100
AcDbLine
 62
250
  6
CONTINUOUS
 10
-81.3618190737
 20
34.0899166482
 30
0.0
 11
-81.4070502763
 21
34.0899166482
 31
0.0
  0
LINE
  5
5B5
100
AcDbEntity
  8
CURVE
100
AcDbLine
 62
250
  6
CONTINUOUS
 10
-81.4070502763
 20
34.2708687919
 30
0.0
 11
-81.3618190737
 21
34.2708687919
 31
0.0
  0
LINE
  5
5B6
100
AcDbEntity
  8
CURVE
100
AcDbLine
 62
250
  6
CONTINUOUS
 10
-83.0806048701
 20
35.4470593112
 30
0.0
 11
-81.1808942493
 21
35.4470593112
 31
0.0
  0
LINE
  5
5B7
100
AcDbEntity
  8
ASSI
100
AcDbLine
 62
7
  6
CONTINUOUS
 10
-88.4334636453
 20
34.3956295306
 30
0.0
 11
-91.3798738069
 21
34.4470593112
 31
0.0
  0
LINE
  5
5B8
100
AcDbEntity
  8
RACCORDO
100
AcDbLine
 62
7
  6
CONTINUOUS
 10
-88.4334636453
 20
34.3956295306
 30
0.0
 11
-91.3798738069
 21
34.4470593112
 31
0.0
  0
LINE
  5
5B9
100
AcDbEntity
  8
0
100
AcDbLine
 62
7
  6
CONTINUOUS
 10
-89.8798738069
 20
34.4970593112
 30
0.0
 11
-91.3798738069
 21
34.5232419086
 31
0.0
  0
LINE
  5
5BA
100
AcDbEntity
  8
ASSI
100
AcDbLine
 62
7
  6
CONTINUOUS
 10
-57.8798738069
 20
16.6970593112
 30
0.0
 11
-57.8798738069
 21
39.5970593112
 31
0.0
  0
LINE
  5
5BB
100
AcDbEntity
  8
ASSI
100
AcDbLine
 62
7
  6
CONTINUOUS
 10
-57.8798738069
 20
40.8185175011
 30
0.0
 11
-57.8798738069
 21
40.8970593112
 31
0.0
  0
LINE
  5
5BC
100
AcDbEntity
  8
RACCORDO
100
AcDbLine
 62
7
  6
CONTINUOUS
 10
-57.7798738069
 20
16.7970593112
 30
0.0
 11
-57.7798738069
 21
39.4193901879
 31
0.0
  0
LINE
  5
5BD
100
AcDbEntity
  8
ASSI
100
AcDbLine
 62
7
  6
CONTINUOUS
 10
-57.7798738069
 20
16.7970593112
 30
0.0
 11
-57.7798738069
 21
39.4193901879
 31
0.0
  0
LINE
  5
5BE
100
AcDbEntity
  8
RACCORDO
100
AcDbLine
 62
7
  6
CONTINUOUS
 10
-57.7798738069
 20
39.4211358168
 30
0.0
 11
-57.7798738069
 21
39.7193787648
 31
0.0
  0
LINE
  5
5BF
100
AcDbEntity
  8
ASSI
100
AcDbLine
 62
7
  6
CONTINUOUS
 10
-57.7798738069
 20
39.4211358168
 30
0.0
 11
-57.7798738069
 21
39.7193787648
 31
0.0
  0
LINE
  5
5C0
100
AcDbEntity
  8
0
100
AcDbLine
 62
7
  6
CONTINUOUS
 10
-57.1298738069
 20
3.1033216006
 30
0.0
 11
-57.1298738069
 21
7.5970593112
 31
0.0
  0
LINE
  5
5C1
100
AcDbEntity
  8
ASSI
100
AcDbLine
 62
7
  6
CONTINUOUS
 10
-56.5798738069
 20
5.5243771651
 30
0.0
 11
-56.5798738069
 21
4.0970593112
 31
0.0
  0
LINE
  5
5C2
100
AcDbEntity
  8
0
100
AcDbLine
 62
7
  6
CONTINUOUS
 10
-56.5798738069
 20
4.0970593112
 30
0.0
 11
-56.5798738069
 21
2.6970593112
 31
0.0
  0
LINE
  5
5C3
100
AcDbEntity
  8
0
100
AcDbLine
 62
7
  6
CONTINUOUS
 10
-56.5798738069
 20
5.5243771651
 30
0.0
 11
-56.5798738069
 21
6.6695224473
 31
0.0
  0
LINE
  5
5C4
100
AcDbEntity
  8
RACCORDO
100
AcDbLine
 62
250
  6
CONTINUOUS
 10
-57.7798738069
 20
37.8506899166
 30
0.0
 11
-47.3798738069
 21
37.8882837013
 31
0.0
  0
LINE
  5
5C5
100
AcDbEntity
  8
ASSI
100
AcDbLine
 62
250
  6
CONTINUOUS
 10
-57.7798738069
 20
37.8506899166
 30
0.0
 11
-47.3798738069
 21
37.8882837013
 31
0.0
  0
LINE
  5
5C6
100
AcDbEntity
  8
CURVE
100
AcDbLine
 62
7
  6
CONTINUOUS
 10
-83.4805176107
 20
35.9572693112
 30
0.0
 11
-86.3787285858
 21
35.9572693112
 31
0.0
  0
LINE
  5
5C7
100
AcDbEntity
  8
CURVE
100
AcDbLine
 62
250
  6
CONTINUOUS
 10
-82.5378304394
 20
36.9399161952
 30
0.0
 11
-82.8092176547
 21
36.9399161952
 31
0.0
  0
LINE
  5
5C8
100
AcDbEntity
  8
RACCORDO
100
AcDbLine
 62
250
  6
CONTINUOUS
 10
-57.8798738069
 20
37.0970593112
 30
0.0
 11
-57.7798738069
 21
37.0970593112
 31
0.0
  0
LINE
  5
5C9
100
AcDbEntity
  8
ASSI
100
AcDbLine
 62
250
  6
CONTINUOUS
 10
-57.8798738069
 20
37.0970593112
 30
0.0
 11
-57.7798738069
 21
37.0970593112
 31
0.0
  0
LINE
  5
5CA
100
AcDbEntity
  8
RACCORDO
100
AcDbLine
 62
7
  6
CONTINUOUS
 10
-53.6298738069
 20
37.4470593112
 30
0.0
 11
-47.3798738069
 21
37.4470593112
 31
0.0
  0
LINE
  5
5CB
100
AcDbEntity
  8
ASSI
100
AcDbLine
 62
7
  6
CONTINUOUS
 10
-53.6298738069
 20
37.4470593112
 30
0.0
 11
-47.3798738069
 21
37.4470593112
 31
0.0
  0
LINE
  5
5CC
100
AcDbEntity
  8
CURVE
100
AcDbLine
 62
250
  6
CONTINUOUS
 10
-81.7236687367
 20
37.4827739852
 30
0.0
 11
-82.5378304394
 21
37.4827739852
 31
0.0
  0
LINE
  5
5CD
100
AcDbEntity
  8
RACCORDO
100
AcDbLine
 62
250
  6
CONTINUOUS
 10
-53.6324917675
 20
37.7470593112
 30
0.0
 11
-47.3798738069
 21
37.7470593112
 31
0.0
  0
LINE
  5
5CE
100
AcDbEntity
  8
ASSI
100
AcDbLine
 62
250
  6
CONTINUOUS
 10
-53.6324917675
 20
37.7470593112
 30
0.0
 11
-47.3798738069
 21
37.7470593112
 31
0.0
  0
LINE
  5
5CF
100
AcDbEntity
  8
0
100
AcDbLine
 62
7
  6
CONTINUOUS
 10
-57.7798738069
 20
37.7970593112
 30
0.0
 11
-57.8798738069
 21
37.7970593112
 31
0.0
  0
LINE
  5
5D0
100
AcDbEntity
  8
CURVE
100
AcDbLine
 62
7
  6
CONTINUOUS
 10
-84.3317782492
 20
37.8000583112
 30
0.0
 11
-86.3787285858
 21
37.8000683112
 31
0.0
  0
LINE
  5
5D1
100
AcDbEntity
  8
ASSI
100
AcDbLine
 62
250
  6
CONTINUOUS
 10
-57.8798738069
 20
38.0029676819
 30
0.0
 11
-80.8798738069
 21
38.0029676819
 31
0.0
  0
LINE
  5
5D2
100
AcDbEntity
  8
CURVE
100
AcDbLine
 62
7
  6
CONTINUOUS
 10
-85.5051267542
 20
36.4627153112
 30
0.0
 11
-83.4805176107
 21
36.4556913112
 31
0.0
  0
LINE
  5
5D3
100
AcDbEntity
  8
RACCORDO
100
AcDbLine
 62
250
  6
CONTINUOUS
 10
-57.7798738069
 20
39.1265081215
 30
0.0
 11
-47.3798738069
 21
39.2172675466
 31
0.0
  0
LINE
  5
5D4
100
AcDbEntity
  8
ASSI
100
AcDbLine
 62
250
  6
CONTINUOUS
 10
-57.7798738069
 20
39.1265081215
 30
0.0
 11
-47.3798738069
 21
39.2172675466
 31
0.0
  0
LINE
  5
5D5
100
AcDbEntity
  8
RACCORDO
100
AcDbLine
 62
7
  6
CONTINUOUS
 10
-57.7798738069
 20
39.4193901879
 30
0.0
 11
-47.3798738069
 21
39.5101496129
 31
0.0
  0
LINE
  5
5D6
100
AcDbEntity
  8
ASSI
100
AcDbLine
 62
7
  6
CONTINUOUS
 10
-57.7798738069
 20
39.4193901879
 30
0.0
 11
-47.3798738069
 21
39.5101496129
 31
0.0
  0
LINE
  5
5D7
100
AcDbEntity
  8
RACCORDO
100
AcDbLine
 62
250
  6
CONTINUOUS
 10
-47.3798738069
 20
39.8101381898
 30
0.0
 11
-57.7798738069
 21
39.7193787648
 31
0.0
  0
LINE
  5
5D8
100
AcDbEntity
  8
ASSI
100
AcDbLine
 62
250
  6
CONTINUOUS
 10
-47.3798738069
 20
39.8101381898
 30
0.0
 11
-57.7798738069
 21
39.7193787648
 31
0.0
  0
LINE
  5
5D9
100
AcDbEntity
  8
0
100
AcDbLine
 62
7
  6
CONTINUOUS
 10
-88.8798738069
 20
39.805786179
 30
0.0
 11
-87.8798738069
 21
39.8145130468
 31
0.0
  0
LINE
  5
5DA
100
AcDbEntity
  8
RACCORDO
100
AcDbLine
 62
250
  6
CONTINUOUS
 10
-47.3798738069
 20
40.610161036
 30
0.0
 11
-59.7721668563
 21
40.5020151329
 31
0.0
  0
LINE
  5
5DB
100
AcDbEntity
  8
ASSI
100
AcDbLine
 62
250
  6
CONTINUOUS
 10
-47.3798738069
 20
40.610161036
 30
0.0
 11
-59.7721668563
 21
40.5020151329
 31
0.0
  0
LINE
  5
5DC
100
AcDbEntity
  8
RACCORDO
100
AcDbLine
 62
250
  6
CONTINUOUS
 10
-60.1213569792
 20
40.5007961985
 30
0.0
 11
-61.7334271974
 21
40.4867278748
 31
0.0
  0
LINE
  5
5DD
100
AcDbEntity
  8
ASSI
100
AcDbLine
 62
250
  6
CONTINUOUS
 10
-60.1213569792
 20
40.5007961985
 30
0.0
 11
-61.7334271974
 21
40.4867278748
 31
0.0
  0
LINE
  5
5DE
100
AcDbEntity
  8
RACCORDO
100
AcDbLine
 62
250
  6
CONTINUOUS
 10
-57.7798738069
 20
38.5577697733
 30
0.0
 11
-47.3798738069
 21
38.5953635581
 31
0.0
  0
LINE
  5
5DF
100
AcDbEntity
  8
ASSI
100
AcDbLine
 62
250
  6
CONTINUOUS
 10
-57.7798738069
 20
38.5577697733
 30
0.0
 11
-47.3798738069
 21
38.5953635581
 31
0.0
  0
LINE
  5
5E0
100
AcDbEntity
  8
CURVE
100
AcDbLine
 62
7
  6
CONTINUOUS
 10
-86.3787285858
 20
38.2984963112
 30
0.0
 11
-83.4805176107
 21
38.2984963112
 31
0.0
  0
LINE
  5
5E1
100
AcDbEntity
  8
CURVE
100
AcDbLine
 62
250
  6
CONTINUOUS
 10
-82.5378304394
 20
38.4327739852
 30
0.0
 11
-81.7236687367
 21
38.4327739852
 31
0.0
  0
LINE
  5
5E2
100
AcDbEntity
  8
ASSI
100
AcDbLine
 62
250
  6
CONTINUOUS
 10
-57.8798738069
 20
38.5050134966
 30
0.0
 11
-80.8798738069
 21
38.5050134966
 31
0.0
  0
LINE
  5
5E3
100
AcDbEntity
  8
0
100
AcDbLine
 62
7
  6
CONTINUOUS
 10
-57.8798738069
 20
38.6970593112
 30
0.0
 11
-57.7798738069
 21
38.6970593112
 31
0.0
  0
LINE
  5
5E4
100
AcDbEntity
  8
ASSI
100
AcDbLine
 62
250
  6
CONTINUOUS
 10
-57.8798738069
 20
39.2891051259
 30
0.0
 11
-80.8798738069
 21
39.2891051259
 31
0.0
  0
LINE
  5
5E5
100
AcDbEntity
  8
ASSI
100
AcDbLine
 62
7
  6
CONTINUOUS
 10
-57.8798738069
 20
39.4970593112
 30
0.0
 11
-80.8798738069
 21
39.4970593112
 31
0.0
  0
LINE
  5
5E6
100
AcDbEntity
  8
ASSI
100
AcDbLine
 62
250
  6
CONTINUOUS
 10
-80.8798738069
 20
39.5070593112
 30
0.0
 11
-79.9215269284
 21
39.5070593112
 31
0.0
  0
LINE
  5
5E7
100
AcDbEntity
  8
ASSI
100
AcDbLine
 62
250
  6
CONTINUOUS
 10
-79.0174861148
 20
39.5070593112
 30
0.0
 11
-78.8798738069
 21
39.5070593112
 31
0.0
  0
LINE
  5
5E8
100
AcDbEntity
  8
ASSI
100
AcDbLine
 62
250
  6
CONTINUOUS
 10
-76.8798738069
 20
39.5070593112
 30
0.0
 11
-61.7449147823
 21
39.5070593112
 31
0.0
  0
LINE
  5
5E9
100
AcDbEntity
  8
ASSI
100
AcDbLine
 62
250
  6
CONTINUOUS
 10
-59.8798738069
 20
39.5070593112
 30
0.0
 11
-57.8798738069
 21
39.5070593112
 31
0.0
  0
LINE
  5
5EA
100
AcDbEntity
  8
RACCORDO
100
AcDbLine
 62
7
  6
CONTINUOUS
 10
-57.7798738069
 20
39.5970593112
 30
0.0
 11
-61.8798738069
 21
39.5970593112
 31
0.0
  0
LINE
  5
5EB
100
AcDbEntity
  8
ASSI
100
AcDbLine
 62
7
  6
CONTINUOUS
 10
-57.7798738069
 20
39.5970593112
 30
0.0
 11
-61.8798738069
 21
39.5970593112
 31
0.0
  0
LINE
  5
5EC
100
AcDbEntity
  8
0
100
AcDbLine
 62
7
  6
CONTINUOUS
 10
-61.8798738069
 20
39.6470593112
 30
0.0
 11
-76.8798738069
 21
39.6470593112
 31
0.0
  0
LINE
  5
5ED
100
AcDbEntity
  8
0
100
AcDbLine
 62
7
  6
CONTINUOUS
 10
-61.8798738069
 20
39.8370593112
 30
0.0
 11
-76.8798738069
 21
39.8370593112
 31
0.0
  0
LINE
  5
5EE
100
AcDbEntity
  8
ASSI
100
AcDbLine
 62
250
  6
CONTINUOUS
 10
-61.8798738069
 20
40.1870593112
 30
0.0
 11
-76.8798738069
 21
40.1870593112
 31
0.0
  0
LINE
  5
5EF
100
AcDbEntity
  8
RACCORDO
100
AcDbLine
 62
250
  6
CONTINUOUS
 10
-80.8798738069
 20
38.9181474876
 30
0.0
 11
-87.8798738069
 21
38.9687583599
 31
0.0
  0
LINE
  5
5F0
100
AcDbEntity
  8
0
100
AcDbLine
 62
250
  6
CONTINUOUS
 10
-80.8798738069
 20
38.9181474876
 30
0.0
 11
-87.8798738069
 21
38.9687583599
 31
0.0
  0
LINE
  5
5F1
100
AcDbEntity
  8
RACCORDO
100
AcDbLine
 62
250
  6
CONTINUOUS
 10
-80.8798738069
 20
40.3321456584
 30
0.0
 11
-87.8798738069
 21
40.3827565307
 31
0.0
  0
LINE
  5
5F2
100
AcDbEntity
  8
0
100
AcDbLine
 62
250
  6
CONTINUOUS
 10
-80.8798738069
 20
40.3321456584
 30
0.0
 11
-87.8798738069
 21
40.3827565307
 31
0.0
  0
LINE
  5
5F3
100
AcDbEntity
  8
DRAFT
100
AcDbLine
 62
7
  6
CONTINUOUS
 10
-80.8798738069
 20
39.5632287788
 30
0.0
 11
-79.8798738069
 21
39.5545019111
 31
0.0
  0
LINE
  5
5F4
100
AcDbEntity
  8
RACCORDO
100
AcDbLine
 62
7
  6
CONTINUOUS
 10
-76.9206103073
 20
39.5286768097
 30
0.0
 11
-79.8798738069
 21
39.5545019111
 31
0.0
  0
LINE
  5
5F5
100
AcDbEntity
  8
0
100
AcDbLine
 62
7
  6
CONTINUOUS
 10
-76.9206103073
 20
39.5286768097
 30
0.0
 11
-80.8798738069
 21
39.5632287788
 31
0.0
  0
LINE
  5
5F6
100
AcDbEntity
  8
RACCORDO
100
AcDbLine
 62
250
  6
CONTINUOUS
 10
-79.8798738069
 20
40.3429029115
 30
0.0
 11
-79.086980588
 21
40.3290629089
 31
0.0
  0
LINE
  5
5F7
100
AcDbEntity
  8
0
100
AcDbLine
 62
250
  6
CONTINUOUS
 10
-79.8798738069
 20
40.3429029115
 30
0.0
 11
-79.086980588
 21
40.3290629089
 31
0.0
  0
LINE
  5
5F8
100
AcDbEntity
  8
RACCORDO
100
AcDbLine
 62
250
  6
CONTINUOUS
 10
-78.7334271974
 20
40.32659439
 30
0.0
 11
-77.0263204163
 21
40.2967967303
 31
0.0
  0
LINE
  5
5F9
100
AcDbEntity
  8
0
100
AcDbLine
 62
250
  6
CONTINUOUS
 10
-78.7334271974
 20
40.32659439
 30
0.0
 11
-77.0263204163
 21
40.2967967303
 31
0.0
  0
LINE
  5
5FA
100
AcDbEntity
  8
RACCORDO
100
AcDbLine
 62
7
  6
CONTINUOUS
 10
-52.8749411891
 20
2.6970593112
 30
0.0
 11
-52.8749411891
 21
2.0293170993
 31
0.0
  0
LINE
  5
5FB
100
AcDbEntity
  8
ASSI
100
AcDbLine
 62
7
  6
CONTINUOUS
 10
-52.8749411891
 20
2.6970593112
 30
0.0
 11
-52.8749411891
 21
2.0293170993
 31
0.0
  0
LINE
  5
5FC
100
AcDbEntity
  8
RACCORDO
100
AcDbLine
 62
250
  6
CONTINUOUS
 10
-52.7284945797
 20
2.6970593112
 30
0.0
 11
-52.7284945797
 21
2.0288058912
 31
0.0
  0
LINE
  5
5FD
100
AcDbEntity
  8
ASSI
100
AcDbLine
 62
250
  6
CONTINUOUS
 10
-52.7284945797
 20
2.6970593112
 30
0.0
 11
-52.7284945797
 21
2.0288058912
 31
0.0
  0
LINE
  5
5FE
100
AcDbEntity
  8
0
100
AcDbLine
 62
7
  6
CONTINUOUS
 10
-51.6298738069
 20
3.7970593112
 30
0.0
 11
-51.6298738069
 21
7.5970593112
 31
0.0
  0
LINE
  5
5FF
100
AcDbEntity
  8
0
100
AcDbLine
 62
7
  6
CONTINUOUS
 10
-51.5798738069
 20
4.0970593112
 30
0.0
 11
-51.5798738069
 21
2.6970593112
 31
0.0
  0
LINE
  5
600
100
AcDbEntity
  8
0
100
AcDbLine
 62
7
  6
CONTINUOUS
 10
-79.8819179204
 20
39.5150002659
 30
0.0
 11
-79.7169751037
 21
39.5530803156
 31
0.0
  0
LINE
  5
601
100
AcDbEntity
  8
RACCORDO
100
AcDbLine
 62
7
  6
CONTINUOUS
 10
-47.3798738069
 20
40.9101496129
 30
0.0
 11
-61.5824917675
 21
40.7862052437
 31
0.0
  0
LINE
  5
602
100
AcDbEntity
  8
ASSI
100
AcDbLine
 62
7
  6
CONTINUOUS
 10
-47.3798738069
 20
40.9101496129
 30
0.0
 11
-61.5824917675
 21
40.7862052437
 31
0.0
  0
LINE
  5
603
100
AcDbEntity
  8
DRAFT
100
AcDbLine
 62
7
  6
CONTINUOUS
 10
-77.8798738069
 20
41.1017817247
 30
0.0
 11
-79.8798738069
 21
41.0843279891
 31
0.0
  0
LINE
  5
604
100
AcDbEntity
  8
0
100
AcDbLine
 62
7
  6
CONTINUOUS
 10
-77.8798738069
 20
42.2930548569
 30
0.0
 11
-87.8798738069
 21
42.205786179
 31
0.0
  0
LINE
  5
605
100
AcDbEntity
  8
0
100
AcDbLine
 62
7
  6
CONTINUOUS
 10
-78.3711476036
 20
42.7507947384
 30
0.0
 11
-87.8798738069
 21
42.7021727214
 31
0.0
  0
LINE
  5
606
100
AcDbEntity
  8
ASSI
100
AcDbLine
 62
7
  6
CONTINUOUS
 10
-57.8798738069
 20
40.8970593112
 30
0.0
 11
-79.8798738069
 21
40.8970593112
 31
0.0
  0
LINE
  5
607
100
AcDbEntity
  8
DRAFT
100
AcDbLine
 62
7
  6
CONTINUOUS
 10
-87.8798738069
 20
42.1470593112
 30
0.0
 11
-80.8798738069
 21
42.1470593112
 31
0.0
  0
LINE
  5
608
100
AcDbEntity
  8
0
100
AcDbLine
 62
7
  6
CONTINUOUS
 10
-87.8798738069
 20
42.1470593112
 30
0.0
 11
-79.8798738069
 21
42.1470593112
 31
0.0
  0
LINE
  5
609
100
AcDbEntity
  8
RACCORDO
100
AcDbLine
 62
7
  6
CONTINUOUS
 10
-79.8798738069
 20
40.6429486099
 30
0.0
 11
-77.1746380849
 21
40.5957285448
 31
0.0
  0
LINE
  5
60A
100
AcDbEntity
  8
0
100
AcDbLine
 62
7
  6
CONTINUOUS
 10
-79.8798738069
 20
40.6429486099
 30
0.0
 11
-77.1746380849
 21
40.5957285448
 31
0.0
  0
LINE
  5
60B
100
AcDbEntity
  8
RACCORDO
100
AcDbLine
 62
7
  6
CONTINUOUS
 10
-61.8798679614
 20
39.5970554131
 30
0.0
 11
-61.7299193352
 21
39.4970593112
 31
0.0
  0
LINE
  5
60C
100
AcDbEntity
  8
ASSI
100
AcDbLine
 62
7
  6
CONTINUOUS
 10
-61.8798738069
 20
39.5970593112
 30
0.0
 11
-61.7299193352
 21
39.4970593112
 31
0.0
  0
LWPOLYLINE
  5
60D
100
AcDbEntity
  8
0
100
AcDbPolyline
 62
7
  6
CONTINUOUS
 90
10
 70
0
 43
0.3500000006
 10
-67.3798719177
 20
55.0470571747
 10
-67.3084452667
 20
54.9042038727
 10
-67.3084452667
 20
54.8327726898
 10
-67.4513031006
 20
54.689914856
 10
-67.5227297516
 20
54.689914856
 10
-67.5941609344
 20
54.7613460388
 10
-67.5941609344
 20
54.8327726898
 10
-67.5227297516
 20
54.9756305237
 10
-67.4513031006
 20
55.0470571747
 10
-67.3798719177
 20
55.0470571747
  0
LINE
  5
60E
100
AcDbEntity
  8
RACCORDO
100
AcDbLine
 62
250
  6
CONTINUOUS
 10
-51.0371476678
 20
2.0140457303
 30
0.0
 11
-51.0371476678
 21
2.9970593112
 31
0.0
  0
LINE
  5
60F
100
AcDbEntity
  8
ASSI
100
AcDbLine
 62
250
  6
CONTINUOUS
 10
-51.0371476678
 20
2.0140457303
 30
0.0
 11
-51.0371476678
 21
2.9970593112
 31
0.0
  0
LINE
  5
610
100
AcDbEntity
  8
RACCORDO
100
AcDbLine
 62
7
  6
CONTINUOUS
 10
-50.8749411891
 20
2.9970593112
 30
0.0
 11
-50.8749411891
 21
3.0970593112
 31
0.0
  0
LINE
  5
611
100
AcDbEntity
  8
ASSI
100
AcDbLine
 62
7
  6
CONTINUOUS
 10
-50.8749411891
 20
2.9970593112
 30
0.0
 11
-50.8749411891
 21
3.0970593112
 31
0.0
  0
LINE
  5
612
100
AcDbEntity
  8
RACCORDO
100
AcDbLine
 62
250
  6
CONTINUOUS
 10
-50.687957545
 20
2.0128267959
 30
0.0
 11
-50.687957545
 21
2.9970593112
 31
0.0
  0
LINE
  5
613
100
AcDbEntity
  8
ASSI
100
AcDbLine
 62
250
  6
CONTINUOUS
 10
-50.687957545
 20
2.0128267959
 30
0.0
 11
-50.687957545
 21
2.9970593112
 31
0.0
  0
LINE
  5
614
100
AcDbEntity
  8
0
100
AcDbLine
 62
7
  6
CONTINUOUS
 10
-49.2798738069
 20
18.1470593112
 30
0.0
 11
-49.2798738069
 21
22.4470593112
 31
0.0
  0
LINE
  5
615
100
AcDbEntity
  8
0
100
AcDbLine
 62
7
  6
CONTINUOUS
 10
-49.2798738069
 20
23.1470593112
 30
0.0
 11
-49.2798738069
 21
27.4470593112
 31
0.0
  0
LINE
  5
616
100
AcDbEntity
  8
0
100
AcDbLine
 62
7
  6
CONTINUOUS
 10
-49.2798738069
 20
28.1470593112
 30
0.0
 11
-49.2798738069
 21
32.4470593112
 31
0.0
  0
LINE
  5
617
100
AcDbEntity
  8
0
100
AcDbLine
 62
7
  6
CONTINUOUS
 10
-49.2798738069
 20
33.1470593112
 30
0.0
 11
-49.2798738069
 21
37.4470593112
 31
0.0
  0
LINE
  5
618
100
AcDbEntity
  8
ASSI
100
AcDbLine
 62
250
  6
CONTINUOUS
 10
-96.345669101
 20
42.8579724865
 30
0.0
 11
-91.3798738069
 21
43.1182187902
 31
0.0
  0
LINE
  5
619
100
AcDbEntity
  8
RACCORDO
100
AcDbLine
 62
250
  6
CONTINUOUS
 10
-96.345669101
 20
42.8579724865
 30
0.0
 11
-91.3798738069
 21
43.1182187902
 31
0.0
  0
LINE
  5
61A
100
AcDbEntity
  8
0
100
AcDbLine
 62
250
  6
CONTINUOUS
 10
-89.8798738069
 20
43.1968304592
 30
0.0
 11
-91.3798738069
 21
43.1182187902
 31
0.0
  0
LINE
  5
61B
100
AcDbEntity
  8
ASSI
100
AcDbLine
 62
7
  6
CONTINUOUS
 10
-96.3631108759
 20
43.3572872539
 30
0.0
 11
-91.3798738069
 21
43.6184476423
 31
0.0
  0
LINE
  5
61C
100
AcDbEntity
  8
RACCORDO
100
AcDbLine
 62
7
  6
CONTINUOUS
 10
-96.3631108759
 20
43.3572872539
 30
0.0
 11
-91.3798738069
 21
43.6184476423
 31
0.0
  0
LINE
  5
61D
100
AcDbEntity
  8
0
100
AcDbLine
 62
7
  6
CONTINUOUS
 10
-89.8798738069
 20
43.6970593112
 30
0.0
 11
-91.3798738069
 21
43.6184476423
 31
0.0
  0
LINE
  5
61E
100
AcDbEntity
  8
0
100
AcDbLine
 62
7
  6
CONTINUOUS
 10
-87.8798738069
 20
42.8804898094
 30
0.0
 11
-88.8798738069
 21
42.8804898094
 31
0.0
  0
LINE
  5
61F
100
AcDbEntity
  8
0
100
AcDbLine
 62
7
  6
CONTINUOUS
 10
-91.9798738069
 20
43.6184476423
 30
0.0
 11
-91.3798738069
 21
43.6184476423
 31
0.0
  0
LINE
  5
620
100
AcDbEntity
  8
0
100
AcDbLine
 62
250
  6
CONTINUOUS
 10
-92.3798738069
 20
45.1413968785
 30
0.0
 11
-92.1313282397
 21
45.1413968785
 31
0.0
  0
LINE
  5
621
100
AcDbEntity
  8
0
100
AcDbLine
 62
250
  6
CONTINUOUS
 10
-88.8798738069
 20
45.1413968785
 30
0.0
 11
-89.128419374
 21
45.1413968785
 31
0.0
  0
LINE
  5
622
100
AcDbEntity
  8
0
100
AcDbLine
 62
250
  6
CONTINUOUS
 10
-88.8798738069
 20
43.1912584044
 30
0.0
 11
-89.8798738069
 21
43.1970762343
 31
0.0
  0
LINE
  5
623
100
AcDbEntity
  8
0
100
AcDbLine
 62
7
  6
CONTINUOUS
 10
-78.8740560755
 20
43.6330293367
 30
0.0
 11
-89.8798738069
 21
43.6970593112
 31
0.0
  0
LINE
  5
624
100
AcDbEntity
  8
RACCORDO
100
AcDbLine
 62
250
  6
CONTINUOUS
 10
-61.1624056863
 20
39.5970593112
 30
0.0
 11
-61.0124512146
 21
39.4970593112
 31
0.0
  0
LINE
  5
625
100
AcDbEntity
  8
ASSI
100
AcDbLine
 62
250
  6
CONTINUOUS
 10
-61.1624056863
 20
39.5970593112
 30
0.0
 11
-61.0124512146
 21
39.4970593112
 31
0.0
  0
LINE
  5
626
100
AcDbEntity
  8
ASSI
100
AcDbLine
 62
7
  6
CONTINUOUS
 10
-48.8798738069
 20
16.2970593112
 30
0.0
 11
-48.8798738069
 21
16.1970593112
 31
0.0
  0
LINE
  5
627
100
AcDbEntity
  8
ASSI
100
AcDbLine
 62
7
  6
CONTINUOUS
 10
-48.8798738069
 20
16.1970593112
 30
0.0
 11
-48.8798738069
 21
3.0970593112
 31
0.0
  0
LINE
  5
628
100
AcDbEntity
  8
DRAFT
100
AcDbLine
 62
7
  6
CONTINUOUS
 10
-48.8798738069
 20
2.9970593112
 30
0.0
 11
-48.8798738069
 21
3.0970593112
 31
0.0
  0
LINE
  5
629
100
AcDbEntity
  8
ASSI
100
AcDbLine
 62
7
  6
CONTINUOUS
 10
-48.8798738069
 20
2.9970593112
 30
0.0
 11
-48.8798738069
 21
3.0970593112
 31
0.0
  0
LINE
  5
62A
100
AcDbEntity
  8
RACCORDO
100
AcDbLine
 62
7
  6
CONTINUOUS
 10
-48.8798738069
 20
3.2660648244
 30
0.0
 11
-48.8798738069
 21
4.1021930846
 31
0.0
  0
LINE
  5
62B
100
AcDbEntity
  8
RACCORDO
100
AcDbLine
 62
7
  6
CONTINUOUS
 10
-48.8798738069
 20
4.5810683904
 30
0.0
 11
-48.8798738069
 21
16.2970593112
 31
0.0
  0
LINE
  5
62C
100
AcDbEntity
  8
DRAFT
100
AcDbLine
 62
7
  6
CONTINUOUS
 10
-48.8798738069
 20
18.1470593112
 30
0.0
 11
-48.8798738069
 21
22.4470593112
 31
0.0
  0
LINE
  5
62D
100
AcDbEntity
  8
ASSI
100
AcDbLine
 62
7
  6
CONTINUOUS
 10
-48.8798738069
 20
18.1470593112
 30
0.0
 11
-48.8798738069
 21
22.4470593112
 31
0.0
  0
LINE
  5
62E
100
AcDbEntity
  8
DRAFT
100
AcDbLine
 62
7
  6
CONTINUOUS
 10
-48.8798738069
 20
23.1470593112
 30
0.0
 11
-48.8798738069
 21
27.4470593112
 31
0.0
  0
LINE
  5
62F
100
AcDbEntity
  8
ASSI
100
AcDbLine
 62
7
  6
CONTINUOUS
 10
-48.8798738069
 20
23.1470593112
 30
0.0
 11
-48.8798738069
 21
27.4470593112
 31
0.0
  0
LINE
  5
630
100
AcDbEntity
  8
DRAFT
100
AcDbLine
 62
7
  6
CONTINUOUS
 10
-48.8798738069
 20
28.1470593112
 30
0.0
 11
-48.8798738069
 21
32.4470593112
 31
0.0
  0
LINE
  5
631
100
AcDbEntity
  8
ASSI
100
AcDbLine
 62
7
  6
CONTINUOUS
 10
-48.8798738069
 20
28.1470593112
 30
0.0
 11
-48.8798738069
 21
32.4470593112
 31
0.0
  0
LINE
  5
632
100
AcDbEntity
  8
DRAFT
100
AcDbLine
 62
7
  6
CONTINUOUS
 10
-48.8798738069
 20
33.1470593112
 30
0.0
 11
-48.8798738069
 21
37.4470593112
 31
0.0
  0
LINE
  5
633
100
AcDbEntity
  8
ASSI
100
AcDbLine
 62
7
  6
CONTINUOUS
 10
-48.8798738069
 20
33.1470593112
 30
0.0
 11
-48.8798738069
 21
37.4470593112
 31
0.0
  0
LINE
  5
634
100
AcDbEntity
  8
RACCORDO
100
AcDbLine
 62
7
  6
CONTINUOUS
 10
-47.3798738069
 20
33.1470593112
 30
0.0
 11
-47.3798738069
 21
32.4470593112
 31
0.0
  0
LINE
  5
635
100
AcDbEntity
  8
RACCORDO
100
AcDbLine
 62
7
  6
CONTINUOUS
 10
-47.3798738069
 20
28.1470593112
 30
0.0
 11
-47.3798738069
 21
27.4470593112
 31
0.0
  0
LINE
  5
636
100
AcDbEntity
  8
RACCORDO
100
AcDbLine
 62
7
  6
CONTINUOUS
 10
-47.3798738069
 20
23.1470593112
 30
0.0
 11
-47.3798738069
 21
22.4470593112
 31
0.0
  0
LINE
  5
637
100
AcDbEntity
  8
RACCORDO
100
AcDbLine
 62
7
  6
CONTINUOUS
 10
-47.3798738069
 20
1.6839690095
 30
0.0
 11
-47.3798738069
 21
18.1470593112
 31
0.0
  0
LINE
  5
638
100
AcDbEntity
  8
RACCORDO
100
AcDbLine
 62
7
  6
CONTINUOUS
 10
-47.3798738069
 20
37.4470593112
 30
0.0
 11
-47.3798738069
 21
40.9101496129
 31
0.0
  0
LINE
  5
639
100
AcDbEntity
  8
ASSI
100
AcDbLine
 62
7
  6
CONTINUOUS
 10
-47.3798738069
 20
1.6839690095
 30
0.0
 11
-47.3798738069
 21
40.9101496129
 31
0.0
  0
LINE
  5
63A
100
AcDbEntity
  8
0
100
AcDbLine
 62
250
  6
CONTINUOUS
 10
-92.1313282397
 20
45.5339649633
 30
0.0
 11
-89.8798738069
 21
45.547063542
 31
0.0
  0
LINE
  5
63B
100
AcDbEntity
  8
0
100
AcDbLine
 62
7
  6
CONTINUOUS
 10
-92.1313282397
 20
45.7839607325
 30
0.0
 11
-89.8798738069
 21
45.7970593112
 31
0.0
  0
LINE
  5
63C
100
AcDbEntity
  8
0
100
AcDbLine
 62
250
  6
CONTINUOUS
 10
-92.3798738069
 20
45.5339649633
 30
0.0
 11
-92.1313282397
 21
45.5339649633
 31
0.0
  0
LINE
  5
63D
100
AcDbEntity
  8
0
100
AcDbLine
 62
250
  6
CONTINUOUS
 10
-88.8798738069
 20
45.542691708
 30
0.0
 11
-89.128419374
 21
45.542691708
 31
0.0
  0
LINE
  5
63E
100
AcDbEntity
  8
0
100
AcDbLine
 62
7
  6
CONTINUOUS
 10
-82.3769649412
 20
45.2534086644
 30
0.0
 11
-88.8798738069
 21
45.2912414814
 31
0.0
  0
LINE
  5
63F
100
AcDbEntity
  8
0
100
AcDbLine
 62
250
  6
CONTINUOUS
 10
-89.8798738069
 20
45.547063542
 30
0.0
 11
-89.128419374
 21
45.542691708
 31
0.0
  0
LINE
  5
640
100
AcDbEntity
  8
0
100
AcDbLine
 62
7
  6
CONTINUOUS
 10
-89.8798738069
 20
45.7970593112
 30
0.0
 11
-89.128419374
 21
45.7926874772
 31
0.0
  0
LWPOLYLINE
  5
641
100
AcDbEntity
  8
0
100
AcDbPolyline
 62
7
  6
CONTINUOUS
 90
8
 70
0
 43
0.3500000006
 10
-66.3084449615
 20
54.547061554
 10
-65.4513024902
 20
54.547061554
 10
-65.0227289886
 20
54.9756305237
 10
-65.0227289886
 20
55.8327775269
 10
-65.4513024902
 20
56.2613464966
 10
-66.3084449615
 20
56.2613464966
 10
-66.3084449615
 20
57.5470624695
 10
-65.0227289886
 20
57.5470624695
  0
LWPOLYLINE
  5
642
100
AcDbEntity
  8
0
100
AcDbPolyline
 62
7
  6
CONTINUOUS
 90
3
 70
0
 43
0.3500000006
 10
-70.5941573181
 20
55.1899150085
 10
-72.0941577759
 20
55.1899150085
 10
-71.4513043213
 20
57.5470624695
  0
LWPOLYLINE
  5
643
100
AcDbEntity
  8
0
100
AcDbPolyline
 62
7
  6
CONTINUOUS
 90
8
 70
0
 43
0.3500000006
 10
-74.8084430237
 20
64.547055542
 10
-73.9513005524
 20
64.547055542
 10
-73.5227315826
 20
64.9756335754
 10
-73.5227315826
 20
65.8327715149
 10
-73.9513005524
 20
66.2613495483
 10
-74.8084430237
 20
66.2613495483
 10
-74.8084430237
 20
67.5470564575
 10
-73.5227315826
 20
67.5470564575
  0
ARC
  5
644
100
AcDbEntity
  8
ASSI
100
AcDbCircle
 62
250
  6
CONTINUOUS
 10
-5160.9280938671
 20
13.4802605816
 30
0.0
 40
5137.1921031042
100
AcDbArc
 50
359.8506156946
 51
359.9812272941
  0
ARC
  5
645
100
AcDbEntity
  8
RACCORDO
100
AcDbCircle
 62
250
  6
CONTINUOUS
 10
-5160.9280938671
 20
13.4802605816
 30
0.0
 40
5137.1921031042
100
AcDbArc
 50
359.8506156946
 51
359.9812272941
  0
ARC
  5
646
100
AcDbEntity
  8
ASSI
100
AcDbCircle
 62
250
  6
CONTINUOUS
 10
-5104.4951511094
 20
13.4803884412
 30
0.0
 40
5080.2592364838
100
AcDbArc
 50
359.849781038
 51
359.9811223518
  0
ARC
  5
647
100
AcDbEntity
  8
RACCORDO
100
AcDbCircle
 62
250
  6
CONTINUOUS
 10
-5104.4951511094
 20
13.4803884412
 30
0.0
 40
5080.2592364838
100
AcDbArc
 50
359.849781038
 51
359.9811223518
  0
ARC
  5
648
100
AcDbEntity
  8
0
100
AcDbCircle
 62
7
  6
CONTINUOUS
 10
-17.2482267219
 20
-1.8529406888
 30
0.0
 40
0.5
100
AcDbArc
 50
154.1580672368
 51
205.8419327632
  0
ARC
  5
649
100
AcDbEntity
  8
0
100
AcDbCircle
 62
7
  6
CONTINUOUS
 10
-23.8982651772
 20
-0.6029846569
 30
0.0
 40
0.4999576362
100
AcDbArc
 50
179.9687347084
 51
269.9607896946
  0
CIRCLE
  5
64A
100
AcDbEntity
  8
CURVE
100
AcDbCircle
 62
250
  6
CONTINUOUS
 10
-16.0062267219
 20
6.2520593112
 30
0.0
 40
0.325
  0
ARC
  5
64B
100
AcDbEntity
  8
0
100
AcDbCircle
 62
7
  6
CONTINUOUS
 10
-23.1465239092
 20
-2.9526578006
 30
0.0
 40
0.2517029765
100
AcDbArc
 50
180.0653576146
 51
199.0255885442
  0
ARC
  5
64C
100
AcDbEntity
  8
0
100
AcDbCircle
 62
7
  6
CONTINUOUS
 10
-20.7485096101
 20
-2.951237876
 30
0.0
 40
0.2517029765
100
AcDbArc
 50
270.0653576146
 51
289.0255885442
  0
ARC
  5
64D
100
AcDbEntity
  8
0
100
AcDbCircle
 62
7
  6
CONTINUOUS
 10
-23.1482042152
 20
-2.9525638129
 30
0.0
 40
0.2503768773
100
AcDbArc
 50
250.9198302592
 51
269.9938814446
  0
ARC
  5
64E
100
AcDbEntity
  8
0
100
AcDbCircle
 62
7
  6
CONTINUOUS
 10
-20.7486035978
 20
-2.9529181821
 30
0.0
 40
0.2503768773
100
AcDbArc
 50
340.9198302592
 51
359.9938814446
  0
ARC
  5
64F
100
AcDbEntity
  8
0
100
AcDbCircle
 62
7
  6
CONTINUOUS
 10
-23.1351215257
 20
-2.9398354925
 30
0.0
 40
0.2500066177
100
AcDbArc
 50
180.0024861811
 51
269.9975138189
  0
ARC
  5
650
100
AcDbEntity
  8
0
100
AcDbCircle
 62
7
  6
CONTINUOUS
 10
-20.7613319182
 20
-2.9398354925
 30
0.0
 40
0.2500066177
100
AcDbArc
 50
270.0024861811
 51
359.9975138189
  0
ARC
  5
651
100
AcDbEntity
  8
0
100
AcDbCircle
 62
7
  6
CONTINUOUS
 10
-23.1482343595
 20
-2.9529483264
 30
0.0
 40
0.2499914143
100
AcDbArc
 50
199.0904347558
 51
250.9095652442
  0
ARC
  5
652
100
AcDbEntity
  8
0
100
AcDbCircle
 62
7
  6
CONTINUOUS
 10
-20.7482190844
 20
-2.9529483264
 30
0.0
 40
0.2499914143
100
AcDbArc
 50
289.0904347558
 51
340.9095652442
  0
ARC
  5
653
100
AcDbEntity
  8
0
100
AcDbCircle
 62
7
  6
CONTINUOUS
 10
-14.450867278
 20
-2.5011813061
 30
0.0
 40
0.200007265
100
AcDbArc
 50
270.0042626759
 51
359.9969493805
  0
ARC
  5
654
100
AcDbEntity
  8
0
100
AcDbCircle
 62
7
  6
CONTINUOUS
 10
-14.4482199654
 20
-2.5029474454
 30
0.0
 40
0.1999932435
100
AcDbArc
 50
269.9987915599
 51
359.9999963837
  0
ARC
  5
655
100
AcDbEntity
  8
CURVE
100
AcDbCircle
 62
250
  6
CONTINUOUS
 10
-15.0276180157
 20
5.6870593112
 30
0.0
 40
0.15
100
AcDbArc
 50
240.0
 51
60.0
  0
ARC
  5
656
100
AcDbEntity
  8
CURVE
100
AcDbCircle
 62
250
  6
CONTINUOUS
 10
-15.2874256368
 20
5.8370593112
 30
0.0
 40
0.15
100
AcDbArc
 50
60.0
 51
240.0
  0
ARC
  5
657
100
AcDbEntity
  8
CURVE
100
AcDbCircle
 62
250
  6
CONTINUOUS
 10
-15.0276180157
 20
6.8170593112
 30
0.0
 40
0.15
100
AcDbArc
 50
300.0
 51
120.0
  0
ARC
  5
658
100
AcDbEntity
  8
CURVE
100
AcDbCircle
 62
250
  6
CONTINUOUS
 10
-16.9848354282
 20
5.6870593112
 30
0.0
 40
0.15
100
AcDbArc
 50
120.0
 51
300.0
  0
ARC
  5
659
100
AcDbEntity
  8
CURVE
100
AcDbCircle
 62
250
  6
CONTINUOUS
 10
-15.2874256368
 20
6.6670593112
 30
0.0
 40
0.15
100
AcDbArc
 50
120.0
 51
300.0
  0
ARC
  5
65A
100
AcDbEntity
  8
CURVE
100
AcDbCircle
 62
250
  6
CONTINUOUS
 10
-16.7250278071
 20
5.8370593112
 30
0.0
 40
0.15
100
AcDbArc
 50
300.0
 51
120.0
  0
ARC
  5
65B
100
AcDbEntity
  8
CURVE
100
AcDbCircle
 62
250
  6
CONTINUOUS
 10
-16.9848354282
 20
6.8170593112
 30
0.0
 40
0.15
100
AcDbArc
 50
60.0
 51
240.0
  0
ARC
  5
65C
100
AcDbEntity
  8
CURVE
100
AcDbCircle
 62
250
  6
CONTINUOUS
 10
-16.7250278071
 20
6.6670593112
 30
0.0
 40
0.15
100
AcDbArc
 50
240.0
 51
60.0
  0
ARC
  5
65D
100
AcDbEntity
  8
CURVE
100
AcDbCircle
 62
250
  6
CONTINUOUS
 10
-16.0021291371
 20
5.4221115065
 30
0.0
 40
0.1499579198
100
AcDbArc
 50
0.000158289
 51
180.000158289
  0
ARC
  5
65E
100
AcDbEntity
  8
CURVE
100
AcDbCircle
 62
250
  6
CONTINUOUS
 10
-16.0021283081
 20
7.3820939593
 30
0.0
 40
0.1499579198
100
AcDbArc
 50
359.999841711
 51
179.999841711
  0
ARC
  5
65F
100
AcDbEntity
  8
CURVE
100
AcDbCircle
 62
250
  6
CONTINUOUS
 10
-16.0021291371
 20
7.0820071159
 30
0.0
 40
0.1499579198
100
AcDbArc
 50
179.999841711
 51
359.999841711
  0
ARC
  5
660
100
AcDbEntity
  8
CURVE
100
AcDbCircle
 62
250
  6
CONTINUOUS
 10
-16.0021283081
 20
5.1220246631
 30
0.0
 40
0.1499579198
100
AcDbArc
 50
180.000158289
 51
0.000158289
  0
ARC
  5
661
100
AcDbEntity
  8
ASSI
100
AcDbCircle
 62
250
  6
CONTINUOUS
 10
-5132.5983345428
 20
29.1554306626
 30
0.0
 40
5108.8623317811
100
AcDbArc
 50
0.0184105806
 51
0.1497464386
  0
ARC
  5
662
100
AcDbEntity
  8
RACCORDO
100
AcDbCircle
 62
250
  6
CONTINUOUS
 10
-5132.5983345428
 20
29.1554306626
 30
0.0
 40
5108.8623317811
100
AcDbArc
 50
0.0184105806
 51
0.1497464386
  0
ARC
  5
663
100
AcDbEntity
  8
ASSI
100
AcDbCircle
 62
250
  6
CONTINUOUS
 10
-5076.4870352649
 20
29.1550602838
 30
0.0
 40
5052.2511086441
100
AcDbArc
 50
0.0185135901
 51
0.1505830201
  0
ARC
  5
664
100
AcDbEntity
  8
RACCORDO
100
AcDbCircle
 62
250
  6
CONTINUOUS
 10
-5076.4870352649
 20
29.1550602838
 30
0.0
 40
5052.2511086441
100
AcDbArc
 50
0.0185135901
 51
0.1505830201
  0
ARC
  5
665
100
AcDbEntity
  8
0
100
AcDbCircle
 62
7
  6
CONTINUOUS
 10
-17.2482267219
 20
44.4470593112
 30
0.0
 40
0.5
100
AcDbArc
 50
154.1580672368
 51
205.8419327632
  0
ARC
  5
666
100
AcDbEntity
  8
0
100
AcDbCircle
 62
7
  6
CONTINUOUS
 10
-23.8982651351
 20
43.1971033215
 30
0.0
 40
0.4999576362
100
AcDbArc
 50
90.0392151342
 51
180.0312701179
  0
ARC
  5
667
100
AcDbEntity
  8
0
100
AcDbCircle
 62
7
  6
CONTINUOUS
 10
-20.7499295347
 20
45.5467764231
 30
0.0
 40
0.2517029765
100
AcDbArc
 50
0.0653576146
 51
19.0255885442
  0
ARC
  5
668
100
AcDbEntity
  8
0
100
AcDbCircle
 62
7
  6
CONTINUOUS
 10
-23.1479438338
 20
45.5453564984
 30
0.0
 40
0.2517029765
100
AcDbArc
 50
90.0653576146
 51
109.0255885442
  0
ARC
  5
669
100
AcDbEntity
  8
0
100
AcDbCircle
 62
7
  6
CONTINUOUS
 10
-20.7482492286
 20
45.5466824353
 30
0.0
 40
0.2503768773
100
AcDbArc
 50
70.9198302592
 51
89.9938814446
  0
ARC
  5
66A
100
AcDbEntity
  8
0
100
AcDbCircle
 62
7
  6
CONTINUOUS
 10
-23.1478498461
 20
45.5470368045
 30
0.0
 40
0.2503768773
100
AcDbArc
 50
160.9198302592
 51
179.9938814446
  0
ARC
  5
66B
100
AcDbEntity
  8
0
100
AcDbCircle
 62
7
  6
CONTINUOUS
 10
-20.7613319182
 20
45.533954115
 30
0.0
 40
0.2500066177
100
AcDbArc
 50
0.0024861811
 51
89.9975138189
  0
ARC
  5
66C
100
AcDbEntity
  8
0
100
AcDbCircle
 62
7
  6
CONTINUOUS
 10
-23.1351215257
 20
45.533954115
 30
0.0
 40
0.2500066177
100
AcDbArc
 50
90.0024861811
 51
179.9975138189
  0
ARC
  5
66D
100
AcDbEntity
  8
0
100
AcDbCircle
 62
7
  6
CONTINUOUS
 10
-20.7482190844
 20
45.5470669488
 30
0.0
 40
0.2499914143
100
AcDbArc
 50
19.0904347558
 51
70.9095652442
  0
ARC
  5
66E
100
AcDbEntity
  8
0
100
AcDbCircle
 62
7
  6
CONTINUOUS
 10
-23.1482343595
 20
45.5470669488
 30
0.0
 40
0.2499914143
100
AcDbArc
 50
109.0904347558
 51
160.9095652442
  0
ARC
  5
66F
100
AcDbEntity
  8
0
100
AcDbCircle
 62
7
  6
CONTINUOUS
 10
-14.450867278
 20
45.0952999285
 30
0.0
 40
0.200007265
100
AcDbArc
 50
0.0030506195
 51
89.9957373241
  0
ARC
  5
670
100
AcDbEntity
  8
0
100
AcDbCircle
 62
7
  6
CONTINUOUS
 10
-14.4482199654
 20
45.0970660678
 30
0.0
 40
0.1999932435
100
AcDbArc
 50
0.0000036163
 51
90.0012084401
  0
ARC
  5
671
100
AcDbEntity
  8
ASSI
100
AcDbCircle
 62
250
  6
CONTINUOUS
 10
5106.1021258925
 20
13.4386884976
 30
0.0
 40
5108.8625765753
100
AcDbArc
 50
180.0184105738
 51
180.1497464376
  0
ARC
  5
672
100
AcDbEntity
  8
RACCORDO
100
AcDbCircle
 62
250
  6
CONTINUOUS
 10
5106.1021258925
 20
13.4386884976
 30
0.0
 40
5108.8625765753
100
AcDbArc
 50
180.0184105738
 51
180.1497464376
  0
ARC
  5
673
100
AcDbEntity
  8
ASSI
100
AcDbCircle
 62
250
  6
CONTINUOUS
 10
5049.9906191432
 20
13.4390583937
 30
0.0
 40
5052.2511459664
100
AcDbArc
 50
180.0185135906
 51
180.1505830196
  0
ARC
  5
674
100
AcDbEntity
  8
RACCORDO
100
AcDbCircle
 62
250
  6
CONTINUOUS
 10
5049.9906191432
 20
13.4390583937
 30
0.0
 40
5052.2511459664
100
AcDbArc
 50
180.0185135906
 51
180.1505830196
  0
ARC
  5
675
100
AcDbEntity
  8
0
100
AcDbCircle
 62
7
  6
CONTINUOUS
 10
-9.2482267219
 20
-1.8529406888
 30
0.0
 40
0.5
100
AcDbArc
 50
334.1580672368
 51
25.8419327632
  0
ARC
  5
676
100
AcDbEntity
  8
0
100
AcDbCircle
 62
7
  6
CONTINUOUS
 10
-2.5981884926
 20
-0.6029844313
 30
0.0
 40
0.4999579139
100
AcDbArc
 50
270.039236179
 51
0.03123942
  0
ARC
  5
677
100
AcDbEntity
  8
0
100
AcDbCircle
 62
7
  6
CONTINUOUS
 10
-3.3485096101
 20
-2.951237876
 30
0.0
 40
0.2517029765
100
AcDbArc
 50
270.0653576146
 51
289.0255885442
  0
ARC
  5
678
100
AcDbEntity
  8
0
100
AcDbCircle
 62
7
  6
CONTINUOUS
 10
-5.7465239092
 20
-2.9526578006
 30
0.0
 40
0.2517029765
100
AcDbArc
 50
180.0653576146
 51
199.0255885442
  0
ARC
  5
679
100
AcDbEntity
  8
0
100
AcDbCircle
 62
7
  6
CONTINUOUS
 10
-3.3486035978
 20
-2.9529181821
 30
0.0
 40
0.2503768773
100
AcDbArc
 50
340.9198302592
 51
359.9938814446
  0
ARC
  5
67A
100
AcDbEntity
  8
0
100
AcDbCircle
 62
7
  6
CONTINUOUS
 10
-5.7482042152
 20
-2.9525638129
 30
0.0
 40
0.2503768773
100
AcDbArc
 50
250.9198302592
 51
269.9938814446
  0
ARC
  5
67B
100
AcDbEntity
  8
0
100
AcDbCircle
 62
7
  6
CONTINUOUS
 10
-3.3613319186
 20
-2.9398354921
 30
0.0
 40
0.2500066182
100
AcDbArc
 50
270.0024862874
 51
359.9975137126
  0
ARC
  5
67C
100
AcDbEntity
  8
0
100
AcDbCircle
 62
7
  6
CONTINUOUS
 10
-5.7351215252
 20
-2.9398354921
 30
0.0
 40
0.2500066182
100
AcDbArc
 50
180.0024862874
 51
269.9975137126
  0
ARC
  5
67D
100
AcDbEntity
  8
0
100
AcDbCircle
 62
7
  6
CONTINUOUS
 10
-3.3482190844
 20
-2.9529483264
 30
0.0
 40
0.2499914143
100
AcDbArc
 50
289.0904347558
 51
340.9095652442
  0
ARC
  5
67E
100
AcDbEntity
  8
0
100
AcDbCircle
 62
7
  6
CONTINUOUS
 10
-5.7482343595
 20
-2.9529483264
 30
0.0
 40
0.2499914143
100
AcDbArc
 50
199.0904347558
 51
250.9095652442
  0
ARC
  5
67F
100
AcDbEntity
  8
0
100
AcDbCircle
 62
7
  6
CONTINUOUS
 10
-12.0455861658
 20
-2.5011813061
 30
0.0
 40
0.200007265
100
AcDbArc
 50
180.0030506195
 51
269.9957373241
  0
ARC
  5
680
100
AcDbEntity
  8
0
100
AcDbCircle
 62
7
  6
CONTINUOUS
 10
-12.0482334785
 20
-2.5029474454
 30
0.0
 40
0.1999932435
100
AcDbArc
 50
180.0000036163
 51
270.0012084401
  0
ARC
  5
681
100
AcDbEntity
  8
ASSI
100
AcDbCircle
 62
250
  6
CONTINUOUS
 10
5134.4311312038
 20
29.1138589647
 30
0.0
 40
5137.1915938841
100
AcDbArc
 50
179.8506156902
 51
179.9812272906
  0
ARC
  5
682
100
AcDbEntity
  8
RACCORDO
100
AcDbCircle
 62
250
  6
CONTINUOUS
 10
5134.4311312038
 20
29.1138589647
 30
0.0
 40
5137.1915938841
100
AcDbArc
 50
179.8506156902
 51
179.9812272906
  0
ARC
  5
683
100
AcDbEntity
  8
ASSI
100
AcDbCircle
 62
250
  6
CONTINUOUS
 10
5077.9987349905
 20
29.1137301262
 30
0.0
 40
5080.2592738088
100
AcDbArc
 50
179.8497810385
 51
179.9811223513
  0
ARC
  5
684
100
AcDbEntity
  8
RACCORDO
100
AcDbCircle
 62
250
  6
CONTINUOUS
 10
5077.9987349905
 20
29.1137301262
 30
0.0
 40
5080.2592738088
100
AcDbArc
 50
179.8497810385
 51
179.9811223513
  0
ARC
  5
685
100
AcDbEntity
  8
0
100
AcDbCircle
 62
7
  6
CONTINUOUS
 10
-9.2482267219
 20
44.4470593112
 30
0.0
 40
0.5
100
AcDbArc
 50
334.1580672368
 51
25.8419327632
  0
ARC
  5
686
100
AcDbEntity
  8
0
100
AcDbCircle
 62
7
  6
CONTINUOUS
 10
-2.5981885346
 20
43.1971030958
 30
0.0
 40
0.4999579139
100
AcDbArc
 50
359.9687557597
 51
89.9607590022
  0
ARC
  5
687
100
AcDbEntity
  8
0
100
AcDbCircle
 62
7
  6
CONTINUOUS
 10
-3.3499295347
 20
45.5467764231
 30
0.0
 40
0.2517029765
100
AcDbArc
 50
0.0653576146
 51
19.0255885442
  0
ARC
  5
688
100
AcDbEntity
  8
0
100
AcDbCircle
 62
7
  6
CONTINUOUS
 10
-5.7479438338
 20
45.5453564984
 30
0.0
 40
0.2517029765
100
AcDbArc
 50
90.0653576146
 51
109.0255885442
  0
ARC
  5
689
100
AcDbEntity
  8
0
100
AcDbCircle
 62
7
  6
CONTINUOUS
 10
-3.3482492286
 20
45.5466824353
 30
0.0
 40
0.2503768773
100
AcDbArc
 50
70.9198302592
 51
89.9938814446
  0
ARC
  5
68A
100
AcDbEntity
  8
0
100
AcDbCircle
 62
7
  6
CONTINUOUS
 10
-5.7478498461
 20
45.5470368045
 30
0.0
 40
0.2503768773
100
AcDbArc
 50
160.9198302592
 51
179.9938814446
  0
ARC
  5
68B
100
AcDbEntity
  8
0
100
AcDbCircle
 62
7
  6
CONTINUOUS
 10
-3.3613319186
 20
45.5339541145
 30
0.0
 40
0.2500066182
100
AcDbArc
 50
0.0024862874
 51
89.9975137126
  0
ARC
  5
68C
100
AcDbEntity
  8
0
100
AcDbCircle
 62
7
  6
CONTINUOUS
 10
-5.7351215257
 20
45.533954115
 30
0.0
 40
0.2500066177
100
AcDbArc
 50
90.0024861811
 51
179.9975138189
  0
ARC
  5
68D
100
AcDbEntity
  8
0
100
AcDbCircle
 62
7
  6
CONTINUOUS
 10
-3.3482190844
 20
45.5470669488
 30
0.0
 40
0.2499914143
100
AcDbArc
 50
19.0904347558
 51
70.9095652442
  0
ARC
  5
68E
100
AcDbEntity
  8
0
100
AcDbCircle
 62
7
  6
CONTINUOUS
 10
-5.7482343595
 20
45.5470669488
 30
0.0
 40
0.2499914143
100
AcDbArc
 50
109.0904347558
 51
160.9095652442
  0
ARC
  5
68F
100
AcDbEntity
  8
0
100
AcDbCircle
 62
7
  6
CONTINUOUS
 10
-12.0455861658
 20
45.0952999285
 30
0.0
 40
0.200007265
100
AcDbArc
 50
90.0042626759
 51
179.9969493805
  0
ARC
  5
690
100
AcDbEntity
  8
0
100
AcDbCircle
 62
7
  6
CONTINUOUS
 10
-12.0482334785
 20
45.0970660678
 30
0.0
 40
0.1999932435
100
AcDbArc
 50
89.9987915599
 51
179.9999963837
  0
ARC
  5
691
100
AcDbEntity
  8
ASSI
100
AcDbCircle
 62
7
  6
CONTINUOUS
 10
-96.3107749197
 20
0.2354609033
 30
0.0
 40
1.0
100
AcDbArc
 50
188.5758681007
 51
267.0
  0
ARC
  5
692
100
AcDbEntity
  8
RACCORDO
100
AcDbCircle
 62
7
  6
CONTINUOUS
 10
-96.3107749197
 20
0.2354609033
 30
0.0
 40
1.0
100
AcDbArc
 50
188.5758681007
 51
267.0
  0
ARC
  5
693
100
AcDbEntity
  8
ASSI
100
AcDbCircle
 62
250
  6
CONTINUOUS
 10
-96.319501075
 20
0.2354609561
 30
0.0
 40
0.5000000552
100
AcDbArc
 50
188.5758847678
 51
266.999994837
  0
ARC
  5
694
100
AcDbEntity
  8
RACCORDO
100
AcDbCircle
 62
250
  6
CONTINUOUS
 10
-96.319501075
 20
0.2354609561
 30
0.0
 40
0.5000000552
100
AcDbArc
 50
188.5758847678
 51
266.999994837
  0
ARC
  5
695
100
AcDbEntity
  8
0
100
AcDbCircle
 62
7
  6
CONTINUOUS
 10
-92.1298738069
 20
-2.9398463408
 30
0.0
 40
0.25
100
AcDbArc
 50
180.0
 51
269.6666666667
  0
ARC
  5
696
100
AcDbEntity
  8
0
100
AcDbCircle
 62
7
  6
CONTINUOUS
 10
-92.1298738069
 20
-2.5472782561
 30
0.0
 40
0.25
100
AcDbArc
 50
120.0
 51
180.0
  0
ARC
  5
697
100
AcDbEntity
  8
0
100
AcDbCircle
 62
7
  6
CONTINUOUS
 10
-89.1298738069
 20
-2.9485730856
 30
0.0
 40
0.25
100
AcDbArc
 50
270.3333333333
 51
360.0
  0
ARC
  5
698
100
AcDbEntity
  8
0
100
AcDbCircle
 62
7
  6
CONTINUOUS
 10
-89.1298738069
 20
-2.5472782561
 30
0.0
 40
0.25
100
AcDbArc
 50
0.0
 51
60.0
  0
ARC
  5
699
100
AcDbEntity
  8
0
100
AcDbCircle
 62
7
  6
CONTINUOUS
 10
-103.9143910047
 20
7.3332004683
 30
0.0
 40
12.5748889826
100
AcDbArc
 50
3.3657134195
 51
3.7124396436
  0
ARC
  5
69A
100
AcDbEntity
  8
0
100
AcDbCircle
 62
7
  6
CONTINUOUS
 10
-78.8798738069
 20
-0.0389276374
 30
0.0
 40
1.0
100
AcDbArc
 50
270.3333333333
 51
360.0
  0
ARC
  5
69B
100
AcDbEntity
  8
0
100
AcDbCircle
 62
7
  6
CONTINUOUS
 10
-82.3798738069
 20
-2.1592985035
 30
0.0
 40
0.5
100
AcDbArc
 50
270.3333333333
 51
360.0
  0
ARC
  5
69C
100
AcDbEntity
  8
0
100
AcDbCircle
 62
7
  6
CONTINUOUS
 10
-68.764703526
 20
5.7631325718
 30
0.0
 40
44.7858999154
100
AcDbArc
 50
119.9611189427
 51
120.3288190334
  0
ARC
  5
69D
100
AcDbEntity
  8
0
100
AcDbCircle
 62
7
  6
CONTINUOUS
 10
-80.0393836585
 20
2.3970593112
 30
0.0
 40
0.7
100
AcDbArc
 50
77.0
 51
90.0
  0
ARC
  5
69E
100
AcDbEntity
  8
RACCORDO
100
AcDbCircle
 62
250
  6
CONTINUOUS
 10
-77.4401436469
 20
2.2936909093
 30
0.0
 40
0.4138391599
100
AcDbArc
 50
346.2783836172
 51
0.502713824
  0
ARC
  5
69F
100
AcDbEntity
  8
0
100
AcDbCircle
 62
250
  6
CONTINUOUS
 10
-77.4401436469
 20
2.2936909093
 30
0.0
 40
0.4138391599
100
AcDbArc
 50
346.2783836172
 51
0.502713824
  0
ARC
  5
6A0
100
AcDbEntity
  8
RACCORDO
100
AcDbCircle
 62
7
  6
CONTINUOUS
 10
-77.1799281881
 20
2.298343437
 30
0.0
 40
0.3
100
AcDbArc
 50
271.0103876392
 51
0.0001812564
  0
ARC
  5
6A1
100
AcDbEntity
  8
0
100
AcDbCircle
 62
7
  6
CONTINUOUS
 10
-77.1798738069
 20
2.2983443862
 30
0.0
 40
0.3
100
AcDbArc
 50
271.0
 51
360.0
  0
ARC
  5
6A2
100
AcDbEntity
  8
RACCORDO
100
AcDbCircle
 62
7
  6
CONTINUOUS
 10
-57.2798738069
 20
16.7970593112
 30
0.0
 40
0.5
100
AcDbArc
 50
180.0
 51
270.0
  0
ARC
  5
6A3
100
AcDbEntity
  8
ASSI
100
AcDbCircle
 62
7
  6
CONTINUOUS
 10
-57.2798738069
 20
16.7970593112
 30
0.0
 40
0.5
100
AcDbArc
 50
180.0
 51
270.0
  0
ARC
  5
6A4
100
AcDbEntity
  8
ASSI
100
AcDbCircle
 62
7
  6
CONTINUOUS
 10
-57.3798738069
 20
16.6970593112
 30
0.0
 40
0.5
100
AcDbArc
 50
180.0
 51
270.0
  0
ARC
  5
6A5
100
AcDbEntity
  8
RACCORDO
100
AcDbCircle
 62
7
  6
CONTINUOUS
 10
-52.5749344304
 20
2.0293170403
 30
0.0
 40
0.3
100
AcDbArc
 50
179.9999887354
 51
269.4987091308
  0
ARC
  5
6A6
100
AcDbEntity
  8
ASSI
100
AcDbCircle
 62
7
  6
CONTINUOUS
 10
-52.5749344304
 20
2.0293170403
 30
0.0
 40
0.3
100
AcDbArc
 50
179.9999887354
 51
269.4987091308
  0
ARC
  5
6A7
100
AcDbEntity
  8
RACCORDO
100
AcDbCircle
 62
250
  6
CONTINUOUS
 10
-52.517501812
 20
1.879454071
 30
0.0
 40
0.1506440142
100
AcDbArc
 50
258.8882920406
 51
269.4375861079
  0
ARC
  5
6A8
100
AcDbEntity
  8
ASSI
100
AcDbCircle
 62
250
  6
CONTINUOUS
 10
-52.517501812
 20
1.879454071
 30
0.0
 40
0.1506440142
100
AcDbArc
 50
258.8882920406
 51
269.4375861079
  0
ARC
  5
6A9
100
AcDbEntity
  8
ASSI
100
AcDbCircle
 62
7
  6
CONTINUOUS
 10
-8.3058621267
 20
13.5070593112
 30
0.0
 40
90.0
100
AcDbArc
 50
181.088670493
 51
188.575879477
  0
ARC
  5
6AA
100
AcDbEntity
  8
CURVE
100
AcDbCircle
 62
250
  6
CONTINUOUS
 10
-8.3058621267
 20
13.5070593112
 30
0.0
 40
90.0
100
AcDbArc
 50
183.9022905217
 51
184.4121275571
  0
ARC
  5
6AB
100
AcDbEntity
  8
RACCORDO
100
AcDbCircle
 62
7
  6
CONTINUOUS
 10
-8.3058621267
 20
13.5070593112
 30
0.0
 40
90.0
100
AcDbArc
 50
181.088670493
 51
188.575879477
  0
ARC
  5
6AC
100
AcDbEntity
  8
ASSI
100
AcDbCircle
 62
250
  6
CONTINUOUS
 10
-8.3150577999
 20
13.5070196223
 30
0.0
 40
89.4995298606
100
AcDbArc
 50
181.0886656269
 51
188.5758992979
  0
ARC
  5
6AD
100
AcDbEntity
  8
RACCORDO
100
AcDbCircle
 62
250
  6
CONTINUOUS
 10
-8.3150577999
 20
13.5070196223
 30
0.0
 40
89.4995298606
100
AcDbArc
 50
181.0886656269
 51
188.5758992979
  0
ARC
  5
6AE
100
AcDbEntity
  8
RACCORDO
100
AcDbCircle
 62
250
  6
CONTINUOUS
 10
-53.6324791036
 20
20.2970593112
 30
0.0
 40
2.45
100
AcDbArc
 50
90.000296159
 51
269.999703841
  0
ARC
  5
6AF
100
AcDbEntity
  8
ASSI
100
AcDbCircle
 62
250
  6
CONTINUOUS
 10
-53.6324791036
 20
20.2970593112
 30
0.0
 40
2.45
100
AcDbArc
 50
90.000296159
 51
269.999703841
  0
ARC
  5
6B0
100
AcDbEntity
  8
RACCORDO
100
AcDbCircle
 62
7
  6
CONTINUOUS
 10
-53.6298738069
 20
20.2970593112
 30
0.0
 40
2.15
100
AcDbArc
 50
90.0
 51
270.0
  0
ARC
  5
6B1
100
AcDbEntity
  8
ASSI
100
AcDbCircle
 62
7
  6
CONTINUOUS
 10
-53.6298738069
 20
20.2970593112
 30
0.0
 40
2.15
100
AcDbArc
 50
90.0
 51
270.0
  0
CIRCLE
  5
6B2
100
AcDbEntity
  8
ASSI
100
AcDbCircle
 62
7
  6
CONTINUOUS
 10
-53.2798738069
 20
20.2970593112
 30
0.0
 40
2.0
  0
ARC
  5
6B3
100
AcDbEntity
  8
RACCORDO
100
AcDbCircle
 62
250
  6
CONTINUOUS
 10
-53.6324791036
 20
35.2970593112
 30
0.0
 40
2.45
100
AcDbArc
 50
90.000296159
 51
269.999703841
  0
ARC
  5
6B4
100
AcDbEntity
  8
RACCORDO
100
AcDbCircle
 62
250
  6
CONTINUOUS
 10
-53.6324791036
 20
30.2970593112
 30
0.0
 40
2.45
100
AcDbArc
 50
90.000296159
 51
269.999703841
  0
ARC
  5
6B5
100
AcDbEntity
  8
RACCORDO
100
AcDbCircle
 62
250
  6
CONTINUOUS
 10
-53.6324791036
 20
25.2970593112
 30
0.0
 40
2.45
100
AcDbArc
 50
90.000296159
 51
269.999703841
  0
ARC
  5
6B6
100
AcDbEntity
  8
ASSI
100
AcDbCircle
 62
250
  6
CONTINUOUS
 10
-53.6324791036
 20
35.2970593112
 30
0.0
 40
2.45
100
AcDbArc
 50
90.000296159
 51
269.999703841
  0
ARC
  5
6B7
100
AcDbEntity
  8
ASSI
100
AcDbCircle
 62
250
  6
CONTINUOUS
 10
-53.6324791036
 20
30.2970593112
 30
0.0
 40
2.45
100
AcDbArc
 50
90.000296159
 51
269.999703841
  0
ARC
  5
6B8
100
AcDbEntity
  8
ASSI
100
AcDbCircle
 62
250
  6
CONTINUOUS
 10
-53.6324791036
 20
25.2970593112
 30
0.0
 40
2.45
100
AcDbArc
 50
90.000296159
 51
269.999703841
  0
ARC
  5
6B9
100
AcDbEntity
  8
RACCORDO
100
AcDbCircle
 62
7
  6
CONTINUOUS
 10
-53.6298738069
 20
35.2970593112
 30
0.0
 40
2.15
100
AcDbArc
 50
90.0
 51
270.0
  0
ARC
  5
6BA
100
AcDbEntity
  8
RACCORDO
100
AcDbCircle
 62
7
  6
CONTINUOUS
 10
-53.6298738069
 20
30.2970593112
 30
0.0
 40
2.15
100
AcDbArc
 50
90.0
 51
270.0
  0
ARC
  5
6BB
100
AcDbEntity
  8
RACCORDO
100
AcDbCircle
 62
7
  6
CONTINUOUS
 10
-53.6298738069
 20
25.2970593112
 30
0.0
 40
2.15
100
AcDbArc
 50
90.0
 51
270.0
  0
ARC
  5
6BC
100
AcDbEntity
  8
ASSI
100
AcDbCircle
 62
7
  6
CONTINUOUS
 10
-53.6298738069
 20
25.2970593112
 30
0.0
 40
2.15
100
AcDbArc
 50
90.0
 51
270.0
  0
ARC
  5
6BD
100
AcDbEntity
  8
ASSI
100
AcDbCircle
 62
7
  6
CONTINUOUS
 10
-53.6298738069
 20
30.2970593112
 30
0.0
 40
2.15
100
AcDbArc
 50
90.0
 51
270.0
  0
ARC
  5
6BE
100
AcDbEntity
  8
ASSI
100
AcDbCircle
 62
7
  6
CONTINUOUS
 10
-53.6298738069
 20
35.2970593112
 30
0.0
 40
2.15
100
AcDbArc
 50
90.0
 51
270.0
  0
CIRCLE
  5
6BF
100
AcDbEntity
  8
ASSI
100
AcDbCircle
 62
7
  6
CONTINUOUS
 10
-53.2798738069
 20
35.2970593112
 30
0.0
 40
2.0
  0
CIRCLE
  5
6C0
100
AcDbEntity
  8
ASSI
100
AcDbCircle
 62
7
  6
CONTINUOUS
 10
-53.2798738069
 20
30.2970593112
 30
0.0
 40
2.0
  0
CIRCLE
  5
6C1
100
AcDbEntity
  8
ASSI
100
AcDbCircle
 62
7
  6
CONTINUOUS
 10
-53.2798738069
 20
25.2970593112
 30
0.0
 40
2.0
  0
ARC
  5
6C2
100
AcDbEntity
  8
0
100
AcDbCircle
 62
7
  6
CONTINUOUS
 10
-80.0393836585
 20
40.1970593112
 30
0.0
 40
0.7
100
AcDbArc
 50
270.0
 51
283.0
  0
ARC
  5
6C3
100
AcDbEntity
  8
ASSI
100
AcDbCircle
 62
7
  6
CONTINUOUS
 10
-96.3107749197
 20
42.3586577191
 30
0.0
 40
1.0
100
AcDbArc
 50
93.0
 51
171.4241324726
  0
ARC
  5
6C4
100
AcDbEntity
  8
RACCORDO
100
AcDbCircle
 62
7
  6
CONTINUOUS
 10
-96.3107749197
 20
42.3586577191
 30
0.0
 40
1.0
100
AcDbArc
 50
93.0
 51
171.4241324726
  0
ARC
  5
6C5
100
AcDbEntity
  8
ASSI
100
AcDbCircle
 62
250
  6
CONTINUOUS
 10
-96.3195010758
 20
42.3586576672
 30
0.0
 40
0.5000000544
100
AcDbArc
 50
93.0000050822
 51
171.424115313
  0
ARC
  5
6C6
100
AcDbEntity
  8
RACCORDO
100
AcDbCircle
 62
250
  6
CONTINUOUS
 10
-96.3195010758
 20
42.3586576672
 30
0.0
 40
0.5000000544
100
AcDbArc
 50
93.0000050822
 51
171.424115313
  0
ARC
  5
6C7
100
AcDbEntity
  8
0
100
AcDbCircle
 62
7
  6
CONTINUOUS
 10
-82.3798738069
 20
44.7534171259
 30
0.0
 40
0.5
100
AcDbArc
 50
0.0
 51
89.6666666667
  0
ARC
  5
6C8
100
AcDbEntity
  8
0
100
AcDbCircle
 62
7
  6
CONTINUOUS
 10
-89.1298738069
 20
45.1413968785
 30
0.0
 40
0.25
100
AcDbArc
 50
300.0
 51
360.0
  0
ARC
  5
6C9
100
AcDbEntity
  8
0
100
AcDbCircle
 62
7
  6
CONTINUOUS
 10
-89.1298738069
 20
45.542691708
 30
0.0
 40
0.25
100
AcDbArc
 50
0.0
 51
89.6666666667
  0
ARC
  5
6CA
100
AcDbEntity
  8
0
100
AcDbCircle
 62
7
  6
CONTINUOUS
 10
-92.1298738069
 20
45.5339649633
 30
0.0
 40
0.25
100
AcDbArc
 50
90.3333333333
 51
180.0
  0
ARC
  5
6CB
100
AcDbEntity
  8
0
100
AcDbCircle
 62
7
  6
CONTINUOUS
 10
-92.1298738069
 20
45.1413968785
 30
0.0
 40
0.25
100
AcDbArc
 50
180.0
 51
240.0
  0
ARC
  5
6CC
100
AcDbEntity
  8
0
100
AcDbCircle
 62
7
  6
CONTINUOUS
 10
-68.7647035265
 20
36.8309860498
 30
0.0
 40
44.7858999144
100
AcDbArc
 50
239.6711809666
 51
240.0388810573
  0
ARC
  5
6CD
100
AcDbEntity
  8
RACCORDO
100
AcDbCircle
 62
7
  6
CONTINUOUS
 10
-76.1553909902
 20
39.608635925
 30
0.0
 40
0.7693855103
100
AcDbArc
 50
185.9652891248
 51
188.3449555659
  0
ARC
  5
6CE
100
AcDbEntity
  8
0
100
AcDbCircle
 62
7
  6
CONTINUOUS
 10
-76.1553909902
 20
39.608635925
 30
0.0
 40
0.7693855103
100
AcDbArc
 50
185.9652891248
 51
188.3449555659
  0
ARC
  5
6CF
100
AcDbEntity
  8
RACCORDO
100
AcDbCircle
 62
250
  6
CONTINUOUS
 10
-77.4401483499
 20
40.3004263726
 30
0.0
 40
0.4138438677
100
AcDbArc
 50
359.4974774658
 51
13.7201409653
  0
ARC
  5
6D0
100
AcDbEntity
  8
0
100
AcDbCircle
 62
250
  6
CONTINUOUS
 10
-77.4401483499
 20
40.3004263726
 30
0.0
 40
0.4138438677
100
AcDbArc
 50
359.4974774658
 51
13.7201409653
  0
ARC
  5
6D1
100
AcDbEntity
  8
RACCORDO
100
AcDbCircle
 62
7
  6
CONTINUOUS
 10
-77.1798724734
 20
40.295774213
 30
0.0
 40
0.3
100
AcDbArc
 50
0.0
 51
89.0002547067
  0
ARC
  5
6D2
100
AcDbEntity
  8
0
100
AcDbCircle
 62
7
  6
CONTINUOUS
 10
-77.1798738069
 20
40.2957742362
 30
0.0
 40
0.3
100
AcDbArc
 50
0.0
 51
89.0
  0
ARC
  5
6D3
100
AcDbEntity
  8
RACCORDO
100
AcDbCircle
 62
7
  6
CONTINUOUS
 10
-61.5798670481
 20
40.4862167257
 30
0.0
 40
0.3
100
AcDbArc
 50
90.5012908692
 51
180.0000112646
  0
ARC
  5
6D4
100
AcDbEntity
  8
ASSI
100
AcDbCircle
 62
7
  6
CONTINUOUS
 10
-61.5798670481
 20
40.4862167257
 30
0.0
 40
0.3
100
AcDbArc
 50
90.5012908692
 51
180.0000112646
  0
ARC
  5
6D5
100
AcDbEntity
  8
RACCORDO
100
AcDbCircle
 62
250
  6
CONTINUOUS
 10
-61.5224344427
 20
40.636079886
 30
0.0
 40
0.1506438231
100
AcDbArc
 50
90.5624096548
 51
101.1114585666
  0
ARC
  5
6D6
100
AcDbEntity
  8
ASSI
100
AcDbCircle
 62
250
  6
CONTINUOUS
 10
-61.5224344427
 20
40.636079886
 30
0.0
 40
0.1506438231
100
AcDbArc
 50
90.5624096548
 51
101.1114585666
  0
ARC
  5
6D7
100
AcDbEntity
  8
0
100
AcDbCircle
 62
7
  6
CONTINUOUS
 10
-78.8798738069
 20
42.6330462599
 30
0.0
 40
1.0
100
AcDbArc
 50
0.0
 51
89.6666666667
  0
ARC
  5
6D8
100
AcDbEntity
  8
ASSI
100
AcDbCircle
 62
7
  6
CONTINUOUS
 10
-8.3058621267
 20
29.0870593112
 30
0.0
 40
90.0
100
AcDbArc
 50
171.4241205294
 51
178.9113288265
  0
ARC
  5
6D9
100
AcDbEntity
  8
RACCORDO
100
AcDbCircle
 62
7
  6
CONTINUOUS
 10
-8.3058621267
 20
29.0870593112
 30
0.0
 40
90.0
100
AcDbArc
 50
171.4241205294
 51
178.9113288265
  0
ARC
  5
6DA
100
AcDbEntity
  8
ASSI
100
AcDbCircle
 62
250
  6
CONTINUOUS
 10
-8.3150577998
 20
29.0870990001
 30
0.0
 40
89.4995298608
100
AcDbArc
 50
171.4241007021
 51
178.9113343731
  0
ARC
  5
6DB
100
AcDbEntity
  8
RACCORDO
100
AcDbCircle
 62
250
  6
CONTINUOUS
 10
-8.3150577998
 20
29.0870990001
 30
0.0
 40
89.4995298608
100
AcDbArc
 50
171.4241007021
 51
178.9113343731
  0
ARC
  5
6DC
100
AcDbEntity
  8
ASSI
100
AcDbCircle
 62
7
  6
CONTINUOUS
 10
401.6201261931
 20
21.2970593112
 30
0.0
 40
500.0
100
AcDbArc
 50
178.9113172263
 51
181.0886826512
  0
ARC
  5
6DD
100
AcDbEntity
  8
RACCORDO
100
AcDbCircle
 62
7
  6
CONTINUOUS
 10
401.6201261931
 20
21.2970593112
 30
0.0
 40
500.0
100
AcDbArc
 50
178.9113172263
 51
181.0886826512
  0
ARC
  5
6DE
100
AcDbEntity
  8
ASSI
100
AcDbCircle
 62
250
  6
CONTINUOUS
 10
401.6566918066
 20
21.2970593112
 30
0.0
 40
499.5452836415
100
AcDbArc
 50
178.9114133809
 51
181.0885866191
  0
ARC
  5
6DF
100
AcDbEntity
  8
RACCORDO
100
AcDbCircle
 62
250
  6
CONTINUOUS
 10
401.6566918066
 20
21.2970593112
 30
0.0
 40
499.5452836415
100
AcDbArc
 50
178.9114133809
 51
181.0885866191
  0
SPLINE
  5
6E0
100
AcDbEntity
  8
ASSI
100
AcDbSpline
 62
250
  6
CONTINUOUS
 70
0
 71
3
 72
11
 73
7
 74
0
 42
0.0000001
 43
0.0000001
 44
0.0000000001
 40
0.0
 40
0.0
 40
0.0
 40
0.0
 40
0.2501410029
 40
0.500198936
 40
0.7501404635
 40
1.0
 40
1.0
 40
1.0
 40
1.0
 10
-23.7616245951
 20
43.3572872539
 30
0.0
 10
-23.826623403
 20
43.3572279571
 30
0.0
 10
-23.9580006461
 20
43.3311670305
 30
0.0
 10
-24.1240306702
 20
43.2200053552
 30
0.0
 10
-24.2353741832
 20
43.0541754157
 30
0.0
 10
-24.2614890679
 20
42.9228981556
 30
0.0
 10
-24.2615484427
 20
42.8579724865
 30
0.0
  0
SPLINE
  5
6E1
100
AcDbEntity
  8
ASSI
100
AcDbSpline
 62
250
  6
CONTINUOUS
 70
0
 71
3
 72
14
 73
10
 74
0
 42
0.0000001
 43
0.0000001
 44
0.0000000001
 40
0.0
 40
0.0
 40
0.0
 40
0.0
 40
0.3687440216
 40
0.6838846271
 40
0.806977245
 40
0.9012228162
 40
0.9368208244
 40
0.9646812097
 40
1.0
 40
1.0
 40
1.0
 40
1.0
 10
-23.7534514068
 20
42.5077767988
 30
0.0
 10
-23.8166058971
 20
42.507614253
 30
0.0
 10
-23.9337396502
 20
42.5040360379
 30
0.0
 10
-24.0715443044
 20
42.491615225
 30
0.0
 10
-24.1614972936
 20
42.4759666832
 30
0.0
 10
-24.2034736114
 20
42.4653635086
 30
0.0
 10
-24.2288672323
 20
42.4554210699
 30
0.0
 10
-24.2434064579
 20
42.4477000904
 30
0.0
 10
-24.252679954
 20
42.4392262083
 30
0.0
 10
-24.2533752544
 20
42.4332172607
 30
0.0
  0
SPLINE
  5
6E2
100
AcDbEntity
  8
ASSI
100
AcDbSpline
 62
250
  6
CONTINUOUS
 70
0
 71
3
 72
20
 73
16
 74
0
 42
0.0000001
 43
0.0000001
 44
0.0000000001
 40
0.0
 40
0.0
 40
0.0
 40
0.0
 40
0.1926996389
 40
0.3785152121
 40
0.5498793014
 40
0.7005758141
 40
0.7664149456
 40
0.8250286034
 40
0.8758549739
 40
0.9184645242
 40
0.9524385703
 40
0.97743635
 40
0.9932950133
 40
0.9977737101
 40
1.0
 40
1.0
 40
1.0
 40
1.0
 10
-23.7362665222
 20
30.7970593112
 30
0.0
 10
-23.7683984819
 20
30.7970486567
 30
0.0
 10
-23.8315145366
 20
30.7969121977
 30
0.0
 10
-23.9232035176
 20
30.7963714719
 30
0.0
 10
-24.0078860287
 20
30.795513745
 30
0.0
 10
-24.0725596022
 20
30.7945292294
 30
0.0
 10
-24.1184304985
 20
30.7935811766
 30
0.0
 10
-24.1476474958
 20
30.7928476822
 30
0.0
 10
-24.1729927627
 20
30.7920720963
 30
0.0
 10
-24.194213055
 20
30.7912501724
 30
0.0
 10
-24.2111566164
 20
30.7904362094
 30
0.0
 10
-24.2235471188
 20
30.7895428943
 30
0.0
 10
-24.2311792412
 20
30.788875167
 30
0.0
 10
-24.2347736467
 20
30.7881245806
 30
0.0
 10
-24.2359392895
 20
30.7878327471
 30
0.0
 10
-24.2361903698
 20
30.7875593112
 30
0.0
  0
SPLINE
  5
6E3
100
AcDbEntity
  8
ASSI
100
AcDbSpline
 62
250
  6
CONTINUOUS
 70
0
 71
3
 72
20
 73
16
 74
0
 42
0.0000001
 43
0.0000001
 44
0.0000000001
 40
0.0
 40
0.0
 40
0.0
 40
0.0
 40
0.1926996334
 40
0.3785152018
 40
0.5498792874
 40
0.7005757983
 40
0.7664149297
 40
0.8250285879
 40
0.8758549594
 40
0.9184645115
 40
0.9524385599
 40
0.9774363425
 40
0.9932950094
 40
0.9977737081
 40
1.0
 40
1.0
 40
1.0
 40
1.0
 10
-23.7362665222
 20
11.7970593117
 30
0.0
 10
-23.768398481
 20
11.7970699662
 30
0.0
 10
-23.8315145339
 20
11.7972064252
 30
0.0
 10
-23.9232035126
 20
11.7977471509
 30
0.0
 10
-24.0078860219
 20
11.7986048778
 30
0.0
 10
-24.0725595945
 20
11.7995893933
 30
0.0
 10
-24.1184304905
 20
11.8005374461
 30
0.0
 10
-24.147647488
 20
11.8012709405
 30
0.0
 10
-24.1729927554
 20
11.8020465263
 30
0.0
 10
-24.1942130487
 20
11.8028684501
 30
0.0
 10
-24.211156611
 20
11.8036824132
 30
0.0
 10
-24.2235471152
 20
11.8045757282
 30
0.0
 10
-24.2311792386
 20
11.8052434556
 30
0.0
 10
-24.2347736458
 20
11.8059940419
 30
0.0
 10
-24.2359392889
 20
11.8062858754
 30
0.0
 10
-24.2361903698
 20
11.8065593112
 30
0.0
  0
SPLINE
  5
6E4
100
AcDbEntity
  8
ASSI
100
AcDbSpline
 62
250
  6
CONTINUOUS
 70
0
 71
3
 72
14
 73
10
 74
0
 42
0.0000001
 43
0.0000001
 44
0.0000000001
 40
0.0
 40
0.0
 40
0.0
 40
0.0
 40
0.368739184
 40
0.6838783109
 40
0.8069717846
 40
0.9012190806
 40
0.9368181573
 40
0.9646796452
 40
1.0
 40
1.0
 40
1.0
 40
1.0
 10
-23.7534514068
 20
0.0863440528
 30
0.0
 10
-23.8166049008
 20
0.0865065894
 30
0.0
 10
-23.9337372642
 20
0.0900846506
 30
0.0
 10
-24.0715406309
 20
0.1025050143
 30
0.0
 10
-24.1614936665
 20
0.1181529707
 30
0.0
 10
-24.2034705637
 20
0.1287558864
 30
0.0
 10
-24.2288649365
 20
0.138697996
 30
0.0
 10
-24.2434048845
 20
0.1464189224
 30
0.0
 10
-24.2526792161
 20
0.154892246
 30
0.0
 10
-24.2533752543
 20
0.1609013617
 30
0.0
  0
SPLINE
  5
6E5
100
AcDbEntity
  8
ASSI
100
AcDbSpline
 62
250
  6
CONTINUOUS
 70
0
 71
3
 72
11
 73
7
 74
0
 42
0.0000001
 43
0.0000001
 44
0.0000000001
 40
0.0
 40
0.0
 40
0.0
 40
0.0
 40
0.2501409684
 40
0.5001988867
 40
0.7501404251
 40
1.0
 40
1.0
 40
1.0
 40
1.0
 10
-23.7616245951
 20
-0.7631686314
 30
0.0
 10
-23.8266233941
 20
-0.7631093348
 30
0.0
 10
-23.9580006238
 20
-0.737048414
 30
0.0
 10
-24.1240306466
 20
-0.6258867565
 30
0.0
 10
-24.2353741776
 20
-0.460056817
 30
0.0
 10
-24.261489068
 20
-0.3287795432
 30
0.0
 10
-24.2615484427
 20
-0.263853864
 30
0.0
  0
SPLINE
  5
6E6
100
AcDbEntity
  8
ASSI
100
AcDbSpline
 62
250
  6
CONTINUOUS
 70
0
 71
3
 72
11
 73
7
 74
0
 42
0.0000001
 43
0.0000001
 44
0.0000000001
 40
0.0
 40
0.0
 40
0.0
 40
0.0
 40
0.2501410065
 40
0.500198941
 40
0.7501404674
 40
1.0
 40
1.0
 40
1.0
 40
1.0
 10
-2.7348288488
 20
-0.7631686314
 30
0.0
 10
-2.6698300399
 20
-0.7631093347
 30
0.0
 10
-2.5384527954
 20
-0.7370484077
 30
0.0
 10
-2.372422771
 20
-0.6258867306
 30
0.0
 10
-2.26107926
 20
-0.4600567909
 30
0.0
 10
-2.2349643759
 20
-0.3287795322
 30
0.0
 10
-2.2349050012
 20
-0.263853864
 30
0.0
  0
SPLINE
  5
6E7
100
AcDbEntity
  8
ASSI
100
AcDbSpline
 62
250
  6
CONTINUOUS
 70
0
 71
3
 72
14
 73
10
 74
0
 42
0.0000001
 43
0.0000001
 44
0.0000000001
 40
0.0
 40
0.0
 40
0.0
 40
0.0
 40
0.3687440226
 40
0.6838846285
 40
0.8069772463
 40
0.9012228172
 40
0.9368208252
 40
0.9646812102
 40
1.0
 40
1.0
 40
1.0
 40
1.0
 10
-2.7430020371
 20
0.0863418232
 30
0.0
 10
-2.6798475466
 20
0.086504369
 30
0.0
 10
-2.5627137931
 20
0.0900825842
 30
0.0
 10
-2.4249091386
 20
0.1025033971
 30
0.0
 10
-2.3349561494
 20
0.1181519391
 30
0.0
 10
-2.2929798317
 20
0.1287551137
 30
0.0
 10
-2.267586211
 20
0.1386975524
 30
0.0
 10
-2.2530469855
 20
0.146418532
 30
0.0
 10
-2.2437734897
 20
0.1548924142
 30
0.0
 10
-2.2430781895
 20
0.1609013617
 30
0.0
  0
SPLINE
  5
6E8
100
AcDbEntity
  8
ASSI
100
AcDbSpline
 62
250
  6
CONTINUOUS
 70
0
 71
3
 72
20
 73
16
 74
0
 42
0.0000001
 43
0.0000001
 44
0.0000000001
 40
0.0
 40
0.0
 40
0.0
 40
0.0
 40
0.1926996389
 40
0.3785152121
 40
0.5498793014
 40
0.7005758141
 40
0.7664149456
 40
0.8250286034
 40
0.8758549739
 40
0.9184645243
 40
0.9524385704
 40
0.97743635
 40
0.9932950133
 40
0.9977737101
 40
1.0
 40
1.0
 40
1.0
 40
1.0
 10
-2.7601869216
 20
11.7970593112
 30
0.0
 10
-2.728054962
 20
11.7970699658
 30
0.0
 10
-2.6649389073
 20
11.7972064248
 30
0.0
 10
-2.5732499263
 20
11.7977471505
 30
0.0
 10
-2.4885674152
 20
11.7986048775
 30
0.0
 10
-2.4238938417
 20
11.799589393
 30
0.0
 10
-2.3780229453
 20
11.8005374458
 30
0.0
 10
-2.3488059481
 20
11.8012709402
 30
0.0
 10
-2.3234606812
 20
11.8020465261
 30
0.0
 10
-2.3022403888
 20
11.80286845
 30
0.0
 10
-2.2852968275
 20
11.8036824131
 30
0.0
 10
-2.272906325
 20
11.8045757282
 30
0.0
 10
-2.2652742027
 20
11.8052434555
 30
0.0
 10
-2.2616797972
 20
11.8059940418
 30
0.0
 10
-2.2605141544
 20
11.8062858753
 30
0.0
 10
-2.2602630741
 20
11.8065593112
 30
0.0
  0
SPLINE
  5
6E9
100
AcDbEntity
  8
ASSI
100
AcDbSpline
 62
250
  6
CONTINUOUS
 70
0
 71
3
 72
20
 73
16
 74
0
 42
0.0000001
 43
0.0000001
 44
0.0000000001
 40
0.0
 40
0.0
 40
0.0
 40
0.0
 40
0.192699634
 40
0.378515203
 40
0.5498792891
 40
0.7005758001
 40
0.7664149316
 40
0.8250285897
 40
0.8758549611
 40
0.918464513
 40
0.9524385611
 40
0.9774363434
 40
0.9932950098
 40
0.9977737083
 40
1.0
 40
1.0
 40
1.0
 40
1.0
 10
-2.7601869216
 20
30.7970593108
 30
0.0
 10
-2.7280549628
 20
30.7970486563
 30
0.0
 10
-2.6649389096
 20
30.7969121973
 30
0.0
 10
-2.5732499307
 20
30.7963714716
 30
0.0
 10
-2.4885674212
 20
30.7955137446
 30
0.0
 10
-2.4238938485
 20
30.7945292292
 30
0.0
 10
-2.3780229524
 20
30.7935811764
 30
0.0
 10
-2.3488059549
 20
30.792847682
 30
0.0
 10
-2.3234606876
 20
30.7920720962
 30
0.0
 10
-2.3022403945
 20
30.7912501723
 30
0.0
 10
-2.2852968322
 20
30.7904362092
 30
0.0
 10
-2.2729063282
 20
30.7895428942
 30
0.0
 10
-2.265274205
 20
30.7888751668
 30
0.0
 10
-2.261679798
 20
30.7881245806
 30
0.0
 10
-2.2605141549
 20
30.787832747
 30
0.0
 10
-2.2602630741
 20
30.7875593112
 30
0.0
  0
SPLINE
  5
6EA
100
AcDbEntity
  8
ASSI
100
AcDbSpline
 62
250
  6
CONTINUOUS
 70
0
 71
3
 72
14
 73
10
 74
0
 42
0.0000001
 43
0.0000001
 44
0.0000000001
 40
0.0
 40
0.0
 40
0.0
 40
0.0
 40
0.3687387122
 40
0.6838777116
 40
0.8069712781
 40
0.901218745
 40
0.9368179229
 40
0.9646795119
 40
1.0
 40
1.0
 40
1.0
 40
1.0
 10
-2.7430020371
 20
42.5077743477
 30
0.0
 10
-2.67984864
 20
42.5076118104
 30
0.0
 10
-2.5627164089
 20
42.5040337623
 30
0.0
 10
-2.4249131628
 20
42.4916134432
 30
0.0
 10
-2.3349601169
 20
42.4759655454
 30
0.0
 10
-2.2929831612
 20
42.4653626569
 30
0.0
 10
-2.2675887155
 20
42.4554205799
 30
0.0
 10
-2.253048702
 20
42.4476996618
 30
0.0
 10
-2.2437742923
 20
42.4392263904
 30
0.0
 10
-2.2430781896
 20
42.4332172607
 30
0.0
  0
SPLINE
  5
6EB
100
AcDbEntity
  8
ASSI
100
AcDbSpline
 62
250
  6
CONTINUOUS
 70
0
 71
3
 72
11
 73
7
 74
0
 42
0.0000001
 43
0.0000001
 44
0.0000000001
 40
0.0
 40
0.0
 40
0.0
 40
0.0
 40
0.2501409684
 40
0.5001988867
 40
0.7501404251
 40
1.0
 40
1.0
 40
1.0
 40
1.0
 10
-2.7348288488
 20
43.3572872539
 30
0.0
 10
-2.6698300498
 20
43.3572279572
 30
0.0
 10
-2.5384528201
 20
43.3311670364
 30
0.0
 10
-2.3724227972
 20
43.220005379
 30
0.0
 10
-2.2610792663
 20
43.0541754395
 30
0.0
 10
-2.2349643759
 20
42.9228981656
 30
0.0
 10
-2.2349050012
 20
42.8579724865
 30
0.0
  0
SPLINE
  5
6EC
100
AcDbEntity
  8
ASSI
100
AcDbSpline
 62
250
  6
CONTINUOUS
 70
0
 71
3
 72
16
 73
12
 74
0
 42
0.0000001
 43
0.0000001
 44
0.0000000001
 40
0.0
 40
0.0
 40
0.0
 40
0.0
 40
0.3803839005
 40
0.5488840237
 40
0.6962710362
 40
0.8181901115
 40
0.9110931297
 40
0.9457926292
 40
0.9722855408
 40
0.9903917685
 40
1.0
 40
1.0
 40
1.0
 40
1.0
 10
-23.7534514063
 20
0.0863420186
 30
0.0
 10
-23.753593876
 20
-0.0213835655
 30
0.0
 10
-23.7540114164
 20
-0.1768288416
 30
0.0
 10
-23.7551107268
 20
-0.3740113611
 30
0.0
 10
-23.7560859474
 20
-0.4979960589
 30
0.0
 10
-23.7572294188
 20
-0.6005669004
 30
0.0
 10
-23.7583177359
 20
-0.6712274262
 30
0.0
 10
-23.7593439949
 20
-0.7148515384
 30
0.0
 10
-23.7599885675
 20
-0.7373078492
 30
0.0
 10
-23.7607423083
 20
-0.7526268234
 30
0.0
 10
-23.761177917
 20
-0.7604844686
 30
0.0
 10
-23.7616245951
 20
-0.7631686314
 30
0.0
  0
SPLINE
  5
6ED
100
AcDbEntity
  8
ASSI
100
AcDbSpline
 62
250
  6
CONTINUOUS
 70
0
 71
3
 72
16
 73
12
 74
0
 42
0.0000001
 43
0.0000001
 44
0.0000000001
 40
0.0
 40
0.0
 40
0.0
 40
0.0
 40
0.0096082314
 40
0.0277144591
 40
0.0542073709
 40
0.0889068703
 40
0.1818098885
 40
0.3037289638
 40
0.4511159763
 40
0.6196160995
 40
1.0
 40
1.0
 40
1.0
 40
1.0
 10
-2.7348288488
 20
-0.7631686314
 30
0.0
 10
-2.7352755269
 20
-0.7604844687
 30
0.0
 10
-2.7357111355
 20
-0.7526268235
 30
0.0
 10
-2.7364648764
 20
-0.7373078493
 30
0.0
 10
-2.737109449
 20
-0.7148515384
 30
0.0
 10
-2.738135708
 20
-0.6712274262
 30
0.0
 10
-2.7392240251
 20
-0.6005669004
 30
0.0
 10
-2.7403674964
 20
-0.4979960589
 30
0.0
 10
-2.7413427171
 20
-0.3740113611
 30
0.0
 10
-2.7424420275
 20
-0.1768288416
 30
0.0
 10
-2.7428595679
 20
-0.0213835655
 30
0.0
 10
-2.7430020376
 20
0.0863420186
 30
0.0
  0
SPLINE
  5
6EE
100
AcDbEntity
  8
ASSI
100
AcDbSpline
 62
250
  6
CONTINUOUS
 70
0
 71
3
 72
16
 73
12
 74
0
 42
0.0000001
 43
0.0000001
 44
0.0000000001
 40
0.0
 40
0.0
 40
0.0
 40
0.0
 40
0.0096085975
 40
0.0277146419
 40
0.0542073107
 40
0.0889067744
 40
0.1818099094
 40
0.303728959
 40
0.4511159653
 40
0.6196161196
 40
1.0
 40
1.0
 40
1.0
 40
1.0
 10
-23.7616245951
 20
43.3572872539
 30
0.0
 10
-23.761178093
 20
43.3546029567
 30
0.0
 10
-23.7607423437
 20
43.3467452999
 30
0.0
 10
-23.7599885913
 20
43.3314263193
 30
0.0
 10
-23.7593438973
 20
43.3089701542
 30
0.0
 10
-23.7583176863
 20
43.2653460799
 30
0.0
 10
-23.7572293584
 20
43.1946855429
 30
0.0
 10
-23.7560857767
 20
43.0921146755
 30
0.0
 10
-23.7551107205
 20
42.9681299763
 30
0.0
 10
-23.7540114296
 20
42.7709474536
 30
0.0
 10
-23.7535938811
 20
42.6155021732
 30
0.0
 10
-23.7534514063
 20
42.5077765939
 30
0.0
  0
SPLINE
  5
6EF
100
AcDbEntity
  8
ASSI
100
AcDbSpline
 62
250
  6
CONTINUOUS
 70
0
 71
3
 72
16
 73
12
 74
0
 42
0.0000001
 43
0.0000001
 44
0.0000000001
 40
0.0
 40
0.0
 40
0.0
 40
0.0
 40
0.3803838804
 40
0.5488840347
 40
0.696271041
 40
0.8181900906
 40
0.9110932256
 40
0.9457926893
 40
0.972285358
 40
0.9903914024
 40
1.0
 40
1.0
 40
1.0
 40
1.0
 10
-2.7430020376
 20
42.5077765939
 30
0.0
 10
-2.7428595628
 20
42.6155021732
 30
0.0
 10
-2.7424420142
 20
42.7709474536
 30
0.0
 10
-2.7413427233
 20
42.9681299763
 30
0.0
 10
-2.7403676672
 20
43.0921146755
 30
0.0
 10
-2.7392240855
 20
43.1946855429
 30
0.0
 10
-2.7381357575
 20
43.2653460799
 30
0.0
 10
-2.7371095466
 20
43.3089701542
 30
0.0
 10
-2.7364648526
 20
43.3314263193
 30
0.0
 10
-2.7357111002
 20
43.3467452998
 30
0.0
 10
-2.7352753508
 20
43.3546029567
 30
0.0
 10
-2.7348288488
 20
43.3572872539
 30
0.0
  0
SPLINE
  5
6F0
100
AcDbEntity
  8
ASSI
100
AcDbSpline
 62
250
  6
CONTINUOUS
 70
0
 71
3
 72
16
 73
12
 74
0
 42
0.0000001
 43
0.0000001
 44
0.0000000001
 40
0.0
 40
0.0
 40
0.0
 40
0.0
 40
0.3802713932
 40
0.5487263402
 40
0.6960793056
 40
0.8179744255
 40
0.9108834363
 40
0.9455990173
 40
0.9721173151
 40
0.9902725865
 40
1.0
 40
1.0
 40
1.0
 40
1.0
 10
-2.2430781895
 20
42.4332172607
 30
0.0
 10
-2.2429361852
 20
42.4870823238
 30
0.0
 10
-2.2425176977
 20
42.5648089833
 30
0.0
 10
-2.2414185124
 20
42.6634019363
 30
0.0
 10
-2.2404431932
 20
42.7253959758
 30
0.0
 10
-2.2393011824
 20
42.7766803444
 30
0.0
 10
-2.238210518
 20
42.8120146321
 30
0.0
 10
-2.2371876854
 20
42.8338178823
 30
0.0
 10
-2.236535835
 20
42.8450585725
 30
0.0
 10
-2.2357940452
 20
42.8527035467
 30
0.0
 10
-2.2353385886
 20
42.8566646011
 30
0.0
 10
-2.2349050012
 20
42.8579724865
 30
0.0
  0
SPLINE
  5
6F1
100
AcDbEntity
  8
ASSI
100
AcDbSpline
 62
250
  6
CONTINUOUS
 70
0
 71
3
 72
9
 73
5
 74
0
 42
0.0000001
 43
0.0000001
 44
0.0000000001
 40
0.0
 40
0.0
 40
0.0
 40
0.0
 40
0.2499885516
 40
1.0
 40
1.0
 40
1.0
 40
1.0
 10
-2.2602630741
 20
11.8065593112
 30
0.0
 10
-2.260787726
 20
13.3882368065
 30
0.0
 10
-2.2623615628
 20
19.7152366868
 30
0.0
 10
-2.2618371258
 20
26.0422370893
 30
0.0
 10
-2.2602630741
 20
30.7875593112
 30
0.0
  0
SPLINE
  5
6F2
100
AcDbEntity
  8
ASSI
100
AcDbSpline
 62
250
  6
CONTINUOUS
 70
0
 71
3
 72
16
 73
12
 74
0
 42
0.0000001
 43
0.0000001
 44
0.0000000001
 40
0.0
 40
0.0
 40
0.0
 40
0.0
 40
0.009726523
 40
0.0278823816
 40
0.0544015477
 40
0.0891175306
 40
0.1820263001
 40
0.3039205849
 40
0.4512729746
 40
0.6197279934
 40
1.0
 40
1.0
 40
1.0
 40
1.0
 10
-2.2349050012
 20
-0.263853864
 30
0.0
 10
-2.2353387017
 20
-0.2625461491
 30
0.0
 10
-2.2357939973
 20
-0.2585850669
 30
0.0
 10
-2.2365358671
 20
-0.2509400606
 30
0.0
 10
-2.237187661
 20
-0.2396990827
 30
0.0
 10
-2.2382105188
 20
-0.2178956989
 30
0.0
 10
-2.23930117
 20
-0.182561498
 30
0.0
 10
-2.2404431964
 20
-0.131277367
 30
0.0
 10
-2.2414185191
 20
-0.0692835154
 30
0.0
 10
-2.2425177107
 20
0.0293094536
 30
0.0
 10
-2.2429361652
 20
0.1070362112
 30
0.0
 10
-2.2430781895
 20
0.1609013617
 30
0.0
  0
SPLINE
  5
6F3
100
AcDbEntity
  8
ASSI
100
AcDbSpline
 62
250
  6
CONTINUOUS
 70
0
 71
3
 72
16
 73
12
 74
0
 42
0.0000001
 43
0.0000001
 44
0.0000000001
 40
0.0
 40
0.0
 40
0.0
 40
0.0
 40
0.3802720066
 40
0.5487270254
 40
0.6960794151
 40
0.8179736998
 40
0.9108824694
 40
0.9455984524
 40
0.9721176184
 40
0.9902734769
 40
1.0
 40
1.0
 40
1.0
 40
1.0
 10
-24.2533752544
 20
0.1609013617
 30
0.0
 10
-24.2535172787
 20
0.1070362112
 30
0.0
 10
-24.2539357332
 20
0.0293094535
 30
0.0
 10
-24.2550349248
 20
-0.0692835154
 30
0.0
 10
-24.2560102475
 20
-0.131277367
 30
0.0
 10
-24.2571522739
 20
-0.182561498
 30
0.0
 10
-24.2582429251
 20
-0.2178956989
 30
0.0
 10
-24.2592657829
 20
-0.2396990827
 30
0.0
 10
-24.2599175767
 20
-0.2509400606
 30
0.0
 10
-24.2606594466
 20
-0.2585850669
 30
0.0
 10
-24.2611147422
 20
-0.262546149
 30
0.0
 10
-24.2615484427
 20
-0.263853864
 30
0.0
  0
SPLINE
  5
6F4
100
AcDbEntity
  8
ASSI
100
AcDbSpline
 62
250
  6
CONTINUOUS
 70
0
 71
3
 72
9
 73
5
 74
0
 42
0.0000001
 43
0.0000001
 44
0.0000000001
 40
0.0
 40
0.0
 40
0.0
 40
0.0
 40
0.2499885516
 40
1.0
 40
1.0
 40
1.0
 40
1.0
 10
-24.2361903698
 20
30.7875593112
 30
0.0
 10
-24.2356657179
 20
29.205881816
 30
0.0
 10
-24.2340918811
 20
22.8788819356
 30
0.0
 10
-24.2346163181
 20
16.5518815332
 30
0.0
 10
-24.2361903698
 20
11.8065593112
 30
0.0
  0
SPLINE
  5
6F5
100
AcDbEntity
  8
ASSI
100
AcDbSpline
 62
250
  6
CONTINUOUS
 70
0
 71
3
 72
16
 73
12
 74
0
 42
0.0000001
 43
0.0000001
 44
0.0000000001
 40
0.0
 40
0.0
 40
0.0
 40
0.0
 40
0.0097274134
 40
0.027882685
 40
0.0544009828
 40
0.0891165637
 40
0.1820255744
 40
0.3039206944
 40
0.4512736598
 40
0.6197286069
 40
1.0
 40
1.0
 40
1.0
 40
1.0
 10
-24.2615484427
 20
42.8579724865
 30
0.0
 10
-24.2611148553
 20
42.8566646011
 30
0.0
 10
-24.2606593987
 20
42.8527035467
 30
0.0
 10
-24.2599176089
 20
42.8450585725
 30
0.0
 10
-24.2592657585
 20
42.8338178823
 30
0.0
 10
-24.2582429258
 20
42.8120146321
 30
0.0
 10
-24.2571522615
 20
42.7766803444
 30
0.0
 10
-24.2560102507
 20
42.7253959758
 30
0.0
 10
-24.2550349315
 20
42.6634019363
 30
0.0
 10
-24.2539357462
 20
42.5648089833
 30
0.0
 10
-24.2535172587
 20
42.4870823238
 30
0.0
 10
-24.2533752544
 20
42.4332172607
 30
0.0
  0
SPLINE
  5
6F6
100
AcDbEntity
  8
RACCORDO
100
AcDbSpline
 62
250
  6
CONTINUOUS
 70
0
 71
3
 72
14
 73
10
 74
0
 42
0.0000001
 43
0.0000001
 44
0.0000000001
 40
0.0
 40
0.0
 40
0.0
 40
0.0
 40
0.3687387122
 40
0.6838777116
 40
0.8069712781
 40
0.901218745
 40
0.9368179229
 40
0.9646795119
 40
1.0
 40
1.0
 40
1.0
 40
1.0
 10
-2.7430020371
 20
42.5077743477
 30
0.0
 10
-2.67984864
 20
42.5076118104
 30
0.0
 10
-2.5627164089
 20
42.5040337623
 30
0.0
 10
-2.4249131628
 20
42.4916134432
 30
0.0
 10
-2.3349601169
 20
42.4759655454
 30
0.0
 10
-2.2929831612
 20
42.4653626569
 30
0.0
 10
-2.2675887155
 20
42.4554205799
 30
0.0
 10
-2.253048702
 20
42.4476996618
 30
0.0
 10
-2.2437742923
 20
42.4392263904
 30
0.0
 10
-2.2430781896
 20
42.4332172607
 30
0.0
  0
SPLINE
  5
6F7
100
AcDbEntity
  8
RACCORDO
100
AcDbSpline
 62
250
  6
CONTINUOUS
 70
0
 71
3
 72
11
 73
7
 74
0
 42
0.0000001
 43
0.0000001
 44
0.0000000001
 40
0.0
 40
0.0
 40
0.0
 40
0.0
 40
0.2501409684
 40
0.5001988867
 40
0.7501404251
 40
1.0
 40
1.0
 40
1.0
 40
1.0
 10
-2.7348288488
 20
43.3572872539
 30
0.0
 10
-2.6698300498
 20
43.3572279572
 30
0.0
 10
-2.5384528201
 20
43.3311670364
 30
0.0
 10
-2.3724227972
 20
43.220005379
 30
0.0
 10
-2.2610792663
 20
43.0541754395
 30
0.0
 10
-2.2349643759
 20
42.9228981656
 30
0.0
 10
-2.2349050012
 20
42.8579724865
 30
0.0
  0
SPLINE
  5
6F8
100
AcDbEntity
  8
RACCORDO
100
AcDbSpline
 62
250
  6
CONTINUOUS
 70
0
 71
3
 72
16
 73
12
 74
0
 42
0.0000001
 43
0.0000001
 44
0.0000000001
 40
0.0
 40
0.0
 40
0.0
 40
0.0
 40
0.3803839005
 40
0.5488840237
 40
0.6962710362
 40
0.8181901115
 40
0.9110931297
 40
0.9457926292
 40
0.9722855408
 40
0.9903917685
 40
1.0
 40
1.0
 40
1.0
 40
1.0
 10
-23.7534514063
 20
0.0863420186
 30
0.0
 10
-23.753593876
 20
-0.0213835655
 30
0.0
 10
-23.7540114164
 20
-0.1768288416
 30
0.0
 10
-23.7551107268
 20
-0.3740113611
 30
0.0
 10
-23.7560859474
 20
-0.4979960589
 30
0.0
 10
-23.7572294188
 20
-0.6005669004
 30
0.0
 10
-23.7583177359
 20
-0.6712274262
 30
0.0
 10
-23.7593439949
 20
-0.7148515384
 30
0.0
 10
-23.7599885675
 20
-0.7373078492
 30
0.0
 10
-23.7607423083
 20
-0.7526268234
 30
0.0
 10
-23.761177917
 20
-0.7604844686
 30
0.0
 10
-23.7616245951
 20
-0.7631686314
 30
0.0
  0
SPLINE
  5
6F9
100
AcDbEntity
  8
RACCORDO
100
AcDbSpline
 62
250
  6
CONTINUOUS
 70
0
 71
3
 72
16
 73
12
 74
0
 42
0.0000001
 43
0.0000001
 44
0.0000000001
 40
0.0
 40
0.0
 40
0.0
 40
0.0
 40
0.0096082314
 40
0.0277144591
 40
0.0542073709
 40
0.0889068703
 40
0.1818098885
 40
0.3037289638
 40
0.4511159763
 40
0.6196160995
 40
1.0
 40
1.0
 40
1.0
 40
1.0
 10
-2.7348288488
 20
-0.7631686314
 30
0.0
 10
-2.7352755269
 20
-0.7604844687
 30
0.0
 10
-2.7357111355
 20
-0.7526268235
 30
0.0
 10
-2.7364648764
 20
-0.7373078493
 30
0.0
 10
-2.737109449
 20
-0.7148515384
 30
0.0
 10
-2.738135708
 20
-0.6712274262
 30
0.0
 10
-2.7392240251
 20
-0.6005669004
 30
0.0
 10
-2.7403674964
 20
-0.4979960589
 30
0.0
 10
-2.7413427171
 20
-0.3740113611
 30
0.0
 10
-2.7424420275
 20
-0.1768288416
 30
0.0
 10
-2.7428595679
 20
-0.0213835655
 30
0.0
 10
-2.7430020376
 20
0.0863420186
 30
0.0
  0
SPLINE
  5
6FA
100
AcDbEntity
  8
RACCORDO
100
AcDbSpline
 62
250
  6
CONTINUOUS
 70
0
 71
3
 72
16
 73
12
 74
0
 42
0.0000001
 43
0.0000001
 44
0.0000000001
 40
0.0
 40
0.0
 40
0.0
 40
0.0
 40
0.0096085975
 40
0.0277146419
 40
0.0542073107
 40
0.0889067744
 40
0.1818099094
 40
0.303728959
 40
0.4511159653
 40
0.6196161196
 40
1.0
 40
1.0
 40
1.0
 40
1.0
 10
-23.7616245951
 20
43.3572872539
 30
0.0
 10
-23.761178093
 20
43.3546029567
 30
0.0
 10
-23.7607423437
 20
43.3467452999
 30
0.0
 10
-23.7599885913
 20
43.3314263193
 30
0.0
 10
-23.7593438973
 20
43.3089701542
 30
0.0
 10
-23.7583176863
 20
43.2653460799
 30
0.0
 10
-23.7572293584
 20
43.1946855429
 30
0.0
 10
-23.7560857767
 20
43.0921146755
 30
0.0
 10
-23.7551107205
 20
42.9681299763
 30
0.0
 10
-23.7540114296
 20
42.7709474536
 30
0.0
 10
-23.7535938811
 20
42.6155021732
 30
0.0
 10
-23.7534514063
 20
42.5077765939
 30
0.0
  0
SPLINE
  5
6FB
100
AcDbEntity
  8
RACCORDO
100
AcDbSpline
 62
250
  6
CONTINUOUS
 70
0
 71
3
 72
16
 73
12
 74
0
 42
0.0000001
 43
0.0000001
 44
0.0000000001
 40
0.0
 40
0.0
 40
0.0
 40
0.0
 40
0.3803838804
 40
0.5488840347
 40
0.696271041
 40
0.8181900906
 40
0.9110932256
 40
0.9457926893
 40
0.972285358
 40
0.9903914024
 40
1.0
 40
1.0
 40
1.0
 40
1.0
 10
-2.7430020376
 20
42.5077765939
 30
0.0
 10
-2.7428595628
 20
42.6155021732
 30
0.0
 10
-2.7424420142
 20
42.7709474536
 30
0.0
 10
-2.7413427233
 20
42.9681299763
 30
0.0
 10
-2.7403676672
 20
43.0921146755
 30
0.0
 10
-2.7392240855
 20
43.1946855429
 30
0.0
 10
-2.7381357575
 20
43.2653460799
 30
0.0
 10
-2.7371095466
 20
43.3089701542
 30
0.0
 10
-2.7364648526
 20
43.3314263193
 30
0.0
 10
-2.7357111002
 20
43.3467452998
 30
0.0
 10
-2.7352753508
 20
43.3546029567
 30
0.0
 10
-2.7348288488
 20
43.3572872539
 30
0.0
  0
SPLINE
  5
6FC
100
AcDbEntity
  8
RACCORDO
100
AcDbSpline
 62
250
  6
CONTINUOUS
 70
0
 71
3
 72
16
 73
12
 74
0
 42
0.0000001
 43
0.0000001
 44
0.0000000001
 40
0.0
 40
0.0
 40
0.0
 40
0.0
 40
0.3802713932
 40
0.5487263402
 40
0.6960793056
 40
0.8179744255
 40
0.9108834363
 40
0.9455990173
 40
0.9721173151
 40
0.9902725865
 40
1.0
 40
1.0
 40
1.0
 40
1.0
 10
-2.2430781895
 20
42.4332172607
 30
0.0
 10
-2.2429361852
 20
42.4870823238
 30
0.0
 10
-2.2425176977
 20
42.5648089833
 30
0.0
 10
-2.2414185124
 20
42.6634019363
 30
0.0
 10
-2.2404431932
 20
42.7253959758
 30
0.0
 10
-2.2393011824
 20
42.7766803444
 30
0.0
 10
-2.238210518
 20
42.8120146321
 30
0.0
 10
-2.2371876854
 20
42.8338178823
 30
0.0
 10
-2.236535835
 20
42.8450585725
 30
0.0
 10
-2.2357940452
 20
42.8527035467
 30
0.0
 10
-2.2353385886
 20
42.8566646011
 30
0.0
 10
-2.2349050012
 20
42.8579724865
 30
0.0
  0
SPLINE
  5
6FD
100
AcDbEntity
  8
RACCORDO
100
AcDbSpline
 62
250
  6
CONTINUOUS
 70
0
 71
3
 72
9
 73
5
 74
0
 42
0.0000001
 43
0.0000001
 44
0.0000000001
 40
0.0
 40
0.0
 40
0.0
 40
0.0
 40
0.2499885516
 40
1.0
 40
1.0
 40
1.0
 40
1.0
 10
-2.2602630741
 20
11.8065593112
 30
0.0
 10
-2.260787726
 20
13.3882368065
 30
0.0
 10
-2.2623615628
 20
19.7152366868
 30
0.0
 10
-2.2618371258
 20
26.0422370893
 30
0.0
 10
-2.2602630741
 20
30.7875593112
 30
0.0
  0
SPLINE
  5
6FE
100
AcDbEntity
  8
RACCORDO
100
AcDbSpline
 62
250
  6
CONTINUOUS
 70
0
 71
3
 72
16
 73
12
 74
0
 42
0.0000001
 43
0.0000001
 44
0.0000000001
 40
0.0
 40
0.0
 40
0.0
 40
0.0
 40
0.009726523
 40
0.0278823816
 40
0.0544015477
 40
0.0891175306
 40
0.1820263001
 40
0.3039205849
 40
0.4512729746
 40
0.6197279934
 40
1.0
 40
1.0
 40
1.0
 40
1.0
 10
-2.2349050012
 20
-0.263853864
 30
0.0
 10
-2.2353387017
 20
-0.2625461491
 30
0.0
 10
-2.2357939973
 20
-0.2585850669
 30
0.0
 10
-2.2365358671
 20
-0.2509400606
 30
0.0
 10
-2.237187661
 20
-0.2396990827
 30
0.0
 10
-2.2382105188
 20
-0.2178956989
 30
0.0
 10
-2.23930117
 20
-0.182561498
 30
0.0
 10
-2.2404431964
 20
-0.131277367
 30
0.0
 10
-2.2414185191
 20
-0.0692835154
 30
0.0
 10
-2.2425177107
 20
0.0293094536
 30
0.0
 10
-2.2429361652
 20
0.1070362112
 30
0.0
 10
-2.2430781895
 20
0.1609013617
 30
0.0
  0
SPLINE
  5
6FF
100
AcDbEntity
  8
RACCORDO
100
AcDbSpline
 62
250
  6
CONTINUOUS
 70
0
 71
3
 72
11
 73
7
 74
0
 42
0.0000001
 43
0.0000001
 44
0.0000000001
 40
0.0
 40
0.0
 40
0.0
 40
0.0
 40
0.2501410029
 40
0.500198936
 40
0.7501404635
 40
1.0
 40
1.0
 40
1.0
 40
1.0
 10
-23.7616245951
 20
43.3572872539
 30
0.0
 10
-23.826623403
 20
43.3572279571
 30
0.0
 10
-23.9580006461
 20
43.3311670305
 30
0.0
 10
-24.1240306702
 20
43.2200053552
 30
0.0
 10
-24.2353741832
 20
43.0541754157
 30
0.0
 10
-24.2614890679
 20
42.9228981556
 30
0.0
 10
-24.2615484427
 20
42.8579724865
 30
0.0
  0
SPLINE
  5
700
100
AcDbEntity
  8
RACCORDO
100
AcDbSpline
 62
250
  6
CONTINUOUS
 70
0
 71
3
 72
14
 73
10
 74
0
 42
0.0000001
 43
0.0000001
 44
0.0000000001
 40
0.0
 40
0.0
 40
0.0
 40
0.0
 40
0.3687440216
 40
0.6838846271
 40
0.806977245
 40
0.9012228162
 40
0.9368208244
 40
0.9646812097
 40
1.0
 40
1.0
 40
1.0
 40
1.0
 10
-23.7534514068
 20
42.5077767988
 30
0.0
 10
-23.8166058971
 20
42.507614253
 30
0.0
 10
-23.9337396502
 20
42.5040360379
 30
0.0
 10
-24.0715443044
 20
42.491615225
 30
0.0
 10
-24.1614972936
 20
42.4759666832
 30
0.0
 10
-24.2034736114
 20
42.4653635086
 30
0.0
 10
-24.2288672323
 20
42.4554210699
 30
0.0
 10
-24.2434064579
 20
42.4477000904
 30
0.0
 10
-24.252679954
 20
42.4392262083
 30
0.0
 10
-24.2533752544
 20
42.4332172607
 30
0.0
  0
SPLINE
  5
701
100
AcDbEntity
  8
RACCORDO
100
AcDbSpline
 62
250
  6
CONTINUOUS
 70
0
 71
3
 72
20
 73
16
 74
0
 42
0.0000001
 43
0.0000001
 44
0.0000000001
 40
0.0
 40
0.0
 40
0.0
 40
0.0
 40
0.1926996389
 40
0.3785152121
 40
0.5498793014
 40
0.7005758141
 40
0.7664149456
 40
0.8250286034
 40
0.8758549739
 40
0.9184645242
 40
0.9524385703
 40
0.97743635
 40
0.9932950133
 40
0.9977737101
 40
1.0
 40
1.0
 40
1.0
 40
1.0
 10
-23.7362665222
 20
30.7970593112
 30
0.0
 10
-23.7683984819
 20
30.7970486567
 30
0.0
 10
-23.8315145366
 20
30.7969121977
 30
0.0
 10
-23.9232035176
 20
30.7963714719
 30
0.0
 10
-24.0078860287
 20
30.795513745
 30
0.0
 10
-24.0725596022
 20
30.7945292294
 30
0.0
 10
-24.1184304985
 20
30.7935811766
 30
0.0
 10
-24.1476474958
 20
30.7928476822
 30
0.0
 10
-24.1729927627
 20
30.7920720963
 30
0.0
 10
-24.194213055
 20
30.7912501724
 30
0.0
 10
-24.2111566164
 20
30.7904362094
 30
0.0
 10
-24.2235471188
 20
30.7895428943
 30
0.0
 10
-24.2311792412
 20
30.788875167
 30
0.0
 10
-24.2347736467
 20
30.7881245806
 30
0.0
 10
-24.2359392895
 20
30.7878327471
 30
0.0
 10
-24.2361903698
 20
30.7875593112
 30
0.0
  0
SPLINE
  5
702
100
AcDbEntity
  8
RACCORDO
100
AcDbSpline
 62
250
  6
CONTINUOUS
 70
0
 71
3
 72
20
 73
16
 74
0
 42
0.0000001
 43
0.0000001
 44
0.0000000001
 40
0.0
 40
0.0
 40
0.0
 40
0.0
 40
0.1926996334
 40
0.3785152018
 40
0.5498792874
 40
0.7005757983
 40
0.7664149297
 40
0.8250285879
 40
0.8758549594
 40
0.9184645115
 40
0.9524385599
 40
0.9774363425
 40
0.9932950094
 40
0.9977737081
 40
1.0
 40
1.0
 40
1.0
 40
1.0
 10
-23.7362665222
 20
11.7970593117
 30
0.0
 10
-23.768398481
 20
11.7970699662
 30
0.0
 10
-23.8315145339
 20
11.7972064252
 30
0.0
 10
-23.9232035126
 20
11.7977471509
 30
0.0
 10
-24.0078860219
 20
11.7986048778
 30
0.0
 10
-24.0725595945
 20
11.7995893933
 30
0.0
 10
-24.1184304905
 20
11.8005374461
 30
0.0
 10
-24.147647488
 20
11.8012709405
 30
0.0
 10
-24.1729927554
 20
11.8020465263
 30
0.0
 10
-24.1942130487
 20
11.8028684501
 30
0.0
 10
-24.211156611
 20
11.8036824132
 30
0.0
 10
-24.2235471152
 20
11.8045757282
 30
0.0
 10
-24.2311792386
 20
11.8052434556
 30
0.0
 10
-24.2347736458
 20
11.8059940419
 30
0.0
 10
-24.2359392889
 20
11.8062858754
 30
0.0
 10
-24.2361903698
 20
11.8065593112
 30
0.0
  0
SPLINE
  5
703
100
AcDbEntity
  8
RACCORDO
100
AcDbSpline
 62
250
  6
CONTINUOUS
 70
0
 71
3
 72
14
 73
10
 74
0
 42
0.0000001
 43
0.0000001
 44
0.0000000001
 40
0.0
 40
0.0
 40
0.0
 40
0.0
 40
0.368739184
 40
0.6838783109
 40
0.8069717846
 40
0.9012190806
 40
0.9368181573
 40
0.9646796452
 40
1.0
 40
1.0
 40
1.0
 40
1.0
 10
-23.7534514068
 20
0.0863440528
 30
0.0
 10
-23.8166049008
 20
0.0865065894
 30
0.0
 10
-23.9337372642
 20
0.0900846506
 30
0.0
 10
-24.0715406309
 20
0.1025050143
 30
0.0
 10
-24.1614936665
 20
0.1181529707
 30
0.0
 10
-24.2034705637
 20
0.1287558864
 30
0.0
 10
-24.2288649365
 20
0.138697996
 30
0.0
 10
-24.2434048845
 20
0.1464189224
 30
0.0
 10
-24.2526792161
 20
0.154892246
 30
0.0
 10
-24.2533752543
 20
0.1609013617
 30
0.0
  0
SPLINE
  5
704
100
AcDbEntity
  8
RACCORDO
100
AcDbSpline
 62
250
  6
CONTINUOUS
 70
0
 71
3
 72
11
 73
7
 74
0
 42
0.0000001
 43
0.0000001
 44
0.0000000001
 40
0.0
 40
0.0
 40
0.0
 40
0.0
 40
0.2501409684
 40
0.5001988867
 40
0.7501404251
 40
1.0
 40
1.0
 40
1.0
 40
1.0
 10
-23.7616245951
 20
-0.7631686314
 30
0.0
 10
-23.8266233941
 20
-0.7631093348
 30
0.0
 10
-23.9580006238
 20
-0.737048414
 30
0.0
 10
-24.1240306466
 20
-0.6258867565
 30
0.0
 10
-24.2353741776
 20
-0.460056817
 30
0.0
 10
-24.261489068
 20
-0.3287795432
 30
0.0
 10
-24.2615484427
 20
-0.263853864
 30
0.0
  0
SPLINE
  5
705
100
AcDbEntity
  8
RACCORDO
100
AcDbSpline
 62
250
  6
CONTINUOUS
 70
0
 71
3
 72
16
 73
12
 74
0
 42
0.0000001
 43
0.0000001
 44
0.0000000001
 40
0.0
 40
0.0
 40
0.0
 40
0.0
 40
0.3802720066
 40
0.5487270254
 40
0.6960794151
 40
0.8179736998
 40
0.9108824694
 40
0.9455984524
 40
0.9721176184
 40
0.9902734769
 40
1.0
 40
1.0
 40
1.0
 40
1.0
 10
-24.2533752544
 20
0.1609013617
 30
0.0
 10
-24.2535172787
 20
0.1070362112
 30
0.0
 10
-24.2539357332
 20
0.0293094535
 30
0.0
 10
-24.2550349248
 20
-0.0692835154
 30
0.0
 10
-24.2560102475
 20
-0.131277367
 30
0.0
 10
-24.2571522739
 20
-0.182561498
 30
0.0
 10
-24.2582429251
 20
-0.2178956989
 30
0.0
 10
-24.2592657829
 20
-0.2396990827
 30
0.0
 10
-24.2599175767
 20
-0.2509400606
 30
0.0
 10
-24.2606594466
 20
-0.2585850669
 30
0.0
 10
-24.2611147422
 20
-0.262546149
 30
0.0
 10
-24.2615484427
 20
-0.263853864
 30
0.0
  0
SPLINE
  5
706
100
AcDbEntity
  8
RACCORDO
100
AcDbSpline
 62
250
  6
CONTINUOUS
 70
0
 71
3
 72
9
 73
5
 74
0
 42
0.0000001
 43
0.0000001
 44
0.0000000001
 40
0.0
 40
0.0
 40
0.0
 40
0.0
 40
0.2499885516
 40
1.0
 40
1.0
 40
1.0
 40
1.0
 10
-24.2361903698
 20
30.7875593112
 30
0.0
 10
-24.2356657179
 20
29.205881816
 30
0.0
 10
-24.2340918811
 20
22.8788819356
 30
0.0
 10
-24.2346163181
 20
16.5518815332
 30
0.0
 10
-24.2361903698
 20
11.8065593112
 30
0.0
  0
SPLINE
  5
707
100
AcDbEntity
  8
RACCORDO
100
AcDbSpline
 62
250
  6
CONTINUOUS
 70
0
 71
3
 72
16
 73
12
 74
0
 42
0.0000001
 43
0.0000001
 44
0.0000000001
 40
0.0
 40
0.0
 40
0.0
 40
0.0
 40
0.0097274134
 40
0.027882685
 40
0.0544009828
 40
0.0891165637
 40
0.1820255744
 40
0.3039206944
 40
0.4512736598
 40
0.6197286069
 40
1.0
 40
1.0
 40
1.0
 40
1.0
 10
-24.2615484427
 20
42.8579724865
 30
0.0
 10
-24.2611148553
 20
42.8566646011
 30
0.0
 10
-24.2606593987
 20
42.8527035467
 30
0.0
 10
-24.2599176089
 20
42.8450585725
 30
0.0
 10
-24.2592657585
 20
42.8338178823
 30
0.0
 10
-24.2582429258
 20
42.8120146321
 30
0.0
 10
-24.2571522615
 20
42.7766803444
 30
0.0
 10
-24.2560102507
 20
42.7253959758
 30
0.0
 10
-24.2550349315
 20
42.6634019363
 30
0.0
 10
-24.2539357462
 20
42.5648089833
 30
0.0
 10
-24.2535172587
 20
42.4870823238
 30
0.0
 10
-24.2533752544
 20
42.4332172607
 30
0.0
  0
SPLINE
  5
708
100
AcDbEntity
  8
RACCORDO
100
AcDbSpline
 62
250
  6
CONTINUOUS
 70
0
 71
3
 72
11
 73
7
 74
0
 42
0.0000001
 43
0.0000001
 44
0.0000000001
 40
0.0
 40
0.0
 40
0.0
 40
0.0
 40
0.2501410065
 40
0.500198941
 40
0.7501404674
 40
1.0
 40
1.0
 40
1.0
 40
1.0
 10
-2.7348288488
 20
-0.7631686314
 30
0.0
 10
-2.6698300399
 20
-0.7631093347
 30
0.0
 10
-2.5384527954
 20
-0.7370484077
 30
0.0
 10
-2.372422771
 20
-0.6258867306
 30
0.0
 10
-2.26107926
 20
-0.4600567909
 30
0.0
 10
-2.2349643759
 20
-0.3287795322
 30
0.0
 10
-2.2349050012
 20
-0.263853864
 30
0.0
  0
SPLINE
  5
709
100
AcDbEntity
  8
RACCORDO
100
AcDbSpline
 62
250
  6
CONTINUOUS
 70
0
 71
3
 72
14
 73
10
 74
0
 42
0.0000001
 43
0.0000001
 44
0.0000000001
 40
0.0
 40
0.0
 40
0.0
 40
0.0
 40
0.3687440226
 40
0.6838846285
 40
0.8069772463
 40
0.9012228172
 40
0.9368208252
 40
0.9646812102
 40
1.0
 40
1.0
 40
1.0
 40
1.0
 10
-2.7430020371
 20
0.0863418232
 30
0.0
 10
-2.6798475466
 20
0.086504369
 30
0.0
 10
-2.5627137931
 20
0.0900825842
 30
0.0
 10
-2.4249091386
 20
0.1025033971
 30
0.0
 10
-2.3349561494
 20
0.1181519391
 30
0.0
 10
-2.2929798317
 20
0.1287551137
 30
0.0
 10
-2.267586211
 20
0.1386975524
 30
0.0
 10
-2.2530469855
 20
0.146418532
 30
0.0
 10
-2.2437734897
 20
0.1548924142
 30
0.0
 10
-2.2430781895
 20
0.1609013617
 30
0.0
  0
SPLINE
  5
70A
100
AcDbEntity
  8
RACCORDO
100
AcDbSpline
 62
250
  6
CONTINUOUS
 70
0
 71
3
 72
20
 73
16
 74
0
 42
0.0000001
 43
0.0000001
 44
0.0000000001
 40
0.0
 40
0.0
 40
0.0
 40
0.0
 40
0.1926996389
 40
0.3785152121
 40
0.5498793014
 40
0.7005758141
 40
0.7664149456
 40
0.8250286034
 40
0.8758549739
 40
0.9184645243
 40
0.9524385704
 40
0.97743635
 40
0.9932950133
 40
0.9977737101
 40
1.0
 40
1.0
 40
1.0
 40
1.0
 10
-2.7601869216
 20
11.7970593112
 30
0.0
 10
-2.728054962
 20
11.7970699658
 30
0.0
 10
-2.6649389073
 20
11.7972064248
 30
0.0
 10
-2.5732499263
 20
11.7977471505
 30
0.0
 10
-2.4885674152
 20
11.7986048775
 30
0.0
 10
-2.4238938417
 20
11.799589393
 30
0.0
 10
-2.3780229453
 20
11.8005374458
 30
0.0
 10
-2.3488059481
 20
11.8012709402
 30
0.0
 10
-2.3234606812
 20
11.8020465261
 30
0.0
 10
-2.3022403888
 20
11.80286845
 30
0.0
 10
-2.2852968275
 20
11.8036824131
 30
0.0
 10
-2.272906325
 20
11.8045757282
 30
0.0
 10
-2.2652742027
 20
11.8052434555
 30
0.0
 10
-2.2616797972
 20
11.8059940418
 30
0.0
 10
-2.2605141544
 20
11.8062858753
 30
0.0
 10
-2.2602630741
 20
11.8065593112
 30
0.0
  0
SPLINE
  5
70B
100
AcDbEntity
  8
RACCORDO
100
AcDbSpline
 62
250
  6
CONTINUOUS
 70
0
 71
3
 72
20
 73
16
 74
0
 42
0.0000001
 43
0.0000001
 44
0.0000000001
 40
0.0
 40
0.0
 40
0.0
 40
0.0
 40
0.192699634
 40
0.378515203
 40
0.5498792891
 40
0.7005758001
 40
0.7664149316
 40
0.8250285897
 40
0.8758549611
 40
0.918464513
 40
0.9524385611
 40
0.9774363434
 40
0.9932950098
 40
0.9977737083
 40
1.0
 40
1.0
 40
1.0
 40
1.0
 10
-2.7601869216
 20
30.7970593108
 30
0.0
 10
-2.7280549628
 20
30.7970486563
 30
0.0
 10
-2.6649389096
 20
30.7969121973
 30
0.0
 10
-2.5732499307
 20
30.7963714716
 30
0.0
 10
-2.4885674212
 20
30.7955137446
 30
0.0
 10
-2.4238938485
 20
30.7945292292
 30
0.0
 10
-2.3780229524
 20
30.7935811764
 30
0.0
 10
-2.3488059549
 20
30.792847682
 30
0.0
 10
-2.3234606876
 20
30.7920720962
 30
0.0
 10
-2.3022403945
 20
30.7912501723
 30
0.0
 10
-2.2852968322
 20
30.7904362092
 30
0.0
 10
-2.2729063282
 20
30.7895428942
 30
0.0
 10
-2.265274205
 20
30.7888751668
 30
0.0
 10
-2.261679798
 20
30.7881245806
 30
0.0
 10
-2.2605141549
 20
30.787832747
 30
0.0
 10
-2.2602630741
 20
30.7875593112
 30
0.0
  0
LINE
  5
70C
100
AcDbEntity
  8
0
100
AcDbLine
 62
7
  6
CONTINUOUS
 10
-5.7409502038
 20
43.6184476423
 30
0.0
 11
-5.7482267219
 21
43.618453192
 31
0.0
  0
LINE
  5
70D
100
AcDbEntity
  8
0
100
AcDbLine
 62
7
  6
CONTINUOUS
 10
-20.7482267219
 20
43.618453192
 30
0.0
 11
-20.7555032401
 21
43.6184476423
 31
0.0
  0
SPLINE
  5
70E
100
AcDbEntity
  8
0
100
AcDbSpline
 62
7
  6
CONTINUOUS
 70
0
 71
3
 72
13
 73
9
 74
0
 42
0.0000001
 43
0.0000001
 44
0.0000000001
 40
0.0
 40
0.0
 40
0.0
 40
0.0
 40
0.3260521389
 40
0.605103046
 40
0.7216768541
 40
0.8239470167
 40
0.9151089552
 40
1.0
 40
1.0
 40
1.0
 40
1.0
 10
-20.7555032401
 20
44.419709042
 30
0.0
 10
-20.7213928011
 20
44.419709042
 30
0.0
 10
-20.6578892396
 20
44.4273998049
 30
0.0
 10
-20.5863277717
 20
44.4550292424
 30
0.0
 10
-20.544126095
 20
44.4860668931
 30
0.0
 10
-20.5223321678
 20
44.5104708444
 30
0.0
 10
-20.5088279182
 20
44.5366701356
 30
0.0
 10
-20.5055969559
 20
44.5551660548
 30
0.0
 10
-20.5055074708
 20
44.5640466093
 30
0.0
  0
SPLINE
  5
70F
100
AcDbEntity
  8
0
100
AcDbSpline
 62
7
  6
CONTINUOUS
 70
0
 71
3
 72
17
 73
13
 74
0
 42
0.0000001
 43
0.0000001
 44
0.0000000001
 40
0.0
 40
0.0
 40
0.0
 40
0.0
 40
0.0073720039
 40
0.0229057291
 40
0.0473504182
 40
0.0806711673
 40
0.1728682631
 40
0.2963664071
 40
0.4467111256
 40
0.6184099783
 40
0.8051419448
 40
1.0
 40
1.0
 40
1.0
 40
1.0
 10
-20.5055074708
 20
43.6314733635
 30
0.0
 10
-20.505573885
 20
43.6308750962
 30
0.0
 10
-20.5075276611
 20
43.6297454748
 30
0.0
 10
-20.5110004376
 20
43.6287574499
 30
0.0
 10
-20.517002629
 20
43.6275452941
 30
0.0
 10
-20.5290588625
 20
43.6258709188
 30
0.0
 10
-20.54936814
 20
43.6240054104
 30
0.0
 10
-20.579175127
 20
43.6221531356
 30
0.0
 10
-20.615532586
 20
43.6205993193
 30
0.0
 10
-20.6570566552
 20
43.6194203323
 30
0.0
 10
-20.7022296304
 20
43.6186680576
 30
0.0
 10
-20.7333871575
 20
43.6184719121
 30
0.0
 10
-20.7492977807
 20
43.6184476423
 30
0.0
  0
SPLINE
  5
710
100
AcDbEntity
  8
0
100
AcDbSpline
 62
250
  6
CONTINUOUS
 70
0
 71
3
 72
11
 73
7
 74
0
 42
0.0000001
 43
0.0000001
 44
0.0000000001
 40
0.0
 40
0.0
 40
0.0
 40
0.0
 40
0.2331623162
 40
0.4766706026
 40
0.7338117062
 40
1.0
 40
1.0
 40
1.0
 40
1.0
 10
-23.3851281432
 20
45.1413968785
 30
0.0
 10
-23.3850330714
 20
45.1130916927
 30
0.0
 10
-23.3711032125
 20
45.0545485513
 30
0.0
 10
-23.3141707846
 20
44.9828874352
 30
0.0
 10
-23.2315027438
 20
44.9358892406
 30
0.0
 10
-23.1674468913
 20
44.9249719341
 30
0.0
 10
-23.135132374
 20
44.9248905276
 30
0.0
  0
SPLINE
  5
711
100
AcDbEntity
  8
0
100
AcDbSpline
 62
7
  6
CONTINUOUS
 70
0
 71
3
 72
13
 73
9
 74
0
 42
0.0000001
 43
0.0000001
 44
0.0000000001
 40
0.0
 40
0.0
 40
0.0
 40
0.0
 40
0.0848440362
 40
0.1759755807
 40
0.278241715
 40
0.3948395492
 40
0.6739816576
 40
1.0
 40
1.0
 40
1.0
 40
1.0
 10
-23.390945973
 20
44.5640466093
 30
0.0
 10
-23.3908563314
 20
44.5551505229
 30
0.0
 10
-23.3876136623
 20
44.5366198967
 30
0.0
 10
-23.3740616748
 20
44.5103775903
 30
0.0
 10
-23.3521928359
 20
44.4859399407
 30
0.0
 10
-23.3098480689
 20
44.4548755387
 30
0.0
 10
-23.2380773503
 20
44.4272439742
 30
0.0
 10
-23.1744084608
 20
44.419709042
 30
0.0
 10
-23.1402229751
 20
44.419709042
 30
0.0
  0
SPLINE
  5
712
100
AcDbEntity
  8
0
100
AcDbSpline
 62
250
  6
CONTINUOUS
 70
0
 71
3
 72
11
 73
7
 74
0
 42
0.0000001
 43
0.0000001
 44
0.0000000001
 40
0.0
 40
0.0
 40
0.0
 40
0.0
 40
0.2331623084
 40
0.476670585
 40
0.7338116789
 40
1.0
 40
1.0
 40
1.0
 40
1.0
 10
-20.5113253007
 20
45.1413968785
 30
0.0
 10
-20.5114203724
 20
45.1130916937
 30
0.0
 10
-20.5253502302
 20
45.0545485544
 30
0.0
 10
-20.5822826543
 20
44.9828874398
 30
0.0
 10
-20.6649506945
 20
44.9358892426
 30
0.0
 10
-20.7290065492
 20
44.9249719341
 30
0.0
 10
-20.7613210699
 20
44.9248905276
 30
0.0
  0
SPLINE
  5
713
100
AcDbEntity
  8
0
100
AcDbSpline
 62
250
  6
CONTINUOUS
 70
0
 71
3
 72
11
 73
7
 74
0
 42
0.0000001
 43
0.0000001
 44
0.0000000001
 40
0.0
 40
0.0
 40
0.0
 40
0.0
 40
0.2331623084
 40
0.476670585
 40
0.7338116789
 40
1.0
 40
1.0
 40
1.0
 40
1.0
 10
-5.9851281432
 20
45.1413968785
 30
0.0
 10
-5.9850330714
 20
45.1130916937
 30
0.0
 10
-5.9711032137
 20
45.0545485544
 30
0.0
 10
-5.9141707896
 20
44.9828874398
 30
0.0
 10
-5.8315027494
 20
44.9358892426
 30
0.0
 10
-5.7674468946
 20
44.9249719341
 30
0.0
 10
-5.735132374
 20
44.9248905276
 30
0.0
  0
SPLINE
  5
714
100
AcDbEntity
  8
0
100
AcDbSpline
 62
7
  6
CONTINUOUS
 70
0
 71
3
 72
13
 73
9
 74
0
 42
0.0000001
 43
0.0000001
 44
0.0000000001
 40
0.0
 40
0.0
 40
0.0
 40
0.0
 40
0.0848440362
 40
0.1759755807
 40
0.278241715
 40
0.3948395492
 40
0.6739816576
 40
1.0
 40
1.0
 40
1.0
 40
1.0
 10
-5.990945973
 20
44.5640466093
 30
0.0
 10
-5.9908563314
 20
44.5551505229
 30
0.0
 10
-5.9876136623
 20
44.5366198967
 30
0.0
 10
-5.9740616748
 20
44.5103775903
 30
0.0
 10
-5.9521928359
 20
44.4859399407
 30
0.0
 10
-5.9098480689
 20
44.4548755387
 30
0.0
 10
-5.8380773503
 20
44.4272439742
 30
0.0
 10
-5.7744084608
 20
44.419709042
 30
0.0
 10
-5.7402229751
 20
44.419709042
 30
0.0
  0
SPLINE
  5
715
100
AcDbEntity
  8
0
100
AcDbSpline
 62
7
  6
CONTINUOUS
 70
0
 71
3
 72
13
 73
9
 74
0
 42
0.0000001
 43
0.0000001
 44
0.0000000001
 40
0.0
 40
0.0
 40
0.0
 40
0.0
 40
0.0848440362
 40
0.1759755807
 40
0.278241715
 40
0.3948395492
 40
0.6739816576
 40
1.0
 40
1.0
 40
1.0
 40
1.0
 10
-3.1055074708
 20
44.5640466093
 30
0.0
 10
-3.1055971124
 20
44.5551505229
 30
0.0
 10
-3.1088397816
 20
44.5366198967
 30
0.0
 10
-3.1223917691
 20
44.5103775903
 30
0.0
 10
-3.144260608
 20
44.4859399407
 30
0.0
 10
-3.1866053749
 20
44.4548755387
 30
0.0
 10
-3.2583760936
 20
44.4272439742
 30
0.0
 10
-3.3220449831
 20
44.419709042
 30
0.0
 10
-3.3562304688
 20
44.419709042
 30
0.0
  0
SPLINE
  5
716
100
AcDbEntity
  8
0
100
AcDbSpline
 62
250
  6
CONTINUOUS
 70
0
 71
3
 72
11
 73
7
 74
0
 42
0.0000001
 43
0.0000001
 44
0.0000000001
 40
0.0
 40
0.0
 40
0.0
 40
0.0
 40
0.2331622206
 40
0.4766705204
 40
0.7338116472
 40
1.0
 40
1.0
 40
1.0
 40
1.0
 10
-3.1113253007
 20
45.1413968785
 30
0.0
 10
-3.1114203724
 20
45.1130917043
 30
0.0
 10
-3.1253502208
 20
45.0545485729
 30
0.0
 10
-3.1822826358
 20
44.9828874541
 30
0.0
 10
-3.2649506825
 20
44.9358892457
 30
0.0
 10
-3.3290065454
 20
44.9249719341
 30
0.0
 10
-3.3613210699
 20
44.9248905276
 30
0.0
  0
SPLINE
  5
717
100
AcDbEntity
  8
0
100
AcDbSpline
 62
250
  6
CONTINUOUS
 70
0
 71
3
 72
11
 73
7
 74
0
 42
0.0000001
 43
0.0000001
 44
0.0000000001
 40
0.0
 40
0.0
 40
0.0
 40
0.0
 40
0.2331623084
 40
0.476670585
 40
0.7338116789
 40
1.0
 40
1.0
 40
1.0
 40
1.0
 10
-3.1113253007
 20
-2.5472782561
 30
0.0
 10
-3.1114203724
 20
-2.5189730712
 30
0.0
 10
-3.1253502302
 20
-2.460429932
 30
0.0
 10
-3.1822826543
 20
-2.3887688173
 30
0.0
 10
-3.2649506945
 20
-2.3417706202
 30
0.0
 10
-3.3290065492
 20
-2.3308533117
 30
0.0
 10
-3.3613210699
 20
-2.3307719051
 30
0.0
  0
SPLINE
  5
718
100
AcDbEntity
  8
0
100
AcDbSpline
 62
7
  6
CONTINUOUS
 70
0
 71
3
 72
13
 73
9
 74
0
 42
0.0000001
 43
0.0000001
 44
0.0000000001
 40
0.0
 40
0.0
 40
0.0
 40
0.0
 40
0.0848440362
 40
0.1759755807
 40
0.278241715
 40
0.3948395492
 40
0.6739816576
 40
1.0
 40
1.0
 40
1.0
 40
1.0
 10
-3.1055074708
 20
-1.9699279869
 30
0.0
 10
-3.1055971124
 20
-1.9610319005
 30
0.0
 10
-3.1088397816
 20
-1.9425012743
 30
0.0
 10
-3.1223917691
 20
-1.9162589679
 30
0.0
 10
-3.144260608
 20
-1.8918213182
 30
0.0
 10
-3.1866053749
 20
-1.8607569163
 30
0.0
 10
-3.2583760936
 20
-1.8331253518
 30
0.0
 10
-3.3220449831
 20
-1.8255904196
 30
0.0
 10
-3.3562304688
 20
-1.8255904196
 30
0.0
  0
SPLINE
  5
719
100
AcDbEntity
  8
0
100
AcDbSpline
 62
7
  6
CONTINUOUS
 70
0
 71
3
 72
13
 73
9
 74
0
 42
0.0000001
 43
0.0000001
 44
0.0000000001
 40
0.0
 40
0.0
 40
0.0
 40
0.0
 40
0.0848440362
 40
0.1759755807
 40
0.278241715
 40
0.3948395492
 40
0.6739816576
 40
1.0
 40
1.0
 40
1.0
 40
1.0
 10
-5.990945973
 20
-1.9699279869
 30
0.0
 10
-5.9908563314
 20
-1.9610319005
 30
0.0
 10
-5.9876136623
 20
-1.9425012743
 30
0.0
 10
-5.9740616748
 20
-1.9162589679
 30
0.0
 10
-5.9521928359
 20
-1.8918213182
 30
0.0
 10
-5.9098480689
 20
-1.8607569163
 30
0.0
 10
-5.8380773503
 20
-1.8331253518
 30
0.0
 10
-5.7744084608
 20
-1.8255904196
 30
0.0
 10
-5.7402229751
 20
-1.8255904196
 30
0.0
  0
SPLINE
  5
71A
100
AcDbEntity
  8
0
100
AcDbSpline
 62
250
  6
CONTINUOUS
 70
0
 71
3
 72
11
 73
7
 74
0
 42
0.0000001
 43
0.0000001
 44
0.0000000001
 40
0.0
 40
0.0
 40
0.0
 40
0.0
 40
0.2331622206
 40
0.4766705204
 40
0.7338116472
 40
1.0
 40
1.0
 40
1.0
 40
1.0
 10
-5.9851281432
 20
-2.5472782561
 30
0.0
 10
-5.9850330715
 20
-2.5189730819
 30
0.0
 10
-5.971103223
 20
-2.4604299505
 30
0.0
 10
-5.9141708081
 20
-2.3887688316
 30
0.0
 10
-5.8315027614
 20
-2.3417706232
 30
0.0
 10
-5.7674468985
 20
-2.3308533117
 30
0.0
 10
-5.735132374
 20
-2.3307719051
 30
0.0
  0
LINE
  5
71B
100
AcDbEntity
  8
0
100
AcDbLine
 62
7
  6
CONTINUOUS
 10
-5.7482267219
 20
-1.0243345696
 30
0.0
 11
-5.7409502038
 21
-1.0243290199
 31
0.0
  0
SPLINE
  5
71C
100
AcDbEntity
  8
0
100
AcDbSpline
 62
7
  6
CONTINUOUS
 70
0
 71
3
 72
17
 73
13
 74
0
 42
0.0000001
 43
0.0000001
 44
0.0000000001
 40
0.0
 40
0.0
 40
0.0
 40
0.0
 40
0.0073720039
 40
0.0229057291
 40
0.0473504182
 40
0.0806711673
 40
0.1728682631
 40
0.2963664071
 40
0.4467111256
 40
0.6184099783
 40
0.8051419448
 40
1.0
 40
1.0
 40
1.0
 40
1.0
 10
-5.990945973
 20
-1.0373547411
 30
0.0
 10
-5.9908795589
 20
-1.0367564738
 30
0.0
 10
-5.9889257828
 20
-1.0356268523
 30
0.0
 10
-5.9854530063
 20
-1.0346388274
 30
0.0
 10
-5.9794508149
 20
-1.0334266717
 30
0.0
 10
-5.9673945814
 20
-1.0317522964
 30
0.0
 10
-5.9470853039
 20
-1.0298867879
 30
0.0
 10
-5.9172783168
 20
-1.0280345131
 30
0.0
 10
-5.8809208579
 20
-1.0264806969
 30
0.0
 10
-5.8393967886
 20
-1.0253017098
 30
0.0
 10
-5.7942238134
 20
-1.0245494351
 30
0.0
 10
-5.7630662864
 20
-1.0243532896
 30
0.0
 10
-5.7471556632
 20
-1.0243290199
 30
0.0
  0
SPLINE
  5
71D
100
AcDbEntity
  8
0
100
AcDbSpline
 62
250
  6
CONTINUOUS
 70
0
 71
3
 72
11
 73
7
 74
0
 42
0.0000001
 43
0.0000001
 44
0.0000000001
 40
0.0
 40
0.0
 40
0.0
 40
0.0
 40
0.2331623084
 40
0.476670585
 40
0.7338116789
 40
1.0
 40
1.0
 40
1.0
 40
1.0
 10
-20.5113253007
 20
-2.5472782561
 30
0.0
 10
-20.5114203724
 20
-2.5189730712
 30
0.0
 10
-20.5253502302
 20
-2.460429932
 30
0.0
 10
-20.5822826543
 20
-2.3887688173
 30
0.0
 10
-20.6649506945
 20
-2.3417706202
 30
0.0
 10
-20.7290065492
 20
-2.3308533117
 30
0.0
 10
-20.7613210699
 20
-2.3307719051
 30
0.0
  0
SPLINE
  5
71E
100
AcDbEntity
  8
0
100
AcDbSpline
 62
7
  6
CONTINUOUS
 70
0
 71
3
 72
13
 73
9
 74
0
 42
0.0000001
 43
0.0000001
 44
0.0000000001
 40
0.0
 40
0.0
 40
0.0
 40
0.0
 40
0.0848440362
 40
0.1759755807
 40
0.278241715
 40
0.3948395492
 40
0.6739816576
 40
1.0
 40
1.0
 40
1.0
 40
1.0
 10
-20.5055074708
 20
-1.9699279869
 30
0.0
 10
-20.5055971124
 20
-1.9610319005
 30
0.0
 10
-20.5088397816
 20
-1.9425012743
 30
0.0
 10
-20.5223917691
 20
-1.9162589679
 30
0.0
 10
-20.544260608
 20
-1.8918213182
 30
0.0
 10
-20.5866053749
 20
-1.8607569163
 30
0.0
 10
-20.6583760936
 20
-1.8331253518
 30
0.0
 10
-20.7220449831
 20
-1.8255904196
 30
0.0
 10
-20.7562304688
 20
-1.8255904196
 30
0.0
  0
LINE
  5
71F
100
AcDbEntity
  8
0
100
AcDbLine
 62
7
  6
CONTINUOUS
 10
-20.7555032401
 20
-1.0243290199
 30
0.0
 11
-20.7482267219
 21
-1.0243345696
 31
0.0
  0
SPLINE
  5
720
100
AcDbEntity
  8
0
100
AcDbSpline
 62
7
  6
CONTINUOUS
 70
0
 71
3
 72
13
 73
9
 74
0
 42
0.0000001
 43
0.0000001
 44
0.0000000001
 40
0.0
 40
0.0
 40
0.0
 40
0.0
 40
0.3260521389
 40
0.605103046
 40
0.7216768541
 40
0.8239470167
 40
0.9151089552
 40
1.0
 40
1.0
 40
1.0
 40
1.0
 10
-23.1409502038
 20
-1.8255904196
 30
0.0
 10
-23.1750606428
 20
-1.8255904196
 30
0.0
 10
-23.2385642042
 20
-1.8332811824
 30
0.0
 10
-23.3101256721
 20
-1.86091062
 30
0.0
 10
-23.3523273489
 20
-1.8919482707
 30
0.0
 10
-23.3741212761
 20
-1.916352222
 30
0.0
 10
-23.3876255256
 20
-1.9425515132
 30
0.0
 10
-23.3908564879
 20
-1.9610474323
 30
0.0
 10
-23.390945973
 20
-1.9699279869
 30
0.0
  0
SPLINE
  5
721
100
AcDbEntity
  8
0
100
AcDbSpline
 62
250
  6
CONTINUOUS
 70
0
 71
3
 72
11
 73
7
 74
0
 42
0.0000001
 43
0.0000001
 44
0.0000000001
 40
0.0
 40
0.0
 40
0.0
 40
0.0
 40
0.2331623084
 40
0.476670585
 40
0.7338116789
 40
1.0
 40
1.0
 40
1.0
 40
1.0
 10
-23.3851281432
 20
-2.5472782561
 30
0.0
 10
-23.3850330714
 20
-2.5189730712
 30
0.0
 10
-23.3711032137
 20
-2.460429932
 30
0.0
 10
-23.3141707896
 20
-2.3887688173
 30
0.0
 10
-23.2315027494
 20
-2.3417706202
 30
0.0
 10
-23.1674468946
 20
-2.3308533117
 30
0.0
 10
-23.135132374
 20
-2.3307719051
 30
0.0
  0
SPLINE
  5
722
100
AcDbEntity
  8
ASSI
100
AcDbSpline
 62
250
  6
CONTINUOUS
 70
0
 71
3
 72
21
 73
17
 74
0
 42
0.0000001
 43
0.0000001
 44
0.0000000001
 40
0.0
 40
0.0
 40
0.0
 40
0.0
 40
0.0014805288
 40
0.0051988332
 40
0.0112680494
 40
0.0196914047
 40
0.0435509795
 40
0.0766298757
 40
0.1185876911
 40
0.1690012884
 40
0.2274362921
 40
0.2933199217
 40
0.4447118894
 40
0.6174576202
 40
0.8051562987
 40
1.0
 40
1.0
 40
1.0
 40
1.0
 10
-96.3631108759
 20
-0.7631686314
 30
0.0
 10
-96.363357233
 20
-0.7631557204
 30
0.0
 10
-96.3636385809
 20
-0.7620215087
 30
0.0
 10
-96.3639053722
 20
-0.7604258322
 30
0.0
 10
-96.3641485017
 20
-0.7572560278
 30
0.0
 10
-96.3644270832
 20
-0.7509571337
 30
0.0
 10
-96.3645569322
 20
-0.7400015744
 30
0.0
 10
-96.3644689366
 20
-0.7235533054
 30
0.0
 10
-96.3641242279
 20
-0.7026407832
 30
0.0
 10
-96.3635274037
 20
-0.677523541
 30
0.0
 10
-96.3626780023
 20
-0.6484194394
 30
0.0
 10
-96.3611465898
 20
-0.6025047713
 30
0.0
 10
-96.3586457376
 20
-0.5375643218
 30
0.0
 10
-96.3549587332
 20
-0.4523584984
 30
0.0
 10
-96.3505947011
 20
-0.3599355626
 30
0.0
 10
-96.3473677298
 20
-0.296275503
 30
0.0
 10
-96.345669101
 20
-0.263853864
 30
0.0
  0
SPLINE
  5
723
100
AcDbEntity
  8
ASSI
100
AcDbSpline
 62
250
  6
CONTINUOUS
 70
0
 71
3
 72
22
 73
18
 74
0
 42
0.0000001
 43
0.0000001
 44
0.0000000001
 40
0.0
 40
0.0
 40
0.0
 40
0.0
 40
0.0012127082
 40
0.0048205886
 40
0.0108090185
 40
0.0191602892
 40
0.0298563479
 40
0.042879048
 40
0.0758084812
 40
0.1176088351
 40
0.167863599
 40
0.2261468379
 40
0.2918975702
 40
0.4431378497
 40
0.6159839408
 40
0.8041621051
 40
1.0
 40
1.0
 40
1.0
 40
1.0
 10
-97.2995941439
 20
0.0863418232
 30
0.0
 10
-97.2996237639
 20
0.0865382355
 30
0.0
 10
-97.2983250127
 20
0.0863950153
 30
0.0
 10
-97.297088054
 20
0.0870047261
 30
0.0
 10
-97.293904075
 20
0.0873347055
 30
0.0
 10
-97.2899845742
 20
0.0880784939
 30
0.0
 10
-97.2847512427
 20
0.0888932166
 30
0.0
 10
-97.2756127449
 20
0.0903760683
 30
0.0
 10
-97.2614007187
 20
0.0926108229
 30
0.0
 10
-97.2411813271
 20
0.0957773676
 30
0.0
 10
-97.2168460958
 20
0.0995532451
 30
0.0
 10
-97.18863387
 20
0.1039097657
 30
0.0
 10
-97.1440692426
 20
0.1107616504
 30
0.0
 10
-97.0809509586
 20
0.1204166603
 30
0.0
 10
-96.9980012109
 20
0.1330445372
 30
0.0
 10
-96.9078219197
 20
0.1467188254
 30
0.0
 10
-96.8456287763
 20
0.1561166604
 30
0.0
 10
-96.8139107453
 20
0.1609013617
 30
0.0
  0
SPLINE
  5
724
100
AcDbEntity
  8
ASSI
100
AcDbSpline
 62
250
  6
CONTINUOUS
 70
0
 71
3
 72
22
 73
18
 74
0
 42
0.0000001
 43
0.0000001
 44
0.0000000001
 40
0.0
 40
0.0
 40
0.0
 40
0.0
 40
0.0012126469
 40
0.0048204222
 40
0.0108087067
 40
0.019159795
 40
0.0298556373
 40
0.0428780901
 40
0.0758069531
 40
0.1176066791
 40
0.1678608107
 40
0.2261434676
 40
0.2918937229
 40
0.4431335472
 40
0.6159800828
 40
0.8041597036
 40
1.0
 40
1.0
 40
1.0
 40
1.0
 10
-97.2995779111
 20
42.5077743477
 30
0.0
 10
-97.299607589
 20
42.5075779609
 30
0.0
 10
-97.2983087845
 20
42.5077211377
 30
0.0
 10
-97.2970720431
 20
42.5071114903
 30
0.0
 10
-97.2938881677
 20
42.5067815117
 30
0.0
 10
-97.2899689188
 20
42.5060377686
 30
0.0
 10
-97.2847358543
 20
42.5052230847
 30
0.0
 10
-97.2755978356
 20
42.5037403076
 30
0.0
 10
-97.2613865146
 20
42.5015056604
 30
0.0
 10
-97.2411680969
 20
42.4983392648
 30
0.0
 10
-97.2168339767
 20
42.4945635566
 30
0.0
 10
-97.1886229678
 20
42.4902072208
 30
0.0
 10
-97.144060075
 20
42.4833555986
 30
0.0
 10
-97.0809439794
 20
42.4737009184
 30
0.0
 10
-96.9979967696
 20
42.4610734228
 30
0.0
 10
-96.9078197952
 20
42.4473994809
 30
0.0
 10
-96.8456281053
 20
42.4380018624
 30
0.0
 10
-96.8139107453
 20
42.4332172607
 30
0.0
  0
SPLINE
  5
725
100
AcDbEntity
  8
ASSI
100
AcDbSpline
 62
250
  6
CONTINUOUS
 70
0
 71
3
 72
21
 73
17
 74
0
 42
0.0000001
 43
0.0000001
 44
0.0000000001
 40
0.0
 40
0.0
 40
0.0
 40
0.0
 40
0.0014805278
 40
0.0051988302
 40
0.0112680435
 40
0.0196913955
 40
0.0435509644
 40
0.0766298531
 40
0.1185876554
 40
0.1690012419
 40
0.2274362408
 40
0.2933198606
 40
0.4447118162
 40
0.6174575576
 40
0.8051562788
 40
1.0
 40
1.0
 40
1.0
 40
1.0
 10
-96.3631108759
 20
43.3572872539
 30
0.0
 10
-96.3633572329
 20
43.3572743428
 30
0.0
 10
-96.3636385806
 20
43.3561401318
 30
0.0
 10
-96.3639053716
 20
43.3545444561
 30
0.0
 10
-96.364148501
 20
43.3513746532
 30
0.0
 10
-96.3644270822
 20
43.3450757611
 30
0.0
 10
-96.3645569308
 20
43.3341202045
 30
0.0
 10
-96.364468935
 20
43.31767194
 30
0.0
 10
-96.3641242264
 20
43.296759423
 30
0.0
 10
-96.3635274024
 20
43.2716421856
 30
0.0
 10
-96.3626780011
 20
43.2425380882
 30
0.0
 10
-96.3611465891
 20
43.1966234246
 30
0.0
 10
-96.3586457373
 20
43.131682977
 30
0.0
 10
-96.3549587332
 20
43.0464771467
 30
0.0
 10
-96.350594701
 20
42.9540541988
 30
0.0
 10
-96.3473677298
 20
42.8903941288
 30
0.0
 10
-96.345669101
 20
42.8579724865
 30
0.0
  0
SPLINE
  5
726
100
AcDbEntity
  8
RACCORDO
100
AcDbSpline
 62
250
  6
CONTINUOUS
 70
0
 71
3
 72
21
 73
17
 74
0
 42
0.0000001
 43
0.0000001
 44
0.0000000001
 40
0.0
 40
0.0
 40
0.0
 40
0.0
 40
0.0014805288
 40
0.0051988332
 40
0.0112680494
 40
0.0196914047
 40
0.0435509795
 40
0.0766298757
 40
0.1185876911
 40
0.1690012884
 40
0.2274362921
 40
0.2933199217
 40
0.4447118894
 40
0.6174576202
 40
0.8051562987
 40
1.0
 40
1.0
 40
1.0
 40
1.0
 10
-96.3631108759
 20
-0.7631686314
 30
0.0
 10
-96.363357233
 20
-0.7631557204
 30
0.0
 10
-96.3636385809
 20
-0.7620215087
 30
0.0
 10
-96.3639053722
 20
-0.7604258322
 30
0.0
 10
-96.3641485017
 20
-0.7572560278
 30
0.0
 10
-96.3644270832
 20
-0.7509571337
 30
0.0
 10
-96.3645569322
 20
-0.7400015744
 30
0.0
 10
-96.3644689366
 20
-0.7235533054
 30
0.0
 10
-96.3641242279
 20
-0.7026407832
 30
0.0
 10
-96.3635274037
 20
-0.677523541
 30
0.0
 10
-96.3626780023
 20
-0.6484194394
 30
0.0
 10
-96.3611465898
 20
-0.6025047713
 30
0.0
 10
-96.3586457376
 20
-0.5375643218
 30
0.0
 10
-96.3549587332
 20
-0.4523584984
 30
0.0
 10
-96.3505947011
 20
-0.3599355626
 30
0.0
 10
-96.3473677298
 20
-0.296275503
 30
0.0
 10
-96.345669101
 20
-0.263853864
 30
0.0
  0
SPLINE
  5
727
100
AcDbEntity
  8
RACCORDO
100
AcDbSpline
 62
250
  6
CONTINUOUS
 70
0
 71
3
 72
22
 73
18
 74
0
 42
0.0000001
 43
0.0000001
 44
0.0000000001
 40
0.0
 40
0.0
 40
0.0
 40
0.0
 40
0.0012126469
 40
0.0048204222
 40
0.0108087067
 40
0.019159795
 40
0.0298556373
 40
0.0428780901
 40
0.0758069531
 40
0.1176066791
 40
0.1678608107
 40
0.2261434676
 40
0.2918937229
 40
0.4431335472
 40
0.6159800828
 40
0.8041597036
 40
1.0
 40
1.0
 40
1.0
 40
1.0
 10
-97.2995779111
 20
42.5077743477
 30
0.0
 10
-97.299607589
 20
42.5075779609
 30
0.0
 10
-97.2983087845
 20
42.5077211377
 30
0.0
 10
-97.2970720431
 20
42.5071114903
 30
0.0
 10
-97.2938881677
 20
42.5067815117
 30
0.0
 10
-97.2899689188
 20
42.5060377686
 30
0.0
 10
-97.2847358543
 20
42.5052230847
 30
0.0
 10
-97.2755978356
 20
42.5037403076
 30
0.0
 10
-97.2613865146
 20
42.5015056604
 30
0.0
 10
-97.2411680969
 20
42.4983392648
 30
0.0
 10
-97.2168339767
 20
42.4945635566
 30
0.0
 10
-97.1886229678
 20
42.4902072208
 30
0.0
 10
-97.144060075
 20
42.4833555986
 30
0.0
 10
-97.0809439794
 20
42.4737009184
 30
0.0
 10
-96.9979967696
 20
42.4610734228
 30
0.0
 10
-96.9078197952
 20
42.4473994809
 30
0.0
 10
-96.8456281053
 20
42.4380018624
 30
0.0
 10
-96.8139107453
 20
42.4332172607
 30
0.0
  0
SPLINE
  5
728
100
AcDbEntity
  8
RACCORDO
100
AcDbSpline
 62
250
  6
CONTINUOUS
 70
0
 71
3
 72
22
 73
18
 74
0
 42
0.0000001
 43
0.0000001
 44
0.0000000001
 40
0.0
 40
0.0
 40
0.0
 40
0.0
 40
0.0012127082
 40
0.0048205886
 40
0.0108090185
 40
0.0191602892
 40
0.0298563479
 40
0.042879048
 40
0.0758084812
 40
0.1176088351
 40
0.167863599
 40
0.2261468379
 40
0.2918975702
 40
0.4431378497
 40
0.6159839408
 40
0.8041621051
 40
1.0
 40
1.0
 40
1.0
 40
1.0
 10
-97.2995941439
 20
0.0863418232
 30
0.0
 10
-97.2996237639
 20
0.0865382355
 30
0.0
 10
-97.2983250127
 20
0.0863950153
 30
0.0
 10
-97.297088054
 20
0.0870047261
 30
0.0
 10
-97.293904075
 20
0.0873347055
 30
0.0
 10
-97.2899845742
 20
0.0880784939
 30
0.0
 10
-97.2847512427
 20
0.0888932166
 30
0.0
 10
-97.2756127449
 20
0.0903760683
 30
0.0
 10
-97.2614007187
 20
0.0926108229
 30
0.0
 10
-97.2411813271
 20
0.0957773676
 30
0.0
 10
-97.2168460958
 20
0.0995532451
 30
0.0
 10
-97.18863387
 20
0.1039097657
 30
0.0
 10
-97.1440692426
 20
0.1107616504
 30
0.0
 10
-97.0809509586
 20
0.1204166603
 30
0.0
 10
-96.9980012109
 20
0.1330445372
 30
0.0
 10
-96.9078219197
 20
0.1467188254
 30
0.0
 10
-96.8456287763
 20
0.1561166604
 30
0.0
 10
-96.8139107453
 20
0.1609013617
 30
0.0
  0
SPLINE
  5
729
100
AcDbEntity
  8
RACCORDO
100
AcDbSpline
 62
250
  6
CONTINUOUS
 70
0
 71
3
 72
21
 73
17
 74
0
 42
0.0000001
 43
0.0000001
 44
0.0000000001
 40
0.0
 40
0.0
 40
0.0
 40
0.0
 40
0.0014805278
 40
0.0051988302
 40
0.0112680435
 40
0.0196913955
 40
0.0435509644
 40
0.0766298531
 40
0.1185876554
 40
0.1690012419
 40
0.2274362408
 40
0.2933198606
 40
0.4447118162
 40
0.6174575576
 40
0.8051562788
 40
1.0
 40
1.0
 40
1.0
 40
1.0
 10
-96.3631108759
 20
43.3572872539
 30
0.0
 10
-96.3633572329
 20
43.3572743428
 30
0.0
 10
-96.3636385806
 20
43.3561401318
 30
0.0
 10
-96.3639053716
 20
43.3545444561
 30
0.0
 10
-96.364148501
 20
43.3513746532
 30
0.0
 10
-96.3644270822
 20
43.3450757611
 30
0.0
 10
-96.3645569308
 20
43.3341202045
 30
0.0
 10
-96.364468935
 20
43.31767194
 30
0.0
 10
-96.3641242264
 20
43.296759423
 30
0.0
 10
-96.3635274024
 20
43.2716421856
 30
0.0
 10
-96.3626780011
 20
43.2425380882
 30
0.0
 10
-96.3611465891
 20
43.1966234246
 30
0.0
 10
-96.3586457373
 20
43.131682977
 30
0.0
 10
-96.3549587332
 20
43.0464771467
 30
0.0
 10
-96.350594701
 20
42.9540541988
 30
0.0
 10
-96.3473677298
 20
42.8903941288
 30
0.0
 10
-96.345669101
 20
42.8579724865
 30
0.0
  0
SPLINE
  5
72A
100
AcDbEntity
  8
RACCORDO
100
AcDbSpline
 62
250
  6
CONTINUOUS
 70
0
 71
3
 72
9
 73
5
 74
0
 42
0.0000001
 43
0.0000001
 44
0.0000000001
 40
0.0
 40
0.0
 40
0.0
 40
0.0
 40
0.4754869746
 40
1.0
 40
1.0
 40
1.0
 40
1.0
 10
-77.2332167287
 20
40.5967510388
 30
0.0
 10
-77.2085399314
 20
40.5963203037
 30
0.0
 10
-77.1564310158
 20
40.5815057142
 30
0.0
 10
-77.1162716018
 20
40.5463243204
 30
0.0
 10
-77.0989773586
 20
40.5252975315
 30
0.0
  0
SPLINE
  5
72B
100
AcDbEntity
  8
RACCORDO
100
AcDbSpline
 62
250
  6
CONTINUOUS
 70
0
 71
3
 72
9
 73
5
 74
0
 42
0.0000001
 43
0.0000001
 44
0.0000000001
 40
0.0
 40
0.0
 40
0.0
 40
0.0
 40
0.2361119236
 40
1.0
 40
1.0
 40
1.0
 40
1.0
 10
-77.0989773586
 20
40.5252975315
 30
0.0
 10
-77.091915354
 20
40.5167113634
 30
0.0
 10
-77.0644183553
 20
40.4783692244
 30
0.0
 10
-77.046679186
 20
40.4335143423
 30
0.0
 10
-77.0381131838
 20
40.3985817189
 30
0.0
  0
SPLINE
  5
72C
100
AcDbEntity
  8
RACCORDO
100
AcDbSpline
 62
250
  6
CONTINUOUS
 70
0
 71
3
 72
11
 73
7
 74
0
 42
0.0000001
 43
0.0000001
 44
0.0000000001
 40
0.0
 40
0.0
 40
0.0
 40
0.0
 40
0.20949056
 40
0.4447267344
 40
0.71226311
 40
1.0
 40
1.0
 40
1.0
 40
1.0
 10
-78.9403235099
 20
40.6265486985
 30
0.0
 10
-78.9124741046
 20
40.6260625853
 30
0.0
 10
-78.8530443546
 20
40.6069395889
 30
0.0
 10
-78.7851397435
 20
40.5370988006
 30
0.0
 10
-78.7425159685
 20
40.4391719814
 30
0.0
 10
-78.7330933219
 20
40.3648501314
 30
0.0
 10
-78.7334271974
 20
40.32659439
 30
0.0
  0
SPLINE
  5
72D
100
AcDbEntity
  8
RACCORDO
100
AcDbSpline
 62
250
  6
CONTINUOUS
 70
0
 71
3
 72
11
 73
7
 74
0
 42
0.0000001
 43
0.0000001
 44
0.0000000001
 40
0.0
 40
0.0
 40
0.0
 40
0.0
 40
0.2877369086
 40
0.5552732867
 40
0.7905094408
 40
1.0
 40
1.0
 40
1.0
 40
1.0
 10
-78.7334271974
 20
2.2675242325
 30
0.0
 10
-78.7330933336
 20
2.2292684897
 30
0.0
 10
-78.7425159984
 20
2.1549466439
 30
0.0
 10
-78.7851397607
 20
2.0570198259
 30
0.0
 10
-78.8530443588
 20
1.9871790306
 30
0.0
 10
-78.9124741056
 20
1.9680560371
 30
0.0
 10
-78.9403235099
 20
1.9675699239
 30
0.0
  0
SPLINE
  5
72E
100
AcDbEntity
  8
RACCORDO
100
AcDbSpline
 62
250
  6
CONTINUOUS
 70
0
 71
3
 72
9
 73
5
 74
0
 42
0.0000001
 43
0.0000001
 44
0.0000000001
 40
0.0
 40
0.0
 40
0.0
 40
0.0
 40
0.5431788213
 40
1.0
 40
1.0
 40
1.0
 40
1.0
 10
-77.0381155819
 20
2.1955263269
 30
0.0
 10
-77.0492711507
 20
2.1500384482
 30
0.0
 10
-77.0842736902
 20
2.0680456291
 30
0.0
 10
-77.1587396959
 20
2.0128333529
 30
0.0
 10
-77.1967748358
 20
2.0025928313
 30
0.0
  0
SPLINE
  5
72F
100
AcDbEntity
  8
RACCORDO
100
AcDbSpline
 62
250
  6
CONTINUOUS
 70
0
 71
3
 72
8
 73
4
 74
0
 42
0.0000001
 43
0.0000001
 44
0.0000000001
 40
0.0
 40
0.0
 40
0.0
 40
0.0
 40
1.0
 40
1.0
 40
1.0
 40
1.0
 10
-77.1967748358
 20
2.0025928313
 30
0.0
 10
-77.2086243989
 20
1.9994024734
 30
0.0
 10
-77.2209470644
 20
1.9975817514
 30
0.0
 10
-77.2332167287
 20
1.9973675836
 30
0.0
  0
LINE
  5
730
100
AcDbEntity
  8
RACCORDO
100
AcDbLine
 62
250
  6
CONTINUOUS
 10
-79.086980588
 20
40.3290629089
 30
0.0
 11
-78.7334271974
 21
40.32659439
 31
0.0
  0
LINE
  5
731
100
AcDbEntity
  8
RACCORDO
100
AcDbLine
 62
250
  6
CONTINUOUS
 10
-77.0263204163
 20
40.2967967303
 30
0.0
 11
-76.8798738048
 21
40.295774236
 31
0.0
  0
LINE
  5
732
100
AcDbEntity
  8
RACCORDO
100
AcDbLine
 62
250
  6
CONTINUOUS
 10
-77.0263204163
 20
2.2973218922
 30
0.0
 11
-76.8798737712
 21
2.298344389
 31
0.0
  0
LINE
  5
733
100
AcDbEntity
  8
RACCORDO
100
AcDbLine
 62
250
  6
CONTINUOUS
 10
-79.086980588
 20
2.2650557135
 30
0.0
 11
-78.7334271974
 21
2.2675242325
 31
0.0
  0
LINE
  5
734
100
AcDbEntity
  8
0
100
AcDbLine
 62
250
  6
CONTINUOUS
 10
-79.086980588
 20
2.2650557135
 30
0.0
 11
-78.7334271974
 21
2.2675242325
 31
0.0
  0
LINE
  5
735
100
AcDbEntity
  8
0
100
AcDbLine
 62
250
  6
CONTINUOUS
 10
-77.0263204163
 20
2.2973218922
 30
0.0
 11
-76.8798737712
 21
2.298344389
 31
0.0
  0
LINE
  5
736
100
AcDbEntity
  8
0
100
AcDbLine
 62
250
  6
CONTINUOUS
 10
-77.0263204163
 20
40.2967967303
 30
0.0
 11
-76.8798738048
 21
40.295774236
 31
0.0
  0
LINE
  5
737
100
AcDbEntity
  8
0
100
AcDbLine
 62
250
  6
CONTINUOUS
 10
-79.086980588
 20
40.3290629089
 30
0.0
 11
-78.7334271974
 21
40.32659439
 31
0.0
  0
SPLINE
  5
738
100
AcDbEntity
  8
0
100
AcDbSpline
 62
250
  6
CONTINUOUS
 70
0
 71
3
 72
9
 73
5
 74
0
 42
0.0000001
 43
0.0000001
 44
0.0000000001
 40
0.0
 40
0.0
 40
0.0
 40
0.0
 40
0.5431788213
 40
1.0
 40
1.0
 40
1.0
 40
1.0
 10
-77.0381155819
 20
2.1955263269
 30
0.0
 10
-77.0492711507
 20
2.1500384482
 30
0.0
 10
-77.0842736902
 20
2.0680456291
 30
0.0
 10
-77.1587396959
 20
2.0128333529
 30
0.0
 10
-77.1967748358
 20
2.0025928313
 30
0.0
  0
SPLINE
  5
739
100
AcDbEntity
  8
0
100
AcDbSpline
 62
250
  6
CONTINUOUS
 70
0
 71
3
 72
8
 73
4
 74
0
 42
0.0000001
 43
0.0000001
 44
0.0000000001
 40
0.0
 40
0.0
 40
0.0
 40
0.0
 40
1.0
 40
1.0
 40
1.0
 40
1.0
 10
-77.1967748358
 20
2.0025928313
 30
0.0
 10
-77.2086243989
 20
1.9994024734
 30
0.0
 10
-77.2209470644
 20
1.9975817514
 30
0.0
 10
-77.2332167287
 20
1.9973675836
 30
0.0
  0
SPLINE
  5
73A
100
AcDbEntity
  8
0
100
AcDbSpline
 62
250
  6
CONTINUOUS
 70
0
 71
3
 72
11
 73
7
 74
0
 42
0.0000001
 43
0.0000001
 44
0.0000000001
 40
0.0
 40
0.0
 40
0.0
 40
0.0
 40
0.2877369086
 40
0.5552732867
 40
0.7905094408
 40
1.0
 40
1.0
 40
1.0
 40
1.0
 10
-78.7334271974
 20
2.2675242325
 30
0.0
 10
-78.7330933336
 20
2.2292684897
 30
0.0
 10
-78.7425159984
 20
2.1549466439
 30
0.0
 10
-78.7851397607
 20
2.0570198259
 30
0.0
 10
-78.8530443588
 20
1.9871790306
 30
0.0
 10
-78.9124741056
 20
1.9680560371
 30
0.0
 10
-78.9403235099
 20
1.9675699239
 30
0.0
  0
SPLINE
  5
73B
100
AcDbEntity
  8
0
100
AcDbSpline
 62
250
  6
CONTINUOUS
 70
0
 71
3
 72
9
 73
5
 74
0
 42
0.0000001
 43
0.0000001
 44
0.0000000001
 40
0.0
 40
0.0
 40
0.0
 40
0.0
 40
0.4754869746
 40
1.0
 40
1.0
 40
1.0
 40
1.0
 10
-77.2332167287
 20
40.5967510388
 30
0.0
 10
-77.2085399314
 20
40.5963203037
 30
0.0
 10
-77.1564310158
 20
40.5815057142
 30
0.0
 10
-77.1162716018
 20
40.5463243204
 30
0.0
 10
-77.0989773586
 20
40.5252975315
 30
0.0
  0
SPLINE
  5
73C
100
AcDbEntity
  8
0
100
AcDbSpline
 62
250
  6
CONTINUOUS
 70
0
 71
3
 72
9
 73
5
 74
0
 42
0.0000001
 43
0.0000001
 44
0.0000000001
 40
0.0
 40
0.0
 40
0.0
 40
0.0
 40
0.2361119236
 40
1.0
 40
1.0
 40
1.0
 40
1.0
 10
-77.0989773586
 20
40.5252975315
 30
0.0
 10
-77.091915354
 20
40.5167113634
 30
0.0
 10
-77.0644183553
 20
40.4783692244
 30
0.0
 10
-77.046679186
 20
40.4335143423
 30
0.0
 10
-77.0381131838
 20
40.3985817189
 30
0.0
  0
SPLINE
  5
73D
100
AcDbEntity
  8
0
100
AcDbSpline
 62
250
  6
CONTINUOUS
 70
0
 71
3
 72
11
 73
7
 74
0
 42
0.0000001
 43
0.0000001
 44
0.0000000001
 40
0.0
 40
0.0
 40
0.0
 40
0.0
 40
0.20949056
 40
0.4447267344
 40
0.71226311
 40
1.0
 40
1.0
 40
1.0
 40
1.0
 10
-78.9403235099
 20
40.6265486985
 30
0.0
 10
-78.9124741046
 20
40.6260625853
 30
0.0
 10
-78.8530443546
 20
40.6069395889
 30
0.0
 10
-78.7851397435
 20
40.5370988006
 30
0.0
 10
-78.7425159685
 20
40.4391719814
 30
0.0
 10
-78.7330933219
 20
40.3648501314
 30
0.0
 10
-78.7334271974
 20
40.32659439
 30
0.0
  0
SPLINE
  5
73E
100
AcDbEntity
  8
CURVE
100
AcDbSpline
 62
7
  6
CONTINUOUS
 70
0
 71
3
 72
8
 73
4
 74
0
 42
0.0000001
 43
0.0000001
 44
0.0000000001
 40
0.0
 40
0.0
 40
0.0
 40
0.0
 40
1.0
 40
1.0
 40
1.0
 40
1.0
 10
-85.9974346635
 20
33.0216778962
 30
0.0
 10
-85.711335663
 20
32.7780240653
 30
0.0
 10
-85.3056831932
 20
32.6593832323
 30
0.0
 10
-84.9299149869
 20
32.6593832323
 30
0.0
  0
SPLINE
  5
73F
100
AcDbEntity
  8
CURVE
100
AcDbSpline
 62
7
  6
CONTINUOUS
 70
0
 71
3
 72
8
 73
4
 74
0
 42
0.0000001
 43
0.0000001
 44
0.0000000001
 40
0.0
 40
0.0
 40
0.0
 40
0.0
 40
1.0
 40
1.0
 40
1.0
 40
1.0
 10
-86.4435811416
 20
34.0536596115
 30
0.0
 10
-86.4435811416
 20
33.6788865563
 30
0.0
 10
-86.2827391332
 20
33.2646416836
 30
0.0
 10
-85.9974346635
 20
33.0216778962
 30
0.0
  0
SPLINE
  5
740
100
AcDbEntity
  8
CURVE
100
AcDbSpline
 62
7
  6
CONTINUOUS
 70
0
 71
3
 72
8
 73
4
 74
0
 42
0.0000001
 43
0.0000001
 44
0.0000000001
 40
0.0
 40
0.0
 40
0.0
 40
0.0
 40
1.0
 40
1.0
 40
1.0
 40
1.0
 10
-85.9974346635
 20
35.0854878684
 30
0.0
 10
-86.2826986402
 20
34.8425489395
 30
0.0
 10
-86.4435811416
 20
34.4283857155
 30
0.0
 10
-86.4435811416
 20
34.0536596115
 30
0.0
  0
SPLINE
  5
741
100
AcDbEntity
  8
CURVE
100
AcDbSpline
 62
7
  6
CONTINUOUS
 70
0
 71
3
 72
8
 73
4
 74
0
 42
0.0000001
 43
0.0000001
 44
0.0000000001
 40
0.0
 40
0.0
 40
0.0
 40
0.0
 40
1.0
 40
1.0
 40
1.0
 40
1.0
 10
-84.9299149869
 20
35.4477671865
 30
0.0
 10
-85.3056815498
 20
35.4477671865
 30
0.0
 10
-85.7113350527
 20
35.329138447
 30
0.0
 10
-85.9974346635
 20
35.0854878684
 30
0.0
  0
SPLINE
  5
742
100
AcDbEntity
  8
CURVE
100
AcDbSpline
 62
7
  6
CONTINUOUS
 70
0
 71
3
 72
8
 73
4
 74
0
 42
0.0000001
 43
0.0000001
 44
0.0000000001
 40
0.0
 40
0.0
 40
0.0
 40
0.0
 40
1.0
 40
1.0
 40
1.0
 40
1.0
 10
-83.8624004239
 20
35.0854878684
 30
0.0
 10
-84.148509055
 20
35.3291253613
 30
0.0
 10
-84.5541500381
 20
35.4477671865
 30
0.0
 10
-84.9299149869
 20
35.4477671865
 30
0.0
  0
SPLINE
  5
743
100
AcDbEntity
  8
CURVE
100
AcDbSpline
 62
7
  6
CONTINUOUS
 70
0
 71
3
 72
8
 73
4
 74
0
 42
0.0000001
 43
0.0000001
 44
0.0000000001
 40
0.0
 40
0.0
 40
0.0
 40
0.0
 40
1.0
 40
1.0
 40
1.0
 40
1.0
 10
-83.4162488321
 20
34.0536596115
 30
0.0
 10
-83.4162488321
 20
34.4283863921
 30
0.0
 10
-83.5771257127
 20
34.8425605048
 30
0.0
 10
-83.8624004239
 20
35.0854878684
 30
0.0
  0
SPLINE
  5
744
100
AcDbEntity
  8
CURVE
100
AcDbSpline
 62
7
  6
CONTINUOUS
 70
0
 71
3
 72
8
 73
4
 74
0
 42
0.0000001
 43
0.0000001
 44
0.0000000001
 40
0.0
 40
0.0
 40
0.0
 40
0.0
 40
1.0
 40
1.0
 40
1.0
 40
1.0
 10
-83.8624004239
 20
33.0216778962
 30
0.0
 10
-83.5771065447
 20
33.2646551665
 30
0.0
 10
-83.4162488321
 20
33.6788858797
 30
0.0
 10
-83.4162488321
 20
34.0536596115
 30
0.0
  0
SPLINE
  5
745
100
AcDbEntity
  8
CURVE
100
AcDbSpline
 62
7
  6
CONTINUOUS
 70
0
 71
3
 72
8
 73
4
 74
0
 42
0.0000001
 43
0.0000001
 44
0.0000000001
 40
0.0
 40
0.0
 40
0.0
 40
0.0
 40
1.0
 40
1.0
 40
1.0
 40
1.0
 10
-84.9299149869
 20
32.6593832323
 30
0.0
 10
-84.5541483947
 20
32.6593832323
 30
0.0
 10
-84.1484936846
 20
32.7780198138
 30
0.0
 10
-83.8624004239
 20
33.0216778962
 30
0.0
  0
SPLINE
  5
746
100
AcDbEntity
  8
CURVE
100
AcDbSpline
 62
7
  6
CONTINUOUS
 70
0
 71
3
 72
8
 73
4
 74
0
 42
0.0000001
 43
0.0000001
 44
0.0000000001
 40
0.0
 40
0.0
 40
0.0
 40
0.0
 40
1.0
 40
1.0
 40
1.0
 40
1.0
 10
-83.8751080175
 20
34.0550100448
 30
0.0
 10
-83.8751080175
 20
33.8377621861
 30
0.0
 10
-83.9626054431
 20
33.5989263319
 30
0.0
 10
-84.1227654642
 20
33.4521694434
 30
0.0
  0
SPLINE
  5
747
100
AcDbEntity
  8
CURVE
100
AcDbSpline
 62
7
  6
CONTINUOUS
 70
0
 71
3
 72
8
 73
4
 74
0
 42
0.0000001
 43
0.0000001
 44
0.0000000001
 40
0.0
 40
0.0
 40
0.0
 40
0.0
 40
1.0
 40
1.0
 40
1.0
 40
1.0
 10
-84.1227654642
 20
34.6549860906
 30
0.0
 10
-83.9632651529
 20
34.5088160034
 30
0.0
 10
-83.8751080175
 20
34.2713750023
 30
0.0
 10
-83.8751080175
 20
34.0550100448
 30
0.0
  0
SPLINE
  5
748
100
AcDbEntity
  8
CURVE
100
AcDbSpline
 62
7
  6
CONTINUOUS
 70
0
 71
3
 72
9
 73
5
 74
0
 42
0.0000001
 43
0.0000001
 44
0.0000000001
 40
0.0
 40
0.0
 40
0.0
 40
0.0
 40
0.7501681637
 40
1.0
 40
1.0
 40
1.0
 40
1.0
 10
-84.9296337323
 20
34.9267812601
 30
0.0
 10
-84.7137972959
 20
34.9267812601
 30
0.0
 10
-84.4155270596
 20
34.8675790999
 30
0.0
 10
-84.1757628776
 20
34.70355425
 30
0.0
 10
-84.1227654642
 20
34.6549860906
 30
0.0
  0
SPLINE
  5
749
100
AcDbEntity
  8
CURVE
100
AcDbSpline
 62
7
  6
CONTINUOUS
 70
0
 71
3
 72
9
 73
5
 74
0
 42
0.0000001
 43
0.0000001
 44
0.0000000001
 40
0.0
 40
0.0
 40
0.0
 40
0.0
 40
0.7499573393
 40
1.0
 40
1.0
 40
1.0
 40
1.0
 10
-85.7365173415
 20
34.6549860906
 30
0.0
 10
-85.5778993542
 20
34.8003427567
 30
0.0
 10
-85.286302147
 20
34.9071245744
 30
0.0
 10
-85.0013607261
 20
34.9267812601
 30
0.0
 10
-84.9296337323
 20
34.9267812601
 30
0.0
  0
SPLINE
  5
74A
100
AcDbEntity
  8
CURVE
100
AcDbSpline
 62
7
  6
CONTINUOUS
 70
0
 71
3
 72
8
 73
4
 74
0
 42
0.0000001
 43
0.0000001
 44
0.0000000001
 40
0.0
 40
0.0
 40
0.0
 40
0.0
 40
1.0
 40
1.0
 40
1.0
 40
1.0
 10
-85.9841747882
 20
34.0550100448
 30
0.0
 10
-85.9841747882
 20
34.2713750023
 30
0.0
 10
-85.8960200753
 20
34.5088186476
 30
0.0
 10
-85.7365173415
 20
34.6549860906
 30
0.0
  0
SPLINE
  5
74B
100
AcDbEntity
  8
CURVE
100
AcDbSpline
 62
7
  6
CONTINUOUS
 70
0
 71
3
 72
8
 73
4
 74
0
 42
0.0000001
 43
0.0000001
 44
0.0000000001
 40
0.0
 40
0.0
 40
0.0
 40
0.0
 40
1.0
 40
1.0
 40
1.0
 40
1.0
 10
-85.7365173415
 20
33.4521694434
 30
0.0
 10
-85.8966751015
 20
33.5989288004
 30
0.0
 10
-85.9841747882
 20
33.8377621861
 30
0.0
 10
-85.9841747882
 20
34.0550100448
 30
0.0
  0
SPLINE
  5
74C
100
AcDbEntity
  8
CURVE
100
AcDbSpline
 62
7
  6
CONTINUOUS
 70
0
 71
3
 72
9
 73
5
 74
0
 42
0.0000001
 43
0.0000001
 44
0.0000000001
 40
0.0
 40
0.0
 40
0.0
 40
0.0
 40
0.7501681644
 40
1.0
 40
1.0
 40
1.0
 40
1.0
 10
-84.9296337323
 20
33.1803691587
 30
0.0
 10
-85.1454742694
 20
33.1803691587
 30
0.0
 10
-85.4437510766
 20
33.2395714161
 30
0.0
 10
-85.683518327
 20
33.4036010102
 30
0.0
 10
-85.7365173415
 20
33.4521694434
 30
0.0
  0
SPLINE
  5
74D
100
AcDbEntity
  8
CURVE
100
AcDbSpline
 62
7
  6
CONTINUOUS
 70
0
 71
3
 72
9
 73
5
 74
0
 42
0.0000001
 43
0.0000001
 44
0.0000000001
 40
0.0
 40
0.0
 40
0.0
 40
0.0
 40
0.7499573136
 40
1.0
 40
1.0
 40
1.0
 40
1.0
 10
-84.1227654642
 20
33.4521694434
 30
0.0
 10
-84.2813873615
 20
33.3068219594
 30
0.0
 10
-84.5729698348
 20
33.2000309956
 30
0.0
 10
-84.8579078352
 20
33.1803691587
 30
0.0
 10
-84.9296337323
 20
33.1803691587
 30
0.0
  0
SPLINE
  5
74E
100
AcDbEntity
  8
CURVE
100
AcDbSpline
 62
7
  6
CONTINUOUS
 70
0
 71
3
 72
9
 73
5
 74
0
 42
0.0000001
 43
0.0000001
 44
0.0000000001
 40
0.0
 40
0.0
 40
0.0
 40
0.0
 40
0.5020365432
 40
1.0
 40
1.0
 40
1.0
 40
1.0
 10
-85.5475096196
 20
14.8343392851
 30
0.0
 10
-85.4266189144
 20
14.836205234
 30
0.0
 10
-85.1543440354
 20
14.7541380255
 30
0.0
 10
-85.0997195088
 20
14.4840771868
 30
0.0
 10
-85.0970419904
 20
14.3641646355
 30
0.0
  0
SPLINE
  5
74F
100
AcDbEntity
  8
CURVE
100
AcDbSpline
 62
7
  6
CONTINUOUS
 70
0
 71
3
 72
9
 73
5
 74
0
 42
0.0000001
 43
0.0000001
 44
0.0000000001
 40
0.0
 40
0.0
 40
0.0
 40
0.0
 40
0.5000882298
 40
1.0
 40
1.0
 40
1.0
 40
1.0
 10
-85.9098748843
 20
14.4924336203
 30
0.0
 10
-85.899605677
 20
14.5809121408
 30
0.0
 10
-85.821754097
 20
14.7603005324
 30
0.0
 10
-85.6365263899
 20
14.8329465951
 30
0.0
 10
-85.5475096196
 20
14.8343392851
 30
0.0
  0
SPLINE
  5
750
100
AcDbEntity
  8
CURVE
100
AcDbSpline
 62
7
  6
CONTINUOUS
 70
0
 71
3
 72
8
 73
4
 74
0
 42
0.0000001
 43
0.0000001
 44
0.0000000001
 40
0.0
 40
0.0
 40
0.0
 40
0.0
 40
1.0
 40
1.0
 40
1.0
 40
1.0
 10
-85.8928108932
 20
14.0182580394
 30
0.0
 10
-85.9194060848
 20
14.1741661578
 30
0.0
 10
-85.9281050825
 20
14.335327224
 30
0.0
 10
-85.9098748843
 20
14.4924336203
 30
0.0
  0
SPLINE
  5
751
100
AcDbEntity
  8
CURVE
100
AcDbSpline
 62
7
  6
CONTINUOUS
 70
0
 71
3
 72
10
 73
6
 74
0
 42
0.0000001
 43
0.0000001
 44
0.0000000001
 40
0.0
 40
0.0
 40
0.0
 40
0.0
 40
0.2482613404
 40
0.497642669
 40
1.0
 40
1.0
 40
1.0
 40
1.0
 10
-86.3222582939
 20
14.929209192
 30
0.0
 10
-86.3646284083
 20
14.8118947536
 30
0.0
 10
-86.4163429901
 20
14.5647809136
 30
0.0
 10
-86.4387243262
 20
14.0617082058
 30
0.0
 10
-86.3895034652
 20
13.6852034749
 30
0.0
 10
-86.3527778398
 20
13.4354919669
 30
0.0
  0
SPLINE
  5
752
100
AcDbEntity
  8
CURVE
100
AcDbSpline
 62
7
  6
CONTINUOUS
 70
0
 71
3
 72
17
 73
13
 74
0
 42
0.0000001
 43
0.0000001
 44
0.0000000001
 40
0.0
 40
0.0
 40
0.0
 40
0.0
 40
0.0626341368
 40
0.1256123062
 40
0.1874334728
 40
0.25012897
 40
0.3755999783
 40
0.5004417704
 40
0.6252962742
 40
0.7502511716
 40
0.8752241398
 40
1.0
 40
1.0
 40
1.0
 40
1.0
 10
-84.8581243764
 20
14.9916150212
 30
0.0
 10
-84.8629478654
 20
15.0290084507
 30
0.0
 10
-84.9159213484
 20
15.0913169193
 30
0.0
 10
-84.9879379089
 20
15.1750652957
 30
0.0
 10
-85.0739043528
 20
15.2500036208
 30
0.0
 10
-85.202293746
 20
15.3290298903
 30
0.0
 10
-85.3825055794
 20
15.3928007931
 30
0.0
 10
-85.6096859688
 20
15.4096632533
 30
0.0
 10
-85.8349342727
 20
15.3763632689
 30
0.0
 10
-86.0434649104
 20
15.2812054156
 30
0.0
 10
-86.213558941
 20
15.1295037634
 30
0.0
 10
-86.2967771766
 20
14.9998637485
 30
0.0
 10
-86.3222582939
 20
14.929209192
 30
0.0
  0
SPLINE
  5
753
100
AcDbEntity
  8
CURVE
100
AcDbSpline
 62
7
  6
CONTINUOUS
 70
0
 71
3
 72
9
 73
5
 74
0
 42
0.0000001
 43
0.0000001
 44
0.0000000001
 40
0.0
 40
0.0
 40
0.0
 40
0.0
 40
0.506910518
 40
1.0
 40
1.0
 40
1.0
 40
1.0
 10
-84.2724490719
 20
15.3405005715
 30
0.0
 10
-84.3838278192
 20
15.3101484014
 30
0.0
 10
-84.6015754753
 20
15.252906417
 30
0.0
 10
-84.7994089769
 20
15.0959381963
 30
0.0
 10
-84.8409951725
 20
14.9916150212
 30
0.0
  0
SPLINE
  5
754
100
AcDbEntity
  8
CURVE
100
AcDbSpline
 62
7
  6
CONTINUOUS
 70
0
 71
3
 72
8
 73
4
 74
0
 42
0.0000001
 43
0.0000001
 44
0.0000000001
 40
0.0
 40
0.0
 40
0.0
 40
0.0
 40
1.0
 40
1.0
 40
1.0
 40
1.0
 10
-83.4878750168
 20
15.5474182964
 30
0.0
 10
-83.7488811717
 20
15.4765081657
 30
0.0
 10
-84.0114989557
 20
15.4116167112
 30
0.0
 10
-84.2724490719
 20
15.3405005715
 30
0.0
  0
SPLINE
  5
755
100
AcDbEntity
  8
CURVE
100
AcDbSpline
 62
7
  6
CONTINUOUS
 70
0
 71
3
 72
9
 73
5
 74
0
 42
0.0000001
 43
0.0000001
 44
0.0000000001
 40
0.0
 40
0.0
 40
0.0
 40
0.0
 40
0.499968398
 40
1.0
 40
1.0
 40
1.0
 40
1.0
 10
-84.3668770689
 20
14.7005472757
 30
0.0
 10
-84.2236603501
 20
14.7543682062
 30
0.0
 10
-83.9280396462
 20
14.8356283858
 30
0.0
 10
-83.634928553
 20
14.9229262094
 30
0.0
 10
-83.4878750168
 20
14.9652175729
 30
0.0
  0
SPLINE
  5
756
100
AcDbEntity
  8
CURVE
100
AcDbSpline
 62
7
  6
CONTINUOUS
 70
0
 71
3
 72
10
 73
6
 74
0
 42
0.0000001
 43
0.0000001
 44
0.0000000001
 40
0.0
 40
0.0
 40
0.0
 40
0.0
 40
0.2433872588
 40
0.4952412207
 40
1.0
 40
1.0
 40
1.0
 40
1.0
 10
-84.6222934972
 20
14.362859984
 30
0.0
 10
-84.6222934972
 20
14.3990441984
 30
0.0
 10
-84.6105996329
 20
14.4738208613
 30
0.0
 10
-84.5326070482
 20
14.6028001102
 30
0.0
 10
-84.4371225377
 20
14.6741769716
 30
0.0
 10
-84.3668770689
 20
14.7005472757
 30
0.0
  0
LINE
  5
757
100
AcDbEntity
  8
RACCORDO
100
AcDbLine
 62
7
  6
CONTINUOUS
 10
-57.7798738069
 20
32.2989834256
 30
0.0
 11
-57.8798738072
 21
32.2991073161
 31
0.0
  0
LINE
  5
758
100
AcDbEntity
  8
RACCORDO
100
AcDbLine
 62
7
  6
CONTINUOUS
 10
-57.8798738072
 20
37.2950113063
 30
0.0
 11
-57.7798738069
 21
37.2951351968
 31
0.0
  0
SPLINE
  5
759
100
AcDbEntity
  8
RACCORDO
100
AcDbSpline
 62
250
  6
CONTINUOUS
 70
0
 71
3
 72
21
 73
17
 74
0
 42
0.0000001
 43
0.0000001
 44
0.0000000001
 40
0.0
 40
0.0
 40
0.0
 40
0.0
 40
0.1946533312
 40
0.3826178055
 40
0.5555453171
 40
0.7069906672
 40
0.7728263373
 40
0.8312580246
 40
0.8817446699
 40
0.9237454161
 40
0.9567797886
 40
0.9806081196
 40
0.9890148548
 40
0.9950551422
 40
0.998711882
 40
1.0
 40
1.0
 40
1.0
 40
1.0
 10
-53.6324917675
 20
37.7470593112
 30
0.0
 10
-53.6324917675
 20
37.7275906024
 30
0.0
 10
-53.6324588556
 20
37.6893221879
 30
0.0
 10
-53.6323158847
 20
37.633758138
 30
0.0
 10
-53.6320818369
 20
37.5825161364
 30
0.0
 10
-53.6318118417
 20
37.543489082
 30
0.0
 10
-53.6315489216
 20
37.5159147967
 30
0.0
 10
-53.6313465201
 20
37.4984362304
 30
0.0
 10
-53.6311290167
 20
37.4833471345
 30
0.0
 10
-53.6309085804
 20
37.4707836961
 30
0.0
 10
-53.6306627246
 20
37.460927157
 30
0.0
 10
-53.6304778813
 20
37.4543418665
 30
0.0
 10
-53.6302592749
 20
37.4505998239
 30
0.0
 10
-53.6301967668
 20
37.4486569483
 30
0.0
 10
-53.6299861597
 20
37.4478069913
 30
0.0
 10
-53.630002641
 20
37.4470593112
 30
0.0
 10
-53.6298738069
 20
37.4470593112
 30
0.0
  0
SPLINE
  5
75A
100
AcDbEntity
  8
RACCORDO
100
AcDbSpline
 62
250
  6
CONTINUOUS
 70
0
 71
3
 72
21
 73
17
 74
0
 42
0.0000001
 43
0.0000001
 44
0.0000000001
 40
0.0
 40
0.0
 40
0.0
 40
0.0
 40
0.1946574335
 40
0.3826236359
 40
0.5555511465
 40
0.7069953898
 40
0.7728302875
 40
0.8312611411
 40
0.8817469601
 40
0.9237469559
 40
0.956780702
 40
0.9806085509
 40
0.9890151075
 40
0.9950552624
 40
0.9987119182
 40
1.0
 40
1.0
 40
1.0
 40
1.0
 10
-59.7721668563
 20
40.5020151329
 30
0.0
 10
-59.7723367177
 20
40.5214820281
 30
0.0
 10
-59.7726376985
 20
40.5597469414
 30
0.0
 10
-59.7729795448
 20
40.6153064744
 30
0.0
 10
-59.7731926212
 20
40.6665447265
 30
0.0
 10
-59.7732631833
 20
40.7055694904
 30
0.0
 10
-59.7732408957
 20
40.7331426484
 30
0.0
 10
-59.7731910315
 20
40.7506207408
 30
0.0
 10
-59.7731052203
 20
40.7657097697
 30
0.0
 10
-59.7729944416
 20
40.7782734761
 30
0.0
 10
-59.7728346284
 20
40.7881308487
 30
0.0
 10
-59.7727072797
 20
40.794716871
 30
0.0
 10
-59.772521359
 20
40.7984603151
 30
0.0
 10
-59.7724758215
 20
40.8004034742
 30
0.0
 10
-59.7722726569
 20
40.8012551489
 30
0.0
 10
-59.7722956721
 20
40.8020025857
 30
0.0
 10
-59.7721668563
 20
40.8020037098
 30
0.0
  0
SPLINE
  5
75B
100
AcDbEntity
  8
RACCORDO
100
AcDbSpline
 62
250
  6
CONTINUOUS
 70
0
 71
3
 72
11
 73
7
 74
0
 42
0.0000001
 43
0.0000001
 44
0.0000000001
 40
0.0
 40
0.0
 40
0.0
 40
0.0
 40
0.2880074263
 40
0.5552762458
 40
0.7904272656
 40
1.0
 40
1.0
 40
1.0
 40
1.0
 10
-60.1213569792
 20
40.5007961985
 30
0.0
 10
-60.1215248587
 20
40.5392704327
 30
0.0
 10
-60.111838188
 20
40.6139579155
 30
0.0
 10
-60.068190726
 20
40.7119351969
 30
0.0
 10
-59.9997922017
 20
40.7819234737
 30
0.0
 10
-59.9398384343
 20
40.8005404622
 30
0.0
 10
-59.9118429055
 20
40.8007847754
 30
0.0
  0
SPLINE
  5
75C
100
AcDbEntity
  8
RACCORDO
100
AcDbSpline
 62
250
  6
CONTINUOUS
 70
0
 71
3
 72
11
 73
7
 74
0
 42
0.0000001
 43
0.0000001
 44
0.0000000001
 40
0.0
 40
0.0
 40
0.0
 40
0.0
 40
0.2837171973
 40
0.5501498878
 40
0.7881593659
 40
1.0
 40
1.0
 40
1.0
 40
1.0
 10
-61.7334271974
 20
40.4867278748
 30
0.0
 10
-61.7335814029
 20
40.5220716134
 30
0.0
 10
-61.7253722749
 20
40.590995927
 30
0.0
 10
-61.6882284899
 20
40.6832514226
 30
0.0
 10
-61.6298896572
 20
40.7532120528
 30
0.0
 10
-61.5773651383
 20
40.7788319797
 30
0.0
 10
-61.5514662509
 20
40.7838997614
 30
0.0
  0
SPLINE
  5
75D
100
AcDbEntity
  8
RACCORDO
100
AcDbSpline
 62
250
  6
CONTINUOUS
 70
0
 71
3
 72
11
 73
7
 74
0
 42
0.0000001
 43
0.0000001
 44
0.0000000001
 40
0.0
 40
0.0
 40
0.0
 40
0.0
 40
0.283717017
 40
0.5501496141
 40
0.7881591808
 40
1.0
 40
1.0
 40
1.0
 40
1.0
 10
-52.7284945797
 20
2.0288058912
 30
0.0
 10
-52.7286487997
 20
1.9934622347
 30
0.0
 10
-52.7204397342
 20
1.9245380688
 30
0.0
 10
-52.6832961187
 20
1.8322827171
 30
0.0
 10
-52.6249575098
 20
1.762322084
 30
0.0
 10
-52.572433145
 20
1.7367020236
 30
0.0
 10
-52.5465343004
 20
1.7316341345
 30
0.0
  0
SPLINE
  5
75E
100
AcDbEntity
  8
RACCORDO
100
AcDbSpline
 62
250
  6
CONTINUOUS
 70
0
 71
3
 72
11
 73
7
 74
0
 42
0.0000001
 43
0.0000001
 44
0.0000000001
 40
0.0
 40
0.0
 40
0.0
 40
0.0
 40
0.2880074392
 40
0.555276249
 40
0.7904272391
 40
1.0
 40
1.0
 40
1.0
 40
1.0
 10
-51.0371476678
 20
2.0140457303
 30
0.0
 10
-51.0373155632
 20
1.9755714911
 30
0.0
 10
-51.0276289122
 20
1.9008839968
 30
0.0
 10
-50.9839814526
 20
1.8029067047
 30
0.0
 10
-50.9155829042
 20
1.7329184371
 30
0.0
 10
-50.8556291289
 20
1.7143014667
 30
0.0
 10
-50.8276335941
 20
1.7140571534
 30
0.0
  0
LINE
  5
75F
100
AcDbEntity
  8
RACCORDO
100
AcDbLine
 62
250
  6
CONTINUOUS
 10
-51.0371476678
 20
2.0140457303
 30
0.0
 11
-50.687957545
 21
2.0128267959
 31
0.0
  0
LINE
  5
760
100
AcDbEntity
  8
RACCORDO
100
AcDbLine
 62
250
  6
CONTINUOUS
 10
-52.8749411891
 20
2.0293170993
 30
0.0
 11
-52.7284945797
 21
2.0288058912
 31
0.0
  0
LINE
  5
761
100
AcDbEntity
  8
RACCORDO
100
AcDbLine
 62
250
  6
CONTINUOUS
 10
-61.7334271974
 20
40.4867278748
 30
0.0
 11
-61.8798738069
 21
40.4862166668
 31
0.0
  0
LINE
  5
762
100
AcDbEntity
  8
RACCORDO
100
AcDbLine
 62
250
  6
CONTINUOUS
 10
-59.7721668563
 20
40.5020151329
 30
0.0
 11
-60.1213569792
 21
40.5007961985
 31
0.0
  0
SPLINE
  5
763
100
AcDbEntity
  8
RACCORDO
100
AcDbSpline
 62
250
  6
CONTINUOUS
 70
0
 71
3
 72
21
 73
17
 74
0
 42
0.0000001
 43
0.0000001
 44
0.0000000001
 40
0.0
 40
0.0
 40
0.0
 40
0.0
 40
0.1946533657
 40
0.3826179217
 40
0.5555454687
 40
0.706990797
 40
0.7728264489
 40
0.8312581086
 40
0.8817447274
 40
0.9237454585
 40
0.956779821
 40
0.9806081378
 40
0.989014866
 40
0.9950551477
 40
0.9987118834
 40
1.0
 40
1.0
 40
1.0
 40
1.0
 10
-53.6324917675
 20
17.8470593112
 30
0.0
 10
-53.6324917674
 20
17.8665280235
 30
0.0
 10
-53.6324588551
 20
17.9047964496
 30
0.0
 10
-53.6323158839
 20
17.9603605147
 30
0.0
 10
-53.6320818355
 20
18.0116025259
 30
0.0
 10
-53.6318118398
 20
18.0506295798
 30
0.0
 10
-53.6315489194
 20
18.0782038583
 30
0.0
 10
-53.6313465176
 20
18.0956824174
 30
0.0
 10
-53.631129014
 20
18.1107715064
 30
0.0
 10
-53.6309085776
 20
18.1233349396
 30
0.0
 10
-53.6306627218
 20
18.1331914747
 30
0.0
 10
-53.6304778785
 20
18.1397767621
 30
0.0
 10
-53.6302592721
 20
18.1435188021
 30
0.0
 10
-53.6301967639
 20
18.1454616759
 30
0.0
 10
-53.6299861571
 20
18.1463116321
 30
0.0
 10
-53.6300026381
 20
18.1470593112
 30
0.0
 10
-53.6298738041
 20
18.1470593112
 30
0.0
  0
SPLINE
  5
764
100
AcDbEntity
  8
RACCORDO
100
AcDbSpline
 62
250
  6
CONTINUOUS
 70
0
 71
3
 72
21
 73
17
 74
0
 42
0.0000001
 43
0.0000001
 44
0.0000000001
 40
0.0
 40
0.0
 40
0.0
 40
0.0
 40
0.1946533312
 40
0.3826178055
 40
0.5555453171
 40
0.7069906672
 40
0.7728263373
 40
0.8312580246
 40
0.8817446699
 40
0.9237454161
 40
0.9567797886
 40
0.9806081196
 40
0.9890148548
 40
0.9950551422
 40
0.998711882
 40
1.0
 40
1.0
 40
1.0
 40
1.0
 10
-53.6324917675
 20
22.7470593112
 30
0.0
 10
-53.6324917675
 20
22.7275906024
 30
0.0
 10
-53.6324588556
 20
22.6893221879
 30
0.0
 10
-53.6323158847
 20
22.633758138
 30
0.0
 10
-53.6320818369
 20
22.5825161364
 30
0.0
 10
-53.6318118417
 20
22.543489082
 30
0.0
 10
-53.6315489216
 20
22.5159147967
 30
0.0
 10
-53.6313465201
 20
22.4984362304
 30
0.0
 10
-53.6311290167
 20
22.4833471345
 30
0.0
 10
-53.6309085804
 20
22.4707836961
 30
0.0
 10
-53.6306627246
 20
22.460927157
 30
0.0
 10
-53.6304778813
 20
22.4543418665
 30
0.0
 10
-53.6302592749
 20
22.4505998239
 30
0.0
 10
-53.6301967668
 20
22.4486569483
 30
0.0
 10
-53.6299861597
 20
22.4478069913
 30
0.0
 10
-53.630002641
 20
22.4470593112
 30
0.0
 10
-53.6298738069
 20
22.4470593112
 30
0.0
  0
SPLINE
  5
765
100
AcDbEntity
  8
RACCORDO
100
AcDbSpline
 62
250
  6
CONTINUOUS
 70
0
 71
3
 72
21
 73
17
 74
0
 42
0.0000001
 43
0.0000001
 44
0.0000000001
 40
0.0
 40
0.0
 40
0.0
 40
0.0
 40
0.1946533657
 40
0.3826179217
 40
0.5555454687
 40
0.706990797
 40
0.7728264489
 40
0.8312581086
 40
0.8817447274
 40
0.9237454585
 40
0.956779821
 40
0.9806081378
 40
0.989014866
 40
0.9950551477
 40
0.9987118834
 40
1.0
 40
1.0
 40
1.0
 40
1.0
 10
-53.6324917675
 20
22.8470593112
 30
0.0
 10
-53.6324917674
 20
22.8665280235
 30
0.0
 10
-53.6324588551
 20
22.9047964496
 30
0.0
 10
-53.6323158839
 20
22.9603605147
 30
0.0
 10
-53.6320818355
 20
23.0116025259
 30
0.0
 10
-53.6318118398
 20
23.0506295798
 30
0.0
 10
-53.6315489194
 20
23.0782038583
 30
0.0
 10
-53.6313465176
 20
23.0956824174
 30
0.0
 10
-53.631129014
 20
23.1107715064
 30
0.0
 10
-53.6309085776
 20
23.1233349396
 30
0.0
 10
-53.6306627218
 20
23.1331914747
 30
0.0
 10
-53.6304778785
 20
23.1397767621
 30
0.0
 10
-53.6302592721
 20
23.1435188021
 30
0.0
 10
-53.6301967639
 20
23.1454616759
 30
0.0
 10
-53.6299861571
 20
23.1463116321
 30
0.0
 10
-53.6300026381
 20
23.1470593112
 30
0.0
 10
-53.6298738041
 20
23.1470593112
 30
0.0
  0
SPLINE
  5
766
100
AcDbEntity
  8
RACCORDO
100
AcDbSpline
 62
250
  6
CONTINUOUS
 70
0
 71
3
 72
21
 73
17
 74
0
 42
0.0000001
 43
0.0000001
 44
0.0000000001
 40
0.0
 40
0.0
 40
0.0
 40
0.0
 40
0.1946533312
 40
0.3826178055
 40
0.5555453171
 40
0.7069906672
 40
0.7728263373
 40
0.8312580246
 40
0.8817446699
 40
0.9237454161
 40
0.9567797886
 40
0.9806081196
 40
0.9890148548
 40
0.9950551422
 40
0.998711882
 40
1.0
 40
1.0
 40
1.0
 40
1.0
 10
-53.6324917675
 20
27.7470593112
 30
0.0
 10
-53.6324917675
 20
27.7275906024
 30
0.0
 10
-53.6324588556
 20
27.6893221879
 30
0.0
 10
-53.6323158847
 20
27.633758138
 30
0.0
 10
-53.6320818369
 20
27.5825161364
 30
0.0
 10
-53.6318118417
 20
27.543489082
 30
0.0
 10
-53.6315489216
 20
27.5159147967
 30
0.0
 10
-53.6313465201
 20
27.4984362304
 30
0.0
 10
-53.6311290167
 20
27.4833471345
 30
0.0
 10
-53.6309085804
 20
27.4707836961
 30
0.0
 10
-53.6306627246
 20
27.460927157
 30
0.0
 10
-53.6304778813
 20
27.4543418665
 30
0.0
 10
-53.6302592749
 20
27.4505998239
 30
0.0
 10
-53.6301967668
 20
27.4486569483
 30
0.0
 10
-53.6299861597
 20
27.4478069913
 30
0.0
 10
-53.630002641
 20
27.4470593112
 30
0.0
 10
-53.6298738069
 20
27.4470593112
 30
0.0
  0
SPLINE
  5
767
100
AcDbEntity
  8
RACCORDO
100
AcDbSpline
 62
250
  6
CONTINUOUS
 70
0
 71
3
 72
21
 73
17
 74
0
 42
0.0000001
 43
0.0000001
 44
0.0000000001
 40
0.0
 40
0.0
 40
0.0
 40
0.0
 40
0.1946533657
 40
0.3826179217
 40
0.5555454687
 40
0.706990797
 40
0.7728264489
 40
0.8312581086
 40
0.8817447274
 40
0.9237454585
 40
0.956779821
 40
0.9806081378
 40
0.989014866
 40
0.9950551477
 40
0.9987118834
 40
1.0
 40
1.0
 40
1.0
 40
1.0
 10
-53.6324917675
 20
27.8470593112
 30
0.0
 10
-53.6324917674
 20
27.8665280235
 30
0.0
 10
-53.6324588551
 20
27.9047964496
 30
0.0
 10
-53.6323158839
 20
27.9603605147
 30
0.0
 10
-53.6320818355
 20
28.0116025259
 30
0.0
 10
-53.6318118398
 20
28.0506295798
 30
0.0
 10
-53.6315489194
 20
28.0782038583
 30
0.0
 10
-53.6313465176
 20
28.0956824174
 30
0.0
 10
-53.631129014
 20
28.1107715064
 30
0.0
 10
-53.6309085776
 20
28.1233349396
 30
0.0
 10
-53.6306627218
 20
28.1331914747
 30
0.0
 10
-53.6304778785
 20
28.1397767621
 30
0.0
 10
-53.6302592721
 20
28.1435188021
 30
0.0
 10
-53.6301967639
 20
28.1454616759
 30
0.0
 10
-53.6299861571
 20
28.1463116321
 30
0.0
 10
-53.6300026381
 20
28.1470593112
 30
0.0
 10
-53.6298738041
 20
28.1470593112
 30
0.0
  0
SPLINE
  5
768
100
AcDbEntity
  8
RACCORDO
100
AcDbSpline
 62
250
  6
CONTINUOUS
 70
0
 71
3
 72
21
 73
17
 74
0
 42
0.0000001
 43
0.0000001
 44
0.0000000001
 40
0.0
 40
0.0
 40
0.0
 40
0.0
 40
0.1946574107
 40
0.3826235604
 40
0.5555510397
 40
0.7069952851
 40
0.7728301915
 40
0.8312610623
 40
0.8817468987
 40
0.9237469042
 40
0.9567806578
 40
0.9806085202
 40
0.9890150839
 40
0.9950552457
 40
0.9987119081
 40
1.0
 40
1.0
 40
1.0
 40
1.0
 10
-50.687957545
 20
2.0128267959
 30
0.0
 10
-50.6881274171
 20
1.9933599028
 30
0.0
 10
-50.6884284165
 20
1.9550949965
 30
0.0
 10
-50.6887702834
 20
1.8995354734
 30
0.0
 10
-50.688983373
 20
1.8482972287
 30
0.0
 10
-50.6890539398
 20
1.8092724662
 30
0.0
 10
-50.6890316509
 20
1.7816993049
 30
0.0
 10
-50.6889817836
 20
1.7642212079
 30
0.0
 10
-50.6888959674
 20
1.7491321743
 30
0.0
 10
-50.688785181
 20
1.7365684645
 30
0.0
 10
-50.68862536
 20
1.7267110883
 30
0.0
 10
-50.6884979995
 20
1.7201250643
 30
0.0
 10
-50.6883120728
 20
1.7163816162
 30
0.0
 10
-50.6882665235
 20
1.7144384579
 30
0.0
 10
-50.688063362
 20
1.7135867772
 30
0.0
 10
-50.6880863618
 20
1.7128393431
 30
0.0
 10
-50.687957545
 20
1.712838219
 30
0.0
  0
SPLINE
  5
769
100
AcDbEntity
  8
RACCORDO
100
AcDbSpline
 62
250
  6
CONTINUOUS
 70
0
 71
3
 72
21
 73
17
 74
0
 42
0.0000001
 43
0.0000001
 44
0.0000000001
 40
0.0
 40
0.0
 40
0.0
 40
0.0
 40
0.1946533312
 40
0.3826178055
 40
0.5555453171
 40
0.7069906672
 40
0.7728263373
 40
0.8312580246
 40
0.8817446699
 40
0.9237454161
 40
0.9567797886
 40
0.9806081196
 40
0.9890148548
 40
0.9950551422
 40
0.998711882
 40
1.0
 40
1.0
 40
1.0
 40
1.0
 10
-53.6324917675
 20
32.7470593112
 30
0.0
 10
-53.6324917675
 20
32.7275906024
 30
0.0
 10
-53.6324588556
 20
32.6893221879
 30
0.0
 10
-53.6323158847
 20
32.633758138
 30
0.0
 10
-53.6320818369
 20
32.5825161364
 30
0.0
 10
-53.6318118417
 20
32.543489082
 30
0.0
 10
-53.6315489216
 20
32.5159147967
 30
0.0
 10
-53.6313465201
 20
32.4984362304
 30
0.0
 10
-53.6311290167
 20
32.4833471345
 30
0.0
 10
-53.6309085804
 20
32.4707836961
 30
0.0
 10
-53.6306627246
 20
32.460927157
 30
0.0
 10
-53.6304778813
 20
32.4543418665
 30
0.0
 10
-53.6302592749
 20
32.4505998239
 30
0.0
 10
-53.6301967668
 20
32.4486569483
 30
0.0
 10
-53.6299861597
 20
32.4478069913
 30
0.0
 10
-53.630002641
 20
32.4470593112
 30
0.0
 10
-53.6298738069
 20
32.4470593112
 30
0.0
  0
SPLINE
  5
76A
100
AcDbEntity
  8
RACCORDO
100
AcDbSpline
 62
250
  6
CONTINUOUS
 70
0
 71
3
 72
21
 73
17
 74
0
 42
0.0000001
 43
0.0000001
 44
0.0000000001
 40
0.0
 40
0.0
 40
0.0
 40
0.0
 40
0.1946533657
 40
0.3826179217
 40
0.5555454687
 40
0.706990797
 40
0.7728264489
 40
0.8312581086
 40
0.8817447274
 40
0.9237454585
 40
0.956779821
 40
0.9806081378
 40
0.989014866
 40
0.9950551477
 40
0.9987118834
 40
1.0
 40
1.0
 40
1.0
 40
1.0
 10
-53.6324917675
 20
32.8470593112
 30
0.0
 10
-53.6324917674
 20
32.8665280235
 30
0.0
 10
-53.6324588551
 20
32.9047964496
 30
0.0
 10
-53.6323158839
 20
32.9603605147
 30
0.0
 10
-53.6320818355
 20
33.0116025259
 30
0.0
 10
-53.6318118398
 20
33.0506295798
 30
0.0
 10
-53.6315489194
 20
33.0782038583
 30
0.0
 10
-53.6313465176
 20
33.0956824174
 30
0.0
 10
-53.631129014
 20
33.1107715064
 30
0.0
 10
-53.6309085776
 20
33.1233349396
 30
0.0
 10
-53.6306627218
 20
33.1331914747
 30
0.0
 10
-53.6304778785
 20
33.1397767621
 30
0.0
 10
-53.6302592721
 20
33.1435188021
 30
0.0
 10
-53.6301967639
 20
33.1454616759
 30
0.0
 10
-53.6299861571
 20
33.1463116321
 30
0.0
 10
-53.6300026381
 20
33.1470593112
 30
0.0
 10
-53.6298738041
 20
33.1470593112
 30
0.0
  0
LINE
  5
76B
100
AcDbEntity
  8
ASSI
100
AcDbLine
 62
7
  6
CONTINUOUS
 10
-57.7798738069
 20
32.2989834256
 30
0.0
 11
-57.8798738072
 21
32.2991073161
 31
0.0
  0
LINE
  5
76C
100
AcDbEntity
  8
ASSI
100
AcDbLine
 62
7
  6
CONTINUOUS
 10
-57.8798738072
 20
37.2950113063
 30
0.0
 11
-57.7798738069
 21
37.2951351968
 31
0.0
  0
SPLINE
  5
76D
100
AcDbEntity
  8
ASSI
100
AcDbSpline
 62
250
  6
CONTINUOUS
 70
0
 71
3
 72
11
 73
7
 74
0
 42
0.0000001
 43
0.0000001
 44
0.0000000001
 40
0.0
 40
0.0
 40
0.0
 40
0.0
 40
0.283717017
 40
0.5501496141
 40
0.7881591808
 40
1.0
 40
1.0
 40
1.0
 40
1.0
 10
-52.7284945797
 20
2.0288058912
 30
0.0
 10
-52.7286487997
 20
1.9934622347
 30
0.0
 10
-52.7204397342
 20
1.9245380688
 30
0.0
 10
-52.6832961187
 20
1.8322827171
 30
0.0
 10
-52.6249575098
 20
1.762322084
 30
0.0
 10
-52.572433145
 20
1.7367020236
 30
0.0
 10
-52.5465343004
 20
1.7316341345
 30
0.0
  0
SPLINE
  5
76E
100
AcDbEntity
  8
ASSI
100
AcDbSpline
 62
250
  6
CONTINUOUS
 70
0
 71
3
 72
11
 73
7
 74
0
 42
0.0000001
 43
0.0000001
 44
0.0000000001
 40
0.0
 40
0.0
 40
0.0
 40
0.0
 40
0.2880074392
 40
0.555276249
 40
0.7904272391
 40
1.0
 40
1.0
 40
1.0
 40
1.0
 10
-51.0371476678
 20
2.0140457303
 30
0.0
 10
-51.0373155632
 20
1.9755714911
 30
0.0
 10
-51.0276289122
 20
1.9008839968
 30
0.0
 10
-50.9839814526
 20
1.8029067047
 30
0.0
 10
-50.9155829042
 20
1.7329184371
 30
0.0
 10
-50.8556291289
 20
1.7143014667
 30
0.0
 10
-50.8276335941
 20
1.7140571534
 30
0.0
  0
SPLINE
  5
76F
100
AcDbEntity
  8
ASSI
100
AcDbSpline
 62
250
  6
CONTINUOUS
 70
0
 71
3
 72
21
 73
17
 74
0
 42
0.0000001
 43
0.0000001
 44
0.0000000001
 40
0.0
 40
0.0
 40
0.0
 40
0.0
 40
0.1946574107
 40
0.3826235604
 40
0.5555510397
 40
0.7069952851
 40
0.7728301915
 40
0.8312610623
 40
0.8817468987
 40
0.9237469042
 40
0.9567806578
 40
0.9806085202
 40
0.9890150839
 40
0.9950552457
 40
0.9987119081
 40
1.0
 40
1.0
 40
1.0
 40
1.0
 10
-50.687957545
 20
2.0128267959
 30
0.0
 10
-50.6881274171
 20
1.9933599028
 30
0.0
 10
-50.6884284165
 20
1.9550949965
 30
0.0
 10
-50.6887702834
 20
1.8995354734
 30
0.0
 10
-50.688983373
 20
1.8482972287
 30
0.0
 10
-50.6890539398
 20
1.8092724662
 30
0.0
 10
-50.6890316509
 20
1.7816993049
 30
0.0
 10
-50.6889817836
 20
1.7642212079
 30
0.0
 10
-50.6888959674
 20
1.7491321743
 30
0.0
 10
-50.688785181
 20
1.7365684645
 30
0.0
 10
-50.68862536
 20
1.7267110883
 30
0.0
 10
-50.6884979995
 20
1.7201250643
 30
0.0
 10
-50.6883120728
 20
1.7163816162
 30
0.0
 10
-50.6882665235
 20
1.7144384579
 30
0.0
 10
-50.688063362
 20
1.7135867772
 30
0.0
 10
-50.6880863618
 20
1.7128393431
 30
0.0
 10
-50.687957545
 20
1.712838219
 30
0.0
  0
SPLINE
  5
770
100
AcDbEntity
  8
ASSI
100
AcDbSpline
 62
250
  6
CONTINUOUS
 70
0
 71
3
 72
21
 73
17
 74
0
 42
0.0000001
 43
0.0000001
 44
0.0000000001
 40
0.0
 40
0.0
 40
0.0
 40
0.0
 40
0.1946574335
 40
0.3826236359
 40
0.5555511465
 40
0.7069953898
 40
0.7728302875
 40
0.8312611411
 40
0.8817469601
 40
0.9237469559
 40
0.956780702
 40
0.9806085509
 40
0.9890151075
 40
0.9950552624
 40
0.9987119182
 40
1.0
 40
1.0
 40
1.0
 40
1.0
 10
-59.7721668563
 20
40.5020151329
 30
0.0
 10
-59.7723367177
 20
40.5214820281
 30
0.0
 10
-59.7726376985
 20
40.5597469414
 30
0.0
 10
-59.7729795448
 20
40.6153064744
 30
0.0
 10
-59.7731926212
 20
40.6665447265
 30
0.0
 10
-59.7732631833
 20
40.7055694904
 30
0.0
 10
-59.7732408957
 20
40.7331426484
 30
0.0
 10
-59.7731910315
 20
40.7506207408
 30
0.0
 10
-59.7731052203
 20
40.7657097697
 30
0.0
 10
-59.7729944416
 20
40.7782734761
 30
0.0
 10
-59.7728346284
 20
40.7881308487
 30
0.0
 10
-59.7727072797
 20
40.794716871
 30
0.0
 10
-59.772521359
 20
40.7984603151
 30
0.0
 10
-59.7724758215
 20
40.8004034742
 30
0.0
 10
-59.7722726569
 20
40.8012551489
 30
0.0
 10
-59.7722956721
 20
40.8020025857
 30
0.0
 10
-59.7721668563
 20
40.8020037098
 30
0.0
  0
SPLINE
  5
771
100
AcDbEntity
  8
ASSI
100
AcDbSpline
 62
250
  6
CONTINUOUS
 70
0
 71
3
 72
11
 73
7
 74
0
 42
0.0000001
 43
0.0000001
 44
0.0000000001
 40
0.0
 40
0.0
 40
0.0
 40
0.0
 40
0.2880074263
 40
0.5552762458
 40
0.7904272656
 40
1.0
 40
1.0
 40
1.0
 40
1.0
 10
-60.1213569792
 20
40.5007961985
 30
0.0
 10
-60.1215248587
 20
40.5392704327
 30
0.0
 10
-60.111838188
 20
40.6139579155
 30
0.0
 10
-60.068190726
 20
40.7119351969
 30
0.0
 10
-59.9997922017
 20
40.7819234737
 30
0.0
 10
-59.9398384343
 20
40.8005404622
 30
0.0
 10
-59.9118429055
 20
40.8007847754
 30
0.0
  0
SPLINE
  5
772
100
AcDbEntity
  8
ASSI
100
AcDbSpline
 62
250
  6
CONTINUOUS
 70
0
 71
3
 72
11
 73
7
 74
0
 42
0.0000001
 43
0.0000001
 44
0.0000000001
 40
0.0
 40
0.0
 40
0.0
 40
0.0
 40
0.2837171973
 40
0.5501498878
 40
0.7881593659
 40
1.0
 40
1.0
 40
1.0
 40
1.0
 10
-61.7334271974
 20
40.4867278748
 30
0.0
 10
-61.7335814029
 20
40.5220716134
 30
0.0
 10
-61.7253722749
 20
40.590995927
 30
0.0
 10
-61.6882284899
 20
40.6832514226
 30
0.0
 10
-61.6298896572
 20
40.7532120528
 30
0.0
 10
-61.5773651383
 20
40.7788319797
 30
0.0
 10
-61.5514662509
 20
40.7838997614
 30
0.0
  0
LINE
  5
773
100
AcDbEntity
  8
ASSI
100
AcDbLine
 62
250
  6
CONTINUOUS
 10
-51.0371476678
 20
2.0140457303
 30
0.0
 11
-50.687957545
 21
2.0128267959
 31
0.0
  0
LINE
  5
774
100
AcDbEntity
  8
ASSI
100
AcDbLine
 62
250
  6
CONTINUOUS
 10
-52.8749411891
 20
2.0293170993
 30
0.0
 11
-52.7284945797
 21
2.0288058912
 31
0.0
  0
LINE
  5
775
100
AcDbEntity
  8
ASSI
100
AcDbLine
 62
250
  6
CONTINUOUS
 10
-61.7334271974
 20
40.4867278748
 30
0.0
 11
-61.8798738069
 21
40.4862166668
 31
0.0
  0
LINE
  5
776
100
AcDbEntity
  8
ASSI
100
AcDbLine
 62
250
  6
CONTINUOUS
 10
-59.7721668563
 20
40.5020151329
 30
0.0
 11
-60.1213569792
 21
40.5007961985
 31
0.0
  0
SPLINE
  5
777
100
AcDbEntity
  8
ASSI
100
AcDbSpline
 62
250
  6
CONTINUOUS
 70
0
 71
3
 72
21
 73
17
 74
0
 42
0.0000001
 43
0.0000001
 44
0.0000000001
 40
0.0
 40
0.0
 40
0.0
 40
0.0
 40
0.1946533657
 40
0.3826179217
 40
0.5555454687
 40
0.706990797
 40
0.7728264489
 40
0.8312581086
 40
0.8817447274
 40
0.9237454585
 40
0.956779821
 40
0.9806081378
 40
0.989014866
 40
0.9950551477
 40
0.9987118834
 40
1.0
 40
1.0
 40
1.0
 40
1.0
 10
-53.6324917675
 20
17.8470593112
 30
0.0
 10
-53.6324917674
 20
17.8665280235
 30
0.0
 10
-53.6324588551
 20
17.9047964496
 30
0.0
 10
-53.6323158839
 20
17.9603605147
 30
0.0
 10
-53.6320818355
 20
18.0116025259
 30
0.0
 10
-53.6318118398
 20
18.0506295798
 30
0.0
 10
-53.6315489194
 20
18.0782038583
 30
0.0
 10
-53.6313465176
 20
18.0956824174
 30
0.0
 10
-53.631129014
 20
18.1107715064
 30
0.0
 10
-53.6309085776
 20
18.1233349396
 30
0.0
 10
-53.6306627218
 20
18.1331914747
 30
0.0
 10
-53.6304778785
 20
18.1397767621
 30
0.0
 10
-53.6302592721
 20
18.1435188021
 30
0.0
 10
-53.6301967639
 20
18.1454616759
 30
0.0
 10
-53.6299861571
 20
18.1463116321
 30
0.0
 10
-53.6300026381
 20
18.1470593112
 30
0.0
 10
-53.6298738041
 20
18.1470593112
 30
0.0
  0
SPLINE
  5
778
100
AcDbEntity
  8
ASSI
100
AcDbSpline
 62
250
  6
CONTINUOUS
 70
0
 71
3
 72
21
 73
17
 74
0
 42
0.0000001
 43
0.0000001
 44
0.0000000001
 40
0.0
 40
0.0
 40
0.0
 40
0.0
 40
0.1946533312
 40
0.3826178055
 40
0.5555453171
 40
0.7069906672
 40
0.7728263373
 40
0.8312580246
 40
0.8817446699
 40
0.9237454161
 40
0.9567797886
 40
0.9806081196
 40
0.9890148548
 40
0.9950551422
 40
0.998711882
 40
1.0
 40
1.0
 40
1.0
 40
1.0
 10
-53.6324917675
 20
22.7470593112
 30
0.0
 10
-53.6324917675
 20
22.7275906024
 30
0.0
 10
-53.6324588556
 20
22.6893221879
 30
0.0
 10
-53.6323158847
 20
22.633758138
 30
0.0
 10
-53.6320818369
 20
22.5825161364
 30
0.0
 10
-53.6318118417
 20
22.543489082
 30
0.0
 10
-53.6315489216
 20
22.5159147967
 30
0.0
 10
-53.6313465201
 20
22.4984362304
 30
0.0
 10
-53.6311290167
 20
22.4833471345
 30
0.0
 10
-53.6309085804
 20
22.4707836961
 30
0.0
 10
-53.6306627246
 20
22.460927157
 30
0.0
 10
-53.6304778813
 20
22.4543418665
 30
0.0
 10
-53.6302592749
 20
22.4505998239
 30
0.0
 10
-53.6301967668
 20
22.4486569483
 30
0.0
 10
-53.6299861597
 20
22.4478069913
 30
0.0
 10
-53.630002641
 20
22.4470593112
 30
0.0
 10
-53.6298738069
 20
22.4470593112
 30
0.0
  0
SPLINE
  5
779
100
AcDbEntity
  8
ASSI
100
AcDbSpline
 62
250
  6
CONTINUOUS
 70
0
 71
3
 72
21
 73
17
 74
0
 42
0.0000001
 43
0.0000001
 44
0.0000000001
 40
0.0
 40
0.0
 40
0.0
 40
0.0
 40
0.1946533657
 40
0.3826179217
 40
0.5555454687
 40
0.706990797
 40
0.7728264489
 40
0.8312581086
 40
0.8817447274
 40
0.9237454585
 40
0.956779821
 40
0.9806081378
 40
0.989014866
 40
0.9950551477
 40
0.9987118834
 40
1.0
 40
1.0
 40
1.0
 40
1.0
 10
-53.6324917675
 20
22.8470593112
 30
0.0
 10
-53.6324917674
 20
22.8665280235
 30
0.0
 10
-53.6324588551
 20
22.9047964496
 30
0.0
 10
-53.6323158839
 20
22.9603605147
 30
0.0
 10
-53.6320818355
 20
23.0116025259
 30
0.0
 10
-53.6318118398
 20
23.0506295798
 30
0.0
 10
-53.6315489194
 20
23.0782038583
 30
0.0
 10
-53.6313465176
 20
23.0956824174
 30
0.0
 10
-53.631129014
 20
23.1107715064
 30
0.0
 10
-53.6309085776
 20
23.1233349396
 30
0.0
 10
-53.6306627218
 20
23.1331914747
 30
0.0
 10
-53.6304778785
 20
23.1397767621
 30
0.0
 10
-53.6302592721
 20
23.1435188021
 30
0.0
 10
-53.6301967639
 20
23.1454616759
 30
0.0
 10
-53.6299861571
 20
23.1463116321
 30
0.0
 10
-53.6300026381
 20
23.1470593112
 30
0.0
 10
-53.6298738041
 20
23.1470593112
 30
0.0
  0
SPLINE
  5
77A
100
AcDbEntity
  8
ASSI
100
AcDbSpline
 62
250
  6
CONTINUOUS
 70
0
 71
3
 72
21
 73
17
 74
0
 42
0.0000001
 43
0.0000001
 44
0.0000000001
 40
0.0
 40
0.0
 40
0.0
 40
0.0
 40
0.1946533312
 40
0.3826178055
 40
0.5555453171
 40
0.7069906672
 40
0.7728263373
 40
0.8312580246
 40
0.8817446699
 40
0.9237454161
 40
0.9567797886
 40
0.9806081196
 40
0.9890148548
 40
0.9950551422
 40
0.998711882
 40
1.0
 40
1.0
 40
1.0
 40
1.0
 10
-53.6324917675
 20
27.7470593112
 30
0.0
 10
-53.6324917675
 20
27.7275906024
 30
0.0
 10
-53.6324588556
 20
27.6893221879
 30
0.0
 10
-53.6323158847
 20
27.633758138
 30
0.0
 10
-53.6320818369
 20
27.5825161364
 30
0.0
 10
-53.6318118417
 20
27.543489082
 30
0.0
 10
-53.6315489216
 20
27.5159147967
 30
0.0
 10
-53.6313465201
 20
27.4984362304
 30
0.0
 10
-53.6311290167
 20
27.4833471345
 30
0.0
 10
-53.6309085804
 20
27.4707836961
 30
0.0
 10
-53.6306627246
 20
27.460927157
 30
0.0
 10
-53.6304778813
 20
27.4543418665
 30
0.0
 10
-53.6302592749
 20
27.4505998239
 30
0.0
 10
-53.6301967668
 20
27.4486569483
 30
0.0
 10
-53.6299861597
 20
27.4478069913
 30
0.0
 10
-53.630002641
 20
27.4470593112
 30
0.0
 10
-53.6298738069
 20
27.4470593112
 30
0.0
  0
SPLINE
  5
77B
100
AcDbEntity
  8
ASSI
100
AcDbSpline
 62
250
  6
CONTINUOUS
 70
0
 71
3
 72
21
 73
17
 74
0
 42
0.0000001
 43
0.0000001
 44
0.0000000001
 40
0.0
 40
0.0
 40
0.0
 40
0.0
 40
0.1946533657
 40
0.3826179217
 40
0.5555454687
 40
0.706990797
 40
0.7728264489
 40
0.8312581086
 40
0.8817447274
 40
0.9237454585
 40
0.956779821
 40
0.9806081378
 40
0.989014866
 40
0.9950551477
 40
0.9987118834
 40
1.0
 40
1.0
 40
1.0
 40
1.0
 10
-53.6324917675
 20
27.8470593112
 30
0.0
 10
-53.6324917674
 20
27.8665280235
 30
0.0
 10
-53.6324588551
 20
27.9047964496
 30
0.0
 10
-53.6323158839
 20
27.9603605147
 30
0.0
 10
-53.6320818355
 20
28.0116025259
 30
0.0
 10
-53.6318118398
 20
28.0506295798
 30
0.0
 10
-53.6315489194
 20
28.0782038583
 30
0.0
 10
-53.6313465176
 20
28.0956824174
 30
0.0
 10
-53.631129014
 20
28.1107715064
 30
0.0
 10
-53.6309085776
 20
28.1233349396
 30
0.0
 10
-53.6306627218
 20
28.1331914747
 30
0.0
 10
-53.6304778785
 20
28.1397767621
 30
0.0
 10
-53.6302592721
 20
28.1435188021
 30
0.0
 10
-53.6301967639
 20
28.1454616759
 30
0.0
 10
-53.6299861571
 20
28.1463116321
 30
0.0
 10
-53.6300026381
 20
28.1470593112
 30
0.0
 10
-53.6298738041
 20
28.1470593112
 30
0.0
  0
SPLINE
  5
77C
100
AcDbEntity
  8
ASSI
100
AcDbSpline
 62
250
  6
CONTINUOUS
 70
0
 71
3
 72
21
 73
17
 74
0
 42
0.0000001
 43
0.0000001
 44
0.0000000001
 40
0.0
 40
0.0
 40
0.0
 40
0.0
 40
0.1946533312
 40
0.3826178055
 40
0.5555453171
 40
0.7069906672
 40
0.7728263373
 40
0.8312580246
 40
0.8817446699
 40
0.9237454161
 40
0.9567797886
 40
0.9806081196
 40
0.9890148548
 40
0.9950551422
 40
0.998711882
 40
1.0
 40
1.0
 40
1.0
 40
1.0
 10
-53.6324917675
 20
32.7470593112
 30
0.0
 10
-53.6324917675
 20
32.7275906024
 30
0.0
 10
-53.6324588556
 20
32.6893221879
 30
0.0
 10
-53.6323158847
 20
32.633758138
 30
0.0
 10
-53.6320818369
 20
32.5825161364
 30
0.0
 10
-53.6318118417
 20
32.543489082
 30
0.0
 10
-53.6315489216
 20
32.5159147967
 30
0.0
 10
-53.6313465201
 20
32.4984362304
 30
0.0
 10
-53.6311290167
 20
32.4833471345
 30
0.0
 10
-53.6309085804
 20
32.4707836961
 30
0.0
 10
-53.6306627246
 20
32.460927157
 30
0.0
 10
-53.6304778813
 20
32.4543418665
 30
0.0
 10
-53.6302592749
 20
32.4505998239
 30
0.0
 10
-53.6301967668
 20
32.4486569483
 30
0.0
 10
-53.6299861597
 20
32.4478069913
 30
0.0
 10
-53.630002641
 20
32.4470593112
 30
0.0
 10
-53.6298738069
 20
32.4470593112
 30
0.0
  0
SPLINE
  5
77D
100
AcDbEntity
  8
ASSI
100
AcDbSpline
 62
250
  6
CONTINUOUS
 70
0
 71
3
 72
21
 73
17
 74
0
 42
0.0000001
 43
0.0000001
 44
0.0000000001
 40
0.0
 40
0.0
 40
0.0
 40
0.0
 40
0.1946533657
 40
0.3826179217
 40
0.5555454687
 40
0.706990797
 40
0.7728264489
 40
0.8312581086
 40
0.8817447274
 40
0.9237454585
 40
0.956779821
 40
0.9806081378
 40
0.989014866
 40
0.9950551477
 40
0.9987118834
 40
1.0
 40
1.0
 40
1.0
 40
1.0
 10
-53.6324917675
 20
32.8470593112
 30
0.0
 10
-53.6324917674
 20
32.8665280235
 30
0.0
 10
-53.6324588551
 20
32.9047964496
 30
0.0
 10
-53.6323158839
 20
32.9603605147
 30
0.0
 10
-53.6320818355
 20
33.0116025259
 30
0.0
 10
-53.6318118398
 20
33.0506295798
 30
0.0
 10
-53.6315489194
 20
33.0782038583
 30
0.0
 10
-53.6313465176
 20
33.0956824174
 30
0.0
 10
-53.631129014
 20
33.1107715064
 30
0.0
 10
-53.6309085776
 20
33.1233349396
 30
0.0
 10
-53.6306627218
 20
33.1331914747
 30
0.0
 10
-53.6304778785
 20
33.1397767621
 30
0.0
 10
-53.6302592721
 20
33.1435188021
 30
0.0
 10
-53.6301967639
 20
33.1454616759
 30
0.0
 10
-53.6299861571
 20
33.1463116321
 30
0.0
 10
-53.6300026381
 20
33.1470593112
 30
0.0
 10
-53.6298738041
 20
33.1470593112
 30
0.0
  0
SPLINE
  5
77E
100
AcDbEntity
  8
ASSI
100
AcDbSpline
 62
250
  6
CONTINUOUS
 70
0
 71
3
 72
21
 73
17
 74
0
 42
0.0000001
 43
0.0000001
 44
0.0000000001
 40
0.0
 40
0.0
 40
0.0
 40
0.0
 40
0.1946533312
 40
0.3826178055
 40
0.5555453171
 40
0.7069906672
 40
0.7728263373
 40
0.8312580246
 40
0.8817446699
 40
0.9237454161
 40
0.9567797886
 40
0.9806081196
 40
0.9890148548
 40
0.9950551422
 40
0.998711882
 40
1.0
 40
1.0
 40
1.0
 40
1.0
 10
-53.6324917675
 20
37.7470593112
 30
0.0
 10
-53.6324917675
 20
37.7275906024
 30
0.0
 10
-53.6324588556
 20
37.6893221879
 30
0.0
 10
-53.6323158847
 20
37.633758138
 30
0.0
 10
-53.6320818369
 20
37.5825161364
 30
0.0
 10
-53.6318118417
 20
37.543489082
 30
0.0
 10
-53.6315489216
 20
37.5159147967
 30
0.0
 10
-53.6313465201
 20
37.4984362304
 30
0.0
 10
-53.6311290167
 20
37.4833471345
 30
0.0
 10
-53.6309085804
 20
37.4707836961
 30
0.0
 10
-53.6306627246
 20
37.460927157
 30
0.0
 10
-53.6304778813
 20
37.4543418665
 30
0.0
 10
-53.6302592749
 20
37.4505998239
 30
0.0
 10
-53.6301967668
 20
37.4486569483
 30
0.0
 10
-53.6299861597
 20
37.4478069913
 30
0.0
 10
-53.630002641
 20
37.4470593112
 30
0.0
 10
-53.6298738069
 20
37.4470593112
 30
0.0
  0
SPLINE
  5
77F
100
AcDbEntity
  8
0
100
AcDbSpline
 62
250
  6
CONTINUOUS
 70
0
 71
3
 72
21
 73
17
 74
0
 42
0.0000001
 43
0.0000001
 44
0.0000000001
 40
0.0
 40
0.0
 40
0.0
 40
0.0
 40
0.0012386196
 40
0.0048601485
 40
0.010873725
 40
0.0192698426
 40
0.0431182345
 40
0.0761810475
 40
0.1181392015
 40
0.1685881473
 40
0.2270443453
 40
0.29294427
 40
0.4444696608
 40
0.6173444947
 40
0.8049177821
 40
1.0
 40
1.0
 40
1.0
 40
1.0
 10
-92.1313282397
 20
45.7839607325
 30
0.0
 10
-92.1314314608
 20
45.783960132
 30
0.0
 10
-92.1313437367
 20
45.7833277896
 30
0.0
 10
-92.1315288304
 20
45.7826418491
 30
0.0
 10
-92.1315132775
 20
45.7810171827
 30
0.0
 10
-92.1316413301
 20
45.777904341
 30
0.0
 10
-92.1316932416
 20
45.7724074172
 30
0.0
 10
-92.131790362
 20
45.7641945363
 30
0.0
 10
-92.1318487134
 20
45.7537283847
 30
0.0
 10
-92.1318976611
 20
45.7411595113
 30
0.0
 10
-92.1319249575
 20
45.7265906158
 30
0.0
 10
-92.1319374237
 20
45.7035999477
 30
0.0
 10
-92.1318982746
 20
45.6710732095
 30
0.0
 10
-92.1317797507
 20
45.6284071108
 30
0.0
 10
-92.1315903985
 20
45.5821111996
 30
0.0
 10
-92.1314228187
 20
45.5502222627
 30
0.0
 10
-92.1313282397
 20
45.5339649633
 30
0.0
  0
SPLINE
  5
780
100
AcDbEntity
  8
0
100
AcDbSpline
 62
250
  6
CONTINUOUS
 70
0
 71
3
 72
21
 73
17
 74
0
 42
0.0000001
 43
0.0000001
 44
0.0000000001
 40
0.0
 40
0.0
 40
0.0
 40
0.0
 40
0.1952389023
 40
0.38287979
 40
0.5557566991
 40
0.7072427174
 40
0.7731145695
 40
0.8315405978
 40
0.8819595776
 40
0.9238899665
 40
0.9569288677
 40
0.9807583616
 40
0.9891470509
 40
0.9951544438
 40
0.9987704654
 40
1.0
 40
1.0
 40
1.0
 40
1.0
 10
-89.128419374
 20
-2.5472782561
 30
0.0
 10
-89.1203078104
 20
-2.5332281402
 30
0.0
 10
-89.1044137557
 20
-2.5056669606
 30
0.0
 10
-89.081383574
 20
-2.4656381531
 30
0.0
 10
-89.0602084834
 20
-2.4287367059
 30
0.0
 10
-89.0441075824
 20
-2.4005891778
 30
0.0
 10
-89.0327594207
 20
-2.380680321
 30
0.0
 10
-89.0255836809
 20
-2.368057999
 30
0.0
 10
-89.0194131648
 20
-2.3571581911
 30
0.0
 10
-89.0142868003
 20
-2.3480756163
 30
0.0
 10
-89.0103072981
 20
-2.3409250609
 30
0.0
 10
-89.0076246324
 20
-2.3361487601
 30
0.0
 10
-89.0061933207
 20
-2.3333962734
 30
0.0
 10
-89.0053634747
 20
-2.3320036311
 30
0.0
 10
-89.0051921695
 20
-2.3313197215
 30
0.0
 10
-89.0047853257
 20
-2.3308229897
 30
0.0
 10
-89.0048738069
 20
-2.3307719051
 30
0.0
  0
SPLINE
  5
781
100
AcDbEntity
  8
0
100
AcDbSpline
 62
250
  6
CONTINUOUS
 70
0
 71
3
 72
21
 73
17
 74
0
 42
0.0000001
 43
0.0000001
 44
0.0000000001
 40
0.0
 40
0.0
 40
0.0
 40
0.0
 40
0.1950822179
 40
0.3826555053
 40
0.5555303392
 40
0.70705573
 40
0.7729556547
 40
0.8314118527
 40
0.8818607985
 40
0.9238189525
 40
0.9568817655
 40
0.9807301574
 40
0.989126275
 40
0.9951398515
 40
0.9987613804
 40
1.0
 40
1.0
 40
1.0
 40
1.0
 10
-89.128419374
 20
-2.9485730856
 30
0.0
 10
-89.128324795
 20
-2.964830385
 30
0.0
 10
-89.1281572152
 20
-2.9967193219
 30
0.0
 10
-89.127967863
 20
-3.0430152331
 30
0.0
 10
-89.1278493391
 20
-3.0856813318
 30
0.0
 10
-89.12781019
 20
-3.11820807
 30
0.0
 10
-89.1278226562
 20
-3.1411987381
 30
0.0
 10
-89.1278499526
 20
-3.1557676336
 30
0.0
 10
-89.1278989003
 20
-3.168336507
 30
0.0
 10
-89.1279572517
 20
-3.1788026586
 30
0.0
 10
-89.1280543721
 20
-3.1870155395
 30
0.0
 10
-89.1281062836
 20
-3.1925124632
 30
0.0
 10
-89.1282343362
 20
-3.195625305
 30
0.0
 10
-89.1282187833
 20
-3.1972499714
 30
0.0
 10
-89.128403877
 20
-3.1979359119
 30
0.0
 10
-89.1283161529
 20
-3.1985682543
 30
0.0
 10
-89.128419374
 20
-3.1985688548
 30
0.0
  0
LINE
  5
782
100
AcDbEntity
  8
0
100
AcDbLine
 62
7
  6
CONTINUOUS
 10
-89.8798738069
 20
-2.9529449196
 30
0.0
 11
-89.8798738069
 21
-3.2029406888
 31
0.0
  0
SPLINE
  5
783
100
AcDbEntity
  8
0
100
AcDbSpline
 62
250
  6
CONTINUOUS
 70
0
 71
3
 72
21
 73
17
 74
0
 42
0.0000001
 43
0.0000001
 44
0.0000000001
 40
0.0
 40
0.0
 40
0.0
 40
0.0
 40
0.1950822179
 40
0.3826555053
 40
0.5555303392
 40
0.70705573
 40
0.7729556547
 40
0.8314118527
 40
0.8818607985
 40
0.9238189525
 40
0.9568817655
 40
0.9807301574
 40
0.989126275
 40
0.9951398515
 40
0.9987613804
 40
1.0
 40
1.0
 40
1.0
 40
1.0
 10
-92.1313282397
 20
-2.9398463408
 30
0.0
 10
-92.1314228187
 20
-2.9561036402
 30
0.0
 10
-92.1315903985
 20
-2.9879925772
 30
0.0
 10
-92.1317797507
 20
-3.0342884884
 30
0.0
 10
-92.1318982746
 20
-3.0769545871
 30
0.0
 10
-92.1319374237
 20
-3.1094813252
 30
0.0
 10
-92.1319249575
 20
-3.1324719933
 30
0.0
 10
-92.1318976611
 20
-3.1470408889
 30
0.0
 10
-92.1318487134
 20
-3.1596097623
 30
0.0
 10
-92.131790362
 20
-3.1700759139
 30
0.0
 10
-92.1316932416
 20
-3.1782887948
 30
0.0
 10
-92.1316413301
 20
-3.1837857185
 30
0.0
 10
-92.1315132775
 20
-3.1868985603
 30
0.0
 10
-92.1315288304
 20
-3.1885232267
 30
0.0
 10
-92.1313437367
 20
-3.1892091672
 30
0.0
 10
-92.1314314608
 20
-3.1898415095
 30
0.0
 10
-92.1313282397
 20
-3.1898421101
 30
0.0
  0
SPLINE
  5
784
100
AcDbEntity
  8
0
100
AcDbSpline
 62
250
  6
CONTINUOUS
 70
0
 71
3
 72
21
 73
17
 74
0
 42
0.0000001
 43
0.0000001
 44
0.0000000001
 40
0.0
 40
0.0
 40
0.0
 40
0.0
 40
0.0012386196
 40
0.0048601485
 40
0.010873725
 40
0.0192698426
 40
0.0431182345
 40
0.0761810475
 40
0.1181392015
 40
0.1685881473
 40
0.2270443453
 40
0.29294427
 40
0.4444696608
 40
0.6173444947
 40
0.8049177821
 40
1.0
 40
1.0
 40
1.0
 40
1.0
 10
-89.128419374
 20
45.7926874772
 30
0.0
 10
-89.1283161529
 20
45.7926868767
 30
0.0
 10
-89.128403877
 20
45.7920545343
 30
0.0
 10
-89.1282187833
 20
45.7913685938
 30
0.0
 10
-89.1282343362
 20
45.7897439275
 30
0.0
 10
-89.1281062836
 20
45.7866310857
 30
0.0
 10
-89.1280543721
 20
45.781134162
 30
0.0
 10
-89.1279572517
 20
45.772921281
 30
0.0
 10
-89.1278989003
 20
45.7624551294
 30
0.0
 10
-89.1278499526
 20
45.749886256
 30
0.0
 10
-89.1278226562
 20
45.7353173605
 30
0.0
 10
-89.12781019
 20
45.7123266924
 30
0.0
 10
-89.1278493391
 20
45.6797999542
 30
0.0
 10
-89.127967863
 20
45.6371338555
 30
0.0
 10
-89.1281572152
 20
45.5908379444
 30
0.0
 10
-89.128324795
 20
45.5589490074
 30
0.0
 10
-89.128419374
 20
45.542691708
 30
0.0
  0
LINE
  5
785
100
AcDbEntity
  8
0
100
AcDbLine
 62
7
  6
CONTINUOUS
 10
-89.8798738069
 20
45.7970593112
 30
0.0
 11
-89.8798738069
 21
45.547063542
 31
0.0
  0
SPLINE
  5
786
100
AcDbEntity
  8
0
100
AcDbSpline
 62
250
  6
CONTINUOUS
 70
0
 71
3
 72
21
 73
17
 74
0
 42
0.0000001
 43
0.0000001
 44
0.0000000001
 40
0.0
 40
0.0
 40
0.0
 40
0.0
 40
0.1952387227
 40
0.3828796428
 40
0.555756573
 40
0.7072426238
 40
0.7731144909
 40
0.8315405367
 40
0.8819595297
 40
0.92388993
 40
0.9569288447
 40
0.9807583481
 40
0.9891470414
 40
0.9951544368
 40
0.998770463
 40
1.0
 40
1.0
 40
1.0
 40
1.0
 10
-92.1313282397
 20
45.1413968785
 30
0.0
 10
-92.1394397959
 20
45.1273467756
 30
0.0
 10
-92.1553338444
 20
45.0997856066
 30
0.0
 10
-92.178364021
 20
45.0597568082
 30
0.0
 10
-92.1995391151
 20
45.0228553548
 30
0.0
 10
-92.215640019
 20
44.9947078218
 30
0.0
 10
-92.2269881834
 20
44.9747989603
 30
0.0
 10
-92.2341639251
 20
44.962176635
 30
0.0
 10
-92.2403344429
 20
44.9512768241
 30
0.0
 10
-92.245460809
 20
44.9421942465
 30
0.0
 10
-92.2494403126
 20
44.9350436886
 30
0.0
 10
-92.2521229795
 20
44.930267386
 30
0.0
 10
-92.2535542918
 20
44.927514898
 30
0.0
 10
-92.2543841383
 20
44.9261222549
 30
0.0
 10
-92.2545554435
 20
44.9254383447
 30
0.0
 10
-92.2549622881
 20
44.9249416123
 30
0.0
 10
-92.2548738069
 20
44.9248905276
 30
0.0
  0
SPLINE
  5
787
100
AcDbEntity
  8
0
100
AcDbSpline
 62
250
  6
CONTINUOUS
 70
0
 71
3
 72
21
 73
17
 74
0
 42
0.0000001
 43
0.0000001
 44
0.0000000001
 40
0.0
 40
0.0
 40
0.0
 40
0.0
 40
0.1952388959
 40
0.3828797779
 40
0.5557566816
 40
0.7072426977
 40
0.7731145491
 40
0.8315405786
 40
0.8819595594
 40
0.9238899496
 40
0.9569288549
 40
0.9807583528
 40
0.9891470439
 40
0.9951544383
 40
0.9987704635
 40
1.0
 40
1.0
 40
1.0
 40
1.0
 10
-92.1313282397
 20
-2.5472782561
 30
0.0
 10
-92.1394398031
 20
-2.5332281406
 30
0.0
 10
-92.1553338572
 20
-2.505666962
 30
0.0
 10
-92.1783640383
 20
-2.4656381557
 30
0.0
 10
-92.1995391282
 20
-2.4287367094
 30
0.0
 10
-92.2156400289
 20
-2.400589182
 30
0.0
 10
-92.2269881905
 20
-2.3806803253
 30
0.0
 10
-92.2341639304
 20
-2.3680580032
 30
0.0
 10
-92.2403344466
 20
-2.3571581951
 30
0.0
 10
-92.2454608114
 20
-2.3480756198
 30
0.0
 10
-92.249440314
 20
-2.3409250637
 30
0.0
 10
-92.2521229802
 20
-2.3361487623
 30
0.0
 10
-92.2535542921
 20
-2.3333962749
 30
0.0
 10
-92.2543841385
 20
-2.3320036322
 30
0.0
 10
-92.2545554437
 20
-2.3313197221
 30
0.0
 10
-92.2549622881
 20
-2.3308229898
 30
0.0
 10
-92.2548738069
 20
-2.3307719051
 30
0.0
  0
SPLINE
  5
788
100
AcDbEntity
  8
0
100
AcDbSpline
 62
250
  6
CONTINUOUS
 70
0
 71
3
 72
21
 73
17
 74
0
 42
0.0000001
 43
0.0000001
 44
0.0000000001
 40
0.0
 40
0.0
 40
0.0
 40
0.0
 40
0.1952388959
 40
0.3828797779
 40
0.5557566816
 40
0.7072426977
 40
0.7731145491
 40
0.8315405786
 40
0.8819595594
 40
0.9238899496
 40
0.9569288549
 40
0.9807583528
 40
0.9891470439
 40
0.9951544383
 40
0.9987704635
 40
1.0
 40
1.0
 40
1.0
 40
1.0
 10
-89.128419374
 20
45.1413968785
 30
0.0
 10
-89.1203078106
 20
45.1273467631
 30
0.0
 10
-89.1044137565
 20
45.0997855844
 30
0.0
 10
-89.0813835754
 20
45.0597567781
 30
0.0
 10
-89.0602084855
 20
45.0228553319
 30
0.0
 10
-89.0441075848
 20
44.9947078044
 30
0.0
 10
-89.0327594232
 20
44.9747989478
 30
0.0
 10
-89.0255836833
 20
44.9621766256
 30
0.0
 10
-89.0194131671
 20
44.9512768175
 30
0.0
 10
-89.0142868023
 20
44.9421942422
 30
0.0
 10
-89.0103072997
 20
44.9350436861
 30
0.0
 10
-89.0076246335
 20
44.9302673847
 30
0.0
 10
-89.0061933216
 20
44.9275148974
 30
0.0
 10
-89.0053634752
 20
44.9261222546
 30
0.0
 10
-89.00519217
 20
44.9254383446
 30
0.0
 10
-89.0047853256
 20
44.9249416123
 30
0.0
 10
-89.0048738069
 20
44.9248905276
 30
0.0
  0
SPLINE
  5
789
100
AcDbEntity
  8
0
100
AcDbSpline
 62
7
  6
CONTINUOUS
 70
0
 71
3
 72
18
 73
14
 74
0
 42
0.0000001
 43
0.0000001
 44
0.0000000001
 40
0.0
 40
0.0
 40
0.0
 40
0.0
 40
0.0979378208
 40
0.1949481678
 40
0.3824262608
 40
0.555237868
 40
0.7067385852
 40
0.8311031688
 40
0.9235489232
 40
0.9566440972
 40
0.9805310857
 40
0.9950218771
 40
1.0
 40
1.0
 40
1.0
 40
1.0
 10
-89.8798738069
 20
-0.6027118367
 30
0.0
 10
-89.8798738069
 20
-0.6190450321
 30
0.0
 10
-89.8792388697
 20
-0.6515532131
 30
0.0
 10
-89.8790744147
 20
-0.7153317781
 30
0.0
 10
-89.8795811204
 20
-0.7915949414
 30
0.0
 10
-89.8802805062
 20
-0.8769442485
 30
0.0
 10
-89.8809317954
 20
-0.9517663531
 30
0.0
 10
-89.8813228726
 20
-1.0131927852
 30
0.0
 10
-89.8814155221
 20
-1.0548612687
 30
0.0
 10
-89.8811893038
 20
-1.0797935846
 30
0.0
 10
-89.8809183928
 20
-1.0916893575
 30
0.0
 10
-89.88074355
 20
-1.0989552533
 30
0.0
 10
-89.8800910234
 20
-1.1021351383
 30
0.0
 10
-89.8798738069
 20
-1.1029406888
 30
0.0
  0
SPLINE
  5
78A
100
AcDbEntity
  8
0
100
AcDbSpline
 62
7
  6
CONTINUOUS
 70
0
 71
3
 72
18
 73
14
 74
0
 42
0.0000001
 43
0.0000001
 44
0.0000000001
 40
0.0
 40
0.0
 40
0.0
 40
0.0
 40
0.0049781229
 40
0.0194689143
 40
0.0433559028
 40
0.0764510768
 40
0.1688968312
 40
0.2932614148
 40
0.444762132
 40
0.6175737392
 40
0.8050518322
 40
0.9020621792
 40
1.0
 40
1.0
 40
1.0
 40
1.0
 10
-89.8798738069
 20
43.6970593112
 30
0.0
 10
-89.8800910234
 20
43.6962537607
 30
0.0
 10
-89.88074355
 20
43.6930738758
 30
0.0
 10
-89.8809183928
 20
43.68580798
 30
0.0
 10
-89.8811893038
 20
43.6739122071
 30
0.0
 10
-89.8814155221
 20
43.6489798911
 30
0.0
 10
-89.8813228726
 20
43.6073114076
 30
0.0
 10
-89.8809317954
 20
43.5458849755
 30
0.0
 10
-89.8802805062
 20
43.471062871
 30
0.0
 10
-89.8795811204
 20
43.3857135638
 30
0.0
 10
-89.8790744147
 20
43.3094504006
 30
0.0
 10
-89.8792388697
 20
43.2456718356
 30
0.0
 10
-89.8798738069
 20
43.2131636546
 30
0.0
 10
-89.8798738069
 20
43.1968304592
 30
0.0
  0
ELLIPSE
  5
78B
100
AcDbEntity
  8
ASSI
100
AcDbEllipse
 62
7
  6
CONTINUOUS
 10
-2.648302886
 20
43.1177614693
 30
0.0
 11
0.1582391023
 21
0.4751033573
 31
0.0
 40
0.9984778551
 41
-1.2488325878
 42
0.3210503505
  0
ELLIPSE
  5
78C
100
AcDbEntity
  8
ASSI
100
AcDbEllipse
 62
7
  6
CONTINUOUS
 10
-2.648302886
 20
-0.5236428469
 30
0.0
 11
-0.1582391023
 21
0.4751033573
 31
0.0
 40
0.9984778551
 41
-3.4626430041
 42
-1.8927600658
  0
ELLIPSE
  5
78D
100
AcDbEntity
  8
ASSI
100
AcDbEllipse
 62
7
  6
CONTINUOUS
 10
-23.8481505579
 20
-0.5236428469
 30
0.0
 11
0.1582391023
 21
0.4751033573
 31
0.0
 40
0.9984778551
 41
-4.3904252414
 42
-2.8205423031
  0
ELLIPSE
  5
78E
100
AcDbEntity
  8
ASSI
100
AcDbEllipse
 62
7
  6
CONTINUOUS
 10
-23.8481505579
 20
43.1177614693
 30
0.0
 11
-0.1582391023
 21
0.4751033573
 31
0.0
 40
0.9984778551
 41
-0.3210503505
 42
1.2488325878
  0
ELLIPSE
  5
78F
100
AcDbEntity
  8
RACCORDO
100
AcDbEllipse
 62
7
  6
CONTINUOUS
 10
-2.648302886
 20
43.1177614693
 30
0.0
 11
0.1582391023
 21
0.4751033573
 31
0.0
 40
0.9984778551
 41
-1.2488325878
 42
0.3210503505
  0
ELLIPSE
  5
790
100
AcDbEntity
  8
RACCORDO
100
AcDbEllipse
 62
7
  6
CONTINUOUS
 10
-2.648302886
 20
-0.5236428469
 30
0.0
 11
-0.1582391023
 21
0.4751033573
 31
0.0
 40
0.9984778551
 41
-3.4626430041
 42
-1.8927600658
  0
ELLIPSE
  5
791
100
AcDbEntity
  8
RACCORDO
100
AcDbEllipse
 62
7
  6
CONTINUOUS
 10
-23.8481505579
 20
-0.5236428469
 30
0.0
 11
0.1582391023
 21
0.4751033573
 31
0.0
 40
0.9984778551
 41
-4.3904252414
 42
-2.8205423031
  0
ELLIPSE
  5
792
100
AcDbEntity
  8
RACCORDO
100
AcDbEllipse
 62
7
  6
CONTINUOUS
 10
-23.8481505579
 20
43.1177614693
 30
0.0
 11
-0.1582391023
 21
0.4751033573
 31
0.0
 40
0.9984778551
 41
-0.3210503505
 42
1.2488325878
  0
ELLIPSE
  5
793
100
AcDbEntity
  8
0
100
AcDbEllipse
 62
7
  6
CONTINUOUS
 10
-23.8719679605
 20
-0.5236428469
 30
0.0
 11
-0.1582391023
 21
-0.4751033573
 31
0.0
 40
0.9984778551
 41
5.0343527194
 42
6.6042356568
  0
ELLIPSE
  5
794
100
AcDbEntity
  8
0
100
AcDbEllipse
 62
7
  6
CONTINUOUS
 10
-2.6244854834
 20
-0.5236428469
 30
0.0
 11
-0.1582391023
 21
0.4751033573
 31
0.0
 40
0.9984778551
 41
-3.4626430032
 42
-1.8927600658
  0
ELLIPSE
  5
795
100
AcDbEntity
  8
0
100
AcDbEllipse
 62
7
  6
CONTINUOUS
 10
-23.8719679605
 20
43.1177614693
 30
0.0
 11
-0.1582391023
 21
0.4751033573
 31
0.0
 40
0.9984778551
 41
-0.3210503496
 42
1.2488325878
  0
ELLIPSE
  5
796
100
AcDbEntity
  8
0
100
AcDbEllipse
 62
7
  6
CONTINUOUS
 10
-2.6244854834
 20
43.1177614693
 30
0.0
 11
0.1582391023
 21
0.4751033573
 31
0.0
 40
0.9984778551
 41
5.0343527194
 42
6.6042356568
  0
ELLIPSE
  5
797
100
AcDbEntity
  8
0
100
AcDbEllipse
 62
7
  6
CONTINUOUS
 10
-16.7464813484
 20
45.0953105776
 30
0.0
 11
-0.0
 21
0.2
 31
0.0
 40
0.0087268678
 41
0.0058177642
 42
1.5707963268
  0
ELLIPSE
  5
798
100
AcDbEntity
  8
0
100
AcDbEllipse
 62
7
  6
CONTINUOUS
 10
-9.7499720955
 20
45.0953105776
 30
0.0
 11
-0.0
 21
0.2
 31
0.0
 40
0.0087268678
 41
-1.5707963268
 42
-0.0058177642
  0
ELLIPSE
  5
799
100
AcDbEntity
  8
0
100
AcDbEllipse
 62
7
  6
CONTINUOUS
 10
-16.7464813484
 20
-2.5011919551
 30
0.0
 11
0.0
 21
0.2
 31
0.0
 40
0.0087268678
 41
-4.7123889804
 42
-3.1474104178
  0
ELLIPSE
  5
79A
100
AcDbEntity
  8
0
100
AcDbEllipse
 62
7
  6
CONTINUOUS
 10
-9.7499720955
 20
-2.5011919551
 30
0.0
 11
0.0
 21
0.2
 31
0.0
 40
0.0087268678
 41
-3.1357748894
 42
-1.5707963268
  0
ELLIPSE
  5
79B
100
AcDbEntity
  8
0
100
AcDbEllipse
 62
7
  6
CONTINUOUS
 10
-3.3555032401
 20
43.6315495871
 30
0.0
 11
0.25
 21
-0.0
 31
0.0
 40
0.0524077793
 41
-1.5707963268
 42
-0.0058177642
  0
ELLIPSE
  5
79C
100
AcDbEntity
  8
0
100
AcDbEllipse
 62
7
  6
CONTINUOUS
 10
-23.1409502038
 20
43.6315495871
 30
0.0
 11
0.25
 21
-0.0
 31
0.0
 40
0.0524077793
 41
-3.1357748894
 42
-1.5707963268
  0
ELLIPSE
  5
79D
100
AcDbEntity
  8
0
100
AcDbEllipse
 62
7
  6
CONTINUOUS
 10
-3.3555032401
 20
-1.0374309647
 30
0.0
 11
0.25
 21
-0.0
 31
0.0
 40
0.0524077793
 41
0.0058177642
 42
1.5707963268
  0
ELLIPSE
  5
79E
100
AcDbEntity
  8
0
100
AcDbEllipse
 62
7
  6
CONTINUOUS
 10
-23.1409502038
 20
-1.0374309647
 30
0.0
 11
0.25
 21
0.0
 31
0.0
 40
0.0524077793
 41
1.5707963268
 42
3.1357748894
  0
ELLIPSE
  5
79F
100
AcDbEntity
  8
0
100
AcDbEllipse
 62
7
  6
CONTINUOUS
 10
-12.0456010459
 20
43.6813369774
 30
0.0
 11
0.2
 21
-0.0
 31
0.0
 40
0.0524077793
 41
-3.1328660073
 42
-1.5707963268
  0
ELLIPSE
  5
7A0
100
AcDbEntity
  8
0
100
AcDbEllipse
 62
7
  6
CONTINUOUS
 10
-14.450852398
 20
43.6813369774
 30
0.0
 11
0.2
 21
0.0
 31
0.0
 40
0.0524077793
 41
-1.5707963268
 42
-0.0087266463
  0
ELLIPSE
  5
7A1
100
AcDbEntity
  8
0
100
AcDbEllipse
 62
7
  6
CONTINUOUS
 10
-12.0456010459
 20
-1.087218355
 30
0.0
 11
0.2
 21
-0.0
 31
0.0
 40
0.0524077793
 41
1.5707963268
 42
3.1328660073
  0
ELLIPSE
  5
7A2
100
AcDbEntity
  8
0
100
AcDbEllipse
 62
7
  6
CONTINUOUS
 10
-14.450852398
 20
-1.087218355
 30
0.0
 11
0.2
 21
-0.0
 31
0.0
 40
0.0524077793
 41
0.0087266463
 42
1.5707963268
  0
ELLIPSE
  5
7A3
100
AcDbEntity
  8
CURVE
100
AcDbEllipse
 62
250
  6
CONTINUOUS
 10
-8.3058621267
 20
13.5070593112
 30
0.0
 11
0.0
 21
90.0
 31
0.0
 40
1.0
 41
-4.6452853176
 42
-4.6353619865
  0
ELLIPSE
  5
7A4
100
AcDbEntity
  8
0
100
AcDbEllipse
 62
7
  6
CONTINUOUS
 10
-12.5314441308
 20
44.4470593112
 30
0.0
 11
85.9426996401
 21
-0.0
 31
0.0
 40
0.0058178298
 41
2.5196231925
 42
2.6791261215
  0
ELLIPSE
  5
7A5
100
AcDbEntity
  8
0
100
AcDbEllipse
 62
7
  6
CONTINUOUS
 10
-12.5314441308
 20
44.4470593112
 30
0.0
 11
85.9426996401
 21
0.0
 31
0.0
 40
0.0058178298
 41
-2.6905658418
 42
-2.5196231925
  0
ELLIPSE
  5
7A6
100
AcDbEntity
  8
0
100
AcDbEllipse
 62
7
  6
CONTINUOUS
 10
-12.5314441308
 20
-1.8529406888
 30
0.0
 11
85.9426996401
 21
-0.0
 31
0.0
 40
0.0058178298
 41
2.5196231925
 42
2.6905658418
  0
ELLIPSE
  5
7A7
100
AcDbEntity
  8
0
100
AcDbEllipse
 62
7
  6
CONTINUOUS
 10
-12.5314441308
 20
-1.8529406888
 30
0.0
 11
85.9426996401
 21
-0.0
 31
0.0
 40
0.0058178298
 41
-2.6791261215
 42
-2.5196231925
  0
ELLIPSE
  5
7A8
100
AcDbEntity
  8
0
100
AcDbEllipse
 62
7
  6
CONTINUOUS
 10
-78.3798738069
 20
-0.6567076593
 30
0.0
 11
0.3546425507
 21
0.3568377408
 31
0.0
 40
0.9877342685
 41
-0.2563081296
 42
0.7710302454
  0
ELLIPSE
  5
7A9
100
AcDbEntity
  8
0
100
AcDbEllipse
 62
7
  6
CONTINUOUS
 10
-78.3798738069
 20
43.2508262817
 30
0.0
 11
-0.3546425507
 21
0.3568377408
 31
0.0
 40
0.9877342685
 41
-3.912622899
 42
-2.8852845239
  0
ENDSEC
  0
SECTION
  2
OBJECTS
  0
DICTIONARY
  5
C
100
AcDbDictionary
280
0
281
1
  3
ACAD_GROUP
350
D
  3
ACAD_MLINESTYLE
350
17
  3
ACAD_LAYOUT
350
1A
  3
ACAD_PLOTSETTINGS
350
19
  3
ACAD_PLOTSTYLENAME
350
E
  0
DICTIONARY
  5
D
102
{ACAD_REACTORS
330
C
102
}
100
AcDbDictionary
280
0
281
1
  0
ACDBDICTIONARYWDFLT
  5
E
102
{ACAD_REACTORS
330
C
102
}
100
AcDbDictionary
281
1
  3
Normal
350
F
100
AcDbDictionaryWithDefault
340
F
  0
DICTIONARY
  5
17
102
{ACAD_REACTORS
330
C
102
}
100
AcDbDictionary
280
0
281
1
  3
Standard
350
18
  0
DICTIONARY
  5
19
102
{ACAD_REACTORS
330
C
102
}
100
AcDbDictionary
281
1
  0
DICTIONARY
  5
1A
102
{ACAD_REACTORS
330
C
102
}
100
AcDbDictionary
281
1
  3
Model
350
7AA
  3
Layout1
350
7AB
  0
ACDBPLACEHOLDER
  5
F
102
{ACAD_REACTORS
330
E
102
}
  0
MLINESTYLE
  5
18
102
{ACAD_REACTORS
330
17
102
}
100
AcDbMlineStyle
  2
STANDARD
 70
0
  3

 62
256
 51
90.0
 52
90.0
 71
2
 49
0.5
 62
256
  6
BYLAYER
 49
-0.5
 62
256
  6
BYLAYER
  0
LAYOUT
  5
7AA
102
{ACAD_REACTORS
330
1A
102
}
100
AcDbPlotSettings
  1

  2
none_device
  4
ISO_A4_(297.00_x_210.00_MM)
  6

 40
0.0
 41
0.0
 42
0.0
 43
0.0
 44
297.0
 45
210.0
 46
0.0
 47
0.0
 48
0.0
 49
0.0
140
0.0
141
0.0
142
1.0
143
1.0
 70
1024
 72
1
 73
0
 74
0
  7

 75
0
147
1.0
148
0.0
149
0.0
100
AcDbLayout
  1
Model
 70
0
 71
0
 10
0.0
 20
0.0
 11
297.0
 21
210.0
 12
0.0
 22
0.0
 32
0.0
 14
0.0
 24
0.0
 34
0.0
 15
0.0
 25
0.0
 35
0.0
146
0.0
 13
0.0
 23
0.0
 33
0.0
 16
1.0
 26
0.0
 36
0.0
 17
0.0
 27
1.0
 37
0.0
 76
0
330
219
345
0
346
0
  0
LAYOUT
  5
7AB
102
{ACAD_REACTORS
330
1A
102
}
100
AcDbPlotSettings
  1

  2
none_device
  4
ISO_A4_(297.00_x_210.00_MM)
  6

 40
0.0
 41
0.0
 42
0.0
 43
0.0
 44
297.0
 45
210.0
 46
0.0
 47
0.0
 48
0.0
 49
0.0
140
0.0
141
0.0
142
1.0
143
1.0
 70
0
 72
1
 73
0
 74
0
  7

 75
0
147
1.0
148
0.0
149
0.0
100
AcDbLayout
  1
Layout1
 70
0
 71
1
 10
0.0
 20
0.0
 11
297.0
 21
210.0
 12
0.0
 22
0.0
 32
0.0
 14
0.0
 24
0.0
 34
0.0
 15
0.0
 25
0.0
 35
0.0
146
0.0
 13
0.0
 23
0.0
 33
0.0
 16
1.0
 26
0.0
 36
0.0
 17
0.0
 27
1.0
 37
0.0
 76
0
330
21A
345
0
346
0
  0
ENDSEC
  0
EOF
