  0
SECTION
  2
HEADER
  9
$ACADVER
  1
AC1024
  9
$DWGCODEPAGE
  3
ANSI_1252
  9
$EXTMAX
 10
279.4
 20
215.9
 30
0.0
  9
$EXTMIN
 10
0.0
 20
0.0
 30
0.0
  9
$LIMMIN
 10
0.0
 20
0.0
  9
$LIMMAX
 10
279.4
 20
215.9
  9
$VIEWCTR
 10
139.7
 20
107.95
  9
$VIEWSIZE
 40
215.9
  9
$CLAYER
  8
0
  9
$LTSCALE
 40
15.367
  9
$CELTYPE
  6
BYLAYER
  9
$DIMSCALE
 40
1.0
  9
$DIMASZ
 40
3.0
  9
$DIMEXO
 40
0.5
  9
$DIMDLI
 40
10.6172
  9
$DIMEXE
 40
1.5
  9
$DIMCEN
 40
2.5146
  9
$DIMLFAC
 40
1.0
  9
$DIMBLK
  1
_FILLED
  9
$DIMALT
 70
0
  9
$DIMALTF
 40
0.0393700787
  9
$DIMTXT
 40
3.0
  9
$DIMTOL
 70
1
  9
$DIMLIM
 70
0
  9
$DIMTFAC
 40
1.0
  9
$DIMTP
 40
0.01
  9
$DIMTM
 40
0.01
  9
$DIMGAP
 40
0.625
  9
$DIMDSEP
 70
44
  9
$AUNITS
 70
0
  9
$PDMODE
 70
3
  9
$PDSIZE
 40
3.0
  9
$HANDSEED
  5
5BD
  9
$TILEMODE
 70
1
  9
$MEASUREMENT
 70
1
  9
$INSUNITS
 70
4
  0
ENDSEC
  0
SECTION
  2
CLASSES
  0
CLASS
  1
ACDBDICTIONARYWDFLT
  2
AcDbDictionaryWithDefault
  3
AutoCAD 2000
 90
0
 91
1
280
0
281
0
  0
CLASS
  1
ACDBPLACEHOLDER
  2
AcDbPlaceHolder
  3
AutoCAD 2000
 90
0
 91
1
280
0
281
0
  0
CLASS
  1
LAYOUT
  2
AcDbLayout
  3
AutoCAD 2000
 90
0
 91
0
280
0
281
0
  0
ENDSEC
  0
SECTION
  2
TABLES
  0
TABLE
  2
VPORT
  5
8
100
AcDbSymbolTable
 70
2
  0
VPORT
  5
1F4
100
AcDbSymbolTableRecord
100
AcDbViewportTableRecord
  2
*ACTIVE
 70
0
 10
0.0
 20
0.0
 11
1.0
 21
1.0
 12
139.7
 22
107.95
 13
0.0
 23
0.0
 14
1.0
 24
1.0
 15
0.0
 25
0.0
 16
0.0
 26
0.0
 36
1.0
 17
0.0
 27
0.0
 37
0.0
 40
215.9
 41
1.2941176471
 42
50.0
 43
0.0
 44
0.0
 50
0.0
 51
0.0
 71
0
 72
100
 73
1
 74
1
 75
0
 76
0
 77
0
 78
0
  0
ENDTAB
  0
TABLE
  2
LTYPE
  5
5
100
AcDbSymbolTable
 70
6
  0
LTYPE
  5
14
100
AcDbSymbolTableRecord
100
AcDbLinetypeTableRecord
  2
BYBLOCK
 70
0
  3

 72
65
 73
0
 40
0.0
  0
LTYPE
  5
15
100
AcDbSymbolTableRecord
100
AcDbLinetypeTableRecord
  2
BYLAYER
 70
0
  3

 72
65
 73
0
 40
0.0
  0
LTYPE
  5
16
100
AcDbSymbolTableRecord
100
AcDbLinetypeTableRecord
  2
CONTINUOUS
 70
64
  3
Solid line
 72
65
 73
0
 40
0.0
  0
LTYPE
  5
1F5
100
AcDbSymbolTableRecord
100
AcDbLinetypeTableRecord
  2
CENTER
 70
64
  3
____ _ ____ _ ____ _ ____ _ ____ _ ____ _ ____
 72
65
 73
4
 40
0.6
 49
0.375
 74
0
 49
-0.075
 74
0
 49
0.075
 74
0
 49
-0.075
 74
0
  0
LTYPE
  5
1F6
100
AcDbSymbolTableRecord
100
AcDbLinetypeTableRecord
  2
HIDDEN
 70
64
  3
- - - - - - - - - - - - - - - - - - - -
 72
65
 73
2
 40
0.2
 49
0.1
 74
0
 49
-0.1
 74
0
  0
LTYPE
  5
1F7
100
AcDbSymbolTableRecord
100
AcDbLinetypeTableRecord
  2
PHANTOM
 70
64
  3
_____ _ _ _____ _ _ _____ _ _ _____
 72
65
 73
6
 40
0.8
 49
0.45
 74
0
 49
-0.05
 74
0
 49
0.1
 74
0
 49
-0.05
 74
0
 49
0.1
 74
0
 49
-0.05
 74
0
  0
LTYPE
  5
1F8
100
AcDbSymbolTableRecord
100
AcDbLinetypeTableRecord
  2
DOT
 70
64
  3
. . . . . . . . . . . . . . . . . . . .
 72
65
 73
2
 40
0.2
 49
0.1
 74
0
 49
-0.1
 74
0
  0
LTYPE
  5
1F9
100
AcDbSymbolTableRecord
100
AcDbLinetypeTableRecord
  2
DASHED
 70
64
  3
- - - - - - - - - - - - - - - - - - - -
 72
65
 73
2
 40
0.2
 49
0.1
 74
0
 49
-0.1
 74
0
  0
ENDTAB
  0
TABLE
  2
LAYER
  5
2
100
AcDbSymbolTable
 70
36
  0
LAYER
  5
10
100
AcDbSymbolTableRecord
100
AcDbLayerTableRecord
  2
0
 70
0
 62
7
  6
CONTINUOUS
370
-3
390
F
  0
LAYER
  5
1FA
100
AcDbSymbolTableRecord
100
AcDbLayerTableRecord
  2
DEFAULT_1
 70
0
 62
7
  6
CENTER
370
-3
390
F
  0
LAYER
  5
1FB
100
AcDbSymbolTableRecord
100
AcDbLayerTableRecord
  2
DEFAULT_2
 70
0
 62
7
  6
HIDDEN
370
-3
390
F
  0
LAYER
  5
1FC
100
AcDbSymbolTableRecord
100
AcDbLayerTableRecord
  2
DEFAULT_3
 70
0
 62
7
  6
PHANTOM
370
-3
390
F
  0
LAYER
  5
1FD
100
AcDbSymbolTableRecord
100
AcDbLayerTableRecord
  2
ASSI
 70
0
 62
7
  6
CONTINUOUS
370
-3
390
F
  0
LAYER
  5
1FE
100
AcDbSymbolTableRecord
100
AcDbLayerTableRecord
  2
COORDINATE
 70
0
 62
7
  6
CONTINUOUS
370
-3
390
F
  0
LAYER
  5
1FF
100
AcDbSymbolTableRecord
100
AcDbLayerTableRecord
  2
COORD_ORIGINE
 70
0
 62
7
  6
CONTINUOUS
370
-3
390
F
  0
LAYER
  5
200
100
AcDbSymbolTableRecord
100
AcDbLayerTableRecord
  2
COSMETICHE
 70
0
 62
7
  6
CONTINUOUS
370
-3
390
F
  0
LAYER
  5
201
100
AcDbSymbolTableRecord
100
AcDbLayerTableRecord
  2
CURVE
 70
0
 62
7
  6
CONTINUOUS
370
-3
390
F
  0
LAYER
  5
202
100
AcDbSymbolTableRecord
100
AcDbLayerTableRecord
  2
DRAFT
 70
0
 62
7
  6
CONTINUOUS
370
-3
390
F
  0
LAYER
  5
203
100
AcDbSymbolTableRecord
100
AcDbLayerTableRecord
  2
IMPORT
 70
0
 62
7
  6
CONTINUOUS
370
-3
390
F
  0
LAYER
  5
204
100
AcDbSymbolTableRecord
100
AcDbLayerTableRecord
  2
INCISIONI
 70
0
 62
7
  6
CONTINUOUS
370
-3
390
F
  0
LAYER
  5
205
100
AcDbSymbolTableRecord
100
AcDbLayerTableRecord
  2
INTF_12
 70
0
 62
7
  6
CONTINUOUS
370
-3
390
F
  0
LAYER
  5
206
100
AcDbSymbolTableRecord
100
AcDbLayerTableRecord
  2
INTF_2
 70
0
 62
7
  6
CONTINUOUS
370
-3
390
F
  0
LAYER
  5
207
100
AcDbSymbolTableRecord
100
AcDbLayerTableRecord
  2
NOTE
 70
0
 62
7
  6
CONTINUOUS
370
-3
390
F
  0
LAYER
  5
208
100
AcDbSymbolTableRecord
100
AcDbLayerTableRecord
  2
PIANI
 70
0
 62
7
  6
CONTINUOUS
370
-3
390
F
  0
LAYER
  5
209
100
AcDbSymbolTableRecord
100
AcDbLayerTableRecord
  2
PIANI_ORIGINE
 70
0
 62
7
  6
CONTINUOUS
370
-3
390
F
  0
LAYER
  5
20A
100
AcDbSymbolTableRecord
100
AcDbLayerTableRecord
  2
PIANI_RIFERIMENTO
 70
0
 62
7
  6
CONTINUOUS
370
-3
390
F
  0
LAYER
  5
20B
100
AcDbSymbolTableRecord
100
AcDbLayerTableRecord
  2
PIANI_SFORMI
 70
0
 62
7
  6
CONTINUOUS
370
-3
390
F
  0
LAYER
  5
20C
100
AcDbSymbolTableRecord
100
AcDbLayerTableRecord
  2
PRO
 70
0
 62
7
  6
CONTINUOUS
370
-3
390
F
  0
LAYER
  5
20D
100
AcDbSymbolTableRecord
100
AcDbLayerTableRecord
  2
PUNTI
 70
0
 62
7
  6
CONTINUOUS
370
-3
390
F
  0
LAYER
  5
20E
100
AcDbSymbolTableRecord
100
AcDbLayerTableRecord
  2
RACCORDO
 70
0
 62
7
  6
CONTINUOUS
370
-3
390
F
  0
LAYER
  5
20F
100
AcDbSymbolTableRecord
100
AcDbLayerTableRecord
  2
SKEL
 70
0
 62
7
  6
CONTINUOUS
370
-3
390
F
  0
LAYER
  5
210
100
AcDbSymbolTableRecord
100
AcDbLayerTableRecord
  2
SMUSSO
 70
0
 62
7
  6
CONTINUOUS
370
-3
390
F
  0
LAYER
  5
211
100
AcDbSymbolTableRecord
100
AcDbLayerTableRecord
  2
SNAPLINE
 70
0
 62
7
  6
CONTINUOUS
370
-3
390
F
  0
LAYER
  5
212
100
AcDbSymbolTableRecord
100
AcDbLayerTableRecord
  2
SUPERFICI
 70
0
 62
7
  6
CONTINUOUS
370
-3
390
F
  0
LAYER
  5
213
100
AcDbSymbolTableRecord
100
AcDbLayerTableRecord
  2
TRASH
 70
0
 62
7
  6
CONTINUOUS
370
-3
390
F
  0
LAYER
  5
214
100
AcDbSymbolTableRecord
100
AcDbLayerTableRecord
  2
XSEC_DATUMS
 70
0
 62
7
  6
CONTINUOUS
370
-3
390
F
  0
ENDTAB
  0
TABLE
  2
STYLE
  5
3
100
AcDbSymbolTable
 70
1
  0
STYLE
  5
11
100
AcDbSymbolTableRecord
100
AcDbTextStyleTableRecord
  2
STANDARD
 70
0
 40
0.0
 41
0.8
 50
0.0
 71
0
 42
0.2
  3
txt
  4

  0
STYLE
  5
215
100
AcDbSymbolTableRecord
100
AcDbTextStyleTableRecord
  2
TEXTSTYLE_1
 70
0
 40
0.0
 41
0.8
 50
0.0
 71
0
 42
0.2
  3
gdt
  4

  0
ENDTAB
  0
TABLE
  2
VIEW
  5
6
100
AcDbSymbolTable
 70
0
  0
ENDTAB
  0
TABLE
  2
UCS
  5
7
100
AcDbSymbolTable
 70
0
  0
ENDTAB
  0
TABLE
  2
APPID
  5
9
100
AcDbSymbolTable
 70
1
  0
APPID
  5
216
100
AcDbSymbolTableRecord
100
AcDbRegAppTableRecord
  2
ACAD
 70
0
  0
ENDTAB
  0
TABLE
  2
BLOCK_RECORD
  5
1
100
AcDbSymbolTable
 70
0
  0
BLOCK_RECORD
  5
217
100
AcDbSymbolTableRecord
100
AcDbBlockTableRecord
  2
*Model_Space
  0
BLOCK_RECORD
  5
218
100
AcDbSymbolTableRecord
100
AcDbBlockTableRecord
  2
*Paper_Space
  0
BLOCK_RECORD
  5
219
100
AcDbSymbolTableRecord
100
AcDbBlockTableRecord
  2
_FILLED
  0
BLOCK_RECORD
  5
21A
100
AcDbSymbolTableRecord
100
AcDbBlockTableRecord
  2
*D0
  0
BLOCK_RECORD
  5
21B
100
AcDbSymbolTableRecord
100
AcDbBlockTableRecord
  2
*D1
  0
BLOCK_RECORD
  5
21C
100
AcDbSymbolTableRecord
100
AcDbBlockTableRecord
  2
*D2
  0
BLOCK_RECORD
  5
21D
100
AcDbSymbolTableRecord
100
AcDbBlockTableRecord
  2
*D3
  0
ENDTAB
  0
TABLE
  2
DIMSTYLE
  5
A
100
AcDbSymbolTable
 70
1
100
AcDbDimStyleTable
 71
0
  0
DIMSTYLE
105
21E
100
AcDbSymbolTableRecord
100
AcDbDimStyleTableRecord
  2
STANDARD
 70
0
  3

  4

 40
1.0
 41
3.0
 42
0.5
 43
0.38
 44
1.5
 45
0.0
 46
0.0
 47
0.01
 48
0.01
140
3.0
141
0.09
142
0.0
143
25.4
144
1.0
145
0.0
146
1.0
147
0.625
 71
1.0
 72
0.0
 73
0
 74
0
 75
0
 76
0
 77
1
 78
8
 79
2
170
0
171
1
172
0
173
0
174
0
175
0
176
0
177
0
178
0
270
2
179
2
271
2
272
2
273
2
274
2
275
0
280
0
281
0
282
0
283
1
284
8
285
0
286
0
287
3
288
0
340
11
278
44
341
219
342
219
343
219
344
219
  0
DIMSTYLE
105
21F
100
AcDbSymbolTableRecord
100
AcDbDimStyleTableRecord
  2
DIMSTYLE_1
 70
0
  3

  4

 40
1.0
 41
3.0
 42
0.5
 43
0.38
 44
1.5
 45
0.0
 46
0.0
 47
0.0
 48
0.0
140
3.0
141
0.09
142
0.0
143
25.4
144
1.0
145
0.0
146
1.0
147
0.75
 71
0.0
 72
0.0
 73
0
 74
0
 75
0
 76
0
 77
1
 78
8
 79
2
170
0
171
1
172
0
173
0
174
0
175
0
176
0
177
0
178
0
270
2
179
2
271
2
272
2
273
2
274
2
275
0
280
0
281
0
282
0
283
1
284
8
285
0
286
0
287
3
288
0
340
11
278
44
341
219
342
219
343
219
344
219
  0
DIMSTYLE
105
220
100
AcDbSymbolTableRecord
100
AcDbDimStyleTableRecord
  2
DIMSTYLE_2
 70
0
  3

  4

 40
1.0
 41
3.0
 42
0.5
 43
0.38
 44
1.5
 45
0.0
 46
0.0
 47
0.0
 48
0.0
140
3.0
141
0.09
142
0.0
143
25.4
144
1.0
145
0.0
146
1.0
147
0.75
 71
0.0
 72
0.0
 73
0
 74
0
 75
0
 76
0
 77
1
 78
8
 79
2
170
0
171
1
172
0
173
0
174
0
175
0
176
0
177
0
178
0
270
2
179
2
271
1
272
1
273
2
274
2
275
0
280
0
281
0
282
0
283
1
284
8
285
0
286
0
287
3
288
0
340
11
278
44
341
219
342
219
343
219
344
219
  0
ENDTAB
  0
ENDSEC
  0
SECTION
  2
BLOCKS
  0
BLOCK
  5
20
100
AcDbEntity
  8
0
100
AcDbBlockBegin
  2
*Model_Space
 70
0
 10
0.0
 20
0.0
 30
0.0
  3
*Model_Space
  1

  0
ENDBLK
  5
21
100
AcDbEntity
  8
0
100
AcDbBlockEnd
  0
BLOCK
  5
1C
100
AcDbEntity
  8
0
100
AcDbBlockBegin
  2
*Paper_Space
 70
0
 10
0.0
 20
0.0
 30
0.0
  3
*Paper_Space
  1

  0
ENDBLK
  5
1D
100
AcDbEntity
  8
0
100
AcDbBlockEnd
  0
BLOCK
  5
221
100
AcDbEntity
  8
0
100
AcDbBlockBegin
  2
_FILLED
 70
64
 10
0.0
 20
0.0
  3
_FILLED
  1

  0
SOLID
  5
222
100
AcDbEntity
  8
0
  6
BYBLOCK
 62
0
100
AcDbTrace
 10
0.0
 20
0.0
 11
-1.0
 21
0.3166666667
 12
-1.0
 22
-0.3166666667
 13
-1.0
 23
-0.3166666667
  0
ENDBLK
  5
223
100
AcDbEntity
  8
0
  6
BYBLOCK
 62
0
100
AcDbBlockEnd
  0
BLOCK
  5
224
100
AcDbEntity
  8
0
100
AcDbBlockBegin
 62
7
  6
CONTINUOUS
  2
*D0
 70
65
 10
0.0
 20
0.0
  3
*D0
  1

  0
LINE
  5
225
100
AcDbEntity
  8
0
100
AcDbLine
 62
7
  6
CONTINUOUS
 10
18.346028995
 20
15.1501233097
 11
18.346028995
 21
41.5743650386
  0
LINE
  5
226
100
AcDbEntity
  8
0
100
AcDbLine
 62
7
  6
CONTINUOUS
 10
-19.653971005
 20
0.5
 11
-19.653971005
 21
41.5743650386
  0
LINE
  5
227
100
AcDbEntity
  8
0
100
AcDbLine
 62
7
  6
CONTINUOUS
 10
18.346028995
 20
40.0743650386
 11
-0.653971005
 21
40.0743650386
  0
LINE
  5
228
100
AcDbEntity
  8
0
100
AcDbLine
 62
7
  6
CONTINUOUS
 10
-19.653971005
 20
40.0743650386
 11
-0.653971005
 21
40.0743650386
  0
INSERT
  5
229
100
AcDbEntity
  8
0
100
AcDbBlockReference
 62
7
  6
CONTINUOUS
  2
_FILLED
 10
18.346028995
 20
40.0743650386
 41
3.0
 42
3.0
 43
3.0
  0
INSERT
  5
22A
100
AcDbEntity
  8
0
100
AcDbBlockReference
 62
7
  6
CONTINUOUS
  2
_FILLED
 10
-19.653971005
 20
40.0743650386
 41
3.0
 42
3.0
 43
3.0
 50
180.0
  0
ENDBLK
  5
22B
100
AcDbEntity
  8
0
  6
BYBLOCK
 62
0
100
AcDbBlockEnd
  0
BLOCK
  5
22C
100
AcDbEntity
  8
0
100
AcDbBlockBegin
 62
7
  6
CONTINUOUS
  2
*D1
 70
65
 10
0.0
 20
0.0
  3
*D1
  1

  0
LINE
  5
22D
100
AcDbEntity
  8
0
100
AcDbLine
 62
7
  6
CONTINUOUS
 10
-8.653971005
 20
18.5591825482
 11
-8.653971005
 21
32.737933162
  0
LINE
  5
22E
100
AcDbEntity
  8
0
100
AcDbLine
 62
7
  6
CONTINUOUS
 10
18.346028995
 20
15.1501233097
 11
18.346028995
 21
32.737933162
  0
LINE
  5
22F
100
AcDbEntity
  8
0
100
AcDbLine
 62
7
  6
CONTINUOUS
 10
-8.653971005
 20
31.237933162
 11
4.846028995
 21
31.237933162
  0
LINE
  5
230
100
AcDbEntity
  8
0
100
AcDbLine
 62
7
  6
CONTINUOUS
 10
18.346028995
 20
31.237933162
 11
4.846028995
 21
31.237933162
  0
INSERT
  5
231
100
AcDbEntity
  8
0
100
AcDbBlockReference
 62
7
  6
CONTINUOUS
  2
_FILLED
 10
-8.653971005
 20
31.237933162
 41
3.0
 42
3.0
 43
3.0
 50
180.0
  0
INSERT
  5
232
100
AcDbEntity
  8
0
100
AcDbBlockReference
 62
7
  6
CONTINUOUS
  2
_FILLED
 10
18.346028995
 20
31.237933162
 41
3.0
 42
3.0
 43
3.0
  0
ENDBLK
  5
233
100
AcDbEntity
  8
0
  6
BYBLOCK
 62
0
100
AcDbBlockEnd
  0
BLOCK
  5
234
100
AcDbEntity
  8
0
100
AcDbBlockBegin
 62
7
  6
CONTINUOUS
  2
*D2
 70
65
 10
0.0
 20
0.0
  3
*D2
  1

  0
LINE
  5
235
100
AcDbEntity
  8
0
100
AcDbLine
 62
7
  6
CONTINUOUS
 10
34.3963227899
 20
18.5591825482
 11
34.3963227899
 21
32.737933162
  0
LINE
  5
236
100
AcDbEntity
  8
0
100
AcDbLine
 62
7
  6
CONTINUOUS
 10
56.7835981145
 20
18.5591825482
 11
56.7835981145
 21
32.737933162
  0
LINE
  5
237
100
AcDbEntity
  8
0
100
AcDbLine
 62
7
  6
CONTINUOUS
 10
34.3963227899
 20
31.237933162
 11
45.5899604522
 21
31.237933162
  0
LINE
  5
238
100
AcDbEntity
  8
0
100
AcDbLine
 62
7
  6
CONTINUOUS
 10
56.7835981145
 20
31.237933162
 11
45.5899604522
 21
31.237933162
  0
INSERT
  5
239
100
AcDbEntity
  8
0
100
AcDbBlockReference
 62
7
  6
CONTINUOUS
  2
_FILLED
 10
34.3963227899
 20
31.237933162
 41
3.0
 42
3.0
 43
3.0
 50
180.0
  0
INSERT
  5
23A
100
AcDbEntity
  8
0
100
AcDbBlockReference
 62
7
  6
CONTINUOUS
  2
_FILLED
 10
56.7835981145
 20
31.237933162
 41
3.0
 42
3.0
 43
3.0
  0
ENDBLK
  5
23B
100
AcDbEntity
  8
0
  6
BYBLOCK
 62
0
100
AcDbBlockEnd
  0
BLOCK
  5
23C
100
AcDbEntity
  8
0
100
AcDbBlockBegin
 62
7
  6
CONTINUOUS
  2
*D3
 70
65
 10
0.0
 20
0.0
  3
*D3
  1

  0
LINE
  5
23D
100
AcDbEntity
  8
0
100
AcDbLine
 62
7
  6
CONTINUOUS
 10
55.989964683
 20
24.5
 11
66.2835981145
 21
24.5
  0
LINE
  5
23E
100
AcDbEntity
  8
0
100
AcDbLine
 62
7
  6
CONTINUOUS
 10
55.989964683
 20
-24.5
 11
66.2835981145
 21
-24.5
  0
LINE
  5
23F
100
AcDbEntity
  8
0
100
AcDbLine
 62
7
  6
CONTINUOUS
 10
64.7835981145
 20
24.5
 11
64.7835981145
 21
0.0
  0
LINE
  5
240
100
AcDbEntity
  8
0
100
AcDbLine
 62
7
  6
CONTINUOUS
 10
64.7835981145
 20
-24.5
 11
64.7835981145
 21
0.0
  0
INSERT
  5
241
100
AcDbEntity
  8
0
100
AcDbBlockReference
 62
7
  6
CONTINUOUS
  2
_FILLED
 10
64.7835981145
 20
24.5
 41
3.0
 42
3.0
 43
3.0
 50
90.0
  0
INSERT
  5
242
100
AcDbEntity
  8
0
100
AcDbBlockReference
 62
7
  6
CONTINUOUS
  2
_FILLED
 10
64.7835981145
 20
-24.5
 41
3.0
 42
3.0
 43
3.0
 50
270.0
  0
ENDBLK
  5
243
100
AcDbEntity
  8
0
  6
BYBLOCK
 62
0
100
AcDbBlockEnd
  0
ENDSEC
  0
SECTION
  2
ENTITIES
  0
DIMENSION
  5
244
100
AcDbEntity
  8
0
100
AcDbDimension
 62
7
  6
CONTINUOUS
  2
*D0
 10
-19.653971005
 20
40.0743650386
 11
-2.903971005
 21
40.0743650386
 70
160
 71
2
 72
2
 41
0.9
 42
38.0
  3
DIMSTYLE_1
100
AcDbAlignedDimension
 13
18.346028995
 23
14.6501233097
 14
-19.653971005
 24
-0.0
 50
180.0
100
AcDbRotatedDimension
  0
DIMENSION
  5
245
100
AcDbEntity
  8
0
100
AcDbDimension
 62
7
  6
CONTINUOUS
  2
*D1
 10
18.346028995
 20
31.237933162
 11
2.4888861379
 21
31.237933162
 70
160
 71
2
 72
2
 41
0.9
 42
27.0
  3
DIMSTYLE_1
100
AcDbAlignedDimension
 13
-8.653971005
 23
18.0591825482
 14
18.346028995
 24
14.6501233097
100
AcDbRotatedDimension
  0
DIMENSION
  5
246
100
AcDbEntity
  8
0
100
AcDbDimension
 62
7
  6
CONTINUOUS
  2
*D2
 10
56.7835981145
 20
31.237933162
 11
41.1971033093
 21
31.237933162
 70
160
 71
2
 72
2
 41
0.9
 42
22.3872753246
  3
DIMSTYLE_2
100
AcDbAlignedDimension
 13
34.3963227899
 23
18.0591825482
 14
56.7835981145
 24
18.0591825482
100
AcDbRotatedDimension
  0
DIMENSION
  5
247
100
AcDbEntity
  8
0
100
AcDbDimension
 62
7
  6
CONTINUOUS
  2
*D3
 10
64.7835981145
 20
-24.5
 11
64.7835981145
 21
-2.3571428571
 70
160
 71
2
 72
2
 41
0.9
 42
49.0
  3
DIMSTYLE_1
100
AcDbAlignedDimension
 13
55.489964683
 23
24.5
 14
55.489964683
 24
-24.5
 50
270.0
100
AcDbRotatedDimension
  0
LINE
  5
248
100
AcDbEntity
  8
0
100
AcDbLine
 62
250
  6
CONTINUOUS
 10
44.3873347762
 20
-23.9982478817
 11
44.3884982982
 21
-23.998244438
  0
LINE
  5
249
100
AcDbEntity
  8
0
100
AcDbLine
 62
7
  6
CONTINUOUS
 10
35.6899562214
 20
-24.5
 11
38.089964683
 21
-24.5
  0
LINE
  5
24A
100
AcDbEntity
  8
0
100
AcDbLine
 62
7
  6
CONTINUOUS
 10
53.0899562214
 20
-24.5
 11
55.489964683
 21
-24.5
  0
LINE
  5
24B
100
AcDbEntity
  8
0
100
AcDbLine
 62
7
  6
CONTINUOUS
 10
35.7030548001
 20
-24.4869014213
 11
38.0768661042
 21
-24.4869014213
  0
LINE
  5
24C
100
AcDbEntity
  8
0
100
AcDbLine
 62
7
  6
CONTINUOUS
 10
53.1030548001
 20
-24.4869014213
 11
55.4768661042
 21
-24.4869014213
  0
LINE
  5
24D
100
AcDbEntity
  8
0
100
AcDbLine
 62
250
  6
CONTINUOUS
 10
35.4530590309
 20
-24.2369056521
 11
38.3268618735
 21
-24.2369056521
  0
LINE
  5
24E
100
AcDbEntity
  8
0
100
AcDbLine
 62
250
  6
CONTINUOUS
 10
52.8530590309
 20
-24.2369056521
 11
55.7268618735
 21
-24.2369056521
  0
LINE
  5
24F
100
AcDbEntity
  8
0
100
AcDbLine
 62
7
  6
CONTINUOUS
 10
50.0399604522
 20
-24.0
 11
49.0882252327
 21
-24.0
  0
LINE
  5
250
100
AcDbEntity
  8
0
100
AcDbLine
 62
7
  6
CONTINUOUS
 10
42.0916956716
 20
-24.0
 11
41.1399604522
 21
-24.0
  0
LINE
  5
251
100
AcDbEntity
  8
0
100
AcDbLine
 62
7
  6
CONTINUOUS
 10
42.0916956716
 20
-23.9982478817
 11
44.3873347762
 21
-23.9982478817
  0
LINE
  5
252
100
AcDbEntity
  8
0
100
AcDbLine
 62
7
  6
CONTINUOUS
 10
46.7925861282
 20
-23.9982478817
 11
49.0882252327
 21
-23.9982478817
  0
LINE
  5
253
100
AcDbEntity
  8
0
100
AcDbLine
 62
7
  6
CONTINUOUS
 10
50.0312337075
 20
-23.9912732553
 11
49.09868732
 21
-23.9912732553
  0
LINE
  5
254
100
AcDbEntity
  8
0
100
AcDbLine
 62
7
  6
CONTINUOUS
 10
42.0812335844
 20
-23.9912732553
 11
41.1486871969
 21
-23.9912732553
  0
LINE
  5
255
100
AcDbEntity
  8
0
100
AcDbLine
 62
250
  6
CONTINUOUS
 10
35.4530590309
 20
-23.8443375673
 11
38.3268618735
 21
-23.8443375673
  0
LINE
  5
256
100
AcDbEntity
  8
0
100
AcDbLine
 62
250
  6
CONTINUOUS
 10
52.8530590309
 20
-23.8443375673
 11
55.7268618735
 21
-23.8443375673
  0
LINE
  5
257
100
AcDbEntity
  8
0
100
AcDbLine
 62
250
  6
CONTINUOUS
 10
42.0899604522
 20
-23.7982512664
 11
44.5873271608
 21
-23.7982512664
  0
LINE
  5
258
100
AcDbEntity
  8
0
100
AcDbLine
 62
250
  6
CONTINUOUS
 10
46.5925937436
 20
-23.7982512664
 11
49.0899604522
 21
-23.7982512664
  0
LINE
  5
259
100
AcDbEntity
  8
0
100
AcDbLine
 62
250
  6
CONTINUOUS
 10
55.4768661042
 20
-23.6278312164
 11
53.1030548001
 21
-23.6278312164
  0
LINE
  5
25A
100
AcDbEntity
  8
0
100
AcDbLine
 62
250
  6
CONTINUOUS
 10
38.0768661042
 20
-23.6278312164
 11
35.7030548001
 21
-23.6278312164
  0
LINE
  5
25B
100
AcDbEntity
  8
0
100
AcDbLine
 62
250
  6
CONTINUOUS
 10
38.0768661042
 20
24.4869014213
 11
38.089964683
 21
24.5
  0
LINE
  5
25C
100
AcDbEntity
  8
0
100
AcDbLine
 62
250
  6
CONTINUOUS
 10
38.3268618735
 20
24.2369056521
 11
38.3399604522
 21
24.2500042308
  0
LINE
  5
25D
100
AcDbEntity
  8
0
100
AcDbLine
 62
7
  6
CONTINUOUS
 10
42.0812335844
 20
23.9912732553
 11
42.0916956716
 21
23.9982478817
  0
LINE
  5
25E
100
AcDbEntity
  8
0
100
AcDbLine
 62
7
  6
CONTINUOUS
 10
55.4826839341
 20
-23.1226497308
 11
53.0972369703
 21
-23.1226497308
  0
LINE
  5
25F
100
AcDbEntity
  8
0
100
AcDbLine
 62
7
  6
CONTINUOUS
 10
35.6972369703
 20
-23.1226497308
 11
38.0826839341
 21
-23.1226497308
  0
LINE
  5
260
100
AcDbEntity
  8
0
100
AcDbLine
 62
7
  6
CONTINUOUS
 10
46.5899604522
 20
-22.4
 11
44.5899604522
 21
-22.4
  0
LINE
  5
261
100
AcDbEntity
  8
0
100
AcDbLine
 62
7
  6
CONTINUOUS
 10
34.9399541061
 20
-22.4
 11
35.4399604522
 21
-22.4
  0
LINE
  5
262
100
AcDbEntity
  8
0
100
AcDbLine
 62
7
  6
CONTINUOUS
 10
38.3399604522
 20
-22.4
 11
41.1399604522
 21
-22.4
  0
LINE
  5
263
100
AcDbEntity
  8
0
100
AcDbLine
 62
7
  6
CONTINUOUS
 10
50.0399604522
 20
-22.4
 11
52.8399604522
 21
-22.4
  0
LINE
  5
264
100
AcDbEntity
  8
0
100
AcDbLine
 62
7
  6
CONTINUOUS
 10
55.7399604522
 20
-22.4
 11
56.2399667983
 21
-22.4
  0
LINE
  5
265
100
AcDbEntity
  8
0
100
AcDbLine
 62
7
  6
CONTINUOUS
 10
42.0899604522
 20
-22.3737961104
 11
44.3873347762
 21
-22.3737961104
  0
LINE
  5
266
100
AcDbEntity
  8
0
100
AcDbLine
 62
7
  6
CONTINUOUS
 10
46.7925861282
 20
-22.3737961104
 11
49.0899604522
 21
-22.3737961104
  0
LINE
  5
267
100
AcDbEntity
  8
0
100
AcDbLine
 62
7
  6
CONTINUOUS
 10
55.4826839341
 20
-22.3213883311
 11
53.0972369703
 21
-22.3213883311
  0
LINE
  5
268
100
AcDbEntity
  8
0
100
AcDbLine
 62
7
  6
CONTINUOUS
 10
50.0312337075
 20
-22.3213883311
 11
49.09868732
 21
-22.3213883311
  0
LINE
  5
269
100
AcDbEntity
  8
0
100
AcDbLine
 62
7
  6
CONTINUOUS
 10
42.0812335844
 20
-22.3213883311
 11
41.1486871969
 21
-22.3213883311
  0
LINE
  5
26A
100
AcDbEntity
  8
0
100
AcDbLine
 62
7
  6
CONTINUOUS
 10
38.0826839341
 20
-22.3213883311
 11
35.6972369703
 21
-22.3213883311
  0
LINE
  5
26B
100
AcDbEntity
  8
0
100
AcDbLine
 62
250
  6
CONTINUOUS
 10
56.1271757279
 20
-22.0602279426
 11
35.0527451764
 21
-22.0602279426
  0
LINE
  5
26C
100
AcDbEntity
  8
0
100
AcDbLine
 62
250
  6
CONTINUOUS
 10
56.1190025396
 20
-21.2107174911
 11
35.0609183647
 21
-21.2107174911
  0
LINE
  5
26D
100
AcDbEntity
  8
0
100
AcDbLine
 62
7
  6
CONTINUOUS
 10
42.0916956716
 20
-23.9982478817
 11
42.0812335844
 21
-23.9912732553
  0
LINE
  5
26E
100
AcDbEntity
  8
0
100
AcDbLine
 62
250
  6
CONTINUOUS
 10
38.0768661042
 20
-24.4869014213
 11
38.089964683
 21
-24.5
  0
LINE
  5
26F
100
AcDbEntity
  8
0
100
AcDbLine
 62
250
  6
CONTINUOUS
 10
38.3268618735
 20
-24.2369056521
 11
38.3399604522
 21
-24.2500042308
  0
LINE
  5
270
100
AcDbEntity
  8
0
100
AcDbLine
 62
7
  6
CONTINUOUS
 10
50.0312337075
 20
23.9912732553
 11
50.0399604522
 21
24.0
  0
LINE
  5
271
100
AcDbEntity
  8
0
100
AcDbLine
 62
7
  6
CONTINUOUS
 10
50.0399604522
 20
-24.0
 11
50.0312337075
 21
-23.9912732553
  0
LINE
  5
272
100
AcDbEntity
  8
0
100
AcDbLine
 62
7
  6
CONTINUOUS
 10
34.4399604522
 20
-18.5
 11
34.3963227899
 21
-18.0591825482
  0
LINE
  5
273
100
AcDbEntity
  8
0
100
AcDbLine
 62
7
  6
CONTINUOUS
 10
34.3963227899
 20
-18.0591825482
 11
34.3963227899
 21
18.0591825482
  0
LINE
  5
274
100
AcDbEntity
  8
0
100
AcDbLine
 62
7
  6
CONTINUOUS
 10
34.4399604522
 20
21.900016923
 11
34.4399604522
 21
18.5
  0
LINE
  5
275
100
AcDbEntity
  8
0
100
AcDbLine
 62
7
  6
CONTINUOUS
 10
34.4399604522
 20
-21.900016923
 11
34.4399604522
 21
-18.5
  0
LINE
  5
276
100
AcDbEntity
  8
0
100
AcDbLine
 62
250
  6
CONTINUOUS
 10
35.0781032493
 20
-9.5
 11
35.0781032493
 21
9.5
  0
LINE
  5
277
100
AcDbEntity
  8
0
100
AcDbLine
 62
7
  6
CONTINUOUS
 10
34.3963227899
 20
18.0591825482
 11
34.4399604522
 21
18.5
  0
LINE
  5
278
100
AcDbEntity
  8
0
100
AcDbLine
 62
250
  6
CONTINUOUS
 10
55.4768661042
 20
24.4869014213
 11
55.489964683
 21
24.5
  0
LINE
  5
279
100
AcDbEntity
  8
0
100
AcDbLine
 62
250
  6
CONTINUOUS
 10
55.4768661042
 20
-24.4869014213
 11
55.489964683
 21
-24.5
  0
LINE
  5
27A
100
AcDbEntity
  8
0
100
AcDbLine
 62
250
  6
CONTINUOUS
 10
35.4530590309
 20
-23.8443375673
 11
35.4472412011
 21
-23.2669872981
  0
LINE
  5
27B
100
AcDbEntity
  8
0
100
AcDbLine
 62
250
  6
CONTINUOUS
 10
35.7030548001
 20
-23.6278312164
 11
35.697964199
 21
-23.1226497308
  0
LINE
  5
27C
100
AcDbEntity
  8
0
100
AcDbLine
 62
250
  6
CONTINUOUS
 10
38.0768661042
 20
23.6278312164
 11
38.0819567053
 21
23.1226497308
  0
LINE
  5
27D
100
AcDbEntity
  8
0
100
AcDbLine
 62
250
  6
CONTINUOUS
 10
38.3268618735
 20
23.8443375673
 11
38.3326797033
 21
23.2669872981
  0
LINE
  5
27E
100
AcDbEntity
  8
0
100
AcDbLine
 62
250
  6
CONTINUOUS
 10
35.453063311
 20
-24.2383600852
 11
35.4530590309
 21
-24.2369056521
  0
LINE
  5
27F
100
AcDbEntity
  8
0
100
AcDbLine
 62
250
  6
CONTINUOUS
 10
38.3268575934
 20
24.2383600852
 11
38.3268618735
 21
24.2369056521
  0
LINE
  5
280
100
AcDbEntity
  8
0
100
AcDbLine
 62
7
  6
CONTINUOUS
 10
35.4399604522
 20
-22.4
 11
35.4399604522
 21
-24.2500042308
  0
LINE
  5
281
100
AcDbEntity
  8
0
100
AcDbLine
 62
7
  6
CONTINUOUS
 10
35.4399604522
 20
22.4
 11
35.4399604522
 21
24.2500042308
  0
LINE
  5
282
100
AcDbEntity
  8
0
100
AcDbLine
 62
7
  6
CONTINUOUS
 10
35.4472412011
 20
23.2669872981
 11
35.4472412011
 21
22.3344140523
  0
LINE
  5
283
100
AcDbEntity
  8
0
100
AcDbLine
 62
7
  6
CONTINUOUS
 10
35.4472412011
 20
-22.3344140523
 11
35.4472412011
 21
-23.2669872981
  0
LINE
  5
284
100
AcDbEntity
  8
0
100
AcDbLine
 62
7
  6
CONTINUOUS
 10
35.4530590309
 20
24.2369056521
 11
35.4530590309
 21
23.8443375673
  0
LINE
  5
285
100
AcDbEntity
  8
0
100
AcDbLine
 62
7
  6
CONTINUOUS
 10
35.4530590309
 20
-23.8443375673
 11
35.4530590309
 21
-24.2369056521
  0
LINE
  5
286
100
AcDbEntity
  8
0
100
AcDbLine
 62
250
  6
CONTINUOUS
 10
35.6972369703
 20
23.1226497308
 11
35.6972369703
 21
22.3213883311
  0
LINE
  5
287
100
AcDbEntity
  8
0
100
AcDbLine
 62
250
  6
CONTINUOUS
 10
35.6972369703
 20
-22.3213883311
 11
35.6972369703
 21
-23.1226497308
  0
LINE
  5
288
100
AcDbEntity
  8
0
100
AcDbLine
 62
250
  6
CONTINUOUS
 10
35.7030548001
 20
-23.6278312164
 11
35.7030548001
 21
-24.4869014213
  0
LINE
  5
289
100
AcDbEntity
  8
0
100
AcDbLine
 62
250
  6
CONTINUOUS
 10
35.7030548001
 20
23.6278312164
 11
35.7030548001
 21
24.4869014213
  0
LINE
  5
28A
100
AcDbEntity
  8
0
100
AcDbLine
 62
250
  6
CONTINUOUS
 10
38.0768661042
 20
-23.6278312164
 11
38.0768661042
 21
-24.4869014213
  0
LINE
  5
28B
100
AcDbEntity
  8
0
100
AcDbLine
 62
250
  6
CONTINUOUS
 10
38.0768661042
 20
23.6278312164
 11
38.0768661042
 21
24.4869014213
  0
LINE
  5
28C
100
AcDbEntity
  8
0
100
AcDbLine
 62
250
  6
CONTINUOUS
 10
38.0826839341
 20
-23.1226497308
 11
38.0826839341
 21
-22.3213883311
  0
LINE
  5
28D
100
AcDbEntity
  8
0
100
AcDbLine
 62
250
  6
CONTINUOUS
 10
38.0826839341
 20
22.3213883311
 11
38.0826839341
 21
23.1226497308
  0
LINE
  5
28E
100
AcDbEntity
  8
0
100
AcDbLine
 62
7
  6
CONTINUOUS
 10
38.3268618735
 20
-24.2369056521
 11
38.3268618735
 21
-23.8443375673
  0
LINE
  5
28F
100
AcDbEntity
  8
0
100
AcDbLine
 62
7
  6
CONTINUOUS
 10
38.3268618735
 20
23.8443375673
 11
38.3268618735
 21
24.2369056521
  0
LINE
  5
290
100
AcDbEntity
  8
0
100
AcDbLine
 62
7
  6
CONTINUOUS
 10
38.3326797033
 20
-23.2669872981
 11
38.3326797033
 21
-22.3344140523
  0
LINE
  5
291
100
AcDbEntity
  8
0
100
AcDbLine
 62
7
  6
CONTINUOUS
 10
38.3326797033
 20
22.3344140523
 11
38.3326797033
 21
23.2669872981
  0
LINE
  5
292
100
AcDbEntity
  8
0
100
AcDbLine
 62
7
  6
CONTINUOUS
 10
38.3399604522
 20
-22.4
 11
38.3399604522
 21
-24.2500042308
  0
LINE
  5
293
100
AcDbEntity
  8
0
100
AcDbLine
 62
7
  6
CONTINUOUS
 10
38.3399604522
 20
22.4
 11
38.3399604522
 21
24.2500042308
  0
LINE
  5
294
100
AcDbEntity
  8
0
100
AcDbLine
 62
250
  6
CONTINUOUS
 10
35.4472412011
 20
23.2669872981
 11
35.4530590309
 21
23.8443375673
  0
LINE
  5
295
100
AcDbEntity
  8
0
100
AcDbLine
 62
250
  6
CONTINUOUS
 10
35.697964199
 20
23.1226497308
 11
35.7030548001
 21
23.6278312164
  0
LINE
  5
296
100
AcDbEntity
  8
0
100
AcDbLine
 62
250
  6
CONTINUOUS
 10
38.0819567053
 20
-23.1226497308
 11
38.0768661042
 21
-23.6278312164
  0
LINE
  5
297
100
AcDbEntity
  8
0
100
AcDbLine
 62
250
  6
CONTINUOUS
 10
38.3326797033
 20
-23.2669872981
 11
38.3268618735
 21
-23.8443375673
  0
LINE
  5
298
100
AcDbEntity
  8
0
100
AcDbLine
 62
7
  6
CONTINUOUS
 10
42.0899604522
 20
22.3737961104
 11
42.0812335844
 21
22.3213883311
  0
LWPOLYLINE
  5
299
100
AcDbEntity
  8
0
100
AcDbPolyline
 62
7
  6
CONTINUOUS
 90
3
 70
0
 43
0.3500000087
 10
46.6256765015
 20
32.2736471069
 10
46.5542448151
 20
32.0593605743
 10
46.4113899689
 20
31.7736466187
  0
LINE
  5
29A
100
AcDbEntity
  8
0
100
AcDbLine
 62
250
  6
CONTINUOUS
 10
55.7268618735
 20
24.2369056521
 11
55.7399604522
 21
24.2500042308
  0
LINE
  5
29B
100
AcDbEntity
  8
RACCORDO
100
AcDbLine
 62
250
  6
CONTINUOUS
 10
56.1018176551
 20
-9.5
 11
48.6899568131
 21
-9.5
  0
LINE
  5
29C
100
AcDbEntity
  8
RACCORDO
100
AcDbLine
 62
250
  6
CONTINUOUS
 10
42.4899640913
 20
-9.5
 11
35.0781032493
 21
-9.5
  0
LINE
  5
29D
100
AcDbEntity
  8
RACCORDO
100
AcDbLine
 62
7
  6
CONTINUOUS
 10
48.3948847888
 20
-9.0
 11
42.7850459342
 21
-9.0
  0
LINE
  5
29E
100
AcDbEntity
  8
RACCORDO
100
AcDbLine
 62
250
  6
CONTINUOUS
 10
49.5399604522
 20
-7.6538269135
 11
48.0773230078
 21
-7.6538269135
  0
LINE
  5
29F
100
AcDbEntity
  8
RACCORDO
100
AcDbLine
 62
250
  6
CONTINUOUS
 10
43.1024377484
 20
-7.6538269135
 11
41.6399604522
 21
-7.6538269135
  0
LINE
  5
2A0
100
AcDbEntity
  8
RACCORDO
100
AcDbLine
 62
7
  6
CONTINUOUS
 10
49.2899604522
 20
-7.4
 11
48.0774290449
 21
-7.4
  0
LINE
  5
2A1
100
AcDbEntity
  8
RACCORDO
100
AcDbLine
 62
7
  6
CONTINUOUS
 10
43.1024918594
 20
-7.4
 11
41.8899604522
 21
-7.4
  0
LINE
  5
2A2
100
AcDbEntity
  8
0
100
AcDbLine
 62
250
  6
CONTINUOUS
 10
55.7268618735
 20
-24.2369056521
 11
55.7399604522
 21
-24.2500042308
  0
LINE
  5
2A3
100
AcDbEntity
  8
0
100
AcDbLine
 62
7
  6
CONTINUOUS
 10
42.0899604522
 20
-22.3737961104
 11
42.0812335844
 21
-22.3213883311
  0
LINE
  5
2A4
100
AcDbEntity
  8
0
100
AcDbLine
 62
7
  6
CONTINUOUS
 10
41.1399604522
 20
-22.4
 11
41.1399604522
 21
-24.0
  0
LINE
  5
2A5
100
AcDbEntity
  8
0
100
AcDbLine
 62
7
  6
CONTINUOUS
 10
41.1399604522
 20
22.4
 11
41.1399604522
 21
24.0
  0
LINE
  5
2A6
100
AcDbEntity
  8
0
100
AcDbLine
 62
7
  6
CONTINUOUS
 10
41.1486871969
 20
23.9912732553
 11
41.1486871969
 21
22.3213883311
  0
LINE
  5
2A7
100
AcDbEntity
  8
0
100
AcDbLine
 62
7
  6
CONTINUOUS
 10
41.1486871969
 20
-22.3213883311
 11
41.1486871969
 21
-23.9912732553
  0
LINE
  5
2A8
100
AcDbEntity
  8
RACCORDO
100
AcDbLine
 62
250
  6
CONTINUOUS
 10
41.6399604522
 20
-7.6538269135
 11
41.6399604522
 21
-5.0525262631
  0
LINE
  5
2A9
100
AcDbEntity
  8
RACCORDO
100
AcDbLine
 62
250
  6
CONTINUOUS
 10
41.6399604522
 20
5.0525262631
 11
41.6399604522
 21
7.6538269135
  0
LINE
  5
2AA
100
AcDbEntity
  8
RACCORDO
100
AcDbLine
 62
7
  6
CONTINUOUS
 10
41.8899604522
 20
-7.4
 11
41.8899604522
 21
-5.3
  0
LINE
  5
2AB
100
AcDbEntity
  8
RACCORDO
100
AcDbLine
 62
7
  6
CONTINUOUS
 10
41.8899604522
 20
5.3
 11
41.8899604522
 21
7.4
  0
LINE
  5
2AC
100
AcDbEntity
  8
0
100
AcDbLine
 62
250
  6
CONTINUOUS
 10
34.4399604522
 20
-21.8997711479
 11
34.5528213288
 21
-21.5609131753
  0
LINE
  5
2AD
100
AcDbEntity
  8
RACCORDO
100
AcDbLine
 62
7
  6
CONTINUOUS
 10
41.8899604522
 20
-5.3
 11
49.2899604522
 21
-5.3
  0
LINE
  5
2AE
100
AcDbEntity
  8
RACCORDO
100
AcDbLine
 62
250
  6
CONTINUOUS
 10
41.6399604522
 20
-5.0525262631
 11
49.5399604522
 21
-5.0525262631
  0
LINE
  5
2AF
100
AcDbEntity
  8
0
100
AcDbLine
 62
250
  6
CONTINUOUS
 10
34.5528213288
 20
21.5609131753
 11
34.4399604522
 21
21.8997711479
  0
LINE
  5
2B0
100
AcDbEntity
  8
0
100
AcDbLine
 62
7
  6
CONTINUOUS
 10
42.0812335844
 20
-23.9912732553
 11
42.0812335844
 21
-22.3213883311
  0
LINE
  5
2B1
100
AcDbEntity
  8
0
100
AcDbLine
 62
7
  6
CONTINUOUS
 10
42.0812335844
 20
22.3213883311
 11
42.0812335844
 21
23.9912732553
  0
LINE
  5
2B2
100
AcDbEntity
  8
0
100
AcDbLine
 62
7
  6
CONTINUOUS
 10
42.0899604522
 20
23.7982512664
 11
42.0899604522
 21
22.3737961104
  0
LINE
  5
2B3
100
AcDbEntity
  8
0
100
AcDbLine
 62
7
  6
CONTINUOUS
 10
42.0899604522
 20
-23.7982512664
 11
42.0899604522
 21
-22.3737961104
  0
LINE
  5
2B4
100
AcDbEntity
  8
0
100
AcDbLine
 62
250
  6
CONTINUOUS
 10
44.3873347762
 20
-22.3737961104
 11
44.3873347762
 21
-23.9982478817
  0
LINE
  5
2B5
100
AcDbEntity
  8
0
100
AcDbLine
 62
250
  6
CONTINUOUS
 10
44.3873347762
 20
22.3737961104
 11
44.3873347762
 21
23.9982478817
  0
LINE
  5
2B6
100
AcDbEntity
  8
0
100
AcDbLine
 62
7
  6
CONTINUOUS
 10
44.5873271608
 20
-23.7982512664
 11
44.5873271608
 21
-22.3841861985
  0
LINE
  5
2B7
100
AcDbEntity
  8
0
100
AcDbLine
 62
7
  6
CONTINUOUS
 10
44.5873271608
 20
22.3841861985
 11
44.5873271608
 21
23.7982512664
  0
LINE
  5
2B8
100
AcDbEntity
  8
0
100
AcDbLine
 62
7
  6
CONTINUOUS
 10
41.1399604522
 20
-22.4
 11
41.1486871969
 21
-22.3213883311
  0
LINE
  5
2B9
100
AcDbEntity
  8
0
100
AcDbLine
 62
250
  6
CONTINUOUS
 10
34.9395798524
 20
-22.4
 11
35.0527451764
 21
-22.0602279426
  0
LINE
  5
2BA
100
AcDbEntity
  8
RACCORDO
100
AcDbLine
 62
7
  6
CONTINUOUS
 10
47.8768267391
 20
7.7991935484
 11
47.873190064
 21
7.7941750279
  0
LWPOLYLINE
  5
2BB
100
AcDbEntity
  8
0
100
AcDbPolyline
 62
7
  6
CONTINUOUS
 90
2
 70
0
 43
0.3500000087
 10
64.0335976624
 20
-1.3571427914
 10
62.5335961975
 20
-1.3571427914
  0
LINE
  5
2BC
100
AcDbEntity
  8
RACCORDO
100
AcDbLine
 62
7
  6
CONTINUOUS
 10
47.8768267391
 20
-7.7991935484
 11
47.8731900662
 21
-7.794175031
  0
LINE
  5
2BD
100
AcDbEntity
  8
0
100
AcDbLine
 62
250
  6
CONTINUOUS
 10
35.0527451764
 20
22.0602279426
 11
34.9395798524
 21
22.4
  0
LINE
  5
2BE
100
AcDbEntity
  8
0
100
AcDbLine
 62
7
  6
CONTINUOUS
 10
41.1486871969
 20
22.3213883311
 11
41.1399604522
 21
22.4
  0
LINE
  5
2BF
100
AcDbEntity
  8
0
100
AcDbLine
 62
7
  6
CONTINUOUS
 10
46.5925937436
 20
23.7982512664
 11
46.5925937436
 21
22.3841861985
  0
LINE
  5
2C0
100
AcDbEntity
  8
0
100
AcDbLine
 62
7
  6
CONTINUOUS
 10
46.5925937436
 20
-22.3841861985
 11
46.5925937436
 21
-23.7982512664
  0
LINE
  5
2C1
100
AcDbEntity
  8
0
100
AcDbLine
 62
250
  6
CONTINUOUS
 10
46.7925861282
 20
-22.3737961104
 11
46.7925861282
 21
-23.9982478817
  0
LINE
  5
2C2
100
AcDbEntity
  8
0
100
AcDbLine
 62
250
  6
CONTINUOUS
 10
46.7925861282
 20
22.3737961104
 11
46.7925861282
 21
23.9982478817
  0
LWPOLYLINE
  5
2C3
100
AcDbEntity
  8
0
100
AcDbPolyline
 62
7
  6
CONTINUOUS
 90
2
 70
0
 43
0.3500000087
 10
48.6256741913
 20
31.9879331512
 10
48.6256741913
 20
33.4879346161
  0
LINE
  5
2C4
100
AcDbEntity
  8
0
100
AcDbLine
 62
250
  6
CONTINUOUS
 10
56.2403410519
 20
22.4
 11
56.1271757279
 21
22.0602279426
  0
LINE
  5
2C5
100
AcDbEntity
  8
RACCORDO
100
AcDbLine
 62
7
  6
CONTINUOUS
 10
43.3030941653
 20
-7.7991935484
 11
43.3067308401
 21
-7.7941750282
  0
LINE
  5
2C6
100
AcDbEntity
  8
RACCORDO
100
AcDbLine
 62
7
  6
CONTINUOUS
 10
43.3030941653
 20
7.7991935484
 11
43.3067308383
 21
7.7941750308
  0
LINE
  5
2C7
100
AcDbEntity
  8
0
100
AcDbLine
 62
250
  6
CONTINUOUS
 10
56.1271757279
 20
-22.0602279426
 11
56.2403410519
 21
-22.4
  0
LINE
  5
2C8
100
AcDbEntity
  8
0
100
AcDbLine
 62
7
  6
CONTINUOUS
 10
50.0312337075
 20
-22.3213883311
 11
50.0399604522
 21
-22.4
  0
LINE
  5
2C9
100
AcDbEntity
  8
0
100
AcDbLine
 62
7
  6
CONTINUOUS
 10
49.0899604522
 20
23.7982512664
 11
49.0899604522
 21
22.3737961104
  0
LINE
  5
2CA
100
AcDbEntity
  8
0
100
AcDbLine
 62
7
  6
CONTINUOUS
 10
49.0899604522
 20
-23.7982512664
 11
49.0899604522
 21
-22.3737961104
  0
LINE
  5
2CB
100
AcDbEntity
  8
0
100
AcDbLine
 62
7
  6
CONTINUOUS
 10
49.09868732
 20
23.9912732553
 11
49.09868732
 21
22.3213883311
  0
LINE
  5
2CC
100
AcDbEntity
  8
0
100
AcDbLine
 62
7
  6
CONTINUOUS
 10
49.09868732
 20
-22.3213883311
 11
49.09868732
 21
-23.9912732553
  0
LINE
  5
2CD
100
AcDbEntity
  8
RACCORDO
100
AcDbLine
 62
7
  6
CONTINUOUS
 10
49.2899604522
 20
7.4
 11
49.2899604522
 21
5.3
  0
LINE
  5
2CE
100
AcDbEntity
  8
RACCORDO
100
AcDbLine
 62
7
  6
CONTINUOUS
 10
49.2899604522
 20
-5.3
 11
49.2899604522
 21
-7.4
  0
LINE
  5
2CF
100
AcDbEntity
  8
RACCORDO
100
AcDbLine
 62
250
  6
CONTINUOUS
 10
49.5399604522
 20
7.6538269135
 11
49.5399604522
 21
5.0525262631
  0
LINE
  5
2D0
100
AcDbEntity
  8
RACCORDO
100
AcDbLine
 62
250
  6
CONTINUOUS
 10
49.5399604522
 20
-5.0525262631
 11
49.5399604522
 21
-7.6538269135
  0
LINE
  5
2D1
100
AcDbEntity
  8
0
100
AcDbLine
 62
7
  6
CONTINUOUS
 10
50.0312337075
 20
-23.9912732553
 11
50.0312337075
 21
-22.3213883311
  0
LINE
  5
2D2
100
AcDbEntity
  8
0
100
AcDbLine
 62
7
  6
CONTINUOUS
 10
50.0312337075
 20
22.3213883311
 11
50.0312337075
 21
23.9912732553
  0
LINE
  5
2D3
100
AcDbEntity
  8
0
100
AcDbLine
 62
7
  6
CONTINUOUS
 10
50.0399604522
 20
-22.4
 11
50.0399604522
 21
-24.0
  0
LINE
  5
2D4
100
AcDbEntity
  8
0
100
AcDbLine
 62
7
  6
CONTINUOUS
 10
50.0399604522
 20
22.4
 11
50.0399604522
 21
24.0
  0
LINE
  5
2D5
100
AcDbEntity
  8
0
100
AcDbLine
 62
250
  6
CONTINUOUS
 10
56.7399604522
 20
21.8997711479
 11
56.6270995755
 21
21.5609131753
  0
LINE
  5
2D6
100
AcDbEntity
  8
RACCORDO
100
AcDbLine
 62
250
  6
CONTINUOUS
 10
49.5399604522
 20
5.0525262631
 11
41.6399604522
 21
5.0525262631
  0
LINE
  5
2D7
100
AcDbEntity
  8
RACCORDO
100
AcDbLine
 62
7
  6
CONTINUOUS
 10
49.2899604522
 20
5.3
 11
41.8899604522
 21
5.3
  0
LINE
  5
2D8
100
AcDbEntity
  8
0
100
AcDbLine
 62
250
  6
CONTINUOUS
 10
56.6270995755
 20
-21.5609131753
 11
56.7399604522
 21
-21.8997711479
  0
LINE
  5
2D9
100
AcDbEntity
  8
0
100
AcDbLine
 62
250
  6
CONTINUOUS
 10
52.8530590309
 20
-23.8443375673
 11
52.8472412011
 21
-23.2669872981
  0
LINE
  5
2DA
100
AcDbEntity
  8
0
100
AcDbLine
 62
250
  6
CONTINUOUS
 10
53.1030548001
 20
-23.6278312164
 11
53.097964199
 21
-23.1226497308
  0
LINE
  5
2DB
100
AcDbEntity
  8
0
100
AcDbLine
 62
250
  6
CONTINUOUS
 10
55.4768661042
 20
23.6278312164
 11
55.4819567053
 21
23.1226497308
  0
LINE
  5
2DC
100
AcDbEntity
  8
0
100
AcDbLine
 62
7
  6
CONTINUOUS
 10
52.8399604522
 20
-22.4
 11
52.8399604522
 21
-24.2500042308
  0
LINE
  5
2DD
100
AcDbEntity
  8
0
100
AcDbLine
 62
7
  6
CONTINUOUS
 10
52.8399604522
 20
22.4
 11
52.8399604522
 21
24.2500042308
  0
LINE
  5
2DE
100
AcDbEntity
  8
0
100
AcDbLine
 62
7
  6
CONTINUOUS
 10
52.8472412011
 20
23.2669872981
 11
52.8472412011
 21
22.3344140523
  0
LINE
  5
2DF
100
AcDbEntity
  8
0
100
AcDbLine
 62
7
  6
CONTINUOUS
 10
52.8472412011
 20
-22.3344140523
 11
52.8472412011
 21
-23.2669872981
  0
LINE
  5
2E0
100
AcDbEntity
  8
0
100
AcDbLine
 62
7
  6
CONTINUOUS
 10
52.8530590309
 20
24.2369056521
 11
52.8530590309
 21
23.8443375673
  0
LINE
  5
2E1
100
AcDbEntity
  8
0
100
AcDbLine
 62
7
  6
CONTINUOUS
 10
52.8530590309
 20
-23.8443375673
 11
52.8530590309
 21
-24.2369056521
  0
LINE
  5
2E2
100
AcDbEntity
  8
0
100
AcDbLine
 62
250
  6
CONTINUOUS
 10
53.0972369703
 20
23.1226497308
 11
53.0972369703
 21
22.3213883311
  0
LINE
  5
2E3
100
AcDbEntity
  8
0
100
AcDbLine
 62
250
  6
CONTINUOUS
 10
53.0972369703
 20
-22.3213883311
 11
53.0972369703
 21
-23.1226497308
  0
LINE
  5
2E4
100
AcDbEntity
  8
0
100
AcDbLine
 62
250
  6
CONTINUOUS
 10
53.1030548001
 20
-23.6278312164
 11
53.1030548001
 21
-24.4869014213
  0
LINE
  5
2E5
100
AcDbEntity
  8
0
100
AcDbLine
 62
250
  6
CONTINUOUS
 10
53.1030548001
 20
23.6278312164
 11
53.1030548001
 21
24.4869014213
  0
LINE
  5
2E6
100
AcDbEntity
  8
0
100
AcDbLine
 62
250
  6
CONTINUOUS
 10
55.4768661042
 20
-23.6278312164
 11
55.4768661042
 21
-24.4869014213
  0
LINE
  5
2E7
100
AcDbEntity
  8
0
100
AcDbLine
 62
250
  6
CONTINUOUS
 10
55.4768661042
 20
23.6278312164
 11
55.4768661042
 21
24.4869014213
  0
LINE
  5
2E8
100
AcDbEntity
  8
0
100
AcDbLine
 62
250
  6
CONTINUOUS
 10
55.4826839341
 20
-23.1226497308
 11
55.4826839341
 21
-22.3213883311
  0
LINE
  5
2E9
100
AcDbEntity
  8
0
100
AcDbLine
 62
250
  6
CONTINUOUS
 10
55.4826839341
 20
22.3213883311
 11
55.4826839341
 21
23.1226497308
  0
LINE
  5
2EA
100
AcDbEntity
  8
0
100
AcDbLine
 62
7
  6
CONTINUOUS
 10
55.7268618735
 20
-24.2369056521
 11
55.7268618735
 21
-23.8443375673
  0
LINE
  5
2EB
100
AcDbEntity
  8
0
100
AcDbLine
 62
7
  6
CONTINUOUS
 10
55.7268618735
 20
23.8443375673
 11
55.7268618735
 21
24.2369056521
  0
LINE
  5
2EC
100
AcDbEntity
  8
0
100
AcDbLine
 62
7
  6
CONTINUOUS
 10
55.7326797033
 20
-23.2669872981
 11
55.7326797033
 21
-22.3344140523
  0
LINE
  5
2ED
100
AcDbEntity
  8
0
100
AcDbLine
 62
7
  6
CONTINUOUS
 10
55.7326797033
 20
22.3344140523
 11
55.7326797033
 21
23.2669872981
  0
LINE
  5
2EE
100
AcDbEntity
  8
0
100
AcDbLine
 62
250
  6
CONTINUOUS
 10
52.8472412011
 20
23.2669872981
 11
52.8530590309
 21
23.8443375673
  0
LINE
  5
2EF
100
AcDbEntity
  8
0
100
AcDbLine
 62
250
  6
CONTINUOUS
 10
53.097964199
 20
23.1226497308
 11
53.1030548001
 21
23.6278312164
  0
LINE
  5
2F0
100
AcDbEntity
  8
0
100
AcDbLine
 62
250
  6
CONTINUOUS
 10
55.4819567053
 20
-23.1226497308
 11
55.4768661042
 21
-23.6278312164
  0
LINE
  5
2F1
100
AcDbEntity
  8
0
100
AcDbLine
 62
7
  6
CONTINUOUS
 10
49.09868732
 20
-22.3213883311
 11
49.0899604522
 21
-22.3737961104
  0
LINE
  5
2F2
100
AcDbEntity
  8
0
100
AcDbLine
 62
250
  6
CONTINUOUS
 10
35.4530590309
 20
-24.2369056521
 11
35.4399604522
 21
-24.2500042308
  0
LINE
  5
2F3
100
AcDbEntity
  8
RACCORDO
100
AcDbLine
 62
7
  6
CONTINUOUS
 10
41.8899604522
 20
7.4
 11
43.1024918594
 21
7.4
  0
LINE
  5
2F4
100
AcDbEntity
  8
RACCORDO
100
AcDbLine
 62
7
  6
CONTINUOUS
 10
48.0774290449
 20
7.4
 11
49.2899604522
 21
7.4
  0
LINE
  5
2F5
100
AcDbEntity
  8
RACCORDO
100
AcDbLine
 62
250
  6
CONTINUOUS
 10
41.6399604522
 20
7.6538269135
 11
43.1025985518
 21
7.6538269135
  0
LINE
  5
2F6
100
AcDbEntity
  8
RACCORDO
100
AcDbLine
 62
250
  6
CONTINUOUS
 10
48.0774840628
 20
7.6538269135
 11
49.5399604522
 21
7.6538269135
  0
LINE
  5
2F7
100
AcDbEntity
  8
RACCORDO
100
AcDbLine
 62
7
  6
CONTINUOUS
 10
48.3948750123
 20
9.0
 11
42.7850362727
 21
9.0
  0
LINE
  5
2F8
100
AcDbEntity
  8
RACCORDO
100
AcDbLine
 62
250
  6
CONTINUOUS
 10
56.1018176551
 20
9.5
 11
48.6899568131
 21
9.5
  0
LINE
  5
2F9
100
AcDbEntity
  8
RACCORDO
100
AcDbLine
 62
250
  6
CONTINUOUS
 10
42.4899640913
 20
9.5
 11
35.0781032493
 21
9.5
  0
LINE
  5
2FA
100
AcDbEntity
  8
0
100
AcDbLine
 62
250
  6
CONTINUOUS
 10
35.4530590309
 20
24.2369056521
 11
35.4399604522
 21
24.2500042308
  0
LINE
  5
2FB
100
AcDbEntity
  8
0
100
AcDbLine
 62
7
  6
CONTINUOUS
 10
49.0899604522
 20
22.3737961104
 11
49.09868732
 21
22.3213883311
  0
LINE
  5
2FC
100
AcDbEntity
  8
0
100
AcDbLine
 62
7
  6
CONTINUOUS
 10
56.7835981145
 20
18.0591825482
 11
56.7399604522
 21
18.5
  0
LINE
  5
2FD
100
AcDbEntity
  8
0
100
AcDbLine
 62
250
  6
CONTINUOUS
 10
55.7268618735
 20
23.8443375673
 11
55.7326797033
 21
23.2669872981
  0
LINE
  5
2FE
100
AcDbEntity
  8
0
100
AcDbLine
 62
7
  6
CONTINUOUS
 10
55.7399604522
 20
-22.4
 11
55.7399604522
 21
-24.2500042308
  0
LINE
  5
2FF
100
AcDbEntity
  8
0
100
AcDbLine
 62
7
  6
CONTINUOUS
 10
55.7399604522
 20
22.4
 11
55.7399604522
 21
24.2500042308
  0
LINE
  5
300
100
AcDbEntity
  8
0
100
AcDbLine
 62
250
  6
CONTINUOUS
 10
56.1018176551
 20
9.5
 11
56.1018176551
 21
-9.5
  0
LINE
  5
301
100
AcDbEntity
  8
0
100
AcDbLine
 62
7
  6
CONTINUOUS
 10
56.7399604522
 20
21.900016923
 11
56.7399604522
 21
18.5
  0
LINE
  5
302
100
AcDbEntity
  8
0
100
AcDbLine
 62
7
  6
CONTINUOUS
 10
56.7399604522
 20
-21.900016923
 11
56.7399604522
 21
-18.5
  0
LINE
  5
303
100
AcDbEntity
  8
0
100
AcDbLine
 62
7
  6
CONTINUOUS
 10
56.7835981145
 20
18.0591825482
 11
56.7835981145
 21
-18.0591825482
  0
LINE
  5
304
100
AcDbEntity
  8
0
100
AcDbLine
 62
250
  6
CONTINUOUS
 10
55.7326797033
 20
-23.2669872981
 11
55.7268618735
 21
-23.8443375673
  0
LINE
  5
305
100
AcDbEntity
  8
0
100
AcDbLine
 62
7
  6
CONTINUOUS
 10
56.7399604522
 20
-18.5
 11
56.7835981145
 21
-18.0591825482
  0
LINE
  5
306
100
AcDbEntity
  8
0
100
AcDbLine
 62
250
  6
CONTINUOUS
 10
35.7030548001
 20
-24.4869014213
 11
35.6899562214
 21
-24.5
  0
LINE
  5
307
100
AcDbEntity
  8
0
100
AcDbLine
 62
250
  6
CONTINUOUS
 10
35.7030548001
 20
24.4869014213
 11
35.6899562214
 21
24.5
  0
LWPOLYLINE
  5
308
100
AcDbEntity
  8
0
100
AcDbPolyline
 62
7
  6
CONTINUOUS
 90
10
 70
0
 43
0.3500000087
 10
64.0335976624
 20
0.4285710304
 10
63.1764557953
 20
1.2857139633
 10
62.3193139282
 20
1.5000004959
 10
61.4621677979
 20
1.5000004959
 10
61.033598996
 20
1.0714284966
 10
61.033598996
 20
0.4285710304
 10
61.4621677979
 20
0.0000000969
 10
62.3193139282
 20
0.0000000969
 10
62.7478827301
 20
0.4285710304
 10
62.7478827301
 20
1.3571424522
  0
LINE
  5
309
100
AcDbEntity
  8
0
100
AcDbLine
 62
7
  6
CONTINUOUS
 10
41.1399604522
 20
-24.0
 11
41.1486871969
 21
-23.9912732553
  0
LINE
  5
30A
100
AcDbEntity
  8
0
100
AcDbLine
 62
7
  6
CONTINUOUS
 10
41.1399604522
 20
24.0
 11
41.1486871969
 21
23.9912732553
  0
LWPOLYLINE
  5
30B
100
AcDbEntity
  8
0
100
AcDbPolyline
 62
7
  6
CONTINUOUS
 90
10
 70
0
 43
0.3500000087
 10
46.5542448151
 20
32.4879336395
 10
46.6256765015
 20
32.34507453
 10
46.6256765015
 20
32.2736471069
 10
46.482817392
 20
32.1307922607
 10
46.4113899689
 20
32.1307922607
 10
46.3399625458
 20
32.2022196838
 10
46.3399625458
 20
32.2736471069
 10
46.4113899689
 20
32.4165062164
 10
46.482817392
 20
32.4879336395
 10
46.5542448151
 20
32.4879336395
  0
LWPOLYLINE
  5
30C
100
AcDbEntity
  8
0
100
AcDbPolyline
 62
7
  6
CONTINUOUS
 90
3
 70
0
 43
0.3500000087
 10
63.3907423279
 20
-0.857142836
 10
63.3907423279
 20
-2.3571427021
 10
61.033598996
 20
-1.7142857689
  0
LINE
  5
30D
100
AcDbEntity
  8
0
100
AcDbLine
 62
250
  6
CONTINUOUS
 10
52.8530590309
 20
-24.2369056521
 11
52.8399604522
 21
-24.2500042308
  0
LINE
  5
30E
100
AcDbEntity
  8
0
100
AcDbLine
 62
250
  6
CONTINUOUS
 10
53.1030548001
 20
-24.4869014213
 11
53.0899562214
 21
-24.5
  0
LINE
  5
30F
100
AcDbEntity
  8
0
100
AcDbLine
 62
7
  6
CONTINUOUS
 10
49.09868732
 20
-23.9912732553
 11
49.0882252327
 21
-23.9982478817
  0
LINE
  5
310
100
AcDbEntity
  8
0
100
AcDbLine
 62
250
  6
CONTINUOUS
 10
46.7925861282
 20
23.9982478817
 11
46.7914226062
 21
23.998244438
  0
LINE
  5
311
100
AcDbEntity
  8
0
100
AcDbLine
 62
250
  6
CONTINUOUS
 10
35.0609183647
 20
21.2107174911
 11
56.1190025396
 21
21.2107174911
  0
LINE
  5
312
100
AcDbEntity
  8
0
100
AcDbLine
 62
250
  6
CONTINUOUS
 10
35.0527451764
 20
22.0602279426
 11
56.1271757279
 21
22.0602279426
  0
LINE
  5
313
100
AcDbEntity
  8
0
100
AcDbLine
 62
7
  6
CONTINUOUS
 10
55.4826839341
 20
22.3213883311
 11
53.0972369703
 21
22.3213883311
  0
LINE
  5
314
100
AcDbEntity
  8
0
100
AcDbLine
 62
7
  6
CONTINUOUS
 10
50.0312337075
 20
22.3213883311
 11
49.09868732
 21
22.3213883311
  0
LINE
  5
315
100
AcDbEntity
  8
0
100
AcDbLine
 62
7
  6
CONTINUOUS
 10
42.0812335844
 20
22.3213883311
 11
41.1486871969
 21
22.3213883311
  0
LINE
  5
316
100
AcDbEntity
  8
0
100
AcDbLine
 62
7
  6
CONTINUOUS
 10
38.0826839341
 20
22.3213883311
 11
35.6972369703
 21
22.3213883311
  0
LINE
  5
317
100
AcDbEntity
  8
0
100
AcDbLine
 62
7
  6
CONTINUOUS
 10
42.0899604522
 20
22.3737961104
 11
44.3873347762
 21
22.3737961104
  0
LINE
  5
318
100
AcDbEntity
  8
0
100
AcDbLine
 62
7
  6
CONTINUOUS
 10
46.7925861282
 20
22.3737961104
 11
49.0899604522
 21
22.3737961104
  0
LINE
  5
319
100
AcDbEntity
  8
0
100
AcDbLine
 62
7
  6
CONTINUOUS
 10
46.5899604522
 20
22.4
 11
44.5899604522
 21
22.4
  0
LINE
  5
31A
100
AcDbEntity
  8
0
100
AcDbLine
 62
7
  6
CONTINUOUS
 10
34.9395798524
 20
22.4
 11
35.4399604522
 21
22.4
  0
LINE
  5
31B
100
AcDbEntity
  8
0
100
AcDbLine
 62
7
  6
CONTINUOUS
 10
38.3399604522
 20
22.4
 11
41.1399604522
 21
22.4
  0
LINE
  5
31C
100
AcDbEntity
  8
0
100
AcDbLine
 62
7
  6
CONTINUOUS
 10
50.0399604522
 20
22.4
 11
52.8399604522
 21
22.4
  0
LINE
  5
31D
100
AcDbEntity
  8
0
100
AcDbLine
 62
7
  6
CONTINUOUS
 10
55.7399604522
 20
22.4
 11
56.2403410519
 21
22.4
  0
LINE
  5
31E
100
AcDbEntity
  8
0
100
AcDbLine
 62
7
  6
CONTINUOUS
 10
55.4826839341
 20
23.1226497308
 11
53.0972369703
 21
23.1226497308
  0
LINE
  5
31F
100
AcDbEntity
  8
0
100
AcDbLine
 62
7
  6
CONTINUOUS
 10
35.6972369703
 20
23.1226497308
 11
38.0826839341
 21
23.1226497308
  0
LINE
  5
320
100
AcDbEntity
  8
0
100
AcDbLine
 62
250
  6
CONTINUOUS
 10
35.7030548001
 20
23.6278312164
 11
38.0768661042
 21
23.6278312164
  0
LINE
  5
321
100
AcDbEntity
  8
0
100
AcDbLine
 62
250
  6
CONTINUOUS
 10
53.1030548001
 20
23.6278312164
 11
55.4768661042
 21
23.6278312164
  0
LINE
  5
322
100
AcDbEntity
  8
0
100
AcDbLine
 62
250
  6
CONTINUOUS
 10
49.0899604522
 20
23.7982512664
 11
46.5925937436
 21
23.7982512664
  0
LINE
  5
323
100
AcDbEntity
  8
0
100
AcDbLine
 62
250
  6
CONTINUOUS
 10
42.0899604522
 20
23.7982512664
 11
44.5873271608
 21
23.7982512664
  0
LINE
  5
324
100
AcDbEntity
  8
0
100
AcDbLine
 62
250
  6
CONTINUOUS
 10
35.4530590309
 20
23.8443375673
 11
38.3268618735
 21
23.8443375673
  0
LINE
  5
325
100
AcDbEntity
  8
0
100
AcDbLine
 62
250
  6
CONTINUOUS
 10
52.8530590309
 20
23.8443375673
 11
55.7268618735
 21
23.8443375673
  0
LINE
  5
326
100
AcDbEntity
  8
0
100
AcDbLine
 62
7
  6
CONTINUOUS
 10
41.1486871969
 20
23.9912732553
 11
42.0812335844
 21
23.9912732553
  0
LINE
  5
327
100
AcDbEntity
  8
0
100
AcDbLine
 62
7
  6
CONTINUOUS
 10
49.09868732
 20
23.9912732553
 11
50.0312337075
 21
23.9912732553
  0
LINE
  5
328
100
AcDbEntity
  8
0
100
AcDbLine
 62
7
  6
CONTINUOUS
 10
49.0882252327
 20
23.9982478817
 11
46.7925861282
 21
23.9982478817
  0
LINE
  5
329
100
AcDbEntity
  8
0
100
AcDbLine
 62
7
  6
CONTINUOUS
 10
44.3873347762
 20
23.9982478817
 11
42.0916956716
 21
23.9982478817
  0
LINE
  5
32A
100
AcDbEntity
  8
0
100
AcDbLine
 62
7
  6
CONTINUOUS
 10
41.1399604522
 20
24.0
 11
42.0916956716
 21
24.0
  0
LINE
  5
32B
100
AcDbEntity
  8
0
100
AcDbLine
 62
7
  6
CONTINUOUS
 10
49.0882252327
 20
24.0
 11
50.0399604522
 21
24.0
  0
LINE
  5
32C
100
AcDbEntity
  8
0
100
AcDbLine
 62
250
  6
CONTINUOUS
 10
35.4530590309
 20
24.2369056521
 11
38.3268618735
 21
24.2369056521
  0
LINE
  5
32D
100
AcDbEntity
  8
0
100
AcDbLine
 62
250
  6
CONTINUOUS
 10
52.8530590309
 20
24.2369056521
 11
55.7268618735
 21
24.2369056521
  0
LINE
  5
32E
100
AcDbEntity
  8
0
100
AcDbLine
 62
7
  6
CONTINUOUS
 10
49.0882252327
 20
23.9982478817
 11
49.09868732
 21
23.9912732553
  0
LINE
  5
32F
100
AcDbEntity
  8
0
100
AcDbLine
 62
250
  6
CONTINUOUS
 10
52.8530590309
 20
24.2369056521
 11
52.8399604522
 21
24.2500042308
  0
LINE
  5
330
100
AcDbEntity
  8
0
100
AcDbLine
 62
250
  6
CONTINUOUS
 10
53.1030548001
 20
24.4869014213
 11
53.0899562214
 21
24.5
  0
LINE
  5
331
100
AcDbEntity
  8
0
100
AcDbLine
 62
7
  6
CONTINUOUS
 10
55.4768661042
 20
24.4869014213
 11
53.1030548001
 21
24.4869014213
  0
LINE
  5
332
100
AcDbEntity
  8
0
100
AcDbLine
 62
7
  6
CONTINUOUS
 10
38.0768661042
 20
24.4869014213
 11
35.7030548001
 21
24.4869014213
  0
LINE
  5
333
100
AcDbEntity
  8
0
100
AcDbLine
 62
7
  6
CONTINUOUS
 10
55.489964683
 20
24.5
 11
53.0899562214
 21
24.5
  0
LINE
  5
334
100
AcDbEntity
  8
0
100
AcDbLine
 62
7
  6
CONTINUOUS
 10
38.089964683
 20
24.5
 11
35.6899562214
 21
24.5
  0
LWPOLYLINE
  5
335
100
AcDbEntity
  8
0
100
AcDbPolyline
 62
7
  6
CONTINUOUS
 90
7
 70
0
 43
0.3500000087
 10
45.0542476135
 20
31.9879331512
 10
43.5542461487
 20
31.9879331512
 10
45.0542476135
 20
34.1307899506
 10
45.0542476135
 20
34.5593630157
 10
44.6256745483
 20
34.9879318176
 10
43.9828192139
 20
34.9879318176
 10
43.5542461487
 20
34.3450764832
  0
LWPOLYLINE
  5
336
100
AcDbEntity
  8
0
100
AcDbPolyline
 62
7
  6
CONTINUOUS
 90
7
 70
0
 43
0.3500000087
 10
42.6971042816
 20
31.9879331512
 10
41.1971028168
 20
31.9879331512
 10
42.6971042816
 20
34.1307899506
 10
42.6971042816
 20
34.5593630157
 10
42.2685312164
 20
34.9879318176
 10
41.625675882
 20
34.9879318176
 10
41.1971028168
 20
34.3450764832
  0
LWPOLYLINE
  5
337
100
AcDbEntity
  8
0
100
AcDbPolyline
 62
7
  6
CONTINUOUS
 90
3
 70
0
 43
0.3500000087
 10
49.1256746796
 20
32.6307884857
 10
47.6256732147
 20
32.6307884857
 10
48.2685328125
 20
34.9879318176
  0
LWPOLYLINE
  5
338
100
AcDbEntity
  8
0
100
AcDbPolyline
 62
7
  6
CONTINUOUS
 90
5
 70
0
 43
0.3500000087
 10
-2.0468281041
 20
42.5386511627
 10
-1.6896852598
 20
42.7529376953
 10
-1.6896852598
 20
43.3957930298
 10
-2.0468281041
 20
43.824366095
 10
-2.9039709038
 20
43.824366095
  0
LINE
  5
339
100
AcDbEntity
  8
0
100
AcDbLine
 62
250
  6
CONTINUOUS
 10
-11.153971005
 20
23.4104851482
 11
-10.4025165722
 21
23.8443375673
  0
LINE
  5
33A
100
AcDbEntity
  8
0
100
AcDbLine
 62
7
  6
CONTINUOUS
 10
-11.153971005
 20
23.1226497308
 11
-10.278971005
 21
23.6278312164
  0
LINE
  5
33B
100
AcDbEntity
  8
0
100
AcDbLine
 62
250
  6
CONTINUOUS
 10
-10.4025165722
 20
-23.8443375673
 11
-11.153971005
 21
-23.4104851482
  0
LINE
  5
33C
100
AcDbEntity
  8
0
100
AcDbLine
 62
7
  6
CONTINUOUS
 10
-10.278971005
 20
-23.6278312164
 11
-11.153971005
 21
-23.1226497308
  0
LINE
  5
33D
100
AcDbEntity
  8
0
100
AcDbLine
 62
7
  6
CONTINUOUS
 10
-11.153971005
 20
-24.5
 11
-10.4025165722
 21
-24.495628166
  0
LINE
  5
33E
100
AcDbEntity
  8
0
100
AcDbLine
 62
250
  6
CONTINUOUS
 10
-11.153971005
 20
-24.2500042308
 11
-10.4025165722
 21
-24.2456323968
  0
LINE
  5
33F
100
AcDbEntity
  8
0
100
AcDbLine
 62
7
  6
CONTINUOUS
 10
-3.6510621393
 20
-23.9563493531
 11
-10.153971005
 21
-23.9941821702
  0
LINE
  5
340
100
AcDbEntity
  8
0
100
AcDbLine
 62
7
  6
CONTINUOUS
 10
0.3518467264
 20
-22.3330611106
 11
-11.153971005
 21
-22.4
  0
LINE
  5
341
100
AcDbEntity
  8
0
100
AcDbLine
 62
250
  6
CONTINUOUS
 10
-11.153971005
 20
-21.900016923
 11
-10.153971005
 21
-21.8941990932
  0
LINE
  5
342
100
AcDbEntity
  8
0
100
AcDbLine
 62
250
  6
CONTINUOUS
 10
-10.153971005
 20
-24.2456323968
 11
-10.4025165722
 21
-24.2456323968
  0
LINE
  5
343
100
AcDbEntity
  8
0
100
AcDbLine
 62
250
  6
CONTINUOUS
 10
-13.653971005
 20
-24.2369056521
 11
-13.4054254378
 21
-24.2369056521
  0
LINE
  5
344
100
AcDbEntity
  8
0
100
AcDbLine
 62
250
  6
CONTINUOUS
 10
-13.653971005
 20
-23.8443375673
 11
-13.4054254378
 21
-23.8443375673
  0
LINE
  5
345
100
AcDbEntity
  8
0
100
AcDbLine
 62
250
  6
CONTINUOUS
 10
-10.153971005
 20
-23.8443375673
 11
-10.4025165722
 21
-23.8443375673
  0
LINE
  5
346
100
AcDbEntity
  8
0
100
AcDbLine
 62
7
  6
CONTINUOUS
 10
-13.4054254378
 20
-24.4869014213
 11
-11.153971005
 21
-24.5
  0
LINE
  5
347
100
AcDbEntity
  8
0
100
AcDbLine
 62
250
  6
CONTINUOUS
 10
-13.4054254378
 20
-24.2369056521
 11
-11.153971005
 21
-24.2500042308
  0
LINE
  5
348
100
AcDbEntity
  8
0
100
AcDbLine
 62
7
  6
CONTINUOUS
 10
0.8547551982
 20
-21.5921580307
 11
-10.153971005
 21
-21.4
  0
LINE
  5
349
100
AcDbEntity
  8
0
100
AcDbLine
 62
7
  6
CONTINUOUS
 10
-17.6372080741
 20
-22.0602279426
 11
-11.153971005
 21
-22.4
  0
LINE
  5
34A
100
AcDbEntity
  8
0
100
AcDbLine
 62
250
  6
CONTINUOUS
 10
-17.6197662992
 20
-21.5609131753
 11
-11.153971005
 21
-21.8997711479
  0
LINE
  5
34B
100
AcDbEntity
  8
RACCORDO
100
AcDbLine
 62
7
  6
CONTINUOUS
 10
15.3634814014
 20
-19.366303627
 11
1.346028995
 21
-19.6109791689
  0
LINE
  5
34C
100
AcDbEntity
  8
ASSI
100
AcDbLine
 62
7
  6
CONTINUOUS
 10
15.3634814014
 20
-19.366303627
 11
1.346028995
 21
-19.6109791689
  0
LINE
  5
34D
100
AcDbEntity
  8
RACCORDO
100
AcDbLine
 62
250
  6
CONTINUOUS
 10
15.3634814014
 20
-19.0734550172
 11
1.346028995
 21
-19.3181305591
  0
LINE
  5
34E
100
AcDbEntity
  8
ASSI
100
AcDbLine
 62
250
  6
CONTINUOUS
 10
15.3634814014
 20
-19.0734550172
 11
1.346028995
 21
-19.3181305591
  0
LINE
  5
34F
100
AcDbEntity
  8
RACCORDO
100
AcDbLine
 62
250
  6
CONTINUOUS
 10
-8.653971005
 20
-19.0856972195
 11
15.3634814014
 21
-18.9120480454
  0
LINE
  5
350
100
AcDbEntity
  8
ASSI
100
AcDbLine
 62
250
  6
CONTINUOUS
 10
-8.653971005
 20
-19.0856972195
 11
15.3634814014
 21
-18.9120480454
  0
LINE
  5
351
100
AcDbEntity
  8
DRAFT
100
AcDbLine
 62
7
  6
CONTINUOUS
 10
-8.653971005
 20
-20.85
 11
1.346028995
 21
-20.85
  0
LINE
  5
352
100
AcDbEntity
  8
ASSI
100
AcDbLine
 62
7
  6
CONTINUOUS
 10
-8.653971005
 20
-20.85
 11
1.346028995
 21
-20.85
  0
LINE
  5
353
100
AcDbEntity
  8
0
100
AcDbLine
 62
7
  6
CONTINUOUS
 10
-10.153971005
 20
-19.5
 11
-8.653971005
 21
-19.5
  0
LINE
  5
354
100
AcDbEntity
  8
0
100
AcDbLine
 62
7
  6
CONTINUOUS
 10
1.346028995
 20
-20.9602144095
 11
-10.153971005
 21
-20.9
  0
LINE
  5
355
100
AcDbEntity
  8
0
100
AcDbLine
 62
7
  6
CONTINUOUS
 10
-10.153971005
 20
-18.5087268678
 11
-8.653971005
 21
-18.5218171695
  0
LINE
  5
356
100
AcDbEntity
  8
INCISIONI
100
AcDbLine
 62
250
  6
CONTINUOUS
 10
-6.0532673609
 20
14.166101
 11
-4.0060052163
 21
15.502999
  0
LINE
  5
357
100
AcDbEntity
  8
INCISIONI
100
AcDbLine
 62
250
  6
CONTINUOUS
 10
-3.1546149069
 20
15.484078
 11
-5.1795324552
 21
14.165656
  0
LINE
  5
358
100
AcDbEntity
  8
0
100
AcDbLine
 62
7
  6
CONTINUOUS
 10
-11.153971005
 20
-18.5
 11
-8.653971005
 21
-18.0591825482
  0
LINE
  5
359
100
AcDbEntity
  8
DRAFT
100
AcDbLine
 62
7
  6
CONTINUOUS
 10
16.6198822722
 20
-15.0760409428
 11
18.0721757178
 21
-14.9489817302
  0
LINE
  5
35A
100
AcDbEntity
  8
ASSI
100
AcDbLine
 62
7
  6
CONTINUOUS
 10
16.6198822722
 20
-15.0760409428
 11
18.0721757178
 21
-14.9489817302
  0
LINE
  5
35B
100
AcDbEntity
  8
RACCORDO
100
AcDbLine
 62
250
  6
CONTINUOUS
 10
-8.653971005
 20
-17.6716990487
 11
15.3634814014
 21
-17.4980498746
  0
LINE
  5
35C
100
AcDbEntity
  8
ASSI
100
AcDbLine
 62
250
  6
CONTINUOUS
 10
-8.653971005
 20
-17.6716990487
 11
15.3634814014
 21
-17.4980498746
  0
LINE
  5
35D
100
AcDbEntity
  8
RACCORDO
100
AcDbLine
 62
250
  6
CONTINUOUS
 10
15.3634814014
 20
-17.4980498746
 11
16.346028995
 21
-17.4980498746
  0
LINE
  5
35E
100
AcDbEntity
  8
ASSI
100
AcDbLine
 62
250
  6
CONTINUOUS
 10
15.3634814014
 20
-17.4980498746
 11
16.346028995
 21
-17.4980498746
  0
LINE
  5
35F
100
AcDbEntity
  8
INCISIONI
100
AcDbLine
 62
250
  6
CONTINUOUS
 10
9.8324016656
 20
-15.4571428329
 11
11.7321122864
 21
-15.4571428329
  0
LINE
  5
360
100
AcDbEntity
  8
INCISIONI
100
AcDbLine
 62
250
  6
CONTINUOUS
 10
10.782256976
 20
-14.9142856658
 11
11.4607250427
 21
-14.9142856658
  0
LINE
  5
361
100
AcDbEntity
  8
INCISIONI
100
AcDbLine
 62
250
  6
CONTINUOUS
 10
-4.057074437
 20
-14.778839
 11
-6.0536672999
 21
-14.137714
  0
LINE
  5
362
100
AcDbEntity
  8
INCISIONI
100
AcDbLine
 62
250
  6
CONTINUOUS
 10
-6.0536672999
 20
-13.557685
 11
-3.1539780039
 21
-14.488824
  0
LINE
  5
363
100
AcDbEntity
  8
0
100
AcDbLine
 62
7
  6
CONTINUOUS
 10
-13.653971005
 20
-24.2369056521
 11
-13.653971005
 21
-23.8443375673
  0
LINE
  5
364
100
AcDbEntity
  8
0
100
AcDbLine
 62
7
  6
CONTINUOUS
 10
-13.653971005
 20
23.8443375673
 11
-13.653971005
 21
24.2369056521
  0
LINE
  5
365
100
AcDbEntity
  8
0
100
AcDbLine
 62
250
  6
CONTINUOUS
 10
-13.4054254378
 20
-24.2369056521
 11
-13.4054254378
 21
-23.8443375673
  0
LINE
  5
366
100
AcDbEntity
  8
0
100
AcDbLine
 62
250
  6
CONTINUOUS
 10
-13.4054254378
 20
23.8443375673
 11
-13.4054254378
 21
24.2369056521
  0
LINE
  5
367
100
AcDbEntity
  8
0
100
AcDbLine
 62
7
  6
CONTINUOUS
 10
-12.653971005
 20
-23.1226497308
 11
-12.653971005
 21
-22.3213883311
  0
LINE
  5
368
100
AcDbEntity
  8
0
100
AcDbLine
 62
7
  6
CONTINUOUS
 10
-12.653971005
 20
22.3213883311
 11
-12.653971005
 21
23.1226497308
  0
LINE
  5
369
100
AcDbEntity
  8
0
100
AcDbLine
 62
250
  6
CONTINUOUS
 10
-12.4054254378
 20
-23.2669872981
 11
-12.4054254378
 21
-22.3344140523
  0
LINE
  5
36A
100
AcDbEntity
  8
0
100
AcDbLine
 62
250
  6
CONTINUOUS
 10
-12.4054254378
 20
22.3344140523
 11
-12.4054254378
 21
23.2669872981
  0
LINE
  5
36B
100
AcDbEntity
  8
0
100
AcDbLine
 62
7
  6
CONTINUOUS
 10
-11.153971005
 20
21.900016923
 11
-11.153971005
 21
18.5
  0
LINE
  5
36C
100
AcDbEntity
  8
0
100
AcDbLine
 62
7
  6
CONTINUOUS
 10
-11.153971005
 20
-21.900016923
 11
-11.153971005
 21
-18.5
  0
LINE
  5
36D
100
AcDbEntity
  8
0
100
AcDbLine
 62
7
  6
CONTINUOUS
 10
-11.153971005
 20
-22.4
 11
-11.153971005
 21
-24.5
  0
LINE
  5
36E
100
AcDbEntity
  8
0
100
AcDbLine
 62
7
  6
CONTINUOUS
 10
-11.153971005
 20
22.4
 11
-11.153971005
 21
24.5
  0
LINE
  5
36F
100
AcDbEntity
  8
0
100
AcDbLine
 62
250
  6
CONTINUOUS
 10
-10.4025165722
 20
24.2456323968
 11
-10.4025165722
 21
23.8443375673
  0
LINE
  5
370
100
AcDbEntity
  8
0
100
AcDbLine
 62
250
  6
CONTINUOUS
 10
-10.4025165722
 20
-23.8443375673
 11
-10.4025165722
 21
-24.2456323968
  0
LINE
  5
371
100
AcDbEntity
  8
INCISIONI
100
AcDbLine
 62
7
  6
CONTINUOUS
 10
-5.9216458255
 20
13.66021
 11
-4.2159628033
 21
15.3658930222
  0
LINE
  5
372
100
AcDbEntity
  8
INCISIONI
100
AcDbLine
 62
7
  6
CONTINUOUS
 10
-4.0788564697
 20
15.5029993558
 11
-3.5804188255
 21
16.001437
  0
LINE
  5
373
100
AcDbEntity
  8
INCISIONI
100
AcDbLine
 62
250
  6
CONTINUOUS
 10
-0.8396853393
 20
14.221428442
 11
-0.5682567274
 21
14.492857337
  0
LINE
  5
374
100
AcDbEntity
  8
INCISIONI
100
AcDbLine
 62
250
  6
CONTINUOUS
 10
-1.653971005
 20
14.221428442
 11
-1.3825424498
 21
14.4476189613
  0
LINE
  5
375
100
AcDbEntity
  8
INCISIONI
100
AcDbLine
 62
250
  6
CONTINUOUS
 10
1.5464249574
 20
15.047866
 11
2.3431472127
 21
15.523604
  0
LINE
  5
376
100
AcDbEntity
  8
INCISIONI
100
AcDbLine
 62
250
  6
CONTINUOUS
 10
-1.3825424498
 20
11.5071428895
 11
-1.1111138945
 21
11.6428571105
  0
LINE
  5
377
100
AcDbEntity
  8
INCISIONI
100
AcDbLine
 62
250
  6
CONTINUOUS
 10
2.846028995
 20
13.889946
 11
1.5464249574
 21
13.319613
  0
LINE
  5
378
100
AcDbEntity
  8
INCISIONI
100
AcDbLine
 62
250
  6
CONTINUOUS
 10
11.4607250427
 20
-13.964285779
 11
10.9179505836
 21
-13.964285779
  0
LINE
  5
379
100
AcDbEntity
  8
INCISIONI
100
AcDbLine
 62
250
  6
CONTINUOUS
 10
-3.153971005
 20
-13.171014
 11
-6.0536672999
 21
-13.171006
  0
LINE
  5
37A
100
AcDbEntity
  8
0
100
AcDbLine
 62
250
  6
CONTINUOUS
 10
8.8955644652
 20
-12.937598426
 11
7.8790522773
 21
-12.937598426
  0
LINE
  5
37B
100
AcDbEntity
  8
0
100
AcDbLine
 62
250
  6
CONTINUOUS
 10
3.8130046199
 20
-12.937598426
 11
2.7964935263
 21
-12.937598426
  0
LINE
  5
37C
100
AcDbEntity
  8
INCISIONI
100
AcDbLine
 62
250
  6
CONTINUOUS
 10
-6.0536672999
 20
-12.590985
 11
-3.1539780039
 21
-12.590992
  0
LINE
  5
37D
100
AcDbEntity
  8
INCISIONI
100
AcDbLine
 62
250
  6
CONTINUOUS
 10
-3.1539780039
 20
-12.010985
 11
-6.0536672999
 21
-12.010985
  0
LINE
  5
37E
100
AcDbEntity
  8
INCISIONI
100
AcDbLine
 62
250
  6
CONTINUOUS
 10
-5.0661287298
 20
-11.430963
 11
-3.1539780039
 21
-11.430963
  0
LINE
  5
37F
100
AcDbEntity
  8
INCISIONI
100
AcDbLine
 62
250
  6
CONTINUOUS
 10
-4.1652859534
 20
-10.59258
 11
-6.0536672999
 21
-10.051012
  0
LINE
  5
380
100
AcDbEntity
  8
INCISIONI
100
AcDbLine
 62
250
  6
CONTINUOUS
 10
-5.0661287298
 20
-9.754205
 11
-3.1539860027
 21
-10.30258
  0
LINE
  5
381
100
AcDbEntity
  8
0
100
AcDbLine
 62
250
  6
CONTINUOUS
 10
7.6258842654
 20
-15.4144995977
 11
8.8955644652
 21
-15.9875984252
  0
LINE
  5
382
100
AcDbEntity
  8
0
100
AcDbLine
 62
250
  6
CONTINUOUS
 10
5.2188396286
 20
-14.3280252765
 11
6.4445437097
 21
-14.8812747013
  0
LINE
  5
383
100
AcDbEntity
  8
0
100
AcDbLine
 62
7
  6
CONTINUOUS
 10
-10.153971005
 20
24.2456323968
 11
-10.153971005
 21
23.8443375673
  0
LINE
  5
384
100
AcDbEntity
  8
0
100
AcDbLine
 62
7
  6
CONTINUOUS
 10
-10.153971005
 20
-18.5087268678
 11
-10.153971005
 21
-22.3941821702
  0
LINE
  5
385
100
AcDbEntity
  8
0
100
AcDbLine
 62
7
  6
CONTINUOUS
 10
-10.153971005
 20
-23.8443375673
 11
-10.153971005
 21
-24.2456323968
  0
LINE
  5
386
100
AcDbEntity
  8
0
100
AcDbLine
 62
7
  6
CONTINUOUS
 10
-10.153971005
 20
18.5087268678
 11
-10.153971005
 21
22.3941821702
  0
LINE
  5
387
100
AcDbEntity
  8
RACCORDO
100
AcDbLine
 62
7
  6
CONTINUOUS
 10
-8.653971005
 20
20.85
 11
-8.653971005
 21
19.0856972195
  0
LINE
  5
388
100
AcDbEntity
  8
ASSI
100
AcDbLine
 62
7
  6
CONTINUOUS
 10
-8.653971005
 20
20.85
 11
-8.653971005
 21
19.0856972195
  0
LINE
  5
389
100
AcDbEntity
  8
0
100
AcDbLine
 62
7
  6
CONTINUOUS
 10
-8.653971005
 20
19.5
 11
-8.653971005
 21
-19.5
  0
LINE
  5
38A
100
AcDbEntity
  8
RACCORDO
100
AcDbLine
 62
7
  6
CONTINUOUS
 10
-8.653971005
 20
-19.0856972195
 11
-8.653971005
 21
-20.85
  0
LINE
  5
38B
100
AcDbEntity
  8
ASSI
100
AcDbLine
 62
7
  6
CONTINUOUS
 10
-8.653971005
 20
-18.6335212724
 11
-8.653971005
 21
-20.85
  0
LINE
  5
38C
100
AcDbEntity
  8
INCISIONI
100
AcDbLine
 62
250
  6
CONTINUOUS
 10
-1.3825424498
 20
13.135714221
 11
-1.653971005
 21
12.864285779
  0
LINE
  5
38D
100
AcDbEntity
  8
INCISIONI
100
AcDbLine
 62
250
  6
CONTINUOUS
 10
-1.653971005
 20
11.235714221
 11
-1.3825424498
 21
11.5071428895
  0
LINE
  5
38E
100
AcDbEntity
  8
INCISIONI
100
AcDbLine
 62
7
  6
CONTINUOUS
 10
-6.0532673609
 20
5.6259630781
 11
-5.5932174394
 21
6.0860129996
  0
LINE
  5
38F
100
AcDbEntity
  8
INCISIONI
100
AcDbLine
 62
7
  6
CONTINUOUS
 10
-4.958892439
 20
6.720338
 11
-4.441123439
 21
7.238107
  0
LINE
  5
390
100
AcDbEntity
  8
INCISIONI
100
AcDbLine
 62
7
  6
CONTINUOUS
 10
-3.825392439
 20
7.853838
 11
-3.3076469623
 21
8.3715834767
  0
LINE
  5
391
100
AcDbEntity
  8
INCISIONI
100
AcDbLine
 62
250
  6
CONTINUOUS
 10
-1.3825424498
 20
10.15
 11
-1.653971005
 21
9.8785714447
  0
LINE
  5
392
100
AcDbEntity
  8
INCISIONI
100
AcDbLine
 62
250
  6
CONTINUOUS
 10
0.246028995
 20
11.1
 11
-0.0253995886
 21
10.8285714447
  0
LINE
  5
393
100
AcDbEntity
  8
INCISIONI
100
AcDbLine
 62
250
  6
CONTINUOUS
 10
-4.8604990529
 20
9.10422
 11
-3.1546149069
 21
10.357884
  0
LINE
  5
394
100
AcDbEntity
  8
INCISIONI
100
AcDbLine
 62
250
  6
CONTINUOUS
 10
-3.1546149069
 20
9.706581
 11
-4.504438291
 21
8.741819
  0
LINE
  5
395
100
AcDbEntity
  8
INCISIONI
100
AcDbLine
 62
250
  6
CONTINUOUS
 10
-0.0253995886
 20
10.8285714447
 11
-0.2968281721
 21
10.6928571105
  0
LINE
  5
396
100
AcDbEntity
  8
0
100
AcDbLine
 62
250
  6
CONTINUOUS
 10
-19.0725293198
 20
-9.4905
 11
-19.5637128568
 21
-9.5
  0
LINE
  5
397
100
AcDbEntity
  8
INCISIONI
100
AcDbLine
 62
250
  6
CONTINUOUS
 10
-3.1539780039
 20
-9.754197
 11
-5.0661287298
 21
-9.754205
  0
LINE
  5
398
100
AcDbEntity
  8
INCISIONI
100
AcDbLine
 62
250
  6
CONTINUOUS
 10
10.3751760963
 20
-9.35
 11
10.1037888809
 21
-9.35
  0
LINE
  5
399
100
AcDbEntity
  8
INCISIONI
100
AcDbLine
 62
250
  6
CONTINUOUS
 10
-6.0536672999
 20
-9.174176
 11
-3.1539780039
 21
-9.174176
  0
LINE
  5
39A
100
AcDbEntity
  8
INCISIONI
100
AcDbLine
 62
250
  6
CONTINUOUS
 10
10.6465633117
 20
-8.807142663
 11
9.8324016656
 21
-8.807142663
  0
LINE
  5
39B
100
AcDbEntity
  8
INCISIONI
100
AcDbLine
 62
250
  6
CONTINUOUS
 10
11.4607250427
 20
-7.992856884
 11
10.9179505836
 21
-7.992856884
  0
LINE
  5
39C
100
AcDbEntity
  8
INCISIONI
100
AcDbLine
 62
250
  6
CONTINUOUS
 10
11.189337799
 20
-7.45
 11
10.3751760963
 21
-7.45
  0
LINE
  5
39D
100
AcDbEntity
  8
DRAFT
100
AcDbLine
 62
7
  6
CONTINUOUS
 10
16.6198822722
 20
-8.9239590572
 11
18.0721757178
 21
-9.0510182698
  0
LINE
  5
39E
100
AcDbEntity
  8
ASSI
100
AcDbLine
 62
7
  6
CONTINUOUS
 10
16.6198822722
 20
-8.9239590572
 11
18.0721757178
 21
-9.0510182698
  0
LINE
  5
39F
100
AcDbEntity
  8
INCISIONI
100
AcDbLine
 62
250
  6
CONTINUOUS
 10
11.7321122864
 20
-13.4214286685
 11
9.8324016656
 21
-12.8785713315
  0
LINE
  5
3A0
100
AcDbEntity
  8
INCISIONI
100
AcDbLine
 62
250
  6
CONTINUOUS
 10
-6.0536742989
 20
-7.856372
 11
-3.1539780039
 21
-8.787497
  0
LINE
  5
3A1
100
AcDbEntity
  8
INCISIONI
100
AcDbLine
 62
250
  6
CONTINUOUS
 10
-3.1539860027
 20
-8.207475
 11
-3.724227139
 21
-8.024362
  0
LINE
  5
3A2
100
AcDbEntity
  8
INCISIONI
100
AcDbLine
 62
250
  6
CONTINUOUS
 10
-4.2751652157
 20
-7.84744
 11
-5.1505708669
 21
-7.56635
  0
LINE
  5
3A3
100
AcDbEntity
  8
0
100
AcDbLine
 62
250
  6
CONTINUOUS
 10
8.8955644652
 20
-14.9709324885
 11
8.3348306479
 21
-14.7005449871
  0
LINE
  5
3A4
100
AcDbEntity
  8
0
100
AcDbLine
 62
250
  6
CONTINUOUS
 10
7.3993116058
 20
-14.2494354331
 11
6.9213383401
 21
-14.0189546988
  0
LINE
  5
3A5
100
AcDbEntity
  8
INCISIONI
100
AcDbLine
 62
250
  6
CONTINUOUS
 10
10.2394825452
 20
-14.6428571105
 11
10.782256976
 21
-14.9142856658
  0
LINE
  5
3A6
100
AcDbEntity
  8
INCISIONI
100
AcDbLine
 62
250
  6
CONTINUOUS
 10
-6.0536742989
 20
-4.600289
 11
-6.0536742989
 21
-5.958503
  0
LINE
  5
3A7
100
AcDbEntity
  8
INCISIONI
100
AcDbLine
 62
250
  6
CONTINUOUS
 10
-6.0536742989
 20
-7.276321
 11
-6.0536742989
 21
-7.856372
  0
LINE
  5
3A8
100
AcDbEntity
  8
INCISIONI
100
AcDbLine
 62
250
  6
CONTINUOUS
 10
-6.0536672999
 20
-16.0
 11
-6.0536672999
 21
-15.419971
  0
LINE
  5
3A9
100
AcDbEntity
  8
INCISIONI
100
AcDbLine
 62
250
  6
CONTINUOUS
 10
-6.0536672999
 20
-14.137714
 11
-6.0536672999
 21
-13.557685
  0
LINE
  5
3AA
100
AcDbEntity
  8
INCISIONI
100
AcDbLine
 62
250
  6
CONTINUOUS
 10
-6.0536672999
 20
-13.171006
 11
-6.0536672999
 21
-12.590985
  0
LINE
  5
3AB
100
AcDbEntity
  8
INCISIONI
100
AcDbLine
 62
250
  6
CONTINUOUS
 10
-6.0536672999
 20
-12.010985
 11
-6.0536672999
 21
-11.134148
  0
LINE
  5
3AC
100
AcDbEntity
  8
INCISIONI
100
AcDbLine
 62
250
  6
CONTINUOUS
 10
-6.0536672999
 20
-10.051012
 11
-6.0536672999
 21
-9.174176
  0
LINE
  5
3AD
100
AcDbEntity
  8
INCISIONI
100
AcDbLine
 62
250
  6
CONTINUOUS
 10
-6.0532673609
 20
4.037094
 11
-6.0532673609
 21
6.086013
  0
LINE
  5
3AE
100
AcDbEntity
  8
INCISIONI
100
AcDbLine
 62
250
  6
CONTINUOUS
 10
-6.0532673609
 20
6.720338
 11
-6.0532673609
 21
7.238107
  0
LINE
  5
3AF
100
AcDbEntity
  8
INCISIONI
100
AcDbLine
 62
250
  6
CONTINUOUS
 10
-6.0532673609
 20
7.853838
 11
-6.0532673609
 21
8.371585
  0
LINE
  5
3B0
100
AcDbEntity
  8
INCISIONI
100
AcDbLine
 62
250
  6
CONTINUOUS
 10
-6.0532673609
 20
9.656836
 11
-6.0532673609
 21
10.35105
  0
LINE
  5
3B1
100
AcDbEntity
  8
INCISIONI
100
AcDbLine
 62
250
  6
CONTINUOUS
 10
-6.0532673609
 20
13.66021
 11
-6.0532673609
 21
14.166101
  0
LINE
  5
3B2
100
AcDbEntity
  8
INCISIONI
100
AcDbLine
 62
250
  6
CONTINUOUS
 10
-6.0532673609
 20
15.503009
 11
-6.0532673609
 21
16.001437
  0
LINE
  5
3B3
100
AcDbEntity
  8
INCISIONI
100
AcDbLine
 62
250
  6
CONTINUOUS
 10
-5.5932174394
 20
6.086013
 11
-5.5932234385
 21
4.554832
  0
LINE
  5
3B4
100
AcDbEntity
  8
INCISIONI
100
AcDbLine
 62
250
  6
CONTINUOUS
 10
-5.5172340138
 20
-5.386478
 11
-5.5172340138
 21
-4.680795
  0
LINE
  5
3B5
100
AcDbEntity
  8
INCISIONI
100
AcDbLine
 62
250
  6
CONTINUOUS
 10
-4.8724632304
 20
4.554832
 11
-4.872453232
 21
5.982127
  0
LINE
  5
3B6
100
AcDbEntity
  8
INCISIONI
100
AcDbLine
 62
250
  6
CONTINUOUS
 10
-4.8116124997
 20
-4.680795
 11
-4.8116124997
 21
-5.386471
  0
LINE
  5
3B7
100
AcDbEntity
  8
INCISIONI
100
AcDbLine
 62
250
  6
CONTINUOUS
 10
-4.412393312
 20
5.982127
 11
-4.4123833135
 21
4.554832
  0
LINE
  5
3B8
100
AcDbEntity
  8
INCISIONI
100
AcDbLine
 62
250
  6
CONTINUOUS
 10
-4.2751652157
 20
-7.285246
 11
-4.2751652157
 21
-7.84744
  0
LINE
  5
3B9
100
AcDbEntity
  8
INCISIONI
100
AcDbLine
 62
250
  6
CONTINUOUS
 10
-4.2751722146
 20
-5.378409
 11
-4.2751652157
 21
-4.872178
  0
LINE
  5
3BA
100
AcDbEntity
  8
INCISIONI
100
AcDbLine
 62
250
  6
CONTINUOUS
 10
-3.724227139
 20
-8.024362
 11
-3.724227139
 21
-7.108317
  0
LINE
  5
3BB
100
AcDbEntity
  8
0
100
AcDbLine
 62
7
  6
CONTINUOUS
 10
-3.653971005
 20
-23.4413184673
 11
-3.653971005
 21
-22.8586815327
  0
LINE
  5
3BC
100
AcDbEntity
  8
0
100
AcDbLine
 62
7
  6
CONTINUOUS
 10
-3.653971005
 20
22.8586815327
 11
-3.653971005
 21
23.4413184673
  0
LINE
  5
3BD
100
AcDbEntity
  8
INCISIONI
100
AcDbLine
 62
250
  6
CONTINUOUS
 10
-3.6146488309
 20
4.554832
 11
-3.6146648284
 21
6.097666
  0
LINE
  5
3BE
100
AcDbEntity
  8
0
100
AcDbLine
 62
250
  6
CONTINUOUS
 10
-3.6043780342
 20
23.9538922731
 11
-3.6043780342
 21
22.356077753
  0
LINE
  5
3BF
100
AcDbEntity
  8
0
100
AcDbLine
 62
250
  6
CONTINUOUS
 10
-3.6043780342
 20
-22.356077753
 11
-3.6043780342
 21
-23.9538922731
  0
LINE
  5
3C0
100
AcDbEntity
  8
INCISIONI
100
AcDbLine
 62
250
  6
CONTINUOUS
 10
-3.1546149069
 20
16.001437
 11
-3.1546149069
 21
15.484078
  0
LINE
  5
3C1
100
AcDbEntity
  8
INCISIONI
100
AcDbLine
 62
250
  6
CONTINUOUS
 10
-3.1546149069
 20
14.158632
 11
-3.1546149069
 21
13.66021
  0
LINE
  5
3C2
100
AcDbEntity
  8
INCISIONI
100
AcDbLine
 62
250
  6
CONTINUOUS
 10
-3.1546149069
 20
10.357884
 11
-3.1546149069
 21
9.706581
  0
LINE
  5
3C3
100
AcDbEntity
  8
INCISIONI
100
AcDbLine
 62
250
  6
CONTINUOUS
 10
-3.1546149069
 20
8.371585
 11
-3.1546149069
 21
7.853838
  0
LINE
  5
3C4
100
AcDbEntity
  8
INCISIONI
100
AcDbLine
 62
250
  6
CONTINUOUS
 10
-3.1546149069
 20
7.238107
 11
-3.1546149069
 21
6.720338
  0
LINE
  5
3C5
100
AcDbEntity
  8
INCISIONI
100
AcDbLine
 62
250
  6
CONTINUOUS
 10
-3.1546149069
 20
6.097666
 11
-3.1546149069
 21
4.037094
  0
LINE
  5
3C6
100
AcDbEntity
  8
INCISIONI
100
AcDbLine
 62
250
  6
CONTINUOUS
 10
-3.1539780039
 20
-14.488824
 11
-3.153971005
 21
-15.068868
  0
LINE
  5
3C7
100
AcDbEntity
  8
INCISIONI
100
AcDbLine
 62
250
  6
CONTINUOUS
 10
-3.1539780039
 20
-12.590992
 11
-3.153971005
 21
-13.171014
  0
LINE
  5
3C8
100
AcDbEntity
  8
INCISIONI
100
AcDbLine
 62
250
  6
CONTINUOUS
 10
-3.1539860027
 20
-10.30258
 11
-3.1539780039
 21
-10.882587
  0
LINE
  5
3C9
100
AcDbEntity
  8
INCISIONI
100
AcDbLine
 62
250
  6
CONTINUOUS
 10
-3.1539780039
 20
-8.787497
 11
-3.1539860027
 21
-8.207475
  0
LINE
  5
3CA
100
AcDbEntity
  8
INCISIONI
100
AcDbLine
 62
250
  6
CONTINUOUS
 10
-3.1539860027
 20
-4.290924
 11
-3.1539930017
 21
-3.637619
  0
LINE
  5
3CB
100
AcDbEntity
  8
INCISIONI
100
AcDbLine
 62
250
  6
CONTINUOUS
 10
-3.1539860027
 20
-5.958503
 11
-3.1539860027
 21
-5.378474
  0
LINE
  5
3CC
100
AcDbEntity
  8
INCISIONI
100
AcDbLine
 62
250
  6
CONTINUOUS
 10
-3.1539780039
 20
-9.174176
 11
-3.1539780039
 21
-9.754197
  0
LINE
  5
3CD
100
AcDbEntity
  8
INCISIONI
100
AcDbLine
 62
250
  6
CONTINUOUS
 10
-3.1539780039
 20
-11.430963
 11
-3.1539780039
 21
-12.010985
  0
LINE
  5
3CE
100
AcDbEntity
  8
0
100
AcDbLine
 62
7
  6
CONTINUOUS
 10
-3.153971005
 20
23.4563578147
 11
-3.153971005
 21
22.3534573615
  0
LINE
  5
3CF
100
AcDbEntity
  8
0
100
AcDbLine
 62
7
  6
CONTINUOUS
 10
-3.153971005
 20
-22.3534573615
 11
-3.153971005
 21
-23.4563578147
  0
LINE
  5
3D0
100
AcDbEntity
  8
INCISIONI
100
AcDbLine
 62
250
  6
CONTINUOUS
 10
-3.1539860027
 20
-6.925211
 11
-3.1539780039
 21
-6.345182
  0
LINE
  5
3D1
100
AcDbEntity
  8
INCISIONI
100
AcDbLine
 62
250
  6
CONTINUOUS
 10
2.846028995
 20
10.455181
 11
1.5464249574
 21
9.423056
  0
LINE
  5
3D2
100
AcDbEntity
  8
INCISIONI
100
AcDbLine
 62
250
  6
CONTINUOUS
 10
2.846028995
 20
5.740224
 11
1.5464249574
 21
5.16989
  0
LINE
  5
3D3
100
AcDbEntity
  8
INCISIONI
100
AcDbLine
 62
250
  6
CONTINUOUS
 10
10.3751760963
 20
-6.5
 11
11.189337799
 21
-6.5
  0
LINE
  5
3D4
100
AcDbEntity
  8
INCISIONI
100
AcDbLine
 62
250
  6
CONTINUOUS
 10
-6.0536742989
 20
-5.958503
 11
-3.1539860027
 21
-5.958503
  0
LINE
  5
3D5
100
AcDbEntity
  8
INCISIONI
100
AcDbLine
 62
250
  6
CONTINUOUS
 10
-4.8116124997
 20
-5.386471
 11
-5.5172340138
 21
-5.386478
  0
LINE
  5
3D6
100
AcDbEntity
  8
INCISIONI
100
AcDbLine
 62
250
  6
CONTINUOUS
 10
-3.1539860027
 20
-5.378474
 11
-4.2751722146
 21
-5.378409
  0
LINE
  5
3D7
100
AcDbEntity
  8
INCISIONI
100
AcDbLine
 62
250
  6
CONTINUOUS
 10
10.3751760963
 20
-16.0
 11
9.8324016656
 21
-15.4571428329
  0
LINE
  5
3D8
100
AcDbEntity
  8
INCISIONI
100
AcDbLine
 62
250
  6
CONTINUOUS
 10
-1.653971005
 20
12.864285779
 11
-1.653971005
 21
12.4571428895
  0
LINE
  5
3D9
100
AcDbEntity
  8
INCISIONI
100
AcDbLine
 62
250
  6
CONTINUOUS
 10
-1.653971005
 20
9.8785714447
 11
-1.653971005
 21
9.4714285836
  0
LINE
  5
3DA
100
AcDbEntity
  8
INCISIONI
100
AcDbLine
 62
250
  6
CONTINUOUS
 10
-1.653971005
 20
11.1
 11
-1.653971005
 21
11.235714221
  0
LINE
  5
3DB
100
AcDbEntity
  8
INCISIONI
100
AcDbLine
 62
250
  6
CONTINUOUS
 10
-1.653971005
 20
13.678571558
 11
-1.653971005
 21
14.221428442
  0
LINE
  5
3DC
100
AcDbEntity
  8
INCISIONI
100
AcDbLine
 62
250
  6
CONTINUOUS
 10
-0.8396853393
 20
13.95
 11
-0.8396853393
 21
14.221428442
  0
LWPOLYLINE
  5
3DD
100
AcDbEntity
  8
0
100
AcDbPolyline
 62
7
  6
CONTINUOUS
 90
4
 70
0
 43
0.3500000087
 10
-0.761113838
 20
41.2529362305
 10
-0.761113838
 20
42.1100780975
 10
-0.3325424382
 20
42.5386511627
 10
0.3103146949
 20
42.5386511627
  0
LINE
  5
3DE
100
AcDbEntity
  8
INCISIONI
100
AcDbLine
 62
250
  6
CONTINUOUS
 10
-0.1611138662
 20
15.985714221
 11
-0.1611138662
 21
15.035714221
  0
LINE
  5
3DF
100
AcDbEntity
  8
INCISIONI
100
AcDbLine
 62
250
  6
CONTINUOUS
 10
0.246028995
 20
14.357142663
 11
0.246028995
 21
13.678571558
  0
LINE
  5
3E0
100
AcDbEntity
  8
INCISIONI
100
AcDbLine
 62
250
  6
CONTINUOUS
 10
0.246028995
 20
13.135714221
 11
0.246028995
 21
12.185714221
  0
LINE
  5
3E1
100
AcDbEntity
  8
INCISIONI
100
AcDbLine
 62
250
  6
CONTINUOUS
 10
0.246028995
 20
11.235714221
 11
0.246028995
 21
11.1
  0
LINE
  5
3E2
100
AcDbEntity
  8
INCISIONI
100
AcDbLine
 62
250
  6
CONTINUOUS
 10
0.246028995
 20
10.15
 11
0.246028995
 21
9.2
  0
LINE
  5
3E3
100
AcDbEntity
  8
0
100
AcDbLine
 62
250
  6
CONTINUOUS
 10
8.8643191013
 20
12.321428597
 11
9.2928252755
 21
12.75
  0
LINE
  5
3E4
100
AcDbEntity
  8
0
100
AcDbLine
 62
250
  6
CONTINUOUS
 10
9.8284579374
 20
12.5357142985
 11
10.0427110022
 21
12.75
  0
LINE
  5
3E5
100
AcDbEntity
  8
0
100
AcDbLine
 62
250
  6
CONTINUOUS
 10
10.364090644
 20
11.4642857239
 11
10.1498375792
 21
11.25
  0
LINE
  5
3E6
100
AcDbEntity
  8
INCISIONI
100
AcDbLine
 62
250
  6
CONTINUOUS
 10
2.846028995
 20
3.802869
 11
1.5464249574
 21
3.18
  0
LINE
  5
3E7
100
AcDbEntity
  8
INCISIONI
100
AcDbLine
 62
250
  6
CONTINUOUS
 10
11.7321122864
 20
-5.414285326
 11
9.8324016656
 21
-4.871428442
  0
LINE
  5
3E8
100
AcDbEntity
  8
INCISIONI
100
AcDbLine
 62
250
  6
CONTINUOUS
 10
10.3751760963
 20
-7.45
 11
10.1037888809
 21
-7.314285326
  0
LINE
  5
3E9
100
AcDbEntity
  8
INCISIONI
100
AcDbLine
 62
250
  6
CONTINUOUS
 10
11.189337799
 20
-6.5
 11
11.4607250427
 21
-6.635714674
  0
LINE
  5
3EA
100
AcDbEntity
  8
INCISIONI
100
AcDbLine
 62
250
  6
CONTINUOUS
 10
9.8324016656
 20
-10.028571558
 11
10.2394825452
 21
-10.3
  0
LINE
  5
3EB
100
AcDbEntity
  8
INCISIONI
100
AcDbLine
 62
250
  6
CONTINUOUS
 10
11.7321122864
 20
-10.3
 11
10.3751760963
 21
-9.35
  0
LINE
  5
3EC
100
AcDbEntity
  8
INCISIONI
100
AcDbLine
 62
250
  6
CONTINUOUS
 10
9.8324016656
 20
-14.2357143342
 11
10.2394825452
 21
-14.6428571105
  0
LINE
  5
3ED
100
AcDbEntity
  8
INCISIONI
100
AcDbLine
 62
250
  6
CONTINUOUS
 10
11.7321122864
 20
-14.2357143342
 11
11.4607250427
 21
-13.964285779
  0
LINE
  5
3EE
100
AcDbEntity
  8
0
100
AcDbLine
 62
250
  6
CONTINUOUS
 10
0.8547551982
 20
-21.5921580307
 11
0.8547551982
 21
-20.9576420824
  0
LINE
  5
3EF
100
AcDbEntity
  8
0
100
AcDbLine
 62
250
  6
CONTINUOUS
 10
0.8547551982
 20
20.9576420824
 11
0.8547551982
 21
21.5921580307
  0
LINE
  5
3F0
100
AcDbEntity
  8
RACCORDO
100
AcDbLine
 62
7
  6
CONTINUOUS
 10
1.346028995
 20
-20.85
 11
1.346028995
 21
-19.3181305591
  0
LINE
  5
3F1
100
AcDbEntity
  8
ASSI
100
AcDbLine
 62
7
  6
CONTINUOUS
 10
1.346028995
 20
-20.85
 11
1.346028995
 21
-19.3181305591
  0
LINE
  5
3F2
100
AcDbEntity
  8
0
100
AcDbLine
 62
7
  6
CONTINUOUS
 10
1.346028995
 20
-20.85
 11
1.346028995
 21
-21.3330780337
  0
LINE
  5
3F3
100
AcDbEntity
  8
RACCORDO
100
AcDbLine
 62
7
  6
CONTINUOUS
 10
1.346028995
 20
19.3181305591
 11
1.346028995
 21
20.85
  0
LINE
  5
3F4
100
AcDbEntity
  8
ASSI
100
AcDbLine
 62
7
  6
CONTINUOUS
 10
1.346028995
 20
19.3181305591
 11
1.346028995
 21
20.85
  0
LINE
  5
3F5
100
AcDbEntity
  8
0
100
AcDbLine
 62
7
  6
CONTINUOUS
 10
1.346028995
 20
20.85
 11
1.346028995
 21
21.3330780337
  0
LINE
  5
3F6
100
AcDbEntity
  8
INCISIONI
100
AcDbLine
 62
250
  6
CONTINUOUS
 10
1.5464249574
 20
8.173742
 11
1.5464249574
 21
7.226755
  0
LINE
  5
3F7
100
AcDbEntity
  8
INCISIONI
100
AcDbLine
 62
250
  6
CONTINUOUS
 10
1.5464249574
 20
6.340243
 11
1.5464249574
 21
5.910407
  0
LINE
  5
3F8
100
AcDbEntity
  8
INCISIONI
100
AcDbLine
 62
250
  6
CONTINUOUS
 10
1.5464249574
 20
11.624855
 11
1.5464249574
 21
12.680447
  0
LINE
  5
3F9
100
AcDbEntity
  8
INCISIONI
100
AcDbLine
 62
250
  6
CONTINUOUS
 10
2.1962269762
 20
7.226755
 11
2.1962269762
 21
8.107346
  0
LINE
  5
3FA
100
AcDbEntity
  8
INCISIONI
100
AcDbLine
 62
250
  6
CONTINUOUS
 10
2.3743317114
 20
12.956284
 11
2.3743317114
 21
13.682941
  0
LINE
  5
3FB
100
AcDbEntity
  8
INCISIONI
100
AcDbLine
 62
250
  6
CONTINUOUS
 10
2.381770445
 20
4.803298
 11
2.381770445
 21
5.536483
  0
LINE
  5
3FC
100
AcDbEntity
  8
INCISIONI
100
AcDbLine
 62
250
  6
CONTINUOUS
 10
2.846028995
 20
5.910407
 11
2.846028995
 21
6.340243
  0
LINE
  5
3FD
100
AcDbEntity
  8
INCISIONI
100
AcDbLine
 62
250
  6
CONTINUOUS
 10
2.846028995
 20
7.226755
 11
2.846028995
 21
8.186432
  0
LINE
  5
3FE
100
AcDbEntity
  8
INCISIONI
100
AcDbLine
 62
250
  6
CONTINUOUS
 10
2.846028995
 20
14.138918
 11
2.846028995
 21
14.885852
  0
LINE
  5
3FF
100
AcDbEntity
  8
0
100
AcDbLine
 62
250
  6
CONTINUOUS
 10
9.7213314497
 20
12.321428597
 11
9.8284579374
 21
12.5357142985
  0
LINE
  5
400
100
AcDbEntity
  8
INCISIONI
100
AcDbLine
 62
250
  6
CONTINUOUS
 10
-3.1539930017
 20
-3.637619
 11
-4.3449089248
 21
-4.2550232093
  0
LINE
  5
401
100
AcDbEntity
  8
INCISIONI
100
AcDbLine
 62
250
  6
CONTINUOUS
 10
-4.2751652157
 20
-4.872178
 11
-3.1539860027
 21
-4.290924
  0
LINE
  5
402
100
AcDbEntity
  8
INCISIONI
100
AcDbLine
 62
250
  6
CONTINUOUS
 10
1.5464249574
 20
3.18
 11
2.846028995
 21
3.18
  0
LINE
  5
403
100
AcDbEntity
  8
INCISIONI
100
AcDbLine
 62
250
  6
CONTINUOUS
 10
-3.1546149069
 20
4.037094
 11
-6.0532673609
 21
4.037094
  0
LINE
  5
404
100
AcDbEntity
  8
INCISIONI
100
AcDbLine
 62
250
  6
CONTINUOUS
 10
10.1037888809
 20
-7.314285326
 11
9.8324016656
 21
-7.042856884
  0
LINE
  5
405
100
AcDbEntity
  8
INCISIONI
100
AcDbLine
 62
250
  6
CONTINUOUS
 10
11.7321122864
 20
-8.264285326
 11
11.4607250427
 21
-7.992856884
  0
LINE
  5
406
100
AcDbEntity
  8
INCISIONI
100
AcDbLine
 62
250
  6
CONTINUOUS
 10
11.4607250427
 20
-6.635714674
 11
11.7321122864
 21
-6.907143116
  0
LINE
  5
407
100
AcDbEntity
  8
INCISIONI
100
AcDbLine
 62
250
  6
CONTINUOUS
 10
-4.7894498757
 20
8.371575
 11
-6.0532673609
 21
9.656836
  0
LINE
  5
408
100
AcDbEntity
  8
INCISIONI
100
AcDbLine
 62
250
  6
CONTINUOUS
 10
-6.0532673609
 20
10.35105
 11
-4.8604990529
 21
9.10422
  0
LINE
  5
409
100
AcDbEntity
  8
INCISIONI
100
AcDbLine
 62
250
  6
CONTINUOUS
 10
-4.504438291
 20
8.741819
 11
-4.1591948812
 21
8.371575
  0
LWPOLYLINE
  5
40A
100
AcDbEntity
  8
0
100
AcDbPolyline
 62
7
  6
CONTINUOUS
 90
4
 70
0
 43
0.3500000087
 10
4.8460292038
 20
34.3450764832
 10
4.8460292038
 20
34.9879318176
 10
6.3460290699
 20
34.9879318176
 10
5.488886137
 20
31.9879331512
  0
LINE
  5
40B
100
AcDbEntity
  8
0
100
AcDbLine
 62
250
  6
CONTINUOUS
 10
6.3646998634
 20
11.0
 11
6.3646998634
 21
13.0
  0
LINE
  5
40C
100
AcDbEntity
  8
0
100
AcDbLine
 62
250
  6
CONTINUOUS
 10
10.4712171317
 20
11.6785714477
 11
10.364090644
 21
11.4642857239
  0
LINE
  5
40D
100
AcDbEntity
  8
INCISIONI
100
AcDbLine
 62
250
  6
CONTINUOUS
 10
-3.1539780039
 20
-6.345182
 11
-6.0536742989
 21
-7.276321
  0
LINE
  5
40E
100
AcDbEntity
  8
INCISIONI
100
AcDbLine
 62
250
  6
CONTINUOUS
 10
-5.1505708669
 20
-7.56635
 11
-4.2751652157
 21
-7.285246
  0
LINE
  5
40F
100
AcDbEntity
  8
INCISIONI
100
AcDbLine
 62
250
  6
CONTINUOUS
 10
-3.724227139
 20
-7.108317
 11
-3.1539860027
 21
-6.925211
  0
LINE
  5
410
100
AcDbEntity
  8
DRAFT
100
AcDbLine
 62
7
  6
CONTINUOUS
 10
16.6198822722
 20
8.9239590572
 11
18.0721757178
 21
9.0510182698
  0
LINE
  5
411
100
AcDbEntity
  8
ASSI
100
AcDbLine
 62
7
  6
CONTINUOUS
 10
16.6198822722
 20
8.9239590572
 11
18.0721757178
 21
9.0510182698
  0
LINE
  5
412
100
AcDbEntity
  8
INCISIONI
100
AcDbLine
 62
250
  6
CONTINUOUS
 10
2.846028995
 20
4.425736
 11
1.5464249574
 21
4.425736
  0
LINE
  5
413
100
AcDbEntity
  8
INCISIONI
100
AcDbLine
 62
250
  6
CONTINUOUS
 10
-5.5932234385
 20
4.554832
 11
-4.8724632304
 21
4.554832
  0
LINE
  5
414
100
AcDbEntity
  8
INCISIONI
100
AcDbLine
 62
250
  6
CONTINUOUS
 10
-4.4123833135
 20
4.554832
 11
-3.6146488309
 21
4.554832
  0
LINE
  5
415
100
AcDbEntity
  8
INCISIONI
100
AcDbLine
 62
250
  6
CONTINUOUS
 10
1.5464249574
 20
5.910407
 11
2.846028995
 21
5.910407
  0
LINE
  5
416
100
AcDbEntity
  8
INCISIONI
100
AcDbLine
 62
250
  6
CONTINUOUS
 10
-4.872453232
 20
5.982127
 11
-4.412393312
 21
5.982127
  0
LINE
  5
417
100
AcDbEntity
  8
INCISIONI
100
AcDbLine
 62
250
  6
CONTINUOUS
 10
-6.0532673609
 20
6.086013
 11
-5.5932174394
 21
6.086013
  0
LINE
  5
418
100
AcDbEntity
  8
INCISIONI
100
AcDbLine
 62
250
  6
CONTINUOUS
 10
-3.6146648284
 20
6.097666
 11
-3.1546149069
 21
6.097666
  0
LINE
  5
419
100
AcDbEntity
  8
INCISIONI
100
AcDbLine
 62
250
  6
CONTINUOUS
 10
-3.1546149069
 20
6.720338
 11
-6.0532673609
 21
6.720338
  0
LINE
  5
41A
100
AcDbEntity
  8
INCISIONI
100
AcDbLine
 62
250
  6
CONTINUOUS
 10
1.5464249574
 20
7.226755
 11
2.846028995
 21
7.226755
  0
LINE
  5
41B
100
AcDbEntity
  8
INCISIONI
100
AcDbLine
 62
250
  6
CONTINUOUS
 10
-6.0532673609
 20
7.238107
 11
-3.1546149069
 21
7.238107
  0
LINE
  5
41C
100
AcDbEntity
  8
INCISIONI
100
AcDbLine
 62
250
  6
CONTINUOUS
 10
1.5464249574
 20
5.16989
 11
2.846028995
 21
4.599557
  0
LINE
  5
41D
100
AcDbEntity
  8
INCISIONI
100
AcDbLine
 62
250
  6
CONTINUOUS
 10
1.5464249574
 20
4.425736
 11
2.846028995
 21
3.802869
  0
LINE
  5
41E
100
AcDbEntity
  8
INCISIONI
100
AcDbLine
 62
250
  6
CONTINUOUS
 10
-1.653971005
 20
9.4714285836
 11
-1.2468281155
 21
9.2
  0
LINE
  5
41F
100
AcDbEntity
  8
INCISIONI
100
AcDbLine
 62
250
  6
CONTINUOUS
 10
0.246028995
 20
9.2
 11
-1.1111138945
 21
10.15
  0
LINE
  5
420
100
AcDbEntity
  8
INCISIONI
100
AcDbLine
 62
250
  6
CONTINUOUS
 10
-1.3825424498
 20
10.8285714447
 11
-1.653971005
 21
11.1
  0
LINE
  5
421
100
AcDbEntity
  8
INCISIONI
100
AcDbLine
 62
250
  6
CONTINUOUS
 10
-0.9753995603
 20
14.4476189613
 11
-0.8396853393
 21
14.221428442
  0
LINE
  5
422
100
AcDbEntity
  8
0
100
AcDbLine
 62
250
  6
CONTINUOUS
 10
8.8955644652
 20
-15.9875984252
 11
8.8955644652
 21
-14.9709324885
  0
LINE
  5
423
100
AcDbEntity
  8
0
100
AcDbLine
 62
250
  6
CONTINUOUS
 10
9.2928252755
 20
12.75
 11
9.2928252755
 21
11.25
  0
LINE
  5
424
100
AcDbEntity
  8
0
100
AcDbLine
 62
250
  6
CONTINUOUS
 10
9.7213314497
 20
11.6785714477
 11
9.7213314497
 21
12.321428597
  0
LINE
  5
425
100
AcDbEntity
  8
INCISIONI
100
AcDbLine
 62
250
  6
CONTINUOUS
 10
9.8324016656
 20
-9.621428442
 11
9.8324016656
 21
-10.028571558
  0
LINE
  5
426
100
AcDbEntity
  8
INCISIONI
100
AcDbLine
 62
250
  6
CONTINUOUS
 10
9.8324016656
 20
-8.807142663
 11
9.8324016656
 21
-7.992856884
  0
LINE
  5
427
100
AcDbEntity
  8
INCISIONI
100
AcDbLine
 62
250
  6
CONTINUOUS
 10
9.8324016656
 20
-7.042856884
 11
9.8324016656
 21
-6.907143116
  0
LINE
  5
428
100
AcDbEntity
  8
0
100
AcDbLine
 62
250
  6
CONTINUOUS
 10
10.4712171317
 20
12.321428597
 11
10.4712171317
 21
11.6785714477
  0
LINE
  5
429
100
AcDbEntity
  8
INCISIONI
100
AcDbLine
 62
250
  6
CONTINUOUS
 10
10.6465633117
 20
-8.264285326
 11
10.6465633117
 21
-8.807142663
  0
LINE
  5
42A
100
AcDbEntity
  8
INCISIONI
100
AcDbLine
 62
250
  6
CONTINUOUS
 10
10.6465633117
 20
-14.2357143342
 11
10.6465633117
 21
-14.8238094807
  0
LINE
  5
42B
100
AcDbEntity
  8
0
100
AcDbLine
 62
250
  6
CONTINUOUS
 10
10.8997232612
 20
11.25
 11
10.8997232612
 21
12.321428597
  0
LINE
  5
42C
100
AcDbEntity
  8
INCISIONI
100
AcDbLine
 62
250
  6
CONTINUOUS
 10
11.189337799
 20
-13.2404762983
 11
11.189337799
 21
-12.5166665912
  0
LINE
  5
42D
100
AcDbEntity
  8
INCISIONI
100
AcDbLine
 62
250
  6
CONTINUOUS
 10
11.0084129888
 20
-4.0119051933
 11
11.2798002324
 21
-3.65
  0
LINE
  5
42E
100
AcDbEntity
  8
INCISIONI
100
AcDbLine
 62
250
  6
CONTINUOUS
 10
10.1037888809
 20
-6.635714674
 11
10.3751760963
 21
-6.5
  0
LINE
  5
42F
100
AcDbEntity
  8
INCISIONI
100
AcDbLine
 62
250
  6
CONTINUOUS
 10
-6.0536672999
 20
-11.134148
 11
-4.1652859534
 21
-10.59258
  0
LINE
  5
430
100
AcDbEntity
  8
INCISIONI
100
AcDbLine
 62
250
  6
CONTINUOUS
 10
-3.1539780039
 20
-10.882587
 11
-5.0661287298
 21
-11.430963
  0
LINE
  5
431
100
AcDbEntity
  8
INCISIONI
100
AcDbLine
 62
250
  6
CONTINUOUS
 10
9.8324016656
 20
-5.957143116
 11
11.7321122864
 21
-5.414285326
  0
LINE
  5
432
100
AcDbEntity
  8
INCISIONI
100
AcDbLine
 62
250
  6
CONTINUOUS
 10
-3.1546149069
 20
7.853838
 11
-6.0532673609
 21
7.853838
  0
LINE
  5
433
100
AcDbEntity
  8
INCISIONI
100
AcDbLine
 62
250
  6
CONTINUOUS
 10
-6.0532673609
 20
8.371585
 11
-4.7894498757
 21
8.371575
  0
LINE
  5
434
100
AcDbEntity
  8
INCISIONI
100
AcDbLine
 62
250
  6
CONTINUOUS
 10
-4.1591948812
 20
8.371575
 11
-3.1546149069
 21
8.371585
  0
LINE
  5
435
100
AcDbEntity
  8
INCISIONI
100
AcDbLine
 62
250
  6
CONTINUOUS
 10
1.5464249574
 20
9.034728
 11
2.846028995
 21
9.034728
  0
LINE
  5
436
100
AcDbEntity
  8
INCISIONI
100
AcDbLine
 62
250
  6
CONTINUOUS
 10
1.5464249574
 20
9.423056
 11
2.846028995
 21
9.423056
  0
LINE
  5
437
100
AcDbEntity
  8
INCISIONI
100
AcDbLine
 62
250
  6
CONTINUOUS
 10
-1.1111138945
 20
10.15
 11
-1.3825424498
 21
10.15
  0
LINE
  5
438
100
AcDbEntity
  8
INCISIONI
100
AcDbLine
 62
250
  6
CONTINUOUS
 10
1.5464249574
 20
10.455181
 11
2.846028995
 21
10.455181
  0
LINE
  5
439
100
AcDbEntity
  8
INCISIONI
100
AcDbLine
 62
250
  6
CONTINUOUS
 10
-0.2968281721
 20
10.6928571105
 11
-1.1111138945
 21
10.6928571105
  0
LINE
  5
43A
100
AcDbEntity
  8
0
100
AcDbLine
 62
250
  6
CONTINUOUS
 10
15.3634814014
 20
11.0
 11
6.3646998634
 21
11.0
  0
LINE
  5
43B
100
AcDbEntity
  8
0
100
AcDbLine
 62
250
  6
CONTINUOUS
 10
10.1498375792
 20
11.25
 11
10.0427110022
 21
11.25
  0
LINE
  5
43C
100
AcDbEntity
  8
INCISIONI
100
AcDbLine
 62
250
  6
CONTINUOUS
 10
1.5464249574
 20
11.348712
 11
2.846028995
 21
11.348712
  0
LINE
  5
43D
100
AcDbEntity
  8
0
100
AcDbLine
 62
250
  6
CONTINUOUS
 10
-19.0725293198
 20
9.4905
 11
-19.5637128584
 21
9.5
  0
LINE
  5
43E
100
AcDbEntity
  8
INCISIONI
100
AcDbLine
 62
250
  6
CONTINUOUS
 10
-1.1111138945
 20
10.6928571105
 11
-1.3825424498
 21
10.8285714447
  0
LINE
  5
43F
100
AcDbEntity
  8
INCISIONI
100
AcDbLine
 62
250
  6
CONTINUOUS
 10
-0.2968281721
 20
11.6428571105
 11
-0.0253995886
 21
11.5071428895
  0
LINE
  5
440
100
AcDbEntity
  8
INCISIONI
100
AcDbLine
 62
250
  6
CONTINUOUS
 10
-1.653971005
 20
12.4571428895
 11
-1.2468281155
 21
12.185714221
  0
LINE
  5
441
100
AcDbEntity
  8
INCISIONI
100
AcDbLine
 62
250
  6
CONTINUOUS
 10
0.246028995
 20
12.185714221
 11
-1.1111138945
 21
13.135714221
  0
LINE
  5
442
100
AcDbEntity
  8
INCISIONI
100
AcDbLine
 62
250
  6
CONTINUOUS
 10
-0.0253995886
 20
11.5071428895
 11
0.246028995
 21
11.235714221
  0
LINE
  5
443
100
AcDbEntity
  8
INCISIONI
100
AcDbLine
 62
250
  6
CONTINUOUS
 10
0.1103147032
 20
14.492857337
 11
0.246028995
 21
14.357142663
  0
LINE
  5
444
100
AcDbEntity
  8
INCISIONI
100
AcDbLine
 62
250
  6
CONTINUOUS
 10
11.1441065964
 20
-4.328571558
 11
11.0084129888
 21
-4.0119051933
  0
LINE
  5
445
100
AcDbEntity
  8
INCISIONI
100
AcDbLine
 62
250
  6
CONTINUOUS
 10
11.2798002324
 20
-3.65
 11
11.1441065964
 21
-3.2880948067
  0
LINE
  5
446
100
AcDbEntity
  8
0
100
AcDbLine
 62
250
  6
CONTINUOUS
 10
11.3639382796
 20
12.321428597
 11
11.3639382796
 21
11.25
  0
LINE
  5
447
100
AcDbEntity
  8
INCISIONI
100
AcDbLine
 62
250
  6
CONTINUOUS
 10
11.7321122864
 20
-14.6428571105
 11
11.7321122864
 21
-14.2357143342
  0
LINE
  5
448
100
AcDbEntity
  8
INCISIONI
100
AcDbLine
 62
250
  6
CONTINUOUS
 10
11.7321122864
 20
-6.907143116
 11
11.7321122864
 21
-7.042856884
  0
LINE
  5
449
100
AcDbEntity
  8
INCISIONI
100
AcDbLine
 62
250
  6
CONTINUOUS
 10
11.7321122864
 20
-9.35
 11
11.7321122864
 21
-10.3
  0
LINE
  5
44A
100
AcDbEntity
  8
INCISIONI
100
AcDbLine
 62
250
  6
CONTINUOUS
 10
11.7321122864
 20
-8.807142663
 11
11.7321122864
 21
-8.264285326
  0
LINE
  5
44B
100
AcDbEntity
  8
0
100
AcDbLine
 62
250
  6
CONTINUOUS
 10
11.8638621867
 20
12.2142857015
 11
11.8638621867
 21
11.25
  0
LINE
  5
44C
100
AcDbEntity
  8
0
100
AcDbLine
 62
250
  6
CONTINUOUS
 10
12.2923684951
 20
11.25
 11
12.2923684951
 21
12.321428597
  0
LINE
  5
44D
100
AcDbEntity
  8
0
100
AcDbLine
 62
250
  6
CONTINUOUS
 10
12.7565835134
 20
12.321428597
 11
12.7565835134
 21
11.25
  0
LINE
  5
44E
100
AcDbEntity
  8
0
100
AcDbLine
 62
250
  6
CONTINUOUS
 10
13.2565072418
 20
12.2142857015
 11
13.2565072418
 21
11.25
  0
LINE
  5
44F
100
AcDbEntity
  8
INCISIONI
100
AcDbLine
 62
250
  6
CONTINUOUS
 10
9.8324016656
 20
-6.907143116
 11
10.1037888809
 21
-6.635714674
  0
LINE
  5
450
100
AcDbEntity
  8
INCISIONI
100
AcDbLine
 62
250
  6
CONTINUOUS
 10
11.7321122864
 20
-7.042856884
 11
11.4607250427
 21
-7.314285326
  0
LINE
  5
451
100
AcDbEntity
  8
INCISIONI
100
AcDbLine
 62
250
  6
CONTINUOUS
 10
10.9179505836
 20
-7.992856884
 11
10.6465633117
 21
-8.264285326
  0
LINE
  5
452
100
AcDbEntity
  8
INCISIONI
100
AcDbLine
 62
250
  6
CONTINUOUS
 10
10.1037888809
 20
-9.35
 11
9.8324016656
 21
-9.621428442
  0
LINE
  5
453
100
AcDbEntity
  8
0
100
AcDbLine
 62
7
  6
CONTINUOUS
 10
-12.653971005
 20
-23.1226497308
 11
-13.528971005
 21
-23.6278312164
  0
LINE
  5
454
100
AcDbEntity
  8
0
100
AcDbLine
 62
250
  6
CONTINUOUS
 10
-12.4054254378
 20
-23.2669872981
 11
-13.4054254378
 21
-23.8443375673
  0
LINE
  5
455
100
AcDbEntity
  8
INCISIONI
100
AcDbLine
 62
250
  6
CONTINUOUS
 10
11.4607250427
 20
-7.314285326
 11
11.189337799
 21
-7.45
  0
LINE
  5
456
100
AcDbEntity
  8
INCISIONI
100
AcDbLine
 62
250
  6
CONTINUOUS
 10
-6.0536672999
 20
-15.419971
 11
-4.057074437
 21
-14.778839
  0
LINE
  5
457
100
AcDbEntity
  8
INCISIONI
100
AcDbLine
 62
250
  6
CONTINUOUS
 10
-3.153971005
 20
-15.068868
 11
-6.0536672999
 21
-16.0
  0
LINE
  5
458
100
AcDbEntity
  8
INCISIONI
100
AcDbLine
 62
250
  6
CONTINUOUS
 10
-1.1111138945
 20
11.6428571105
 11
-0.2968281721
 21
11.6428571105
  0
LINE
  5
459
100
AcDbEntity
  8
INCISIONI
100
AcDbLine
 62
250
  6
CONTINUOUS
 10
2.846028995
 20
12.152652
 11
1.5464249574
 21
12.152652
  0
LINE
  5
45A
100
AcDbEntity
  8
0
100
AcDbLine
 62
250
  6
CONTINUOUS
 10
10.8997232612
 20
12.321428597
 11
11.7567356991
 21
12.321428597
  0
LINE
  5
45B
100
AcDbEntity
  8
0
100
AcDbLine
 62
250
  6
CONTINUOUS
 10
12.2923684951
 20
12.321428597
 11
13.1493807541
 21
12.321428597
  0
LINE
  5
45C
100
AcDbEntity
  8
0
100
AcDbLine
 62
250
  6
CONTINUOUS
 10
10.0427110022
 20
12.75
 11
10.1498375792
 21
12.75
  0
LINE
  5
45D
100
AcDbEntity
  8
0
100
AcDbLine
 62
250
  6
CONTINUOUS
 10
6.3646998634
 20
13.0
 11
15.3634814014
 21
13.0
  0
LINE
  5
45E
100
AcDbEntity
  8
INCISIONI
100
AcDbLine
 62
250
  6
CONTINUOUS
 10
-1.1111138945
 20
13.135714221
 11
-1.3825424498
 21
13.135714221
  0
LINE
  5
45F
100
AcDbEntity
  8
INCISIONI
100
AcDbLine
 62
250
  6
CONTINUOUS
 10
-3.1546149069
 20
13.66021
 11
-6.0532673609
 21
13.66021
  0
LINE
  5
460
100
AcDbEntity
  8
INCISIONI
100
AcDbLine
 62
250
  6
CONTINUOUS
 10
1.5464249574
 20
14.138918
 11
2.846028995
 21
14.138918
  0
LINE
  5
461
100
AcDbEntity
  8
INCISIONI
100
AcDbLine
 62
250
  6
CONTINUOUS
 10
-1.3825424498
 20
14.4476189613
 11
-0.9753995603
 21
14.4476189613
  0
LINE
  5
462
100
AcDbEntity
  8
INCISIONI
100
AcDbLine
 62
250
  6
CONTINUOUS
 10
-0.5682567274
 20
14.492857337
 11
0.1103147032
 21
14.492857337
  0
LINE
  5
463
100
AcDbEntity
  8
INCISIONI
100
AcDbLine
 62
250
  6
CONTINUOUS
 10
-5.1795324552
 20
14.165656
 11
-3.1546149069
 21
14.158632
  0
LINE
  5
464
100
AcDbEntity
  8
INCISIONI
100
AcDbLine
 62
250
  6
CONTINUOUS
 10
-0.1611138662
 20
15.035714221
 11
-1.653971005
 21
15.442857337
  0
LINE
  5
465
100
AcDbEntity
  8
INCISIONI
100
AcDbLine
 62
250
  6
CONTINUOUS
 10
1.5464249574
 20
13.319613
 11
2.846028995
 21
12.749279
  0
LINE
  5
466
100
AcDbEntity
  8
0
100
AcDbLine
 62
7
  6
CONTINUOUS
 10
-13.528971005
 20
23.6278312164
 11
-12.653971005
 21
23.1226497308
  0
LINE
  5
467
100
AcDbEntity
  8
0
100
AcDbLine
 62
250
  6
CONTINUOUS
 10
-13.4054254378
 20
23.8443375673
 11
-12.4054254378
 21
23.2669872981
  0
LINE
  5
468
100
AcDbEntity
  8
INCISIONI
100
AcDbLine
 62
250
  6
CONTINUOUS
 10
2.3431472127
 20
15.523604
 11
1.5464249574
 21
15.999343
  0
LINE
  5
469
100
AcDbEntity
  8
0
100
AcDbLine
 62
250
  6
CONTINUOUS
 10
9.8284579374
 20
11.4642857239
 11
9.7213314497
 21
11.6785714477
  0
LINE
  5
46A
100
AcDbEntity
  8
0
100
AcDbLine
 62
250
  6
CONTINUOUS
 10
10.364090644
 20
12.5357142985
 11
10.4712171317
 21
12.321428597
  0
LINE
  5
46B
100
AcDbEntity
  8
RACCORDO
100
AcDbLine
 62
250
  6
CONTINUOUS
 10
15.3634814014
 20
-19.0734550172
 11
15.3634814014
 21
-18.9120480454
  0
LINE
  5
46C
100
AcDbEntity
  8
ASSI
100
AcDbLine
 62
250
  6
CONTINUOUS
 10
15.3634814014
 20
-19.0734550172
 11
15.3634814014
 21
-18.9120480454
  0
LINE
  5
46D
100
AcDbEntity
  8
RACCORDO
100
AcDbLine
 62
250
  6
CONTINUOUS
 10
15.3634814014
 20
-17.4980498746
 11
15.3634814014
 21
17.4980498746
  0
LINE
  5
46E
100
AcDbEntity
  8
ASSI
100
AcDbLine
 62
250
  6
CONTINUOUS
 10
15.3634814014
 20
-17.4980498746
 11
15.3634814014
 21
17.4980498746
  0
LINE
  5
46F
100
AcDbEntity
  8
RACCORDO
100
AcDbLine
 62
250
  6
CONTINUOUS
 10
15.3634814014
 20
18.9120480454
 11
15.3634814014
 21
19.0734550172
  0
LINE
  5
470
100
AcDbEntity
  8
ASSI
100
AcDbLine
 62
250
  6
CONTINUOUS
 10
15.3634814014
 20
18.9120480454
 11
15.3634814014
 21
19.0734550172
  0
LINE
  5
471
100
AcDbEntity
  8
0
100
AcDbLine
 62
7
  6
CONTINUOUS
 10
16.346028995
 20
18.20504896
 11
16.346028995
 21
17.7912732553
  0
LINE
  5
472
100
AcDbEntity
  8
0
100
AcDbLine
 62
7
  6
CONTINUOUS
 10
16.346028995
 20
-18.20504896
 11
16.346028995
 21
-17.7912732553
  0
LINE
  5
473
100
AcDbEntity
  8
RACCORDO
100
AcDbLine
 62
7
  6
CONTINUOUS
 10
16.346028995
 20
-18.3664559318
 11
16.346028995
 21
18.3664559318
  0
LINE
  5
474
100
AcDbEntity
  8
ASSI
100
AcDbLine
 62
7
  6
CONTINUOUS
 10
16.346028995
 20
-18.3664559318
 11
16.346028995
 21
18.3664559318
  0
LINE
  5
475
100
AcDbEntity
  8
RACCORDO
100
AcDbLine
 62
250
  6
CONTINUOUS
 10
16.6198822805
 20
15.076040942
 11
16.6198822801
 21
8.9239590579
  0
LINE
  5
476
100
AcDbEntity
  8
ASSI
100
AcDbLine
 62
250
  6
CONTINUOUS
 10
16.6198822805
 20
15.076040942
 11
16.6198822801
 21
8.9239590579
  0
LINE
  5
477
100
AcDbEntity
  8
RACCORDO
100
AcDbLine
 62
250
  6
CONTINUOUS
 10
16.6198822805
 20
-8.923959058
 11
16.6198822801
 21
-15.0760409421
  0
LINE
  5
478
100
AcDbEntity
  8
ASSI
100
AcDbLine
 62
250
  6
CONTINUOUS
 10
16.6198822805
 20
-8.923959058
 11
16.6198822801
 21
-15.0760409421
  0
LINE
  5
479
100
AcDbEntity
  8
RACCORDO
100
AcDbLine
 62
250
  6
CONTINUOUS
 10
18.0721757194
 20
14.94898173
 11
18.0721757198
 21
9.05101827
  0
LINE
  5
47A
100
AcDbEntity
  8
ASSI
100
AcDbLine
 62
250
  6
CONTINUOUS
 10
18.0721757194
 20
14.94898173
 11
18.0721757198
 21
9.05101827
  0
LINE
  5
47B
100
AcDbEntity
  8
RACCORDO
100
AcDbLine
 62
250
  6
CONTINUOUS
 10
18.0721757194
 20
-9.05101827
 11
18.0721757198
 21
-14.94898173
  0
LINE
  5
47C
100
AcDbEntity
  8
ASSI
100
AcDbLine
 62
250
  6
CONTINUOUS
 10
18.0721757194
 20
-9.05101827
 11
18.0721757198
 21
-14.94898173
  0
LINE
  5
47D
100
AcDbEntity
  8
RACCORDO
100
AcDbLine
 62
7
  6
CONTINUOUS
 10
18.346028995
 20
14.6501228093
 11
18.346028995
 21
9.349877195
  0
LINE
  5
47E
100
AcDbEntity
  8
ASSI
100
AcDbLine
 62
7
  6
CONTINUOUS
 10
18.346028995
 20
14.6501228093
 11
18.346028995
 21
9.349877195
  0
LINE
  5
47F
100
AcDbEntity
  8
RACCORDO
100
AcDbLine
 62
7
  6
CONTINUOUS
 10
18.346028995
 20
-9.3498771907
 11
18.346028995
 21
-14.650122805
  0
LINE
  5
480
100
AcDbEntity
  8
ASSI
100
AcDbLine
 62
7
  6
CONTINUOUS
 10
18.346028995
 20
-9.3498771907
 11
18.346028995
 21
-14.650122805
  0
LINE
  5
481
100
AcDbEntity
  8
INCISIONI
100
AcDbLine
 62
250
  6
CONTINUOUS
 10
10.9179505836
 20
-13.964285779
 11
10.6465633117
 21
-14.2357143342
  0
LINE
  5
482
100
AcDbEntity
  8
INCISIONI
100
AcDbLine
 62
250
  6
CONTINUOUS
 10
9.8324016656
 20
-12.8785713315
 11
11.7321122864
 21
-12.335714221
  0
LINE
  5
483
100
AcDbEntity
  8
0
100
AcDbLine
 62
7
  6
CONTINUOUS
 10
-10.153971005
 20
18.5087268678
 11
-8.653971005
 21
18.5218171695
  0
LINE
  5
484
100
AcDbEntity
  8
INCISIONI
100
AcDbLine
 62
250
  6
CONTINUOUS
 10
-4.0060052163
 20
15.502999
 11
-6.0532673609
 21
15.503009
  0
LINE
  5
485
100
AcDbEntity
  8
INCISIONI
100
AcDbLine
 62
250
  6
CONTINUOUS
 10
2.846028995
 20
15.523604
 11
2.3431472127
 21
15.523604
  0
LINE
  5
486
100
AcDbEntity
  8
INCISIONI
100
AcDbLine
 62
250
  6
CONTINUOUS
 10
-0.703971005
 20
15.6690474033
 11
0.246028995
 21
15.6690474033
  0
LINE
  5
487
100
AcDbEntity
  8
INCISIONI
100
AcDbLine
 62
250
  6
CONTINUOUS
 10
-6.0532673609
 20
16.001437
 11
-3.1546149069
 21
16.001437
  0
LINE
  5
488
100
AcDbEntity
  8
RACCORDO
100
AcDbLine
 62
250
  6
CONTINUOUS
 10
15.3634814014
 20
17.4980498746
 11
16.346028995
 21
17.4980498746
  0
LINE
  5
489
100
AcDbEntity
  8
ASSI
100
AcDbLine
 62
250
  6
CONTINUOUS
 10
15.3634814014
 20
17.4980498746
 11
16.346028995
 21
17.4980498746
  0
LINE
  5
48A
100
AcDbEntity
  8
RACCORDO
100
AcDbLine
 62
250
  6
CONTINUOUS
 10
15.3634814014
 20
17.4980498746
 11
-8.653971005
 21
17.6716990487
  0
LINE
  5
48B
100
AcDbEntity
  8
ASSI
100
AcDbLine
 62
250
  6
CONTINUOUS
 10
15.3634814014
 20
17.4980498746
 11
-8.653971005
 21
17.6716990487
  0
LINE
  5
48C
100
AcDbEntity
  8
DRAFT
100
AcDbLine
 62
7
  6
CONTINUOUS
 10
16.6198822722
 20
15.0760409428
 11
18.0721757178
 21
14.9489817302
  0
LINE
  5
48D
100
AcDbEntity
  8
ASSI
100
AcDbLine
 62
7
  6
CONTINUOUS
 10
16.6198822722
 20
15.0760409428
 11
18.0721757178
 21
14.9489817302
  0
LINE
  5
48E
100
AcDbEntity
  8
0
100
AcDbLine
 62
7
  6
CONTINUOUS
 10
-8.653971005
 20
18.0591825482
 11
-11.153971005
 21
18.5
  0
LINE
  5
48F
100
AcDbEntity
  8
0
100
AcDbLine
 62
250
  6
CONTINUOUS
 10
10.0427110022
 20
11.25
 11
9.8284579374
 21
11.4642857239
  0
LINE
  5
490
100
AcDbEntity
  8
0
100
AcDbLine
 62
250
  6
CONTINUOUS
 10
10.1498375792
 20
12.75
 11
10.364090644
 21
12.5357142985
  0
LINE
  5
491
100
AcDbEntity
  8
0
100
AcDbLine
 62
250
  6
CONTINUOUS
 10
11.7567356991
 20
12.321428597
 11
11.8638621867
 21
12.2142857015
  0
LINE
  5
492
100
AcDbEntity
  8
0
100
AcDbLine
 62
250
  6
CONTINUOUS
 10
13.1493807541
 20
12.321428597
 11
13.2565072418
 21
12.2142857015
  0
LINE
  5
493
100
AcDbEntity
  8
INCISIONI
100
AcDbLine
 62
250
  6
CONTINUOUS
 10
11.4607250427
 20
-14.9142856658
 11
11.7321122864
 21
-14.6428571105
  0
LINE
  5
494
100
AcDbEntity
  8
0
100
AcDbLine
 62
7
  6
CONTINUOUS
 10
0.8547551982
 20
21.5921580307
 11
-10.153971005
 21
21.4
  0
LINE
  5
495
100
AcDbEntity
  8
0
100
AcDbLine
 62
7
  6
CONTINUOUS
 10
1.346028995
 20
20.9602144095
 11
-10.153971005
 21
20.9
  0
LINE
  5
496
100
AcDbEntity
  8
0
100
AcDbLine
 62
7
  6
CONTINUOUS
 10
-10.153971005
 20
19.5
 11
-8.653971005
 21
19.5
  0
LINE
  5
497
100
AcDbEntity
  8
DRAFT
100
AcDbLine
 62
7
  6
CONTINUOUS
 10
-8.653971005
 20
20.85
 11
1.346028995
 21
20.85
  0
LINE
  5
498
100
AcDbEntity
  8
ASSI
100
AcDbLine
 62
7
  6
CONTINUOUS
 10
-8.653971005
 20
20.85
 11
1.346028995
 21
20.85
  0
LINE
  5
499
100
AcDbEntity
  8
0
100
AcDbLine
 62
250
  6
CONTINUOUS
 10
-10.153971005
 20
21.8941990932
 11
-11.153971005
 21
21.900016923
  0
LINE
  5
49A
100
AcDbEntity
  8
RACCORDO
100
AcDbLine
 62
250
  6
CONTINUOUS
 10
15.3634814014
 20
18.9120480454
 11
-8.653971005
 21
19.0856972195
  0
LINE
  5
49B
100
AcDbEntity
  8
ASSI
100
AcDbLine
 62
250
  6
CONTINUOUS
 10
15.3634814014
 20
18.9120480454
 11
-8.653971005
 21
19.0856972195
  0
LINE
  5
49C
100
AcDbEntity
  8
RACCORDO
100
AcDbLine
 62
250
  6
CONTINUOUS
 10
1.346028995
 20
19.3181305591
 11
15.3634814014
 21
19.0734550172
  0
LINE
  5
49D
100
AcDbEntity
  8
ASSI
100
AcDbLine
 62
250
  6
CONTINUOUS
 10
1.346028995
 20
19.3181305591
 11
15.3634814014
 21
19.0734550172
  0
LINE
  5
49E
100
AcDbEntity
  8
RACCORDO
100
AcDbLine
 62
7
  6
CONTINUOUS
 10
1.346028995
 20
19.6109791689
 11
15.3634814014
 21
19.366303627
  0
LINE
  5
49F
100
AcDbEntity
  8
ASSI
100
AcDbLine
 62
7
  6
CONTINUOUS
 10
1.346028995
 20
19.6109791689
 11
15.3634814014
 21
19.366303627
  0
LINE
  5
4A0
100
AcDbEntity
  8
0
100
AcDbLine
 62
250
  6
CONTINUOUS
 10
-11.153971005
 20
21.8997711479
 11
-17.6197662992
 21
21.5609131753
  0
LINE
  5
4A1
100
AcDbEntity
  8
0
100
AcDbLine
 62
7
  6
CONTINUOUS
 10
-11.153971005
 20
22.4
 11
-17.6372080741
 21
22.0602279426
  0
LINE
  5
4A2
100
AcDbEntity
  8
0
100
AcDbLine
 62
250
  6
CONTINUOUS
 10
-13.4054254378
 20
24.2369056521
 11
-11.153971005
 21
24.2500042308
  0
LINE
  5
4A3
100
AcDbEntity
  8
0
100
AcDbLine
 62
7
  6
CONTINUOUS
 10
-13.4054254378
 20
24.4869014213
 11
-11.153971005
 21
24.5
  0
LINE
  5
4A4
100
AcDbEntity
  8
0
100
AcDbLine
 62
250
  6
CONTINUOUS
 10
-13.653971005
 20
23.8443375673
 11
-13.4054254378
 21
23.8443375673
  0
LINE
  5
4A5
100
AcDbEntity
  8
0
100
AcDbLine
 62
250
  6
CONTINUOUS
 10
-10.153971005
 20
23.8443375673
 11
-10.4025165722
 21
23.8443375673
  0
LINE
  5
4A6
100
AcDbEntity
  8
0
100
AcDbLine
 62
250
  6
CONTINUOUS
 10
-13.653971005
 20
24.2369056521
 11
-13.4054254378
 21
24.2369056521
  0
LINE
  5
4A7
100
AcDbEntity
  8
0
100
AcDbLine
 62
250
  6
CONTINUOUS
 10
-10.153971005
 20
24.2456323968
 11
-10.4025165722
 21
24.2456323968
  0
LINE
  5
4A8
100
AcDbEntity
  8
0
100
AcDbLine
 62
7
  6
CONTINUOUS
 10
0.3518467264
 20
22.3330611106
 11
-11.153971005
 21
22.4
  0
LINE
  5
4A9
100
AcDbEntity
  8
0
100
AcDbLine
 62
7
  6
CONTINUOUS
 10
-10.153971005
 20
23.9941821702
 11
-3.6510621393
 21
23.9563493531
  0
LINE
  5
4AA
100
AcDbEntity
  8
0
100
AcDbLine
 62
250
  6
CONTINUOUS
 10
-11.153971005
 20
24.2500042308
 11
-10.4025165722
 21
24.2456323968
  0
LINE
  5
4AB
100
AcDbEntity
  8
0
100
AcDbLine
 62
7
  6
CONTINUOUS
 10
-11.153971005
 20
24.5
 11
-10.4025165722
 21
24.495628166
  0
LWPOLYLINE
  5
4AC
100
AcDbEntity
  8
0
100
AcDbPolyline
 62
7
  6
CONTINUOUS
 90
7
 70
0
 43
0.3500000087
 10
3.9888862709
 20
31.9879331512
 10
2.4888861383
 20
31.9879331512
 10
3.9888862709
 20
34.1307899506
 10
3.9888862709
 20
34.5593630157
 10
3.5603148045
 20
34.9879318176
 10
2.9174576048
 20
34.9879318176
 10
2.4888861383
 20
34.3450764832
  0
LWPOLYLINE
  5
4AD
100
AcDbEntity
  8
0
100
AcDbPolyline
 62
7
  6
CONTINUOUS
 90
13
 70
0
 43
0.3500000087
 10
-0.3325424382
 20
42.5386511627
 10
-0.6182567269
 20
42.7529376953
 10
-0.6182567269
 20
43.3957930298
 10
-0.3325424382
 20
43.824366095
 10
0.3103146949
 20
43.824366095
 10
0.5960289836
 20
43.3957930298
 10
0.5960289836
 20
42.7529376953
 10
0.3103146949
 20
42.5386511627
 10
0.7388861613
 20
42.1100780975
 10
0.7388861613
 20
41.2529362305
 10
0.3103146949
 20
40.8243631653
 10
-0.3325424382
 20
40.8243631653
 10
-0.761113838
 20
41.2529362305
  0
LWPOLYLINE
  5
4AE
100
AcDbEntity
  8
0
100
AcDbPolyline
 62
7
  6
CONTINUOUS
 90
6
 70
0
 43
0.3500000087
 10
-2.9039709038
 20
40.8243631653
 10
-1.8325423709
 20
40.8243631653
 10
-1.6182567709
 20
41.0386496979
 10
-1.6182567709
 20
42.1100780975
 10
-2.0468281041
 20
42.5386511627
 10
-2.4753997038
 20
42.5386511627
  0
ARC
  5
4AF
100
AcDbEntity
  8
0
100
AcDbCircle
 62
250
  6
CONTINUOUS
 10
-5073.7161376528
 20
-7.8584746636
 40
5108.7945046243
100
AcDbArc
 50
359.8502527296
 51
359.9815900845
  0
ARC
  5
4B0
100
AcDbEntity
  8
0
100
AcDbCircle
 62
250
  6
CONTINUOUS
 10
-5017.6096074204
 20
-7.858094024
 40
5052.1880505444
100
AcDbArc
 50
359.8494161557
 51
359.9814872341
  0
ARC
  5
4B1
100
AcDbEntity
  8
RACCORDO
100
AcDbCircle
 62
250
  6
CONTINUOUS
 10
36.7448697066
 20
-7.5624839439
 40
18.9726913561
100
AcDbArc
 50
53.3225887561
 51
53.6093819615
  0
ARC
  5
4B2
100
AcDbEntity
  8
RACCORDO
100
AcDbCircle
 62
250
  6
CONTINUOUS
 10
45.588234374
 20
-9.5045079853
 40
3.1017196065
100
AcDbArc
 50
0.0832725548
 51
36.6314500134
  0
ARC
  5
4B3
100
AcDbEntity
  8
RACCORDO
100
AcDbCircle
 62
7
  6
CONTINUOUS
 10
45.5899604522
 20
-9.5
 40
2.85
100
AcDbArc
 50
143.3607860557
 51
36.6392139443
  0
ARC
  5
4B4
100
AcDbEntity
  8
0
100
AcDbCircle
 62
250
  6
CONTINUOUS
 10
35.0529609164
 20
-21.5600454809
 40
0.5001623375
100
AcDbArc
 50
180.0994026032
 51
269.9752870447
  0
ARC
  5
4B5
100
AcDbEntity
  8
0
100
AcDbCircle
 62
7
  6
CONTINUOUS
 10
41.5899604522
 20
-23.15
 40
0.5
100
AcDbArc
 50
154.1580672368
 51
205.8419327632
  0
ARC
  5
4B6
100
AcDbEntity
  8
0
100
AcDbCircle
 62
7
  6
CONTINUOUS
 10
34.9399219969
 20
-21.9000439681
 40
0.4999576362
100
AcDbArc
 50
179.9687347091
 51
269.9607896939
  0
ARC
  5
4B7
100
AcDbEntity
  8
0
100
AcDbCircle
 62
7
  6
CONTINUOUS
 10
38.0895835763
 20
-24.2499774933
 40
0.2503768773
100
AcDbArc
 50
351.8245330494
 51
359.9938814446
  0
ARC
  5
4B8
100
AcDbEntity
  8
0
100
AcDbCircle
 62
7
  6
CONTINUOUS
 10
35.6899829589
 20
-24.2496231241
 40
0.2503768773
100
AcDbArc
 50
261.8245330495
 51
269.9938814446
  0
ARC
  5
4B9
100
AcDbEntity
  8
0
100
AcDbCircle
 62
250
  6
CONTINUOUS
 10
35.7030826599
 20
-24.2366167132
 40
0.2502847096
100
AcDbArc
 50
263.8282519659
 51
269.9936222729
  0
ARC
  5
4BA
100
AcDbEntity
  8
0
100
AcDbCircle
 62
7
  6
CONTINUOUS
 10
38.0768552559
 20
-24.2368948038
 40
0.2500066177
100
AcDbArc
 50
270.0024861811
 51
359.9975138189
  0
ARC
  5
4BB
100
AcDbEntity
  8
0
100
AcDbCircle
 62
7
  6
CONTINUOUS
 10
35.6899607899
 20
-24.2500037773
 40
0.2500003377
100
AcDbArc
 50
180.0001039256
 51
209.9995742872
  0
ARC
  5
4BC
100
AcDbEntity
  8
RACCORDO
100
AcDbCircle
 62
7
  6
CONTINUOUS
 10
43.1024918594
 20
-7.65
 40
0.25
100
AcDbArc
 50
324.7812207337
 51
90.0
  0
ARC
  5
4BD
100
AcDbEntity
  8
0
100
AcDbCircle
 62
7
  6
CONTINUOUS
 10
38.0899654252
 20
-24.250004973
 40
0.2499951407
100
AcDbArc
 50
270.0001039257
 51
330.0000544642
  0
ARC
  5
4BE
100
AcDbEntity
  8
0
100
AcDbCircle
 62
7
  6
CONTINUOUS
 10
35.7029368454
 20
-24.2368897388
 40
0.2498778471
100
AcDbArc
 50
180.3371452384
 51
263.8274154081
  0
ARC
  5
4BF
100
AcDbEntity
  8
0
100
AcDbCircle
 62
250
  6
CONTINUOUS
 10
44.3870352296
 20
-23.7982212949
 40
0.2002919334
100
AcDbArc
 50
352.4468195283
 51
359.9914263186
  0
ARC
  5
4C0
100
AcDbEntity
  8
0
100
AcDbCircle
 62
7
  6
CONTINUOUS
 10
44.3873206786
 20
-23.7982416015
 40
0.2000062927
100
AcDbArc
 50
270.3373544703
 51
352.441837585
  0
ARC
  5
4C1
100
AcDbEntity
  8
0
100
AcDbCircle
 62
7
  6
CONTINUOUS
 10
44.3899686843
 20
-23.8000072552
 40
0.1999917679
100
AcDbArc
 50
270.000056293
 51
0.000139239
  0
ARC
  5
4C2
100
AcDbEntity
  8
0
100
AcDbCircle
 62
250
  6
CONTINUOUS
 10
-5102.0379127519
 20
7.8169138937
 40
5137.116291718
100
AcDbArc
 50
0.0187719582
 51
0.1493852277
  0
ARC
  5
4C3
100
AcDbEntity
  8
0
100
AcDbCircle
 62
250
  6
CONTINUOUS
 10
-5045.6174767664
 20
7.8167642853
 40
5080.195931885
100
AcDbArc
 50
0.0188768298
 51
0.1502197803
  0
ARC
  5
4C4
100
AcDbEntity
  8
RACCORDO
100
AcDbCircle
 62
250
  6
CONTINUOUS
 10
36.7353771557
 20
7.57630491
 40
18.9894459223
100
AcDbArc
 50
306.3889332138
 51
306.6754734035
  0
ARC
  5
4C5
100
AcDbEntity
  8
RACCORDO
100
AcDbCircle
 62
250
  6
CONTINUOUS
 10
45.5869555824
 20
9.5047475127
 40
3.1030048624
100
AcDbArc
 50
323.3808638217
 51
359.9123389878
  0
ARC
  5
4C6
100
AcDbEntity
  8
RACCORDO
100
AcDbCircle
 62
7
  6
CONTINUOUS
 10
45.5899604522
 20
9.5
 40
2.85
100
AcDbArc
 50
323.3607860557
 51
216.6392139443
  0
ARC
  5
4C7
100
AcDbEntity
  8
0
100
AcDbCircle
 62
250
  6
CONTINUOUS
 10
35.0529609166
 20
21.5600454807
 40
0.5001623378
100
AcDbArc
 50
90.0247129777
 51
179.9005973746
  0
ARC
  5
4C8
100
AcDbEntity
  8
0
100
AcDbCircle
 62
7
  6
CONTINUOUS
 10
41.5899604522
 20
23.15
 40
0.5
100
AcDbArc
 50
154.1580672368
 51
205.8419327632
  0
ARC
  5
4C9
100
AcDbEntity
  8
0
100
AcDbCircle
 62
7
  6
CONTINUOUS
 10
34.939922039
 20
21.9000440103
 40
0.4999576362
100
AcDbArc
 50
90.0392151342
 51
180.0312701179
  0
ARC
  5
4CA
100
AcDbEntity
  8
0
100
AcDbCircle
 62
7
  6
CONTINUOUS
 10
35.6903373281
 20
24.2499774933
 40
0.2503768773
100
AcDbArc
 50
171.8245330495
 51
179.9938814446
  0
ARC
  5
4CB
100
AcDbEntity
  8
0
100
AcDbCircle
 62
7
  6
CONTINUOUS
 10
38.0899379455
 20
24.2496231241
 40
0.2503768773
100
AcDbArc
 50
81.8245330495
 51
89.9938814446
  0
ARC
  5
4CC
100
AcDbEntity
  8
0
100
AcDbCircle
 62
250
  6
CONTINUOUS
 10
35.7030826599
 20
24.2366167132
 40
0.2502847096
100
AcDbArc
 50
90.0063777271
 51
96.1717480341
  0
ARC
  5
4CD
100
AcDbEntity
  8
0
100
AcDbCircle
 62
250
  6
CONTINUOUS
 10
38.0768382445
 20
24.2366167132
 40
0.2502847096
100
AcDbArc
 50
83.8282519659
 51
89.9936222729
  0
ARC
  5
4CE
100
AcDbEntity
  8
0
100
AcDbCircle
 62
7
  6
CONTINUOUS
 10
35.7030645905
 20
24.2368955367
 40
0.2500055598
100
AcDbArc
 50
96.1745007831
 51
179.9976817888
  0
ARC
  5
4CF
100
AcDbEntity
  8
0
100
AcDbCircle
 62
7
  6
CONTINUOUS
 10
38.0899601144
 20
24.2500037773
 40
0.2500003377
100
AcDbArc
 50
0.0001039257
 51
29.9995742872
  0
ARC
  5
4D0
100
AcDbEntity
  8
RACCORDO
100
AcDbCircle
 62
7
  6
CONTINUOUS
 10
43.1024918594
 20
7.65
 40
0.25
100
AcDbArc
 50
270.0
 51
35.2187800134
  0
ARC
  5
4D1
100
AcDbEntity
  8
0
100
AcDbCircle
 62
7
  6
CONTINUOUS
 10
35.6899561872
 20
24.2500020317
 40
0.2499979683
100
AcDbArc
 50
89.9999921568
 51
125.4542520563
  0
ARC
  5
4D2
100
AcDbEntity
  8
0
100
AcDbCircle
 62
7
  6
CONTINUOUS
 10
38.0769840589
 20
24.2368897388
 40
0.2498778472
100
AcDbArc
 50
0.3371452385
 51
83.8274154082
  0
ARC
  5
4D3
100
AcDbEntity
  8
0
100
AcDbCircle
 62
250
  6
CONTINUOUS
 10
44.3870352296
 20
23.7982212949
 40
0.2002919334
100
AcDbArc
 50
0.0085736814
 51
7.5531804717
  0
ARC
  5
4D4
100
AcDbEntity
  8
0
100
AcDbCircle
 62
7
  6
CONTINUOUS
 10
44.3873207254
 20
23.7982416411
 40
0.2000062411
100
AcDbArc
 50
7.5581529273
 51
89.9959748761
  0
ARC
  5
4D5
100
AcDbEntity
  8
0
100
AcDbCircle
 62
7
  6
CONTINUOUS
 10
44.3899686843
 20
23.8000072552
 40
0.1999917679
100
AcDbArc
 50
359.999860761
 51
89.999943707
  0
ARC
  5
4D6
100
AcDbEntity
  8
0
100
AcDbCircle
 62
250
  6
CONTINUOUS
 10
5193.2178812191
 20
-7.8169138239
 40
5137.1163392809
100
AcDbArc
 50
180.0187719588
 51
180.1493852271
  0
ARC
  5
4D7
100
AcDbEntity
  8
0
100
AcDbCircle
 62
250
  6
CONTINUOUS
 10
5136.7974442939
 20
-7.8167642165
 40
5080.1959785082
100
AcDbArc
 50
180.0188768305
 51
180.1502197797
  0
ARC
  5
4D8
100
AcDbEntity
  8
RACCORDO
100
AcDbCircle
 62
250
  6
CONTINUOUS
 10
54.4445196439
 20
-7.5762698207
 40
18.9894033823
100
AcDbArc
 50
126.3889374764
 51
126.6754783079
  0
ARC
  5
4D9
100
AcDbEntity
  8
RACCORDO
100
AcDbCircle
 62
250
  6
CONTINUOUS
 10
45.5929569442
 20
-9.5047459567
 40
3.1029964823
100
AcDbArc
 50
143.3807846209
 51
179.9123674824
  0
ARC
  5
4DA
100
AcDbEntity
  8
0
100
AcDbCircle
 62
250
  6
CONTINUOUS
 10
56.1269599908
 20
-21.560045478
 40
0.5001623376
100
AcDbArc
 50
270.0247126314
 51
359.9005970663
  0
ARC
  5
4DB
100
AcDbEntity
  8
0
100
AcDbCircle
 62
7
  6
CONTINUOUS
 10
49.5899604522
 20
-23.15
 40
0.5
100
AcDbArc
 50
334.1580672368
 51
25.8419327632
  0
ARC
  5
4DC
100
AcDbEntity
  8
0
100
AcDbCircle
 62
7
  6
CONTINUOUS
 10
56.2399986816
 20
-21.9000437425
 40
0.4999579139
100
AcDbArc
 50
270.0392361786
 51
0.0312394205
  0
ARC
  5
4DD
100
AcDbEntity
  8
0
100
AcDbCircle
 62
7
  6
CONTINUOUS
 10
55.4895835763
 20
-24.2499774933
 40
0.2503768773
100
AcDbArc
 50
351.8245330494
 51
359.9938814446
  0
ARC
  5
4DE
100
AcDbEntity
  8
0
100
AcDbCircle
 62
7
  6
CONTINUOUS
 10
53.0899829589
 20
-24.2496231241
 40
0.2503768773
100
AcDbArc
 50
261.8245330495
 51
269.9938814446
  0
ARC
  5
4DF
100
AcDbEntity
  8
0
100
AcDbCircle
 62
7
  6
CONTINUOUS
 10
55.4768552559
 20
-24.2368948038
 40
0.2500066177
100
AcDbArc
 50
270.0024861811
 51
359.9975138189
  0
ARC
  5
4E0
100
AcDbEntity
  8
0
100
AcDbCircle
 62
7
  6
CONTINUOUS
 10
53.1030656484
 20
-24.2368948038
 40
0.2500066177
100
AcDbArc
 50
180.0024861811
 51
269.9975138189
  0
ARC
  5
4E1
100
AcDbEntity
  8
RACCORDO
100
AcDbCircle
 62
7
  6
CONTINUOUS
 10
48.0774290449
 20
-7.65
 40
0.25
100
AcDbArc
 50
90.0
 51
215.2187800717
  0
ARC
  5
4E2
100
AcDbEntity
  8
0
100
AcDbCircle
 62
7
  6
CONTINUOUS
 10
55.4899654252
 20
-24.250004973
 40
0.2499951407
100
AcDbArc
 50
270.0001039256
 51
330.0000544642
  0
ARC
  5
4E3
100
AcDbEntity
  8
0
100
AcDbCircle
 62
7
  6
CONTINUOUS
 10
53.0899554792
 20
-24.250004973
 40
0.2499951407
100
AcDbArc
 50
180.0001039256
 51
240.0000544642
  0
ARC
  5
4E4
100
AcDbEntity
  8
0
100
AcDbCircle
 62
250
  6
CONTINUOUS
 10
46.7928856747
 20
-23.7982212949
 40
0.2002919334
100
AcDbArc
 50
180.0085736814
 51
187.5531804717
  0
ARC
  5
4E5
100
AcDbEntity
  8
0
100
AcDbCircle
 62
7
  6
CONTINUOUS
 10
46.792600179
 20
-23.7982416411
 40
0.2000062411
100
AcDbArc
 50
187.5581529273
 51
269.9959748761
  0
ARC
  5
4E6
100
AcDbEntity
  8
0
100
AcDbCircle
 62
7
  6
CONTINUOUS
 10
46.78995222
 20
-23.8000072552
 40
0.1999917679
100
AcDbArc
 50
179.999860761
 51
269.999943707
  0
ARC
  5
4E7
100
AcDbEntity
  8
0
100
AcDbCircle
 62
250
  6
CONTINUOUS
 10
5164.8961054088
 20
7.8584745949
 40
5108.794551476
100
AcDbArc
 50
179.8502527302
 51
179.9815900839
  0
ARC
  5
4E8
100
AcDbEntity
  8
0
100
AcDbCircle
 62
250
  6
CONTINUOUS
 10
5108.7895749239
 20
7.8580939553
 40
5052.1880971435
100
AcDbArc
 50
179.8494161563
 51
179.9814872335
  0
ARC
  5
4E9
100
AcDbEntity
  8
RACCORDO
100
AcDbCircle
 62
250
  6
CONTINUOUS
 10
54.4348661199
 20
7.5622144627
 40
18.9723646805
100
AcDbArc
 50
233.3225509187
 51
233.6093490654
  0
ARC
  5
4EA
100
AcDbEntity
  8
RACCORDO
100
AcDbCircle
 62
250
  6
CONTINUOUS
 10
45.5916828027
 20
9.5045074613
 40
3.1017159585
100
AcDbArc
 50
180.0832629749
 51
216.6314905527
  0
ARC
  5
4EB
100
AcDbEntity
  8
0
100
AcDbCircle
 62
250
  6
CONTINUOUS
 10
56.1269599908
 20
21.5600454779
 40
0.5001623376
100
AcDbArc
 50
0.0994029389
 51
89.9752873636
  0
ARC
  5
4EC
100
AcDbEntity
  8
0
100
AcDbCircle
 62
7
  6
CONTINUOUS
 10
49.5899604522
 20
23.15
 40
0.5
100
AcDbArc
 50
334.1580672368
 51
25.8419327632
  0
ARC
  5
4ED
100
AcDbEntity
  8
0
100
AcDbCircle
 62
7
  6
CONTINUOUS
 10
56.2399986395
 20
21.9000437846
 40
0.4999579139
100
AcDbArc
 50
359.9687557531
 51
89.9607589944
  0
ARC
  5
4EE
100
AcDbEntity
  8
0
100
AcDbCircle
 62
7
  6
CONTINUOUS
 10
55.4899379455
 20
24.2496231241
 40
0.2503768773
100
AcDbArc
 50
81.8245330495
 51
89.9938814446
  0
ARC
  5
4EF
100
AcDbEntity
  8
0
100
AcDbCircle
 62
7
  6
CONTINUOUS
 10
53.0903373281
 20
24.2499774933
 40
0.2503768773
100
AcDbArc
 50
171.8245330494
 51
179.9938814446
  0
ARC
  5
4F0
100
AcDbEntity
  8
0
100
AcDbCircle
 62
7
  6
CONTINUOUS
 10
55.4768552559
 20
24.2368948038
 40
0.2500066177
100
AcDbArc
 50
0.0024861811
 51
89.9975138189
  0
ARC
  5
4F1
100
AcDbEntity
  8
0
100
AcDbCircle
 62
7
  6
CONTINUOUS
 10
53.1030656484
 20
24.2368948038
 40
0.2500066177
100
AcDbArc
 50
90.0024861811
 51
179.9975138189
  0
ARC
  5
4F2
100
AcDbEntity
  8
RACCORDO
100
AcDbCircle
 62
7
  6
CONTINUOUS
 10
48.0774290449
 20
7.65
 40
0.25
100
AcDbArc
 50
144.781220807
 51
270.0
  0
ARC
  5
4F3
100
AcDbEntity
  8
0
100
AcDbCircle
 62
7
  6
CONTINUOUS
 10
55.4899654252
 20
24.250004973
 40
0.2499951407
100
AcDbArc
 50
0.0001039256
 51
60.0000544641
  0
ARC
  5
4F4
100
AcDbEntity
  8
0
100
AcDbCircle
 62
7
  6
CONTINUOUS
 10
53.0899554792
 20
24.250004973
 40
0.2499951407
100
AcDbArc
 50
90.0001039256
 51
150.0000544641
  0
ARC
  5
4F5
100
AcDbEntity
  8
0
100
AcDbCircle
 62
250
  6
CONTINUOUS
 10
46.7928856747
 20
23.7982212949
 40
0.2002919334
100
AcDbArc
 50
172.4468195282
 51
179.9914263187
  0
ARC
  5
4F6
100
AcDbEntity
  8
0
100
AcDbCircle
 62
7
  6
CONTINUOUS
 10
46.7926002257
 20
23.7982416015
 40
0.2000062927
100
AcDbArc
 50
90.3373544703
 51
172.441837585
  0
ARC
  5
4F7
100
AcDbEntity
  8
0
100
AcDbCircle
 62
7
  6
CONTINUOUS
 10
46.78995222
 20
23.8000072552
 40
0.1999917679
100
AcDbArc
 50
90.000056293
 51
180.000139239
  0
ARC
  5
4F8
100
AcDbEntity
  8
ASSI
100
AcDbCircle
 62
250
  6
CONTINUOUS
 10
-141.2808758618
 20
-18.20504896
 40
156.645952741
100
AcDbArc
 50
359.7414028225
 51
0.2585971775
  0
ARC
  5
4F9
100
AcDbEntity
  8
0
100
AcDbCircle
 62
7
  6
CONTINUOUS
 10
-17.5848721178
 20
-21.0615984079
 40
1.0
100
AcDbArc
 50
188.5758796048
 51
267.0
  0
ARC
  5
4FA
100
AcDbEntity
  8
0
100
AcDbCircle
 62
250
  6
CONTINUOUS
 10
-17.5935983149
 20
-21.0615984012
 40
0.500000007
100
AcDbArc
 50
188.5758802639
 51
266.9999993409
  0
ARC
  5
4FB
100
AcDbEntity
  8
0
100
AcDbCircle
 62
7
  6
CONTINUOUS
 10
-3.653971005
 20
-23.4563578147
 40
0.5
100
AcDbArc
 50
270.3333333333
 51
360.0
  0
ARC
  5
4FC
100
AcDbEntity
  8
0
100
AcDbCircle
 62
7
  6
CONTINUOUS
 10
-10.403971005
 20
-23.8443375673
 40
0.25
100
AcDbArc
 50
0.0
 51
60.0
  0
ARC
  5
4FD
100
AcDbEntity
  8
0
100
AcDbCircle
 62
7
  6
CONTINUOUS
 10
-13.403971005
 20
-23.8443375673
 40
0.25
100
AcDbArc
 50
120.0
 51
180.0
  0
ARC
  5
4FE
100
AcDbEntity
  8
0
100
AcDbCircle
 62
7
  6
CONTINUOUS
 10
-10.403971005
 20
-24.2456323968
 40
0.25
100
AcDbArc
 50
270.3333333333
 51
360.0
  0
ARC
  5
4FF
100
AcDbEntity
  8
0
100
AcDbCircle
 62
7
  6
CONTINUOUS
 10
-13.403971005
 20
-24.2369056521
 40
0.25
100
AcDbArc
 50
180.0
 51
269.6666666667
  0
ARC
  5
500
100
AcDbEntity
  8
0
100
AcDbCircle
 62
7
  6
CONTINUOUS
 10
0.346028995
 20
-21.3330780337
 40
1.0
100
AcDbArc
 50
270.3333333333
 51
360.0
  0
ARC
  5
501
100
AcDbEntity
  8
RACCORDO
100
AcDbCircle
 62
7
  6
CONTINUOUS
 10
15.346028995
 20
-18.3664559318
 40
1.0
100
AcDbArc
 50
271.0
 51
360.0
  0
ARC
  5
502
100
AcDbEntity
  8
ASSI
100
AcDbCircle
 62
7
  6
CONTINUOUS
 10
15.346028995
 20
-18.3664559318
 40
1.0
100
AcDbArc
 50
271.0
 51
360.0
  0
ARC
  5
503
100
AcDbEntity
  8
RACCORDO
100
AcDbCircle
 62
250
  6
CONTINUOUS
 10
15.8400821094
 20
-18.2047061013
 40
0.5059470018
100
AcDbArc
 50
348.404670129
 51
359.9611730885
  0
ARC
  5
504
100
AcDbEntity
  8
RACCORDO
100
AcDbCircle
 62
7
  6
CONTINUOUS
 10
18.046028995
 20
-14.6501233207
 40
0.3
100
AcDbArc
 50
275.0
 51
360.0
  0
ARC
  5
505
100
AcDbEntity
  8
RACCORDO
100
AcDbCircle
 62
7
  6
CONTINUOUS
 10
16.646028995
 20
-15.3748993522
 40
0.3
100
AcDbArc
 50
95.0
 51
172.7722917185
  0
ARC
  5
506
100
AcDbEntity
  8
ASSI
100
AcDbCircle
 62
7
  6
CONTINUOUS
 10
18.046028995
 20
-14.6501233207
 40
0.3
100
AcDbArc
 50
275.0
 51
360.0
  0
ARC
  5
507
100
AcDbEntity
  8
ASSI
100
AcDbCircle
 62
7
  6
CONTINUOUS
 10
16.646028995
 20
-15.3748993522
 40
0.3
100
AcDbArc
 50
95.0
 51
180.0
  0
ARC
  5
508
100
AcDbEntity
  8
0
100
AcDbCircle
 62
250
  6
CONTINUOUS
 10
5.8414144937
 20
-12.9355632517
 40
1.520154595
100
AcDbArc
 50
137.3907648571
 51
180.076707283
  0
ARC
  5
509
100
AcDbEntity
  8
RACCORDO
100
AcDbCircle
 62
7
  6
CONTINUOUS
 10
18.046028995
 20
-9.3498766793
 40
0.3
100
AcDbArc
 50
0.0
 51
85.0
  0
ARC
  5
50A
100
AcDbEntity
  8
ASSI
100
AcDbCircle
 62
7
  6
CONTINUOUS
 10
18.046028995
 20
-9.3498766793
 40
0.3
100
AcDbArc
 50
0.0
 51
85.0
  0
ARC
  5
50B
100
AcDbEntity
  8
INCISIONI
100
AcDbCircle
 62
250
  6
CONTINUOUS
 10
-5.164421757
 20
-4.6807258514
 40
0.3527722177
100
AcDbArc
 50
359.9887704108
 51
180.0112295892
  0
ARC
  5
50C
100
AcDbEntity
  8
RACCORDO
100
AcDbCircle
 62
7
  6
CONTINUOUS
 10
16.646028995
 20
-8.6251006478
 40
0.3
100
AcDbArc
 50
180.0
 51
265.0
  0
ARC
  5
50D
100
AcDbEntity
  8
ASSI
100
AcDbCircle
 62
7
  6
CONTINUOUS
 10
16.646028995
 20
-8.6251006478
 40
0.3
100
AcDbArc
 50
180.0
 51
265.0
  0
ARC
  5
50E
100
AcDbEntity
  8
0
100
AcDbCircle
 62
7
  6
CONTINUOUS
 10
70.4200406752
 20
-7.79
 40
90.0
100
AcDbArc
 50
181.08868532
 51
188.5758796048
  0
ARC
  5
50F
100
AcDbEntity
  8
RACCORDO
100
AcDbCircle
 62
7
  6
CONTINUOUS
 10
70.4200406752
 20
-7.79
 40
90.0
100
AcDbArc
 50
181.08868532
 51
183.0720707633
  0
ARC
  5
510
100
AcDbEntity
  8
0
100
AcDbCircle
 62
250
  6
CONTINUOUS
 10
70.4114148713
 20
-7.7899915123
 40
89.5001005425
100
AcDbArc
 50
181.0886895315
 51
188.5758753933
  0
ARC
  5
511
100
AcDbEntity
  8
ASSI
100
AcDbCircle
 62
250
  6
CONTINUOUS
 10
-170.4876362498
 20
18.20504896
 40
185.8524623994
100
AcDbArc
 50
359.7820412983
 51
0.2179587017
  0
ARC
  5
512
100
AcDbEntity
  8
RACCORDO
100
AcDbCircle
 62
7
  6
CONTINUOUS
 10
18.046028995
 20
9.3498766793
 40
0.3
100
AcDbArc
 50
275.0
 51
360.0
  0
ARC
  5
513
100
AcDbEntity
  8
RACCORDO
100
AcDbCircle
 62
7
  6
CONTINUOUS
 10
16.646028995
 20
8.6251006478
 40
0.3
100
AcDbArc
 50
95.0
 51
172.7722917185
  0
ARC
  5
514
100
AcDbEntity
  8
ASSI
100
AcDbCircle
 62
7
  6
CONTINUOUS
 10
18.046028995
 20
9.3498766793
 40
0.3
100
AcDbArc
 50
275.0
 51
360.0
  0
ARC
  5
515
100
AcDbEntity
  8
ASSI
100
AcDbCircle
 62
7
  6
CONTINUOUS
 10
16.646028995
 20
8.6251006478
 40
0.3
100
AcDbArc
 50
95.0
 51
180.0
  0
ARC
  5
516
100
AcDbEntity
  8
0
100
AcDbCircle
 62
7
  6
CONTINUOUS
 10
9.961199275
 20
15.533926738
 40
44.7858999138
100
AcDbArc
 50
239.6711809666
 51
240.0388810573
  0
ARC
  5
517
100
AcDbEntity
  8
RACCORDO
100
AcDbCircle
 62
7
  6
CONTINUOUS
 10
18.046028995
 20
14.6501233207
 40
0.3
100
AcDbArc
 50
0.0
 51
85.0
  0
ARC
  5
518
100
AcDbEntity
  8
RACCORDO
100
AcDbCircle
 62
7
  6
CONTINUOUS
 10
16.646028995
 20
15.3748993522
 40
0.3
100
AcDbArc
 50
180.0
 51
265.0
  0
ARC
  5
519
100
AcDbEntity
  8
ASSI
100
AcDbCircle
 62
7
  6
CONTINUOUS
 10
18.046028995
 20
14.6501233207
 40
0.3
100
AcDbArc
 50
0.0
 51
85.0
  0
ARC
  5
51A
100
AcDbEntity
  8
ASSI
100
AcDbCircle
 62
7
  6
CONTINUOUS
 10
16.646028995
 20
15.3748993522
 40
0.3
100
AcDbArc
 50
180.0
 51
265.0
  0
ARC
  5
51B
100
AcDbEntity
  8
0
100
AcDbCircle
 62
7
  6
CONTINUOUS
 10
70.4200406752
 20
7.79
 40
90.0
100
AcDbArc
 50
171.4241203952
 51
178.91131468
  0
ARC
  5
51C
100
AcDbEntity
  8
RACCORDO
100
AcDbCircle
 62
7
  6
CONTINUOUS
 10
70.4200406752
 20
7.79
 40
90.0
100
AcDbArc
 50
176.927929286
 51
178.91131468
  0
ARC
  5
51D
100
AcDbEntity
  8
0
100
AcDbCircle
 62
250
  6
CONTINUOUS
 10
70.4114148713
 20
7.7899915123
 40
89.5001005425
100
AcDbArc
 50
171.4241246067
 51
178.9113104685
  0
ARC
  5
51E
100
AcDbEntity
  8
0
100
AcDbCircle
 62
7
  6
CONTINUOUS
 10
-17.5848721178
 20
21.0615984079
 40
1.0
100
AcDbArc
 50
93.0
 51
171.4241203952
  0
ARC
  5
51F
100
AcDbEntity
  8
0
100
AcDbCircle
 62
7
  6
CONTINUOUS
 10
0.346028995
 20
21.3330780337
 40
1.0
100
AcDbArc
 50
0.0
 51
89.6666666667
  0
ARC
  5
520
100
AcDbEntity
  8
RACCORDO
100
AcDbCircle
 62
7
  6
CONTINUOUS
 10
15.346028995
 20
18.3664559318
 40
1.0
100
AcDbArc
 50
0.0
 51
89.0
  0
ARC
  5
521
100
AcDbEntity
  8
ASSI
100
AcDbCircle
 62
7
  6
CONTINUOUS
 10
15.346028995
 20
18.3664559318
 40
1.0
100
AcDbArc
 50
0.0
 51
89.0
  0
ARC
  5
522
100
AcDbEntity
  8
RACCORDO
100
AcDbCircle
 62
250
  6
CONTINUOUS
 10
15.8400821092
 20
18.2047061013
 40
0.505947002
100
AcDbArc
 50
0.0388269121
 51
11.5953299367
  0
ARC
  5
523
100
AcDbEntity
  8
0
100
AcDbCircle
 62
250
  6
CONTINUOUS
 10
-17.5935983149
 20
21.0615984012
 40
0.500000007
100
AcDbArc
 50
93.0000006591
 51
171.4241197361
  0
ARC
  5
524
100
AcDbEntity
  8
0
100
AcDbCircle
 62
7
  6
CONTINUOUS
 10
-3.653971005
 20
23.4563578147
 40
0.5
100
AcDbArc
 50
0.0
 51
89.6666666667
  0
ARC
  5
525
100
AcDbEntity
  8
0
100
AcDbCircle
 62
7
  6
CONTINUOUS
 10
-13.403971005
 20
23.8443375673
 40
0.25
100
AcDbArc
 50
180.0
 51
240.0
  0
ARC
  5
526
100
AcDbEntity
  8
0
100
AcDbCircle
 62
7
  6
CONTINUOUS
 10
-10.403971005
 20
23.8443375673
 40
0.25
100
AcDbArc
 50
300.0
 51
360.0
  0
ARC
  5
527
100
AcDbEntity
  8
0
100
AcDbCircle
 62
7
  6
CONTINUOUS
 10
-10.403971005
 20
24.2456323968
 40
0.25
100
AcDbArc
 50
0.0
 51
89.6666666667
  0
ARC
  5
528
100
AcDbEntity
  8
0
100
AcDbCircle
 62
7
  6
CONTINUOUS
 10
-13.403971005
 20
24.2369056521
 40
0.25
100
AcDbArc
 50
90.3333333333
 51
180.0
  0
ARC
  5
529
100
AcDbEntity
  8
0
100
AcDbCircle
 62
7
  6
CONTINUOUS
 10
480.346028995
 20
-0.0
 40
500.0
100
AcDbArc
 50
178.91131468
 51
181.08868532
  0
ARC
  5
52A
100
AcDbEntity
  8
0
100
AcDbCircle
 62
250
  6
CONTINUOUS
 10
480.3825967039
 20
0.0
 40
499.5452857366
100
AcDbArc
 50
178.9114133854
 51
181.0885866146
  0
SPLINE
  5
52B
100
AcDbEntity
  8
0
100
AcDbSpline
 62
7
  6
CONTINUOUS
 70
0
 71
3
 72
8
 73
4
 74
0
 42
0.0000001
 43
0.0000001
 44
0.0000000001
 40
0.0
 40
0.0
 40
0.0
 40
0.0
 40
1.0
 40
1.0
 40
1.0
 40
1.0
 10
35.442504978
 20
24.2855823661
 30
0.0
 10
35.4469926593
 20
24.3168028567
 30
0.0
 10
35.4576830763
 20
24.3476863906
 30
0.0
 10
35.4734532177
 20
24.3750023375
 30
0.0
  0
SPLINE
  5
52C
100
AcDbEntity
  8
0
100
AcDbSpline
 62
7
  6
CONTINUOUS
 70
0
 71
3
 72
8
 73
4
 74
0
 42
0.0000001
 43
0.0000001
 44
0.0000000001
 40
0.0
 40
0.0
 40
0.0
 40
0.0
 40
1.0
 40
1.0
 40
1.0
 40
1.0
 10
35.4734532177
 20
24.3750023375
 30
0.0
 10
35.4911660984
 20
24.4056833628
 30
0.0
 10
35.5160865261
 20
24.4330949929
 30
0.0
 10
35.5449441811
 20
24.4536451073
 30
0.0
  0
SPLINE
  5
52D
100
AcDbEntity
  8
0
100
AcDbSpline
 62
7
  6
CONTINUOUS
 70
0
 71
3
 72
8
 73
4
 74
0
 42
0.0000001
 43
0.0000001
 44
0.0000000001
 40
0.0
 40
0.0
 40
0.0
 40
0.0
 40
1.0
 40
1.0
 40
1.0
 40
1.0
 10
38.1255428183
 20
24.4974554741
 30
0.0
 10
38.1644356106
 20
24.4918649644
 30
0.0
 10
38.2029703233
 20
24.4764375062
 30
0.0
 10
38.2349767233
 20
24.4536451073
 30
0.0
  0
SPLINE
  5
52E
100
AcDbEntity
  8
0
100
AcDbSpline
 62
7
  6
CONTINUOUS
 70
0
 71
3
 72
8
 73
4
 74
0
 42
0.0000001
 43
0.0000001
 44
0.0000000001
 40
0.0
 40
0.0
 40
0.0
 40
0.0
 40
1.0
 40
1.0
 40
1.0
 40
1.0
 10
38.2349767233
 20
24.4536451073
 30
0.0
 10
38.2638343783
 20
24.4330949929
 30
0.0
 10
38.288754806
 20
24.4056833628
 30
0.0
 10
38.3064676866
 20
24.3750023375
 30
0.0
  0
SPLINE
  5
52F
100
AcDbEntity
  8
0
100
AcDbSpline
 62
7
  6
CONTINUOUS
 70
0
 71
3
 72
8
 73
4
 74
0
 42
0.0000001
 43
0.0000001
 44
0.0000000001
 40
0.0
 40
0.0
 40
0.0
 40
0.0
 40
1.0
 40
1.0
 40
1.0
 40
1.0
 10
55.5255428183
 20
24.4974554741
 30
0.0
 10
55.5567633089
 20
24.4929677928
 30
0.0
 10
55.5876468428
 20
24.4822773759
 30
0.0
 10
55.6149627897
 20
24.4665072345
 30
0.0
  0
SPLINE
  5
530
100
AcDbEntity
  8
0
100
AcDbSpline
 62
7
  6
CONTINUOUS
 70
0
 71
3
 72
8
 73
4
 74
0
 42
0.0000001
 43
0.0000001
 44
0.0000000001
 40
0.0
 40
0.0
 40
0.0
 40
0.0
 40
1.0
 40
1.0
 40
1.0
 40
1.0
 10
52.842504978
 20
24.2855823661
 30
0.0
 10
52.8469926593
 20
24.3168028567
 30
0.0
 10
52.8576830763
 20
24.3476863906
 30
0.0
 10
52.8734532177
 20
24.3750023375
 30
0.0
  0
SPLINE
  5
531
100
AcDbEntity
  8
0
100
AcDbSpline
 62
7
  6
CONTINUOUS
 70
0
 71
3
 72
8
 73
4
 74
0
 42
0.0000001
 43
0.0000001
 44
0.0000000001
 40
0.0
 40
0.0
 40
0.0
 40
0.0
 40
1.0
 40
1.0
 40
1.0
 40
1.0
 10
55.7374159263
 20
-24.2855823661
 30
0.0
 10
55.732928245
 20
-24.3168028567
 30
0.0
 10
55.722237828
 20
-24.3476863906
 30
0.0
 10
55.7064676866
 20
-24.3750023375
 30
0.0
  0
SPLINE
  5
532
100
AcDbEntity
  8
0
100
AcDbSpline
 62
7
  6
CONTINUOUS
 70
0
 71
3
 72
8
 73
4
 74
0
 42
0.0000001
 43
0.0000001
 44
0.0000000001
 40
0.0
 40
0.0
 40
0.0
 40
0.0
 40
1.0
 40
1.0
 40
1.0
 40
1.0
 10
53.054378086
 20
-24.4974554741
 30
0.0
 10
53.0231575955
 20
-24.4929677928
 30
0.0
 10
52.9922740615
 20
-24.4822773759
 30
0.0
 10
52.9649581146
 20
-24.4665072345
 30
0.0
  0
SPLINE
  5
533
100
AcDbEntity
  8
0
100
AcDbSpline
 62
7
  6
CONTINUOUS
 70
0
 71
3
 72
8
 73
4
 74
0
 42
0.0000001
 43
0.0000001
 44
0.0000000001
 40
0.0
 40
0.0
 40
0.0
 40
0.0
 40
1.0
 40
1.0
 40
1.0
 40
1.0
 10
38.3374159263
 20
-24.2855823661
 30
0.0
 10
38.332928245
 20
-24.3168028567
 30
0.0
 10
38.322237828
 20
-24.3476863906
 30
0.0
 10
38.3064676866
 20
-24.3750023375
 30
0.0
  0
SPLINE
  5
534
100
AcDbEntity
  8
0
100
AcDbSpline
 62
7
  6
CONTINUOUS
 70
0
 71
3
 72
8
 73
4
 74
0
 42
0.0000001
 43
0.0000001
 44
0.0000000001
 40
0.0
 40
0.0
 40
0.0
 40
0.0
 40
1.0
 40
1.0
 40
1.0
 40
1.0
 10
35.654378086
 20
-24.4974554741
 30
0.0
 10
35.6154852938
 20
-24.4918649644
 30
0.0
 10
35.5769505811
 20
-24.4764375062
 30
0.0
 10
35.5449441811
 20
-24.4536451073
 30
0.0
  0
SPLINE
  5
535
100
AcDbEntity
  8
0
100
AcDbSpline
 62
7
  6
CONTINUOUS
 70
0
 71
3
 72
8
 73
4
 74
0
 42
0.0000001
 43
0.0000001
 44
0.0000000001
 40
0.0
 40
0.0
 40
0.0
 40
0.0
 40
1.0
 40
1.0
 40
1.0
 40
1.0
 10
35.5449441811
 20
-24.4536451073
 30
0.0
 10
35.5160865261
 20
-24.4330949929
 30
0.0
 10
35.4911660984
 20
-24.4056833628
 30
0.0
 10
35.4734532177
 20
-24.3750023375
 30
0.0
  0
SPLINE
  5
536
100
AcDbEntity
  8
0
100
AcDbSpline
 62
250
  6
CONTINUOUS
 70
0
 71
3
 72
9
 73
5
 74
0
 42
0.0000001
 43
0.0000001
 44
0.0000000001
 40
0.0
 40
0.0
 40
0.0
 40
0.0
 40
0.2499887187
 40
1.0
 40
1.0
 40
1.0
 40
1.0
 10
34.5781794017
 20
-9.4905
 30
0.0
 10
34.5787040539
 20
-7.9088214473
 30
0.0
 10
34.5802778936
 20
-1.5818215669
 30
0.0
 10
34.5797534531
 20
4.7451788356
 30
0.0
 10
34.5781794017
 20
9.4905
 30
0.0
  0
SPLINE
  5
537
100
AcDbEntity
  8
0
100
AcDbSpline
 62
250
  6
CONTINUOUS
 70
0
 71
3
 72
19
 73
15
 74
0
 42
0.0000001
 43
0.0000001
 44
0.0000000001
 40
0.0
 40
0.0
 40
0.0
 40
0.0
 40
0.0066567205
 40
0.0225113672
 40
0.0475276345
 40
0.0814931286
 40
0.1240969061
 40
0.1749408956
 40
0.2335482372
 40
0.2993690203
 40
0.4501141178
 40
0.6215148125
 40
0.8071309546
 40
1.0
 40
1.0
 40
1.0
 40
1.0
 10
34.5781794017
 20
9.4905
 30
0.0
 10
34.5789301191
 20
9.4913175592
 30
0.0
 10
34.5831796059
 20
9.4914174327
 30
0.0
 10
34.5906074046
 20
9.4926977602
 30
0.0
 10
34.6033002457
 20
9.4932826239
 30
0.0
 10
34.6201162433
 20
9.4942265286
 30
0.0
 10
34.6413843979
 20
9.4949998724
 30
0.0
 10
34.6667129375
 20
9.4957922936
 30
0.0
 10
34.6959332787
 20
9.4965207129
 30
0.0
 10
34.7418043299
 20
9.4974716191
 30
0.0
 10
34.8064881476
 20
9.4984537789
 30
0.0
 10
34.8911482139
 20
9.4993118483
 30
0.0
 10
34.9828352931
 20
9.4998537135
 30
0.0
 10
35.0459441445
 20
9.4999893364
 30
0.0
 10
35.0781032493
 20
9.5
 30
0.0
  0
SPLINE
  5
538
100
AcDbEntity
  8
0
100
AcDbSpline
 62
250
  6
CONTINUOUS
 70
0
 71
3
 72
14
 73
10
 74
0
 42
0.0000001
 43
0.0000001
 44
0.0000000001
 40
0.0
 40
0.0
 40
0.0
 40
0.0
 40
0.0353257947
 40
0.0631909114
 40
0.0987762962
 40
0.1930299817
 40
0.3160944223
 40
0.6313026063
 40
1.0
 40
1.0
 40
1.0
 40
1.0
 10
34.5609945171
 20
21.1361579495
 30
0.0
 10
34.5616899747
 20
21.142168163
 30
0.0
 10
34.5709460933
 20
21.1506616031
 30
0.0
 10
34.5855034925
 20
21.15835624
 30
0.0
 10
34.6108915791
 20
21.1683050785
 30
0.0
 10
34.6528668507
 20
21.1789027194
 30
0.0
 10
34.742824454
 20
21.1945681469
 30
0.0
 10
34.8806334848
 20
21.2069705338
 30
0.0
 10
34.9977710677
 20
21.2105549267
 30
0.0
 10
35.0609183647
 20
21.2107174539
 30
0.0
  0
SPLINE
  5
539
100
AcDbEntity
  8
0
100
AcDbSpline
 62
250
  6
CONTINUOUS
 70
0
 71
3
 72
16
 73
12
 74
0
 42
0.0000001
 43
0.0000001
 44
0.0000000001
 40
0.0
 40
0.0
 40
0.0
 40
0.0
 40
0.380363539
 40
0.5488937994
 40
0.696270989
 40
0.8181925366
 40
0.9111010151
 40
0.9457938722
 40
0.9722897931
 40
0.990398642
 40
1.0
 40
1.0
 40
1.0
 40
1.0
 10
35.0609183647
 20
21.2107174911
 30
0.0
 10
35.0607765515
 20
21.3184372904
 30
0.0
 10
35.0603578202
 20
21.4738853043
 30
0.0
 10
35.0592589414
 20
21.6710677772
 30
0.0
 10
35.0582837083
 20
21.7950589049
 30
0.0
 10
35.0571409457
 20
21.8976292022
 30
0.0
 10
35.0560527947
 20
21.9682900797
 30
0.0
 10
35.0550259679
 20
22.0119146991
 30
0.0
 10
35.0543811168
 20
22.0343706932
 30
0.0
 10
35.0536285219
 20
22.0496893845
 30
0.0
 10
35.0531917141
 20
22.0575457304
 30
0.0
 10
35.0527451764
 20
22.0602279426
 30
0.0
  0
SPLINE
  5
53A
100
AcDbEntity
  8
0
100
AcDbSpline
 62
250
  6
CONTINUOUS
 70
0
 71
3
 72
16
 73
12
 74
0
 42
0.0000001
 43
0.0000001
 44
0.0000000001
 40
0.0
 40
0.0
 40
0.0
 40
0.0
 40
0.3802559384
 40
0.5487393614
 40
0.6960790182
 40
0.8179781346
 40
0.9108881162
 40
0.9455957435
 40
0.9721210493
 40
0.9902839721
 40
1.0
 40
1.0
 40
1.0
 40
1.0
 10
34.5609945171
 20
21.1361579495
 30
0.0
 10
34.5608527165
 20
21.1900208414
 30
0.0
 10
34.5604338387
 20
21.2677493695
 30
0.0
 10
34.5593350517
 20
21.366342314
 30
0.0
 10
34.5583593848
 20
21.4283390931
 30
0.0
 10
34.5572176202
 20
21.479622272
 30
0.0
 10
34.5561270408
 20
21.5149562163
 30
0.0
 10
34.5551036104
 20
21.5367593636
 30
0.0
 10
34.5544523712
 20
21.5480011999
 30
0.0
 10
34.553711421
 20
21.5556463703
 30
0.0
 10
34.5532560981
 20
21.5596073816
 30
0.0
 10
34.5528213288
 20
21.5609131753
 30
0.0
  0
SPLINE
  5
53B
100
AcDbEntity
  8
0
100
AcDbSpline
 62
250
  6
CONTINUOUS
 70
0
 71
3
 72
14
 73
10
 74
0
 42
0.0000001
 43
0.0000001
 44
0.0000000001
 40
0.0
 40
0.0
 40
0.0
 40
0.0
 40
0.0353257947
 40
0.0631909114
 40
0.0987762962
 40
0.1930299817
 40
0.3160944223
 40
0.6313026063
 40
1.0
 40
1.0
 40
1.0
 40
1.0
 10
56.6189263872
 20
-21.1361579495
 30
0.0
 10
56.6182309296
 20
-21.142168163
 30
0.0
 10
56.608974811
 20
-21.1506616031
 30
0.0
 10
56.5944174118
 20
-21.15835624
 30
0.0
 10
56.5690293252
 20
-21.1683050785
 30
0.0
 10
56.5270540537
 20
-21.1789027194
 30
0.0
 10
56.4370964504
 20
-21.1945681469
 30
0.0
 10
56.2992874195
 20
-21.2069705338
 30
0.0
 10
56.1821498367
 20
-21.2105549267
 30
0.0
 10
56.1190025396
 20
-21.2107174539
 30
0.0
  0
SPLINE
  5
53C
100
AcDbEntity
  8
0
100
AcDbSpline
 62
250
  6
CONTINUOUS
 70
0
 71
3
 72
16
 73
12
 74
0
 42
0.0000001
 43
0.0000001
 44
0.0000000001
 40
0.0
 40
0.0
 40
0.0
 40
0.0
 40
0.380363539
 40
0.5488937994
 40
0.696270989
 40
0.8181925366
 40
0.9111010151
 40
0.9457938722
 40
0.9722897931
 40
0.990398642
 40
1.0
 40
1.0
 40
1.0
 40
1.0
 10
56.1190025396
 20
-21.2107174911
 30
0.0
 10
56.1191443528
 20
-21.3184372904
 30
0.0
 10
56.1195630842
 20
-21.4738853043
 30
0.0
 10
56.1206619629
 20
-21.6710677772
 30
0.0
 10
56.121637196
 20
-21.7950589049
 30
0.0
 10
56.1227799586
 20
-21.8976292022
 30
0.0
 10
56.1238681096
 20
-21.9682900797
 30
0.0
 10
56.1248949365
 20
-22.0119146991
 30
0.0
 10
56.1255397876
 20
-22.0343706932
 30
0.0
 10
56.1262923825
 20
-22.0496893845
 30
0.0
 10
56.1267291902
 20
-22.0575457304
 30
0.0
 10
56.1271757279
 20
-22.0602279426
 30
0.0
  0
SPLINE
  5
53D
100
AcDbEntity
  8
0
100
AcDbSpline
 62
250
  6
CONTINUOUS
 70
0
 71
3
 72
16
 73
12
 74
0
 42
0.0000001
 43
0.0000001
 44
0.0000000001
 40
0.0
 40
0.0
 40
0.0
 40
0.0
 40
0.3802559384
 40
0.5487393614
 40
0.6960790182
 40
0.8179781346
 40
0.9108881162
 40
0.9455957435
 40
0.9721210493
 40
0.9902839721
 40
1.0
 40
1.0
 40
1.0
 40
1.0
 10
56.6189263872
 20
-21.1361579495
 30
0.0
 10
56.6190681878
 20
-21.1900208414
 30
0.0
 10
56.6194870657
 20
-21.2677493695
 30
0.0
 10
56.6205858527
 20
-21.366342314
 30
0.0
 10
56.6215615195
 20
-21.4283390931
 30
0.0
 10
56.6227032841
 20
-21.479622272
 30
0.0
 10
56.6237938635
 20
-21.5149562163
 30
0.0
 10
56.624817294
 20
-21.5367593636
 30
0.0
 10
56.6254685331
 20
-21.5480011999
 30
0.0
 10
56.6262094833
 20
-21.5556463703
 30
0.0
 10
56.6266648062
 20
-21.5596073816
 30
0.0
 10
56.6270995755
 20
-21.5609131753
 30
0.0
  0
SPLINE
  5
53E
100
AcDbEntity
  8
0
100
AcDbSpline
 62
250
  6
CONTINUOUS
 70
0
 71
3
 72
19
 73
15
 74
0
 42
0.0000001
 43
0.0000001
 44
0.0000000001
 40
0.0
 40
0.0
 40
0.0
 40
0.0
 40
0.0066567203
 40
0.022511367
 40
0.0475276341
 40
0.0814931282
 40
0.1240969056
 40
0.1749408951
 40
0.2335482367
 40
0.2993690198
 40
0.4501141173
 40
0.6215148122
 40
0.8071309544
 40
1.0
 40
1.0
 40
1.0
 40
1.0
 10
56.6017415026
 20
-9.4905
 30
0.0
 10
56.6009907853
 20
-9.4913175592
 30
0.0
 10
56.5967412985
 20
-9.4914174327
 30
0.0
 10
56.5893134999
 20
-9.4926977602
 30
0.0
 10
56.5766206588
 20
-9.4932826239
 30
0.0
 10
56.5598046613
 20
-9.4942265287
 30
0.0
 10
56.5385365067
 20
-9.4949998724
 30
0.0
 10
56.513207967
 20
-9.4957922936
 30
0.0
 10
56.4839876259
 20
-9.4965207129
 30
0.0
 10
56.4381165747
 20
-9.4974716191
 30
0.0
 10
56.3734327569
 20
-9.498453779
 30
0.0
 10
56.2887726906
 20
-9.4993118484
 30
0.0
 10
56.1970856113
 20
-9.4998537135
 30
0.0
 10
56.1339767599
 20
-9.4999893364
 30
0.0
 10
56.1018176551
 20
-9.5
 30
0.0
  0
SPLINE
  5
53F
100
AcDbEntity
  8
0
100
AcDbSpline
 62
250
  6
CONTINUOUS
 70
0
 71
3
 72
19
 73
15
 74
0
 42
0.0000001
 43
0.0000001
 44
0.0000000001
 40
0.0
 40
0.0
 40
0.0
 40
0.0
 40
0.0066567201
 40
0.0225113665
 40
0.0475276334
 40
0.0814931274
 40
0.1240969047
 40
0.174940894
 40
0.2335482356
 40
0.2993690188
 40
0.4501141164
 40
0.6215148115
 40
0.8071309541
 40
1.0
 40
1.0
 40
1.0
 40
1.0
 10
56.6017415026
 20
9.4905
 30
0.0
 10
56.6009907854
 20
9.4913175592
 30
0.0
 10
56.5967412985
 20
9.4914174326
 30
0.0
 10
56.5893135002
 20
9.4926977602
 30
0.0
 10
56.5766206591
 20
9.4932826239
 30
0.0
 10
56.5598046617
 20
9.4942265287
 30
0.0
 10
56.5385365071
 20
9.4949998724
 30
0.0
 10
56.5132079676
 20
9.4957922936
 30
0.0
 10
56.4839876265
 20
9.4965207129
 30
0.0
 10
56.4381165752
 20
9.4974716192
 30
0.0
 10
56.3734327574
 20
9.498453779
 30
0.0
 10
56.2887726909
 20
9.4993118484
 30
0.0
 10
56.1970856115
 20
9.4998537135
 30
0.0
 10
56.13397676
 20
9.4999893365
 30
0.0
 10
56.1018176551
 20
9.5
 30
0.0
  0
SPLINE
  5
540
100
AcDbEntity
  8
0
100
AcDbSpline
 62
250
  6
CONTINUOUS
 70
0
 71
3
 72
9
 73
5
 74
0
 42
0.0000001
 43
0.0000001
 44
0.0000000001
 40
0.0
 40
0.0
 40
0.0
 40
0.0
 40
0.2499887187
 40
1.0
 40
1.0
 40
1.0
 40
1.0
 10
56.6017415026
 20
9.4905
 30
0.0
 10
56.6012168504
 20
7.9088214473
 30
0.0
 10
56.5996430108
 20
1.5818215669
 30
0.0
 10
56.6001674513
 20
-4.7451788356
 30
0.0
 10
56.6017415026
 20
-9.4905
 30
0.0
  0
SPLINE
  5
541
100
AcDbEntity
  8
0
100
AcDbSpline
 62
250
  6
CONTINUOUS
 70
0
 71
3
 72
14
 73
10
 74
0
 42
0.0000001
 43
0.0000001
 44
0.0000000001
 40
0.0
 40
0.0
 40
0.0
 40
0.0
 40
0.0353257674
 40
0.0631908654
 40
0.0987762322
 40
0.1930298891
 40
0.3160943159
 40
0.6313025258
 40
1.0
 40
1.0
 40
1.0
 40
1.0
 10
56.6189263872
 20
21.1361579495
 30
0.0
 10
56.6182309425
 20
21.14216816
 30
0.0
 10
56.6089748381
 20
21.1506616098
 30
0.0
 10
56.5944174512
 20
21.1583562474
 30
0.0
 10
56.5690293772
 20
21.1683050914
 30
0.0
 10
56.5270541152
 20
21.1789027365
 30
0.0
 10
56.4370965123
 20
21.1945681738
 30
0.0
 10
56.2992874596
 20
21.206970568
 30
0.0
 10
56.1821498533
 20
21.2105549635
 30
0.0
 10
56.1190025396
 20
21.2107174909
 30
0.0
  0
SPLINE
  5
542
100
AcDbEntity
  8
0
100
AcDbSpline
 62
250
  6
CONTINUOUS
 70
0
 71
3
 72
16
 73
12
 74
0
 42
0.0000001
 43
0.0000001
 44
0.0000000001
 40
0.0
 40
0.0
 40
0.0
 40
0.0
 40
0.009601358
 40
0.0277102069
 40
0.0542061278
 40
0.0888989849
 40
0.1818074634
 40
0.303729011
 40
0.4511062006
 40
0.619636461
 40
1.0
 40
1.0
 40
1.0
 40
1.0
 10
56.1271757279
 20
22.0602279426
 30
0.0
 10
56.1267291902
 20
22.0575457304
 30
0.0
 10
56.1262923825
 20
22.0496893845
 30
0.0
 10
56.1255397876
 20
22.0343706932
 30
0.0
 10
56.1248949365
 20
22.0119146991
 30
0.0
 10
56.1238681096
 20
21.9682900797
 30
0.0
 10
56.1227799586
 20
21.8976292022
 30
0.0
 10
56.121637196
 20
21.7950589049
 30
0.0
 10
56.1206619629
 20
21.6710677772
 30
0.0
 10
56.1195630842
 20
21.4738853043
 30
0.0
 10
56.1191443528
 20
21.3184372904
 30
0.0
 10
56.1190025396
 20
21.2107174911
 30
0.0
  0
SPLINE
  5
543
100
AcDbEntity
  8
0
100
AcDbSpline
 62
250
  6
CONTINUOUS
 70
0
 71
3
 72
16
 73
12
 74
0
 42
0.0000001
 43
0.0000001
 44
0.0000000001
 40
0.0
 40
0.0
 40
0.0
 40
0.0
 40
0.0097160279
 40
0.0278789507
 40
0.0544042565
 40
0.0891118838
 40
0.1820218654
 40
0.3039209818
 40
0.4512606386
 40
0.6197440616
 40
1.0
 40
1.0
 40
1.0
 40
1.0
 10
56.6270995755
 20
21.5609131753
 30
0.0
 10
56.6266648062
 20
21.5596073816
 30
0.0
 10
56.6262094833
 20
21.5556463703
 30
0.0
 10
56.6254685331
 20
21.5480011999
 30
0.0
 10
56.624817294
 20
21.5367593636
 30
0.0
 10
56.6237938635
 20
21.5149562163
 30
0.0
 10
56.6227032841
 20
21.479622272
 30
0.0
 10
56.6215615195
 20
21.4283390931
 30
0.0
 10
56.6205858527
 20
21.366342314
 30
0.0
 10
56.6194870657
 20
21.2677493695
 30
0.0
 10
56.6190681878
 20
21.1900208414
 30
0.0
 10
56.6189263872
 20
21.1361579495
 30
0.0
  0
SPLINE
  5
544
100
AcDbEntity
  8
RACCORDO
100
AcDbSpline
 62
250
  6
CONTINUOUS
 70
0
 71
3
 72
18
 73
14
 74
0
 42
0.0000001
 43
0.0000001
 44
0.0000000001
 40
0.0
 40
0.0
 40
0.0
 40
0.0
 40
0.1945515232
 40
0.3824197251
 40
0.55526338
 40
0.7066436057
 40
0.8308718142
 40
0.881351877
 40
0.9233572477
 40
0.9564111876
 40
0.9802812811
 40
0.9948125169
 40
1.0
 40
1.0
 40
1.0
 40
1.0
 10
42.4899640913
 20
-9.499999985
 30
0.0
 10
42.5061879108
 20
-9.5000248424
 30
0.0
 10
42.5380785496
 20
-9.5000141261
 30
0.0
 10
42.5843813507
 20
-9.4998250798
 30
0.0
 10
42.6270866852
 20
-9.4994677359
 30
0.0
 10
42.6644716904
 20
-9.4989560473
 30
0.0
 10
42.6916801583
 20
-9.4984056917
 30
0.0
 10
42.7097110658
 20
-9.4978596726
 30
0.0
 10
42.7202449502
 20
-9.4974931951
 30
0.0
 10
42.7282951207
 20
-9.4970132553
 30
0.0
 10
42.7346761071
 20
-9.4967622848
 30
0.0
 10
42.7375099824
 20
-9.4960832214
 30
0.0
 10
42.7399685152
 20
-9.4960656619
 30
0.0
 10
42.7399691852
 20
-9.4956330733
 30
0.0
  0
SPLINE
  5
545
100
AcDbEntity
  8
RACCORDO
100
AcDbSpline
 62
250
  6
CONTINUOUS
 70
0
 71
3
 72
18
 73
14
 74
0
 42
0.0000001
 43
0.0000001
 44
0.0000000001
 40
0.0
 40
0.0
 40
0.0
 40
0.0
 40
0.1945499663
 40
0.38241734
 40
0.5552607594
 40
0.7066411941
 40
0.8308699069
 40
0.8813502871
 40
0.9233559952
 40
0.9564102758
 40
0.9802807018
 40
0.9948122508
 40
1.0
 40
1.0
 40
1.0
 40
1.0
 10
48.689956813
 20
-9.4999999596
 30
0.0
 10
48.6737328047
 20
-9.5000248233
 30
0.0
 10
48.6418417383
 20
-9.500014118
 30
0.0
 10
48.5955382461
 20
-9.499825085
 30
0.0
 10
48.5528321444
 20
-9.4994677507
 30
0.0
 10
48.5154463635
 20
-9.4989560668
 30
0.0
 10
48.4882372782
 20
-9.4984057138
 30
0.0
 10
48.4702059143
 20
-9.4978596917
 30
0.0
 10
48.4596717509
 20
-9.4974932175
 30
0.0
 10
48.4516213089
 20
-9.4970132618
 30
0.0
 10
48.4452401784
 20
-9.4967623191
 30
0.0
 10
48.4424060642
 20
-9.496083192
 30
0.0
 10
48.4399475328
 20
-9.496065698
 30
0.0
 10
48.4399467982
 20
-9.4956330787
 30
0.0
  0
SPLINE
  5
546
100
AcDbEntity
  8
RACCORDO
100
AcDbSpline
 62
250
  6
CONTINUOUS
 70
0
 71
3
 72
18
 73
14
 74
0
 42
0.0000001
 43
0.0000001
 44
0.0000000001
 40
0.0
 40
0.0
 40
0.0
 40
0.0
 40
0.2131555654
 40
0.4079513056
 40
0.5803631347
 40
0.7267787512
 40
0.8442246022
 40
0.8911745079
 40
0.9298827821
 40
0.9602181221
 40
0.9820648898
 40
0.9953209214
 40
1.0
 40
1.0
 40
1.0
 40
1.0
 10
48.0011205749
 20
-7.7103586125
 30
0.0
 10
47.9923770383
 20
-7.7167985966
 30
0.0
 10
47.9756291052
 20
-7.7291051712
 30
0.0
 10
47.9517578394
 20
-7.7465498207
 30
0.0
 10
47.9305821755
 20
-7.7619244701
 30
0.0
 10
47.9125451689
 20
-7.7749024273
 30
0.0
 10
47.89963319
 20
-7.7840899517
 30
0.0
 10
47.8911629887
 20
-7.7899989776
 30
0.0
 10
47.8862708849
 20
-7.7933873458
 30
0.0
 10
47.8824887215
 20
-7.7958678645
 30
0.0
 10
47.8795493659
 20
-7.7979126556
 30
0.0
 10
47.8780593289
 20
-7.7985360158
 30
0.0
 10
47.8769689954
 20
-7.7993848231
 30
0.0
 10
47.8768267388
 20
-7.799193548
 30
0.0
  0
SPLINE
  5
547
100
AcDbEntity
  8
RACCORDO
100
AcDbSpline
 62
250
  6
CONTINUOUS
 70
0
 71
3
 72
21
 73
17
 74
0
 42
0.0000001
 43
0.0000001
 44
0.0000000001
 40
0.0
 40
0.0
 40
0.0
 40
0.0
 40
0.1939689153
 40
0.3810305587
 40
0.5538326004
 40
0.705626073
 40
0.7717412448
 40
0.8304299674
 40
0.8811193034
 40
0.923334041
 40
0.9566054677
 40
0.980595138
 40
0.9890510963
 40
0.9951184825
 40
0.9987753257
 40
1.0
 40
1.0
 40
1.0
 40
1.0
 10
48.0774290449
 20
-7.6538269135
 30
0.0
 10
48.078045965
 20
-7.6374257912
 30
0.0
 10
48.0786953266
 20
-7.6051759959
 30
0.0
 10
48.0773000943
 20
-7.5583280297
 30
0.0
 10
48.0769751061
 20
-7.5150326219
 30
0.0
 10
48.077293787
 20
-7.4819732817
 30
0.0
 10
48.0775011394
 20
-7.4585704204
 30
0.0
 10
48.0775617947
 20
-7.4437197429
 30
0.0
 10
48.0775285509
 20
-7.4308965585
 30
0.0
 10
48.077443991
 20
-7.4202094018
 30
0.0
 10
48.0774139991
 20
-7.4118212805
 30
0.0
 10
48.0773474842
 20
-7.4062000372
 30
0.0
 10
48.0774316052
 20
-7.4030233241
 30
0.0
 10
48.0773149954
 20
-7.4013489948
 30
0.0
 10
48.0775489026
 20
-7.4006641067
 30
0.0
 10
48.0773254189
 20
-7.4
 30
0.0
 10
48.0774290449
 20
-7.4
 30
0.0
  0
SPLINE
  5
548
100
AcDbEntity
  8
RACCORDO
100
AcDbSpline
 62
7
  6
CONTINUOUS
 70
0
 71
3
 72
11
 73
7
 74
0
 42
0.0000001
 43
0.0000001
 44
0.0000000001
 40
0.0
 40
0.0
 40
0.0
 40
0.0
 40
0.6462184248
 40
0.782926649
 40
0.896329096
 40
1.0
 40
1.0
 40
1.0
 40
1.0
 10
49.5399604522
 20
-7.6538269135
 30
0.0
 10
49.4856965343
 20
-7.5995557842
 30
0.0
 10
49.420012308
 20
-7.5337405702
 30
0.0
 10
49.345413719
 20
-7.4578052249
 30
0.0
 10
49.3158958964
 20
-7.4279013627
 30
0.0
 10
49.2982115351
 20
-7.4091441622
 30
0.0
 10
49.2899604522
 20
-7.4
 30
0.0
  0
SPLINE
  5
549
100
AcDbEntity
  8
RACCORDO
100
AcDbSpline
 62
250
  6
CONTINUOUS
 70
0
 71
3
 72
23
 73
19
 74
0
 42
0.0000001
 43
0.0000001
 44
0.0000000001
 40
0.0
 40
0.0
 40
0.0
 40
0.0
 40
0.0625005567
 40
0.1249997744
 40
0.1874880597
 40
0.2499765051
 40
0.3124690956
 40
0.3749711388
 40
0.4374826726
 40
0.5000000463
 40
0.5625174003
 40
0.625028905
 40
0.6875309672
 40
0.7500236255
 40
0.8125120895
 40
0.8750002789
 40
0.9374993966
 40
1.0
 40
1.0
 40
1.0
 40
1.0
 10
48.6899568131
 20
-9.5
 30
0.0
 10
48.690235445
 20
-9.7030494981
 30
0.0
 10
48.6509694434
 20
-10.1103225049
 30
0.0
 10
48.4744338553
 20
-10.6971804327
 30
0.0
 10
48.1870054506
 20
-11.2386415123
 30
0.0
 10
47.7995780042
 20
-11.7136352608
 30
0.0
 10
47.3268055985
 20
-12.1038828437
 30
0.0
 10
46.7867673562
 20
-12.3941758939
 30
0.0
 10
46.2002389495
 20
-12.5730887407
 30
0.0
 10
45.5899600509
 20
-12.6335297555
 30
0.0
 10
44.979681262
 20
-12.5730886128
 30
0.0
 10
44.3931529865
 20
-12.3941756753
 30
0.0
 10
43.853114641
 20
-12.1038824147
 30
0.0
 10
43.38034208
 20
-11.7136344734
 30
0.0
 10
42.9929148053
 20
-11.2386406162
 30
0.0
 10
42.705486891
 20
-10.6971799462
 30
0.0
 10
42.5289514718
 20
-10.1103224797
 30
0.0
 10
42.4896855611
 20
-9.7030496502
 30
0.0
 10
42.4899640913
 20
-9.5
 30
0.0
  0
SPLINE
  5
54A
100
AcDbEntity
  8
RACCORDO
100
AcDbSpline
 62
250
  6
CONTINUOUS
 70
0
 71
3
 72
23
 73
19
 74
0
 42
0.0000001
 43
0.0000001
 44
0.0000000001
 40
0.0
 40
0.0
 40
0.0
 40
0.0
 40
0.0625005758
 40
0.1249997789
 40
0.1874880455
 40
0.2499765003
 40
0.312469097
 40
0.3749711432
 40
0.4374826746
 40
0.500000047
 40
0.5625173997
 40
0.6250289018
 40
0.6875309668
 40
0.7500236312
 40
0.8125121056
 40
0.8750002776
 40
0.9374993788
 40
1.0
 40
1.0
 40
1.0
 40
1.0
 10
42.4899640913
 20
9.5
 30
0.0
 10
42.4896846961
 20
9.7030495673
 30
0.0
 10
42.5289520942
 20
10.1103225371
 30
0.0
 10
42.7054863013
 20
10.6971807301
 30
0.0
 10
42.9929153089
 20
11.238641556
 30
0.0
 10
43.3803427038
 20
11.7136352833
 30
0.0
 10
43.8531151944
 20
12.103882934
 30
0.0
 10
44.3931535216
 20
12.3941759164
 30
0.0
 10
44.9796819511
 20
12.5730887586
 30
0.0
 10
45.58996086
 20
12.6335297464
 30
0.0
 10
46.2002396584
 20
12.573088628
 30
0.0
 10
46.7867679546
 20
12.3941756934
 30
0.0
 10
47.3268063825
 20
12.1038824991
 30
0.0
 10
47.7995790295
 20
11.713634488
 30
0.0
 10
48.1870062555
 20
11.2386406445
 30
0.0
 10
48.4744347665
 20
10.6971802234
 30
0.0
 10
48.6509687997
 20
10.1103224972
 30
0.0
 10
48.6902361057
 20
9.7030497151
 30
0.0
 10
48.6899568131
 20
9.5
 30
0.0
  0
SPLINE
  5
54B
100
AcDbEntity
  8
RACCORDO
100
AcDbSpline
 62
7
  6
CONTINUOUS
 70
0
 71
3
 72
10
 73
6
 74
0
 42
0.0000001
 43
0.0000001
 44
0.0000000001
 40
0.0
 40
0.0
 40
0.0
 40
0.0
 40
0.643877858
 40
0.892866301
 40
1.0
 40
1.0
 40
1.0
 40
1.0
 10
49.5399604522
 20
-5.0525262631
 30
0.0
 10
49.4865786297
 20
-5.1059187098
 30
0.0
 10
49.4122864288
 20
-5.1796850542
 30
0.0
 10
49.3292668912
 20
-5.262505328
 30
0.0
 10
49.2991102176
 20
-5.2913903607
 30
0.0
 10
49.2899604522
 20
-5.3
 30
0.0
  0
SPLINE
  5
54C
100
AcDbEntity
  8
0
100
AcDbSpline
 62
250
  6
CONTINUOUS
 70
0
 71
3
 72
11
 73
7
 74
0
 42
0.0000001
 43
0.0000001
 44
0.0000000001
 40
0.0
 40
0.0
 40
0.0
 40
0.0
 40
0.2331623084
 40
0.476670585
 40
0.7338116789
 40
1.0
 40
1.0
 40
1.0
 40
1.0
 10
55.7268618735
 20
23.8443375673
 30
0.0
 10
55.7267668017
 20
23.8160323825
 30
0.0
 10
55.7128369439
 20
23.7574892432
 30
0.0
 10
55.6559045198
 20
23.6858281285
 30
0.0
 10
55.5732364796
 20
23.6388299314
 30
0.0
 10
55.5091806249
 20
23.6279126229
 30
0.0
 10
55.4768661042
 20
23.6278312164
 30
0.0
  0
SPLINE
  5
54D
100
AcDbEntity
  8
RACCORDO
100
AcDbSpline
 62
7
  6
CONTINUOUS
 70
0
 71
3
 72
10
 73
6
 74
0
 42
0.0000001
 43
0.0000001
 44
0.0000000001
 40
0.0
 40
0.0
 40
0.0
 40
0.0
 40
0.6438845454
 40
0.8928763544
 40
1.0
 40
1.0
 40
1.0
 40
1.0
 10
41.6399604522
 20
-5.0525262631
 30
0.0
 10
41.6933428291
 20
-5.1059192644
 30
0.0
 10
41.7676358892
 20
-5.1796864158
 30
0.0
 10
41.8506553988
 20
-5.2625067194
 30
0.0
 10
41.8808115383
 20
-5.2913911761
 30
0.0
 10
41.8899604522
 20
-5.3
 30
0.0
  0
SPLINE
  5
54E
100
AcDbEntity
  8
RACCORDO
100
AcDbSpline
 62
7
  6
CONTINUOUS
 70
0
 71
3
 72
11
 73
7
 74
0
 42
0.0000001
 43
0.0000001
 44
0.0000000001
 40
0.0
 40
0.0
 40
0.0
 40
0.0
 40
0.6462300671
 40
0.7829445362
 40
0.8963457832
 40
1.0
 40
1.0
 40
1.0
 40
1.0
 10
41.6399604522
 20
-7.6538269135
 30
0.0
 10
41.6942253478
 20
-7.5995548063
 30
0.0
 10
41.7599114559
 20
-7.5337384621
 30
0.0
 10
41.8345107771
 20
-7.4578010586
 30
0.0
 10
41.864027927
 20
-7.4278984714
 30
0.0
 10
41.8817108193
 20
-7.4091428075
 30
0.0
 10
41.8899604522
 20
-7.4
 30
0.0
  0
SPLINE
  5
54F
100
AcDbEntity
  8
RACCORDO
100
AcDbSpline
 62
250
  6
CONTINUOUS
 70
0
 71
3
 72
21
 73
17
 74
0
 42
0.0000001
 43
0.0000001
 44
0.0000000001
 40
0.0
 40
0.0
 40
0.0
 40
0.0
 40
0.1939689153
 40
0.3810305587
 40
0.5538326004
 40
0.705626073
 40
0.7717412448
 40
0.8304299674
 40
0.8811193034
 40
0.923334041
 40
0.9566054677
 40
0.980595138
 40
0.9890510963
 40
0.9951184825
 40
0.9987753257
 40
1.0
 40
1.0
 40
1.0
 40
1.0
 10
43.1024918594
 20
-7.6538269135
 30
0.0
 10
43.1018749393
 20
-7.6374257912
 30
0.0
 10
43.1012255777
 20
-7.6051759959
 30
0.0
 10
43.10262081
 20
-7.5583280297
 30
0.0
 10
43.1029457983
 20
-7.5150326219
 30
0.0
 10
43.1026271174
 20
-7.4819732817
 30
0.0
 10
43.1024197649
 20
-7.4585704204
 30
0.0
 10
43.1023591096
 20
-7.4437197429
 30
0.0
 10
43.1023923534
 20
-7.4308965585
 30
0.0
 10
43.1024769133
 20
-7.4202094018
 30
0.0
 10
43.1025069053
 20
-7.4118212805
 30
0.0
 10
43.1025734201
 20
-7.4062000372
 30
0.0
 10
43.1024892991
 20
-7.4030233241
 30
0.0
 10
43.102605909
 20
-7.4013489948
 30
0.0
 10
43.1023720017
 20
-7.4006641067
 30
0.0
 10
43.1025954855
 20
-7.4
 30
0.0
 10
43.1024918594
 20
-7.4
 30
0.0
  0
SPLINE
  5
550
100
AcDbEntity
  8
RACCORDO
100
AcDbSpline
 62
250
  6
CONTINUOUS
 70
0
 71
3
 72
18
 73
14
 74
0
 42
0.0000001
 43
0.0000001
 44
0.0000000001
 40
0.0
 40
0.0
 40
0.0
 40
0.0
 40
0.2131555639
 40
0.4079513029
 40
0.580363131
 40
0.7267787465
 40
0.844224597
 40
0.8911745026
 40
0.9298827769
 40
0.9602181172
 40
0.9820648855
 40
0.9953209182
 40
1.0
 40
1.0
 40
1.0
 40
1.0
 10
43.1788003249
 20
7.7103586186
 30
0.0
 10
43.1875438611
 20
7.7167986032
 30
0.0
 10
43.2042917936
 20
7.7291051788
 30
0.0
 10
43.2281630588
 20
7.7465498289
 30
0.0
 10
43.2493387227
 20
7.7619244784
 30
0.0
 10
43.2673757296
 20
7.7749024352
 30
0.0
 10
43.2802877091
 20
7.7840899587
 30
0.0
 10
43.2887579112
 20
7.7899989836
 30
0.0
 10
43.2936500158
 20
7.7933873506
 30
0.0
 10
43.2974321799
 20
7.7958678687
 30
0.0
 10
43.3003715366
 20
7.7979126576
 30
0.0
 10
43.3018615742
 20
7.7985360187
 30
0.0
 10
43.3029519088
 20
7.7993848232
 30
0.0
 10
43.3030941656
 20
7.799193548
 30
0.0
  0
SPLINE
  5
551
100
AcDbEntity
  8
0
100
AcDbSpline
 62
7
  6
CONTINUOUS
 70
0
 71
3
 72
13
 73
9
 74
0
 42
0.0000001
 43
0.0000001
 44
0.0000000001
 40
0.0
 40
0.0
 40
0.0
 40
0.0
 40
0.3260521389
 40
0.605103046
 40
0.7216768541
 40
0.8239470167
 40
0.9151089552
 40
1.0
 40
1.0
 40
1.0
 40
1.0
 10
55.4826839341
 20
23.1226497308
 30
0.0
 10
55.516794373
 20
23.1226497308
 30
0.0
 10
55.5802979345
 20
23.1303404936
 30
0.0
 10
55.6518594024
 20
23.1579699312
 30
0.0
 10
55.6940610791
 20
23.1890075819
 30
0.0
 10
55.7158550063
 20
23.2134115332
 30
0.0
 10
55.7293592559
 20
23.2396108244
 30
0.0
 10
55.7325902182
 20
23.2581067436
 30
0.0
 10
55.7326797033
 20
23.2669872981
 30
0.0
  0
SPLINE
  5
552
100
AcDbEntity
  8
0
100
AcDbSpline
 62
7
  6
CONTINUOUS
 70
0
 71
3
 72
13
 73
9
 74
0
 42
0.0000001
 43
0.0000001
 44
0.0000000001
 40
0.0
 40
0.0
 40
0.0
 40
0.0
 40
0.0848440362
 40
0.1759755807
 40
0.278241715
 40
0.3948395492
 40
0.6739816576
 40
1.0
 40
1.0
 40
1.0
 40
1.0
 10
52.8472412011
 20
23.2669872981
 30
0.0
 10
52.8473308427
 20
23.2580912117
 30
0.0
 10
52.8505735118
 20
23.2395605855
 30
0.0
 10
52.8641254993
 20
23.2133182791
 30
0.0
 10
52.8859943382
 20
23.1888806294
 30
0.0
 10
52.9283391052
 20
23.1578162275
 30
0.0
 10
53.0001098238
 20
23.130184663
 30
0.0
 10
53.0637787134
 20
23.1226497308
 30
0.0
 10
53.097964199
 20
23.1226497308
 30
0.0
  0
SPLINE
  5
553
100
AcDbEntity
  8
0
100
AcDbSpline
 62
250
  6
CONTINUOUS
 70
0
 71
3
 72
11
 73
7
 74
0
 42
0.0000001
 43
0.0000001
 44
0.0000000001
 40
0.0
 40
0.0
 40
0.0
 40
0.0
 40
0.2331623084
 40
0.476670585
 40
0.7338116789
 40
1.0
 40
1.0
 40
1.0
 40
1.0
 10
52.8530590309
 20
23.8443375673
 30
0.0
 10
52.8531541027
 20
23.8160323825
 30
0.0
 10
52.8670839604
 20
23.7574892432
 30
0.0
 10
52.9240163846
 20
23.6858281285
 30
0.0
 10
53.0066844247
 20
23.6388299314
 30
0.0
 10
53.0707402795
 20
23.6279126229
 30
0.0
 10
53.1030548001
 20
23.6278312164
 30
0.0
  0
SPLINE
  5
554
100
AcDbEntity
  8
RACCORDO
100
AcDbSpline
 62
250
  6
CONTINUOUS
 70
0
 71
3
 72
18
 73
14
 74
0
 42
0.0000001
 43
0.0000001
 44
0.0000000001
 40
0.0
 40
0.0
 40
0.0
 40
0.0
 40
0.194550305
 40
0.3824178497
 40
0.5552613057
 40
0.70664168
 40
0.8308702729
 40
0.8813505826
 40
0.9233562192
 40
0.9564104316
 40
0.9802807954
 40
0.9948122907
 40
1.0
 40
1.0
 40
1.0
 40
1.0
 10
42.4899640914
 20
9.4999999647
 30
0.0
 10
42.5061880541
 20
9.5000248269
 30
0.0
 10
42.5380790178
 20
9.5000141188
 30
0.0
 10
42.5843823449
 20
9.4998250826
 30
0.0
 10
42.6270882646
 20
9.499467746
 30
0.0
 10
42.6644738632
 20
9.4989560611
 30
0.0
 10
42.6916828042
 20
9.4984057078
 30
0.0
 10
42.7097140634
 20
9.4978596863
 30
0.0
 10
42.7202481628
 20
9.4974932118
 30
0.0
 10
42.7282985475
 20
9.4970132591
 30
0.0
 10
42.7346796419
 20
9.496762312
 30
0.0
 10
42.7375137162
 20
9.4960831957
 30
0.0
 10
42.7399722412
 20
9.4960656911
 30
0.0
 10
42.7399729668
 20
9.4956330772
 30
0.0
  0
SPLINE
  5
555
100
AcDbEntity
  8
0
100
AcDbSpline
 62
250
  6
CONTINUOUS
 70
0
 71
3
 72
11
 73
7
 74
0
 42
0.0000001
 43
0.0000001
 44
0.0000000001
 40
0.0
 40
0.0
 40
0.0
 40
0.0
 40
0.2331622206
 40
0.4766705204
 40
0.7338116472
 40
1.0
 40
1.0
 40
1.0
 40
1.0
 10
38.3268618735
 20
23.8443375673
 30
0.0
 10
38.3267668017
 20
23.8160323931
 30
0.0
 10
38.3128369533
 20
23.7574892617
 30
0.0
 10
38.2559045384
 20
23.6858281428
 30
0.0
 10
38.1732364917
 20
23.6388299344
 30
0.0
 10
38.1091806287
 20
23.6279126229
 30
0.0
 10
38.0768661042
 20
23.6278312164
 30
0.0
  0
SPLINE
  5
556
100
AcDbEntity
  8
RACCORDO
100
AcDbSpline
 62
250
  6
CONTINUOUS
 70
0
 71
3
 72
18
 73
14
 74
0
 42
0.0000001
 43
0.0000001
 44
0.0000000001
 40
0.0
 40
0.0
 40
0.0
 40
0.0
 40
0.2131550076
 40
0.4079502445
 40
0.5803616419
 40
0.7267769192
 40
0.8442225596
 40
0.8911724292
 40
0.9298807295
 40
0.9602161748
 40
0.9820631616
 40
0.995319627
 40
1.0
 40
1.0
 40
1.0
 40
1.0
 10
48.0011223689
 20
7.7103610202
 30
0.0
 10
47.9923789944
 20
7.7168012224
 30
0.0
 10
47.9756313143
 20
7.729108138
 30
0.0
 10
47.9517602464
 20
7.746553056
 30
0.0
 10
47.9305846159
 20
7.7619277504
 30
0.0
 10
47.9125474931
 20
7.7749055635
 30
0.0
 10
47.8996352589
 20
7.7840927307
 30
0.0
 10
47.8911647275
 20
7.7900013376
 30
0.0
 10
47.8862723237
 20
7.7933892485
 30
0.0
 10
47.8824898727
 20
7.7958695395
 30
0.0
 10
47.8795500971
 20
7.7979134456
 30
0.0
 10
47.8780598515
 20
7.7985371905
 30
0.0
 10
47.876969035
 20
7.7993848763
 30
0.0
 10
47.8768267386
 20
7.7991935478
 30
0.0
  0
SPLINE
  5
557
100
AcDbEntity
  8
RACCORDO
100
AcDbSpline
 62
250
  6
CONTINUOUS
 70
0
 71
3
 72
18
 73
14
 74
0
 42
0.0000001
 43
0.0000001
 44
0.0000000001
 40
0.0
 40
0.0
 40
0.0
 40
0.0
 40
0.1945513392
 40
0.3824194573
 40
0.5552631052
 40
0.7066433758
 40
0.8308716565
 40
0.881351758
 40
0.9233571652
 40
0.9564111369
 40
0.9802812558
 40
0.9948125091
 40
1.0
 40
1.0
 40
1.0
 40
1.0
 10
48.689956813
 20
9.4999999828
 30
0.0
 10
48.6737329638
 20
9.5000248412
 30
0.0
 10
48.6418422587
 20
9.5000141265
 30
0.0
 10
48.595539352
 20
9.4998250823
 30
0.0
 10
48.5528339026
 20
9.4994677397
 30
0.0
 10
48.5154487844
 20
9.4989560518
 30
0.0
 10
48.4882402279
 20
9.4984056963
 30
0.0
 10
48.470209258
 20
9.4978596767
 30
0.0
 10
48.4596753354
 20
9.4974931992
 30
0.0
 10
48.4516251346
 20
9.4970132582
 30
0.0
 10
48.4452441245
 20
9.4967622887
 30
0.0
 10
48.4424102365
 20
9.4960832218
 30
0.0
 10
48.439951695
 20
9.4960656649
 30
0.0
 10
48.4399510241
 20
9.4956330744
 30
0.0
  0
SPLINE
  5
558
100
AcDbEntity
  8
0
100
AcDbSpline
 62
7
  6
CONTINUOUS
 70
0
 71
3
 72
13
 73
9
 74
0
 42
0.0000001
 43
0.0000001
 44
0.0000000001
 40
0.0
 40
0.0
 40
0.0
 40
0.0
 40
0.0848440362
 40
0.1759755807
 40
0.278241715
 40
0.3948395492
 40
0.6739816576
 40
1.0
 40
1.0
 40
1.0
 40
1.0
 10
38.3326797033
 20
23.2669872981
 30
0.0
 10
38.3325900617
 20
23.2580912117
 30
0.0
 10
38.3293473925
 20
23.2395605855
 30
0.0
 10
38.315795405
 20
23.2133182791
 30
0.0
 10
38.2939265661
 20
23.1888806294
 30
0.0
 10
38.2515817992
 20
23.1578162275
 30
0.0
 10
38.1798110805
 20
23.130184663
 30
0.0
 10
38.116142191
 20
23.1226497308
 30
0.0
 10
38.0819567053
 20
23.1226497308
 30
0.0
  0
SPLINE
  5
559
100
AcDbEntity
  8
RACCORDO
100
AcDbSpline
 62
250
  6
CONTINUOUS
 70
0
 71
3
 72
21
 73
17
 74
0
 42
0.0000001
 43
0.0000001
 44
0.0000000001
 40
0.0
 40
0.0
 40
0.0
 40
0.0
 40
0.1939689153
 40
0.3810305587
 40
0.5538326004
 40
0.705626073
 40
0.7717412448
 40
0.8304299674
 40
0.8811193034
 40
0.923334041
 40
0.9566054677
 40
0.980595138
 40
0.9890510963
 40
0.9951184825
 40
0.9987753257
 40
1.0
 40
1.0
 40
1.0
 40
1.0
 10
48.0774290449
 20
7.6538269135
 30
0.0
 10
48.078045965
 20
7.6374257912
 30
0.0
 10
48.0786953266
 20
7.6051759959
 30
0.0
 10
48.0773000943
 20
7.5583280297
 30
0.0
 10
48.0769751061
 20
7.5150326219
 30
0.0
 10
48.077293787
 20
7.4819732817
 30
0.0
 10
48.0775011394
 20
7.4585704204
 30
0.0
 10
48.0775617947
 20
7.4437197429
 30
0.0
 10
48.0775285509
 20
7.4308965585
 30
0.0
 10
48.077443991
 20
7.4202094018
 30
0.0
 10
48.0774139991
 20
7.4118212805
 30
0.0
 10
48.0773474842
 20
7.4062000372
 30
0.0
 10
48.0774316052
 20
7.4030233241
 30
0.0
 10
48.0773149954
 20
7.4013489948
 30
0.0
 10
48.0775489026
 20
7.4006641067
 30
0.0
 10
48.0773254189
 20
7.4
 30
0.0
 10
48.0774290449
 20
7.4
 30
0.0
  0
SPLINE
  5
55A
100
AcDbEntity
  8
RACCORDO
100
AcDbSpline
 62
7
  6
CONTINUOUS
 70
0
 71
3
 72
11
 73
7
 74
0
 42
0.0000001
 43
0.0000001
 44
0.0000000001
 40
0.0
 40
0.0
 40
0.0
 40
0.0
 40
0.6462184248
 40
0.782926649
 40
0.896329096
 40
1.0
 40
1.0
 40
1.0
 40
1.0
 10
49.5399604522
 20
7.6538269135
 30
0.0
 10
49.4856965343
 20
7.5995557842
 30
0.0
 10
49.420012308
 20
7.5337405702
 30
0.0
 10
49.345413719
 20
7.4578052249
 30
0.0
 10
49.3158958964
 20
7.4279013627
 30
0.0
 10
49.2982115351
 20
7.4091441622
 30
0.0
 10
49.2899604522
 20
7.4
 30
0.0
  0
SPLINE
  5
55B
100
AcDbEntity
  8
RACCORDO
100
AcDbSpline
 62
7
  6
CONTINUOUS
 70
0
 71
3
 72
10
 73
6
 74
0
 42
0.0000001
 43
0.0000001
 44
0.0000000001
 40
0.0
 40
0.0
 40
0.0
 40
0.0
 40
0.643877858
 40
0.892866301
 40
1.0
 40
1.0
 40
1.0
 40
1.0
 10
49.5399604522
 20
5.0525262631
 30
0.0
 10
49.4865786297
 20
5.1059187098
 30
0.0
 10
49.4122864288
 20
5.1796850542
 30
0.0
 10
49.3292668912
 20
5.262505328
 30
0.0
 10
49.2991102176
 20
5.2913903607
 30
0.0
 10
49.2899604522
 20
5.3
 30
0.0
  0
SPLINE
  5
55C
100
AcDbEntity
  8
0
100
AcDbSpline
 62
7
  6
CONTINUOUS
 70
0
 71
3
 72
13
 73
9
 74
0
 42
0.0000001
 43
0.0000001
 44
0.0000000001
 40
0.0
 40
0.0
 40
0.0
 40
0.0
 40
0.0848440362
 40
0.1759755807
 40
0.278241715
 40
0.3948395492
 40
0.6739816576
 40
1.0
 40
1.0
 40
1.0
 40
1.0
 10
35.4472412011
 20
23.2669872981
 30
0.0
 10
35.4473308427
 20
23.2580912117
 30
0.0
 10
35.4505735118
 20
23.2395605855
 30
0.0
 10
35.4641254993
 20
23.2133182791
 30
0.0
 10
35.4859943382
 20
23.1888806294
 30
0.0
 10
35.5283391052
 20
23.1578162275
 30
0.0
 10
35.6001098238
 20
23.130184663
 30
0.0
 10
35.6637787134
 20
23.1226497308
 30
0.0
 10
35.697964199
 20
23.1226497308
 30
0.0
  0
SPLINE
  5
55D
100
AcDbEntity
  8
0
100
AcDbSpline
 62
250
  6
CONTINUOUS
 70
0
 71
3
 72
11
 73
7
 74
0
 42
0.0000001
 43
0.0000001
 44
0.0000000001
 40
0.0
 40
0.0
 40
0.0
 40
0.0
 40
0.2331623084
 40
0.476670585
 40
0.7338116789
 40
1.0
 40
1.0
 40
1.0
 40
1.0
 10
35.4530590309
 20
23.8443375673
 30
0.0
 10
35.4531541027
 20
23.8160323825
 30
0.0
 10
35.4670839604
 20
23.7574892432
 30
0.0
 10
35.5240163846
 20
23.6858281285
 30
0.0
 10
35.6066844247
 20
23.6388299314
 30
0.0
 10
35.6707402795
 20
23.6279126229
 30
0.0
 10
35.7030548001
 20
23.6278312164
 30
0.0
  0
SPLINE
  5
55E
100
AcDbEntity
  8
RACCORDO
100
AcDbSpline
 62
7
  6
CONTINUOUS
 70
0
 71
3
 72
10
 73
6
 74
0
 42
0.0000001
 43
0.0000001
 44
0.0000000001
 40
0.0
 40
0.0
 40
0.0
 40
0.0
 40
0.6438845454
 40
0.8928763544
 40
1.0
 40
1.0
 40
1.0
 40
1.0
 10
41.6399604522
 20
5.0525262631
 30
0.0
 10
41.6933428291
 20
5.1059192644
 30
0.0
 10
41.7676358892
 20
5.1796864158
 30
0.0
 10
41.8506553988
 20
5.2625067194
 30
0.0
 10
41.8808115383
 20
5.2913911761
 30
0.0
 10
41.8899604522
 20
5.3
 30
0.0
  0
SPLINE
  5
55F
100
AcDbEntity
  8
RACCORDO
100
AcDbSpline
 62
7
  6
CONTINUOUS
 70
0
 71
3
 72
11
 73
7
 74
0
 42
0.0000001
 43
0.0000001
 44
0.0000000001
 40
0.0
 40
0.0
 40
0.0
 40
0.0
 40
0.6462300671
 40
0.7829445362
 40
0.8963457832
 40
1.0
 40
1.0
 40
1.0
 40
1.0
 10
41.6399604522
 20
7.6538269135
 30
0.0
 10
41.6942253478
 20
7.5995548063
 30
0.0
 10
41.7599114559
 20
7.5337384621
 30
0.0
 10
41.8345107771
 20
7.4578010586
 30
0.0
 10
41.864027927
 20
7.4278984714
 30
0.0
 10
41.8817108193
 20
7.4091428075
 30
0.0
 10
41.8899604522
 20
7.4
 30
0.0
  0
SPLINE
  5
560
100
AcDbEntity
  8
RACCORDO
100
AcDbSpline
 62
250
  6
CONTINUOUS
 70
0
 71
3
 72
21
 73
17
 74
0
 42
0.0000001
 43
0.0000001
 44
0.0000000001
 40
0.0
 40
0.0
 40
0.0
 40
0.0
 40
0.1939689153
 40
0.3810305587
 40
0.5538326004
 40
0.705626073
 40
0.7717412448
 40
0.8304299674
 40
0.8811193034
 40
0.923334041
 40
0.9566054677
 40
0.980595138
 40
0.9890510963
 40
0.9951184825
 40
0.9987753257
 40
1.0
 40
1.0
 40
1.0
 40
1.0
 10
43.1024918594
 20
7.6538269135
 30
0.0
 10
43.1018749393
 20
7.6374257912
 30
0.0
 10
43.1012255777
 20
7.6051759959
 30
0.0
 10
43.10262081
 20
7.5583280297
 30
0.0
 10
43.1029457983
 20
7.5150326219
 30
0.0
 10
43.1026271174
 20
7.4819732817
 30
0.0
 10
43.1024197649
 20
7.4585704204
 30
0.0
 10
43.1023591096
 20
7.4437197429
 30
0.0
 10
43.1023923534
 20
7.4308965585
 30
0.0
 10
43.1024769133
 20
7.4202094018
 30
0.0
 10
43.1025069053
 20
7.4118212805
 30
0.0
 10
43.1025734201
 20
7.4062000372
 30
0.0
 10
43.1024892991
 20
7.4030233241
 30
0.0
 10
43.102605909
 20
7.4013489948
 30
0.0
 10
43.1023720017
 20
7.4006641067
 30
0.0
 10
43.1025954855
 20
7.4
 30
0.0
 10
43.1024918594
 20
7.4
 30
0.0
  0
SPLINE
  5
561
100
AcDbEntity
  8
0
100
AcDbSpline
 62
250
  6
CONTINUOUS
 70
0
 71
3
 72
11
 73
7
 74
0
 42
0.0000001
 43
0.0000001
 44
0.0000000001
 40
0.0
 40
0.0
 40
0.0
 40
0.0
 40
0.2331622206
 40
0.4766705204
 40
0.7338116472
 40
1.0
 40
1.0
 40
1.0
 40
1.0
 10
35.4530590309
 20
-23.8443375673
 30
0.0
 10
35.4531541026
 20
-23.8160323931
 30
0.0
 10
35.4670839511
 20
-23.7574892617
 30
0.0
 10
35.524016366
 20
-23.6858281428
 30
0.0
 10
35.6066844127
 20
-23.6388299344
 30
0.0
 10
35.6707402756
 20
-23.6279126229
 30
0.0
 10
35.7030548001
 20
-23.6278312164
 30
0.0
  0
SPLINE
  5
562
100
AcDbEntity
  8
RACCORDO
100
AcDbSpline
 62
250
  6
CONTINUOUS
 70
0
 71
3
 72
18
 73
14
 74
0
 42
0.0000001
 43
0.0000001
 44
0.0000000001
 40
0.0
 40
0.0
 40
0.0
 40
0.0
 40
0.2131549969
 40
0.4079502241
 40
0.580361613
 40
0.7267768837
 40
0.8442225199
 40
0.8911723887
 40
0.9298806895
 40
0.9602161368
 40
0.9820631279
 40
0.9953196017
 40
1.0
 40
1.0
 40
1.0
 40
1.0
 10
43.1787985014
 20
-7.7103610679
 30
0.0
 10
43.1875418726
 20
-7.7168012743
 30
0.0
 10
43.2042895477
 20
-7.7291081965
 30
0.0
 10
43.2281606116
 20
-7.7465531196
 30
0.0
 10
43.2493362413
 20
-7.7619278148
 30
0.0
 10
43.2673733662
 20
-7.7749056249
 30
0.0
 10
43.2802856053
 20
-7.7840927851
 30
0.0
 10
43.288756143
 20
-7.7900013838
 30
0.0
 10
43.2936485526
 20
-7.7933892857
 30
0.0
 10
43.2974310093
 20
-7.7958695722
 30
0.0
 10
43.300370793
 20
-7.7979134611
 30
0.0
 10
43.3018610427
 20
-7.7985372135
 30
0.0
 10
43.3029518686
 20
-7.7993848773
 30
0.0
 10
43.3030941657
 20
-7.7991935478
 30
0.0
  0
SPLINE
  5
563
100
AcDbEntity
  8
0
100
AcDbSpline
 62
7
  6
CONTINUOUS
 70
0
 71
3
 72
13
 73
9
 74
0
 42
0.0000001
 43
0.0000001
 44
0.0000000001
 40
0.0
 40
0.0
 40
0.0
 40
0.0
 40
0.0848440362
 40
0.1759755807
 40
0.278241715
 40
0.3948395492
 40
0.6739816576
 40
1.0
 40
1.0
 40
1.0
 40
1.0
 10
35.4472412011
 20
-23.2669872981
 30
0.0
 10
35.4473308427
 20
-23.2580912117
 30
0.0
 10
35.4505735118
 20
-23.2395605855
 30
0.0
 10
35.4641254993
 20
-23.2133182791
 30
0.0
 10
35.4859943382
 20
-23.1888806294
 30
0.0
 10
35.5283391052
 20
-23.1578162275
 30
0.0
 10
35.6001098238
 20
-23.130184663
 30
0.0
 10
35.6637787134
 20
-23.1226497308
 30
0.0
 10
35.697964199
 20
-23.1226497308
 30
0.0
  0
SPLINE
  5
564
100
AcDbEntity
  8
0
100
AcDbSpline
 62
7
  6
CONTINUOUS
 70
0
 71
3
 72
13
 73
9
 74
0
 42
0.0000001
 43
0.0000001
 44
0.0000000001
 40
0.0
 40
0.0
 40
0.0
 40
0.0
 40
0.0848440362
 40
0.1759755807
 40
0.278241715
 40
0.3948395492
 40
0.6739816576
 40
1.0
 40
1.0
 40
1.0
 40
1.0
 10
38.3326797033
 20
-23.2669872981
 30
0.0
 10
38.3325900617
 20
-23.2580912117
 30
0.0
 10
38.3293473925
 20
-23.2395605855
 30
0.0
 10
38.315795405
 20
-23.2133182791
 30
0.0
 10
38.2939265661
 20
-23.1888806294
 30
0.0
 10
38.2515817992
 20
-23.1578162275
 30
0.0
 10
38.1798110805
 20
-23.130184663
 30
0.0
 10
38.116142191
 20
-23.1226497308
 30
0.0
 10
38.0819567053
 20
-23.1226497308
 30
0.0
  0
SPLINE
  5
565
100
AcDbEntity
  8
0
100
AcDbSpline
 62
7
  6
CONTINUOUS
 70
0
 71
3
 72
13
 73
9
 74
0
 42
0.0000001
 43
0.0000001
 44
0.0000000001
 40
0.0
 40
0.0
 40
0.0
 40
0.0
 40
0.3260521389
 40
0.605103046
 40
0.7216768541
 40
0.8239470167
 40
0.9151089552
 40
1.0
 40
1.0
 40
1.0
 40
1.0
 10
53.0972369703
 20
-23.1226497308
 30
0.0
 10
53.0631265313
 20
-23.1226497308
 30
0.0
 10
52.9996229699
 20
-23.1303404936
 30
0.0
 10
52.928061502
 20
-23.1579699312
 30
0.0
 10
52.8858598252
 20
-23.1890075819
 30
0.0
 10
52.864065898
 20
-23.2134115332
 30
0.0
 10
52.8505616485
 20
-23.2396108244
 30
0.0
 10
52.8473306862
 20
-23.2581067436
 30
0.0
 10
52.8472412011
 20
-23.2669872981
 30
0.0
  0
SPLINE
  5
566
100
AcDbEntity
  8
0
100
AcDbSpline
 62
250
  6
CONTINUOUS
 70
0
 71
3
 72
11
 73
7
 74
0
 42
0.0000001
 43
0.0000001
 44
0.0000000001
 40
0.0
 40
0.0
 40
0.0
 40
0.0
 40
0.2331623084
 40
0.476670585
 40
0.7338116789
 40
1.0
 40
1.0
 40
1.0
 40
1.0
 10
38.3268618735
 20
-23.8443375673
 30
0.0
 10
38.3267668017
 20
-23.8160323825
 30
0.0
 10
38.3128369439
 20
-23.7574892432
 30
0.0
 10
38.2559045198
 20
-23.6858281285
 30
0.0
 10
38.1732364796
 20
-23.6388299314
 30
0.0
 10
38.1091806249
 20
-23.6279126229
 30
0.0
 10
38.0768661042
 20
-23.6278312164
 30
0.0
  0
SPLINE
  5
567
100
AcDbEntity
  8
0
100
AcDbSpline
 62
250
  6
CONTINUOUS
 70
0
 71
3
 72
11
 73
7
 74
0
 42
0.0000001
 43
0.0000001
 44
0.0000000001
 40
0.0
 40
0.0
 40
0.0
 40
0.0
 40
0.2331623084
 40
0.476670585
 40
0.7338116789
 40
1.0
 40
1.0
 40
1.0
 40
1.0
 10
52.8530590309
 20
-23.8443375673
 30
0.0
 10
52.8531541027
 20
-23.8160323825
 30
0.0
 10
52.8670839604
 20
-23.7574892432
 30
0.0
 10
52.9240163846
 20
-23.6858281285
 30
0.0
 10
53.0066844247
 20
-23.6388299314
 30
0.0
 10
53.0707402795
 20
-23.6279126229
 30
0.0
 10
53.1030548001
 20
-23.6278312164
 30
0.0
  0
SPLINE
  5
568
100
AcDbEntity
  8
0
100
AcDbSpline
 62
7
  6
CONTINUOUS
 70
0
 71
3
 72
13
 73
9
 74
0
 42
0.0000001
 43
0.0000001
 44
0.0000000001
 40
0.0
 40
0.0
 40
0.0
 40
0.0
 40
0.0848440362
 40
0.1759755807
 40
0.278241715
 40
0.3948395492
 40
0.6739816576
 40
1.0
 40
1.0
 40
1.0
 40
1.0
 10
55.7326797033
 20
-23.2669872981
 30
0.0
 10
55.7325900617
 20
-23.2580912117
 30
0.0
 10
55.7293473925
 20
-23.2395605855
 30
0.0
 10
55.715795405
 20
-23.2133182791
 30
0.0
 10
55.6939265661
 20
-23.1888806294
 30
0.0
 10
55.6515817992
 20
-23.1578162275
 30
0.0
 10
55.5798110805
 20
-23.130184663
 30
0.0
 10
55.516142191
 20
-23.1226497308
 30
0.0
 10
55.4819567053
 20
-23.1226497308
 30
0.0
  0
SPLINE
  5
569
100
AcDbEntity
  8
0
100
AcDbSpline
 62
250
  6
CONTINUOUS
 70
0
 71
3
 72
11
 73
7
 74
0
 42
0.0000001
 43
0.0000001
 44
0.0000000001
 40
0.0
 40
0.0
 40
0.0
 40
0.0
 40
0.2331623162
 40
0.4766706026
 40
0.7338117062
 40
1.0
 40
1.0
 40
1.0
 40
1.0
 10
55.7268618735
 20
-23.8443375673
 30
0.0
 10
55.7267668017
 20
-23.8160323815
 30
0.0
 10
55.7128369428
 20
-23.7574892401
 30
0.0
 10
55.6559045149
 20
-23.685828124
 30
0.0
 10
55.5732364741
 20
-23.6388299294
 30
0.0
 10
55.5091806216
 20
-23.6279126229
 30
0.0
 10
55.4768661042
 20
-23.6278312164
 30
0.0
  0
SPLINE
  5
56A
100
AcDbEntity
  8
0
100
AcDbSpline
 62
250
  6
CONTINUOUS
 70
0
 71
3
 72
16
 73
12
 74
0
 42
0.0000001
 43
0.0000001
 44
0.0000000001
 40
0.0
 40
0.0
 40
0.0
 40
0.0
 40
0.009601358
 40
0.0277102069
 40
0.0542061278
 40
0.0888989849
 40
0.1818074634
 40
0.303729011
 40
0.4511062006
 40
0.619636461
 40
1.0
 40
1.0
 40
1.0
 40
1.0
 10
35.0527451764
 20
-22.0602279426
 30
0.0
 10
35.0531917141
 20
-22.0575457304
 30
0.0
 10
35.0536285219
 20
-22.0496893845
 30
0.0
 10
35.0543811168
 20
-22.0343706932
 30
0.0
 10
35.0550259679
 20
-22.0119146991
 30
0.0
 10
35.0560527947
 20
-21.9682900797
 30
0.0
 10
35.0571409457
 20
-21.8976292022
 30
0.0
 10
35.0582837083
 20
-21.7950589049
 30
0.0
 10
35.0592589414
 20
-21.6710677772
 30
0.0
 10
35.0603578202
 20
-21.4738853043
 30
0.0
 10
35.0607765515
 20
-21.3184372904
 30
0.0
 10
35.0609183647
 20
-21.2107174911
 30
0.0
  0
SPLINE
  5
56B
100
AcDbEntity
  8
0
100
AcDbSpline
 62
250
  6
CONTINUOUS
 70
0
 71
3
 72
16
 73
12
 74
0
 42
0.0000001
 43
0.0000001
 44
0.0000000001
 40
0.0
 40
0.0
 40
0.0
 40
0.0
 40
0.0097160279
 40
0.0278789507
 40
0.0544042565
 40
0.0891118838
 40
0.1820218654
 40
0.3039209818
 40
0.4512606386
 40
0.6197440616
 40
1.0
 40
1.0
 40
1.0
 40
1.0
 10
34.5528213288
 20
-21.5609131753
 30
0.0
 10
34.5532560981
 20
-21.5596073816
 30
0.0
 10
34.553711421
 20
-21.5556463703
 30
0.0
 10
34.5544523712
 20
-21.5480011999
 30
0.0
 10
34.5551036104
 20
-21.5367593636
 30
0.0
 10
34.5561270408
 20
-21.5149562163
 30
0.0
 10
34.5572176202
 20
-21.479622272
 30
0.0
 10
34.5583593848
 20
-21.4283390931
 30
0.0
 10
34.5593350517
 20
-21.366342314
 30
0.0
 10
34.5604338387
 20
-21.2677493695
 30
0.0
 10
34.5608527165
 20
-21.1900208414
 30
0.0
 10
34.5609945171
 20
-21.1361579495
 30
0.0
  0
SPLINE
  5
56C
100
AcDbEntity
  8
0
100
AcDbSpline
 62
250
  6
CONTINUOUS
 70
0
 71
3
 72
14
 73
10
 74
0
 42
0.0000001
 43
0.0000001
 44
0.0000000001
 40
0.0
 40
0.0
 40
0.0
 40
0.0
 40
0.0353257676
 40
0.0631908656
 40
0.0987762325
 40
0.1930298895
 40
0.3160943163
 40
0.631302526
 40
1.0
 40
1.0
 40
1.0
 40
1.0
 10
34.5609945171
 20
-21.1361579495
 30
0.0
 10
34.5616899619
 20
-21.14216816
 30
0.0
 10
34.5709460664
 20
-21.1506616097
 30
0.0
 10
34.5855034533
 20
-21.1583562474
 30
0.0
 10
34.6108915273
 20
-21.1683050914
 30
0.0
 10
34.6528667894
 20
-21.1789027365
 30
0.0
 10
34.7428243923
 20
-21.1945681737
 30
0.0
 10
34.8806334449
 20
-21.2069705679
 30
0.0
 10
34.9977710511
 20
-21.2105549634
 30
0.0
 10
35.0609183647
 20
-21.2107174908
 30
0.0
  0
SPLINE
  5
56D
100
AcDbEntity
  8
0
100
AcDbSpline
 62
250
  6
CONTINUOUS
 70
0
 71
3
 72
19
 73
15
 74
0
 42
0.0000001
 43
0.0000001
 44
0.0000000001
 40
0.0
 40
0.0
 40
0.0
 40
0.0
 40
0.0066567201
 40
0.0225113665
 40
0.0475276335
 40
0.0814931274
 40
0.1240969047
 40
0.1749408941
 40
0.2335482356
 40
0.2993690188
 40
0.4501141164
 40
0.6215148115
 40
0.8071309541
 40
1.0
 40
1.0
 40
1.0
 40
1.0
 10
34.5781794017
 20
-9.4905
 30
0.0
 10
34.578930119
 20
-9.4913175592
 30
0.0
 10
34.5831796058
 20
-9.4914174326
 30
0.0
 10
34.5906074041
 20
-9.4926977602
 30
0.0
 10
34.6033002452
 20
-9.4932826239
 30
0.0
 10
34.6201162426
 20
-9.4942265287
 30
0.0
 10
34.6413843972
 20
-9.4949998724
 30
0.0
 10
34.6667129368
 20
-9.4957922936
 30
0.0
 10
34.6959332779
 20
-9.4965207129
 30
0.0
 10
34.7418043291
 20
-9.4974716192
 30
0.0
 10
34.806488147
 20
-9.498453779
 30
0.0
 10
34.8911482135
 20
-9.4993118484
 30
0.0
 10
34.9828352928
 20
-9.4998537135
 30
0.0
 10
35.0459441444
 20
-9.4999893365
 30
0.0
 10
35.0781032493
 20
-9.5
 30
0.0
  0
SPLINE
  5
56E
100
AcDbEntity
  8
0
100
AcDbSpline
 62
7
  6
CONTINUOUS
 70
0
 71
3
 72
18
 73
14
 74
0
 42
0.0000001
 43
0.0000001
 44
0.0000000001
 40
0.0
 40
0.0
 40
0.0
 40
0.0
 40
0.0979378208
 40
0.1949481678
 40
0.3824262608
 40
0.555237868
 40
0.7067385852
 40
0.8311031688
 40
0.9235489232
 40
0.9566440972
 40
0.9805310857
 40
0.9950218771
 40
1.0
 40
1.0
 40
1.0
 40
1.0
 10
-11.153971005
 20
21.8997711479
 30
0.0
 10
-11.153971005
 20
21.9161043433
 30
0.0
 10
-11.1533360679
 20
21.9486125244
 30
0.0
 10
-11.1531716129
 20
22.0123910893
 30
0.0
 10
-11.1536783185
 20
22.0886542526
 30
0.0
 10
-11.1543777044
 20
22.1740035597
 30
0.0
 10
-11.1550289935
 20
22.2488256643
 30
0.0
 10
-11.1554200707
 20
22.3102520964
 30
0.0
 10
-11.1555127202
 20
22.3519205799
 30
0.0
 10
-11.1552865019
 20
22.3768528958
 30
0.0
 10
-11.1550155909
 20
22.3887486687
 30
0.0
 10
-11.1548407482
 20
22.3960145645
 30
0.0
 10
-11.1541882216
 20
22.3991944495
 30
0.0
 10
-11.153971005
 20
22.4
 30
0.0
  0
SPLINE
  5
56F
100
AcDbEntity
  8
0
100
AcDbSpline
 62
250
  6
CONTINUOUS
 70
0
 71
3
 72
21
 73
17
 74
0
 42
0.0000001
 43
0.0000001
 44
0.0000000001
 40
0.0
 40
0.0
 40
0.0
 40
0.0
 40
0.1952388959
 40
0.3828797779
 40
0.5557566816
 40
0.7072426977
 40
0.7731145491
 40
0.8315405786
 40
0.8819595594
 40
0.9238899496
 40
0.9569288549
 40
0.9807583528
 40
0.9891470439
 40
0.9951544383
 40
0.9987704635
 40
1.0
 40
1.0
 40
1.0
 40
1.0
 10
-10.4025165722
 20
-23.8443375673
 30
0.0
 10
-10.3944050088
 20
-23.8302874519
 30
0.0
 10
-10.3785109546
 20
-23.8027262732
 30
0.0
 10
-10.3554807736
 20
-23.7626974669
 30
0.0
 10
-10.3343056836
 20
-23.7257960207
 30
0.0
 10
-10.3182047829
 20
-23.6976484932
 30
0.0
 10
-10.3068566213
 20
-23.6777396366
 30
0.0
 10
-10.2996808815
 20
-23.6651173144
 30
0.0
 10
-10.2935103652
 20
-23.6542175063
 30
0.0
 10
-10.2883840004
 20
-23.645134931
 30
0.0
 10
-10.2844044978
 20
-23.6379843749
 30
0.0
 10
-10.2817218317
 20
-23.6332080735
 30
0.0
 10
-10.2802905197
 20
-23.6304555862
 30
0.0
 10
-10.2794606734
 20
-23.6290629434
 30
0.0
 10
-10.2792893682
 20
-23.6283790333
 30
0.0
 10
-10.2788825237
 20
-23.627882301
 30
0.0
 10
-10.278971005
 20
-23.6278312164
 30
0.0
  0
SPLINE
  5
570
100
AcDbEntity
  8
0
100
AcDbSpline
 62
250
  6
CONTINUOUS
 70
0
 71
3
 72
21
 73
17
 74
0
 42
0.0000001
 43
0.0000001
 44
0.0000000001
 40
0.0
 40
0.0
 40
0.0
 40
0.0
 40
0.1952389023
 40
0.38287979
 40
0.5557566991
 40
0.7072427174
 40
0.7731145695
 40
0.8315405978
 40
0.8819595776
 40
0.9238899665
 40
0.9569288677
 40
0.9807583616
 40
0.9891470509
 40
0.9951544438
 40
0.9987704654
 40
1.0
 40
1.0
 40
1.0
 40
1.0
 10
-13.4054254378
 20
-23.8443375673
 30
0.0
 10
-13.4135370015
 20
-23.8302874514
 30
0.0
 10
-13.4294310562
 20
-23.8027262719
 30
0.0
 10
-13.4524612379
 20
-23.7626974643
 30
0.0
 10
-13.4736363284
 20
-23.7257960171
 30
0.0
 10
-13.4897372294
 20
-23.6976484891
 30
0.0
 10
-13.5010853911
 20
-23.6777396323
 30
0.0
 10
-13.5082611309
 20
-23.6651173102
 30
0.0
 10
-13.514431647
 20
-23.6542175024
 30
0.0
 10
-13.5195580115
 20
-23.6451349275
 30
0.0
 10
-13.5235375138
 20
-23.6379843721
 30
0.0
 10
-13.5262201795
 20
-23.6332080714
 30
0.0
 10
-13.5276514911
 20
-23.6304555846
 30
0.0
 10
-13.5284813371
 20
-23.6290629423
 30
0.0
 10
-13.5286526424
 20
-23.6283790328
 30
0.0
 10
-13.5290594861
 20
-23.627882301
 30
0.0
 10
-13.528971005
 20
-23.6278312164
 30
0.0
  0
SPLINE
  5
571
100
AcDbEntity
  8
0
100
AcDbSpline
 62
250
  6
CONTINUOUS
 70
0
 71
3
 72
21
 73
17
 74
0
 42
0.0000001
 43
0.0000001
 44
0.0000000001
 40
0.0
 40
0.0
 40
0.0
 40
0.0
 40
0.1950821701
 40
0.3826554205
 40
0.5555302213
 40
0.7070555998
 40
0.7729555222
 40
0.8314117298
 40
0.881860684
 40
0.9238188479
 40
0.9568816874
 40
0.9807301043
 40
0.9891262332
 40
0.9951398191
 40
0.998761369
 40
1.0
 40
1.0
 40
1.0
 40
1.0
 10
-13.4054254378
 20
-24.2369056521
 30
0.0
 10
-13.4055200168
 20
-24.2531629475
 30
0.0
 10
-13.4056875966
 20
-24.2850518774
 30
0.0
 10
-13.4058769487
 20
-24.3313477787
 30
0.0
 10
-13.4059954727
 20
-24.3740138705
 30
0.0
 10
-13.4060346218
 20
-24.4065406047
 30
0.0
 10
-13.4060221557
 20
-24.4295312724
 30
0.0
 10
-13.4059948594
 20
-24.4441001692
 30
0.0
 10
-13.4059459117
 20
-24.4566690449
 30
0.0
 10
-13.4058875603
 20
-24.4671352002
 30
0.0
 10
-13.4057904399
 20
-24.4753480863
 30
0.0
 10
-13.4057385288
 20
-24.4808450153
 30
0.0
 10
-13.4056104759
 20
-24.4839578608
 30
0.0
 10
-13.4056260291
 20
-24.4855825308
 30
0.0
 10
-13.4054409337
 20
-24.4862684737
 30
0.0
 10
-13.4055286599
 20
-24.4869008208
 30
0.0
 10
-13.4054254378
 20
-24.4869014213
 30
0.0
  0
SPLINE
  5
572
100
AcDbEntity
  8
0
100
AcDbSpline
 62
250
  6
CONTINUOUS
 70
0
 71
3
 72
21
 73
17
 74
0
 42
0.0000001
 43
0.0000001
 44
0.0000000001
 40
0.0
 40
0.0
 40
0.0
 40
0.0
 40
0.1952388959
 40
0.3828797779
 40
0.5557566816
 40
0.7072426977
 40
0.7731145491
 40
0.8315405786
 40
0.8819595594
 40
0.9238899496
 40
0.9569288549
 40
0.9807583528
 40
0.9891470439
 40
0.9951544383
 40
0.9987704635
 40
1.0
 40
1.0
 40
1.0
 40
1.0
 10
-13.4054254378
 20
23.8443375673
 30
0.0
 10
-13.4135370012
 20
23.8302874519
 30
0.0
 10
-13.4294310554
 20
23.8027262732
 30
0.0
 10
-13.4524612364
 20
23.7626974669
 30
0.0
 10
-13.4736363264
 20
23.7257960207
 30
0.0
 10
-13.4897372271
 20
23.6976484932
 30
0.0
 10
-13.5010853887
 20
23.6777396366
 30
0.0
 10
-13.5082611286
 20
23.6651173144
 30
0.0
 10
-13.5144316448
 20
23.6542175063
 30
0.0
 10
-13.5195580096
 20
23.645134931
 30
0.0
 10
-13.5235375122
 20
23.6379843749
 30
0.0
 10
-13.5262201784
 20
23.6332080735
 30
0.0
 10
-13.5276514903
 20
23.6304555862
 30
0.0
 10
-13.5284813366
 20
23.6290629434
 30
0.0
 10
-13.5286526418
 20
23.6283790333
 30
0.0
 10
-13.5290594863
 20
23.627882301
 30
0.0
 10
-13.528971005
 20
23.6278312164
 30
0.0
  0
SPLINE
  5
573
100
AcDbEntity
  8
0
100
AcDbSpline
 62
250
  6
CONTINUOUS
 70
0
 71
3
 72
21
 73
17
 74
0
 42
0.0000001
 43
0.0000001
 44
0.0000000001
 40
0.0
 40
0.0
 40
0.0
 40
0.0
 40
0.1950822179
 40
0.3826555053
 40
0.5555303392
 40
0.70705573
 40
0.7729556547
 40
0.8314118527
 40
0.8818607985
 40
0.9238189525
 40
0.9568817655
 40
0.9807301574
 40
0.989126275
 40
0.9951398515
 40
0.9987613804
 40
1.0
 40
1.0
 40
1.0
 40
1.0
 10
-10.4025165722
 20
-24.2456323968
 30
0.0
 10
-10.4024219932
 20
-24.2618896962
 30
0.0
 10
-10.4022544133
 20
-24.2937786331
 30
0.0
 10
-10.4020650612
 20
-24.3400745443
 30
0.0
 10
-10.4019465373
 20
-24.382740643
 30
0.0
 10
-10.4019073882
 20
-24.4152673812
 30
0.0
 10
-10.4019198544
 20
-24.4382580493
 30
0.0
 10
-10.4019471507
 20
-24.4528269448
 30
0.0
 10
-10.4019960984
 20
-24.4653958182
 30
0.0
 10
-10.4020544499
 20
-24.4758619698
 30
0.0
 10
-10.4021515703
 20
-24.4840748507
 30
0.0
 10
-10.4022034817
 20
-24.4895717745
 30
0.0
 10
-10.4023315344
 20
-24.4926846162
 30
0.0
 10
-10.4023159814
 20
-24.4943092826
 30
0.0
 10
-10.4025010752
 20
-24.4949952231
 30
0.0
 10
-10.402413351
 20
-24.4956275655
 30
0.0
 10
-10.4025165722
 20
-24.495628166
 30
0.0
  0
SPLINE
  5
574
100
AcDbEntity
  8
0
100
AcDbSpline
 62
7
  6
CONTINUOUS
 70
0
 71
3
 72
10
 73
6
 74
0
 42
0.0000001
 43
0.0000001
 44
0.0000000001
 40
0.0
 40
0.0
 40
0.0
 40
0.0
 40
0.0871592394
 40
0.4713290238
 40
1.0
 40
1.0
 40
1.0
 40
1.0
 10
-12.653971005
 20
23.1226497308
 30
0.0
 10
-12.6468007566
 20
23.1269297228
 30
0.0
 10
-12.6079598635
 20
23.1499613838
 30
0.0
 10
-12.5249439023
 20
23.1977906216
 30
0.0
 10
-12.4492891897
 20
23.2416619063
 30
0.0
 10
-12.4054254378
 20
23.2669872981
 30
0.0
  0
SPLINE
  5
575
100
AcDbEntity
  8
0
100
AcDbSpline
 62
7
  6
CONTINUOUS
 70
0
 71
3
 72
18
 73
14
 74
0
 42
0.0000001
 43
0.0000001
 44
0.0000000001
 40
0.0
 40
0.0
 40
0.0
 40
0.0
 40
0.0979378208
 40
0.1949481678
 40
0.3824262608
 40
0.555237868
 40
0.7067385852
 40
0.8311031688
 40
0.9235489232
 40
0.9566440972
 40
0.9805310857
 40
0.9950218771
 40
1.0
 40
1.0
 40
1.0
 40
1.0
 10
-11.153971005
 20
-21.8997711479
 30
0.0
 10
-11.153971005
 20
-21.9161043433
 30
0.0
 10
-11.1533360679
 20
-21.9486125244
 30
0.0
 10
-11.1531716129
 20
-22.0123910893
 30
0.0
 10
-11.1536783185
 20
-22.0886542526
 30
0.0
 10
-11.1543777044
 20
-22.1740035597
 30
0.0
 10
-11.1550289935
 20
-22.2488256643
 30
0.0
 10
-11.1554200707
 20
-22.3102520964
 30
0.0
 10
-11.1555127202
 20
-22.3519205799
 30
0.0
 10
-11.1552865019
 20
-22.3768528958
 30
0.0
 10
-11.1550155909
 20
-22.3887486687
 30
0.0
 10
-11.1548407482
 20
-22.3960145645
 30
0.0
 10
-11.1541882216
 20
-22.3991944495
 30
0.0
 10
-11.153971005
 20
-22.4
 30
0.0
  0
SPLINE
  5
576
100
AcDbEntity
  8
0
100
AcDbSpline
 62
250
  6
CONTINUOUS
 70
0
 71
3
 72
21
 73
17
 74
0
 42
0.0000001
 43
0.0000001
 44
0.0000000001
 40
0.0
 40
0.0
 40
0.0
 40
0.0
 40
0.1950099623
 40
0.3824971131
 40
0.5552742796
 40
0.7067104289
 40
0.7725726648
 40
0.8309989404
 40
0.881428301
 40
0.9233776474
 40
0.9564476508
 40
0.9803285402
 40
0.9887545231
 40
0.9948169717
 40
0.9985235372
 40
1.0
 40
1.0
 40
1.0
 40
1.0
 10
-17.6197662992
 20
-21.5609131753
 30
0.0
 10
-17.6214663822
 20
-21.5933625763
 30
0.0
 10
-17.6246938031
 20
-21.6570152516
 30
0.0
 10
-17.6290564831
 20
-21.7494362206
 30
0.0
 10
-17.6327424749
 20
-21.8346196716
 30
0.0
 10
-17.6352447812
 20
-21.8995692995
 30
0.0
 10
-17.6367757934
 20
-21.9454864679
 30
0.0
 10
-17.6376245532
 20
-21.9745882691
 30
0.0
 10
-17.6382215904
 20
-21.999705374
 30
0.0
 10
-17.6385660231
 20
-22.0206176029
 30
0.0
 10
-17.6386538417
 20
-22.0370668247
 30
0.0
 10
-17.638525619
 20
-22.0480244567
 30
0.0
 10
-17.6382488919
 20
-22.0543269554
 30
0.0
 10
-17.6380044246
 20
-22.0574927231
 30
0.0
 10
-17.6377393865
 20
-22.0590876461
 30
0.0
 10
-17.6374537553
 20
-22.060215067
 30
0.0
 10
-17.6372080741
 20
-22.0602279426
 30
0.0
  0
SPLINE
  5
577
100
AcDbEntity
  8
0
100
AcDbSpline
 62
250
  6
CONTINUOUS
 70
0
 71
3
 72
22
 73
18
 74
0
 42
0.0000001
 43
0.0000001
 44
0.0000000001
 40
0.0
 40
0.0
 40
0.0
 40
0.0
 40
0.1960040634
 40
0.3839724693
 40
0.5568496978
 40
0.7081347104
 40
0.7738642129
 40
0.8321383898
 40
0.8824088619
 40
0.924201722
 40
0.9571224325
 40
0.9701562621
 40
0.9808619017
 40
0.9892162275
 40
0.9951976694
 40
0.998793587
 40
1.0
 40
1.0
 40
1.0
 40
1.0
 10
-18.0880079435
 20
-21.1361579495
 30
0.0
 10
-18.119752875
 20
-21.1409467089
 30
0.0
 10
-18.1819389525
 20
-21.1503433572
 30
0.0
 10
-18.2721161656
 20
-21.1640175116
 30
0.0
 10
-18.3550441996
 20
-21.1766420942
 30
0.0
 10
-18.4181713308
 20
-21.1862982916
 30
0.0
 10
-18.4627382683
 20
-21.1931506047
 30
0.0
 10
-18.4909481089
 20
-21.1975068415
 30
0.0
 10
-18.5152832011
 20
-21.2012826709
 30
0.0
 10
-18.5355024919
 20
-21.2044492188
 30
0.0
 10
-18.5497136972
 20
-21.2066839111
 30
0.0
 10
-18.558854122
 20
-21.2081668479
 30
0.0
 10
-18.5640914308
 20
-21.2089820425
 30
0.0
 10
-18.568011675
 20
-21.2097258076
 30
0.0
 10
-18.5711929655
 20
-21.2100558307
 30
0.0
 10
-18.5724271988
 20
-21.2106635156
 30
0.0
 10
-18.5737205829
 20
-21.2105220613
 30
0.0
 10
-18.5736911158
 20
-21.2107174539
 30
0.0
  0
SPLINE
  5
578
100
AcDbEntity
  8
0
100
AcDbSpline
 62
250
  6
CONTINUOUS
 70
0
 71
3
 72
21
 73
17
 74
0
 42
0.0000001
 43
0.0000001
 44
0.0000000001
 40
0.0
 40
0.0
 40
0.0
 40
0.0
 40
0.1952389023
 40
0.38287979
 40
0.5557566991
 40
0.7072427174
 40
0.7731145695
 40
0.8315405978
 40
0.8819595776
 40
0.9238899665
 40
0.9569288677
 40
0.9807583616
 40
0.9891470509
 40
0.9951544438
 40
0.9987704654
 40
1.0
 40
1.0
 40
1.0
 40
1.0
 10
-10.4025165722
 20
23.8443375673
 30
0.0
 10
-10.3944050085
 20
23.8302874514
 30
0.0
 10
-10.3785109538
 20
23.8027262719
 30
0.0
 10
-10.3554807721
 20
23.7626974643
 30
0.0
 10
-10.3343056816
 20
23.7257960171
 30
0.0
 10
-10.3182047806
 20
23.6976484891
 30
0.0
 10
-10.3068566189
 20
23.6777396323
 30
0.0
 10
-10.2996808791
 20
23.6651173102
 30
0.0
 10
-10.293510363
 20
23.6542175024
 30
0.0
 10
-10.2883839985
 20
23.6451349275
 30
0.0
 10
-10.2844044962
 20
23.6379843721
 30
0.0
 10
-10.2817218305
 20
23.6332080714
 30
0.0
 10
-10.2802905189
 20
23.6304555846
 30
0.0
 10
-10.2794606729
 20
23.6290629423
 30
0.0
 10
-10.2792893676
 20
23.6283790328
 30
0.0
 10
-10.2788825239
 20
23.627882301
 30
0.0
 10
-10.278971005
 20
23.6278312164
 30
0.0
  0
SPLINE
  5
579
100
AcDbEntity
  8
0
100
AcDbSpline
 62
250
  6
CONTINUOUS
 70
0
 71
3
 72
22
 73
18
 74
0
 42
0.0000001
 43
0.0000001
 44
0.0000000001
 40
0.0
 40
0.0
 40
0.0
 40
0.0
 40
0.1960040281
 40
0.383972413
 40
0.5568496354
 40
0.7081346548
 40
0.7738641643
 40
0.8321383496
 40
0.8824088308
 40
0.9242017
 40
0.9571224187
 40
0.9701562519
 40
0.9808618946
 40
0.9892162231
 40
0.9951976671
 40
0.9987935861
 40
1.0
 40
1.0
 40
1.0
 40
1.0
 10
-18.0880079435
 20
21.1361579495
 30
0.0
 10
-18.1197528853
 20
21.1409467104
 30
0.0
 10
-18.1819389851
 20
21.1503433619
 30
0.0
 10
-18.2721162336
 20
21.1640175216
 30
0.0
 10
-18.3550443062
 20
21.1766421099
 30
0.0
 10
-18.4181714706
 20
21.1862983123
 30
0.0
 10
-18.4627384342
 20
21.1931506293
 30
0.0
 10
-18.490948293
 20
21.1975068688
 30
0.0
 10
-18.5152834018
 20
21.2012827008
 30
0.0
 10
-18.5355027071
 20
21.204449251
 30
0.0
 10
-18.5497139229
 20
21.2066839449
 30
0.0
 10
-18.5588543548
 20
21.2081668828
 30
0.0
 10
-18.5640916675
 20
21.208982078
 30
0.0
 10
-18.5680119155
 20
21.2097258438
 30
0.0
 10
-18.5711932075
 20
21.210055867
 30
0.0
 10
-18.5724274441
 20
21.2106635527
 30
0.0
 10
-18.5737208274
 20
21.210522098
 30
0.0
 10
-18.5736913611
 20
21.2107174909
 30
0.0
  0
SPLINE
  5
57A
100
AcDbEntity
  8
0
100
AcDbSpline
 62
250
  6
CONTINUOUS
 70
0
 71
3
 72
21
 73
17
 74
0
 42
0.0000001
 43
0.0000001
 44
0.0000000001
 40
0.0
 40
0.0
 40
0.0
 40
0.0
 40
0.001238631
 40
0.0048601809
 40
0.0108737668
 40
0.0192698957
 40
0.0431183126
 40
0.0761811521
 40
0.118139316
 40
0.1685882702
 40
0.2270444778
 40
0.2929444002
 40
0.4444697787
 40
0.6173445795
 40
0.8049178299
 40
1.0
 40
1.0
 40
1.0
 40
1.0
 10
-13.4054254378
 20
24.4869014213
 30
0.0
 10
-13.4055286599
 20
24.4869008208
 30
0.0
 10
-13.4054409337
 20
24.4862684737
 30
0.0
 10
-13.4056260291
 20
24.4855825308
 30
0.0
 10
-13.4056104759
 20
24.4839578608
 30
0.0
 10
-13.4057385288
 20
24.4808450153
 30
0.0
 10
-13.4057904399
 20
24.4753480863
 30
0.0
 10
-13.4058875603
 20
24.4671352002
 30
0.0
 10
-13.4059459117
 20
24.4566690449
 30
0.0
 10
-13.4059948594
 20
24.4441001692
 30
0.0
 10
-13.4060221557
 20
24.4295312724
 30
0.0
 10
-13.4060346218
 20
24.4065406047
 30
0.0
 10
-13.4059954727
 20
24.3740138705
 30
0.0
 10
-13.4058769487
 20
24.3313477787
 30
0.0
 10
-13.4056875966
 20
24.2850518774
 30
0.0
 10
-13.4055200168
 20
24.2531629475
 30
0.0
 10
-13.4054254378
 20
24.2369056521
 30
0.0
  0
SPLINE
  5
57B
100
AcDbEntity
  8
0
100
AcDbSpline
 62
250
  6
CONTINUOUS
 70
0
 71
3
 72
21
 73
17
 74
0
 42
0.0000001
 43
0.0000001
 44
0.0000000001
 40
0.0
 40
0.0
 40
0.0
 40
0.0
 40
0.1950099623
 40
0.382497113
 40
0.5552742795
 40
0.7067104288
 40
0.7725726647
 40
0.8309989402
 40
0.8814283009
 40
0.9233776473
 40
0.9564476507
 40
0.9803285401
 40
0.9887545231
 40
0.9948169717
 40
0.9985235371
 40
1.0
 40
1.0
 40
1.0
 40
1.0
 10
-17.6197662992
 20
21.5609131753
 30
0.0
 10
-17.6214663823
 20
21.5933625763
 30
0.0
 10
-17.6246938032
 20
21.6570152516
 30
0.0
 10
-17.6290564834
 20
21.7494362206
 30
0.0
 10
-17.6327424752
 20
21.8346196715
 30
0.0
 10
-17.6352447815
 20
21.8995692994
 30
0.0
 10
-17.6367757937
 20
21.9454864679
 30
0.0
 10
-17.6376245535
 20
21.9745882691
 30
0.0
 10
-17.6382215907
 20
21.999705374
 30
0.0
 10
-17.6385660233
 20
22.0206176029
 30
0.0
 10
-17.6386538419
 20
22.0370668247
 30
0.0
 10
-17.6385256192
 20
22.0480244567
 30
0.0
 10
-17.638248892
 20
22.0543269554
 30
0.0
 10
-17.6380044247
 20
22.0574927231
 30
0.0
 10
-17.6377393865
 20
22.0590876462
 30
0.0
 10
-17.6374537553
 20
22.060215067
 30
0.0
 10
-17.6372080741
 20
22.0602279426
 30
0.0
  0
SPLINE
  5
57C
100
AcDbEntity
  8
0
100
AcDbSpline
 62
250
  6
CONTINUOUS
 70
0
 71
3
 72
21
 73
17
 74
0
 42
0.0000001
 43
0.0000001
 44
0.0000000001
 40
0.0
 40
0.0
 40
0.0
 40
0.0
 40
0.0012386196
 40
0.0048601485
 40
0.010873725
 40
0.0192698426
 40
0.0431182345
 40
0.0761810475
 40
0.1181392015
 40
0.1685881473
 40
0.2270443453
 40
0.29294427
 40
0.4444696608
 40
0.6173444947
 40
0.8049177821
 40
1.0
 40
1.0
 40
1.0
 40
1.0
 10
-10.4025165722
 20
24.495628166
 30
0.0
 10
-10.402413351
 20
24.4956275655
 30
0.0
 10
-10.4025010752
 20
24.4949952231
 30
0.0
 10
-10.4023159814
 20
24.4943092826
 30
0.0
 10
-10.4023315344
 20
24.4926846162
 30
0.0
 10
-10.4022034817
 20
24.4895717745
 30
0.0
 10
-10.4021515703
 20
24.4840748507
 30
0.0
 10
-10.4020544499
 20
24.4758619698
 30
0.0
 10
-10.4019960984
 20
24.4653958182
 30
0.0
 10
-10.4019471507
 20
24.4528269448
 30
0.0
 10
-10.4019198544
 20
24.4382580493
 30
0.0
 10
-10.4019073882
 20
24.4152673812
 30
0.0
 10
-10.4019465373
 20
24.382740643
 30
0.0
 10
-10.4020650612
 20
24.3400745443
 30
0.0
 10
-10.4022544133
 20
24.2937786331
 30
0.0
 10
-10.4024219932
 20
24.2618896962
 30
0.0
 10
-10.4025165722
 20
24.2456323968
 30
0.0
  0
SPLINE
  5
57D
100
AcDbEntity
  8
RACCORDO
100
AcDbSpline
 62
250
  6
CONTINUOUS
 70
0
 71
3
 72
26
 73
22
 74
0
 42
0.0000001
 43
0.0000001
 44
0.0000000001
 40
0.0
 40
0.0
 40
0.0
 40
0.0
 40
0.0003971306
 40
0.0012254616
 40
0.0043671924
 40
0.0095381221
 40
0.0167491989
 40
0.0260006892
 40
0.0372881827
 40
0.0506061992
 40
0.0659483091
 40
0.1026656087
 40
0.1473542062
 40
0.1999066832
 40
0.2601987018
 40
0.3280835777
 40
0.4033999005
 40
0.4859658814
 40
0.5755830365
 40
0.7750870849
 40
1.0
 40
1.0
 40
1.0
 40
1.0
 10
15.3634814014
 20
-19.366303627
 30
0.0
 10
15.3635201746
 20
-19.3663029502
 30
0.0
 10
15.3636036713
 20
-19.3661837738
 30
0.0
 10
15.3637130681
 20
-19.3657954918
 30
0.0
 10
15.3638544473
 20
-19.3648886829
 30
0.0
 10
15.3639884252
 20
-19.3633922729
 30
0.0
 10
15.3641242407
 20
-19.361277981
 30
0.0
 10
15.364248313
 20
-19.3585733247
 30
0.0
 10
15.3643639435
 20
-19.3552683859
 30
0.0
 10
15.3644689037
 20
-19.3513692359
 30
0.0
 10
15.3646029512
 20
-19.3449865004
 30
0.0
 10
15.3647344493
 20
-19.3355401115
 30
0.0
 10
15.3648424669
 20
-19.3224596847
 30
0.0
 10
15.3649065318
 20
-19.3070769556
 30
0.0
 10
15.3649262655
 20
-19.2894290295
 30
0.0
 10
15.3649012023
 20
-19.269558266
 30
0.0
 10
15.3648312044
 20
-19.2475125865
 30
0.0
 10
15.3647163436
 20
-19.2233449517
 30
0.0
 10
15.3644954415
 20
-19.1870509964
 30
0.0
 10
15.3641020299
 20
-19.1368579471
 30
0.0
 10
15.3637059135
 20
-19.0954162317
 30
0.0
 10
15.3634814014
 20
-19.0734550172
 30
0.0
  0
SPLINE
  5
57E
100
AcDbEntity
  8
RACCORDO
100
AcDbSpline
 62
250
  6
CONTINUOUS
 70
0
 71
3
 72
17
 73
13
 74
0
 42
0.0000001
 43
0.0000001
 44
0.0000000001
 40
0.0
 40
0.0
 40
0.0
 40
0.0
 40
0.1451003611
 40
0.2872780534
 40
0.4241406651
 40
0.5538550599
 40
0.6754346233
 40
0.7890262798
 40
0.843342795
 40
0.8963401077
 40
0.9484091071
 40
1.0
 40
1.0
 40
1.0
 40
1.0
 10
15.3634814014
 20
-19.0734550172
 30
0.0
 10
15.4278860428
 20
-19.0726600968
 30
0.0
 10
15.5554706605
 20
-19.0623849051
 30
0.0
 10
15.7398171379
 20
-19.0212174744
 30
0.0
 10
15.909833984
 20
-18.9558014621
 30
0.0
 10
16.0592888582
 20
-18.8683597828
 30
0.0
 10
16.182662546
 20
-18.7618899782
 30
0.0
 10
16.2609853199
 20
-18.658480942
 30
0.0
 10
16.3050767954
 20
-18.5706414059
 30
0.0
 10
16.3286213153
 20
-18.5037052771
 30
0.0
 10
16.3428500407
 20
-18.4354329161
 30
0.0
 10
16.346028995
 20
-18.3893569502
 30
0.0
 10
16.346028995
 20
-18.3664559318
 30
0.0
  0
SPLINE
  5
57F
100
AcDbEntity
  8
RACCORDO
100
AcDbSpline
 62
250
  6
CONTINUOUS
 70
0
 71
3
 72
16
 73
12
 74
0
 42
0.0000001
 43
0.0000001
 44
0.0000000001
 40
0.0
 40
0.0
 40
0.0
 40
0.0
 40
0.1426733926
 40
0.2829524204
 40
0.4188531786
 40
0.5487638439
 40
0.6716343559
 40
0.7871716204
 40
0.8960142499
 40
0.9484926801
 40
1.0
 40
1.0
 40
1.0
 40
1.0
 10
15.3634814014
 20
-18.9120480454
 30
0.0
 10
15.421967834
 20
-18.9113261711
 30
0.0
 10
15.5380046082
 20
-18.9027046454
 30
0.0
 10
15.7067297127
 20
-18.8684468606
 30
0.0
 10
15.8645834885
 20
-18.8139061366
 30
0.0
 10
16.0067677412
 20
-18.7406631026
 30
0.0
 10
16.1289870531
 20
-18.650774611
 30
0.0
 10
16.2274367486
 20
-18.5468018694
 30
0.0
 10
16.2877300326
 20
-18.4494790419
 30
0.0
 10
16.3203250464
 20
-18.3683660259
 30
0.0
 10
16.3314665837
 20
-18.3270871536
 30
0.0
 10
16.3357035606
 20
-18.3064004753
 30
0.0
  0
SPLINE
  5
580
100
AcDbEntity
  8
RACCORDO
100
AcDbSpline
 62
250
  6
CONTINUOUS
 70
0
 71
3
 72
10
 73
6
 74
0
 42
0.0000001
 43
0.0000001
 44
0.0000000001
 40
0.0
 40
0.0
 40
0.0
 40
0.0
 40
0.2143121281
 40
0.4588110544
 40
1.0
 40
1.0
 40
1.0
 40
1.0
 10
15.3634814014
 20
-18.9120480454
 30
0.0
 10
15.3639977268
 20
-18.8110367999
 30
0.0
 10
15.3647159574
 20
-18.5947844295
 30
0.0
 10
15.3651555612
 20
-18.1234505394
 30
0.0
 10
15.3644034171
 20
-17.7531288896
 30
0.0
 10
15.3634814014
 20
-17.4980498746
 30
0.0
  0
SPLINE
  5
581
100
AcDbEntity
  8
RACCORDO
100
AcDbSpline
 62
250
  6
CONTINUOUS
 70
0
 71
3
 72
10
 73
6
 74
0
 42
0.0000001
 43
0.0000001
 44
0.0000000001
 40
0.0
 40
0.0
 40
0.0
 40
0.0
 40
0.5411889456
 40
0.7856878719
 40
1.0
 40
1.0
 40
1.0
 40
1.0
 10
15.3634814014
 20
17.4980498746
 30
0.0
 10
15.3644034171
 20
17.7531288896
 30
0.0
 10
15.3651555612
 20
18.1234505394
 30
0.0
 10
15.3647159574
 20
18.5947844295
 30
0.0
 10
15.3639977268
 20
18.8110367999
 30
0.0
 10
15.3634814014
 20
18.9120480454
 30
0.0
  0
SPLINE
  5
582
100
AcDbEntity
  8
RACCORDO
100
AcDbSpline
 62
250
  6
CONTINUOUS
 70
0
 71
3
 72
16
 73
12
 74
0
 42
0.0000001
 43
0.0000001
 44
0.0000000001
 40
0.0
 40
0.0
 40
0.0
 40
0.0
 40
0.1426733926
 40
0.2829524204
 40
0.4188531786
 40
0.5487638438
 40
0.6716343559
 40
0.7871716203
 40
0.8960142499
 40
0.9484926801
 40
1.0
 40
1.0
 40
1.0
 40
1.0
 10
15.3634814014
 20
18.9120480454
 30
0.0
 10
15.4219678339
 20
18.9113261711
 30
0.0
 10
15.5380046081
 20
18.9027046454
 30
0.0
 10
15.7067297125
 20
18.8684468606
 30
0.0
 10
15.8645834882
 20
18.8139061367
 30
0.0
 10
16.0067677409
 20
18.7406631028
 30
0.0
 10
16.1289870528
 20
18.6507746114
 30
0.0
 10
16.2274367483
 20
18.5468018698
 30
0.0
 10
16.2877300323
 20
18.4494790424
 30
0.0
 10
16.3203250463
 20
18.3683660265
 30
0.0
 10
16.3314665835
 20
18.3270871542
 30
0.0
 10
16.3357035605
 20
18.3064004759
 30
0.0
  0
SPLINE
  5
583
100
AcDbEntity
  8
RACCORDO
100
AcDbSpline
 62
250
  6
CONTINUOUS
 70
0
 71
3
 72
17
 73
13
 74
0
 42
0.0000001
 43
0.0000001
 44
0.0000000001
 40
0.0
 40
0.0
 40
0.0
 40
0.0
 40
0.1451004122
 40
0.2872781537
 40
0.4241408097
 40
0.553855241
 40
0.6754348344
 40
0.7890265178
 40
0.8433430486
 40
0.8963403623
 40
0.9484094
 40
1.0
 40
1.0
 40
1.0
 40
1.0
 10
15.3634814014
 20
19.0734550172
 30
0.0
 10
15.4278860654
 20
19.0726600966
 30
0.0
 10
15.5554707277
 20
19.0623848988
 30
0.0
 10
15.7398172644
 20
19.0212174376
 30
0.0
 10
15.9098341572
 20
18.9558013851
 30
0.0
 10
16.0592890566
 20
18.8683596476
 30
0.0
 10
16.1826627375
 20
18.7618897723
 30
0.0
 10
16.2609854986
 20
18.6584806824
 30
0.0
 10
16.305076923
 20
18.5706410992
 30
0.0
 10
16.3286214183
 20
18.5037049353
 30
0.0
 10
16.3428500536
 20
18.4354326705
 30
0.0
 10
16.346028995
 20
18.3893568201
 30
0.0
 10
16.346028995
 20
18.3664559318
 30
0.0
  0
SPLINE
  5
584
100
AcDbEntity
  8
RACCORDO
100
AcDbSpline
 62
250
  6
CONTINUOUS
 70
0
 71
3
 72
26
 73
22
 74
0
 42
0.0000001
 43
0.0000001
 44
0.0000000001
 40
0.0
 40
0.0
 40
0.0
 40
0.0
 40
0.2249129151
 40
0.4244169635
 40
0.5140341186
 40
0.5966000995
 40
0.6719164223
 40
0.7398012982
 40
0.8000933168
 40
0.8526457938
 40
0.8973343913
 40
0.9340516909
 40
0.9493938008
 40
0.9627118173
 40
0.9739993108
 40
0.9832508011
 40
0.9904618779
 40
0.9956328076
 40
0.9987745384
 40
0.9996028694
 40
1.0
 40
1.0
 40
1.0
 40
1.0
 10
15.3634814014
 20
19.0734550172
 30
0.0
 10
15.3637059135
 20
19.0954162317
 30
0.0
 10
15.3641020299
 20
19.1368579471
 30
0.0
 10
15.3644954415
 20
19.1870509964
 30
0.0
 10
15.3647163436
 20
19.2233449517
 30
0.0
 10
15.3648312044
 20
19.2475125865
 30
0.0
 10
15.3649012023
 20
19.269558266
 30
0.0
 10
15.3649262655
 20
19.2894290295
 30
0.0
 10
15.3649065318
 20
19.3070769556
 30
0.0
 10
15.3648424669
 20
19.3224596847
 30
0.0
 10
15.3647344493
 20
19.3355401115
 30
0.0
 10
15.3646029512
 20
19.3449865004
 30
0.0
 10
15.3644689037
 20
19.3513692359
 30
0.0
 10
15.3643639435
 20
19.3552683859
 30
0.0
 10
15.364248313
 20
19.3585733247
 30
0.0
 10
15.3641242407
 20
19.361277981
 30
0.0
 10
15.3639884252
 20
19.3633922729
 30
0.0
 10
15.3638544473
 20
19.3648886829
 30
0.0
 10
15.3637130681
 20
19.3657954918
 30
0.0
 10
15.3636036713
 20
19.3661837738
 30
0.0
 10
15.3635201746
 20
19.3663029502
 30
0.0
 10
15.3634814014
 20
19.366303627
 30
0.0
  0
SPLINE
  5
585
100
AcDbEntity
  8
ASSI
100
AcDbSpline
 62
250
  6
CONTINUOUS
 70
0
 71
3
 72
19
 73
15
 74
0
 42
0.0000001
 43
0.0000001
 44
0.0000000001
 40
0.0
 40
0.0
 40
0.0
 40
0.0
 40
0.0042859029
 40
0.0166672694
 40
0.037207616
 40
0.0658700157
 40
0.1025903971
 40
0.1472827456
 40
0.1998396336
 40
0.2601367129
 40
0.4033498636
 40
0.5755474129
 40
0.7750682068
 40
1.0
 40
1.0
 40
1.0
 40
1.0
 10
15.3634814014
 20
-19.366303627
 30
0.0
 10
15.3638998137
 20
-19.3662963236
 30
0.0
 10
15.3636659402
 20
-19.3637963227
 30
0.0
 10
15.364339336
 20
-19.3610080454
 30
0.0
 10
15.3643171871
 20
-19.354525244
 30
0.0
 10
15.3646151649
 20
-19.3463461451
 30
0.0
 10
15.3647233902
 20
-19.335518476
 30
0.0
 10
15.3648462697
 20
-19.3224671396
 30
0.0
 10
15.3649053347
 20
-19.307074536
 30
0.0
 10
15.3649351193
 20
-19.28207629
 30
0.0
 10
15.3648394311
 20
-19.2453896307
 30
0.0
 10
15.3645586546
 20
-19.1951134351
 30
0.0
 10
15.3641020223
 20
-19.1368578584
 30
0.0
 10
15.3637059135
 20
-19.0954162317
 30
0.0
 10
15.3634814014
 20
-19.0734550172
 30
0.0
  0
SPLINE
  5
586
100
AcDbEntity
  8
ASSI
100
AcDbSpline
 62
250
  6
CONTINUOUS
 70
0
 71
3
 72
13
 73
9
 74
0
 42
0.0000001
 43
0.0000001
 44
0.0000000001
 40
0.0
 40
0.0
 40
0.0
 40
0.0
 40
0.2871585337
 40
0.553391996
 40
0.6752219498
 40
0.7890475457
 40
0.8963664073
 40
1.0
 40
1.0
 40
1.0
 40
1.0
 10
15.3634814014
 20
-19.0734550172
 30
0.0
 10
15.4906784108
 20
-19.0718850761
 30
0.0
 10
15.736645883
 20
-19.036151142
 30
0.0
 10
16.0133191947
 20
-18.9079911211
 30
0.0
 10
16.1826722312
 20
-18.7618709986
 30
0.0
 10
16.2752257389
 20
-18.6397257584
 30
0.0
 10
16.3328665258
 20
-18.5062797806
 30
0.0
 10
16.346028995
 20
-18.4123639775
 30
0.0
 10
16.346028995
 20
-18.3664559318
 30
0.0
  0
SPLINE
  5
587
100
AcDbEntity
  8
ASSI
100
AcDbSpline
 62
250
  6
CONTINUOUS
 70
0
 71
3
 72
13
 73
9
 74
0
 42
0.0000001
 43
0.0000001
 44
0.0000000001
 40
0.0
 40
0.0
 40
0.0
 40
0.0
 40
0.2871585092
 40
0.5533920272
 40
0.6752219443
 40
0.78904754
 40
0.8963664155
 40
1.0
 40
1.0
 40
1.0
 40
1.0
 10
15.3634814014
 20
-18.9120480454
 30
0.0
 10
15.4906783982
 20
-18.9104781044
 30
0.0
 10
15.7366458069
 20
-18.8747439838
 30
0.0
 10
16.0133193281
 20
-18.7465843439
 30
0.0
 10
16.1826721753
 20
-18.6004639659
 30
0.0
 10
16.2752256344
 20
-18.4783187392
 30
0.0
 10
16.3328665855
 20
-18.3448728219
 30
0.0
 10
16.346028995
 20
-18.2509570014
 30
0.0
 10
16.346028995
 20
-18.20504896
 30
0.0
  0
SPLINE
  5
588
100
AcDbEntity
  8
ASSI
100
AcDbSpline
 62
250
  6
CONTINUOUS
 70
0
 71
3
 72
13
 73
9
 74
0
 42
0.0000001
 43
0.0000001
 44
0.0000000001
 40
0.0
 40
0.0
 40
0.0
 40
0.0
 40
0.2871585092
 40
0.5533920272
 40
0.6752219443
 40
0.78904754
 40
0.8963664155
 40
1.0
 40
1.0
 40
1.0
 40
1.0
 10
15.3634814014
 20
18.9120480454
 30
0.0
 10
15.4906783982
 20
18.9104781044
 30
0.0
 10
15.7366458069
 20
18.8747439838
 30
0.0
 10
16.0133193281
 20
18.7465843439
 30
0.0
 10
16.1826721753
 20
18.6004639659
 30
0.0
 10
16.2752256344
 20
18.4783187392
 30
0.0
 10
16.3328665855
 20
18.3448728219
 30
0.0
 10
16.346028995
 20
18.2509570014
 30
0.0
 10
16.346028995
 20
18.20504896
 30
0.0
  0
SPLINE
  5
589
100
AcDbEntity
  8
ASSI
100
AcDbSpline
 62
250
  6
CONTINUOUS
 70
0
 71
3
 72
13
 73
9
 74
0
 42
0.0000001
 43
0.0000001
 44
0.0000000001
 40
0.0
 40
0.0
 40
0.0
 40
0.0
 40
0.2871586332
 40
0.5533921752
 40
0.675222159
 40
0.7890477817
 40
0.89636666
 40
1.0
 40
1.0
 40
1.0
 40
1.0
 10
15.3634814014
 20
19.0734550172
 30
0.0
 10
15.4906784547
 20
19.0718850755
 30
0.0
 10
15.7366460058
 20
19.0361511165
 30
0.0
 10
16.0133193918
 20
18.9079910146
 30
0.0
 10
16.182672424
 20
18.7618707931
 30
0.0
 10
16.2752259077
 20
18.6397254917
 30
0.0
 10
16.3328665748
 20
18.5062795605
 30
0.0
 10
16.346028995
 20
18.4123638655
 30
0.0
 10
16.346028995
 20
18.3664559318
 30
0.0
  0
SPLINE
  5
58A
100
AcDbEntity
  8
ASSI
100
AcDbSpline
 62
250
  6
CONTINUOUS
 70
0
 71
3
 72
19
 73
15
 74
0
 42
0.0000001
 43
0.0000001
 44
0.0000000001
 40
0.0
 40
0.0
 40
0.0
 40
0.0
 40
0.2249317932
 40
0.4244525871
 40
0.5966501364
 40
0.7398632871
 40
0.8001603664
 40
0.8527172544
 40
0.8974096029
 40
0.9341299843
 40
0.962792384
 40
0.9833327306
 40
0.9957140971
 40
1.0
 40
1.0
 40
1.0
 40
1.0
 10
15.3634814014
 20
19.0734550172
 30
0.0
 10
15.3637059135
 20
19.0954162317
 30
0.0
 10
15.3641020223
 20
19.1368578584
 30
0.0
 10
15.3645586546
 20
19.1951134351
 30
0.0
 10
15.3648394311
 20
19.2453896307
 30
0.0
 10
15.3649351193
 20
19.28207629
 30
0.0
 10
15.3649053347
 20
19.307074536
 30
0.0
 10
15.3648462697
 20
19.3224671396
 30
0.0
 10
15.3647233902
 20
19.335518476
 30
0.0
 10
15.3646151649
 20
19.3463461451
 30
0.0
 10
15.3643171871
 20
19.354525244
 30
0.0
 10
15.364339336
 20
19.3610080454
 30
0.0
 10
15.3636659402
 20
19.3637963227
 30
0.0
 10
15.3638998137
 20
19.3662963236
 30
0.0
 10
15.3634814014
 20
19.366303627
 30
0.0
  0
SPLINE
  5
58B
100
AcDbEntity
  8
0
100
AcDbSpline
 62
250
  6
CONTINUOUS
 70
0
 71
3
 72
19
 73
15
 74
0
 42
0.0000001
 43
0.0000001
 44
0.0000000001
 40
0.0
 40
0.0
 40
0.0
 40
0.0
 40
0.1815123459
 40
0.3567442887
 40
0.4444469834
 40
0.5327915734
 40
0.6226320824
 40
0.6685430334
 40
0.7153380486
 40
0.7523395529
 40
0.7887619738
 40
0.8602220603
 40
0.9304650535
 40
1.0
 40
1.0
 40
1.0
 40
1.0
 10
2.7964935263
 20
-12.937598426
 30
0.0
 10
2.7964935263
 20
-13.3413153961
 30
0.0
 10
2.9564198325
 20
-14.1440708004
 30
0.0
 10
3.5257662406
 20
-14.98340764
 30
0.0
 10
4.1315403681
 20
-15.4830666035
 30
0.0
 10
4.6543884311
 20
-15.7672593136
 30
0.0
 10
5.1337598012
 20
-15.9159908339
 30
0.0
 10
5.5356415961
 20
-15.9772350411
 30
0.0
 10
5.8242558515
 20
-15.9917325292
 30
0.0
 10
6.0916716339
 20
-15.981114997
 30
0.0
 10
6.4118572326
 20
-15.9426929457
 30
0.0
 10
6.7985799313
 20
-15.8488811503
 30
0.0
 10
7.233870146
 20
-15.6676186141
 30
0.0
 10
7.5003903453
 20
-15.5048641244
 30
0.0
 10
7.6258842654
 20
-15.4144995977
 30
0.0
  0
SPLINE
  5
58C
100
AcDbEntity
  8
0
100
AcDbSpline
 62
250
  6
CONTINUOUS
 70
0
 71
3
 72
15
 73
11
 74
0
 42
0.0000001
 43
0.0000001
 44
0.0000000001
 40
0.0
 40
0.0
 40
0.0
 40
0.0
 40
0.0791654732
 40
0.1194853435
 40
0.160415553
 40
0.2692267831
 40
0.3748093685
 40
0.5807459632
 40
0.786682558
 40
1.0
 40
1.0
 40
1.0
 40
1.0
 10
6.4445437097
 20
-14.8812747013
 30
0.0
 10
6.3490894841
 20
-14.9106430808
 30
0.0
 10
6.2014281714
 20
-14.9443324645
 30
0.0
 10
6.0001975396
 20
-14.9670868272
 30
0.0
 10
5.7604387764
 20
-14.9760976241
 30
0.0
 10
5.4374301113
 20
-14.9437711856
 30
0.0
 10
4.9281880804
 20
-14.7859745354
 30
0.0
 10
4.3723397005
 20
-14.4108838348
 30
0.0
 10
3.9200965911
 20
-13.742147187
 30
0.0
 10
3.8130046199
 20
-13.2067431712
 30
0.0
 10
3.8130046199
 20
-12.937598426
 30
0.0
  0
SPLINE
  5
58D
100
AcDbEntity
  8
0
100
AcDbSpline
 62
250
  6
CONTINUOUS
 70
0
 71
3
 72
251
 73
247
 74
0
 42
0.0000001
 43
0.0000001
 44
0.0000000001
 40
0.0
 40
0.0
 40
0.0
 40
0.0
 40
0.015625
 40
0.03125
 40
0.0390625
 40
0.046875
 40
0.05078125
 40
0.0546875
 40
0.05859375
 40
0.060546875
 40
0.0615234375
 40
0.0625
 40
0.0634765625
 40
0.064453125
 40
0.06640625
 40
0.0703125
 40
0.07421875
 40
0.078125
 40
0.0859375
 40
0.09375
 40
0.1015625
 40
0.109375
 40
0.11328125
 40
0.1171875
 40
0.12109375
 40
0.123046875
 40
0.1240234375
 40
0.125
 40
0.1259765625
 40
0.126953125
 40
0.12890625
 40
0.1328125
 40
0.13671875
 40
0.140625
 40
0.1484375
 40
0.15625
 40
0.1640625
 40
0.171875
 40
0.17578125
 40
0.1796875
 40
0.18359375
 40
0.185546875
 40
0.1865234375
 40
0.1875
 40
0.1884765625
 40
0.189453125
 40
0.19140625
 40
0.1953125
 40
0.19921875
 40
0.203125
 40
0.2109375
 40
0.21875
 40
0.2265625
 40
0.234375
 40
0.23828125
 40
0.2421875
 40
0.24609375
 40
0.248046875
 40
0.2490234375
 40
0.25
 40
0.2509765625
 40
0.251953125
 40
0.25390625
 40
0.2578125
 40
0.26171875
 40
0.265625
 40
0.2734375
 40
0.28125
 40
0.2890625
 40
0.296875
 40
0.30078125
 40
0.3046875
 40
0.30859375
 40
0.310546875
 40
0.3115234375
 40
0.3125
 40
0.3134765625
 40
0.314453125
 40
0.31640625
 40
0.3203125
 40
0.32421875
 40
0.328125
 40
0.3359375
 40
0.34375
 40
0.3515625
 40
0.359375
 40
0.36328125
 40
0.3671875
 40
0.37109375
 40
0.373046875
 40
0.3740234375
 40
0.375
 40
0.3759765625
 40
0.376953125
 40
0.37890625
 40
0.3828125
 40
0.38671875
 40
0.390625
 40
0.3984375
 40
0.40625
 40
0.4140625
 40
0.421875
 40
0.42578125
 40
0.4296875
 40
0.43359375
 40
0.435546875
 40
0.4365234375
 40
0.4375
 40
0.4384765625
 40
0.439453125
 40
0.44140625
 40
0.4453125
 40
0.44921875
 40
0.453125
 40
0.4609375
 40
0.46875
 40
0.4765625
 40
0.484375
 40
0.48828125
 40
0.4921875
 40
0.49609375
 40
0.498046875
 40
0.4990234375
 40
0.5
 40
0.5009765625
 40
0.501953125
 40
0.50390625
 40
0.5078125
 40
0.51171875
 40
0.515625
 40
0.5234375
 40
0.53125
 40
0.5390625
 40
0.546875
 40
0.55078125
 40
0.5546875
 40
0.55859375
 40
0.560546875
 40
0.5615234375
 40
0.5625
 40
0.5634765625
 40
0.564453125
 40
0.56640625
 40
0.5703125
 40
0.57421875
 40
0.578125
 40
0.5859375
 40
0.59375
 40
0.6015625
 40
0.609375
 40
0.61328125
 40
0.6171875
 40
0.62109375
 40
0.623046875
 40
0.6240234375
 40
0.625
 40
0.6259765625
 40
0.626953125
 40
0.62890625
 40
0.6328125
 40
0.63671875
 40
0.640625
 40
0.6484375
 40
0.65625
 40
0.6640625
 40
0.671875
 40
0.67578125
 40
0.6796875
 40
0.68359375
 40
0.685546875
 40
0.6865234375
 40
0.6875
 40
0.6884765625
 40
0.689453125
 40
0.69140625
 40
0.6953125
 40
0.69921875
 40
0.703125
 40
0.7109375
 40
0.71875
 40
0.7265625
 40
0.734375
 40
0.73828125
 40
0.7421875
 40
0.74609375
 40
0.748046875
 40
0.7490234375
 40
0.75
 40
0.7509765625
 40
0.751953125
 40
0.75390625
 40
0.7578125
 40
0.76171875
 40
0.765625
 40
0.7734375
 40
0.78125
 40
0.7890625
 40
0.796875
 40
0.80078125
 40
0.8046875
 40
0.80859375
 40
0.810546875
 40
0.8115234375
 40
0.8125
 40
0.8134765625
 40
0.814453125
 40
0.81640625
 40
0.8203125
 40
0.82421875
 40
0.828125
 40
0.8359375
 40
0.84375
 40
0.8515625
 40
0.859375
 40
0.86328125
 40
0.8671875
 40
0.87109375
 40
0.873046875
 40
0.8740234375
 40
0.875
 40
0.8759765625
 40
0.876953125
 40
0.87890625
 40
0.8828125
 40
0.88671875
 40
0.890625
 40
0.8984375
 40
0.90625
 40
0.9140625
 40
0.921875
 40
0.92578125
 40
0.9296875
 40
0.93359375
 40
0.935546875
 40
0.9365234375
 40
0.9375
 40
0.9384765625
 40
0.939453125
 40
0.94140625
 40
0.9453125
 40
0.94921875
 40
0.953125
 40
0.9609375
 40
0.96875
 40
0.984375
 40
1.0
 40
1.0
 40
1.0
 40
1.0
 10
5.8460279951
 20
-12.429266
 30
0.0
 10
5.8378012708
 20
-12.4300727603
 30
0.0
 10
5.8213478285
 20
-12.4316863135
 30
0.0
 10
5.8007809932
 20
-12.4337030913
 30
0.0
 10
5.7843275931
 20
-12.4353168576
 30
0.0
 10
5.774044064
 20
-12.4363246831
 30
0.0
 10
5.7658175935
 20
-12.4371327257
 30
0.0
 10
5.7596467746
 20
-12.4377338783
 30
0.0
 10
5.7545074985
 20
-12.4382503605
 30
0.0
 10
5.7509039747
 20
-12.4385814372
 30
0.0
 10
5.7488542343
 20
-12.438818186
 30
0.0
 10
5.7472904037
 20
-12.4388617644
 30
0.0
 10
5.7458279664
 20
-12.4394174945
 30
0.0
 10
5.7438426829
 20
-12.4399798236
 30
0.0
 10
5.740384915
 20
-12.4410471333
 30
0.0
 10
5.7354366315
 20
-12.4425283458
 30
0.0
 10
5.729502379
 20
-12.4443244275
 30
0.0
 10
5.7215887533
 20
-12.4467126945
 30
0.0
 10
5.7116971693
 20
-12.4497002754
 30
0.0
 10
5.6998270515
 20
-12.4532843489
 30
0.0
 10
5.6879570844
 20
-12.4568689214
 30
0.0
 10
5.6780651237
 20
-12.4598552547
 30
0.0
 10
5.6701522513
 20
-12.462246017
 30
0.0
 10
5.6642157013
 20
-12.4640344879
 30
0.0
 10
5.6592746052
 20
-12.4655395099
 30
0.0
 10
5.6558040067
 20
-12.466564316
 30
0.0
 10
5.6538392811
 20
-12.4671947466
 30
0.0
 10
5.6523136965
 20
-12.467541291
 30
0.0
 10
5.6509870365
 20
-12.4683705361
 30
0.0
 10
5.6491487694
 20
-12.4693078247
 30
0.0
 10
5.6459641308
 20
-12.4710265273
 30
0.0
 10
5.6413977451
 20
-12.4734408034
 30
0.0
 10
5.6359253171
 20
-12.4763554902
 30
0.0
 10
5.6286262182
 20
-12.480235605
 30
0.0
 10
5.6195032194
 20
-12.4850878669
 30
0.0
 10
5.6085552139
 20
-12.4909096145
 30
0.0
 10
5.5976074362
 20
-12.4967318393
 30
0.0
 10
5.5884838681
 20
-12.5015829081
 30
0.0
 10
5.5811859077
 20
-12.5054654091
 30
0.0
 10
5.5757100072
 20
-12.508372818
 30
0.0
 10
5.571154485
 20
-12.5108098622
 30
0.0
 10
5.5679504534
 20
-12.5124879203
 30
0.0
 10
5.5661432587
 20
-12.5134903317
 30
0.0
 10
5.5647211544
 20
-12.5141195407
 30
0.0
 10
5.5635540427
 20
-12.5152173871
 30
0.0
 10
5.5619089495
 20
-12.5165177163
 30
0.0
 10
5.5590714772
 20
-12.5188694542
 30
0.0
 10
5.5549962795
 20
-12.5221892615
 30
0.0
 10
5.5501153163
 20
-12.5261900741
 30
0.0
 10
5.5436041242
 20
-12.5315185359
 30
0.0
 10
5.5354662579
 20
-12.5381811664
 30
0.0
 10
5.5257002856
 20
-12.5461753999
 30
0.0
 10
5.5159346463
 20
-12.5541700405
 30
0.0
 10
5.5077959475
 20
-12.5608316535
 30
0.0
 10
5.5012864206
 20
-12.5661621501
 30
0.0
 10
5.4964003784
 20
-12.5701567565
 30
0.0
 10
5.49234107
 20
-12.5734959796
 30
0.0
 10
5.4894752329
 20
-12.5758130573
 30
0.0
 10
5.4878755871
 20
-12.5771689208
 30
0.0
 10
5.4865688757
 20
-12.5780961837
 30
0.0
 10
5.4856710847
 20
-12.579366076
 30
0.0
 10
5.4843313941
 20
-12.5809397528
 30
0.0
 10
5.4820533923
 20
-12.5837493706
 30
0.0
 10
5.4787643596
 20
-12.5877339983
 30
0.0
 10
5.4748323925
 20
-12.5925280127
 30
0.0
 10
5.469584573
 20
-12.5989156778
 30
0.0
 10
5.4630265941
 20
-12.6069017616
 30
0.0
 10
5.4551561956
 20
-12.6164843818
 30
0.0
 10
5.4472862198
 20
-12.6260673196
 30
0.0
 10
5.4407271841
 20
-12.6340526095
 30
0.0
 10
5.4354814783
 20
-12.6404418625
 30
0.0
 10
5.4315430644
 20
-12.6452310338
 30
0.0
 10
5.4282741999
 20
-12.6492308126
 30
0.0
 10
5.4259601947
 20
-12.6520133834
 30
0.0
 10
5.4246781906
 20
-12.6536303961
 30
0.0
 10
5.4236032053
 20
-12.6547671744
 30
0.0
 10
5.4229620066
 20
-12.6561943917
 30
0.0
 10
5.4219557654
 20
-12.6579960397
 30
0.0
 10
5.4202653412
 20
-12.6611961253
 30
0.0
 10
5.4178135923
 20
-12.6657429985
 30
0.0
 10
5.4148872701
 20
-12.6712098094
 30
0.0
 10
5.4109799944
 20
-12.6784951999
 30
0.0
 10
5.4060978052
 20
-12.6876032103
 30
0.0
 10
5.4002383011
 20
-12.6985322523
 30
0.0
 10
5.3943792564
 20
-12.7094615406
 30
0.0
 10
5.3894959188
 20
-12.7185689351
 30
0.0
 10
5.3855909398
 20
-12.7258555574
 30
0.0
 10
5.3826576124
 20
-12.7313186114
 30
0.0
 10
5.380227779
 20
-12.7358772375
 30
0.0
 10
5.3784982322
 20
-12.7390563425
 30
0.0
 10
5.3775546752
 20
-12.7408916066
 30
0.0
 10
5.3767209306
 20
-12.742215566
 30
0.0
 10
5.3763691158
 20
-12.743740164
 30
0.0
 10
5.375731927
 20
-12.7457029763
 30
0.0
 10
5.3746951685
 20
-12.7491705051
 30
0.0
 10
5.3731731372
 20
-12.7541070703
 30
0.0
 10
5.3713642272
 20
-12.7600382455
 30
0.0
 10
5.3689462225
 20
-12.7679439295
 30
0.0
 10
5.3659258329
 20
-12.7778269138
 30
0.0
 10
5.3623003942
 20
-12.7896860991
 30
0.0
 10
5.3586754539
 20
-12.8015454608
 30
0.0
 10
5.3556538183
 20
-12.811428004
 30
0.0
 10
5.3532383056
 20
-12.8193345701
 30
0.0
 10
5.3514217947
 20
-12.825263055
 30
0.0
 10
5.3499235421
 20
-12.8302080368
 30
0.0
 10
5.3488443352
 20
-12.8336605406
 30
0.0
 10
5.3482751594
 20
-12.8356474268
 30
0.0
 10
5.3477144301
 20
-12.8370980775
 30
0.0
 10
5.3476653339
 20
-12.8386997704
 30
0.0
 10
5.3474214089
 20
-12.8407826758
 30
0.0
 10
5.3470776895
 20
-12.8444523072
 30
0.0
 10
5.3465431903
 20
-12.8496818043
 30
0.0
 10
5.345920399
 20
-12.8559626939
 30
0.0
 10
5.3450835085
 20
-12.8643352948
 30
0.0
 10
5.3440396418
 20
-12.874801703
 30
0.0
 10
5.3427859723
 20
-12.8873611169
 30
0.0
 10
5.3415328261
 20
-12.899920583
 30
0.0
 10
5.3404876512
 20
-12.9103868606
 30
0.0
 10
5.3396533769
 20
-12.9187597227
 30
0.0
 10
5.3390226064
 20
-12.9250398158
 30
0.0
 10
5.3385130695
 20
-12.9302718048
 30
0.0
 10
5.3381247886
 20
-12.9339369877
 30
0.0
 10
5.3379522624
 20
-12.9360270207
 30
0.0
 10
5.3376838519
 20
-12.9376068198
 30
0.0
 10
5.3379468305
 20
-12.9391397001
 30
0.0
 10
5.3381121143
 20
-12.9411999062
 30
0.0
 10
5.338487721
 20
-12.9447976419
 30
0.0
 10
5.3389791518
 20
-12.9499412507
 30
0.0
 10
5.339588195
 20
-12.9561118749
 30
0.0
 10
5.3403934995
 20
-12.9643399703
 30
0.0
 10
5.3414024622
 20
-12.974624882
 30
0.0
 10
5.3426121538
 20
-12.9869668776
 30
0.0
 10
5.3438223688
 20
-12.9993087989
 30
0.0
 10
5.3448300228
 20
-13.0095938966
 30
0.0
 10
5.3456379446
 20
-13.0178216199
 30
0.0
 10
5.3462390052
 20
-13.0239933788
 30
0.0
 10
5.3467554089
 20
-13.0291334378
 30
0.0
 10
5.3470864352
 20
-13.0327375105
 30
0.0
 10
5.3473231479
 20
-13.0347875631
 30
0.0
 10
5.3473667197
 20
-13.0363516319
 30
0.0
 10
5.3479223651
 20
-13.037814292
 30
0.0
 10
5.3484846086
 20
-13.0397998779
 30
0.0
 10
5.3495517557
 20
-13.0432581725
 30
0.0
 10
5.3510327427
 20
-13.0482072098
 30
0.0
 10
5.3528285507
 20
-13.0541423663
 30
0.0
 10
5.355216454
 20
-13.0620571974
 30
0.0
 10
5.3582035799
 20
-13.0719502882
 30
0.0
 10
5.3617871075
 20
-13.0838222142
 30
0.0
 10
5.3653711341
 20
-13.0956939894
 30
0.0
 10
5.3683570125
 20
-13.1055874569
 30
0.0
 10
5.3707474107
 20
-13.1135015347
 30
0.0
 10
5.3725356092
 20
-13.1194389889
 30
0.0
 10
5.374040402
 20
-13.1243808377
 30
0.0
 10
5.3750650521
 20
-13.1278519649
 30
0.0
 10
5.3756953866
 20
-13.1298169898
 30
0.0
 10
5.3760418782
 20
-13.1313428068
 30
0.0
 10
5.376870997
 20
-13.1326696688
 30
0.0
 10
5.3778081429
 20
-13.1345082159
 30
0.0
 10
5.3795265837
 20
-13.1376933397
 30
0.0
 10
5.3819404921
 20
-13.142260421
 30
0.0
 10
5.384854735
 20
-13.1477336826
 30
0.0
 10
5.3887342588
 20
-13.1550338933
 30
0.0
 10
5.3935857817
 20
-13.1641582818
 30
0.0
 10
5.3994066426
 20
-13.175107955
 30
0.0
 10
5.4052279807
 20
-13.1860574004
 30
0.0
 10
5.4100783106
 20
-13.1951823582
 30
0.0
 10
5.4139602202
 20
-13.2024814303
 30
0.0
 10
5.4168671864
 20
-13.2079581649
 30
0.0
 10
5.4193038594
 20
-13.2125143811
 30
0.0
 10
5.4209816619
 20
-13.2157189007
 30
0.0
 10
5.4219839206
 20
-13.2175263708
 30
0.0
 10
5.4226130339
 20
-13.2189486916
 30
0.0
 10
5.423710713
 20
-13.2201159811
 30
0.0
 10
5.4250108442
 20
-13.2217613249
 30
0.0
 10
5.4273622239
 20
-13.2245992295
 30
0.0
 10
5.4306815256
 20
-13.2286750479
 30
0.0
 10
5.4346817289
 20
-13.2335567546
 30
0.0
 10
5.4400093791
 20
-13.2400689386
 30
0.0
 10
5.4466709948
 20
-13.2482080445
 30
0.0
 10
5.4546640108
 20
-13.2579755044
 30
0.0
 10
5.4626574337
 20
-13.2677426313
 30
0.0
 10
5.4693180322
 20
-13.2758825699
 30
0.0
 10
5.4746477169
 20
-13.2823930884
 30
0.0
 10
5.4786417149
 20
-13.2872798748
 30
0.0
 10
5.4819804294
 20
-13.2913398016
 30
0.0
 10
5.4842971542
 20
-13.2942060752
 30
0.0
 10
5.4856528112
 20
-13.2958059647
 30
0.0
 10
5.4865799329
 20
-13.2971128752
 30
0.0
 10
5.4878496318
 20
-13.2980108029
 30
0.0
 10
5.4894230689
 20
-13.2993506976
 30
0.0
 10
5.4922322588
 20
-13.3016290463
 30
0.0
 10
5.4962162796
 20
-13.3049185801
 30
0.0
 10
5.5010095638
 20
-13.3088511461
 30
0.0
 10
5.5073962561
 20
-13.3140997651
 30
0.0
 10
5.5153811235
 20
-13.3206587429
 30
0.0
 10
5.5249622843
 20
-13.3285303403
 30
0.0
 10
5.5345437625
 20
-13.3364015149
 30
0.0
 10
5.5425278362
 20
-13.3429615497
 30
0.0
 10
5.5489161161
 20
-13.3482080546
 30
0.0
 10
5.553704558
 20
-13.3521470684
 30
0.0
 10
5.5577037276
 20
-13.3554164308
 30
0.0
 10
5.5604858746
 20
-13.3577307885
 30
0.0
 10
5.5621026411
 20
-13.3590129879
 30
0.0
 10
5.5632392462
 20
-13.360088137
 30
0.0
 10
5.5646662461
 20
-13.3607294334
 30
0.0
 10
5.5664676198
 20
-13.3617358279
 30
0.0
 10
5.5696672179
 20
-13.3634265095
 30
0.0
 10
5.5742133986
 20
-13.3658786319
 30
0.0
 10
5.5796793769
 20
-13.3688053998
 30
0.0
 10
5.5869636578
 20
-13.3727132708
 30
0.0
 10
5.596070281
 20
-13.3775962037
 30
0.0
 10
5.6069976584
 20
-13.3834566003
 30
0.0
 10
5.6179252822
 20
-13.3893165375
 30
0.0
 10
5.6270312896
 20
-13.394200619
 30
0.0
 10
5.6343168021
 20
-13.3981061928
 30
0.0
 10
5.6397790241
 20
-13.4010399671
 30
0.0
 10
5.6443369558
 20
-13.4034701706
 30
0.0
 10
5.6475155766
 20
-13.4051999808
 30
0.0
 10
5.6493505612
 20
-13.4061436815
 30
0.0
 10
5.650674319
 20
-13.4069775532
 30
0.0
 10
5.6521986847
 20
-13.4073294215
 30
0.0
 10
5.6541611981
 20
-13.4079667075
 30
0.0
 10
5.6576281988
 20
-13.4090036238
 30
0.0
 10
5.6625640121
 20
-13.410525887
 30
0.0
 10
5.668494284
 20
-13.4123350725
 30
0.0
 10
5.6763987639
 20
-13.4147534456
 30
0.0
 10
5.686280243
 20
-13.4177742953
 30
0.0
 10
5.6981376221
 20
-13.4214002862
 30
0.0
 10
5.7099951776
 20
-13.4250257787
 30
0.0
 10
5.7198762156
 20
-13.4280478746
 30
0.0
 10
5.7277815775
 20
-13.4304637552
 30
0.0
 10
5.7337091594
 20
-13.4322805428
 30
0.0
 10
5.7386533881
 20
-13.4337790237
 30
0.0
 10
5.742105366
 20
-13.434858395
 30
0.0
 10
5.7440919497
 20
-13.4354276574
 30
0.0
 10
5.7455423792
 20
-13.4359884722
 30
0.0
 10
5.7471438291
 20
-13.4360375759
 30
0.0
 10
5.7492264181
 20
-13.4362815381
 30
0.0
 10
5.7528954923
 20
-13.4366253098
 30
0.0
 10
5.7581241952
 20
-13.4371598903
 30
0.0
 10
5.764404131
 20
-13.4377827769
 30
0.0
 10
5.7727754604
 20
-13.4386197925
 30
0.0
 10
5.7832402791
 20
-13.4396638363
 30
0.0
 10
5.7999836216
 20
-13.4413355508
 30
0.0
 10
5.8209129267
 20
-13.443424764
 30
0.0
 10
5.8376563321
 20
-13.4450962656
 30
0.0
 10
5.8460280396
 20
-13.445932
 30
0.0
  0
SPLINE
  5
58E
100
AcDbEntity
  8
0
100
AcDbSpline
 62
250
  6
CONTINUOUS
 70
0
 71
3
 72
251
 73
247
 74
0
 42
0.0000001
 43
0.0000001
 44
0.0000000001
 40
0.0
 40
0.0
 40
0.0
 40
0.0
 40
0.015625
 40
0.03125
 40
0.0390625
 40
0.046875
 40
0.05078125
 40
0.0546875
 40
0.05859375
 40
0.060546875
 40
0.0615234375
 40
0.0625
 40
0.0634765625
 40
0.064453125
 40
0.06640625
 40
0.0703125
 40
0.07421875
 40
0.078125
 40
0.0859375
 40
0.09375
 40
0.1015625
 40
0.109375
 40
0.11328125
 40
0.1171875
 40
0.12109375
 40
0.123046875
 40
0.1240234375
 40
0.125
 40
0.1259765625
 40
0.126953125
 40
0.12890625
 40
0.1328125
 40
0.13671875
 40
0.140625
 40
0.1484375
 40
0.15625
 40
0.1640625
 40
0.171875
 40
0.17578125
 40
0.1796875
 40
0.18359375
 40
0.185546875
 40
0.1865234375
 40
0.1875
 40
0.1884765625
 40
0.189453125
 40
0.19140625
 40
0.1953125
 40
0.19921875
 40
0.203125
 40
0.2109375
 40
0.21875
 40
0.2265625
 40
0.234375
 40
0.23828125
 40
0.2421875
 40
0.24609375
 40
0.248046875
 40
0.2490234375
 40
0.25
 40
0.2509765625
 40
0.251953125
 40
0.25390625
 40
0.2578125
 40
0.26171875
 40
0.265625
 40
0.2734375
 40
0.28125
 40
0.2890625
 40
0.296875
 40
0.30078125
 40
0.3046875
 40
0.30859375
 40
0.310546875
 40
0.3115234375
 40
0.3125
 40
0.3134765625
 40
0.314453125
 40
0.31640625
 40
0.3203125
 40
0.32421875
 40
0.328125
 40
0.3359375
 40
0.34375
 40
0.3515625
 40
0.359375
 40
0.36328125
 40
0.3671875
 40
0.37109375
 40
0.373046875
 40
0.3740234375
 40
0.375
 40
0.3759765625
 40
0.376953125
 40
0.37890625
 40
0.3828125
 40
0.38671875
 40
0.390625
 40
0.3984375
 40
0.40625
 40
0.4140625
 40
0.421875
 40
0.42578125
 40
0.4296875
 40
0.43359375
 40
0.435546875
 40
0.4365234375
 40
0.4375
 40
0.4384765625
 40
0.439453125
 40
0.44140625
 40
0.4453125
 40
0.44921875
 40
0.453125
 40
0.4609375
 40
0.46875
 40
0.4765625
 40
0.484375
 40
0.48828125
 40
0.4921875
 40
0.49609375
 40
0.498046875
 40
0.4990234375
 40
0.5
 40
0.5009765625
 40
0.501953125
 40
0.50390625
 40
0.5078125
 40
0.51171875
 40
0.515625
 40
0.5234375
 40
0.53125
 40
0.5390625
 40
0.546875
 40
0.55078125
 40
0.5546875
 40
0.55859375
 40
0.560546875
 40
0.5615234375
 40
0.5625
 40
0.5634765625
 40
0.564453125
 40
0.56640625
 40
0.5703125
 40
0.57421875
 40
0.578125
 40
0.5859375
 40
0.59375
 40
0.6015625
 40
0.609375
 40
0.61328125
 40
0.6171875
 40
0.62109375
 40
0.623046875
 40
0.6240234375
 40
0.625
 40
0.6259765625
 40
0.626953125
 40
0.62890625
 40
0.6328125
 40
0.63671875
 40
0.640625
 40
0.6484375
 40
0.65625
 40
0.6640625
 40
0.671875
 40
0.67578125
 40
0.6796875
 40
0.68359375
 40
0.685546875
 40
0.6865234375
 40
0.6875
 40
0.6884765625
 40
0.689453125
 40
0.69140625
 40
0.6953125
 40
0.69921875
 40
0.703125
 40
0.7109375
 40
0.71875
 40
0.7265625
 40
0.734375
 40
0.73828125
 40
0.7421875
 40
0.74609375
 40
0.748046875
 40
0.7490234375
 40
0.75
 40
0.7509765625
 40
0.751953125
 40
0.75390625
 40
0.7578125
 40
0.76171875
 40
0.765625
 40
0.7734375
 40
0.78125
 40
0.7890625
 40
0.796875
 40
0.80078125
 40
0.8046875
 40
0.80859375
 40
0.810546875
 40
0.8115234375
 40
0.8125
 40
0.8134765625
 40
0.814453125
 40
0.81640625
 40
0.8203125
 40
0.82421875
 40
0.828125
 40
0.8359375
 40
0.84375
 40
0.8515625
 40
0.859375
 40
0.86328125
 40
0.8671875
 40
0.87109375
 40
0.873046875
 40
0.8740234375
 40
0.875
 40
0.8759765625
 40
0.876953125
 40
0.87890625
 40
0.8828125
 40
0.88671875
 40
0.890625
 40
0.8984375
 40
0.90625
 40
0.9140625
 40
0.921875
 40
0.92578125
 40
0.9296875
 40
0.93359375
 40
0.935546875
 40
0.9365234375
 40
0.9375
 40
0.9384765625
 40
0.939453125
 40
0.94140625
 40
0.9453125
 40
0.94921875
 40
0.953125
 40
0.9609375
 40
0.96875
 40
0.984375
 40
1.0
 40
1.0
 40
1.0
 40
1.0
 10
5.8460279951
 20
-13.445932
 30
0.0
 10
5.8542547195
 20
-13.4451252397
 30
0.0
 10
5.8707081618
 20
-13.4435116865
 30
0.0
 10
5.8912749971
 20
-13.4414949087
 30
0.0
 10
5.9077283972
 20
-13.4398811424
 30
0.0
 10
5.9180119263
 20
-13.4388733169
 30
0.0
 10
5.9262383968
 20
-13.4380652743
 30
0.0
 10
5.9324092157
 20
-13.4374641217
 30
0.0
 10
5.9375484918
 20
-13.4369476395
 30
0.0
 10
5.9411520156
 20
-13.4366165628
 30
0.0
 10
5.943201756
 20
-13.436379814
 30
0.0
 10
5.9447655866
 20
-13.4363362356
 30
0.0
 10
5.9462280238
 20
-13.4357805055
 30
0.0
 10
5.9482133074
 20
-13.4352181764
 30
0.0
 10
5.9516710753
 20
-13.4341508667
 30
0.0
 10
5.9566193588
 20
-13.4326696542
 30
0.0
 10
5.9625536113
 20
-13.4308735725
 30
0.0
 10
5.970467237
 20
-13.4284853055
 30
0.0
 10
5.980358821
 20
-13.4254977246
 30
0.0
 10
5.9922289388
 20
-13.4219136511
 30
0.0
 10
6.0040989059
 20
-13.4183290786
 30
0.0
 10
6.0139908666
 20
-13.4153427453
 30
0.0
 10
6.021903739
 20
-13.412951983
 30
0.0
 10
6.027840289
 20
-13.4111635121
 30
0.0
 10
6.0327813851
 20
-13.4096584901
 30
0.0
 10
6.0362519836
 20
-13.408633684
 30
0.0
 10
6.0382167092
 20
-13.4080032534
 30
0.0
 10
6.0397422938
 20
-13.407656709
 30
0.0
 10
6.0410689538
 20
-13.4068274639
 30
0.0
 10
6.0429072209
 20
-13.4058901753
 30
0.0
 10
6.0460918595
 20
-13.4041714727
 30
0.0
 10
6.0506582452
 20
-13.4017571966
 30
0.0
 10
6.0561306732
 20
-13.3988425098
 30
0.0
 10
6.0634297721
 20
-13.394962395
 30
0.0
 10
6.0725527709
 20
-13.3901101331
 30
0.0
 10
6.0835007764
 20
-13.3842883855
 30
0.0
 10
6.0944485541
 20
-13.3784661607
 30
0.0
 10
6.1035721222
 20
-13.3736150919
 30
0.0
 10
6.1108700826
 20
-13.3697325909
 30
0.0
 10
6.1163459831
 20
-13.366825182
 30
0.0
 10
6.1209015053
 20
-13.3643881378
 30
0.0
 10
6.1241055369
 20
-13.3627100797
 30
0.0
 10
6.1259127316
 20
-13.3617076683
 30
0.0
 10
6.1273348359
 20
-13.3610784593
 30
0.0
 10
6.1285019476
 20
-13.3599806129
 30
0.0
 10
6.1301470408
 20
-13.3586802837
 30
0.0
 10
6.1329845131
 20
-13.3563285458
 30
0.0
 10
6.1370597108
 20
-13.3530087385
 30
0.0
 10
6.141940674
 20
-13.3490079259
 30
0.0
 10
6.1484518661
 20
-13.3436794641
 30
0.0
 10
6.1565897323
 20
-13.3370168336
 30
0.0
 10
6.1663557047
 20
-13.3290226001
 30
0.0
 10
6.1761213439
 20
-13.3210279595
 30
0.0
 10
6.1842600428
 20
-13.3143663465
 30
0.0
 10
6.1907695697
 20
-13.3090358499
 30
0.0
 10
6.1956556119
 20
-13.3050412435
 30
0.0
 10
6.1997149203
 20
-13.3017020204
 30
0.0
 10
6.2025807574
 20
-13.2993849427
 30
0.0
 10
6.2041804032
 20
-13.2980290792
 30
0.0
 10
6.2054871146
 20
-13.2971018163
 30
0.0
 10
6.2063849056
 20
-13.295831924
 30
0.0
 10
6.2077245962
 20
-13.2942582472
 30
0.0
 10
6.210002598
 20
-13.2914486294
 30
0.0
 10
6.2132916307
 20
-13.2874640017
 30
0.0
 10
6.2172235978
 20
-13.2826699873
 30
0.0
 10
6.2224714173
 20
-13.2762823222
 30
0.0
 10
6.2290293962
 20
-13.2682962384
 30
0.0
 10
6.2368997947
 20
-13.2587136182
 30
0.0
 10
6.2447697705
 20
-13.2491306804
 30
0.0
 10
6.2513288062
 20
-13.2411453905
 30
0.0
 10
6.256574512
 20
-13.2347561375
 30
0.0
 10
6.2605129259
 20
-13.2299669662
 30
0.0
 10
6.2637817904
 20
-13.2259671874
 30
0.0
 10
6.2660957956
 20
-13.2231846166
 30
0.0
 10
6.2673777997
 20
-13.2215676039
 30
0.0
 10
6.268452785
 20
-13.2204308256
 30
0.0
 10
6.2690939837
 20
-13.2190036083
 30
0.0
 10
6.2701002249
 20
-13.2172019603
 30
0.0
 10
6.2717906491
 20
-13.2140018747
 30
0.0
 10
6.274242398
 20
-13.2094550015
 30
0.0
 10
6.2771687202
 20
-13.2039881906
 30
0.0
 10
6.2810759959
 20
-13.1967028001
 30
0.0
 10
6.2859581851
 20
-13.1875947897
 30
0.0
 10
6.2918176892
 20
-13.1766657477
 30
0.0
 10
6.2976767339
 20
-13.1657364594
 30
0.0
 10
6.3025600715
 20
-13.1566290649
 30
0.0
 10
6.3064650505
 20
-13.1493424426
 30
0.0
 10
6.3093983779
 20
-13.1438793886
 30
0.0
 10
6.3118282113
 20
-13.1393207625
 30
0.0
 10
6.3135577581
 20
-13.1361416575
 30
0.0
 10
6.3145013151
 20
-13.1343063934
 30
0.0
 10
6.3153350597
 20
-13.132982434
 30
0.0
 10
6.3156868745
 20
-13.131457836
 30
0.0
 10
6.3163240633
 20
-13.1294950237
 30
0.0
 10
6.3173608218
 20
-13.1260274949
 30
0.0
 10
6.318882853
 20
-13.1210909297
 30
0.0
 10
6.3206917631
 20
-13.1151597545
 30
0.0
 10
6.3231097678
 20
-13.1072540705
 30
0.0
 10
6.3261301574
 20
-13.0973710862
 30
0.0
 10
6.3297555961
 20
-13.0855119009
 30
0.0
 10
6.3333805364
 20
-13.0736525392
 30
0.0
 10
6.336402172
 20
-13.063769996
 30
0.0
 10
6.3388176847
 20
-13.0558634299
 30
0.0
 10
6.3406341956
 20
-13.049934945
 30
0.0
 10
6.3421324482
 20
-13.0449899632
 30
0.0
 10
6.3432116551
 20
-13.0415374594
 30
0.0
 10
6.3437808309
 20
-13.0395505732
 30
0.0
 10
6.3443415602
 20
-13.0380999225
 30
0.0
 10
6.3443906564
 20
-13.0364982296
 30
0.0
 10
6.3446345814
 20
-13.0344153242
 30
0.0
 10
6.3449783008
 20
-13.0307456928
 30
0.0
 10
6.3455128
 20
-13.0255161957
 30
0.0
 10
6.3461355913
 20
-13.0192353061
 30
0.0
 10
6.3469724818
 20
-13.0108627052
 30
0.0
 10
6.3480163485
 20
-13.000396297
 30
0.0
 10
6.349270018
 20
-12.9878368831
 30
0.0
 10
6.3505231642
 20
-12.975277417
 30
0.0
 10
6.3515683391
 20
-12.9648111394
 30
0.0
 10
6.3524026134
 20
-12.9564382773
 30
0.0
 10
6.3530333839
 20
-12.9501581842
 30
0.0
 10
6.3535429208
 20
-12.9449261952
 30
0.0
 10
6.3539312017
 20
-12.9412610123
 30
0.0
 10
6.3541037279
 20
-12.9391709793
 30
0.0
 10
6.3543721384
 20
-12.9375911802
 30
0.0
 10
6.3541091597
 20
-12.9360582999
 30
0.0
 10
6.353943876
 20
-12.9339980938
 30
0.0
 10
6.3535682693
 20
-12.9304003581
 30
0.0
 10
6.3530768385
 20
-12.9252567493
 30
0.0
 10
6.3524677953
 20
-12.9190861251
 30
0.0
 10
6.3516624907
 20
-12.9108580297
 30
0.0
 10
6.3506535281
 20
-12.900573118
 30
0.0
 10
6.3494438365
 20
-12.8882311224
 30
0.0
 10
6.3482336215
 20
-12.8758892011
 30
0.0
 10
6.3472259675
 20
-12.8656041034
 30
0.0
 10
6.3464180457
 20
-12.8573763801
 30
0.0
 10
6.3458169851
 20
-12.8512046212
 30
0.0
 10
6.3453005814
 20
-12.8460645622
 30
0.0
 10
6.3449695551
 20
-12.8424604895
 30
0.0
 10
6.3447328424
 20
-12.8404104369
 30
0.0
 10
6.3446892706
 20
-12.8388463681
 30
0.0
 10
6.3441336252
 20
-12.837383708
 30
0.0
 10
6.3435713817
 20
-12.8353981221
 30
0.0
 10
6.3425042346
 20
-12.8319398275
 30
0.0
 10
6.3410232476
 20
-12.8269907902
 30
0.0
 10
6.3392274396
 20
-12.8210556337
 30
0.0
 10
6.3368395363
 20
-12.8131408026
 30
0.0
 10
6.3338524104
 20
-12.8032477118
 30
0.0
 10
6.3302688828
 20
-12.7913757858
 30
0.0
 10
6.3266848562
 20
-12.7795040106
 30
0.0
 10
6.3236989778
 20
-12.7696105431
 30
0.0
 10
6.3213085796
 20
-12.7616964653
 30
0.0
 10
6.3195203811
 20
-12.7557590111
 30
0.0
 10
6.3180155883
 20
-12.7508171623
 30
0.0
 10
6.3169909382
 20
-12.7473460351
 30
0.0
 10
6.3163606037
 20
-12.7453810102
 30
0.0
 10
6.3160141121
 20
-12.7438551932
 30
0.0
 10
6.3151849933
 20
-12.7425283312
 30
0.0
 10
6.3142478474
 20
-12.7406897841
 30
0.0
 10
6.3125294066
 20
-12.7375046603
 30
0.0
 10
6.3101154982
 20
-12.732937579
 30
0.0
 10
6.3072012553
 20
-12.7274643174
 30
0.0
 10
6.3033217315
 20
-12.7201641067
 30
0.0
 10
6.2984702086
 20
-12.7110397182
 30
0.0
 10
6.2926493477
 20
-12.700090045
 30
0.0
 10
6.2868280096
 20
-12.6891405996
 30
0.0
 10
6.2819776797
 20
-12.6800156418
 30
0.0
 10
6.2780957701
 20
-12.6727165697
 30
0.0
 10
6.2751888039
 20
-12.6672398351
 30
0.0
 10
6.2727521309
 20
-12.6626836189
 30
0.0
 10
6.2710743284
 20
-12.6594790993
 30
0.0
 10
6.2700720697
 20
-12.6576716292
 30
0.0
 10
6.2694429564
 20
-12.6562493084
 30
0.0
 10
6.2683452773
 20
-12.6550820189
 30
0.0
 10
6.2670451461
 20
-12.6534366751
 30
0.0
 10
6.2646937664
 20
-12.6505987705
 30
0.0
 10
6.2613744647
 20
-12.6465229521
 30
0.0
 10
6.2573742614
 20
-12.6416412454
 30
0.0
 10
6.2520466112
 20
-12.6351290614
 30
0.0
 10
6.2453849955
 20
-12.6269899555
 30
0.0
 10
6.2373919795
 20
-12.6172224956
 30
0.0
 10
6.2293985566
 20
-12.6074553687
 30
0.0
 10
6.2227379581
 20
-12.5993154301
 30
0.0
 10
6.2174082734
 20
-12.5928049116
 30
0.0
 10
6.2134142754
 20
-12.5879181252
 30
0.0
 10
6.2100755609
 20
-12.5838581984
 30
0.0
 10
6.2077588361
 20
-12.5809919248
 30
0.0
 10
6.2064031791
 20
-12.5793920353
 30
0.0
 10
6.2054760574
 20
-12.5780851248
 30
0.0
 10
6.2042063585
 20
-12.5771871971
 30
0.0
 10
6.2026329214
 20
-12.5758473024
 30
0.0
 10
6.1998237315
 20
-12.5735689537
 30
0.0
 10
6.1958397107
 20
-12.5702794199
 30
0.0
 10
6.1910464265
 20
-12.5663468539
 30
0.0
 10
6.1846597342
 20
-12.5610982349
 30
0.0
 10
6.1766748668
 20
-12.5545392571
 30
0.0
 10
6.167093706
 20
-12.5466676597
 30
0.0
 10
6.1575122278
 20
-12.5387964851
 30
0.0
 10
6.1495281541
 20
-12.5322364503
 30
0.0
 10
6.1431398742
 20
-12.5269899454
 30
0.0
 10
6.1383514323
 20
-12.5230509316
 30
0.0
 10
6.1343522627
 20
-12.5197815692
 30
0.0
 10
6.1315701157
 20
-12.5174672115
 30
0.0
 10
6.1299533492
 20
-12.5161850121
 30
0.0
 10
6.1288167441
 20
-12.515109863
 30
0.0
 10
6.1273897442
 20
-12.5144685666
 30
0.0
 10
6.1255883705
 20
-12.5134621721
 30
0.0
 10
6.1223887724
 20
-12.5117714905
 30
0.0
 10
6.1178425917
 20
-12.5093193681
 30
0.0
 10
6.1123766134
 20
-12.5063926002
 30
0.0
 10
6.1050923325
 20
-12.5024847292
 30
0.0
 10
6.0959857093
 20
-12.4976017963
 30
0.0
 10
6.0850583319
 20
-12.4917413997
 30
0.0
 10
6.0741307081
 20
-12.4858814625
 30
0.0
 10
6.0650247007
 20
-12.480997381
 30
0.0
 10
6.0577391882
 20
-12.4770918072
 30
0.0
 10
6.0522769662
 20
-12.4741580329
 30
0.0
 10
6.0477190345
 20
-12.4717278294
 30
0.0
 10
6.0445404137
 20
-12.4699980192
 30
0.0
 10
6.0427054291
 20
-12.4690543185
 30
0.0
 10
6.0413816713
 20
-12.4682204468
 30
0.0
 10
6.0398573056
 20
-12.4678685785
 30
0.0
 10
6.0378947922
 20
-12.4672312925
 30
0.0
 10
6.0344277915
 20
-12.4661943762
 30
0.0
 10
6.0294919782
 20
-12.464672113
 30
0.0
 10
6.0235617063
 20
-12.4628629275
 30
0.0
 10
6.0156572264
 20
-12.4604445544
 30
0.0
 10
6.0057757473
 20
-12.4574237047
 30
0.0
 10
5.9939183682
 20
-12.4537977138
 30
0.0
 10
5.9820608127
 20
-12.4501722213
 30
0.0
 10
5.9721797747
 20
-12.4471501254
 30
0.0
 10
5.9642744128
 20
-12.4447342448
 30
0.0
 10
5.9583468309
 20
-12.4429174572
 30
0.0
 10
5.9534026022
 20
-12.4414189763
 30
0.0
 10
5.9499506243
 20
-12.440339605
 30
0.0
 10
5.9479640406
 20
-12.4397703426
 30
0.0
 10
5.9465136111
 20
-12.4392095278
 30
0.0
 10
5.9449121612
 20
-12.4391604241
 30
0.0
 10
5.9428295722
 20
-12.4389164619
 30
0.0
 10
5.939160498
 20
-12.4385726902
 30
0.0
 10
5.9339317951
 20
-12.4380381097
 30
0.0
 10
5.9276518593
 20
-12.4374152231
 30
0.0
 10
5.9192805299
 20
-12.4365782075
 30
0.0
 10
5.9088157112
 20
-12.4355341637
 30
0.0
 10
5.8920723687
 20
-12.4338624492
 30
0.0
 10
5.8711430636
 20
-12.431773236
 30
0.0
 10
5.8543996582
 20
-12.4301017344
 30
0.0
 10
5.8460279507
 20
-12.429266
 30
0.0
  0
SPLINE
  5
58F
100
AcDbEntity
  8
INCISIONI
100
AcDbSpline
 62
250
  6
CONTINUOUS
 70
0
 71
3
 72
8
 73
4
 74
0
 42
0.0000001
 43
0.0000001
 44
0.0000000001
 40
0.0
 40
0.0
 40
0.0
 40
0.0
 40
1.0
 40
1.0
 40
1.0
 40
1.0
 10
-5.4109582898
 20
11.1551101322
 30
0.0
 10
-5.571130706
 20
11.3018605651
 30
0.0
 10
-5.6586534617
 20
11.5406980947
 30
0.0
 10
-5.6586534617
 20
11.7579507336
 30
0.0
  0
SPLINE
  5
590
100
AcDbEntity
  8
INCISIONI
100
AcDbSpline
 62
250
  6
CONTINUOUS
 70
0
 71
3
 72
9
 73
5
 74
0
 42
0.0000001
 43
0.0000001
 44
0.0000000001
 40
0.0
 40
0.0
 40
0.0
 40
0.0
 40
0.7700703141
 40
1.0
 40
1.0
 40
1.0
 40
1.0
 10
-4.6039517695
 20
10.8833098474
 30
0.0
 10
-4.8254126256
 20
10.8833098474
 30
0.0
 10
-5.1246722062
 20
10.9441703424
 30
0.0
 10
-5.3622012357
 20
11.1104358475
 30
0.0
 10
-5.4109582898
 20
11.1551101322
 30
0.0
  0
SPLINE
  5
591
100
AcDbEntity
  8
INCISIONI
100
AcDbSpline
 62
250
  6
CONTINUOUS
 70
0
 71
3
 72
9
 73
5
 74
0
 42
0.0000001
 43
0.0000001
 44
0.0000000001
 40
0.0
 40
0.0
 40
0.0
 40
0.0
 40
0.728257811
 40
1.0
 40
1.0
 40
1.0
 40
1.0
 10
-3.7969605927
 20
11.1551101322
 30
0.0
 10
-3.9511300958
 20
11.0138639557
 30
0.0
 10
-4.2407357467
 20
10.9047002907
 30
0.0
 10
-4.5259372491
 20
10.8833098474
 30
0.0
 10
-4.6039517695
 20
10.8833098474
 30
0.0
  0
SPLINE
  5
592
100
AcDbEntity
  8
INCISIONI
100
AcDbSpline
 62
250
  6
CONTINUOUS
 70
0
 71
3
 72
8
 73
4
 74
0
 42
0.0000001
 43
0.0000001
 44
0.0000000001
 40
0.0
 40
0.0
 40
0.0
 40
0.0
 40
1.0
 40
1.0
 40
1.0
 40
1.0
 10
-3.5492654209
 20
11.7579507336
 30
0.0
 10
-3.5492654209
 20
11.5406980947
 30
0.0
 10
-3.6367859155
 20
11.3018580965
 30
0.0
 10
-3.7969605927
 20
11.1551101322
 30
0.0
  0
SPLINE
  5
593
100
AcDbEntity
  8
INCISIONI
100
AcDbSpline
 62
250
  6
CONTINUOUS
 70
0
 71
3
 72
8
 73
4
 74
0
 42
0.0000001
 43
0.0000001
 44
0.0000000001
 40
0.0
 40
0.0
 40
0.0
 40
0.0
 40
1.0
 40
1.0
 40
1.0
 40
1.0
 10
-3.7969605927
 20
12.3579267794
 30
0.0
 10
-3.6374456555
 20
12.211765553
 30
0.0
 10
-3.5492654209
 20
11.9743204908
 30
0.0
 10
-3.5492654209
 20
11.7579507336
 30
0.0
  0
SPLINE
  5
594
100
AcDbEntity
  8
INCISIONI
100
AcDbSpline
 62
250
  6
CONTINUOUS
 70
0
 71
3
 72
9
 73
5
 74
0
 42
0.0000001
 43
0.0000001
 44
0.0000000001
 40
0.0
 40
0.0
 40
0.0
 40
0.0
 40
0.7700722265
 40
1.0
 40
1.0
 40
1.0
 40
1.0
 10
-4.6039517695
 20
12.6297219488
 30
0.0
 10
-4.3824945779
 20
12.6297219488
 30
0.0
 10
-4.0832414239
 20
12.5688615623
 30
0.0
 10
-3.8457157668
 20
12.4026004392
 30
0.0
 10
-3.7969605927
 20
12.3579267794
 30
0.0
  0
SPLINE
  5
595
100
AcDbEntity
  8
INCISIONI
100
AcDbSpline
 62
250
  6
CONTINUOUS
 70
0
 71
3
 72
9
 73
5
 74
0
 42
0.0000001
 43
0.0000001
 44
0.0000000001
 40
0.0
 40
0.0
 40
0.0
 40
0.0
 40
0.7282512758
 40
1.0
 40
1.0
 40
1.0
 40
1.0
 10
-5.4109582898
 20
12.3579267794
 30
0.0
 10
-5.2567939283
 20
12.4991806499
 30
0.0
 10
-4.9671743907
 20
12.6083365493
 30
0.0
 10
-4.6819693906
 20
12.6297219488
 30
0.0
 10
-4.6039517695
 20
12.6297219488
 30
0.0
  0
SPLINE
  5
596
100
AcDbEntity
  8
INCISIONI
100
AcDbSpline
 62
250
  6
CONTINUOUS
 70
0
 71
3
 72
8
 73
4
 74
0
 42
0.0000001
 43
0.0000001
 44
0.0000000001
 40
0.0
 40
0.0
 40
0.0
 40
0.0
 40
1.0
 40
1.0
 40
1.0
 40
1.0
 10
-5.6586534617
 20
11.7579507336
 30
0.0
 10
-5.6586534617
 20
11.9743204908
 30
0.0
 10
-5.5704756493
 20
12.2117681975
 30
0.0
 10
-5.4109582898
 20
12.3579267794
 30
0.0
  0
SPLINE
  5
597
100
AcDbEntity
  8
INCISIONI
100
AcDbSpline
 62
250
  6
CONTINUOUS
 70
0
 71
3
 72
9
 73
5
 74
0
 42
0.0000001
 43
0.0000001
 44
0.0000000001
 40
0.0
 40
0.0
 40
0.0
 40
0.0
 40
0.7594903071
 40
1.0
 40
1.0
 40
1.0
 40
1.0
 10
-4.6042330669
 20
10.3623239211
 30
0.0
 10
-4.3154703212
 20
10.3623239211
 30
0.0
 10
-3.9237044131
 20
10.4525007128
 30
0.0
 10
-3.6061814634
 20
10.6653293537
 30
0.0
 10
-3.5365558916
 20
10.7246185849
 30
0.0
  0
SPLINE
  5
598
100
AcDbEntity
  8
INCISIONI
100
AcDbSpline
 62
250
  6
CONTINUOUS
 70
0
 71
3
 72
9
 73
5
 74
0
 42
0.0000001
 43
0.0000001
 44
0.0000000001
 40
0.0
 40
0.0
 40
0.0
 40
0.0
 40
0.7410181606
 40
1.0
 40
1.0
 40
1.0
 40
1.0
 10
-5.6719153568
 20
10.7246185849
 30
0.0
 10
-5.4576243353
 20
10.5421472169
 30
0.0
 10
-5.0806505124
 20
10.3933122893
 30
0.0
 10
-4.7025934756
 20
10.3623239211
 30
0.0
 10
-4.6042330669
 20
10.3623239211
 30
0.0
  0
SPLINE
  5
599
100
AcDbEntity
  8
INCISIONI
100
AcDbSpline
 62
250
  6
CONTINUOUS
 70
0
 71
3
 72
9
 73
5
 74
0
 42
0.0000001
 43
0.0000001
 44
0.0000000001
 40
0.0
 40
0.0
 40
0.0
 40
0.0
 40
0.5032851617
 40
1.0
 40
1.0
 40
1.0
 40
1.0
 10
-6.1181297955
 20
11.7566003002
 30
0.0
 10
-6.1181297955
 20
11.5633482973
 30
0.0
 10
-6.0513311408
 20
11.1735136202
 30
0.0
 10
-5.8171215123
 20
10.8482565506
 30
0.0
 10
-5.6719153568
 20
10.7246185849
 30
0.0
  0
SPLINE
  5
59A
100
AcDbEntity
  8
INCISIONI
100
AcDbSpline
 62
250
  6
CONTINUOUS
 70
0
 71
3
 72
9
 73
5
 74
0
 42
0.0000001
 43
0.0000001
 44
0.0000000001
 40
0.0
 40
0.0
 40
0.0
 40
0.0
 40
0.4967142059
 40
1.0
 40
1.0
 40
1.0
 40
1.0
 10
-5.6719153568
 20
12.7884285572
 30
0.0
 10
-5.8171014017
 20
12.6648028171
 30
0.0
 10
-6.051329698
 20
12.3396257875
 30
0.0
 10
-6.1181297955
 20
11.9498292442
 30
0.0
 10
-6.1181297955
 20
11.7566003002
 30
0.0
  0
SPLINE
  5
59B
100
AcDbEntity
  8
INCISIONI
100
AcDbSpline
 62
250
  6
CONTINUOUS
 70
0
 71
3
 72
9
 73
5
 74
0
 42
0.0000001
 43
0.0000001
 44
0.0000000001
 40
0.0
 40
0.0
 40
0.0
 40
0.0
 40
0.7594862769
 40
1.0
 40
1.0
 40
1.0
 40
1.0
 10
-4.6042330669
 20
13.1507078752
 30
0.0
 10
-4.8929943729
 20
13.1507078752
 30
0.0
 10
-5.28476363
 20
13.0605454353
 30
0.0
 10
-5.6022870454
 20
12.8477169794
 30
0.0
 10
-5.6719153568
 20
12.7884285572
 30
0.0
  0
SPLINE
  5
59C
100
AcDbEntity
  8
INCISIONI
100
AcDbSpline
 62
250
  6
CONTINUOUS
 70
0
 71
3
 72
9
 73
5
 74
0
 42
0.0000001
 43
0.0000001
 44
0.0000000001
 40
0.0
 40
0.0
 40
0.0
 40
0.0
 40
0.7410185991
 40
1.0
 40
1.0
 40
1.0
 40
1.0
 10
-3.5365558916
 20
12.7884285572
 30
0.0
 10
-3.7508540925
 20
12.9708876609
 30
0.0
 10
-4.1278193695
 20
13.11972182
 30
0.0
 10
-4.5058737506
 20
13.1507078752
 30
0.0
 10
-4.6042330669
 20
13.1507078752
 30
0.0
  0
SPLINE
  5
59D
100
AcDbEntity
  8
INCISIONI
100
AcDbSpline
 62
250
  6
CONTINUOUS
 70
0
 71
3
 72
9
 73
5
 74
0
 42
0.0000001
 43
0.0000001
 44
0.0000000001
 40
0.0
 40
0.0
 40
0.0
 40
0.0
 40
0.5032865907
 40
1.0
 40
1.0
 40
1.0
 40
1.0
 10
-3.0903363384
 20
11.7566003002
 30
0.0
 10
-3.0903363384
 20
11.9498301032
 30
0.0
 10
-3.1571368641
 20
12.339626309
 30
0.0
 10
-3.3913644636
 20
12.6648087708
 30
0.0
 10
-3.5365558916
 20
12.7884285572
 30
0.0
  0
SPLINE
  5
59E
100
AcDbEntity
  8
INCISIONI
100
AcDbSpline
 62
250
  6
CONTINUOUS
 70
0
 71
3
 72
9
 73
5
 74
0
 42
0.0000001
 43
0.0000001
 44
0.0000000001
 40
0.0
 40
0.0
 40
0.0
 40
0.0
 40
0.4967189073
 40
1.0
 40
1.0
 40
1.0
 40
1.0
 10
-3.5365558916
 20
10.7246185849
 30
0.0
 10
-3.3913544265
 20
10.8482640074
 30
0.0
 10
-3.1571502181
 20
11.1735179292
 30
0.0
 10
-3.0903363384
 20
11.5633501642
 30
0.0
 10
-3.0903363384
 20
11.7566003002
 30
0.0
  0
SPLINE
  5
59F
100
AcDbEntity
  8
INCISIONI
100
AcDbSpline
 62
250
  6
CONTINUOUS
 70
0
 71
3
 72
27
 73
23
 74
0
 42
0.0000001
 43
0.0000001
 44
0.0000000001
 40
0.0
 40
0.0
 40
0.0
 40
0.0
 40
0.05
 40
0.1
 40
0.15
 40
0.2
 40
0.25
 40
0.3
 40
0.35
 40
0.4
 40
0.45
 40
0.5
 40
0.55
 40
0.6
 40
0.65
 40
0.7
 40
0.75
 40
0.8
 40
0.85
 40
0.9
 40
0.95
 40
1.0
 40
1.0
 40
1.0
 40
1.0
 10
-4.3449089248
 20
-4.2550232093
 30
0.0
 10
-4.3609061246
 20
-4.2170411547
 30
0.0
 10
-4.3972399301
 20
-4.1454442512
 30
0.0
 10
-4.4658091458
 20
-4.0455628079
 30
0.0
 10
-4.5489533642
 20
-3.9543357472
 30
0.0
 10
-4.6439166728
 20
-3.8757714019
 30
0.0
 10
-4.7463975682
 20
-3.812227955
 30
0.0
 10
-4.8565782281
 20
-3.7629865168
 30
0.0
 10
-4.9753630823
 20
-3.7282864027
 30
0.0
 10
-5.0979008294
 20
-3.7105632321
 30
0.0
 10
-5.2199924298
 20
-3.7099036969
 30
0.0
 10
-5.3410715965
 20
-3.725751738
 30
0.0
 10
-5.4588077433
 20
-3.7581573676
 30
0.0
 10
-5.5710695126
 20
-3.8061696141
 30
0.0
 10
-5.6771176901
 20
-3.8700798712
 30
0.0
 10
-5.7731178094
 20
-3.9481784407
 30
0.0
 10
-5.855544245
 20
-4.0363370381
 30
0.0
 10
-5.9253235782
 20
-4.1346863225
 30
0.0
 10
-5.982344934
 20
-4.2439601709
 30
0.0
 10
-6.0235590538
 20
-4.3603147094
 30
0.0
 10
-6.0479820073
 20
-4.4789858586
 30
0.0
 10
-6.0536761857
 20
-4.5590746454
 30
0.0
 10
-6.0536761857
 20
-4.600289
 30
0.0
  0
SPLINE
  5
5A0
100
AcDbEntity
  8
0
100
AcDbSpline
 62
250
  6
CONTINUOUS
 70
0
 71
3
 72
11
 73
7
 74
0
 42
0.0000001
 43
0.0000001
 44
0.0000000001
 40
0.0
 40
0.0
 40
0.0
 40
0.0
 40
0.2577993743
 40
0.5067761248
 40
0.7528564382
 40
1.0
 40
1.0
 40
1.0
 40
1.0
 10
4.321261261
 20
-12.937598426
 30
0.0
 10
4.321261261
 20
-13.0875211537
 30
0.0
 10
4.3647105698
 20
-13.3842124588
 30
0.0
 10
4.5538605603
 20
-13.7855430698
 30
0.0
 10
4.8430505511
 20
-14.1132630749
 30
0.0
 10
5.0889858911
 20
-14.2694714158
 30
0.0
 10
5.2199909047
 20
-14.3285440864
 30
0.0
  0
SPLINE
  5
5A1
100
AcDbEntity
  8
0
100
AcDbSpline
 62
250
  6
CONTINUOUS
 70
0
 71
3
 72
21
 73
17
 74
0
 42
0.0000001
 43
0.0000001
 44
0.0000000001
 40
0.0
 40
0.0
 40
0.0
 40
0.0
 40
0.1211580534
 40
0.1833229257
 40
0.2150353714
 40
0.2473050049
 40
0.3110976584
 40
0.3729974563
 40
0.493731698
 40
0.6144659398
 40
0.6763657377
 40
0.7401583911
 40
0.8039510446
 40
0.8658508425
 40
0.9865850843
 40
1.0
 40
1.0
 40
1.0
 40
1.0
 10
6.9213383401
 20
-14.0189546988
 30
0.0
 10
7.0595977978
 20
-13.8806741803
 30
0.0
 10
7.2305187159
 20
-13.6276066744
 30
0.0
 10
7.3343826976
 20
-13.2946064171
 30
0.0
 10
7.365526205
 20
-13.0930134006
 30
0.0
 10
7.3760399754
 20
-12.8867597425
 30
0.0
 10
7.3504305093
 20
-12.6311118337
 30
0.0
 10
7.232046721
 20
-12.2491074798
 30
0.0
 10
6.9512794581
 20
-11.8321701062
 30
0.0
 10
6.5344403279
 20
-11.5513730525
 30
0.0
 10
6.1524236244
 20
-11.4329632539
 30
0.0
 10
5.8460290362
 20
-11.4022598977
 30
0.0
 10
5.5396342077
 20
-11.4329741836
 30
0.0
 10
5.1576184233
 20
-11.5513141768
 30
0.0
 10
4.8882356606
 20
-11.7331155882
 30
0.0
 10
4.7373424085
 20
-11.8903859848
 30
0.0
 10
4.7225989898
 20
-11.906426788
 30
0.0
  0
SPLINE
  5
5A2
100
AcDbEntity
  8
0
100
AcDbSpline
 62
250
  6
CONTINUOUS
 70
0
 71
3
 72
9
 73
5
 74
0
 42
0.0000001
 43
0.0000001
 44
0.0000000001
 40
0.0
 40
0.0
 40
0.0
 40
0.0
 40
0.5088964989
 40
1.0
 40
1.0
 40
1.0
 40
1.0
 10
7.8790522773
 20
-12.937598426
 30
0.0
 10
7.8790522773
 20
-13.1782777577
 30
0.0
 10
7.7945926557
 20
-13.6554225116
 30
0.0
 10
7.5492515311
 20
-14.0721425617
 30
0.0
 10
7.3993302101
 20
-14.2495219014
 30
0.0
  0
SPLINE
  5
5A3
100
AcDbEntity
  8
0
100
AcDbSpline
 62
250
  6
CONTINUOUS
 70
0
 71
3
 72
9
 73
5
 74
0
 42
0.0000001
 43
0.0000001
 44
0.0000000001
 40
0.0
 40
0.0
 40
0.0
 40
0.0
 40
0.4911977691
 40
1.0
 40
1.0
 40
1.0
 40
1.0
 10
8.3348306479
 20
-14.7005449871
 30
0.0
 10
8.5122052946
 20
-14.4505176606
 30
0.0
 10
8.7981455175
 20
-13.8835487886
 30
0.0
 10
8.8955644652
 20
-13.2551556002
 30
0.0
 10
8.8955644652
 20
-12.937598426
 30
0.0
  0
ELLIPSE
  5
5A4
100
AcDbEntity
  8
0
100
AcDbEllipse
 62
7
  6
CONTINUOUS
 10
49.0882150786
 20
-23.7982512664
 30
0.0
 11
0.0
 21
0.2
 31
0.0
 40
0.0087268678
 41
-3.1357748894
 42
-1.5707963268
  0
ELLIPSE
  5
5A5
100
AcDbEntity
  8
0
100
AcDbEllipse
 62
7
  6
CONTINUOUS
 10
42.0917058257
 20
-23.7982512664
 30
0.0
 11
-0.0
 21
0.2
 31
0.0
 40
0.0087268678
 41
-4.7123889804
 42
-3.1474104178
  0
ELLIPSE
  5
5A6
100
AcDbEntity
  8
0
100
AcDbEllipse
 62
7
  6
CONTINUOUS
 10
49.0882150786
 20
23.7982512664
 30
0.0
 11
-0.0
 21
0.2
 31
0.0
 40
0.0087268678
 41
-1.5707963268
 42
-0.0058177642
  0
ELLIPSE
  5
5A7
100
AcDbEntity
  8
0
100
AcDbEllipse
 62
7
  6
CONTINUOUS
 10
42.0917058257
 20
23.7982512664
 30
0.0
 11
0.0
 21
0.2
 31
0.0
 40
0.0087268678
 41
0.0058177642
 42
1.5707963268
  0
ELLIPSE
  5
5A8
100
AcDbEntity
  8
0
100
AcDbEllipse
 62
7
  6
CONTINUOUS
 10
55.4826839341
 20
22.3344902759
 30
0.0
 11
0.25
 21
0.0
 31
0.0
 40
0.0524077793
 41
-1.5707963268
 42
-0.0058177642
  0
ELLIPSE
  5
5A9
100
AcDbEntity
  8
0
100
AcDbEllipse
 62
7
  6
CONTINUOUS
 10
53.0972369703
 20
22.3344902759
 30
0.0
 11
0.25
 21
0.0
 31
0.0
 40
0.0524077793
 41
-3.1357748894
 42
-1.5707963268
  0
ELLIPSE
  5
5AA
100
AcDbEntity
  8
0
100
AcDbEllipse
 62
7
  6
CONTINUOUS
 10
38.0826839341
 20
22.3344902759
 30
0.0
 11
0.25
 21
0.0
 31
0.0
 40
0.0524077793
 41
-1.5707963268
 42
-0.0058177642
  0
ELLIPSE
  5
5AB
100
AcDbEntity
  8
0
100
AcDbEllipse
 62
7
  6
CONTINUOUS
 10
35.6972369703
 20
-22.3344902759
 30
0.0
 11
0.25
 21
0.0
 31
0.0
 40
0.0524077793
 41
1.5707963268
 42
3.1357748894
  0
ELLIPSE
  5
5AC
100
AcDbEntity
  8
0
100
AcDbEllipse
 62
7
  6
CONTINUOUS
 10
46.7925861282
 20
22.3842776662
 30
0.0
 11
0.2
 21
-0.0
 31
0.0
 40
0.0524077793
 41
-3.1328660073
 42
-1.5707963268
  0
ELLIPSE
  5
5AD
100
AcDbEntity
  8
0
100
AcDbEllipse
 62
7
  6
CONTINUOUS
 10
44.3873347762
 20
22.3842776662
 30
0.0
 11
0.2
 21
0.0
 31
0.0
 40
0.0524077793
 41
-1.5707963268
 42
-0.0087266463
  0
ELLIPSE
  5
5AE
100
AcDbEntity
  8
0
100
AcDbEllipse
 62
7
  6
CONTINUOUS
 10
46.7925861282
 20
-22.3842776662
 30
0.0
 11
0.2
 21
-0.0
 31
0.0
 40
0.0524077793
 41
1.5707963268
 42
3.1328660073
  0
ELLIPSE
  5
5AF
100
AcDbEntity
  8
0
100
AcDbEllipse
 62
7
  6
CONTINUOUS
 10
35.6972369703
 20
22.3344902759
 30
0.0
 11
0.25
 21
0.0
 31
0.0
 40
0.0524077793
 41
-3.1357748894
 42
-1.5707963268
  0
ELLIPSE
  5
5B0
100
AcDbEntity
  8
0
100
AcDbEllipse
 62
7
  6
CONTINUOUS
 10
44.3873347762
 20
-22.3842776662
 30
0.0
 11
0.2
 21
-0.0
 31
0.0
 40
0.0524077793
 41
0.0087266463
 42
1.5707963268
  0
ELLIPSE
  5
5B1
100
AcDbEntity
  8
0
100
AcDbEllipse
 62
7
  6
CONTINUOUS
 10
38.0826839341
 20
-22.3344902759
 30
0.0
 11
0.25
 21
-0.0
 31
0.0
 40
0.0524077793
 41
0.0058177642
 42
1.5707963268
  0
ELLIPSE
  5
5B2
100
AcDbEntity
  8
0
100
AcDbEllipse
 62
7
  6
CONTINUOUS
 10
55.4826839341
 20
-22.3344902759
 30
0.0
 11
0.25
 21
0.0
 31
0.0
 40
0.0524077793
 41
0.0058177642
 42
1.5707963268
  0
ELLIPSE
  5
5B3
100
AcDbEntity
  8
0
100
AcDbEllipse
 62
7
  6
CONTINUOUS
 10
53.0972369703
 20
-22.3344902759
 30
0.0
 11
0.25
 21
-0.0
 31
0.0
 40
0.0524077793
 41
1.5707963268
 42
3.1357748894
  0
ELLIPSE
  5
5B4
100
AcDbEntity
  8
0
100
AcDbEllipse
 62
7
  6
CONTINUOUS
 10
66.1944586711
 20
-23.15
 30
0.0
 11
85.9426996401
 21
-0.0
 31
0.0
 40
0.0058178298
 41
2.5196231925
 42
2.6905658418
  0
ELLIPSE
  5
5B5
100
AcDbEntity
  8
0
100
AcDbEllipse
 62
7
  6
CONTINUOUS
 10
0.846028995
 20
22.0920818782
 30
0.0
 11
-0.0
 21
0.5
 31
0.0
 40
1.0
 41
-3.1241393611
 42
-2.2371156432
  0
ELLIPSE
  5
5B6
100
AcDbEntity
  8
0
100
AcDbEllipse
 62
7
  6
CONTINUOUS
 10
66.1944586711
 20
-23.15
 30
0.0
 11
85.9426996401
 21
-0.0
 31
0.0
 40
0.0058178298
 41
-2.6791261215
 42
-2.5196231925
  0
ELLIPSE
  5
5B7
100
AcDbEntity
  8
0
100
AcDbEllipse
 62
7
  6
CONTINUOUS
 10
66.1944586711
 20
23.15
 30
0.0
 11
85.9426996401
 21
-0.0
 31
0.0
 40
0.0058178298
 41
2.5196231925
 42
2.6791261215
  0
ELLIPSE
  5
5B8
100
AcDbEntity
  8
0
100
AcDbEllipse
 62
7
  6
CONTINUOUS
 10
66.1944586711
 20
23.15
 30
0.0
 11
85.9426996401
 21
0.0
 31
0.0
 40
0.0058178298
 41
-2.6905658418
 42
-2.5196231925
  0
ELLIPSE
  5
5B9
100
AcDbEntity
  8
0
100
AcDbEllipse
 62
7
  6
CONTINUOUS
 10
0.846028995
 20
-22.0920818782
 30
0.0
 11
0.5
 21
0.0
 31
0.0
 40
1.0
 41
0.6663193164
 42
1.5533430343
  0
ELLIPSE
  5
5BA
100
AcDbEntity
  8
INCISIONI
100
AcDbEllipse
 62
250
  6
CONTINUOUS
 10
2.1962269762
 20
6.340243
 30
0.0
 11
0.0
 21
0.65
 31
0.0
 40
0.9996954135
 41
-1.5707963268
 42
1.5707963268
  0
ENDSEC
  0
SECTION
  2
OBJECTS
  0
DICTIONARY
  5
C
100
AcDbDictionary
280
0
281
1
  3
ACAD_GROUP
350
D
  3
ACAD_MLINESTYLE
350
17
  3
ACAD_LAYOUT
350
1A
  3
ACAD_PLOTSETTINGS
350
19
  3
ACAD_PLOTSTYLENAME
350
E
  0
DICTIONARY
  5
D
102
{ACAD_REACTORS
330
C
102
}
100
AcDbDictionary
280
0
281
1
  0
ACDBDICTIONARYWDFLT
  5
E
102
{ACAD_REACTORS
330
C
102
}
100
AcDbDictionary
281
1
  3
Normal
350
F
100
AcDbDictionaryWithDefault
340
F
  0
DICTIONARY
  5
17
102
{ACAD_REACTORS
330
C
102
}
100
AcDbDictionary
280
0
281
1
  3
Standard
350
18
  0
DICTIONARY
  5
19
102
{ACAD_REACTORS
330
C
102
}
100
AcDbDictionary
281
1
  0
DICTIONARY
  5
1A
102
{ACAD_REACTORS
330
C
102
}
100
AcDbDictionary
281
1
  3
Model
350
5BB
  3
Layout1
350
5BC
  0
ACDBPLACEHOLDER
  5
F
102
{ACAD_REACTORS
330
E
102
}
  0
MLINESTYLE
  5
18
102
{ACAD_REACTORS
330
17
102
}
100
AcDbMlineStyle
  2
STANDARD
 70
0
  3

 62
256
 51
90.0
 52
90.0
 71
2
 49
0.5
 62
256
  6
BYLAYER
 49
-0.5
 62
256
  6
BYLAYER
  0
LAYOUT
  5
5BB
102
{ACAD_REACTORS
330
1A
102
}
100
AcDbPlotSettings
  1

  2
none_device
  4
ANSI_A_(11.00_x_8.50_Inches)
  6

 40
0.0
 41
0.0
 42
0.0
 43
0.0
 44
279.4
 45
215.9
 46
0.0
 47
0.0
 48
0.0
 49
0.0
140
0.0
141
0.0
142
1.0
143
1.0
 70
1024
 72
1
 73
0
 74
0
  7

 75
0
147
1.0
148
0.0
149
0.0
100
AcDbLayout
  1
Model
 70
0
 71
0
 10
0.0
 20
0.0
 11
279.4
 21
215.9
 12
0.0
 22
0.0
 32
0.0
 14
0.0
 24
0.0
 34
0.0
 15
0.0
 25
0.0
 35
0.0
146
0.0
 13
0.0
 23
0.0
 33
0.0
 16
1.0
 26
0.0
 36
0.0
 17
0.0
 27
1.0
 37
0.0
 76
0
330
217
345
0
346
0
  0
LAYOUT
  5
5BC
102
{ACAD_REACTORS
330
1A
102
}
100
AcDbPlotSettings
  1

  2
none_device
  4
ANSI_A_(11.00_x_8.50_Inches)
  6

 40
0.0
 41
0.0
 42
0.0
 43
0.0
 44
279.4
 45
215.9
 46
0.0
 47
0.0
 48
0.0
 49
0.0
140
0.0
141
0.0
142
1.0
143
1.0
 70
0
 72
1
 73
0
 74
0
  7

 75
0
147
1.0
148
0.0
149
0.0
100
AcDbLayout
  1
Layout1
 70
0
 71
1
 10
0.0
 20
0.0
 11
279.4
 21
215.9
 12
0.0
 22
0.0
 32
0.0
 14
0.0
 24
0.0
 34
0.0
 15
0.0
 25
0.0
 35
0.0
146
0.0
 13
0.0
 23
0.0
 33
0.0
 16
1.0
 26
0.0
 36
0.0
 17
0.0
 27
1.0
 37
0.0
 76
0
330
218
345
0
346
0
  0
ENDSEC
  0
EOF
