  0
SECTION
  2
HEADER
  9
$ACADVER
  1
AC1024
  9
$DWGCODEPAGE
  3
ANSI_1252
  9
$EXTMAX
 10
297.0
 20
210.0
 30
0.0
  9
$EXTMIN
 10
0.0
 20
0.0
 30
0.0
  9
$LIMMIN
 10
0.0
 20
0.0
  9
$LIMMAX
 10
297.0
 20
210.0
  9
$VIEWCTR
 10
148.5
 20
105.0
  9
$VIEWSIZE
 40
210.0
  9
$CLAYER
  8
0
  9
$LTSCALE
 40
16.335
  9
$CELTYPE
  6
BYLAYER
  9
$DIMSCALE
 40
1.0
  9
$DIMASZ
 40
3.0
  9
$DIMEXO
 40
0.5
  9
$DIMDLI
 40
11.286
  9
$DIMEXE
 40
1.5
  9
$DIMCEN
 40
2.673
  9
$DIMLFAC
 40
1.0
  9
$DIMBLK
  1
_FILLED
  9
$DIMALT
 70
0
  9
$DIMALTF
 40
0.0393700787
  9
$DIMTXT
 40
3.0
  9
$DIMTOL
 70
1
  9
$DIMLIM
 70
0
  9
$DIMTFAC
 40
1.0
  9
$DIMTP
 40
0.01
  9
$DIMTM
 40
0.01
  9
$DIMGAP
 40
0.625
  9
$DIMDSEP
 70
44
  9
$AUNITS
 70
0
  9
$PDMODE
 70
3
  9
$PDSIZE
 40
3.0
  9
$HANDSEED
  5
6DE
  9
$TILEMODE
 70
1
  9
$MEASUREMENT
 70
1
  9
$INSUNITS
 70
4
  0
ENDSEC
  0
SECTION
  2
CLASSES
  0
CLASS
  1
ACDBDICTIONARYWDFLT
  2
AcDbDictionaryWithDefault
  3
AutoCAD 2000
 90
0
 91
1
280
0
281
0
  0
CLASS
  1
ACDBPLACEHOLDER
  2
AcDbPlaceHolder
  3
AutoCAD 2000
 90
0
 91
1
280
0
281
0
  0
CLASS
  1
LAYOUT
  2
AcDbLayout
  3
AutoCAD 2000
 90
0
 91
0
280
0
281
0
  0
ENDSEC
  0
SECTION
  2
TABLES
  0
TABLE
  2
VPORT
  5
8
100
AcDbSymbolTable
 70
2
  0
VPORT
  5
1F4
100
AcDbSymbolTableRecord
100
AcDbViewportTableRecord
  2
*ACTIVE
 70
0
 10
0.0
 20
0.0
 11
1.0
 21
1.0
 12
148.5
 22
105.0
 13
0.0
 23
0.0
 14
1.0
 24
1.0
 15
0.0
 25
0.0
 16
0.0
 26
0.0
 36
1.0
 17
0.0
 27
0.0
 37
0.0
 40
210.0
 41
1.4142857143
 42
50.0
 43
0.0
 44
0.0
 50
0.0
 51
0.0
 71
0
 72
100
 73
1
 74
1
 75
0
 76
0
 77
0
 78
0
  0
ENDTAB
  0
TABLE
  2
LTYPE
  5
5
100
AcDbSymbolTable
 70
6
  0
LTYPE
  5
14
100
AcDbSymbolTableRecord
100
AcDbLinetypeTableRecord
  2
BYBLOCK
 70
0
  3

 72
65
 73
0
 40
0.0
  0
LTYPE
  5
15
100
AcDbSymbolTableRecord
100
AcDbLinetypeTableRecord
  2
BYLAYER
 70
0
  3

 72
65
 73
0
 40
0.0
  0
LTYPE
  5
16
100
AcDbSymbolTableRecord
100
AcDbLinetypeTableRecord
  2
CONTINUOUS
 70
64
  3
Solid line
 72
65
 73
0
 40
0.0
  0
LTYPE
  5
1F5
100
AcDbSymbolTableRecord
100
AcDbLinetypeTableRecord
  2
CENTER
 70
64
  3
____ _ ____ _ ____ _ ____ _ ____ _ ____ _ ____
 72
65
 73
4
 40
0.6
 49
0.375
 74
0
 49
-0.075
 74
0
 49
0.075
 74
0
 49
-0.075
 74
0
  0
LTYPE
  5
1F6
100
AcDbSymbolTableRecord
100
AcDbLinetypeTableRecord
  2
HIDDEN
 70
64
  3
- - - - - - - - - - - - - - - - - - - -
 72
65
 73
2
 40
0.2
 49
0.1
 74
0
 49
-0.1
 74
0
  0
LTYPE
  5
1F7
100
AcDbSymbolTableRecord
100
AcDbLinetypeTableRecord
  2
PHANTOM
 70
64
  3
_____ _ _ _____ _ _ _____ _ _ _____
 72
65
 73
6
 40
0.8
 49
0.45
 74
0
 49
-0.05
 74
0
 49
0.1
 74
0
 49
-0.05
 74
0
 49
0.1
 74
0
 49
-0.05
 74
0
  0
LTYPE
  5
1F8
100
AcDbSymbolTableRecord
100
AcDbLinetypeTableRecord
  2
DOT
 70
64
  3
. . . . . . . . . . . . . . . . . . . .
 72
65
 73
2
 40
0.2
 49
0.1
 74
0
 49
-0.1
 74
0
  0
LTYPE
  5
1F9
100
AcDbSymbolTableRecord
100
AcDbLinetypeTableRecord
  2
DASHED
 70
64
  3
- - - - - - - - - - - - - - - - - - - -
 72
65
 73
2
 40
0.2
 49
0.1
 74
0
 49
-0.1
 74
0
  0
ENDTAB
  0
TABLE
  2
LAYER
  5
2
100
AcDbSymbolTable
 70
36
  0
LAYER
  5
10
100
AcDbSymbolTableRecord
100
AcDbLayerTableRecord
  2
0
 70
0
 62
7
  6
CONTINUOUS
370
-3
390
F
  0
LAYER
  5
1FA
100
AcDbSymbolTableRecord
100
AcDbLayerTableRecord
  2
DEFAULT_1
 70
0
 62
7
  6
CENTER
370
-3
390
F
  0
LAYER
  5
1FB
100
AcDbSymbolTableRecord
100
AcDbLayerTableRecord
  2
DEFAULT_2
 70
0
 62
7
  6
HIDDEN
370
-3
390
F
  0
LAYER
  5
1FC
100
AcDbSymbolTableRecord
100
AcDbLayerTableRecord
  2
DEFAULT_3
 70
0
 62
7
  6
PHANTOM
370
-3
390
F
  0
LAYER
  5
1FD
100
AcDbSymbolTableRecord
100
AcDbLayerTableRecord
  2
ASSI
 70
0
 62
7
  6
CONTINUOUS
370
-3
390
F
  0
LAYER
  5
1FE
100
AcDbSymbolTableRecord
100
AcDbLayerTableRecord
  2
COORDINATE
 70
0
 62
7
  6
CONTINUOUS
370
-3
390
F
  0
LAYER
  5
1FF
100
AcDbSymbolTableRecord
100
AcDbLayerTableRecord
  2
COORD_ORIGINE
 70
0
 62
7
  6
CONTINUOUS
370
-3
390
F
  0
LAYER
  5
200
100
AcDbSymbolTableRecord
100
AcDbLayerTableRecord
  2
COSMETICHE
 70
0
 62
7
  6
CONTINUOUS
370
-3
390
F
  0
LAYER
  5
201
100
AcDbSymbolTableRecord
100
AcDbLayerTableRecord
  2
COSMETICI
 70
0
 62
7
  6
CONTINUOUS
370
-3
390
F
  0
LAYER
  5
202
100
AcDbSymbolTableRecord
100
AcDbLayerTableRecord
  2
CURVE
 70
0
 62
7
  6
CONTINUOUS
370
-3
390
F
  0
LAYER
  5
203
100
AcDbSymbolTableRecord
100
AcDbLayerTableRecord
  2
DRAFT
 70
0
 62
7
  6
CONTINUOUS
370
-3
390
F
  0
LAYER
  5
204
100
AcDbSymbolTableRecord
100
AcDbLayerTableRecord
  2
IMPORTED
 70
0
 62
7
  6
CONTINUOUS
370
-3
390
F
  0
LAYER
  5
205
100
AcDbSymbolTableRecord
100
AcDbLayerTableRecord
  2
INCISIONI
 70
0
 62
7
  6
CONTINUOUS
370
-3
390
F
  0
LAYER
  5
206
100
AcDbSymbolTableRecord
100
AcDbLayerTableRecord
  2
INTF_1
 70
0
 62
7
  6
CONTINUOUS
370
-3
390
F
  0
LAYER
  5
207
100
AcDbSymbolTableRecord
100
AcDbLayerTableRecord
  2
INTF_11
 70
0
 62
7
  6
CONTINUOUS
370
-3
390
F
  0
LAYER
  5
208
100
AcDbSymbolTableRecord
100
AcDbLayerTableRecord
  2
NOTE
 70
0
 62
7
  6
CONTINUOUS
370
-3
390
F
  0
LAYER
  5
209
100
AcDbSymbolTableRecord
100
AcDbLayerTableRecord
  2
PIANI
 70
0
 62
7
  6
CONTINUOUS
370
-3
390
F
  0
LAYER
  5
20A
100
AcDbSymbolTableRecord
100
AcDbLayerTableRecord
  2
PIANI_ORIGINE
 70
0
 62
7
  6
CONTINUOUS
370
-3
390
F
  0
LAYER
  5
20B
100
AcDbSymbolTableRecord
100
AcDbLayerTableRecord
  2
PIANI_RIFERIMENTO
 70
0
 62
7
  6
CONTINUOUS
370
-3
390
F
  0
LAYER
  5
20C
100
AcDbSymbolTableRecord
100
AcDbLayerTableRecord
  2
PIANI_SFORMO
 70
0
 62
7
  6
CONTINUOUS
370
-3
390
F
  0
LAYER
  5
20D
100
AcDbSymbolTableRecord
100
AcDbLayerTableRecord
  2
PUNTI
 70
0
 62
7
  6
CONTINUOUS
370
-3
390
F
  0
LAYER
  5
20E
100
AcDbSymbolTableRecord
100
AcDbLayerTableRecord
  2
RACCORDO
 70
0
 62
7
  6
CONTINUOUS
370
-3
390
F
  0
LAYER
  5
20F
100
AcDbSymbolTableRecord
100
AcDbLayerTableRecord
  2
SIMBOLI
 70
0
 62
7
  6
CONTINUOUS
370
-3
390
F
  0
LAYER
  5
210
100
AcDbSymbolTableRecord
100
AcDbLayerTableRecord
  2
SMUSSO
 70
0
 62
7
  6
CONTINUOUS
370
-3
390
F
  0
LAYER
  5
211
100
AcDbSymbolTableRecord
100
AcDbLayerTableRecord
  2
SNAPLINE
 70
0
 62
7
  6
CONTINUOUS
370
-3
390
F
  0
LAYER
  5
212
100
AcDbSymbolTableRecord
100
AcDbLayerTableRecord
  2
SUPERFICI
 70
0
 62
7
  6
CONTINUOUS
370
-3
390
F
  0
LAYER
  5
213
100
AcDbSymbolTableRecord
100
AcDbLayerTableRecord
  2
TRASH
 70
0
 62
7
  6
CONTINUOUS
370
-3
390
F
  0
LAYER
  5
214
100
AcDbSymbolTableRecord
100
AcDbLayerTableRecord
  2
XSEC_DATUMS
 70
0
 62
7
  6
CONTINUOUS
370
-3
390
F
  0
ENDTAB
  0
TABLE
  2
STYLE
  5
3
100
AcDbSymbolTable
 70
1
  0
STYLE
  5
11
100
AcDbSymbolTableRecord
100
AcDbTextStyleTableRecord
  2
STANDARD
 70
0
 40
0.0
 41
0.8
 50
0.0
 71
0
 42
0.2
  3
txt
  4

  0
STYLE
  5
215
100
AcDbSymbolTableRecord
100
AcDbTextStyleTableRecord
  2
TEXTSTYLE_1
 70
0
 40
0.0
 41
0.8
 50
0.0
 71
0
 42
0.2
  3
gdt
  4

  0
ENDTAB
  0
TABLE
  2
VIEW
  5
6
100
AcDbSymbolTable
 70
0
  0
ENDTAB
  0
TABLE
  2
UCS
  5
7
100
AcDbSymbolTable
 70
0
  0
ENDTAB
  0
TABLE
  2
APPID
  5
9
100
AcDbSymbolTable
 70
1
  0
APPID
  5
216
100
AcDbSymbolTableRecord
100
AcDbRegAppTableRecord
  2
ACAD
 70
0
  0
ENDTAB
  0
TABLE
  2
BLOCK_RECORD
  5
1
100
AcDbSymbolTable
 70
0
  0
BLOCK_RECORD
  5
217
100
AcDbSymbolTableRecord
100
AcDbBlockTableRecord
  2
*Model_Space
  0
BLOCK_RECORD
  5
218
100
AcDbSymbolTableRecord
100
AcDbBlockTableRecord
  2
*Paper_Space
  0
BLOCK_RECORD
  5
219
100
AcDbSymbolTableRecord
100
AcDbBlockTableRecord
  2
_FILLED
  0
BLOCK_RECORD
  5
21A
100
AcDbSymbolTableRecord
100
AcDbBlockTableRecord
  2
*D0
  0
BLOCK_RECORD
  5
21B
100
AcDbSymbolTableRecord
100
AcDbBlockTableRecord
  2
*D1
  0
BLOCK_RECORD
  5
21C
100
AcDbSymbolTableRecord
100
AcDbBlockTableRecord
  2
*D2
  0
BLOCK_RECORD
  5
21D
100
AcDbSymbolTableRecord
100
AcDbBlockTableRecord
  2
*D3
  0
ENDTAB
  0
TABLE
  2
DIMSTYLE
  5
A
100
AcDbSymbolTable
 70
1
100
AcDbDimStyleTable
 71
0
  0
DIMSTYLE
105
21E
100
AcDbSymbolTableRecord
100
AcDbDimStyleTableRecord
  2
STANDARD
 70
0
  3

  4

 40
1.0
 41
3.0
 42
0.5
 43
0.38
 44
1.5
 45
0.0
 46
0.0
 47
0.01
 48
0.01
140
3.0
141
0.09
142
0.0
143
25.4
144
1.0
145
0.0
146
1.0
147
0.625
 71
1
 72
0
 73
0
 74
0
 75
0
 76
0
 77
1
 78
8
 79
2
170
0
171
1
172
0
173
0
174
0
175
0
176
0
177
0
178
0
270
2
179
2
271
2
272
2
273
2
274
2
275
0
280
0
281
0
282
0
283
1
284
8
285
0
286
0
287
3
288
0
340
11
278
44
341
219
342
219
343
219
344
219
  0
DIMSTYLE
105
21F
100
AcDbSymbolTableRecord
100
AcDbDimStyleTableRecord
  2
DIMSTYLE_1
 70
0
  3

  4

 40
1.0
 41
3.0
 42
0.5
 43
0.38
 44
1.5
 45
0.0
 46
0.0
 47
0.0
 48
0.0
140
3.0
141
0.09
142
0.0
143
25.4
144
1.0
145
0.0
146
1.0
147
0.75
 71
0
 72
0
 73
0
 74
0
 75
0
 76
0
 77
1
 78
8
 79
2
170
0
171
1
172
0
173
0
174
0
175
0
176
0
177
0
178
0
270
2
179
2
271
2
272
2
273
2
274
2
275
0
280
0
281
0
282
0
283
1
284
8
285
0
286
0
287
3
288
0
340
11
278
44
341
219
342
219
343
219
344
219
  0
DIMSTYLE
105
220
100
AcDbSymbolTableRecord
100
AcDbDimStyleTableRecord
  2
DIMSTYLE_2
 70
0
  3

  4

 40
1.0
 41
3.0
 42
0.5
 43
0.38
 44
1.5
 45
0.0
 46
0.0
 47
0.0
 48
0.0
140
3.0
141
0.09
142
0.0
143
25.4
144
1.0
145
0.0
146
1.0
147
0.75
 71
0
 72
0
 73
0
 74
0
 75
0
 76
0
 77
1
 78
8
 79
2
170
0
171
1
172
0
173
0
174
0
175
0
176
0
177
0
178
0
270
2
179
2
271
1
272
1
273
2
274
2
275
0
280
0
281
0
282
0
283
1
284
8
285
0
286
0
287
3
288
0
340
11
278
44
341
219
342
219
343
219
344
219
  0
ENDTAB
  0
ENDSEC
  0
SECTION
  2
BLOCKS
  0
BLOCK
  5
20
100
AcDbEntity
  8
0
100
AcDbBlockBegin
  2
*Model_Space
 70
0
 10
0.0
 20
0.0
 30
0.0
  3
*Model_Space
  1

  0
ENDBLK
  5
21
100
AcDbEntity
  8
0
100
AcDbBlockEnd
  0
BLOCK
  5
1C
100
AcDbEntity
  8
0
100
AcDbBlockBegin
  2
*Paper_Space
 70
0
 10
0.0
 20
0.0
 30
0.0
  3
*Paper_Space
  1

  0
ENDBLK
  5
1D
100
AcDbEntity
  8
0
100
AcDbBlockEnd
  0
BLOCK
  5
221
100
AcDbEntity
  8
0
100
AcDbBlockBegin
  2
_FILLED
 70
64
 10
0.0
 20
0.0
  3
_FILLED
  1

  0
SOLID
  5
222
100
AcDbEntity
  8
0
  6
BYBLOCK
 62
0
100
AcDbTrace
 10
0.0
 20
0.0
 11
-1.0
 21
0.3166666667
 12
-1.0
 22
-0.3166666667
 13
-1.0
 23
-0.3166666667
  0
ENDBLK
  5
223
100
AcDbEntity
  8
0
  6
BYBLOCK
 62
0
100
AcDbBlockEnd
  0
BLOCK
  5
224
100
AcDbEntity
  8
0
100
AcDbBlockBegin
 62
7
  6
CONTINUOUS
  2
*D0
 70
65
 10
0.0
 20
0.0
  3
*D0
  1

  0
LINE
  5
225
100
AcDbEntity
  8
0
100
AcDbLine
 62
7
  6
CONTINUOUS
 10
-25.0167361435
 20
15.8001217843
 11
-25.0167361435
 21
36.0
  0
LINE
  5
226
100
AcDbEntity
  8
0
100
AcDbLine
 62
7
  6
CONTINUOUS
 10
-52.5167361435
 20
24.7456323968
 11
-52.5167361435
 21
36.0
  0
LINE
  5
227
100
AcDbEntity
  8
0
100
AcDbLine
 62
7
  6
CONTINUOUS
 10
-25.0167361435
 20
34.5
 11
-38.7667361435
 21
34.5
  0
LINE
  5
228
100
AcDbEntity
  8
0
100
AcDbLine
 62
7
  6
CONTINUOUS
 10
-52.5167361435
 20
34.5
 11
-38.7667361435
 21
34.5
  0
INSERT
  5
229
100
AcDbEntity
  8
0
100
AcDbBlockReference
 62
7
  6
CONTINUOUS
  2
_FILLED
 10
-25.0167361435
 20
34.5
 41
3.0
 42
3.0
 43
3.0
  0
INSERT
  5
22A
100
AcDbEntity
  8
0
100
AcDbBlockReference
 62
7
  6
CONTINUOUS
  2
_FILLED
 10
-52.5167361435
 20
34.5
 41
3.0
 42
3.0
 43
3.0
 50
180.0
  0
ENDBLK
  5
22B
100
AcDbEntity
  8
0
  6
BYBLOCK
 62
0
100
AcDbBlockEnd
  0
BLOCK
  5
22C
100
AcDbEntity
  8
0
100
AcDbBlockBegin
 62
7
  6
CONTINUOUS
  2
*D1
 70
65
 10
0.0
 20
0.0
  3
*D1
  1

  0
LINE
  5
22D
100
AcDbEntity
  8
0
100
AcDbLine
 62
7
  6
CONTINUOUS
 10
-25.0167361435
 20
15.8001217843
 11
-25.0167361435
 21
44.0
  0
LINE
  5
22E
100
AcDbEntity
  8
0
100
AcDbLine
 62
7
  6
CONTINUOUS
 10
-62.0167361435
 20
0.5
 11
-62.0167361435
 21
44.0
  0
LINE
  5
22F
100
AcDbEntity
  8
0
100
AcDbLine
 62
7
  6
CONTINUOUS
 10
-25.0167361435
 20
42.5
 11
-43.5167361435
 21
42.5
  0
LINE
  5
230
100
AcDbEntity
  8
0
100
AcDbLine
 62
7
  6
CONTINUOUS
 10
-62.0167361435
 20
42.5
 11
-43.5167361435
 21
42.5
  0
INSERT
  5
231
100
AcDbEntity
  8
0
100
AcDbBlockReference
 62
7
  6
CONTINUOUS
  2
_FILLED
 10
-25.0167361435
 20
42.5
 41
3.0
 42
3.0
 43
3.0
  0
INSERT
  5
232
100
AcDbEntity
  8
0
100
AcDbBlockReference
 62
7
  6
CONTINUOUS
  2
_FILLED
 10
-62.0167361435
 20
42.5
 41
3.0
 42
3.0
 43
3.0
 50
180.0
  0
ENDBLK
  5
233
100
AcDbEntity
  8
0
  6
BYBLOCK
 62
0
100
AcDbBlockEnd
  0
BLOCK
  5
234
100
AcDbEntity
  8
0
100
AcDbBlockBegin
 62
7
  6
CONTINUOUS
  2
*D2
 70
65
 10
0.0
 20
0.0
  3
*D2
  1

  0
LINE
  5
235
100
AcDbEntity
  8
0
100
AcDbLine
 62
7
  6
CONTINUOUS
 10
10.7891473636
 20
18.5591825482
 11
10.7891473636
 21
36.0
  0
LINE
  5
236
100
AcDbEntity
  8
0
100
AcDbLine
 62
7
  6
CONTINUOUS
 10
-11.5963824545
 20
18.5591825482
 11
-11.5963824545
 21
36.0
  0
LINE
  5
237
100
AcDbEntity
  8
0
100
AcDbLine
 62
7
  6
CONTINUOUS
 10
10.7891473636
 20
34.5
 11
-0.4036175455
 21
34.5
  0
LINE
  5
238
100
AcDbEntity
  8
0
100
AcDbLine
 62
7
  6
CONTINUOUS
 10
-11.5963824545
 20
34.5
 11
-0.4036175455
 21
34.5
  0
INSERT
  5
239
100
AcDbEntity
  8
0
100
AcDbBlockReference
 62
7
  6
CONTINUOUS
  2
_FILLED
 10
10.7891473636
 20
34.5
 41
3.0
 42
3.0
 43
3.0
  0
INSERT
  5
23A
100
AcDbEntity
  8
0
100
AcDbBlockReference
 62
7
  6
CONTINUOUS
  2
_FILLED
 10
-11.5963824545
 20
34.5
 41
3.0
 42
3.0
 43
3.0
 50
180.0
  0
ENDBLK
  5
23B
100
AcDbEntity
  8
0
  6
BYBLOCK
 62
0
100
AcDbBlockEnd
  0
BLOCK
  5
23C
100
AcDbEntity
  8
0
100
AcDbBlockBegin
 62
7
  6
CONTINUOUS
  2
*D3
 70
65
 10
0.0
 20
0.0
  3
*D3
  1

  0
LINE
  5
23D
100
AcDbEntity
  8
0
100
AcDbLine
 62
7
  6
CONTINUOUS
 10
9.9963866853
 20
24.5
 11
23.0963824545
 21
24.5
  0
LINE
  5
23E
100
AcDbEntity
  8
0
100
AcDbLine
 62
7
  6
CONTINUOUS
 10
9.9963866853
 20
-24.5
 11
23.0963824545
 21
-24.5
  0
LINE
  5
23F
100
AcDbEntity
  8
0
100
AcDbLine
 62
7
  6
CONTINUOUS
 10
21.5963824545
 20
24.5
 11
21.5963824545
 21
0.0
  0
LINE
  5
240
100
AcDbEntity
  8
0
100
AcDbLine
 62
7
  6
CONTINUOUS
 10
21.5963824545
 20
-24.5
 11
21.5963824545
 21
0.0
  0
INSERT
  5
241
100
AcDbEntity
  8
0
100
AcDbBlockReference
 62
7
  6
CONTINUOUS
  2
_FILLED
 10
21.5963824545
 20
24.5
 41
3.0
 42
3.0
 43
3.0
 50
90.0
  0
INSERT
  5
242
100
AcDbEntity
  8
0
100
AcDbBlockReference
 62
7
  6
CONTINUOUS
  2
_FILLED
 10
21.5963824545
 20
-24.5
 41
3.0
 42
3.0
 43
3.0
 50
270.0
  0
ENDBLK
  5
243
100
AcDbEntity
  8
0
  6
BYBLOCK
 62
0
100
AcDbBlockEnd
  0
ENDSEC
  0
SECTION
  2
ENTITIES
  0
DIMENSION
  5
244
100
AcDbEntity
  8
0
100
AcDbDimension
 62
7
  6
CONTINUOUS
  2
*D0
 10
-52.5167361435
 20
34.5
 11
-43.0524504292
 21
34.5
 70
160
 71
2
 72
2
 41
0.9
 42
27.5
  3
DIMSTYLE_1
100
AcDbAlignedDimension
 13
-25.0167361435
 23
15.3001217843
 14
-52.5167361435
 24
24.2456323968
 50
180.0
100
AcDbRotatedDimension
  0
DIMENSION
  5
245
100
AcDbEntity
  8
0
100
AcDbDimension
 62
7
  6
CONTINUOUS
  2
*D1
 10
-62.0167361435
 20
42.5
 11
-45.7667361435
 21
42.5
 70
160
 71
2
 72
2
 41
0.9
 42
37.0
  3
DIMSTYLE_1
100
AcDbAlignedDimension
 13
-25.0167361435
 23
15.3001217843
 14
-62.0167361435
 24
0.0
 50
180.0
100
AcDbRotatedDimension
  0
DIMENSION
  5
246
100
AcDbEntity
  8
0
100
AcDbDimension
 62
7
  6
CONTINUOUS
  2
*D2
 10
-11.5963824545
 20
34.5
 11
-4.7964746883
 21
34.5
 70
160
 71
2
 72
2
 41
0.9
 42
22.3855298181
  3
DIMSTYLE_2
100
AcDbAlignedDimension
 13
10.7891473636
 23
18.0591825482
 14
-11.5963824545
 24
18.0591825482
 50
180.0
100
AcDbRotatedDimension
  0
DIMENSION
  5
247
100
AcDbEntity
  8
0
100
AcDbDimension
 62
7
  6
CONTINUOUS
  2
*D3
 10
21.5963824545
 20
-24.5
 11
21.5963824545
 21
-0.5992262588
 70
160
 71
2
 72
2
 41
0.9
 42
49.0
  3
DIMSTYLE_1
100
AcDbAlignedDimension
 13
9.4963866853
 23
24.5
 14
9.4963866853
 24
-24.5
 50
270.0
100
AcDbRotatedDimension
  0
LINE
  5
248
100
AcDbEntity
  8
0
100
AcDbLine
 62
7
  6
CONTINUOUS
 10
-10.3036217762
 20
-24.5
 11
-7.9036133147
 21
-24.5
  0
LINE
  5
249
100
AcDbEntity
  8
0
100
AcDbLine
 62
7
  6
CONTINUOUS
 10
7.0963782238
 20
-24.5
 11
9.4963866853
 21
-24.5
  0
LINE
  5
24A
100
AcDbEntity
  8
0
100
AcDbLine
 62
7
  6
CONTINUOUS
 10
-10.2905231975
 20
-24.4869014213
 11
-7.9167118934
 21
-24.4869014213
  0
LINE
  5
24B
100
AcDbEntity
  8
0
100
AcDbLine
 62
7
  6
CONTINUOUS
 10
7.1094768025
 20
-24.4869014213
 11
9.4832881066
 21
-24.4869014213
  0
LINE
  5
24C
100
AcDbEntity
  8
0
100
AcDbLine
 62
250
  6
CONTINUOUS
 10
6.8594810333
 20
-24.2369056521
 11
9.7332838758
 21
-24.2369056521
  0
LINE
  5
24D
100
AcDbEntity
  8
0
100
AcDbLine
 62
250
  6
CONTINUOUS
 10
-7.6667161242
 20
-24.2369056521
 11
-10.5405189667
 21
-24.2369056521
  0
LINE
  5
24E
100
AcDbEntity
  8
0
100
AcDbLine
 62
7
  6
CONTINUOUS
 10
4.0463824545
 20
-24.0
 11
3.0963824545
 21
-24.0
  0
LINE
  5
24F
100
AcDbEntity
  8
0
100
AcDbLine
 62
7
  6
CONTINUOUS
 10
-3.9036175455
 20
-24.0
 11
-4.8536175455
 21
-24.0
  0
LINE
  5
250
100
AcDbEntity
  8
0
100
AcDbLine
 62
7
  6
CONTINUOUS
 10
-3.9036175455
 20
-23.9982478817
 11
-1.6036175455
 21
-23.9982478817
  0
LINE
  5
251
100
AcDbEntity
  8
0
100
AcDbLine
 62
7
  6
CONTINUOUS
 10
0.7963824545
 20
-23.9982478817
 11
3.0963824545
 21
-23.9982478817
  0
LINE
  5
252
100
AcDbEntity
  8
0
100
AcDbLine
 62
7
  6
CONTINUOUS
 10
4.0376557098
 20
-23.9912732553
 11
3.0963824545
 21
-23.9912732553
  0
LINE
  5
253
100
AcDbEntity
  8
0
100
AcDbLine
 62
7
  6
CONTINUOUS
 10
-3.9036175455
 20
-23.9912732553
 11
-4.8448908007
 21
-23.9912732553
  0
LINE
  5
254
100
AcDbEntity
  8
0
100
AcDbLine
 62
250
  6
CONTINUOUS
 10
6.8594810333
 20
-23.8443375673
 11
9.7332838758
 21
-23.8443375673
  0
LINE
  5
255
100
AcDbEntity
  8
0
100
AcDbLine
 62
250
  6
CONTINUOUS
 10
-7.6667161242
 20
-23.8443375673
 11
-10.5405189667
 21
-23.8443375673
  0
LINE
  5
256
100
AcDbEntity
  8
0
100
AcDbLine
 62
250
  6
CONTINUOUS
 10
-3.9036175455
 20
-23.7982512664
 11
-1.4036175455
 21
-23.7982512664
  0
LINE
  5
257
100
AcDbEntity
  8
0
100
AcDbLine
 62
250
  6
CONTINUOUS
 10
0.5963824545
 20
-23.7982512664
 11
3.0963824545
 21
-23.7982512664
  0
LINE
  5
258
100
AcDbEntity
  8
0
100
AcDbLine
 62
250
  6
CONTINUOUS
 10
9.4832881066
 20
-23.6278312164
 11
7.1094768025
 21
-23.6278312164
  0
LINE
  5
259
100
AcDbEntity
  8
0
100
AcDbLine
 62
250
  6
CONTINUOUS
 10
-7.9167118934
 20
-23.6278312164
 11
-10.2905231975
 21
-23.6278312164
  0
LINE
  5
25A
100
AcDbEntity
  8
0
100
AcDbLine
 62
250
  6
CONTINUOUS
 10
-7.9167118934
 20
24.4869014213
 11
-7.9036133147
 21
24.5
  0
LINE
  5
25B
100
AcDbEntity
  8
0
100
AcDbLine
 62
250
  6
CONTINUOUS
 10
-7.6667161242
 20
24.2369056521
 11
-7.6536175455
 21
24.2500042308
  0
LINE
  5
25C
100
AcDbEntity
  8
0
100
AcDbLine
 62
7
  6
CONTINUOUS
 10
-10.2963410273
 20
-23.1226497308
 11
-7.9108940636
 21
-23.1226497308
  0
LINE
  5
25D
100
AcDbEntity
  8
0
100
AcDbLine
 62
7
  6
CONTINUOUS
 10
9.4891059364
 20
-23.1226497308
 11
7.1036589727
 21
-23.1226497308
  0
LINE
  5
25E
100
AcDbEntity
  8
0
100
AcDbLine
 62
7
  6
CONTINUOUS
 10
10.245890301
 20
-22.4
 11
9.7463824545
 21
-22.4
  0
LINE
  5
25F
100
AcDbEntity
  8
0
100
AcDbLine
 62
7
  6
CONTINUOUS
 10
6.8463824545
 20
-22.4
 11
4.0463824545
 21
-22.4
  0
LINE
  5
260
100
AcDbEntity
  8
0
100
AcDbLine
 62
7
  6
CONTINUOUS
 10
-1.4036175455
 20
-22.4
 11
0.5963824545
 21
-22.4
  0
LINE
  5
261
100
AcDbEntity
  8
0
100
AcDbLine
 62
7
  6
CONTINUOUS
 10
-4.8536175455
 20
-22.4
 11
-7.6536175455
 21
-22.4
  0
LINE
  5
262
100
AcDbEntity
  8
0
100
AcDbLine
 62
7
  6
CONTINUOUS
 10
-10.5536175455
 20
-22.4
 11
-11.053125392
 21
-22.4
  0
LINE
  5
263
100
AcDbEntity
  8
0
100
AcDbLine
 62
7
  6
CONTINUOUS
 10
3.0963824545
 20
-22.3737961104
 11
0.7963824545
 21
-22.3737961104
  0
LINE
  5
264
100
AcDbEntity
  8
0
100
AcDbLine
 62
7
  6
CONTINUOUS
 10
-1.6036175455
 20
-22.3737961104
 11
-3.9036175455
 21
-22.3737961104
  0
LINE
  5
265
100
AcDbEntity
  8
0
100
AcDbLine
 62
7
  6
CONTINUOUS
 10
-10.2963410273
 20
-22.3213883311
 11
-7.9108940636
 21
-22.3213883311
  0
LINE
  5
266
100
AcDbEntity
  8
0
100
AcDbLine
 62
7
  6
CONTINUOUS
 10
-4.8448908007
 20
-22.3213883311
 11
-3.9036175455
 21
-22.3213883311
  0
LINE
  5
267
100
AcDbEntity
  8
0
100
AcDbLine
 62
7
  6
CONTINUOUS
 10
3.0963824545
 20
-22.3213883311
 11
4.0376557098
 21
-22.3213883311
  0
LINE
  5
268
100
AcDbEntity
  8
0
100
AcDbLine
 62
7
  6
CONTINUOUS
 10
7.1036589727
 20
-22.3213883311
 11
9.4891059364
 21
-22.3213883311
  0
LINE
  5
269
100
AcDbEntity
  8
0
100
AcDbLine
 62
250
  6
CONTINUOUS
 10
10.132724977
 20
-22.0602279426
 11
-10.939960068
 21
-22.0602279426
  0
LINE
  5
26A
100
AcDbEntity
  8
0
100
AcDbLine
 62
250
  6
CONTINUOUS
 10
-7.9167118934
 20
-24.4869014213
 11
-7.9036133147
 21
-24.5
  0
LINE
  5
26B
100
AcDbEntity
  8
0
100
AcDbLine
 62
250
  6
CONTINUOUS
 10
-7.6667161242
 20
-24.2369056521
 11
-7.6536175455
 21
-24.2500042308
  0
LINE
  5
26C
100
AcDbEntity
  8
0
100
AcDbLine
 62
250
  6
CONTINUOUS
 10
10.1245517887
 20
-21.2107174911
 11
-10.9317868797
 21
-21.2107174911
  0
LINE
  5
26D
100
AcDbEntity
  8
0
100
AcDbLine
 62
7
  6
CONTINUOUS
 10
-11.5963824545
 20
-18.0591825482
 11
-11.5536175455
 21
-18.491183651
  0
LINE
  5
26E
100
AcDbEntity
  8
0
100
AcDbLine
 62
7
  6
CONTINUOUS
 10
-11.5963824545
 20
18.0591825482
 11
-11.5536175455
 21
18.491183651
  0
LINE
  5
26F
100
AcDbEntity
  8
0
100
AcDbLine
 62
7
  6
CONTINUOUS
 10
4.0463824545
 20
24.0
 11
4.0376557098
 21
23.9912732553
  0
LINE
  5
270
100
AcDbEntity
  8
0
100
AcDbLine
 62
7
  6
CONTINUOUS
 10
4.0463824545
 20
-24.0
 11
4.0376557098
 21
-23.9912732553
  0
LINE
  5
271
100
AcDbEntity
  8
0
100
AcDbLine
 62
7
  6
CONTINUOUS
 10
-11.5540538889
 20
18.5
 11
-11.5536175455
 21
18.491183651
  0
LINE
  5
272
100
AcDbEntity
  8
0
100
AcDbLine
 62
250
  6
CONTINUOUS
 10
-10.5405189667
 20
-23.8443375673
 11
-10.5463367966
 21
-23.2669872981
  0
LINE
  5
273
100
AcDbEntity
  8
0
100
AcDbLine
 62
7
  6
CONTINUOUS
 10
-11.5963824545
 20
-18.0591825482
 11
-11.5963824545
 21
18.0591825482
  0
LINE
  5
274
100
AcDbEntity
  8
0
100
AcDbLine
 62
7
  6
CONTINUOUS
 10
-11.5540538889
 20
21.900016923
 11
-11.5540538889
 21
18.5
  0
LINE
  5
275
100
AcDbEntity
  8
0
100
AcDbLine
 62
7
  6
CONTINUOUS
 10
-11.5540538889
 20
-21.900016923
 11
-11.5540538889
 21
-18.5
  0
LINE
  5
276
100
AcDbEntity
  8
0
100
AcDbLine
 62
250
  6
CONTINUOUS
 10
-10.9146019951
 20
-9.5
 11
-10.9146019951
 21
9.5
  0
LINE
  5
277
100
AcDbEntity
  8
0
100
AcDbLine
 62
250
  6
CONTINUOUS
 10
-10.5463367966
 20
23.2669872981
 11
-10.5405189667
 21
23.8443375673
  0
LINE
  5
278
100
AcDbEntity
  8
0
100
AcDbLine
 62
7
  6
CONTINUOUS
 10
-11.5536175455
 20
-18.491183651
 11
-11.5540538889
 21
-18.5
  0
LWPOLYLINE
  5
279
100
AcDbEntity
  8
0
100
AcDbPolyline
 62
7
  6
CONTINUOUS
 90
3
 70
0
 43
0.3500000006
 10
0.63209673
 20
35.5357125092
 10
0.5606681671
 20
35.3214280243
 10
0.4178110414
 20
35.0357123566
  0
LINE
  5
27A
100
AcDbEntity
  8
0
100
AcDbLine
 62
250
  6
CONTINUOUS
 10
9.4832881066
 20
24.4869014213
 11
9.4963866853
 21
24.5
  0
LINE
  5
27B
100
AcDbEntity
  8
0
100
AcDbLine
 62
7
  6
CONTINUOUS
 10
5.1396154401
 20
-9.8305140753
 11
5.7900972557
 21
-9.6721712768
  0
LINE
  5
27C
100
AcDbEntity
  8
0
100
AcDbLine
 62
7
  6
CONTINUOUS
 10
-5.946850531
 20
-9.8305140753
 11
-6.5973323466
 21
-9.6721712768
  0
LINE
  5
27D
100
AcDbEntity
  8
0
100
AcDbLine
 62
250
  6
CONTINUOUS
 10
9.4832881066
 20
-24.4869014213
 11
9.4963866853
 21
-24.5
  0
LINE
  5
27E
100
AcDbEntity
  8
RACCORDO
100
AcDbLine
 62
7
  6
CONTINUOUS
 10
-10.0344931552
 20
-3.5302616069
 11
-10.0140043551
 21
-3.7543217653
  0
LINE
  5
27F
100
AcDbEntity
  8
0
100
AcDbLine
 62
250
  6
CONTINUOUS
 10
-10.2905231975
 20
-23.6278312164
 11
-10.2956137986
 21
-23.1226497308
  0
LINE
  5
280
100
AcDbEntity
  8
0
100
AcDbLine
 62
7
  6
CONTINUOUS
 10
-10.5536175455
 20
-22.4
 11
-10.5536175455
 21
-24.2500042308
  0
LINE
  5
281
100
AcDbEntity
  8
0
100
AcDbLine
 62
7
  6
CONTINUOUS
 10
-10.5536175455
 20
22.4
 11
-10.5536175455
 21
24.2500042308
  0
LINE
  5
282
100
AcDbEntity
  8
0
100
AcDbLine
 62
7
  6
CONTINUOUS
 10
-10.5463367966
 20
23.2669872981
 11
-10.5463367966
 21
22.3344140523
  0
LINE
  5
283
100
AcDbEntity
  8
0
100
AcDbLine
 62
7
  6
CONTINUOUS
 10
-10.5463367966
 20
-22.3344140523
 11
-10.5463367966
 21
-23.2669872981
  0
LINE
  5
284
100
AcDbEntity
  8
0
100
AcDbLine
 62
7
  6
CONTINUOUS
 10
-10.5405189667
 20
24.2369056521
 11
-10.5405189667
 21
23.8443375673
  0
LINE
  5
285
100
AcDbEntity
  8
0
100
AcDbLine
 62
7
  6
CONTINUOUS
 10
-10.5405189667
 20
-23.8443375673
 11
-10.5405189667
 21
-24.2369056521
  0
LINE
  5
286
100
AcDbEntity
  8
0
100
AcDbLine
 62
250
  6
CONTINUOUS
 10
-10.2963410273
 20
23.1226497308
 11
-10.2963410273
 21
22.3213883311
  0
LINE
  5
287
100
AcDbEntity
  8
0
100
AcDbLine
 62
250
  6
CONTINUOUS
 10
-10.2963410273
 20
-22.3213883311
 11
-10.2963410273
 21
-23.1226497308
  0
LINE
  5
288
100
AcDbEntity
  8
0
100
AcDbLine
 62
250
  6
CONTINUOUS
 10
-10.2905231975
 20
-23.6278312164
 11
-10.2905231975
 21
-24.4869014213
  0
LINE
  5
289
100
AcDbEntity
  8
0
100
AcDbLine
 62
250
  6
CONTINUOUS
 10
-10.2905231975
 20
23.6278312164
 11
-10.2905231975
 21
24.4869014213
  0
LINE
  5
28A
100
AcDbEntity
  8
0
100
AcDbLine
 62
250
  6
CONTINUOUS
 10
-10.2956137986
 20
23.1226497308
 11
-10.2905231975
 21
23.6278312164
  0
LINE
  5
28B
100
AcDbEntity
  8
0
100
AcDbLine
 62
7
  6
CONTINUOUS
 10
-7.6536175455
 20
22.4
 11
-7.6608982944
 21
22.3344140523
  0
LINE
  5
28C
100
AcDbEntity
  8
0
100
AcDbLine
 62
250
  6
CONTINUOUS
 10
9.7332838758
 20
24.2369056521
 11
9.7463824545
 21
24.2500042308
  0
LINE
  5
28D
100
AcDbEntity
  8
RACCORDO
100
AcDbLine
 62
7
  6
CONTINUOUS
 10
3.5670539301
 20
-8.9225952642
 11
3.5236456821
 21
-8.9342264692
  0
LINE
  5
28E
100
AcDbEntity
  8
RACCORDO
100
AcDbLine
 62
250
  6
CONTINUOUS
 10
-10.9146019951
 20
-9.5
 11
-6.9663814465
 21
-9.5
  0
LINE
  5
28F
100
AcDbEntity
  8
RACCORDO
100
AcDbLine
 62
250
  6
CONTINUOUS
 10
-4.9045610522
 20
-9.5
 11
4.0973259613
 21
-9.5
  0
LINE
  5
290
100
AcDbEntity
  8
RACCORDO
100
AcDbLine
 62
250
  6
CONTINUOUS
 10
6.1591463556
 20
-9.5
 11
10.1073669042
 21
-9.5
  0
LINE
  5
291
100
AcDbEntity
  8
RACCORDO
100
AcDbLine
 62
7
  6
CONTINUOUS
 10
-4.374289021
 20
-8.9225952642
 11
-4.330880774
 21
-8.9342264689
  0
LINE
  5
292
100
AcDbEntity
  8
0
100
AcDbLine
 62
250
  6
CONTINUOUS
 10
9.7332838758
 20
-24.2369056521
 11
9.7463824545
 21
-24.2500042308
  0
LINE
  5
293
100
AcDbEntity
  8
DRAFT
100
AcDbLine
 62
7
  6
CONTINUOUS
 10
-6.3661474497
 20
-10.0725952642
 11
-10.1161474497
 21
-3.5774047358
  0
LINE
  5
294
100
AcDbEntity
  8
0
100
AcDbLine
 62
7
  6
CONTINUOUS
 10
-7.6536175455
 20
-22.4
 11
-7.6608982944
 21
-22.3344140523
  0
LINE
  5
295
100
AcDbEntity
  8
0
100
AcDbLine
 62
250
  6
CONTINUOUS
 10
-7.9167118934
 20
23.6278312164
 11
-7.9116212923
 21
23.1226497308
  0
LINE
  5
296
100
AcDbEntity
  8
0
100
AcDbLine
 62
250
  6
CONTINUOUS
 10
-7.6667161242
 20
23.8443375673
 11
-7.6608982944
 21
23.2669872981
  0
LINE
  5
297
100
AcDbEntity
  8
0
100
AcDbLine
 62
250
  6
CONTINUOUS
 10
-7.9167118934
 20
-23.6278312164
 11
-7.9167118934
 21
-24.4869014213
  0
LINE
  5
298
100
AcDbEntity
  8
0
100
AcDbLine
 62
250
  6
CONTINUOUS
 10
-7.9167118934
 20
23.6278312164
 11
-7.9167118934
 21
24.4869014213
  0
LINE
  5
299
100
AcDbEntity
  8
0
100
AcDbLine
 62
250
  6
CONTINUOUS
 10
-7.9108940636
 20
-23.1226497308
 11
-7.9108940636
 21
-22.3213883311
  0
LINE
  5
29A
100
AcDbEntity
  8
0
100
AcDbLine
 62
250
  6
CONTINUOUS
 10
-7.9108940636
 20
22.3213883311
 11
-7.9108940636
 21
23.1226497308
  0
LINE
  5
29B
100
AcDbEntity
  8
0
100
AcDbLine
 62
7
  6
CONTINUOUS
 10
-7.6667161242
 20
-24.2369056521
 11
-7.6667161242
 21
-23.8443375673
  0
LINE
  5
29C
100
AcDbEntity
  8
0
100
AcDbLine
 62
7
  6
CONTINUOUS
 10
-7.6667161242
 20
23.8443375673
 11
-7.6667161242
 21
24.2369056521
  0
LINE
  5
29D
100
AcDbEntity
  8
0
100
AcDbLine
 62
7
  6
CONTINUOUS
 10
-7.6608982944
 20
-23.2669872981
 11
-7.6608982944
 21
-22.3344140523
  0
LINE
  5
29E
100
AcDbEntity
  8
0
100
AcDbLine
 62
7
  6
CONTINUOUS
 10
-7.6608982944
 20
22.3344140523
 11
-7.6608982944
 21
23.2669872981
  0
LINE
  5
29F
100
AcDbEntity
  8
0
100
AcDbLine
 62
7
  6
CONTINUOUS
 10
-7.6536175455
 20
-22.4
 11
-7.6536175455
 21
-24.2500042308
  0
LINE
  5
2A0
100
AcDbEntity
  8
0
100
AcDbLine
 62
7
  6
CONTINUOUS
 10
-7.6536175455
 20
22.4
 11
-7.6536175455
 21
24.2500042308
  0
LINE
  5
2A1
100
AcDbEntity
  8
0
100
AcDbLine
 62
250
  6
CONTINUOUS
 10
-7.9116212923
 20
-23.1226497308
 11
-7.9167118934
 21
-23.6278312164
  0
LINE
  5
2A2
100
AcDbEntity
  8
0
100
AcDbLine
 62
250
  6
CONTINUOUS
 10
-7.6608982944
 20
-23.2669872981
 11
-7.6667161242
 21
-23.8443375673
  0
LINE
  5
2A3
100
AcDbEntity
  8
0
100
AcDbLine
 62
7
  6
CONTINUOUS
 10
-10.5536175455
 20
-22.4
 11
-10.5463367966
 21
-22.3344140523
  0
LINE
  5
2A4
100
AcDbEntity
  8
RACCORDO
100
AcDbLine
 62
7
  6
CONTINUOUS
 10
-8.124289021
 20
-2.4274047358
 11
-8.1121600804
 21
-2.3821389132
  0
LINE
  5
2A5
100
AcDbEntity
  8
SMUSSO
100
AcDbLine
 62
7
  6
CONTINUOUS
 10
-1.5536175455
 20
11.1758194686
 11
-1.4505012273
 21
11.3216479642
  0
LINE
  5
2A6
100
AcDbEntity
  8
SMUSSO
100
AcDbLine
 62
7
  6
CONTINUOUS
 10
-1.4505012273
 20
10.6216479642
 11
-0.9555264805
 21
11.3216479642
  0
LINE
  5
2A7
100
AcDbEntity
  8
RACCORDO
100
AcDbLine
 62
7
  6
CONTINUOUS
 10
0.7463824545
 20
11.75
 11
0.7766087844
 21
11.7802263298
  0
LINE
  5
2A8
100
AcDbEntity
  8
DRAFT
100
AcDbLine
 62
7
  6
CONTINUOUS
 10
-8.124289021
 20
-2.4274047358
 11
-4.374289021
 21
-8.9225952642
  0
LINE
  5
2A9
100
AcDbEntity
  8
0
100
AcDbLine
 62
7
  6
CONTINUOUS
 10
-10.5536175455
 20
22.4
 11
-10.5463367966
 21
22.3344140523
  0
LINE
  5
2AA
100
AcDbEntity
  8
RACCORDO
100
AcDbLine
 62
7
  6
CONTINUOUS
 10
9.3089123588
 20
-3.5774047358
 11
9.3539788355
 21
-3.5653292098
  0
LINE
  5
2AB
100
AcDbEntity
  8
RACCORDO
100
AcDbLine
 62
7
  6
CONTINUOUS
 10
-10.1161474497
 20
-3.5774047358
 11
-10.1612610891
 21
-3.5653165726
  0
LINE
  5
2AC
100
AcDbEntity
  8
DRAFT
100
AcDbLine
 62
7
  6
CONTINUOUS
 10
5.5589123588
 20
-10.0725952642
 11
3.5670539301
 21
-8.9225952642
  0
LINE
  5
2AD
100
AcDbEntity
  8
0
100
AcDbLine
 62
7
  6
CONTINUOUS
 10
-4.8536175455
 20
-22.4
 11
-4.8536175455
 21
-24.0
  0
LINE
  5
2AE
100
AcDbEntity
  8
0
100
AcDbLine
 62
7
  6
CONTINUOUS
 10
-4.8536175455
 20
22.4
 11
-4.8536175455
 21
24.0
  0
LINE
  5
2AF
100
AcDbEntity
  8
0
100
AcDbLine
 62
7
  6
CONTINUOUS
 10
-4.8448908007
 20
23.9912732553
 11
-4.8448908007
 21
22.3213883311
  0
LINE
  5
2B0
100
AcDbEntity
  8
0
100
AcDbLine
 62
7
  6
CONTINUOUS
 10
-4.8448908007
 20
-22.3213883311
 11
-4.8448908007
 21
-23.9912732553
  0
LINE
  5
2B1
100
AcDbEntity
  8
0
100
AcDbLine
 62
7
  6
CONTINUOUS
 10
-3.9036175455
 20
-23.9982478817
 11
-3.9036175455
 21
-22.3213883311
  0
LINE
  5
2B2
100
AcDbEntity
  8
0
100
AcDbLine
 62
7
  6
CONTINUOUS
 10
-3.9036175455
 20
22.3213883311
 11
-3.9036175455
 21
23.9982478817
  0
LINE
  5
2B3
100
AcDbEntity
  8
RACCORDO
100
AcDbLine
 62
7
  6
CONTINUOUS
 10
-6.3661474497
 20
-10.0725952642
 11
-6.3776266005
 21
-10.1154360381
  0
LINE
  5
2B4
100
AcDbEntity
  8
0
100
AcDbLine
 62
250
  6
CONTINUOUS
 10
-11.5527451909
 20
-21.8997723451
 11
-11.4398839155
 21
-21.5609131753
  0
LINE
  5
2B5
100
AcDbEntity
  8
0
100
AcDbLine
 62
250
  6
CONTINUOUS
 10
-11.053125392
 20
-22.4
 11
-10.939960068
 21
-22.0602279426
  0
LINE
  5
2B6
100
AcDbEntity
  8
RACCORDO
100
AcDbLine
 62
7
  6
CONTINUOUS
 10
-1.5536175455
 20
4.25
 11
-1.5865325482
 21
4.2170849972
  0
LINE
  5
2B7
100
AcDbEntity
  8
0
100
AcDbLine
 62
250
  6
CONTINUOUS
 10
-11.439891759
 20
21.5609367249
 11
-11.5527451909
 21
21.8997723451
  0
LINE
  5
2B8
100
AcDbEntity
  8
0
100
AcDbLine
 62
250
  6
CONTINUOUS
 10
-10.939960068
 20
22.0602279426
 11
-11.053125392
 21
22.4
  0
LINE
  5
2B9
100
AcDbEntity
  8
0
100
AcDbLine
 62
250
  6
CONTINUOUS
 10
-1.6036175455
 20
-22.3737961104
 11
-1.6036175455
 21
-23.9982478817
  0
LINE
  5
2BA
100
AcDbEntity
  8
0
100
AcDbLine
 62
250
  6
CONTINUOUS
 10
-1.6036175455
 20
22.3737961104
 11
-1.6036175455
 21
23.9982478817
  0
LINE
  5
2BB
100
AcDbEntity
  8
RACCORDO
100
AcDbLine
 62
250
  6
CONTINUOUS
 10
-1.7865308467
 20
4.0186941781
 11
-1.7852378028
 21
9.5
  0
LINE
  5
2BC
100
AcDbEntity
  8
RACCORDO
100
AcDbLine
 62
250
  6
CONTINUOUS
 10
-1.7852378028
 20
9.5
 11
-1.7838130079
 21
11.9895281537
  0
LINE
  5
2BD
100
AcDbEntity
  8
0
100
AcDbLine
 62
7
  6
CONTINUOUS
 10
-4.8536175455
 20
-22.4
 11
-4.8448908007
 21
-22.3213883311
  0
LINE
  5
2BE
100
AcDbEntity
  8
DRAFT
100
AcDbLine
 62
7
  6
CONTINUOUS
 10
-10.1161474497
 20
-3.5774047358
 11
-8.124289021
 21
-2.4274047358
  0
LINE
  5
2BF
100
AcDbEntity
  8
0
100
AcDbLine
 62
7
  6
CONTINUOUS
 10
-4.8448908007
 20
22.3213883311
 11
-4.8536175455
 21
22.4
  0
LINE
  5
2C0
100
AcDbEntity
  8
DRAFT
100
AcDbLine
 62
7
  6
CONTINUOUS
 10
-1.5536175455
 20
4.25
 11
-1.5536175455
 21
11.75
  0
LINE
  5
2C1
100
AcDbEntity
  8
SMUSSO
100
AcDbLine
 62
7
  6
CONTINUOUS
 10
-1.4505012273
 20
4.3266732173
 11
-1.4505012273
 21
10.6216479642
  0
LINE
  5
2C2
100
AcDbEntity
  8
0
100
AcDbLine
 62
7
  6
CONTINUOUS
 10
-1.4036175455
 20
-23.7982512664
 11
-1.4036175455
 21
-22.3842776662
  0
LINE
  5
2C3
100
AcDbEntity
  8
0
100
AcDbLine
 62
7
  6
CONTINUOUS
 10
-1.4036175455
 20
22.3842776662
 11
-1.4036175455
 21
23.7982512664
  0
LINE
  5
2C4
100
AcDbEntity
  8
0
100
AcDbLine
 62
7
  6
CONTINUOUS
 10
-1.1958325783
 20
11.75
 11
-1.1958325783
 21
11.3216479642
  0
LINE
  5
2C5
100
AcDbEntity
  8
0
100
AcDbLine
 62
7
  6
CONTINUOUS
 10
-0.6668516362
 20
11.3216479642
 11
-0.6668516362
 21
11.75
  0
LINE
  5
2C6
100
AcDbEntity
  8
0
100
AcDbLine
 62
250
  6
CONTINUOUS
 10
-0.248369193
 20
4.25
 11
-0.248369193
 21
11.3216479642
  0
LINE
  5
2C7
100
AcDbEntity
  8
0
100
AcDbLine
 62
7
  6
CONTINUOUS
 10
0.0225137909
 20
11.3216479642
 11
0.0225137909
 21
11.75
  0
LINE
  5
2C8
100
AcDbEntity
  8
0
100
AcDbLine
 62
7
  6
CONTINUOUS
 10
0.0445240258
 20
11.3216479642
 11
0.0445240258
 21
4.25
  0
LINE
  5
2C9
100
AcDbEntity
  8
0
100
AcDbLine
 62
7
  6
CONTINUOUS
 10
0.1133208689
 20
11.3216479642
 11
0.1133208689
 21
4.25
  0
LINE
  5
2CA
100
AcDbEntity
  8
0
100
AcDbLine
 62
7
  6
CONTINUOUS
 10
0.1408425273
 20
11.3216479642
 11
0.1408425273
 21
11.75
  0
LINE
  5
2CB
100
AcDbEntity
  8
RACCORDO
100
AcDbLine
 62
250
  6
CONTINUOUS
 10
0.976577917
 20
11.9895281537
 11
0.9780027119
 21
9.5
  0
LINE
  5
2CC
100
AcDbEntity
  8
RACCORDO
100
AcDbLine
 62
250
  6
CONTINUOUS
 10
0.9780027119
 20
9.5
 11
0.9792957558
 21
4.0186941781
  0
LINE
  5
2CD
100
AcDbEntity
  8
0
100
AcDbLine
 62
250
  6
CONTINUOUS
 10
0.3472764257
 20
4.25
 11
0.3472764257
 21
11.3216479642
  0
LINE
  5
2CE
100
AcDbEntity
  8
0
100
AcDbLine
 62
7
  6
CONTINUOUS
 10
0.5963824545
 20
23.7982512664
 11
0.5963824545
 21
22.3842776662
  0
LINE
  5
2CF
100
AcDbEntity
  8
0
100
AcDbLine
 62
7
  6
CONTINUOUS
 10
0.5963824545
 20
-22.3842776662
 11
0.5963824545
 21
-23.7982512664
  0
LINE
  5
2D0
100
AcDbEntity
  8
DRAFT
100
AcDbLine
 62
7
  6
CONTINUOUS
 10
0.7463824545
 20
11.75
 11
0.7463824545
 21
4.25
  0
LINE
  5
2D1
100
AcDbEntity
  8
0
100
AcDbLine
 62
250
  6
CONTINUOUS
 10
0.7963824545
 20
-22.3737961104
 11
0.7963824545
 21
-23.9982478817
  0
LINE
  5
2D2
100
AcDbEntity
  8
0
100
AcDbLine
 62
250
  6
CONTINUOUS
 10
0.7963824545
 20
22.3737961104
 11
0.7963824545
 21
23.9982478817
  0
LINE
  5
2D3
100
AcDbEntity
  8
0
100
AcDbLine
 62
7
  6
CONTINUOUS
 10
4.0463824545
 20
22.4
 11
4.0376557098
 21
22.3213883311
  0
LWPOLYLINE
  5
2D4
100
AcDbEntity
  8
0
100
AcDbPolyline
 62
7
  6
CONTINUOUS
 90
2
 70
0
 43
0.3500000006
 10
20.8463831406
 20
0.4007747498
 10
19.3463826828
 20
0.4007747498
  0
LINE
  5
2D5
100
AcDbEntity
  8
DRAFT
100
AcDbLine
 62
7
  6
CONTINUOUS
 10
7.3170539301
 20
-2.4274047358
 11
9.3089123588
 21
-3.5774047358
  0
LINE
  5
2D6
100
AcDbEntity
  8
0
100
AcDbLine
 62
7
  6
CONTINUOUS
 10
-1.4505012273
 20
4.3266732173
 11
-1.37382801
 21
4.25
  0
LINE
  5
2D7
100
AcDbEntity
  8
0
100
AcDbLine
 62
7
  6
CONTINUOUS
 10
4.0376557098
 20
-22.3213883311
 11
4.0463824545
 21
-22.4
  0
LWPOLYLINE
  5
2D8
100
AcDbEntity
  8
0
100
AcDbPolyline
 62
7
  6
CONTINUOUS
 90
2
 70
0
 43
0.3500000006
 10
2.6320968447
 20
35.2500013733
 10
2.6320968447
 20
36.7500018311
  0
LINE
  5
2D9
100
AcDbEntity
  8
0
100
AcDbLine
 62
7
  6
CONTINUOUS
 10
3.0963824545
 20
23.9982478817
 11
3.0963824545
 21
22.3213883311
  0
LINE
  5
2DA
100
AcDbEntity
  8
0
100
AcDbLine
 62
7
  6
CONTINUOUS
 10
3.0963824545
 20
-22.3213883311
 11
3.0963824545
 21
-23.9982478817
  0
LINE
  5
2DB
100
AcDbEntity
  8
0
100
AcDbLine
 62
250
  6
CONTINUOUS
 10
10.245890301
 20
22.4
 11
10.132724977
 21
22.0602279426
  0
LINE
  5
2DC
100
AcDbEntity
  8
0
100
AcDbLine
 62
250
  6
CONTINUOUS
 10
10.7455101
 20
21.8997723451
 11
10.632665452
 21
21.5609621806
  0
LINE
  5
2DD
100
AcDbEntity
  8
RACCORDO
100
AcDbLine
 62
7
  6
CONTINUOUS
 10
0.7463824545
 20
4.25
 11
0.7793262151
 21
4.2170562395
  0
LINE
  5
2DE
100
AcDbEntity
  8
0
100
AcDbLine
 62
250
  6
CONTINUOUS
 10
10.132724977
 20
-22.0602279426
 11
10.245890301
 21
-22.4
  0
LINE
  5
2DF
100
AcDbEntity
  8
0
100
AcDbLine
 62
250
  6
CONTINUOUS
 10
10.6326488246
 20
-21.5609131753
 11
10.7455101
 21
-21.8997723451
  0
LINE
  5
2E0
100
AcDbEntity
  8
RACCORDO
100
AcDbLine
 62
7
  6
CONTINUOUS
 10
5.5589123588
 20
-10.0725952642
 11
5.5703787699
 21
-10.1153884932
  0
LINE
  5
2E1
100
AcDbEntity
  8
0
100
AcDbLine
 62
7
  6
CONTINUOUS
 10
4.0376557098
 20
-23.9912732553
 11
4.0376557098
 21
-22.3213883311
  0
LINE
  5
2E2
100
AcDbEntity
  8
0
100
AcDbLine
 62
7
  6
CONTINUOUS
 10
4.0376557098
 20
22.3213883311
 11
4.0376557098
 21
23.9912732553
  0
LINE
  5
2E3
100
AcDbEntity
  8
0
100
AcDbLine
 62
7
  6
CONTINUOUS
 10
4.0463824545
 20
-22.4
 11
4.0463824545
 21
-24.0
  0
LINE
  5
2E4
100
AcDbEntity
  8
0
100
AcDbLine
 62
7
  6
CONTINUOUS
 10
4.0463824545
 20
22.4
 11
4.0463824545
 21
24.0
  0
LINE
  5
2E5
100
AcDbEntity
  8
DRAFT
100
AcDbLine
 62
7
  6
CONTINUOUS
 10
-4.374289021
 20
-8.9225952642
 11
-6.3661474497
 21
-10.0725952642
  0
LINE
  5
2E6
100
AcDbEntity
  8
RACCORDO
100
AcDbLine
 62
250
  6
CONTINUOUS
 10
0.9792957558
 20
4.0186941781
 11
-1.7865308467
 21
4.0186941781
  0
LINE
  5
2E7
100
AcDbEntity
  8
RACCORDO
100
AcDbLine
 62
250
  6
CONTINUOUS
 10
0.7793262151
 20
4.2170562395
 11
-1.586561306
 21
4.2170562395
  0
LINE
  5
2E8
100
AcDbEntity
  8
DRAFT
100
AcDbLine
 62
7
  6
CONTINUOUS
 10
0.7463824545
 20
4.25
 11
-1.5536175455
 21
4.25
  0
LINE
  5
2E9
100
AcDbEntity
  8
0
100
AcDbLine
 62
7
  6
CONTINUOUS
 10
-1.5536175455
 20
4.3266732173
 11
-1.4505012273
 21
4.3266732173
  0
LINE
  5
2EA
100
AcDbEntity
  8
0
100
AcDbLine
 62
250
  6
CONTINUOUS
 10
6.8594810333
 20
-23.8443375673
 11
6.8536632034
 21
-23.2669872981
  0
LINE
  5
2EB
100
AcDbEntity
  8
0
100
AcDbLine
 62
250
  6
CONTINUOUS
 10
7.1094768025
 20
-23.6278312164
 11
7.1043862014
 21
-23.1226497308
  0
LINE
  5
2EC
100
AcDbEntity
  8
0
100
AcDbLine
 62
7
  6
CONTINUOUS
 10
6.8463824545
 20
-22.4
 11
6.8463824545
 21
-24.2500042308
  0
LINE
  5
2ED
100
AcDbEntity
  8
0
100
AcDbLine
 62
7
  6
CONTINUOUS
 10
6.8463824545
 20
22.4
 11
6.8463824545
 21
24.2500042308
  0
LINE
  5
2EE
100
AcDbEntity
  8
0
100
AcDbLine
 62
7
  6
CONTINUOUS
 10
6.8536632034
 20
23.2669872981
 11
6.8536632034
 21
22.3344140523
  0
LINE
  5
2EF
100
AcDbEntity
  8
0
100
AcDbLine
 62
7
  6
CONTINUOUS
 10
6.8536632034
 20
-22.3344140523
 11
6.8536632034
 21
-23.2669872981
  0
LINE
  5
2F0
100
AcDbEntity
  8
0
100
AcDbLine
 62
7
  6
CONTINUOUS
 10
6.8594810333
 20
24.2369056521
 11
6.8594810333
 21
23.8443375673
  0
LINE
  5
2F1
100
AcDbEntity
  8
0
100
AcDbLine
 62
7
  6
CONTINUOUS
 10
6.8594810333
 20
-23.8443375673
 11
6.8594810333
 21
-24.2369056521
  0
LINE
  5
2F2
100
AcDbEntity
  8
0
100
AcDbLine
 62
250
  6
CONTINUOUS
 10
7.1036589727
 20
23.1226497308
 11
7.1036589727
 21
22.3213883311
  0
LINE
  5
2F3
100
AcDbEntity
  8
0
100
AcDbLine
 62
250
  6
CONTINUOUS
 10
7.1036589727
 20
-22.3213883311
 11
7.1036589727
 21
-23.1226497308
  0
LINE
  5
2F4
100
AcDbEntity
  8
0
100
AcDbLine
 62
250
  6
CONTINUOUS
 10
7.1094768025
 20
-23.6278312164
 11
7.1094768025
 21
-24.4869014213
  0
LINE
  5
2F5
100
AcDbEntity
  8
0
100
AcDbLine
 62
250
  6
CONTINUOUS
 10
7.1094768025
 20
23.6278312164
 11
7.1094768025
 21
24.4869014213
  0
LINE
  5
2F6
100
AcDbEntity
  8
0
100
AcDbLine
 62
250
  6
CONTINUOUS
 10
6.8536632034
 20
23.2669872981
 11
6.8594810333
 21
23.8443375673
  0
LINE
  5
2F7
100
AcDbEntity
  8
0
100
AcDbLine
 62
250
  6
CONTINUOUS
 10
7.1043862014
 20
23.1226497308
 11
7.1094768025
 21
23.6278312164
  0
LINE
  5
2F8
100
AcDbEntity
  8
0
100
AcDbLine
 62
7
  6
CONTINUOUS
 10
9.7463824545
 20
22.4
 11
9.7391017056
 21
22.3344140523
  0
LINE
  5
2F9
100
AcDbEntity
  8
RACCORDO
100
AcDbLine
 62
7
  6
CONTINUOUS
 10
-1.5536175455
 20
11.75
 11
-1.5838438753
 21
11.7802263298
  0
LINE
  5
2FA
100
AcDbEntity
  8
RACCORDO
100
AcDbLine
 62
7
  6
CONTINUOUS
 10
7.3170539301
 20
-2.4274047358
 11
7.304926373
 21
-2.3821440766
  0
LINE
  5
2FB
100
AcDbEntity
  8
0
100
AcDbLine
 62
7
  6
CONTINUOUS
 10
9.7463824545
 20
-22.4
 11
9.7391017056
 21
-22.3344140523
  0
LINE
  5
2FC
100
AcDbEntity
  8
0
100
AcDbLine
 62
7
  6
CONTINUOUS
 10
6.8463824545
 20
-22.4
 11
6.8536632034
 21
-22.3344140523
  0
LINE
  5
2FD
100
AcDbEntity
  8
DRAFT
100
AcDbLine
 62
7
  6
CONTINUOUS
 10
3.5670539301
 20
-8.9225952642
 11
7.3170539301
 21
-2.4274047358
  0
LINE
  5
2FE
100
AcDbEntity
  8
0
100
AcDbLine
 62
7
  6
CONTINUOUS
 10
6.8463824545
 20
22.4
 11
6.8536632034
 21
22.3344140523
  0
LINE
  5
2FF
100
AcDbEntity
  8
0
100
AcDbLine
 62
7
  6
CONTINUOUS
 10
10.7463824545
 20
-18.491183651
 11
10.7468187979
 21
-18.5
  0
LINE
  5
300
100
AcDbEntity
  8
0
100
AcDbLine
 62
250
  6
CONTINUOUS
 10
9.4832881066
 20
23.6278312164
 11
9.4883787077
 21
23.1226497308
  0
LINE
  5
301
100
AcDbEntity
  8
0
100
AcDbLine
 62
250
  6
CONTINUOUS
 10
9.7332838758
 20
23.8443375673
 11
9.7391017056
 21
23.2669872981
  0
LINE
  5
302
100
AcDbEntity
  8
0
100
AcDbLine
 62
250
  6
CONTINUOUS
 10
9.4832881066
 20
-23.6278312164
 11
9.4832881066
 21
-24.4869014213
  0
LINE
  5
303
100
AcDbEntity
  8
0
100
AcDbLine
 62
250
  6
CONTINUOUS
 10
9.4832881066
 20
23.6278312164
 11
9.4832881066
 21
24.4869014213
  0
LINE
  5
304
100
AcDbEntity
  8
0
100
AcDbLine
 62
250
  6
CONTINUOUS
 10
9.4891059364
 20
-23.1226497308
 11
9.4891059364
 21
-22.3213883311
  0
LINE
  5
305
100
AcDbEntity
  8
0
100
AcDbLine
 62
250
  6
CONTINUOUS
 10
9.4891059364
 20
22.3213883311
 11
9.4891059364
 21
23.1226497308
  0
LINE
  5
306
100
AcDbEntity
  8
0
100
AcDbLine
 62
7
  6
CONTINUOUS
 10
9.7332838758
 20
-24.2369056521
 11
9.7332838758
 21
-23.8443375673
  0
LINE
  5
307
100
AcDbEntity
  8
0
100
AcDbLine
 62
7
  6
CONTINUOUS
 10
9.7332838758
 20
23.8443375673
 11
9.7332838758
 21
24.2369056521
  0
LINE
  5
308
100
AcDbEntity
  8
0
100
AcDbLine
 62
7
  6
CONTINUOUS
 10
9.7391017056
 20
-23.2669872981
 11
9.7391017056
 21
-22.3344140523
  0
LINE
  5
309
100
AcDbEntity
  8
0
100
AcDbLine
 62
7
  6
CONTINUOUS
 10
9.7391017056
 20
22.3344140523
 11
9.7391017056
 21
23.2669872981
  0
LINE
  5
30A
100
AcDbEntity
  8
0
100
AcDbLine
 62
7
  6
CONTINUOUS
 10
9.7463824545
 20
-22.4
 11
9.7463824545
 21
-24.2500042308
  0
LINE
  5
30B
100
AcDbEntity
  8
0
100
AcDbLine
 62
7
  6
CONTINUOUS
 10
9.7463824545
 20
22.4
 11
9.7463824545
 21
24.2500042308
  0
LINE
  5
30C
100
AcDbEntity
  8
0
100
AcDbLine
 62
250
  6
CONTINUOUS
 10
10.1073669042
 20
9.5
 11
10.1073669042
 21
-9.5
  0
LINE
  5
30D
100
AcDbEntity
  8
0
100
AcDbLine
 62
7
  6
CONTINUOUS
 10
10.7468187979
 20
21.900016923
 11
10.7468187979
 21
18.5
  0
LINE
  5
30E
100
AcDbEntity
  8
0
100
AcDbLine
 62
7
  6
CONTINUOUS
 10
10.7468187979
 20
-21.900016923
 11
10.7468187979
 21
-18.5
  0
LINE
  5
30F
100
AcDbEntity
  8
0
100
AcDbLine
 62
7
  6
CONTINUOUS
 10
10.7891473636
 20
18.0591825482
 11
10.7891473636
 21
-18.0591825482
  0
LINE
  5
310
100
AcDbEntity
  8
0
100
AcDbLine
 62
250
  6
CONTINUOUS
 10
9.4883787077
 20
-23.1226497308
 11
9.4832881066
 21
-23.6278312164
  0
LINE
  5
311
100
AcDbEntity
  8
0
100
AcDbLine
 62
250
  6
CONTINUOUS
 10
9.7391017056
 20
-23.2669872981
 11
9.7332838758
 21
-23.8443375673
  0
LINE
  5
312
100
AcDbEntity
  8
0
100
AcDbLine
 62
7
  6
CONTINUOUS
 10
10.7468187979
 20
18.5
 11
10.7463824545
 21
18.491183651
  0
LINE
  5
313
100
AcDbEntity
  8
RACCORDO
100
AcDbLine
 62
7
  6
CONTINUOUS
 10
9.2272580643
 20
-3.5302616069
 11
9.2067692642
 21
-3.7543217653
  0
LINE
  5
314
100
AcDbEntity
  8
DRAFT
100
AcDbLine
 62
7
  6
CONTINUOUS
 10
9.3089123588
 20
-3.5774047358
 11
5.5589123588
 21
-10.0725952642
  0
LINE
  5
315
100
AcDbEntity
  8
0
100
AcDbLine
 62
250
  6
CONTINUOUS
 10
-10.5405189667
 20
-24.2369056521
 11
-10.5536175455
 21
-24.2500042308
  0
LINE
  5
316
100
AcDbEntity
  8
0
100
AcDbLine
 62
250
  6
CONTINUOUS
 10
-10.2905231975
 20
-24.4869014213
 11
-10.3036217762
 21
-24.5
  0
LINE
  5
317
100
AcDbEntity
  8
RACCORDO
100
AcDbLine
 62
250
  6
CONTINUOUS
 10
-10.9146019951
 20
9.5
 11
-1.7852378028
 21
9.5
  0
LINE
  5
318
100
AcDbEntity
  8
RACCORDO
100
AcDbLine
 62
250
  6
CONTINUOUS
 10
0.9780027119
 20
9.5
 11
10.1073669042
 21
9.5
  0
LINE
  5
319
100
AcDbEntity
  8
SMUSSO
100
AcDbLine
 62
7
  6
CONTINUOUS
 10
-1.5536175455
 20
10.6216479642
 11
-1.4505012273
 21
10.6216479642
  0
LINE
  5
31A
100
AcDbEntity
  8
0
100
AcDbLine
 62
250
  6
CONTINUOUS
 10
-10.5405189667
 20
24.2369056521
 11
-10.5536175455
 21
24.2500042308
  0
LINE
  5
31B
100
AcDbEntity
  8
0
100
AcDbLine
 62
250
  6
CONTINUOUS
 10
-10.2905231975
 20
24.4869014213
 11
-10.3036217762
 21
24.5
  0
LINE
  5
31C
100
AcDbEntity
  8
0
100
AcDbLine
 62
7
  6
CONTINUOUS
 10
10.7891473636
 20
18.0591825482
 11
10.7463824545
 21
18.491183651
  0
LINE
  5
31D
100
AcDbEntity
  8
0
100
AcDbLine
 62
7
  6
CONTINUOUS
 10
10.7891473636
 20
-18.0591825482
 11
10.7463824545
 21
-18.491183651
  0
LINE
  5
31E
100
AcDbEntity
  8
SMUSSO
100
AcDbLine
 62
7
  6
CONTINUOUS
 10
-1.4505012273
 20
11.3216479642
 11
-0.248369193
 21
11.3216479642
  0
LINE
  5
31F
100
AcDbEntity
  8
SMUSSO
100
AcDbLine
 62
7
  6
CONTINUOUS
 10
0.7463824545
 20
11.3216479642
 11
0.3472764257
 21
11.3216479642
  0
LINE
  5
320
100
AcDbEntity
  8
0
100
AcDbLine
 62
7
  6
CONTINUOUS
 10
0.3472764257
 20
11.3216479642
 11
0.1133510019
 21
11.3216479642
  0
LINE
  5
321
100
AcDbEntity
  8
0
100
AcDbLine
 62
7
  6
CONTINUOUS
 10
0.0444955862
 20
11.3216479642
 11
-0.248369193
 21
11.3216479642
  0
LINE
  5
322
100
AcDbEntity
  8
DRAFT
100
AcDbLine
 62
7
  6
CONTINUOUS
 10
-1.5536175455
 20
11.75
 11
0.7463824545
 21
11.75
  0
LINE
  5
323
100
AcDbEntity
  8
RACCORDO
100
AcDbLine
 62
250
  6
CONTINUOUS
 10
-1.5838438753
 20
11.7802263298
 11
0.7766087844
 21
11.7802263298
  0
LINE
  5
324
100
AcDbEntity
  8
RACCORDO
100
AcDbLine
 62
250
  6
CONTINUOUS
 10
-1.7838130079
 20
11.9895281537
 11
0.976577917
 21
11.9895281537
  0
LINE
  5
325
100
AcDbEntity
  8
0
100
AcDbLine
 62
7
  6
CONTINUOUS
 10
-4.8448908007
 20
-23.9912732553
 11
-4.8536175455
 21
-24.0
  0
LINE
  5
326
100
AcDbEntity
  8
0
100
AcDbLine
 62
7
  6
CONTINUOUS
 10
-4.8536175455
 20
24.0
 11
-4.8448908007
 21
23.9912732553
  0
LWPOLYLINE
  5
327
100
AcDbEntity
  8
0
100
AcDbPolyline
 62
7
  6
CONTINUOUS
 90
10
 70
0
 43
0.3500000006
 10
20.8463831406
 20
2.1864886093
 10
19.9892406693
 20
3.0436310806
 10
19.132095932
 20
3.2579155655
 10
18.2749534607
 20
3.2579155655
 10
17.846382225
 20
2.8293443298
 10
17.846382225
 20
2.1864886093
 10
18.2749534607
 20
1.7579173737
 10
19.132095932
 20
1.7579173737
 10
19.5606671677
 20
2.1864886093
 10
19.5606671677
 20
3.1150599976
  0
LWPOLYLINE
  5
328
100
AcDbEntity
  8
0
100
AcDbPolyline
 62
7
  6
CONTINUOUS
 90
10
 70
0
 43
0.3500000006
 10
0.5606681671
 20
35.7500015259
 10
0.63209673
 20
35.607143692
 10
0.63209673
 20
35.5357125092
 10
0.4892396042
 20
35.3928592072
 10
0.4178110414
 20
35.3928592072
 10
0.3463824431
 20
35.4642858582
 10
0.3463824431
 20
35.5357125092
 10
0.4178110414
 20
35.678570343
 10
0.4892396042
 20
35.7500015259
 10
0.5606681671
 20
35.7500015259
  0
LWPOLYLINE
  5
329
100
AcDbEntity
  8
0
100
AcDbPolyline
 62
7
  6
CONTINUOUS
 90
3
 70
0
 43
0.3500000006
 10
20.2035251541
 20
0.9007726364
 10
20.2035251541
 20
-0.5992255554
 10
17.846382225
 20
0.0436301651
  0
LINE
  5
32A
100
AcDbEntity
  8
0
100
AcDbLine
 62
250
  6
CONTINUOUS
 10
-10.9317868797
 20
21.2107174911
 11
10.1245517887
 21
21.2107174911
  0
LINE
  5
32B
100
AcDbEntity
  8
0
100
AcDbLine
 62
250
  6
CONTINUOUS
 10
6.8594810333
 20
-24.2369056521
 11
6.8463824545
 21
-24.2500042308
  0
LINE
  5
32C
100
AcDbEntity
  8
0
100
AcDbLine
 62
250
  6
CONTINUOUS
 10
7.1094768025
 20
-24.4869014213
 11
7.0963782238
 21
-24.5
  0
LINE
  5
32D
100
AcDbEntity
  8
0
100
AcDbLine
 62
250
  6
CONTINUOUS
 10
-10.939960068
 20
22.0602279426
 11
10.132724977
 21
22.0602279426
  0
LINE
  5
32E
100
AcDbEntity
  8
0
100
AcDbLine
 62
7
  6
CONTINUOUS
 10
-10.2963410273
 20
22.3213883311
 11
-7.9108940636
 21
22.3213883311
  0
LINE
  5
32F
100
AcDbEntity
  8
0
100
AcDbLine
 62
7
  6
CONTINUOUS
 10
-4.8448908007
 20
22.3213883311
 11
-3.9036175455
 21
22.3213883311
  0
LINE
  5
330
100
AcDbEntity
  8
0
100
AcDbLine
 62
7
  6
CONTINUOUS
 10
3.0963824545
 20
22.3213883311
 11
4.0376557098
 21
22.3213883311
  0
LINE
  5
331
100
AcDbEntity
  8
0
100
AcDbLine
 62
7
  6
CONTINUOUS
 10
7.1036589727
 20
22.3213883311
 11
9.4891059364
 21
22.3213883311
  0
LINE
  5
332
100
AcDbEntity
  8
0
100
AcDbLine
 62
7
  6
CONTINUOUS
 10
3.0963824545
 20
22.3737961104
 11
0.7963824545
 21
22.3737961104
  0
LINE
  5
333
100
AcDbEntity
  8
0
100
AcDbLine
 62
7
  6
CONTINUOUS
 10
-1.6036175455
 20
22.3737961104
 11
-3.9036175455
 21
22.3737961104
  0
LINE
  5
334
100
AcDbEntity
  8
0
100
AcDbLine
 62
7
  6
CONTINUOUS
 10
10.246825144
 20
22.4
 11
9.7463824545
 21
22.4
  0
LINE
  5
335
100
AcDbEntity
  8
0
100
AcDbLine
 62
7
  6
CONTINUOUS
 10
6.8463824545
 20
22.4
 11
4.0463824545
 21
22.4
  0
LINE
  5
336
100
AcDbEntity
  8
0
100
AcDbLine
 62
7
  6
CONTINUOUS
 10
-1.4036175455
 20
22.4
 11
0.5963824545
 21
22.4
  0
LINE
  5
337
100
AcDbEntity
  8
0
100
AcDbLine
 62
7
  6
CONTINUOUS
 10
-4.8536175455
 20
22.4
 11
-7.6536175455
 21
22.4
  0
LINE
  5
338
100
AcDbEntity
  8
0
100
AcDbLine
 62
7
  6
CONTINUOUS
 10
-10.5536175455
 20
22.4
 11
-11.0540602349
 21
22.4
  0
LINE
  5
339
100
AcDbEntity
  8
0
100
AcDbLine
 62
7
  6
CONTINUOUS
 10
-10.2963410273
 20
23.1226497308
 11
-7.9108940636
 21
23.1226497308
  0
LINE
  5
33A
100
AcDbEntity
  8
0
100
AcDbLine
 62
7
  6
CONTINUOUS
 10
9.4891059364
 20
23.1226497308
 11
7.1036589727
 21
23.1226497308
  0
LINE
  5
33B
100
AcDbEntity
  8
0
100
AcDbLine
 62
250
  6
CONTINUOUS
 10
-10.2905231975
 20
23.6278312164
 11
-7.9167118934
 21
23.6278312164
  0
LINE
  5
33C
100
AcDbEntity
  8
0
100
AcDbLine
 62
250
  6
CONTINUOUS
 10
7.1094768025
 20
23.6278312164
 11
9.4832881066
 21
23.6278312164
  0
LINE
  5
33D
100
AcDbEntity
  8
0
100
AcDbLine
 62
250
  6
CONTINUOUS
 10
6.8594810333
 20
24.2369056521
 11
6.8463824545
 21
24.2500042308
  0
LINE
  5
33E
100
AcDbEntity
  8
0
100
AcDbLine
 62
250
  6
CONTINUOUS
 10
7.1094768025
 20
24.4869014213
 11
7.0963782238
 21
24.5
  0
LINE
  5
33F
100
AcDbEntity
  8
0
100
AcDbLine
 62
250
  6
CONTINUOUS
 10
3.0963824545
 20
23.7982512664
 11
0.5963824545
 21
23.7982512664
  0
LINE
  5
340
100
AcDbEntity
  8
0
100
AcDbLine
 62
250
  6
CONTINUOUS
 10
-1.4036175455
 20
23.7982512664
 11
-3.9036175455
 21
23.7982512664
  0
LINE
  5
341
100
AcDbEntity
  8
0
100
AcDbLine
 62
250
  6
CONTINUOUS
 10
6.8594810333
 20
23.8443375673
 11
9.7332838758
 21
23.8443375673
  0
LINE
  5
342
100
AcDbEntity
  8
0
100
AcDbLine
 62
250
  6
CONTINUOUS
 10
-7.6667161242
 20
23.8443375673
 11
-10.5405189667
 21
23.8443375673
  0
LINE
  5
343
100
AcDbEntity
  8
0
100
AcDbLine
 62
7
  6
CONTINUOUS
 10
-4.8448908007
 20
23.9912732553
 11
-3.9036175455
 21
23.9912732553
  0
LINE
  5
344
100
AcDbEntity
  8
0
100
AcDbLine
 62
7
  6
CONTINUOUS
 10
3.0963824545
 20
23.9912732553
 11
4.0376557098
 21
23.9912732553
  0
LINE
  5
345
100
AcDbEntity
  8
0
100
AcDbLine
 62
7
  6
CONTINUOUS
 10
3.0963824545
 20
23.9982478817
 11
0.7963824545
 21
23.9982478817
  0
LINE
  5
346
100
AcDbEntity
  8
0
100
AcDbLine
 62
7
  6
CONTINUOUS
 10
-1.6036175455
 20
23.9982478817
 11
-3.9036175455
 21
23.9982478817
  0
LINE
  5
347
100
AcDbEntity
  8
0
100
AcDbLine
 62
7
  6
CONTINUOUS
 10
-4.8536175455
 20
24.0
 11
-3.9036175455
 21
24.0
  0
LINE
  5
348
100
AcDbEntity
  8
0
100
AcDbLine
 62
7
  6
CONTINUOUS
 10
3.0963824545
 20
24.0
 11
4.0463824545
 21
24.0
  0
LINE
  5
349
100
AcDbEntity
  8
0
100
AcDbLine
 62
250
  6
CONTINUOUS
 10
6.8594810333
 20
24.2369056521
 11
9.7332838758
 21
24.2369056521
  0
LINE
  5
34A
100
AcDbEntity
  8
0
100
AcDbLine
 62
250
  6
CONTINUOUS
 10
-7.6667161242
 20
24.2369056521
 11
-10.5405189667
 21
24.2369056521
  0
LINE
  5
34B
100
AcDbEntity
  8
0
100
AcDbLine
 62
7
  6
CONTINUOUS
 10
9.4832881066
 20
24.4869014213
 11
7.1094768025
 21
24.4869014213
  0
LINE
  5
34C
100
AcDbEntity
  8
0
100
AcDbLine
 62
7
  6
CONTINUOUS
 10
-7.9167118934
 20
24.4869014213
 11
-10.2905231975
 21
24.4869014213
  0
LINE
  5
34D
100
AcDbEntity
  8
0
100
AcDbLine
 62
7
  6
CONTINUOUS
 10
9.4963866853
 20
24.5
 11
7.0963782238
 21
24.5
  0
LINE
  5
34E
100
AcDbEntity
  8
0
100
AcDbLine
 62
7
  6
CONTINUOUS
 10
-7.9036133147
 20
24.5
 11
-10.3036217762
 21
24.5
  0
LWPOLYLINE
  5
34F
100
AcDbEntity
  8
0
100
AcDbPolyline
 62
7
  6
CONTINUOUS
 90
7
 70
0
 43
0.3500000006
 10
-0.9393318658
 20
35.2500013733
 10
-2.4393318987
 20
35.2500013733
 10
-0.9393318658
 20
37.3928552856
 10
-0.9393318658
 20
37.8214287872
 10
-1.3679032431
 20
38.249997757
 10
-2.0107603798
 20
38.249997757
 10
-2.4393318987
 20
37.6071443024
  0
LWPOLYLINE
  5
350
100
AcDbEntity
  8
0
100
AcDbPolyline
 62
7
  6
CONTINUOUS
 90
7
 70
0
 43
0.3500000006
 10
-3.2964746532
 20
35.2500013733
 10
-4.7964745445
 20
35.2500013733
 10
-3.2964746532
 20
37.3928552856
 10
-3.2964746532
 20
37.8214287872
 10
-3.7250461721
 20
38.249997757
 10
-4.3679033089
 20
38.249997757
 10
-4.7964745445
 20
37.6071443024
  0
LWPOLYLINE
  5
351
100
AcDbEntity
  8
0
100
AcDbPolyline
 62
7
  6
CONTINUOUS
 90
3
 70
0
 43
0.3500000006
 10
3.132096714
 20
35.8928593597
 10
1.6320966811
 20
35.8928593597
 10
2.2749538178
 20
38.249997757
  0
LWPOLYLINE
  5
352
100
AcDbEntity
  8
0
100
AcDbPolyline
 62
7
  6
CONTINUOUS
 90
5
 70
0
 43
0.3500000006
 10
-44.9095940552
 20
44.9642842255
 10
-44.5524517365
 20
45.1785732422
 10
-44.5524517365
 20
45.8214266968
 10
-44.9095940552
 20
46.2500001984
 10
-45.7667365265
 20
46.2500001984
  0
LINE
  5
353
100
AcDbEntity
  8
0
100
AcDbLine
 62
250
  6
CONTINUOUS
 10
-53.5167361435
 20
23.4104851482
 11
-52.7652817107
 21
23.8443375673
  0
LINE
  5
354
100
AcDbEntity
  8
0
100
AcDbLine
 62
7
  6
CONTINUOUS
 10
-53.5167361435
 20
23.1226497308
 11
-52.6417361435
 21
23.6278312164
  0
LINE
  5
355
100
AcDbEntity
  8
0
100
AcDbLine
 62
7
  6
CONTINUOUS
 10
-53.5167361435
 20
-24.5
 11
-52.7652817107
 21
-24.495628166
  0
LINE
  5
356
100
AcDbEntity
  8
0
100
AcDbLine
 62
7
  6
CONTINUOUS
 10
-55.7681905764
 20
-24.4869014213
 11
-53.5167361435
 21
-24.5
  0
LINE
  5
357
100
AcDbEntity
  8
0
100
AcDbLine
 62
250
  6
CONTINUOUS
 10
-55.7681905764
 20
-24.2369056521
 11
-53.5167361435
 21
-24.2500042308
  0
LINE
  5
358
100
AcDbEntity
  8
0
100
AcDbLine
 62
250
  6
CONTINUOUS
 10
-52.7652817107
 20
-23.8443375673
 11
-53.5167361435
 21
-23.4104851482
  0
LINE
  5
359
100
AcDbEntity
  8
0
100
AcDbLine
 62
7
  6
CONTINUOUS
 10
-52.6417361435
 20
-23.6278312164
 11
-53.5167361435
 21
-23.1226497308
  0
LINE
  5
35A
100
AcDbEntity
  8
0
100
AcDbLine
 62
250
  6
CONTINUOUS
 10
-53.5167361435
 20
-24.2500042308
 11
-52.7652817107
 21
-24.2456323968
  0
LINE
  5
35B
100
AcDbEntity
  8
0
100
AcDbLine
 62
7
  6
CONTINUOUS
 10
-46.0138272778
 20
-23.9563493531
 11
-52.5167361435
 21
-23.9941821702
  0
LINE
  5
35C
100
AcDbEntity
  8
0
100
AcDbLine
 62
7
  6
CONTINUOUS
 10
-42.0109184122
 20
-22.3330611106
 11
-53.5167361435
 21
-22.4
  0
LINE
  5
35D
100
AcDbEntity
  8
0
100
AcDbLine
 62
250
  6
CONTINUOUS
 10
-52.5167361435
 20
-24.2456323968
 11
-52.7652817107
 21
-24.2456323968
  0
LINE
  5
35E
100
AcDbEntity
  8
0
100
AcDbLine
 62
250
  6
CONTINUOUS
 10
-56.0167361435
 20
-24.2369056521
 11
-55.7681905764
 21
-24.2369056521
  0
LINE
  5
35F
100
AcDbEntity
  8
0
100
AcDbLine
 62
250
  6
CONTINUOUS
 10
-56.0167361435
 20
-23.8443375673
 11
-55.7681905764
 21
-23.8443375673
  0
LINE
  5
360
100
AcDbEntity
  8
0
100
AcDbLine
 62
250
  6
CONTINUOUS
 10
-52.5167361435
 20
-23.8443375673
 11
-52.7652817107
 21
-23.8443375673
  0
LINE
  5
361
100
AcDbEntity
  8
0
100
AcDbLine
 62
7
  6
CONTINUOUS
 10
-59.9999732126
 20
-22.0602279426
 11
-53.5167361435
 21
-22.4
  0
LINE
  5
362
100
AcDbEntity
  8
0
100
AcDbLine
 62
250
  6
CONTINUOUS
 10
-59.9825314377
 20
-21.5609131753
 11
-53.5167133001
 21
-21.8997723451
  0
LINE
  5
363
100
AcDbEntity
  8
0
100
AcDbLine
 62
250
  6
CONTINUOUS
 10
-53.5167361435
 20
-21.900016923
 11
-52.5167361435
 21
-21.8941990932
  0
LINE
  5
364
100
AcDbEntity
  8
0
100
AcDbLine
 62
7
  6
CONTINUOUS
 10
-41.0167361435
 20
-20.9
 11
-52.5167361435
 21
-20.9
  0
LINE
  5
365
100
AcDbEntity
  8
DRAFT
100
AcDbLine
 62
7
  6
CONTINUOUS
 10
-51.0167361435
 20
-20.85
 11
-41.0167361435
 21
-20.85
  0
LINE
  5
366
100
AcDbEntity
  8
ASSI
100
AcDbLine
 62
7
  6
CONTINUOUS
 10
-51.0167361435
 20
-20.85
 11
-41.0167361435
 21
-20.85
  0
LINE
  5
367
100
AcDbEntity
  8
0
100
AcDbLine
 62
7
  6
CONTINUOUS
 10
-41.5080099403
 20
-21.5921580307
 11
-52.5167361435
 21
-21.4
  0
LINE
  5
368
100
AcDbEntity
  8
RACCORDO
100
AcDbLine
 62
7
  6
CONTINUOUS
 10
-27.9992837371
 20
-19.3837586919
 11
-41.0167361435
 21
-19.6109791689
  0
LINE
  5
369
100
AcDbEntity
  8
ASSI
100
AcDbLine
 62
7
  6
CONTINUOUS
 10
-27.9992837371
 20
-19.3837586919
 11
-41.0167361435
 21
-19.6109791689
  0
LINE
  5
36A
100
AcDbEntity
  8
RACCORDO
100
AcDbLine
 62
250
  6
CONTINUOUS
 10
-27.9992837371
 20
-19.0909100822
 11
-41.0167361435
 21
-19.3181305591
  0
LINE
  5
36B
100
AcDbEntity
  8
ASSI
100
AcDbLine
 62
250
  6
CONTINUOUS
 10
-27.9992837371
 20
-19.0909100822
 11
-41.0167361435
 21
-19.3181305591
  0
LINE
  5
36C
100
AcDbEntity
  8
RACCORDO
100
AcDbLine
 62
7
  6
CONTINUOUS
 10
-52.5167361435
 20
-19.4982544935
 11
-51.6167361435
 21
-19.4825449351
  0
LINE
  5
36D
100
AcDbEntity
  8
DRAFT
100
AcDbLine
 62
7
  6
CONTINUOUS
 10
-52.5167361435
 20
-19.15
 11
-51.0167361435
 21
-19.1238174026
  0
LINE
  5
36E
100
AcDbEntity
  8
DRAFT
100
AcDbLine
 62
7
  6
CONTINUOUS
 10
-52.5167361435
 20
-18.5082905244
 11
-51.0167361435
 21
-18.4843530418
  0
LINE
  5
36F
100
AcDbEntity
  8
RACCORDO
100
AcDbLine
 62
250
  6
CONTINUOUS
 10
-51.0167361435
 20
-19.0856972195
 11
-27.9992837371
 21
-18.9192781701
  0
LINE
  5
370
100
AcDbEntity
  8
ASSI
100
AcDbLine
 62
250
  6
CONTINUOUS
 10
-51.0167361435
 20
-19.0856972195
 11
-27.9992837371
 21
-18.9192781701
  0
LINE
  5
371
100
AcDbEntity
  8
DRAFT
100
AcDbLine
 62
7
  6
CONTINUOUS
 10
-51.0167361435
 20
-19.7130903017
 11
-52.5167361435
 21
-19.7
  0
LINE
  5
372
100
AcDbEntity
  8
0
100
AcDbLine
 62
7
  6
CONTINUOUS
 10
-51.0167361435
 20
-18.0591825482
 11
-53.5167361435
 21
-18.5
  0
LINE
  5
373
100
AcDbEntity
  8
RACCORDO
100
AcDbLine
 62
250
  6
CONTINUOUS
 10
-51.0167361435
 20
-17.6716990487
 11
-27.9992837371
 21
-17.5052799993
  0
LINE
  5
374
100
AcDbEntity
  8
ASSI
100
AcDbLine
 62
250
  6
CONTINUOUS
 10
-51.0167361435
 20
-17.6716990487
 11
-27.9992837371
 21
-17.5052799993
  0
LINE
  5
375
100
AcDbEntity
  8
RACCORDO
100
AcDbLine
 62
250
  6
CONTINUOUS
 10
-27.0167361435
 20
-17.5052799993
 11
-27.9992837371
 21
-17.5052799975
  0
LINE
  5
376
100
AcDbEntity
  8
ASSI
100
AcDbLine
 62
250
  6
CONTINUOUS
 10
-27.0167361435
 20
-17.5052799993
 11
-27.9992837371
 21
-17.5052799975
  0
LINE
  5
377
100
AcDbEntity
  8
INCISIONI
100
AcDbLine
 62
7
  6
CONTINUOUS
 10
-48.4320984343
 20
15.8333653066
 11
-48.2640267409
 21
16.001437
  0
LINE
  5
378
100
AcDbEntity
  8
INCISIONI
100
AcDbLine
 62
7
  6
CONTINUOUS
 10
-48.4320984343
 20
15.6233545926
 11
-48.0540160269
 21
16.001437
  0
LINE
  5
379
100
AcDbEntity
  8
INCISIONI
100
AcDbLine
 62
7
  6
CONTINUOUS
 10
-48.3424337509
 20
15.503008562
 11
-47.8440053129
 21
16.001437
  0
LINE
  5
37A
100
AcDbEntity
  8
INCISIONI
100
AcDbLine
 62
7
  6
CONTINUOUS
 10
-48.1324240629
 20
15.503007536
 11
-47.6339945989
 21
16.001437
  0
LINE
  5
37B
100
AcDbEntity
  8
INCISIONI
100
AcDbLine
 62
7
  6
CONTINUOUS
 10
-47.9224143748
 20
15.50300651
 11
-47.4239838849
 21
16.001437
  0
LINE
  5
37C
100
AcDbEntity
  8
INCISIONI
100
AcDbLine
 62
250
  6
CONTINUOUS
 10
-48.4320984343
 20
14.166101
 11
-46.3851480977
 21
15.502999
  0
LINE
  5
37D
100
AcDbEntity
  8
INCISIONI
100
AcDbLine
 62
250
  6
CONTINUOUS
 10
-45.5338874592
 20
15.484078
 11
-47.5584966027
 21
14.165656
  0
LINE
  5
37E
100
AcDbEntity
  8
DRAFT
100
AcDbLine
 62
7
  6
CONTINUOUS
 10
-26.742882732
 20
-14.626040931
 11
-25.2905889743
 21
-14.4989816911
  0
LINE
  5
37F
100
AcDbEntity
  8
ASSI
100
AcDbLine
 62
7
  6
CONTINUOUS
 10
-26.742882732
 20
-14.626040931
 11
-25.2905889743
 21
-14.4989816911
  0
LINE
  5
380
100
AcDbEntity
  8
0
100
AcDbLine
 62
250
  6
CONTINUOUS
 10
-42.2084411435
 20
-14.068876
 11
-38.8462201435
 21
-13.774826
  0
LINE
  5
381
100
AcDbEntity
  8
0
100
AcDbLine
 62
250
  6
CONTINUOUS
 10
-29.5200106977
 20
-16.0
 11
-30.8198127014
 21
-16.0
  0
LINE
  5
382
100
AcDbEntity
  8
0
100
AcDbLine
 62
250
  6
CONTINUOUS
 10
-30.8198127014
 20
-15.2571428239
 11
-29.5200106977
 21
-15.2571428239
  0
LINE
  5
383
100
AcDbEntity
  8
0
100
AcDbLine
 62
250
  6
CONTINUOUS
 10
-36.0167361435
 20
-15.092362
 11
-37.0357481435
 21
-15.092362
  0
LINE
  5
384
100
AcDbEntity
  8
INCISIONI
100
AcDbLine
 62
250
  6
CONTINUOUS
 10
-48.4324983125
 20
-14.137714
 11
-46.4362095403
 21
-14.778839
  0
LINE
  5
385
100
AcDbEntity
  8
INCISIONI
100
AcDbLine
 62
250
  6
CONTINUOUS
 10
-45.5332506532
 20
-14.488824
 11
-48.4324983125
 21
-13.557685
  0
LINE
  5
386
100
AcDbEntity
  8
0
100
AcDbLine
 62
7
  6
CONTINUOUS
 10
-56.0167361435
 20
-24.2369056521
 11
-56.0167361435
 21
-23.8443375673
  0
LINE
  5
387
100
AcDbEntity
  8
0
100
AcDbLine
 62
7
  6
CONTINUOUS
 10
-56.0167361435
 20
23.8443375673
 11
-56.0167361435
 21
24.2369056521
  0
LINE
  5
388
100
AcDbEntity
  8
0
100
AcDbLine
 62
250
  6
CONTINUOUS
 10
-55.7681905764
 20
-24.2369056521
 11
-55.7681905764
 21
-23.8443375673
  0
LINE
  5
389
100
AcDbEntity
  8
0
100
AcDbLine
 62
250
  6
CONTINUOUS
 10
-55.7681905764
 20
23.8443375673
 11
-55.7681905764
 21
24.2369056521
  0
LINE
  5
38A
100
AcDbEntity
  8
INCISIONI
100
AcDbLine
 62
7
  6
CONTINUOUS
 10
-47.7124046868
 20
15.5030054841
 11
-47.2139731708
 21
16.001437
  0
LINE
  5
38B
100
AcDbEntity
  8
INCISIONI
100
AcDbLine
 62
7
  6
CONTINUOUS
 10
-47.5023949987
 20
15.5030044581
 11
-47.0039624568
 21
16.001437
  0
LINE
  5
38C
100
AcDbEntity
  8
INCISIONI
100
AcDbLine
 62
7
  6
CONTINUOUS
 10
-47.2923853107
 20
15.5030034321
 11
-46.7939517428
 21
16.001437
  0
LINE
  5
38D
100
AcDbEntity
  8
INCISIONI
100
AcDbLine
 62
7
  6
CONTINUOUS
 10
-48.4320984343
 20
14.1532795945
 11
-48.3951366796
 21
14.1902413492
  0
LINE
  5
38E
100
AcDbEntity
  8
INCISIONI
100
AcDbLine
 62
7
  6
CONTINUOUS
 10
-47.0823756226
 20
15.5030024062
 11
-46.5839410288
 21
16.001437
  0
LINE
  5
38F
100
AcDbEntity
  8
INCISIONI
100
AcDbLine
 62
7
  6
CONTINUOUS
 10
-48.4320984343
 20
13.9432688805
 11
-47.7897144036
 21
14.5856529112
  0
LINE
  5
390
100
AcDbEntity
  8
INCISIONI
100
AcDbLine
 62
7
  6
CONTINUOUS
 10
-46.8723659346
 20
15.5030013802
 11
-46.3739303148
 21
16.001437
  0
LINE
  5
391
100
AcDbEntity
  8
INCISIONI
100
AcDbLine
 62
7
  6
CONTINUOUS
 10
-48.4320984343
 20
13.7332581665
 11
-47.1842921275
 21
14.9810644732
  0
LINE
  5
392
100
AcDbEntity
  8
INCISIONI
100
AcDbLine
 62
7
  6
CONTINUOUS
 10
-46.6623562465
 20
15.5030003542
 11
-46.1639196008
 21
16.001437
  0
LINE
  5
393
100
AcDbEntity
  8
INCISIONI
100
AcDbLine
 62
7
  6
CONTINUOUS
 10
-48.2951358868
 20
13.66021
 11
-46.5788698515
 21
15.3764760353
  0
LINE
  5
394
100
AcDbEntity
  8
INCISIONI
100
AcDbLine
 62
7
  6
CONTINUOUS
 10
-46.4523465585
 20
15.5029993283
 11
-45.9539088868
 21
16.001437
  0
LINE
  5
395
100
AcDbEntity
  8
INCISIONI
100
AcDbLine
 62
7
  6
CONTINUOUS
 10
-48.0851251728
 20
13.66021
 11
-45.7438981728
 21
16.001437
  0
LINE
  5
396
100
AcDbEntity
  8
INCISIONI
100
AcDbLine
 62
7
  6
CONTINUOUS
 10
-47.8751144587
 20
13.66021
 11
-47.3703212975
 21
14.1650031612
  0
LINE
  5
397
100
AcDbEntity
  8
INCISIONI
100
AcDbLine
 62
7
  6
CONTINUOUS
 10
-47.0171341745
 20
14.5181902843
 11
-45.5338874592
 21
16.0014369996
  0
LINE
  5
398
100
AcDbEntity
  8
INCISIONI
100
AcDbLine
 62
7
  6
CONTINUOUS
 10
-47.6651037447
 20
13.66021
 11
-47.1610366571
 21
14.1642770876
  0
LINE
  5
399
100
AcDbEntity
  8
INCISIONI
100
AcDbLine
 62
7
  6
CONTINUOUS
 10
-46.4150421997
 20
14.9102715451
 11
-45.5338874592
 21
15.7914262856
  0
LINE
  5
39A
100
AcDbEntity
  8
INCISIONI
100
AcDbLine
 62
7
  6
CONTINUOUS
 10
-47.4550930307
 20
13.66021
 11
-46.9517520167
 21
14.163551014
  0
LINE
  5
39B
100
AcDbEntity
  8
INCISIONI
100
AcDbLine
 62
7
  6
CONTINUOUS
 10
-45.8129502249
 20
15.3023528058
 11
-45.5338874592
 21
15.5814155716
  0
LINE
  5
39C
100
AcDbEntity
  8
INCISIONI
100
AcDbLine
 62
7
  6
CONTINUOUS
 10
-47.2450823167
 20
13.66021
 11
-46.7424673764
 21
14.1628249403
  0
LINE
  5
39D
100
AcDbEntity
  8
INCISIONI
100
AcDbLine
 62
7
  6
CONTINUOUS
 10
-48.3983180108
 20
12.2969635919
 11
-47.6863037251
 21
13.0089778776
  0
LINE
  5
39E
100
AcDbEntity
  8
INCISIONI
100
AcDbLine
 62
7
  6
CONTINUOUS
 10
-47.0350716027
 20
13.66021
 11
-46.533182736
 21
14.1620988667
  0
LINE
  5
39F
100
AcDbEntity
  8
0
100
AcDbLine
 62
250
  6
CONTINUOUS
 10
-42.2084411435
 20
-13.781784
 11
-42.6030591435
 21
-13.781784
  0
LINE
  5
3A0
100
AcDbEntity
  8
0
100
AcDbLine
 62
250
  6
CONTINUOUS
 10
-29.5200106977
 20
-13.7714285493
 11
-30.8198127014
 21
-13.7714285493
  0
LINE
  5
3A1
100
AcDbEntity
  8
0
100
AcDbLine
 62
250
  6
CONTINUOUS
 10
-38.6497721435
 20
-13.718117
 11
-38.8462201435
 21
-13.718117
  0
LINE
  5
3A2
100
AcDbEntity
  8
0
100
AcDbLine
 62
250
  6
CONTINUOUS
 10
-42.6030591435
 20
-13.68241
 11
-42.2084411435
 21
-13.68241
  0
LINE
  5
3A3
100
AcDbEntity
  8
0
100
AcDbLine
 62
250
  6
CONTINUOUS
 10
-38.8462201435
 20
-13.600497
 11
-38.6497721435
 21
-13.600497
  0
LINE
  5
3A4
100
AcDbEntity
  8
0
100
AcDbLine
 62
250
  6
CONTINUOUS
 10
-41.1650151435
 20
-13.21193
 11
-41.3806511435
 21
-13.21193
  0
LINE
  5
3A5
100
AcDbEntity
  8
INCISIONI
100
AcDbLine
 62
250
  6
CONTINUOUS
 10
-48.4324983125
 20
-13.171006
 11
-45.5332436553
 21
-13.171014
  0
LINE
  5
3A6
100
AcDbEntity
  8
0
100
AcDbLine
 62
250
  6
CONTINUOUS
 10
-42.4785391435
 20
-13.156927
 11
-42.6960331435
 21
-13.156927
  0
LINE
  5
3A7
100
AcDbEntity
  8
0
100
AcDbLine
 62
250
  6
CONTINUOUS
 10
-30.6341267119
 20
-13.1214287043
 11
-29.7056967065
 21
-13.1214287043
  0
LINE
  5
3A8
100
AcDbEntity
  8
0
100
AcDbLine
 62
250
  6
CONTINUOUS
 10
-29.5200106977
 20
-12.5952380657
 11
-30.8198127014
 21
-12.5952380657
  0
LINE
  5
3A9
100
AcDbEntity
  8
INCISIONI
100
AcDbLine
 62
250
  6
CONTINUOUS
 10
-45.5332506532
 20
-12.590992
 11
-48.4324983125
 21
-12.590985
  0
LINE
  5
3AA
100
AcDbEntity
  8
0
100
AcDbLine
 62
250
  6
CONTINUOUS
 10
-42.6954751435
 20
-12.583924
 11
-42.4779811435
 21
-12.583924
  0
LINE
  5
3AB
100
AcDbEntity
  8
0
100
AcDbLine
 62
250
  6
CONTINUOUS
 10
-41.3806511435
 20
-12.38859
 11
-41.1650151435
 21
-12.38859
  0
LINE
  5
3AC
100
AcDbEntity
  8
INCISIONI
100
AcDbLine
 62
250
  6
CONTINUOUS
 10
-48.4324983125
 20
-12.010985
 11
-45.5332506532
 21
-12.010985
  0
LINE
  5
3AD
100
AcDbEntity
  8
0
100
AcDbLine
 62
7
  6
CONTINUOUS
 10
-55.0167361435
 20
-23.1226497308
 11
-55.0167361435
 21
-22.3213883311
  0
LINE
  5
3AE
100
AcDbEntity
  8
0
100
AcDbLine
 62
7
  6
CONTINUOUS
 10
-55.0167361435
 20
22.3213883311
 11
-55.0167361435
 21
23.1226497308
  0
LINE
  5
3AF
100
AcDbEntity
  8
0
100
AcDbLine
 62
250
  6
CONTINUOUS
 10
-54.7681905764
 20
-23.2669872981
 11
-54.7681905764
 21
-22.3344140523
  0
LINE
  5
3B0
100
AcDbEntity
  8
0
100
AcDbLine
 62
250
  6
CONTINUOUS
 10
-54.7681905764
 20
22.3344140523
 11
-54.7681905764
 21
23.2669872981
  0
LINE
  5
3B1
100
AcDbEntity
  8
0
100
AcDbLine
 62
7
  6
CONTINUOUS
 10
-53.5167361435
 20
21.900016923
 11
-53.5167361435
 21
18.5
  0
LINE
  5
3B2
100
AcDbEntity
  8
0
100
AcDbLine
 62
7
  6
CONTINUOUS
 10
-53.5167361435
 20
-21.900016923
 11
-53.5167361435
 21
-18.5
  0
LINE
  5
3B3
100
AcDbEntity
  8
0
100
AcDbLine
 62
7
  6
CONTINUOUS
 10
-53.5167361435
 20
-22.4
 11
-53.5167361435
 21
-24.2500042308
  0
LINE
  5
3B4
100
AcDbEntity
  8
0
100
AcDbLine
 62
7
  6
CONTINUOUS
 10
-53.5167361435
 20
22.4
 11
-53.5167361435
 21
24.2500042308
  0
LINE
  5
3B5
100
AcDbEntity
  8
INCISIONI
100
AcDbLine
 62
7
  6
CONTINUOUS
 10
-48.4764296654
 20
12.0088412233
 11
-47.3780299517
 21
13.107240937
  0
LINE
  5
3B6
100
AcDbEntity
  8
INCISIONI
100
AcDbLine
 62
7
  6
CONTINUOUS
 10
-46.8250608887
 20
13.66021
 11
-46.3238980956
 21
14.1613727931
  0
LINE
  5
3B7
100
AcDbEntity
  8
INCISIONI
100
AcDbLine
 62
7
  6
CONTINUOUS
 10
-48.4962995141
 20
11.7789606606
 11
-47.1312579811
 21
13.1440021935
  0
LINE
  5
3B8
100
AcDbEntity
  8
INCISIONI
100
AcDbLine
 62
7
  6
CONTINUOUS
 10
-46.6150501747
 20
13.66021
 11
-46.1146134552
 21
14.1606467194
  0
LINE
  5
3B9
100
AcDbEntity
  8
INCISIONI
100
AcDbLine
 62
7
  6
CONTINUOUS
 10
-48.4868384728
 20
11.5784109879
 11
-47.96768803
 21
12.0975614307
  0
LINE
  5
3BA
100
AcDbEntity
  8
INCISIONI
100
AcDbLine
 62
7
  6
CONTINUOUS
 10
-47.5530943878
 20
12.5121550728
 11
-46.9163004383
 21
13.1489490224
  0
LINE
  5
3BB
100
AcDbEntity
  8
INCISIONI
100
AcDbLine
 62
7
  6
CONTINUOUS
 10
-46.4050394607
 20
13.66021
 11
-45.9053288148
 21
14.1599206458
  0
LINE
  5
3BC
100
AcDbEntity
  8
INCISIONI
100
AcDbLine
 62
7
  6
CONTINUOUS
 10
-48.4557316095
 20
11.3995071372
 11
-48.034936951
 21
11.8203017956
  0
LINE
  5
3BD
100
AcDbEntity
  8
INCISIONI
100
AcDbLine
 62
7
  6
CONTINUOUS
 10
-47.2496396818
 20
12.6055990649
 11
-46.7236746286
 21
13.1315641181
  0
LINE
  5
3BE
100
AcDbEntity
  8
INCISIONI
100
AcDbLine
 62
7
  6
CONTINUOUS
 10
-46.1950287466
 20
13.66021
 11
-45.6960441745
 21
14.1591945722
  0
LINE
  5
3BF
100
AcDbEntity
  8
INCISIONI
100
AcDbLine
 62
7
  6
CONTINUOUS
 10
-48.4067140969
 20
11.2385139357
 11
-48.0257043859
 21
11.6195236467
  0
LINE
  5
3C0
100
AcDbEntity
  8
INCISIONI
100
AcDbLine
 62
7
  6
CONTINUOUS
 10
-47.0162765857
 20
12.628951447
 11
-46.547753137
 21
13.0974748956
  0
LINE
  5
3C1
100
AcDbEntity
  8
INCISIONI
100
AcDbLine
 62
7
  6
CONTINUOUS
 10
-45.9850180326
 20
13.66021
 11
-45.5338874592
 21
14.1113405735
  0
LINE
  5
3C2
100
AcDbEntity
  8
INCISIONI
100
AcDbLine
 62
7
  6
CONTINUOUS
 10
-48.3423058616
 20
11.092911457
 11
-47.9821015418
 21
11.4531157768
  0
LINE
  5
3C3
100
AcDbEntity
  8
INCISIONI
100
AcDbLine
 62
7
  6
CONTINUOUS
 10
-46.8147899503
 20
12.6204273683
 11
-46.3854725846
 21
13.049744734
  0
LINE
  5
3C4
100
AcDbEntity
  8
INCISIONI
100
AcDbLine
 62
7
  6
CONTINUOUS
 10
-45.7750073186
 20
13.66021
 11
-45.5338874592
 21
13.9013298595
  0
LINE
  5
3C5
100
AcDbEntity
  8
INCISIONI
100
AcDbLine
 62
7
  6
CONTINUOUS
 10
-48.2630376387
 20
10.9621689659
 11
-47.9144989926
 21
11.310707612
  0
LINE
  5
3C6
100
AcDbEntity
  8
INCISIONI
100
AcDbLine
 62
7
  6
CONTINUOUS
 10
-46.6363137803
 20
12.5888928243
 11
-46.2352826272
 21
12.9899239774
  0
LINE
  5
3C7
100
AcDbEntity
  8
INCISIONI
100
AcDbLine
 62
7
  6
CONTINUOUS
 10
-45.5649966046
 20
13.66021
 11
-45.5338874592
 21
13.6913191454
  0
LINE
  5
3C8
100
AcDbEntity
  8
INCISIONI
100
AcDbLine
 62
7
  6
CONTINUOUS
 10
-48.1711187546
 20
10.844077136
 11
-47.8249750271
 21
11.1902208635
  0
LINE
  5
3C9
100
AcDbEntity
  8
INCISIONI
100
AcDbLine
 62
7
  6
CONTINUOUS
 10
-46.4765745857
 20
12.5386213049
 11
-46.0979859007
 21
12.9172099899
  0
LINE
  5
3CA
100
AcDbEntity
  8
INCISIONI
100
AcDbLine
 62
7
  6
CONTINUOUS
 10
-48.0662599804
 20
10.7389251962
 11
-47.7123481941
 21
11.0928369825
  0
LINE
  5
3CB
100
AcDbEntity
  8
INCISIONI
100
AcDbLine
 62
7
  6
CONTINUOUS
 10
-46.3339978104
 20
12.4711873662
 11
-45.9722515674
 21
12.8329336091
  0
LINE
  5
3CC
100
AcDbEntity
  8
INCISIONI
100
AcDbLine
 62
7
  6
CONTINUOUS
 10
-48.4320984343
 20
10.1630760283
 11
-48.3402013618
 21
10.2549731007
  0
LINE
  5
3CD
100
AcDbEntity
  8
INCISIONI
100
AcDbLine
 62
7
  6
CONTINUOUS
 10
-47.9482446016
 20
10.6469298609
 11
-47.5803679182
 21
11.0148065444
  0
LINE
  5
3CE
100
AcDbEntity
  8
INCISIONI
100
AcDbLine
 62
7
  6
CONTINUOUS
 10
-46.2090922952
 20
12.3860821674
 11
-45.8591515657
 21
12.7360228969
  0
LINE
  5
3CF
100
AcDbEntity
  8
INCISIONI
100
AcDbLine
 62
7
  6
CONTINUOUS
 10
-48.4320984343
 20
9.9530653143
 11
-48.237530925
 21
10.1476328236
  0
LINE
  5
3D0
100
AcDbEntity
  8
INCISIONI
100
AcDbLine
 62
7
  6
CONTINUOUS
 10
-47.8184310435
 20
10.5667327051
 11
-47.4316247774
 21
10.9535389711
  0
LINE
  5
3D1
100
AcDbEntity
  8
INCISIONI
100
AcDbLine
 62
7
  6
CONTINUOUS
 10
-46.1046992144
 20
12.2804645342
 11
-45.7593371933
 21
12.6258265552
  0
LINE
  5
3D2
100
AcDbEntity
  8
INCISIONI
100
AcDbLine
 62
7
  6
CONTINUOUS
 10
-48.4320984343
 20
9.7430546002
 11
-48.1348604881
 21
10.0402925465
  0
LINE
  5
3D3
100
AcDbEntity
  8
INCISIONI
100
AcDbLine
 62
7
  6
CONTINUOUS
 10
-47.6757488885
 20
10.499404146
 11
-47.2649763179
 21
10.9101767167
  0
LINE
  5
3D4
100
AcDbEntity
  8
INCISIONI
100
AcDbLine
 62
7
  6
CONTINUOUS
 10
-46.0234320019
 20
12.1517210327
 11
-45.6718263837
 21
12.5033266508
  0
LINE
  5
3D5
100
AcDbEntity
  8
INCISIONI
100
AcDbLine
 62
7
  6
CONTINUOUS
 10
-48.3707277768
 20
9.5944145437
 11
-48.0321900512
 21
9.9329522693
  0
LINE
  5
3D6
100
AcDbEntity
  8
INCISIONI
100
AcDbLine
 62
7
  6
CONTINUOUS
 10
-47.5214444784
 20
10.4436978421
 11
-47.0785872209
 21
10.8865550996
  0
LINE
  5
3D7
100
AcDbEntity
  8
INCISIONI
100
AcDbLine
 62
7
  6
CONTINUOUS
 10
-45.9642334619
 20
12.0009088586
 11
-45.5984304076
 21
12.3667119129
  0
LINE
  5
3D8
100
AcDbEntity
  8
INCISIONI
100
AcDbLine
 62
7
  6
CONTINUOUS
 10
-48.2666137488
 20
9.4885178578
 11
-47.9295196143
 21
9.8256119922
  0
LINE
  5
3D9
100
AcDbEntity
  8
INCISIONI
100
AcDbLine
 62
7
  6
CONTINUOUS
 10
-47.3544704873
 20
10.4006611192
 11
-46.8670254506
 21
10.8881061559
  0
LINE
  5
3DA
100
AcDbEntity
  8
INCISIONI
100
AcDbLine
 62
7
  6
CONTINUOUS
 10
-45.9314229805
 20
11.823708626
 11
-45.5391146408
 21
12.2160169657
  0
LINE
  5
3DB
100
AcDbEntity
  8
0
100
AcDbLine
 62
7
  6
CONTINUOUS
 10
-36.5287897489
 20
16.774686601
 11
-35.7703641184
 21
17.1746194326
  0
LINE
  5
3DC
100
AcDbEntity
  8
0
100
AcDbLine
 62
250
  6
CONTINUOUS
 10
-41.4730671435
 20
-11.932113
 11
-41.8455311435
 21
-11.932113
  0
LINE
  5
3DD
100
AcDbEntity
  8
0
100
AcDbLine
 62
250
  6
CONTINUOUS
 10
-41.8455311435
 20
-11.582053
 11
-41.4730671435
 21
-11.582053
  0
LINE
  5
3DE
100
AcDbEntity
  8
INCISIONI
100
AcDbLine
 62
250
  6
CONTINUOUS
 10
-45.5332506532
 20
-11.430963
 11
-47.4451101492
 21
-11.430963
  0
LINE
  5
3DF
100
AcDbEntity
  8
0
100
AcDbLine
 62
250
  6
CONTINUOUS
 10
-37.0357481435
 20
-10.907638
 11
-36.0167361435
 21
-10.907638
  0
LINE
  5
3E0
100
AcDbEntity
  8
0
100
AcDbLine
 62
250
  6
CONTINUOUS
 10
-29.5200106977
 20
-10.3976193428
 11
-30.8198127014
 21
-10.3976193428
  0
LINE
  5
3E1
100
AcDbEntity
  8
0
100
AcDbLine
 62
250
  6
CONTINUOUS
 10
-39.2843641435
 20
-12.119407
 11
-42.1808891435
 21
-11.850161
  0
LINE
  5
3E2
100
AcDbEntity
  8
0
100
AcDbLine
 62
250
  6
CONTINUOUS
 10
-29.5200106977
 20
-14.8857142746
 11
-30.8198127014
 21
-14.5142856479
  0
LINE
  5
3E3
100
AcDbEntity
  8
INCISIONI
100
AcDbLine
 62
250
  6
CONTINUOUS
 10
-48.4324983125
 20
-10.051012
 11
-46.5444045755
 21
-10.59258
  0
LINE
  5
3E4
100
AcDbEntity
  8
INCISIONI
100
AcDbLine
 62
250
  6
CONTINUOUS
 10
-45.5332586507
 20
-10.30258
 11
-47.4451101492
 21
-9.754205
  0
LINE
  5
3E5
100
AcDbEntity
  8
0
100
AcDbLine
 62
250
  6
CONTINUOUS
 10
-52.7652817107
 20
24.2456323968
 11
-52.7652817107
 21
23.8443375673
  0
LINE
  5
3E6
100
AcDbEntity
  8
0
100
AcDbLine
 62
250
  6
CONTINUOUS
 10
-52.7652817107
 20
-23.8443375673
 11
-52.7652817107
 21
-24.2456323968
  0
LINE
  5
3E7
100
AcDbEntity
  8
0
100
AcDbLine
 62
7
  6
CONTINUOUS
 10
-52.5167361435
 20
24.2456323968
 11
-52.5167361435
 21
23.8443375673
  0
LINE
  5
3E8
100
AcDbEntity
  8
0
100
AcDbLine
 62
7
  6
CONTINUOUS
 10
-52.5167361435
 20
22.3941821702
 11
-52.5167361435
 21
21.8941990932
  0
LINE
  5
3E9
100
AcDbEntity
  8
DRAFT
100
AcDbLine
 62
7
  6
CONTINUOUS
 10
-52.5167361435
 20
21.8941990932
 11
-52.5167361435
 21
18.5082905244
  0
LINE
  5
3EA
100
AcDbEntity
  8
DRAFT
100
AcDbLine
 62
7
  6
CONTINUOUS
 10
-52.5167361435
 20
-18.5082905244
 11
-52.5167361435
 21
-21.8941990932
  0
LINE
  5
3EB
100
AcDbEntity
  8
0
100
AcDbLine
 62
7
  6
CONTINUOUS
 10
-52.5167361435
 20
-21.8941990932
 11
-52.5167361435
 21
-22.3941821702
  0
LINE
  5
3EC
100
AcDbEntity
  8
0
100
AcDbLine
 62
7
  6
CONTINUOUS
 10
-52.5167361435
 20
-23.8443375673
 11
-52.5167361435
 21
-24.2456323968
  0
LINE
  5
3ED
100
AcDbEntity
  8
RACCORDO
100
AcDbLine
 62
7
  6
CONTINUOUS
 10
-51.6167361435
 20
-19.1342904416
 11
-51.6167361435
 21
-19.4825449351
  0
LINE
  5
3EE
100
AcDbEntity
  8
INCISIONI
100
AcDbLine
 62
250
  6
CONTINUOUS
 10
-43.0338790098
 20
14.5768002449
 11
-43.339593341
 21
14.2343998367
  0
LINE
  5
3EF
100
AcDbEntity
  8
INCISIONI
100
AcDbLine
 62
250
  6
CONTINUOUS
 10
-43.951021876
 20
12.8647999184
 11
-44.2567361435
 21
12.5224000816
  0
LINE
  5
3F0
100
AcDbEntity
  8
INCISIONI
100
AcDbLine
 62
7
  6
CONTINUOUS
 10
-48.1624997207
 20
9.3826211718
 11
-47.8268491774
 21
9.7182717151
  0
LINE
  5
3F1
100
AcDbEntity
  8
INCISIONI
100
AcDbLine
 62
7
  6
CONTINUOUS
 10
-47.1728357414
 20
10.3722851511
 11
-46.6156913325
 21
10.92942956
  0
LINE
  5
3F2
100
AcDbEntity
  8
INCISIONI
100
AcDbLine
 62
7
  6
CONTINUOUS
 10
-45.9431601075
 20
11.601960785
 11
-45.4964985874
 21
12.0486223051
  0
LINE
  5
3F3
100
AcDbEntity
  8
INCISIONI
100
AcDbLine
 62
7
  6
CONTINUOUS
 10
-48.0583856927
 20
9.2767244858
 11
-47.7241787405
 21
9.6109314379
  0
LINE
  5
3F4
100
AcDbEntity
  8
INCISIONI
100
AcDbLine
 62
7
  6
CONTINUOUS
 10
-46.9724701062
 20
10.3626400723
 11
-46.1998733108
 21
11.1352368677
  0
LINE
  5
3F5
100
AcDbEntity
  8
INCISIONI
100
AcDbLine
 62
7
  6
CONTINUOUS
 10
-46.1168230868
 20
11.2182870917
 11
-45.4732339875
 21
11.861876191
  0
LINE
  5
3F6
100
AcDbEntity
  8
INCISIONI
100
AcDbLine
 62
7
  6
CONTINUOUS
 10
-47.9542716647
 20
9.1708277998
 11
-47.6215083037
 21
9.5035911608
  0
LINE
  5
3F7
100
AcDbEntity
  8
INCISIONI
100
AcDbLine
 62
7
  6
CONTINUOUS
 10
-46.7470527835
 20
10.378046681
 11
-45.4731805803
 21
11.6519188842
  0
LINE
  5
3F8
100
AcDbEntity
  8
INCISIONI
100
AcDbLine
 62
7
  6
CONTINUOUS
 10
-47.8501576366
 20
9.0649311138
 11
-47.5188378668
 21
9.3962508837
  0
LINE
  5
3F9
100
AcDbEntity
  8
INCISIONI
100
AcDbLine
 62
7
  6
CONTINUOUS
 10
-46.4826103098
 20
10.4324784406
 11
-45.5095042326
 21
11.4055845179
  0
LINE
  5
3FA
100
AcDbEntity
  8
INCISIONI
100
AcDbLine
 62
7
  6
CONTINUOUS
 10
-48.4320984343
 20
8.2729796022
 11
-48.3334938168
 21
8.3715842197
  0
LINE
  5
3FB
100
AcDbEntity
  8
INCISIONI
100
AcDbLine
 62
7
  6
CONTINUOUS
 10
-47.7460436086
 20
8.9590344279
 11
-47.4161674299
 21
9.2889106066
  0
LINE
  5
3FC
100
AcDbEntity
  8
INCISIONI
100
AcDbLine
 62
7
  6
CONTINUOUS
 10
-46.1240488556
 20
10.5810291809
 11
-45.6397808139
 21
11.0652972225
  0
LINE
  5
3FD
100
AcDbEntity
  8
INCISIONI
100
AcDbLine
 62
7
  6
CONTINUOUS
 10
-48.4320984343
 20
8.0629688881
 11
-48.1234847647
 21
8.3715825577
  0
LINE
  5
3FE
100
AcDbEntity
  8
INCISIONI
100
AcDbLine
 62
7
  6
CONTINUOUS
 10
-47.6419295806
 20
8.8531377419
 11
-47.313496993
 21
9.1815703294
  0
LINE
  5
3FF
100
AcDbEntity
  8
INCISIONI
100
AcDbLine
 62
7
  6
CONTINUOUS
 10
-48.4312186084
 20
7.853838
 11
-47.9134757127
 21
8.3715808958
  0
LINE
  5
400
100
AcDbEntity
  8
INCISIONI
100
AcDbLine
 62
7
  6
CONTINUOUS
 10
-47.5378155525
 20
8.7472410559
 11
-47.0180812544
 21
9.266975354
  0
LINE
  5
401
100
AcDbEntity
  8
INCISIONI
100
AcDbLine
 62
7
  6
CONTINUOUS
 10
-48.2212078944
 20
7.853838
 11
-47.7034666606
 21
8.3715792338
  0
LINE
  5
402
100
AcDbEntity
  8
INCISIONI
100
AcDbLine
 62
7
  6
CONTINUOUS
 10
-47.4337015245
 20
8.6413443699
 11
-46.2255351864
 21
9.849510708
  0
LINE
  5
403
100
AcDbEntity
  8
INCISIONI
100
AcDbLine
 62
7
  6
CONTINUOUS
 10
-48.0111971804
 20
7.853838
 11
-47.4934576086
 21
8.3715775718
  0
LINE
  5
404
100
AcDbEntity
  8
INCISIONI
100
AcDbLine
 62
7
  6
CONTINUOUS
 10
-47.3295874965
 20
8.5354476839
 11
-45.5338874592
 21
10.3311477212
  0
LINE
  5
405
100
AcDbEntity
  8
INCISIONI
100
AcDbLine
 62
7
  6
CONTINUOUS
 10
-48.4320984343
 20
7.2229260321
 11
-48.4169174664
 21
7.238107
  0
LINE
  5
406
100
AcDbEntity
  8
INCISIONI
100
AcDbLine
 62
7
  6
CONTINUOUS
 10
-47.8011864664
 20
7.853838
 11
-47.2834485565
 21
8.3715759099
  0
LINE
  5
407
100
AcDbEntity
  8
INCISIONI
100
AcDbLine
 62
7
  6
CONTINUOUS
 10
-47.2254734684
 20
8.429550998
 11
-45.5338874592
 21
10.1211370072
  0
LINE
  5
408
100
AcDbEntity
  8
INCISIONI
100
AcDbLine
 62
7
  6
CONTINUOUS
 10
-48.4320984343
 20
7.0129153181
 11
-48.2069067524
 21
7.238107
  0
LINE
  5
409
100
AcDbEntity
  8
INCISIONI
100
AcDbLine
 62
7
  6
CONTINUOUS
 10
-47.5911757524
 20
7.853838
 11
-46.7965070717
 21
8.6485066807
  0
LINE
  5
40A
100
AcDbEntity
  8
INCISIONI
100
AcDbLine
 62
7
  6
CONTINUOUS
 10
-46.2511898071
 20
9.1938239453
 11
-45.5338874592
 21
9.9111262932
  0
LINE
  5
40B
100
AcDbEntity
  8
INCISIONI
100
AcDbLine
 62
7
  6
CONTINUOUS
 10
-48.4320984343
 20
6.8029046041
 11
-47.9968960384
 21
7.238107
  0
LINE
  5
40C
100
AcDbEntity
  8
INCISIONI
100
AcDbLine
 62
7
  6
CONTINUOUS
 10
-47.3811650384
 20
7.853838
 11
-46.6951788034
 21
8.539824235
  0
LINE
  5
40D
100
AcDbEntity
  8
INCISIONI
100
AcDbLine
 62
7
  6
CONTINUOUS
 10
-48.3046543244
 20
6.720338
 11
-47.7868853244
 21
7.238107
  0
LINE
  5
40E
100
AcDbEntity
  8
INCISIONI
100
AcDbLine
 62
7
  6
CONTINUOUS
 10
-47.1711543244
 20
7.853838
 11
-46.5938505351
 21
8.4311417893
  0
LINE
  5
40F
100
AcDbEntity
  8
INCISIONI
100
AcDbLine
 62
7
  6
CONTINUOUS
 10
-48.0946436103
 20
6.720338
 11
-47.5768746103
 21
7.238107
  0
LINE
  5
410
100
AcDbEntity
  8
INCISIONI
100
AcDbLine
 62
7
  6
CONTINUOUS
 10
-46.9611436103
 20
7.853838
 11
-46.4434056654
 21
8.3715759449
  0
LINE
  5
411
100
AcDbEntity
  8
INCISIONI
100
AcDbLine
 62
250
  6
CONTINUOUS
 10
-47.2395117907
 20
9.10422
 11
-45.5338874592
 21
10.357884
  0
LINE
  5
412
100
AcDbEntity
  8
INCISIONI
100
AcDbLine
 62
250
  6
CONTINUOUS
 10
-45.5338874592
 20
9.706581
 11
-46.8835052586
 21
8.741819
  0
LINE
  5
413
100
AcDbEntity
  8
INCISIONI
100
AcDbLine
 62
250
  6
CONTINUOUS
 10
-43.951021876
 20
10.8104000408
 11
-43.6453076085
 21
10.9815999592
  0
LINE
  5
414
100
AcDbEntity
  8
INCISIONI
100
AcDbLine
 62
250
  6
CONTINUOUS
 10
-42.4224504429
 20
9.9544000204
 11
-42.7281647423
 21
9.7831999592
  0
LINE
  5
415
100
AcDbEntity
  8
0
100
AcDbLine
 62
250
  6
CONTINUOUS
 10
-61.4352944583
 20
-9.4905
 11
-61.9264779946
 21
-9.5
  0
LINE
  5
416
100
AcDbEntity
  8
0
100
AcDbLine
 62
250
  6
CONTINUOUS
 10
-29.5200106977
 20
-9.8095238686
 11
-30.8198127014
 21
-9.8095238686
  0
LINE
  5
417
100
AcDbEntity
  8
INCISIONI
100
AcDbLine
 62
250
  6
CONTINUOUS
 10
-47.4451101492
 20
-9.754205
 11
-45.5332506532
 21
-9.754197
  0
LINE
  5
418
100
AcDbEntity
  8
INCISIONI
100
AcDbLine
 62
250
  6
CONTINUOUS
 10
-45.5332506532
 20
-9.174176
 11
-48.4324983125
 21
-9.174176
  0
LINE
  5
419
100
AcDbEntity
  8
0
100
AcDbLine
 62
250
  6
CONTINUOUS
 10
-29.5200106977
 20
-9.1595238686
 11
-30.8198127014
 21
-9.1595238686
  0
LINE
  5
41A
100
AcDbEntity
  8
0
100
AcDbLine
 62
250
  6
CONTINUOUS
 10
-32.2053159444
 20
-8.5
 11
-33.1337459498
 21
-8.5
  0
LINE
  5
41B
100
AcDbEntity
  8
INCISIONI
100
AcDbLine
 62
250
  6
CONTINUOUS
 10
-45.5332506532
 20
-8.787497
 11
-48.4325053103
 21
-7.856372
  0
LINE
  5
41C
100
AcDbEntity
  8
INCISIONI
100
AcDbLine
 62
250
  6
CONTINUOUS
 10
-46.1034129365
 20
-8.024362
 11
-45.5332586507
 21
-8.207475
  0
LINE
  5
41D
100
AcDbEntity
  8
INCISIONI
100
AcDbLine
 62
250
  6
CONTINUOUS
 10
-47.5295394253
 20
-7.56635
 11
-46.6542671027
 21
-7.84744
  0
LINE
  5
41E
100
AcDbEntity
  8
0
100
AcDbLine
 62
250
  6
CONTINUOUS
 10
-30.0770687048
 20
-15.628571412
 11
-30.8198127014
 21
-15.2571428239
  0
LINE
  5
41F
100
AcDbEntity
  8
DRAFT
100
AcDbLine
 62
7
  6
CONTINUOUS
 10
-51.0167361435
 20
18.8437987158
 11
-51.0167361435
 21
18.0591825482
  0
LINE
  5
420
100
AcDbEntity
  8
0
100
AcDbLine
 62
7
  6
CONTINUOUS
 10
-51.0167361435
 20
18.0591825482
 11
-51.0167361435
 21
-18.0591825482
  0
LINE
  5
421
100
AcDbEntity
  8
DRAFT
100
AcDbLine
 62
7
  6
CONTINUOUS
 10
-51.0167361435
 20
-18.0591825482
 11
-51.0167361435
 21
-18.8437987158
  0
LINE
  5
422
100
AcDbEntity
  8
RACCORDO
100
AcDbLine
 62
7
  6
CONTINUOUS
 10
-51.0167361435
 20
-20.85
 11
-51.0167361435
 21
-18.8437987158
  0
LINE
  5
423
100
AcDbEntity
  8
ASSI
100
AcDbLine
 62
7
  6
CONTINUOUS
 10
-51.0167361435
 20
-20.85
 11
-51.0167361435
 21
-18.8437987158
  0
LINE
  5
424
100
AcDbEntity
  8
RACCORDO
100
AcDbLine
 62
7
  6
CONTINUOUS
 10
-51.0167361435
 20
18.8437987158
 11
-51.0167361435
 21
20.85
  0
LINE
  5
425
100
AcDbEntity
  8
ASSI
100
AcDbLine
 62
7
  6
CONTINUOUS
 10
-51.0167361435
 20
18.8437987158
 11
-51.0167361435
 21
20.85
  0
LINE
  5
426
100
AcDbEntity
  8
INCISIONI
100
AcDbLine
 62
250
  6
CONTINUOUS
 10
-44.2567361435
 20
10.4679999184
 11
-43.951021876
 21
10.8104000408
  0
LINE
  5
427
100
AcDbEntity
  8
INCISIONI
100
AcDbLine
 62
250
  6
CONTINUOUS
 10
-43.951021876
 20
9.0984
 11
-44.2567361435
 21
8.7560000204
  0
LINE
  5
428
100
AcDbEntity
  8
INCISIONI
100
AcDbLine
 62
7
  6
CONTINUOUS
 10
-47.8846328963
 20
6.720338
 11
-47.3668638963
 21
7.238107
  0
LINE
  5
429
100
AcDbEntity
  8
INCISIONI
100
AcDbLine
 62
7
  6
CONTINUOUS
 10
-46.7511328963
 20
7.853838
 11
-46.2333928606
 21
8.3715780358
  0
LINE
  5
42A
100
AcDbEntity
  8
INCISIONI
100
AcDbLine
 62
7
  6
CONTINUOUS
 10
-48.4320984343
 20
5.962861748
 11
-48.3089471823
 21
6.086013
  0
LINE
  5
42B
100
AcDbEntity
  8
INCISIONI
100
AcDbLine
 62
7
  6
CONTINUOUS
 10
-47.6746221823
 20
6.720338
 11
-47.1568531823
 21
7.238107
  0
LINE
  5
42C
100
AcDbEntity
  8
INCISIONI
100
AcDbLine
 62
7
  6
CONTINUOUS
 10
-46.5411221823
 20
7.853838
 11
-46.0233800557
 21
8.3715801266
  0
LINE
  5
42D
100
AcDbEntity
  8
INCISIONI
100
AcDbLine
 62
7
  6
CONTINUOUS
 10
-48.4320984343
 20
5.752851034
 11
-48.0989364683
 21
6.086013
  0
LINE
  5
42E
100
AcDbEntity
  8
INCISIONI
100
AcDbLine
 62
7
  6
CONTINUOUS
 10
-47.4646114683
 20
6.720338
 11
-46.9468424683
 21
7.238107
  0
LINE
  5
42F
100
AcDbEntity
  8
INCISIONI
100
AcDbLine
 62
7
  6
CONTINUOUS
 10
-46.3311114683
 20
7.853838
 11
-45.8133672508
 21
8.3715822175
  0
LINE
  5
430
100
AcDbEntity
  8
INCISIONI
100
AcDbLine
 62
7
  6
CONTINUOUS
 10
-48.4320984343
 20
5.54284032
 11
-47.9721189065
 21
6.0028198478
  0
LINE
  5
431
100
AcDbEntity
  8
INCISIONI
100
AcDbLine
 62
7
  6
CONTINUOUS
 10
-47.2546007543
 20
6.720338
 11
-46.7368317543
 21
7.238107
  0
LINE
  5
432
100
AcDbEntity
  8
INCISIONI
100
AcDbLine
 62
7
  6
CONTINUOUS
 10
-46.1211007543
 20
7.853838
 11
-45.6033544459
 21
8.3715843084
  0
LINE
  5
433
100
AcDbEntity
  8
INCISIONI
100
AcDbLine
 62
7
  6
CONTINUOUS
 10
-48.4320984343
 20
5.332829606
 11
-47.9721197292
 21
5.7928083111
  0
LINE
  5
434
100
AcDbEntity
  8
INCISIONI
100
AcDbLine
 62
7
  6
CONTINUOUS
 10
-47.0445900403
 20
6.720338
 11
-46.5268210403
 21
7.238107
  0
LINE
  5
435
100
AcDbEntity
  8
INCISIONI
100
AcDbLine
 62
7
  6
CONTINUOUS
 10
-45.9110900403
 20
7.853838
 11
-45.5338874592
 21
8.2310405811
  0
LINE
  5
436
100
AcDbEntity
  8
INCISIONI
100
AcDbLine
 62
7
  6
CONTINUOUS
 10
-48.4320984343
 20
5.122818892
 11
-47.9721205519
 21
5.5827967744
  0
LINE
  5
437
100
AcDbEntity
  8
INCISIONI
100
AcDbLine
 62
7
  6
CONTINUOUS
 10
-46.8345793263
 20
6.720338
 11
-46.3168103263
 21
7.238107
  0
LINE
  5
438
100
AcDbEntity
  8
INCISIONI
100
AcDbLine
 62
7
  6
CONTINUOUS
 10
-45.7010793263
 20
7.853838
 11
-45.5338874592
 21
8.0210298671
  0
LINE
  5
439
100
AcDbEntity
  8
INCISIONI
100
AcDbLine
 62
7
  6
CONTINUOUS
 10
-48.4320984343
 20
4.912808178
 11
-47.9721213746
 21
5.3727852377
  0
LINE
  5
43A
100
AcDbEntity
  8
INCISIONI
100
AcDbLine
 62
7
  6
CONTINUOUS
 10
-46.6245686123
 20
6.720338
 11
-46.1067996123
 21
7.238107
  0
LINE
  5
43B
100
AcDbEntity
  8
INCISIONI
100
AcDbLine
 62
7
  6
CONTINUOUS
 10
-48.4320984343
 20
4.702797464
 11
-47.9721221973
 21
5.162773701
  0
LINE
  5
43C
100
AcDbEntity
  8
INCISIONI
100
AcDbLine
 62
7
  6
CONTINUOUS
 10
-47.2514648404
 20
5.8834310579
 11
-47.1527688982
 21
5.982127
  0
LINE
  5
43D
100
AcDbEntity
  8
INCISIONI
100
AcDbLine
 62
7
  6
CONTINUOUS
 10
-46.4145578982
 20
6.720338
 11
-45.8967888982
 21
7.238107
  0
LINE
  5
43E
100
AcDbEntity
  8
INCISIONI
100
AcDbLine
 62
7
  6
CONTINUOUS
 10
-48.4320984343
 20
4.4927867499
 11
-47.97212302
 21
4.9527621643
  0
LINE
  5
43F
100
AcDbEntity
  8
INCISIONI
100
AcDbLine
 62
7
  6
CONTINUOUS
 10
-47.2514663113
 20
5.6734188729
 11
-46.9427581842
 21
5.982127
  0
LINE
  5
440
100
AcDbEntity
  8
INCISIONI
100
AcDbLine
 62
7
  6
CONTINUOUS
 10
-46.2045471842
 20
6.720338
 11
-45.6867781842
 21
7.238107
  0
LINE
  5
441
100
AcDbEntity
  8
INCISIONI
100
AcDbLine
 62
7
  6
CONTINUOUS
 10
-48.4320984343
 20
4.2827760359
 11
-47.9721238427
 21
4.7427506276
  0
LINE
  5
442
100
AcDbEntity
  8
INCISIONI
100
AcDbLine
 62
7
  6
CONTINUOUS
 10
-47.2514677823
 20
5.4634066879
 11
-46.7914738872
 21
5.9234005831
  0
LINE
  5
443
100
AcDbEntity
  8
INCISIONI
100
AcDbLine
 62
7
  6
CONTINUOUS
 10
-45.9945364702
 20
6.720338
 11
-45.5338874592
 21
7.1809870111
  0
LINE
  5
444
100
AcDbEntity
  8
INCISIONI
100
AcDbLine
 62
7
  6
CONTINUOUS
 10
-48.4320984343
 20
4.0727653219
 11
-47.9500317562
 21
4.554832
  0
LINE
  5
445
100
AcDbEntity
  8
INCISIONI
100
AcDbLine
 62
7
  6
CONTINUOUS
 10
-47.2514692532
 20
5.253394503
 11
-46.7914724162
 21
5.71339134
  0
LINE
  5
446
100
AcDbEntity
  8
INCISIONI
100
AcDbLine
 62
7
  6
CONTINUOUS
 10
-45.7845257562
 20
6.720338
 11
-45.5338874592
 21
6.970976297
  0
LINE
  5
447
100
AcDbEntity
  8
INCISIONI
100
AcDbLine
 62
7
  6
CONTINUOUS
 10
-48.2577590422
 20
4.037094
 11
-47.7400210422
 21
4.554832
  0
LINE
  5
448
100
AcDbEntity
  8
INCISIONI
100
AcDbLine
 62
7
  6
CONTINUOUS
 10
-47.2514707242
 20
5.043382318
 11
-46.7914709453
 21
5.5033820969
  0
LINE
  5
449
100
AcDbEntity
  8
INCISIONI
100
AcDbLine
 62
7
  6
CONTINUOUS
 10
-45.5745150422
 20
6.720338
 11
-45.5338874592
 21
6.760965583
  0
LINE
  5
44A
100
AcDbEntity
  8
INCISIONI
100
AcDbLine
 62
7
  6
CONTINUOUS
 10
-48.0477483282
 20
4.037094
 11
-47.5300103282
 21
4.554832
  0
LINE
  5
44B
100
AcDbEntity
  8
INCISIONI
100
AcDbLine
 62
7
  6
CONTINUOUS
 10
-47.2514721951
 20
4.833370133
 11
-46.7914694744
 21
5.2933728538
  0
LINE
  5
44C
100
AcDbEntity
  8
INCISIONI
100
AcDbLine
 62
7
  6
CONTINUOUS
 10
-45.9938672435
 20
6.0909750847
 11
-45.9871763282
 21
6.097666
  0
LINE
  5
44D
100
AcDbEntity
  8
INCISIONI
100
AcDbLine
 62
7
  6
CONTINUOUS
 10
-47.8377376142
 20
4.037094
 11
-47.3199996142
 21
4.554832
  0
LINE
  5
44E
100
AcDbEntity
  8
INCISIONI
100
AcDbLine
 62
7
  6
CONTINUOUS
 10
-47.2514736661
 20
4.6233579481
 11
-46.7914680034
 21
5.0833636107
  0
LINE
  5
44F
100
AcDbEntity
  8
INCISIONI
100
AcDbLine
 62
7
  6
CONTINUOUS
 10
-45.9938650662
 20
5.8809665479
 11
-45.7771656142
 21
6.097666
  0
LINE
  5
450
100
AcDbEntity
  8
0
100
AcDbLine
 62
250
  6
CONTINUOUS
 10
-32.7623739709
 20
-7.85
 11
-32.0196299355
 21
-7.85
  0
LINE
  5
451
100
AcDbEntity
  8
0
100
AcDbLine
 62
250
  6
CONTINUOUS
 10
-29.5200106977
 20
-7.5190477371
 11
-30.8198127014
 21
-7.5190477371
  0
LINE
  5
452
100
AcDbEntity
  8
0
100
AcDbLine
 62
250
  6
CONTINUOUS
 10
-32.0196299355
 20
-7.4785714507
 11
-33.3194319392
 21
-7.4785714507
  0
LINE
  5
453
100
AcDbEntity
  8
0
100
AcDbLine
 62
250
  6
CONTINUOUS
 10
-33.1337459498
 20
-6.9214285493
 11
-32.8552169269
 21
-6.9214285493
  0
LINE
  5
454
100
AcDbEntity
  8
0
100
AcDbLine
 62
250
  6
CONTINUOUS
 10
-32.4838449479
 20
-6.8285714507
 11
-32.2053159444
 21
-6.8285714507
  0
LINE
  5
455
100
AcDbEntity
  8
0
100
AcDbLine
 62
250
  6
CONTINUOUS
 10
-29.5200106977
 20
-6.5595238686
 11
-30.8198127014
 21
-6.5595238686
  0
LINE
  5
456
100
AcDbEntity
  8
INCISIONI
100
AcDbLine
 62
250
  6
CONTINUOUS
 10
-45.5332586507
 20
-5.958503
 11
-48.4325053103
 21
-5.958503
  0
LINE
  5
457
100
AcDbEntity
  8
DRAFT
100
AcDbLine
 62
7
  6
CONTINUOUS
 10
-26.7428827803
 20
-8.4739590648
 11
-25.2905892137
 21
-8.6010182879
  0
LINE
  5
458
100
AcDbEntity
  8
ASSI
100
AcDbLine
 62
7
  6
CONTINUOUS
 10
-26.7428827803
 20
-8.4739590648
 11
-25.2905892137
 21
-8.6010182879
  0
LINE
  5
459
100
AcDbEntity
  8
0
100
AcDbLine
 62
250
  6
CONTINUOUS
 10
-38.1064581435
 20
-15.375622
 11
-43.1167361435
 21
-10.43899
  0
LINE
  5
45A
100
AcDbEntity
  8
INCISIONI
100
AcDbLine
 62
250
  6
CONTINUOUS
 10
-48.4325053103
 20
-7.856372
 11
-48.4325053103
 21
-7.276321
  0
LINE
  5
45B
100
AcDbEntity
  8
INCISIONI
100
AcDbLine
 62
250
  6
CONTINUOUS
 10
-48.4325053103
 20
-5.958503
 11
-48.4325053103
 21
-4.600288
  0
LINE
  5
45C
100
AcDbEntity
  8
INCISIONI
100
AcDbLine
 62
250
  6
CONTINUOUS
 10
-48.4324983125
 20
-9.174176
 11
-48.4324983125
 21
-10.051012
  0
LINE
  5
45D
100
AcDbEntity
  8
INCISIONI
100
AcDbLine
 62
250
  6
CONTINUOUS
 10
-48.4324983125
 20
-11.134148
 11
-48.4324983125
 21
-12.010985
  0
LINE
  5
45E
100
AcDbEntity
  8
INCISIONI
100
AcDbLine
 62
250
  6
CONTINUOUS
 10
-48.4324983125
 20
-12.590985
 11
-48.4324983125
 21
-13.171006
  0
LINE
  5
45F
100
AcDbEntity
  8
INCISIONI
100
AcDbLine
 62
250
  6
CONTINUOUS
 10
-48.4324983125
 20
-13.557685
 11
-48.4324983125
 21
-14.137714
  0
LINE
  5
460
100
AcDbEntity
  8
INCISIONI
100
AcDbLine
 62
250
  6
CONTINUOUS
 10
-48.4324983125
 20
-15.419971
 11
-48.4324983125
 21
-16.0
  0
LINE
  5
461
100
AcDbEntity
  8
INCISIONI
100
AcDbLine
 62
250
  6
CONTINUOUS
 10
-48.4320984343
 20
4.037094
 11
-48.4320984343
 21
6.086013
  0
LINE
  5
462
100
AcDbEntity
  8
INCISIONI
100
AcDbLine
 62
250
  6
CONTINUOUS
 10
-48.4320984343
 20
6.720338
 11
-48.4320984343
 21
7.238107
  0
LINE
  5
463
100
AcDbEntity
  8
INCISIONI
100
AcDbLine
 62
250
  6
CONTINUOUS
 10
-48.4320984343
 20
7.853838
 11
-48.4320984343
 21
8.371585
  0
LINE
  5
464
100
AcDbEntity
  8
INCISIONI
100
AcDbLine
 62
250
  6
CONTINUOUS
 10
-48.4320984343
 20
9.656836
 11
-48.4320984343
 21
10.35105
  0
LINE
  5
465
100
AcDbEntity
  8
INCISIONI
100
AcDbLine
 62
250
  6
CONTINUOUS
 10
-48.4320984343
 20
13.66021
 11
-48.4320984343
 21
14.166101
  0
LINE
  5
466
100
AcDbEntity
  8
INCISIONI
100
AcDbLine
 62
250
  6
CONTINUOUS
 10
-48.4320984343
 20
15.503009
 11
-48.4320984343
 21
16.001437
  0
LINE
  5
467
100
AcDbEntity
  8
INCISIONI
100
AcDbLine
 62
250
  6
CONTINUOUS
 10
-47.9721185806
 20
6.086013
 11
-47.9721245788
 21
4.554832
  0
LINE
  5
468
100
AcDbEntity
  8
INCISIONI
100
AcDbLine
 62
250
  6
CONTINUOUS
 10
-47.8961467277
 20
-4.680792
 11
-47.8961467277
 21
-5.386478
  0
LWPOLYLINE
  5
469
100
AcDbEntity
  8
0
100
AcDbPolyline
 62
7
  6
CONTINUOUS
 90
3
 70
0
 43
0.3500000006
 10
-37.6238785172
 20
35.5357125092
 10
-37.6953074341
 20
35.3214280243
 10
-37.8381652679
 20
35.0357123566
  0
LINE
  5
46A
100
AcDbEntity
  8
INCISIONI
100
AcDbLine
 62
250
  6
CONTINUOUS
 10
-42.1167361435
 20
10.2968
 11
-42.4224504429
 21
9.9544000204
  0
LINE
  5
46B
100
AcDbEntity
  8
INCISIONI
100
AcDbLine
 62
7
  6
CONTINUOUS
 10
-47.6277269002
 20
4.037094
 11
-46.7914665325
 21
4.8733543676
  0
LINE
  5
46C
100
AcDbEntity
  8
INCISIONI
100
AcDbLine
 62
7
  6
CONTINUOUS
 10
-45.993862889
 20
5.6709580112
 11
-45.5671549002
 21
6.097666
  0
LINE
  5
46D
100
AcDbEntity
  8
INCISIONI
100
AcDbLine
 62
7
  6
CONTINUOUS
 10
-47.4177161861
 20
4.037094
 11
-46.7914650616
 21
4.6633451246
  0
LINE
  5
46E
100
AcDbEntity
  8
INCISIONI
100
AcDbLine
 62
7
  6
CONTINUOUS
 10
-45.9938607117
 20
5.4609494744
 11
-45.5338874592
 21
5.920922727
  0
LINE
  5
46F
100
AcDbEntity
  8
INCISIONI
100
AcDbLine
 62
7
  6
CONTINUOUS
 10
-47.2077054721
 20
4.037094
 11
-46.6899674721
 21
4.554832
  0
LINE
  5
470
100
AcDbEntity
  8
INCISIONI
100
AcDbLine
 62
7
  6
CONTINUOUS
 10
-45.9938585345
 20
5.2509409376
 11
-45.5338874592
 21
5.710912013
  0
LINE
  5
471
100
AcDbEntity
  8
INCISIONI
100
AcDbLine
 62
7
  6
CONTINUOUS
 10
-46.9976947581
 20
4.037094
 11
-46.4799567581
 21
4.554832
  0
LINE
  5
472
100
AcDbEntity
  8
INCISIONI
100
AcDbLine
 62
7
  6
CONTINUOUS
 10
-45.9938563573
 20
5.0409324008
 11
-45.5338874592
 21
5.500901299
  0
LINE
  5
473
100
AcDbEntity
  8
INCISIONI
100
AcDbLine
 62
7
  6
CONTINUOUS
 10
-46.7876840441
 20
4.037094
 11
-46.2699460441
 21
4.554832
  0
LINE
  5
474
100
AcDbEntity
  8
INCISIONI
100
AcDbLine
 62
7
  6
CONTINUOUS
 10
-45.99385418
 20
4.8309238641
 11
-45.5338874592
 21
5.2908905849
  0
LINE
  5
475
100
AcDbEntity
  8
INCISIONI
100
AcDbLine
 62
7
  6
CONTINUOUS
 10
-46.5776733301
 20
4.037094
 11
-46.0599353301
 21
4.554832
  0
LINE
  5
476
100
AcDbEntity
  8
INCISIONI
100
AcDbLine
 62
7
  6
CONTINUOUS
 10
-45.9938520028
 20
4.6209153273
 11
-45.5338874592
 21
5.0808798709
  0
LINE
  5
477
100
AcDbEntity
  8
INCISIONI
100
AcDbLine
 62
7
  6
CONTINUOUS
 10
-46.3676626161
 20
4.037094
 11
-45.5338874592
 21
4.8708691569
  0
LINE
  5
478
100
AcDbEntity
  8
INCISIONI
100
AcDbLine
 62
7
  6
CONTINUOUS
 10
-46.1576519021
 20
4.037094
 11
-45.5338874592
 21
4.6608584429
  0
LINE
  5
479
100
AcDbEntity
  8
INCISIONI
100
AcDbLine
 62
7
  6
CONTINUOUS
 10
-45.9476411881
 20
4.037094
 11
-45.5338874592
 21
4.4508477289
  0
LINE
  5
47A
100
AcDbEntity
  8
INCISIONI
100
AcDbLine
 62
7
  6
CONTINUOUS
 10
-45.737630474
 20
4.037094
 11
-45.5338874592
 21
4.2408370149
  0
LINE
  5
47B
100
AcDbEntity
  8
INCISIONI
100
AcDbLine
 62
250
  6
CONTINUOUS
 10
-47.8961467277
 20
-5.386478
 11
-47.1906326832
 21
-5.386471
  0
LINE
  5
47C
100
AcDbEntity
  8
0
100
AcDbLine
 62
250
  6
CONTINUOUS
 10
-42.5539421435
 20
-5.26459
 11
-41.7834161435
 21
-5.26459
  0
LINE
  5
47D
100
AcDbEntity
  8
0
100
AcDbLine
 62
250
  6
CONTINUOUS
 10
-38.2500321435
 20
-5.26459
 11
-37.4795061435
 21
-5.26459
  0
LINE
  5
47E
100
AcDbEntity
  8
0
100
AcDbLine
 62
250
  6
CONTINUOUS
 10
-32.0196299355
 20
-5.0952380657
 11
-33.3194319392
 21
-5.0952380657
  0
LINE
  5
47F
100
AcDbEntity
  8
0
100
AcDbLine
 62
250
  6
CONTINUOUS
 10
-30.8198127014
 20
-4.7023806572
 11
-29.5200106977
 21
-4.7023806572
  0
LINE
  5
480
100
AcDbEntity
  8
INCISIONI
100
AcDbLine
 62
250
  6
CONTINUOUS
 10
-46.6542741006
 20
-5.378409
 11
-45.5332586507
 21
-5.378474
  0
LINE
  5
481
100
AcDbEntity
  8
INCISIONI
100
AcDbLine
 62
250
  6
CONTINUOUS
 10
-47.2514741461
 20
4.554832
 11
-47.2514641491
 21
5.982127
  0
LINE
  5
482
100
AcDbEntity
  8
INCISIONI
100
AcDbLine
 62
250
  6
CONTINUOUS
 10
-47.1906326832
 20
-5.386471
 11
-47.1906326832
 21
-4.680792
  0
LINE
  5
483
100
AcDbEntity
  8
INCISIONI
100
AcDbLine
 62
250
  6
CONTINUOUS
 10
-46.7914742985
 20
5.982127
 11
-46.7914643015
 21
4.554832
  0
LINE
  5
484
100
AcDbEntity
  8
INCISIONI
100
AcDbLine
 62
250
  6
CONTINUOUS
 10
-46.6542671027
 20
-7.84744
 11
-46.6542671027
 21
-7.285246
  0
LINE
  5
485
100
AcDbEntity
  8
INCISIONI
100
AcDbLine
 62
250
  6
CONTINUOUS
 10
-46.6542671027
 20
-4.872178
 11
-46.6542741006
 21
-5.378409
  0
LINE
  5
486
100
AcDbEntity
  8
INCISIONI
100
AcDbLine
 62
250
  6
CONTINUOUS
 10
-46.1034129365
 20
-7.108317
 11
-46.1034129365
 21
-8.024362
  0
LINE
  5
487
100
AcDbEntity
  8
0
100
AcDbLine
 62
7
  6
CONTINUOUS
 10
-46.0167361435
 20
-23.4413184673
 11
-46.0167361435
 21
-22.8586815327
  0
LINE
  5
488
100
AcDbEntity
  8
0
100
AcDbLine
 62
7
  6
CONTINUOUS
 10
-46.0167361435
 20
22.8586815327
 11
-46.0167361435
 21
23.4413184673
  0
LINE
  5
489
100
AcDbEntity
  8
INCISIONI
100
AcDbLine
 62
250
  6
CONTINUOUS
 10
-45.9938513177
 20
4.554832
 11
-45.9938673128
 21
6.097666
  0
LINE
  5
48A
100
AcDbEntity
  8
0
100
AcDbLine
 62
250
  6
CONTINUOUS
 10
-45.9671431727
 20
-23.9538922731
 11
-45.9671431727
 21
-22.356077753
  0
LINE
  5
48B
100
AcDbEntity
  8
0
100
AcDbLine
 62
250
  6
CONTINUOUS
 10
-45.9671431727
 20
22.356077753
 11
-45.9671431727
 21
23.9538922731
  0
LINE
  5
48C
100
AcDbEntity
  8
INCISIONI
100
AcDbLine
 62
250
  6
CONTINUOUS
 10
-45.5338874592
 20
16.001437
 11
-45.5338874592
 21
15.484078
  0
LINE
  5
48D
100
AcDbEntity
  8
INCISIONI
100
AcDbLine
 62
250
  6
CONTINUOUS
 10
-45.5338874592
 20
14.158632
 11
-45.5338874592
 21
13.66021
  0
LINE
  5
48E
100
AcDbEntity
  8
INCISIONI
100
AcDbLine
 62
250
  6
CONTINUOUS
 10
-45.5338874592
 20
10.357884
 11
-45.5338874592
 21
9.706581
  0
LINE
  5
48F
100
AcDbEntity
  8
INCISIONI
100
AcDbLine
 62
250
  6
CONTINUOUS
 10
-45.5338874592
 20
8.371585
 11
-45.5338874592
 21
7.853838
  0
LINE
  5
490
100
AcDbEntity
  8
INCISIONI
100
AcDbLine
 62
250
  6
CONTINUOUS
 10
-45.5338874592
 20
7.238107
 11
-45.5338874592
 21
6.720338
  0
LINE
  5
491
100
AcDbEntity
  8
INCISIONI
100
AcDbLine
 62
250
  6
CONTINUOUS
 10
-45.5338874592
 20
6.097666
 11
-45.5338874592
 21
4.037094
  0
LINE
  5
492
100
AcDbEntity
  8
INCISIONI
100
AcDbLine
 62
250
  6
CONTINUOUS
 10
-45.5332436553
 20
-15.068868
 11
-45.5332506532
 21
-14.488824
  0
LINE
  5
493
100
AcDbEntity
  8
INCISIONI
100
AcDbLine
 62
250
  6
CONTINUOUS
 10
-45.5332436553
 20
-13.171014
 11
-45.5332506532
 21
-12.590992
  0
LINE
  5
494
100
AcDbEntity
  8
INCISIONI
100
AcDbLine
 62
250
  6
CONTINUOUS
 10
-45.5332506532
 20
-10.882587
 11
-45.5332586507
 21
-10.30258
  0
LINE
  5
495
100
AcDbEntity
  8
INCISIONI
100
AcDbLine
 62
250
  6
CONTINUOUS
 10
-45.5332586507
 20
-8.207475
 11
-45.5332506532
 21
-8.787497
  0
LINE
  5
496
100
AcDbEntity
  8
INCISIONI
100
AcDbLine
 62
250
  6
CONTINUOUS
 10
-45.5332656486
 20
-3.637619
 11
-45.5332586507
 21
-4.290924
  0
LINE
  5
497
100
AcDbEntity
  8
INCISIONI
100
AcDbLine
 62
250
  6
CONTINUOUS
 10
-45.5332586507
 20
-5.378474
 11
-45.5332586507
 21
-5.958503
  0
LINE
  5
498
100
AcDbEntity
  8
INCISIONI
100
AcDbLine
 62
250
  6
CONTINUOUS
 10
-45.5332506532
 20
-12.010985
 11
-45.5332506532
 21
-11.430963
  0
LINE
  5
499
100
AcDbEntity
  8
INCISIONI
100
AcDbLine
 62
250
  6
CONTINUOUS
 10
-45.5332506532
 20
-9.754197
 11
-45.5332506532
 21
-9.174176
  0
LINE
  5
49A
100
AcDbEntity
  8
INCISIONI
100
AcDbLine
 62
250
  6
CONTINUOUS
 10
-45.5332506532
 20
-6.345182
 11
-45.5332586507
 21
-6.925211
  0
LINE
  5
49B
100
AcDbEntity
  8
0
100
AcDbLine
 62
7
  6
CONTINUOUS
 10
-45.5167361435
 20
-23.4563578147
 11
-45.5167361435
 21
-22.3534581278
  0
LINE
  5
49C
100
AcDbEntity
  8
0
100
AcDbLine
 62
7
  6
CONTINUOUS
 10
-45.5167361435
 20
22.3534581278
 11
-45.5167361435
 21
23.4563578147
  0
LINE
  5
49D
100
AcDbEntity
  8
0
100
AcDbLine
 62
250
  6
CONTINUOUS
 10
-30.262754733
 20
-3.4952386856
 11
-29.5200106977
 21
-3.4952386856
  0
LINE
  5
49E
100
AcDbEntity
  8
0
100
AcDbLine
 62
250
  6
CONTINUOUS
 10
-32.9480599603
 20
-2.6809522629
 11
-33.1337459498
 21
-2.6809522629
  0
LINE
  5
49F
100
AcDbEntity
  8
0
100
AcDbLine
 62
250
  6
CONTINUOUS
 10
-32.3910019532
 20
-2.3095238686
 11
-32.9480599603
 21
-2.3095238686
  0
LINE
  5
4A0
100
AcDbEntity
  8
INCISIONI
100
AcDbLine
 62
250
  6
CONTINUOUS
 10
-44.2567361435
 20
12.5224000816
 11
-44.2567361435
 21
12.0088000408
  0
LINE
  5
4A1
100
AcDbEntity
  8
INCISIONI
100
AcDbLine
 62
250
  6
CONTINUOUS
 10
-44.2567361435
 20
8.7560000204
 11
-44.2567361435
 21
8.2424000153
  0
LINE
  5
4A2
100
AcDbEntity
  8
INCISIONI
100
AcDbLine
 62
250
  6
CONTINUOUS
 10
-44.2567361435
 20
10.2968
 11
-44.2567361435
 21
10.4679999184
  0
LINE
  5
4A3
100
AcDbEntity
  8
INCISIONI
100
AcDbLine
 62
250
  6
CONTINUOUS
 10
-44.2567361435
 20
13.5496001633
 11
-44.2567361435
 21
14.5768002449
  0
LWPOLYLINE
  5
4A4
100
AcDbEntity
  8
0
100
AcDbPolyline
 62
7
  6
CONTINUOUS
 90
4
 70
0
 43
0.3500000006
 10
-43.6238780823
 20
45.6071422119
 10
-43.6238780823
 20
46.2500001984
 10
-42.1238776245
 20
46.2500001984
 10
-42.9810200958
 20
43.2499992828
  0
LINE
  5
4A5
100
AcDbEntity
  8
INCISIONI
100
AcDbLine
 62
250
  6
CONTINUOUS
 10
-43.339593341
 20
14.2343998367
 11
-43.339593341
 21
13.5496001633
  0
LINE
  5
4A6
100
AcDbEntity
  8
0
100
AcDbLine
 62
7
  6
CONTINUOUS
 10
-34.2667361435
 20
16.8814422699
 11
-34.4125762065
 21
16.6363448016
  0
LINE
  5
4A7
100
AcDbEntity
  8
0
100
AcDbLine
 62
250
  6
CONTINUOUS
 10
-32.9480599603
 20
-1.6595238686
 11
-32.3910019532
 21
-1.6595238686
  0
LINE
  5
4A8
100
AcDbEntity
  8
0
100
AcDbLine
 62
250
  6
CONTINUOUS
 10
-40.3992241435
 20
-1.43959
 11
-39.6342241435
 21
-1.43959
  0
LINE
  5
4A9
100
AcDbEntity
  8
0
100
AcDbLine
 62
250
  6
CONTINUOUS
 10
-33.1337459498
 20
-1.2880954742
 11
-32.7623739709
 21
-1.2880954742
  0
LINE
  5
4AA
100
AcDbEntity
  8
0
100
AcDbLine
 62
250
  6
CONTINUOUS
 10
-42.5539421435
 20
-0.92959
 11
-41.7834161435
 21
-0.92959
  0
LINE
  5
4AB
100
AcDbEntity
  8
0
100
AcDbLine
 62
250
  6
CONTINUOUS
 10
-38.2500325934
 20
-0.92959
 11
-37.4795061435
 21
-0.92959
  0
LINE
  5
4AC
100
AcDbEntity
  8
0
100
AcDbLine
 62
250
  6
CONTINUOUS
 10
-32.7623739709
 20
-0.6380954742
 11
-33.1337459498
 21
-0.6380954742
  0
LINE
  5
4AD
100
AcDbEntity
  8
0
100
AcDbLine
 62
250
  6
CONTINUOUS
 10
-33.1337459498
 20
-0.26666646
 11
-32.7623739709
 21
-0.26666646
  0
LINE
  5
4AE
100
AcDbEntity
  8
0
100
AcDbLine
 62
250
  6
CONTINUOUS
 10
-29.5200106977
 20
-5.81666646
 11
-30.8198127014
 21
-5.4452386856
  0
LINE
  5
4AF
100
AcDbEntity
  8
0
100
AcDbLine
 62
250
  6
CONTINUOUS
 10
-42.6030591435
 20
-13.781784
 11
-42.6030591435
 21
-13.68241
  0
LINE
  5
4B0
100
AcDbEntity
  8
0
100
AcDbLine
 62
250
  6
CONTINUOUS
 10
-42.2084411435
 20
-14.309973
 11
-42.2084411435
 21
-11.872066
  0
LINE
  5
4B1
100
AcDbEntity
  8
INCISIONI
100
AcDbLine
 62
250
  6
CONTINUOUS
 10
-42.1167361435
 20
12.8647999184
 11
-42.1167361435
 21
11.6663999184
  0
LINE
  5
4B2
100
AcDbEntity
  8
INCISIONI
100
AcDbLine
 62
250
  6
CONTINUOUS
 10
-42.1167361435
 20
10.4679999184
 11
-42.1167361435
 21
10.2968
  0
LINE
  5
4B3
100
AcDbEntity
  8
INCISIONI
100
AcDbLine
 62
250
  6
CONTINUOUS
 10
-42.1167361435
 20
9.0984
 11
-42.1167361435
 21
7.9
  0
LINE
  5
4B4
100
AcDbEntity
  8
INCISIONI
100
AcDbLine
 62
250
  6
CONTINUOUS
 10
-42.1167361435
 20
13.5496001633
 11
-42.1167361435
 21
14.2343998367
  0
LINE
  5
4B5
100
AcDbEntity
  8
0
100
AcDbLine
 62
250
  6
CONTINUOUS
 10
-41.8455311435
 20
-11.932113
 11
-41.8455311435
 21
-11.582053
  0
LINE
  5
4B6
100
AcDbEntity
  8
0
100
AcDbLine
 62
250
  6
CONTINUOUS
 10
-41.5080099403
 20
21.5921580307
 11
-41.5080099403
 21
20.9
  0
LINE
  5
4B7
100
AcDbEntity
  8
0
100
AcDbLine
 62
250
  6
CONTINUOUS
 10
-41.5080099403
 20
-20.9
 11
-41.5080099403
 21
-21.5921580307
  0
LINE
  5
4B8
100
AcDbEntity
  8
0
100
AcDbLine
 62
250
  6
CONTINUOUS
 10
-41.4730671435
 20
-11.582053
 11
-41.4730671435
 21
-11.932113
  0
LINE
  5
4B9
100
AcDbEntity
  8
0
100
AcDbLine
 62
250
  6
CONTINUOUS
 10
-41.3806511435
 20
-13.21193
 11
-41.3806511435
 21
-12.38859
  0
LINE
  5
4BA
100
AcDbEntity
  8
0
100
AcDbLine
 62
250
  6
CONTINUOUS
 10
-42.6960331435
 20
-13.156927
 11
-42.6954751435
 21
-12.583924
  0
LINE
  5
4BB
100
AcDbEntity
  8
0
100
AcDbLine
 62
250
  6
CONTINUOUS
 10
-42.4779811435
 20
-12.583924
 11
-42.4785391435
 21
-13.156927
  0
LINE
  5
4BC
100
AcDbEntity
  8
INCISIONI
100
AcDbLine
 62
250
  6
CONTINUOUS
 10
-46.7239978572
 20
-4.255022
 11
-45.5332656486
 21
-3.637619
  0
LINE
  5
4BD
100
AcDbEntity
  8
0
100
AcDbLine
 62
250
  6
CONTINUOUS
 10
-32.7623739709
 20
0.38333354
 11
-33.1337459498
 21
0.38333354
  0
LINE
  5
4BE
100
AcDbEntity
  8
0
100
AcDbLine
 62
250
  6
CONTINUOUS
 10
-32.1434206049
 20
0.9404761314
 11
-32.1743682698
 21
0.9404761314
  0
LINE
  5
4BF
100
AcDbEntity
  8
0
100
AcDbLine
 62
250
  6
CONTINUOUS
 10
-32.1743682698
 20
1.0642858028
 11
-32.1434206049
 21
1.0642858028
  0
LINE
  5
4C0
100
AcDbEntity
  8
0
100
AcDbLine
 62
250
  6
CONTINUOUS
 10
-33.3194319392
 20
1.8690477371
 11
-32.0196299355
 21
1.8690477371
  0
LINE
  5
4C1
100
AcDbEntity
  8
0
100
AcDbLine
 62
250
  6
CONTINUOUS
 10
-32.3910019532
 20
-0.7309522629
 11
-32.7623739709
 21
-0.6380954742
  0
LINE
  5
4C2
100
AcDbEntity
  8
0
100
AcDbLine
 62
250
  6
CONTINUOUS
 10
-33.1956412796
 20
-5.7142858028
 11
-32.0505776029
 21
-6.4571429014
  0
LINE
  5
4C3
100
AcDbEntity
  8
0
100
AcDbLine
 62
250
  6
CONTINUOUS
 10
-29.7056967065
 20
-13.1214287043
 11
-29.5200106977
 21
-13.3071429014
  0
LINE
  5
4C4
100
AcDbEntity
  8
0
100
AcDbLine
 62
250
  6
CONTINUOUS
 10
-33.1337459498
 20
-8.5
 11
-33.3194319392
 21
-8.314285706
  0
LINE
  5
4C5
100
AcDbEntity
  8
0
100
AcDbLine
 62
250
  6
CONTINUOUS
 10
-41.1650151435
 20
-12.38859
 11
-41.1650151435
 21
-13.21193
  0
LINE
  5
4C6
100
AcDbEntity
  8
0
100
AcDbLine
 62
7
  6
CONTINUOUS
 10
-41.0167361435
 20
21.3330780337
 11
-41.0167361435
 21
20.9
  0
LINE
  5
4C7
100
AcDbEntity
  8
DRAFT
100
AcDbLine
 62
7
  6
CONTINUOUS
 10
-41.0167361435
 20
-20.9
 11
-41.0167361435
 21
-20.85
  0
LINE
  5
4C8
100
AcDbEntity
  8
0
100
AcDbLine
 62
7
  6
CONTINUOUS
 10
-41.0167361435
 20
-20.9
 11
-41.0167361435
 21
-21.3330780337
  0
LINE
  5
4C9
100
AcDbEntity
  8
RACCORDO
100
AcDbLine
 62
7
  6
CONTINUOUS
 10
-41.0167361435
 20
-20.85
 11
-41.0167361435
 21
-19.3181305591
  0
LINE
  5
4CA
100
AcDbEntity
  8
ASSI
100
AcDbLine
 62
7
  6
CONTINUOUS
 10
-41.0167361435
 20
-20.85
 11
-41.0167361435
 21
-19.3181305591
  0
LINE
  5
4CB
100
AcDbEntity
  8
RACCORDO
100
AcDbLine
 62
7
  6
CONTINUOUS
 10
-41.0167361435
 20
14.2432004109
 11
-41.0167361435
 21
17.5993978025
  0
LINE
  5
4CC
100
AcDbEntity
  8
DRAFT
100
AcDbLine
 62
7
  6
CONTINUOUS
 10
-41.0167361435
 20
20.85
 11
-41.0167361435
 21
20.9
  0
LINE
  5
4CD
100
AcDbEntity
  8
0
100
AcDbLine
 62
7
  6
CONTINUOUS
 10
-41.0167361435
 20
17.5993978025
 11
-41.0167361435
 21
20.85
  0
LINE
  5
4CE
100
AcDbEntity
  8
ASSI
100
AcDbLine
 62
7
  6
CONTINUOUS
 10
-41.0167361435
 20
14.2432004109
 11
-41.0167361435
 21
20.85
  0
LWPOLYLINE
  5
4CF
100
AcDbEntity
  8
0
100
AcDbPolyline
 62
7
  6
CONTINUOUS
 90
4
 70
0
 43
0.3500000006
 10
-40.6953083496
 20
37.6071443024
 10
-40.6953083496
 20
38.249997757
 10
-39.1953078918
 20
38.249997757
 10
-40.0524503632
 20
35.2500013733
  0
LINE
  5
4D0
100
AcDbEntity
  8
0
100
AcDbLine
 62
250
  6
CONTINUOUS
 10
-40.3992241435
 20
-2.9281264558
 11
-40.3992241435
 21
-1.43959
  0
LINE
  5
4D1
100
AcDbEntity
  8
0
100
AcDbLine
 62
250
  6
CONTINUOUS
 10
-39.6342241435
 20
-1.43959
 11
-39.6342241435
 21
-2.928126
  0
LINE
  5
4D2
100
AcDbEntity
  8
INCISIONI
100
AcDbLine
 62
250
  6
CONTINUOUS
 10
-45.5332586507
 20
-4.290924
 11
-46.6542671027
 21
-4.872178
  0
LINE
  5
4D3
100
AcDbEntity
  8
0
100
AcDbLine
 62
250
  6
CONTINUOUS
 10
-32.2362636093
 20
1.03333354
 11
-32.1743682698
 21
1.0642858028
  0
LINE
  5
4D4
100
AcDbEntity
  8
0
100
AcDbLine
 62
250
  6
CONTINUOUS
 10
-32.0815252702
 20
0.9714283943
 11
-32.1434206049
 21
0.9404761314
  0
LINE
  5
4D5
100
AcDbEntity
  8
INCISIONI
100
AcDbLine
 62
250
  6
CONTINUOUS
 10
-45.5338874592
 20
4.037094
 11
-48.4320984343
 21
4.037094
  0
LINE
  5
4D6
100
AcDbEntity
  8
0
100
AcDbLine
 62
250
  6
CONTINUOUS
 10
-32.3910019532
 20
0.2904761314
 11
-32.7623739709
 21
0.38333354
  0
LINE
  5
4D7
100
AcDbEntity
  8
0
100
AcDbLine
 62
250
  6
CONTINUOUS
 10
-32.9480599603
 20
-2.3095238686
 11
-33.1337459498
 21
-2.21666646
  0
LINE
  5
4D8
100
AcDbEntity
  8
0
100
AcDbLine
 62
250
  6
CONTINUOUS
 10
-32.3910019532
 20
-1.6595238686
 11
-32.2053159444
 21
-1.7523806572
  0
LINE
  5
4D9
100
AcDbEntity
  8
0
100
AcDbLine
 62
250
  6
CONTINUOUS
 10
-33.3194319392
 20
-3.1452380657
 11
-33.0409029163
 21
-3.3309522629
  0
LINE
  5
4DA
100
AcDbEntity
  8
0
100
AcDbLine
 62
250
  6
CONTINUOUS
 10
-32.0196299355
 20
-3.3309522629
 11
-32.9480599603
 21
-2.6809522629
  0
LINE
  5
4DB
100
AcDbEntity
  8
0
100
AcDbLine
 62
250
  6
CONTINUOUS
 10
-32.8552169269
 20
-6.9214285493
 11
-32.6695309374
 21
-7.1071429014
  0
LINE
  5
4DC
100
AcDbEntity
  8
0
100
AcDbLine
 62
250
  6
CONTINUOUS
 10
-32.2053159444
 20
-6.8285714507
 11
-32.0196299355
 21
-7.0142856479
  0
LINE
  5
4DD
100
AcDbEntity
  8
INCISIONI
100
AcDbLine
 62
250
  6
CONTINUOUS
 10
-47.1684734347
 20
8.371575
 11
-48.4320984343
 21
9.656836
  0
LINE
  5
4DE
100
AcDbEntity
  8
INCISIONI
100
AcDbLine
 62
250
  6
CONTINUOUS
 10
-48.4320984343
 20
10.35105
 11
-47.2395117907
 21
9.10422
  0
LINE
  5
4DF
100
AcDbEntity
  8
INCISIONI
100
AcDbLine
 62
250
  6
CONTINUOUS
 10
-46.8835052586
 20
8.741819
 11
-46.5383144311
 21
8.371575
  0
LINE
  5
4E0
100
AcDbEntity
  8
0
100
AcDbLine
 62
250
  6
CONTINUOUS
 10
-38.8462201435
 20
-13.774826
 11
-38.8462201435
 21
-12.428959
  0
LINE
  5
4E1
100
AcDbEntity
  8
0
100
AcDbLine
 62
250
  6
CONTINUOUS
 10
-38.6497721435
 20
-13.600497
 11
-38.6497721435
 21
-13.718117
  0
LINE
  5
4E2
100
AcDbEntity
  8
0
100
AcDbLine
 62
250
  6
CONTINUOUS
 10
-33.1337459498
 20
-1.7523806572
 11
-32.9480599603
 21
-1.6595238686
  0
LINE
  5
4E3
100
AcDbEntity
  8
INCISIONI
100
AcDbLine
 62
250
  6
CONTINUOUS
 10
-48.4325053103
 20
-7.276321
 11
-45.5332506532
 21
-6.345182
  0
LINE
  5
4E4
100
AcDbEntity
  8
INCISIONI
100
AcDbLine
 62
250
  6
CONTINUOUS
 10
-46.6542671027
 20
-7.285246
 11
-47.5295394253
 21
-7.56635
  0
LINE
  5
4E5
100
AcDbEntity
  8
INCISIONI
100
AcDbLine
 62
250
  6
CONTINUOUS
 10
-45.5332586507
 20
-6.925211
 11
-46.1034129365
 21
-7.108317
  0
LINE
  5
4E6
100
AcDbEntity
  8
DRAFT
100
AcDbLine
 62
7
  6
CONTINUOUS
 10
-26.7428828663
 20
7.0739590572
 11
-25.2905891608
 21
7.2010182926
  0
LINE
  5
4E7
100
AcDbEntity
  8
ASSI
100
AcDbLine
 62
7
  6
CONTINUOUS
 10
-26.7428828663
 20
7.0739590572
 11
-25.2905891608
 21
7.2010182926
  0
LINE
  5
4E8
100
AcDbEntity
  8
INCISIONI
100
AcDbLine
 62
250
  6
CONTINUOUS
 10
-47.9721245788
 20
4.554832
 11
-47.2514741461
 21
4.554832
  0
LINE
  5
4E9
100
AcDbEntity
  8
INCISIONI
100
AcDbLine
 62
250
  6
CONTINUOUS
 10
-46.7914643015
 20
4.554832
 11
-45.9938513177
 21
4.554832
  0
LINE
  5
4EA
100
AcDbEntity
  8
INCISIONI
100
AcDbLine
 62
250
  6
CONTINUOUS
 10
-47.2514641491
 20
5.982127
 11
-46.7914742985
 21
5.982127
  0
LINE
  5
4EB
100
AcDbEntity
  8
INCISIONI
100
AcDbLine
 62
250
  6
CONTINUOUS
 10
-48.4320984343
 20
6.086013
 11
-47.9721185806
 21
6.086013
  0
LINE
  5
4EC
100
AcDbEntity
  8
INCISIONI
100
AcDbLine
 62
250
  6
CONTINUOUS
 10
-45.9938673128
 20
6.097666
 11
-45.5338874592
 21
6.097666
  0
LINE
  5
4ED
100
AcDbEntity
  8
0
100
AcDbLine
 62
250
  6
CONTINUOUS
 10
-32.1743682698
 20
0.9404761314
 11
-32.2362636093
 21
0.9714283943
  0
LINE
  5
4EE
100
AcDbEntity
  8
0
100
AcDbLine
 62
250
  6
CONTINUOUS
 10
-32.1434206049
 20
1.0642858028
 11
-32.0815252702
 21
1.03333354
  0
LINE
  5
4EF
100
AcDbEntity
  8
0
100
AcDbLine
 62
250
  6
CONTINUOUS
 10
-30.262754733
 20
-3.4952386856
 11
-30.8198127014
 21
-3.1238090515
  0
LINE
  5
4F0
100
AcDbEntity
  8
INCISIONI
100
AcDbLine
 62
250
  6
CONTINUOUS
 10
-44.2567361435
 20
8.2424000153
 11
-43.7981646785
 21
7.9
  0
LINE
  5
4F1
100
AcDbEntity
  8
0
100
AcDbLine
 62
250
  6
CONTINUOUS
 10
-33.1337459498
 20
-2.21666646
 11
-33.3194319392
 21
-2.0309522629
  0
LINE
  5
4F2
100
AcDbEntity
  8
INCISIONI
100
AcDbLine
 62
250
  6
CONTINUOUS
 10
-43.951021876
 20
9.9544000204
 11
-44.2567361435
 21
10.2968
  0
LINE
  5
4F3
100
AcDbEntity
  8
0
100
AcDbLine
 62
250
  6
CONTINUOUS
 10
-37.0357481435
 20
-15.092362
 11
-37.0357481435
 21
-10.907638
  0
LINE
  5
4F4
100
AcDbEntity
  8
0
100
AcDbLine
 62
250
  6
CONTINUOUS
 10
-36.0167361435
 20
-10.907638
 11
-36.0167361435
 21
-15.092362
  0
LINE
  5
4F5
100
AcDbEntity
  8
0
100
AcDbLine
 62
250
  6
CONTINUOUS
 10
-33.1337459498
 20
0.38333354
 11
-33.3194319392
 21
0.1976193428
  0
LINE
  5
4F6
100
AcDbEntity
  8
0
100
AcDbLine
 62
250
  6
CONTINUOUS
 10
-32.7623739709
 20
-0.26666646
 11
-32.5766879427
 21
-0.0809522629
  0
LINE
  5
4F7
100
AcDbEntity
  8
0
100
AcDbLine
 62
250
  6
CONTINUOUS
 10
-33.1337459498
 20
-0.6380954742
 11
-33.3194319392
 21
-0.8238096714
  0
LINE
  5
4F8
100
AcDbEntity
  8
0
100
AcDbLine
 62
250
  6
CONTINUOUS
 10
-32.2053159444
 20
-2.21666646
 11
-32.3910019532
 21
-2.3095238686
  0
LINE
  5
4F9
100
AcDbEntity
  8
INCISIONI
100
AcDbLine
 62
250
  6
CONTINUOUS
 10
-45.5338874592
 20
6.720338
 11
-48.4320984343
 21
6.720338
  0
LINE
  5
4FA
100
AcDbEntity
  8
INCISIONI
100
AcDbLine
 62
250
  6
CONTINUOUS
 10
-48.4320984343
 20
7.238107
 11
-45.5338874592
 21
7.238107
  0
LINE
  5
4FB
100
AcDbEntity
  8
INCISIONI
100
AcDbLine
 62
250
  6
CONTINUOUS
 10
-45.5338874592
 20
7.853838
 11
-48.4320984343
 21
7.853838
  0
LINE
  5
4FC
100
AcDbEntity
  8
INCISIONI
100
AcDbLine
 62
250
  6
CONTINUOUS
 10
-48.4320984343
 20
8.371585
 11
-47.1684734347
 21
8.371575
  0
LINE
  5
4FD
100
AcDbEntity
  8
INCISIONI
100
AcDbLine
 62
250
  6
CONTINUOUS
 10
-46.5383144311
 20
8.371575
 11
-45.5338874592
 21
8.371585
  0
LINE
  5
4FE
100
AcDbEntity
  8
INCISIONI
100
AcDbLine
 62
250
  6
CONTINUOUS
 10
-42.1167361435
 20
7.9
 11
-43.6453076085
 21
9.0984
  0
LINE
  5
4FF
100
AcDbEntity
  8
0
100
AcDbLine
 62
250
  6
CONTINUOUS
 10
-33.3194319392
 20
-1.1023806572
 11
-33.1337459498
 21
-1.2880954742
  0
LINE
  5
500
100
AcDbEntity
  8
0
100
AcDbLine
 62
250
  6
CONTINUOUS
 10
-32.2053159444
 20
-1.7523806572
 11
-32.0196299355
 21
-1.9380954742
  0
LINE
  5
501
100
AcDbEntity
  8
0
100
AcDbLine
 62
250
  6
CONTINUOUS
 10
-33.3194319392
 20
-0.0809522629
 11
-33.1337459498
 21
-0.26666646
  0
LINE
  5
502
100
AcDbEntity
  8
0
100
AcDbLine
 62
250
  6
CONTINUOUS
 10
-32.0196299355
 20
-1.1023806572
 11
-32.3910019532
 21
-0.7309522629
  0
LINE
  5
503
100
AcDbEntity
  8
0
100
AcDbLine
 62
250
  6
CONTINUOUS
 10
-32.0196299355
 20
-0.0809522629
 11
-32.3910019532
 21
0.2904761314
  0
LINE
  5
504
100
AcDbEntity
  8
INCISIONI
100
AcDbLine
 62
250
  6
CONTINUOUS
 10
-42.4224504429
 20
10.8104000408
 11
-42.1167361435
 21
10.4679999184
  0
LINE
  5
505
100
AcDbEntity
  8
0
100
AcDbLine
 62
250
  6
CONTINUOUS
 10
-34.5407341161
 20
18.6206191198
 11
-34.5445624306
 21
19.4980069565
  0
LINE
  5
506
100
AcDbEntity
  8
ASSI
100
AcDbLine
 62
250
  6
CONTINUOUS
 10
-34.5407341161
 20
18.6206191198
 11
-34.5445624306
 21
19.4980069565
  0
LINE
  5
507
100
AcDbEntity
  8
0
100
AcDbLine
 62
250
  6
CONTINUOUS
 10
-34.5407341161
 20
18.1249141281
 11
-34.5407341161
 21
18.6206191198
  0
LINE
  5
508
100
AcDbEntity
  8
ASSI
100
AcDbLine
 62
250
  6
CONTINUOUS
 10
-34.5407341161
 20
18.1249141281
 11
-34.5407341161
 21
18.6206191198
  0
LINE
  5
509
100
AcDbEntity
  8
0
100
AcDbLine
 62
7
  6
CONTINUOUS
 10
-34.4125762065
 20
16.6363448016
 11
-34.4125762065
 21
16.4253214401
  0
LINE
  5
50A
100
AcDbEntity
  8
0
100
AcDbLine
 62
7
  6
CONTINUOUS
 10
-34.2667361435
 20
16.42419522
 11
-34.2667361435
 21
17.3813448016
  0
LINE
  5
50B
100
AcDbEntity
  8
DRAFT
100
AcDbLine
 62
250
  6
CONTINUOUS
 10
-33.5667361435
 20
18.1242567237
 11
-33.5667361435
 21
17.8293800405
  0
LINE
  5
50C
100
AcDbEntity
  8
ASSI
100
AcDbLine
 62
250
  6
CONTINUOUS
 10
-33.5667361435
 20
18.1242567237
 11
-33.5667361435
 21
17.8293800405
  0
LINE
  5
50D
100
AcDbEntity
  8
DRAFT
100
AcDbLine
 62
7
  6
CONTINUOUS
 10
-33.5667361435
 20
17.8293800405
 11
-33.5667361435
 21
17.6912440218
  0
LINE
  5
50E
100
AcDbEntity
  8
ASSI
100
AcDbLine
 62
7
  6
CONTINUOUS
 10
-33.5667361435
 20
17.8293800405
 11
-33.5667361435
 21
17.6912440218
  0
LINE
  5
50F
100
AcDbEntity
  8
0
100
AcDbLine
 62
7
  6
CONTINUOUS
 10
-33.5667361435
 20
16.4187896131
 11
-33.5667361435
 21
17.3813448016
  0
LINE
  5
510
100
AcDbEntity
  8
0
100
AcDbLine
 62
7
  6
CONTINUOUS
 10
-33.4208960805
 20
16.6363448016
 11
-33.4208960805
 21
16.4176633931
  0
LINE
  5
511
100
AcDbEntity
  8
0
100
AcDbLine
 62
250
  6
CONTINUOUS
 10
-33.3194319392
 20
0.1976193428
 11
-33.3194319392
 21
-0.0809522629
  0
LINE
  5
512
100
AcDbEntity
  8
0
100
AcDbLine
 62
250
  6
CONTINUOUS
 10
-33.3194319392
 20
-0.8238096714
 11
-33.3194319392
 21
-1.1023806572
  0
LINE
  5
513
100
AcDbEntity
  8
0
100
AcDbLine
 62
250
  6
CONTINUOUS
 10
-33.3194319392
 20
-2.86666646
 11
-33.3194319392
 21
-3.1452380657
  0
LINE
  5
514
100
AcDbEntity
  8
0
100
AcDbLine
 62
250
  6
CONTINUOUS
 10
-33.3194319392
 20
-8.314285706
 11
-33.3194319392
 21
-7.85
  0
LINE
  5
515
100
AcDbEntity
  8
0
100
AcDbLine
 62
250
  6
CONTINUOUS
 10
-33.3194319392
 20
-7.4785714507
 11
-33.3194319392
 21
-7.2
  0
LINE
  5
516
100
AcDbEntity
  8
0
100
AcDbLine
 62
250
  6
CONTINUOUS
 10
-33.3194319392
 20
-5.46666677
 11
-33.3194319392
 21
-4.7238096714
  0
LINE
  5
517
100
AcDbEntity
  8
0
100
AcDbLine
 62
250
  6
CONTINUOUS
 10
-33.3194319392
 20
-2.0309522629
 11
-33.3194319392
 21
-1.9380954742
  0
LINE
  5
518
100
AcDbEntity
  8
0
100
AcDbLine
 62
250
  6
CONTINUOUS
 10
-32.7623739709
 20
-1.2880954742
 11
-32.5766879427
 21
-1.1023806572
  0
LINE
  5
519
100
AcDbEntity
  8
0
100
AcDbLine
 62
250
  6
CONTINUOUS
 10
-33.3194319392
 20
-1.9380954742
 11
-33.1337459498
 21
-1.7523806572
  0
LINE
  5
51A
100
AcDbEntity
  8
0
100
AcDbLine
 62
250
  6
CONTINUOUS
 10
-33.1337459498
 20
-2.6809522629
 11
-33.3194319392
 21
-2.86666646
  0
LINE
  5
51B
100
AcDbEntity
  8
0
100
AcDbLine
 62
250
  6
CONTINUOUS
 10
-32.0196299355
 20
-2.0309522629
 11
-32.2053159444
 21
-2.21666646
  0
LINE
  5
51C
100
AcDbEntity
  8
0
100
AcDbLine
 62
250
  6
CONTINUOUS
 10
-30.8198127014
 20
-3.8666670799
 11
-30.262754733
 21
-3.4952386856
  0
LINE
  5
51D
100
AcDbEntity
  8
INCISIONI
100
AcDbLine
 62
250
  6
CONTINUOUS
 10
-46.5444045755
 20
-10.59258
 11
-48.4324983125
 21
-11.134148
  0
LINE
  5
51E
100
AcDbEntity
  8
INCISIONI
100
AcDbLine
 62
250
  6
CONTINUOUS
 10
-47.4451101492
 20
-11.430963
 11
-45.5332506532
 21
-10.882587
  0
LINE
  5
51F
100
AcDbEntity
  8
0
100
AcDbLine
 62
250
  6
CONTINUOUS
 10
-30.8198127014
 20
-5.4452386856
 11
-29.5200106977
 21
-5.0738090515
  0
LINE
  5
520
100
AcDbEntity
  8
INCISIONI
100
AcDbLine
 62
250
  6
CONTINUOUS
 10
-43.6453076085
 20
9.0984
 11
-43.951021876
 21
9.0984
  0
LINE
  5
521
100
AcDbEntity
  8
INCISIONI
100
AcDbLine
 62
250
  6
CONTINUOUS
 10
-42.7281647423
 20
9.7831999592
 11
-43.6453076085
 21
9.7831999592
  0
LINE
  5
522
100
AcDbEntity
  8
0
100
AcDbLine
 62
250
  6
CONTINUOUS
 10
-61.4352944583
 20
9.4905
 11
-61.9264779968
 21
9.5
  0
LINE
  5
523
100
AcDbEntity
  8
INCISIONI
100
AcDbLine
 62
250
  6
CONTINUOUS
 10
-43.6453076085
 20
9.7831999592
 11
-43.951021876
 21
9.9544000204
  0
LINE
  5
524
100
AcDbEntity
  8
INCISIONI
100
AcDbLine
 62
250
  6
CONTINUOUS
 10
-42.7281647423
 20
10.9815999592
 11
-42.4224504429
 21
10.8104000408
  0
LINE
  5
525
100
AcDbEntity
  8
INCISIONI
100
AcDbLine
 62
250
  6
CONTINUOUS
 10
-44.2567361435
 20
12.0088000408
 11
-43.7981646785
 21
11.6663999184
  0
LINE
  5
526
100
AcDbEntity
  8
INCISIONI
100
AcDbLine
 62
250
  6
CONTINUOUS
 10
-42.1167361435
 20
11.6663999184
 11
-43.6453076085
 21
12.8647999184
  0
LINE
  5
527
100
AcDbEntity
  8
0
100
AcDbLine
 62
250
  6
CONTINUOUS
 10
-32.9480599603
 20
1.4976193428
 11
-33.3194319392
 21
1.8690477371
  0
LINE
  5
528
100
AcDbEntity
  8
INCISIONI
100
AcDbLine
 62
250
  6
CONTINUOUS
 10
-43.6453076085
 20
15.2615999184
 11
-44.2567361435
 21
15.9464001633
  0
LINE
  5
529
100
AcDbEntity
  8
0
100
AcDbLine
 62
250
  6
CONTINUOUS
 10
-32.7623739709
 20
-8.128571412
 11
-32.7623739709
 21
-7.85
  0
LINE
  5
52A
100
AcDbEntity
  8
0
100
AcDbLine
 62
250
  6
CONTINUOUS
 10
-32.6695309374
 20
-7.4785714507
 11
-32.6695309374
 21
-7.0142856479
  0
LINE
  5
52B
100
AcDbEntity
  8
0
100
AcDbLine
 62
250
  6
CONTINUOUS
 10
-32.5766879427
 20
-1.1023806572
 11
-32.5766879427
 21
-0.7
  0
LINE
  5
52C
100
AcDbEntity
  8
0
100
AcDbLine
 62
250
  6
CONTINUOUS
 10
-32.5766879427
 20
-0.0809522629
 11
-32.5766879427
 21
0.3214283943
  0
LINE
  5
52D
100
AcDbEntity
  8
0
100
AcDbLine
 62
250
  6
CONTINUOUS
 10
-32.2362636093
 20
0.9714283943
 11
-32.2362636093
 21
1.03333354
  0
LINE
  5
52E
100
AcDbEntity
  8
0
100
AcDbLine
 62
250
  6
CONTINUOUS
 10
-32.0815252702
 20
1.03333354
 11
-32.0815252702
 21
0.9714283943
  0
LINE
  5
52F
100
AcDbEntity
  8
0
100
AcDbLine
 62
250
  6
CONTINUOUS
 10
-32.0196299355
 20
-1.9380954742
 11
-32.0196299355
 21
-2.0309522629
  0
LINE
  5
530
100
AcDbEntity
  8
0
100
AcDbLine
 62
250
  6
CONTINUOUS
 10
-32.0196299355
 20
-2.6809522629
 11
-32.0196299355
 21
-3.3309522629
  0
LINE
  5
531
100
AcDbEntity
  8
0
100
AcDbLine
 62
250
  6
CONTINUOUS
 10
-32.0196299355
 20
-7.0142856479
 11
-32.0196299355
 21
-7.4785714507
  0
LINE
  5
532
100
AcDbEntity
  8
0
100
AcDbLine
 62
250
  6
CONTINUOUS
 10
-32.0196299355
 20
-7.85
 11
-32.0196299355
 21
-8.314285706
  0
LINE
  5
533
100
AcDbEntity
  8
0
100
AcDbLine
 62
250
  6
CONTINUOUS
 10
-33.3194319392
 20
-7.2
 11
-33.2884842356
 21
-7.1071429014
  0
LINE
  5
534
100
AcDbEntity
  8
0
100
AcDbLine
 62
250
  6
CONTINUOUS
 10
-33.2884842356
 20
-7.1071429014
 11
-33.1337459498
 21
-6.9214285493
  0
LINE
  5
535
100
AcDbEntity
  8
0
100
AcDbLine
 62
250
  6
CONTINUOUS
 10
-43.0930611435
 20
-15.50013
 11
-38.1157751435
 21
-10.768444
  0
LINE
  5
536
100
AcDbEntity
  8
INCISIONI
100
AcDbLine
 62
250
  6
CONTINUOUS
 10
-43.6453076085
 20
10.9815999592
 11
-42.7281647423
 21
10.9815999592
  0
LINE
  5
537
100
AcDbEntity
  8
INCISIONI
100
AcDbLine
 62
250
  6
CONTINUOUS
 10
-42.1167361435
 20
14.2343998367
 11
-42.4224504429
 21
14.5768002449
  0
LINE
  5
538
100
AcDbEntity
  8
0
100
AcDbLine
 62
250
  6
CONTINUOUS
 10
-30.8198127014
 20
-13.7714285493
 11
-30.8198127014
 21
-13.3071429014
  0
LINE
  5
539
100
AcDbEntity
  8
0
100
AcDbLine
 62
250
  6
CONTINUOUS
 10
-30.8198127014
 20
-12.5952380657
 11
-30.8198127014
 21
-12.0380951643
  0
LINE
  5
53A
100
AcDbEntity
  8
0
100
AcDbLine
 62
250
  6
CONTINUOUS
 10
-30.8198127014
 20
-6.9309522629
 11
-30.8198127014
 21
-6.1880954742
  0
LINE
  5
53B
100
AcDbEntity
  8
0
100
AcDbLine
 62
250
  6
CONTINUOUS
 10
-30.262754733
 20
-12.2238096714
 11
-30.262754733
 21
-12.5952380657
  0
LINE
  5
53C
100
AcDbEntity
  8
0
100
AcDbLine
 62
250
  6
CONTINUOUS
 10
-29.8913827153
 20
-14.7619047582
 11
-29.8913827153
 21
-14.266666615
  0
LINE
  5
53D
100
AcDbEntity
  8
0
100
AcDbLine
 62
250
  6
CONTINUOUS
 10
-29.8913827153
 20
-5.6928574085
 11
-29.8913827153
 21
-5.1976193428
  0
LINE
  5
53E
100
AcDbEntity
  8
0
100
AcDbLine
 62
250
  6
CONTINUOUS
 10
-29.5200106977
 20
-13.3071429014
 11
-29.5200106977
 21
-13.7714285493
  0
LINE
  5
53F
100
AcDbEntity
  8
0
100
AcDbLine
 62
250
  6
CONTINUOUS
 10
-29.5200106977
 20
-12.5952380657
 11
-29.5200106977
 21
-12.0380951643
  0
LINE
  5
540
100
AcDbEntity
  8
0
100
AcDbLine
 62
250
  6
CONTINUOUS
 10
-29.5200106977
 20
-4.7023806572
 11
-29.5200106977
 21
-4.2380954742
  0
LINE
  5
541
100
AcDbEntity
  8
0
100
AcDbLine
 62
250
  6
CONTINUOUS
 10
-32.6695309374
 20
-7.0142856479
 11
-32.4838449479
 21
-6.8285714507
  0
LINE
  5
542
100
AcDbEntity
  8
0
100
AcDbLine
 62
250
  6
CONTINUOUS
 10
-32.0196299355
 20
-8.314285706
 11
-32.2053159444
 21
-8.5
  0
LINE
  5
543
100
AcDbEntity
  8
0
100
AcDbLine
 62
7
  6
CONTINUOUS
 10
-55.0167361435
 20
-23.1226497308
 11
-55.8917361435
 21
-23.6278312164
  0
LINE
  5
544
100
AcDbEntity
  8
0
100
AcDbLine
 62
250
  6
CONTINUOUS
 10
-54.7681905764
 20
-23.2669872981
 11
-55.7681905764
 21
-23.8443375673
  0
LINE
  5
545
100
AcDbEntity
  8
0
100
AcDbLine
 62
250
  6
CONTINUOUS
 10
-30.8198127014
 20
-9.8095238686
 11
-29.5200106977
 21
-9.1595238686
  0
LINE
  5
546
100
AcDbEntity
  8
INCISIONI
100
AcDbLine
 62
250
  6
CONTINUOUS
 10
-46.4362095403
 20
-14.778839
 11
-48.4324983125
 21
-15.419971
  0
LINE
  5
547
100
AcDbEntity
  8
INCISIONI
100
AcDbLine
 62
250
  6
CONTINUOUS
 10
-48.4324983125
 20
-16.0
 11
-45.5332436553
 21
-15.068868
  0
LINE
  5
548
100
AcDbEntity
  8
RACCORDO
100
AcDbLine
 62
250
  6
CONTINUOUS
 10
-27.9992837371
 20
14.286936906
 11
-41.0167361435
 21
14.2432004109
  0
LINE
  5
549
100
AcDbEntity
  8
ASSI
100
AcDbLine
 62
250
  6
CONTINUOUS
 10
-27.9992837371
 20
14.286936906
 11
-41.0167361435
 21
14.2432004109
  0
LINE
  5
54A
100
AcDbEntity
  8
INCISIONI
100
AcDbLine
 62
250
  6
CONTINUOUS
 10
-43.6453076085
 20
12.8647999184
 11
-43.951021876
 21
12.8647999184
  0
LINE
  5
54B
100
AcDbEntity
  8
INCISIONI
100
AcDbLine
 62
250
  6
CONTINUOUS
 10
-43.339593341
 20
13.5496001633
 11
-44.2567361435
 21
13.5496001633
  0
LINE
  5
54C
100
AcDbEntity
  8
INCISIONI
100
AcDbLine
 62
250
  6
CONTINUOUS
 10
-45.5338874592
 20
13.66021
 11
-48.4320984343
 21
13.66021
  0
LINE
  5
54D
100
AcDbEntity
  8
RACCORDO
100
AcDbLine
 62
250
  6
CONTINUOUS
 10
-27.0167361435
 20
14.286936906
 11
-27.9992837371
 21
14.286936906
  0
LINE
  5
54E
100
AcDbEntity
  8
ASSI
100
AcDbLine
 62
250
  6
CONTINUOUS
 10
-27.0167361435
 20
14.286936906
 11
-27.9992837371
 21
14.286936906
  0
LINE
  5
54F
100
AcDbEntity
  8
INCISIONI
100
AcDbLine
 62
250
  6
CONTINUOUS
 10
-42.4224504429
 20
14.5768002449
 11
-43.0338790098
 21
14.5768002449
  0
LINE
  5
550
100
AcDbEntity
  8
INCISIONI
100
AcDbLine
 62
250
  6
CONTINUOUS
 10
-47.5584966027
 20
14.165656
 11
-45.5338874592
 21
14.158632
  0
LINE
  5
551
100
AcDbEntity
  8
0
100
AcDbLine
 62
7
  6
CONTINUOUS
 10
-55.8917361435
 20
23.6278312164
 11
-55.0167361435
 21
23.1226497308
  0
LINE
  5
552
100
AcDbEntity
  8
0
100
AcDbLine
 62
250
  6
CONTINUOUS
 10
-55.7681905764
 20
23.8443375673
 11
-54.7681905764
 21
23.2669872981
  0
LINE
  5
553
100
AcDbEntity
  8
0
100
AcDbLine
 62
7
  6
CONTINUOUS
 10
-28.5167361435
 20
19.3927908573
 11
-28.5167361435
 21
18.1208482034
  0
LINE
  5
554
100
AcDbEntity
  8
DRAFT
100
AcDbLine
 62
7
  6
CONTINUOUS
 10
-28.5167361435
 20
18.1208482034
 11
-28.5167361435
 21
16.3797920206
  0
LINE
  5
555
100
AcDbEntity
  8
0
100
AcDbLine
 62
7
  6
CONTINUOUS
 10
-28.5167361435
 20
16.3797920206
 11
-28.5167361435
 21
16.0487170242
  0
LINE
  5
556
100
AcDbEntity
  8
ASSI
100
AcDbLine
 62
7
  6
CONTINUOUS
 10
-28.5167361435
 20
19.3927908573
 11
-28.5167361435
 21
16.0487170242
  0
LINE
  5
557
100
AcDbEntity
  8
RACCORDO
100
AcDbLine
 62
250
  6
CONTINUOUS
 10
-28.0109184122
 20
16.046168518
 11
-28.0109184122
 21
15.1529476539
  0
LINE
  5
558
100
AcDbEntity
  8
ASSI
100
AcDbLine
 62
250
  6
CONTINUOUS
 10
-28.0109184122
 20
16.046168518
 11
-28.0109184122
 21
15.1529476539
  0
LINE
  5
559
100
AcDbEntity
  8
RACCORDO
100
AcDbLine
 62
250
  6
CONTINUOUS
 10
-27.9992837371
 20
-18.9192781701
 11
-27.9992837371
 21
-19.0909100822
  0
LINE
  5
55A
100
AcDbEntity
  8
ASSI
100
AcDbLine
 62
250
  6
CONTINUOUS
 10
-27.9992837371
 20
-18.9192781701
 11
-27.9992837371
 21
-19.0909100822
  0
LINE
  5
55B
100
AcDbEntity
  8
RACCORDO
100
AcDbLine
 62
250
  6
CONTINUOUS
 10
-27.9992837371
 20
-17.5052799993
 11
-27.9992837371
 21
14.286936906
  0
LINE
  5
55C
100
AcDbEntity
  8
ASSI
100
AcDbLine
 62
250
  6
CONTINUOUS
 10
-27.9992837371
 20
-17.5052799993
 11
-27.9992837371
 21
14.286936906
  0
LINE
  5
55D
100
AcDbEntity
  8
RACCORDO
100
AcDbLine
 62
7
  6
CONTINUOUS
 10
-27.0167361435
 20
18.3839109968
 11
-27.0167361435
 21
16.0181977061
  0
LINE
  5
55E
100
AcDbEntity
  8
ASSI
100
AcDbLine
 62
7
  6
CONTINUOUS
 10
-27.0167361435
 20
18.3839109968
 11
-27.0167361435
 21
16.0181977061
  0
LINE
  5
55F
100
AcDbEntity
  8
RACCORDO
100
AcDbLine
 62
7
  6
CONTINUOUS
 10
-27.0167361435
 20
15.1801577701
 11
-27.0167361435
 21
-9.0331115016
  0
LINE
  5
560
100
AcDbEntity
  8
ASSI
100
AcDbLine
 62
7
  6
CONTINUOUS
 10
-27.0167361435
 20
15.1801577701
 11
-27.0167361435
 21
-9.0331115016
  0
LINE
  5
561
100
AcDbEntity
  8
RACCORDO
100
AcDbLine
 62
7
  6
CONTINUOUS
 10
-27.0167361435
 20
-14.0668884984
 11
-27.0167361435
 21
-18.3839109968
  0
LINE
  5
562
100
AcDbEntity
  8
ASSI
100
AcDbLine
 62
7
  6
CONTINUOUS
 10
-27.0167361435
 20
-14.0668884984
 11
-27.0167361435
 21
-18.3839109968
  0
LINE
  5
563
100
AcDbEntity
  8
RACCORDO
100
AcDbLine
 62
250
  6
CONTINUOUS
 10
-28.0109184122
 20
15.1529476539
 11
-41.0167361435
 21
15.1092502494
  0
LINE
  5
564
100
AcDbEntity
  8
ASSI
100
AcDbLine
 62
250
  6
CONTINUOUS
 10
-28.0109184122
 20
15.1529476539
 11
-41.0167361435
 21
15.1092502494
  0
LINE
  5
565
100
AcDbEntity
  8
INCISIONI
100
AcDbLine
 62
250
  6
CONTINUOUS
 10
-46.3851480977
 20
15.502999
 11
-48.4320984343
 21
15.503009
  0
LINE
  5
566
100
AcDbEntity
  8
INCISIONI
100
AcDbLine
 62
250
  6
CONTINUOUS
 10
-44.2567361435
 20
15.9464001633
 11
-42.1167361435
 21
15.9464001633
  0
LINE
  5
567
100
AcDbEntity
  8
INCISIONI
100
AcDbLine
 62
250
  6
CONTINUOUS
 10
-48.4320984343
 20
16.001437
 11
-45.5338874592
 21
16.001437
  0
LINE
  5
568
100
AcDbEntity
  8
RACCORDO
100
AcDbLine
 62
7
  6
CONTINUOUS
 10
-31.5662054653
 20
16.6363448016
 11
-33.4208960805
 21
16.6363448016
  0
LINE
  5
569
100
AcDbEntity
  8
RACCORDO
100
AcDbLine
 62
7
  6
CONTINUOUS
 10
-34.4125762065
 20
16.6363448016
 11
-36.1082178774
 21
16.6363448016
  0
LINE
  5
56A
100
AcDbEntity
  8
RACCORDO
100
AcDbLine
 62
7
  6
CONTINUOUS
 10
-28.0109184122
 20
16.046168518
 11
-28.5167361435
 21
16.0487170242
  0
LINE
  5
56B
100
AcDbEntity
  8
ASSI
100
AcDbLine
 62
7
  6
CONTINUOUS
 10
-28.0109184122
 20
16.046168518
 11
-28.5167361435
 21
16.0487170242
  0
LINE
  5
56C
100
AcDbEntity
  8
0
100
AcDbLine
 62
7
  6
CONTINUOUS
 10
-28.5167361435
 20
16.3797920206
 11
-34.5455828899
 21
16.426348557
  0
LINE
  5
56D
100
AcDbEntity
  8
ASSI
100
AcDbLine
 62
7
  6
CONTINUOUS
 10
-28.5167361435
 20
16.3797920206
 11
-34.5455828899
 21
16.426348557
  0
LINE
  5
56E
100
AcDbEntity
  8
DRAFT
100
AcDbLine
 62
7
  6
CONTINUOUS
 10
-27.0167361435
 20
13.25
 11
-25.2905894363
 21
13.0989817315
  0
LINE
  5
56F
100
AcDbEntity
  8
ASSI
100
AcDbLine
 62
7
  6
CONTINUOUS
 10
-27.0167361435
 20
13.25
 11
-25.2905894363
 21
13.0989817315
  0
LINE
  5
570
100
AcDbEntity
  8
0
100
AcDbLine
 62
7
  6
CONTINUOUS
 10
-51.0167361435
 20
18.0591825482
 11
-53.5167361435
 21
18.5
  0
LINE
  5
571
100
AcDbEntity
  8
RACCORDO
100
AcDbLine
 62
250
  6
CONTINUOUS
 10
-26.7428828663
 20
-13.8440097649
 11
-26.7428827347
 21
-14.6260404272
  0
LINE
  5
572
100
AcDbEntity
  8
ASSI
100
AcDbLine
 62
250
  6
CONTINUOUS
 10
-26.7428828663
 20
-13.8440097649
 11
-26.7428827347
 21
-14.6260404272
  0
LINE
  5
573
100
AcDbEntity
  8
RACCORDO
100
AcDbLine
 62
250
  6
CONTINUOUS
 10
-26.7428828663
 20
11.7257301888
 11
-26.7428828663
 21
7.0739590576
  0
LINE
  5
574
100
AcDbEntity
  8
ASSI
100
AcDbLine
 62
250
  6
CONTINUOUS
 10
-26.7428828663
 20
11.7257301888
 11
-26.7428828663
 21
7.0739590576
  0
LINE
  5
575
100
AcDbEntity
  8
RACCORDO
100
AcDbLine
 62
250
  6
CONTINUOUS
 10
-26.742882783
 20
-8.4739594266
 11
-26.7428828663
 21
-9.2559902351
  0
LINE
  5
576
100
AcDbEntity
  8
ASSI
100
AcDbLine
 62
250
  6
CONTINUOUS
 10
-26.742882783
 20
-8.4739594266
 11
-26.7428828663
 21
-9.2559902351
  0
LINE
  5
577
100
AcDbEntity
  8
RACCORDO
100
AcDbLine
 62
250
  6
CONTINUOUS
 10
-25.2905891601
 20
15.5989817073
 11
-25.2905893481
 21
13.3389373107
  0
LINE
  5
578
100
AcDbEntity
  8
ASSI
100
AcDbLine
 62
250
  6
CONTINUOUS
 10
-25.2905891601
 20
15.5989817073
 11
-25.2905893481
 21
13.3389373107
  0
LINE
  5
579
100
AcDbEntity
  8
RACCORDO
100
AcDbLine
 62
250
  6
CONTINUOUS
 10
-25.2905892162
 20
-8.6010182886
 11
-25.2905889763
 21
-14.4989816904
  0
LINE
  5
57A
100
AcDbEntity
  8
ASSI
100
AcDbLine
 62
250
  6
CONTINUOUS
 10
-25.2905892162
 20
-8.6010182886
 11
-25.2905889763
 21
-14.4989816904
  0
LINE
  5
57B
100
AcDbEntity
  8
RACCORDO
100
AcDbLine
 62
250
  6
CONTINUOUS
 10
-25.2905894868
 20
13.0989817355
 11
-25.2905891601
 21
7.2010182927
  0
LINE
  5
57C
100
AcDbEntity
  8
ASSI
100
AcDbLine
 62
250
  6
CONTINUOUS
 10
-25.2905894868
 20
13.0989817355
 11
-25.2905891601
 21
7.2010182927
  0
LINE
  5
57D
100
AcDbEntity
  8
RACCORDO
100
AcDbLine
 62
7
  6
CONTINUOUS
 10
-25.0167361435
 20
15.3000746211
 11
-25.0167361435
 21
12.8001236631
  0
LINE
  5
57E
100
AcDbEntity
  8
ASSI
100
AcDbLine
 62
7
  6
CONTINUOUS
 10
-25.0167361435
 20
15.3000746211
 11
-25.0167361435
 21
12.8001236631
  0
LINE
  5
57F
100
AcDbEntity
  8
RACCORDO
100
AcDbLine
 62
7
  6
CONTINUOUS
 10
-25.0167361435
 20
12.7993434002
 11
-25.0167361435
 21
7.4999253789
  0
LINE
  5
580
100
AcDbEntity
  8
ASSI
100
AcDbLine
 62
7
  6
CONTINUOUS
 10
-25.0167361435
 20
12.7993434002
 11
-25.0167361435
 21
7.4999253789
  0
LINE
  5
581
100
AcDbEntity
  8
RACCORDO
100
AcDbLine
 62
7
  6
CONTINUOUS
 10
-25.0167361435
 20
-8.8999727257
 11
-25.0167361435
 21
-14.200026062
  0
LINE
  5
582
100
AcDbEntity
  8
ASSI
100
AcDbLine
 62
7
  6
CONTINUOUS
 10
-25.0167361435
 20
-8.8999727257
 11
-25.0167361435
 21
-14.200026062
  0
LINE
  5
583
100
AcDbEntity
  8
0
100
AcDbLine
 62
250
  6
CONTINUOUS
 10
-30.8198127014
 20
-13.3071429014
 11
-30.6341267119
 21
-13.1214287043
  0
LINE
  5
584
100
AcDbEntity
  8
0
100
AcDbLine
 62
250
  6
CONTINUOUS
 10
-30.8198127014
 20
-14.5142856479
 11
-29.5200106977
 21
-14.1428570986
  0
LINE
  5
585
100
AcDbEntity
  8
0
100
AcDbLine
 62
7
  6
CONTINUOUS
 10
-34.5407341161
 20
18.6206191198
 11
-28.5167361435
 21
18.6469044367
  0
LINE
  5
586
100
AcDbEntity
  8
ASSI
100
AcDbLine
 62
7
  6
CONTINUOUS
 10
-34.5407341161
 20
18.6206191198
 11
-28.5167361435
 21
18.6469044367
  0
LINE
  5
587
100
AcDbEntity
  8
0
100
AcDbLine
 62
7
  6
CONTINUOUS
 10
-34.2667361435
 20
17.3813448016
 11
-33.5667361435
 21
17.3813448016
  0
LINE
  5
588
100
AcDbEntity
  8
DRAFT
100
AcDbLine
 62
7
  6
CONTINUOUS
 10
-34.5407341161
 20
18.1249141281
 11
-28.5167361435
 21
18.1208482034
  0
LINE
  5
589
100
AcDbEntity
  8
ASSI
100
AcDbLine
 62
7
  6
CONTINUOUS
 10
-34.5407341161
 20
18.1249141281
 11
-28.5167361435
 21
18.1208482034
  0
LINE
  5
58A
100
AcDbEntity
  8
DRAFT
100
AcDbLine
 62
7
  6
CONTINUOUS
 10
-36.2000501153
 20
17.8447002131
 11
-33.5667361435
 21
17.8293800405
  0
LINE
  5
58B
100
AcDbEntity
  8
ASSI
100
AcDbLine
 62
7
  6
CONTINUOUS
 10
-36.2000501153
 20
17.8447002131
 11
-33.5667361435
 21
17.8293800405
  0
LINE
  5
58C
100
AcDbEntity
  8
0
100
AcDbLine
 62
250
  6
CONTINUOUS
 10
-41.0167361435
 20
17.5993978025
 11
-51.0167361435
 21
17.6716990487
  0
LINE
  5
58D
100
AcDbEntity
  8
ASSI
100
AcDbLine
 62
250
  6
CONTINUOUS
 10
-41.0167361435
 20
17.5993978025
 11
-51.0167361435
 21
17.6716990487
  0
LINE
  5
58E
100
AcDbEntity
  8
DRAFT
100
AcDbLine
 62
7
  6
CONTINUOUS
 10
-52.5167361435
 20
18.5082905244
 11
-51.0167361435
 21
18.4843530418
  0
LINE
  5
58F
100
AcDbEntity
  8
DRAFT
100
AcDbLine
 62
7
  6
CONTINUOUS
 10
-26.7428828663
 20
15.7260409428
 11
-25.2905891608
 21
15.5989817074
  0
LINE
  5
590
100
AcDbEntity
  8
ASSI
100
AcDbLine
 62
7
  6
CONTINUOUS
 10
-26.7428828663
 20
15.7260409428
 11
-25.2905891608
 21
15.5989817074
  0
LINE
  5
591
100
AcDbEntity
  8
0
100
AcDbLine
 62
7
  6
CONTINUOUS
 10
-33.4208960805
 20
16.6363448016
 11
-33.5667361435
 21
16.8814422699
  0
LINE
  5
592
100
AcDbEntity
  8
0
100
AcDbLine
 62
250
  6
CONTINUOUS
 10
-30.8198127014
 20
-16.0
 11
-30.0770687048
 21
-15.628571412
  0
LINE
  5
593
100
AcDbEntity
  8
DRAFT
100
AcDbLine
 62
7
  6
CONTINUOUS
 10
-51.0167361435
 20
19.7130903017
 11
-52.5167361435
 21
19.7
  0
LINE
  5
594
100
AcDbEntity
  8
0
100
AcDbLine
 62
250
  6
CONTINUOUS
 10
-41.0167361435
 20
19.0133959733
 11
-51.0167361435
 21
19.0856972195
  0
LINE
  5
595
100
AcDbEntity
  8
ASSI
100
AcDbLine
 62
250
  6
CONTINUOUS
 10
-41.0167361435
 20
19.0133959733
 11
-51.0167361435
 21
19.0856972195
  0
LINE
  5
596
100
AcDbEntity
  8
DRAFT
100
AcDbLine
 62
7
  6
CONTINUOUS
 10
-52.5167361435
 20
19.5
 11
-51.0167361435
 21
19.4738174026
  0
LINE
  5
597
100
AcDbEntity
  8
RACCORDO
100
AcDbLine
 62
7
  6
CONTINUOUS
 10
-27.9992837371
 20
19.3837586919
 11
-28.5167361435
 21
19.3927908573
  0
LINE
  5
598
100
AcDbEntity
  8
0
100
AcDbLine
 62
7
  6
CONTINUOUS
 10
-28.5167361435
 20
19.3927908573
 11
-41.0167361435
 21
19.6109791689
  0
LINE
  5
599
100
AcDbEntity
  8
ASSI
100
AcDbLine
 62
7
  6
CONTINUOUS
 10
-27.9992837371
 20
19.3837586919
 11
-41.0167361435
 21
19.6109791689
  0
LINE
  5
59A
100
AcDbEntity
  8
0
100
AcDbLine
 62
7
  6
CONTINUOUS
 10
-31.247374312
 20
16.7444668402
 11
-32.0631081686
 21
17.1746194326
  0
LINE
  5
59B
100
AcDbEntity
  8
RACCORDO
100
AcDbLine
 62
250
  6
CONTINUOUS
 10
-31.2469513275
 20
16.7442437548
 11
-31.2473742782
 21
16.7444668224
  0
LINE
  5
59C
100
AcDbEntity
  8
RACCORDO
100
AcDbLine
 62
250
  6
CONTINUOUS
 10
-32.0631081686
 20
17.1746194326
 11
-32.0607643111
 21
17.1733818173
  0
LINE
  5
59D
100
AcDbEntity
  8
0
100
AcDbLine
 62
250
  6
CONTINUOUS
 10
-53.5167133001
 20
21.8997723451
 11
-59.9815788528
 21
21.5609621806
  0
LINE
  5
59E
100
AcDbEntity
  8
0
100
AcDbLine
 62
7
  6
CONTINUOUS
 10
-41.5080099403
 20
21.5921580307
 11
-52.5167361435
 21
21.4
  0
LINE
  5
59F
100
AcDbEntity
  8
DRAFT
100
AcDbLine
 62
7
  6
CONTINUOUS
 10
-51.0167361435
 20
20.85
 11
-41.0167361435
 21
20.85
  0
LINE
  5
5A0
100
AcDbEntity
  8
ASSI
100
AcDbLine
 62
7
  6
CONTINUOUS
 10
-51.0167361435
 20
20.85
 11
-41.0167361435
 21
20.85
  0
LINE
  5
5A1
100
AcDbEntity
  8
0
100
AcDbLine
 62
7
  6
CONTINUOUS
 10
-41.0167361435
 20
20.9
 11
-52.5167361435
 21
20.9
  0
LINE
  5
5A2
100
AcDbEntity
  8
0
100
AcDbLine
 62
250
  6
CONTINUOUS
 10
-52.5167361435
 20
21.8941990932
 11
-53.5167361435
 21
21.900016923
  0
LINE
  5
5A3
100
AcDbEntity
  8
0
100
AcDbLine
 62
7
  6
CONTINUOUS
 10
-42.0109184122
 20
22.3330611106
 11
-53.5167359683
 21
22.399999999
  0
LWPOLYLINE
  5
5A4
100
AcDbEntity
  8
0
100
AcDbPolyline
 62
7
  6
CONTINUOUS
 90
10
 70
0
 43
0.3500000006
 10
-37.6953074341
 20
35.7500015259
 10
-37.6238785172
 20
35.607143692
 10
-37.6238785172
 20
35.5357125092
 10
-37.766736351
 20
35.3928592072
 10
-37.8381652679
 20
35.3928592072
 10
-37.9095941849
 20
35.4642858582
 10
-37.9095941849
 20
35.5357125092
 10
-37.8381652679
 20
35.678570343
 10
-37.766736351
 20
35.7500015259
 10
-37.6953074341
 20
35.7500015259
  0
LINE
  5
5A5
100
AcDbEntity
  8
0
100
AcDbLine
 62
7
  6
CONTINUOUS
 10
-53.5167361435
 20
22.4
 11
-59.9999732126
 21
22.0602279426
  0
LINE
  5
5A6
100
AcDbEntity
  8
0
100
AcDbLine
 62
250
  6
CONTINUOUS
 10
-55.7681905764
 20
24.2369056521
 11
-53.5167361435
 21
24.2500042308
  0
LINE
  5
5A7
100
AcDbEntity
  8
0
100
AcDbLine
 62
7
  6
CONTINUOUS
 10
-55.7681905764
 20
24.4869014213
 11
-53.5167361435
 21
24.5
  0
LINE
  5
5A8
100
AcDbEntity
  8
0
100
AcDbLine
 62
250
  6
CONTINUOUS
 10
-56.0167361435
 20
23.8443375673
 11
-55.7681905764
 21
23.8443375673
  0
LINE
  5
5A9
100
AcDbEntity
  8
0
100
AcDbLine
 62
250
  6
CONTINUOUS
 10
-52.5167361435
 20
23.8443375673
 11
-52.7652817107
 21
23.8443375673
  0
LINE
  5
5AA
100
AcDbEntity
  8
0
100
AcDbLine
 62
250
  6
CONTINUOUS
 10
-56.0167361435
 20
24.2369056521
 11
-55.7681905764
 21
24.2369056521
  0
LINE
  5
5AB
100
AcDbEntity
  8
0
100
AcDbLine
 62
250
  6
CONTINUOUS
 10
-52.5167361435
 20
24.2456323968
 11
-52.7652817107
 21
24.2456323968
  0
LINE
  5
5AC
100
AcDbEntity
  8
0
100
AcDbLine
 62
7
  6
CONTINUOUS
 10
-46.0138272778
 20
23.9563493531
 11
-52.5167361435
 21
23.9941821702
  0
LINE
  5
5AD
100
AcDbEntity
  8
0
100
AcDbLine
 62
250
  6
CONTINUOUS
 10
-53.5167361435
 20
24.2500042308
 11
-52.7652817107
 21
24.2456323968
  0
LINE
  5
5AE
100
AcDbEntity
  8
0
100
AcDbLine
 62
7
  6
CONTINUOUS
 10
-53.5167361435
 20
24.5
 11
-52.7652817107
 21
24.495628166
  0
LWPOLYLINE
  5
5AF
100
AcDbEntity
  8
0
100
AcDbPolyline
 62
7
  6
CONTINUOUS
 90
8
 70
0
 43
0.3500000006
 10
-36.623878212
 20
35.2500013733
 10
-35.7667357407
 20
35.2500013733
 10
-35.338164505
 20
35.678570343
 10
-35.338164505
 20
36.5357128143
 10
-35.7667357407
 20
36.9642863159
 10
-36.623878212
 20
36.9642863159
 10
-36.623878212
 20
38.249997757
 10
-35.338164505
 20
38.249997757
  0
LWPOLYLINE
  5
5B0
100
AcDbEntity
  8
0
100
AcDbPolyline
 62
7
  6
CONTINUOUS
 90
7
 70
0
 43
0.3500000006
 10
-41.5524508209
 20
35.2500013733
 10
-43.0524512787
 20
35.2500013733
 10
-41.5524508209
 20
37.3928552856
 10
-41.5524508209
 20
37.8214287872
 10
-41.9810197906
 20
38.249997757
 10
-42.6238777771
 20
38.249997757
 10
-43.0524512787
 20
37.6071443024
  0
LWPOLYLINE
  5
5B1
100
AcDbEntity
  8
0
100
AcDbPolyline
 62
7
  6
CONTINUOUS
 90
6
 70
0
 43
0.3500000006
 10
-45.7667365265
 20
43.2499992828
 10
-44.6953095703
 20
43.2499992828
 10
-44.4810205536
 20
43.4642837677
 10
-44.4810205536
 20
44.5357152557
 10
-44.9095940552
 20
44.9642842255
 10
-45.3381630249
 20
44.9642842255
  0
ARC
  5
5B2
100
AcDbEntity
  8
0
100
AcDbCircle
 62
250
  6
CONTINUOUS
 10
-5119.708889773
 20
-7.8584745948
 40
5108.7945515002
100
AcDbArc
 50
359.8502527302
 51
359.9815900839
  0
ARC
  5
5B3
100
AcDbEntity
  8
0
100
AcDbCircle
 62
250
  6
CONTINUOUS
 10
-5063.6023592716
 20
-7.8580939553
 40
5052.1880971512
100
AcDbArc
 50
359.8494161563
 51
359.9814872335
  0
ARC
  5
5B4
100
AcDbEntity
  8
0
100
AcDbCircle
 62
250
  6
CONTINUOUS
 10
-10.939744328
 20
-21.5600454808
 40
0.5001623376
100
AcDbArc
 50
180.0994026125
 51
269.9752870353
  0
ARC
  5
5B5
100
AcDbEntity
  8
0
100
AcDbCircle
 62
7
  6
CONTINUOUS
 10
-4.4036175455
 20
-23.15
 40
0.5
100
AcDbArc
 50
154.1580672368
 51
205.8419327632
  0
ARC
  5
5B6
100
AcDbEntity
  8
0
100
AcDbCircle
 62
7
  6
CONTINUOUS
 10
-11.0528905552
 20
-21.9001879719
 40
0.4998306865
100
AcDbArc
 50
179.9522215796
 51
269.9730795759
  0
ARC
  5
5B7
100
AcDbEntity
  8
0
100
AcDbCircle
 62
7
  6
CONTINUOUS
 10
-10.2905123492
 20
-24.2368948038
 40
0.2500066177
100
AcDbArc
 50
180.0024861811
 51
269.9975138189
  0
ARC
  5
5B8
100
AcDbEntity
  8
0
100
AcDbCircle
 62
7
  6
CONTINUOUS
 10
-7.9167227417
 20
-24.2368948038
 40
0.2500066177
100
AcDbArc
 50
270.0024861811
 51
359.9975138189
  0
ARC
  5
5B9
100
AcDbEntity
  8
0
100
AcDbCircle
 62
7
  6
CONTINUOUS
 10
-10.3036231559
 20
-24.2500056105
 40
0.2499942811
100
AcDbArc
 50
180.0061185554
 51
269.9938814446
  0
ARC
  5
5BA
100
AcDbEntity
  8
0
100
AcDbCircle
 62
7
  6
CONTINUOUS
 10
-7.903611935
 20
-24.2500056105
 40
0.2499942811
100
AcDbArc
 50
270.0061185554
 51
359.9938814446
  0
ARC
  5
5BB
100
AcDbEntity
  8
0
100
AcDbCircle
 62
7
  6
CONTINUOUS
 10
-1.6036192378
 20
-23.7999983076
 40
0.2000016924
100
AcDbArc
 50
270.0004848234
 51
0.0004848094
  0
ARC
  5
5BC
100
AcDbEntity
  8
0
100
AcDbCircle
 62
7
  6
CONTINUOUS
 10
-1.603616361
 20
-23.7982490662
 40
0.1999988155
100
AcDbArc
 50
269.9996606734
 51
359.9993696938
  0
ARC
  5
5BD
100
AcDbEntity
  8
0
100
AcDbCircle
 62
250
  6
CONTINUOUS
 10
-5148.030665574
 20
7.8169138239
 40
5137.1163392958
100
AcDbArc
 50
0.0187719588
 51
0.1493852271
  0
ARC
  5
5BE
100
AcDbEntity
  8
0
100
AcDbCircle
 62
250
  6
CONTINUOUS
 10
-5091.6102286133
 20
7.8167642165
 40
5080.1959784875
100
AcDbArc
 50
0.0188768305
 51
0.1502197797
  0
ARC
  5
5BF
100
AcDbEntity
  8
0
100
AcDbCircle
 62
250
  6
CONTINUOUS
 10
-10.9397816682
 20
21.5600751779
 40
0.5001324534
100
AcDbArc
 50
90.0204368654
 51
179.9014286391
  0
ARC
  5
5C0
100
AcDbEntity
  8
0
100
AcDbCircle
 62
7
  6
CONTINUOUS
 10
-4.4036175455
 20
23.15
 40
0.5
100
AcDbArc
 50
154.1580672368
 51
205.8419327632
  0
ARC
  5
5C1
100
AcDbEntity
  8
0
100
AcDbCircle
 62
7
  6
CONTINUOUS
 10
-11.0528905525
 20
21.9001879742
 40
0.4998306865
100
AcDbArc
 50
90.026920736
 51
180.0477786903
  0
ARC
  5
5C2
100
AcDbEntity
  8
0
100
AcDbCircle
 62
7
  6
CONTINUOUS
 10
-10.2905123492
 20
24.2368948038
 40
0.2500066177
100
AcDbArc
 50
90.0024861811
 51
179.9975138189
  0
ARC
  5
5C3
100
AcDbEntity
  8
0
100
AcDbCircle
 62
7
  6
CONTINUOUS
 10
-7.9167227417
 20
24.2368948038
 40
0.2500066177
100
AcDbArc
 50
0.0024861811
 51
89.9975138189
  0
ARC
  5
5C4
100
AcDbEntity
  8
0
100
AcDbCircle
 62
7
  6
CONTINUOUS
 10
-10.3036231559
 20
24.2500056105
 40
0.2499942811
100
AcDbArc
 50
90.0061185553
 51
179.9938814446
  0
ARC
  5
5C5
100
AcDbEntity
  8
0
100
AcDbCircle
 62
7
  6
CONTINUOUS
 10
-7.903611935
 20
24.2500056105
 40
0.2499942811
100
AcDbArc
 50
0.0061185554
 51
89.9938814446
  0
ARC
  5
5C6
100
AcDbEntity
  8
0
100
AcDbCircle
 62
7
  6
CONTINUOUS
 10
-1.6036192378
 20
23.7999983076
 40
0.2000016924
100
AcDbArc
 50
359.9995151906
 51
89.9995151766
  0
ARC
  5
5C7
100
AcDbEntity
  8
0
100
AcDbCircle
 62
250
  6
CONTINUOUS
 10
-1.6036163606
 20
23.7982490666
 40
0.1999988151
100
AcDbArc
 50
0.0006301927
 51
90.0003394401
  0
ARC
  5
5C8
100
AcDbEntity
  8
0
100
AcDbCircle
 62
250
  6
CONTINUOUS
 10
5147.2233829084
 20
-7.8169138937
 40
5137.1162917211
100
AcDbArc
 50
180.0187719582
 51
180.1493852277
  0
ARC
  5
5C9
100
AcDbEntity
  8
0
100
AcDbCircle
 62
250
  6
CONTINUOUS
 10
5090.8029469122
 20
-7.8167642853
 40
5080.1959318772
100
AcDbArc
 50
180.0188768298
 51
180.1502197803
  0
ARC
  5
5CA
100
AcDbEntity
  8
0
100
AcDbCircle
 62
250
  6
CONTINUOUS
 10
10.13250924
 20
-21.5600454781
 40
0.5001623374
100
AcDbArc
 50
270.0247126219
 51
359.9005970758
  0
ARC
  5
5CB
100
AcDbEntity
  8
0
100
AcDbCircle
 62
7
  6
CONTINUOUS
 10
3.5963824545
 20
-23.15
 40
0.5
100
AcDbArc
 50
334.1580672368
 51
25.8419327632
  0
ARC
  5
5CC
100
AcDbEntity
  8
0
100
AcDbCircle
 62
7
  6
CONTINUOUS
 10
10.2456479839
 20
-21.9001805016
 40
0.4998398178
100
AcDbArc
 50
270.0277775233
 51
0.0469214469
  0
ARC
  5
5CD
100
AcDbEntity
  8
0
100
AcDbCircle
 62
7
  6
CONTINUOUS
 10
9.4832772578
 20
-24.2368948033
 40
0.2500066182
100
AcDbArc
 50
270.0024862874
 51
359.9975137126
  0
ARC
  5
5CE
100
AcDbEntity
  8
0
100
AcDbCircle
 62
7
  6
CONTINUOUS
 10
7.1094876512
 20
-24.2368948033
 40
0.2500066182
100
AcDbArc
 50
180.0024862874
 51
269.9975137126
  0
ARC
  5
5CF
100
AcDbEntity
  8
0
100
AcDbCircle
 62
7
  6
CONTINUOUS
 10
9.496388065
 20
-24.2500056105
 40
0.2499942811
100
AcDbArc
 50
270.0061185554
 51
359.9938814446
  0
ARC
  5
5D0
100
AcDbEntity
  8
0
100
AcDbCircle
 62
7
  6
CONTINUOUS
 10
7.0963768441
 20
-24.2500056105
 40
0.2499942811
100
AcDbArc
 50
180.0061185554
 51
269.9938814446
  0
ARC
  5
5D1
100
AcDbEntity
  8
0
100
AcDbCircle
 62
7
  6
CONTINUOUS
 10
0.7963841469
 20
-23.7999983076
 40
0.2000016924
100
AcDbArc
 50
179.9995151906
 51
269.9995151766
  0
ARC
  5
5D2
100
AcDbEntity
  8
0
100
AcDbCircle
 62
250
  6
CONTINUOUS
 10
0.7963812697
 20
-23.7982490666
 40
0.1999988151
100
AcDbArc
 50
180.0006301927
 51
270.0003394401
  0
ARC
  5
5D3
100
AcDbEntity
  8
0
100
AcDbCircle
 62
250
  6
CONTINUOUS
 10
5118.9016077912
 20
7.8584746637
 40
5108.7945046092
100
AcDbArc
 50
179.8502527296
 51
179.9815900845
  0
ARC
  5
5D4
100
AcDbEntity
  8
0
100
AcDbCircle
 62
250
  6
CONTINUOUS
 10
5062.7950775817
 20
7.858094024
 40
5052.1880505523
100
AcDbArc
 50
179.8494161557
 51
179.9814872341
  0
ARC
  5
5D5
100
AcDbEntity
  8
0
100
AcDbCircle
 62
250
  6
CONTINUOUS
 10
10.1325923033
 20
21.5601115031
 40
0.5000960017
100
AcDbArc
 50
0.0975709571
 51
89.9848002442
  0
ARC
  5
5D6
100
AcDbEntity
  8
0
100
AcDbCircle
 62
7
  6
CONTINUOUS
 10
3.5963824545
 20
23.15
 40
0.5
100
AcDbArc
 50
334.1580672368
 51
25.8419327632
  0
ARC
  5
5D7
100
AcDbEntity
  8
0
100
AcDbCircle
 62
7
  6
CONTINUOUS
 10
10.2456479813
 20
21.9001805042
 40
0.4998398178
100
AcDbArc
 50
359.953078263
 51
89.9722221837
  0
ARC
  5
5D8
100
AcDbEntity
  8
0
100
AcDbCircle
 62
7
  6
CONTINUOUS
 10
9.4832772578
 20
24.2368948033
 40
0.2500066182
100
AcDbArc
 50
0.0024862874
 51
89.9975137126
  0
ARC
  5
5D9
100
AcDbEntity
  8
0
100
AcDbCircle
 62
7
  6
CONTINUOUS
 10
7.1094876508
 20
24.2368948038
 40
0.2500066177
100
AcDbArc
 50
90.0024861811
 51
179.9975138189
  0
ARC
  5
5DA
100
AcDbEntity
  8
0
100
AcDbCircle
 62
7
  6
CONTINUOUS
 10
7.0963768441
 20
24.2500056105
 40
0.2499942811
100
AcDbArc
 50
90.0061185554
 51
179.9938814446
  0
ARC
  5
5DB
100
AcDbEntity
  8
0
100
AcDbCircle
 62
7
  6
CONTINUOUS
 10
9.496388065
 20
24.2500056105
 40
0.2499942811
100
AcDbArc
 50
0.0061185554
 51
89.9938814447
  0
ARC
  5
5DC
100
AcDbEntity
  8
0
100
AcDbCircle
 62
7
  6
CONTINUOUS
 10
0.7963841469
 20
23.7999983076
 40
0.2000016924
100
AcDbArc
 50
90.0004848234
 51
180.0004848094
  0
ARC
  5
5DD
100
AcDbEntity
  8
0
100
AcDbCircle
 62
7
  6
CONTINUOUS
 10
0.7963812701
 20
23.7982490662
 40
0.1999988155
100
AcDbArc
 50
89.9996606734
 51
179.9993696938
  0
ARC
  5
5DE
100
AcDbEntity
  8
RACCORDO
100
AcDbCircle
 62
250
  6
CONTINUOUS
 10
-81.629289892
 20
-567.2765457639
 40
583.3424280514
100
AcDbArc
 50
84.4577850806
 51
84.6280985717
  0
ARC
  5
5DF
100
AcDbEntity
  8
ASSI
100
AcDbCircle
 62
250
  6
CONTINUOUS
 10
-81.629289892
 20
-567.2765457639
 40
583.3424280514
100
AcDbArc
 50
84.4577850806
 51
84.6280985717
  0
ARC
  5
5E0
100
AcDbEntity
  8
RACCORDO
100
AcDbCircle
 62
250
  6
CONTINUOUS
 10
-213.8593261705
 20
-18.2122790847
 40
185.861387117
100
AcDbArc
 50
359.7820517643
 51
0.2179482357
  0
ARC
  5
5E1
100
AcDbEntity
  8
ASSI
100
AcDbCircle
 62
250
  6
CONTINUOUS
 10
-213.8593261705
 20
-18.2122790847
 40
185.861387117
100
AcDbArc
 50
359.7820517643
 51
0.2179482357
  0
ARC
  5
5E2
100
AcDbEntity
  8
0
100
AcDbCircle
 62
7
  6
CONTINUOUS
 10
-59.9476372563
 20
-21.0615984079
 40
1.0
100
AcDbArc
 50
188.5758796048
 51
267.0
  0
ARC
  5
5E3
100
AcDbEntity
  8
0
100
AcDbCircle
 62
250
  6
CONTINUOUS
 10
-59.9563634534
 20
-21.0615984012
 40
0.500000007
100
AcDbArc
 50
188.575880264
 51
266.9999993409
  0
ARC
  5
5E4
100
AcDbEntity
  8
0
100
AcDbCircle
 62
7
  6
CONTINUOUS
 10
-46.0167361435
 20
-23.4563578147
 40
0.5
100
AcDbArc
 50
270.3333333333
 51
360.0
  0
ARC
  5
5E5
100
AcDbEntity
  8
0
100
AcDbCircle
 62
7
  6
CONTINUOUS
 10
-55.7667361435
 20
-23.8443375673
 40
0.25
100
AcDbArc
 50
120.0
 51
180.0
  0
ARC
  5
5E6
100
AcDbEntity
  8
0
100
AcDbCircle
 62
7
  6
CONTINUOUS
 10
-52.7667361435
 20
-23.8443375673
 40
0.25
100
AcDbArc
 50
0.0
 51
60.0
  0
ARC
  5
5E7
100
AcDbEntity
  8
0
100
AcDbCircle
 62
7
  6
CONTINUOUS
 10
-55.7667361435
 20
-24.2369056521
 40
0.25
100
AcDbArc
 50
180.0
 51
269.6666666667
  0
ARC
  5
5E8
100
AcDbEntity
  8
0
100
AcDbCircle
 62
7
  6
CONTINUOUS
 10
-52.7667361435
 20
-24.2456323968
 40
0.25
100
AcDbArc
 50
270.3333333333
 51
360.0
  0
ARC
  5
5E9
100
AcDbEntity
  8
0
100
AcDbCircle
 62
7
  6
CONTINUOUS
 10
-42.0167361435
 20
-21.3330780337
 40
1.0
100
AcDbArc
 50
270.3333333333
 51
360.0
  0
ARC
  5
5EA
100
AcDbEntity
  8
RACCORDO
100
AcDbCircle
 62
7
  6
CONTINUOUS
 10
-28.0167361435
 20
-18.3839109968
 40
1.0
100
AcDbArc
 50
271.0
 51
360.0
  0
ARC
  5
5EB
100
AcDbEntity
  8
ASSI
100
AcDbCircle
 62
7
  6
CONTINUOUS
 10
-28.0167361435
 20
-18.3839109968
 40
1.0
100
AcDbArc
 50
271.0
 51
360.0
  0
ARC
  5
5EC
100
AcDbEntity
  8
RACCORDO
100
AcDbCircle
 62
250
  6
CONTINUOUS
 10
-27.5179807189
 20
-18.2120029163
 40
0.5012446515
100
AcDbArc
 50
351.5833295839
 51
359.9684320216
  0
ARC
  5
5ED
100
AcDbEntity
  8
ASSI
100
AcDbCircle
 62
250
  6
CONTINUOUS
 10
-27.5179807189
 20
-18.2120029163
 40
0.5012446515
100
AcDbArc
 50
351.5833295839
 51
359.9684320216
  0
ARC
  5
5EE
100
AcDbEntity
  8
RACCORDO
100
AcDbCircle
 62
7
  6
CONTINUOUS
 10
-26.7167361435
 20
-14.9248993522
 40
0.3
100
AcDbArc
 50
94.9999742484
 51
179.9997072883
  0
ARC
  5
5EF
100
AcDbEntity
  8
ASSI
100
AcDbCircle
 62
7
  6
CONTINUOUS
 10
-26.7167361435
 20
-14.9248993522
 40
0.3
100
AcDbArc
 50
94.9999742484
 51
179.9997072883
  0
ARC
  5
5F0
100
AcDbEntity
  8
INCISIONI
100
AcDbCircle
 62
250
  6
CONTINUOUS
 10
-47.5434005531
 20
-4.5999917061
 40
0.8890654107
100
AcDbArc
 50
22.8310934333
 51
180.0191582029
  0
ARC
  5
5F1
100
AcDbEntity
  8
RACCORDO
100
AcDbCircle
 62
7
  6
CONTINUOUS
 10
-25.3167361435
 20
-8.8998766793
 40
0.3
100
AcDbArc
 50
359.9996411134
 51
84.9999603223
  0
ARC
  5
5F2
100
AcDbEntity
  8
RACCORDO
100
AcDbCircle
 62
7
  6
CONTINUOUS
 10
-25.3167361435
 20
-14.2001233207
 40
0.3
100
AcDbArc
 50
275.0000855806
 51
0.0007801287
  0
ARC
  5
5F3
100
AcDbEntity
  8
RACCORDO
100
AcDbCircle
 62
7
  6
CONTINUOUS
 10
-26.7167361435
 20
-8.1751006478
 40
0.3
100
AcDbArc
 50
180.0001881026
 51
265.0000165014
  0
ARC
  5
5F4
100
AcDbEntity
  8
ASSI
100
AcDbCircle
 62
7
  6
CONTINUOUS
 10
-25.3167361435
 20
-8.8998766793
 40
0.3
100
AcDbArc
 50
359.9996411134
 51
84.9999603223
  0
ARC
  5
5F5
100
AcDbEntity
  8
ASSI
100
AcDbCircle
 62
7
  6
CONTINUOUS
 10
-25.3167361435
 20
-14.2001233207
 40
0.3
100
AcDbArc
 50
275.0000855806
 51
0.0007801287
  0
ARC
  5
5F6
100
AcDbEntity
  8
ASSI
100
AcDbCircle
 62
7
  6
CONTINUOUS
 10
-26.7167361435
 20
-8.1751006478
 40
0.3
100
AcDbArc
 50
180.0001881026
 51
265.0000165014
  0
ARC
  5
5F7
100
AcDbEntity
  8
0
100
AcDbCircle
 62
7
  6
CONTINUOUS
 10
28.0572755366
 20
-7.79
 40
90.0
100
AcDbArc
 50
181.08868532
 51
188.5758796048
  0
ARC
  5
5F8
100
AcDbEntity
  8
RACCORDO
100
AcDbCircle
 62
7
  6
CONTINUOUS
 10
28.0572755366
 20
-7.79
 40
90.0
100
AcDbArc
 50
181.08868532
 51
181.6580964486
  0
ARC
  5
5F9
100
AcDbEntity
  8
0
100
AcDbCircle
 62
250
  6
CONTINUOUS
 10
28.0486497328
 20
-7.7899915123
 40
89.5001005425
100
AcDbArc
 50
181.0886895315
 51
188.5758753933
  0
ARC
  5
5FA
100
AcDbEntity
  8
RACCORDO
100
AcDbCircle
 62
250
  6
CONTINUOUS
 10
-36.6888882118
 20
12.7025221175
 40
11.4160520622
100
AcDbArc
 50
2.6101934243
 51
3.1957480602
  0
ARC
  5
5FB
100
AcDbEntity
  8
ASSI
100
AcDbCircle
 62
250
  6
CONTINUOUS
 10
-36.6888882118
 20
12.7025221175
 40
11.4160520622
100
AcDbArc
 50
2.6101934243
 51
3.1957480602
  0
ARC
  5
5FC
100
AcDbEntity
  8
RACCORDO
100
AcDbCircle
 62
250
  6
CONTINUOUS
 10
-33.1762991425
 20
15.0635676237
 40
2.3865733161
100
AcDbArc
 50
61.8650731524
 51
62.13298366
  0
ARC
  5
5FD
100
AcDbEntity
  8
RACCORDO
100
AcDbCircle
 62
7
  6
CONTINUOUS
 10
-25.3167361435
 20
12.8001233207
 40
0.3
100
AcDbArc
 50
0.0000653838
 51
85.0000029871
  0
ARC
  5
5FE
100
AcDbEntity
  8
RACCORDO
100
AcDbCircle
 62
7
  6
CONTINUOUS
 10
-25.3167361435
 20
7.4998766793
 40
0.3
100
AcDbArc
 50
275.0000498327
 51
0.0004529379
  0
ARC
  5
5FF
100
AcDbEntity
  8
RACCORDO
100
AcDbCircle
 62
7
  6
CONTINUOUS
 10
-25.3167361435
 20
15.3001233207
 40
0.3
100
AcDbArc
 50
359.9995470621
 51
84.9999501673
  0
ARC
  5
600
100
AcDbEntity
  8
RACCORDO
100
AcDbCircle
 62
7
  6
CONTINUOUS
 10
-26.7167361435
 20
6.7751006478
 40
0.3
100
AcDbArc
 50
95.0
 51
180.0
  0
ARC
  5
601
100
AcDbEntity
  8
ASSI
100
AcDbCircle
 62
7
  6
CONTINUOUS
 10
-25.3167361435
 20
12.8001233207
 40
0.3
100
AcDbArc
 50
0.0000653838
 51
85.0000029871
  0
ARC
  5
602
100
AcDbEntity
  8
ASSI
100
AcDbCircle
 62
7
  6
CONTINUOUS
 10
-25.3167361435
 20
7.4998766793
 40
0.3
100
AcDbArc
 50
275.0000498327
 51
0.0004529379
  0
ARC
  5
603
100
AcDbEntity
  8
ASSI
100
AcDbCircle
 62
7
  6
CONTINUOUS
 10
-25.3167361435
 20
15.3001233207
 40
0.3
100
AcDbArc
 50
359.9995470621
 51
84.9999501673
  0
ARC
  5
604
100
AcDbEntity
  8
ASSI
100
AcDbCircle
 62
7
  6
CONTINUOUS
 10
-26.7167361435
 20
6.7751006478
 40
0.3
100
AcDbArc
 50
95.0
 51
180.0
  0
ARC
  5
605
100
AcDbEntity
  8
0
100
AcDbCircle
 62
7
  6
CONTINUOUS
 10
-59.9476372563
 20
21.0615984079
 40
1.0
100
AcDbArc
 50
93.0
 51
171.4241203952
  0
ARC
  5
606
100
AcDbEntity
  8
0
100
AcDbCircle
 62
7
  6
CONTINUOUS
 10
-42.0167361435
 20
21.3330780337
 40
1.0
100
AcDbArc
 50
0.0
 51
89.6666666667
  0
ARC
  5
607
100
AcDbEntity
  8
RACCORDO
100
AcDbCircle
 62
7
  6
CONTINUOUS
 10
-28.0167361435
 20
18.3839109968
 40
1.0
100
AcDbArc
 50
0.0
 51
89.0
  0
ARC
  5
608
100
AcDbEntity
  8
ASSI
100
AcDbCircle
 62
7
  6
CONTINUOUS
 10
-28.0167361435
 20
18.3839109968
 40
1.0
100
AcDbArc
 50
0.0
 51
89.0
  0
ARC
  5
609
100
AcDbEntity
  8
0
100
AcDbCircle
 62
7
  6
CONTINUOUS
 10
-36.5760532457
 20
17.2458457443
 40
0.6906829198
100
AcDbArc
 50
180.0144565103
 51
186.7562168709
  0
ARC
  5
60A
100
AcDbEntity
  8
ASSI
100
AcDbCircle
 62
7
  6
CONTINUOUS
 10
-36.5760532457
 20
17.2458457443
 40
0.6906829198
100
AcDbArc
 50
180.0144565103
 51
186.7562168709
  0
ARC
  5
60B
100
AcDbEntity
  8
0
100
AcDbCircle
 62
7
  6
CONTINUOUS
 10
-46.0167361435
 20
23.4563578147
 40
0.5
100
AcDbArc
 50
0.0
 51
89.6666666667
  0
ARC
  5
60C
100
AcDbEntity
  8
0
100
AcDbCircle
 62
250
  6
CONTINUOUS
 10
-59.9563634687
 20
21.0615984104
 40
0.4999999906
100
AcDbArc
 50
92.8906964169
 51
171.4241205186
  0
ARC
  5
60D
100
AcDbEntity
  8
0
100
AcDbCircle
 62
7
  6
CONTINUOUS
 10
-52.7667361435
 20
23.8443375673
 40
0.25
100
AcDbArc
 50
300.0
 51
360.0
  0
ARC
  5
60E
100
AcDbEntity
  8
0
100
AcDbCircle
 62
7
  6
CONTINUOUS
 10
-55.7667361435
 20
23.8443375673
 40
0.25
100
AcDbArc
 50
180.0
 51
240.0
  0
ARC
  5
60F
100
AcDbEntity
  8
0
100
AcDbCircle
 62
7
  6
CONTINUOUS
 10
-55.7667361435
 20
24.2369056521
 40
0.25
100
AcDbArc
 50
90.3333333333
 51
180.0
  0
ARC
  5
610
100
AcDbEntity
  8
0
100
AcDbCircle
 62
7
  6
CONTINUOUS
 10
-52.7667361435
 20
24.2456323968
 40
0.25
100
AcDbArc
 50
0.0
 51
89.6666666667
  0
ARC
  5
611
100
AcDbEntity
  8
0
100
AcDbCircle
 62
7
  6
CONTINUOUS
 10
28.0572755366
 20
7.79
 40
90.0
100
AcDbArc
 50
171.4241203952
 51
178.91131468
  0
ARC
  5
612
100
AcDbEntity
  8
RACCORDO
100
AcDbCircle
 62
7
  6
CONTINUOUS
 10
28.0572755366
 20
7.79
 40
90.0
100
AcDbArc
 50
177.3255262266
 51
178.91131468
  0
ARC
  5
613
100
AcDbEntity
  8
0
100
AcDbCircle
 62
250
  6
CONTINUOUS
 10
28.0486497328
 20
7.7899915123
 40
89.5001005425
100
AcDbArc
 50
171.4241246067
 51
178.9113104685
  0
ARC
  5
614
100
AcDbEntity
  8
0
100
AcDbCircle
 62
7
  6
CONTINUOUS
 10
437.9832638565
 20
0.0
 40
500.0
100
AcDbArc
 50
178.91131468
 51
181.08868532
  0
ARC
  5
615
100
AcDbEntity
  8
0
100
AcDbCircle
 62
250
  6
CONTINUOUS
 10
437.9745369892
 20
0.0
 40
499.4999993361
100
AcDbArc
 50
178.9113146785
 51
181.0886853215
  0
LINE
  5
616
100
AcDbEntity
  8
RACCORDO
100
AcDbLine
 62
7
  6
CONTINUOUS
 10
-8.0389621224
 20
-2.1098043361
 11
-8.1121609149
 21
-2.3821420259
  0
SPLINE
  5
617
100
AcDbEntity
  8
RACCORDO
100
AcDbSpline
 62
250
  6
CONTINUOUS
 70
0
 71
3
 72
9
 73
5
 74
0
 42
0.0000001
 43
0.0000001
 44
0.0000000001
 40
0.0
 40
0.0
 40
0.0
 40
0.0
 40
0.4999776771
 40
1.0
 40
1.0
 40
1.0
 40
1.0
 10
-6.4506239698
 20
-10.3941682342
 30
0.0
 10
-6.5365627213
 20
-10.2451370448
 30
0.0
 10
-6.7086903237
 20
-9.9472012039
 30
0.0
 10
-6.8804573938
 20
-9.6490573962
 30
0.0
 10
-6.9663814465
 20
-9.5
 30
0.0
  0
SPLINE
  5
618
100
AcDbEntity
  8
RACCORDO
100
AcDbSpline
 62
250
  6
CONTINUOUS
 70
0
 71
3
 72
9
 73
5
 74
0
 42
0.0000001
 43
0.0000001
 44
0.0000000001
 40
0.0
 40
0.0
 40
0.0
 40
0.0
 40
0.5000223229
 40
1.0
 40
1.0
 40
1.0
 40
1.0
 10
6.1591463556
 20
-9.5
 30
0.0
 10
6.0732222979
 20
-9.6490574048
 30
0.0
 10
5.9014552179
 20
-9.9472012297
 30
0.0
 10
5.7293276055
 20
-10.2451370878
 30
0.0
 10
5.6433888492
 20
-10.3941682858
 30
0.0
  0
LINE
  5
619
100
AcDbEntity
  8
RACCORDO
100
AcDbLine
 62
250
  6
CONTINUOUS
 10
5.6433888492
 20
-10.3941682858
 11
4.0973259613
 21
-9.5
  0
LINE
  5
61A
100
AcDbEntity
  8
RACCORDO
100
AcDbLine
 62
250
  6
CONTINUOUS
 10
-4.9045610522
 20
-9.5
 11
-6.4506239698
 21
-10.3941682342
  0
LINE
  5
61B
100
AcDbEntity
  8
RACCORDO
100
AcDbLine
 62
250
  6
CONTINUOUS
 10
-10.1612610891
 20
-3.5653165726
 11
-8.112161456
 21
-2.3821440471
  0
SPLINE
  5
61C
100
AcDbEntity
  8
0
100
AcDbSpline
 62
250
  6
CONTINUOUS
 70
0
 71
3
 72
11
 73
7
 74
0
 42
0.0000001
 43
0.0000001
 44
0.0000000001
 40
0.0
 40
0.0
 40
0.0
 40
0.0
 40
0.2331623084
 40
0.476670585
 40
0.7338116789
 40
1.0
 40
1.0
 40
1.0
 40
1.0
 10
-10.5405189667
 20
-23.8443375673
 30
0.0
 10
-10.540423895
 20
-23.8160323825
 30
0.0
 10
-10.5264940372
 20
-23.7574892432
 30
0.0
 10
-10.4695616131
 20
-23.6858281285
 30
0.0
 10
-10.3868935729
 20
-23.6388299314
 30
0.0
 10
-10.3228377182
 20
-23.6279126229
 30
0.0
 10
-10.2905231975
 20
-23.6278312164
 30
0.0
  0
SPLINE
  5
61D
100
AcDbEntity
  8
0
100
AcDbSpline
 62
7
  6
CONTINUOUS
 70
0
 71
3
 72
14
 73
10
 74
0
 42
0.0000001
 43
0.0000001
 44
0.0000000001
 40
0.0
 40
0.0
 40
0.0
 40
0.0
 40
0.166742244
 40
0.3264779016
 40
0.6053525199
 40
0.7218526832
 40
0.8240582372
 40
0.9151625846
 40
1.0
 40
1.0
 40
1.0
 40
1.0
 10
-10.2963410273
 20
-23.1226497308
 30
0.0
 10
-10.3137960472
 20
-23.1226497308
 30
0.0
 10
-10.3480254513
 20
-23.1249087139
 30
0.0
 10
-10.4103396968
 20
-23.1366250418
 30
0.0
 10
-10.4655288902
 20
-23.1579800016
 30
0.0
 10
-10.5077163665
 20
-23.1890061146
 30
0.0
 10
-10.5295125044
 20
-23.2134118621
 30
0.0
 10
-10.5430162473
 20
-23.2396107417
 30
0.0
 10
-10.5462473115
 20
-23.2581067436
 30
0.0
 10
-10.5463367966
 20
-23.2669872981
 30
0.0
  0
SPLINE
  5
61E
100
AcDbEntity
  8
RACCORDO
100
AcDbSpline
 62
7
  6
CONTINUOUS
 70
0
 71
3
 72
14
 73
10
 74
0
 42
0.0000001
 43
0.0000001
 44
0.0000000001
 40
0.0
 40
0.0
 40
0.0
 40
0.0
 40
0.3303443345
 40
0.6389318872
 40
0.774568976
 40
0.8879715746
 40
0.9328114479
 40
0.9675762261
 40
1.0
 40
1.0
 40
1.0
 40
1.0
 10
-10.4344069688
 20
-3.4935247646
 30
0.0
 10
-10.4043666117
 20
-3.5015727852
 30
0.0
 10
-10.346251971
 20
-3.5170922665
 30
0.0
 10
-10.2757696399
 20
-3.5357920742
 30
0.0
 10
-10.2249961633
 20
-3.5491320808
 30
0.0
 10
-10.1982260807
 20
-3.5561209858
 30
0.0
 10
-10.1806236641
 20
-3.560625839
 30
0.0
 10
-10.1704207083
 20
-3.5633025661
 30
0.0
 10
-10.1642083914
 20
-3.5645268454
 30
0.0
 10
-10.1612599181
 20
-3.5653168865
 30
0.0
  0
SPLINE
  5
61F
100
AcDbEntity
  8
0
100
AcDbSpline
 62
7
  6
CONTINUOUS
 70
0
 71
3
 72
13
 73
9
 74
0
 42
0.0000001
 43
0.0000001
 44
0.0000000001
 40
0.0
 40
0.0
 40
0.0
 40
0.0
 40
0.0848440362
 40
0.1759755807
 40
0.278241715
 40
0.3948395492
 40
0.6739816576
 40
1.0
 40
1.0
 40
1.0
 40
1.0
 10
-7.6608982944
 20
-23.2669872981
 30
0.0
 10
-7.660987936
 20
-23.2580912117
 30
0.0
 10
-7.6642306051
 20
-23.2395605855
 30
0.0
 10
-7.6777825926
 20
-23.2133182791
 30
0.0
 10
-7.6996514315
 20
-23.1888806294
 30
0.0
 10
-7.7419961985
 20
-23.1578162275
 30
0.0
 10
-7.8137669171
 20
-23.130184663
 30
0.0
 10
-7.8774358067
 20
-23.1226497308
 30
0.0
 10
-7.9116212923
 20
-23.1226497308
 30
0.0
  0
SPLINE
  5
620
100
AcDbEntity
  8
RACCORDO
100
AcDbSpline
 62
250
  6
CONTINUOUS
 70
0
 71
3
 72
18
 73
14
 74
0
 42
0.0000001
 43
0.0000001
 44
0.0000000001
 40
0.0
 40
0.0
 40
0.0
 40
0.0
 40
0.1923418568
 40
0.3778730552
 40
0.5492660916
 40
0.7001794421
 40
0.824809451
 40
0.8757534442
 40
0.9184346007
 40
0.9524782217
 40
0.9775340705
 40
0.9933932908
 40
1.0
 40
1.0
 40
1.0
 40
1.0
 10
-6.9663814465
 20
-9.5
 30
0.0
 10
-6.9551686639
 20
-9.4935243408
 30
0.0
 10
-6.9331602545
 20
-9.4807673651
 30
0.0
 10
-6.9012304328
 20
-9.4621197516
 30
0.0
 10
-6.8717709686
 20
-9.4447714759
 30
0.0
 10
-6.8459153367
 20
-9.4293876293
 30
0.0
 10
-6.8270858841
 20
-9.4180427969
 30
0.0
 10
-6.8145686365
 20
-9.4103600085
 30
0.0
 10
-6.8072508285
 20
-9.4058275804
 30
0.0
 10
-6.8015220498
 20
-9.4021312366
 30
0.0
 10
-6.7971767154
 20
-9.3994096544
 30
0.0
 10
-6.7947985493
 20
-9.3974789013
 30
0.0
 10
-6.7933304115
 20
-9.3966412751
 30
0.0
 10
-6.7932027457
 20
-9.3962152305
 30
0.0
  0
SPLINE
  5
621
100
AcDbEntity
  8
RACCORDO
100
AcDbSpline
 62
7
  6
CONTINUOUS
 70
0
 71
3
 72
14
 73
10
 74
0
 42
0.0000001
 43
0.0000001
 44
0.0000000001
 40
0.0
 40
0.0
 40
0.0
 40
0.0
 40
0.3281823301
 40
0.6367291167
 40
0.772987087
 40
0.887189113
 40
0.9323833767
 40
0.9674100882
 40
1.0
 40
1.0
 40
1.0
 40
1.0
 10
-6.4507897586
 20
-10.3942719201
 30
0.0
 10
-6.4426356784
 20
-10.3638080996
 30
0.0
 10
-6.4268696927
 20
-10.304688662
 30
0.0
 10
-6.4078491501
 20
-10.2328858549
 30
0.0
 10
-6.3942206539
 20
-10.1809267353
 30
0.0
 10
-6.3870545388
 20
-10.1534342917
 30
0.0
 10
-6.3824312437
 20
-10.1353332743
 30
0.0
 10
-6.379682782
 20
-10.124845413
 30
0.0
 10
-6.3784372395
 20
-10.1184612614
 30
0.0
 10
-6.3776266983
 20
-10.1154362894
 30
0.0
  0
SPLINE
  5
622
100
AcDbEntity
  8
RACCORDO
100
AcDbSpline
 62
7
  6
CONTINUOUS
 70
0
 71
3
 72
18
 73
14
 74
0
 42
0.0000001
 43
0.0000001
 44
0.0000000001
 40
0.0
 40
0.0
 40
0.0
 40
0.0
 40
0.0105010495
 40
0.0339858928
 40
0.0692037968
 40
0.1144579684
 40
0.1679610584
 40
0.2282009577
 40
0.3637643337
 40
0.5132374829
 40
0.6713762709
 40
0.8345482201
 40
1.0
 40
1.0
 40
1.0
 40
1.0
 10
-4.3307338234
 20
-8.9343098543
 30
0.0
 10
-4.3299452918
 20
-8.9349133432
 30
0.0
 10
-4.3267451968
 20
-8.935770575
 30
0.0
 10
-4.3206669612
 20
-8.937996952
 30
0.0
 10
-4.3111953537
 20
-8.9407736755
 30
0.0
 10
-4.2990763894
 20
-8.9444103735
 30
0.0
 10
-4.2846269056
 20
-8.9485840211
 30
0.0
 10
-4.2619636316
 20
-8.9550653672
 30
0.0
 10
-4.230528854
 20
-8.9638914331
 30
0.0
 10
-4.1901442519
 20
-8.9750792875
 30
0.0
 10
-4.147209789
 20
-8.9868430941
 30
0.0
 10
-4.1027904677
 20
-8.9989040373
 30
0.0
 10
-4.0727850067
 20
-9.0069838033
 30
0.0
 10
-4.0576740959
 20
-9.0110363923
 30
0.0
  0
SPLINE
  5
623
100
AcDbEntity
  8
RACCORDO
100
AcDbSpline
 62
250
  6
CONTINUOUS
 70
0
 71
3
 72
18
 73
14
 74
0
 42
0.0000001
 43
0.0000001
 44
0.0000000001
 40
0.0
 40
0.0
 40
0.0
 40
0.0
 40
0.1920354822
 40
0.3774698979
 40
0.5489134553
 40
0.6999640137
 40
0.8247582342
 40
0.8757773747
 40
0.9185205721
 40
0.9526071785
 40
0.9776791396
 40
0.9935144723
 40
1.0
 40
1.0
 40
1.0
 40
1.0
 10
-4.9045610522
 20
-9.5
 30
0.0
 10
-4.9110674387
 20
-9.4887303613
 30
0.0
 10
-4.9238362016
 20
-9.4665666864
 30
0.0
 10
-4.9423432854
 20
-9.4343014381
 30
0.0
 10
-4.9594064136
 20
-9.4044093697
 30
0.0
 10
-4.9743626207
 20
-9.3780474216
 30
0.0
 10
-4.985233516
 20
-9.3587470128
 30
0.0
 10
-4.992436204
 20
-9.3458096177
 30
0.0
 10
-4.996641398
 20
-9.338227858
 30
0.0
 10
-4.9999031384
 20
-9.3321603763
 30
0.0
 10
-5.0023994465
 20
-9.3276883897
 30
0.0
 10
-5.0036687232
 20
-9.3248085317
 30
0.0
 10
-5.0045347944
 20
-9.3234606426
 30
0.0
 10
-5.0045458217
 20
-9.3230212992
 30
0.0
  0
SPLINE
  5
624
100
AcDbEntity
  8
RACCORDO
100
AcDbSpline
 62
250
  6
CONTINUOUS
 70
0
 71
3
 72
9
 73
5
 74
0
 42
0.0000001
 43
0.0000001
 44
0.0000000001
 40
0.0
 40
0.0
 40
0.0
 40
0.0
 40
0.2500700599
 40
1.0
 40
1.0
 40
1.0
 40
1.0
 10
-1.5852682638
 20
9.4962
 30
0.0
 10
-1.5852050994
 20
9.6866193953
 30
0.0
 10
-1.5849102258
 20
10.4480835691
 30
0.0
 10
-1.5844460263
 20
11.2095476774
 30
0.0
 10
-1.5840026446
 20
11.7805923299
 30
0.0
  0
SPLINE
  5
625
100
AcDbEntity
  8
RACCORDO
100
AcDbSpline
 62
7
  6
CONTINUOUS
 70
0
 71
3
 72
19
 73
15
 74
0
 42
0.0000001
 43
0.0000001
 44
0.0000000001
 40
0.0
 40
0.0
 40
0.0
 40
0.0
 40
0.0042685148
 40
0.0118244307
 40
0.0363744598
 40
0.0724874485
 40
0.1184738618
 40
0.1725418789
 40
0.2331755267
 40
0.3690067656
 40
0.5180775913
 40
0.6751844621
 40
0.8367337165
 40
1.0
 40
1.0
 40
1.0
 40
1.0
 10
-1.5840027055
 20
11.7805925233
 30
0.0
 10
-1.5841124678
 20
11.7809891522
 30
0.0
 10
-1.5847323097
 20
11.7819731257
 30
0.0
 10
-1.5867506996
 20
11.7848167727
 30
0.0
 10
-1.5910010355
 20
11.7898686757
 30
0.0
 10
-1.5977730484
 20
11.7975904341
 30
0.0
 10
-1.6066176871
 20
11.8072991878
 30
0.0
 10
-1.6171545939
 20
11.8186542005
 30
0.0
 10
-1.633713959
 20
11.836240083
 30
0.0
 10
-1.6567420909
 20
11.8603132999
 30
0.0
 10
-1.6864021006
 20
11.89091313
 30
0.0
 10
-1.7179494747
 20
11.9231356959
 30
0.0
 10
-1.7506059049
 20
11.9561870493
 30
0.0
 10
-1.7726875763
 20
11.9783930448
 30
0.0
 10
-1.783813381
 20
11.9895281537
 30
0.0
  0
SPLINE
  5
626
100
AcDbEntity
  8
RACCORDO
100
AcDbSpline
 62
250
  6
CONTINUOUS
 70
0
 71
3
 72
9
 73
5
 74
0
 42
0.0000001
 43
0.0000001
 44
0.0000000001
 40
0.0
 40
0.0
 40
0.0
 40
0.0
 40
0.7500145682
 40
1.0
 40
1.0
 40
1.0
 40
1.0
 10
-1.5865325482
 20
4.2170849972
 30
0.0
 10
-1.5863381633
 20
5.5368894082
 30
0.0
 10
-1.5859573117
 20
7.2965944275
 30
0.0
 10
-1.5854141814
 20
9.0562993967
 30
0.0
 10
-1.5852682638
 20
9.4962
 30
0.0
  0
SPLINE
  5
627
100
AcDbEntity
  8
RACCORDO
100
AcDbSpline
 62
250
  6
CONTINUOUS
 70
0
 71
3
 72
9
 73
5
 74
0
 42
0.0000001
 43
0.0000001
 44
0.0000000001
 40
0.0
 40
0.0
 40
0.0
 40
0.0
 40
0.2499185708
 40
1.0
 40
1.0
 40
1.0
 40
1.0
 10
0.7767675537
 20
11.7805923299
 30
0.0
 10
0.7769153132
 20
11.5902883351
 30
0.0
 10
0.7774642293
 20
10.828824302
 30
0.0
 10
0.7778437123
 20
10.0673601468
 30
0.0
 10
0.7780331729
 20
9.4962
 30
0.0
  0
SPLINE
  5
628
100
AcDbEntity
  8
RACCORDO
100
AcDbSpline
 62
250
  6
CONTINUOUS
 70
0
 71
3
 72
9
 73
5
 74
0
 42
0.0000001
 43
0.0000001
 44
0.0000000001
 40
0.0
 40
0.0
 40
0.0
 40
0.0
 40
0.2499854318
 40
1.0
 40
1.0
 40
1.0
 40
1.0
 10
0.7780331729
 20
9.4962
 30
0.0
 10
0.7781790905
 20
9.0562993967
 30
0.0
 10
0.7787222207
 20
7.2965944275
 30
0.0
 10
0.7791030724
 20
5.5368894082
 30
0.0
 10
0.7792974573
 20
4.2170849972
 30
0.0
  0
SPLINE
  5
629
100
AcDbEntity
  8
RACCORDO
100
AcDbSpline
 62
250
  6
CONTINUOUS
 70
0
 71
3
 72
18
 73
14
 74
0
 42
0.0000001
 43
0.0000001
 44
0.0000000001
 40
0.0
 40
0.0
 40
0.0
 40
0.0
 40
0.1927065515
 40
0.378528791
 40
0.5498990293
 40
0.7006009512
 40
0.8250578977
 40
0.8758860949
 40
0.9184971777
 40
0.952472447
 40
0.9774711283
 40
0.9933303658
 40
1.0
 40
1.0
 40
1.0
 40
1.0
 10
-1.7852378028
 20
9.4999999998
 30
0.0
 10
-1.7723850194
 20
9.499995738
 30
0.0
 10
-1.7471385565
 20
9.4999412375
 30
0.0
 10
-1.710463144
 20
9.4997245934
 30
0.0
 10
-1.6765895629
 20
9.4993826469
 30
0.0
 10
-1.6468129167
 20
9.498925835
 30
0.0
 10
-1.625071384
 20
9.4984531624
 30
0.0
 10
-1.610552259
 20
9.4980001367
 30
0.0
 10
-1.6020449837
 20
9.4976908281
 30
0.0
 10
-1.5953187333
 20
9.4973130464
 30
0.0
 10
-1.5902416144
 20
9.4970790877
 30
0.0
 10
-1.5872712024
 20
9.4965644675
 30
0.0
 10
-1.5855691333
 20
9.496527657
 30
0.0
 10
-1.5852682638
 20
9.4962
 30
0.0
  0
SPLINE
  5
62A
100
AcDbEntity
  8
0
100
AcDbSpline
 62
250
  6
CONTINUOUS
 70
0
 71
3
 72
11
 73
7
 74
0
 42
0.0000001
 43
0.0000001
 44
0.0000000001
 40
0.0
 40
0.0
 40
0.0
 40
0.0
 40
0.2331623084
 40
0.476670585
 40
0.7338116789
 40
1.0
 40
1.0
 40
1.0
 40
1.0
 10
-7.6667161242
 20
-23.8443375673
 30
0.0
 10
-7.666811196
 20
-23.8160323825
 30
0.0
 10
-7.6807410537
 20
-23.7574892432
 30
0.0
 10
-7.7376734778
 20
-23.6858281285
 30
0.0
 10
-7.820341518
 20
-23.6388299314
 30
0.0
 10
-7.8843973728
 20
-23.6279126229
 30
0.0
 10
-7.9167118934
 20
-23.6278312164
 30
0.0
  0
SPLINE
  5
62B
100
AcDbEntity
  8
RACCORDO
100
AcDbSpline
 62
7
  6
CONTINUOUS
 70
0
 71
3
 72
14
 73
10
 74
0
 42
0.0000001
 43
0.0000001
 44
0.0000000001
 40
0.0
 40
0.0
 40
0.0
 40
0.0
 40
0.3303443345
 40
0.6389318872
 40
0.7745689761
 40
0.8879715747
 40
0.9328114479
 40
0.9675762261
 40
1.0
 40
1.0
 40
1.0
 40
1.0
 10
9.6271718779
 20
-3.4935247646
 30
0.0
 10
9.5971315208
 20
-3.5015727852
 30
0.0
 10
9.53901688
 20
-3.5170922664
 30
0.0
 10
9.4685345489
 20
-3.5357920741
 30
0.0
 10
9.4177610724
 20
-3.5491320808
 30
0.0
 10
9.3909909898
 20
-3.5561209858
 30
0.0
 10
9.3733885732
 20
-3.560625839
 30
0.0
 10
9.3631856174
 20
-3.5633025661
 30
0.0
 10
9.3569733005
 20
-3.5645268454
 30
0.0
 10
9.3540248272
 20
-3.5653168865
 30
0.0
  0
SPLINE
  5
62C
100
AcDbEntity
  8
0
100
AcDbSpline
 62
250
  6
CONTINUOUS
 70
0
 71
3
 72
11
 73
7
 74
0
 42
0.0000001
 43
0.0000001
 44
0.0000000001
 40
0.0
 40
0.0
 40
0.0
 40
0.0
 40
0.2331622206
 40
0.4766705204
 40
0.7338116472
 40
1.0
 40
1.0
 40
1.0
 40
1.0
 10
6.8594810333
 20
-23.8443375673
 30
0.0
 10
6.859576105
 20
-23.8160323931
 30
0.0
 10
6.8735059534
 20
-23.7574892617
 30
0.0
 10
6.9304383684
 20
-23.6858281428
 30
0.0
 10
7.0131064151
 20
-23.6388299344
 30
0.0
 10
7.077162278
 20
-23.6279126229
 30
0.0
 10
7.1094768025
 20
-23.6278312164
 30
0.0
  0
SPLINE
  5
62D
100
AcDbEntity
  8
0
100
AcDbSpline
 62
7
  6
CONTINUOUS
 70
0
 71
3
 72
13
 73
9
 74
0
 42
0.0000001
 43
0.0000001
 44
0.0000000001
 40
0.0
 40
0.0
 40
0.0
 40
0.0
 40
0.0848440362
 40
0.1759755807
 40
0.278241715
 40
0.3948395492
 40
0.6739816576
 40
1.0
 40
1.0
 40
1.0
 40
1.0
 10
6.8536632034
 20
-23.2669872981
 30
0.0
 10
6.853752845
 20
-23.2580912117
 30
0.0
 10
6.8569955142
 20
-23.2395605855
 30
0.0
 10
6.8705475017
 20
-23.2133182791
 30
0.0
 10
6.8924163406
 20
-23.1888806294
 30
0.0
 10
6.9347611075
 20
-23.1578162275
 30
0.0
 10
7.0065318262
 20
-23.130184663
 30
0.0
 10
7.0702007157
 20
-23.1226497308
 30
0.0
 10
7.1043862014
 20
-23.1226497308
 30
0.0
  0
LINE
  5
62E
100
AcDbEntity
  8
RACCORDO
100
AcDbLine
 62
7
  6
CONTINUOUS
 10
7.2317270332
 20
-2.1098043427
 11
7.3049237212
 21
-2.3821341835
  0
SPLINE
  5
62F
100
AcDbEntity
  8
0
100
AcDbSpline
 62
7
  6
CONTINUOUS
 70
0
 71
3
 72
13
 73
9
 74
0
 42
0.0000001
 43
0.0000001
 44
0.0000000001
 40
0.0
 40
0.0
 40
0.0
 40
0.0
 40
0.0848440362
 40
0.1759755807
 40
0.278241715
 40
0.3948395492
 40
0.6739816576
 40
1.0
 40
1.0
 40
1.0
 40
1.0
 10
9.7391017056
 20
-23.2669872981
 30
0.0
 10
9.739012064
 20
-23.2580912117
 30
0.0
 10
9.7357693949
 20
-23.2395605855
 30
0.0
 10
9.7222174074
 20
-23.2133182791
 30
0.0
 10
9.7003485685
 20
-23.1888806294
 30
0.0
 10
9.6580038015
 20
-23.1578162275
 30
0.0
 10
9.5862330829
 20
-23.130184663
 30
0.0
 10
9.5225641933
 20
-23.1226497308
 30
0.0
 10
9.4883787077
 20
-23.1226497308
 30
0.0
  0
SPLINE
  5
630
100
AcDbEntity
  8
0
100
AcDbSpline
 62
250
  6
CONTINUOUS
 70
0
 71
3
 72
11
 73
7
 74
0
 42
0.0000001
 43
0.0000001
 44
0.0000000001
 40
0.0
 40
0.0
 40
0.0
 40
0.0
 40
0.2331623084
 40
0.476670585
 40
0.7338116789
 40
1.0
 40
1.0
 40
1.0
 40
1.0
 10
9.7332838758
 20
-23.8443375673
 30
0.0
 10
9.733188804
 20
-23.8160323825
 30
0.0
 10
9.7192589463
 20
-23.7574892432
 30
0.0
 10
9.6623265222
 20
-23.6858281285
 30
0.0
 10
9.579658482
 20
-23.6388299314
 30
0.0
 10
9.5156026272
 20
-23.6279126229
 30
0.0
 10
9.4832881066
 20
-23.6278312164
 30
0.0
  0
SPLINE
  5
631
100
AcDbEntity
  8
RACCORDO
100
AcDbSpline
 62
7
  6
CONTINUOUS
 70
0
 71
3
 72
18
 73
14
 74
0
 42
0.0000001
 43
0.0000001
 44
0.0000000001
 40
0.0
 40
0.0
 40
0.0
 40
0.0
 40
0.0105010495
 40
0.0339858928
 40
0.0692037968
 40
0.1144579684
 40
0.1679610584
 40
0.2282009577
 40
0.3637643337
 40
0.5132374829
 40
0.6713762709
 40
0.83454822
 40
1.0
 40
1.0
 40
1.0
 40
1.0
 10
3.5234987324
 20
-8.9343098543
 30
0.0
 10
3.5227102009
 20
-8.9349133432
 30
0.0
 10
3.5195101059
 20
-8.935770575
 30
0.0
 10
3.5134318703
 20
-8.937996952
 30
0.0
 10
3.5039602628
 20
-8.9407736755
 30
0.0
 10
3.4918412985
 20
-8.9444103735
 30
0.0
 10
3.4773918147
 20
-8.9485840211
 30
0.0
 10
3.4547285406
 20
-8.9550653672
 30
0.0
 10
3.4232937631
 20
-8.9638914331
 30
0.0
 10
3.3829091609
 20
-8.9750792875
 30
0.0
 10
3.3399746981
 20
-8.9868430941
 30
0.0
 10
3.2955553768
 20
-8.9989040372
 30
0.0
 10
3.2655499158
 20
-9.0069838033
 30
0.0
 10
3.250439005
 20
-9.0110363923
 30
0.0
  0
SPLINE
  5
632
100
AcDbEntity
  8
RACCORDO
100
AcDbSpline
 62
250
  6
CONTINUOUS
 70
0
 71
3
 72
18
 73
14
 74
0
 42
0.0000001
 43
0.0000001
 44
0.0000000001
 40
0.0
 40
0.0
 40
0.0
 40
0.0
 40
0.1920354821
 40
0.3774698977
 40
0.5489134549
 40
0.6999640134
 40
0.8247582338
 40
0.8757773743
 40
0.9185205718
 40
0.9526071783
 40
0.9776791394
 40
0.9935144722
 40
1.0
 40
1.0
 40
1.0
 40
1.0
 10
4.0973259613
 20
-9.5
 30
0.0
 10
4.1038323478
 20
-9.4887303613
 30
0.0
 10
4.1166011107
 20
-9.4665666864
 30
0.0
 10
4.1351081945
 20
-9.4343014381
 30
0.0
 10
4.1521713226
 20
-9.4044093698
 30
0.0
 10
4.1671275298
 20
-9.3780474217
 30
0.0
 10
4.1779984251
 20
-9.3587470129
 30
0.0
 10
4.185201113
 20
-9.3458096178
 30
0.0
 10
4.1894063071
 20
-9.3382278581
 30
0.0
 10
4.1926680475
 20
-9.3321603763
 30
0.0
 10
4.1951643556
 20
-9.3276883897
 30
0.0
 10
4.1964336323
 20
-9.3248085317
 30
0.0
 10
4.1972997035
 20
-9.3234606426
 30
0.0
 10
4.1973107308
 20
-9.3230212992
 30
0.0
  0
SPLINE
  5
633
100
AcDbEntity
  8
RACCORDO
100
AcDbSpline
 62
7
  6
CONTINUOUS
 70
0
 71
3
 72
13
 73
9
 74
0
 42
0.0000001
 43
0.0000001
 44
0.0000000001
 40
0.0
 40
0.0
 40
0.0
 40
0.0
 40
0.3307411342
 40
0.6394251877
 40
0.7750014494
 40
0.8882868222
 40
0.9677381433
 40
1.0
 40
1.0
 40
1.0
 40
1.0
 10
-1.7865308451
 20
4.0186941781
 30
0.0
 10
-1.7645731915
 20
4.0406524349
 30
0.0
 10
-1.7221018542
 20
4.0830844769
 30
0.0
 10
-1.6705156793
 20
4.1344020404
 30
0.0
 10
-1.6333969926
 20
4.1713156653
 30
0.0
 10
-1.6113746385
 20
4.1928821833
 30
0.0
 10
-1.5965087685
 20
4.207898879
 30
0.0
 10
-1.5887031757
 20
4.2149143698
 30
0.0
 10
-1.586561306
 20
4.2170562395
 30
0.0
  0
SPLINE
  5
634
100
AcDbEntity
  8
RACCORDO
100
AcDbSpline
 62
7
  6
CONTINUOUS
 70
0
 71
3
 72
19
 73
15
 74
0
 42
0.0000001
 43
0.0000001
 44
0.0000000001
 40
0.0
 40
0.0
 40
0.0
 40
0.0
 40
0.0042685148
 40
0.0118244307
 40
0.0363744598
 40
0.0724874485
 40
0.1184738618
 40
0.1725418789
 40
0.2331755267
 40
0.3690067656
 40
0.5180775913
 40
0.6751844621
 40
0.8367337165
 40
1.0
 40
1.0
 40
1.0
 40
1.0
 10
0.7767676145
 20
11.7805925233
 30
0.0
 10
0.7768773769
 20
11.7809891522
 30
0.0
 10
0.7774972188
 20
11.7819731257
 30
0.0
 10
0.7795156086
 20
11.7848167727
 30
0.0
 10
0.7837659446
 20
11.7898686757
 30
0.0
 10
0.7905379574
 20
11.7975904341
 30
0.0
 10
0.7993825962
 20
11.8072991878
 30
0.0
 10
0.809919503
 20
11.8186542005
 30
0.0
 10
0.8264788681
 20
11.836240083
 30
0.0
 10
0.849507
 20
11.8603132999
 30
0.0
 10
0.8791670097
 20
11.89091313
 30
0.0
 10
0.9107143838
 20
11.9231356959
 30
0.0
 10
0.943370814
 20
11.9561870493
 30
0.0
 10
0.9654524854
 20
11.9783930448
 30
0.0
 10
0.9765782901
 20
11.9895281537
 30
0.0
  0
SPLINE
  5
635
100
AcDbEntity
  8
RACCORDO
100
AcDbSpline
 62
250
  6
CONTINUOUS
 70
0
 71
3
 72
9
 73
5
 74
0
 42
0.0000001
 43
0.0000001
 44
0.0000000001
 40
0.0
 40
0.0
 40
0.0
 40
0.0
 40
0.7500118339
 40
1.0
 40
1.0
 40
1.0
 40
1.0
 10
9.6271718074
 20
-3.4935217106
 30
0.0
 10
8.7602877436
 20
-4.9952434815
 30
0.0
 10
7.604325739
 20
-6.9974297603
 30
0.0
 10
6.4481803495
 20
-8.9995101397
 30
0.0
 10
6.1591463556
 20
-9.5
 30
0.0
  0
LINE
  5
636
100
AcDbEntity
  8
RACCORDO
100
AcDbLine
 62
250
  6
CONTINUOUS
 10
7.2317151759
 20
-2.1098255475
 11
9.6271718074
 21
-3.4935217106
  0
SPLINE
  5
637
100
AcDbEntity
  8
RACCORDO
100
AcDbSpline
 62
250
  6
CONTINUOUS
 70
0
 71
3
 72
9
 73
5
 74
0
 42
0.0000001
 43
0.0000001
 44
0.0000000001
 40
0.0
 40
0.0
 40
0.0
 40
0.0
 40
0.2499879235
 40
1.0
 40
1.0
 40
1.0
 40
1.0
 10
3.2504356383
 20
-9.0110386316
 30
0.0
 10
3.5821327378
 20
-8.4359306146
 30
0.0
 10
4.9090466601
 20
-6.1354228464
 30
0.0
 10
6.2361997267
 20
-3.8350530146
 30
0.0
 10
7.2317151759
 20
-2.1098255475
 30
0.0
  0
LINE
  5
638
100
AcDbEntity
  8
RACCORDO
100
AcDbLine
 62
250
  6
CONTINUOUS
 10
4.0973259613
 20
-9.5
 11
3.2504356383
 21
-9.0110386316
  0
LINE
  5
639
100
AcDbEntity
  8
RACCORDO
100
AcDbLine
 62
250
  6
CONTINUOUS
 10
-4.0576707269
 20
-9.0110386241
 11
-4.9045610522
 21
-9.5
  0
SPLINE
  5
63A
100
AcDbEntity
  8
RACCORDO
100
AcDbSpline
 62
250
  6
CONTINUOUS
 70
0
 71
3
 72
9
 73
5
 74
0
 42
0.0000001
 43
0.0000001
 44
0.0000000001
 40
0.0
 40
0.0
 40
0.0
 40
0.0
 40
0.2500095606
 40
1.0
 40
1.0
 40
1.0
 40
1.0
 10
-8.0389502846
 20
-2.109825533
 30
0.0
 10
-7.707104454
 20
-2.6849140887
 30
0.0
 10
-6.3798322999
 20
-4.9852152008
 30
0.0
 10
-5.0527974132
 20
-7.2856532163
 30
0.0
 10
-4.0576707269
 20
-9.0110386241
 30
0.0
  0
LINE
  5
63B
100
AcDbEntity
  8
RACCORDO
100
AcDbLine
 62
250
  6
CONTINUOUS
 10
-10.4344068933
 20
-3.4935216936
 11
-8.0389502846
 21
-2.109825533
  0
SPLINE
  5
63C
100
AcDbEntity
  8
RACCORDO
100
AcDbSpline
 62
250
  6
CONTINUOUS
 70
0
 71
3
 72
9
 73
5
 74
0
 42
0.0000001
 43
0.0000001
 44
0.0000000001
 40
0.0
 40
0.0
 40
0.0
 40
0.0
 40
0.2499881661
 40
1.0
 40
1.0
 40
1.0
 40
1.0
 10
-6.9663814465
 20
-9.5
 30
0.0
 10
-7.255415441
 20
-8.9995101388
 30
0.0
 10
-8.4115608335
 20
-6.9974297565
 30
0.0
 10
-9.567522828
 20
-4.9952434672
 30
0.0
 10
-10.4344068933
 20
-3.4935216936
 30
0.0
  0
SPLINE
  5
63D
100
AcDbEntity
  8
0
100
AcDbSpline
 62
250
  6
CONTINUOUS
 70
0
 71
3
 72
11
 73
7
 74
0
 42
0.0000001
 43
0.0000001
 44
0.0000000001
 40
0.0
 40
0.0
 40
0.0
 40
0.0
 40
0.2331622206
 40
0.4766705204
 40
0.7338116472
 40
1.0
 40
1.0
 40
1.0
 40
1.0
 10
9.7332838758
 20
23.8443375673
 30
0.0
 10
9.7331888041
 20
23.8160323931
 30
0.0
 10
9.7192589556
 20
23.7574892617
 30
0.0
 10
9.6623265407
 20
23.6858281428
 30
0.0
 10
9.579658494
 20
23.6388299344
 30
0.0
 10
9.5156026311
 20
23.6279126229
 30
0.0
 10
9.4832881066
 20
23.6278312164
 30
0.0
  0
SPLINE
  5
63E
100
AcDbEntity
  8
0
100
AcDbSpline
 62
7
  6
CONTINUOUS
 70
0
 71
3
 72
13
 73
9
 74
0
 42
0.0000001
 43
0.0000001
 44
0.0000000001
 40
0.0
 40
0.0
 40
0.0
 40
0.0
 40
0.0848440362
 40
0.1759755807
 40
0.278241715
 40
0.3948395492
 40
0.6739816576
 40
1.0
 40
1.0
 40
1.0
 40
1.0
 10
9.7391017056
 20
23.2669872981
 30
0.0
 10
9.739012064
 20
23.2580912117
 30
0.0
 10
9.7357693949
 20
23.2395605855
 30
0.0
 10
9.7222174074
 20
23.2133182791
 30
0.0
 10
9.7003485685
 20
23.1888806294
 30
0.0
 10
9.6580038015
 20
23.1578162275
 30
0.0
 10
9.5862330829
 20
23.130184663
 30
0.0
 10
9.5225641933
 20
23.1226497308
 30
0.0
 10
9.4883787077
 20
23.1226497308
 30
0.0
  0
SPLINE
  5
63F
100
AcDbEntity
  8
0
100
AcDbSpline
 62
7
  6
CONTINUOUS
 70
0
 71
3
 72
13
 73
9
 74
0
 42
0.0000001
 43
0.0000001
 44
0.0000000001
 40
0.0
 40
0.0
 40
0.0
 40
0.0
 40
0.0848440362
 40
0.1759755807
 40
0.278241715
 40
0.3948395492
 40
0.6739816576
 40
1.0
 40
1.0
 40
1.0
 40
1.0
 10
6.8536632034
 20
23.2669872981
 30
0.0
 10
6.853752845
 20
23.2580912117
 30
0.0
 10
6.8569955142
 20
23.2395605855
 30
0.0
 10
6.8705475017
 20
23.2133182791
 30
0.0
 10
6.8924163406
 20
23.1888806294
 30
0.0
 10
6.9347611075
 20
23.1578162275
 30
0.0
 10
7.0065318262
 20
23.130184663
 30
0.0
 10
7.0702007157
 20
23.1226497308
 30
0.0
 10
7.1043862014
 20
23.1226497308
 30
0.0
  0
SPLINE
  5
640
100
AcDbEntity
  8
0
100
AcDbSpline
 62
250
  6
CONTINUOUS
 70
0
 71
3
 72
11
 73
7
 74
0
 42
0.0000001
 43
0.0000001
 44
0.0000000001
 40
0.0
 40
0.0
 40
0.0
 40
0.0
 40
0.2331623084
 40
0.476670585
 40
0.7338116789
 40
1.0
 40
1.0
 40
1.0
 40
1.0
 10
6.8594810333
 20
23.8443375673
 30
0.0
 10
6.859576105
 20
23.8160323825
 30
0.0
 10
6.8735059628
 20
23.7574892432
 30
0.0
 10
6.9304383869
 20
23.6858281285
 30
0.0
 10
7.0131064271
 20
23.6388299314
 30
0.0
 10
7.0771622818
 20
23.6279126229
 30
0.0
 10
7.1094768025
 20
23.6278312164
 30
0.0
  0
SPLINE
  5
641
100
AcDbEntity
  8
0
100
AcDbSpline
 62
250
  6
CONTINUOUS
 70
0
 71
3
 72
11
 73
7
 74
0
 42
0.0000001
 43
0.0000001
 44
0.0000000001
 40
0.0
 40
0.0
 40
0.0
 40
0.0
 40
0.2331623084
 40
0.476670585
 40
0.7338116789
 40
1.0
 40
1.0
 40
1.0
 40
1.0
 10
-7.6667161242
 20
23.8443375673
 30
0.0
 10
-7.666811196
 20
23.8160323825
 30
0.0
 10
-7.6807410537
 20
23.7574892432
 30
0.0
 10
-7.7376734778
 20
23.6858281285
 30
0.0
 10
-7.820341518
 20
23.6388299314
 30
0.0
 10
-7.8843973728
 20
23.6279126229
 30
0.0
 10
-7.9167118934
 20
23.6278312164
 30
0.0
  0
SPLINE
  5
642
100
AcDbEntity
  8
0
100
AcDbSpline
 62
7
  6
CONTINUOUS
 70
0
 71
3
 72
13
 73
9
 74
0
 42
0.0000001
 43
0.0000001
 44
0.0000000001
 40
0.0
 40
0.0
 40
0.0
 40
0.0
 40
0.0848440362
 40
0.1759755807
 40
0.278241715
 40
0.3948395492
 40
0.6739816576
 40
1.0
 40
1.0
 40
1.0
 40
1.0
 10
-10.5463367966
 20
23.2669872981
 30
0.0
 10
-10.546247155
 20
23.2580912117
 30
0.0
 10
-10.5430044858
 20
23.2395605855
 30
0.0
 10
-10.5294524983
 20
23.2133182791
 30
0.0
 10
-10.5075836594
 20
23.1888806294
 30
0.0
 10
-10.4652388925
 20
23.1578162275
 30
0.0
 10
-10.3934681738
 20
23.130184663
 30
0.0
 10
-10.3297992843
 20
23.1226497308
 30
0.0
 10
-10.2956137986
 20
23.1226497308
 30
0.0
  0
SPLINE
  5
643
100
AcDbEntity
  8
0
100
AcDbSpline
 62
250
  6
CONTINUOUS
 70
0
 71
3
 72
11
 73
7
 74
0
 42
0.0000001
 43
0.0000001
 44
0.0000000001
 40
0.0
 40
0.0
 40
0.0
 40
0.0
 40
0.2331623162
 40
0.4766706026
 40
0.7338117062
 40
1.0
 40
1.0
 40
1.0
 40
1.0
 10
-10.5405189667
 20
23.8443375673
 30
0.0
 10
-10.540423895
 20
23.8160323815
 30
0.0
 10
-10.5264940361
 20
23.7574892401
 30
0.0
 10
-10.4695616082
 20
23.685828124
 30
0.0
 10
-10.3868935674
 20
23.6388299294
 30
0.0
 10
-10.3228377148
 20
23.6279126229
 30
0.0
 10
-10.2905231975
 20
23.6278312164
 30
0.0
  0
SPLINE
  5
644
100
AcDbEntity
  8
RACCORDO
100
AcDbSpline
 62
7
  6
CONTINUOUS
 70
0
 71
3
 72
13
 73
9
 74
0
 42
0.0000001
 43
0.0000001
 44
0.0000000001
 40
0.0
 40
0.0
 40
0.0
 40
0.0
 40
0.3307411342
 40
0.6394251877
 40
0.7750014494
 40
0.8882868222
 40
0.9677381433
 40
1.0
 40
1.0
 40
1.0
 40
1.0
 10
0.9792957541
 20
4.0186941781
 30
0.0
 10
0.9573381006
 20
4.0406524349
 30
0.0
 10
0.9148667632
 20
4.0830844769
 30
0.0
 10
0.8632805884
 20
4.1344020404
 30
0.0
 10
0.8261619017
 20
4.1713156653
 30
0.0
 10
0.8041395476
 20
4.1928821833
 30
0.0
 10
0.7892736776
 20
4.207898879
 30
0.0
 10
0.7814680847
 20
4.2149143698
 30
0.0
 10
0.7793262151
 20
4.2170562395
 30
0.0
  0
SPLINE
  5
645
100
AcDbEntity
  8
RACCORDO
100
AcDbSpline
 62
7
  6
CONTINUOUS
 70
0
 71
3
 72
14
 73
10
 74
0
 42
0.0000001
 43
0.0000001
 44
0.0000000001
 40
0.0
 40
0.0
 40
0.0
 40
0.0
 40
0.32818233
 40
0.6367291165
 40
0.7729870869
 40
0.8871891128
 40
0.9323833766
 40
0.9674100881
 40
1.0
 40
1.0
 40
1.0
 40
1.0
 10
5.6435546677
 20
-10.3942719201
 30
0.0
 10
5.6354005875
 20
-10.3638080996
 30
0.0
 10
5.619634601
 20
-10.3046886622
 30
0.0
 10
5.600614059
 20
-10.232885855
 30
0.0
 10
5.5869855628
 20
-10.1809267354
 30
0.0
 10
5.5798194478
 20
-10.1534342918
 30
0.0
 10
5.5751961528
 20
-10.1353332743
 30
0.0
 10
5.572447691
 20
-10.124845413
 30
0.0
 10
5.5712021486
 20
-10.1184612615
 30
0.0
 10
5.5703916074
 20
-10.1154362894
 30
0.0
  0
SPLINE
  5
646
100
AcDbEntity
  8
RACCORDO
100
AcDbSpline
 62
250
  6
CONTINUOUS
 70
0
 71
3
 72
18
 73
14
 74
0
 42
0.0000001
 43
0.0000001
 44
0.0000000001
 40
0.0
 40
0.0
 40
0.0
 40
0.0
 40
0.1927065588
 40
0.3785288047
 40
0.5498990478
 40
0.7006009721
 40
0.8250579182
 40
0.875886114
 40
0.9184971946
 40
0.9524724608
 40
0.9774711382
 40
0.9933303711
 40
1.0
 40
1.0
 40
1.0
 40
1.0
 10
0.9780027119
 20
9.5
 30
0.0
 10
0.965149928
 20
9.4999957382
 30
0.0
 10
0.9399034642
 20
9.4999412378
 30
0.0
 10
0.9032280504
 20
9.4997245936
 30
0.0
 10
0.8693544684
 20
9.499382647
 30
0.0
 10
0.8395778218
 20
9.4989258352
 30
0.0
 10
0.817836289
 20
9.4984531625
 30
0.0
 10
0.8033171643
 20
9.4980001368
 30
0.0
 10
0.7948098894
 20
9.4976908282
 30
0.0
 10
0.7880836398
 20
9.4973130463
 30
0.0
 10
0.7830065211
 20
9.497079088
 30
0.0
 10
0.7800361109
 20
9.4965644673
 30
0.0
 10
0.7783340416
 20
9.4965276573
 30
0.0
 10
0.7780331729
 20
9.4962
 30
0.0
  0
SPLINE
  5
647
100
AcDbEntity
  8
0
100
AcDbSpline
 62
250
  6
CONTINUOUS
 70
0
 71
3
 72
18
 73
14
 74
0
 42
0.0000001
 43
0.0000001
 44
0.0000000001
 40
0.0
 40
0.0
 40
0.0
 40
0.0
 40
0.0096013098
 40
0.027710196
 40
0.0542060885
 40
0.0888989448
 40
0.1315364068
 40
0.1818075413
 40
0.3037290576
 40
0.4511062093
 40
0.6196364272
 40
0.8043984523
 40
1.0
 40
1.0
 40
1.0
 40
1.0
 10
10.1327247927
 20
22.0602279426
 30
0.0
 10
10.1322780412
 20
22.0575457791
 30
0.0
 10
10.1318419626
 20
22.0496893365
 30
0.0
 10
10.1310888277
 20
22.0343707291
 30
0.0
 10
10.1304447424
 20
22.0119146254
 30
0.0
 10
10.1297495974
 20
21.9825220381
 30
0.0
 10
10.1290939794
 20
21.9463896458
 30
0.0
 10
10.1281842759
 20
21.8855564703
 30
0.0
 10
10.1271909472
 20
21.7950583112
 30
0.0
 10
10.1262098857
 20
21.6710679746
 30
0.0
 10
10.1254206012
 20
21.5292791664
 30
0.0
 10
10.1248465225
 20
21.3738320557
 30
0.0
 10
10.1246247149
 20
21.2661122981
 30
0.0
 10
10.1245517887
 20
21.2107174911
 30
0.0
  0
SPLINE
  5
648
100
AcDbEntity
  8
0
100
AcDbSpline
 62
250
  6
CONTINUOUS
 70
0
 71
3
 72
18
 73
14
 74
0
 42
0.0000001
 43
0.0000001
 44
0.0000000001
 40
0.0
 40
0.0
 40
0.0
 40
0.0
 40
0.0095464318
 40
0.0275618866
 40
0.0539646496
 40
0.0885756004
 40
0.1311468878
 40
0.1813697859
 40
0.303251614
 40
0.4506637606
 40
0.619295344
 40
0.8042110316
 40
1.0
 40
1.0
 40
1.0
 40
1.0
 10
10.632665452
 20
21.5609621806
 30
0.0
 10
10.6322236321
 20
21.5596839728
 30
0.0
 10
10.6317757892
 20
21.5557630097
 30
0.0
 10
10.6310284849
 20
21.54818305
 30
0.0
 10
10.6303800921
 20
21.5369899872
 30
0.0
 10
10.6296850039
 20
21.5223379504
 30
0.0
 10
10.629027685
 20
21.5042982837
 30
0.0
 10
10.6281161328
 20
21.4739003858
 30
0.0
 10
10.6271205402
 20
21.4286451338
 30
0.0
 10
10.6261373594
 20
21.3666134704
 30
0.0
 10
10.6253462541
 20
21.2956482294
 30
0.0
 10
10.6247708975
 20
21.2178275267
 30
0.0
 10
10.6245486486
 20
21.1638946538
 30
0.0
 10
10.6244756363
 20
21.1361579495
 30
0.0
  0
SPLINE
  5
649
100
AcDbEntity
  8
0
100
AcDbSpline
 62
250
  6
CONTINUOUS
 70
0
 71
3
 72
15
 73
11
 74
0
 42
0.0000001
 43
0.0000001
 44
0.0000000001
 40
0.0
 40
0.0
 40
0.0
 40
0.0
 40
0.0353243556
 40
0.06318834
 40
0.0987722845
 40
0.1421294879
 40
0.1930621434
 40
0.3161216515
 40
0.6313172625
 40
1.0
 40
1.0
 40
1.0
 40
1.0
 10
10.6244756363
 20
21.1361579495
 30
0.0
 10
10.6237801915
 20
21.14216816
 30
0.0
 10
10.6145236899
 20
21.1506629559
 30
0.0
 10
10.5999679032
 20
21.1583521695
 30
0.0
 10
10.5827654621
 20
21.165116321
 30
0.0
 10
10.5615015026
 20
21.1715063915
 30
0.0
 10
10.5252765673
 20
21.1802539297
 30
0.0
 10
10.4426546443
 20
21.1944930681
 30
0.0
 10
10.3048326662
 20
21.2070047461
 30
0.0
 10
10.1876991024
 20
21.2105549634
 30
0.0
 10
10.1245517887
 20
21.2107174908
 30
0.0
  0
SPLINE
  5
64A
100
AcDbEntity
  8
0
100
AcDbSpline
 62
250
  6
CONTINUOUS
 70
0
 71
3
 72
21
 73
17
 74
0
 42
0.0000001
 43
0.0000001
 44
0.0000000001
 40
0.0
 40
0.0
 40
0.0
 40
0.0
 40
0.0022236948
 40
0.0066923273
 40
0.0134667299
 40
0.0225487857
 40
0.047564095
 40
0.0815282887
 40
0.1241304351
 40
0.1749724781
 40
0.2335775761
 40
0.2993958396
 40
0.4501351666
 40
0.6215293003
 40
0.8071383373
 40
1.0
 40
1.0
 40
1.0
 40
1.0
 10
10.6072907518
 20
9.4905
 30
0.0
 10
10.6070399631
 20
9.4907731183
 30
0.0
 10
10.6058771761
 20
9.4910668072
 30
0.0
 10
10.6037398124
 20
9.4915229735
 30
0.0
 10
10.6003425431
 20
9.4919373802
 30
0.0
 10
10.5935784199
 20
9.4926078461
 30
0.0
 10
10.5822385655
 20
9.4933548919
 30
0.0
 10
10.5653274937
 20
9.4941987222
 30
0.0
 10
10.5440951225
 20
9.4950097313
 30
0.0
 10
10.5187540808
 20
9.4957889928
 30
0.0
 10
10.4895378628
 20
9.4965217521
 30
0.0
 10
10.4436651353
 20
9.4974708939
 30
0.0
 10
10.3789822843
 20
9.4984540714
 30
0.0
 10
10.2943218541
 20
9.4993117579
 30
0.0
 10
10.2026348871
 20
9.4998537414
 30
0.0
 10
10.1395260091
 20
9.4999893365
 30
0.0
 10
10.1073669042
 20
9.5
 30
0.0
  0
SPLINE
  5
64B
100
AcDbEntity
  8
0
100
AcDbSpline
 62
250
  6
CONTINUOUS
 70
0
 71
3
 72
9
 73
5
 74
0
 42
0.0000001
 43
0.0000001
 44
0.0000000001
 40
0.0
 40
0.0
 40
0.0
 40
0.0
 40
0.2499887187
 40
1.0
 40
1.0
 40
1.0
 40
1.0
 10
10.6072907518
 20
9.4905
 30
0.0
 10
10.6067660995
 20
7.9088214473
 30
0.0
 10
10.6051922599
 20
1.5818215669
 30
0.0
 10
10.6057167004
 20
-4.7451788356
 30
0.0
 10
10.6072907518
 20
-9.4905
 30
0.0
  0
SPLINE
  5
64C
100
AcDbEntity
  8
0
100
AcDbSpline
 62
250
  6
CONTINUOUS
 70
0
 71
3
 72
21
 73
17
 74
0
 42
0.0000001
 43
0.0000001
 44
0.0000000001
 40
0.0
 40
0.0
 40
0.0
 40
0.0
 40
0.002223695
 40
0.0066923276
 40
0.0134667304
 40
0.0225487864
 40
0.047564096
 40
0.0815282899
 40
0.1241304365
 40
0.1749724796
 40
0.2335775777
 40
0.2993958411
 40
0.4501351679
 40
0.6215293013
 40
0.8071383378
 40
1.0
 40
1.0
 40
1.0
 40
1.0
 10
10.6072907518
 20
-9.4905
 30
0.0
 10
10.607039963
 20
-9.4907731183
 30
0.0
 10
10.605877176
 20
-9.4910668072
 30
0.0
 10
10.6037398122
 20
-9.4915229735
 30
0.0
 10
10.6003425428
 20
-9.4919373802
 30
0.0
 10
10.5935784195
 20
-9.4926078461
 30
0.0
 10
10.582238565
 20
-9.4933548919
 30
0.0
 10
10.5653274931
 20
-9.4941987222
 30
0.0
 10
10.5440951218
 20
-9.4950097312
 30
0.0
 10
10.51875408
 20
-9.4957889928
 30
0.0
 10
10.489537862
 20
-9.4965217521
 30
0.0
 10
10.4436651345
 20
-9.4974708938
 30
0.0
 10
10.3789822836
 20
-9.4984540714
 30
0.0
 10
10.2943218536
 20
-9.4993117579
 30
0.0
 10
10.2026348868
 20
-9.4998537414
 30
0.0
 10
10.139526009
 20
-9.4999893364
 30
0.0
 10
10.1073669042
 20
-9.5
 30
0.0
  0
SPLINE
  5
64D
100
AcDbEntity
  8
0
100
AcDbSpline
 62
250
  6
CONTINUOUS
 70
0
 71
3
 72
15
 73
11
 74
0
 42
0.0000001
 43
0.0000001
 44
0.0000000001
 40
0.0
 40
0.0
 40
0.0
 40
0.0
 40
0.0353243827
 40
0.0631883858
 40
0.0987723482
 40
0.1421295674
 40
0.1930622355
 40
0.3161217574
 40
0.6313173428
 40
1.0
 40
1.0
 40
1.0
 40
1.0
 10
10.6244756363
 20
-21.1361579495
 30
0.0
 10
10.6237801788
 20
-21.142168163
 30
0.0
 10
10.614523663
 20
-21.1506629493
 30
0.0
 10
10.5999678639
 20
-21.1583521622
 30
0.0
 10
10.582765413
 20
-21.1651163104
 30
0.0
 10
10.5615014456
 20
-21.1715063784
 30
0.0
 10
10.5252765034
 20
-21.1802539119
 30
0.0
 10
10.4426545827
 20
-21.1944930417
 30
0.0
 10
10.3048326262
 20
-21.2070047119
 30
0.0
 10
10.1876990858
 20
-21.2105549267
 30
0.0
 10
10.1245517887
 20
-21.2107174539
 30
0.0
  0
SPLINE
  5
64E
100
AcDbEntity
  8
0
100
AcDbSpline
 62
250
  6
CONTINUOUS
 70
0
 71
3
 72
18
 73
14
 74
0
 42
0.0000001
 43
0.0000001
 44
0.0000000001
 40
0.0
 40
0.0
 40
0.0
 40
0.0
 40
0.1956015466
 40
0.380363566
 40
0.5488937801
 40
0.6962709292
 40
0.8181924432
 40
0.8684635759
 40
0.9111010395
 40
0.9457938871
 40
0.9722898007
 40
0.9903986446
 40
1.0
 40
1.0
 40
1.0
 40
1.0
 10
10.1245517887
 20
-21.2107174911
 30
0.0
 10
10.1246247161
 20
-21.2661122989
 30
0.0
 10
10.1248465042
 20
-21.3738320567
 30
0.0
 10
10.1254206061
 20
-21.5292791675
 30
0.0
 10
10.1262098943
 20
-21.6710679749
 30
0.0
 10
10.1271909521
 20
-21.7950583119
 30
0.0
 10
10.128184246
 20
-21.8855564703
 30
0.0
 10
10.1290939618
 20
-21.9463896477
 30
0.0
 10
10.129749573
 20
-21.9825220346
 30
0.0
 10
10.1304446935
 20
-22.0119146373
 30
0.0
 10
10.1310889558
 20
-22.0343707031
 30
0.0
 10
10.1318416413
 20
-22.0496893834
 30
0.0
 10
10.1322784393
 20
-22.0575457304
 30
0.0
 10
10.132724977
 20
-22.0602279426
 30
0.0
  0
SPLINE
  5
64F
100
AcDbEntity
  8
0
100
AcDbSpline
 62
250
  6
CONTINUOUS
 70
0
 71
3
 72
18
 73
14
 74
0
 42
0.0000001
 43
0.0000001
 44
0.0000000001
 40
0.0
 40
0.0
 40
0.0
 40
0.0
 40
0.1955463201
 40
0.3802560466
 40
0.5487392846
 40
0.6960787796
 40
0.8179777621
 40
0.8682460101
 40
0.9108882141
 40
0.9455958032
 40
0.9721210799
 40
0.9902839828
 40
1.0
 40
1.0
 40
1.0
 40
1.0
 10
10.6244756363
 20
-21.1361579495
 30
0.0
 10
10.6245485572
 20
-21.1638569301
 30
0.0
 10
10.6247703977
 20
-21.2177197381
 30
0.0
 10
10.625344522
 20
-21.2954464846
 30
0.0
 10
10.6261339068
 20
-21.3663426717
 30
0.0
 10
10.627114908
 20
-21.4283380213
 30
0.0
 10
10.6281084966
 20
-21.4735863279
 30
0.0
 10
10.629017759
 20
-21.503999639
 30
0.0
 10
10.6296743188
 20
-21.5220670703
 30
0.0
 10
10.6303670108
 20
-21.5367592527
 30
0.0
 10
10.6310177076
 20
-21.5480012176
 30
0.0
 10
10.6317587415
 20
-21.5556463682
 30
0.0
 10
10.6322140553
 20
-21.5596073816
 30
0.0
 10
10.6326488246
 20
-21.5609131753
 30
0.0
  0
SPLINE
  5
650
100
AcDbEntity
  8
0
100
AcDbSpline
 62
250
  6
CONTINUOUS
 70
0
 71
3
 72
15
 73
11
 74
0
 42
0.0000001
 43
0.0000001
 44
0.0000000001
 40
0.0
 40
0.0
 40
0.0
 40
0.0
 40
0.0353243827
 40
0.0631883876
 40
0.0987723529
 40
0.1421295754
 40
0.193062247
 40
0.3161217748
 40
0.6313173602
 40
1.0
 40
1.0
 40
1.0
 40
1.0
 10
-11.4317107272
 20
21.1361579495
 30
0.0
 10
-11.4310152697
 20
21.1421681629
 30
0.0
 10
-11.4217587525
 20
21.1506629487
 30
0.0
 10
-11.4072029524
 20
21.1583521607
 30
0.0
 10
-11.3900004998
 20
21.1651163083
 30
0.0
 10
-11.3687365306
 20
21.1715063757
 30
0.0
 10
-11.3325115862
 20
21.1802539082
 30
0.0
 10
-11.249889664
 20
21.1944930356
 30
0.0
 10
-11.1120677101
 20
21.2070047033
 30
0.0
 10
-10.9949341734
 20
21.2105549174
 30
0.0
 10
-10.9317868797
 20
21.2107174445
 30
0.0
  0
SPLINE
  5
651
100
AcDbEntity
  8
0
100
AcDbSpline
 62
250
  6
CONTINUOUS
 70
0
 71
3
 72
18
 73
14
 74
0
 42
0.0000001
 43
0.0000001
 44
0.0000000001
 40
0.0
 40
0.0
 40
0.0
 40
0.0
 40
0.1956015477
 40
0.3803635728
 40
0.5488937907
 40
0.6962709424
 40
0.8181924587
 40
0.8684635932
 40
0.9111010552
 40
0.9457939115
 40
0.972289804
 40
0.9903986902
 40
1.0
 40
1.0
 40
1.0
 40
1.0
 10
-10.9317868797
 20
21.2107174911
 30
0.0
 10
-10.9318598058
 20
21.2661122981
 30
0.0
 10
-10.9320816134
 20
21.3738320557
 30
0.0
 10
-10.9326556921
 20
21.5292791664
 30
0.0
 10
-10.9334449766
 20
21.6710679746
 30
0.0
 10
-10.9344260381
 20
21.7950583112
 30
0.0
 10
-10.9354193668
 20
21.8855564703
 30
0.0
 10
-10.9363290703
 20
21.9463896458
 30
0.0
 10
-10.9369846883
 20
21.9825220381
 30
0.0
 10
-10.9376798333
 20
22.0119146254
 30
0.0
 10
-10.9383239186
 20
22.0343707291
 30
0.0
 10
-10.9390770535
 20
22.0496893365
 30
0.0
 10
-10.9395131321
 20
22.0575457791
 30
0.0
 10
-10.9399598837
 20
22.0602279426
 30
0.0
  0
SPLINE
  5
652
100
AcDbEntity
  8
RACCORDO
100
AcDbSpline
 62
250
  6
CONTINUOUS
 70
0
 71
3
 72
18
 73
14
 74
0
 42
0.0000001
 43
0.0000001
 44
0.0000000001
 40
0.0
 40
0.0
 40
0.0
 40
0.0
 40
0.1923418528
 40
0.3778730476
 40
0.5492660813
 40
0.7001794305
 40
0.8248094396
 40
0.8757534335
 40
0.9184345913
 40
0.9524782139
 40
0.977534065
 40
0.9933932878
 40
1.0
 40
1.0
 40
1.0
 40
1.0
 10
6.1591463556
 20
-9.4999999999
 30
0.0
 10
6.1479335732
 20
-9.4935243408
 30
0.0
 10
6.1259251643
 20
-9.4807673654
 30
0.0
 10
6.0939953432
 20
-9.4621197522
 30
0.0
 10
6.0645358794
 20
-9.4447714768
 30
0.0
 10
6.0386802478
 20
-9.4293876304
 30
0.0
 10
6.0198507952
 20
-9.418042798
 30
0.0
 10
6.0073335475
 20
-9.4103600095
 30
0.0
 10
6.0000157392
 20
-9.4058275813
 30
0.0
 10
5.9942869601
 20
-9.4021312373
 30
0.0
 10
5.9899416256
 20
-9.3994096549
 30
0.0
 10
5.9875634586
 20
-9.3974789016
 30
0.0
 10
5.986095321
 20
-9.3966412752
 30
0.0
 10
5.9859676548
 20
-9.3962152305
 30
0.0
  0
SPLINE
  5
653
100
AcDbEntity
  8
0
100
AcDbSpline
 62
250
  6
CONTINUOUS
 70
0
 71
3
 72
18
 73
14
 74
0
 42
0.0000001
 43
0.0000001
 44
0.0000000001
 40
0.0
 40
0.0
 40
0.0
 40
0.0
 40
0.1956606136
 40
0.3804673238
 40
0.5490204219
 40
0.6963940999
 40
0.8182849096
 40
0.868531735
 40
0.9111404608
 40
0.9458024497
 40
0.9722700076
 40
0.9903631722
 40
1.0
 40
1.0
 40
1.0
 40
1.0
 10
-11.4317107272
 20
21.1361579495
 30
0.0
 10
-11.4317836871
 20
21.1638747276
 30
0.0
 10
-11.4320057279
 20
21.2177705895
 30
0.0
 10
-11.43258043
 20
21.2955416665
 30
0.0
 10
-11.4333706273
 20
21.366470442
 30
0.0
 10
-11.4343526532
 20
21.4284829427
 30
0.0
 10
-11.435347194
 20
21.4737345387
 30
0.0
 10
-11.4362575255
 20
21.5041405958
 30
0.0
 10
-11.4369144681
 20
21.5221949269
 30
0.0
 10
-11.4376082246
 20
21.5368682251
 30
0.0
 10
-11.4382579991
 20
21.5480870366
 30
0.0
 10
-11.439001655
 20
21.555701709
 30
0.0
 10
-11.4394539578
 20
21.5596436982
 30
0.0
 10
-11.439891759
 20
21.5609367249
 30
0.0
  0
SPLINE
  5
654
100
AcDbEntity
  8
0
100
AcDbSpline
 62
250
  6
CONTINUOUS
 70
0
 71
3
 72
21
 73
17
 74
0
 42
0.0000001
 43
0.0000001
 44
0.0000000001
 40
0.0
 40
0.0
 40
0.0
 40
0.0
 40
0.0022236949
 40
0.0066923275
 40
0.0134667302
 40
0.0225487861
 40
0.0475640957
 40
0.0815282895
 40
0.124130436
 40
0.1749724791
 40
0.2335775771
 40
0.2993958406
 40
0.4501351675
 40
0.621529301
 40
0.8071383376
 40
1.0
 40
1.0
 40
1.0
 40
1.0
 10
-11.4145258427
 20
9.4905
 30
0.0
 10
-11.414275054
 20
9.4907731183
 30
0.0
 10
-11.413112267
 20
9.4910668072
 30
0.0
 10
-11.4109749032
 20
9.4915229735
 30
0.0
 10
-11.4075776338
 20
9.4919373802
 30
0.0
 10
-11.4008135105
 20
9.4926078461
 30
0.0
 10
-11.3894736561
 20
9.4933548919
 30
0.0
 10
-11.3725625842
 20
9.4941987222
 30
0.0
 10
-11.3513302129
 20
9.4950097312
 30
0.0
 10
-11.3259891712
 20
9.4957889928
 30
0.0
 10
-11.2967729532
 20
9.4965217521
 30
0.0
 10
-11.2509002257
 20
9.4974708938
 30
0.0
 10
-11.1862173748
 20
9.4984540714
 30
0.0
 10
-11.1015569447
 20
9.4993117579
 30
0.0
 10
-11.0098699778
 20
9.4998537414
 30
0.0
 10
-10.9467611
 20
9.4999893364
 30
0.0
 10
-10.9146019951
 20
9.5
 30
0.0
  0
SPLINE
  5
655
100
AcDbEntity
  8
0
100
AcDbSpline
 62
250
  6
CONTINUOUS
 70
0
 71
3
 72
21
 73
17
 74
0
 42
0.0000001
 43
0.0000001
 44
0.0000000001
 40
0.0
 40
0.0
 40
0.0
 40
0.0
 40
0.0022236948
 40
0.0066923273
 40
0.0134667298
 40
0.0225487856
 40
0.047564095
 40
0.0815282887
 40
0.124130435
 40
0.1749724781
 40
0.2335775761
 40
0.2993958396
 40
0.4501351666
 40
0.6215293003
 40
0.8071383373
 40
1.0
 40
1.0
 40
1.0
 40
1.0
 10
-11.4145258427
 20
-9.4905
 30
0.0
 10
-11.414275054
 20
-9.4907731183
 30
0.0
 10
-11.413112267
 20
-9.4910668072
 30
0.0
 10
-11.4109749033
 20
-9.4915229735
 30
0.0
 10
-11.407577634
 20
-9.4919373802
 30
0.0
 10
-11.4008135108
 20
-9.4926078461
 30
0.0
 10
-11.3894736565
 20
-9.4933548919
 30
0.0
 10
-11.3725625846
 20
-9.4941987222
 30
0.0
 10
-11.3513302134
 20
-9.4950097313
 30
0.0
 10
-11.3259891717
 20
-9.4957889928
 30
0.0
 10
-11.2967729537
 20
-9.4965217521
 30
0.0
 10
-11.2509002262
 20
-9.4974708939
 30
0.0
 10
-11.1862173752
 20
-9.4984540714
 30
0.0
 10
-11.101556945
 20
-9.4993117579
 30
0.0
 10
-11.009869978
 20
-9.4998537414
 30
0.0
 10
-10.9467611
 20
-9.4999893365
 30
0.0
 10
-10.9146019951
 20
-9.5
 30
0.0
  0
SPLINE
  5
656
100
AcDbEntity
  8
0
100
AcDbSpline
 62
250
  6
CONTINUOUS
 70
0
 71
3
 72
9
 73
5
 74
0
 42
0.0000001
 43
0.0000001
 44
0.0000000001
 40
0.0
 40
0.0
 40
0.0
 40
0.0
 40
0.2499887187
 40
1.0
 40
1.0
 40
1.0
 40
1.0
 10
-11.4145258427
 20
-9.4905
 30
0.0
 10
-11.4140011905
 20
-7.9088214473
 30
0.0
 10
-11.4124273508
 20
-1.5818215669
 30
0.0
 10
-11.4129517913
 20
4.7451788356
 30
0.0
 10
-11.4145258427
 20
9.4905
 30
0.0
  0
SPLINE
  5
657
100
AcDbEntity
  8
0
100
AcDbSpline
 62
250
  6
CONTINUOUS
 70
0
 71
3
 72
15
 73
11
 74
0
 42
0.0000001
 43
0.0000001
 44
0.0000000001
 40
0.0
 40
0.0
 40
0.0
 40
0.0
 40
0.0353243555
 40
0.0631883398
 40
0.0987722842
 40
0.1421294876
 40
0.193062143
 40
0.3161216511
 40
0.6313172623
 40
1.0
 40
1.0
 40
1.0
 40
1.0
 10
-11.4317107272
 20
-21.1361579495
 30
0.0
 10
-11.4310152825
 20
-21.14216816
 30
0.0
 10
-11.421758781
 20
-21.1506629559
 30
0.0
 10
-11.4072029943
 20
-21.1583521696
 30
0.0
 10
-11.3900005532
 20
-21.1651163211
 30
0.0
 10
-11.3687365938
 20
-21.1715063915
 30
0.0
 10
-11.3325116585
 20
-21.1802539298
 30
0.0
 10
-11.2498897354
 20
-21.1944930682
 30
0.0
 10
-11.1120677572
 20
-21.2070047462
 30
0.0
 10
-10.9949341934
 20
-21.2105549635
 30
0.0
 10
-10.9317868797
 20
-21.2107174909
 30
0.0
  0
SPLINE
  5
658
100
AcDbEntity
  8
0
100
AcDbSpline
 62
7
  6
CONTINUOUS
 70
0
 71
3
 72
14
 73
10
 74
0
 42
0.0000001
 43
0.0000001
 44
0.0000000001
 40
0.0
 40
0.0
 40
0.0
 40
0.0
 40
0.166742244
 40
0.3264779016
 40
0.6053525199
 40
0.7218526832
 40
0.8240582372
 40
0.9151625846
 40
1.0
 40
1.0
 40
1.0
 40
1.0
 10
-7.9108940636
 20
23.1226497308
 30
0.0
 10
-7.8934390438
 20
23.1226497308
 30
0.0
 10
-7.8592096396
 20
23.1249087139
 30
0.0
 10
-7.7968953941
 20
23.1366250418
 30
0.0
 10
-7.7417062007
 20
23.1579800016
 30
0.0
 10
-7.6995187244
 20
23.1890061146
 30
0.0
 10
-7.6777225865
 20
23.2134118621
 30
0.0
 10
-7.6642188436
 20
23.2396107417
 30
0.0
 10
-7.6609877795
 20
23.2581067436
 30
0.0
 10
-7.6608982944
 20
23.2669872981
 30
0.0
  0
SPLINE
  5
659
100
AcDbEntity
  8
0
100
AcDbSpline
 62
250
  6
CONTINUOUS
 70
0
 71
3
 72
18
 73
14
 74
0
 42
0.0000001
 43
0.0000001
 44
0.0000000001
 40
0.0
 40
0.0
 40
0.0
 40
0.0
 40
0.0096013554
 40
0.0277101993
 40
0.0542061129
 40
0.0888989605
 40
0.1315364241
 40
0.1818075568
 40
0.3037290708
 40
0.4511062199
 40
0.619636434
 40
0.8043984534
 40
1.0
 40
1.0
 40
1.0
 40
1.0
 10
-10.939960068
 20
-22.0602279426
 30
0.0
 10
-10.9395135303
 20
-22.0575457304
 30
0.0
 10
-10.9390767322
 20
-22.0496893834
 30
0.0
 10
-10.9383240467
 20
-22.0343707031
 30
0.0
 10
-10.9376797844
 20
-22.0119146373
 30
0.0
 10
-10.9369846639
 20
-21.9825220346
 30
0.0
 10
-10.9363290528
 20
-21.9463896477
 30
0.0
 10
-10.935419337
 20
-21.8855564703
 30
0.0
 10
-10.934426043
 20
-21.7950583119
 30
0.0
 10
-10.9334449853
 20
-21.6710679749
 30
0.0
 10
-10.9326556971
 20
-21.5292791675
 30
0.0
 10
-10.9320815952
 20
-21.3738320567
 30
0.0
 10
-10.931859807
 20
-21.2661122989
 30
0.0
 10
-10.9317868797
 20
-21.2107174911
 30
0.0
  0
LINE
  5
65A
100
AcDbEntity
  8
RACCORDO
100
AcDbLine
 62
250
  6
CONTINUOUS
 10
7.304926373
 20
-2.3821440766
 11
9.3540260028
 21
-3.5653165713
  0
SPLINE
  5
65B
100
AcDbEntity
  8
0
100
AcDbSpline
 62
250
  6
CONTINUOUS
 70
0
 71
3
 72
18
 73
14
 74
0
 42
0.0000001
 43
0.0000001
 44
0.0000000001
 40
0.0
 40
0.0
 40
0.0
 40
0.0
 40
0.0097160172
 40
0.0278789201
 40
0.0544041968
 40
0.0891117859
 40
0.1317539899
 40
0.1820222379
 40
0.3039212204
 40
0.4512607154
 40
0.6197439534
 40
0.8044536799
 40
1.0
 40
1.0
 40
1.0
 40
1.0
 10
-11.4398839155
 20
-21.5609131753
 30
0.0
 10
-11.4394491463
 20
-21.5596073816
 30
0.0
 10
-11.4389938324
 20
-21.5556463682
 30
0.0
 10
-11.4382527985
 20
-21.5480012176
 30
0.0
 10
-11.4376021018
 20
-21.5367592527
 30
0.0
 10
-11.4369094098
 20
-21.5220670703
 30
0.0
 10
-11.4362528499
 20
-21.503999639
 30
0.0
 10
-11.4353435875
 20
-21.4735863279
 30
0.0
 10
-11.4343499989
 20
-21.4283380213
 30
0.0
 10
-11.4333689977
 20
-21.3663426717
 30
0.0
 10
-11.432579613
 20
-21.2954464846
 30
0.0
 10
-11.4320054886
 20
-21.2177197381
 30
0.0
 10
-11.4317836482
 20
-21.1638569301
 30
0.0
 10
-11.4317107272
 20
-21.1361579495
 30
0.0
  0
SPLINE
  5
65C
100
AcDbEntity
  8
RACCORDO
100
AcDbSpline
 62
250
  6
CONTINUOUS
 70
0
 71
3
 72
9
 73
5
 74
0
 42
0.0000001
 43
0.0000001
 44
0.0000000001
 40
0.0
 40
0.0
 40
0.0
 40
0.0
 40
0.2499887098
 40
1.0
 40
1.0
 40
1.0
 40
1.0
 10
3.5234897558
 20
-8.9343162033
 30
0.0
 10
3.8385408294
 20
-8.3882947553
 30
0.0
 10
5.0988608204
 20
-6.2041442414
 30
0.0
 10
6.359390112
 20
-4.0201144997
 30
0.0
 10
7.3049249959
 20
-2.3821389372
 30
0.0
  0
LINE
  5
65D
100
AcDbEntity
  8
RACCORDO
100
AcDbLine
 62
250
  6
CONTINUOUS
 10
5.5703787699
 20
-10.1153884932
 11
4.1973107308
 21
-9.3230212992
  0
LINE
  5
65E
100
AcDbEntity
  8
RACCORDO
100
AcDbLine
 62
250
  6
CONTINUOUS
 10
4.1973107308
 20
-9.3230212992
 11
3.5236456831
 21
-8.9342264689
  0
SPLINE
  5
65F
100
AcDbEntity
  8
RACCORDO
100
AcDbSpline
 62
250
  6
CONTINUOUS
 70
0
 71
3
 72
9
 73
5
 74
0
 42
0.0000001
 43
0.0000001
 44
0.0000000001
 40
0.0
 40
0.0
 40
0.0
 40
0.0
 40
0.7500116084
 40
1.0
 40
1.0
 40
1.0
 40
1.0
 10
9.3539788355
 20
-3.5653292098
 30
0.0
 10
8.5120915539
 20
-5.0231475214
 30
0.0
 10
7.3894640067
 20
-6.9668009554
 30
0.0
 10
6.2666650675
 20
-8.9103553755
 30
0.0
 10
5.9859676548
 20
-9.3962152305
 30
0.0
  0
LINE
  5
660
100
AcDbEntity
  8
RACCORDO
100
AcDbLine
 62
250
  6
CONTINUOUS
 10
5.9859676548
 20
-9.3962152305
 11
5.5703915095
 21
-10.1154360381
  0
SPLINE
  5
661
100
AcDbEntity
  8
RACCORDO
100
AcDbSpline
 62
250
  6
CONTINUOUS
 70
0
 71
3
 72
9
 73
5
 74
0
 42
0.0000001
 43
0.0000001
 44
0.0000000001
 40
0.0
 40
0.0
 40
0.0
 40
0.0
 40
0.2499883916
 40
1.0
 40
1.0
 40
1.0
 40
1.0
 10
-6.7932027457
 20
-9.3962152305
 30
0.0
 10
-7.0739001584
 20
-8.9103553755
 30
0.0
 10
-8.1966990977
 20
-6.9668009554
 30
0.0
 10
-9.3193266449
 20
-5.0231475214
 30
0.0
 10
-10.1612139264
 20
-3.5653292098
 30
0.0
  0
LINE
  5
662
100
AcDbEntity
  8
RACCORDO
100
AcDbLine
 62
250
  6
CONTINUOUS
 10
-6.3776266005
 20
-10.1154360381
 11
-6.7932027457
 21
-9.3962152305
  0
LINE
  5
663
100
AcDbEntity
  8
RACCORDO
100
AcDbLine
 62
250
  6
CONTINUOUS
 10
-4.330880774
 20
-8.9342264689
 11
-5.0045458217
 21
-9.3230212992
  0
LINE
  5
664
100
AcDbEntity
  8
RACCORDO
100
AcDbLine
 62
250
  6
CONTINUOUS
 10
-5.0045458217
 20
-9.3230212992
 11
-6.3776138608
 21
-10.1153884931
  0
SPLINE
  5
665
100
AcDbEntity
  8
RACCORDO
100
AcDbSpline
 62
250
  6
CONTINUOUS
 70
0
 71
3
 72
9
 73
5
 74
0
 42
0.0000001
 43
0.0000001
 44
0.0000000001
 40
0.0
 40
0.0
 40
0.0
 40
0.0
 40
0.7500112899
 40
1.0
 40
1.0
 40
1.0
 40
1.0
 10
-8.1121600804
 20
-2.3821389132
 30
0.0
 10
-7.1666251939
 20
-4.0201144801
 30
0.0
 10
-5.9060959198
 20
-6.204144241
 30
0.0
 10
-4.6457759162
 20
-8.3882947568
 30
0.0
 10
-4.3307248411
 20
-8.9343162072
 30
0.0
  0
SPLINE
  5
666
100
AcDbEntity
  8
RACCORDO
100
AcDbSpline
 62
7
  6
CONTINUOUS
 70
0
 71
3
 72
9
 73
5
 74
0
 42
0.0000001
 43
0.0000001
 44
0.0000000001
 40
0.0
 40
0.0
 40
0.0
 40
0.0
 40
0.2412176261
 40
1.0
 40
1.0
 40
1.0
 40
1.0
 10
-30.8502328777
 20
16.4962807706
 30
0.0
 10
-30.8804229194
 20
16.518756323
 30
0.0
 10
-31.0076109676
 20
16.6091941773
 30
0.0
 10
-31.1422240348
 20
16.6890013386
 30
0.0
 10
-31.2469426153
 20
16.7442388877
 30
0.0
  0
SPLINE
  5
667
100
AcDbEntity
  8
RACCORDO
100
AcDbSpline
 62
7
  6
CONTINUOUS
 70
0
 71
3
 72
15
 73
11
 74
0
 42
0.0000001
 43
0.0000001
 44
0.0000000001
 40
0.0
 40
0.0
 40
0.0
 40
0.0
 40
0.1132360743
 40
0.2361319576
 40
0.3661816126
 40
0.5000007919
 40
0.6338198593
 40
0.7638691317
 40
0.8867644052
 40
1.0
 40
1.0
 40
1.0
 40
1.0
 10
-32.0631081686
 20
17.1746194326
 30
0.0
 10
-32.1908519217
 20
17.2419812395
 30
0.0
 10
-32.4695228587
 20
17.3596244368
 30
0.0
 10
-32.9209274223
 20
17.4832821382
 30
0.0
 10
-33.4093232671
 20
17.5591202978
 30
0.0
 10
-33.9167390439
 20
17.5846691616
 30
0.0
 10
-34.4241543067
 20
17.5591197781
 30
0.0
 10
-34.9125486701
 20
17.4832812891
 30
0.0
 10
-35.3639513111
 20
17.3596237168
 30
0.0
 10
-35.6426209063
 20
17.2419809542
 30
0.0
 10
-35.7703641184
 20
17.1746194326
 30
0.0
  0
SPLINE
  5
668
100
AcDbEntity
  8
RACCORDO
100
AcDbSpline
 62
250
  6
CONTINUOUS
 70
0
 71
3
 72
10
 73
6
 74
0
 42
0.0000001
 43
0.0000001
 44
0.0000000001
 40
0.0
 40
0.0
 40
0.0
 40
0.0
 40
0.4602964955
 40
0.7201307442
 40
1.0
 40
1.0
 40
1.0
 40
1.0
 10
-36.3361053669
 20
16.7056031099
 30
0.0
 10
-36.2723585449
 20
16.7996986002
 30
0.0
 10
-36.1464136417
 20
16.9295659246
 30
0.0
 10
-35.9468607811
 20
17.0750629079
 30
0.0
 10
-35.8314896003
 20
17.1423861345
 30
0.0
 10
-35.7703622075
 20
17.1746185266
 30
0.0
  0
SPLINE
  5
669
100
AcDbEntity
  8
RACCORDO
100
AcDbSpline
 62
250
  6
CONTINUOUS
 70
0
 71
3
 72
26
 73
22
 74
0
 42
0.0000001
 43
0.0000001
 44
0.0000000001
 40
0.0
 40
0.0
 40
0.0
 40
0.0
 40
0.044639694
 40
0.0691003249
 40
0.095082577
 40
0.1516337328
 40
0.214079858
 40
0.2816801109
 40
0.3533611521
 40
0.4278240406
 40
0.5036308272
 40
0.5792804618
 40
0.6532769073
 40
0.7241993294
 40
0.7907849473
 40
0.8520219921
 40
0.8804322197
 40
0.9073003171
 40
0.932626856
 40
0.9564575187
 40
1.0
 40
1.0
 40
1.0
 40
1.0
 10
-36.245668548
 20
16.67572003
 30
0.0
 10
-36.2066820902
 20
16.742611491
 30
0.0
 10
-36.1317533283
 20
16.8379966944
 30
0.0
 10
-36.0113609379
 20
16.9508321721
 30
0.0
 10
-35.8646596463
 20
17.0649134482
 30
0.0
 10
-35.6475671725
 20
17.1937644778
 30
0.0
 10
-35.3495134104
 20
17.3216833108
 30
0.0
 10
-35.0142828757
 20
17.4239839791
 30
0.0
 10
-34.6505198315
 20
17.4980267159
 30
0.0
 10
-34.2676158715
 20
17.5418906679
 30
0.0
 10
-33.8755491331
 20
17.5544162013
 30
0.0
 10
-33.484555576
 20
17.5352716857
 30
0.0
 10
-33.1048590524
 20
17.484965784
 30
0.0
 10
-32.7463372345
 20
17.4048257902
 30
0.0
 10
-32.4183262814
 20
17.2969624144
 30
0.0
 10
-32.1713602275
 20
17.1835402138
 30
0.0
 10
-31.9974231877
 20
17.080330641
 30
0.0
 10
-31.8828889435
 20
16.9999157382
 30
0.0
 10
-31.7817064917
 20
16.9150161881
 30
0.0
 10
-31.6690227326
 20
16.8001996609
 30
0.0
 10
-31.6005447744
 20
16.7036067359
 30
0.0
 10
-31.5662054653
 20
16.6363448016
 30
0.0
  0
SPLINE
  5
66A
100
AcDbEntity
  8
RACCORDO
100
AcDbSpline
 62
250
  6
CONTINUOUS
 70
0
 71
3
 72
11
 73
7
 74
0
 42
0.0000001
 43
0.0000001
 44
0.0000000001
 40
0.0
 40
0.0
 40
0.0
 40
0.0
 40
0.2857179638
 40
0.5467290344
 40
0.7838540528
 40
1.0
 40
1.0
 40
1.0
 40
1.0
 10
-32.0509116216
 20
17.1681424313
 30
0.0
 10
-31.9791579014
 20
17.1297729103
 30
0.0
 10
-31.8454257915
 20
17.049261395
 30
0.0
 10
-31.6696266639
 20
16.9105434508
 30
0.0
 10
-31.5302551809
 20
16.7611731987
 30
0.0
 10
-31.4605648813
 20
16.6512445805
 30
0.0
 10
-31.4337796819
 20
16.5958225104
 30
0.0
  0
SPLINE
  5
66B
100
AcDbEntity
  8
RACCORDO
100
AcDbSpline
 62
7
  6
CONTINUOUS
 70
0
 71
3
 72
9
 73
5
 74
0
 42
0.0000001
 43
0.0000001
 44
0.0000000001
 40
0.0
 40
0.0
 40
0.0
 40
0.0
 40
0.4931429377
 40
1.0
 40
1.0
 40
1.0
 40
1.0
 10
-31.4337796819
 20
16.5958225104
 30
0.0
 10
-31.4525967919
 20
16.6091139956
 30
0.0
 10
-31.4955872126
 20
16.6296045477
 30
0.0
 10
-31.5425640668
 20
16.6363448016
 30
0.0
 10
-31.5662426953
 20
16.6363448016
 30
0.0
  0
LINE
  5
66C
100
AcDbEntity
  8
RACCORDO
100
AcDbLine
 62
7
  6
CONTINUOUS
 10
-31.1576016258
 20
16.4002028448
 11
-31.4337796819
 21
16.5958225104
  0
SPLINE
  5
66D
100
AcDbEntity
  8
RACCORDO
100
AcDbSpline
 62
250
  6
CONTINUOUS
 70
0
 71
3
 72
9
 73
5
 74
0
 42
0.0000001
 43
0.0000001
 44
0.0000000001
 40
0.0
 40
0.0
 40
0.0
 40
0.0
 40
0.2390922586
 40
1.0
 40
1.0
 40
1.0
 40
1.0
 10
-30.8501591855
 20
16.4947928676
 30
0.0
 10
-30.8799925788
 20
16.5173090643
 30
0.0
 10
-31.0069379557
 20
16.6086018119
 30
0.0
 10
-31.1417408096
 20
16.6887463077
 30
0.0
 10
-31.2469513576
 20
16.7442437405
 30
0.0
  0
SPLINE
  5
66E
100
AcDbEntity
  8
0
100
AcDbSpline
 62
7
  6
CONTINUOUS
 70
0
 71
3
 72
10
 73
6
 74
0
 42
0.0000001
 43
0.0000001
 44
0.0000000001
 40
0.0
 40
0.0
 40
0.0
 40
0.0
 40
0.6821719422
 40
0.9137069713
 40
1.0
 40
1.0
 40
1.0
 40
1.0
 10
-54.7681905764
 20
-23.2669872981
 30
0.0
 10
-54.8247902829
 20
-23.2343086128
 30
0.0
 10
-54.9005182057
 20
-23.1903980327
 30
0.0
 10
-54.9834482287
 20
-23.142422006
 30
0.0
 10
-55.0096412935
 20
-23.1268942083
 30
0.0
 10
-55.0167361435
 20
-23.1226497308
 30
0.0
  0
SPLINE
  5
66F
100
AcDbEntity
  8
0
100
AcDbSpline
 62
250
  6
CONTINUOUS
 70
0
 71
3
 72
22
 73
18
 74
0
 42
0.0000001
 43
0.0000001
 44
0.0000000001
 40
0.0
 40
0.0
 40
0.0
 40
0.0
 40
0.1952388856
 40
0.3828797577
 40
0.5557566521
 40
0.7072426602
 40
0.7731145082
 40
0.8315405346
 40
0.8819595127
 40
0.9238899007
 40
0.9569288042
 40
0.9700106833
 40
0.9807583538
 40
0.9891470445
 40
0.9951544385
 40
0.9987704635
 40
1.0
 40
1.0
 40
1.0
 40
1.0
 10
-55.7681905764
 20
-23.8443375673
 30
0.0
 10
-55.7763021397
 20
-23.8302874519
 30
0.0
 10
-55.7921962047
 20
-23.8027262678
 30
0.0
 10
-55.8152263398
 20
-23.7626974843
 30
0.0
 10
-55.836401578
 20
-23.7257959647
 30
0.0
 10
-55.8525020865
 20
-23.6976486314
 30
0.0
 10
-55.8638509247
 20
-23.6777394397
 30
0.0
 10
-55.8710250122
 20
-23.6651179357
 30
0.0
 10
-55.8772004995
 20
-23.6542156663
 30
0.0
 10
-55.8823127957
 20
-23.6451400569
 30
0.0
 10
-55.8858921315
 20
-23.6387511505
 30
0.0
 10
-55.8881705573
 20
-23.6346226009
 30
0.0
 10
-55.8894804442
 20
-23.6322634784
 30
0.0
 10
-55.8904157373
 20
-23.6304560273
 30
0.0
 10
-55.8912465963
 20
-23.6290628834
 30
0.0
 10
-55.8914177719
 20
-23.6283790375
 30
0.0
 10
-55.8918246248
 20
-23.627882301
 30
0.0
 10
-55.8917361435
 20
-23.6278312164
 30
0.0
  0
SPLINE
  5
670
100
AcDbEntity
  8
0
100
AcDbSpline
 62
250
  6
CONTINUOUS
 70
0
 71
3
 72
22
 73
18
 74
0
 42
0.0000001
 43
0.0000001
 44
0.0000000001
 40
0.0
 40
0.0
 40
0.0
 40
0.0
 40
0.1952388919
 40
0.3828797697
 40
0.5557566697
 40
0.70724268
 40
0.7731145286
 40
0.8315405538
 40
0.8819595309
 40
0.9238899176
 40
0.956928817
 40
0.9700106951
 40
0.9807583626
 40
0.9891470515
 40
0.995154444
 40
0.9987704655
 40
1.0
 40
1.0
 40
1.0
 40
1.0
 10
-52.7652817107
 20
-23.8443375673
 30
0.0
 10
-52.757170147
 20
-23.8302874514
 30
0.0
 10
-52.7412760815
 20
-23.8027262665
 30
0.0
 10
-52.7182459457
 20
-23.7626974817
 30
0.0
 10
-52.697070707
 20
-23.7257959611
 30
0.0
 10
-52.6809701982
 20
-23.6976486272
 30
0.0
 10
-52.6696213599
 20
-23.6777394354
 30
0.0
 10
-52.6624472725
 20
-23.6651179316
 30
0.0
 10
-52.6562717853
 20
-23.6542156623
 30
0.0
 10
-52.6511594893
 20
-23.6451400534
 30
0.0
 10
-52.6475801538
 20
-23.6387511475
 30
0.0
 10
-52.6453017284
 20
-23.6346225984
 30
0.0
 10
-52.6439918417
 20
-23.6322634764
 30
0.0
 10
-52.6430565489
 20
-23.6304560258
 30
0.0
 10
-52.6422256902
 20
-23.6290628824
 30
0.0
 10
-52.6420545145
 20
-23.6283790369
 30
0.0
 10
-52.6416476624
 20
-23.627882301
 30
0.0
 10
-52.6417361435
 20
-23.6278312164
 30
0.0
  0
SPLINE
  5
671
100
AcDbEntity
  8
0
100
AcDbSpline
 62
250
  6
CONTINUOUS
 70
0
 71
3
 72
22
 73
18
 74
0
 42
0.0000001
 43
0.0000001
 44
0.0000000001
 40
0.0
 40
0.0
 40
0.0
 40
0.0
 40
0.1950822042
 40
0.3826554783
 40
0.5555303001
 40
0.7070556802
 40
0.7729556003
 40
0.8314117942
 40
0.8818607365
 40
0.9238188875
 40
0.9568816981
 40
0.9699737107
 40
0.9807301588
 40
0.9891262757
 40
0.9951398518
 40
0.9987613805
 40
1.0
 40
1.0
 40
1.0
 40
1.0
 10
-52.7652817107
 20
-24.2456323968
 30
0.0
 10
-52.7651871317
 20
-24.2618896962
 30
0.0
 10
-52.7650195456
 20
-24.293778643
 30
0.0
 10
-52.7648302198
 20
-24.3400745123
 30
0.0
 10
-52.7647116109
 20
-24.382740746
 30
0.0
 10
-52.7646726869
 20
-24.4152671269
 30
0.0
 10
-52.7646847647
 20
-24.4382584116
 30
0.0
 10
-52.7647130097
 20
-24.4528258009
 30
0.0
 10
-52.7647591031
 20
-24.4653992062
 30
0.0
 10
-52.7648255334
 20
-24.475852531
 30
0.0
 10
-52.764893288
 20
-24.4832017489
 30
0.0
 10
-52.7649695263
 20
-24.4879341037
 30
0.0
 10
-52.7650093984
 20
-24.4906418166
 30
0.0
 10
-52.7650971852
 20
-24.4926838035
 30
0.0
 10
-52.7650810503
 20
-24.4943093931
 30
0.0
 10
-52.7652662186
 20
-24.4949952154
 30
0.0
 10
-52.7651784895
 20
-24.4956275655
 30
0.0
 10
-52.7652817107
 20
-24.495628166
 30
0.0
  0
LINE
  5
672
100
AcDbEntity
  8
0
100
AcDbLine
 62
7
  6
CONTINUOUS
 10
-53.5167361435
 20
-24.2500042308
 11
-53.5167361435
 21
-24.5
  0
SPLINE
  5
673
100
AcDbEntity
  8
0
100
AcDbSpline
 62
250
  6
CONTINUOUS
 70
0
 71
3
 72
22
 73
18
 74
0
 42
0.0000001
 43
0.0000001
 44
0.0000000001
 40
0.0
 40
0.0
 40
0.0
 40
0.0
 40
0.1950822042
 40
0.3826554783
 40
0.5555303001
 40
0.7070556802
 40
0.7729556003
 40
0.8314117942
 40
0.8818607365
 40
0.9238188875
 40
0.9568816981
 40
0.9699737107
 40
0.9807301588
 40
0.9891262757
 40
0.9951398518
 40
0.9987613805
 40
1.0
 40
1.0
 40
1.0
 40
1.0
 10
-55.7681905764
 20
-24.2369056521
 30
0.0
 10
-55.7682851554
 20
-24.2531629515
 30
0.0
 10
-55.7684527414
 20
-24.2850518983
 30
0.0
 10
-55.7686420672
 20
-24.3313477676
 30
0.0
 10
-55.7687606761
 20
-24.3740140013
 30
0.0
 10
-55.7687996002
 20
-24.4065403821
 30
0.0
 10
-55.7687875224
 20
-24.4295316669
 30
0.0
 10
-55.7687592773
 20
-24.4440990562
 30
0.0
 10
-55.768713184
 20
-24.4566724614
 30
0.0
 10
-55.7686467536
 20
-24.4671257862
 30
0.0
 10
-55.768578999
 20
-24.4744750042
 30
0.0
 10
-55.7685027607
 20
-24.479207359
 30
0.0
 10
-55.7684628886
 20
-24.4819150719
 30
0.0
 10
-55.7683751019
 20
-24.4839570588
 30
0.0
 10
-55.7683912367
 20
-24.4855826484
 30
0.0
 10
-55.7682060685
 20
-24.4862684707
 30
0.0
 10
-55.7682937975
 20
-24.4869008208
 30
0.0
 10
-55.7681905764
 20
-24.4869014213
 30
0.0
  0
SPLINE
  5
674
100
AcDbEntity
  8
0
100
AcDbSpline
 62
250
  6
CONTINUOUS
 70
0
 71
3
 72
22
 73
18
 74
0
 42
0.0000001
 43
0.0000001
 44
0.0000000001
 40
0.0
 40
0.0
 40
0.0
 40
0.0
 40
0.1952388856
 40
0.3828797577
 40
0.5557566521
 40
0.7072426602
 40
0.7731145082
 40
0.8315405346
 40
0.8819595127
 40
0.9238899007
 40
0.9569288042
 40
0.9700106833
 40
0.9807583538
 40
0.9891470445
 40
0.9951544385
 40
0.9987704635
 40
1.0
 40
1.0
 40
1.0
 40
1.0
 10
-52.7652817107
 20
23.8443375673
 30
0.0
 10
-52.7571701473
 20
23.8302874519
 30
0.0
 10
-52.7412760823
 20
23.8027262678
 30
0.0
 10
-52.7182459472
 20
23.7626974843
 30
0.0
 10
-52.6970707091
 20
23.7257959647
 30
0.0
 10
-52.6809702006
 20
23.6976486314
 30
0.0
 10
-52.6696213623
 20
23.6777394397
 30
0.0
 10
-52.6624472749
 20
23.6651179357
 30
0.0
 10
-52.6562717876
 20
23.6542156663
 30
0.0
 10
-52.6511594913
 20
23.6451400569
 30
0.0
 10
-52.6475801555
 20
23.6387511505
 30
0.0
 10
-52.6453017297
 20
23.6346226009
 30
0.0
 10
-52.6439918428
 20
23.6322634784
 30
0.0
 10
-52.6430565497
 20
23.6304560273
 30
0.0
 10
-52.6422256907
 20
23.6290628834
 30
0.0
 10
-52.6420545151
 20
23.6283790375
 30
0.0
 10
-52.6416476623
 20
23.627882301
 30
0.0
 10
-52.6417361435
 20
23.6278312164
 30
0.0
  0
SPLINE
  5
675
100
AcDbEntity
  8
0
100
AcDbSpline
 62
250
  6
CONTINUOUS
 70
0
 71
3
 72
22
 73
18
 74
0
 42
0.0000001
 43
0.0000001
 44
0.0000000001
 40
0.0
 40
0.0
 40
0.0
 40
0.0
 40
0.1952387124
 40
0.3828796225
 40
0.5557565435
 40
0.7072425864
 40
0.77311445
 40
0.8315404927
 40
0.881959483
 40
0.9238898811
 40
0.9569287941
 40
0.9700106756
 40
0.9807583492
 40
0.989147042
 40
0.995154437
 40
0.998770463
 40
1.0
 40
1.0
 40
1.0
 40
1.0
 10
-55.7681905764
 20
23.8443375673
 30
0.0
 10
-55.7763021325
 20
23.8302874643
 30
0.0
 10
-55.7921961919
 20
23.80272629
 30
0.0
 10
-55.8152263225
 20
23.7626975143
 30
0.0
 10
-55.8364015648
 20
23.7257959876
 30
0.0
 10
-55.8525020766
 20
23.6976486488
 30
0.0
 10
-55.8638509176
 20
23.6777394523
 30
0.0
 10
-55.8710250069
 20
23.6651179451
 30
0.0
 10
-55.8772004958
 20
23.6542156729
 30
0.0
 10
-55.8823127933
 20
23.6451400612
 30
0.0
 10
-55.88589213
 20
23.6387511533
 30
0.0
 10
-55.8881705564
 20
23.6346226025
 30
0.0
 10
-55.8894804436
 20
23.6322634795
 30
0.0
 10
-55.8904157369
 20
23.630456028
 30
0.0
 10
-55.8912465961
 20
23.6290628838
 30
0.0
 10
-55.8914177718
 20
23.6283790377
 30
0.0
 10
-55.8918246248
 20
23.6278823011
 30
0.0
 10
-55.8917361435
 20
23.6278312164
 30
0.0
  0
SPLINE
  5
676
100
AcDbEntity
  8
0
100
AcDbSpline
 62
7
  6
CONTINUOUS
 70
0
 71
3
 72
10
 73
6
 74
0
 42
0.0000001
 43
0.0000001
 44
0.0000000001
 40
0.0
 40
0.0
 40
0.0
 40
0.0
 40
0.6821719422
 40
0.9137069713
 40
1.0
 40
1.0
 40
1.0
 40
1.0
 10
-54.7681905764
 20
23.2669872981
 30
0.0
 10
-54.8247902829
 20
23.2343086128
 30
0.0
 10
-54.9005182057
 20
23.1903980327
 30
0.0
 10
-54.9834482287
 20
23.142422006
 30
0.0
 10
-55.0096412935
 20
23.1268942083
 30
0.0
 10
-55.0167361435
 20
23.1226497308
 30
0.0
  0
LINE
  5
677
100
AcDbEntity
  8
0
100
AcDbLine
 62
7
  6
CONTINUOUS
 10
-53.5167361435
 20
22.4
 11
-53.5167361435
 21
21.8997711479
  0
SPLINE
  5
678
100
AcDbEntity
  8
0
100
AcDbSpline
 62
250
  6
CONTINUOUS
 70
0
 71
3
 72
23
 73
19
 74
0
 42
0.0000001
 43
0.0000001
 44
0.0000000001
 40
0.0
 40
0.0
 40
0.0
 40
0.0
 40
0.1950424953
 40
0.3825608965
 40
0.5553658861
 40
0.6341484193
 40
0.7068239928
 40
0.7726943461
 40
0.8311265151
 40
0.881559083
 40
0.9235083159
 40
0.9565738773
 40
0.9696748596
 40
0.9804443693
 40
0.9888608077
 40
0.9949087566
 40
0.9985901474
 40
1.0
 40
1.0
 40
1.0
 40
1.0
 10
-59.981578899
 20
21.5609630957
 30
0.0
 10
-59.9832729472
 20
21.5934128618
 30
0.0
 10
-59.9864876069
 20
21.6570662934
 30
0.0
 10
-59.9908360502
 20
21.7494878144
 30
0.0
 10
-59.9940332197
 20
21.8225728396
 30
0.0
 10
-59.996238822
 20
21.8765498729
 30
0.0
 10
-59.9976315658
 20
21.912729856
 30
0.0
 10
-59.9987986634
 20
21.9455257216
 30
0.0
 10
-59.9997288128
 20
21.9746212413
 30
0.0
 10
-60.0004168042
 20
21.999738787
 30
0.0
 10
-60.0008562311
 20
22.0206300233
 30
0.0
 10
-60.0010326561
 20
22.0353180896
 30
0.0
 10
-60.0010212884
 20
22.0447904745
 30
0.0
 10
-60.0009546594
 20
22.0501972685
 30
0.0
 10
-60.0008176084
 20
22.0543265734
 30
0.0
 10
-60.0006520405
 20
22.0575114885
 30
0.0
 10
-60.0003986143
 20
22.0590550269
 30
0.0
 10
-60.0002077712
 20
22.0602156499
 30
0.0
 10
-59.9999732126
 20
22.0602279426
 30
0.0
  0
SPLINE
  5
679
100
AcDbEntity
  8
0
100
AcDbSpline
 62
250
  6
CONTINUOUS
 70
0
 71
3
 72
26
 73
22
 74
0
 42
0.0000001
 43
0.0000001
 44
0.0000000001
 40
0.0
 40
0.0
 40
0.0
 40
0.0
 40
0.1960035762
 40
0.3839715277
 40
0.5568483515
 40
0.635566946
 40
0.7081330256
 40
0.7738623835
 40
0.8321364344
 40
0.8824067997
 40
0.9241995725
 40
0.9417897572
 40
0.9571202206
 40
0.9701540238
 40
0.9808596418
 40
0.989213951
 40
0.9951953812
 40
0.9972919601
 40
0.9987913575
 40
0.9996931531
 40
1.0
 40
1.0
 40
1.0
 40
1.0
 10
-60.450773082
 20
21.1361579495
 30
0.0
 10
-60.4825180238
 20
21.1409467104
 30
0.0
 10
-60.5447041214
 20
21.1503433469
 30
0.0
 10
-60.6348813787
 20
21.1640175698
 30
0.0
 10
-60.7060589506
 20
21.1748531451
 30
0.0
 10
-60.7585452449
 20
21.1828734204
 30
0.0
 10
-60.7936805758
 20
21.1882576516
 30
0.0
 10
-60.825503381
 20
21.1931507595
 30
0.0
 10
-60.853714028
 20
21.1975064939
 30
0.0
 10
-60.8780467737
 20
21.2012838029
 30
0.0
 10
-60.895791851
 20
21.2040582869
 30
0.0
 10
-60.9078796875
 20
21.2059650762
 30
0.0
 10
-60.9153141814
 20
21.2071457997
 30
0.0
 10
-60.9216307992
 20
21.2081601601
 30
0.0
 10
-60.9268250753
 20
21.2090009619
 30
0.0
 10
-60.9308570118
 20
21.2096782535
 30
0.0
 10
-60.9335399991
 20
21.2101189475
 30
0.0
 10
-60.9350433661
 20
21.2104155794
 30
0.0
 10
-60.9358332635
 20
21.2105259595
 30
0.0
 10
-60.9361493512
 20
21.2106691745
 30
0.0
 10
-60.9364639935
 20
21.2106677932
 30
0.0
 10
-60.9364564988
 20
21.2107174908
 30
0.0
  0
SPLINE
  5
67A
100
AcDbEntity
  8
0
100
AcDbSpline
 62
250
  6
CONTINUOUS
 70
0
 71
3
 72
22
 73
18
 74
0
 42
0.0000001
 43
0.0000001
 44
0.0000000001
 40
0.0
 40
0.0
 40
0.0
 40
0.0
 40
0.0012386195
 40
0.0048601482
 40
0.0108737243
 40
0.0192698412
 40
0.0300262893
 40
0.0431183019
 40
0.0761811125
 40
0.1181392635
 40
0.1685882058
 40
0.2270443997
 40
0.2929443198
 40
0.4444696999
 40
0.6173445217
 40
0.8049177958
 40
1.0
 40
1.0
 40
1.0
 40
1.0
 10
-55.7681905764
 20
24.4869014213
 30
0.0
 10
-55.7682937975
 20
24.4869008208
 30
0.0
 10
-55.7682060685
 20
24.4862684707
 30
0.0
 10
-55.7683912367
 20
24.4855826484
 30
0.0
 10
-55.7683751019
 20
24.4839570588
 30
0.0
 10
-55.7684628886
 20
24.4819150719
 30
0.0
 10
-55.7685027607
 20
24.479207359
 30
0.0
 10
-55.768578999
 20
24.4744750042
 30
0.0
 10
-55.7686467536
 20
24.4671257862
 30
0.0
 10
-55.768713184
 20
24.4566724614
 30
0.0
 10
-55.7687592773
 20
24.4440990562
 30
0.0
 10
-55.7687875224
 20
24.4295316669
 30
0.0
 10
-55.7687996002
 20
24.4065403821
 30
0.0
 10
-55.7687606761
 20
24.3740140013
 30
0.0
 10
-55.7686420672
 20
24.3313477676
 30
0.0
 10
-55.7684527414
 20
24.2850518983
 30
0.0
 10
-55.7682851554
 20
24.2531629515
 30
0.0
 10
-55.7681905764
 20
24.2369056521
 30
0.0
  0
LINE
  5
67B
100
AcDbEntity
  8
0
100
AcDbLine
 62
7
  6
CONTINUOUS
 10
-53.5167361435
 20
24.5
 11
-53.5167361435
 21
24.2500042308
  0
SPLINE
  5
67C
100
AcDbEntity
  8
0
100
AcDbSpline
 62
250
  6
CONTINUOUS
 70
0
 71
3
 72
22
 73
18
 74
0
 42
0.0000001
 43
0.0000001
 44
0.0000000001
 40
0.0
 40
0.0
 40
0.0
 40
0.0
 40
0.0012386195
 40
0.0048601482
 40
0.0108737243
 40
0.0192698412
 40
0.0300262893
 40
0.0431183019
 40
0.0761811125
 40
0.1181392635
 40
0.1685882058
 40
0.2270443997
 40
0.2929443198
 40
0.4444696999
 40
0.6173445217
 40
0.8049177958
 40
1.0
 40
1.0
 40
1.0
 40
1.0
 10
-52.7652817107
 20
24.495628166
 30
0.0
 10
-52.7651784895
 20
24.4956275655
 30
0.0
 10
-52.7652662186
 20
24.4949952154
 30
0.0
 10
-52.7650810503
 20
24.4943093931
 30
0.0
 10
-52.7650971852
 20
24.4926838035
 30
0.0
 10
-52.7650093984
 20
24.4906418166
 30
0.0
 10
-52.7649695263
 20
24.4879341037
 30
0.0
 10
-52.764893288
 20
24.4832017489
 30
0.0
 10
-52.7648255334
 20
24.475852531
 30
0.0
 10
-52.7647591031
 20
24.4653992062
 30
0.0
 10
-52.7647130097
 20
24.4528258009
 30
0.0
 10
-52.7646847647
 20
24.4382584116
 30
0.0
 10
-52.7646726869
 20
24.4152671269
 30
0.0
 10
-52.7647116109
 20
24.382740746
 30
0.0
 10
-52.7648302198
 20
24.3400745123
 30
0.0
 10
-52.7650195456
 20
24.293778643
 30
0.0
 10
-52.7651871317
 20
24.2618896962
 30
0.0
 10
-52.7652817107
 20
24.2456323968
 30
0.0
  0
SPLINE
  5
67D
100
AcDbEntity
  8
0
100
AcDbSpline
 62
250
  6
CONTINUOUS
 70
0
 71
3
 72
26
 73
22
 74
0
 42
0.0000001
 43
0.0000001
 44
0.0000000001
 40
0.0
 40
0.0
 40
0.0
 40
0.0
 40
0.1960036114
 40
0.3839715839
 40
0.5568484138
 40
0.6355670063
 40
0.7081330811
 40
0.7738624321
 40
0.8321364745
 40
0.8824068307
 40
0.9241995945
 40
0.9417897749
 40
0.9571202343
 40
0.970154034
 40
0.9808596489
 40
0.9892139554
 40
0.9951953835
 40
0.9972919617
 40
0.9987913584
 40
0.9996931535
 40
1.0
 40
1.0
 40
1.0
 40
1.0
 10
-60.450773082
 20
-21.1361579495
 30
0.0
 10
-60.4825180135
 20
-21.1409467089
 30
0.0
 10
-60.5447040889
 20
-21.1503433422
 30
0.0
 10
-60.6348813108
 20
-21.1640175599
 30
0.0
 10
-60.706058851
 20
-21.1748531305
 30
0.0
 10
-60.7585451188
 20
-21.1828734018
 30
0.0
 10
-60.7936804298
 20
-21.18825763
 30
0.0
 10
-60.8255032157
 20
-21.1931507349
 30
0.0
 10
-60.8537138445
 20
-21.1975064666
 30
0.0
 10
-60.8780465736
 20
-21.2012837731
 30
0.0
 10
-60.8957916384
 20
-21.2040582551
 30
0.0
 10
-60.907879466
 20
-21.2059650431
 30
0.0
 10
-60.9153139543
 20
-21.2071457657
 30
0.0
 10
-60.9216305672
 20
-21.2081601253
 30
0.0
 10
-60.9268248391
 20
-21.2090009265
 30
0.0
 10
-60.9308567723
 20
-21.2096782175
 30
0.0
 10
-60.9335397574
 20
-21.2101189112
 30
0.0
 10
-60.935043123
 20
-21.2104155428
 30
0.0
 10
-60.9358330199
 20
-21.2105259228
 30
0.0
 10
-60.9361491068
 20
-21.2106691376
 30
0.0
 10
-60.9364637492
 20
-21.2106677564
 30
0.0
 10
-60.9364562543
 20
-21.2107174539
 30
0.0
  0
SPLINE
  5
67E
100
AcDbEntity
  8
0
100
AcDbSpline
 62
250
  6
CONTINUOUS
 70
0
 71
3
 72
23
 73
19
 74
0
 42
0.0000001
 43
0.0000001
 44
0.0000000001
 40
0.0
 40
0.0
 40
0.0
 40
0.0
 40
0.1950098095
 40
0.3824968134
 40
0.5552738444
 40
0.6340445525
 40
0.7067100308
 40
0.7725722151
 40
0.8309984449
 40
0.881427766
 40
0.9233770795
 40
0.956447057
 40
0.9695525001
 40
0.9803285556
 40
0.9887545319
 40
0.9948169758
 40
0.9985235383
 40
1.0
 40
1.0
 40
1.0
 40
1.0
 10
-59.9825314377
 20
-21.5609131753
 30
0.0
 10
-59.9842315207
 20
-21.5933625763
 30
0.0
 10
-59.9874590633
 20
-21.6570152612
 30
0.0
 10
-59.991821227
 20
-21.7494361894
 30
0.0
 10
-59.9949852088
 20
-21.8225230519
 30
0.0
 10
-59.9971197039
 20
-21.8765036255
 30
0.0
 10
-59.998447654
 20
-21.912687067
 30
0.0
 10
-59.9995409168
 20
-21.9454868943
 30
0.0
 10
-60.0003895004
 20
-21.9745869385
 30
0.0
 10
-60.0009873444
 20
-21.9997093124
 30
0.0
 10
-60.0013294369
 20
-22.0206066273
 30
0.0
 10
-60.0014131453
 20
-22.0352983866
 30
0.0
 10
-60.0013237263
 20
-22.0447764351
 30
0.0
 10
-60.00119713
 20
-22.0501826169
 30
0.0
 10
-60.0010138803
 20
-22.0543260112
 30
0.0
 10
-60.0007695838
 20
-22.0574928533
 30
0.0
 10
-60.0005045233
 20
-22.0590876353
 30
0.0
 10
-60.0002188938
 20
-22.060215067
 30
0.0
 10
-59.9999732126
 20
-22.0602279426
 30
0.0
  0
LINE
  5
67F
100
AcDbEntity
  8
0
100
AcDbLine
 62
7
  6
CONTINUOUS
 10
-53.5167361435
 20
-21.8997711479
 11
-53.5167361433
 21
-22.4
  0
SPLINE
  5
680
100
AcDbEntity
  8
RACCORDO
100
AcDbSpline
 62
7
  6
CONTINUOUS
 70
0
 71
3
 72
11
 73
7
 74
0
 42
0.0000001
 43
0.0000001
 44
0.0000000001
 40
0.0
 40
0.0
 40
0.0
 40
0.0
 40
0.2355316677
 40
0.478307727
 40
0.7332934739
 40
1.0
 40
1.0
 40
1.0
 40
1.0
 10
-27.0167361435
 20
12.0181977061
 30
0.0
 10
-27.0167361435
 20
11.9838839187
 30
0.0
 10
-27.0036438692
 20
11.9135866548
 30
0.0
 10
-26.94678605
 20
11.8204819663
 30
0.0
 10
-26.8568264146
 20
11.7506984642
 30
0.0
 10
-26.7815929078
 20
11.7290896487
 30
0.0
 10
-26.7428828663
 20
11.7257301888
 30
0.0
  0
SPLINE
  5
681
100
AcDbEntity
  8
RACCORDO
100
AcDbSpline
 62
7
  6
CONTINUOUS
 70
0
 71
3
 72
13
 73
9
 74
0
 42
0.0000001
 43
0.0000001
 44
0.0000000001
 40
0.0
 40
0.0
 40
0.0
 40
0.0
 40
0.2656260276
 40
0.5219299868
 40
0.6455800262
 40
0.7659001122
 40
0.8837055769
 40
1.0
 40
1.0
 40
1.0
 40
1.0
 10
-28.0109184122
 20
16.046168518
 30
0.0
 10
-27.881976212
 20
16.0455188571
 30
0.0
 10
-27.6267702199
 20
16.0016119227
 30
0.0
 10
-27.3482899044
 20
15.8420939448
 30
0.0
 10
-27.1802551482
 20
15.6647474803
 30
0.0
 10
-27.0871637882
 20
15.5142473608
 30
0.0
 10
-27.0297551109
 20
15.3506521122
 30
0.0
 10
-27.0167361435
 20
15.2366110072
 30
0.0
 10
-27.0167361435
 20
15.1801577701
 30
0.0
  0
SPLINE
  5
682
100
AcDbEntity
  8
RACCORDO
100
AcDbSpline
 62
250
  6
CONTINUOUS
 70
0
 71
3
 72
13
 73
9
 74
0
 42
0.0000001
 43
0.0000001
 44
0.0000000001
 40
0.0
 40
0.0
 40
0.0
 40
0.0
 40
0.1162944275
 40
0.2340999342
 40
0.3544200315
 40
0.478070014
 40
0.7343739228
 40
1.0
 40
1.0
 40
1.0
 40
1.0
 10
-27.0167361435
 20
14.286936906
 30
0.0
 10
-27.0167361435
 20
14.3433901451
 30
0.0
 10
-27.0297551088
 20
14.4574312746
 30
0.0
 10
-27.0871638237
 20
14.621026539
 30
0.0
 10
-27.1802551683
 20
14.7715266653
 30
0.0
 10
-27.3482899193
 20
14.9488730716
 30
0.0
 10
-27.6267701955
 20
15.1083910404
 30
0.0
 10
-27.8819761881
 20
15.1522979929
 30
0.0
 10
-28.0109184122
 20
15.1529476539
 30
0.0
  0
SPLINE
  5
683
100
AcDbEntity
  8
RACCORDO
100
AcDbSpline
 62
250
  6
CONTINUOUS
 70
0
 71
3
 72
18
 73
14
 74
0
 42
0.0000001
 43
0.0000001
 44
0.0000000001
 40
0.0
 40
0.0
 40
0.0
 40
0.0
 40
0.0043029655
 40
0.0167129437
 40
0.0372630548
 40
0.0659091044
 40
0.1025980246
 40
0.1472702109
 40
0.2600998298
 40
0.4033098797
 40
0.575714323
 40
0.7754032742
 40
1.0
 40
1.0
 40
1.0
 40
1.0
 10
-27.9992837371
 20
-19.3837586919
 30
0.0
 10
-27.9988636598
 20
-19.3837513594
 30
0.0
 10
-27.9991031322
 20
-19.3812429281
 30
0.0
 10
-27.9984259087
 20
-19.3784515724
 30
0.0
 10
-27.9984495494
 20
-19.3719662421
 30
0.0
 10
-27.9981504547
 20
-19.3637906825
 30
0.0
 10
-27.9980414875
 20
-19.3529703205
 30
0.0
 10
-27.9978656917
 20
-19.3340480875
 30
0.0
 10
-27.9978231407
 20
-19.304661793
 30
0.0
 10
-27.9979231209
 20
-19.2628392087
 30
0.0
 10
-27.9982080125
 20
-19.2125219835
 30
0.0
 10
-27.9986636491
 20
-19.1542642329
 30
0.0
 10
-27.9990595598
 20
-19.1128385471
 30
0.0
 10
-27.9992837371
 20
-19.0909100822
 30
0.0
  0
SPLINE
  5
684
100
AcDbEntity
  8
RACCORDO
100
AcDbSpline
 62
250
  6
CONTINUOUS
 70
0
 71
3
 72
9
 73
5
 74
0
 42
0.0000001
 43
0.0000001
 44
0.0000000001
 40
0.0
 40
0.0
 40
0.0
 40
0.0
 40
0.5773086023
 40
1.0
 40
1.0
 40
1.0
 40
1.0
 10
-27.9992837371
 20
14.286936906
 30
0.0
 10
-27.9998435477
 20
14.4536061409
 30
0.0
 10
-28.0021627151
 20
14.7422945804
 30
0.0
 10
-28.0068221505
 20
15.0309845516
 30
0.0
 10
-28.0109184122
 20
15.1529476539
 30
0.0
  0
SPLINE
  5
685
100
AcDbEntity
  8
RACCORDO
100
AcDbSpline
 62
250
  6
CONTINUOUS
 70
0
 71
3
 72
13
 73
9
 74
0
 42
0.0000001
 43
0.0000001
 44
0.0000000001
 40
0.0
 40
0.0
 40
0.0
 40
0.0
 40
0.1038088483
 40
0.2123163223
 40
0.3274635217
 40
0.4502086713
 40
0.715933935
 40
1.0
 40
1.0
 40
1.0
 40
1.0
 10
-27.0221345787
 20
-18.2853705244
 30
0.0
 10
-27.0284832448
 20
-18.3283825264
 30
0.0
 10
-27.0528766789
 20
-18.4150199136
 30
0.0
 10
-27.1210147056
 20
-18.5353361074
 30
0.0
 10
-27.2182303838
 20
-18.6443598848
 30
0.0
 10
-27.3863183136
 20
-18.7734623121
 30
0.0
 10
-27.6493872301
 20
-18.8861986289
 30
0.0
 10
-27.8803180757
 20
-18.9178098256
 30
0.0
 10
-27.9992837371
 20
-18.9192781701
 30
0.0
  0
SPLINE
  5
686
100
AcDbEntity
  8
RACCORDO
100
AcDbSpline
 62
250
  6
CONTINUOUS
 70
0
 71
3
 72
13
 73
9
 74
0
 42
0.0000001
 43
0.0000001
 44
0.0000000001
 40
0.0
 40
0.0
 40
0.0
 40
0.0
 40
0.1036012658
 40
0.2109632754
 40
0.3247703541
 40
0.4466034581
 40
0.7128192317
 40
1.0
 40
1.0
 40
1.0
 40
1.0
 10
-27.0167361435
 20
-18.3839109968
 30
0.0
 10
-27.0167361435
 20
-18.4298044883
 30
0.0
 10
-27.029926165
 20
-18.5237179196
 30
0.0
 10
-27.0875238348
 20
-18.6571777729
 30
0.0
 10
-27.1801083166
 20
-18.7793168505
 30
0.0
 10
-27.3494281552
 20
-18.9254466097
 30
0.0
 10
-27.6261123559
 20
-19.0535993619
 30
0.0
 10
-27.8720775269
 20
-19.0893400274
 30
0.0
 10
-27.9992837371
 20
-19.0909100822
 30
0.0
  0
SPLINE
  5
687
100
AcDbEntity
  8
RACCORDO
100
AcDbSpline
 62
250
  6
CONTINUOUS
 70
0
 71
3
 72
13
 73
9
 74
0
 42
0.0000001
 43
0.0000001
 44
0.0000000001
 40
0.0
 40
0.0
 40
0.0
 40
0.0
 40
0.1116473089
 40
0.2056871634
 40
0.3260225602
 40
0.4701546095
 40
0.6340985086
 40
1.0
 40
1.0
 40
1.0
 40
1.0
 10
-25.0167361435
 20
13.269118431
 30
0.0
 10
-25.0167361635
 20
13.2799776787
 30
0.0
 10
-25.0359644133
 20
13.2955869073
 30
0.0
 10
-25.0638779743
 20
13.3074007165
 30
0.0
 10
-25.09777833
 20
13.3176535407
 30
0.0
 10
-25.138482915
 20
13.3259507475
 30
0.0
 10
-25.2034887881
 20
13.3351164327
 30
0.0
 10
-25.2550077058
 20
13.3382100422
 30
0.0
 10
-25.2905892642
 20
13.3389372978
 30
0.0
  0
SPLINE
  5
688
100
AcDbEntity
  8
RACCORDO
100
AcDbSpline
 62
250
  6
CONTINUOUS
 70
0
 71
3
 72
9
 73
5
 74
0
 42
0.0000001
 43
0.0000001
 44
0.0000000001
 40
0.0
 40
0.0
 40
0.0
 40
0.0
 40
0.2710677607
 40
1.0
 40
1.0
 40
1.0
 40
1.0
 10
-25.2846804919
 20
13.222417269
 30
0.0
 10
-25.284169589
 20
13.2111106547
 30
0.0
 10
-25.2823618025
 20
13.1693959629
 30
0.0
 10
-25.2808571422
 20
13.1276670569
 30
0.0
 10
-25.2800479691
 20
13.0972420107
 30
0.0
  0
SPLINE
  5
689
100
AcDbEntity
  8
RACCORDO
100
AcDbSpline
 62
250
  6
CONTINUOUS
 70
0
 71
3
 72
28
 73
24
 74
0
 42
0.0000001
 43
0.0000001
 44
0.0000000001
 40
0.0
 40
0.0
 40
0.0
 40
0.0
 40
0.0533924209
 40
0.110835471
 40
0.1714589374
 40
0.2344697389
 40
0.2992452742
 40
0.3321395503
 40
0.3652904962
 40
0.4323023638
 40
0.4660889551
 40
0.4998688633
 40
0.5336967258
 40
0.5675266551
 40
0.601154622
 40
0.6345487494
 40
0.6677188871
 40
0.700616889
 40
0.765404296
 40
0.8284389154
 40
0.8890912823
 40
0.9465681047
 40
1.0
 40
1.0
 40
1.0
 40
1.0
 10
-27.0167361435
 20
-9.0331115016
 30
0.0
 10
-27.0167357419
 20
-9.1256369309
 30
0.0
 10
-27.0359098922
 20
-9.3176648938
 30
0.0
 10
-27.0980443639
 20
-9.6084427287
 30
0.0
 10
-27.1837980821
 20
-9.9104602456
 30
0.0
 10
-27.2848060771
 20
-10.2209704124
 30
0.0
 10
-27.3751445124
 20
-10.4843533667
 30
0.0
 10
-27.4468327207
 20
-10.699439116
 30
0.0
 10
-27.5175911915
 20
-10.9188443519
 30
0.0
 10
-27.5795112455
 20
-11.1430747922
 30
0.0
 10
-27.6166092754
 20
-11.373622606
 30
0.0
 10
-27.6266582613
 20
-11.5494426906
 30
0.0
 10
-27.6157406784
 20
-11.7252390213
 30
0.0
 10
-27.5886884246
 20
-11.898857821
 30
0.0
 10
-27.5488689806
 20
-12.0691595335
 30
0.0
 10
-27.5002967103
 20
-12.2359016757
 30
0.0
 10
-27.4472341407
 20
-12.399900089
 30
0.0
 10
-27.3752977589
 20
-12.6149519093
 30
0.0
 10
-27.2850408826
 20
-12.8784410514
 30
0.0
 10
-27.1839436085
 20
-13.1890373853
 30
0.0
 10
-27.0981338709
 20
-13.4911955953
 30
0.0
 10
-27.0359290073
 20
-13.7821394482
 30
0.0
 10
-27.0167378954
 20
-13.9742946628
 30
0.0
 10
-27.0167361435
 20
-14.0668884984
 30
0.0
  0
SPLINE
  5
68A
100
AcDbEntity
  8
0
100
AcDbSpline
 62
7
  6
CONTINUOUS
 70
0
 71
3
 72
16
 73
12
 74
0
 42
0.0000001
 43
0.0000001
 44
0.0000000001
 40
0.0
 40
0.0
 40
0.0
 40
0.0
 40
0.0407789952
 40
0.0826898459
 40
0.1734451513
 40
0.2780227856
 40
0.3983114013
 40
0.5336092575
 40
0.6814596361
 40
0.8383602697
 40
1.0
 40
1.0
 40
1.0
 40
1.0
 10
-37.2667361435
 20
17.2456714755
 30
0.0
 10
-37.2667361435
 20
17.2905601643
 30
0.0
 10
-37.2576605961
 20
17.3818182319
 30
0.0
 10
-37.2027335649
 20
17.5657193393
 30
0.0
 10
-37.0608374048
 20
17.790731554
 30
0.0
 10
-36.8015581724
 20
18.0261974158
 30
0.0
 10
-36.4596693411
 20
18.2308719853
 30
0.0
 10
-36.0469156836
 20
18.3984442549
 30
0.0
 10
-35.5778152201
 20
18.5235142041
 30
0.0
 10
-35.0694792594
 20
18.6013742549
 30
0.0
 10
-34.7186621509
 20
18.6198427425
 30
0.0
 10
-34.5407341161
 20
18.6206191198
 30
0.0
  0
LINE
  5
68B
100
AcDbEntity
  8
RACCORDO
100
AcDbLine
 62
7
  6
CONTINUOUS
 10
-26.7428828663
 20
15.7257301888
 11
-27.2889399943
 21
15.7730073642
  0
SPLINE
  5
68C
100
AcDbEntity
  8
RACCORDO
100
AcDbSpline
 62
7
  6
CONTINUOUS
 70
0
 71
3
 72
9
 73
5
 74
0
 42
0.0000001
 43
0.0000001
 44
0.0000000001
 40
0.0
 40
0.0
 40
0.0
 40
0.0
 40
0.5167326614
 40
1.0
 40
1.0
 40
1.0
 40
1.0
 10
-26.7428828663
 20
15.7257301888
 30
0.0
 10
-26.7969163457
 20
15.7304194969
 30
0.0
 10
-26.900992629
 20
15.7689976781
 30
0.0
 10
-26.9704752804
 20
15.8546034178
 30
0.0
 10
-26.9913260481
 20
15.9008438063
 30
0.0
  0
SPLINE
  5
68D
100
AcDbEntity
  8
RACCORDO
100
AcDbSpline
 62
7
  6
CONTINUOUS
 70
0
 71
3
 72
9
 73
5
 74
0
 42
0.0000001
 43
0.0000001
 44
0.0000000001
 40
0.0
 40
0.0
 40
0.0
 40
0.0
 40
0.2530762689
 40
1.0
 40
1.0
 40
1.0
 40
1.0
 10
-26.9913260481
 20
15.9008438063
 30
0.0
 10
-26.9955073957
 20
15.9101167088
 30
0.0
 10
-27.0101229644
 20
15.9475882226
 30
0.0
 10
-27.0167361435
 20
15.9881761725
 30
0.0
 10
-27.0167361435
 20
16.0181977061
 30
0.0
  0
SPLINE
  5
68E
100
AcDbEntity
  8
RACCORDO
100
AcDbSpline
 62
250
  6
CONTINUOUS
 70
0
 71
3
 72
28
 73
24
 74
0
 42
0.0000001
 43
0.0000001
 44
0.0000000001
 40
0.0
 40
0.0
 40
0.0
 40
0.0
 40
0.0494648676
 40
0.1043045893
 40
0.1637245702
 40
0.2267266821
 40
0.2924423091
 40
0.3601459554
 40
0.3945765434
 40
0.4295010351
 40
0.4646910889
 40
0.4997833845
 40
0.5350064057
 40
0.5702968297
 40
0.6051635296
 40
0.6396077807
 40
0.6736880058
 40
0.7073467243
 40
0.7730920055
 40
0.8361287789
 40
0.8955941998
 40
0.9504837984
 40
1.0
 40
1.0
 40
1.0
 40
1.0
 10
-26.7428828663
 20
-9.2559902351
 30
0.0
 10
-26.7428818536
 20
-9.336584593
 30
0.0
 10
-26.7661964437
 20
-9.5064451703
 30
0.0
 10
-26.8425451541
 20
-9.7624395893
 30
0.0
 10
-26.9496740569
 20
-10.0309442099
 30
0.0
 10
-27.0778941133
 20
-10.3094290511
 30
0.0
 10
-27.2181109103
 20
-10.5970977823
 30
0.0
 10
-27.3363734572
 20
-10.8437477967
 30
0.0
 10
-27.423638656
 20
-11.0493914952
 30
0.0
 10
-27.4802163781
 20
-11.2102244928
 30
0.0
 10
-27.5216179598
 20
-11.3769895143
 30
0.0
 10
-27.537151949
 20
-11.5491451321
 30
0.0
 10
-27.5202564594
 20
-11.7211971652
 30
0.0
 10
-27.4806744202
 20
-11.8886299796
 30
0.0
 10
-27.4248018957
 20
-12.0498705485
 30
0.0
 10
-27.358617339
 20
-12.2048541327
 30
0.0
 10
-27.2882299021
 20
-12.3557398252
 30
0.0
 10
-27.1943298754
 20
-12.5519152778
 30
0.0
 10
-27.0783537001
 20
-12.7898235608
 30
0.0
 10
-26.9498946393
 20
-13.0683926175
 30
0.0
 10
-26.8427075031
 20
-13.3371028043
 30
0.0
 10
-26.7662049286
 20
-13.5933019478
 30
0.0
 10
-26.7428864791
 20
-13.7633317672
 30
0.0
 10
-26.7428828663
 20
-13.8440097649
 30
0.0
  0
SPLINE
  5
68F
100
AcDbEntity
  8
RACCORDO
100
AcDbSpline
 62
250
  6
CONTINUOUS
 70
0
 71
3
 72
11
 73
7
 74
0
 42
0.0000001
 43
0.0000001
 44
0.0000000001
 40
0.0
 40
0.0
 40
0.0
 40
0.0
 40
0.2171396348
 40
0.4540349822
 40
0.7173709735
 40
1.0
 40
1.0
 40
1.0
 40
1.0
 10
-27.0167361435
 20
-9.0331115016
 30
0.0
 10
-27.0167361435
 20
-9.0609829839
 30
0.0
 10
-27.0011128032
 20
-9.1199690686
 30
0.0
 10
-26.9387509762
 20
-9.1910421403
 30
0.0
 10
-26.8488533717
 20
-9.239566028
 30
0.0
 10
-26.7790834256
 20
-9.2536282885
 30
0.0
 10
-26.7428828663
 20
-9.2559902352
 30
0.0
  0
SPLINE
  5
690
100
AcDbEntity
  8
RACCORDO
100
AcDbSpline
 62
250
  6
CONTINUOUS
 70
0
 71
3
 72
11
 73
7
 74
0
 42
0.0000001
 43
0.0000001
 44
0.0000000001
 40
0.0
 40
0.0
 40
0.0
 40
0.0
 40
0.2171396431
 40
0.4540349973
 40
0.7173709828
 40
1.0
 40
1.0
 40
1.0
 40
1.0
 10
-27.0167361435
 20
-14.0668884984
 30
0.0
 10
-27.0167361435
 20
-14.0390170151
 30
0.0
 10
-27.001112801
 20
-13.9800309289
 30
0.0
 10
-26.9387509714
 20
-13.9089578585
 30
0.0
 10
-26.8488533679
 20
-13.8604339727
 30
0.0
 10
-26.7790834242
 20
-13.8463717122
 30
0.0
 10
-26.7428828663
 20
-13.8440097648
 30
0.0
  0
SPLINE
  5
691
100
AcDbEntity
  8
ASSI
100
AcDbSpline
 62
7
  6
CONTINUOUS
 70
0
 71
3
 72
13
 73
9
 74
0
 42
0.0000001
 43
0.0000001
 44
0.0000000001
 40
0.0
 40
0.0
 40
0.0
 40
0.0
 40
0.2656260276
 40
0.5219299868
 40
0.6455800262
 40
0.7659001122
 40
0.8837055769
 40
1.0
 40
1.0
 40
1.0
 40
1.0
 10
-28.0109184122
 20
16.046168518
 30
0.0
 10
-27.881976212
 20
16.0455188571
 30
0.0
 10
-27.6267702199
 20
16.0016119227
 30
0.0
 10
-27.3482899044
 20
15.8420939448
 30
0.0
 10
-27.1802551482
 20
15.6647474803
 30
0.0
 10
-27.0871637882
 20
15.5142473608
 30
0.0
 10
-27.0297551109
 20
15.3506521122
 30
0.0
 10
-27.0167361435
 20
15.2366110072
 30
0.0
 10
-27.0167361435
 20
15.1801577701
 30
0.0
  0
SPLINE
  5
692
100
AcDbEntity
  8
ASSI
100
AcDbSpline
 62
7
  6
CONTINUOUS
 70
0
 71
3
 72
11
 73
7
 74
0
 42
0.0000001
 43
0.0000001
 44
0.0000000001
 40
0.0
 40
0.0
 40
0.0
 40
0.0
 40
0.2355316677
 40
0.478307727
 40
0.7332934739
 40
1.0
 40
1.0
 40
1.0
 40
1.0
 10
-27.0167361435
 20
12.0181977061
 30
0.0
 10
-27.0167361435
 20
11.9838839187
 30
0.0
 10
-27.0036438692
 20
11.9135866548
 30
0.0
 10
-26.94678605
 20
11.8204819663
 30
0.0
 10
-26.8568264146
 20
11.7506984642
 30
0.0
 10
-26.7815929078
 20
11.7290896487
 30
0.0
 10
-26.7428828663
 20
11.7257301888
 30
0.0
  0
LINE
  5
693
100
AcDbEntity
  8
ASSI
100
AcDbLine
 62
7
  6
CONTINUOUS
 10
-26.7428828663
 20
15.7257301888
 11
-27.2889399943
 21
15.7730073642
  0
SPLINE
  5
694
100
AcDbEntity
  8
ASSI
100
AcDbSpline
 62
250
  6
CONTINUOUS
 70
0
 71
3
 72
13
 73
9
 74
0
 42
0.0000001
 43
0.0000001
 44
0.0000000001
 40
0.0
 40
0.0
 40
0.0
 40
0.0
 40
0.1038088483
 40
0.2123163223
 40
0.3274635217
 40
0.4502086713
 40
0.715933935
 40
1.0
 40
1.0
 40
1.0
 40
1.0
 10
-27.0221345787
 20
-18.2853705244
 30
0.0
 10
-27.0284832448
 20
-18.3283825264
 30
0.0
 10
-27.0528766789
 20
-18.4150199136
 30
0.0
 10
-27.1210147056
 20
-18.5353361074
 30
0.0
 10
-27.2182303838
 20
-18.6443598848
 30
0.0
 10
-27.3863183136
 20
-18.7734623121
 30
0.0
 10
-27.6493872301
 20
-18.8861986289
 30
0.0
 10
-27.8803180757
 20
-18.9178098256
 30
0.0
 10
-27.9992837371
 20
-18.9192781701
 30
0.0
  0
SPLINE
  5
695
100
AcDbEntity
  8
ASSI
100
AcDbSpline
 62
7
  6
CONTINUOUS
 70
0
 71
3
 72
16
 73
12
 74
0
 42
0.0000001
 43
0.0000001
 44
0.0000000001
 40
0.0
 40
0.0
 40
0.0
 40
0.0
 40
0.0407789952
 40
0.0826898459
 40
0.1734451513
 40
0.2780227856
 40
0.3983114013
 40
0.5336092575
 40
0.6814596361
 40
0.8383602697
 40
1.0
 40
1.0
 40
1.0
 40
1.0
 10
-37.2667361435
 20
17.2456714755
 30
0.0
 10
-37.2667361435
 20
17.2905601643
 30
0.0
 10
-37.2576605961
 20
17.3818182319
 30
0.0
 10
-37.2027335649
 20
17.5657193393
 30
0.0
 10
-37.0608374048
 20
17.790731554
 30
0.0
 10
-36.8015581724
 20
18.0261974158
 30
0.0
 10
-36.4596693411
 20
18.2308719853
 30
0.0
 10
-36.0469156836
 20
18.3984442549
 30
0.0
 10
-35.5778152201
 20
18.5235142041
 30
0.0
 10
-35.0694792594
 20
18.6013742549
 30
0.0
 10
-34.7186621509
 20
18.6198427425
 30
0.0
 10
-34.5407341161
 20
18.6206191198
 30
0.0
  0
SPLINE
  5
696
100
AcDbEntity
  8
ASSI
100
AcDbSpline
 62
250
  6
CONTINUOUS
 70
0
 71
3
 72
9
 73
5
 74
0
 42
0.0000001
 43
0.0000001
 44
0.0000000001
 40
0.0
 40
0.0
 40
0.0
 40
0.0
 40
0.5773086023
 40
1.0
 40
1.0
 40
1.0
 40
1.0
 10
-27.9992837371
 20
14.286936906
 30
0.0
 10
-27.9998435477
 20
14.4536061409
 30
0.0
 10
-28.0021627151
 20
14.7422945804
 30
0.0
 10
-28.0068221505
 20
15.0309845516
 30
0.0
 10
-28.0109184122
 20
15.1529476539
 30
0.0
  0
SPLINE
  5
697
100
AcDbEntity
  8
ASSI
100
AcDbSpline
 62
250
  6
CONTINUOUS
 70
0
 71
3
 72
13
 73
9
 74
0
 42
0.0000001
 43
0.0000001
 44
0.0000000001
 40
0.0
 40
0.0
 40
0.0
 40
0.0
 40
0.1162944275
 40
0.2340999342
 40
0.3544200315
 40
0.478070014
 40
0.7343739228
 40
1.0
 40
1.0
 40
1.0
 40
1.0
 10
-27.0167361435
 20
14.286936906
 30
0.0
 10
-27.0167361435
 20
14.3433901451
 30
0.0
 10
-27.0297551088
 20
14.4574312746
 30
0.0
 10
-27.0871638237
 20
14.621026539
 30
0.0
 10
-27.1802551683
 20
14.7715266653
 30
0.0
 10
-27.3482899193
 20
14.9488730716
 30
0.0
 10
-27.6267701955
 20
15.1083910404
 30
0.0
 10
-27.8819761881
 20
15.1522979929
 30
0.0
 10
-28.0109184122
 20
15.1529476539
 30
0.0
  0
SPLINE
  5
698
100
AcDbEntity
  8
ASSI
100
AcDbSpline
 62
250
  6
CONTINUOUS
 70
0
 71
3
 72
18
 73
14
 74
0
 42
0.0000001
 43
0.0000001
 44
0.0000000001
 40
0.0
 40
0.0
 40
0.0
 40
0.0
 40
0.0043029655
 40
0.0167129437
 40
0.0372630548
 40
0.0659091044
 40
0.1025980246
 40
0.1472702109
 40
0.2600998298
 40
0.4033098797
 40
0.575714323
 40
0.7754032742
 40
1.0
 40
1.0
 40
1.0
 40
1.0
 10
-27.9992837371
 20
-19.3837586919
 30
0.0
 10
-27.9988636598
 20
-19.3837513594
 30
0.0
 10
-27.9991031322
 20
-19.3812429281
 30
0.0
 10
-27.9984259087
 20
-19.3784515724
 30
0.0
 10
-27.9984495494
 20
-19.3719662421
 30
0.0
 10
-27.9981504547
 20
-19.3637906825
 30
0.0
 10
-27.9980414875
 20
-19.3529703205
 30
0.0
 10
-27.9978656917
 20
-19.3340480875
 30
0.0
 10
-27.9978231407
 20
-19.304661793
 30
0.0
 10
-27.9979231209
 20
-19.2628392087
 30
0.0
 10
-27.9982080125
 20
-19.2125219835
 30
0.0
 10
-27.9986636491
 20
-19.1542642329
 30
0.0
 10
-27.9990595598
 20
-19.1128385471
 30
0.0
 10
-27.9992837371
 20
-19.0909100822
 30
0.0
  0
SPLINE
  5
699
100
AcDbEntity
  8
ASSI
100
AcDbSpline
 62
250
  6
CONTINUOUS
 70
0
 71
3
 72
13
 73
9
 74
0
 42
0.0000001
 43
0.0000001
 44
0.0000000001
 40
0.0
 40
0.0
 40
0.0
 40
0.0
 40
0.1036012658
 40
0.2109632754
 40
0.3247703541
 40
0.4466034581
 40
0.7128192317
 40
1.0
 40
1.0
 40
1.0
 40
1.0
 10
-27.0167361435
 20
-18.3839109968
 30
0.0
 10
-27.0167361435
 20
-18.4298044883
 30
0.0
 10
-27.029926165
 20
-18.5237179196
 30
0.0
 10
-27.0875238348
 20
-18.6571777729
 30
0.0
 10
-27.1801083166
 20
-18.7793168505
 30
0.0
 10
-27.3494281552
 20
-18.9254466097
 30
0.0
 10
-27.6261123559
 20
-19.0535993619
 30
0.0
 10
-27.8720775269
 20
-19.0893400274
 30
0.0
 10
-27.9992837371
 20
-19.0909100822
 30
0.0
  0
SPLINE
  5
69A
100
AcDbEntity
  8
ASSI
100
AcDbSpline
 62
250
  6
CONTINUOUS
 70
0
 71
3
 72
11
 73
7
 74
0
 42
0.0000001
 43
0.0000001
 44
0.0000000001
 40
0.0
 40
0.0
 40
0.0
 40
0.0
 40
0.2171396431
 40
0.4540349973
 40
0.7173709828
 40
1.0
 40
1.0
 40
1.0
 40
1.0
 10
-27.0167361435
 20
-14.0668884984
 30
0.0
 10
-27.0167361435
 20
-14.0390170151
 30
0.0
 10
-27.001112801
 20
-13.9800309289
 30
0.0
 10
-26.9387509714
 20
-13.9089578585
 30
0.0
 10
-26.8488533679
 20
-13.8604339727
 30
0.0
 10
-26.7790834242
 20
-13.8463717122
 30
0.0
 10
-26.7428828663
 20
-13.8440097648
 30
0.0
  0
SPLINE
  5
69B
100
AcDbEntity
  8
ASSI
100
AcDbSpline
 62
250
  6
CONTINUOUS
 70
0
 71
3
 72
11
 73
7
 74
0
 42
0.0000001
 43
0.0000001
 44
0.0000000001
 40
0.0
 40
0.0
 40
0.0
 40
0.0
 40
0.2171396348
 40
0.4540349822
 40
0.7173709735
 40
1.0
 40
1.0
 40
1.0
 40
1.0
 10
-27.0167361435
 20
-9.0331115016
 30
0.0
 10
-27.0167361435
 20
-9.0609829839
 30
0.0
 10
-27.0011128032
 20
-9.1199690686
 30
0.0
 10
-26.9387509762
 20
-9.1910421403
 30
0.0
 10
-26.8488533717
 20
-9.239566028
 30
0.0
 10
-26.7790834256
 20
-9.2536282885
 30
0.0
 10
-26.7428828663
 20
-9.2559902352
 30
0.0
  0
SPLINE
  5
69C
100
AcDbEntity
  8
ASSI
100
AcDbSpline
 62
250
  6
CONTINUOUS
 70
0
 71
3
 72
28
 73
24
 74
0
 42
0.0000001
 43
0.0000001
 44
0.0000000001
 40
0.0
 40
0.0
 40
0.0
 40
0.0
 40
0.0494648676
 40
0.1043045893
 40
0.1637245702
 40
0.2267266821
 40
0.2924423091
 40
0.3601459554
 40
0.3945765434
 40
0.4295010351
 40
0.4646910889
 40
0.4997833845
 40
0.5350064057
 40
0.5702968297
 40
0.6051635296
 40
0.6396077807
 40
0.6736880058
 40
0.7073467243
 40
0.7730920055
 40
0.8361287789
 40
0.8955941998
 40
0.9504837984
 40
1.0
 40
1.0
 40
1.0
 40
1.0
 10
-26.7428828663
 20
-9.2559902351
 30
0.0
 10
-26.7428818536
 20
-9.336584593
 30
0.0
 10
-26.7661964437
 20
-9.5064451703
 30
0.0
 10
-26.8425451541
 20
-9.7624395893
 30
0.0
 10
-26.9496740569
 20
-10.0309442099
 30
0.0
 10
-27.0778941133
 20
-10.3094290511
 30
0.0
 10
-27.2181109103
 20
-10.5970977823
 30
0.0
 10
-27.3363734572
 20
-10.8437477967
 30
0.0
 10
-27.423638656
 20
-11.0493914952
 30
0.0
 10
-27.4802163781
 20
-11.2102244928
 30
0.0
 10
-27.5216179598
 20
-11.3769895143
 30
0.0
 10
-27.537151949
 20
-11.5491451321
 30
0.0
 10
-27.5202564594
 20
-11.7211971652
 30
0.0
 10
-27.4806744202
 20
-11.8886299796
 30
0.0
 10
-27.4248018957
 20
-12.0498705485
 30
0.0
 10
-27.358617339
 20
-12.2048541327
 30
0.0
 10
-27.2882299021
 20
-12.3557398252
 30
0.0
 10
-27.1943298754
 20
-12.5519152778
 30
0.0
 10
-27.0783537001
 20
-12.7898235608
 30
0.0
 10
-26.9498946393
 20
-13.0683926175
 30
0.0
 10
-26.8427075031
 20
-13.3371028043
 30
0.0
 10
-26.7662049286
 20
-13.5933019478
 30
0.0
 10
-26.7428864791
 20
-13.7633317672
 30
0.0
 10
-26.7428828663
 20
-13.8440097649
 30
0.0
  0
SPLINE
  5
69D
100
AcDbEntity
  8
ASSI
100
AcDbSpline
 62
250
  6
CONTINUOUS
 70
0
 71
3
 72
28
 73
24
 74
0
 42
0.0000001
 43
0.0000001
 44
0.0000000001
 40
0.0
 40
0.0
 40
0.0
 40
0.0
 40
0.0533924209
 40
0.110835471
 40
0.1714589374
 40
0.2344697389
 40
0.2992452742
 40
0.3321395503
 40
0.3652904962
 40
0.4323023638
 40
0.4660889551
 40
0.4998688633
 40
0.5336967258
 40
0.5675266551
 40
0.601154622
 40
0.6345487494
 40
0.6677188871
 40
0.700616889
 40
0.765404296
 40
0.8284389154
 40
0.8890912823
 40
0.9465681047
 40
1.0
 40
1.0
 40
1.0
 40
1.0
 10
-27.0167361435
 20
-9.0331115016
 30
0.0
 10
-27.0167357419
 20
-9.1256369309
 30
0.0
 10
-27.0359098922
 20
-9.3176648938
 30
0.0
 10
-27.0980443639
 20
-9.6084427287
 30
0.0
 10
-27.1837980821
 20
-9.9104602456
 30
0.0
 10
-27.2848060771
 20
-10.2209704124
 30
0.0
 10
-27.3751445124
 20
-10.4843533667
 30
0.0
 10
-27.4468327207
 20
-10.699439116
 30
0.0
 10
-27.5175911915
 20
-10.9188443519
 30
0.0
 10
-27.5795112455
 20
-11.1430747922
 30
0.0
 10
-27.6166092754
 20
-11.373622606
 30
0.0
 10
-27.6266582613
 20
-11.5494426906
 30
0.0
 10
-27.6157406784
 20
-11.7252390213
 30
0.0
 10
-27.5886884246
 20
-11.898857821
 30
0.0
 10
-27.5488689806
 20
-12.0691595335
 30
0.0
 10
-27.5002967103
 20
-12.2359016757
 30
0.0
 10
-27.4472341407
 20
-12.399900089
 30
0.0
 10
-27.3752977589
 20
-12.6149519093
 30
0.0
 10
-27.2850408826
 20
-12.8784410514
 30
0.0
 10
-27.1839436085
 20
-13.1890373853
 30
0.0
 10
-27.0981338709
 20
-13.4911955953
 30
0.0
 10
-27.0359290073
 20
-13.7821394482
 30
0.0
 10
-27.0167378954
 20
-13.9742946628
 30
0.0
 10
-27.0167361435
 20
-14.0668884984
 30
0.0
  0
SPLINE
  5
69E
100
AcDbEntity
  8
ASSI
100
AcDbSpline
 62
7
  6
CONTINUOUS
 70
0
 71
3
 72
9
 73
5
 74
0
 42
0.0000001
 43
0.0000001
 44
0.0000000001
 40
0.0
 40
0.0
 40
0.0
 40
0.0
 40
0.5167326614
 40
1.0
 40
1.0
 40
1.0
 40
1.0
 10
-26.7428828663
 20
15.7257301888
 30
0.0
 10
-26.7969163457
 20
15.7304194969
 30
0.0
 10
-26.900992629
 20
15.7689976781
 30
0.0
 10
-26.9704752804
 20
15.8546034178
 30
0.0
 10
-26.9913260481
 20
15.9008438063
 30
0.0
  0
SPLINE
  5
69F
100
AcDbEntity
  8
ASSI
100
AcDbSpline
 62
7
  6
CONTINUOUS
 70
0
 71
3
 72
9
 73
5
 74
0
 42
0.0000001
 43
0.0000001
 44
0.0000000001
 40
0.0
 40
0.0
 40
0.0
 40
0.0
 40
0.2530762689
 40
1.0
 40
1.0
 40
1.0
 40
1.0
 10
-26.9913260481
 20
15.9008438063
 30
0.0
 10
-26.9955073957
 20
15.9101167088
 30
0.0
 10
-27.0101229644
 20
15.9475882226
 30
0.0
 10
-27.0167361435
 20
15.9881761725
 30
0.0
 10
-27.0167361435
 20
16.0181977061
 30
0.0
  0
SPLINE
  5
6A0
100
AcDbEntity
  8
ASSI
100
AcDbSpline
 62
250
  6
CONTINUOUS
 70
0
 71
3
 72
13
 73
9
 74
0
 42
0.0000001
 43
0.0000001
 44
0.0000000001
 40
0.0
 40
0.0
 40
0.0
 40
0.0
 40
0.1116473089
 40
0.2056871634
 40
0.3260225602
 40
0.4701546095
 40
0.6340985086
 40
1.0
 40
1.0
 40
1.0
 40
1.0
 10
-25.0167361435
 20
13.269118431
 30
0.0
 10
-25.0167361635
 20
13.2799776787
 30
0.0
 10
-25.0359644133
 20
13.2955869073
 30
0.0
 10
-25.0638779743
 20
13.3074007165
 30
0.0
 10
-25.09777833
 20
13.3176535407
 30
0.0
 10
-25.138482915
 20
13.3259507475
 30
0.0
 10
-25.2034887881
 20
13.3351164327
 30
0.0
 10
-25.2550077058
 20
13.3382100422
 30
0.0
 10
-25.2905892642
 20
13.3389372978
 30
0.0
  0
SPLINE
  5
6A1
100
AcDbEntity
  8
ASSI
100
AcDbSpline
 62
250
  6
CONTINUOUS
 70
0
 71
3
 72
9
 73
5
 74
0
 42
0.0000001
 43
0.0000001
 44
0.0000000001
 40
0.0
 40
0.0
 40
0.0
 40
0.0
 40
0.2710677607
 40
1.0
 40
1.0
 40
1.0
 40
1.0
 10
-25.2846804919
 20
13.222417269
 30
0.0
 10
-25.284169589
 20
13.2111106547
 30
0.0
 10
-25.2823618025
 20
13.1693959629
 30
0.0
 10
-25.2808571422
 20
13.1276670569
 30
0.0
 10
-25.2800479691
 20
13.0972420107
 30
0.0
  0
SPLINE
  5
6A2
100
AcDbEntity
  8
INCISIONI
100
AcDbSpline
 62
250
  6
CONTINUOUS
 70
0
 71
3
 72
9
 73
5
 74
0
 42
0.0000001
 43
0.0000001
 44
0.0000000001
 40
0.0
 40
0.0
 40
0.0
 40
0.0
 40
0.5000576434
 40
1.0
 40
1.0
 40
1.0
 40
1.0
 10
-45.4696186806
 20
11.7566003002
 30
0.0
 10
-45.4696186806
 20
11.948581952
 30
0.0
 10
-45.535863932
 20
12.3382212405
 30
0.0
 10
-45.7696507885
 20
12.6639996485
 30
0.0
 10
-45.9157702724
 20
12.7884285572
 30
0.0
  0
SPLINE
  5
6A3
100
AcDbEntity
  8
INCISIONI
100
AcDbSpline
 62
250
  6
CONTINUOUS
 70
0
 71
3
 72
9
 73
5
 74
0
 42
0.0000001
 43
0.0000001
 44
0.0000000001
 40
0.0
 40
0.0
 40
0.0
 40
0.0
 40
0.4999424868
 40
1.0
 40
1.0
 40
1.0
 40
1.0
 10
-45.9157702724
 20
10.7246185849
 30
0.0
 10
-45.7696422651
 20
10.8490719536
 30
0.0
 10
-45.5358782819
 20
11.174920788
 30
0.0
 10
-45.4696186806
 20
11.5645963952
 30
0.0
 10
-45.4696186806
 20
11.7566003002
 30
0.0
  0
SPLINE
  5
6A4
100
AcDbEntity
  8
INCISIONI
100
AcDbSpline
 62
250
  6
CONTINUOUS
 70
0
 71
3
 72
9
 73
5
 74
0
 42
0.0000001
 43
0.0000001
 44
0.0000000001
 40
0.0
 40
0.0
 40
0.0
 40
0.0
 40
0.7500547609
 40
1.0
 40
1.0
 40
1.0
 40
1.0
 10
-46.9832848353
 20
10.3623239211
 30
0.0
 10
-46.6980725407
 20
10.3623239211
 30
0.0
 10
-46.3067751732
 20
10.4513763062
 30
0.0
 10
-45.9881321123
 20
10.662989915
 30
0.0
 10
-45.9157702724
 20
10.7246185849
 30
0.0
  0
SPLINE
  5
6A5
100
AcDbEntity
  8
INCISIONI
100
AcDbSpline
 62
250
  6
CONTINUOUS
 70
0
 71
3
 72
9
 73
5
 74
0
 42
0.0000001
 43
0.0000001
 44
0.0000000001
 40
0.0
 40
0.0
 40
0.0
 40
0.0
 40
0.7499778947
 40
1.0
 40
1.0
 40
1.0
 40
1.0
 10
-48.050804512
 20
10.7246185849
 30
0.0
 10
-47.8340213398
 20
10.539997002
 30
0.0
 10
-47.4560961534
 20
10.3922411511
 30
0.0
 10
-47.0782051574
 20
10.3623239211
 30
0.0
 10
-46.9832848353
 20
10.3623239211
 30
0.0
  0
SPLINE
  5
6A6
100
AcDbEntity
  8
INCISIONI
100
AcDbSpline
 62
250
  6
CONTINUOUS
 70
0
 71
3
 72
9
 73
5
 74
0
 42
0.0000001
 43
0.0000001
 44
0.0000000001
 40
0.0
 40
0.0
 40
0.0
 40
0.0
 40
0.5000575813
 40
1.0
 40
1.0
 40
1.0
 40
1.0
 10
-48.4969509901
 20
11.7566003002
 30
0.0
 10
-48.4969509901
 20
11.5645960735
 30
0.0
 10
-48.4307072324
 20
11.174918261
 30
0.0
 10
-48.1969384126
 20
10.8490654469
 30
0.0
 10
-48.050804512
 20
10.7246185849
 30
0.0
  0
SPLINE
  5
6A7
100
AcDbEntity
  8
INCISIONI
100
AcDbSpline
 62
250
  6
CONTINUOUS
 70
0
 71
3
 72
9
 73
5
 74
0
 42
0.0000001
 43
0.0000001
 44
0.0000000001
 40
0.0
 40
0.0
 40
0.0
 40
0.0
 40
0.4999423617
 40
1.0
 40
1.0
 40
1.0
 40
1.0
 10
-48.050804512
 20
12.7884285572
 30
0.0
 10
-48.1969183469
 20
12.6639938531
 30
0.0
 10
-48.43070606
 20
12.3382210796
 30
0.0
 10
-48.4969509901
 20
11.9485814034
 30
0.0
 10
-48.4969509901
 20
11.7566003002
 30
0.0
  0
SPLINE
  5
6A8
100
AcDbEntity
  8
INCISIONI
100
AcDbSpline
 62
250
  6
CONTINUOUS
 70
0
 71
3
 72
9
 73
5
 74
0
 42
0.0000001
 43
0.0000001
 44
0.0000000001
 40
0.0
 40
0.0
 40
0.0
 40
0.0
 40
0.750054758
 40
1.0
 40
1.0
 40
1.0
 40
1.0
 10
-46.9832848353
 20
13.1507078752
 30
0.0
 10
-47.2684971924
 20
13.1507078752
 30
0.0
 10
-47.6597980908
 20
13.0616694123
 30
0.0
 10
-47.9784410433
 20
12.8500553485
 30
0.0
 10
-48.050804512
 20
12.7884285572
 30
0.0
  0
SPLINE
  5
6A9
100
AcDbEntity
  8
INCISIONI
100
AcDbSpline
 62
250
  6
CONTINUOUS
 70
0
 71
3
 72
9
 73
5
 74
0
 42
0.0000001
 43
0.0000001
 44
0.0000000001
 40
0.0
 40
0.0
 40
0.0
 40
0.0
 40
0.7499778839
 40
1.0
 40
1.0
 40
1.0
 40
1.0
 10
-45.9157702724
 20
12.7884285572
 30
0.0
 10
-46.1325605857
 20
12.9730376276
 30
0.0
 10
-46.5104770623
 20
13.1207928882
 30
0.0
 10
-46.888365399
 20
13.1507078752
 30
0.0
 10
-46.9832848353
 20
13.1507078752
 30
0.0
  0
SPLINE
  5
6AA
100
AcDbEntity
  8
INCISIONI
100
AcDbSpline
 62
250
  6
CONTINUOUS
 70
0
 71
3
 72
9
 73
5
 74
0
 42
0.0000001
 43
0.0000001
 44
0.0000000001
 40
0.0
 40
0.0
 40
0.0
 40
0.0
 40
0.7499573393
 40
1.0
 40
1.0
 40
1.0
 40
1.0
 10
-47.78988719
 20
12.3579267794
 30
0.0
 10
-47.6312692027
 20
12.5032834455
 30
0.0
 10
-47.3396719955
 20
12.6100652632
 30
0.0
 10
-47.0547305746
 20
12.6297219488
 30
0.0
 10
-46.9830035807
 20
12.6297219488
 30
0.0
  0
SPLINE
  5
6AB
100
AcDbEntity
  8
INCISIONI
100
AcDbSpline
 62
250
  6
CONTINUOUS
 70
0
 71
3
 72
8
 73
4
 74
0
 42
0.0000001
 43
0.0000001
 44
0.0000000001
 40
0.0
 40
0.0
 40
0.0
 40
0.0
 40
1.0
 40
1.0
 40
1.0
 40
1.0
 10
-48.0375446367
 20
11.7579507336
 30
0.0
 10
-48.0375446367
 20
11.9743156911
 30
0.0
 10
-47.9493899238
 20
12.2117593364
 30
0.0
 10
-47.78988719
 20
12.3579267794
 30
0.0
  0
SPLINE
  5
6AC
100
AcDbEntity
  8
INCISIONI
100
AcDbSpline
 62
250
  6
CONTINUOUS
 70
0
 71
3
 72
8
 73
4
 74
0
 42
0.0000001
 43
0.0000001
 44
0.0000000001
 40
0.0
 40
0.0
 40
0.0
 40
0.0
 40
1.0
 40
1.0
 40
1.0
 40
1.0
 10
-47.78988719
 20
11.1551101322
 30
0.0
 10
-47.9500449499
 20
11.3018694891
 30
0.0
 10
-48.0375446367
 20
11.5407028749
 30
0.0
 10
-48.0375446367
 20
11.7579507336
 30
0.0
  0
SPLINE
  5
6AD
100
AcDbEntity
  8
INCISIONI
100
AcDbSpline
 62
250
  6
CONTINUOUS
 70
0
 71
3
 72
9
 73
5
 74
0
 42
0.0000001
 43
0.0000001
 44
0.0000000001
 40
0.0
 40
0.0
 40
0.0
 40
0.0
 40
0.7501681644
 40
1.0
 40
1.0
 40
1.0
 40
1.0
 10
-46.9830035807
 20
10.8833098474
 30
0.0
 10
-47.1988441178
 20
10.8833098474
 30
0.0
 10
-47.497120925
 20
10.9425121049
 30
0.0
 10
-47.7368881755
 20
11.106541699
 30
0.0
 10
-47.78988719
 20
11.1551101322
 30
0.0
  0
SPLINE
  5
6AE
100
AcDbEntity
  8
INCISIONI
100
AcDbSpline
 62
250
  6
CONTINUOUS
 70
0
 71
3
 72
9
 73
5
 74
0
 42
0.0000001
 43
0.0000001
 44
0.0000000001
 40
0.0
 40
0.0
 40
0.0
 40
0.0
 40
0.7499573136
 40
1.0
 40
1.0
 40
1.0
 40
1.0
 10
-46.1761353126
 20
11.1551101322
 30
0.0
 10
-46.3347572099
 20
11.0097626482
 30
0.0
 10
-46.6263396832
 20
10.9029716844
 30
0.0
 10
-46.9112776837
 20
10.8833098474
 30
0.0
 10
-46.9830035807
 20
10.8833098474
 30
0.0
  0
SPLINE
  5
6AF
100
AcDbEntity
  8
INCISIONI
100
AcDbSpline
 62
250
  6
CONTINUOUS
 70
0
 71
3
 72
8
 73
4
 74
0
 42
0.0000001
 43
0.0000001
 44
0.0000000001
 40
0.0
 40
0.0
 40
0.0
 40
0.0
 40
1.0
 40
1.0
 40
1.0
 40
1.0
 10
-45.9284778659
 20
11.7579507336
 30
0.0
 10
-45.9284778659
 20
11.5407028749
 30
0.0
 10
-46.0159752915
 20
11.3018670207
 30
0.0
 10
-46.1761353126
 20
11.1551101322
 30
0.0
  0
SPLINE
  5
6B0
100
AcDbEntity
  8
INCISIONI
100
AcDbSpline
 62
250
  6
CONTINUOUS
 70
0
 71
3
 72
8
 73
4
 74
0
 42
0.0000001
 43
0.0000001
 44
0.0000000001
 40
0.0
 40
0.0
 40
0.0
 40
0.0
 40
1.0
 40
1.0
 40
1.0
 40
1.0
 10
-46.1761353126
 20
12.3579267794
 30
0.0
 10
-46.0166350013
 20
12.2117566921
 30
0.0
 10
-45.9284778659
 20
11.9743156911
 30
0.0
 10
-45.9284778659
 20
11.7579507336
 30
0.0
  0
SPLINE
  5
6B1
100
AcDbEntity
  8
INCISIONI
100
AcDbSpline
 62
250
  6
CONTINUOUS
 70
0
 71
3
 72
9
 73
5
 74
0
 42
0.0000001
 43
0.0000001
 44
0.0000000001
 40
0.0
 40
0.0
 40
0.0
 40
0.0
 40
0.7501681637
 40
1.0
 40
1.0
 40
1.0
 40
1.0
 10
-46.9830035807
 20
12.6297219488
 30
0.0
 10
-46.7671671444
 20
12.6297219488
 30
0.0
 10
-46.468896908
 20
12.5705197887
 30
0.0
 10
-46.229132726
 20
12.4064949388
 30
0.0
 10
-46.1761353126
 20
12.3579267794
 30
0.0
  0
SPLINE
  5
6B2
100
AcDbEntity
  8
0
100
AcDbSpline
 62
250
  6
CONTINUOUS
 70
0
 71
3
 72
22
 73
18
 74
0
 42
0.0000001
 43
0.0000001
 44
0.0000000001
 40
0.0
 40
0.0
 40
0.0
 40
0.0
 40
0.0580945391
 40
0.1178117143
 40
0.1803850137
 40
0.2464335771
 40
0.3159306009
 40
0.3882968
 40
0.4625472198
 40
0.5374527802
 40
0.6117032
 40
0.6840693991
 40
0.7535664229
 40
0.8196149863
 40
0.8821882857
 40
0.9419054609
 40
1.0
 40
1.0
 40
1.0
 40
1.0
 10
-33.5167361435
 20
-10.7352941176
 30
0.0
 10
-33.6391160785
 20
-10.7352941176
 30
0.0
 10
-33.8885246071
 20
-10.7696746783
 30
0.0
 10
-34.2416674281
 20
-10.9204335664
 30
0.0
 10
-34.5609154597
 20
-11.1620704943
 30
0.0
 10
-34.8328239455
 20
-11.4826562339
 30
0.0
 10
-35.0467915164
 20
-11.8677964585
 30
0.0
 10
-35.1943662748
 20
-12.300919401
 30
0.0
 10
-35.26967231
 20
-12.763638071
 30
0.0
 10
-35.26967231
 20
-13.236361929
 30
0.0
 10
-35.1943662748
 20
-13.699080599
 30
0.0
 10
-35.0467915164
 20
-14.1322035415
 30
0.0
 10
-34.8328239455
 20
-14.5173437661
 30
0.0
 10
-34.5609154597
 20
-14.8379295057
 30
0.0
 10
-34.2416674281
 20
-15.0795664336
 30
0.0
 10
-33.8885246071
 20
-15.2303253217
 30
0.0
 10
-33.6391160785
 20
-15.2647058824
 30
0.0
 10
-33.5167361435
 20
-15.2647058824
 30
0.0
  0
SPLINE
  5
6B3
100
AcDbEntity
  8
0
100
AcDbSpline
 62
250
  6
CONTINUOUS
 70
0
 71
3
 72
22
 73
18
 74
0
 42
0.0000001
 43
0.0000001
 44
0.0000000001
 40
0.0
 40
0.0
 40
0.0
 40
0.0
 40
0.0580945391
 40
0.1178117143
 40
0.1803850137
 40
0.2464335771
 40
0.3159306009
 40
0.3882968
 40
0.4625472198
 40
0.5374527802
 40
0.6117032
 40
0.6840693991
 40
0.7535664229
 40
0.8196149863
 40
0.8821882857
 40
0.9419054609
 40
1.0
 40
1.0
 40
1.0
 40
1.0
 10
-33.5167361435
 20
-15.2647058824
 30
0.0
 10
-33.3943562086
 20
-15.2647058824
 30
0.0
 10
-33.1449476799
 20
-15.2303253217
 30
0.0
 10
-32.791804859
 20
-15.0795664336
 30
0.0
 10
-32.4725568273
 20
-14.8379295057
 30
0.0
 10
-32.2006483416
 20
-14.5173437661
 30
0.0
 10
-31.9866807706
 20
-14.1322035415
 30
0.0
 10
-31.8391060122
 20
-13.699080599
 30
0.0
 10
-31.763799977
 20
-13.236361929
 30
0.0
 10
-31.763799977
 20
-12.763638071
 30
0.0
 10
-31.8391060122
 20
-12.300919401
 30
0.0
 10
-31.9866807706
 20
-11.8677964585
 30
0.0
 10
-32.2006483416
 20
-11.4826562339
 30
0.0
 10
-32.4725568273
 20
-11.1620704943
 30
0.0
 10
-32.791804859
 20
-10.9204335664
 30
0.0
 10
-33.1449476799
 20
-10.7696746783
 30
0.0
 10
-33.3943562086
 20
-10.7352941176
 30
0.0
 10
-33.5167361435
 20
-10.7352941176
 30
0.0
  0
SPLINE
  5
6B4
100
AcDbEntity
  8
0
100
AcDbSpline
 62
250
  6
CONTINUOUS
 70
0
 71
3
 72
163
 73
159
 74
0
 42
0.0000001
 43
0.0000001
 44
0.0000000001
 40
0.0
 40
0.0
 40
0.0
 40
0.0
 40
0.015625
 40
0.03125
 40
0.0390625
 40
0.046875
 40
0.0546875
 40
0.05859375
 40
0.060546875
 40
0.0625
 40
0.064453125
 40
0.06640625
 40
0.0703125
 40
0.078125
 40
0.09375
 40
0.109375
 40
0.1171875
 40
0.12109375
 40
0.123046875
 40
0.125
 40
0.126953125
 40
0.12890625
 40
0.1328125
 40
0.140625
 40
0.15625
 40
0.171875
 40
0.1796875
 40
0.18359375
 40
0.185546875
 40
0.1875
 40
0.189453125
 40
0.19140625
 40
0.1953125
 40
0.203125
 40
0.21875
 40
0.234375
 40
0.2421875
 40
0.24609375
 40
0.248046875
 40
0.25
 40
0.251953125
 40
0.25390625
 40
0.2578125
 40
0.265625
 40
0.28125
 40
0.296875
 40
0.3046875
 40
0.30859375
 40
0.310546875
 40
0.3125
 40
0.314453125
 40
0.31640625
 40
0.3203125
 40
0.328125
 40
0.34375
 40
0.359375
 40
0.3671875
 40
0.37109375
 40
0.373046875
 40
0.375
 40
0.376953125
 40
0.37890625
 40
0.3828125
 40
0.390625
 40
0.40625
 40
0.421875
 40
0.4296875
 40
0.43359375
 40
0.435546875
 40
0.4375
 40
0.439453125
 40
0.44140625
 40
0.4453125
 40
0.453125
 40
0.46875
 40
0.484375
 40
0.4921875
 40
0.49609375
 40
0.498046875
 40
0.5
 40
0.501953125
 40
0.50390625
 40
0.5078125
 40
0.515625
 40
0.53125
 40
0.546875
 40
0.5546875
 40
0.55859375
 40
0.560546875
 40
0.5625
 40
0.564453125
 40
0.56640625
 40
0.5703125
 40
0.578125
 40
0.59375
 40
0.609375
 40
0.6171875
 40
0.62109375
 40
0.623046875
 40
0.625
 40
0.626953125
 40
0.62890625
 40
0.6328125
 40
0.640625
 40
0.65625
 40
0.671875
 40
0.6796875
 40
0.68359375
 40
0.685546875
 40
0.6875
 40
0.689453125
 40
0.69140625
 40
0.6953125
 40
0.703125
 40
0.71875
 40
0.734375
 40
0.7421875
 40
0.74609375
 40
0.748046875
 40
0.75
 40
0.751953125
 40
0.75390625
 40
0.7578125
 40
0.765625
 40
0.78125
 40
0.796875
 40
0.8046875
 40
0.80859375
 40
0.810546875
 40
0.8125
 40
0.814453125
 40
0.81640625
 40
0.8203125
 40
0.828125
 40
0.84375
 40
0.859375
 40
0.8671875
 40
0.87109375
 40
0.873046875
 40
0.875
 40
0.876953125
 40
0.87890625
 40
0.8828125
 40
0.890625
 40
0.90625
 40
0.921875
 40
0.9296875
 40
0.93359375
 40
0.935546875
 40
0.9375
 40
0.939453125
 40
0.94140625
 40
0.9453125
 40
0.953125
 40
0.9609375
 40
0.96875
 40
0.984375
 40
1.0
 40
1.0
 40
1.0
 40
1.0
 10
-34.3736106175
 20
-13.366679
 30
0.0
 10
-34.3722506974
 20
-13.3805506508
 30
0.0
 10
-34.3695302798
 20
-13.4082938382
 30
0.0
 10
-34.3661326449
 20
-13.4429733941
 30
0.0
 10
-34.3634084739
 20
-13.4707158382
 30
0.0
 10
-34.3613818025
 20
-13.4915259303
 30
0.0
 10
-34.3596405799
 20
-13.5088573105
 30
0.0
 10
-34.3585244168
 20
-13.5210096135
 30
0.0
 10
-34.3577262635
 20
-13.5279220324
 30
0.0
 10
-34.3575793451
 20
-13.5331957987
 30
0.0
 10
-34.3557058135
 20
-13.5381276338
 30
0.0
 10
-34.3538099891
 20
-13.5448226767
 30
0.0
 10
-34.3502121568
 20
-13.5564835021
 30
0.0
 10
-34.3432165242
 20
-13.5798450196
 30
0.0
 10
-34.3331090004
 20
-13.6131940427
 30
0.0
 10
-34.3230755148
 20
-13.6465654226
 30
0.0
 10
-34.3159762287
 20
-13.6698956405
 30
0.0
 10
-34.3125209199
 20
-13.6815995028
 30
0.0
 10
-34.310395577
 20
-13.6882252395
 30
0.0
 10
-34.3092272592
 20
-13.6933700235
 30
0.0
 10
-34.3064316246
 20
-13.6978439739
 30
0.0
 10
-34.3032716965
 20
-13.7040432196
 30
0.0
 10
-34.2974777906
 20
-13.7147830437
 30
0.0
 10
-34.2860785407
 20
-13.7363405749
 30
0.0
 10
-34.2696864067
 20
-13.767091513
 30
0.0
 10
-34.2533650723
 20
-13.7978762425
 30
0.0
 10
-34.241866703
 20
-13.8193864658
 30
0.0
 10
-34.2362090863
 20
-13.8301913382
 30
0.0
 10
-34.2328296795
 20
-13.8362858308
 30
0.0
 10
-34.2307084109
 20
-13.8410816434
 30
0.0
 10
-34.2270072378
 20
-13.8450175437
 30
0.0
 10
-34.2226233862
 20
-13.8505653391
 30
0.0
 10
-34.2146953305
 20
-13.8601344262
 30
0.0
 10
-34.199022012
 20
-13.8793726361
 30
0.0
 10
-34.176529419
 20
-13.906795801
 30
0.0
 10
-34.1540972014
 20
-13.9342683901
 30
0.0
 10
-34.1383393575
 20
-13.9534374061
 30
0.0
 10
-34.1305275243
 20
-13.9631016347
 30
0.0
 10
-34.1259565091
 20
-13.9684962152
 30
0.0
 10
-34.1228304111
 20
-13.9729028808
 30
0.0
 10
-34.1185492146
 20
-13.9759305435
 30
0.0
 10
-34.1132438336
 20
-13.9804484044
 30
0.0
 10
-34.1037720113
 20
-13.9881309101
 30
0.0
 10
-34.084962108
 20
-14.0036558006
 30
0.0
 10
-34.0580153528
 20
-14.0257423992
 30
0.0
 10
-34.0311157113
 20
-14.047891732
 30
0.0
 10
-34.0122398489
 20
-14.0633287946
 30
0.0
 10
-34.0028587204
 20
-14.0711320638
 30
0.0
 10
-33.997407287
 20
-14.0754554484
 30
0.0
 10
-33.9935748481
 20
-14.079080655
 30
0.0
 10
-33.9887632593
 20
-14.0812430021
 30
0.0
 10
-33.9826893194
 20
-14.0846363573
 30
0.0
 10
-33.9719010751
 20
-14.0903373671
 30
0.0
 10
-33.9504378442
 20
-14.1019090416
 30
0.0
 10
-33.9197130169
 20
-14.1183421747
 30
0.0
 10
-33.8890247361
 20
-14.1348434773
 30
0.0
 10
-33.8675103401
 20
-14.1463197146
 30
0.0
 10
-33.8567924478
 20
-14.1521519505
 30
0.0
 10
-33.8506052137
 20
-14.1553339806
 30
0.0
 10
-33.8461417307
 20
-14.1581456409
 30
0.0
 10
-33.8410018396
 20
-14.1593320883
 30
0.0
 10
-33.834384572
 20
-14.1614808701
 30
0.0
 10
-33.822694616
 20
-14.1649775383
 30
0.0
 10
-33.7993929743
 20
-14.1721593
 30
0.0
 10
-33.7660611
 20
-14.1823107422
 30
0.0
 10
-33.7327553982
 20
-14.1925361488
 30
0.0
 10
-33.7094171151
 20
-14.1996143602
 30
0.0
 10
-33.6977775411
 20
-14.2032534102
 30
0.0
 10
-33.6910791389
 20
-14.2051729018
 30
0.0
 10
-33.6861885404
 20
-14.2070638615
 30
0.0
 10
-33.6807887379
 20
-14.2072294401
 30
0.0
 10
-33.6737666003
 20
-14.2080520004
 30
0.0
 10
-33.6613952826
 20
-14.2092115309
 30
0.0
 10
-33.636711176
 20
-14.2117306016
 30
0.0
 10
-33.6014183585
 20
-14.2152146197
 30
0.0
 10
-33.5661332899
 20
-14.2187762843
 30
0.0
 10
-33.5414383349
 20
-14.2211866499
 30
0.0
 10
-33.5290819339
 20
-14.2224956499
 30
0.0
 10
-33.5220357745
 20
-14.2230775061
 30
0.0
 10
-33.5167097809
 20
-14.2239826674
 30
0.0
 10
-33.511541963
 20
-14.2230958241
 30
0.0
 10
-33.5045963687
 20
-14.2225383918
 30
0.0
 10
-33.4924672544
 20
-14.2212721337
 30
0.0
 10
-33.4681905608
 20
-14.2189472528
 30
0.0
 10
-33.4335211225
 20
-14.2155077006
 30
0.0
 10
-33.3988406455
 20
-14.2121458277
 30
0.0
 10
-33.3745794061
 20
-14.2097121958
 30
0.0
 10
-33.3624290423
 20
-14.2085954703
 30
0.0
 10
-33.3555176679
 20
-14.2077972322
 30
0.0
 10
-33.3502447065
 20
-14.207650284
 30
0.0
 10
-33.3453136221
 20
-14.205776469
 30
0.0
 10
-33.338619599
 20
-14.2038803552
 30
0.0
 10
-33.3269605495
 20
-14.2002819752
 30
0.0
 10
-33.3036025902
 20
-14.1932852767
 30
0.0
 10
-33.2702586463
 20
-14.1831762134
 30
0.0
 10
-33.236892349
 20
-14.1731411993
 30
0.0
 10
-33.2135656844
 20
-14.1660408319
 30
0.0
 10
-33.2018636047
 20
-14.1625849967
 30
0.0
 10
-33.1952388771
 20
-14.1604593301
 30
0.0
 10
-33.1900948767
 20
-14.1592908343
 30
0.0
 10
-33.1856216076
 20
-14.1564947738
 30
0.0
 10
-33.1794233061
 20
-14.1533343645
 30
0.0
 10
-33.1686851178
 20
-14.147539576
 30
0.0
 10
-33.1471308699
 20
-14.1361385896
 30
0.0
 10
-33.1163846153
 20
-14.1197439586
 30
0.0
 10
-33.0856045745
 20
-14.103420138
 30
0.0
 10
-33.0640976272
 20
-14.0919200172
 30
0.0
 10
-33.0532944005
 20
-14.0862615387
 30
0.0
 10
-33.0472008361
 20
-14.0828816171
 30
0.0
 10
-33.042405754
 20
-14.0807600254
 30
0.0
 10
-33.0384704531
 20
-14.0770582885
 30
0.0
 10
-33.0329235026
 20
-14.0726737691
 30
0.0
 10
-33.0233558729
 20
-14.0647445057
 30
0.0
 10
-33.0041205931
 20
-14.0490687998
 30
0.0
 10
-32.9767016049
 20
-14.0265727805
 30
0.0
 10
-32.9492332001
 20
-14.0041371458
 30
0.0
 10
-32.9300671036
 20
-13.9883769016
 30
0.0
 10
-32.9204043469
 20
-13.9805638784
 30
0.0
 10
-32.915010588
 20
-13.9759921669
 30
0.0
 10
-32.9106045935
 20
-13.9728655928
 30
0.0
 10
-32.9075773919
 20
-13.9685837441
 30
0.0
 10
-32.9030602192
 20
-13.963277555
 30
0.0
 10
-32.8953788835
 20
-13.9538042899
 30
0.0
 10
-32.8798563575
 20
-13.9349915213
 30
0.0
 10
-32.8577731229
 20
-13.9080406613
 30
0.0
 10
-32.8356271635
 20
-13.8811369222
 30
0.0
 10
-32.8201924521
 20
-13.8622581845
 30
0.0
 10
-32.8123903714
 20
-13.8528756269
 30
0.0
 10
-32.8080676452
 20
-13.8474233632
 30
0.0
 10
-32.8044429907
 20
-13.8435903404
 30
0.0
 10
-32.802280973
 20
-13.8387780188
 30
0.0
 10
-32.7988881346
 20
-13.8327031537
 30
0.0
 10
-32.793187993
 20
-13.821913266
 30
0.0
 10
-32.7816180811
 20
-13.8004467656
 30
0.0
 10
-32.7651874507
 20
-13.7697172581
 30
0.0
 10
-32.7486886614
 20
-13.7390243026
 30
0.0
 10
-32.737214172
 20
-13.7175066293
 30
0.0
 10
-32.7313828244
 20
-13.7067871044
 30
0.0
 10
-32.7282012789
 20
-13.7005989278
 30
0.0
 10
-32.7253900468
 20
-13.6961347648
 30
0.0
 10
-32.7242037801
 20
-13.6909940908
 30
0.0
 10
-32.7220553256
 20
-13.6843758153
 30
0.0
 10
-32.71855919
 20
-13.6726840786
 30
0.0
 10
-32.7113785221
 20
-13.6493788874
 30
0.0
 10
-32.7012286261
 20
-13.6160419357
 30
0.0
 10
-32.6910047766
 20
-13.5827311606
 30
0.0
 10
-32.6839276436
 20
-13.5593893221
 30
0.0
 10
-32.6802891474
 20
-13.5477479754
 30
0.0
 10
-32.6783699488
 20
-13.5410485524
 30
0.0
 10
-32.6764792751
 20
-13.5361572105
 30
0.0
 10
-32.6763137292
 20
-13.5307565794
 30
0.0
 10
-32.6754912574
 20
-13.5237333837
 30
0.0
 10
-32.6743322954
 20
-13.5113600227
 30
0.0
 10
-32.6725300577
 20
-13.4937270651
 30
0.0
 10
-32.6704301143
 20
-13.4725489935
 30
0.0
 10
-32.6676082661
 20
-13.4443180369
 30
0.0
 10
-32.6640885282
 20
-13.4090271057
 30
0.0
 10
-32.6612704301
 20
-13.3807950421
 30
0.0
 10
-32.6598616695
 20
-13.3666789251
 30
0.0
  0
SPLINE
  5
6B5
100
AcDbEntity
  8
0
100
AcDbSpline
 62
250
  6
CONTINUOUS
 70
0
 71
3
 72
163
 73
159
 74
0
 42
0.0000001
 43
0.0000001
 44
0.0000000001
 40
0.0
 40
0.0
 40
0.0
 40
0.0
 40
0.015625
 40
0.03125
 40
0.0390625
 40
0.046875
 40
0.0546875
 40
0.05859375
 40
0.060546875
 40
0.0625
 40
0.064453125
 40
0.06640625
 40
0.0703125
 40
0.078125
 40
0.09375
 40
0.109375
 40
0.1171875
 40
0.12109375
 40
0.123046875
 40
0.125
 40
0.126953125
 40
0.12890625
 40
0.1328125
 40
0.140625
 40
0.15625
 40
0.171875
 40
0.1796875
 40
0.18359375
 40
0.185546875
 40
0.1875
 40
0.189453125
 40
0.19140625
 40
0.1953125
 40
0.203125
 40
0.21875
 40
0.234375
 40
0.2421875
 40
0.24609375
 40
0.248046875
 40
0.25
 40
0.251953125
 40
0.25390625
 40
0.2578125
 40
0.265625
 40
0.28125
 40
0.296875
 40
0.3046875
 40
0.30859375
 40
0.310546875
 40
0.3125
 40
0.314453125
 40
0.31640625
 40
0.3203125
 40
0.328125
 40
0.34375
 40
0.359375
 40
0.3671875
 40
0.37109375
 40
0.373046875
 40
0.375
 40
0.376953125
 40
0.37890625
 40
0.3828125
 40
0.390625
 40
0.40625
 40
0.421875
 40
0.4296875
 40
0.43359375
 40
0.435546875
 40
0.4375
 40
0.439453125
 40
0.44140625
 40
0.4453125
 40
0.453125
 40
0.46875
 40
0.484375
 40
0.4921875
 40
0.49609375
 40
0.498046875
 40
0.5
 40
0.501953125
 40
0.50390625
 40
0.5078125
 40
0.515625
 40
0.53125
 40
0.546875
 40
0.5546875
 40
0.55859375
 40
0.560546875
 40
0.5625
 40
0.564453125
 40
0.56640625
 40
0.5703125
 40
0.578125
 40
0.59375
 40
0.609375
 40
0.6171875
 40
0.62109375
 40
0.623046875
 40
0.625
 40
0.626953125
 40
0.62890625
 40
0.6328125
 40
0.640625
 40
0.65625
 40
0.671875
 40
0.6796875
 40
0.68359375
 40
0.685546875
 40
0.6875
 40
0.689453125
 40
0.69140625
 40
0.6953125
 40
0.703125
 40
0.71875
 40
0.734375
 40
0.7421875
 40
0.74609375
 40
0.748046875
 40
0.75
 40
0.751953125
 40
0.75390625
 40
0.7578125
 40
0.765625
 40
0.78125
 40
0.796875
 40
0.8046875
 40
0.80859375
 40
0.810546875
 40
0.8125
 40
0.814453125
 40
0.81640625
 40
0.8203125
 40
0.828125
 40
0.84375
 40
0.859375
 40
0.8671875
 40
0.87109375
 40
0.873046875
 40
0.875
 40
0.876953125
 40
0.87890625
 40
0.8828125
 40
0.890625
 40
0.90625
 40
0.921875
 40
0.9296875
 40
0.93359375
 40
0.935546875
 40
0.9375
 40
0.939453125
 40
0.94140625
 40
0.9453125
 40
0.953125
 40
0.9609375
 40
0.96875
 40
0.984375
 40
1.0
 40
1.0
 40
1.0
 40
1.0
 10
-34.3736106175
 20
-12.633321
 30
0.0
 10
-34.3722506974
 20
-12.6471926508
 30
0.0
 10
-34.3695302798
 20
-12.6749358382
 30
0.0
 10
-34.3661326449
 20
-12.7096153941
 30
0.0
 10
-34.3634084739
 20
-12.7373578382
 30
0.0
 10
-34.3613818025
 20
-12.7581679303
 30
0.0
 10
-34.3596405799
 20
-12.7754993105
 30
0.0
 10
-34.3585244168
 20
-12.7876516135
 30
0.0
 10
-34.3577262635
 20
-12.7945640324
 30
0.0
 10
-34.3575793451
 20
-12.7998377987
 30
0.0
 10
-34.3557058135
 20
-12.8047696338
 30
0.0
 10
-34.3538099891
 20
-12.8114646767
 30
0.0
 10
-34.3502121568
 20
-12.8231255021
 30
0.0
 10
-34.3432165242
 20
-12.8464870196
 30
0.0
 10
-34.3331090004
 20
-12.8798360427
 30
0.0
 10
-34.3230755148
 20
-12.9132074226
 30
0.0
 10
-34.3159762287
 20
-12.9365376405
 30
0.0
 10
-34.3125209199
 20
-12.9482415028
 30
0.0
 10
-34.310395577
 20
-12.9548672395
 30
0.0
 10
-34.3092272592
 20
-12.9600120235
 30
0.0
 10
-34.3064316246
 20
-12.9644859739
 30
0.0
 10
-34.3032716965
 20
-12.9706852196
 30
0.0
 10
-34.2974777906
 20
-12.9814250437
 30
0.0
 10
-34.2860785407
 20
-13.0029825749
 30
0.0
 10
-34.2696864067
 20
-13.033733513
 30
0.0
 10
-34.2533650723
 20
-13.0645182425
 30
0.0
 10
-34.241866703
 20
-13.0860284658
 30
0.0
 10
-34.2362090863
 20
-13.0968333382
 30
0.0
 10
-34.2328296795
 20
-13.1029278308
 30
0.0
 10
-34.2307084109
 20
-13.1077236434
 30
0.0
 10
-34.2270072378
 20
-13.1116595437
 30
0.0
 10
-34.2226233862
 20
-13.1172073391
 30
0.0
 10
-34.2146953305
 20
-13.1267764262
 30
0.0
 10
-34.199022012
 20
-13.1460146361
 30
0.0
 10
-34.176529419
 20
-13.173437801
 30
0.0
 10
-34.1540972014
 20
-13.2009103901
 30
0.0
 10
-34.1383393575
 20
-13.2200794061
 30
0.0
 10
-34.1305275243
 20
-13.2297436347
 30
0.0
 10
-34.1259565091
 20
-13.2351382152
 30
0.0
 10
-34.1228304111
 20
-13.2395448808
 30
0.0
 10
-34.1185492146
 20
-13.2425725435
 30
0.0
 10
-34.1132438336
 20
-13.2470904044
 30
0.0
 10
-34.1037720113
 20
-13.2547729101
 30
0.0
 10
-34.084962108
 20
-13.2702978006
 30
0.0
 10
-34.0580153528
 20
-13.2923843992
 30
0.0
 10
-34.0311157113
 20
-13.314533732
 30
0.0
 10
-34.0122398489
 20
-13.3299707946
 30
0.0
 10
-34.0028587204
 20
-13.3377740638
 30
0.0
 10
-33.997407287
 20
-13.3420974484
 30
0.0
 10
-33.9935748481
 20
-13.345722655
 30
0.0
 10
-33.9887632593
 20
-13.3478850021
 30
0.0
 10
-33.9826893194
 20
-13.3512783573
 30
0.0
 10
-33.9719010751
 20
-13.3569793671
 30
0.0
 10
-33.9504378442
 20
-13.3685510416
 30
0.0
 10
-33.9197130169
 20
-13.3849841747
 30
0.0
 10
-33.8890247361
 20
-13.4014854773
 30
0.0
 10
-33.8675103401
 20
-13.4129617146
 30
0.0
 10
-33.8567924478
 20
-13.4187939505
 30
0.0
 10
-33.8506052137
 20
-13.4219759806
 30
0.0
 10
-33.8461417307
 20
-13.4247876409
 30
0.0
 10
-33.8410018396
 20
-13.4259740883
 30
0.0
 10
-33.834384572
 20
-13.4281228701
 30
0.0
 10
-33.822694616
 20
-13.4316195383
 30
0.0
 10
-33.7993929743
 20
-13.4388013
 30
0.0
 10
-33.7660611
 20
-13.4489527422
 30
0.0
 10
-33.7327553982
 20
-13.4591781488
 30
0.0
 10
-33.7094171151
 20
-13.4662563602
 30
0.0
 10
-33.6977775411
 20
-13.4698954102
 30
0.0
 10
-33.6910791389
 20
-13.4718149018
 30
0.0
 10
-33.6861885404
 20
-13.4737058615
 30
0.0
 10
-33.6807887379
 20
-13.4738714401
 30
0.0
 10
-33.6737666003
 20
-13.4746940004
 30
0.0
 10
-33.6613952826
 20
-13.4758535309
 30
0.0
 10
-33.636711176
 20
-13.4783726016
 30
0.0
 10
-33.6014183585
 20
-13.4818566197
 30
0.0
 10
-33.5661332899
 20
-13.4854182843
 30
0.0
 10
-33.5414383349
 20
-13.4878286499
 30
0.0
 10
-33.5290819339
 20
-13.4891376499
 30
0.0
 10
-33.5220357745
 20
-13.4897195061
 30
0.0
 10
-33.5167097809
 20
-13.4906246674
 30
0.0
 10
-33.511541963
 20
-13.4897378241
 30
0.0
 10
-33.5045963687
 20
-13.4891803918
 30
0.0
 10
-33.4924672544
 20
-13.4879141337
 30
0.0
 10
-33.4681905608
 20
-13.4855892528
 30
0.0
 10
-33.4335211225
 20
-13.4821497006
 30
0.0
 10
-33.3988406455
 20
-13.4787878277
 30
0.0
 10
-33.3745794061
 20
-13.4763541958
 30
0.0
 10
-33.3624290423
 20
-13.4752374703
 30
0.0
 10
-33.3555176679
 20
-13.4744392322
 30
0.0
 10
-33.3502447065
 20
-13.474292284
 30
0.0
 10
-33.3453136221
 20
-13.472418469
 30
0.0
 10
-33.338619599
 20
-13.4705223552
 30
0.0
 10
-33.3269605495
 20
-13.4669239752
 30
0.0
 10
-33.3036025902
 20
-13.4599272767
 30
0.0
 10
-33.2702586463
 20
-13.4498182134
 30
0.0
 10
-33.236892349
 20
-13.4397831993
 30
0.0
 10
-33.2135656844
 20
-13.4326828319
 30
0.0
 10
-33.2018636047
 20
-13.4292269967
 30
0.0
 10
-33.1952388771
 20
-13.4271013301
 30
0.0
 10
-33.1900948767
 20
-13.4259328343
 30
0.0
 10
-33.1856216076
 20
-13.4231367738
 30
0.0
 10
-33.1794233061
 20
-13.4199763645
 30
0.0
 10
-33.1686851178
 20
-13.414181576
 30
0.0
 10
-33.1471308699
 20
-13.4027805896
 30
0.0
 10
-33.1163846153
 20
-13.3863859586
 30
0.0
 10
-33.0856045745
 20
-13.370062138
 30
0.0
 10
-33.0640976272
 20
-13.3585620172
 30
0.0
 10
-33.0532944005
 20
-13.3529035387
 30
0.0
 10
-33.0472008361
 20
-13.3495236171
 30
0.0
 10
-33.042405754
 20
-13.3474020254
 30
0.0
 10
-33.0384704531
 20
-13.3437002885
 30
0.0
 10
-33.0329235026
 20
-13.3393157691
 30
0.0
 10
-33.0233558729
 20
-13.3313865057
 30
0.0
 10
-33.0041205931
 20
-13.3157107998
 30
0.0
 10
-32.9767016049
 20
-13.2932147805
 30
0.0
 10
-32.9492332001
 20
-13.2707791458
 30
0.0
 10
-32.9300671036
 20
-13.2550189016
 30
0.0
 10
-32.9204043469
 20
-13.2472058784
 30
0.0
 10
-32.915010588
 20
-13.2426341669
 30
0.0
 10
-32.9106045935
 20
-13.2395075928
 30
0.0
 10
-32.9075773919
 20
-13.2352257441
 30
0.0
 10
-32.9030602192
 20
-13.229919555
 30
0.0
 10
-32.8953788835
 20
-13.2204462899
 30
0.0
 10
-32.8798563575
 20
-13.2016335213
 30
0.0
 10
-32.8577731229
 20
-13.1746826613
 30
0.0
 10
-32.8356271635
 20
-13.1477789222
 30
0.0
 10
-32.8201924521
 20
-13.1289001845
 30
0.0
 10
-32.8123903714
 20
-13.1195176269
 30
0.0
 10
-32.8080676452
 20
-13.1140653632
 30
0.0
 10
-32.8044429907
 20
-13.1102323404
 30
0.0
 10
-32.802280973
 20
-13.1054200188
 30
0.0
 10
-32.7988881346
 20
-13.0993451537
 30
0.0
 10
-32.793187993
 20
-13.088555266
 30
0.0
 10
-32.7816180811
 20
-13.0670887656
 30
0.0
 10
-32.7651874507
 20
-13.0363592581
 30
0.0
 10
-32.7486886614
 20
-13.0056663026
 30
0.0
 10
-32.737214172
 20
-12.9841486293
 30
0.0
 10
-32.7313828244
 20
-12.9734291044
 30
0.0
 10
-32.7282012789
 20
-12.9672409278
 30
0.0
 10
-32.7253900468
 20
-12.9627767648
 30
0.0
 10
-32.7242037801
 20
-12.9576360908
 30
0.0
 10
-32.7220553256
 20
-12.9510178153
 30
0.0
 10
-32.71855919
 20
-12.9393260786
 30
0.0
 10
-32.7113785221
 20
-12.9160208874
 30
0.0
 10
-32.7012286261
 20
-12.8826839357
 30
0.0
 10
-32.6910047766
 20
-12.8493731606
 30
0.0
 10
-32.6839276436
 20
-12.8260313221
 30
0.0
 10
-32.6802891474
 20
-12.8143899754
 30
0.0
 10
-32.6783699488
 20
-12.8076905524
 30
0.0
 10
-32.6764792751
 20
-12.8027992105
 30
0.0
 10
-32.6763137292
 20
-12.7973985794
 30
0.0
 10
-32.6754912574
 20
-12.7903753837
 30
0.0
 10
-32.6743322954
 20
-12.7780020227
 30
0.0
 10
-32.6725300577
 20
-12.7603690651
 30
0.0
 10
-32.6704301143
 20
-12.7391909935
 30
0.0
 10
-32.6676082661
 20
-12.7109600369
 30
0.0
 10
-32.6640885282
 20
-12.6756691057
 30
0.0
 10
-32.6612704301
 20
-12.6474370421
 30
0.0
 10
-32.6598616695
 20
-12.6333209251
 30
0.0
  0
SPLINE
  5
6B6
100
AcDbEntity
  8
0
100
AcDbSpline
 62
250
  6
CONTINUOUS
 70
0
 71
3
 72
163
 73
159
 74
0
 42
0.0000001
 43
0.0000001
 44
0.0000000001
 40
0.0
 40
0.0
 40
0.0
 40
0.0
 40
0.015625
 40
0.03125
 40
0.0390625
 40
0.046875
 40
0.0546875
 40
0.05859375
 40
0.060546875
 40
0.0625
 40
0.064453125
 40
0.06640625
 40
0.0703125
 40
0.078125
 40
0.09375
 40
0.109375
 40
0.1171875
 40
0.12109375
 40
0.123046875
 40
0.125
 40
0.126953125
 40
0.12890625
 40
0.1328125
 40
0.140625
 40
0.15625
 40
0.171875
 40
0.1796875
 40
0.18359375
 40
0.185546875
 40
0.1875
 40
0.189453125
 40
0.19140625
 40
0.1953125
 40
0.203125
 40
0.21875
 40
0.234375
 40
0.2421875
 40
0.24609375
 40
0.248046875
 40
0.25
 40
0.251953125
 40
0.25390625
 40
0.2578125
 40
0.265625
 40
0.28125
 40
0.296875
 40
0.3046875
 40
0.30859375
 40
0.310546875
 40
0.3125
 40
0.314453125
 40
0.31640625
 40
0.3203125
 40
0.328125
 40
0.34375
 40
0.359375
 40
0.3671875
 40
0.37109375
 40
0.373046875
 40
0.375
 40
0.376953125
 40
0.37890625
 40
0.3828125
 40
0.390625
 40
0.40625
 40
0.421875
 40
0.4296875
 40
0.43359375
 40
0.435546875
 40
0.4375
 40
0.439453125
 40
0.44140625
 40
0.4453125
 40
0.453125
 40
0.46875
 40
0.484375
 40
0.4921875
 40
0.49609375
 40
0.498046875
 40
0.5
 40
0.501953125
 40
0.50390625
 40
0.5078125
 40
0.515625
 40
0.53125
 40
0.546875
 40
0.5546875
 40
0.55859375
 40
0.560546875
 40
0.5625
 40
0.564453125
 40
0.56640625
 40
0.5703125
 40
0.578125
 40
0.59375
 40
0.609375
 40
0.6171875
 40
0.62109375
 40
0.623046875
 40
0.625
 40
0.626953125
 40
0.62890625
 40
0.6328125
 40
0.640625
 40
0.65625
 40
0.671875
 40
0.6796875
 40
0.68359375
 40
0.685546875
 40
0.6875
 40
0.689453125
 40
0.69140625
 40
0.6953125
 40
0.703125
 40
0.71875
 40
0.734375
 40
0.7421875
 40
0.74609375
 40
0.748046875
 40
0.75
 40
0.751953125
 40
0.75390625
 40
0.7578125
 40
0.765625
 40
0.78125
 40
0.796875
 40
0.8046875
 40
0.80859375
 40
0.810546875
 40
0.8125
 40
0.814453125
 40
0.81640625
 40
0.8203125
 40
0.828125
 40
0.84375
 40
0.859375
 40
0.8671875
 40
0.87109375
 40
0.873046875
 40
0.875
 40
0.876953125
 40
0.87890625
 40
0.8828125
 40
0.890625
 40
0.90625
 40
0.921875
 40
0.9296875
 40
0.93359375
 40
0.935546875
 40
0.9375
 40
0.939453125
 40
0.94140625
 40
0.9453125
 40
0.953125
 40
0.9609375
 40
0.96875
 40
0.984375
 40
1.0
 40
1.0
 40
1.0
 40
1.0
 10
-34.3736106175
 20
-11.899964
 30
0.0
 10
-34.3722506974
 20
-11.9138356508
 30
0.0
 10
-34.3695302798
 20
-11.9415788382
 30
0.0
 10
-34.3661326449
 20
-11.9762583941
 30
0.0
 10
-34.3634084739
 20
-12.0040008382
 30
0.0
 10
-34.3613818025
 20
-12.0248109303
 30
0.0
 10
-34.3596405799
 20
-12.0421423105
 30
0.0
 10
-34.3585244168
 20
-12.0542946135
 30
0.0
 10
-34.3577262635
 20
-12.0612070324
 30
0.0
 10
-34.3575793451
 20
-12.0664807987
 30
0.0
 10
-34.3557058135
 20
-12.0714126338
 30
0.0
 10
-34.3538099891
 20
-12.0781076767
 30
0.0
 10
-34.3502121568
 20
-12.0897685021
 30
0.0
 10
-34.3432165242
 20
-12.1131300196
 30
0.0
 10
-34.3331090004
 20
-12.1464790427
 30
0.0
 10
-34.3230755148
 20
-12.1798504226
 30
0.0
 10
-34.3159762287
 20
-12.2031806405
 30
0.0
 10
-34.3125209199
 20
-12.2148845028
 30
0.0
 10
-34.310395577
 20
-12.2215102395
 30
0.0
 10
-34.3092272592
 20
-12.2266550235
 30
0.0
 10
-34.3064316246
 20
-12.2311289739
 30
0.0
 10
-34.3032716965
 20
-12.2373282196
 30
0.0
 10
-34.2974777906
 20
-12.2480680437
 30
0.0
 10
-34.2860785407
 20
-12.2696255749
 30
0.0
 10
-34.2696864067
 20
-12.300376513
 30
0.0
 10
-34.2533650723
 20
-12.3311612425
 30
0.0
 10
-34.241866703
 20
-12.3526714658
 30
0.0
 10
-34.2362090863
 20
-12.3634763382
 30
0.0
 10
-34.2328296795
 20
-12.3695708308
 30
0.0
 10
-34.2307084109
 20
-12.3743666434
 30
0.0
 10
-34.2270072378
 20
-12.3783025437
 30
0.0
 10
-34.2226233862
 20
-12.3838503391
 30
0.0
 10
-34.2146953305
 20
-12.3934194262
 30
0.0
 10
-34.199022012
 20
-12.4126576361
 30
0.0
 10
-34.176529419
 20
-12.440080801
 30
0.0
 10
-34.1540972014
 20
-12.4675533901
 30
0.0
 10
-34.1383393575
 20
-12.4867224061
 30
0.0
 10
-34.1305275243
 20
-12.4963866347
 30
0.0
 10
-34.1259565091
 20
-12.5017812152
 30
0.0
 10
-34.1228304111
 20
-12.5061878808
 30
0.0
 10
-34.1185492146
 20
-12.5092155435
 30
0.0
 10
-34.1132438336
 20
-12.5137334044
 30
0.0
 10
-34.1037720113
 20
-12.5214159101
 30
0.0
 10
-34.084962108
 20
-12.5369408006
 30
0.0
 10
-34.0580153528
 20
-12.5590273992
 30
0.0
 10
-34.0311157113
 20
-12.581176732
 30
0.0
 10
-34.0122398489
 20
-12.5966137946
 30
0.0
 10
-34.0028587204
 20
-12.6044170638
 30
0.0
 10
-33.997407287
 20
-12.6087404484
 30
0.0
 10
-33.9935748481
 20
-12.612365655
 30
0.0
 10
-33.9887632593
 20
-12.6145280021
 30
0.0
 10
-33.9826893194
 20
-12.6179213573
 30
0.0
 10
-33.9719010751
 20
-12.6236223671
 30
0.0
 10
-33.9504378442
 20
-12.6351940416
 30
0.0
 10
-33.9197130169
 20
-12.6516271747
 30
0.0
 10
-33.8890247361
 20
-12.6681284773
 30
0.0
 10
-33.8675103401
 20
-12.6796047146
 30
0.0
 10
-33.8567924478
 20
-12.6854369505
 30
0.0
 10
-33.8506052137
 20
-12.6886189806
 30
0.0
 10
-33.8461417307
 20
-12.6914306409
 30
0.0
 10
-33.8410018396
 20
-12.6926170883
 30
0.0
 10
-33.834384572
 20
-12.6947658701
 30
0.0
 10
-33.822694616
 20
-12.6982625383
 30
0.0
 10
-33.7993929743
 20
-12.7054443
 30
0.0
 10
-33.7660611
 20
-12.7155957422
 30
0.0
 10
-33.7327553982
 20
-12.7258211488
 30
0.0
 10
-33.7094171151
 20
-12.7328993602
 30
0.0
 10
-33.6977775411
 20
-12.7365384102
 30
0.0
 10
-33.6910791389
 20
-12.7384579018
 30
0.0
 10
-33.6861885404
 20
-12.7403488615
 30
0.0
 10
-33.6807887379
 20
-12.7405144401
 30
0.0
 10
-33.6737666003
 20
-12.7413370004
 30
0.0
 10
-33.6613952826
 20
-12.7424965309
 30
0.0
 10
-33.636711176
 20
-12.7450156016
 30
0.0
 10
-33.6014183585
 20
-12.7484996197
 30
0.0
 10
-33.5661332899
 20
-12.7520612843
 30
0.0
 10
-33.5414383349
 20
-12.7544716499
 30
0.0
 10
-33.5290819339
 20
-12.7557806499
 30
0.0
 10
-33.5220357745
 20
-12.7563625061
 30
0.0
 10
-33.5167097809
 20
-12.7572676674
 30
0.0
 10
-33.511541963
 20
-12.7563808241
 30
0.0
 10
-33.5045963687
 20
-12.7558233918
 30
0.0
 10
-33.4924672544
 20
-12.7545571337
 30
0.0
 10
-33.4681905608
 20
-12.7522322528
 30
0.0
 10
-33.4335211225
 20
-12.7487927006
 30
0.0
 10
-33.3988406455
 20
-12.7454308277
 30
0.0
 10
-33.3745794061
 20
-12.7429971958
 30
0.0
 10
-33.3624290423
 20
-12.7418804703
 30
0.0
 10
-33.3555176679
 20
-12.7410822322
 30
0.0
 10
-33.3502447065
 20
-12.740935284
 30
0.0
 10
-33.3453136221
 20
-12.739061469
 30
0.0
 10
-33.338619599
 20
-12.7371653552
 30
0.0
 10
-33.3269605495
 20
-12.7335669752
 30
0.0
 10
-33.3036025902
 20
-12.7265702767
 30
0.0
 10
-33.2702586463
 20
-12.7164612134
 30
0.0
 10
-33.236892349
 20
-12.7064261993
 30
0.0
 10
-33.2135656844
 20
-12.6993258319
 30
0.0
 10
-33.2018636047
 20
-12.6958699967
 30
0.0
 10
-33.1952388771
 20
-12.6937443301
 30
0.0
 10
-33.1900948767
 20
-12.6925758343
 30
0.0
 10
-33.1856216076
 20
-12.6897797738
 30
0.0
 10
-33.1794233061
 20
-12.6866193645
 30
0.0
 10
-33.1686851178
 20
-12.680824576
 30
0.0
 10
-33.1471308699
 20
-12.6694235896
 30
0.0
 10
-33.1163846153
 20
-12.6530289586
 30
0.0
 10
-33.0856045745
 20
-12.636705138
 30
0.0
 10
-33.0640976272
 20
-12.6252050172
 30
0.0
 10
-33.0532944005
 20
-12.6195465387
 30
0.0
 10
-33.0472008361
 20
-12.6161666171
 30
0.0
 10
-33.042405754
 20
-12.6140450254
 30
0.0
 10
-33.0384704531
 20
-12.6103432885
 30
0.0
 10
-33.0329235026
 20
-12.6059587691
 30
0.0
 10
-33.0233558729
 20
-12.5980295057
 30
0.0
 10
-33.0041205931
 20
-12.5823537998
 30
0.0
 10
-32.9767016049
 20
-12.5598577805
 30
0.0
 10
-32.9492332001
 20
-12.5374221458
 30
0.0
 10
-32.9300671036
 20
-12.5216619016
 30
0.0
 10
-32.9204043469
 20
-12.5138488784
 30
0.0
 10
-32.915010588
 20
-12.5092771669
 30
0.0
 10
-32.9106045935
 20
-12.5061505928
 30
0.0
 10
-32.9075773919
 20
-12.5018687441
 30
0.0
 10
-32.9030602192
 20
-12.496562555
 30
0.0
 10
-32.8953788835
 20
-12.4870892899
 30
0.0
 10
-32.8798563575
 20
-12.4682765213
 30
0.0
 10
-32.8577731229
 20
-12.4413256613
 30
0.0
 10
-32.8356271635
 20
-12.4144219222
 30
0.0
 10
-32.8201924521
 20
-12.3955431845
 30
0.0
 10
-32.8123903714
 20
-12.3861606269
 30
0.0
 10
-32.8080676452
 20
-12.3807083632
 30
0.0
 10
-32.8044429907
 20
-12.3768753404
 30
0.0
 10
-32.802280973
 20
-12.3720630188
 30
0.0
 10
-32.7988881346
 20
-12.3659881537
 30
0.0
 10
-32.793187993
 20
-12.355198266
 30
0.0
 10
-32.7816180811
 20
-12.3337317656
 30
0.0
 10
-32.7651874507
 20
-12.3030022581
 30
0.0
 10
-32.7486886614
 20
-12.2723093026
 30
0.0
 10
-32.737214172
 20
-12.2507916293
 30
0.0
 10
-32.7313828244
 20
-12.2400721044
 30
0.0
 10
-32.7282012789
 20
-12.2338839278
 30
0.0
 10
-32.7253900468
 20
-12.2294197648
 30
0.0
 10
-32.7242037801
 20
-12.2242790908
 30
0.0
 10
-32.7220553256
 20
-12.2176608153
 30
0.0
 10
-32.71855919
 20
-12.2059690786
 30
0.0
 10
-32.7113785221
 20
-12.1826638874
 30
0.0
 10
-32.7012286261
 20
-12.1493269357
 30
0.0
 10
-32.6910047766
 20
-12.1160161606
 30
0.0
 10
-32.6839276436
 20
-12.0926743221
 30
0.0
 10
-32.6802891474
 20
-12.0810329754
 30
0.0
 10
-32.6783699488
 20
-12.0743335524
 30
0.0
 10
-32.6764792751
 20
-12.0694422105
 30
0.0
 10
-32.6763137292
 20
-12.0640415794
 30
0.0
 10
-32.6754912574
 20
-12.0570183837
 30
0.0
 10
-32.6743322954
 20
-12.0446450227
 30
0.0
 10
-32.6725300577
 20
-12.0270120651
 30
0.0
 10
-32.6704301143
 20
-12.0058339935
 30
0.0
 10
-32.6676082661
 20
-11.9776030369
 30
0.0
 10
-32.6640885282
 20
-11.9423121057
 30
0.0
 10
-32.6612704301
 20
-11.9140800421
 30
0.0
 10
-32.6598616695
 20
-11.8999639251
 30
0.0
  0
SPLINE
  5
6B7
100
AcDbEntity
  8
0
100
AcDbSpline
 62
250
  6
CONTINUOUS
 70
0
 71
3
 72
14
 73
10
 74
0
 42
0.0000001
 43
0.0000001
 44
0.0000000001
 40
0.0
 40
0.0
 40
0.0
 40
0.0
 40
0.1428571429
 40
0.2857142857
 40
0.4285714286
 40
0.5714285714
 40
0.7142857143
 40
0.8571428571
 40
1.0
 40
1.0
 40
1.0
 40
1.0
 10
-42.6337312197
 20
-12.5839235619
 30
0.0
 10
-42.6286978393
 20
-12.5484571914
 30
0.0
 10
-42.6184525981
 20
-12.4778010453
 30
0.0
 10
-42.5990832327
 20
-12.3732738219
 30
0.0
 10
-42.5724902011
 20
-12.2701815247
 30
0.0
 10
-42.5373392774
 20
-12.1688711523
 30
0.0
 10
-42.491853856
 20
-12.0703939056
 30
0.0
 10
-42.4344738714
 20
-11.9777228187
 30
0.0
 10
-42.3876486982
 20
-11.9222786285
 30
0.0
 10
-42.3616237336
 20
-11.896457109
 30
0.0
  0
SPLINE
  5
6B8
100
AcDbEntity
  8
0
100
AcDbSpline
 62
250
  6
CONTINUOUS
 70
0
 71
3
 72
19
 73
15
 74
0
 42
0.0000001
 43
0.0000001
 44
0.0000000001
 40
0.0
 40
0.0
 40
0.0
 40
0.0
 40
0.0833333333
 40
0.1666666667
 40
0.25
 40
0.3333333333
 40
0.4166666667
 40
0.5
 40
0.5833333333
 40
0.6666666667
 40
0.75
 40
0.8333333333
 40
0.9166666667
 40
1.0
 40
1.0
 40
1.0
 40
1.0
 10
-42.208440987
 20
-14.094211843
 30
0.0
 10
-42.2402027686
 20
-14.094211843
 30
0.0
 10
-42.2979370794
 20
-14.0781552579
 30
0.0
 10
-42.3661727987
 20
-14.0278863073
 30
0.0
 10
-42.4217661491
 20
-13.9644457979
 30
0.0
 10
-42.4695845999
 20
-13.890859689
 30
0.0
 10
-42.5102288437
 20
-13.8118869942
 30
0.0
 10
-42.5440856514
 20
-13.730819914
 30
0.0
 10
-42.5709326399
 20
-13.6483828284
 30
0.0
 10
-42.5920397361
 20
-13.5643200017
 30
0.0
 10
-42.6097815317
 20
-13.476079714
 30
0.0
 10
-42.625071817
 20
-13.3806730917
 30
0.0
 10
-42.637141382
 20
-13.2765395938
 30
0.0
 10
-42.6423750233
 20
-13.1981323599
 30
0.0
 10
-42.6438524756
 20
-13.1569273296
 30
0.0
  0
ELLIPSE
  5
6B9
100
AcDbEntity
  8
0
100
AcDbEllipse
 62
7
  6
CONTINUOUS
 10
-10.2963410273
 20
-22.3344902759
 30
0.0
 11
0.25
 21
-0.0
 31
0.0
 40
0.0524077793
 41
1.5707963268
 42
3.1357748894
  0
ELLIPSE
  5
6BA
100
AcDbEntity
  8
0
100
AcDbEllipse
 62
7
  6
CONTINUOUS
 10
-7.9108940636
 20
-22.3344902759
 30
0.0
 11
0.25
 21
0.0
 31
0.0
 40
0.0524077793
 41
0.0058177642
 42
1.5707963268
  0
ELLIPSE
  5
6BB
100
AcDbEntity
  8
0
100
AcDbEllipse
 62
7
  6
CONTINUOUS
 10
7.1036589727
 20
-22.3344902759
 30
0.0
 11
0.25
 21
0.0
 31
0.0
 40
0.0524077793
 41
1.5707963268
 42
3.1357748894
  0
ELLIPSE
  5
6BC
100
AcDbEntity
  8
0
100
AcDbEllipse
 62
7
  6
CONTINUOUS
 10
9.4891059364
 20
-22.3344902759
 30
0.0
 11
0.25
 21
-0.0
 31
0.0
 40
0.0524077793
 41
0.0058177642
 42
1.5707963268
  0
ELLIPSE
  5
6BD
100
AcDbEntity
  8
0
100
AcDbEllipse
 62
7
  6
CONTINUOUS
 10
0.7963824545
 20
22.3842776662
 30
0.0
 11
0.2
 21
-0.0
 31
0.0
 40
0.0524077793
 41
-3.1415926536
 42
-1.5707963268
  0
ELLIPSE
  5
6BE
100
AcDbEntity
  8
0
100
AcDbEllipse
 62
7
  6
CONTINUOUS
 10
-1.6036175455
 20
22.3842776662
 30
0.0
 11
0.2
 21
0.0
 31
0.0
 40
0.0524077793
 41
-1.5707963268
 42
0.0
  0
ELLIPSE
  5
6BF
100
AcDbEntity
  8
0
100
AcDbEllipse
 62
7
  6
CONTINUOUS
 10
0.7963824545
 20
-22.3842776662
 30
0.0
 11
0.2
 21
-0.0
 31
0.0
 40
0.0524077793
 41
1.5707963268
 42
3.1415926536
  0
ELLIPSE
  5
6C0
100
AcDbEntity
  8
0
100
AcDbEllipse
 62
7
  6
CONTINUOUS
 10
-1.6036175455
 20
-22.3842776662
 30
0.0
 11
0.2
 21
0.0
 31
0.0
 40
0.0524077793
 41
0.0
 42
1.5707963268
  0
ELLIPSE
  5
6C1
100
AcDbEntity
  8
0
100
AcDbEllipse
 62
7
  6
CONTINUOUS
 10
9.4891059364
 20
22.3344902759
 30
0.0
 11
0.25
 21
0.0
 31
0.0
 40
0.0524077793
 41
-1.5707963268
 42
-0.0058177642
  0
ELLIPSE
  5
6C2
100
AcDbEntity
  8
0
100
AcDbEllipse
 62
7
  6
CONTINUOUS
 10
-7.9108940636
 20
22.3344902759
 30
0.0
 11
0.25
 21
0.0
 31
0.0
 40
0.0524077793
 41
-1.5707963268
 42
-0.0058177642
  0
ELLIPSE
  5
6C3
100
AcDbEntity
  8
0
100
AcDbEllipse
 62
7
  6
CONTINUOUS
 10
-10.2963410273
 20
22.3344902759
 30
0.0
 11
0.25
 21
-0.0
 31
0.0
 40
0.0524077793
 41
-3.1357748894
 42
-1.5707963268
  0
ELLIPSE
  5
6C4
100
AcDbEntity
  8
0
100
AcDbEllipse
 62
7
  6
CONTINUOUS
 10
7.1036589727
 20
22.3344902759
 30
0.0
 11
0.25
 21
-0.0
 31
0.0
 40
0.0524077793
 41
-3.1357748894
 42
-1.5707963268
  0
ELLIPSE
  5
6C5
100
AcDbEntity
  8
0
100
AcDbEllipse
 62
7
  6
CONTINUOUS
 10
-41.5167361435
 20
22.0920818782
 30
0.0
 11
0.0
 21
0.5
 31
0.0
 40
1.0
 41
-3.1241393611
 42
-2.2371156432
  0
ELLIPSE
  5
6C6
100
AcDbEntity
  8
0
100
AcDbEllipse
 62
7
  6
CONTINUOUS
 10
-41.5167361435
 20
-22.0920818782
 30
0.0
 11
0.5
 21
-0.0
 31
0.0
 40
1.0
 41
0.6663193164
 42
1.5533430343
  0
ELLIPSE
  5
6C7
100
AcDbEntity
  8
0
100
AcDbEllipse
 62
7
  6
CONTINUOUS
 10
23.8316935325
 20
23.15
 30
0.0
 11
85.9426996401
 21
-0.0
 31
0.0
 40
0.0058178298
 41
2.5196231925
 42
2.6791261215
  0
ELLIPSE
  5
6C8
100
AcDbEntity
  8
0
100
AcDbEllipse
 62
7
  6
CONTINUOUS
 10
23.8316935325
 20
23.15
 30
0.0
 11
85.9426996401
 21
0.0
 31
0.0
 40
0.0058178298
 41
-2.6905658418
 42
-2.5196231925
  0
ELLIPSE
  5
6C9
100
AcDbEntity
  8
0
100
AcDbEllipse
 62
7
  6
CONTINUOUS
 10
23.8316935325
 20
-23.15
 30
0.0
 11
85.9426996401
 21
-0.0
 31
0.0
 40
0.0058178298
 41
2.5196231925
 42
2.6905658418
  0
ELLIPSE
  5
6CA
100
AcDbEntity
  8
0
100
AcDbEllipse
 62
7
  6
CONTINUOUS
 10
23.8316935325
 20
-23.15
 30
0.0
 11
85.9426996401
 21
-0.0
 31
0.0
 40
0.0058178298
 41
-2.6791261215
 42
-2.5196231925
  0
ELLIPSE
  5
6CB
100
AcDbEntity
  8
DRAFT
100
AcDbEllipse
 62
7
  6
CONTINUOUS
 10
-34.5167361435
 20
16.7498455727
 30
0.0
 11
2.7499844883
 21
-0.0184737782
 31
0.0
 40
0.4999830772
 41
1.5828817345
 42
2.8929905793
  0
ELLIPSE
  5
6CC
100
AcDbEntity
  8
DRAFT
100
AcDbEllipse
 62
7
  6
CONTINUOUS
 10
-33.5667361435
 20
16.3120464019
 30
0.0
 11
2.7583796809
 21
-0.0185301752
 31
0.0
 40
0.4999830772
 41
0.1610394621
 42
1.5741550882
  0
ELLIPSE
  5
6CD
100
AcDbEntity
  8
0
100
AcDbEllipse
 62
7
  6
CONTINUOUS
 10
-34.5278392553
 20
18.0790032964
 30
0.0
 11
3.3055359022
 21
-0.0222057643
 31
0.0
 40
0.4999802567
 41
2.0885246239
 42
4.7103798606
  0
ELLIPSE
  5
6CE
100
AcDbEntity
  8
DRAFT
100
AcDbEllipse
 62
7
  6
CONTINUOUS
 10
-33.5667361435
 20
16.7450591037
 30
0.0
 11
2.7583796809
 21
-0.0185301752
 31
0.0
 40
0.4999830772
 41
6.0422152274
 42
7.8573403954
  0
ELLIPSE
  5
6CF
100
AcDbEntity
  8
ASSI
100
AcDbEllipse
 62
7
  6
CONTINUOUS
 10
-33.5667361435
 20
16.3120464019
 30
0.0
 11
2.7583796809
 21
-0.0185301752
 31
0.0
 40
0.4999830772
 41
0.1610394621
 42
1.5741550882
  0
ELLIPSE
  5
6D0
100
AcDbEntity
  8
ASSI
100
AcDbEllipse
 62
7
  6
CONTINUOUS
 10
-34.5167361435
 20
16.7498455727
 30
0.0
 11
2.7499844883
 21
-0.0184737782
 31
0.0
 40
0.4999830772
 41
1.5828817345
 42
2.8929905793
  0
ELLIPSE
  5
6D1
100
AcDbEntity
  8
ASSI
100
AcDbEllipse
 62
7
  6
CONTINUOUS
 10
-34.5278392553
 20
18.0790032964
 30
0.0
 11
3.3055359022
 21
-0.0222057643
 31
0.0
 40
0.4999802567
 41
2.0885246239
 42
4.7103798606
  0
ELLIPSE
  5
6D2
100
AcDbEntity
  8
ASSI
100
AcDbEllipse
 62
7
  6
CONTINUOUS
 10
-33.5667361435
 20
16.7450591037
 30
0.0
 11
2.7583796809
 21
-0.0185301752
 31
0.0
 40
0.4999830772
 41
6.0422152274
 42
7.8573403954
  0
ELLIPSE
  5
6D3
100
AcDbEntity
  8
INCISIONI
100
AcDbEllipse
 62
250
  6
CONTINUOUS
 10
-47.5433882059
 20
-4.680795
 30
0.0
 11
-0.0
 21
0.352865
 31
0.0
 40
0.9996954135
 41
-1.5707963268
 42
1.5707963268
  0
ELLIPSE
  5
6D4
100
AcDbEntity
  8
0
100
AcDbEllipse
 62
250
  6
CONTINUOUS
 10
-40.0167241435
 20
-1.18459
 30
0.0
 11
0.0
 21
1.7850001745
 31
0.0
 40
1.0
 41
1.427448772
 42
2.9256321763
  0
ELLIPSE
  5
6D5
100
AcDbEntity
  8
0
100
AcDbEllipse
 62
250
  6
CONTINUOUS
 10
-40.0167241435
 20
-1.18459
 30
0.0
 11
-0.0
 21
1.7849997292
 31
0.0
 40
1.0
 41
-2.9256321216
 42
-1.427448736
  0
ELLIPSE
  5
6D6
100
AcDbEntity
  8
0
100
AcDbEllipse
 62
250
  6
CONTINUOUS
 10
-42.3129181435
 20
-11.710087
 30
0.0
 11
0.192582
 21
0.0
 31
0.0
 40
1.0
 41
0.0
 42
6.2831853072
  0
ELLIPSE
  5
6D7
100
AcDbEntity
  8
0
100
AcDbEllipse
 62
250
  6
CONTINUOUS
 10
-38.9673641435
 20
-12.1353
 30
0.0
 11
0.14051
 21
0.0
 31
0.0
 40
1.0
 41
0.0
 42
6.2831853072
  0
ELLIPSE
  5
6D8
100
AcDbEntity
  8
0
100
AcDbEllipse
 62
250
  6
CONTINUOUS
 10
-38.9673641435
 20
-12.1353
 30
0.0
 11
0.317592
 21
0.0
 31
0.0
 40
1.0
 41
0.0
 42
6.2831853072
  0
ELLIPSE
  5
6D9
100
AcDbEntity
  8
0
100
AcDbEllipse
 62
250
  6
CONTINUOUS
 10
-40.0167241435
 20
-5.51959
 30
0.0
 11
-0.0
 21
2.5500000352
 31
0.0
 40
1.0
 41
1.470628907
 42
4.8125564002
  0
ELLIPSE
  5
6DA
100
AcDbEntity
  8
0
100
AcDbEllipse
 62
250
  6
CONTINUOUS
 10
-40.0167241435
 20
-5.51959
 30
0.0
 11
1.7850001745
 21
-0.0
 31
0.0
 40
1.0
 41
2.9982450988
 42
6.426532862
  0
ELLIPSE
  5
6DB
100
AcDbEntity
  8
0
100
AcDbEllipse
 62
250
  6
CONTINUOUS
 10
-40.0167241435
 20
-1.18459
 30
0.0
 11
2.5500000352
 21
0.0
 31
0.0
 40
1.0
 41
3.0414252338
 42
6.383352727
  0
ENDSEC
  0
SECTION
  2
OBJECTS
  0
DICTIONARY
  5
C
100
AcDbDictionary
280
0
281
1
  3
ACAD_GROUP
350
D
  3
ACAD_MLINESTYLE
350
17
  3
ACAD_LAYOUT
350
1A
  3
ACAD_PLOTSETTINGS
350
19
  3
ACAD_PLOTSTYLENAME
350
E
  0
DICTIONARY
  5
D
102
{ACAD_REACTORS
330
C
102
}
100
AcDbDictionary
280
0
281
1
  0
ACDBDICTIONARYWDFLT
  5
E
102
{ACAD_REACTORS
330
C
102
}
100
AcDbDictionary
281
1
  3
Normal
350
F
100
AcDbDictionaryWithDefault
340
F
  0
DICTIONARY
  5
17
102
{ACAD_REACTORS
330
C
102
}
100
AcDbDictionary
280
0
281
1
  3
Standard
350
18
  0
DICTIONARY
  5
19
102
{ACAD_REACTORS
330
C
102
}
100
AcDbDictionary
281
1
  0
DICTIONARY
  5
1A
102
{ACAD_REACTORS
330
C
102
}
100
AcDbDictionary
281
1
  3
Model
350
6DC
  3
Layout1
350
6DD
  0
ACDBPLACEHOLDER
  5
F
102
{ACAD_REACTORS
330
E
102
}
  0
MLINESTYLE
  5
18
102
{ACAD_REACTORS
330
17
102
}
100
AcDbMlineStyle
  2
STANDARD
 70
0
  3

 62
256
 51
90.0
 52
90.0
 71
2
 49
0.5
 62
256
  6
BYLAYER
 49
-0.5
 62
256
  6
BYLAYER
  0
LAYOUT
  5
6DC
102
{ACAD_REACTORS
330
1A
102
}
100
AcDbPlotSettings
  1

  2
none_device
  4
ISO_A4_(297.00_x_210.00_MM)
  6

 40
0.0
 41
0.0
 42
0.0
 43
0.0
 44
297.0
 45
210.0
 46
0.0
 47
0.0
 48
0.0
 49
0.0
140
0.0
141
0.0
142
1.0
143
1.0
 70
1024
 72
1
 73
0
 74
0
  7

 75
0
147
1.0
148
0.0
149
0.0
100
AcDbLayout
  1
Model
 70
0
 71
0
 10
0.0
 20
0.0
 11
297.0
 21
210.0
 12
0.0
 22
0.0
 32
0.0
 14
0.0
 24
0.0
 34
0.0
 15
0.0
 25
0.0
 35
0.0
146
0.0
 13
0.0
 23
0.0
 33
0.0
 16
1.0
 26
0.0
 36
0.0
 17
0.0
 27
1.0
 37
0.0
 76
0
330
217
345
0
346
0
  0
LAYOUT
  5
6DD
102
{ACAD_REACTORS
330
1A
102
}
100
AcDbPlotSettings
  1

  2
none_device
  4
ISO_A4_(297.00_x_210.00_MM)
  6

 40
0.0
 41
0.0
 42
0.0
 43
0.0
 44
297.0
 45
210.0
 46
0.0
 47
0.0
 48
0.0
 49
0.0
140
0.0
141
0.0
142
1.0
143
1.0
 70
0
 72
1
 73
0
 74
0
  7

 75
0
147
1.0
148
0.0
149
0.0
100
AcDbLayout
  1
Layout1
 70
0
 71
1
 10
0.0
 20
0.0
 11
297.0
 21
210.0
 12
0.0
 22
0.0
 32
0.0
 14
0.0
 24
0.0
 34
0.0
 15
0.0
 25
0.0
 35
0.0
146
0.0
 13
0.0
 23
0.0
 33
0.0
 16
1.0
 26
0.0
 36
0.0
 17
0.0
 27
1.0
 37
0.0
 76
0
330
218
345
0
346
0
  0
ENDSEC
  0
EOF
