  0
SECTION
  2
HEADER
  9
$ACADVER
  1
AC1015
  9
$DWGCODEPAGE
  3
ANSI_1252
  9
$EXTMAX
 10
297.0
 20
210.0
 30
0.0
  9
$EXTMIN
 10
0.0
 20
0.0
 30
0.0
  9
$LIMMIN
 10
0.0
 20
0.0
  9
$LIMMAX
 10
297.0
 20
210.0
  9
$VIEWCTR
 10
148.5
 20
105.0
  9
$VIEWSIZE
 40
210.0
  9
$CLAYER
  8
0
  9
$LTSCALE
 40
16.335
  9
$CELTYPE
  6
BYLAYER
  9
$DIMSCALE
 40
1.0
  9
$DIMASZ
 40
3.0
  9
$DIMEXO
 40
0.5
  9
$DIMDLI
 40
11.286
  9
$DIMEXE
 40
1.5
  9
$DIMCEN
 40
2.673
  9
$DIMLFAC
 40
1.0
  9
$DIMBLK
  1
_FILLED
  9
$DIMTXT
 40
3.0
  9
$DIMTOL
 70
1
  9
$DIMLIM
 70
0
  9
$DIMTFAC
 40
1.0
  9
$DIMTP
 40
0.01
  9
$DIMTM
 40
0.01
  9
$DIMGAP
 40
0.625
  9
$DIMDSEP
 70
44
  9
$PDMODE
 70
3
  9
$PDSIZE
 40
3.0
  9
$HANDSEED
  5
769
  9
$TILEMODE
 70
1
  9
$MEASUREMENT
 70
1
  9
$INSUNITS
 70
4
  0
ENDSEC
  0
SECTION
  2
CLASSES
  0
CLASS
  1
ACDBDICTIONARYWDFLT
  2
AcDbDictionaryWithDefault
  3
AutoCAD 2000
 90
0
280
0
281
0
  0
CLASS
  1
ACDBPLACEHOLDER
  2
AcDbPlaceHolder
  3
AutoCAD 2000
 90
0
280
0
281
0
  0
CLASS
  1
LAYOUT
  2
AcDbLayout
  3
AutoCAD 2000
 90
0
280
0
281
0
  0
ENDSEC
  0
SECTION
  2
TABLES
  0
TABLE
  2
VPORT
  5
8
100
AcDbSymbolTable
 70
2
  0
VPORT
  5
1F4
100
AcDbSymbolTableRecord
100
AcDbViewportTableRecord
  2
*ACTIVE
 70
0
 10
0.0
 20
0.0
 11
1.0
 21
1.0
 12
148.5
 22
105.0
 13
0.0
 23
0.0
 14
1.0
 24
1.0
 15
0.0
 25
0.0
 16
0.0
 26
0.0
 36
1.0
 17
0.0
 27
0.0
 37
0.0
 40
210.0
 41
1.4142857143
 42
50.0
 43
0.0
 44
0.0
 50
0.0
 51
0.0
 71
0
 72
100
 73
1
 74
1
 75
0
 76
0
 77
0
 78
0
  0
ENDTAB
  0
TABLE
  2
LTYPE
  5
5
100
AcDbSymbolTable
 70
6
  0
LTYPE
  5
14
100
AcDbSymbolTableRecord
100
AcDbLinetypeTableRecord
  2
BYBLOCK
 70
0
  3

 72
65
 73
0
 40
0.0
  0
LTYPE
  5
15
100
AcDbSymbolTableRecord
100
AcDbLinetypeTableRecord
  2
BYLAYER
 70
0
  3

 72
65
 73
0
 40
0.0
  0
LTYPE
  5
16
100
AcDbSymbolTableRecord
100
AcDbLinetypeTableRecord
  2
CONTINUOUS
 70
64
  3
Solid line
 72
65
 73
0
 40
0.0
  0
LTYPE
  5
1F5
100
AcDbSymbolTableRecord
100
AcDbLinetypeTableRecord
  2
CENTER
 70
64
  3
____ _ ____ _ ____ _ ____ _ ____ _ ____ _ ____
 72
65
 73
4
 40
0.6
 49
0.375
 74
0
 49
-0.075
 74
0
 49
0.075
 74
0
 49
-0.075
 74
0
  0
LTYPE
  5
1F6
100
AcDbSymbolTableRecord
100
AcDbLinetypeTableRecord
  2
HIDDEN
 70
64
  3
- - - - - - - - - - - - - - - - - - - -
 72
65
 73
2
 40
0.2
 49
0.1
 74
0
 49
-0.1
 74
0
  0
LTYPE
  5
1F7
100
AcDbSymbolTableRecord
100
AcDbLinetypeTableRecord
  2
PHANTOM
 70
64
  3
_____ _ _ _____ _ _ _____ _ _ _____
 72
65
 73
6
 40
0.8
 49
0.45
 74
0
 49
-0.05
 74
0
 49
0.1
 74
0
 49
-0.05
 74
0
 49
0.1
 74
0
 49
-0.05
 74
0
  0
LTYPE
  5
1F8
100
AcDbSymbolTableRecord
100
AcDbLinetypeTableRecord
  2
DOT
 70
64
  3
. . . . . . . . . . . . . . . . . . . .
 72
65
 73
2
 40
0.2
 49
0.1
 74
0
 49
-0.1
 74
0
  0
LTYPE
  5
1F9
100
AcDbSymbolTableRecord
100
AcDbLinetypeTableRecord
  2
DASHED
 70
64
  3
- - - - - - - - - - - - - - - - - - - -
 72
65
 73
2
 40
0.2
 49
0.1
 74
0
 49
-0.1
 74
0
  0
ENDTAB
  0
TABLE
  2
LAYER
  5
2
100
AcDbSymbolTable
 70
36
  0
LAYER
  5
10
100
AcDbSymbolTableRecord
100
AcDbLayerTableRecord
  2
0
 70
0
 62
7
  6
CONTINUOUS
370
-3
390
F
  0
LAYER
  5
1FA
100
AcDbSymbolTableRecord
100
AcDbLayerTableRecord
  2
DEFAULT_1
 70
0
 62
7
  6
CENTER
370
-3
390
F
  0
LAYER
  5
1FB
100
AcDbSymbolTableRecord
100
AcDbLayerTableRecord
  2
DEFAULT_2
 70
0
 62
7
  6
HIDDEN
370
-3
390
F
  0
LAYER
  5
1FC
100
AcDbSymbolTableRecord
100
AcDbLayerTableRecord
  2
DEFAULT_3
 70
0
 62
7
  6
PHANTOM
370
-3
390
F
  0
LAYER
  5
1FD
100
AcDbSymbolTableRecord
100
AcDbLayerTableRecord
  2
ASSI
 70
0
 62
7
  6
CONTINUOUS
370
-3
390
F
  0
LAYER
  5
1FE
100
AcDbSymbolTableRecord
100
AcDbLayerTableRecord
  2
COORDINATE
 70
0
 62
7
  6
CONTINUOUS
370
-3
390
F
  0
LAYER
  5
1FF
100
AcDbSymbolTableRecord
100
AcDbLayerTableRecord
  2
COORD_ORIGINE
 70
0
 62
7
  6
CONTINUOUS
370
-3
390
F
  0
LAYER
  5
200
100
AcDbSymbolTableRecord
100
AcDbLayerTableRecord
  2
COSMETICHE
 70
0
 62
7
  6
CONTINUOUS
370
-3
390
F
  0
LAYER
  5
201
100
AcDbSymbolTableRecord
100
AcDbLayerTableRecord
  2
COSMETICI
 70
0
 62
7
  6
CONTINUOUS
370
-3
390
F
  0
LAYER
  5
202
100
AcDbSymbolTableRecord
100
AcDbLayerTableRecord
  2
CURVE
 70
0
 62
7
  6
CONTINUOUS
370
-3
390
F
  0
LAYER
  5
203
100
AcDbSymbolTableRecord
100
AcDbLayerTableRecord
  2
DRAFT
 70
0
 62
7
  6
CONTINUOUS
370
-3
390
F
  0
LAYER
  5
204
100
AcDbSymbolTableRecord
100
AcDbLayerTableRecord
  2
IMPORTED
 70
0
 62
7
  6
CONTINUOUS
370
-3
390
F
  0
LAYER
  5
205
100
AcDbSymbolTableRecord
100
AcDbLayerTableRecord
  2
INCISIONI
 70
0
 62
7
  6
CONTINUOUS
370
-3
390
F
  0
LAYER
  5
206
100
AcDbSymbolTableRecord
100
AcDbLayerTableRecord
  2
NOTE
 70
0
 62
7
  6
CONTINUOUS
370
-3
390
F
  0
LAYER
  5
207
100
AcDbSymbolTableRecord
100
AcDbLayerTableRecord
  2
PIANI
 70
0
 62
7
  6
CONTINUOUS
370
-3
390
F
  0
LAYER
  5
208
100
AcDbSymbolTableRecord
100
AcDbLayerTableRecord
  2
PIANI_ORIGINE
 70
0
 62
7
  6
CONTINUOUS
370
-3
390
F
  0
LAYER
  5
209
100
AcDbSymbolTableRecord
100
AcDbLayerTableRecord
  2
PIANI_RIFERIMENTO
 70
0
 62
7
  6
CONTINUOUS
370
-3
390
F
  0
LAYER
  5
20A
100
AcDbSymbolTableRecord
100
AcDbLayerTableRecord
  2
PIANI_SFORMO
 70
0
 62
7
  6
CONTINUOUS
370
-3
390
F
  0
LAYER
  5
20B
100
AcDbSymbolTableRecord
100
AcDbLayerTableRecord
  2
PUNTI
 70
0
 62
7
  6
CONTINUOUS
370
-3
390
F
  0
LAYER
  5
20C
100
AcDbSymbolTableRecord
100
AcDbLayerTableRecord
  2
RACCORDO
 70
0
 62
7
  6
CONTINUOUS
370
-3
390
F
  0
LAYER
  5
20D
100
AcDbSymbolTableRecord
100
AcDbLayerTableRecord
  2
SIMBOLI
 70
0
 62
7
  6
CONTINUOUS
370
-3
390
F
  0
LAYER
  5
20E
100
AcDbSymbolTableRecord
100
AcDbLayerTableRecord
  2
SMUSSO
 70
0
 62
7
  6
CONTINUOUS
370
-3
390
F
  0
LAYER
  5
20F
100
AcDbSymbolTableRecord
100
AcDbLayerTableRecord
  2
SNAPLINE
 70
0
 62
7
  6
CONTINUOUS
370
-3
390
F
  0
LAYER
  5
210
100
AcDbSymbolTableRecord
100
AcDbLayerTableRecord
  2
SUPERFICI
 70
0
 62
7
  6
CONTINUOUS
370
-3
390
F
  0
LAYER
  5
211
100
AcDbSymbolTableRecord
100
AcDbLayerTableRecord
  2
TRASH
 70
0
 62
7
  6
CONTINUOUS
370
-3
390
F
  0
LAYER
  5
212
100
AcDbSymbolTableRecord
100
AcDbLayerTableRecord
  2
XSEC_DATUMS
 70
0
 62
7
  6
CONTINUOUS
370
-3
390
F
  0
ENDTAB
  0
TABLE
  2
STYLE
  5
3
100
AcDbSymbolTable
 70
1
  0
STYLE
  5
11
100
AcDbSymbolTableRecord
100
AcDbTextStyleTableRecord
  2
STANDARD
 70
0
 40
0.0
 41
0.8
 50
0.0
 71
0
 42
0.2
  3
txt
  4

  0
STYLE
  5
213
100
AcDbSymbolTableRecord
100
AcDbTextStyleTableRecord
  2
TEXTSTYLE_1
 70
0
 40
0.0
 41
0.8
 50
0.0
 71
0
 42
0.2
  3
gdt
  4

  0
ENDTAB
  0
TABLE
  2
VIEW
  5
6
100
AcDbSymbolTable
 70
0
  0
ENDTAB
  0
TABLE
  2
UCS
  5
7
100
AcDbSymbolTable
 70
0
  0
ENDTAB
  0
TABLE
  2
APPID
  5
9
100
AcDbSymbolTable
 70
1
  0
APPID
  5
214
100
AcDbSymbolTableRecord
100
AcDbRegAppTableRecord
  2
ACAD
 70
0
  0
ENDTAB
  0
TABLE
  2
BLOCK_RECORD
  5
1
100
AcDbSymbolTable
 70
0
  0
BLOCK_RECORD
  5
215
100
AcDbSymbolTableRecord
100
AcDbBlockTableRecord
  2
*Model_Space
  0
BLOCK_RECORD
  5
216
100
AcDbSymbolTableRecord
100
AcDbBlockTableRecord
  2
*Paper_Space
  0
BLOCK_RECORD
  5
217
100
AcDbSymbolTableRecord
100
AcDbBlockTableRecord
  2
_FILLED
  0
BLOCK_RECORD
  5
218
100
AcDbSymbolTableRecord
100
AcDbBlockTableRecord
  2
*D0
  0
BLOCK_RECORD
  5
219
100
AcDbSymbolTableRecord
100
AcDbBlockTableRecord
  2
*D1
  0
BLOCK_RECORD
  5
21A
100
AcDbSymbolTableRecord
100
AcDbBlockTableRecord
  2
*D2
  0
BLOCK_RECORD
  5
21B
100
AcDbSymbolTableRecord
100
AcDbBlockTableRecord
  2
*D3
  0
ENDTAB
  0
TABLE
  2
DIMSTYLE
  5
A
100
AcDbSymbolTable
 70
1
100
AcDbDimStyleTable
 71
0
  0
DIMSTYLE
105
21C
100
AcDbSymbolTableRecord
100
AcDbDimStyleTableRecord
  2
STANDARD
 70
0
  3

  4

 40
1.0
 41
3.0
 42
0.5
 43
0.38
 44
1.5
 45
0.0
 46
0.0
 47
0.01
 48
0.01
140
3.0
141
0.09
142
0.0
143
25.4
144
1.0
145
0.0
146
1.0
147
0.625
 71
1.0
 72
0.0
 73
0
 74
0
 75
0
 76
0
 77
1
 78
8
170
0
171
2
172
0
173
0
174
0
175
0
176
0
177
0
178
0
270
2
271
2
272
2
273
2
274
2
275
0
280
0
281
0
282
0
283
1
284
8
285
0
286
0
287
3
288
0
340
11
278
44
341
217
342
217
343
217
344
217
  0
DIMSTYLE
105
21D
100
AcDbSymbolTableRecord
100
AcDbDimStyleTableRecord
  2
DIMSTYLE_1
 70
0
  3

  4

 40
1.0
 41
3.0
 42
0.5
 43
0.38
 44
1.5
 45
0.0
 46
0.0
 47
0.0
 48
0.0
140
3.0
141
0.09
142
0.0
143
25.4
144
1.0
145
0.0
146
1.0
147
0.75
 71
0.0
 72
0.0
 73
0
 74
0
 75
0
 76
0
 77
1
 78
8
170
0
171
2
172
0
173
0
174
0
175
0
176
0
177
0
178
0
270
2
271
2
272
2
273
2
274
2
275
0
280
0
281
0
282
0
283
1
284
8
285
0
286
0
287
3
288
0
340
11
278
44
341
217
342
217
343
217
344
217
  0
DIMSTYLE
105
21E
100
AcDbSymbolTableRecord
100
AcDbDimStyleTableRecord
  2
DIMSTYLE_2
 70
0
  3

  4

 40
1.0
 41
3.0
 42
0.5
 43
0.38
 44
1.5
 45
0.0
 46
0.0
 47
0.0
 48
0.0
140
3.0
141
0.09
142
0.0
143
25.4
144
1.0
145
0.0
146
1.0
147
0.75
 71
0.0
 72
0.0
 73
0
 74
0
 75
0
 76
0
 77
1
 78
8
170
0
171
2
172
0
173
0
174
0
175
0
176
0
177
0
178
0
270
2
271
1
272
1
273
2
274
2
275
0
280
0
281
0
282
0
283
1
284
8
285
0
286
0
287
3
288
0
340
11
278
44
341
217
342
217
343
217
344
217
  0
ENDTAB
  0
ENDSEC
  0
SECTION
  2
BLOCKS
  0
BLOCK
  5
20
100
AcDbEntity
  8
0
100
AcDbBlockBegin
  2
*Model_Space
 70
0
 10
0.0
 20
0.0
 30
0.0
  3
*Model_Space
  1

  0
ENDBLK
  5
21
100
AcDbEntity
  8
0
100
AcDbBlockEnd
  0
BLOCK
  5
1C
100
AcDbEntity
  8
0
100
AcDbBlockBegin
  2
*Paper_Space
 70
0
 10
0.0
 20
0.0
 30
0.0
  3
*Paper_Space
  1

  0
ENDBLK
  5
1D
100
AcDbEntity
  8
0
100
AcDbBlockEnd
  0
BLOCK
  5
21F
100
AcDbEntity
  8
0
100
AcDbBlockBegin
  2
_FILLED
 70
64
 10
0.0
 20
0.0
  3
_FILLED
  1

  0
SOLID
  5
220
100
AcDbEntity
  8
0
  6
BYBLOCK
 62
0
100
AcDbTrace
 10
0.0
 20
0.0
 11
-1.0
 21
0.3166666667
 12
-1.0
 22
-0.3166666667
 13
-1.0
 23
-0.3166666667
  0
ENDBLK
  5
221
100
AcDbEntity
  8
0
  6
BYBLOCK
 62
0
100
AcDbBlockEnd
  0
BLOCK
  5
222
100
AcDbEntity
  8
0
100
AcDbBlockBegin
 62
7
  6
CONTINUOUS
  2
*D0
 70
65
 10
0.0
 20
0.0
  3
*D0
  1

  0
MTEXT
  5
223
100
AcDbEntity
  8
0
100
AcDbMText
 62
7
  6
CONTINUOUS
  7
STANDARD
 71
2
 72
1
 10
116.2178944633
 20
145.8070790816
 30
0.0
 11
1.0
 21
0.0
 31
0.0
 44
0.9
  1
27,5
 40
3.0
 41
8.5714285714
  0
LINE
  5
224
100
AcDbEntity
  8
0
100
AcDbLine
 62
7
  6
CONTINUOUS
 10
129.9678944633
 20
123.357200866
 11
129.9678944633
 21
143.5570790816
  0
LINE
  5
225
100
AcDbEntity
  8
0
100
AcDbLine
 62
7
  6
CONTINUOUS
 10
102.4678944633
 20
132.3027114784
 11
102.4678944633
 21
143.5570790816
  0
LINE
  5
226
100
AcDbEntity
  8
0
100
AcDbLine
 62
7
  6
CONTINUOUS
 10
129.9678944633
 20
142.0570790816
 11
116.2178944633
 21
142.0570790816
  0
LINE
  5
227
100
AcDbEntity
  8
0
100
AcDbLine
 62
7
  6
CONTINUOUS
 10
102.4678944633
 20
142.0570790816
 11
116.2178944633
 21
142.0570790816
  0
INSERT
  5
228
100
AcDbEntity
  8
0
100
AcDbBlockReference
 62
7
  6
CONTINUOUS
  2
_FILLED
 10
129.9678944633
 20
142.0570790816
 41
3.0
 42
3.0
 43
3.0
  0
INSERT
  5
229
100
AcDbEntity
  8
0
100
AcDbBlockReference
 62
7
  6
CONTINUOUS
  2
_FILLED
 10
102.4678944633
 20
142.0570790816
 41
3.0
 42
3.0
 43
3.0
 50
180.0
  0
ENDBLK
  5
22A
100
AcDbEntity
  8
0
  6
BYBLOCK
 62
0
100
AcDbBlockEnd
  0
BLOCK
  5
22B
100
AcDbEntity
  8
0
100
AcDbBlockBegin
 62
7
  6
CONTINUOUS
  2
*D1
 70
65
 10
0.0
 20
0.0
  3
*D1
  1

  0
MTEXT
  5
22C
100
AcDbEntity
  8
0
100
AcDbMText
 62
7
  6
CONTINUOUS
  7
STANDARD
 71
2
 72
1
 10
111.4678944633
 20
153.8070790816
 30
0.0
 11
1.0
 21
0.0
 31
0.0
 44
0.9
  1
37
 40
3.0
 41
4.5
  0
LINE
  5
22D
100
AcDbEntity
  8
0
100
AcDbLine
 62
7
  6
CONTINUOUS
 10
129.9678944633
 20
123.357200866
 11
129.9678944633
 21
151.5570790816
  0
LINE
  5
22E
100
AcDbEntity
  8
0
100
AcDbLine
 62
7
  6
CONTINUOUS
 10
92.9678944633
 20
108.0570790816
 11
92.9678944633
 21
151.5570790816
  0
LINE
  5
22F
100
AcDbEntity
  8
0
100
AcDbLine
 62
7
  6
CONTINUOUS
 10
129.9678944633
 20
150.0570790816
 11
111.4678944633
 21
150.0570790816
  0
LINE
  5
230
100
AcDbEntity
  8
0
100
AcDbLine
 62
7
  6
CONTINUOUS
 10
92.9678944633
 20
150.0570790816
 11
111.4678944633
 21
150.0570790816
  0
INSERT
  5
231
100
AcDbEntity
  8
0
100
AcDbBlockReference
 62
7
  6
CONTINUOUS
  2
_FILLED
 10
129.9678944633
 20
150.0570790816
 41
3.0
 42
3.0
 43
3.0
  0
INSERT
  5
232
100
AcDbEntity
  8
0
100
AcDbBlockReference
 62
7
  6
CONTINUOUS
  2
_FILLED
 10
92.9678944633
 20
150.0570790816
 41
3.0
 42
3.0
 43
3.0
 50
180.0
  0
ENDBLK
  5
233
100
AcDbEntity
  8
0
  6
BYBLOCK
 62
0
100
AcDbBlockEnd
  0
BLOCK
  5
234
100
AcDbEntity
  8
0
100
AcDbBlockBegin
 62
7
  6
CONTINUOUS
  2
*D2
 70
65
 10
0.0
 20
0.0
  3
*D2
  1

  0
MTEXT
  5
235
100
AcDbEntity
  8
0
100
AcDbMText
 62
7
  6
CONTINUOUS
  7
STANDARD
 71
2
 72
1
 10
152.1877089851
 20
145.8070790816
 30
0.0
 11
1.0
 21
0.0
 31
0.0
 44
0.9
  1
22,4
 40
3.0
 41
8.7857142857
  0
LINE
  5
236
100
AcDbEntity
  8
0
100
AcDbLine
 62
7
  6
CONTINUOUS
 10
163.3804738942
 20
126.1162616299
 11
163.3804738942
 21
143.5570790816
  0
LINE
  5
237
100
AcDbEntity
  8
0
100
AcDbLine
 62
7
  6
CONTINUOUS
 10
140.9949440761
 20
126.1162616299
 11
140.9949440761
 21
143.5570790816
  0
LINE
  5
238
100
AcDbEntity
  8
0
100
AcDbLine
 62
7
  6
CONTINUOUS
 10
163.3804738942
 20
142.0570790816
 11
152.1877089851
 21
142.0570790816
  0
LINE
  5
239
100
AcDbEntity
  8
0
100
AcDbLine
 62
7
  6
CONTINUOUS
 10
140.9949440761
 20
142.0570790816
 11
152.1877089851
 21
142.0570790816
  0
INSERT
  5
23A
100
AcDbEntity
  8
0
100
AcDbBlockReference
 62
7
  6
CONTINUOUS
  2
_FILLED
 10
163.3804738942
 20
142.0570790816
 41
3.0
 42
3.0
 43
3.0
  0
INSERT
  5
23B
100
AcDbEntity
  8
0
100
AcDbBlockReference
 62
7
  6
CONTINUOUS
  2
_FILLED
 10
140.9949440761
 20
142.0570790816
 41
3.0
 42
3.0
 43
3.0
 50
180.0
  0
ENDBLK
  5
23C
100
AcDbEntity
  8
0
  6
BYBLOCK
 62
0
100
AcDbBlockEnd
  0
BLOCK
  5
23D
100
AcDbEntity
  8
0
100
AcDbBlockBegin
 62
7
  6
CONTINUOUS
  2
*D3
 70
65
 10
0.0
 20
0.0
  3
*D3
  1

  0
MTEXT
  5
23E
100
AcDbEntity
  8
0
100
AcDbMText
 62
7
  6
CONTINUOUS
  7
STANDARD
 71
2
 72
1
 10
170.4377089851
 20
109.31499568
 30
0.0
 11
0.0
 21
1.0
 31
0.0
 44
0.9
  1
49
 40
3.0
 41
4.7142857143
  0
LINE
  5
23F
100
AcDbEntity
  8
0
100
AcDbLine
 62
7
  6
CONTINUOUS
 10
162.5877132159
 20
132.0570790816
 11
175.6877089851
 21
132.0570790816
  0
LINE
  5
240
100
AcDbEntity
  8
0
100
AcDbLine
 62
7
  6
CONTINUOUS
 10
162.5877132159
 20
83.0570790816
 11
175.6877089851
 21
83.0570790816
  0
LINE
  5
241
100
AcDbEntity
  8
0
100
AcDbLine
 62
7
  6
CONTINUOUS
 10
174.1877089851
 20
132.0570790816
 11
174.1877089851
 21
107.5570790816
  0
LINE
  5
242
100
AcDbEntity
  8
0
100
AcDbLine
 62
7
  6
CONTINUOUS
 10
174.1877089851
 20
83.0570790816
 11
174.1877089851
 21
107.5570790816
  0
INSERT
  5
243
100
AcDbEntity
  8
0
100
AcDbBlockReference
 62
7
  6
CONTINUOUS
  2
_FILLED
 10
174.1877089851
 20
132.0570790816
 41
3.0
 42
3.0
 43
3.0
 50
90.0
  0
INSERT
  5
244
100
AcDbEntity
  8
0
100
AcDbBlockReference
 62
7
  6
CONTINUOUS
  2
_FILLED
 10
174.1877089851
 20
83.0570790816
 41
3.0
 42
3.0
 43
3.0
 50
270.0
  0
ENDBLK
  5
245
100
AcDbEntity
  8
0
  6
BYBLOCK
 62
0
100
AcDbBlockEnd
  0
ENDSEC
  0
SECTION
  2
ENTITIES
  0
DIMENSION
  5
246
100
AcDbEntity
  8
0
100
AcDbDimension
 62
7
  6
CONTINUOUS
  2
*D0
 10
102.4678944633
 20
142.0570790816
 11
116.2178944633
 21
142.0570790816
 70
160
 71
2
 42
27.5
  3
DIMSTYLE_1
100
AcDbAlignedDimension
 13
129.9678944633
 23
122.857200866
 14
102.4678944633
 24
131.8027114784
 50
180.0
100
AcDbRotatedDimension
  0
DIMENSION
  5
247
100
AcDbEntity
  8
0
100
AcDbDimension
 62
7
  6
CONTINUOUS
  2
*D1
 10
92.9678944633
 20
150.0570790816
 11
111.4678944633
 21
150.0570790816
 70
160
 71
2
 42
37.0
  3
DIMSTYLE_1
100
AcDbAlignedDimension
 13
129.9678944633
 23
122.857200866
 14
92.9678944633
 24
107.5570790816
 50
180.0
100
AcDbRotatedDimension
  0
DIMENSION
  5
248
100
AcDbEntity
  8
0
100
AcDbDimension
 62
7
  6
CONTINUOUS
  2
*D2
 10
140.9949440761
 20
142.0570790816
 11
152.1877089851
 21
142.0570790816
 70
160
 71
2
 42
22.3855298181
  3
DIMSTYLE_2
100
AcDbAlignedDimension
 13
163.3804738942
 23
125.6162616299
 14
140.9949440761
 24
125.6162616299
 50
180.0
100
AcDbRotatedDimension
  0
DIMENSION
  5
249
100
AcDbEntity
  8
0
100
AcDbDimension
 62
7
  6
CONTINUOUS
  2
*D3
 10
174.1877089851
 20
83.0570790816
 11
174.1877089851
 21
109.31499568
 70
160
 71
2
 42
49.0
  3
DIMSTYLE_1
100
AcDbAlignedDimension
 13
162.0877132159
 23
132.0570790816
 14
162.0877132159
 24
83.0570790816
 50
270.0
100
AcDbRotatedDimension
  0
LWPOLYLINE
  5
24A
100
AcDbEntity
  8
0
100
AcDbPolyline
 62
7
  6
CONTINUOUS
 90
4
 70
0
 10
162.1232913513
 20
83.0596236075
 10
162.1114768407
 20
83.0582110474
 10
162.0996085012
 20
83.0573622319
 10
162.0877132159
 20
83.0570790816
  0
LWPOLYLINE
  5
24B
100
AcDbEntity
  8
0
100
AcDbPolyline
 62
7
  6
CONTINUOUS
 90
28
 70
0
 10
142.252126619
 20
83.0596236075
 10
142.2403926977
 20
83.0615967139
 10
142.2287659463
 20
83.0641258999
 10
142.2172727061
 20
83.0672054399
 10
142.2059390114
 20
83.0708283603
 10
142.1947905359
 20
83.0749864559
 10
142.1838525388
 20
83.0796703095
 10
142.1731497976
 20
83.0848693128
 10
142.1627065569
 20
83.09057169
 10
142.1525464792
 20
83.0967645235
 10
142.14269258
 20
83.1034337862
 10
142.1331671813
 20
83.1105643709
 10
142.1239918661
 20
83.1181401228
 10
142.1151874191
 20
83.1261438811
 10
142.1067737847
 20
83.1345575155
 10
142.0987700263
 20
83.1433619626
 10
142.0911942744
 20
83.1525372778
 10
142.0840636897
 20
83.1620626765
 10
142.077394427
 20
83.1719165757
 10
142.0712015935
 20
83.1820766534
 10
142.0654992163
 20
83.192519894
 10
142.060300213
 20
83.2032226353
 10
142.0556163594
 20
83.2141606323
 10
142.0514582638
 20
83.2253091079
 10
142.0478353434
 20
83.2366428026
 10
142.0447558034
 20
83.2481360428
 10
142.0422266174
 20
83.2597627942
 10
142.040253511
 20
83.2714967155
  0
LWPOLYLINE
  5
24C
100
AcDbEntity
  8
0
100
AcDbPolyline
 62
7
  6
CONTINUOUS
 90
4
 70
0
 10
144.7232913513
 20
83.0596236075
 10
144.7114768407
 20
83.0582110474
 10
144.6996085012
 20
83.0573622319
 10
144.6877132159
 20
83.0570790816
  0
LWPOLYLINE
  5
24D
100
AcDbEntity
  8
0
100
AcDbPolyline
 62
7
  6
CONTINUOUS
 90
33
 70
0
 10
150.9877089851
 20
83.5588311999
 10
150.9972267541
 20
83.5590577942
 10
151.0067229704
 20
83.5597370652
 10
151.0161761157
 20
83.5608674756
 10
151.0255647752
 20
83.5624464673
 10
151.0348676674
 20
83.5644704637
 10
151.0440636932
 20
83.566934875
 10
151.0531320094
 20
83.5698341145
 10
151.0620520726
 20
83.5731616132
 10
151.0708036678
 20
83.5769098294
 10
151.0793669661
 20
83.5810702696
 10
151.0877225617
 20
83.5856335047
 10
151.0958515143
 20
83.590589189
 10
151.1037354028
 20
83.5959260896
 10
151.1113563659
 20
83.6016321129
 10
151.1186971354
 20
83.6076943267
 10
151.125741084
 20
83.6140989974
 10
151.1324722462
 20
83.6208316063
 10
151.1388753569
 20
83.6278768792
 10
151.1449358935
 20
83.6352188264
 10
151.1506401471
 20
83.6428408285
 10
151.1559752308
 20
83.6507256643
 10
151.1609290961
 20
83.6588555448
 10
151.1654904647
 20
83.6672119791
 10
151.1696489153
 20
83.6757758534
 10
151.1733950013
 20
83.6845276365
 10
151.1767203149
 20
83.6934476001
 10
151.1796173952
 20
83.7025156954
 10
151.182080036
 20
83.7117128551
 10
151.1841021586
 20
83.721016798
 10
151.1856785565
 20
83.7304020971
 10
151.1868061381
 20
83.7398459426
 10
151.18748325
 20
83.7493283384
  0
LWPOLYLINE
  5
24E
100
AcDbEntity
  8
0
100
AcDbPolyline
 62
7
  6
CONTINUOUS
 90
36
 70
0
 10
150.9877089851
 20
83.5570790816
 10
150.996432961
 20
83.5572694449
 10
151.0051403245
 20
83.5578401717
 10
151.0138145002
 20
83.5587901747
 10
151.0224389761
 20
83.5601176451
 10
151.030997335
 20
83.5618200552
 10
151.0394732853
 20
83.5638941633
 10
151.0478506928
 20
83.5663360208
 10
151.0561136103
 20
83.5691409788
 10
151.0642463089
 20
83.5723036968
 10
151.0722333078
 20
83.5758181539
 10
151.0800594031
 20
83.5796776595
 10
151.0877096975
 20
83.5838748656
 10
151.0951696285
 20
83.5884017822
 10
151.1024249959
 20
83.5932497916
 10
151.1094619888
 20
83.5984096638
 10
151.1162672123
 20
83.6038715765
 10
151.1228277127
 20
83.6096251323
 10
151.1291310021
 20
83.6156593774
 10
151.1351650822
 20
83.6219628253
 10
151.1409184676
 20
83.6285234766
 10
151.1463802069
 20
83.6353288416
 10
151.1515399039
 20
83.6423659657
 10
151.1563877376
 20
83.6496214535
 10
151.1609144807
 20
83.6570814924
 10
151.1651115169
 20
83.664731882
 10
151.1689708578
 20
83.6725580597
 10
151.1724851577
 20
83.6805451269
 10
151.1756477278
 20
83.6886778802
 10
151.1784525487
 20
83.6969408389
 10
151.1808942822
 20
83.7053182733
 10
151.1829682811
 20
83.713794237
 10
151.184670598
 20
83.7223525962
 10
151.1859979934
 20
83.7309770594
 10
151.1869479412
 20
83.7396512098
 10
151.1875186337
 20
83.7483585367
  0
LINE
  5
24F
100
AcDbEntity
  8
0
100
AcDbLine
 62
7
  6
CONTINUOUS
 10
142.2877047544
 20
83.0570790816
 11
144.6877132159
 21
83.0570790816
  0
LINE
  5
250
100
AcDbEntity
  8
0
100
AcDbLine
 62
7
  6
CONTINUOUS
 10
159.6877047544
 20
83.0570790816
 11
162.0877132159
 21
83.0570790816
  0
LINE
  5
251
100
AcDbEntity
  8
0
100
AcDbLine
 62
7
  6
CONTINUOUS
 10
142.3008033331
 20
83.0701776604
 11
144.6746146372
 21
83.0701776604
  0
LINE
  5
252
100
AcDbEntity
  8
0
100
AcDbLine
 62
7
  6
CONTINUOUS
 10
159.7008033331
 20
83.0701776604
 11
162.0746146372
 21
83.0701776604
  0
LINE
  5
253
100
AcDbEntity
  8
0
100
AcDbLine
 62
253
  6
CONTINUOUS
 10
142.0508075639
 20
83.3201734296
 11
144.9246104064
 21
83.3201734296
  0
LINE
  5
254
100
AcDbEntity
  8
0
100
AcDbLine
 62
253
  6
CONTINUOUS
 10
159.4508075639
 20
83.3201734296
 11
162.3246104064
 21
83.3201734296
  0
LINE
  5
255
100
AcDbEntity
  8
0
100
AcDbLine
 62
7
  6
CONTINUOUS
 10
156.6377089851
 20
83.5570790816
 11
155.6877089851
 21
83.5570790816
  0
LINE
  5
256
100
AcDbEntity
  8
0
100
AcDbLine
 62
7
  6
CONTINUOUS
 10
148.6877089851
 20
83.5570790816
 11
147.7377089851
 21
83.5570790816
  0
LINE
  5
257
100
AcDbEntity
  8
0
100
AcDbLine
 62
7
  6
CONTINUOUS
 10
148.6877089851
 20
83.5588311999
 11
150.9877089851
 21
83.5588311999
  0
LINE
  5
258
100
AcDbEntity
  8
0
100
AcDbLine
 62
7
  6
CONTINUOUS
 10
153.3877089851
 20
83.5588311999
 11
155.6877089851
 21
83.5588311999
  0
LINE
  5
259
100
AcDbEntity
  8
0
100
AcDbLine
 62
7
  6
CONTINUOUS
 10
156.6289822404
 20
83.5658058263
 11
155.6877089851
 21
83.5658058263
  0
LINE
  5
25A
100
AcDbEntity
  8
0
100
AcDbLine
 62
7
  6
CONTINUOUS
 10
148.6877089851
 20
83.5658058263
 11
147.7464357299
 21
83.5658058263
  0
LINE
  5
25B
100
AcDbEntity
  8
0
100
AcDbLine
 62
253
  6
CONTINUOUS
 10
142.0508075639
 20
83.7127415143
 11
144.9246104064
 21
83.7127415143
  0
LINE
  5
25C
100
AcDbEntity
  8
0
100
AcDbLine
 62
253
  6
CONTINUOUS
 10
159.4508075639
 20
83.7127415143
 11
162.3246104064
 21
83.7127415143
  0
LINE
  5
25D
100
AcDbEntity
  8
0
100
AcDbLine
 62
253
  6
CONTINUOUS
 10
148.6877089851
 20
83.7588278153
 11
151.1877089851
 21
83.7588278153
  0
LINE
  5
25E
100
AcDbEntity
  8
0
100
AcDbLine
 62
253
  6
CONTINUOUS
 10
153.1877089851
 20
83.7588278153
 11
155.6877089851
 21
83.7588278153
  0
LINE
  5
25F
100
AcDbEntity
  8
0
100
AcDbLine
 62
253
  6
CONTINUOUS
 10
162.0746146372
 20
83.9292478653
 11
159.7008033331
 21
83.9292478653
  0
LINE
  5
260
100
AcDbEntity
  8
0
100
AcDbLine
 62
253
  6
CONTINUOUS
 10
144.6746146372
 20
83.9292478653
 11
142.3008033331
 21
83.9292478653
  0
LWPOLYLINE
  5
261
100
AcDbEntity
  8
0
100
AcDbPolyline
 62
7
  6
CONTINUOUS
 90
37
 70
0
 10
153.3877089851
 20
83.5570790816
 10
153.3789850093
 20
83.5572694449
 10
153.3702776458
 20
83.5578401717
 10
153.3616034701
 20
83.5587901747
 10
153.3529789942
 20
83.5601176451
 10
153.3444206353
 20
83.5618200552
 10
153.335944685
 20
83.5638941633
 10
153.3275672775
 20
83.5663360208
 10
153.31930436
 20
83.5691409788
 10
153.3111716614
 20
83.5723036968
 10
153.3031846625
 20
83.5758181539
 10
153.2953585672
 20
83.5796776595
 10
153.2877082728
 20
83.5838748656
 10
153.2802483418
 20
83.5884017822
 10
153.2729929744
 20
83.5932497916
 10
153.2659559815
 20
83.5984096638
 10
153.259150758
 20
83.6038715765
 10
153.2525902576
 20
83.6096251323
 10
153.2462869682
 20
83.6156593774
 10
153.2402528881
 20
83.6219628253
 10
153.2344995027
 20
83.6285234766
 10
153.2290377634
 20
83.6353288416
 10
153.2238780664
 20
83.6423659657
 10
153.2190302327
 20
83.6496214535
 10
153.2145034896
 20
83.6570814924
 10
153.2103064534
 20
83.664731882
 10
153.2064471125
 20
83.6725580597
 10
153.2029328126
 20
83.6805451269
 10
153.1997702425
 20
83.6886778802
 10
153.1969654216
 20
83.6969408389
 10
153.1945236881
 20
83.7053182733
 10
153.1924496892
 20
83.713794237
 10
153.1907473723
 20
83.7223525962
 10
153.1894199769
 20
83.7309770594
 10
153.1884700291
 20
83.7396512098
 10
153.1878993366
 20
83.7483585367
 10
153.1877089851
 20
83.7570824663
  0
LWPOLYLINE
  5
262
100
AcDbEntity
  8
0
100
AcDbPolyline
 62
7
  6
CONTINUOUS
 90
4
 70
0
 10
142.2877047544
 20
83.0570790816
 10
142.2758094691
 20
83.0573622319
 10
142.2639411296
 20
83.0582110474
 10
142.252126619
 20
83.0596236075
  0
LWPOLYLINE
  5
263
100
AcDbEntity
  8
0
100
AcDbPolyline
 62
7
  6
CONTINUOUS
 90
34
 70
0
 10
142.3008033331
 20
83.0701776604
 10
142.2889083115
 20
83.0704612112
 10
142.2770402349
 20
83.0713104161
 10
142.265225987
 20
83.0727233515
 10
142.2534923297
 20
83.0746968168
 10
142.2418658425
 20
83.0772263416
 10
142.2303728619
 20
83.0803061959
 10
142.2190394221
 20
83.0839294033
 10
142.2078911958
 20
83.0880877564
 10
142.1969534364
 20
83.0927718355
 10
142.1862509203
 20
83.0979710301
 10
142.175807891
 20
83.103673563
 10
142.1656480044
 20
83.1098665165
 10
142.1557942749
 20
83.1165358624
 10
142.1462690234
 20
83.1236664929
 10
142.1370938268
 20
83.1312422557
 10
142.1282894688
 20
83.1392459899
 10
142.1198758934
 20
83.1476595653
 10
142.1118721592
 20
83.1564639232
 10
142.1042963964
 20
83.1656391199
 10
142.0971657659
 20
83.1751643714
 10
142.09049642
 20
83.1850181009
 10
142.0843034665
 20
83.1951779875
 10
142.0786009336
 20
83.2056210167
 10
142.073401739
 20
83.2163235329
 10
142.0687176599
 20
83.2272612923
 10
142.0645593069
 20
83.2384095186
 10
142.0609360995
 20
83.2497429584
 10
142.0578562451
 20
83.261235939
 10
142.0553267203
 20
83.2728624262
 10
142.053353255
 20
83.2845960835
 10
142.0519403196
 20
83.2964103314
 10
142.0510911147
 20
83.308278408
 10
142.0508075639
 20
83.3201734296
  0
LWPOLYLINE
  5
264
100
AcDbEntity
  8
0
100
AcDbPolyline
 62
7
  6
CONTINUOUS
 90
4
 70
0
 10
159.6877047544
 20
83.0570790816
 10
159.6758094691
 20
83.0573622319
 10
159.6639411296
 20
83.0582110474
 10
159.652126619
 20
83.0596236075
  0
LWPOLYLINE
  5
265
100
AcDbEntity
  8
0
100
AcDbPolyline
 62
7
  6
CONTINUOUS
 90
34
 70
0
 10
159.7008033331
 20
83.0701776604
 10
159.6889278615
 20
83.07046028
 10
159.677074119
 20
83.0713071818
 10
159.6652689435
 20
83.0727171778
 10
159.6535374488
 20
83.0746881237
 10
159.6419080136
 20
83.0772161136
 10
159.630412048
 20
83.0802946923
 10
159.6190772829
 20
83.083916302
 10
159.6079276709
 20
83.0880731564
 10
159.5969882697
 20
83.0927559301
 10
159.5862837349
 20
83.0979541154
 10
159.5758384815
 20
83.1036559039
 10
159.5656764059
 20
83.1098482663
 10
159.5558206212
 20
83.1165171035
 10
159.5462933597
 20
83.1236473568
 10
159.5371161465
 20
83.1312229177
 10
159.5283097549
 20
83.1392266493
 10
159.5198941686
 20
83.1476404009
 10
159.5118884745
 20
83.1564450964
 10
159.504310818
 20
83.1656207834
 10
159.4971783669
 20
83.1751466777
 10
159.4905072868
 20
83.1850011938
 10
159.4843126945
 20
83.1951620059
 10
159.4786086293
 20
83.2056060911
 10
159.4734080216
 20
83.2163097776
 10
159.4687226573
 20
83.2272488111
 10
159.464563153
 20
83.2383984074
 10
159.4609389359
 20
83.2497333
 10
159.4578582173
 20
83.261227811
 10
159.4553279803
 20
83.2728558903
 10
159.4533539617
 20
83.2845911701
 10
159.4519406328
 20
83.2964070524
 10
159.4510911927
 20
83.3082767706
 10
159.4508075639
 20
83.3201734296
  0
LWPOLYLINE
  5
266
100
AcDbEntity
  8
0
100
AcDbPolyline
 62
253
  6
CONTINUOUS
 90
33
 70
0
 10
153.3877089851
 20
83.5588311999
 10
153.378192602
 20
83.5590577282
 10
153.3686977765
 20
83.5597368
 10
153.3592460175
 20
83.5608668771
 10
153.3498587363
 20
83.5624453993
 10
153.340557198
 20
83.5644687908
 10
153.3313624738
 20
83.5669324681
 10
153.3222953925
 20
83.56983085
 10
153.313376494
 20
83.5731573708
 10
153.3046259825
 20
83.576904495
 10
153.2960636808
 20
83.5810637339
 10
153.2877089851
 20
83.5856256657
 10
153.2795808217
 20
83.590579956
 10
153.2716976032
 20
83.5959153819
 10
153.2640771879
 20
83.6016198568
 10
153.2567368384
 20
83.6076804583
 10
153.2496931829
 20
83.6140834572
 10
153.2429621775
 20
83.6208143486
 10
153.2365590703
 20
83.6278578849
 10
153.2304983662
 20
83.6351981103
 10
153.2247937947
 20
83.6428183966
 10
153.2194582786
 20
83.6507014816
 10
153.2145039044
 20
83.6588295076
 10
153.2099418954
 20
83.6671840618
 10
153.2057825861
 20
83.6757462187
 10
153.2020353985
 20
83.6844965821
 10
153.1987088214
 20
83.6934153296
 10
153.1958103904
 20
83.7024822575
 10
153.1933466715
 20
83.7116768261
 10
153.1913232457
 20
83.7209782069
 10
153.1897446968
 20
83.7303653293
 10
153.1886146006
 20
83.7398169283
 10
153.1879355173
 20
83.7493115931
  0
LINE
  5
267
100
AcDbEntity
  8
0
100
AcDbLine
 62
253
  6
CONTINUOUS
 10
144.6746146372
 20
132.0439805029
 11
144.6877132159
 21
132.0570790816
  0
LINE
  5
268
100
AcDbEntity
  8
0
100
AcDbLine
 62
253
  6
CONTINUOUS
 10
144.9246104064
 20
131.7939847337
 11
144.9377089851
 21
131.8070833124
  0
LWPOLYLINE
  5
269
100
AcDbEntity
  8
0
100
AcDbPolyline
 62
7
  6
CONTINUOUS
 90
46
 70
0
 10
142.2949855033
 20
84.4344293508
 10
142.285463793
 20
84.4342892106
 10
142.2759702131
 20
84.4339440021
 10
142.2665184052
 20
84.4333937251
 10
142.2571092574
 20
84.4326336336
 10
142.2477688201
 20
84.4316684738
 10
142.2385474664
 20
84.4305124841
 10
142.2294700904
 20
84.4291652433
 10
142.2205347329
 20
84.4276271726
 10
142.2117500126
 20
84.4259137748
 10
142.2031262707
 20
84.4240247798
 10
142.1946731988
 20
84.4219604577
 10
142.1863978173
 20
84.4197371204
 10
142.1783089766
 20
84.4173546228
 10
142.1704149061
 20
84.4148131101
 10
142.1627211556
 20
84.4121293303
 10
142.1552351619
 20
84.409303239
 10
142.1479637846
 20
84.4063348805
 10
142.1409112648
 20
84.4032411356
 10
142.1340837055
 20
84.4000220285
 10
142.1274867163
 20
84.3966775351
 10
142.1211234475
 20
84.3932244631
 10
142.1149987737
 20
84.389662881
 10
142.1091171518
 20
84.3859927205
 10
142.1034808324
 20
84.3822305847
 10
142.098093565
 20
84.3783765684
 10
142.0929587409
 20
84.3744305768
 10
142.0880778598
 20
84.3704089284
 10
142.0834536393
 20
84.3663117343
 10
142.0790884819
 20
84.3621388834
 10
142.0749832383
 20
84.3579063616
 10
142.0711396756
 20
84.3536142917
 10
142.0675592722
 20
84.3492625508
 10
142.06424229
 20
84.3448667568
 10
142.0611896133
 20
84.3404270442
 10
142.0584018532
 20
84.3359432784
 10
142.055878709
 20
84.3314306732
 10
142.0536202412
 20
84.3268893799
 10
142.0516262422
 20
84.3223192472
 10
142.0498958523
 20
84.3177350349
 10
142.0484283586
 20
84.3131369157
 10
142.0472227829
 20
84.3085247171
 10
142.046277704
 20
84.3039126803
 10
142.0455916557
 20
84.2993055528
 10
142.04516299
 20
84.2946985872
 10
142.0449897341
 20
84.2900917835
  0
LINE
  5
26A
100
AcDbEntity
  8
0
100
AcDbLine
 62
7
  6
CONTINUOUS
 10
162.080432467
 20
84.4344293508
 11
159.6949855033
 21
84.4344293508
  0
LINE
  5
26B
100
AcDbEntity
  8
0
100
AcDbLine
 62
7
  6
CONTINUOUS
 10
142.2949855033
 20
84.4344293508
 11
144.680432467
 21
84.4344293508
  0
LINE
  5
26C
100
AcDbEntity
  8
0
100
AcDbLine
 62
7
  6
CONTINUOUS
 10
162.8372168316
 20
85.1570790816
 11
162.3377089851
 21
85.1570790816
  0
LINE
  5
26D
100
AcDbEntity
  8
0
100
AcDbLine
 62
7
  6
CONTINUOUS
 10
159.4377089851
 20
85.1570790816
 11
156.6377089851
 21
85.1570790816
  0
LINE
  5
26E
100
AcDbEntity
  8
0
100
AcDbLine
 62
7
  6
CONTINUOUS
 10
147.7377089851
 20
85.1570790816
 11
144.9377089851
 21
85.1570790816
  0
LINE
  5
26F
100
AcDbEntity
  8
0
100
AcDbLine
 62
7
  6
CONTINUOUS
 10
142.0377089851
 20
85.1570790816
 11
141.5382011387
 21
85.1570790816
  0
LINE
  5
270
100
AcDbEntity
  8
0
100
AcDbLine
 62
7
  6
CONTINUOUS
 10
151.1877089851
 20
85.1570790816
 11
153.1877089851
 21
85.1570790816
  0
LINE
  5
271
100
AcDbEntity
  8
0
100
AcDbLine
 62
7
  6
CONTINUOUS
 10
155.6877089851
 20
85.1832829713
 11
153.3877089851
 21
85.1832829713
  0
LINE
  5
272
100
AcDbEntity
  8
0
100
AcDbLine
 62
7
  6
CONTINUOUS
 10
150.9877089851
 20
85.1832829713
 11
148.6877089851
 21
85.1832829713
  0
LINE
  5
273
100
AcDbEntity
  8
0
100
AcDbLine
 62
7
  6
CONTINUOUS
 10
142.2949855033
 20
85.2356907506
 11
144.680432467
 21
85.2356907506
  0
LINE
  5
274
100
AcDbEntity
  8
0
100
AcDbLine
 62
7
  6
CONTINUOUS
 10
147.7464357299
 20
85.2356907506
 11
148.6877089851
 21
85.2356907506
  0
LINE
  5
275
100
AcDbEntity
  8
0
100
AcDbLine
 62
7
  6
CONTINUOUS
 10
155.6877089851
 20
85.2356907506
 11
156.6289822404
 21
85.2356907506
  0
LINE
  5
276
100
AcDbEntity
  8
0
100
AcDbLine
 62
7
  6
CONTINUOUS
 10
159.6949855033
 20
85.2356907506
 11
162.080432467
 21
85.2356907506
  0
LINE
  5
277
100
AcDbEntity
  8
0
100
AcDbLine
 62
253
  6
CONTINUOUS
 10
162.7240515077
 20
85.496851139
 11
141.6513664626
 21
85.496851139
  0
LWPOLYLINE
  5
278
100
AcDbEntity
  8
0
100
AcDbPolyline
 62
7
  6
CONTINUOUS
 90
40
 70
0
 10
141.5382011387
 20
85.1570790816
 10
141.5181876299
 20
85.1574801697
 10
141.4981703876
 20
85.1586859064
 10
141.4781818615
 20
85.1606987238
 10
141.4582369104
 20
85.1635226192
 10
141.4383865334
 20
85.1671559352
 10
141.4187165065
 20
85.1715841843
 10
141.3992762618
 20
85.1767929296
 10
141.3800784728
 20
85.1827753914
 10
141.3611519413
 20
85.189520477
 10
141.3425438091
 20
85.1970081716
 10
141.3242655675
 20
85.2052306008
 10
141.3062945533
 20
85.2141996825
 10
141.2886310268
 20
85.2239233787
 10
141.2713384997
 20
85.2343749958
 10
141.2544885756
 20
85.245513673
 10
141.2381133935
 20
85.2573166854
 10
141.2222336899
 20
85.2697674984
 10
141.2068973921
 20
85.2828249612
 10
141.1921521714
 20
85.2964397345
 10
141.1779910785
 20
85.3106091895
 10
141.1643826735
 20
85.3253647861
 10
141.1513301296
 20
85.3407131884
 10
141.1388825483
 20
85.356607263
 10
141.1270801057
 20
85.3730004491
 10
141.1159392103
 20
85.3898730036
 10
141.1054835098
 20
85.4071922759
 10
141.0957545472
 20
85.4248858069
 10
141.0867790541
 20
85.4428906763
 10
141.0785496605
 20
85.4612062334
 10
141.0710555946
 20
85.4798525988
 10
141.0643051952
 20
85.4988169156
 10
141.0583179434
 20
85.5180532428
 10
141.0531044777
 20
85.5375340186
 10
141.0486716811
 20
85.5572468832
 10
141.0450342755
 20
85.5771420584
 10
141.0422068044
 20
85.5971340711
 10
141.0401911237
 20
85.6171719927
 10
141.0389835069
 20
85.63724079
 10
141.0385817384
 20
85.6573079337
  0
LWPOLYLINE
  5
279
100
AcDbEntity
  8
0
100
AcDbPolyline
 62
7
  6
CONTINUOUS
 90
28
 70
0
 10
159.652126619
 20
83.0596236075
 10
159.6403926977
 20
83.0615967139
 10
159.6287659463
 20
83.0641258999
 10
159.6172727061
 20
83.0672054399
 10
159.6059390114
 20
83.0708283603
 10
159.5947905359
 20
83.0749864559
 10
159.5838525388
 20
83.0796703095
 10
159.5731497976
 20
83.0848693128
 10
159.5627065569
 20
83.09057169
 10
159.5525464792
 20
83.0967645235
 10
159.54269258
 20
83.1034337862
 10
159.5331671813
 20
83.1105643709
 10
159.5239918661
 20
83.1181401228
 10
159.5151874191
 20
83.1261438811
 10
159.5067737847
 20
83.1345575155
 10
159.4987700263
 20
83.1433619626
 10
159.4911942744
 20
83.1525372778
 10
159.4840636897
 20
83.1620626765
 10
159.477394427
 20
83.1719165757
 10
159.4712015935
 20
83.1820766534
 10
159.4654992163
 20
83.192519894
 10
159.460300213
 20
83.2032226353
 10
159.4556163594
 20
83.2141606323
 10
159.4514582638
 20
83.2253091079
 10
159.4478353434
 20
83.2366428026
 10
159.4447558034
 20
83.2481360428
 10
159.4422266174
 20
83.2597627942
 10
159.440253511
 20
83.2714967155
  0
LINE
  5
27A
100
AcDbEntity
  8
0
100
AcDbLine
 62
253
  6
CONTINUOUS
 10
144.6746146372
 20
83.0701776604
 11
144.6877132159
 21
83.0570790816
  0
LINE
  5
27B
100
AcDbEntity
  8
0
100
AcDbLine
 62
253
  6
CONTINUOUS
 10
144.9246104064
 20
83.3201734296
 11
144.9377089851
 21
83.3070748508
  0
LINE
  5
27C
100
AcDbEntity
  8
0
100
AcDbLine
 62
253
  6
CONTINUOUS
 10
162.7158783193
 20
86.3463615905
 11
141.6595396509
 21
86.3463615905
  0
LWPOLYLINE
  5
27D
100
AcDbEntity
  8
0
100
AcDbPolyline
 62
253
  6
CONTINUOUS
 90
37
 70
0
 10
141.1596158034
 20
128.6932370311
 10
141.1604534724
 20
128.6964540412
 10
141.1622204223
 20
128.6996650612
 10
141.1649133632
 20
128.7028641124
 10
141.1685272808
 20
128.7060452383
 10
141.1730554462
 20
128.7092025157
 10
141.1784894281
 20
128.7123300658
 10
141.1848191086
 20
128.7154220654
 10
141.1920327019
 20
128.7184727571
 10
141.2001167766
 20
128.7214764606
 10
141.2090562803
 20
128.7244275833
 10
141.2188345681
 20
128.7273206302
 10
141.2294334329
 20
128.7301502145
 10
141.24083314
 20
128.7329110677
 10
141.2530124636
 20
128.7355980492
 10
141.2659487261
 20
128.7382061558
 10
141.2796178405
 20
128.7407305315
 10
141.2939943555
 20
128.7431664758
 10
141.3090515025
 20
128.7455094532
 10
141.3247612454
 20
128.7477551012
 10
141.3410943334
 20
128.7498992384
 10
141.3580203547
 20
128.7519378725
 10
141.3755077936
 20
128.7538672076
 10
141.3935240893
 20
128.7556836515
 10
141.4120356959
 20
128.757383822
 10
141.4310081455
 20
128.7589645534
 10
141.4504061122
 20
128.7604229025
 10
141.4701934775
 20
128.7617561539
 10
141.4903333983
 20
128.7629618251
 10
141.5107883746
 20
128.7640376712
 10
141.5315203201
 20
128.7649816891
 10
141.5524906327
 20
128.765792121
 10
141.5736602665
 20
128.766467458
 10
141.5949898045
 20
128.7670064425
 10
141.6164395319
 20
128.7674080711
 10
141.6379695101
 20
128.7676715958
 10
141.6595396509
 20
128.7677965261
  0
LWPOLYLINE
  5
27E
100
AcDbEntity
  8
0
100
AcDbPolyline
 62
253
  6
CONTINUOUS
 90
37
 70
0
 10
141.1596158034
 20
86.4209211321
 10
141.1604534658
 20
86.4177041212
 10
141.1622204091
 20
86.4144931002
 10
141.1649133433
 20
86.411294048
 10
141.1685272543
 20
86.408112921
 10
141.1730554131
 20
86.4049556426
 10
141.1784893885
 20
86.4018280913
 10
141.1848190625
 20
86.3987360905
 10
141.1920326495
 20
86.3956853975
 10
141.2001167181
 20
86.3926816926
 10
141.2090562161
 20
86.3897305686
 10
141.2188344984
 20
86.3868375202
 10
141.2294333581
 20
86.3840079344
 10
141.2408330606
 20
86.3812470796
 10
141.2530123801
 20
86.3785600965
 10
141.265948639
 20
86.3759519881
 10
141.2796177506
 20
86.3734276108
 10
141.2939942633
 20
86.3709916647
 10
141.3090514087
 20
86.3686486855
 10
141.3247611509
 20
86.3664030358
 10
141.3410942389
 20
86.3642588968
 10
141.358020261
 20
86.3622202609
 10
141.3755077016
 20
86.360290924
 10
141.3935239997
 20
86.3584744784
 10
141.4120356096
 20
86.3567743063
 10
141.4310080633
 20
86.3551935733
 10
141.4504060348
 20
86.3537352227
 10
141.4701934057
 20
86.3524019699
 10
141.4903333326
 20
86.3511962974
 10
141.5107883158
 20
86.3501204501
 10
141.5315202687
 20
86.3491764311
 10
141.5524905892
 20
86.3483659983
 10
141.5736602313
 20
86.3476906605
 10
141.5949897778
 20
86.3471516754
 10
141.6164395139
 20
86.3467500463
 10
141.637969501
 20
86.3464865212
 10
141.6595396509
 20
86.3463615908
  0
LWPOLYLINE
  5
27F
100
AcDbEntity
  8
0
100
AcDbPolyline
 62
7
  6
CONTINUOUS
 90
28
 70
0
 10
142.040253511
 20
131.8426614478
 10
142.0422266174
 20
131.8543953691
 10
142.0447558034
 20
131.8660221204
 10
142.0478353434
 20
131.8775153606
 10
142.0514582638
 20
131.8888490554
 10
142.0556163594
 20
131.8999975309
 10
142.060300213
 20
131.9109355279
 10
142.0654992163
 20
131.9216382692
 10
142.0712015935
 20
131.9320815099
 10
142.077394427
 20
131.9422415875
 10
142.0840636897
 20
131.9520954868
 10
142.0911942744
 20
131.9616208855
 10
142.0987700263
 20
131.9707962007
 10
142.1067737847
 20
131.9796006477
 10
142.1151874191
 20
131.9880142821
 10
142.1239918661
 20
131.9960180405
 10
142.1331671813
 20
132.0035937923
 10
142.14269258
 20
132.0107243771
 10
142.1525464792
 20
132.0173936398
 10
142.1627065569
 20
132.0235864733
 10
142.1731497976
 20
132.0292888505
 10
142.1838525388
 20
132.0344878538
 10
142.1947905359
 20
132.0391717074
 10
142.2059390114
 20
132.043329803
 10
142.2172727061
 20
132.0469527233
 10
142.2287659463
 20
132.0500322634
 10
142.2403926977
 20
132.0525614494
 10
142.252126619
 20
132.0545345558
  0
LINE
  5
280
100
AcDbEntity
  8
0
100
AcDbLine
 62
7
  6
CONTINUOUS
 10
140.9949440761
 20
89.4978965334
 11
141.0377089851
 21
89.0658954307
  0
LINE
  5
281
100
AcDbEntity
  8
0
100
AcDbLine
 62
7
  6
CONTINUOUS
 10
140.9949440761
 20
125.6162616299
 11
141.0377089851
 21
126.0482627326
  0
LINE
  5
282
100
AcDbEntity
  8
0
100
AcDbLine
 62
7
  6
CONTINUOUS
 10
156.6377089851
 20
131.5570790816
 11
156.6289822404
 21
131.5483523369
  0
LWPOLYLINE
  5
283
100
AcDbEntity
  8
0
100
AcDbPolyline
 62
253
  6
CONTINUOUS
 90
10
 70
0
 10
141.1768006879
 20
117.0475790816
 10
141.1776423311
 20
117.0479889276
 10
141.1794130181
 20
117.0483980107
 10
141.1821094529
 20
117.0488055694
 10
141.1857266159
 20
117.0492108449
 10
141.1902577738
 20
117.0496130829
 10
141.1956944919
 20
117.0500115346
 10
141.2020266496
 20
117.0504054583
 10
141.2092424596
 20
117.0507941206
 10
141.2173284897
 20
117.0511767982
  0
LWPOLYLINE
  5
284
100
AcDbEntity
  8
0
100
AcDbPolyline
 62
253
  6
CONTINUOUS
 90
11
 70
0
 10
141.1768006879
 20
98.0665790816
 10
141.177642331
 20
98.0661692356
 10
141.179413018
 20
98.0657601525
 10
141.1821094527
 20
98.0653525939
 10
141.1857266156
 20
98.0649473184
 10
141.1902577735
 20
98.0645450804
 10
141.1956944915
 20
98.0641466287
 10
141.2020266492
 20
98.063752705
 10
141.2092424592
 20
98.0633640426
 10
141.2173284893
 20
98.0629813651
 10
141.236049409
 20
98.0622368014
  0
LINE
  5
285
100
AcDbEntity
  8
0
100
AcDbLine
 62
7
  6
CONTINUOUS
 10
156.6377089851
 20
83.5570790816
 11
156.6289822404
 21
83.5658058263
  0
LWPOLYLINE
  5
286
100
AcDbEntity
  8
0
100
AcDbPolyline
 62
7
  6
CONTINUOUS
 90
4
 70
0
 10
142.040253511
 20
83.2714967155
 10
142.0388409509
 20
83.2833112261
 10
142.0379921354
 20
83.2951795656
 10
142.0377089851
 20
83.3070748508
  0
LINE
  5
287
100
AcDbEntity
  8
0
100
AcDbLine
 62
7
  6
CONTINUOUS
 10
141.0372726418
 20
126.0570790816
 11
141.0377089851
 21
126.0482627326
  0
LINE
  5
288
100
AcDbEntity
  8
0
100
AcDbLine
 62
253
  6
CONTINUOUS
 10
141.1549805308
 20
129.0632272442
 11
141.1544665116
 21
129.0771924613
  0
LINE
  5
289
100
AcDbEntity
  8
0
100
AcDbLine
 62
253
  6
CONTINUOUS
 10
141.1554778425
 20
129.0473650319
 11
141.1549805308
 21
129.0632272442
  0
LINE
  5
28A
100
AcDbEntity
  8
0
100
AcDbLine
 62
253
  6
CONTINUOUS
 10
141.1561872141
 20
129.0201801852
 11
141.1554778425
 21
129.0473650319
  0
LWPOLYLINE
  5
28B
100
AcDbEntity
  8
0
100
AcDbPolyline
 62
253
  6
CONTINUOUS
 90
40
 70
0
 10
141.1514426151
 20
85.9961659064
 10
141.1518659585
 20
85.9760722075
 10
141.1530985515
 20
85.9560110626
 10
141.1551383972
 20
85.9360149731
 10
141.1579821907
 20
85.9161163349
 10
141.1616253248
 20
85.8963473863
 10
141.1660618973
 20
85.8767401552
 10
141.1712847204
 20
85.8573264077
 10
141.1772853325
 20
85.8381375963
 10
141.1840540119
 20
85.8192048093
 10
141.1915797927
 20
85.8005587198
 10
141.1998504821
 20
85.7822295369
 10
141.2088526808
 20
85.764246956
 10
141.2185718041
 20
85.7466401109
 10
141.2289921059
 20
85.7294375269
 10
141.2400967041
 20
85.7126670742
 10
141.251867608
 20
85.6963559229
 10
141.2642857472
 20
85.680530499
 10
141.2773310031
 20
85.6652164416
 10
141.2909822408
 20
85.6504385613
 10
141.3052173435
 20
85.6362208001
 10
141.3200132489
 20
85.6225861923
 10
141.3353459858
 20
85.6095568278
 10
141.3511907133
 20
85.5971538155
 10
141.3675217612
 20
85.5853972499
 10
141.3843126712
 20
85.5743061781
 10
141.4015362401
 20
85.5638985689
 10
141.4191645636
 20
85.5541912838
 10
141.4371690818
 20
85.5452000499
 10
141.4555206252
 20
85.536939434
 10
141.4741894621
 20
85.5294228193
 10
141.4931453469
 20
85.5226623836
 10
141.5123575687
 20
85.5166690797
 10
141.5317950015
 20
85.5114526174
 10
141.5514261543
 20
85.5070214481
 10
141.5712192223
 20
85.5033827507
 10
141.5911421385
 20
85.5005424204
 10
141.6111626252
 20
85.4985050589
 10
141.6312482469
 20
85.4972739669
 10
141.6513664626
 20
85.496851139
  0
LINE
  5
28C
100
AcDbEntity
  8
0
100
AcDbLine
 62
253
  6
CONTINUOUS
 10
141.1570544849
 20
128.9780150449
 11
141.1561872141
 21
129.0201801852
  0
LINE
  5
28D
100
AcDbEntity
  8
0
100
AcDbLine
 62
253
  6
CONTINUOUS
 10
141.1579922126
 20
128.9168094727
 11
141.1570544849
 21
128.9780150449
  0
LINE
  5
28E
100
AcDbEntity
  8
0
100
AcDbLine
 62
253
  6
CONTINUOUS
 10
141.6563400068
 20
129.4015236408
 11
141.65515982
 21
129.4920945147
  0
LINE
  5
28F
100
AcDbEntity
  8
0
100
AcDbLine
 62
253
  6
CONTINUOUS
 10
142.0508075639
 20
83.7127415143
 11
142.0449897341
 21
84.2900917835
  0
LINE
  5
290
100
AcDbEntity
  8
0
100
AcDbLine
 62
253
  6
CONTINUOUS
 10
141.1588702373
 20
128.8330847346
 11
141.1579922126
 21
128.9168094727
  0
LINE
  5
291
100
AcDbEntity
  8
0
100
AcDbLine
 62
253
  6
CONTINUOUS
 10
141.6579177863
 20
129.2146783808
 11
141.6563400068
 21
129.4015236408
  0
LINE
  5
292
100
AcDbEntity
  8
0
100
AcDbLine
 62
253
  6
CONTINUOUS
 10
141.1595125261
 20
128.7253264211
 11
141.1588702373
 21
128.8330847346
  0
LINE
  5
293
100
AcDbEntity
  8
0
100
AcDbLine
 62
253
  6
CONTINUOUS
 10
141.1651759728
 20
126.3759947001
 11
141.1595125261
 21
128.7253264211
  0
LINE
  5
294
100
AcDbEntity
  8
0
100
AcDbLine
 62
253
  6
CONTINUOUS
 10
141.6594364638
 20
128.8318830709
 11
141.6579177863
 21
129.2146783808
  0
LINE
  5
295
100
AcDbEntity
  8
0
100
AcDbLine
 62
253
  6
CONTINUOUS
 10
141.6667180286
 20
125.6591112658
 11
141.6595396509
 21
128.7677965728
  0
LINE
  5
296
100
AcDbEntity
  8
0
100
AcDbLine
 62
253
  6
CONTINUOUS
 10
141.1709417935
 20
123.2749063583
 11
141.1651759728
 21
126.3759947001
  0
LINE
  5
297
100
AcDbEntity
  8
0
100
AcDbLine
 62
253
  6
CONTINUOUS
 10
141.6595396509
 20
128.7677965728
 11
141.6594364638
 21
128.8318830709
  0
LINE
  5
298
100
AcDbEntity
  8
0
100
AcDbLine
 62
253
  6
CONTINUOUS
 10
141.672012172
 20
122.537906858
 11
141.6667180286
 21
125.6591112658
  0
LINE
  5
299
100
AcDbEntity
  8
0
100
AcDbLine
 62
253
  6
CONTINUOUS
 10
141.174026585
 20
120.9425526209
 11
141.1709417935
 21
123.2749063583
  0
LINE
  5
29A
100
AcDbEntity
  8
0
100
AcDbLine
 62
253
  6
CONTINUOUS
 10
141.675415456
 20
119.4079729142
 11
141.672012172
 21
122.537906858
  0
LINE
  5
29B
100
AcDbEntity
  8
0
100
AcDbLine
 62
253
  6
CONTINUOUS
 10
141.1764827662
 20
117.8271618177
 11
141.174026585
 21
120.9425526209
  0
LINE
  5
29C
100
AcDbEntity
  8
0
100
AcDbLine
 62
253
  6
CONTINUOUS
 10
141.6767245355
 20
117.0570790816
 11
141.675415456
 21
119.4079729142
  0
LINE
  5
29D
100
AcDbEntity
  8
0
100
AcDbLine
 62
7
  6
CONTINUOUS
 10
140.9949440761
 20
89.4978965334
 11
140.9949440761
 21
125.6162616299
  0
LINE
  5
29E
100
AcDbEntity
  8
0
100
AcDbLine
 62
7
  6
CONTINUOUS
 10
141.0372726418
 20
129.4570960047
 11
141.0372726418
 21
126.0570790816
  0
LINE
  5
29F
100
AcDbEntity
  8
0
100
AcDbLine
 62
7
  6
CONTINUOUS
 10
141.0372726418
 20
85.6570621586
 11
141.0372726418
 21
89.0570790816
  0
LINE
  5
2A0
100
AcDbEntity
  8
0
100
AcDbLine
 62
253
  6
CONTINUOUS
 10
141.1764827669
 20
97.2869973007
 11
141.1764827662
 21
117.8271618177
  0
LINE
  5
2A1
100
AcDbEntity
  8
0
100
AcDbLine
 62
253
  6
CONTINUOUS
 10
141.6764066127
 20
97.2732387439
 11
141.6767245355
 21
117.0570790816
  0
LINE
  5
2A2
100
AcDbEntity
  8
0
100
AcDbLine
 62
253
  6
CONTINUOUS
 10
141.1740265874
 20
94.1716077812
 11
141.1764827669
 21
97.2869973007
  0
LINE
  5
2A3
100
AcDbEntity
  8
0
100
AcDbLine
 62
253
  6
CONTINUOUS
 10
141.6739504314
 20
94.1403644533
 11
141.6764066127
 21
97.2732387439
  0
LINE
  5
2A4
100
AcDbEntity
  8
0
100
AcDbLine
 62
253
  6
CONTINUOUS
 10
141.1696772711
 20
91.0629468689
 11
141.1740265874
 21
94.1716077812
  0
LINE
  5
2A5
100
AcDbEntity
  8
0
100
AcDbLine
 62
253
  6
CONTINUOUS
 10
141.6696011189
 20
91.014320606
 11
141.6739504314
 21
94.1403644533
  0
LINE
  5
2A6
100
AcDbEntity
  8
0
100
AcDbLine
 62
253
  6
CONTINUOUS
 10
141.1634402395
 20
87.9649133557
 11
141.1696772711
 21
91.0629468689
  0
LINE
  5
2A7
100
AcDbEntity
  8
0
100
AcDbLine
 62
253
  6
CONTINUOUS
 10
141.6633640922
 20
87.8989031211
 11
141.6696011189
 21
91.014320606
  0
LINE
  5
2A8
100
AcDbEntity
  8
0
100
AcDbLine
 62
253
  6
CONTINUOUS
 10
141.1590980958
 20
86.3110725641
 11
141.1634402395
 21
87.9649133557
  0
LINE
  5
2A9
100
AcDbEntity
  8
0
100
AcDbLine
 62
253
  6
CONTINUOUS
 10
141.6577446245
 20
85.873632617
 11
141.6633640922
 21
87.8989031211
  0
LINE
  5
2AA
100
AcDbEntity
  8
0
100
AcDbLine
 62
253
  6
CONTINUOUS
 10
142.0449897341
 20
130.8240663797
 11
142.0508075639
 21
131.4014166489
  0
LINE
  5
2AB
100
AcDbEntity
  8
0
100
AcDbLine
 62
253
  6
CONTINUOUS
 10
141.1583180412
 20
86.2242833407
 11
141.1590980958
 21
86.3110725641
  0
LINE
  5
2AC
100
AcDbEntity
  8
0
100
AcDbLine
 62
253
  6
CONTINUOUS
 10
141.6561145985
 20
85.6927760785
 11
141.6577446245
 21
85.873632617
  0
LINE
  5
2AD
100
AcDbEntity
  8
0
100
AcDbLine
 62
253
  6
CONTINUOUS
 10
141.6551598414
 20
85.6220635263
 11
141.6561145985
 21
85.6927760785
  0
LINE
  5
2AE
100
AcDbEntity
  8
0
100
AcDbLine
 62
253
  6
CONTINUOUS
 10
141.1574528291
 20
86.1597203446
 11
141.1583180412
 21
86.2242833407
  0
LINE
  5
2AF
100
AcDbEntity
  8
0
100
AcDbLine
 62
253
  6
CONTINUOUS
 10
141.1566361091
 20
86.1144091794
 11
141.1574528291
 21
86.1597203446
  0
LWPOLYLINE
  5
2B0
100
AcDbEntity
  8
0
100
AcDbPolyline
 62
7
  6
CONTINUOUS
 90
40
 70
0
 10
141.0385817384
 20
129.4568502296
 10
141.0389835069
 20
129.4769173733
 10
141.0401911237
 20
129.4969861705
 10
141.0422068044
 20
129.5170240922
 10
141.0450342755
 20
129.5370161048
 10
141.0486716811
 20
129.5569112801
 10
141.0531044777
 20
129.5766241446
 10
141.0583179433
 20
129.5961049205
 10
141.0643051952
 20
129.6153412477
 10
141.0710555946
 20
129.6343055644
 10
141.0785496605
 20
129.6529519298
 10
141.0867790541
 20
129.6712674869
 10
141.0957545472
 20
129.6892723563
 10
141.1054835097
 20
129.7069658873
 10
141.1159392103
 20
129.7242851596
 10
141.1270801056
 20
129.7411577141
 10
141.1388825482
 20
129.7575509002
 10
141.1513301296
 20
129.7734449748
 10
141.1643826734
 20
129.7887933771
 10
141.1779910784
 20
129.8035489737
 10
141.1921521713
 20
129.8177184287
 10
141.206897392
 20
129.831333202
 10
141.2222336898
 20
129.8443906648
 10
141.2381133934
 20
129.8568414778
 10
141.2544885755
 20
129.8686444902
 10
141.2713384996
 20
129.8797831674
 10
141.2886310267
 20
129.8902347845
 10
141.3062945531
 20
129.8999584807
 10
141.3242655673
 20
129.9089275624
 10
141.3425438089
 20
129.9171499916
 10
141.3611519411
 20
129.9246376862
 10
141.3800784726
 20
129.9313827718
 10
141.3992762617
 20
129.9373652336
 10
141.4187165063
 20
129.942573979
 10
141.4383865333
 20
129.947002228
 10
141.4582369102
 20
129.950635544
 10
141.4781818614
 20
129.9534594394
 10
141.4981703875
 20
129.9554722568
 10
141.5181876298
 20
129.9566779935
 10
141.5382011387
 20
129.9570790816
  0
LWPOLYLINE
  5
2B1
100
AcDbEntity
  8
0
100
AcDbPolyline
 62
253
  6
CONTINUOUS
 90
40
 70
0
 10
141.1514351579
 20
129.1180146465
 10
141.1518584727
 20
129.1381084457
 10
141.1530910381
 20
129.1581696873
 10
141.1551308568
 20
129.1781658699
 10
141.1579746214
 20
129.1980646039
 10
141.1616177265
 20
129.2178336448
 10
141.1660542765
 20
129.2374409451
 10
141.1712770827
 20
129.2568547402
 10
141.177277684
 20
129.2760435763
 10
141.1840463667
 20
129.2949763415
 10
141.1915721645
 20
129.3136223629
 10
141.1998428849
 20
129.3319514315
 10
141.208845137
 20
129.3499338265
 10
141.2185643394
 20
129.3675404048
 10
141.2289847427
 20
129.3847426507
 10
141.2400894651
 20
129.4015126966
 10
141.2518605182
 20
129.4178233654
 10
141.2642788295
 20
129.4336482383
 10
141.2773242739
 20
129.4489616997
 10
141.2909757161
 20
129.4637389428
 10
141.3052110404
 20
129.4779560216
 10
141.3200071804
 20
129.4915899141
 10
141.3353401642
 20
129.5046185348
 10
141.3511851522
 20
129.5170207699
 10
141.367516473
 20
129.5287765237
 10
141.3843076685
 20
129.5398667484
 10
141.4015315354
 20
129.5502734757
 10
141.4191601681
 20
129.5599798456
 10
141.4371650067
 20
129.5689701294
 10
141.4555168817
 20
129.577229762
 10
141.4741860595
 20
129.5847453665
 10
141.4931422943
 20
129.591504765
 10
141.5123548754
 20
129.5974970049
 10
141.5317926747
 20
129.6027123835
 10
141.5514242011
 20
129.6071424495
 10
141.57121765
 20
129.6107800236
 10
141.5911409521
 20
129.6136192183
 10
141.6111618292
 20
129.6156554341
 10
141.6312478464
 20
129.6168853676
 10
141.6513664626
 20
129.6173070243
  0
LWPOLYLINE
  5
2B2
100
AcDbEntity
  8
0
100
AcDbPolyline
 62
7
  6
CONTINUOUS
 90
4
 70
0
 10
142.0377089851
 20
131.8070833124
 10
142.0379921354
 20
131.8189785977
 10
142.0388409509
 20
131.8308469372
 10
142.040253511
 20
131.8426614478
  0
LWPOLYLINE
  5
2B3
100
AcDbEntity
  8
0
100
AcDbPolyline
 62
7
  6
CONTINUOUS
 90
34
 70
0
 10
142.0508075639
 20
131.7939847337
 10
142.0510911147
 20
131.8058797552
 10
142.0519403196
 20
131.8177478319
 10
142.053353255
 20
131.8295620798
 10
142.0553267203
 20
131.8412957371
 10
142.0578562451
 20
131.8529222243
 10
142.0609360995
 20
131.8644152049
 10
142.0645593069
 20
131.8757486447
 10
142.0687176599
 20
131.8868968709
 10
142.073401739
 20
131.8978346304
 10
142.0786009336
 20
131.9085371465
 10
142.0843034665
 20
131.9189801758
 10
142.09049642
 20
131.9291400624
 10
142.0971657659
 20
131.9389937919
 10
142.1042963964
 20
131.9485190434
 10
142.1118721592
 20
131.95769424
 10
142.1198758934
 20
131.966498598
 10
142.1282894688
 20
131.9749121734
 10
142.1370938268
 20
131.9829159076
 10
142.1462690234
 20
131.9904916704
 10
142.1557942749
 20
131.9976223009
 10
142.1656480044
 20
132.0042916467
 10
142.175807891
 20
132.0104846003
 10
142.1862509203
 20
132.0161871332
 10
142.1969534364
 20
132.0213863278
 10
142.2078911958
 20
132.0260704069
 10
142.2190394221
 20
132.0302287599
 10
142.2303728619
 20
132.0338519673
 10
142.2418658425
 20
132.0369318217
 10
142.2534923297
 20
132.0394613465
 10
142.265225987
 20
132.0414348118
 10
142.2770402349
 20
132.0428477472
 10
142.2889083115
 20
132.0436969521
 10
142.3008033331
 20
132.0439805029
  0
LINE
  5
2B4
100
AcDbEntity
  8
0
100
AcDbLine
 62
253
  6
CONTINUOUS
 10
141.1559597614
 20
86.0846282312
 11
141.1566361091
 21
86.1144091794
  0
LINE
  5
2B5
100
AcDbEntity
  8
0
100
AcDbLine
 62
253
  6
CONTINUOUS
 10
141.1552358934
 20
86.0587721547
 11
141.1559597614
 21
86.0846282312
  0
LWPOLYLINE
  5
2B6
100
AcDbEntity
  8
0
100
AcDbPolyline
 62
253
  6
CONTINUOUS
 90
3
 70
0
 10
141.1544714302
 20
86.0370882818
 10
141.1547302337
 20
86.0438358079
 10
141.1552358934
 20
86.0587721547
  0
LINE
  5
2B7
100
AcDbEntity
  8
0
100
AcDbLine
 62
7
  6
CONTINUOUS
 10
141.0377089851
 20
89.0658954307
 11
141.0372726418
 21
89.0570790816
  0
LINE
  5
2B8
100
AcDbEntity
  8
0
100
AcDbLine
 62
253
  6
CONTINUOUS
 10
162.0746146372
 20
132.0439805029
 11
162.0877132159
 21
132.0570790816
  0
LINE
  5
2B9
100
AcDbEntity
  8
0
100
AcDbLine
 62
7
  6
CONTINUOUS
 10
157.7309419707
 20
97.7265650063
 11
158.3814237863
 21
97.8849078048
  0
LINE
  5
2BA
100
AcDbEntity
  8
0
100
AcDbLine
 62
7
  6
CONTINUOUS
 10
146.6444759996
 20
97.7265650063
 11
145.993994184
 21
97.8849078048
  0
LINE
  5
2BB
100
AcDbEntity
  8
0
100
AcDbLine
 62
253
  6
CONTINUOUS
 10
162.0746146372
 20
83.0701776604
 11
162.0877132159
 21
83.0570790816
  0
LINE
  5
2BC
100
AcDbEntity
  8
RACCORDO
100
AcDbLine
 62
253
  6
CONTINUOUS
 10
146.1407025608
 20
97.1629108474
 11
142.1569196373
 21
104.063557388
  0
LINE
  5
2BD
100
AcDbEntity
  8
RACCORDO
100
AcDbLine
 62
7
  6
CONTINUOUS
 10
142.5568333754
 20
104.0268174747
 11
142.5773221755
 21
103.8027573164
  0
LWPOLYLINE
  5
2BE
100
AcDbEntity
  8
0
100
AcDbPolyline
 62
253
  6
CONTINUOUS
 90
10
 70
0
 10
141.1539374209
 20
129.0892162143
 10
141.1536681603
 20
129.0944765852
 10
141.1533957628
 20
129.0992370134
 10
141.1531210954
 20
129.10348233
 10
141.1528441654
 20
129.1072108393
 10
141.1525649656
 20
129.1104242369
 10
141.1522843418
 20
129.1131124406
 10
141.1520025758
 20
129.1152720898
 10
141.1517193857
 20
129.1169065451
 10
141.1514347716
 20
129.1180158065
  0
LINE
  5
2BF
100
AcDbEntity
  8
0
100
AcDbLine
 62
253
  6
CONTINUOUS
 10
141.1544665116
 20
129.0771924613
 11
141.1539374209
 21
129.0892162143
  0
LWPOLYLINE
  5
2C0
100
AcDbEntity
  8
0
100
AcDbPolyline
 62
7
  6
CONTINUOUS
 90
46
 70
0
 10
142.0449897341
 20
130.8240663797
 10
142.0451619853
 20
130.8194877255
 10
142.0455880612
 20
130.814892418
 10
142.0462702787
 20
130.810287569
 10
142.04721068
 20
130.8056830981
 10
142.0484110467
 20
130.8010837118
 10
142.0498729856
 20
130.7964889085
 10
142.0515977863
 20
130.7919064865
 10
142.0535864705
 20
130.787344029
 10
142.0558399907
 20
130.7828009155
 10
142.058358821
 20
130.7782852778
 10
142.0611431594
 20
130.7738050364
 10
142.0641932949
 20
130.769359457
 10
142.0675088274
 20
130.7649569634
 10
142.0710890769
 20
130.7606057671
 10
142.0749336655
 20
130.7563050235
 10
142.0790412737
 20
130.75206339
 10
142.0834102768
 20
130.7478893367
 10
142.0880395882
 20
130.7437819547
 10
142.0929269062
 20
130.739750084
 10
142.0980695946
 20
130.7358024009
 10
142.1034657938
 20
130.7319379767
 10
142.1091121548
 20
130.7281657684
 10
142.1150049512
 20
130.7244946028
 10
142.1211414485
 20
130.7209235824
 10
142.1275171788
 20
130.7174617018
 10
142.1341272378
 20
130.7141178683
 10
142.140967875
 20
130.7108912674
 10
142.1480334244
 20
130.7077908323
 10
142.1553177129
 20
130.7048254602
 10
142.1628157982
 20
130.7019944654
 10
142.1705207322
 20
130.699306595
 10
142.1784249852
 20
130.6967706196
 10
142.1865222361
 20
130.6943860107
 10
142.194804138
 20
130.6921611869
 10
142.2032617636
 20
130.6901046321
 10
142.2118873414
 20
130.6882159583
 10
142.220671077
 20
130.6865030774
 10
142.2296025825
 20
130.6849740237
 10
142.2386725578
 20
130.6836285425
 10
142.2478564453
 20
130.6824760797
 10
142.2571554735
 20
130.6815209212
 10
142.2665991347
 20
130.6807588326
 10
142.2761891058
 20
130.6801972161
 10
142.2858983263
 20
130.679850544
 10
142.295712732
 20
130.6797288124
  0
LWPOLYLINE
  5
2C1
100
AcDbEntity
  8
0
100
AcDbPolyline
 62
253
  6
CONTINUOUS
 90
7
 70
0
 10
141.6530511353
 20
129.5881071195
 10
141.6527744018
 20
129.5955875428
 10
141.652495396
 20
129.6020304708
 10
141.6522150267
 20
129.6074290609
 10
141.6519335969
 20
129.6117775774
 10
141.6516508037
 20
129.6150713988
 10
141.651366647
 20
129.6173070243
  0
LWPOLYLINE
  5
2C2
100
AcDbEntity
  8
0
100
AcDbPolyline
 62
253
  6
CONTINUOUS
 90
34
 70
0
 10
142.0508075639
 20
131.4014166489
 10
142.0511242259
 20
131.3911336878
 10
142.0520044201
 20
131.3808739357
 10
142.0534461599
 20
131.3706605489
 10
142.05544619
 20
131.3605165851
 10
142.057999997
 20
131.3504649337
 10
142.0611018224
 20
131.3405282651
 10
142.0647446731
 20
131.3307289946
 10
142.068920326
 20
131.3210892534
 10
142.0736193483
 20
131.3116308203
 10
142.0788311283
 20
131.3023750511
 10
142.084543906
 20
131.2933428279
 10
142.0907447891
 20
131.2845545328
 10
142.0974197828
 20
131.2760300002
 10
142.1045538203
 20
131.2677884714
 10
142.1121307999
 20
131.2598485475
 10
142.1201336195
 20
131.2522281494
 10
142.1285442166
 20
131.2449444763
 10
142.1373436091
 20
131.2380139666
 10
142.146511935
 20
131.231452264
 10
142.1560285025
 20
131.2252741773
 10
142.1658718387
 20
131.219493647
 10
142.17601974
 20
131.2141237145
 10
142.186449291
 20
131.2091765081
 10
142.1971369186
 20
131.2046632082
 10
142.2080584785
 20
131.2005940051
 10
142.2191893382
 20
131.1969780713
 10
142.2305044018
 20
131.1938235574
 10
142.2419784238
 20
131.1911375211
 10
142.2535852212
 20
131.1889261111
 10
142.2652977302
 20
131.1871944286
 10
142.2770892071
 20
131.1859463
 10
142.2889333178
 20
131.185184386
 10
142.3008033331
 20
131.184910298
  0
LINE
  5
2C3
100
AcDbEntity
  8
0
100
AcDbLine
 62
253
  6
CONTINUOUS
 10
141.6535977568
 20
129.5700666602
 11
141.6530511353
 21
129.5881071195
  0
LINE
  5
2C4
100
AcDbEntity
  8
0
100
AcDbLine
 62
253
  6
CONTINUOUS
 10
141.6541326824
 20
129.5479857396
 11
141.6535977568
 21
129.5700666602
  0
LWPOLYLINE
  5
2C5
100
AcDbEntity
  8
0
100
AcDbPolyline
 62
253
  6
CONTINUOUS
 90
3
 70
0
 10
141.65515982
 20
129.4920945147
 10
141.6549090022
 20
129.5074982962
 10
141.6541326824
 20
129.5479857396
  0
LINE
  5
2C6
100
AcDbEntity
  8
0
100
AcDbLine
 62
253
  6
CONTINUOUS
 10
142.3008033331
 20
83.9292478653
 11
142.295712732
 21
84.4344293508
  0
LINE
  5
2C7
100
AcDbEntity
  8
0
100
AcDbLine
 62
7
  6
CONTINUOUS
 10
142.0377089851
 20
83.3070748508
 11
142.0377089851
 21
85.1570790816
  0
LINE
  5
2C8
100
AcDbEntity
  8
0
100
AcDbLine
 62
7
  6
CONTINUOUS
 10
142.0377089851
 20
129.9570790816
 11
142.0377089851
 21
131.8070833124
  0
LINE
  5
2C9
100
AcDbEntity
  8
0
100
AcDbLine
 62
7
  6
CONTINUOUS
 10
142.0449897341
 20
130.8240663797
 11
142.0449897341
 21
129.8914931339
  0
LINE
  5
2CA
100
AcDbEntity
  8
0
100
AcDbLine
 62
7
  6
CONTINUOUS
 10
142.0449897341
 20
85.2226650293
 11
142.0449897341
 21
84.2900917835
  0
LINE
  5
2CB
100
AcDbEntity
  8
0
100
AcDbLine
 62
7
  6
CONTINUOUS
 10
142.0508075639
 20
131.7939847337
 11
142.0508075639
 21
131.4014166489
  0
LINE
  5
2CC
100
AcDbEntity
  8
0
100
AcDbLine
 62
7
  6
CONTINUOUS
 10
142.0508075639
 20
83.7127415143
 11
142.0508075639
 21
83.3201734296
  0
LINE
  5
2CD
100
AcDbEntity
  8
0
100
AcDbLine
 62
253
  6
CONTINUOUS
 10
142.2949855033
 20
130.6797288124
 11
142.2949855033
 21
129.8784674127
  0
LINE
  5
2CE
100
AcDbEntity
  8
0
100
AcDbLine
 62
253
  6
CONTINUOUS
 10
142.2949855033
 20
85.2356907506
 11
142.2949855033
 21
84.4344293508
  0
LINE
  5
2CF
100
AcDbEntity
  8
0
100
AcDbLine
 62
253
  6
CONTINUOUS
 10
142.3008033331
 20
83.0701776604
 11
142.3008033331
 21
83.9292478653
  0
LINE
  5
2D0
100
AcDbEntity
  8
0
100
AcDbLine
 62
253
  6
CONTINUOUS
 10
142.3008033331
 20
131.184910298
 11
142.3008033331
 21
132.0439805029
  0
LINE
  5
2D1
100
AcDbEntity
  8
0
100
AcDbLine
 62
253
  6
CONTINUOUS
 10
142.295712732
 20
130.6797288124
 11
142.3008033331
 21
131.184910298
  0
LINE
  5
2D2
100
AcDbEntity
  8
0
100
AcDbLine
 62
253
  6
CONTINUOUS
 10
141.6543954566
 20
85.5786994093
 11
141.6551598414
 21
85.6220635263
  0
LINE
  5
2D3
100
AcDbEntity
  8
0
100
AcDbLine
 62
253
  6
CONTINUOUS
 10
141.6538668193
 20
85.5546324425
 11
141.6543954566
 21
85.5786994093
  0
LWPOLYLINE
  5
2D4
100
AcDbEntity
  8
0
100
AcDbPolyline
 62
253
  6
CONTINUOUS
 90
34
 70
0
 10
142.0508075639
 20
83.7127415143
 10
142.0511242146
 20
83.7230242819
 10
142.0520043763
 20
83.7332838418
 10
142.0534460626
 20
83.7434970389
 10
142.0554460197
 20
83.7536408226
 10
142.0579997337
 20
83.763692299
 10
142.0611014411
 20
83.7736287825
 10
142.0647441415
 20
83.783427847
 10
142.0689196136
 20
83.7930673767
 10
142.0736184335
 20
83.8025256156
 10
142.0788299963
 20
83.8117812171
 10
142.0845425398
 20
83.8208132918
 10
142.0907431712
 20
83.8296014549
 10
142.0974178959
 20
83.8381258721
 10
142.1045516496
 20
83.8463673041
 10
142.1121283317
 20
83.8543071506
 10
142.1201308422
 20
83.8619274919
 10
142.1285411197
 20
83.8692111292
 10
142.137340183
 20
83.8761416238
 10
142.1465081729
 20
83.8827033341
 10
142.1560243979
 20
83.8888814505
 10
142.1658673803
 20
83.8946620295
 10
142.1760149053
 20
83.9000320247
 10
142.1864440704
 20
83.9049793162
 10
142.1971313375
 20
83.9094927384
 10
142.2080525863
 20
83.9135621047
 10
142.2191831679
 20
83.9171782308
 10
142.2304979615
 20
83.9203329552
 10
142.2419714302
 20
83.9230191581
 10
142.253577679
 20
83.9252307767
 10
142.2652905133
 20
83.9269628196
 10
142.2770834979
 20
83.9282113777
 10
142.2889300168
 20
83.9289736331
 10
142.3008033331
 20
83.9292478653
  0
LINE
  5
2D5
100
AcDbEntity
  8
0
100
AcDbLine
 62
7
  6
CONTINUOUS
 10
144.9377089851
 20
129.9570790816
 11
144.9304282362
 21
129.8914931339
  0
LINE
  5
2D6
100
AcDbEntity
  8
0
100
AcDbLine
 62
253
  6
CONTINUOUS
 10
162.3246104064
 20
131.7939847337
 11
162.3377089851
 21
131.8070833124
  0
LINE
  5
2D7
100
AcDbEntity
  8
RACCORDO
100
AcDbLine
 62
7
  6
CONTINUOUS
 10
156.0729568425
 20
98.6096871585
 11
156.0625064181
 21
98.6067293778
  0
LWPOLYLINE
  5
2D8
100
AcDbEntity
  8
RACCORDO
100
AcDbPolyline
 62
7
  6
CONTINUOUS
 90
3
 70
0
 10
156.0010687043
 20
98.5894214798
 10
155.8563349856
 20
98.5499124732
 10
155.8417655356
 20
98.5460426894
  0
LINE
  5
2D9
100
AcDbEntity
  8
RACCORDO
100
AcDbLine
 62
7
  6
CONTINUOUS
 10
156.1583804607
 20
98.6344838174
 11
156.1149722128
 21
98.6228526125
  0
LINE
  5
2DA
100
AcDbEntity
  8
0
100
AcDbLine
 62
253
  6
CONTINUOUS
 10
163.1580894804
 20
98.0629813651
 11
163.1393685606
 21
98.0622368014
  0
LINE
  5
2DB
100
AcDbEntity
  8
0
100
AcDbLine
 62
253
  6
CONTINUOUS
 10
163.1393685606
 20
98.0622368014
 11
163.1173678927
 21
98.0615245553
  0
LINE
  5
2DC
100
AcDbEntity
  8
0
100
AcDbLine
 62
253
  6
CONTINUOUS
 10
163.1173678927
 20
98.0615245553
 11
163.0922512178
 21
98.0608499279
  0
LINE
  5
2DD
100
AcDbEntity
  8
0
100
AcDbLine
 62
253
  6
CONTINUOUS
 10
163.0922512178
 20
98.0608499279
 11
163.0491486087
 21
98.059919419
  0
LINE
  5
2DE
100
AcDbEntity
  8
0
100
AcDbLine
 62
253
  6
CONTINUOUS
 10
163.0491486087
 20
98.059919419
 11
162.9826956034
 21
98.0588545103
  0
LINE
  5
2DF
100
AcDbEntity
  8
0
100
AcDbLine
 62
253
  6
CONTINUOUS
 10
162.9826956034
 20
98.0588545103
 11
162.8880180971
 21
98.0578492272
  0
LINE
  5
2E0
100
AcDbEntity
  8
0
100
AcDbLine
 62
253
  6
CONTINUOUS
 10
162.8880180971
 20
98.0578492272
 11
162.7845626319
 21
98.0572487001
  0
LINE
  5
2E1
100
AcDbEntity
  8
0
100
AcDbLine
 62
253
  6
CONTINUOUS
 10
162.7845626319
 20
98.0572487001
 11
162.6986934348
 21
98.0570790817
  0
LINE
  5
2E2
100
AcDbEntity
  8
RACCORDO
100
AcDbLine
 62
253
  6
CONTINUOUS
 10
141.6767245355
 20
98.0570790816
 11
145.6249450841
 21
98.0570790816
  0
LINE
  5
2E3
100
AcDbEntity
  8
RACCORDO
100
AcDbLine
 62
253
  6
CONTINUOUS
 10
147.6867654784
 20
98.0570790816
 11
156.6886524919
 21
98.0570790816
  0
LINE
  5
2E4
100
AcDbEntity
  8
RACCORDO
100
AcDbLine
 62
253
  6
CONTINUOUS
 10
158.7504728862
 20
98.0570790816
 11
162.6986934348
 21
98.0570790816
  0
LINE
  5
2E5
100
AcDbEntity
  8
0
100
AcDbLine
 62
253
  6
CONTINUOUS
 10
141.5487201939
 20
98.0574381186
 11
141.6767245355
 21
98.0570790816
  0
LINE
  5
2E6
100
AcDbEntity
  8
0
100
AcDbLine
 62
253
  6
CONTINUOUS
 10
141.4482182776
 20
98.0582049788
 11
141.5487201939
 21
98.0574381186
  0
LINE
  5
2E7
100
AcDbEntity
  8
0
100
AcDbLine
 62
253
  6
CONTINUOUS
 10
141.3752360512
 20
98.0591003447
 11
141.4482182776
 21
98.0582049788
  0
LINE
  5
2E8
100
AcDbEntity
  8
0
100
AcDbLine
 62
253
  6
CONTINUOUS
 10
141.3262693608
 20
98.059919419
 11
141.3752360512
 21
98.0591003447
  0
LINE
  5
2E9
100
AcDbEntity
  8
0
100
AcDbLine
 62
253
  6
CONTINUOUS
 10
141.2831667518
 20
98.0608499279
 11
141.3262693608
 21
98.059919419
  0
LINE
  5
2EA
100
AcDbEntity
  8
0
100
AcDbLine
 62
253
  6
CONTINUOUS
 10
141.2580500769
 20
98.0615245553
 11
141.2831667518
 21
98.0608499279
  0
LINE
  5
2EB
100
AcDbEntity
  8
0
100
AcDbLine
 62
253
  6
CONTINUOUS
 10
141.236049409
 20
98.0622368014
 11
141.2580500769
 21
98.0615245553
  0
LINE
  5
2EC
100
AcDbEntity
  8
RACCORDO
100
AcDbLine
 62
7
  6
CONTINUOUS
 10
148.2170375096
 20
98.6344838174
 11
148.2604457566
 21
98.6228526127
  0
LINE
  5
2ED
100
AcDbEntity
  8
RACCORDO
100
AcDbLine
 62
7
  6
CONTINUOUS
 10
148.5044328905
 20
98.5538650073
 11
148.5336524347
 21
98.5460426894
  0
LINE
  5
2EE
100
AcDbEntity
  8
RACCORDO
100
AcDbLine
 62
7
  6
CONTINUOUS
 10
148.4162623399
 20
98.5778599302
 11
148.5044328905
 21
98.5538650073
  0
LINE
  5
2EF
100
AcDbEntity
  8
RACCORDO
100
AcDbLine
 62
7
  6
CONTINUOUS
 10
148.3358282168
 20
98.6001858077
 11
148.4162623399
 21
98.5778599302
  0
LINE
  5
2F0
100
AcDbEntity
  8
RACCORDO
100
AcDbLine
 62
7
  6
CONTINUOUS
 10
148.3024611277
 20
98.6096871585
 11
148.3358282168
 21
98.6001858077
  0
LINE
  5
2F1
100
AcDbEntity
  8
RACCORDO
100
AcDbLine
 62
7
  6
CONTINUOUS
 10
148.2766734092
 20
98.6172921051
 11
148.3024611277
 21
98.6096871585
  0
LWPOLYLINE
  5
2F2
100
AcDbEntity
  8
RACCORDO
100
AcDbPolyline
 62
7
  6
CONTINUOUS
 90
5
 70
0
 10
148.2605927073
 20
98.6227692273
 10
148.2623411521
 20
98.6221622978
 10
148.2656329541
 20
98.6209592007
 10
148.2704022047
 20
98.6192757542
 10
148.2766734092
 20
98.6172921051
  0
LINE
  5
2F3
100
AcDbEntity
  8
RACCORDO
100
AcDbLine
 62
7
  6
CONTINUOUS
 10
148.2606016895
 20
98.6227628744
 11
148.2604457575
 21
98.6228526125
  0
LINE
  5
2F4
100
AcDbEntity
  8
0
100
AcDbLine
 62
253
  6
CONTINUOUS
 10
162.3246104064
 20
83.3201734296
 11
162.3377089851
 21
83.3070748508
  0
LINE
  5
2F5
100
AcDbEntity
  8
RACCORDO
100
AcDbLine
 62
253
  6
CONTINUOUS
 10
146.2136999301
 20
97.4416430436
 11
143.5526682405
 21
102.0480560574
  0
LINE
  5
2F6
100
AcDbEntity
  8
RACCORDO
100
AcDbLine
 62
253
  6
CONTINUOUS
 10
143.5526682405
 20
102.0480560574
 11
142.4301126042
 21
103.9917498719
  0
LINE
  5
2F7
100
AcDbEntity
  8
DRAFT
100
AcDbLine
 62
7
  6
CONTINUOUS
 10
146.2251790809
 20
97.4844838174
 11
142.4751790809
 21
103.9796743458
  0
LINE
  5
2F8
100
AcDbEntity
  8
RACCORDO
100
AcDbLine
 62
253
  6
CONTINUOUS
 10
147.6867654784
 20
98.0570790816
 11
147.6445351724
 21
98.1305813035
  0
LINE
  5
2F9
100
AcDbEntity
  8
RACCORDO
100
AcDbLine
 62
253
  6
CONTINUOUS
 10
147.6445351724
 20
98.1305813035
 11
147.6161007973
 21
98.1805882328
  0
LINE
  5
2FA
100
AcDbEntity
  8
RACCORDO
100
AcDbLine
 62
253
  6
CONTINUOUS
 10
147.6161007973
 20
98.1805882328
 11
147.6002093417
 21
98.2088998014
  0
LWPOLYLINE
  5
2FB
100
AcDbEntity
  8
RACCORDO
100
AcDbPolyline
 62
253
  6
CONTINUOUS
 90
6
 70
0
 10
147.6002093417
 20
98.2088998014
 10
147.592837035
 20
98.2222690321
 10
147.5902090989
 20
98.227136734
 10
147.588315083
 20
98.2307407198
 10
147.5871693835
 20
98.233053596
 10
147.5867807089
 20
98.2340577824
  0
LINE
  5
2FC
100
AcDbEntity
  8
0
100
AcDbLine
 62
7
  6
CONTINUOUS
 10
144.9377089851
 20
85.1570790816
 11
144.9304282362
 21
85.2226650293
  0
LWPOLYLINE
  5
2FD
100
AcDbEntity
  8
0
100
AcDbPolyline
 62
7
  6
CONTINUOUS
 90
46
 70
0
 10
144.9304282362
 20
84.2900917835
 10
144.930255985
 20
84.2946704378
 10
144.9298299091
 20
84.2992657453
 10
144.9291476916
 20
84.3038705943
 10
144.9282072903
 20
84.3084750652
 10
144.9270069236
 20
84.3130744515
 10
144.9255449847
 20
84.3176692548
 10
144.923820184
 20
84.3222516768
 10
144.9218314998
 20
84.3268141342
 10
144.9195779796
 20
84.3313572477
 10
144.9170591492
 20
84.3358728855
 10
144.9142748109
 20
84.3403531268
 10
144.9112246754
 20
84.3447987062
 10
144.9079091429
 20
84.3492011999
 10
144.9043288934
 20
84.3535523962
 10
144.9004843048
 20
84.3578531398
 10
144.8963766966
 20
84.3620947732
 10
144.8920076935
 20
84.3662688266
 10
144.887378382
 20
84.3703762086
 10
144.8824910641
 20
84.3744080793
 10
144.8773483757
 20
84.3783557624
 10
144.8719521765
 20
84.3822201866
 10
144.8663058155
 20
84.3859923949
 10
144.8604130191
 20
84.3896635604
 10
144.8542765218
 20
84.3932345809
 10
144.8479007915
 20
84.3966964614
 10
144.8412907325
 20
84.400040295
 10
144.8344500953
 20
84.4032668959
 10
144.8273845459
 20
84.406367331
 10
144.8201002574
 20
84.4093327031
 10
144.8126021721
 20
84.4121636979
 10
144.8048972381
 20
84.4148515682
 10
144.7969929851
 20
84.4173875436
 10
144.7888957342
 20
84.4197721526
 10
144.7806138323
 20
84.4219969763
 10
144.7721562067
 20
84.4240535311
 10
144.7635306289
 20
84.4259422049
 10
144.7547468933
 20
84.4276550859
 10
144.7458153878
 20
84.4291841395
 10
144.7367454125
 20
84.4305296208
 10
144.727561525
 20
84.4316820836
 10
144.7182624968
 20
84.4326372421
 10
144.7088188356
 20
84.4333993306
 10
144.6992288645
 20
84.4339609472
 10
144.689519644
 20
84.4343076193
 10
144.6797052383
 20
84.4344293508
  0
LWPOLYLINE
  5
2FE
100
AcDbEntity
  8
0
100
AcDbPolyline
 62
253
  6
CONTINUOUS
 90
34
 70
0
 10
144.9246104064
 20
83.7127415143
 10
144.9242937557
 20
83.7230242819
 10
144.923413594
 20
83.7332838418
 10
144.9219719077
 20
83.7434970389
 10
144.9199719506
 20
83.7536408226
 10
144.9174182366
 20
83.763692299
 10
144.9143165292
 20
83.7736287825
 10
144.9106738288
 20
83.783427847
 10
144.9064983567
 20
83.7930673767
 10
144.9017995368
 20
83.8025256156
 10
144.896587974
 20
83.8117812171
 10
144.8908754305
 20
83.8208132918
 10
144.8846747991
 20
83.8296014549
 10
144.8780000744
 20
83.8381258721
 10
144.8708663207
 20
83.8463673041
 10
144.8632896386
 20
83.8543071506
 10
144.8552871281
 20
83.8619274919
 10
144.8468768506
 20
83.8692111292
 10
144.8380777873
 20
83.8761416238
 10
144.8289097974
 20
83.8827033341
 10
144.8193935724
 20
83.8888814505
 10
144.80955059
 20
83.8946620295
 10
144.799403065
 20
83.9000320247
 10
144.7889738999
 20
83.9049793162
 10
144.7782866328
 20
83.9094927384
 10
144.767365384
 20
83.9135621047
 10
144.7562348023
 20
83.9171782308
 10
144.7449200088
 20
83.9203329552
 10
144.7334465401
 20
83.9230191581
 10
144.7218402913
 20
83.9252307767
 10
144.710127457
 20
83.9269628196
 10
144.6983344724
 20
83.9282113777
 10
144.6864879535
 20
83.9289736331
 10
144.6746146372
 20
83.9292478653
  0
LINE
  5
2FF
100
AcDbEntity
  8
0
100
AcDbLine
 62
253
  6
CONTINUOUS
 10
144.6746146372
 20
131.184910298
 11
144.6797052383
 21
130.6797288124
  0
LINE
  5
300
100
AcDbEntity
  8
0
100
AcDbLine
 62
253
  6
CONTINUOUS
 10
144.9246104064
 20
131.4014166489
 11
144.9304282362
 21
130.8240663797
  0
LINE
  5
301
100
AcDbEntity
  8
0
100
AcDbLine
 62
253
  6
CONTINUOUS
 10
144.6746146372
 20
83.0701776604
 11
144.6746146372
 21
83.9292478653
  0
LINE
  5
302
100
AcDbEntity
  8
0
100
AcDbLine
 62
253
  6
CONTINUOUS
 10
144.6746146372
 20
131.184910298
 11
144.6746146372
 21
132.0439805029
  0
LINE
  5
303
100
AcDbEntity
  8
0
100
AcDbLine
 62
253
  6
CONTINUOUS
 10
144.680432467
 20
84.4344293508
 11
144.680432467
 21
85.2356907506
  0
LINE
  5
304
100
AcDbEntity
  8
0
100
AcDbLine
 62
253
  6
CONTINUOUS
 10
144.680432467
 20
129.8784674127
 11
144.680432467
 21
130.6797288124
  0
LINE
  5
305
100
AcDbEntity
  8
0
100
AcDbLine
 62
7
  6
CONTINUOUS
 10
144.9246104064
 20
83.3201734296
 11
144.9246104064
 21
83.7127415143
  0
LINE
  5
306
100
AcDbEntity
  8
0
100
AcDbLine
 62
7
  6
CONTINUOUS
 10
144.9246104064
 20
131.4014166489
 11
144.9246104064
 21
131.7939847337
  0
LINE
  5
307
100
AcDbEntity
  8
0
100
AcDbLine
 62
7
  6
CONTINUOUS
 10
144.9304282362
 20
84.2900917835
 11
144.9304282362
 21
85.2226650293
  0
LINE
  5
308
100
AcDbEntity
  8
0
100
AcDbLine
 62
7
  6
CONTINUOUS
 10
144.9304282362
 20
129.8914931339
 11
144.9304282362
 21
130.8240663797
  0
LINE
  5
309
100
AcDbEntity
  8
0
100
AcDbLine
 62
7
  6
CONTINUOUS
 10
144.9377089851
 20
83.3070748508
 11
144.9377089851
 21
85.1570790816
  0
LINE
  5
30A
100
AcDbEntity
  8
0
100
AcDbLine
 62
7
  6
CONTINUOUS
 10
144.9377089851
 20
129.9570790816
 11
144.9377089851
 21
131.8070833124
  0
LINE
  5
30B
100
AcDbEntity
  8
0
100
AcDbLine
 62
253
  6
CONTINUOUS
 10
144.6797052383
 20
84.4344293508
 11
144.6746146372
 21
83.9292478653
  0
LINE
  5
30C
100
AcDbEntity
  8
0
100
AcDbLine
 62
253
  6
CONTINUOUS
 10
144.9304282362
 20
84.2900917835
 11
144.9246104064
 21
83.7127415143
  0
LWPOLYLINE
  5
30D
100
AcDbEntity
  8
0
100
AcDbPolyline
 62
7
  6
CONTINUOUS
 90
34
 70
0
 10
144.9246104064
 20
83.3201734296
 10
144.9243268556
 20
83.308278408
 10
144.9234776507
 20
83.2964103314
 10
144.9220647153
 20
83.2845960835
 10
144.92009125
 20
83.2728624262
 10
144.9175617252
 20
83.261235939
 10
144.9144818708
 20
83.2497429584
 10
144.9108586634
 20
83.2384095186
 10
144.9067003104
 20
83.2272612923
 10
144.9020162313
 20
83.2163235329
 10
144.8968170367
 20
83.2056210167
 10
144.8911145038
 20
83.1951779875
 10
144.8849215503
 20
83.1850181009
 10
144.8782522044
 20
83.1751643714
 10
144.8711215739
 20
83.1656391199
 10
144.8635458111
 20
83.1564639232
 10
144.8555420769
 20
83.1476595653
 10
144.8471285015
 20
83.1392459899
 10
144.8383241435
 20
83.1312422557
 10
144.8291489469
 20
83.1236664929
 10
144.8196236954
 20
83.1165358624
 10
144.8097699659
 20
83.1098665165
 10
144.7996100793
 20
83.103673563
 10
144.78916705
 20
83.0979710301
 10
144.7784645339
 20
83.0927718355
 10
144.7675267745
 20
83.0880877564
 10
144.7563785482
 20
83.0839294033
 10
144.7450451084
 20
83.0803061959
 10
144.7335521278
 20
83.0772263416
 10
144.7219256406
 20
83.0746968168
 10
144.7101919833
 20
83.0727233515
 10
144.6983777354
 20
83.0713104161
 10
144.6865096588
 20
83.0704612112
 10
144.6746146372
 20
83.0701776604
  0
LWPOLYLINE
  5
30E
100
AcDbEntity
  8
0
100
AcDbPolyline
 62
7
  6
CONTINUOUS
 90
4
 70
0
 10
144.9377089851
 20
83.3070748508
 10
144.9374258349
 20
83.2951795656
 10
144.9365770194
 20
83.2833112261
 10
144.9351644593
 20
83.2714967155
  0
LWPOLYLINE
  5
30F
100
AcDbEntity
  8
0
100
AcDbPolyline
 62
253
  6
CONTINUOUS
 90
34
 70
0
 10
144.9246104064
 20
131.4014166489
 10
144.9242937557
 20
131.3911338814
 10
144.923413594
 20
131.3808743215
 10
144.9219719077
 20
131.3706611243
 10
144.9199719506
 20
131.3605173406
 10
144.9174182366
 20
131.3504658642
 10
144.9143165292
 20
131.3405293807
 10
144.9106738288
 20
131.3307303162
 10
144.9064983567
 20
131.3210907866
 10
144.9017995368
 20
131.3116325477
 10
144.896587974
 20
131.3023769462
 10
144.8908754305
 20
131.2933448715
 10
144.8846747991
 20
131.2845567083
 10
144.8780000744
 20
131.2760322912
 10
144.8708663207
 20
131.2677908592
 10
144.8632896386
 20
131.2598510126
 10
144.8552871281
 20
131.2522306714
 10
144.8468768506
 20
131.2449470341
 10
144.8380777873
 20
131.2380165394
 10
144.8289097974
 20
131.2314548292
 10
144.8193935724
 20
131.2252767127
 10
144.80955059
 20
131.2194961337
 10
144.799403065
 20
131.2141261386
 10
144.7889738999
 20
131.209178847
 10
144.7782866328
 20
131.2046654249
 10
144.767365384
 20
131.2005960586
 10
144.7562348023
 20
131.1969799325
 10
144.7449200088
 20
131.193825208
 10
144.7334465401
 20
131.1911390052
 10
144.7218402913
 20
131.1889273865
 10
144.710127457
 20
131.1871953436
 10
144.6983344724
 20
131.1859467855
 10
144.6864879535
 20
131.1851845302
 10
144.6746146372
 20
131.184910298
  0
LINE
  5
310
100
AcDbEntity
  8
0
100
AcDbLine
 62
7
  6
CONTINUOUS
 10
142.0377089851
 20
85.1570790816
 11
142.0449897341
 21
85.2226650293
  0
LWPOLYLINE
  5
311
100
AcDbEntity
  8
0
100
AcDbPolyline
 62
253
  6
CONTINUOUS
 90
9
 70
0
 10
141.6513664626
 20
85.496851139
 10
141.6516507205
 20
85.499086819
 10
141.6519335861
 20
85.5023807041
 10
141.6522150594
 20
85.5067292664
 10
141.652495431
 20
85.5121278276
 10
141.6527744104
 20
85.5185706447
 10
141.653051126
 20
85.5260509692
 10
141.6533255804
 20
85.534560951
 10
141.6538668193
 20
85.5546324425
  0
LWPOLYLINE
  5
312
100
AcDbEntity
  8
RACCORDO
100
AcDbPolyline
 62
7
  6
CONTINUOUS
 90
6
 70
0
 10
144.4853882089
 20
105.1978765751
 10
144.4834202886
 20
105.1903687063
 10
144.4817121958
 20
105.1842236865
 10
144.4803213347
 20
105.1796032655
 10
144.4794328352
 20
105.1764850051
 10
144.4791656158
 20
105.1749370557
  0
LWPOLYLINE
  5
313
100
AcDbEntity
  8
RACCORDO
100
AcDbPolyline
 62
7
  6
CONTINUOUS
 90
3
 70
0
 10
144.4930519815
 20
105.2262925628
 10
144.4902989209
 20
105.2158931394
 10
144.4853882089
 20
105.1978765751
  0
LINE
  5
314
100
AcDbEntity
  8
RACCORDO
100
AcDbLine
 62
7
  6
CONTINUOUS
 10
144.4670375096
 20
105.1296743458
 11
144.4791664502
 21
105.1749401685
  0
LINE
  5
315
100
AcDbEntity
  8
RACCORDO
100
AcDbLine
 62
7
  6
CONTINUOUS
 10
144.5523644083
 20
105.4472747456
 11
144.5445551967
 21
105.4180004536
  0
LINE
  5
316
100
AcDbEntity
  8
RACCORDO
100
AcDbLine
 62
7
  6
CONTINUOUS
 10
144.5445551967
 20
105.4180004536
 11
144.4930519815
 21
105.2262925628
  0
LINE
  5
317
100
AcDbEntity
  8
SMUSSO
100
AcDbLine
 62
7
  6
CONTINUOUS
 10
151.0377089851
 20
118.7328985502
 11
151.1408253033
 21
118.8787270458
  0
LINE
  5
318
100
AcDbEntity
  8
SMUSSO
100
AcDbLine
 62
7
  6
CONTINUOUS
 10
151.1408253033
 20
118.1787270458
 11
151.6358000501
 21
118.8787270458
  0
LINE
  5
319
100
AcDbEntity
  8
RACCORDO
100
AcDbLine
 62
7
  6
CONTINUOUS
 10
153.3912376142
 20
119.3649203999
 11
153.3981820556
 21
119.3724746002
  0
LINE
  5
31A
100
AcDbEntity
  8
RACCORDO
100
AcDbLine
 62
7
  6
CONTINUOUS
 10
153.3981820556
 20
119.3724746002
 11
153.4226004784
 21
119.3983396719
  0
LINE
  5
31B
100
AcDbEntity
  8
RACCORDO
100
AcDbLine
 62
7
  6
CONTINUOUS
 10
153.4226004784
 20
119.3983396719
 11
153.4508610829
 21
119.4277446802
  0
LINE
  5
31C
100
AcDbEntity
  8
RACCORDO
100
AcDbLine
 62
7
  6
CONTINUOUS
 10
153.4508610829
 20
119.4277446802
 11
153.4816479494
 21
119.459388941
  0
LINE
  5
31D
100
AcDbEntity
  8
RACCORDO
100
AcDbLine
 62
7
  6
CONTINUOUS
 10
153.4816479494
 20
119.459388941
 11
153.5138685395
 21
119.49218877
  0
LWPOLYLINE
  5
31E
100
AcDbEntity
  8
RACCORDO
100
AcDbPolyline
 62
7
  6
CONTINUOUS
 90
3
 70
0
 10
153.5138685395
 20
119.49218877
 10
153.5571861808
 20
119.5359195161
 10
153.5679048207
 20
119.5466072353
  0
LINE
  5
31F
100
AcDbEntity
  8
RACCORDO
100
AcDbLine
 62
7
  6
CONTINUOUS
 10
153.3377089851
 20
119.3070790816
 11
153.367935315
 21
119.3373054115
  0
LINE
  5
320
100
AcDbEntity
  8
DRAFT
100
AcDbLine
 62
7
  6
CONTINUOUS
 10
144.4670375096
 20
105.1296743458
 11
148.2170375096
 21
98.6344838174
  0
LINE
  5
321
100
AcDbEntity
  8
RACCORDO
100
AcDbLine
 62
253
  6
CONTINUOUS
 10
144.4791664502
 20
105.1749401685
 11
148.2606016895
 21
98.6227628744
  0
LINE
  5
322
100
AcDbEntity
  8
RACCORDO
100
AcDbLine
 62
253
  6
CONTINUOUS
 10
144.552376246
 20
105.4472535486
 11
148.5336558037
 21
98.5460404575
  0
LINE
  5
323
100
AcDbEntity
  8
0
100
AcDbLine
 62
7
  6
CONTINUOUS
 10
142.0377089851
 20
129.9570790816
 11
142.0449897341
 21
129.8914931339
  0
LWPOLYLINE
  5
324
100
AcDbEntity
  8
0
100
AcDbPolyline
 62
253
  6
CONTINUOUS
 90
11
 70
0
 10
141.1514426151
 20
85.9961659064
 10
141.1517266776
 20
85.9972861546
 10
141.1520094065
 20
85.9989313119
 10
141.1522908018
 20
86.0011013783
 10
141.1525711758
 20
86.0037998156
 10
141.1528502161
 20
86.0070231618
 10
141.153126986
 20
86.0107610317
 10
141.1534014626
 20
86.015015025
 10
141.1536736688
 20
86.0197835418
 10
141.1539427358
 20
86.025051397
 10
141.1544714302
 20
86.0370882818
  0
LWPOLYLINE
  5
325
100
AcDbEntity
  8
RACCORDO
100
AcDbPolyline
 62
7
  6
CONTINUOUS
 90
6
 70
0
 10
153.3680941451
 20
119.3376716049
 10
153.3693187503
 20
119.3394387006
 10
153.3715964113
 20
119.34249814
 10
153.3749271282
 20
119.3467127619
 10
153.3794233614
 20
119.3519347362
 10
153.3912376142
 20
119.3649203999
  0
LINE
  5
326
100
AcDbEntity
  8
RACCORDO
100
AcDbLine
 62
7
  6
CONTINUOUS
 10
161.9002388894
 20
103.9796743458
 11
161.9453053661
 21
103.9917498719
  0
LINE
  5
327
100
AcDbEntity
  8
RACCORDO
100
AcDbLine
 62
7
  6
CONTINUOUS
 10
162.2184984085
 20
104.0635543171
 11
162.0722622892
 21
104.0245869626
  0
LINE
  5
328
100
AcDbEntity
  8
RACCORDO
100
AcDbLine
 62
7
  6
CONTINUOUS
 10
162.0722622892
 20
104.0245869626
 11
162.0324290209
 21
104.0140737623
  0
LWPOLYLINE
  5
329
100
AcDbEntity
  8
RACCORDO
100
AcDbPolyline
 62
7
  6
CONTINUOUS
 90
7
 70
0
 10
161.9867131683
 20
104.0021588325
 10
161.9685799997
 20
103.9974127572
 10
161.9609976601
 20
103.9955336002
 10
161.9547978416
 20
103.9939496548
 10
161.9501368308
 20
103.9927017521
 10
161.9469698877
 20
103.9919414141
 10
161.9453513578
 20
103.9917621952
  0
LINE
  5
32A
100
AcDbEntity
  8
RACCORDO
100
AcDbLine
 62
7
  6
CONTINUOUS
 10
162.0324290209
 20
104.0140737623
 11
161.9971493018
 21
104.0048274
  0
LINE
  5
32B
100
AcDbEntity
  8
RACCORDO
100
AcDbLine
 62
7
  6
CONTINUOUS
 10
161.9971493018
 20
104.0048274
 11
161.9867131683
 21
104.0021588325
  0
LWPOLYLINE
  5
32C
100
AcDbEntity
  8
RACCORDO
100
AcDbPolyline
 62
7
  6
CONTINUOUS
 90
6
 70
0
 10
142.4068379706
 20
103.9974127572
 10
142.4144203102
 20
103.9955336002
 10
142.4206201287
 20
103.9939496548
 10
142.4252811395
 20
103.9927017521
 10
142.4284480826
 20
103.9919414141
 10
142.4300666125
 20
103.9917621952
  0
LWPOLYLINE
  5
32D
100
AcDbEntity
  8
RACCORDO
100
AcDbPolyline
 62
7
  6
CONTINUOUS
 90
3
 70
0
 10
142.3782686685
 20
104.0048274
 10
142.388704802
 20
104.0021588325
 10
142.4068379706
 20
103.9974127572
  0
LINE
  5
32E
100
AcDbEntity
  8
RACCORDO
100
AcDbLine
 62
7
  6
CONTINUOUS
 10
142.3301364724
 20
104.017467263
 11
142.3782686685
 21
104.0048274
  0
LINE
  5
32F
100
AcDbEntity
  8
RACCORDO
100
AcDbLine
 62
7
  6
CONTINUOUS
 10
142.2160362514
 20
104.0477425843
 11
142.3301364724
 21
104.017467263
  0
LINE
  5
330
100
AcDbEntity
  8
RACCORDO
100
AcDbLine
 62
7
  6
CONTINUOUS
 10
142.4751790809
 20
103.9796743458
 11
142.4300654415
 21
103.9917625091
  0
LINE
  5
331
100
AcDbEntity
  8
RACCORDO
100
AcDbLine
 62
7
  6
CONTINUOUS
 10
142.1569195618
 20
104.0635543171
 11
142.2160362514
 21
104.0477425843
  0
LINE
  5
332
100
AcDbEntity
  8
RACCORDO
100
AcDbLine
 62
253
  6
CONTINUOUS
 10
158.1617053005
 20
97.4416905885
 11
156.1149722137
 21
98.6228526127
  0
LINE
  5
333
100
AcDbEntity
  8
RACCORDO
100
AcDbLine
 62
253
  6
CONTINUOUS
 10
156.6886524919
 20
98.0570790816
 11
155.8417621689
 21
98.54604045
  0
LINE
  5
334
100
AcDbEntity
  8
DRAFT
100
AcDbLine
 62
7
  6
CONTINUOUS
 10
158.1502388894
 20
97.4844838174
 11
156.1583804607
 21
98.6344838174
  0
LINE
  5
335
100
AcDbEntity
  8
RACCORDO
100
AcDbLine
 62
253
  6
CONTINUOUS
 10
158.2347153798
 20
97.1629107959
 11
156.6886524919
 21
98.0570790816
  0
LINE
  5
336
100
AcDbEntity
  8
0
100
AcDbLine
 62
7
  6
CONTINUOUS
 10
147.7377089851
 20
83.5570790816
 11
147.7377089851
 21
85.1570790816
  0
LINE
  5
337
100
AcDbEntity
  8
0
100
AcDbLine
 62
7
  6
CONTINUOUS
 10
147.7377089851
 20
129.9570790816
 11
147.7377089851
 21
131.5570790816
  0
LINE
  5
338
100
AcDbEntity
  8
0
100
AcDbLine
 62
7
  6
CONTINUOUS
 10
147.7464357299
 20
131.5483523369
 11
147.7464357299
 21
129.8784674127
  0
LINE
  5
339
100
AcDbEntity
  8
0
100
AcDbLine
 62
7
  6
CONTINUOUS
 10
147.7464357299
 20
85.2356907506
 11
147.7464357299
 21
83.5658058263
  0
LINE
  5
33A
100
AcDbEntity
  8
0
100
AcDbLine
 62
7
  6
CONTINUOUS
 10
148.6877089851
 20
83.5588311999
 11
148.6877089851
 21
85.2356907506
  0
LINE
  5
33B
100
AcDbEntity
  8
0
100
AcDbLine
 62
7
  6
CONTINUOUS
 10
148.6877089851
 20
129.8784674127
 11
148.6877089851
 21
131.5553269634
  0
LWPOLYLINE
  5
33C
100
AcDbEntity
  8
0
100
AcDbPolyline
 62
7
  6
CONTINUOUS
 90
28
 70
0
 10
144.9351644593
 20
83.2714967155
 10
144.9331913529
 20
83.2597627942
 10
144.9306621669
 20
83.2481360428
 10
144.9275826269
 20
83.2366428026
 10
144.9239597065
 20
83.2253091079
 10
144.9198016109
 20
83.2141606323
 10
144.9151177573
 20
83.2032226353
 10
144.909918754
 20
83.192519894
 10
144.9042163768
 20
83.1820766534
 10
144.8980235433
 20
83.1719165757
 10
144.8913542806
 20
83.1620626765
 10
144.8842236959
 20
83.1525372778
 10
144.876647944
 20
83.1433619626
 10
144.8686441856
 20
83.1345575155
 10
144.8602305512
 20
83.1261438811
 10
144.8514261042
 20
83.1181401228
 10
144.842250789
 20
83.1105643709
 10
144.8327253903
 20
83.1034337862
 10
144.8228714911
 20
83.0967645235
 10
144.8127114134
 20
83.09057169
 10
144.8022681727
 20
83.0848693128
 10
144.7915654314
 20
83.0796703095
 10
144.7806274344
 20
83.0749864559
 10
144.7694789589
 20
83.0708283603
 10
144.7581452642
 20
83.0672054399
 10
144.746652024
 20
83.0641258999
 10
144.7350252726
 20
83.0615967139
 10
144.7232913513
 20
83.0596236075
  0
LWPOLYLINE
  5
33D
100
AcDbEntity
  8
RACCORDO
100
AcDbPolyline
 62
7
  6
CONTINUOUS
 90
6
 70
0
 10
146.2078955417
 20
97.4177082109
 10
146.2098280437
 20
97.4255215071
 10
146.2114562878
 20
97.4319115645
 10
146.2127383416
 20
97.4367150586
 10
146.2135181787
 20
97.4399779741
 10
146.2136998323
 20
97.4416427922
  0
LWPOLYLINE
  5
33E
100
AcDbEntity
  8
RACCORDO
100
AcDbPolyline
 62
7
  6
CONTINUOUS
 90
3
 70
0
 10
146.2002791827
 20
97.3883151954
 10
146.2030174792
 20
97.3990446651
 10
146.2078955417
 20
97.4177082109
  0
LINE
  5
33F
100
AcDbEntity
  8
RACCORDO
100
AcDbLine
 62
7
  6
CONTINUOUS
 10
146.1800636874
 20
97.3113439063
 11
146.2002791827
 21
97.3883151954
  0
LINE
  5
340
100
AcDbEntity
  8
RACCORDO
100
AcDbLine
 62
7
  6
CONTINUOUS
 10
146.2251790809
 20
97.4844838174
 11
146.2136999301
 21
97.4416430436
  0
LINE
  5
341
100
AcDbEntity
  8
RACCORDO
100
AcDbLine
 62
7
  6
CONTINUOUS
 10
146.140536772
 20
97.1628071616
 11
146.1800636874
 21
97.3113439063
  0
LINE
  5
342
100
AcDbEntity
  8
0
100
AcDbLine
 62
253
  6
CONTINUOUS
 10
141.0385813397
 20
85.6573067365
 11
141.1514426151
 21
85.9961659064
  0
LINE
  5
343
100
AcDbEntity
  8
0
100
AcDbLine
 62
253
  6
CONTINUOUS
 10
141.5382011387
 20
85.1570790816
 11
141.6513664626
 21
85.496851139
  0
LINE
  5
344
100
AcDbEntity
  8
RACCORDO
100
AcDbLine
 62
7
  6
CONTINUOUS
 10
153.3680940843
 20
119.3376714116
 11
153.367935315
 21
119.3373054115
  0
LINE
  5
345
100
AcDbEntity
  8
RACCORDO
100
AcDbLine
 62
7
  6
CONTINUOUS
 10
151.0377089851
 20
111.8070790816
 11
151.0047939824
 21
111.7741640789
  0
LWPOLYLINE
  5
346
100
AcDbEntity
  8
RACCORDO
100
AcDbPolyline
 62
7
  6
CONTINUOUS
 90
7
 70
0
 10
150.9744781468
 20
111.744638668
 10
150.9877227211
 20
111.7577616379
 10
150.9932901123
 20
111.7631431249
 10
150.9978112059
 20
111.7675790955
 10
151.0011755097
 20
111.7709599796
 10
151.003493516
 20
111.7731801399
 10
151.0047652246
 20
111.7741353211
  0
LINE
  5
347
100
AcDbEntity
  8
RACCORDO
100
AcDbLine
 62
7
  6
CONTINUOUS
 10
150.8047956856
 20
111.5757732597
 11
150.9668009637
 21
111.7371181145
  0
LINE
  5
348
100
AcDbEntity
  8
RACCORDO
100
AcDbLine
 62
7
  6
CONTINUOUS
 10
150.9668009637
 20
111.7371181145
 11
150.9744781468
 21
111.744638668
  0
LINE
  5
349
100
AcDbEntity
  8
RACCORDO
100
AcDbLine
 62
253
  6
CONTINUOUS
 10
158.7504728862
 20
98.0570790818
 11
158.7058712362
 21
98.0829658193
  0
LINE
  5
34A
100
AcDbEntity
  8
RACCORDO
100
AcDbLine
 62
253
  6
CONTINUOUS
 10
158.7058712362
 20
98.0829658193
 11
158.6642785964
 21
98.1073624951
  0
LINE
  5
34B
100
AcDbEntity
  8
RACCORDO
100
AcDbLine
 62
253
  6
CONTINUOUS
 10
158.6642785964
 20
98.1073624951
 11
158.6396217438
 21
98.1219787756
  0
LINE
  5
34C
100
AcDbEntity
  8
RACCORDO
100
AcDbLine
 62
253
  6
CONTINUOUS
 10
158.6396217438
 20
98.1219787756
 11
158.6182991219
 21
98.134757272
  0
LWPOLYLINE
  5
34D
100
AcDbEntity
  8
RACCORDO
100
AcDbPolyline
 62
253
  6
CONTINUOUS
 90
8
 70
0
 10
158.6182991219
 20
98.134757272
 10
158.6009520822
 20
98.1453136267
 10
158.5939375865
 20
98.1496563893
 10
158.5881023968
 20
98.1533303211
 10
158.5834904744
 20
98.1563077435
 10
158.5801365646
 20
98.1585662252
 10
158.578065935
 20
98.1600887512
 10
158.5772941854
 20
98.1608638511
  0
LINE
  5
34E
100
AcDbEntity
  8
0
100
AcDbLine
 62
253
  6
CONTINUOUS
 10
141.1514347716
 20
129.1180158065
 11
141.0385813397
 21
129.4568514267
  0
LINE
  5
34F
100
AcDbEntity
  8
0
100
AcDbLine
 62
253
  6
CONTINUOUS
 10
141.6513664626
 20
129.6173070243
 11
141.5382011387
 21
129.9570790816
  0
LWPOLYLINE
  5
350
100
AcDbEntity
  8
0
100
AcDbPolyline
 62
7
  6
CONTINUOUS
 90
4
 70
0
 10
144.9351644593
 20
131.8426614478
 10
144.9365770194
 20
131.8308469372
 10
144.9374258349
 20
131.8189785977
 10
144.9377089851
 20
131.8070833124
  0
LINE
  5
351
100
AcDbEntity
  8
0
100
AcDbLine
 62
253
  6
CONTINUOUS
 10
150.9877089851
 20
83.5588311999
 11
150.9877089851
 21
85.1832829713
  0
LINE
  5
352
100
AcDbEntity
  8
0
100
AcDbLine
 62
253
  6
CONTINUOUS
 10
150.9877089851
 20
129.930875192
 11
150.9877089851
 21
131.5553269634
  0
LINE
  5
353
100
AcDbEntity
  8
RACCORDO
100
AcDbLine
 62
253
  6
CONTINUOUS
 10
150.8047956839
 20
111.5757732597
 11
150.8062427581
 21
117.4721428741
  0
LINE
  5
354
100
AcDbEntity
  8
RACCORDO
100
AcDbLine
 62
253
  6
CONTINUOUS
 10
151.0047939824
 20
111.7741640789
 11
151.0061987797
 21
117.4342632585
  0
LINE
  5
355
100
AcDbEntity
  8
RACCORDO
100
AcDbLine
 62
253
  6
CONTINUOUS
 10
151.0061987797
 20
117.4342632585
 11
151.007323886
 21
119.3376714116
  0
LINE
  5
356
100
AcDbEntity
  8
RACCORDO
100
AcDbLine
 62
253
  6
CONTINUOUS
 10
150.8062427581
 20
117.4721428741
 11
150.8075135227
 21
119.5466072353
  0
LINE
  5
357
100
AcDbEntity
  8
0
100
AcDbLine
 62
7
  6
CONTINUOUS
 10
147.7377089851
 20
85.1570790816
 11
147.7464357299
 21
85.2356907506
  0
LINE
  5
358
100
AcDbEntity
  8
RACCORDO
100
AcDbLine
 62
253
  6
CONTINUOUS
 10
142.1569196373
 20
104.063557388
 11
144.552376246
 21
105.4472535486
  0
LINE
  5
359
100
AcDbEntity
  8
RACCORDO
100
AcDbLine
 62
253
  6
CONTINUOUS
 10
142.4300654415
 20
103.9917625091
 11
144.4791650746
 21
105.1749350345
  0
LINE
  5
35A
100
AcDbEntity
  8
DRAFT
100
AcDbLine
 62
7
  6
CONTINUOUS
 10
142.4751790809
 20
103.9796743458
 11
144.4670375096
 21
105.1296743458
  0
LINE
  5
35B
100
AcDbEntity
  8
0
100
AcDbLine
 62
7
  6
CONTINUOUS
 10
147.7464357299
 20
129.8784674127
 11
147.7377089851
 21
129.9570790816
  0
LINE
  5
35C
100
AcDbEntity
  8
0
100
AcDbLine
 62
253
  6
CONTINUOUS
 10
151.1877089851
 20
131.3570756969
 11
151.1877089851
 21
131.355330348
  0
LINE
  5
35D
100
AcDbEntity
  8
0
100
AcDbLine
 62
253
  6
CONTINUOUS
 10
153.1877089851
 20
83.7570824663
 11
153.1877089851
 21
83.7588278153
  0
LINE
  5
35E
100
AcDbEntity
  8
DRAFT
100
AcDbLine
 62
7
  6
CONTINUOUS
 10
151.0377089851
 20
111.8070790816
 11
151.0377089851
 21
119.3070790816
  0
LINE
  5
35F
100
AcDbEntity
  8
SMUSSO
100
AcDbLine
 62
7
  6
CONTINUOUS
 10
151.1408253033
 20
111.883752299
 11
151.1408253033
 21
118.1787270458
  0
LINE
  5
360
100
AcDbEntity
  8
0
100
AcDbLine
 62
7
  6
CONTINUOUS
 10
151.1877089851
 20
83.7588278153
 11
151.1877089851
 21
85.1728014154
  0
LINE
  5
361
100
AcDbEntity
  8
0
100
AcDbLine
 62
7
  6
CONTINUOUS
 10
151.1877089851
 20
129.9413567478
 11
151.1877089851
 21
131.355330348
  0
LINE
  5
362
100
AcDbEntity
  8
0
100
AcDbLine
 62
7
  6
CONTINUOUS
 10
151.3954939523
 20
119.3070790816
 11
151.3954939523
 21
118.8787270458
  0
LINE
  5
363
100
AcDbEntity
  8
0
100
AcDbLine
 62
7
  6
CONTINUOUS
 10
151.9244748944
 20
118.8787270458
 11
151.9244748944
 21
119.3070790816
  0
LINE
  5
364
100
AcDbEntity
  8
0
100
AcDbLine
 62
253
  6
CONTINUOUS
 10
152.3429573376
 20
111.8070790816
 11
152.3429573376
 21
118.8787270458
  0
LINE
  5
365
100
AcDbEntity
  8
0
100
AcDbLine
 62
7
  6
CONTINUOUS
 10
152.6138403215
 20
118.8787270458
 11
152.6138403215
 21
119.3070790816
  0
LINE
  5
366
100
AcDbEntity
  8
0
100
AcDbLine
 62
7
  6
CONTINUOUS
 10
152.6358505564
 20
118.8787270458
 11
152.6358505564
 21
111.8070790816
  0
LINE
  5
367
100
AcDbEntity
  8
0
100
AcDbLine
 62
7
  6
CONTINUOUS
 10
152.7046473995
 20
118.8787270458
 11
152.7046473995
 21
111.8070790816
  0
LINE
  5
368
100
AcDbEntity
  8
0
100
AcDbLine
 62
7
  6
CONTINUOUS
 10
152.7321690579
 20
118.8787270458
 11
152.7321690579
 21
119.3070790816
  0
LINE
  5
369
100
AcDbEntity
  8
0
100
AcDbLine
 62
7
  6
CONTINUOUS
 10
151.1875186337
 20
83.7483585367
 11
151.1877089851
 21
83.7588278153
  0
LINE
  5
36A
100
AcDbEntity
  8
0
100
AcDbLine
 62
7
  6
CONTINUOUS
 10
153.1878993366
 20
131.3657996265
 11
153.1877089851
 21
131.355330348
  0
LINE
  5
36B
100
AcDbEntity
  8
RACCORDO
100
AcDbLine
 62
253
  6
CONTINUOUS
 10
153.3680940843
 20
119.3376714116
 11
153.3696380271
 21
116.1734272343
  0
LINE
  5
36C
100
AcDbEntity
  8
RACCORDO
100
AcDbLine
 62
253
  6
CONTINUOUS
 10
153.5679044476
 20
119.5466072353
 11
153.5696175715
 21
116.1435623433
  0
LINE
  5
36D
100
AcDbEntity
  8
RACCORDO
100
AcDbLine
 62
253
  6
CONTINUOUS
 10
153.3696380271
 20
116.1734272343
 11
153.3706239879
 21
111.7741640789
  0
LINE
  5
36E
100
AcDbEntity
  8
RACCORDO
100
AcDbLine
 62
253
  6
CONTINUOUS
 10
153.5696175715
 20
116.1435623433
 11
153.5706222864
 21
111.5757732597
  0
LINE
  5
36F
100
AcDbEntity
  8
0
100
AcDbLine
 62
253
  6
CONTINUOUS
 10
152.9386029564
 20
111.8070790816
 11
152.9386029564
 21
118.8787270458
  0
LINE
  5
370
100
AcDbEntity
  8
0
100
AcDbLine
 62
7
  6
CONTINUOUS
 10
153.1877089851
 20
131.355330348
 11
153.1877089851
 21
129.9413567478
  0
LINE
  5
371
100
AcDbEntity
  8
0
100
AcDbLine
 62
7
  6
CONTINUOUS
 10
153.1877089851
 20
85.1728014154
 11
153.1877089851
 21
83.7588278153
  0
LINE
  5
372
100
AcDbEntity
  8
DRAFT
100
AcDbLine
 62
7
  6
CONTINUOUS
 10
153.3377089851
 20
119.3070790816
 11
153.3377089851
 21
111.8070790816
  0
LINE
  5
373
100
AcDbEntity
  8
0
100
AcDbLine
 62
253
  6
CONTINUOUS
 10
153.3877089851
 20
85.1832829713
 11
153.3877089851
 21
83.5588311999
  0
LINE
  5
374
100
AcDbEntity
  8
0
100
AcDbLine
 62
253
  6
CONTINUOUS
 10
153.3877089851
 20
129.930875192
 11
153.3877089851
 21
131.5553269634
  0
LINE
  5
375
100
AcDbEntity
  8
0
100
AcDbLine
 62
7
  6
CONTINUOUS
 10
156.6377089851
 20
129.9570790816
 11
156.6289822404
 21
129.8784674127
  0
LINE
  5
376
100
AcDbEntity
  8
DRAFT
100
AcDbLine
 62
7
  6
CONTINUOUS
 10
159.9083804607
 20
105.1296743458
 11
161.9002388894
 21
103.9796743458
  0
LINE
  5
377
100
AcDbEntity
  8
RACCORDO
100
AcDbLine
 62
253
  6
CONTINUOUS
 10
159.8962529036
 20
105.1749350051
 11
161.9453525335
 21
103.9917625103
  0
LINE
  5
378
100
AcDbEntity
  8
RACCORDO
100
AcDbLine
 62
253
  6
CONTINUOUS
 10
159.8230417066
 20
105.4472535341
 11
162.2184983381
 21
104.0635573711
  0
LINE
  5
379
100
AcDbEntity
  8
0
100
AcDbLine
 62
7
  6
CONTINUOUS
 10
151.1408253033
 20
111.883752299
 11
151.2174985206
 21
111.8070790816
  0
LINE
  5
37A
100
AcDbEntity
  8
0
100
AcDbLine
 62
7
  6
CONTINUOUS
 10
156.6289822404
 20
85.2356907506
 11
156.6377089851
 21
85.1570790816
  0
LINE
  5
37B
100
AcDbEntity
  8
0
100
AcDbLine
 62
7
  6
CONTINUOUS
 10
155.6877089851
 20
131.5553269634
 11
155.6877089851
 21
129.8784674127
  0
LINE
  5
37C
100
AcDbEntity
  8
0
100
AcDbLine
 62
7
  6
CONTINUOUS
 10
155.6877089851
 20
85.2356907506
 11
155.6877089851
 21
83.5588311999
  0
LWPOLYLINE
  5
37D
100
AcDbEntity
  8
0
100
AcDbPolyline
 62
7
  6
CONTINUOUS
 90
28
 70
0
 10
159.440253511
 20
131.8426614478
 10
159.4422266174
 20
131.8543953691
 10
159.4447558034
 20
131.8660221204
 10
159.4478353434
 20
131.8775153606
 10
159.4514582638
 20
131.8888490554
 10
159.4556163594
 20
131.8999975309
 10
159.460300213
 20
131.9109355279
 10
159.4654992163
 20
131.9216382692
 10
159.4712015935
 20
131.9320815099
 10
159.477394427
 20
131.9422415875
 10
159.4840636897
 20
131.9520954868
 10
159.4911942744
 20
131.9616208855
 10
159.4987700263
 20
131.9707962007
 10
159.5067737847
 20
131.9796006477
 10
159.5151874191
 20
131.9880142821
 10
159.5239918661
 20
131.9960180405
 10
159.5331671813
 20
132.0035937923
 10
159.54269258
 20
132.0107243771
 10
159.5525464792
 20
132.0173936398
 10
159.5627065569
 20
132.0235864733
 10
159.5731497976
 20
132.0292888505
 10
159.5838525388
 20
132.0344878538
 10
159.5947905359
 20
132.0391717074
 10
159.6059390114
 20
132.043329803
 10
159.6172727061
 20
132.0469527233
 10
159.6287659463
 20
132.0500322634
 10
159.6403926977
 20
132.0525614494
 10
159.652126619
 20
132.0545345558
  0
LINE
  5
37E
100
AcDbEntity
  8
0
100
AcDbLine
 62
253
  6
CONTINUOUS
 10
162.8372168316
 20
129.9570790816
 11
162.7240515077
 21
129.6173070243
  0
LINE
  5
37F
100
AcDbEntity
  8
0
100
AcDbLine
 62
253
  6
CONTINUOUS
 10
163.3368366306
 20
129.4568514267
 11
163.2239919827
 21
129.1180412622
  0
LWPOLYLINE
  5
380
100
AcDbEntity
  8
RACCORDO
100
AcDbPolyline
 62
7
  6
CONTINUOUS
 90
6
 70
0
 10
153.3876952492
 20
111.7577616379
 10
153.382127858
 20
111.7631431249
 10
153.3776067644
 20
111.7675790955
 10
153.3742424606
 20
111.7709599796
 10
153.3719244543
 20
111.7731801399
 10
153.3706527457
 20
111.7741353211
  0
LWPOLYLINE
  5
381
100
AcDbEntity
  8
RACCORDO
100
AcDbPolyline
 62
7
  6
CONTINUOUS
 90
3
 70
0
 10
153.4086170065
 20
111.7371181145
 10
153.4009398235
 20
111.744638668
 10
153.3876952492
 20
111.7577616379
  0
LINE
  5
382
100
AcDbEntity
  8
RACCORDO
100
AcDbLine
 62
7
  6
CONTINUOUS
 10
153.4638079852
 20
111.6823500027
 11
153.4086170065
 21
111.7371181145
  0
LINE
  5
383
100
AcDbEntity
  8
RACCORDO
100
AcDbLine
 62
7
  6
CONTINUOUS
 10
153.3377089851
 20
111.8070790816
 11
153.3706527457
 21
111.7741353211
  0
LINE
  5
384
100
AcDbEntity
  8
RACCORDO
100
AcDbLine
 62
7
  6
CONTINUOUS
 10
153.5706222847
 20
111.5757732597
 11
153.4638079852
 21
111.6823500027
  0
LINE
  5
385
100
AcDbEntity
  8
RACCORDO
100
AcDbLine
 62
7
  6
CONTINUOUS
 10
151.007323886
 20
119.3376714116
 11
151.0074826553
 21
119.3373054115
  0
LINE
  5
386
100
AcDbEntity
  8
0
100
AcDbLine
 62
253
  6
CONTINUOUS
 10
162.7240515077
 20
85.496851139
 11
162.8372168316
 21
85.1570790816
  0
LINE
  5
387
100
AcDbEntity
  8
0
100
AcDbLine
 62
253
  6
CONTINUOUS
 10
163.2239753552
 20
85.9961659064
 11
163.3368366306
 21
85.6573067365
  0
LINE
  5
388
100
AcDbEntity
  8
RACCORDO
100
AcDbLine
 62
7
  6
CONTINUOUS
 10
158.1502388894
 20
97.4844838174
 11
158.1617053005
 21
97.4416905885
  0
LINE
  5
389
100
AcDbEntity
  8
RACCORDO
100
AcDbLine
 62
7
  6
CONTINUOUS
 10
158.2348811983
 20
97.1628071616
 11
158.1953542826
 21
97.3113439062
  0
LINE
  5
38A
100
AcDbEntity
  8
RACCORDO
100
AcDbLine
 62
7
  6
CONTINUOUS
 10
158.1953542826
 20
97.3113439062
 11
158.1846122064
 21
97.3521099642
  0
LWPOLYLINE
  5
38B
100
AcDbEntity
  8
RACCORDO
100
AcDbPolyline
 62
7
  6
CONTINUOUS
 90
7
 70
0
 10
158.172400491
 20
97.3990446651
 10
158.1675224286
 20
97.4177082108
 10
158.1655899266
 20
97.4255215071
 10
158.1639616824
 20
97.4319115645
 10
158.1626796287
 20
97.4367150586
 10
158.1618997915
 20
97.4399779741
 10
158.161718138
 20
97.4416427922
  0
LINE
  5
38C
100
AcDbEntity
  8
RACCORDO
100
AcDbLine
 62
7
  6
CONTINUOUS
 10
158.1846122064
 20
97.3521099642
 11
158.1751387875
 21
97.3883151954
  0
LINE
  5
38D
100
AcDbEntity
  8
RACCORDO
100
AcDbLine
 62
7
  6
CONTINUOUS
 10
158.1751387875
 20
97.3883151954
 11
158.172400491
 21
97.3990446651
  0
LINE
  5
38E
100
AcDbEntity
  8
0
100
AcDbLine
 62
7
  6
CONTINUOUS
 10
156.6289822404
 20
83.5658058263
 11
156.6289822404
 21
85.2356907506
  0
LINE
  5
38F
100
AcDbEntity
  8
0
100
AcDbLine
 62
7
  6
CONTINUOUS
 10
156.6289822404
 20
129.8784674127
 11
156.6289822404
 21
131.5483523369
  0
LINE
  5
390
100
AcDbEntity
  8
0
100
AcDbLine
 62
7
  6
CONTINUOUS
 10
156.6377089851
 20
85.1570790816
 11
156.6377089851
 21
83.5570790816
  0
LINE
  5
391
100
AcDbEntity
  8
0
100
AcDbLine
 62
7
  6
CONTINUOUS
 10
156.6377089851
 20
129.9570790816
 11
156.6377089851
 21
131.5570790816
  0
LWPOLYLINE
  5
392
100
AcDbEntity
  8
0
100
AcDbPolyline
 62
253
  6
CONTINUOUS
 90
12
 70
0
 10
163.2239919827
 20
129.1180412622
 10
163.2237073017
 20
129.1169487014
 10
163.223423995
 20
129.1153299138
 10
163.2231420625
 20
129.1131848995
 10
163.2228612072
 20
129.1105102561
 10
163.2225817261
 20
129.1073093859
 10
163.2223045101
 20
129.1035924958
 10
163.2220295663
 20
129.0993579347
 10
163.2217568877
 20
129.0946073536
 10
163.2214873434
 20
129.0893559124
 10
163.2212209435
 20
129.083602014
 10
163.2206983863
 20
129.0706115889
  0
LWPOLYLINE
  5
393
100
AcDbEntity
  8
RACCORDO
100
AcDbPolyline
 62
253
  6
CONTINUOUS
 90
7
 70
0
 10
145.7744658907
 20
98.1453136282
 10
145.7814803861
 20
98.1496563905
 10
145.7873155754
 20
98.1533303222
 10
145.7919274973
 20
98.1563077443
 10
145.7952814067
 20
98.1585662258
 10
145.7973520358
 20
98.1600887515
 10
145.7981237849
 20
98.1608638511
  0
LINE
  5
394
100
AcDbEntity
  8
RACCORDO
100
AcDbLine
 62
253
  6
CONTINUOUS
 10
145.7571188513
 20
98.1347572736
 11
145.7744658907
 21
98.1453136282
  0
LINE
  5
395
100
AcDbEntity
  8
RACCORDO
100
AcDbLine
 62
253
  6
CONTINUOUS
 10
145.7357962294
 20
98.1219787772
 11
145.7571188513
 21
98.1347572736
  0
LINE
  5
396
100
AcDbEntity
  8
RACCORDO
100
AcDbLine
 62
253
  6
CONTINUOUS
 10
145.6977890505
 20
98.0995007655
 11
145.7357962294
 21
98.1219787772
  0
LINE
  5
397
100
AcDbEntity
  8
RACCORDO
100
AcDbLine
 62
253
  6
CONTINUOUS
 10
145.6548675186
 20
98.0744171765
 11
145.6977890505
 21
98.0995007655
  0
LINE
  5
398
100
AcDbEntity
  8
RACCORDO
100
AcDbLine
 62
253
  6
CONTINUOUS
 10
145.6249450841
 20
98.0570790816
 11
145.6548675186
 21
98.0744171765
  0
LINE
  5
399
100
AcDbEntity
  8
DRAFT
100
AcDbLine
 62
7
  6
CONTINUOUS
 10
148.2170375096
 20
98.6344838174
 11
146.2251790809
 21
97.4844838174
  0
LINE
  5
39A
100
AcDbEntity
  8
RACCORDO
100
AcDbLine
 62
253
  6
CONTINUOUS
 10
148.2604457566
 20
98.6228526127
 11
146.2137126698
 21
97.4416905885
  0
LINE
  5
39B
100
AcDbEntity
  8
RACCORDO
100
AcDbLine
 62
253
  6
CONTINUOUS
 10
153.5706222864
 20
111.5757732597
 11
150.8047956839
 21
111.5757732597
  0
LINE
  5
39C
100
AcDbEntity
  8
RACCORDO
100
AcDbLine
 62
253
  6
CONTINUOUS
 10
153.3706527457
 20
111.7741353211
 11
151.0047652246
 21
111.7741353211
  0
LINE
  5
39D
100
AcDbEntity
  8
DRAFT
100
AcDbLine
 62
7
  6
CONTINUOUS
 10
153.3377089851
 20
111.8070790816
 11
151.0377089851
 21
111.8070790816
  0
LINE
  5
39E
100
AcDbEntity
  8
0
100
AcDbLine
 62
7
  6
CONTINUOUS
 10
151.0377089851
 20
111.883752299
 11
151.1408253033
 21
111.883752299
  0
LWPOLYLINE
  5
39F
100
AcDbEntity
  8
RACCORDO
100
AcDbPolyline
 62
7
  6
CONTINUOUS
 90
5
 70
0
 10
151.0073238252
 20
119.3376716049
 10
151.00609922
 20
119.3394387006
 10
151.003821559
 20
119.34249814
 10
151.0004908421
 20
119.3467127619
 10
150.9959946089
 20
119.3519347362
  0
LWPOLYLINE
  5
3A0
100
AcDbEntity
  8
0
100
AcDbPolyline
 62
7
  6
CONTINUOUS
 90
4
 70
0
 10
159.440253511
 20
83.2714967155
 10
159.4388409509
 20
83.2833112261
 10
159.4379921354
 20
83.2951795656
 10
159.4377089851
 20
83.3070748508
  0
LINE
  5
3A1
100
AcDbEntity
  8
0
100
AcDbLine
 62
253
  6
CONTINUOUS
 10
159.4508075639
 20
83.7127415143
 11
159.4449897341
 21
84.2900917835
  0
LINE
  5
3A2
100
AcDbEntity
  8
0
100
AcDbLine
 62
253
  6
CONTINUOUS
 10
159.7008033331
 20
83.9292478653
 11
159.695712732
 21
84.4344293508
  0
LINE
  5
3A3
100
AcDbEntity
  8
0
100
AcDbLine
 62
7
  6
CONTINUOUS
 10
159.4377089851
 20
83.3070748508
 11
159.4377089851
 21
85.1570790816
  0
LINE
  5
3A4
100
AcDbEntity
  8
0
100
AcDbLine
 62
7
  6
CONTINUOUS
 10
159.4377089851
 20
129.9570790816
 11
159.4377089851
 21
131.8070833124
  0
LINE
  5
3A5
100
AcDbEntity
  8
0
100
AcDbLine
 62
7
  6
CONTINUOUS
 10
159.4449897341
 20
130.8240663797
 11
159.4449897341
 21
129.8914931339
  0
LINE
  5
3A6
100
AcDbEntity
  8
0
100
AcDbLine
 62
7
  6
CONTINUOUS
 10
159.4449897341
 20
85.2226650293
 11
159.4449897341
 21
84.2900917835
  0
LINE
  5
3A7
100
AcDbEntity
  8
0
100
AcDbLine
 62
7
  6
CONTINUOUS
 10
159.4508075639
 20
131.7939847337
 11
159.4508075639
 21
131.4014166489
  0
LINE
  5
3A8
100
AcDbEntity
  8
0
100
AcDbLine
 62
7
  6
CONTINUOUS
 10
159.4508075639
 20
83.7127415143
 11
159.4508075639
 21
83.3201734296
  0
LINE
  5
3A9
100
AcDbEntity
  8
0
100
AcDbLine
 62
253
  6
CONTINUOUS
 10
159.6949855033
 20
130.6797288124
 11
159.6949855033
 21
129.8784674127
  0
LINE
  5
3AA
100
AcDbEntity
  8
0
100
AcDbLine
 62
253
  6
CONTINUOUS
 10
159.6949855033
 20
85.2356907506
 11
159.6949855033
 21
84.4344293508
  0
LINE
  5
3AB
100
AcDbEntity
  8
0
100
AcDbLine
 62
253
  6
CONTINUOUS
 10
159.7008033331
 20
83.0701776604
 11
159.7008033331
 21
83.9292478653
  0
LINE
  5
3AC
100
AcDbEntity
  8
0
100
AcDbLine
 62
253
  6
CONTINUOUS
 10
159.7008033331
 20
131.184910298
 11
159.7008033331
 21
132.0439805029
  0
LINE
  5
3AD
100
AcDbEntity
  8
0
100
AcDbLine
 62
253
  6
CONTINUOUS
 10
159.4449897341
 20
130.8240663797
 11
159.4508075639
 21
131.4014166489
  0
LINE
  5
3AE
100
AcDbEntity
  8
0
100
AcDbLine
 62
253
  6
CONTINUOUS
 10
159.695712732
 20
130.6797288124
 11
159.7008033331
 21
131.184910298
  0
LWPOLYLINE
  5
3AF
100
AcDbEntity
  8
0
100
AcDbPolyline
 62
7
  6
CONTINUOUS
 90
4
 70
0
 10
159.4377089851
 20
131.8070833124
 10
159.4379921354
 20
131.8189785977
 10
159.4388409509
 20
131.8308469372
 10
159.440253511
 20
131.8426614478
  0
LWPOLYLINE
  5
3B0
100
AcDbEntity
  8
0
100
AcDbPolyline
 62
7
  6
CONTINUOUS
 90
34
 70
0
 10
159.4508075639
 20
131.7939847337
 10
159.4510911147
 20
131.8058797552
 10
159.4519403196
 20
131.8177478319
 10
159.453353255
 20
131.8295620798
 10
159.4553267203
 20
131.8412957371
 10
159.4578562451
 20
131.8529222243
 10
159.4609360995
 20
131.8644152049
 10
159.4645593069
 20
131.8757486447
 10
159.4687176599
 20
131.8868968709
 10
159.473401739
 20
131.8978346304
 10
159.4786009336
 20
131.9085371465
 10
159.4843034665
 20
131.9189801758
 10
159.49049642
 20
131.9291400624
 10
159.4971657659
 20
131.9389937919
 10
159.5042963964
 20
131.9485190434
 10
159.5118721592
 20
131.95769424
 10
159.5198758934
 20
131.966498598
 10
159.5282894688
 20
131.9749121734
 10
159.5370938268
 20
131.9829159076
 10
159.5462690234
 20
131.9904916704
 10
159.5557942749
 20
131.9976223009
 10
159.5656480044
 20
132.0042916467
 10
159.575807891
 20
132.0104846003
 10
159.5862509203
 20
132.0161871332
 10
159.5969534364
 20
132.0213863278
 10
159.6078911958
 20
132.0260704069
 10
159.6190394221
 20
132.0302287599
 10
159.6303728619
 20
132.0338519673
 10
159.6418658425
 20
132.0369318217
 10
159.6534923297
 20
132.0394613465
 10
159.665225987
 20
132.0414348118
 10
159.6770402349
 20
132.0428477472
 10
159.6889083115
 20
132.0436969521
 10
159.7008033331
 20
132.0439805029
  0
LINE
  5
3B1
100
AcDbEntity
  8
0
100
AcDbLine
 62
7
  6
CONTINUOUS
 10
162.3377089851
 20
129.9570790816
 11
162.3304282362
 21
129.8914931339
  0
LWPOLYLINE
  5
3B2
100
AcDbEntity
  8
0
100
AcDbPolyline
 62
253
  6
CONTINUOUS
 90
9
 70
0
 10
162.7240513233
 20
129.6173070243
 10
162.7237671666
 20
129.6150713988
 10
162.7234843734
 20
129.6117775774
 10
162.7232029436
 20
129.6074290609
 10
162.7229225743
 20
129.6020304708
 10
162.7226435685
 20
129.5955875428
 10
162.722366835
 20
129.5881071195
 10
162.7220923881
 20
129.579597145
 10
162.7215511768
 20
129.5595257925
  0
LWPOLYLINE
  5
3B3
100
AcDbEntity
  8
RACCORDO
100
AcDbPolyline
 62
253
  6
CONTINUOUS
 90
3
 70
0
 10
155.8417621689
 20
98.54604045
 10
159.1228794055
 20
104.2338185816
 10
159.8230417066
 20
105.4472535341
  0
LINE
  5
3B4
100
AcDbEntity
  8
RACCORDO
100
AcDbLine
 62
253
  6
CONTINUOUS
 10
147.6867654784
 20
98.0570790816
 11
146.1407025608
 21
97.1629108474
  0
LINE
  5
3B5
100
AcDbEntity
  8
RACCORDO
100
AcDbLine
 62
253
  6
CONTINUOUS
 10
148.5336558037
 20
98.5460404575
 11
147.6867654784
 21
98.0570790816
  0
LINE
  5
3B6
100
AcDbEntity
  8
RACCORDO
100
AcDbLine
 62
7
  6
CONTINUOUS
 10
150.8182317895
 20
119.5359195161
 11
150.8075131496
 21
119.5466072353
  0
LINE
  5
3B7
100
AcDbEntity
  8
RACCORDO
100
AcDbLine
 62
7
  6
CONTINUOUS
 10
151.0377089851
 20
119.3070790816
 11
151.0074826553
 21
119.3373054115
  0
LINE
  5
3B8
100
AcDbEntity
  8
RACCORDO
100
AcDbLine
 62
7
  6
CONTINUOUS
 10
150.8723714833
 20
119.4811869081
 11
150.8182317895
 21
119.5359195161
  0
LWPOLYLINE
  5
3B9
100
AcDbEntity
  8
RACCORDO
100
AcDbPolyline
 62
7
  6
CONTINUOUS
 90
3
 70
0
 10
150.9245568874
 20
119.4277446802
 10
150.9042293406
 20
119.4486526568
 10
150.8723714833
 20
119.4811869081
  0
LINE
  5
3BA
100
AcDbEntity
  8
RACCORDO
100
AcDbLine
 62
7
  6
CONTINUOUS
 10
150.9528174919
 20
119.3983396719
 11
150.9245568874
 21
119.4277446802
  0
LINE
  5
3BB
100
AcDbEntity
  8
RACCORDO
100
AcDbLine
 62
7
  6
CONTINUOUS
 10
150.9772359147
 20
119.3724746002
 11
150.9528174919
 21
119.3983396719
  0
LWPOLYLINE
  5
3BC
100
AcDbEntity
  8
RACCORDO
100
AcDbPolyline
 62
7
  6
CONTINUOUS
 90
3
 70
0
 10
150.9959946089
 20
119.3519347362
 10
150.9841803561
 20
119.3649203999
 10
150.9772359147
 20
119.3724746002
  0
LWPOLYLINE
  5
3BD
100
AcDbEntity
  8
RACCORDO
100
AcDbPolyline
 62
7
  6
CONTINUOUS
 90
6
 70
0
 10
159.8899883374
 20
105.197896457
 10
159.8920695725
 20
105.190409439
 10
159.893700807
 20
105.1842420013
 10
159.8948475197
 20
105.1795590105
 10
159.8956758618
 20
105.1764229363
 10
159.8962502518
 20
105.1749448982
  0
LWPOLYLINE
  5
3BE
100
AcDbEntity
  8
RACCORDO
100
AcDbPolyline
 62
7
  6
CONTINUOUS
 90
3
 70
0
 10
159.8823383414
 20
105.2263222456
 10
159.8851781927
 20
105.2159488173
 10
159.8899883374
 20
105.197896457
  0
LINE
  5
3BF
100
AcDbEntity
  8
RACCORDO
100
AcDbLine
 62
7
  6
CONTINUOUS
 10
159.9083804607
 20
105.1296743458
 11
159.8962529036
 21
105.1749350051
  0
LWPOLYLINE
  5
3C0
100
AcDbEntity
  8
RACCORDO
100
AcDbPolyline
 62
7
  6
CONTINUOUS
 90
3
 70
0
 10
159.8230535638
 20
105.447274739
 10
159.830939135
 20
105.417976859
 10
159.8823383414
 20
105.2263222456
  0
LINE
  5
3C1
100
AcDbEntity
  8
0
100
AcDbLine
 62
7
  6
CONTINUOUS
 10
162.3377089851
 20
85.1570790816
 11
162.3304282362
 21
85.2226650293
  0
LWPOLYLINE
  5
3C2
100
AcDbEntity
  8
0
100
AcDbPolyline
 62
7
  6
CONTINUOUS
 90
46
 70
0
 10
159.4449897341
 20
130.8240663797
 10
159.4451619853
 20
130.8194877255
 10
159.4455880612
 20
130.814892418
 10
159.4462702787
 20
130.810287569
 10
159.44721068
 20
130.8056830981
 10
159.4484110467
 20
130.8010837118
 10
159.4498729856
 20
130.7964889085
 10
159.4515977863
 20
130.7919064865
 10
159.4535864705
 20
130.787344029
 10
159.4558399907
 20
130.7828009155
 10
159.458358821
 20
130.7782852778
 10
159.4611431594
 20
130.7738050364
 10
159.4641932949
 20
130.769359457
 10
159.4675088274
 20
130.7649569634
 10
159.4710890769
 20
130.7606057671
 10
159.4749336655
 20
130.7563050235
 10
159.4790412737
 20
130.75206339
 10
159.4834102768
 20
130.7478893367
 10
159.4880395882
 20
130.7437819547
 10
159.4929269062
 20
130.739750084
 10
159.4980695946
 20
130.7358024009
 10
159.5034657938
 20
130.7319379767
 10
159.5091121548
 20
130.7281657684
 10
159.5150049512
 20
130.7244946028
 10
159.5211414485
 20
130.7209235824
 10
159.5275171788
 20
130.7174617018
 10
159.5341272378
 20
130.7141178683
 10
159.540967875
 20
130.7108912674
 10
159.5480334244
 20
130.7077908323
 10
159.5553177129
 20
130.7048254602
 10
159.5628157982
 20
130.7019944654
 10
159.5705207322
 20
130.699306595
 10
159.5784249852
 20
130.6967706196
 10
159.5865222361
 20
130.6943860107
 10
159.594804138
 20
130.6921611869
 10
159.6032617636
 20
130.6901046321
 10
159.6118873414
 20
130.6882159583
 10
159.620671077
 20
130.6865030774
 10
159.6296025825
 20
130.6849740237
 10
159.6386725578
 20
130.6836285425
 10
159.6478564453
 20
130.6824760797
 10
159.6571554735
 20
130.6815209212
 10
159.6665991347
 20
130.6807588326
 10
159.6761891058
 20
130.6801972161
 10
159.6858983263
 20
130.679850544
 10
159.695712732
 20
130.6797288124
  0
LWPOLYLINE
  5
3C3
100
AcDbEntity
  8
0
100
AcDbPolyline
 62
7
  6
CONTINUOUS
 90
46
 70
0
 10
162.3304282362
 20
84.2900917835
 10
162.330255985
 20
84.2946704378
 10
162.3298299091
 20
84.2992657453
 10
162.3291476916
 20
84.3038705943
 10
162.3282072903
 20
84.3084750652
 10
162.3270069236
 20
84.3130744515
 10
162.3255449847
 20
84.3176692548
 10
162.323820184
 20
84.3222516768
 10
162.3218314998
 20
84.3268141342
 10
162.3195779796
 20
84.3313572477
 10
162.3170591492
 20
84.3358728855
 10
162.3142748109
 20
84.3403531268
 10
162.3112246754
 20
84.3447987062
 10
162.3079091429
 20
84.3492011999
 10
162.3043288934
 20
84.3535523962
 10
162.3004843048
 20
84.3578531398
 10
162.2963766966
 20
84.3620947732
 10
162.2920076935
 20
84.3662688266
 10
162.287378382
 20
84.3703762086
 10
162.2824910641
 20
84.3744080793
 10
162.2773483757
 20
84.3783557624
 10
162.2719521765
 20
84.3822201866
 10
162.2663058155
 20
84.3859923949
 10
162.2604130191
 20
84.3896635604
 10
162.2542765218
 20
84.3932345809
 10
162.2479007915
 20
84.3966964614
 10
162.2412907325
 20
84.400040295
 10
162.2344500953
 20
84.4032668959
 10
162.2273845459
 20
84.406367331
 10
162.2201002574
 20
84.4093327031
 10
162.2126021721
 20
84.4121636979
 10
162.2048972381
 20
84.4148515682
 10
162.1969929851
 20
84.4173875436
 10
162.1888957342
 20
84.4197721526
 10
162.1806138323
 20
84.4219969763
 10
162.1721562067
 20
84.4240535311
 10
162.1635306289
 20
84.4259422049
 10
162.1547468933
 20
84.4276550859
 10
162.1458153878
 20
84.4291841395
 10
162.1367454125
 20
84.4305296208
 10
162.127561525
 20
84.4316820836
 10
162.1182624968
 20
84.4326372421
 10
162.1088188356
 20
84.4333993306
 10
162.0992288645
 20
84.4339609472
 10
162.089519644
 20
84.4343076193
 10
162.0797052383
 20
84.4344293508
  0
LWPOLYLINE
  5
3C4
100
AcDbEntity
  8
0
100
AcDbPolyline
 62
253
  6
CONTINUOUS
 90
34
 70
0
 10
159.4508075639
 20
131.4014166489
 10
159.4511242146
 20
131.3911338814
 10
159.4520043763
 20
131.3808743215
 10
159.4534460626
 20
131.3706611243
 10
159.4554460197
 20
131.3605173406
 10
159.4579997337
 20
131.3504658642
 10
159.4611014411
 20
131.3405293807
 10
159.4647441415
 20
131.3307303162
 10
159.4689196136
 20
131.3210907866
 10
159.4736184335
 20
131.3116325477
 10
159.4788299963
 20
131.3023769462
 10
159.4845425398
 20
131.2933448715
 10
159.4907431712
 20
131.2845567083
 10
159.4974178959
 20
131.2760322912
 10
159.5045516496
 20
131.2677908592
 10
159.5121283317
 20
131.2598510126
 10
159.5201308422
 20
131.2522306714
 10
159.5285411197
 20
131.2449470341
 10
159.537340183
 20
131.2380165394
 10
159.5465081729
 20
131.2314548292
 10
159.5560243979
 20
131.2252767127
 10
159.5658673803
 20
131.2194961337
 10
159.5760149053
 20
131.2141261386
 10
159.5864440704
 20
131.209178847
 10
159.5971313375
 20
131.2046654249
 10
159.6080525863
 20
131.2005960586
 10
159.6191831679
 20
131.1969799325
 10
159.6304979615
 20
131.193825208
 10
159.6419714302
 20
131.1911390052
 10
159.653577679
 20
131.1889273865
 10
159.6652905133
 20
131.1871953436
 10
159.6770834979
 20
131.1859467855
 10
159.6889300168
 20
131.1851845302
 10
159.7008033331
 20
131.184910298
  0
LWPOLYLINE
  5
3C5
100
AcDbEntity
  8
0
100
AcDbPolyline
 62
253
  6
CONTINUOUS
 90
34
 70
0
 10
162.3246104064
 20
83.7127415143
 10
162.3242937557
 20
83.7230242819
 10
162.323413594
 20
83.7332838418
 10
162.3219719077
 20
83.7434970389
 10
162.3199719506
 20
83.7536408226
 10
162.3174182366
 20
83.763692299
 10
162.3143165292
 20
83.7736287825
 10
162.3106738288
 20
83.783427847
 10
162.3064983567
 20
83.7930673767
 10
162.3017995368
 20
83.8025256156
 10
162.296587974
 20
83.8117812171
 10
162.2908754305
 20
83.8208132918
 10
162.2846747991
 20
83.8296014549
 10
162.2780000744
 20
83.8381258721
 10
162.2708663207
 20
83.8463673041
 10
162.2632896386
 20
83.8543071506
 10
162.2552871281
 20
83.8619274919
 10
162.2468768506
 20
83.8692111292
 10
162.2380777873
 20
83.8761416238
 10
162.2289097974
 20
83.8827033341
 10
162.2193935724
 20
83.8888814505
 10
162.20955059
 20
83.8946620295
 10
162.199403065
 20
83.9000320247
 10
162.1889738999
 20
83.9049793162
 10
162.1782866328
 20
83.9094927384
 10
162.167365384
 20
83.9135621047
 10
162.1562348023
 20
83.9171782308
 10
162.1449200088
 20
83.9203329552
 10
162.1334465401
 20
83.9230191581
 10
162.1218402913
 20
83.9252307767
 10
162.110127457
 20
83.9269628196
 10
162.0983344724
 20
83.9282113777
 10
162.0864879535
 20
83.9289736331
 10
162.0746146372
 20
83.9292478653
  0
LWPOLYLINE
  5
3C6
100
AcDbEntity
  8
0
100
AcDbPolyline
 62
253
  6
CONTINUOUS
 90
34
 70
0
 10
159.4508075639
 20
83.7127415143
 10
159.4511236911
 20
83.7230152921
 10
159.4520026033
 20
83.7332682026
 10
159.4534426949
 20
83.7434771124
 10
159.4554412608
 20
83.7536197117
 10
159.4579940767
 20
83.7636723013
 10
159.4610949968
 20
83.773609922
 10
159.4647367048
 20
83.7834093542
 10
159.4689112102
 20
83.79304929
 10
159.4736091908
 20
83.8025081606
 10
159.4788201473
 20
83.8117647275
 10
159.4845322885
 20
83.820797956
 10
159.4907326208
 20
83.8295872673
 10
159.4974070968
 20
83.8381127591
 10
159.5045406946
 20
83.8463552529
 10
159.5121173286
 20
83.8542961602
 10
159.5201199109
 20
83.8619175649
 10
159.5285303691
 20
83.8692022492
 10
159.5373297016
 20
83.8761337525
 10
159.5464980384
 20
83.8826964235
 10
159.5560146902
 20
83.8888754536
 10
159.5658581753
 20
83.8946568948
 10
159.5760062741
 20
83.9000276967
 10
159.586436079
 20
83.9049757357
 10
159.5971240463
 20
83.9094898423
 10
159.608046063
 20
83.9135598311
 10
159.6191774622
 20
83.9171765095
 10
159.6304930765
 20
83.9203317031
 10
159.6419673344
 20
83.9230182889
 10
159.6535743602
 20
83.9252302154
 10
159.6652879939
 20
83.9269625002
 10
159.6770818087
 20
83.928211234
 10
159.6889291694
 20
83.928973596
 10
159.7008033331
 20
83.9292478653
  0
LWPOLYLINE
  5
3C7
100
AcDbEntity
  8
0
100
AcDbPolyline
 62
253
  6
CONTINUOUS
 90
34
 70
0
 10
162.3246104064
 20
131.4014166489
 10
162.3242942792
 20
131.3911428711
 10
162.323415367
 20
131.3808899607
 10
162.3219752754
 20
131.3706810508
 10
162.3199767095
 20
131.3605384515
 10
162.3174238936
 20
131.3504858619
 10
162.3143229735
 20
131.3405482413
 10
162.3106812655
 20
131.330748809
 10
162.3065067601
 20
131.3211088732
 10
162.3018087795
 20
131.3116500027
 10
162.296597823
 20
131.3023934357
 10
162.2908856818
 20
131.2933602072
 10
162.2846853495
 20
131.2845708959
 10
162.2780108735
 20
131.2760454042
 10
162.2708772757
 20
131.2678029104
 10
162.2633006417
 20
131.259862003
 10
162.2552980594
 20
131.2522405984
 10
162.2468876012
 20
131.2449559141
 10
162.2380882687
 20
131.2380244108
 10
162.2289199319
 20
131.2314617397
 10
162.2194032801
 20
131.2252827097
 10
162.209559795
 20
131.2195012685
 10
162.1994116962
 20
131.2141304665
 10
162.1889818913
 20
131.2091824275
 10
162.178293924
 20
131.204668321
 10
162.1673719073
 20
131.2005983322
 10
162.1562405081
 20
131.1969816538
 10
162.1449248938
 20
131.1938264602
 10
162.1334506359
 20
131.1911398744
 10
162.1218436101
 20
131.1889279478
 10
162.1101299764
 20
131.1871956631
 10
162.0983361616
 20
131.1859469292
 10
162.0864888009
 20
131.1851845672
 10
162.0746146372
 20
131.184910298
  0
LWPOLYLINE
  5
3C8
100
AcDbEntity
  8
0
100
AcDbPolyline
 62
7
  6
CONTINUOUS
 90
46
 70
0
 10
159.4449897341
 20
84.2900917835
 10
159.4451619853
 20
84.2946704378
 10
159.4455880612
 20
84.2992657453
 10
159.4462702787
 20
84.3038705943
 10
159.44721068
 20
84.3084750652
 10
159.4484110467
 20
84.3130744515
 10
159.4498729856
 20
84.3176692548
 10
159.4515977863
 20
84.3222516768
 10
159.4535864705
 20
84.3268141342
 10
159.4558399907
 20
84.3313572477
 10
159.458358821
 20
84.3358728855
 10
159.4611431594
 20
84.3403531268
 10
159.4641932949
 20
84.3447987062
 10
159.4675088274
 20
84.3492011999
 10
159.4710890769
 20
84.3535523962
 10
159.4749336655
 20
84.3578531398
 10
159.4790412737
 20
84.3620947732
 10
159.4834102768
 20
84.3662688266
 10
159.4880395882
 20
84.3703762086
 10
159.4929269062
 20
84.3744080793
 10
159.4980695946
 20
84.3783557624
 10
159.5034657938
 20
84.3822201866
 10
159.5091121548
 20
84.3859923949
 10
159.5150049512
 20
84.3896635604
 10
159.5211414485
 20
84.3932345809
 10
159.5275171788
 20
84.3966964614
 10
159.5341272378
 20
84.400040295
 10
159.540967875
 20
84.4032668959
 10
159.5480334244
 20
84.406367331
 10
159.5553177129
 20
84.4093327031
 10
159.5628157982
 20
84.4121636979
 10
159.5705207322
 20
84.4148515682
 10
159.5784249852
 20
84.4173875436
 10
159.5865222361
 20
84.4197721526
 10
159.594804138
 20
84.4219969763
 10
159.6032617636
 20
84.4240535311
 10
159.6118873414
 20
84.4259422049
 10
159.620671077
 20
84.4276550859
 10
159.6296025825
 20
84.4291841395
 10
159.6386725578
 20
84.4305296208
 10
159.6478564453
 20
84.4316820836
 10
159.6571554735
 20
84.4326372421
 10
159.6665991347
 20
84.4333993306
 10
159.6761891058
 20
84.4339609472
 10
159.6858983263
 20
84.4343076193
 10
159.695712732
 20
84.4344293508
  0
LWPOLYLINE
  5
3C9
100
AcDbEntity
  8
0
100
AcDbPolyline
 62
7
  6
CONTINUOUS
 90
46
 70
0
 10
162.3304282362
 20
130.8240663797
 10
162.330255985
 20
130.8194877255
 10
162.3298299091
 20
130.814892418
 10
162.3291476916
 20
130.810287569
 10
162.3282072903
 20
130.8056830981
 10
162.3270069236
 20
130.8010837118
 10
162.3255449847
 20
130.7964889085
 10
162.323820184
 20
130.7919064865
 10
162.3218314998
 20
130.787344029
 10
162.3195779796
 20
130.7828009155
 10
162.3170591492
 20
130.7782852778
 10
162.3142748109
 20
130.7738050364
 10
162.3112246754
 20
130.769359457
 10
162.3079091429
 20
130.7649569634
 10
162.3043288934
 20
130.7606057671
 10
162.3004843048
 20
130.7563050235
 10
162.2963766966
 20
130.75206339
 10
162.2920076935
 20
130.7478893367
 10
162.287378382
 20
130.7437819547
 10
162.2824910641
 20
130.739750084
 10
162.2773483757
 20
130.7358024009
 10
162.2719521765
 20
130.7319379767
 10
162.2663058155
 20
130.7281657684
 10
162.2604130191
 20
130.7244946028
 10
162.2542765218
 20
130.7209235824
 10
162.2479007915
 20
130.7174617018
 10
162.2412907325
 20
130.7141178683
 10
162.2344500953
 20
130.7108912674
 10
162.2273845459
 20
130.7077908323
 10
162.2201002574
 20
130.7048254602
 10
162.2126021721
 20
130.7019944654
 10
162.2048972381
 20
130.699306595
 10
162.1969929851
 20
130.6967706196
 10
162.1888957342
 20
130.6943860107
 10
162.1806138323
 20
130.6921611869
 10
162.1721562067
 20
130.6901046321
 10
162.1635306289
 20
130.6882159583
 10
162.1547468933
 20
130.6865030774
 10
162.1458153878
 20
130.6849740237
 10
162.1367454125
 20
130.6836285425
 10
162.127561525
 20
130.6824760797
 10
162.1182624968
 20
130.6815209212
 10
162.1088188356
 20
130.6807588326
 10
162.0992288645
 20
130.6801972161
 10
162.089519644
 20
130.679850544
 10
162.0797052383
 20
130.6797288124
  0
LINE
  5
3CA
100
AcDbEntity
  8
0
100
AcDbLine
 62
7
  6
CONTINUOUS
 10
159.4377089851
 20
85.1570790816
 11
159.4449897341
 21
85.2226650293
  0
LWPOLYLINE
  5
3CB
100
AcDbEntity
  8
RACCORDO
100
AcDbPolyline
 62
253
  6
CONTINUOUS
 90
5
 70
0
 10
156.7825809353
 20
98.2222690321
 10
156.7852088714
 20
98.2271367339
 10
156.7871028873
 20
98.2307407198
 10
156.7882485868
 20
98.233053596
 10
156.7886372614
 20
98.2340577824
  0
LINE
  5
3CC
100
AcDbEntity
  8
RACCORDO
100
AcDbLine
 62
253
  6
CONTINUOUS
 10
156.7752086286
 20
98.2088998013
 11
156.7825809353
 21
98.2222690321
  0
LINE
  5
3CD
100
AcDbEntity
  8
RACCORDO
100
AcDbLine
 62
253
  6
CONTINUOUS
 10
156.759317173
 20
98.1805882327
 11
156.7752086286
 21
98.2088998013
  0
LINE
  5
3CE
100
AcDbEntity
  8
RACCORDO
100
AcDbLine
 62
253
  6
CONTINUOUS
 10
156.7308827978
 20
98.1305813035
 11
156.759317173
 21
98.1805882327
  0
LINE
  5
3CF
100
AcDbEntity
  8
RACCORDO
100
AcDbLine
 62
253
  6
CONTINUOUS
 10
156.6886524919
 20
98.0570790816
 11
156.7308827978
 21
98.1305813035
  0
LWPOLYLINE
  5
3D0
100
AcDbEntity
  8
RACCORDO
100
AcDbPolyline
 62
253
  6
CONTINUOUS
 90
3
 70
0
 10
156.1148162864
 20
98.6227628784
 10
159.2329927014
 20
104.0259010728
 10
159.8962515265
 20
105.1749401444
  0
LINE
  5
3D1
100
AcDbEntity
  8
DRAFT
100
AcDbLine
 62
7
  6
CONTINUOUS
 10
156.1583804607
 20
98.6344838174
 11
159.9083804607
 21
105.1296743458
  0
LINE
  5
3D2
100
AcDbEntity
  8
0
100
AcDbLine
 62
7
  6
CONTINUOUS
 10
159.4377089851
 20
129.9570790816
 11
159.4449897341
 21
129.8914931339
  0
LWPOLYLINE
  5
3D3
100
AcDbEntity
  8
0
100
AcDbPolyline
 62
253
  6
CONTINUOUS
 90
10
 70
0
 10
163.2214752345
 20
86.025051397
 10
163.2217443015
 20
86.0197835418
 10
163.2220165077
 20
86.015015025
 10
163.2222909843
 20
86.0107610317
 10
163.2225677542
 20
86.0070231618
 10
163.2228467945
 20
86.0037998156
 10
163.2231271685
 20
86.0011013783
 10
163.2234085638
 20
85.9989313119
 10
163.2236912927
 20
85.9972861546
 10
163.2239753552
 20
85.9961659064
  0
LINE
  5
3D4
100
AcDbEntity
  8
0
100
AcDbLine
 62
7
  6
CONTINUOUS
 10
163.3377089851
 20
89.0658954307
 11
163.3381453285
 21
89.0570790816
  0
LINE
  5
3D5
100
AcDbEntity
  8
0
100
AcDbLine
 62
253
  6
CONTINUOUS
 10
163.2209465401
 20
86.0370882818
 11
163.2214752345
 21
86.025051397
  0
LWPOLYLINE
  5
3D6
100
AcDbEntity
  8
0
100
AcDbPolyline
 62
253
  6
CONTINUOUS
 90
7
 70
0
 10
162.7223668443
 20
85.5260509692
 10
162.7226435599
 20
85.5185706447
 10
162.7229225393
 20
85.5121278276
 10
162.7232029109
 20
85.5067292664
 10
162.7234843842
 20
85.5023807041
 10
162.7237672498
 20
85.499086819
 10
162.7240515077
 20
85.496851139
  0
LINE
  5
3D7
100
AcDbEntity
  8
0
100
AcDbLine
 62
253
  6
CONTINUOUS
 10
163.2204329197
 20
86.051064274
 11
163.2209465401
 21
86.0370882818
  0
LINE
  5
3D8
100
AcDbEntity
  8
0
100
AcDbLine
 62
253
  6
CONTINUOUS
 10
163.2199360059
 20
86.06693495
 11
163.2204329197
 21
86.051064274
  0
LINE
  5
3D9
100
AcDbEntity
  8
0
100
AcDbLine
 62
253
  6
CONTINUOUS
 10
162.7218201993
 20
85.5440915127
 11
162.7223668443
 21
85.5260509692
  0
LINE
  5
3DA
100
AcDbEntity
  8
0
100
AcDbLine
 62
253
  6
CONTINUOUS
 10
163.219227222
 20
86.0941283235
 11
163.2199360059
 21
86.06693495
  0
LINE
  5
3DB
100
AcDbEntity
  8
0
100
AcDbLine
 62
253
  6
CONTINUOUS
 10
162.7212852612
 20
85.5661724827
 11
162.7218201993
 21
85.5440915127
  0
LWPOLYLINE
  5
3DC
100
AcDbEntity
  8
0
100
AcDbPolyline
 62
253
  6
CONTINUOUS
 90
40
 70
0
 10
163.2239919819
 20
129.1180421773
 10
163.2235687012
 20
129.138136126
 10
163.2223361672
 20
129.1581975054
 10
163.2202963784
 20
129.1781938139
 10
163.2174526465
 20
129.1980926696
 10
163.2138095752
 20
129.2178618206
 10
163.2093730527
 20
129.2374691974
 10
163.2041502689
 20
129.2568830377
 10
163.1981496855
 20
129.2760718861
 10
163.1913810059
 20
129.2950046035
 10
163.1838551972
 20
129.3136505182
 10
163.1755844523
 20
129.3319794207
 10
163.1665821504
 20
129.3499615615
 10
163.15686287
 20
129.3675677858
 10
163.1464423639
 20
129.3847695902
 10
163.1353375116
 20
129.4015391137
 10
163.1235662988
 20
129.4178491702
 10
163.1111477999
 20
129.4336733497
 10
163.0981021445
 20
129.4489860694
 10
163.0844504669
 20
129.4637625275
 10
163.0702148817
 20
129.4779787716
 10
163.0554184595
 20
129.4916117939
 10
163.0400851714
 20
129.5046395148
 10
163.0242398563
 20
129.5170408128
 10
163.0079081904
 20
129.5287955873
 10
162.9911166322
 20
129.5398847886
 10
162.9738923843
 20
129.5502904498
 10
162.9562633569
 20
129.5599957106
 10
162.9382581106
 20
129.5689848401
 10
162.9199058145
 20
129.5772432757
 10
162.9012362045
 20
129.5847576488
 10
162.8822795266
 20
129.5915157812
 10
162.8630664916
 20
129.5975067206
 10
162.8436282296
 20
129.6027207734
 10
162.8239962318
 20
129.607149488
 10
162.8042023029
 20
129.6107856855
 10
162.7842785143
 20
129.6136234872
 10
162.7642571448
 20
129.6156582967
 10
162.7441706289
 20
129.6168868073
 10
162.7240515077
 20
129.6173070243
  0
LINE
  5
3DD
100
AcDbEntity
  8
0
100
AcDbLine
 62
253
  6
CONTINUOUS
 10
163.2183607212
 20
86.1362963995
 11
163.219227222
 21
86.0941283235
  0
LINE
  5
3DE
100
AcDbEntity
  8
0
100
AcDbLine
 62
253
  6
CONTINUOUS
 10
162.7205089476
 20
85.6066597794
 11
162.7212852612
 21
85.5661724827
  0
LINE
  5
3DF
100
AcDbEntity
  8
0
100
AcDbLine
 62
253
  6
CONTINUOUS
 10
163.2174238967
 20
86.1974922384
 11
163.2183607212
 21
86.1362963995
  0
LINE
  5
3E0
100
AcDbEntity
  8
0
100
AcDbLine
 62
253
  6
CONTINUOUS
 10
162.7193033718
 20
85.6927760785
 11
162.7205089476
 21
85.6066597794
  0
LINE
  5
3E1
100
AcDbEntity
  8
0
100
AcDbLine
 62
253
  6
CONTINUOUS
 10
162.0746146372
 20
131.184910298
 11
162.0797052383
 21
130.6797288124
  0
LINE
  5
3E2
100
AcDbEntity
  8
0
100
AcDbLine
 62
253
  6
CONTINUOUS
 10
162.3246104064
 20
131.4014166489
 11
162.3304282362
 21
130.8240663797
  0
LINE
  5
3E3
100
AcDbEntity
  8
0
100
AcDbLine
 62
253
  6
CONTINUOUS
 10
163.2165467988
 20
86.2811860274
 11
163.2174238967
 21
86.1974922384
  0
LINE
  5
3E4
100
AcDbEntity
  8
0
100
AcDbLine
 62
253
  6
CONTINUOUS
 10
162.7176733458
 20
85.873632617
 11
162.7193033718
 21
85.6927760785
  0
LINE
  5
3E5
100
AcDbEntity
  8
0
100
AcDbLine
 62
253
  6
CONTINUOUS
 10
163.2159052546
 20
86.3888783896
 11
163.2165467988
 21
86.2811860274
  0
LINE
  5
3E6
100
AcDbEntity
  8
0
100
AcDbLine
 62
253
  6
CONTINUOUS
 10
163.2138311222
 20
87.1924985329
 11
163.2159052546
 21
86.3888783896
  0
LINE
  5
3E7
100
AcDbEntity
  8
0
100
AcDbLine
 62
253
  6
CONTINUOUS
 10
162.7160465628
 20
86.2505536183
 11
162.7176733458
 21
85.873632617
  0
LINE
  5
3E8
100
AcDbEntity
  8
0
100
AcDbLine
 62
253
  6
CONTINUOUS
 10
163.2071232485
 20
90.2873002981
 11
163.2138311222
 21
87.1924985329
  0
LINE
  5
3E9
100
AcDbEntity
  8
0
100
AcDbLine
 62
253
  6
CONTINUOUS
 10
162.7058168514
 20
91.014320606
 11
162.7120538781
 21
87.8989031211
  0
LINE
  5
3EA
100
AcDbEntity
  8
0
100
AcDbLine
 62
253
  6
CONTINUOUS
 10
162.7120538781
 20
87.8989031211
 11
162.7160465628
 21
86.2505536183
  0
LINE
  5
3EB
100
AcDbEntity
  8
0
100
AcDbLine
 62
253
  6
CONTINUOUS
 10
162.7014675389
 20
94.1403644533
 11
162.7058168514
 21
91.014320606
  0
LWPOLYLINE
  5
3EC
100
AcDbEntity
  8
0
100
AcDbPolyline
 62
253
  6
CONTINUOUS
 90
3
 70
0
 10
163.2013913829
 20
94.1716077812
 10
163.2023013713
 20
93.3936727358
 10
163.2071232485
 20
90.2873002981
  0
LINE
  5
3ED
100
AcDbEntity
  8
0
100
AcDbLine
 62
253
  6
CONTINUOUS
 10
162.6990113576
 20
97.2732387439
 11
162.7014675389
 21
94.1403644533
  0
LINE
  5
3EE
100
AcDbEntity
  8
0
100
AcDbLine
 62
253
  6
CONTINUOUS
 10
163.1989352034
 20
97.2869973007
 11
163.2013913829
 21
94.1716077812
  0
LINE
  5
3EF
100
AcDbEntity
  8
0
100
AcDbLine
 62
253
  6
CONTINUOUS
 10
162.6972944137
 20
104.3903598685
 11
162.6990113576
 21
97.2732387439
  0
LINE
  5
3F0
100
AcDbEntity
  8
0
100
AcDbLine
 62
253
  6
CONTINUOUS
 10
163.1972182613
 20
104.3935211117
 11
163.1989352034
 21
97.2869973007
  0
LINE
  5
3F1
100
AcDbEntity
  8
0
100
AcDbLine
 62
253
  6
CONTINUOUS
 10
162.0746146372
 20
83.0701776604
 11
162.0746146372
 21
83.9292478653
  0
LINE
  5
3F2
100
AcDbEntity
  8
0
100
AcDbLine
 62
253
  6
CONTINUOUS
 10
162.0746146372
 20
131.184910298
 11
162.0746146372
 21
132.0439805029
  0
LINE
  5
3F3
100
AcDbEntity
  8
0
100
AcDbLine
 62
253
  6
CONTINUOUS
 10
162.080432467
 20
84.4344293508
 11
162.080432467
 21
85.2356907506
  0
LINE
  5
3F4
100
AcDbEntity
  8
0
100
AcDbLine
 62
253
  6
CONTINUOUS
 10
162.080432467
 20
129.8784674127
 11
162.080432467
 21
130.6797288124
  0
LINE
  5
3F5
100
AcDbEntity
  8
0
100
AcDbLine
 62
7
  6
CONTINUOUS
 10
162.3246104064
 20
83.3201734296
 11
162.3246104064
 21
83.7127415143
  0
LINE
  5
3F6
100
AcDbEntity
  8
0
100
AcDbLine
 62
7
  6
CONTINUOUS
 10
162.3246104064
 20
131.4014166489
 11
162.3246104064
 21
131.7939847337
  0
LINE
  5
3F7
100
AcDbEntity
  8
0
100
AcDbLine
 62
7
  6
CONTINUOUS
 10
162.3304282362
 20
84.2900917835
 11
162.3304282362
 21
85.2226650293
  0
LINE
  5
3F8
100
AcDbEntity
  8
0
100
AcDbLine
 62
7
  6
CONTINUOUS
 10
162.3304282362
 20
129.8914931339
 11
162.3304282362
 21
130.8240663797
  0
LINE
  5
3F9
100
AcDbEntity
  8
0
100
AcDbLine
 62
7
  6
CONTINUOUS
 10
162.3377089851
 20
83.3070748508
 11
162.3377089851
 21
85.1570790816
  0
LINE
  5
3FA
100
AcDbEntity
  8
0
100
AcDbLine
 62
7
  6
CONTINUOUS
 10
162.3377089851
 20
129.9570790816
 11
162.3377089851
 21
131.8070833124
  0
LINE
  5
3FB
100
AcDbEntity
  8
0
100
AcDbLine
 62
7
  6
CONTINUOUS
 10
163.3381453285
 20
129.4570960047
 11
163.3381453285
 21
126.0570790816
  0
LINE
  5
3FC
100
AcDbEntity
  8
0
100
AcDbLine
 62
7
  6
CONTINUOUS
 10
163.3381453285
 20
85.6570621586
 11
163.3381453285
 21
89.0570790816
  0
LINE
  5
3FD
100
AcDbEntity
  8
0
100
AcDbLine
 62
7
  6
CONTINUOUS
 10
163.3804738942
 20
125.6162616299
 11
163.3804738942
 21
89.4978965334
  0
LINE
  5
3FE
100
AcDbEntity
  8
0
100
AcDbLine
 62
253
  6
CONTINUOUS
 10
162.6990113576
 20
117.8409194195
 11
162.6972944137
 21
104.3903598685
  0
LINE
  5
3FF
100
AcDbEntity
  8
0
100
AcDbLine
 62
253
  6
CONTINUOUS
 10
163.1989352041
 20
117.8271618177
 11
163.1972182613
 21
104.3935211117
  0
LINE
  5
400
100
AcDbEntity
  8
0
100
AcDbLine
 62
253
  6
CONTINUOUS
 10
162.7014675389
 20
120.9737937097
 11
162.6990113576
 21
117.8409194195
  0
LINE
  5
401
100
AcDbEntity
  8
0
100
AcDbLine
 62
253
  6
CONTINUOUS
 10
163.2013913853
 20
120.9425526209
 11
163.1989352041
 21
117.8271618177
  0
LINE
  5
402
100
AcDbEntity
  8
0
100
AcDbLine
 62
253
  6
CONTINUOUS
 10
162.7058168514
 20
124.0998375569
 11
162.7014675389
 21
120.9737937097
  0
LINE
  5
403
100
AcDbEntity
  8
0
100
AcDbLine
 62
253
  6
CONTINUOUS
 10
163.2057407029
 20
124.0512134513
 11
163.2013913853
 21
120.9425526209
  0
LINE
  5
404
100
AcDbEntity
  8
0
100
AcDbLine
 62
253
  6
CONTINUOUS
 10
162.7120538781
 20
127.2152550422
 11
162.7058168514
 21
124.0998375569
  0
LINE
  5
405
100
AcDbEntity
  8
0
100
AcDbLine
 62
253
  6
CONTINUOUS
 10
163.2119777345
 20
127.149246468
 11
163.2057407029
 21
124.0512134513
  0
LINE
  5
406
100
AcDbEntity
  8
0
100
AcDbLine
 62
253
  6
CONTINUOUS
 10
162.717176231
 20
129.1611127558
 11
162.7120538781
 21
127.2152550422
  0
LINE
  5
407
100
AcDbEntity
  8
0
100
AcDbLine
 62
253
  6
CONTINUOUS
 10
163.2163211207
 20
128.8032652995
 11
163.2119777345
 21
127.149246468
  0
LINE
  5
408
100
AcDbEntity
  8
0
100
AcDbLine
 62
253
  6
CONTINUOUS
 10
162.7188580619
 20
129.3808338004
 11
162.717176231
 21
129.1611127558
  0
LINE
  5
409
100
AcDbEntity
  8
0
100
AcDbLine
 62
253
  6
CONTINUOUS
 10
162.0797052383
 20
84.4344293508
 11
162.0746146372
 21
83.9292478653
  0
LINE
  5
40A
100
AcDbEntity
  8
0
100
AcDbLine
 62
253
  6
CONTINUOUS
 10
162.3304282362
 20
84.2900917835
 11
162.3246104064
 21
83.7127415143
  0
LINE
  5
40B
100
AcDbEntity
  8
0
100
AcDbLine
 62
253
  6
CONTINUOUS
 10
163.2171029997
 20
128.8901470289
 11
163.2163211207
 21
128.8032652995
  0
LINE
  5
40C
100
AcDbEntity
  8
0
100
AcDbLine
 62
253
  6
CONTINUOUS
 10
162.7200121037
 20
129.4757631798
 11
162.7188580619
 21
129.3808338004
  0
LINE
  5
40D
100
AcDbEntity
  8
0
100
AcDbLine
 62
253
  6
CONTINUOUS
 10
163.2179701781
 20
128.954755944
 11
163.2171029997
 21
128.8901470289
  0
LINE
  5
40E
100
AcDbEntity
  8
0
100
AcDbLine
 62
253
  6
CONTINUOUS
 10
162.7210225369
 20
129.5354587596
 11
162.7200121037
 21
129.4757631798
  0
LINE
  5
40F
100
AcDbEntity
  8
0
100
AcDbLine
 62
253
  6
CONTINUOUS
 10
163.2187886765
 20
129.0000803119
 11
163.2179701781
 21
128.954755944
  0
LWPOLYLINE
  5
410
100
AcDbEntity
  8
0
100
AcDbPolyline
 62
253
  6
CONTINUOUS
 90
40
 70
0
 10
163.2239753552
 20
85.9961659064
 10
163.2235520116
 20
85.976072204
 10
163.2223194182
 20
85.9560110559
 10
163.2202795719
 20
85.9360149634
 10
163.2174357776
 20
85.9161163224
 10
163.2137926424
 20
85.8963473713
 10
163.2093560687
 20
85.876740138
 10
163.2041332444
 20
85.8573263885
 10
163.1981326309
 20
85.8381375755
 10
163.1913639499
 20
85.819204787
 10
163.1838381676
 20
85.8005586965
 10
163.1755674766
 20
85.7822295127
 10
163.1665652764
 20
85.7642469312
 10
163.1568461517
 20
85.7466400858
 10
163.1464258484
 20
85.7294375017
 10
163.1353212489
 20
85.7126670491
 10
163.1235503437
 20
85.6963558982
 10
163.1111322033
 20
85.6805304748
 10
163.0980869464
 20
85.6652164182
 10
163.084435708
 20
85.6504385389
 10
163.0702006045
 20
85.6362207787
 10
163.0554046986
 20
85.6225861722
 10
163.0400719614
 20
85.6095568089
 10
163.0242272337
 20
85.5971537981
 10
163.0078961859
 20
85.585397234
 10
162.9911052762
 20
85.5743061637
 10
162.9738817079
 20
85.563898556
 10
162.9562533851
 20
85.5541912724
 10
162.9382488678
 20
85.54520004
 10
162.9198973255
 20
85.5369394256
 10
162.9012284899
 20
85.5294228123
 10
162.8822726066
 20
85.522662378
 10
162.8630603864
 20
85.5166690753
 10
162.8436229554
 20
85.5114526141
 10
162.8239918046
 20
85.5070214457
 10
162.8041987386
 20
85.5033827492
 10
162.7842758247
 20
85.5005424195
 10
162.7642553403
 20
85.4985050585
 10
162.7441697209
 20
85.4972739668
 10
162.7240515077
 20
85.496851139
  0
LINE
  5
411
100
AcDbEntity
  8
0
100
AcDbLine
 62
253
  6
CONTINUOUS
 10
162.7215511768
 20
129.5595257925
 11
162.7210225369
 21
129.5354587596
  0
LWPOLYLINE
  5
412
100
AcDbEntity
  8
0
100
AcDbPolyline
 62
7
  6
CONTINUOUS
 90
34
 70
0
 10
162.3246104064
 20
83.3201734296
 10
162.3243267776
 20
83.3082767706
 10
162.3234773375
 20
83.2964070524
 10
162.3220640086
 20
83.2845911701
 10
162.32008999
 20
83.2728558903
 10
162.317559753
 20
83.261227811
 10
162.3144790344
 20
83.2497333
 10
162.3108548173
 20
83.2383984074
 10
162.306695313
 20
83.2272488111
 10
162.3020099487
 20
83.2163097776
 10
162.296809341
 20
83.2056060911
 10
162.2911052758
 20
83.1951620059
 10
162.2849106835
 20
83.1850011938
 10
162.2782396034
 20
83.1751466777
 10
162.2711071523
 20
83.1656207834
 10
162.2635294958
 20
83.1564450964
 10
162.2555238017
 20
83.1476404009
 10
162.2471082154
 20
83.1392266493
 10
162.2383018238
 20
83.1312229177
 10
162.2291246106
 20
83.1236473568
 10
162.2195973491
 20
83.1165171035
 10
162.2097415644
 20
83.1098482663
 10
162.1995794888
 20
83.1036559039
 10
162.1891342354
 20
83.0979541154
 10
162.1784297006
 20
83.0927559301
 10
162.1674902994
 20
83.0880731564
 10
162.1563406874
 20
83.083916302
 10
162.1450059223
 20
83.0802946923
 10
162.1335099567
 20
83.0772161136
 10
162.1218805215
 20
83.0746881237
 10
162.1101490268
 20
83.0727171778
 10
162.0983438513
 20
83.0713071818
 10
162.0864901088
 20
83.07046028
 10
162.0746146372
 20
83.0701776604
  0
LWPOLYLINE
  5
413
100
AcDbEntity
  8
0
100
AcDbPolyline
 62
7
  6
CONTINUOUS
 90
4
 70
0
 10
162.3377089851
 20
83.3070748508
 10
162.3374258349
 20
83.2951795656
 10
162.3365770194
 20
83.2833112261
 10
162.3351644593
 20
83.2714967155
  0
LINE
  5
414
100
AcDbEntity
  8
0
100
AcDbLine
 62
253
  6
CONTINUOUS
 10
163.2194664341
 20
129.0298563494
 11
163.2187886765
 21
129.0000803119
  0
LINE
  5
415
100
AcDbEntity
  8
0
100
AcDbLine
 62
253
  6
CONTINUOUS
 10
163.2201917494
 20
129.0556944672
 11
163.2194664341
 21
129.0298563494
  0
LINE
  5
416
100
AcDbEntity
  8
0
100
AcDbLine
 62
253
  6
CONTINUOUS
 10
163.2206983863
 20
129.0706115889
 11
163.2201917494
 21
129.0556944672
  0
LINE
  5
417
100
AcDbEntity
  8
0
100
AcDbLine
 62
7
  6
CONTINUOUS
 10
163.3381453285
 20
126.0570790816
 11
163.3377089851
 21
126.0482627326
  0
LINE
  5
418
100
AcDbEntity
  8
RACCORDO
100
AcDbLine
 62
7
  6
CONTINUOUS
 10
161.8185845949
 20
104.0268174747
 11
161.7980957948
 21
103.8027573164
  0
LINE
  5
419
100
AcDbEntity
  8
DRAFT
100
AcDbLine
 62
7
  6
CONTINUOUS
 10
161.9002388894
 20
103.9796743458
 11
158.1502388894
 21
97.4844838174
  0
LINE
  5
41A
100
AcDbEntity
  8
RACCORDO
100
AcDbLine
 62
253
  6
CONTINUOUS
 10
158.7504728862
 20
98.0570790816
 11
158.2347153798
 21
97.1629107959
  0
LINE
  5
41B
100
AcDbEntity
  8
RACCORDO
100
AcDbLine
 62
253
  6
CONTINUOUS
 10
162.2184983381
 20
104.0635573711
 11
158.7504728862
 21
98.0570790816
  0
LINE
  5
41C
100
AcDbEntity
  8
RACCORDO
100
AcDbLine
 62
253
  6
CONTINUOUS
 10
161.9453053661
 20
103.9917498719
 11
158.1617180402
 21
97.4416430436
  0
LINE
  5
41D
100
AcDbEntity
  8
0
100
AcDbLine
 62
253
  6
CONTINUOUS
 10
142.0508075639
 20
83.3201734296
 11
142.0377089851
 21
83.3070748508
  0
LINE
  5
41E
100
AcDbEntity
  8
0
100
AcDbLine
 62
253
  6
CONTINUOUS
 10
142.3008033331
 20
83.0701776604
 11
142.2877047544
 21
83.0570790816
  0
LINE
  5
41F
100
AcDbEntity
  8
RACCORDO
100
AcDbLine
 62
7
  6
CONTINUOUS
 10
156.1148162864
 20
98.6227628784
 11
156.1149722128
 21
98.6228526125
  0
LWPOLYLINE
  5
420
100
AcDbEntity
  8
RACCORDO
100
AcDbPolyline
 62
7
  6
CONTINUOUS
 90
6
 70
0
 10
156.114825263
 20
98.6227692273
 10
156.1130768182
 20
98.6221622978
 10
156.1097850162
 20
98.6209592007
 10
156.1050157656
 20
98.6192757542
 10
156.0987445611
 20
98.6172921051
 10
156.0729568425
 20
98.6096871585
  0
LWPOLYLINE
  5
421
100
AcDbEntity
  8
RACCORDO
100
AcDbPolyline
 62
7
  6
CONTINUOUS
 90
3
 70
0
 10
156.0625064181
 20
98.6067293778
 10
156.0395897535
 20
98.6001858078
 10
156.0010687043
 20
98.5894214798
  0
LINE
  5
422
100
AcDbEntity
  8
0
100
AcDbLine
 62
253
  6
CONTINUOUS
 10
141.2173284897
 20
117.0511767982
 11
141.2360494095
 21
117.0519213619
  0
LINE
  5
423
100
AcDbEntity
  8
0
100
AcDbLine
 62
253
  6
CONTINUOUS
 10
141.2360494095
 20
117.0519213619
 11
141.2580500774
 21
117.0526336079
  0
LWPOLYLINE
  5
424
100
AcDbEntity
  8
RACCORDO
100
AcDbPolyline
 62
253
  6
CONTINUOUS
 90
7
 70
0
 10
153.4087655311
 20
117.0554914896
 10
153.3972992083
 20
117.0551601938
 10
153.3876760756
 20
117.054808743
 10
153.3799992385
 20
117.054440903
 10
153.3743509495
 20
117.0540606147
 10
153.3707917262
 20
117.0536719529
 10
153.3693597035
 20
117.0532790816
  0
LINE
  5
425
100
AcDbEntity
  8
0
100
AcDbLine
 62
253
  6
CONTINUOUS
 10
141.2580500774
 20
117.0526336079
 11
141.2831667523
 21
117.0533082354
  0
LINE
  5
426
100
AcDbEntity
  8
0
100
AcDbLine
 62
253
  6
CONTINUOUS
 10
141.2831667523
 20
117.0533082354
 11
141.3262693613
 21
117.0542387442
  0
LINE
  5
427
100
AcDbEntity
  8
RACCORDO
100
AcDbLine
 62
253
  6
CONTINUOUS
 10
153.4367178977
 20
117.0560796722
 11
153.4087655311
 21
117.0554914896
  0
LINE
  5
428
100
AcDbEntity
  8
0
100
AcDbLine
 62
253
  6
CONTINUOUS
 10
141.3262693613
 20
117.0542387442
 11
141.3927223666
 21
117.055303653
  0
LINE
  5
429
100
AcDbEntity
  8
RACCORDO
100
AcDbLine
 62
253
  6
CONTINUOUS
 10
153.4703384185
 20
117.0565481502
 11
153.4367178977
 21
117.0560796722
  0
LINE
  5
42A
100
AcDbEntity
  8
0
100
AcDbLine
 62
253
  6
CONTINUOUS
 10
141.3927223666
 20
117.055303653
 11
141.4873998731
 21
117.0563089361
  0
LINE
  5
42B
100
AcDbEntity
  8
RACCORDO
100
AcDbLine
 62
253
  6
CONTINUOUS
 10
153.508190065
 20
117.0568768997
 11
153.4703384185
 21
117.0565481502
  0
LINE
  5
42C
100
AcDbEntity
  8
0
100
AcDbLine
 62
253
  6
CONTINUOUS
 10
141.4873998731
 20
117.0563089361
 11
141.5908553383
 21
117.0569094631
  0
LINE
  5
42D
100
AcDbEntity
  8
RACCORDO
100
AcDbLine
 62
253
  6
CONTINUOUS
 10
153.5693292425
 20
117.0570790816
 11
153.508190065
 21
117.0568768997
  0
LINE
  5
42E
100
AcDbEntity
  8
0
100
AcDbLine
 62
253
  6
CONTINUOUS
 10
141.5908553383
 20
117.0569094631
 11
141.6767245355
 21
117.0570790816
  0
LINE
  5
42F
100
AcDbEntity
  8
RACCORDO
100
AcDbLine
 62
253
  6
CONTINUOUS
 10
153.5693292425
 20
117.0570790816
 11
162.6986934348
 21
117.0570790816
  0
LINE
  5
430
100
AcDbEntity
  8
SMUSSO
100
AcDbLine
 62
7
  6
CONTINUOUS
 10
151.0377089851
 20
118.1787270458
 11
151.1408253033
 21
118.1787270458
  0
LINE
  5
431
100
AcDbEntity
  8
RACCORDO
100
AcDbLine
 62
253
  6
CONTINUOUS
 10
141.6767245355
 20
117.0570790816
 11
150.8472157806
 21
117.0569842333
  0
LINE
  5
432
100
AcDbEntity
  8
0
100
AcDbLine
 62
253
  6
CONTINUOUS
 10
162.8266977764
 20
117.0567200447
 11
162.6986934348
 21
117.0570790816
  0
LINE
  5
433
100
AcDbEntity
  8
RACCORDO
100
AcDbLine
 62
253
  6
CONTINUOUS
 10
150.8472157806
 20
117.0569842333
 11
150.8865849565
 21
117.0567310174
  0
LINE
  5
434
100
AcDbEntity
  8
0
100
AcDbLine
 62
253
  6
CONTINUOUS
 10
162.9271996927
 20
117.0559531845
 11
162.8266977764
 21
117.0567200447
  0
LINE
  5
435
100
AcDbEntity
  8
RACCORDO
100
AcDbLine
 62
253
  6
CONTINUOUS
 10
150.8865849565
 20
117.0567310174
 11
150.9225135145
 21
117.0563302567
  0
LINE
  5
436
100
AcDbEntity
  8
0
100
AcDbLine
 62
253
  6
CONTINUOUS
 10
163.0001819191
 20
117.0550578186
 11
162.9271996927
 21
117.0559531845
  0
LINE
  5
437
100
AcDbEntity
  8
0
100
AcDbLine
 62
253
  6
CONTINUOUS
 10
163.0491486095
 20
117.0542387442
 11
163.0001819191
 21
117.0550578186
  0
LWPOLYLINE
  5
438
100
AcDbEntity
  8
RACCORDO
100
AcDbPolyline
 62
253
  6
CONTINUOUS
 90
9
 70
0
 10
150.9225135145
 20
117.0563302567
 10
150.9534657747
 20
117.0557990809
 10
150.9666524336
 20
117.0554914896
 10
150.9781187568
 20
117.0551601937
 10
150.9877418903
 20
117.054808743
 10
150.9954187282
 20
117.0544409029
 10
151.0010670183
 20
117.0540606147
 10
151.0046262428
 20
117.0536719529
 10
151.0060582668
 20
117.0532790816
  0
LINE
  5
439
100
AcDbEntity
  8
0
100
AcDbLine
 62
253
  6
CONTINUOUS
 10
163.0922512185
 20
117.0533082354
 11
163.0491486095
 21
117.0542387442
  0
LINE
  5
43A
100
AcDbEntity
  8
0
100
AcDbLine
 62
253
  6
CONTINUOUS
 10
163.1173678934
 20
117.0526336079
 11
163.0922512185
 21
117.0533082354
  0
LINE
  5
43B
100
AcDbEntity
  8
0
100
AcDbLine
 62
253
  6
CONTINUOUS
 10
163.1393685613
 20
117.0519213619
 11
163.1173678934
 21
117.0526336079
  0
LINE
  5
43C
100
AcDbEntity
  8
0
100
AcDbLine
 62
253
  6
CONTINUOUS
 10
142.0508075639
 20
131.7939847337
 11
142.0377089851
 21
131.8070833124
  0
LINE
  5
43D
100
AcDbEntity
  8
0
100
AcDbLine
 62
253
  6
CONTINUOUS
 10
142.3008033331
 20
132.0439805029
 11
142.2877047544
 21
132.0570790816
  0
LINE
  5
43E
100
AcDbEntity
  8
0
100
AcDbLine
 62
7
  6
CONTINUOUS
 10
163.3804738942
 20
125.6162616299
 11
163.3377089851
 21
126.0482627326
  0
LWPOLYLINE
  5
43F
100
AcDbEntity
  8
0
100
AcDbPolyline
 62
7
  6
CONTINUOUS
 90
40
 70
0
 10
163.3368362319
 20
85.6573079337
 10
163.3364344634
 20
85.63724079
 10
163.3352268466
 20
85.6171719927
 10
163.3332111659
 20
85.5971340711
 10
163.3303836948
 20
85.5771420584
 10
163.3267462892
 20
85.5572468832
 10
163.3223134926
 20
85.5375340187
 10
163.317100027
 20
85.5180532428
 10
163.3111127751
 20
85.4988169156
 10
163.3043623757
 20
85.4798525989
 10
163.2968683098
 20
85.4612062334
 10
163.2886389162
 20
85.4428906763
 10
163.2796634231
 20
85.4248858069
 10
163.2699344606
 20
85.407192276
 10
163.25947876
 20
85.3898730036
 10
163.2483378647
 20
85.3730004492
 10
163.2365354221
 20
85.3566072631
 10
163.2240878407
 20
85.3407131885
 10
163.2110352969
 20
85.3253647861
 10
163.1974268919
 20
85.3106091896
 10
163.183265799
 20
85.2964397346
 10
163.1685205783
 20
85.2828249613
 10
163.1531842805
 20
85.2697674985
 10
163.1373045769
 20
85.2573166855
 10
163.1209293948
 20
85.2455136731
 10
163.1040794707
 20
85.2343749959
 10
163.0867869436
 20
85.2239233787
 10
163.0691234172
 20
85.2141996826
 10
163.051152403
 20
85.2052306009
 10
163.0328741614
 20
85.1970081717
 10
163.0142660292
 20
85.1895204771
 10
162.9953394977
 20
85.1827753915
 10
162.9761417086
 20
85.1767929296
 10
162.956701464
 20
85.1715841843
 10
162.937031437
 20
85.1671559352
 10
162.9171810601
 20
85.1635226193
 10
162.8972361089
 20
85.1606987239
 10
162.8772475828
 20
85.1586859064
 10
162.8572303405
 20
85.1574801697
 10
162.8372168316
 20
85.1570790816
  0
LINE
  5
440
100
AcDbEntity
  8
0
100
AcDbLine
 62
7
  6
CONTINUOUS
 10
163.3804738942
 20
89.4978965334
 11
163.3377089851
 21
89.0658954307
  0
LINE
  5
441
100
AcDbEntity
  8
0
100
AcDbLine
 62
7
  6
CONTINUOUS
 10
152.9386029564
 20
118.8787270458
 11
152.7046775325
 21
118.8787270458
  0
LINE
  5
442
100
AcDbEntity
  8
SMUSSO
100
AcDbLine
 62
7
  6
CONTINUOUS
 10
153.3377089851
 20
118.8787270458
 11
152.9386029564
 21
118.8787270458
  0
LINE
  5
443
100
AcDbEntity
  8
0
100
AcDbLine
 62
7
  6
CONTINUOUS
 10
152.6358221168
 20
118.8787270458
 11
152.3429573376
 21
118.8787270458
  0
LINE
  5
444
100
AcDbEntity
  8
SMUSSO
100
AcDbLine
 62
7
  6
CONTINUOUS
 10
151.1408253033
 20
118.8787270458
 11
152.3429573376
 21
118.8787270458
  0
LINE
  5
445
100
AcDbEntity
  8
DRAFT
100
AcDbLine
 62
7
  6
CONTINUOUS
 10
151.0377089851
 20
119.3070790816
 11
153.3377089851
 21
119.3070790816
  0
LINE
  5
446
100
AcDbEntity
  8
RACCORDO
100
AcDbLine
 62
253
  6
CONTINUOUS
 10
151.0074826553
 20
119.3373054115
 11
153.367935315
 21
119.3373054115
  0
LINE
  5
447
100
AcDbEntity
  8
RACCORDO
100
AcDbLine
 62
253
  6
CONTINUOUS
 10
150.8075135227
 20
119.5466072353
 11
153.5679044476
 21
119.5466072353
  0
LWPOLYLINE
  5
448
100
AcDbEntity
  8
0
100
AcDbPolyline
 62
7
  6
CONTINUOUS
 90
4
 70
0
 10
162.3351644593
 20
131.8426614478
 10
162.3365770194
 20
131.8308469372
 10
162.3374258349
 20
131.8189785977
 10
162.3377089851
 20
131.8070833124
  0
LWPOLYLINE
  5
449
100
AcDbEntity
  8
0
100
AcDbPolyline
 62
7
  6
CONTINUOUS
 90
28
 70
0
 10
162.3351644593
 20
83.2714967155
 10
162.3331913529
 20
83.2597627942
 10
162.3306621669
 20
83.2481360428
 10
162.3275826269
 20
83.2366428026
 10
162.3239597065
 20
83.2253091079
 10
162.3198016109
 20
83.2141606323
 10
162.3151177573
 20
83.2032226353
 10
162.309918754
 20
83.192519894
 10
162.3042163768
 20
83.1820766534
 10
162.2980235433
 20
83.1719165757
 10
162.2913542806
 20
83.1620626765
 10
162.2842236959
 20
83.1525372778
 10
162.276647944
 20
83.1433619626
 10
162.2686441856
 20
83.1345575155
 10
162.2602305512
 20
83.1261438811
 10
162.2514261042
 20
83.1181401228
 10
162.242250789
 20
83.1105643709
 10
162.2327253903
 20
83.1034337862
 10
162.2228714911
 20
83.0967645235
 10
162.2127114134
 20
83.09057169
 10
162.2022681727
 20
83.0848693128
 10
162.1915654314
 20
83.0796703095
 10
162.1806274344
 20
83.0749864559
 10
162.1694789589
 20
83.0708283603
 10
162.1581452642
 20
83.0672054399
 10
162.146652024
 20
83.0641258999
 10
162.1350252726
 20
83.0615967139
 10
162.1232913513
 20
83.0596236075
  0
LINE
  5
44A
100
AcDbEntity
  8
0
100
AcDbLine
 62
7
  6
CONTINUOUS
 10
147.7464357299
 20
83.5658058263
 11
147.7377089851
 21
83.5570790816
  0
LWPOLYLINE
  5
44B
100
AcDbEntity
  8
0
100
AcDbPolyline
 62
253
  6
CONTINUOUS
 90
10
 70
0
 10
163.1986172824
 20
98.0665790816
 10
163.1977756392
 20
98.0661692356
 10
163.1960049521
 20
98.0657601525
 10
163.1933085173
 20
98.0653525939
 10
163.1896913543
 20
98.0649473184
 10
163.1851601964
 20
98.0645450804
 10
163.1797234783
 20
98.0641466287
 10
163.1733913205
 20
98.063752705
 10
163.1661755105
 20
98.0633640426
 10
163.1580894804
 20
98.0629813651
  0
LWPOLYLINE
  5
44C
100
AcDbEntity
  8
0
100
AcDbPolyline
 62
253
  6
CONTINUOUS
 90
11
 70
0
 10
163.1986172824
 20
117.0475790816
 10
163.1977756393
 20
117.0479889276
 10
163.1960049523
 20
117.0483980107
 10
163.1933085176
 20
117.0488055694
 10
163.1896913546
 20
117.0492108449
 10
163.1851601968
 20
117.0496130829
 10
163.1797234788
 20
117.0500115346
 10
163.1733913211
 20
117.0504054583
 10
163.1661755111
 20
117.0507941206
 10
163.158089481
 20
117.0511767982
 10
163.1393685613
 20
117.0519213619
  0
LINE
  5
44D
100
AcDbEntity
  8
0
100
AcDbLine
 62
7
  6
CONTINUOUS
 10
147.7377089851
 20
131.5570790816
 11
147.7464357299
 21
131.5483523369
  0
LWPOLYLINE
  5
44E
100
AcDbEntity
  8
0
100
AcDbPolyline
 62
253
  6
CONTINUOUS
 90
37
 70
0
 10
163.2158021669
 20
86.4209211321
 10
163.2149644982
 20
86.4177041224
 10
163.2131975489
 20
86.4144931027
 10
163.210504609
 20
86.4112940517
 10
163.2068906928
 20
86.4081129261
 10
163.2023625292
 20
86.404955649
 10
163.1969285495
 20
86.4018280991
 10
163.1905988715
 20
86.3987360997
 10
163.1833852809
 20
86.3956854081
 10
163.1753012091
 20
86.3926817046
 10
163.1663617084
 20
86.389730582
 10
163.1565834239
 20
86.386837535
 10
163.1459845622
 20
86.3840079506
 10
163.1345848582
 20
86.3812470972
 10
163.1224055377
 20
86.3785601154
 10
163.109469278
 20
86.3759520084
 10
163.0958001662
 20
86.3734276324
 10
163.0814236535
 20
86.3709916876
 10
163.0663665085
 20
86.3686487096
 10
163.0506567672
 20
86.3664030611
 10
163.0343236804
 20
86.3642589233
 10
163.0173976597
 20
86.3622202886
 10
162.9999102209
 20
86.3602909527
 10
162.9818939249
 20
86.3584745082
 10
162.9633823174
 20
86.356774337
 10
162.9444098663
 20
86.3551936049
 10
162.9250118977
 20
86.3537352552
 10
162.9052245299
 20
86.3524020032
 10
162.8850846063
 20
86.3511963313
 10
162.8646296266
 20
86.3501204847
 10
162.8438976774
 20
86.3491764663
 10
162.8229273607
 20
86.3483660339
 10
162.8017577226
 20
86.3476906966
 10
162.78042818
 20
86.3471517118
 10
162.758978448
 20
86.346750083
 10
162.7374484651
 20
86.3464865581
 10
162.7158783193
 20
86.3463616277
  0
LWPOLYLINE
  5
44F
100
AcDbEntity
  8
0
100
AcDbPolyline
 62
253
  6
CONTINUOUS
 90
37
 70
0
 10
163.2158021669
 20
128.6932370311
 10
163.2149645045
 20
128.6964540421
 10
163.2131975612
 20
128.6996650631
 10
163.2105046269
 20
128.7028641153
 10
163.2068907159
 20
128.7060452422
 10
163.202362557
 20
128.7092025207
 10
163.1969285817
 20
128.712330072
 10
163.1905989076
 20
128.7154220727
 10
163.1833853206
 20
128.7184727657
 10
163.1753012519
 20
128.7214764706
 10
163.166361754
 20
128.7244275947
 10
163.1565834717
 20
128.727320643
 10
163.1459846119
 20
128.7301502289
 10
163.1345849094
 20
128.7329110836
 10
163.1224055899
 20
128.7355980667
 10
163.109469331
 20
128.7382061751
 10
163.0958002195
 20
128.7407305524
 10
163.0814237067
 20
128.7431664985
 10
163.0663665613
 20
128.7455094777
 10
163.0506568191
 20
128.7477551274
 10
163.0343237312
 20
128.7498992664
 10
163.0173977091
 20
128.7519379023
 10
162.9999102685
 20
128.7538672392
 10
162.9818939704
 20
128.7556836848
 10
162.9633823605
 20
128.7573838569
 10
162.9444099068
 20
128.7589645899
 10
162.9250119354
 20
128.7604229405
 10
162.9052245645
 20
128.7617561932
 10
162.8850846375
 20
128.7629618658
 10
162.8646296544
 20
128.7640377131
 10
162.8438977015
 20
128.764981732
 10
162.822927381
 20
128.7657921649
 10
162.8017577389
 20
128.7664675026
 10
162.7804281924
 20
128.7670064878
 10
162.7589784563
 20
128.7674081168
 10
162.7374484693
 20
128.7676716419
 10
162.7158783193
 20
128.7677965724
  0
LINE
  5
450
100
AcDbEntity
  8
0
100
AcDbLine
 62
253
  6
CONTINUOUS
 10
141.6595396509
 20
128.7677965728
 11
162.7158783193
 21
128.7677965728
  0
LINE
  5
451
100
AcDbEntity
  8
0
100
AcDbLine
 62
253
  6
CONTINUOUS
 10
159.4508075639
 20
83.3201734296
 11
159.4377089851
 21
83.3070748508
  0
LINE
  5
452
100
AcDbEntity
  8
0
100
AcDbLine
 62
253
  6
CONTINUOUS
 10
159.7008033331
 20
83.0701776604
 11
159.6877047544
 21
83.0570790816
  0
LWPOLYLINE
  5
453
100
AcDbEntity
  8
0
100
AcDbPolyline
 62
7
  6
CONTINUOUS
 90
4
 70
0
 10
159.652126619
 20
132.0545345558
 10
159.6639411296
 20
132.0559471159
 10
159.6758094691
 20
132.0567959314
 10
159.6877047544
 20
132.0570790816
  0
LWPOLYLINE
  5
454
100
AcDbEntity
  8
0
100
AcDbPolyline
 62
7
  6
CONTINUOUS
 90
46
 70
0
 10
144.680432467
 20
130.6797288124
 10
144.6899541773
 20
130.6798689526
 10
144.6994477572
 20
130.6802141612
 10
144.7088995651
 20
130.6807644381
 10
144.7183087129
 20
130.6815245296
 10
144.7276491502
 20
130.6824896895
 10
144.7368705039
 20
130.6836456792
 10
144.7459478799
 20
130.68499292
 10
144.7548832374
 20
130.6865309906
 10
144.7636679577
 20
130.6882443885
 10
144.7722916996
 20
130.6901333834
 10
144.7807447715
 20
130.6921977056
 10
144.789020153
 20
130.6944210428
 10
144.7971089937
 20
130.6968035404
 10
144.8050030642
 20
130.6993450531
 10
144.8126968147
 20
130.702028833
 10
144.8201828084
 20
130.7048549243
 10
144.8274541857
 20
130.7078232828
 10
144.8345067055
 20
130.7109170277
 10
144.8413342648
 20
130.7141361347
 10
144.847931254
 20
130.7174806282
 10
144.8542945228
 20
130.7209337001
 10
144.8604191966
 20
130.7244952822
 10
144.8663008185
 20
130.7281654427
 10
144.8719371379
 20
130.7319275786
 10
144.8773244053
 20
130.7357815949
 10
144.8824592294
 20
130.7397275865
 10
144.8873401105
 20
130.7437492348
 10
144.891964331
 20
130.747846429
 10
144.8963294884
 20
130.7520192799
 10
144.900434732
 20
130.7562518016
 10
144.9042782947
 20
130.7605438716
 10
144.9078586981
 20
130.7648956124
 10
144.9111756803
 20
130.7692914064
 10
144.914228357
 20
130.773731119
 10
144.9170161171
 20
130.7782148848
 10
144.9195392613
 20
130.7827274901
 10
144.9217977291
 20
130.7872687834
 10
144.9237917281
 20
130.7918389161
 10
144.925522118
 20
130.7964231284
 10
144.9269896117
 20
130.8010212475
 10
144.9281951874
 20
130.8056334462
 10
144.9291402663
 20
130.8102454829
 10
144.9298263146
 20
130.8148526105
 10
144.9302549802
 20
130.8194595761
 10
144.9304282362
 20
130.8240663797
  0
LINE
  5
455
100
AcDbEntity
  8
0
100
AcDbLine
 62
253
  6
CONTINUOUS
 10
141.6513664626
 20
129.6173070243
 11
162.7240515077
 21
129.6173070243
  0
LINE
  5
456
100
AcDbEntity
  8
0
100
AcDbLine
 62
7
  6
CONTINUOUS
 10
142.2949855033
 20
129.8784674127
 11
144.680432467
 21
129.8784674127
  0
LINE
  5
457
100
AcDbEntity
  8
0
100
AcDbLine
 62
7
  6
CONTINUOUS
 10
147.7464357299
 20
129.8784674127
 11
148.6877089851
 21
129.8784674127
  0
LINE
  5
458
100
AcDbEntity
  8
0
100
AcDbLine
 62
7
  6
CONTINUOUS
 10
155.6877089851
 20
129.8784674127
 11
156.6289822404
 21
129.8784674127
  0
LINE
  5
459
100
AcDbEntity
  8
0
100
AcDbLine
 62
7
  6
CONTINUOUS
 10
159.6949855033
 20
129.8784674127
 11
162.080432467
 21
129.8784674127
  0
LINE
  5
45A
100
AcDbEntity
  8
0
100
AcDbLine
 62
7
  6
CONTINUOUS
 10
155.6877089851
 20
129.930875192
 11
153.3877089851
 21
129.930875192
  0
LINE
  5
45B
100
AcDbEntity
  8
0
100
AcDbLine
 62
7
  6
CONTINUOUS
 10
150.9877089851
 20
129.930875192
 11
148.6877089851
 21
129.930875192
  0
LINE
  5
45C
100
AcDbEntity
  8
0
100
AcDbLine
 62
7
  6
CONTINUOUS
 10
162.8381516746
 20
129.9570790816
 11
162.3377089851
 21
129.9570790816
  0
LINE
  5
45D
100
AcDbEntity
  8
0
100
AcDbLine
 62
7
  6
CONTINUOUS
 10
159.4377089851
 20
129.9570790816
 11
156.6377089851
 21
129.9570790816
  0
LINE
  5
45E
100
AcDbEntity
  8
0
100
AcDbLine
 62
7
  6
CONTINUOUS
 10
147.7377089851
 20
129.9570790816
 11
144.9377089851
 21
129.9570790816
  0
LINE
  5
45F
100
AcDbEntity
  8
0
100
AcDbLine
 62
7
  6
CONTINUOUS
 10
142.0377089851
 20
129.9570790816
 11
141.5372662957
 21
129.9570790816
  0
LINE
  5
460
100
AcDbEntity
  8
0
100
AcDbLine
 62
7
  6
CONTINUOUS
 10
151.1877089851
 20
129.9570790816
 11
153.1877089851
 21
129.9570790816
  0
LINE
  5
461
100
AcDbEntity
  8
0
100
AcDbLine
 62
7
  6
CONTINUOUS
 10
162.080432467
 20
130.6797288124
 11
159.6949855033
 21
130.6797288124
  0
LINE
  5
462
100
AcDbEntity
  8
0
100
AcDbLine
 62
7
  6
CONTINUOUS
 10
142.2949855033
 20
130.6797288124
 11
144.680432467
 21
130.6797288124
  0
LINE
  5
463
100
AcDbEntity
  8
0
100
AcDbLine
 62
253
  6
CONTINUOUS
 10
142.3008033331
 20
131.184910298
 11
144.6746146372
 21
131.184910298
  0
LINE
  5
464
100
AcDbEntity
  8
0
100
AcDbLine
 62
253
  6
CONTINUOUS
 10
159.7008033331
 20
131.184910298
 11
162.0746146372
 21
131.184910298
  0
LWPOLYLINE
  5
465
100
AcDbEntity
  8
0
100
AcDbPolyline
 62
7
  6
CONTINUOUS
 90
40
 70
0
 10
162.8372168316
 20
129.9570790816
 10
162.8572303404
 20
129.9566779935
 10
162.8772475827
 20
129.9554722569
 10
162.8972361087
 20
129.9534594394
 10
162.9171810599
 20
129.950635544
 10
162.9370314368
 20
129.9470022281
 10
162.9567014638
 20
129.942573979
 10
162.9761417085
 20
129.9373652337
 10
162.9953394975
 20
129.9313827719
 10
163.014266029
 20
129.9246376862
 10
163.0328741612
 20
129.9171499916
 10
163.0511524028
 20
129.9089275624
 10
163.069123417
 20
129.8999584808
 10
163.0867869435
 20
129.8902347846
 10
163.1040794706
 20
129.8797831674
 10
163.1209293947
 20
129.8686444902
 10
163.1373045768
 20
129.8568414779
 10
163.1531842804
 20
129.8443906648
 10
163.1685205782
 20
129.8313332021
 10
163.1832657989
 20
129.8177184288
 10
163.1974268918
 20
129.8035489737
 10
163.2110352968
 20
129.7887933772
 10
163.2240878407
 20
129.7734449749
 10
163.236535422
 20
129.7575509003
 10
163.2483378646
 20
129.7411577142
 10
163.25947876
 20
129.7242851597
 10
163.2699344605
 20
129.7069658873
 10
163.2796634231
 20
129.6892723564
 10
163.2886389162
 20
129.671267487
 10
163.2968683098
 20
129.6529519299
 10
163.3043623757
 20
129.6343055644
 10
163.3111127751
 20
129.6153412477
 10
163.3171000269
 20
129.5961049205
 10
163.3223134926
 20
129.5766241446
 10
163.3267462892
 20
129.5569112801
 10
163.3303836948
 20
129.5370161049
 10
163.3332111659
 20
129.5170240922
 10
163.3352268466
 20
129.4969861705
 10
163.3364344634
 20
129.4769173733
 10
163.3368362319
 20
129.4568502296
  0
LWPOLYLINE
  5
466
100
AcDbEntity
  8
0
100
AcDbPolyline
 62
7
  6
CONTINUOUS
 90
28
 70
0
 10
144.7232913513
 20
132.0545345558
 10
144.7350252726
 20
132.0525614494
 10
144.746652024
 20
132.0500322634
 10
144.7581452642
 20
132.0469527233
 10
144.7694789589
 20
132.043329803
 10
144.7806274344
 20
132.0391717074
 10
144.7915654314
 20
132.0344878538
 10
144.8022681727
 20
132.0292888505
 10
144.8127114134
 20
132.0235864733
 10
144.8228714911
 20
132.0173936398
 10
144.8327253903
 20
132.0107243771
 10
144.842250789
 20
132.0035937923
 10
144.8514261042
 20
131.9960180405
 10
144.8602305512
 20
131.9880142821
 10
144.8686441856
 20
131.9796006477
 10
144.876647944
 20
131.9707962007
 10
144.8842236959
 20
131.9616208855
 10
144.8913542806
 20
131.9520954868
 10
144.8980235433
 20
131.9422415875
 10
144.9042163768
 20
131.9320815099
 10
144.909918754
 20
131.9216382692
 10
144.9151177573
 20
131.9109355279
 10
144.9198016109
 20
131.8999975309
 10
144.9239597065
 20
131.8888490554
 10
144.9275826269
 20
131.8775153606
 10
144.9306621669
 20
131.8660221204
 10
144.9331913529
 20
131.8543953691
 10
144.9351644593
 20
131.8426614478
  0
LINE
  5
467
100
AcDbEntity
  8
0
100
AcDbLine
 62
253
  6
CONTINUOUS
 10
159.4508075639
 20
131.7939847337
 11
159.4377089851
 21
131.8070833124
  0
LINE
  5
468
100
AcDbEntity
  8
0
100
AcDbLine
 62
253
  6
CONTINUOUS
 10
159.7008033331
 20
132.0439805029
 11
159.6877047544
 21
132.0570790816
  0
LWPOLYLINE
  5
469
100
AcDbEntity
  8
0
100
AcDbPolyline
 62
7
  6
CONTINUOUS
 90
4
 70
0
 10
142.252126619
 20
132.0545345558
 10
142.2639411296
 20
132.0559471159
 10
142.2758094691
 20
132.0567959314
 10
142.2877047544
 20
132.0570790816
  0
LWPOLYLINE
  5
46A
100
AcDbEntity
  8
0
100
AcDbPolyline
 62
7
  6
CONTINUOUS
 90
33
 70
0
 10
153.3877089851
 20
131.5553269634
 10
153.3781912162
 20
131.555100369
 10
153.3686949999
 20
131.5544210981
 10
153.3592418545
 20
131.5532906876
 10
153.3498531951
 20
131.551711696
 10
153.3405503029
 20
131.5496876996
 10
153.3313542771
 20
131.5472232883
 10
153.3222859609
 20
131.5443240488
 10
153.3133658977
 20
131.54099655
 10
153.3046143025
 20
131.5372483338
 10
153.2960510042
 20
131.5330878936
 10
153.2876954086
 20
131.5285246586
 10
153.279566456
 20
131.5235689743
 10
153.2716825675
 20
131.5182320736
 10
153.2640616044
 20
131.5125260504
 10
153.2567208349
 20
131.5064638366
 10
153.2496768863
 20
131.5000591659
 10
153.2429457241
 20
131.493326557
 10
153.2365426134
 20
131.486281284
 10
153.2304820768
 20
131.4789393369
 10
153.2247778232
 20
131.4713173348
 10
153.2194427395
 20
131.463432499
 10
153.2144888742
 20
131.4553026185
 10
153.2099275056
 20
131.4469461842
 10
153.205769055
 20
131.4383823098
 10
153.202022969
 20
131.4296305268
 10
153.1986976554
 20
131.4207105631
 10
153.1958005751
 20
131.4116424678
 10
153.1933379343
 20
131.4024453081
 10
153.1913158117
 20
131.3931413653
 10
153.1897394138
 20
131.3837560662
 10
153.1886118322
 20
131.3743122206
 10
153.1879347203
 20
131.3648298248
  0
LWPOLYLINE
  5
46B
100
AcDbEntity
  8
0
100
AcDbPolyline
 62
7
  6
CONTINUOUS
 90
36
 70
0
 10
153.3877089851
 20
131.5570790816
 10
153.3789850093
 20
131.5568887183
 10
153.3702776458
 20
131.5563179916
 10
153.3616034701
 20
131.5553679885
 10
153.3529789942
 20
131.5540405181
 10
153.3444206353
 20
131.5523381081
 10
153.335944685
 20
131.550264
 10
153.3275672775
 20
131.5478221425
 10
153.31930436
 20
131.5450171845
 10
153.3111716614
 20
131.5418544665
 10
153.3031846625
 20
131.5383400094
 10
153.2953585672
 20
131.5344805038
 10
153.2877082728
 20
131.5302832976
 10
153.2802483418
 20
131.525756381
 10
153.2729929744
 20
131.5209083717
 10
153.2659559815
 20
131.5157484994
 10
153.259150758
 20
131.5102865867
 10
153.2525902576
 20
131.504533031
 10
153.2462869682
 20
131.4984987858
 10
153.2402528881
 20
131.492195338
 10
153.2344995027
 20
131.4856346866
 10
153.2290377634
 20
131.4788293217
 10
153.2238780664
 20
131.4717921976
 10
153.2190302327
 20
131.4645367098
 10
153.2145034896
 20
131.4570766709
 10
153.2103064534
 20
131.4494262812
 10
153.2064471125
 20
131.4416001035
 10
153.2029328126
 20
131.4336130363
 10
153.1997702425
 20
131.425480283
 10
153.1969654216
 20
131.4172173244
 10
153.1945236881
 20
131.40883989
 10
153.1924496892
 20
131.4003639263
 10
153.1907473723
 20
131.391805567
 10
153.1894199769
 20
131.3831811039
 10
153.1884700291
 20
131.3745069535
 10
153.1878993366
 20
131.3657996265
  0
LINE
  5
46C
100
AcDbEntity
  8
0
100
AcDbLine
 62
253
  6
CONTINUOUS
 10
155.6877089851
 20
131.355330348
 11
153.1877089851
 21
131.355330348
  0
LINE
  5
46D
100
AcDbEntity
  8
0
100
AcDbLine
 62
253
  6
CONTINUOUS
 10
148.6877089851
 20
131.355330348
 11
151.1877089851
 21
131.355330348
  0
LINE
  5
46E
100
AcDbEntity
  8
0
100
AcDbLine
 62
253
  6
CONTINUOUS
 10
142.0508075639
 20
131.4014166489
 11
144.9246104064
 21
131.4014166489
  0
LINE
  5
46F
100
AcDbEntity
  8
0
100
AcDbLine
 62
253
  6
CONTINUOUS
 10
159.4508075639
 20
131.4014166489
 11
162.3246104064
 21
131.4014166489
  0
LINE
  5
470
100
AcDbEntity
  8
0
100
AcDbLine
 62
7
  6
CONTINUOUS
 10
147.7464357299
 20
131.5483523369
 11
148.6877089851
 21
131.5483523369
  0
LINE
  5
471
100
AcDbEntity
  8
0
100
AcDbLine
 62
7
  6
CONTINUOUS
 10
155.6877089851
 20
131.5483523369
 11
156.6289822404
 21
131.5483523369
  0
LINE
  5
472
100
AcDbEntity
  8
0
100
AcDbLine
 62
7
  6
CONTINUOUS
 10
155.6877089851
 20
131.5553269634
 11
153.3877089851
 21
131.5553269634
  0
LINE
  5
473
100
AcDbEntity
  8
0
100
AcDbLine
 62
7
  6
CONTINUOUS
 10
150.9877089851
 20
131.5553269634
 11
148.6877089851
 21
131.5553269634
  0
LINE
  5
474
100
AcDbEntity
  8
0
100
AcDbLine
 62
7
  6
CONTINUOUS
 10
147.7377089851
 20
131.5570790816
 11
148.6877089851
 21
131.5570790816
  0
LINE
  5
475
100
AcDbEntity
  8
0
100
AcDbLine
 62
7
  6
CONTINUOUS
 10
155.6877089851
 20
131.5570790816
 11
156.6377089851
 21
131.5570790816
  0
LINE
  5
476
100
AcDbEntity
  8
0
100
AcDbLine
 62
253
  6
CONTINUOUS
 10
142.0508075639
 20
131.7939847337
 11
144.9246104064
 21
131.7939847337
  0
LINE
  5
477
100
AcDbEntity
  8
0
100
AcDbLine
 62
253
  6
CONTINUOUS
 10
159.4508075639
 20
131.7939847337
 11
162.3246104064
 21
131.7939847337
  0
LINE
  5
478
100
AcDbEntity
  8
0
100
AcDbLine
 62
7
  6
CONTINUOUS
 10
162.0746146372
 20
132.0439805029
 11
159.7008033331
 21
132.0439805029
  0
LINE
  5
479
100
AcDbEntity
  8
0
100
AcDbLine
 62
7
  6
CONTINUOUS
 10
144.6746146372
 20
132.0439805029
 11
142.3008033331
 21
132.0439805029
  0
LINE
  5
47A
100
AcDbEntity
  8
0
100
AcDbLine
 62
7
  6
CONTINUOUS
 10
162.0877132159
 20
132.0570790816
 11
159.6877047544
 21
132.0570790816
  0
LINE
  5
47B
100
AcDbEntity
  8
0
100
AcDbLine
 62
7
  6
CONTINUOUS
 10
144.6877132159
 20
132.0570790816
 11
142.2877047544
 21
132.0570790816
  0
LWPOLYLINE
  5
47C
100
AcDbEntity
  8
0
100
AcDbPolyline
 62
7
  6
CONTINUOUS
 90
37
 70
0
 10
150.9877089851
 20
131.5570790816
 10
150.996432961
 20
131.5568887183
 10
151.0051403245
 20
131.5563179916
 10
151.0138145002
 20
131.5553679885
 10
151.0224389761
 20
131.5540405181
 10
151.030997335
 20
131.5523381081
 10
151.0394732853
 20
131.550264
 10
151.0478506928
 20
131.5478221425
 10
151.0561136103
 20
131.5450171845
 10
151.0642463089
 20
131.5418544665
 10
151.0722333078
 20
131.5383400094
 10
151.0800594031
 20
131.5344805038
 10
151.0877096975
 20
131.5302832976
 10
151.0951696285
 20
131.525756381
 10
151.1024249959
 20
131.5209083717
 10
151.1094619888
 20
131.5157484994
 10
151.1162672123
 20
131.5102865867
 10
151.1228277127
 20
131.504533031
 10
151.1291310021
 20
131.4984987858
 10
151.1351650822
 20
131.492195338
 10
151.1409184676
 20
131.4856346866
 10
151.1463802069
 20
131.4788293217
 10
151.1515399039
 20
131.4717921976
 10
151.1563877376
 20
131.4645367098
 10
151.1609144807
 20
131.4570766709
 10
151.1651115169
 20
131.4494262812
 10
151.1689708578
 20
131.4416001035
 10
151.1724851577
 20
131.4336130363
 10
151.1756477278
 20
131.425480283
 10
151.1784525487
 20
131.4172173244
 10
151.1808942822
 20
131.40883989
 10
151.1829682811
 20
131.4003639263
 10
151.184670598
 20
131.391805567
 10
151.1859979934
 20
131.3831811039
 10
151.1869479412
 20
131.3745069535
 10
151.1875186337
 20
131.3657996265
 10
151.1877089851
 20
131.3570756969
  0
LWPOLYLINE
  5
47D
100
AcDbEntity
  8
0
100
AcDbPolyline
 62
253
  6
CONTINUOUS
 90
33
 70
0
 10
150.9877089851
 20
131.5553269634
 10
150.9972253683
 20
131.555100435
 10
151.0067201938
 20
131.5544213632
 10
151.0161719528
 20
131.5532912862
 10
151.025559234
 20
131.551712764
 10
151.0348607723
 20
131.5496893724
 10
151.0440554965
 20
131.5472256952
 10
151.0531225778
 20
131.5443273133
 10
151.0620414763
 20
131.5410007924
 10
151.0707919877
 20
131.5372536683
 10
151.0793542895
 20
131.5330944294
 10
151.0877089851
 20
131.5285324976
 10
151.0958371486
 20
131.5235782072
 10
151.1037203671
 20
131.5182427814
 10
151.1113407824
 20
131.5125383065
 10
151.1186811319
 20
131.5064777049
 10
151.1257247874
 20
131.5000747061
 10
151.1324557928
 20
131.4933438146
 10
151.1388589
 20
131.4863002783
 10
151.1449196041
 20
131.478960053
 10
151.1506241756
 20
131.4713397666
 10
151.1559596917
 20
131.4634566816
 10
151.1609140659
 20
131.4553286557
 10
151.1654760749
 20
131.4469741014
 10
151.1696353842
 20
131.4384119446
 10
151.1733825718
 20
131.4296615812
 10
151.1767091489
 20
131.4207428337
 10
151.1796075799
 20
131.4116759058
 10
151.1820712988
 20
131.4024813371
 10
151.1840947246
 20
131.3931799563
 10
151.1856732735
 20
131.383792834
 10
151.1868033697
 20
131.3743412349
 10
151.187482453
 20
131.3648465701
  0
LWPOLYLINE
  5
47E
100
AcDbEntity
  8
0
100
AcDbPolyline
 62
7
  6
CONTINUOUS
 90
34
 70
0
 10
144.6746146372
 20
132.0439805029
 10
144.6865096588
 20
132.0436969521
 10
144.6983777354
 20
132.0428477472
 10
144.7101919833
 20
132.0414348118
 10
144.7219256406
 20
132.0394613465
 10
144.7335521278
 20
132.0369318217
 10
144.7450451084
 20
132.0338519673
 10
144.7563785482
 20
132.0302287599
 10
144.7675267745
 20
132.0260704069
 10
144.7784645339
 20
132.0213863278
 10
144.78916705
 20
132.0161871332
 10
144.7996100793
 20
132.0104846003
 10
144.8097699659
 20
132.0042916467
 10
144.8196236954
 20
131.9976223009
 10
144.8291489469
 20
131.9904916704
 10
144.8383241435
 20
131.9829159076
 10
144.8471285015
 20
131.9749121734
 10
144.8555420769
 20
131.966498598
 10
144.8635458111
 20
131.95769424
 10
144.8711215739
 20
131.9485190434
 10
144.8782522044
 20
131.9389937919
 10
144.8849215503
 20
131.9291400624
 10
144.8911145038
 20
131.9189801758
 10
144.8968170367
 20
131.9085371465
 10
144.9020162313
 20
131.8978346304
 10
144.9067003104
 20
131.8868968709
 10
144.9108586634
 20
131.8757486447
 10
144.9144818708
 20
131.8644152049
 10
144.9175617252
 20
131.8529222243
 10
144.92009125
 20
131.8412957371
 10
144.9220647153
 20
131.8295620798
 10
144.9234776507
 20
131.8177478319
 10
144.9243268556
 20
131.8058797552
 10
144.9246104064
 20
131.7939847337
  0
LWPOLYLINE
  5
47F
100
AcDbEntity
  8
0
100
AcDbPolyline
 62
7
  6
CONTINUOUS
 90
4
 70
0
 10
144.6877132159
 20
132.0570790816
 10
144.6996085012
 20
132.0567959314
 10
144.7114768407
 20
132.0559471159
 10
144.7232913513
 20
132.0545345558
  0
LWPOLYLINE
  5
480
100
AcDbEntity
  8
0
100
AcDbPolyline
 62
7
  6
CONTINUOUS
 90
34
 70
0
 10
162.0746146372
 20
132.0439805029
 10
162.0864901088
 20
132.0436978833
 10
162.0983438513
 20
132.0428509815
 10
162.1101490268
 20
132.0414409855
 10
162.1218805215
 20
132.0394700395
 10
162.1335099567
 20
132.0369420496
 10
162.1450059223
 20
132.033863471
 10
162.1563406874
 20
132.0302418613
 10
162.1674902994
 20
132.0260850069
 10
162.1784297006
 20
132.0214022332
 10
162.1891342354
 20
132.0162040479
 10
162.1995794888
 20
132.0105022594
 10
162.2097415644
 20
132.004309897
 10
162.2195973491
 20
131.9976410598
 10
162.2291246106
 20
131.9905108064
 10
162.2383018238
 20
131.9829352455
 10
162.2471082154
 20
131.974931514
 10
162.2555238017
 20
131.9665177624
 10
162.2635294958
 20
131.9577130668
 10
162.2711071523
 20
131.9485373798
 10
162.2782396034
 20
131.9390114856
 10
162.2849106835
 20
131.9291569695
 10
162.2911052758
 20
131.9189961573
 10
162.296809341
 20
131.9085520721
 10
162.3020099487
 20
131.8978483857
 10
162.306695313
 20
131.8869093522
 10
162.3108548173
 20
131.8757597558
 10
162.3144790344
 20
131.8644248633
 10
162.317559753
 20
131.8529303523
 10
162.32008999
 20
131.8413022729
 10
162.3220640086
 20
131.8295669932
 10
162.3234773375
 20
131.8177511109
 10
162.3243267776
 20
131.8058813927
 10
162.3246104064
 20
131.7939847337
  0
LWPOLYLINE
  5
481
100
AcDbEntity
  8
0
100
AcDbPolyline
 62
7
  6
CONTINUOUS
 90
4
 70
0
 10
162.0877132159
 20
132.0570790816
 10
162.0996085012
 20
132.0567959314
 10
162.1114768407
 20
132.0559471159
 10
162.1232913513
 20
132.0545345558
  0
LWPOLYLINE
  5
482
100
AcDbEntity
  8
0
100
AcDbPolyline
 62
7
  6
CONTINUOUS
 90
28
 70
0
 10
162.1232913513
 20
132.0545345558
 10
162.1350252726
 20
132.0525614494
 10
162.146652024
 20
132.0500322634
 10
162.1581452642
 20
132.0469527233
 10
162.1694789589
 20
132.043329803
 10
162.1806274344
 20
132.0391717074
 10
162.1915654314
 20
132.0344878538
 10
162.2022681727
 20
132.0292888505
 10
162.2127114134
 20
132.0235864733
 10
162.2228714911
 20
132.0173936398
 10
162.2327253903
 20
132.0107243771
 10
162.242250789
 20
132.0035937923
 10
162.2514261042
 20
131.9960180405
 10
162.2602305512
 20
131.9880142821
 10
162.2686441856
 20
131.9796006477
 10
162.276647944
 20
131.9707962007
 10
162.2842236959
 20
131.9616208855
 10
162.2913542806
 20
131.9520954868
 10
162.2980235433
 20
131.9422415875
 10
162.3042163768
 20
131.9320815099
 10
162.309918754
 20
131.9216382692
 10
162.3151177573
 20
131.9109355279
 10
162.3198016109
 20
131.8999975309
 10
162.3239597065
 20
131.8888490554
 10
162.3275826269
 20
131.8775153606
 10
162.3306621669
 20
131.8660221204
 10
162.3331913529
 20
131.8543953691
 10
162.3351644593
 20
131.8426614478
  0
LWPOLYLINE
  5
483
100
AcDbEntity
  8
0
100
AcDbPolyline
 62
7
  6
CONTINUOUS
 90
5
 70
0
 10
99.9707702178
 20
130.6815209212
 10
99.9695112633
 20
130.6807588326
 10
99.9686098412
 20
130.6801972161
 10
99.9680690114
 20
130.679850544
 10
99.9678944633
 20
130.6797288124
  0
LINE
  5
484
100
AcDbEntity
  8
0
100
AcDbLine
 62
7
  6
CONTINUOUS
 10
99.9765944744
 20
130.6849740237
 11
99.9707702178
 21
130.6815209212
  0
LINE
  5
485
100
AcDbEntity
  8
0
100
AcDbLine
 62
253
  6
CONTINUOUS
 10
101.4678944633
 20
130.9675642298
 11
102.2193488962
 21
131.4014166489
  0
LINE
  5
486
100
AcDbEntity
  8
0
100
AcDbLine
 62
7
  6
CONTINUOUS
 10
101.4678944633
 20
130.6797288124
 11
102.3428944633
 21
131.184910298
  0
LINE
  5
487
100
AcDbEntity
  8
0
100
AcDbLine
 62
7
  6
CONTINUOUS
 10
100.2164400305
 20
130.8240663797
 11
99.9765944744
 21
130.6849740237
  0
LINE
  5
488
100
AcDbEntity
  8
0
100
AcDbLine
 62
7
  6
CONTINUOUS
 10
101.4678944633
 20
83.0570790816
 11
102.2193488962
 21
83.0614509156
  0
LINE
  5
489
100
AcDbEntity
  8
0
100
AcDbLine
 62
7
  6
CONTINUOUS
 10
99.2164400305
 20
83.0701776604
 11
101.4678944633
 21
83.0570790816
  0
LINE
  5
48A
100
AcDbEntity
  8
0
100
AcDbLine
 62
253
  6
CONTINUOUS
 10
99.2164400305
 20
83.3201734296
 11
101.4678944633
 21
83.3070748508
  0
LINE
  5
48B
100
AcDbEntity
  8
0
100
AcDbLine
 62
253
  6
CONTINUOUS
 10
102.2193488962
 20
83.7127415143
 11
101.4678944633
 21
84.1465939334
  0
LINE
  5
48C
100
AcDbEntity
  8
0
100
AcDbLine
 62
7
  6
CONTINUOUS
 10
102.3428944633
 20
83.9292478653
 11
101.4678944633
 21
84.4344293508
  0
LINE
  5
48D
100
AcDbEntity
  8
0
100
AcDbLine
 62
7
  6
CONTINUOUS
 10
100.2164400305
 20
84.2900917835
 11
99.9967286009
 21
84.4173875436
  0
LWPOLYLINE
  5
48E
100
AcDbEntity
  8
0
100
AcDbPolyline
 62
7
  6
CONTINUOUS
 90
7
 70
0
 10
99.9967286009
 20
84.4173875436
 10
99.9723772831
 20
84.4316820836
 10
99.9707702178
 20
84.4326372421
 10
99.9695112633
 20
84.4333993306
 10
99.9686098412
 20
84.4339609472
 10
99.9680690114
 20
84.4343076193
 10
99.9678944633
 20
84.4344293508
  0
LINE
  5
48F
100
AcDbEntity
  8
0
100
AcDbLine
 62
253
  6
CONTINUOUS
 10
99.0993889784
 20
131.1969816538
 11
99.0961488131
 21
131.1911398744
  0
LINE
  5
490
100
AcDbEntity
  8
0
100
AcDbLine
 62
253
  6
CONTINUOUS
 10
99.1090386875
 20
131.2141304665
 11
99.0993889784
 21
131.1969816538
  0
LINE
  5
491
100
AcDbEntity
  8
0
100
AcDbLine
 62
253
  6
CONTINUOUS
 10
99.1396107128
 20
131.2678029104
 11
99.1090386875
 21
131.2141304665
  0
LINE
  5
492
100
AcDbEntity
  8
0
100
AcDbLine
 62
253
  6
CONTINUOUS
 10
99.2164400305
 20
131.4014166489
 11
99.1396107128
 21
131.2678029104
  0
LINE
  5
493
100
AcDbEntity
  8
0
100
AcDbLine
 62
253
  6
CONTINUOUS
 10
101.4678944633
 20
83.3070748508
 11
102.2193488962
 21
83.3114466848
  0
LINE
  5
494
100
AcDbEntity
  8
0
100
AcDbLine
 62
7
  6
CONTINUOUS
 10
108.970803329
 20
83.6007297285
 11
102.4678944633
 21
83.5628969114
  0
LINE
  5
495
100
AcDbEntity
  8
0
100
AcDbLine
 62
7
  6
CONTINUOUS
 10
101.4678944633
 20
85.1570790816
 11
112.9737121947
 21
85.224017971
  0
LINE
  5
496
100
AcDbEntity
  8
0
100
AcDbLine
 62
253
  6
CONTINUOUS
 10
102.4678944633
 20
83.3114466848
 11
102.2193488962
 21
83.3114466848
  0
LINE
  5
497
100
AcDbEntity
  8
0
100
AcDbLine
 62
253
  6
CONTINUOUS
 10
98.9678944633
 20
83.3201734296
 11
99.2164400305
 21
83.3201734296
  0
LINE
  5
498
100
AcDbEntity
  8
0
100
AcDbLine
 62
253
  6
CONTINUOUS
 10
102.4678944633
 20
83.7127415143
 11
102.2193488962
 21
83.7127415143
  0
LINE
  5
499
100
AcDbEntity
  8
0
100
AcDbLine
 62
253
  6
CONTINUOUS
 10
98.9678944633
 20
83.7127415143
 11
99.2164400305
 21
83.7127415143
  0
LINE
  5
49A
100
AcDbEntity
  8
0
100
AcDbLine
 62
7
  6
CONTINUOUS
 10
94.9846573943
 20
85.496851139
 11
101.4678944633
 21
85.1570790816
  0
LINE
  5
49B
100
AcDbEntity
  8
0
100
AcDbLine
 62
253
  6
CONTINUOUS
 10
95.0020991692
 20
85.9961659064
 11
101.4679173068
 21
85.6573067365
  0
LINE
  5
49C
100
AcDbEntity
  8
0
100
AcDbLine
 62
253
  6
CONTINUOUS
 10
99.2164400305
 20
83.7127415143
 11
99.1350638261
 21
83.8543071506
  0
LINE
  5
49D
100
AcDbEntity
  8
0
100
AcDbLine
 62
253
  6
CONTINUOUS
 10
99.1350638261
 20
83.8543071506
 11
99.1090362389
 21
83.9000320247
  0
LINE
  5
49E
100
AcDbEntity
  8
0
100
AcDbLine
 62
253
  6
CONTINUOUS
 10
99.1090362389
 20
83.9000320247
 11
99.0993880179
 21
83.9171782308
  0
LWPOLYLINE
  5
49F
100
AcDbEntity
  8
0
100
AcDbPolyline
 62
253
  6
CONTINUOUS
 90
7
 70
0
 10
99.0993880179
 20
83.9171782308
 10
99.0961483351
 20
83.9230191581
 10
99.0949389797
 20
83.9252307767
 10
99.0940071275
 20
83.9269628196
 10
99.0933548817
 20
83.9282113777
 10
99.0929837145
 20
83.9289736331
 10
99.0928944633
 20
83.9292478653
  0
LWPOLYLINE
  5
4A0
100
AcDbEntity
  8
0
100
AcDbPolyline
 62
253
  6
CONTINUOUS
 90
6
 70
0
 10
99.0961488131
 20
131.1911398744
 10
99.0949392844
 20
131.1889279478
 10
99.0940072973
 20
131.1871956631
 10
99.0933549549
 20
131.1859469292
 10
99.0929837309
 20
131.1851845672
 10
99.0928944633
 20
131.184910298
  0
LINE
  5
4A1
100
AcDbEntity
  8
0
100
AcDbLine
 62
253
  6
CONTINUOUS
 10
101.4678944633
 20
85.6570621586
 11
102.4678944633
 21
85.6628799884
  0
LINE
  5
4A2
100
AcDbEntity
  8
0
100
AcDbLine
 62
7
  6
CONTINUOUS
 10
113.9678944633
 20
86.6570790816
 11
102.4678944633
 21
86.6570790816
  0
LINE
  5
4A3
100
AcDbEntity
  8
DRAFT
100
AcDbLine
 62
7
  6
CONTINUOUS
 10
103.9678944633
 20
86.7070790816
 11
113.9678944633
 21
86.7070790816
  0
LINE
  5
4A4
100
AcDbEntity
  8
ASSI
100
AcDbLine
 62
7
  6
CONTINUOUS
 10
103.9678944633
 20
86.7070790816
 11
113.9678944633
 21
86.7070790816
  0
LINE
  5
4A5
100
AcDbEntity
  8
0
100
AcDbLine
 62
7
  6
CONTINUOUS
 10
113.4766206666
 20
85.964921051
 11
102.4678944633
 21
86.1570790816
  0
LWPOLYLINE
  5
4A6
100
AcDbEntity
  8
0
100
AcDbPolyline
 62
253
  6
CONTINUOUS
 90
43
 70
0
 10
94.5338575249
 20
86.4209211321
 10
94.5365529416
 20
86.4048365919
 10
94.5397634149
 20
86.3888783896
 10
94.5434889446
 20
86.3730465252
 10
94.5477347477
 20
86.3573233102
 10
94.5524956072
 20
86.341726433
 10
94.5577558727
 20
86.3263089596
 10
94.5635169697
 20
86.3110725641
 10
94.5697774727
 20
86.2960155723
 10
94.5765174543
 20
86.2811860274
 10
94.5837384269
 20
86.2665847211
 10
94.5914388781
 20
86.2522108616
 10
94.5995943436
 20
86.2381101168
 10
94.6082062714
 20
86.2242833407
 10
94.6172732136
 20
86.2107296793
 10
94.6267663623
 20
86.1974922384
 10
94.6366870895
 20
86.1845720085
 10
94.6470340233
 20
86.171967999
 10
94.6577742394
 20
86.1597203446
 10
94.6689089787
 20
86.1478301945
 10
94.6804370002
 20
86.1362963995
 10
94.6923216577
 20
86.1251556463
 10
94.7045640935
 20
86.1144091794
 10
94.7171631653
 20
86.1040557543
 10
94.7300787993
 20
86.0941283235
 10
94.7433120317
 20
86.0846282312
 10
94.7568618264
 20
86.0755541333
 10
94.7706850012
 20
86.06693495
 10
94.7847823963
 20
86.0587721547
 10
94.7991531715
 20
86.051064274
 10
94.8137516245
 20
86.0438358079
 10
94.8285784674
 20
86.0370882818
 10
94.8436329882
 20
86.0308201702
 10
94.8588673482
 20
86.025051397
 10
94.8742821892
 20
86.0197835418
 10
94.8898768695
 20
86.015015025
 10
94.9056016255
 20
86.0107610317
 10
94.9214577601
 20
86.0070231618
 10
94.9374439703
 20
86.0037998156
 10
94.9535065836
 20
86.0011013783
 10
94.9696277091
 20
85.9989313119
 10
94.9858252376
 20
85.9972861546
 10
95.0020991692
 20
85.9961659064
  0
LWPOLYLINE
  5
4A7
100
AcDbEntity
  8
0
100
AcDbPolyline
 62
253
  6
CONTINUOUS
 90
16
 70
0
 10
94.5338575249
 20
128.6932370311
 10
94.4209365703
 20
127.9216605783
 10
94.3147559385
 20
127.149246468
 10
94.2153156294
 20
126.3759947001
 10
94.1226090852
 20
125.6018462264
 10
94.0366428638
 20
124.8268600952
 10
93.9574366387
 20
124.0512134513
 10
93.8849919835
 20
123.2749063583
 10
93.8193073247
 20
122.4979387526
 10
93.7603976156
 20
121.7204875893
 10
93.7082643989
 20
120.9425526209
 10
93.6629061319
 20
120.1641340948
 10
93.6243331408
 20
119.3854097082
 10
93.5925488676
 20
118.6064386933
 10
93.5675498701
 20
117.8271618177
 10
93.5493361485
 20
117.0475790816
  0
LINE
  5
4A8
100
AcDbEntity
  8
0
100
AcDbLine
 62
253
  6
CONTINUOUS
 10
94.0849234622
 20
86.3524020032
 11
94.0595971652
 21
86.3483660339
  0
LINE
  5
4A9
100
AcDbEntity
  8
0
100
AcDbLine
 62
253
  6
CONTINUOUS
 10
94.2721938326
 20
86.3812470972
 11
94.0849234622
 21
86.3524020032
  0
LINE
  5
4AA
100
AcDbEntity
  8
0
100
AcDbLine
 62
253
  6
CONTINUOUS
 10
94.5338575249
 20
86.4209211321
 11
94.2721938326
 21
86.3812470972
  0
LINE
  5
4AB
100
AcDbEntity
  8
RACCORDO
100
AcDbLine
 62
7
  6
CONTINUOUS
 10
126.9853468698
 20
88.1733203897
 11
113.9678944633
 21
87.9460999128
  0
LINE
  5
4AC
100
AcDbEntity
  8
ASSI
100
AcDbLine
 62
7
  6
CONTINUOUS
 10
126.9853468698
 20
88.1733203897
 11
113.9678944633
 21
87.9460999128
  0
LINE
  5
4AD
100
AcDbEntity
  8
RACCORDO
100
AcDbLine
 62
253
  6
CONTINUOUS
 10
126.9853468698
 20
88.4661689995
 11
113.9678944633
 21
88.2389485225
  0
LINE
  5
4AE
100
AcDbEntity
  8
ASSI
100
AcDbLine
 62
253
  6
CONTINUOUS
 10
126.9853468698
 20
88.4661689995
 11
113.9678944633
 21
88.2389485225
  0
LINE
  5
4AF
100
AcDbEntity
  8
RACCORDO
100
AcDbLine
 62
7
  6
CONTINUOUS
 10
102.4678944633
 20
88.0588245881
 11
103.3678944633
 21
88.0745341466
  0
LINE
  5
4B0
100
AcDbEntity
  8
DRAFT
100
AcDbLine
 62
7
  6
CONTINUOUS
 10
102.4678944633
 20
88.4070790816
 11
103.9678944633
 21
88.433261679
  0
LINE
  5
4B1
100
AcDbEntity
  8
DRAFT
100
AcDbLine
 62
7
  6
CONTINUOUS
 10
102.4678944633
 20
89.0487885572
 11
103.9678944633
 21
89.0727260399
  0
LINE
  5
4B2
100
AcDbEntity
  8
RACCORDO
100
AcDbLine
 62
253
  6
CONTINUOUS
 10
103.9678944633
 20
88.4713818621
 11
126.9853468698
 21
88.6378009116
  0
LINE
  5
4B3
100
AcDbEntity
  8
ASSI
100
AcDbLine
 62
253
  6
CONTINUOUS
 10
103.9678944633
 20
88.4713818621
 11
126.9853468698
 21
88.6378009116
  0
LINE
  5
4B4
100
AcDbEntity
  8
DRAFT
100
AcDbLine
 62
7
  6
CONTINUOUS
 10
103.9678944633
 20
87.8439887799
 11
102.4678944633
 21
87.8570790816
  0
LWPOLYLINE
  5
4B5
100
AcDbEntity
  8
0
100
AcDbPolyline
 62
253
  6
CONTINUOUS
 90
16
 70
0
 10
93.5493361485
 20
98.0665790816
 10
93.5675498326
 20
97.2869973007
 10
93.5925487972
 20
96.5077211424
 10
93.6243330425
 20
95.7287506067
 10
93.6629060121
 20
94.9500263827
 10
93.7082642623
 20
94.1716077812
 10
93.7603974621
 20
93.3936727358
 10
93.8193071518
 20
92.6162215725
 10
93.884991791
 20
91.8392539652
 10
93.9574364272
 20
91.0629468689
 10
94.0366426225
 20
90.2873002981
 10
94.1226088148
 20
89.5123142384
 10
94.2153153651
 20
88.7381656008
 10
94.3147557271
 20
87.9649133557
 10
94.420936447
 20
87.1924985329
 10
94.5338575249
 20
86.4209211321
  0
LWPOLYLINE
  5
4B6
100
AcDbEntity
  8
0
100
AcDbPolyline
 62
253
  6
CONTINUOUS
 90
12
 70
0
 10
94.983452424
 20
85.54520004
 10
94.9833398309
 20
85.5369394256
 10
94.9832717676
 20
85.5294228123
 10
94.9832483444
 20
85.522662378
 10
94.9832695993
 20
85.5166690753
 10
94.9833354978
 20
85.5114526141
 10
94.9834459331
 20
85.5070214457
 10
94.9836007263
 20
85.5033827492
 10
94.9837996267
 20
85.5005424195
 10
94.984042312
 20
85.4985050585
 10
94.984328389
 20
85.4972739668
 10
94.9846573943
 20
85.496851139
  0
LWPOLYLINE
  5
4B7
100
AcDbEntity
  8
0
100
AcDbPolyline
 62
253
  6
CONTINUOUS
 90
13
 70
0
 10
93.5493361485
 20
117.0475790816
 10
93.5217843813
 20
115.4658690175
 10
93.4992421284
 20
113.8841430081
 10
93.4817093899
 20
112.3024010535
 10
93.4691862907
 20
110.7206378458
 10
93.4616727058
 20
109.138858693
 10
93.4591682601
 20
107.5570795185
 10
93.4616727032
 20
105.9753003259
 10
93.4691862855
 20
104.3935211117
 10
93.4817093835
 20
102.8117577889
 10
93.4992421227
 20
101.2300156618
 10
93.5217843778
 20
99.648289426
 10
93.5493361485
 20
98.0665790816
  0
LWPOLYLINE
  5
4B8
100
AcDbEntity
  8
0
100
AcDbPolyline
 62
253
  6
CONTINUOUS
 90
8
 70
0
 10
99.2164400305
 20
132.0439805029
 10
99.2163725853
 20
132.0436978833
 10
99.2163085493
 20
132.0428509815
 10
99.216248072
 20
132.0414409855
 10
99.2161912867
 20
132.0394700395
 10
99.2161383361
 20
132.0369420496
 10
99.2160893652
 20
132.033863471
 10
99.2160038087
 20
132.0260850069
  0
LINE
  5
4B9
100
AcDbEntity
  8
0
100
AcDbLine
 62
7
  6
CONTINUOUS
 10
103.9678944633
 20
89.4978965334
 11
101.4678944633
 21
89.0570790816
  0
LWPOLYLINE
  5
4BA
100
AcDbEntity
  8
0
100
AcDbPolyline
 62
253
  6
CONTINUOUS
 90
4
 70
0
 10
94.0522867344
 20
86.3471517118
 10
94.0499979117
 20
86.346750083
 10
94.0486262665
 20
86.3464865581
 10
94.0481743525
 20
86.3463616277
  0
LINE
  5
4BB
100
AcDbEntity
  8
0
100
AcDbLine
 62
253
  6
CONTINUOUS
 10
94.0595971652
 20
86.3483660339
 11
94.0522867344
 21
86.3471517118
  0
LINE
  5
4BC
100
AcDbEntity
  8
RACCORDO
100
AcDbLine
 62
253
  6
CONTINUOUS
 10
103.9678944633
 20
89.8853800329
 11
126.9853468698
 21
90.0517990824
  0
LINE
  5
4BD
100
AcDbEntity
  8
ASSI
100
AcDbLine
 62
253
  6
CONTINUOUS
 10
103.9678944633
 20
89.8853800329
 11
126.9853468698
 21
90.0517990824
  0
LINE
  5
4BE
100
AcDbEntity
  8
RACCORDO
100
AcDbLine
 62
253
  6
CONTINUOUS
 10
127.9678944633
 20
90.0517990824
 11
126.9853468698
 21
90.0517990841
  0
LINE
  5
4BF
100
AcDbEntity
  8
ASSI
100
AcDbLine
 62
253
  6
CONTINUOUS
 10
127.9678944633
 20
90.0517990824
 11
126.9853468698
 21
90.0517990841
  0
LINE
  5
4C0
100
AcDbEntity
  8
0
100
AcDbLine
 62
253
  6
CONTINUOUS
 10
95.0030517079
 20
129.1180421773
 11
94.9961458894
 21
129.2568830377
  0
LINE
  5
4C1
100
AcDbEntity
  8
0
100
AcDbLine
 62
253
  6
CONTINUOUS
 10
94.9961458894
 20
129.2568830377
 11
94.9904121054
 21
129.3847695902
  0
LINE
  5
4C2
100
AcDbEntity
  8
0
100
AcDbLine
 62
253
  6
CONTINUOUS
 10
94.9904121054
 20
129.3847695902
 11
94.9872416118
 21
129.4637625275
  0
LINE
  5
4C3
100
AcDbEntity
  8
0
100
AcDbLine
 62
253
  6
CONTINUOUS
 10
94.9872416118
 20
129.4637625275
 11
94.9853754556
 21
129.5170408128
  0
LINE
  5
4C4
100
AcDbEntity
  8
0
100
AcDbLine
 62
253
  6
CONTINUOUS
 10
94.9853754556
 20
129.5170408128
 11
94.9844026439
 21
129.5502904498
  0
LWPOLYLINE
  5
4C5
100
AcDbEntity
  8
0
100
AcDbPolyline
 62
253
  6
CONTINUOUS
 90
13
 70
0
 10
94.9844026439
 20
129.5502904498
 10
94.9839649065
 20
129.5689848401
 10
94.9838102975
 20
129.5772432757
 10
94.9836990889
 20
129.5847576488
 10
94.983631381
 20
129.5915157812
 10
94.9836072219
 20
129.5975067206
 10
94.9836268795
 20
129.6027207734
 10
94.9836902434
 20
129.607149488
 10
94.9837971383
 20
129.6107856855
 10
94.9839476272
 20
129.6136234872
 10
94.9841414922
 20
129.6156582967
 10
94.9843782357
 20
129.6168868073
 10
94.9846573943
 20
129.6173070243
  0
LINE
  5
4C6
100
AcDbEntity
  8
0
100
AcDbLine
 62
253
  6
CONTINUOUS
 10
94.9838103981
 20
85.563898556
 11
94.983452424
 21
85.54520004
  0
LINE
  5
4C7
100
AcDbEntity
  8
0
100
AcDbLine
 62
253
  6
CONTINUOUS
 10
94.9843433712
 20
85.585397234
 11
94.9838103981
 21
85.563898556
  0
LINE
  5
4C8
100
AcDbEntity
  8
0
100
AcDbLine
 62
253
  6
CONTINUOUS
 10
94.9854630967
 20
85.6225861722
 11
94.9843433712
 21
85.585397234
  0
LINE
  5
4C9
100
AcDbEntity
  8
0
100
AcDbLine
 62
253
  6
CONTINUOUS
 10
94.9875271017
 20
85.6805304748
 11
94.9854630967
 21
85.6225861722
  0
LINE
  5
4CA
100
AcDbEntity
  8
0
100
AcDbLine
 62
253
  6
CONTINUOUS
 10
94.9909469074
 20
85.7642469312
 11
94.9875271017
 21
85.6805304748
  0
LINE
  5
4CB
100
AcDbEntity
  8
0
100
AcDbLine
 62
253
  6
CONTINUOUS
 10
94.9960955105
 20
85.876740138
 11
94.9909469074
 21
85.7642469312
  0
LINE
  5
4CC
100
AcDbEntity
  8
0
100
AcDbLine
 62
253
  6
CONTINUOUS
 10
95.0020991692
 20
85.9961659064
 11
94.9960955105
 21
85.876740138
  0
LINE
  5
4CD
100
AcDbEntity
  8
INCISIONI
100
AcDbLine
 62
7
  6
CONTINUOUS
 10
106.5525321726
 20
123.3904443882
 11
106.720603866
 21
123.5585160816
  0
LINE
  5
4CE
100
AcDbEntity
  8
INCISIONI
100
AcDbLine
 62
7
  6
CONTINUOUS
 10
106.5525321726
 20
123.1804336742
 11
106.93061458
 21
123.5585160816
  0
LINE
  5
4CF
100
AcDbEntity
  8
INCISIONI
100
AcDbLine
 62
7
  6
CONTINUOUS
 10
106.6421968559
 20
123.0600876436
 11
107.140625294
 21
123.5585160816
  0
LINE
  5
4D0
100
AcDbEntity
  8
INCISIONI
100
AcDbLine
 62
7
  6
CONTINUOUS
 10
106.852206544
 20
123.0600866176
 11
107.350636008
 21
123.5585160816
  0
LINE
  5
4D1
100
AcDbEntity
  8
INCISIONI
100
AcDbLine
 62
7
  6
CONTINUOUS
 10
107.062216232
 20
123.0600855917
 11
107.560646722
 21
123.5585160816
  0
LINE
  5
4D2
100
AcDbEntity
  8
INCISIONI
100
AcDbLine
 62
253
  6
CONTINUOUS
 10
106.5525321726
 20
121.7231800816
 11
108.5994825092
 21
123.0600780816
  0
LINE
  5
4D3
100
AcDbEntity
  8
INCISIONI
100
AcDbLine
 62
253
  6
CONTINUOUS
 10
109.4507431477
 20
123.0411570816
 11
107.4261340042
 21
121.7227350816
  0
LINE
  5
4D4
100
AcDbEntity
  8
DRAFT
100
AcDbLine
 62
7
  6
CONTINUOUS
 10
128.2417478748
 20
92.9310381506
 11
129.6940416326
 21
93.0580973905
  0
LINE
  5
4D5
100
AcDbEntity
  8
ASSI
100
AcDbLine
 62
7
  6
CONTINUOUS
 10
128.2417478748
 20
92.9310381506
 11
129.6940416326
 21
93.0580973905
  0
LINE
  5
4D6
100
AcDbEntity
  8
INCISIONI
100
AcDbLine
 62
253
  6
CONTINUOUS
 10
123.9678944633
 20
91.5570790816
 11
122.6678944633
 21
91.5570790816
  0
LINE
  5
4D7
100
AcDbEntity
  8
INCISIONI
100
AcDbLine
 62
253
  6
CONTINUOUS
 10
122.6678944633
 20
92.3890791188
 11
123.9678944633
 21
92.3890791188
  0
LINE
  5
4D8
100
AcDbEntity
  8
INCISIONI
100
AcDbLine
 62
253
  6
CONTINUOUS
 10
106.5521322944
 20
93.4193650816
 11
108.5484210666
 21
92.7782400816
  0
LINE
  5
4D9
100
AcDbEntity
  8
INCISIONI
100
AcDbLine
 62
253
  6
CONTINUOUS
 10
109.4513799537
 20
93.0682550816
 11
106.5521322944
 21
93.9993940816
  0
LWPOLYLINE
  5
4DA
100
AcDbEntity
  8
0
100
AcDbPolyline
 62
253
  6
CONTINUOUS
 90
6
 70
0
 10
99.2161383361
 20
83.0772161136
 10
99.2161912867
 20
83.0746881237
 10
99.216248072
 20
83.0727171778
 10
99.2163085493
 20
83.0713071818
 10
99.2163725853
 20
83.07046028
 10
99.2164400305
 20
83.0701776604
  0
LINE
  5
4DB
100
AcDbEntity
  8
0
100
AcDbLine
 62
253
  6
CONTINUOUS
 10
99.2160444913
 20
83.083916302
 11
99.2161383361
 21
83.0772161136
  0
LINE
  5
4DC
100
AcDbEntity
  8
0
100
AcDbLine
 62
253
  6
CONTINUOUS
 10
99.2159353737
 20
83.0979541154
 11
99.2160444913
 21
83.083916302
  0
LINE
  5
4DD
100
AcDbEntity
  8
0
100
AcDbLine
 62
253
  6
CONTINUOUS
 10
99.2158521423
 20
131.9485373798
 11
99.2164400305
 21
131.7939847337
  0
LINE
  5
4DE
100
AcDbEntity
  8
0
100
AcDbLine
 62
253
  6
CONTINUOUS
 10
99.2158382075
 20
83.1392266493
 11
99.2159353737
 21
83.0979541154
  0
LINE
  5
4DF
100
AcDbEntity
  8
0
100
AcDbLine
 62
7
  6
CONTINUOUS
 10
98.9678944633
 20
83.3201734296
 11
98.9678944633
 21
83.7127415143
  0
LINE
  5
4E0
100
AcDbEntity
  8
0
100
AcDbLine
 62
7
  6
CONTINUOUS
 10
98.9678944633
 20
131.4014166489
 11
98.9678944633
 21
131.7939847337
  0
LINE
  5
4E1
100
AcDbEntity
  8
0
100
AcDbLine
 62
253
  6
CONTINUOUS
 10
99.2164400305
 20
83.3201734296
 11
99.2164400305
 21
83.7127415143
  0
LINE
  5
4E2
100
AcDbEntity
  8
0
100
AcDbLine
 62
253
  6
CONTINUOUS
 10
99.2164400305
 20
131.4014166489
 11
99.2164400305
 21
131.7939847337
  0
LINE
  5
4E3
100
AcDbEntity
  8
0
100
AcDbLine
 62
253
  6
CONTINUOUS
 10
99.2158846819
 20
132.004309897
 11
99.2158521423
 21
131.9485373798
  0
LINE
  5
4E4
100
AcDbEntity
  8
0
100
AcDbLine
 62
253
  6
CONTINUOUS
 10
99.2161381144
 20
83.261227811
 11
99.2158382075
 21
83.1392266493
  0
LINE
  5
4E5
100
AcDbEntity
  8
0
100
AcDbLine
 62
253
  6
CONTINUOUS
 10
99.2164400305
 20
83.3201734296
 11
99.2161381144
 21
83.261227811
  0
LINE
  5
4E6
100
AcDbEntity
  8
0
100
AcDbLine
 62
253
  6
CONTINUOUS
 10
99.2160038087
 20
132.0260850069
 11
99.2158846819
 21
132.004309897
  0
LINE
  5
4E7
100
AcDbEntity
  8
INCISIONI
100
AcDbLine
 62
7
  6
CONTINUOUS
 10
107.2722259201
 20
123.0600845657
 11
107.770657436
 21
123.5585160816
  0
LINE
  5
4E8
100
AcDbEntity
  8
INCISIONI
100
AcDbLine
 62
7
  6
CONTINUOUS
 10
107.4822356081
 20
123.0600835397
 11
107.98066815
 21
123.5585160816
  0
LINE
  5
4E9
100
AcDbEntity
  8
INCISIONI
100
AcDbLine
 62
7
  6
CONTINUOUS
 10
107.6922452962
 20
123.0600825138
 11
108.190678864
 21
123.5585160816
  0
LINE
  5
4EA
100
AcDbEntity
  8
INCISIONI
100
AcDbLine
 62
7
  6
CONTINUOUS
 10
106.5525321726
 20
121.7103586761
 11
106.5894939273
 21
121.7473204308
  0
LINE
  5
4EB
100
AcDbEntity
  8
INCISIONI
100
AcDbLine
 62
7
  6
CONTINUOUS
 10
107.9022549842
 20
123.0600814878
 11
108.4006895781
 21
123.5585160816
  0
LINE
  5
4EC
100
AcDbEntity
  8
INCISIONI
100
AcDbLine
 62
7
  6
CONTINUOUS
 10
106.5525321726
 20
121.5003479621
 11
107.1949162033
 21
122.1427319929
  0
LINE
  5
4ED
100
AcDbEntity
  8
INCISIONI
100
AcDbLine
 62
7
  6
CONTINUOUS
 10
108.1122646723
 20
123.0600804618
 11
108.6107002921
 21
123.5585160816
  0
LINE
  5
4EE
100
AcDbEntity
  8
INCISIONI
100
AcDbLine
 62
7
  6
CONTINUOUS
 10
106.5525321726
 20
121.2903372481
 11
107.8003384793
 21
122.5381435549
  0
LINE
  5
4EF
100
AcDbEntity
  8
INCISIONI
100
AcDbLine
 62
7
  6
CONTINUOUS
 10
108.3222743603
 20
123.0600794359
 11
108.8207110061
 21
123.5585160816
  0
LINE
  5
4F0
100
AcDbEntity
  8
INCISIONI
100
AcDbLine
 62
7
  6
CONTINUOUS
 10
106.6894947201
 20
121.2172890816
 11
108.4057607554
 21
122.9335551169
  0
LINE
  5
4F1
100
AcDbEntity
  8
INCISIONI
100
AcDbLine
 62
7
  6
CONTINUOUS
 10
108.5322840484
 20
123.0600784099
 11
109.0307217201
 21
123.5585160816
  0
LINE
  5
4F2
100
AcDbEntity
  8
INCISIONI
100
AcDbLine
 62
7
  6
CONTINUOUS
 10
106.8995054341
 20
121.2172890816
 11
109.2407324341
 21
123.5585160816
  0
LINE
  5
4F3
100
AcDbEntity
  8
INCISIONI
100
AcDbLine
 62
7
  6
CONTINUOUS
 10
107.1095161481
 20
121.2172890816
 11
107.6143093094
 21
121.7220822429
  0
LINE
  5
4F4
100
AcDbEntity
  8
INCISIONI
100
AcDbLine
 62
7
  6
CONTINUOUS
 10
107.9674964324
 20
122.0752693659
 11
109.4507431477
 21
123.5585160812
  0
LINE
  5
4F5
100
AcDbEntity
  8
INCISIONI
100
AcDbLine
 62
7
  6
CONTINUOUS
 10
107.3195268621
 20
121.2172890816
 11
107.8235939497
 21
121.7213561692
  0
LINE
  5
4F6
100
AcDbEntity
  8
INCISIONI
100
AcDbLine
 62
7
  6
CONTINUOUS
 10
108.5695884072
 20
122.4673506267
 11
109.4507431477
 21
123.3485053672
  0
LINE
  5
4F7
100
AcDbEntity
  8
INCISIONI
100
AcDbLine
 62
7
  6
CONTINUOUS
 10
107.5295375761
 20
121.2172890816
 11
108.0328785901
 21
121.7206300956
  0
LINE
  5
4F8
100
AcDbEntity
  8
INCISIONI
100
AcDbLine
 62
7
  6
CONTINUOUS
 10
109.171680382
 20
122.8594318875
 11
109.4507431477
 21
123.1384946532
  0
LINE
  5
4F9
100
AcDbEntity
  8
INCISIONI
100
AcDbLine
 62
7
  6
CONTINUOUS
 10
107.7395482902
 20
121.2172890816
 11
108.2421632305
 21
121.719904022
  0
LINE
  5
4FA
100
AcDbEntity
  8
INCISIONI
100
AcDbLine
 62
7
  6
CONTINUOUS
 10
106.5863125961
 20
119.8540426735
 11
107.2983268817
 21
120.5660569592
  0
LINE
  5
4FB
100
AcDbEntity
  8
INCISIONI
100
AcDbLine
 62
7
  6
CONTINUOUS
 10
107.9495590042
 20
121.2172890816
 11
108.4514478709
 21
121.7191779483
  0
LWPOLYLINE
  5
4FC
100
AcDbEntity
  8
INCISIONI
100
AcDbPolyline
 62
253
  6
CONTINUOUS
 90
36
 70
0
 10
107.1947434169
 20
119.915005861
 10
107.2119651444
 20
119.9303307546
 10
107.229629131
 20
119.9451605433
 10
107.2477179357
 20
119.9594996749
 10
107.2662141173
 20
119.973352597
 10
107.2851002349
 20
119.9867237573
 10
107.3043588473
 20
119.9996176035
 10
107.3239725137
 20
120.0120385832
 10
107.3439237929
 20
120.0239911442
 10
107.364195244
 20
120.035479734
 10
107.3847694258
 20
120.0465088004
 10
107.4056288973
 20
120.057082791
 10
107.4267562176
 20
120.0672061535
 10
107.4481339455
 20
120.0768833355
 10
107.4697446401
 20
120.0861187848
 10
107.4915708602
 20
120.094916949
 10
107.513595165
 20
120.1032822759
 10
107.5358001132
 20
120.1112192129
 10
107.558168264
 20
120.1187322079
 10
107.5806821762
 20
120.1258257085
 10
107.6033244089
 20
120.1325041623
 10
107.626077521
 20
120.1387720171
 10
107.6489240714
 20
120.1446337205
 10
107.6718466191
 20
120.1500937201
 10
107.6948277232
 20
120.1551564638
 10
107.7178499425
 20
120.159826399
 10
107.740895836
 20
120.1641079735
 10
107.7639479627
 20
120.1680056351
 10
107.7869888816
 20
120.1715238312
 10
107.8176790039
 20
120.1756328202
 10
107.8483338383
 20
120.1790841168
 10
107.8789690515
 20
120.1818870299
 10
107.9096003102
 20
120.1840508688
 10
107.9402432811
 20
120.1855849424
 10
107.9709136309
 20
120.18649856
 10
108.0016270261
 20
120.1868010305
  0
LWPOLYLINE
  5
4FD
100
AcDbEntity
  8
INCISIONI
100
AcDbPolyline
 62
253
  6
CONTINUOUS
 90
37
 70
0
 10
106.9338260949
 20
120.3455076388
 10
106.909746637
 20
120.3244165141
 10
106.8862215461
 20
120.302636786
 10
106.8632638291
 20
120.2801915717
 10
106.8408864926
 20
120.2571039884
 10
106.8191025434
 20
120.2333971532
 10
106.7979249884
 20
120.2090941832
 10
106.7773668343
 20
120.1842181956
 10
106.7574410879
 20
120.1587923075
 10
106.7381607559
 20
120.132839636
 10
106.7195388452
 20
120.1063832984
 10
106.7015883624
 20
120.0794464116
 10
106.6843223145
 20
120.052052093
 10
106.6677537081
 20
120.0242234595
 10
106.65189555
 20
119.9959836284
 10
106.636760847
 20
119.9673557169
 10
106.622362606
 20
119.9383628419
 10
106.6087138335
 20
119.9090281207
 10
106.5958275366
 20
119.8793746705
 10
106.5837103468
 20
119.8494180438
 10
106.5723599752
 20
119.8191850429
 10
106.5617674002
 20
119.788695042
 10
106.5519236
 20
119.7579674149
 10
106.542819553
 20
119.7270215359
 10
106.5344462374
 20
119.6958767789
 10
106.5267946317
 20
119.6645525181
 10
106.5198557141
 20
119.6330681276
 10
106.513620463
 20
119.6014429814
 10
106.5080798566
 20
119.5696964536
 10
106.5032248734
 20
119.5378479182
 10
106.4990464916
 20
119.5059167494
 10
106.4955356895
 20
119.4739223212
 10
106.4926834455
 20
119.4418840076
 10
106.4904807379
 20
119.4098211829
 10
106.4889185451
 20
119.3777532209
 10
106.4879878452
 20
119.3456994959
 10
106.4876796168
 20
119.3136793819
  0
LINE
  5
4FE
100
AcDbEntity
  8
INCISIONI
100
AcDbLine
 62
253
  6
CONTINUOUS
 10
123.9678944633
 20
94.0530791064
 11
122.6678944633
 21
94.0530791064
  0
LINE
  5
4FF
100
AcDbEntity
  8
INCISIONI
100
AcDbLine
 62
253
  6
CONTINUOUS
 10
106.5521322944
 20
94.3860730816
 11
109.4513869515
 21
94.3860650816
  0
LINE
  5
500
100
AcDbEntity
  8
INCISIONI
100
AcDbLine
 62
253
  6
CONTINUOUS
 10
122.853608738
 20
94.7810789329
 11
123.7821801693
 21
94.7810789329
  0
LINE
  5
501
100
AcDbEntity
  8
INCISIONI
100
AcDbLine
 62
253
  6
CONTINUOUS
 10
109.4513799537
 20
94.9660870816
 11
106.5521322944
 21
94.9660940816
  0
LINE
  5
502
100
AcDbEntity
  8
INCISIONI
100
AcDbLine
 62
253
  6
CONTINUOUS
 10
123.9678944633
 20
95.370412448
 11
122.6678944633
 21
95.370412448
  0
LINE
  5
503
100
AcDbEntity
  8
INCISIONI
100
AcDbLine
 62
253
  6
CONTINUOUS
 10
106.5521322944
 20
95.5460940816
 11
109.4513799537
 21
95.5460940816
  0
LINE
  5
504
100
AcDbEntity
  8
0
100
AcDbLine
 62
7
  6
CONTINUOUS
 10
99.9678944633
 20
84.4344293508
 11
99.9678944633
 21
85.2356907506
  0
LINE
  5
505
100
AcDbEntity
  8
0
100
AcDbLine
 62
7
  6
CONTINUOUS
 10
99.9678944633
 20
129.8784674127
 11
99.9678944633
 21
130.6797288124
  0
LINE
  5
506
100
AcDbEntity
  8
0
100
AcDbLine
 62
253
  6
CONTINUOUS
 10
100.2164400305
 20
84.2900917835
 11
100.2164400305
 21
85.2226650293
  0
LINE
  5
507
100
AcDbEntity
  8
0
100
AcDbLine
 62
253
  6
CONTINUOUS
 10
100.2164400305
 20
129.8914931339
 11
100.2164400305
 21
130.8240663797
  0
LINE
  5
508
100
AcDbEntity
  8
0
100
AcDbLine
 62
7
  6
CONTINUOUS
 10
101.4678944633
 20
83.0570790816
 11
101.4678944633
 21
89.0570790816
  0
LINE
  5
509
100
AcDbEntity
  8
0
100
AcDbLine
 62
7
  6
CONTINUOUS
 10
101.4678944633
 20
126.0570790816
 11
101.4678944633
 21
132.0570790816
  0
LINE
  5
50A
100
AcDbEntity
  8
INCISIONI
100
AcDbLine
 62
7
  6
CONTINUOUS
 10
106.5082009414
 20
119.5659203049
 11
107.6066006551
 21
120.6643200186
  0
LINE
  5
50B
100
AcDbEntity
  8
INCISIONI
100
AcDbLine
 62
7
  6
CONTINUOUS
 10
108.1595697182
 20
121.2172890816
 11
108.6607325113
 21
121.7184518747
  0
LINE
  5
50C
100
AcDbEntity
  8
INCISIONI
100
AcDbLine
 62
7
  6
CONTINUOUS
 10
106.4883310928
 20
119.3360397422
 11
107.8533726257
 21
120.7010812752
  0
LINE
  5
50D
100
AcDbEntity
  8
INCISIONI
100
AcDbLine
 62
7
  6
CONTINUOUS
 10
108.3695804322
 20
121.2172890816
 11
108.8700171516
 21
121.7177258011
  0
LINE
  5
50E
100
AcDbEntity
  8
INCISIONI
100
AcDbLine
 62
7
  6
CONTINUOUS
 10
106.4977921341
 20
119.1354900695
 11
107.0169425769
 21
119.6546405123
  0
LINE
  5
50F
100
AcDbEntity
  8
INCISIONI
100
AcDbLine
 62
7
  6
CONTINUOUS
 10
107.431536219
 20
120.0692341545
 11
108.0683301686
 21
120.706028104
  0
LINE
  5
510
100
AcDbEntity
  8
INCISIONI
100
AcDbLine
 62
7
  6
CONTINUOUS
 10
108.5795911462
 20
121.2172890816
 11
109.079301792
 21
121.7169997274
  0
LINE
  5
511
100
AcDbEntity
  8
INCISIONI
100
AcDbLine
 62
7
  6
CONTINUOUS
 10
106.5288989974
 20
118.9565862188
 11
106.9496936558
 21
119.3773808772
  0
LINE
  5
512
100
AcDbEntity
  8
INCISIONI
100
AcDbLine
 62
7
  6
CONTINUOUS
 10
107.7349909251
 20
120.1626781465
 11
108.2609559783
 21
120.6886431997
  0
LINE
  5
513
100
AcDbEntity
  8
INCISIONI
100
AcDbLine
 62
7
  6
CONTINUOUS
 10
108.7896018602
 20
121.2172890816
 11
109.2885864324
 21
121.7162736538
  0
LINE
  5
514
100
AcDbEntity
  8
INCISIONI
100
AcDbLine
 62
7
  6
CONTINUOUS
 10
106.5779165099
 20
118.7955930173
 11
106.9589262209
 21
119.1766027283
  0
LINE
  5
515
100
AcDbEntity
  8
INCISIONI
100
AcDbLine
 62
7
  6
CONTINUOUS
 10
107.9683540212
 20
120.1860305286
 11
108.4368774698
 21
120.6545539772
  0
LINE
  5
516
100
AcDbEntity
  8
INCISIONI
100
AcDbLine
 62
7
  6
CONTINUOUS
 10
108.9996125742
 20
121.2172890816
 11
109.4507431477
 21
121.6684196551
  0
LINE
  5
517
100
AcDbEntity
  8
INCISIONI
100
AcDbLine
 62
7
  6
CONTINUOUS
 10
106.6423247453
 20
118.6499905387
 11
107.002529065
 21
119.0101948584
  0
LINE
  5
518
100
AcDbEntity
  8
INCISIONI
100
AcDbLine
 62
7
  6
CONTINUOUS
 10
108.1698406565
 20
120.1775064499
 11
108.5991580222
 21
120.6068238156
  0
LINE
  5
519
100
AcDbEntity
  8
INCISIONI
100
AcDbLine
 62
7
  6
CONTINUOUS
 10
109.2096232882
 20
121.2172890816
 11
109.4507431477
 21
121.4584089411
  0
LINE
  5
51A
100
AcDbEntity
  8
INCISIONI
100
AcDbLine
 62
7
  6
CONTINUOUS
 10
106.7215929682
 20
118.5192480476
 11
107.0701316142
 21
118.8677866936
  0
LINE
  5
51B
100
AcDbEntity
  8
INCISIONI
100
AcDbLine
 62
7
  6
CONTINUOUS
 10
108.3483168265
 20
120.1459719059
 11
108.7493479797
 21
120.5470030591
  0
LINE
  5
51C
100
AcDbEntity
  8
INCISIONI
100
AcDbLine
 62
7
  6
CONTINUOUS
 10
109.4196340023
 20
121.2172890816
 11
109.4507431477
 21
121.2483982271
  0
LINE
  5
51D
100
AcDbEntity
  8
INCISIONI
100
AcDbLine
 62
7
  6
CONTINUOUS
 10
106.8135118522
 20
118.4011562176
 11
107.1596555797
 21
118.7472999451
  0
LINE
  5
51E
100
AcDbEntity
  8
INCISIONI
100
AcDbLine
 62
7
  6
CONTINUOUS
 10
108.5080560212
 20
120.0957003865
 11
108.8866447061
 21
120.4742890715
  0
LINE
  5
51F
100
AcDbEntity
  8
INCISIONI
100
AcDbLine
 62
7
  6
CONTINUOUS
 10
106.9183706265
 20
118.2960042779
 11
107.2722824128
 21
118.6499160641
  0
LINE
  5
520
100
AcDbEntity
  8
INCISIONI
100
AcDbLine
 62
7
  6
CONTINUOUS
 10
108.6506327964
 20
120.0282664478
 11
109.0123790394
 21
120.3900126908
  0
LINE
  5
521
100
AcDbEntity
  8
INCISIONI
100
AcDbLine
 62
7
  6
CONTINUOUS
 10
106.5525321726
 20
117.7201551099
 11
106.644429245
 21
117.8120521824
  0
LINE
  5
522
100
AcDbEntity
  8
INCISIONI
100
AcDbLine
 62
7
  6
CONTINUOUS
 10
107.0363860052
 20
118.2040089426
 11
107.4042626887
 21
118.571885626
  0
LINE
  5
523
100
AcDbEntity
  8
INCISIONI
100
AcDbLine
 62
7
  6
CONTINUOUS
 10
108.7755383117
 20
119.943161249
 11
109.1254790412
 21
120.2931019785
  0
LINE
  5
524
100
AcDbEntity
  8
INCISIONI
100
AcDbLine
 62
7
  6
CONTINUOUS
 10
106.5525321726
 20
117.5101443959
 11
106.7470996819
 21
117.7047119052
  0
LINE
  5
525
100
AcDbEntity
  8
INCISIONI
100
AcDbLine
 62
7
  6
CONTINUOUS
 10
107.1661995634
 20
118.1238117867
 11
107.5530058294
 21
118.5106180528
  0
LINE
  5
526
100
AcDbEntity
  8
INCISIONI
100
AcDbLine
 62
7
  6
CONTINUOUS
 10
108.8799313925
 20
119.8375436158
 11
109.2252934136
 21
120.1829056369
  0
LINE
  5
527
100
AcDbEntity
  8
INCISIONI
100
AcDbLine
 62
7
  6
CONTINUOUS
 10
106.5525321726
 20
117.3001336819
 11
106.8497701188
 21
117.5973716281
  0
LINE
  5
528
100
AcDbEntity
  8
INCISIONI
100
AcDbLine
 62
7
  6
CONTINUOUS
 10
107.3088817184
 20
118.0564832277
 11
107.719654289
 21
118.4672557983
  0
LINE
  5
529
100
AcDbEntity
  8
INCISIONI
100
AcDbLine
 62
7
  6
CONTINUOUS
 10
108.961198605
 20
119.7088001143
 11
109.3128042232
 21
120.0604057325
  0
LINE
  5
52A
100
AcDbEntity
  8
INCISIONI
100
AcDbLine
 62
7
  6
CONTINUOUS
 10
106.6139028301
 20
117.1514936254
 11
106.9524405557
 21
117.490031351
  0
LINE
  5
52B
100
AcDbEntity
  8
INCISIONI
100
AcDbLine
 62
7
  6
CONTINUOUS
 10
107.4631861284
 20
118.0007769237
 11
107.9060433859
 21
118.4436341812
  0
LINE
  5
52C
100
AcDbEntity
  8
INCISIONI
100
AcDbLine
 62
7
  6
CONTINUOUS
 10
109.0203971449
 20
119.5579879403
 11
109.3862001993
 21
119.9237909946
  0
LINE
  5
52D
100
AcDbEntity
  8
INCISIONI
100
AcDbLine
 62
7
  6
CONTINUOUS
 10
106.7180168581
 20
117.0455969394
 11
107.0551109925
 21
117.3826910738
  0
LINE
  5
52E
100
AcDbEntity
  8
INCISIONI
100
AcDbLine
 62
7
  6
CONTINUOUS
 10
107.6301601196
 20
117.9577402009
 11
108.1176051562
 21
118.4451852375
  0
LINE
  5
52F
100
AcDbEntity
  8
INCISIONI
100
AcDbLine
 62
7
  6
CONTINUOUS
 10
109.0532076263
 20
119.3807877076
 11
109.4455159661
 21
119.7730960473
  0
LWPOLYLINE
  5
530
100
AcDbEntity
  8
INCISIONI
100
AcDbPolyline
 62
253
  6
CONTINUOUS
 90
36
 70
0
 10
108.8084952942
 20
118.7121892138
 10
108.7912732041
 20
118.6968652435
 10
108.7736089635
 20
118.6820362603
 10
108.7555200079
 20
118.6676978215
 10
108.7370237723
 20
118.6538454844
 10
108.718137692
 20
118.6404748063
 10
108.6988792021
 20
118.6275813446
 10
108.679265738
 20
118.6151606566
 10
108.6593147347
 20
118.6032082996
 10
108.6390436275
 20
118.591719831
 10
108.6184698516
 20
118.5806908081
 10
108.5976108423
 20
118.5701167881
 10
108.5764840346
 20
118.5599933285
 10
108.5551068638
 20
118.5503159865
 10
108.5334967652
 20
118.5410803195
 10
108.5116711738
 20
118.5322818848
 10
108.489647525
 20
118.5239162397
 10
108.467443254
 20
118.5159789416
 10
108.4450757958
 20
118.5084655478
 10
108.4225625858
 20
118.5013716155
 10
108.3999210592
 20
118.4946927022
 10
108.377168651
 20
118.4884243652
 10
108.3543227967
 20
118.4825621617
 10
108.3314009313
 20
118.4771016491
 10
108.30842049
 20
118.4720383848
 10
108.2853989081
 20
118.467367926
 10
108.2623536208
 20
118.4630858302
 10
108.2393020633
 20
118.4591876545
 10
108.2162616707
 20
118.4556689563
 10
108.1855721744
 20
118.451559326
 10
108.1549178961
 20
118.4481074369
 10
108.1242831859
 20
118.4453039983
 10
108.0936523937
 20
118.4431397191
 10
108.0630098696
 20
118.4416053085
 10
108.0323399638
 20
118.4406914754
 10
108.0016270261
 20
118.4403889291
  0
LINE
  5
531
100
AcDbEntity
  8
0
100
AcDbLine
 62
7
  6
CONTINUOUS
 10
118.455840858
 20
124.3317656827
 11
119.2142664885
 21
124.7316985142
  0
LINE
  5
532
100
AcDbEntity
  8
INCISIONI
100
AcDbLine
 62
253
  6
CONTINUOUS
 10
109.4513799537
 20
96.1261160816
 11
107.5395204577
 21
96.1261160816
  0
LINE
  5
533
100
AcDbEntity
  8
INCISIONI
100
AcDbLine
 62
253
  6
CONTINUOUS
 10
106.5521322944
 20
97.5060670816
 11
108.4402260313
 21
96.9644990816
  0
LINE
  5
534
100
AcDbEntity
  8
INCISIONI
100
AcDbLine
 62
253
  6
CONTINUOUS
 10
109.4513719561
 20
97.2544990816
 11
107.5395204577
 21
97.8028740816
  0
LINE
  5
535
100
AcDbEntity
  8
INCISIONI
100
AcDbLine
 62
253
  6
CONTINUOUS
 10
123.9678944633
 20
92.805079094
 11
122.6678944633
 21
93.221079156
  0
LINE
  5
536
100
AcDbEntity
  8
0
100
AcDbLine
 62
253
  6
CONTINUOUS
 10
102.2196505906
 20
132.0456687943
 11
102.2197444354
 21
132.038968606
  0
LINE
  5
537
100
AcDbEntity
  8
0
100
AcDbLine
 62
253
  6
CONTINUOUS
 10
102.2197444354
 20
132.038968606
 11
102.219853553
 21
132.0249307926
  0
LINE
  5
538
100
AcDbEntity
  8
0
100
AcDbLine
 62
253
  6
CONTINUOUS
 10
102.2193488962
 20
83.3114466848
 11
102.2199367843
 21
83.1568940387
  0
LINE
  5
539
100
AcDbEntity
  8
0
100
AcDbLine
 62
253
  6
CONTINUOUS
 10
102.219853553
 20
132.0249307926
 11
102.2199507192
 21
131.9836582587
  0
LINE
  5
53A
100
AcDbEntity
  8
0
100
AcDbLine
 62
253
  6
CONTINUOUS
 10
102.2193488962
 20
131.8027114784
 11
102.2193488962
 21
131.4014166489
  0
LINE
  5
53B
100
AcDbEntity
  8
0
100
AcDbLine
 62
253
  6
CONTINUOUS
 10
102.2193488962
 20
83.7127415143
 11
102.2193488962
 21
83.3114466848
  0
LINE
  5
53C
100
AcDbEntity
  8
0
100
AcDbLine
 62
7
  6
CONTINUOUS
 10
102.4678944633
 20
131.8027114784
 11
102.4678944633
 21
131.4014166489
  0
LINE
  5
53D
100
AcDbEntity
  8
0
100
AcDbLine
 62
7
  6
CONTINUOUS
 10
102.4678944633
 20
129.9512612518
 11
102.4678944633
 21
129.4512781749
  0
LINE
  5
53E
100
AcDbEntity
  8
DRAFT
100
AcDbLine
 62
7
  6
CONTINUOUS
 10
102.4678944633
 20
129.4512781749
 11
102.4678944633
 21
126.065369606
  0
LINE
  5
53F
100
AcDbEntity
  8
DRAFT
100
AcDbLine
 62
7
  6
CONTINUOUS
 10
102.4678944633
 20
89.0487885572
 11
102.4678944633
 21
85.6628799884
  0
LINE
  5
540
100
AcDbEntity
  8
0
100
AcDbLine
 62
7
  6
CONTINUOUS
 10
102.4678944633
 20
85.6628799884
 11
102.4678944633
 21
85.1628969114
  0
LINE
  5
541
100
AcDbEntity
  8
0
100
AcDbLine
 62
7
  6
CONTINUOUS
 10
102.4678944633
 20
83.7127415143
 11
102.4678944633
 21
83.3114466848
  0
LINE
  5
542
100
AcDbEntity
  8
RACCORDO
100
AcDbLine
 62
7
  6
CONTINUOUS
 10
103.3678944633
 20
88.4227886401
 11
103.3678944633
 21
88.0745341466
  0
LINE
  5
543
100
AcDbEntity
  8
0
100
AcDbLine
 62
253
  6
CONTINUOUS
 10
102.2199367843
 20
83.1568940387
 11
102.2199042448
 21
83.1011215215
  0
LINE
  5
544
100
AcDbEntity
  8
0
100
AcDbLine
 62
253
  6
CONTINUOUS
 10
102.2199507192
 20
131.9836582587
 11
102.2196508123
 21
131.861657097
  0
LINE
  5
545
100
AcDbEntity
  8
0
100
AcDbLine
 62
253
  6
CONTINUOUS
 10
102.2196508123
 20
131.861657097
 11
102.2193488962
 21
131.8027114784
  0
LINE
  5
546
100
AcDbEntity
  8
0
100
AcDbLine
 62
253
  6
CONTINUOUS
 10
102.2199042448
 20
83.1011215215
 11
102.219785118
 21
83.0793464117
  0
LWPOLYLINE
  5
547
100
AcDbEntity
  8
0
100
AcDbPolyline
 62
253
  6
CONTINUOUS
 90
8
 70
0
 10
102.219785118
 20
83.0793464117
 10
102.2196995615
 20
83.0715679476
 10
102.2196505906
 20
83.0684893689
 10
102.2195976399
 20
83.065961379
 10
102.2195408547
 20
83.0639904331
 10
102.2194803773
 20
83.0625804371
 10
102.2194163414
 20
83.0617335353
 10
102.2193488962
 20
83.0614509156
  0
LINE
  5
548
100
AcDbEntity
  8
INCISIONI
100
AcDbLine
 62
253
  6
CONTINUOUS
 10
111.9507515971
 20
122.1338793265
 11
111.6450372658
 21
121.7914789184
  0
LINE
  5
549
100
AcDbEntity
  8
INCISIONI
100
AcDbLine
 62
253
  6
CONTINUOUS
 10
111.0336087308
 20
120.421879
 11
110.7278944633
 21
120.0794791633
  0
LINE
  5
54A
100
AcDbEntity
  8
INCISIONI
100
AcDbLine
 62
7
  6
CONTINUOUS
 10
106.8221308861
 20
116.9397002534
 11
107.1577814294
 21
117.2753507967
  0
LINE
  5
54B
100
AcDbEntity
  8
INCISIONI
100
AcDbLine
 62
7
  6
CONTINUOUS
 10
107.8117948655
 20
117.9293642328
 11
108.3689392743
 21
118.4865086416
  0
LINE
  5
54C
100
AcDbEntity
  8
INCISIONI
100
AcDbLine
 62
7
  6
CONTINUOUS
 10
109.0414704994
 20
119.1590398667
 11
109.4881320195
 21
119.6057013867
  0
LINE
  5
54D
100
AcDbEntity
  8
INCISIONI
100
AcDbLine
 62
7
  6
CONTINUOUS
 10
106.9262449142
 20
116.8338035674
 11
107.2604518663
 21
117.1680105196
  0
LINE
  5
54E
100
AcDbEntity
  8
INCISIONI
100
AcDbLine
 62
7
  6
CONTINUOUS
 10
108.0121605006
 20
117.9197191539
 11
108.7847572961
 21
118.6923159493
  0
LINE
  5
54F
100
AcDbEntity
  8
INCISIONI
100
AcDbLine
 62
7
  6
CONTINUOUS
 10
108.8678075201
 20
118.7753661734
 11
109.5113966194
 21
119.4189552727
  0
LINE
  5
550
100
AcDbEntity
  8
INCISIONI
100
AcDbLine
 62
7
  6
CONTINUOUS
 10
107.0303589422
 20
116.7279068815
 11
107.3631223032
 21
117.0606702424
  0
LINE
  5
551
100
AcDbEntity
  8
INCISIONI
100
AcDbLine
 62
7
  6
CONTINUOUS
 10
108.2375778234
 20
117.9351257627
 11
109.5114500266
 21
119.2089979658
  0
LINE
  5
552
100
AcDbEntity
  8
INCISIONI
100
AcDbLine
 62
7
  6
CONTINUOUS
 10
107.1344729702
 20
116.6220101955
 11
107.4657927401
 21
116.9533299653
  0
LINE
  5
553
100
AcDbEntity
  8
INCISIONI
100
AcDbLine
 62
7
  6
CONTINUOUS
 10
108.502020297
 20
117.9895575223
 11
109.4751263743
 21
118.9626635995
  0
LINE
  5
554
100
AcDbEntity
  8
INCISIONI
100
AcDbLine
 62
7
  6
CONTINUOUS
 10
106.5525321726
 20
115.8300586838
 11
106.6511367901
 21
115.9286633013
  0
LINE
  5
555
100
AcDbEntity
  8
INCISIONI
100
AcDbLine
 62
7
  6
CONTINUOUS
 10
107.2385869983
 20
116.5161135095
 11
107.568463177
 21
116.8459896882
  0
LINE
  5
556
100
AcDbEntity
  8
INCISIONI
100
AcDbLine
 62
7
  6
CONTINUOUS
 10
108.8605817513
 20
118.1381082625
 11
109.3448497929
 21
118.6223763042
  0
LINE
  5
557
100
AcDbEntity
  8
INCISIONI
100
AcDbLine
 62
7
  6
CONTINUOUS
 10
106.5525321726
 20
115.6200479698
 11
106.8611458421
 21
115.9286616393
  0
LINE
  5
558
100
AcDbEntity
  8
INCISIONI
100
AcDbLine
 62
7
  6
CONTINUOUS
 10
107.3427010263
 20
116.4102168235
 11
107.6711336138
 21
116.7386494111
  0
LINE
  5
559
100
AcDbEntity
  8
INCISIONI
100
AcDbLine
 62
7
  6
CONTINUOUS
 10
106.5534119984
 20
115.4109170816
 11
107.0711548942
 21
115.9286599774
  0
LINE
  5
55A
100
AcDbEntity
  8
INCISIONI
100
AcDbLine
 62
7
  6
CONTINUOUS
 10
107.4468150543
 20
116.3043201375
 11
107.9665493524
 21
116.8240544356
  0
LINE
  5
55B
100
AcDbEntity
  8
INCISIONI
100
AcDbLine
 62
7
  6
CONTINUOUS
 10
106.7634227124
 20
115.4109170816
 11
107.2811639462
 21
115.9286583154
  0
LINE
  5
55C
100
AcDbEntity
  8
INCISIONI
100
AcDbLine
 62
7
  6
CONTINUOUS
 10
107.5509290824
 20
116.1984234516
 11
108.7590954205
 21
117.4065897897
  0
LINE
  5
55D
100
AcDbEntity
  8
INCISIONI
100
AcDbLine
 62
7
  6
CONTINUOUS
 10
106.9734334265
 20
115.4109170816
 11
107.4911729983
 21
115.9286566535
  0
LINE
  5
55E
100
AcDbEntity
  8
INCISIONI
100
AcDbLine
 62
7
  6
CONTINUOUS
 10
107.6550431104
 20
116.0925267656
 11
109.4507431477
 21
117.8882268029
  0
LINE
  5
55F
100
AcDbEntity
  8
INCISIONI
100
AcDbLine
 62
7
  6
CONTINUOUS
 10
106.5525321726
 20
114.7800051137
 11
106.5677131405
 21
114.7951860816
  0
LINE
  5
560
100
AcDbEntity
  8
INCISIONI
100
AcDbLine
 62
7
  6
CONTINUOUS
 10
107.1834441405
 20
115.4109170816
 11
107.7011820504
 21
115.9286549915
  0
LINE
  5
561
100
AcDbEntity
  8
INCISIONI
100
AcDbLine
 62
7
  6
CONTINUOUS
 10
107.7591571384
 20
115.9866300796
 11
109.4507431477
 21
117.6782160889
  0
LINE
  5
562
100
AcDbEntity
  8
INCISIONI
100
AcDbLine
 62
7
  6
CONTINUOUS
 10
106.5525321726
 20
114.5699943997
 11
106.7777238545
 21
114.7951860816
  0
LINE
  5
563
100
AcDbEntity
  8
INCISIONI
100
AcDbLine
 62
7
  6
CONTINUOUS
 10
107.3934548545
 20
115.4109170816
 11
108.1881235352
 21
116.2055857623
  0
LINE
  5
564
100
AcDbEntity
  8
INCISIONI
100
AcDbLine
 62
7
  6
CONTINUOUS
 10
108.7334407998
 20
116.750903027
 11
109.4507431477
 21
117.4682053749
  0
LINE
  5
565
100
AcDbEntity
  8
INCISIONI
100
AcDbLine
 62
7
  6
CONTINUOUS
 10
106.5525321726
 20
114.3599836857
 11
106.9877345685
 21
114.7951860816
  0
LINE
  5
566
100
AcDbEntity
  8
INCISIONI
100
AcDbLine
 62
7
  6
CONTINUOUS
 10
107.6034655685
 20
115.4109170816
 11
108.2894518035
 21
116.0969033166
  0
LINE
  5
567
100
AcDbEntity
  8
INCISIONI
100
AcDbLine
 62
7
  6
CONTINUOUS
 10
106.6799762825
 20
114.2774170816
 11
107.1977452825
 21
114.7951860816
  0
LINE
  5
568
100
AcDbEntity
  8
INCISIONI
100
AcDbLine
 62
7
  6
CONTINUOUS
 10
107.8134762825
 20
115.4109170816
 11
108.3907800718
 21
115.9882208709
  0
LINE
  5
569
100
AcDbEntity
  8
INCISIONI
100
AcDbLine
 62
7
  6
CONTINUOUS
 10
106.8899869965
 20
114.2774170816
 11
107.4077559965
 21
114.7951860816
  0
LINE
  5
56A
100
AcDbEntity
  8
INCISIONI
100
AcDbLine
 62
7
  6
CONTINUOUS
 10
108.0234869965
 20
115.4109170816
 11
108.5412249414
 21
115.9286550265
  0
LWPOLYLINE
  5
56B
100
AcDbEntity
  8
INCISIONI
100
AcDbPolyline
 62
253
  6
CONTINUOUS
 90
37
 70
0
 10
109.0688603345
 20
118.2816976666
 10
109.0929419197
 20
118.3027920767
 10
109.116468693
 20
118.3245754191
 10
109.139427684
 20
118.3470245465
 10
109.1618059227
 20
118.3701163115
 10
109.1835904389
 20
118.3938275666
 10
109.2047682624
 20
118.4181351643
 10
109.225326423
 20
118.4430159574
 10
109.2452519506
 20
118.4684467984
 10
109.264531875
 20
118.4944045398
 10
109.283153226
 20
118.5208660343
 10
109.3011030336
 20
118.5478081345
 10
109.3183683274
 20
118.5752076929
 10
109.3349361374
 20
118.6030415621
 10
109.3507934934
 20
118.6312865947
 10
109.3659274251
 20
118.6599196433
 10
109.3803249626
 20
118.6889175605
 10
109.3939731354
 20
118.7182571989
 10
109.4068589736
 20
118.747915411
 10
109.4189758671
 20
118.7778766075
 10
109.430326103
 20
118.8081140076
 10
109.4409186858
 20
118.8386082525
 10
109.4507626197
 20
118.8693399836
 10
109.4598669088
 20
118.9002898421
 10
109.4682405575
 20
118.9314384693
 10
109.4758925699
 20
118.9627665066
 10
109.4828319503
 20
118.9942545951
 10
109.4890677029
 20
119.0258833761
 10
109.494608832
 20
119.057633491
 10
109.4994643419
 20
119.089485581
 10
109.5036432366
 20
119.1214202874
 10
109.5071545206
 20
119.1534182514
 10
109.5100071979
 20
119.1854601145
 10
109.512210273
 20
119.2175265178
 10
109.5137727499
 20
119.2495981026
 10
109.5147036329
 20
119.2816555102
 10
109.5150119263
 20
119.3136793819
  0
LINE
  5
56C
100
AcDbEntity
  8
INCISIONI
100
AcDbLine
 62
253
  6
CONTINUOUS
 10
107.7451188161
 20
116.6612990816
 11
109.4507431477
 21
117.9149630816
  0
LINE
  5
56D
100
AcDbEntity
  8
INCISIONI
100
AcDbLine
 62
253
  6
CONTINUOUS
 10
109.4507431477
 20
117.2636600816
 11
108.1011253483
 21
116.2988980816
  0
LINE
  5
56E
100
AcDbEntity
  8
INCISIONI
100
AcDbLine
 62
253
  6
CONTINUOUS
 10
111.0336087308
 20
118.3674791224
 11
111.3393229983
 21
118.5386790408
  0
LINE
  5
56F
100
AcDbEntity
  8
INCISIONI
100
AcDbLine
 62
253
  6
CONTINUOUS
 10
112.562180164
 20
117.511479102
 11
112.2564658646
 21
117.3402790408
  0
LINE
  5
570
100
AcDbEntity
  8
0
100
AcDbLine
 62
253
  6
CONTINUOUS
 10
93.0586177685
 20
98.0570950753
 11
93.0581526123
 21
98.0570790817
  0
LINE
  5
571
100
AcDbEntity
  8
0
100
AcDbLine
 62
253
  6
CONTINUOUS
 10
93.1039701853
 20
98.0580191358
 11
93.0586177685
 21
98.0570950753
  0
LINE
  5
572
100
AcDbEntity
  8
0
100
AcDbLine
 62
253
  6
CONTINUOUS
 10
93.5493361485
 20
98.0665790816
 11
93.1039701853
 21
98.0580191358
  0
LINE
  5
573
100
AcDbEntity
  8
INCISIONI
100
AcDbLine
 62
253
  6
CONTINUOUS
 10
107.5395204577
 20
97.8028740816
 11
109.4513799537
 21
97.8028820816
  0
LINE
  5
574
100
AcDbEntity
  8
INCISIONI
100
AcDbLine
 62
253
  6
CONTINUOUS
 10
123.9678944633
 20
97.8317454177
 11
122.6678944633
 21
97.8317454177
  0
LINE
  5
575
100
AcDbEntity
  8
INCISIONI
100
AcDbLine
 62
253
  6
CONTINUOUS
 10
109.4513799537
 20
98.3829030816
 11
106.5521322944
 21
98.3829030816
  0
LINE
  5
576
100
AcDbEntity
  8
INCISIONI
100
AcDbLine
 62
253
  6
CONTINUOUS
 10
123.9678944633
 20
98.4904123488
 11
122.6678944633
 21
98.4904123488
  0
LINE
  5
577
100
AcDbEntity
  8
INCISIONI
100
AcDbLine
 62
253
  6
CONTINUOUS
 10
123.9678944633
 20
99.2184123488
 11
122.6678944633
 21
99.2184123488
  0
LINE
  5
578
100
AcDbEntity
  8
INCISIONI
100
AcDbLine
 62
253
  6
CONTINUOUS
 10
109.4513799537
 20
98.7695820816
 11
106.5521252965
 21
99.7007070816
  0
LINE
  5
579
100
AcDbEntity
  8
INCISIONI
100
AcDbLine
 62
253
  6
CONTINUOUS
 10
108.8812176703
 20
99.5327170816
 11
109.4513719561
 21
99.3496040816
  0
LINE
  5
57A
100
AcDbEntity
  8
INCISIONI
100
AcDbLine
 62
253
  6
CONTINUOUS
 10
107.4550911815
 20
99.9907290816
 11
108.3303635042
 21
99.7096390816
  0
LINE
  5
57B
100
AcDbEntity
  8
DRAFT
100
AcDbLine
 62
7
  6
CONTINUOUS
 10
103.9678944633
 20
126.4008777974
 11
103.9678944633
 21
125.6162616299
  0
LINE
  5
57C
100
AcDbEntity
  8
0
100
AcDbLine
 62
7
  6
CONTINUOUS
 10
103.9678944633
 20
125.6162616299
 11
103.9678944633
 21
89.4978965334
  0
LINE
  5
57D
100
AcDbEntity
  8
DRAFT
100
AcDbLine
 62
7
  6
CONTINUOUS
 10
103.9678944633
 20
89.4978965334
 11
103.9678944633
 21
88.7132803659
  0
LINE
  5
57E
100
AcDbEntity
  8
RACCORDO
100
AcDbLine
 62
7
  6
CONTINUOUS
 10
103.9678944633
 20
86.7070790816
 11
103.9678944633
 21
88.7132803659
  0
LINE
  5
57F
100
AcDbEntity
  8
ASSI
100
AcDbLine
 62
7
  6
CONTINUOUS
 10
103.9678944633
 20
86.7070790816
 11
103.9678944633
 21
88.7132803659
  0
LINE
  5
580
100
AcDbEntity
  8
RACCORDO
100
AcDbLine
 62
7
  6
CONTINUOUS
 10
103.9678944633
 20
126.4008777974
 11
103.9678944633
 21
128.4070790816
  0
LINE
  5
581
100
AcDbEntity
  8
ASSI
100
AcDbLine
 62
7
  6
CONTINUOUS
 10
103.9678944633
 20
126.4008777974
 11
103.9678944633
 21
128.4070790816
  0
LINE
  5
582
100
AcDbEntity
  8
INCISIONI
100
AcDbLine
 62
253
  6
CONTINUOUS
 10
110.7278944633
 20
118.025079
 11
111.0336087308
 21
118.3674791224
  0
LINE
  5
583
100
AcDbEntity
  8
INCISIONI
100
AcDbLine
 62
253
  6
CONTINUOUS
 10
111.0336087308
 20
116.6554790816
 11
110.7278944633
 21
116.313079102
  0
LINE
  5
584
100
AcDbEntity
  8
INCISIONI
100
AcDbLine
 62
7
  6
CONTINUOUS
 10
107.0999977105
 20
114.2774170816
 11
107.6177667105
 21
114.7951860816
  0
LINE
  5
585
100
AcDbEntity
  8
INCISIONI
100
AcDbLine
 62
7
  6
CONTINUOUS
 10
108.2334977105
 20
115.4109170816
 11
108.7512377463
 21
115.9286571174
  0
LINE
  5
586
100
AcDbEntity
  8
INCISIONI
100
AcDbLine
 62
7
  6
CONTINUOUS
 10
106.5525321726
 20
113.5199408297
 11
106.6756834245
 21
113.6430920816
  0
LINE
  5
587
100
AcDbEntity
  8
INCISIONI
100
AcDbLine
 62
7
  6
CONTINUOUS
 10
107.3100084245
 20
114.2774170816
 11
107.8277774245
 21
114.7951860816
  0
LINE
  5
588
100
AcDbEntity
  8
INCISIONI
100
AcDbLine
 62
7
  6
CONTINUOUS
 10
108.4435084245
 20
115.4109170816
 11
108.9612505512
 21
115.9286592083
  0
LINE
  5
589
100
AcDbEntity
  8
INCISIONI
100
AcDbLine
 62
7
  6
CONTINUOUS
 10
106.5525321726
 20
113.3099301156
 11
106.8856941386
 21
113.6430920816
  0
LINE
  5
58A
100
AcDbEntity
  8
INCISIONI
100
AcDbLine
 62
7
  6
CONTINUOUS
 10
107.5200191386
 20
114.2774170816
 11
108.0377881386
 21
114.7951860816
  0
LINE
  5
58B
100
AcDbEntity
  8
INCISIONI
100
AcDbLine
 62
7
  6
CONTINUOUS
 10
108.6535191386
 20
115.4109170816
 11
109.1712633561
 21
115.9286612992
  0
LINE
  5
58C
100
AcDbEntity
  8
INCISIONI
100
AcDbLine
 62
7
  6
CONTINUOUS
 10
106.5525321726
 20
113.0999194016
 11
107.0125117003
 21
113.5598989294
  0
LINE
  5
58D
100
AcDbEntity
  8
INCISIONI
100
AcDbLine
 62
7
  6
CONTINUOUS
 10
107.7300298526
 20
114.2774170816
 11
108.2477988526
 21
114.7951860816
  0
LINE
  5
58E
100
AcDbEntity
  8
INCISIONI
100
AcDbLine
 62
7
  6
CONTINUOUS
 10
108.8635298526
 20
115.4109170816
 11
109.381276161
 21
115.92866339
  0
LINE
  5
58F
100
AcDbEntity
  8
INCISIONI
100
AcDbLine
 62
7
  6
CONTINUOUS
 10
106.5525321726
 20
112.8899086876
 11
107.0125108776
 21
113.3498873927
  0
LINE
  5
590
100
AcDbEntity
  8
INCISIONI
100
AcDbLine
 62
7
  6
CONTINUOUS
 10
107.9400405666
 20
114.2774170816
 11
108.4578095666
 21
114.7951860816
  0
LINE
  5
591
100
AcDbEntity
  8
INCISIONI
100
AcDbLine
 62
7
  6
CONTINUOUS
 10
109.0735405666
 20
115.4109170816
 11
109.4507431477
 21
115.7881196628
  0
LINE
  5
592
100
AcDbEntity
  8
INCISIONI
100
AcDbLine
 62
7
  6
CONTINUOUS
 10
106.5525321726
 20
112.6798979736
 11
107.012510055
 21
113.139875856
  0
LINE
  5
593
100
AcDbEntity
  8
INCISIONI
100
AcDbLine
 62
7
  6
CONTINUOUS
 10
108.1500512806
 20
114.2774170816
 11
108.6678202806
 21
114.7951860816
  0
LINE
  5
594
100
AcDbEntity
  8
INCISIONI
100
AcDbLine
 62
7
  6
CONTINUOUS
 10
109.2835512806
 20
115.4109170816
 11
109.4507431477
 21
115.5781089487
  0
LINE
  5
595
100
AcDbEntity
  8
INCISIONI
100
AcDbLine
 62
7
  6
CONTINUOUS
 10
106.5525321726
 20
112.4698872596
 11
107.0125092323
 21
112.9298643193
  0
LINE
  5
596
100
AcDbEntity
  8
INCISIONI
100
AcDbLine
 62
7
  6
CONTINUOUS
 10
108.3600619946
 20
114.2774170816
 11
108.8778309946
 21
114.7951860816
  0
LINE
  5
597
100
AcDbEntity
  8
INCISIONI
100
AcDbLine
 62
7
  6
CONTINUOUS
 10
106.5525321726
 20
112.2598765456
 11
107.0125084096
 21
112.7198527826
  0
LINE
  5
598
100
AcDbEntity
  8
INCISIONI
100
AcDbLine
 62
7
  6
CONTINUOUS
 10
107.7331657665
 20
113.4405101395
 11
107.8318617086
 21
113.5392060816
  0
LINE
  5
599
100
AcDbEntity
  8
INCISIONI
100
AcDbLine
 62
7
  6
CONTINUOUS
 10
108.5700727086
 20
114.2774170816
 11
109.0878417086
 21
114.7951860816
  0
LINE
  5
59A
100
AcDbEntity
  8
INCISIONI
100
AcDbLine
 62
7
  6
CONTINUOUS
 10
106.5525321726
 20
112.0498658316
 11
107.0125075869
 21
112.5098412459
  0
LINE
  5
59B
100
AcDbEntity
  8
INCISIONI
100
AcDbLine
 62
7
  6
CONTINUOUS
 10
107.7331642955
 20
113.2304979545
 11
108.0418724226
 21
113.5392060816
  0
LINE
  5
59C
100
AcDbEntity
  8
INCISIONI
100
AcDbLine
 62
7
  6
CONTINUOUS
 10
108.7800834226
 20
114.2774170816
 11
109.2978524226
 21
114.7951860816
  0
LINE
  5
59D
100
AcDbEntity
  8
INCISIONI
100
AcDbLine
 62
7
  6
CONTINUOUS
 10
106.5525321726
 20
111.8398551176
 11
107.0125067642
 21
112.2998297092
  0
LINE
  5
59E
100
AcDbEntity
  8
INCISIONI
100
AcDbLine
 62
7
  6
CONTINUOUS
 10
107.7331628246
 20
113.0204857696
 11
108.1931567197
 21
113.4804796647
  0
LINE
  5
59F
100
AcDbEntity
  8
INCISIONI
100
AcDbLine
 62
7
  6
CONTINUOUS
 10
108.9900941366
 20
114.2774170816
 11
109.4507431477
 21
114.7380660927
  0
LINE
  5
5A0
100
AcDbEntity
  8
INCISIONI
100
AcDbLine
 62
7
  6
CONTINUOUS
 10
106.5525321726
 20
111.6298444035
 11
107.0345988507
 21
112.1119110816
  0
LINE
  5
5A1
100
AcDbEntity
  8
INCISIONI
100
AcDbLine
 62
7
  6
CONTINUOUS
 10
107.7331613536
 20
112.8104735846
 11
108.1931581906
 21
113.2704704216
  0
LINE
  5
5A2
100
AcDbEntity
  8
INCISIONI
100
AcDbLine
 62
7
  6
CONTINUOUS
 10
109.2001048507
 20
114.2774170816
 11
109.4507431477
 21
114.5280553787
  0
LINE
  5
5A3
100
AcDbEntity
  8
INCISIONI
100
AcDbLine
 62
7
  6
CONTINUOUS
 10
106.7268715647
 20
111.5941730816
 11
107.2446095647
 21
112.1119110816
  0
LINE
  5
5A4
100
AcDbEntity
  8
INCISIONI
100
AcDbLine
 62
7
  6
CONTINUOUS
 10
107.7331598827
 20
112.6004613996
 11
108.1931596616
 21
113.0604611785
  0
LINE
  5
5A5
100
AcDbEntity
  8
INCISIONI
100
AcDbLine
 62
7
  6
CONTINUOUS
 10
109.4101155647
 20
114.2774170816
 11
109.4507431477
 21
114.3180446647
  0
LINE
  5
5A6
100
AcDbEntity
  8
INCISIONI
100
AcDbLine
 62
7
  6
CONTINUOUS
 10
106.9368822787
 20
111.5941730816
 11
107.4546202787
 21
112.1119110816
  0
LINE
  5
5A7
100
AcDbEntity
  8
INCISIONI
100
AcDbLine
 62
7
  6
CONTINUOUS
 10
107.7331584117
 20
112.3904492147
 11
108.1931611325
 21
112.8504519354
  0
LINE
  5
5A8
100
AcDbEntity
  8
INCISIONI
100
AcDbLine
 62
7
  6
CONTINUOUS
 10
108.9907633634
 20
113.6480541664
 11
108.9974542787
 21
113.6547450816
  0
LINE
  5
5A9
100
AcDbEntity
  8
INCISIONI
100
AcDbLine
 62
7
  6
CONTINUOUS
 10
107.1468929927
 20
111.5941730816
 11
107.6646309927
 21
112.1119110816
  0
LINE
  5
5AA
100
AcDbEntity
  8
INCISIONI
100
AcDbLine
 62
7
  6
CONTINUOUS
 10
107.7331569408
 20
112.1804370297
 11
108.1931626034
 21
112.6404426924
  0
LINE
  5
5AB
100
AcDbEntity
  8
INCISIONI
100
AcDbLine
 62
7
  6
CONTINUOUS
 10
108.9907655406
 20
113.4380456296
 11
109.2074649927
 21
113.6547450816
  0
LINE
  5
5AC
100
AcDbEntity
  8
INCISIONI
100
AcDbLine
 62
253
  6
CONTINUOUS
 10
123.9678944633
 20
101.0557456161
 11
122.6678944633
 21
101.0557456161
  0
LINE
  5
5AD
100
AcDbEntity
  8
INCISIONI
100
AcDbLine
 62
253
  6
CONTINUOUS
 10
109.4513719561
 20
101.5985760816
 11
106.5521252965
 21
101.5985760816
  0
LINE
  5
5AE
100
AcDbEntity
  8
DRAFT
100
AcDbLine
 62
7
  6
CONTINUOUS
 10
128.2417478266
 20
99.0831200169
 11
129.6940413931
 21
98.9560607937
  0
LINE
  5
5AF
100
AcDbEntity
  8
ASSI
100
AcDbLine
 62
7
  6
CONTINUOUS
 10
128.2417478266
 20
99.0831200169
 11
129.6940413931
 21
98.9560607937
  0
LINE
  5
5B0
100
AcDbEntity
  8
INCISIONI
100
AcDbLine
 62
253
  6
CONTINUOUS
 10
123.4107516007
 20
91.9730791002
 11
122.6678944633
 21
92.3890791188
  0
LWPOLYLINE
  5
5B1
100
AcDbEntity
  8
INCISIONI
100
AcDbPolyline
 62
253
  6
CONTINUOUS
 90
37
 70
0
 10
106.4876796168
 20
119.3136793819
 10
106.4879878391
 20
119.2816554491
 10
106.4889185179
 20
119.2495979659
 10
106.4904806709
 20
119.2175262913
 10
106.4926833158
 20
119.1854597844
 10
106.4955354704
 20
119.1534178043
 10
106.4990461523
 20
119.1214197101
 10
106.5032243792
 20
119.0894848609
 10
106.5080791689
 20
119.0576326158
 10
106.5136195391
 20
119.0258823339
 10
106.5198545075
 20
118.9942533742
 10
106.5267930918
 20
118.962765096
 10
106.5344443098
 20
118.9314368582
 10
106.542817179
 20
118.90028802
 10
106.5519207174
 20
118.8693379405
 10
106.5617639425
 20
118.8386059788
 10
106.5723558721
 20
118.808111494
 10
106.5837055239
 20
118.7778738451
 10
106.5958219157
 20
118.7479123913
 10
106.6087073421
 20
118.7182539233
 10
106.6223551971
 20
118.6889140299
 10
106.6367525086
 20
118.6599158678
 10
106.6518863048
 20
118.6312825935
 10
106.6677436139
 20
118.6030373636
 10
106.684311464
 20
118.5752033348
 10
106.7015768831
 20
118.5478036635
 10
106.7195268995
 20
118.5208615064
 10
106.7381485411
 20
118.4944000201
 10
106.7574288362
 20
118.4684423612
 10
106.7773548128
 20
118.4430116863
 10
106.7979134992
 20
118.4181311519
 10
106.8190919233
 20
118.3938239147
 10
106.8408771133
 20
118.3701131312
 10
106.8632560974
 20
118.3470219581
 10
106.8862159036
 20
118.3245735519
 10
106.90974356
 20
118.3027910692
 10
106.9338260949
 20
118.2816976666
  0
LINE
  5
5B2
100
AcDbEntity
  8
INCISIONI
100
AcDbLine
 62
253
  6
CONTINUOUS
 10
106.5521252965
 20
99.7007070816
 11
106.5521252965
 21
100.2807580816
  0
LINE
  5
5B3
100
AcDbEntity
  8
INCISIONI
100
AcDbLine
 62
253
  6
CONTINUOUS
 10
106.5521252965
 20
101.5985760816
 11
106.5521252965
 21
102.9567910816
  0
LINE
  5
5B4
100
AcDbEntity
  8
INCISIONI
100
AcDbLine
 62
253
  6
CONTINUOUS
 10
106.5521322944
 20
98.3829030816
 11
106.5521322944
 21
97.5060670816
  0
LINE
  5
5B5
100
AcDbEntity
  8
INCISIONI
100
AcDbLine
 62
253
  6
CONTINUOUS
 10
106.5521322944
 20
96.4229310816
 11
106.5521322944
 21
95.5460940816
  0
LINE
  5
5B6
100
AcDbEntity
  8
INCISIONI
100
AcDbLine
 62
253
  6
CONTINUOUS
 10
106.5521322944
 20
94.9660940816
 11
106.5521322944
 21
94.3860730816
  0
LINE
  5
5B7
100
AcDbEntity
  8
INCISIONI
100
AcDbLine
 62
253
  6
CONTINUOUS
 10
106.5521322944
 20
93.9993940816
 11
106.5521322944
 21
93.4193650816
  0
LINE
  5
5B8
100
AcDbEntity
  8
INCISIONI
100
AcDbLine
 62
253
  6
CONTINUOUS
 10
106.5521322944
 20
92.1371080816
 11
106.5521322944
 21
91.5570790816
  0
LINE
  5
5B9
100
AcDbEntity
  8
INCISIONI
100
AcDbLine
 62
253
  6
CONTINUOUS
 10
106.5525321726
 20
111.5941730816
 11
106.5525321726
 21
113.6430920816
  0
LINE
  5
5BA
100
AcDbEntity
  8
INCISIONI
100
AcDbLine
 62
253
  6
CONTINUOUS
 10
106.5525321726
 20
114.2774170816
 11
106.5525321726
 21
114.7951860816
  0
LINE
  5
5BB
100
AcDbEntity
  8
INCISIONI
100
AcDbLine
 62
253
  6
CONTINUOUS
 10
106.5525321726
 20
115.4109170816
 11
106.5525321726
 21
115.9286640816
  0
LINE
  5
5BC
100
AcDbEntity
  8
INCISIONI
100
AcDbLine
 62
253
  6
CONTINUOUS
 10
106.5525321726
 20
117.2139150816
 11
106.5525321726
 21
117.9081290816
  0
LINE
  5
5BD
100
AcDbEntity
  8
INCISIONI
100
AcDbLine
 62
253
  6
CONTINUOUS
 10
106.5525321726
 20
121.2172890816
 11
106.5525321726
 21
121.7231800816
  0
LINE
  5
5BE
100
AcDbEntity
  8
INCISIONI
100
AcDbLine
 62
253
  6
CONTINUOUS
 10
106.5525321726
 20
123.0600880816
 11
106.5525321726
 21
123.5585160816
  0
LINE
  5
5BF
100
AcDbEntity
  8
INCISIONI
100
AcDbLine
 62
253
  6
CONTINUOUS
 10
107.0125120262
 20
113.6430920816
 11
107.0125060281
 21
112.1119110816
  0
LINE
  5
5C0
100
AcDbEntity
  8
INCISIONI
100
AcDbLine
 62
253
  6
CONTINUOUS
 10
107.0884838792
 20
102.8762870816
 11
107.0884838792
 21
102.1706010816
  0
LWPOLYLINE
  5
5C1
100
AcDbEntity
  8
INCISIONI
100
AcDbPolyline
 62
253
  6
CONTINUOUS
 90
38
 70
0
 10
106.9470859702
 20
119.3150298152
 10
106.9472788189
 20
119.3326168932
 10
106.9478560379
 20
119.3502830452
 10
106.9488156363
 20
119.3680149626
 10
106.9501556233
 20
119.3857993364
 10
106.9518740082
 20
119.4036228581
 10
106.9539688002
 20
119.4214722187
 10
106.9564380083
 20
119.4393341095
 10
106.9592796419
 20
119.4571952218
 10
106.9624917101
 20
119.4750422467
 10
106.9660722221
 20
119.4928618755
 10
106.9700191872
 20
119.5106407994
 10
106.9743306145
 20
119.5283657097
 10
106.9790045131
 20
119.5460232975
 10
106.9840388924
 20
119.5636002541
 10
106.9894317615
 20
119.5810832707
 10
106.9951811296
 20
119.5984590386
 10
107.0012850059
 20
119.6157142489
 10
107.0077413996
 20
119.6328355929
 10
107.0145483199
 20
119.6498097619
 10
107.021703776
 20
119.6666234469
 10
107.029205777
 20
119.6832633394
 10
107.0370523323
 20
119.6997161304
 10
107.0452414509
 20
119.7159685113
 10
107.0537711421
 20
119.7320071732
 10
107.0626394151
 20
119.7478188074
 10
107.071844279
 20
119.7633901051
 10
107.0813837431
 20
119.7787077575
 10
107.0912558166
 20
119.7937584558
 10
107.1014585087
 20
119.8085288914
 10
107.1119898285
 20
119.8230057553
 10
107.1228477852
 20
119.8371757389
 10
107.1340303881
 20
119.8510255333
 10
107.1455356464
 20
119.8645418298
 10
107.1573615692
 20
119.8777113196
 10
107.1695061657
 20
119.8905206939
 10
107.1819674452
 20
119.902956644
 10
107.1947434169
 20
119.915005861
  0
LINE
  5
5C2
100
AcDbEntity
  8
INCISIONI
100
AcDbLine
 62
253
  6
CONTINUOUS
 10
112.8678944633
 20
117.8538790816
 11
112.562180164
 21
117.511479102
  0
LINE
  5
5C3
100
AcDbEntity
  8
INCISIONI
100
AcDbLine
 62
7
  6
CONTINUOUS
 10
107.3569037067
 20
111.5941730816
 11
108.1931640744
 21
112.4304334493
  0
LINE
  5
5C4
100
AcDbEntity
  8
INCISIONI
100
AcDbLine
 62
7
  6
CONTINUOUS
 10
108.9907677179
 20
113.2280370928
 11
109.4174757067
 21
113.6547450816
  0
LINE
  5
5C5
100
AcDbEntity
  8
INCISIONI
100
AcDbLine
 62
7
  6
CONTINUOUS
 10
107.5669144207
 20
111.5941730816
 11
108.1931655453
 21
112.2204242062
  0
LINE
  5
5C6
100
AcDbEntity
  8
INCISIONI
100
AcDbLine
 62
7
  6
CONTINUOUS
 10
108.9907698951
 20
113.018028556
 11
109.4507431477
 21
113.4780018086
  0
LINE
  5
5C7
100
AcDbEntity
  8
INCISIONI
100
AcDbLine
 62
7
  6
CONTINUOUS
 10
107.7769251347
 20
111.5941730816
 11
108.2946631347
 21
112.1119110816
  0
LINE
  5
5C8
100
AcDbEntity
  8
INCISIONI
100
AcDbLine
 62
7
  6
CONTINUOUS
 10
108.9907720723
 20
112.8080200193
 11
109.4507431477
 21
113.2679910946
  0
LINE
  5
5C9
100
AcDbEntity
  8
INCISIONI
100
AcDbLine
 62
7
  6
CONTINUOUS
 10
107.9869358487
 20
111.5941730816
 11
108.5046738487
 21
112.1119110816
  0
LINE
  5
5CA
100
AcDbEntity
  8
INCISIONI
100
AcDbLine
 62
7
  6
CONTINUOUS
 10
108.9907742496
 20
112.5980114825
 11
109.4507431477
 21
113.0579803806
  0
LINE
  5
5CB
100
AcDbEntity
  8
INCISIONI
100
AcDbLine
 62
7
  6
CONTINUOUS
 10
108.1969465628
 20
111.5941730816
 11
108.7146845628
 21
112.1119110816
  0
LINE
  5
5CC
100
AcDbEntity
  8
INCISIONI
100
AcDbLine
 62
7
  6
CONTINUOUS
 10
108.9907764268
 20
112.3880029457
 11
109.4507431477
 21
112.8479696666
  0
LINE
  5
5CD
100
AcDbEntity
  8
INCISIONI
100
AcDbLine
 62
7
  6
CONTINUOUS
 10
108.4069572768
 20
111.5941730816
 11
108.9246952768
 21
112.1119110816
  0
LINE
  5
5CE
100
AcDbEntity
  8
INCISIONI
100
AcDbLine
 62
7
  6
CONTINUOUS
 10
108.9907786041
 20
112.1779944089
 11
109.4507431477
 21
112.6379589526
  0
LINE
  5
5CF
100
AcDbEntity
  8
INCISIONI
100
AcDbLine
 62
7
  6
CONTINUOUS
 10
108.6169679908
 20
111.5941730816
 11
109.4507431477
 21
112.4279482386
  0
LINE
  5
5D0
100
AcDbEntity
  8
INCISIONI
100
AcDbLine
 62
7
  6
CONTINUOUS
 10
108.8269787048
 20
111.5941730816
 11
109.4507431477
 21
112.2179375245
  0
LINE
  5
5D1
100
AcDbEntity
  8
INCISIONI
100
AcDbLine
 62
7
  6
CONTINUOUS
 10
109.0369894188
 20
111.5941730816
 11
109.4507431477
 21
112.0079268105
  0
LINE
  5
5D2
100
AcDbEntity
  8
INCISIONI
100
AcDbLine
 62
7
  6
CONTINUOUS
 10
109.2470001328
 20
111.5941730816
 11
109.4507431477
 21
111.7979160965
  0
LINE
  5
5D3
100
AcDbEntity
  8
INCISIONI
100
AcDbLine
 62
253
  6
CONTINUOUS
 10
123.9678944633
 20
102.1304123488
 11
122.6678944633
 21
102.1304123488
  0
LINE
  5
5D4
100
AcDbEntity
  8
INCISIONI
100
AcDbLine
 62
253
  6
CONTINUOUS
 10
107.0884838792
 20
102.1706010816
 11
107.7939979237
 21
102.1706080816
  0
LINE
  5
5D5
100
AcDbEntity
  8
INCISIONI
100
AcDbLine
 62
253
  6
CONTINUOUS
 10
108.3303565063
 20
102.1786700816
 11
109.4513719561
 21
102.1786050816
  0
LWPOLYLINE
  5
5D6
100
AcDbEntity
  8
INCISIONI
100
AcDbPolyline
 62
253
  6
CONTINUOUS
 90
73
 70
0
 10
108.2606307503
 20
103.3020550816
 10
108.2469382591
 20
103.3328948996
 10
108.2320506263
 20
103.3632368056
 10
108.2159979456
 20
103.3930310503
 10
108.1988103112
 20
103.4222278844
 10
108.1805178168
 20
103.4507775585
 10
108.1611505563
 20
103.4786303234
 10
108.1407386237
 20
103.5057364296
 10
108.1193121129
 20
103.5320461279
 10
108.0969011177
 20
103.5575096688
 10
108.0735370782
 20
103.5820809239
 10
108.0492568196
 20
103.6057282481
 10
108.0240985129
 20
103.6284236169
 10
107.9981003295
 20
103.650139006
 10
107.9713004406
 20
103.6708463912
 10
107.9437370173
 20
103.690517748
 10
107.9154482309
 20
103.7091250521
 10
107.8864722527
 20
103.7266402793
 10
107.8568472538
 20
103.743035405
 10
107.8266129129
 20
103.7582844251
 10
107.7958149381
 20
103.772369415
 10
107.7645005448
 20
103.7852744702
 10
107.7327169484
 20
103.7969836863
 10
107.7005113646
 20
103.8074811588
 10
107.6679310086
 20
103.8167509831
 10
107.6350230961
 20
103.8247772548
 10
107.6018348423
 20
103.8315440694
 10
107.5684134629
 20
103.8370355224
 10
107.5348065231
 20
103.8412386236
 10
107.5010629867
 20
103.84415204
 10
107.4672321675
 20
103.845777353
 10
107.4333633793
 20
103.8461161438
 10
107.3995059357
 20
103.8451699937
 10
107.3657091506
 20
103.842940484
 10
107.3320223376
 20
103.839429196
 10
107.2984948103
 20
103.8346377111
 10
107.2651758827
 20
103.8285676105
 10
107.232114326
 20
103.8212231606
 10
107.1993567425
 20
103.8126193688
 10
107.166949192
 20
103.8027739272
 10
107.1349377345
 20
103.7917045283
 10
107.1033684298
 20
103.7794288645
 10
107.0722873379
 20
103.7659646279
 10
107.0417405186
 20
103.7513295111
 10
107.0117740317
 20
103.7355412064
 10
106.9824339373
 20
103.7186174061
 10
106.9537648419
 20
103.7005783524
 10
106.925805539
 20
103.6814544875
 10
106.8985933687
 20
103.6612788034
 10
106.8721656714
 20
103.6400842919
 10
106.8465597872
 20
103.6179039451
 10
106.8218130563
 20
103.5947707551
 10
106.7979628189
 20
103.5707177136
 10
106.7750464152
 20
103.5457778129
 10
106.7531011854
 20
103.5199840448
 10
106.7321622967
 20
103.4933706775
 10
106.7122562238
 20
103.465977084
 10
106.6934072685
 20
103.4378439136
 10
106.6756397325
 20
103.4090118156
 10
106.6589779176
 20
103.3795214391
 10
106.6434461254
 20
103.3494134333
 10
106.6290686578
 20
103.3187284476
 10
106.6158698163
 20
103.2875071312
 10
106.6038739028
 20
103.2557901332
 10
106.5931025732
 20
103.223620917
 10
106.5835669
 20
103.1910542023
 10
106.5752753098
 20
103.158147523
 10
106.5682362295
 20
103.1249584127
 10
106.5624580857
 20
103.0915444054
 10
106.5579493052
 20
103.0579630349
 10
106.5547183146
 20
103.0242718348
 10
106.5527735406
 20
102.9905283392
 10
106.55212341
 20
102.9567900816
  0
LWPOLYLINE
  5
5D7
100
AcDbEntity
  8
INCISIONI
100
AcDbPolyline
 62
253
  6
CONTINUOUS
 90
37
 70
0
 10
109.5150119263
 20
119.3136793819
 10
109.5147036964
 20
119.3456995809
 10
109.5137729927
 20
119.3777533795
 10
109.5122107938
 20
119.4098214059
 10
109.5100080787
 20
119.4418842883
 10
109.507155826
 20
119.4739226551
 10
109.5036450147
 20
119.5059171344
 10
109.4994666234
 20
119.5378483544
 10
109.4946116309
 20
119.5696969435
 10
109.4890710162
 20
119.6014435297
 10
109.4828357578
 20
119.6330687415
 10
109.4758968347
 20
119.664553207
 10
109.4682452257
 20
119.6958775544
 10
109.4598719094
 20
119.727022412
 10
109.4507678648
 20
119.757968408
 10
109.4409240705
 20
119.7886961706
 10
109.4303315055
 20
119.8191863282
 10
109.4189811484
 20
119.8494195089
 10
109.4068639781
 20
119.8793763409
 10
109.3939777052
 20
119.9090300217
 10
109.3803289557
 20
119.9383649908
 10
109.3659307299
 20
119.9673581208
 10
109.350796028
 20
119.9959862841
 10
109.3349378502
 20
120.0242263531
 10
109.3183691968
 20
120.0520552003
 10
109.3011030679
 20
120.0794496982
 10
109.2831524639
 20
120.1063867192
 10
109.2645303848
 20
120.1328431357
 10
109.245249831
 20
120.1587958202
 10
109.2253238026
 20
120.1842216452
 10
109.2047652998
 20
120.2090974831
 10
109.183587323
 20
120.2334002064
 10
109.1618028722
 20
120.2571066874
 10
109.1394249478
 20
120.2801937987
 10
109.1164665498
 20
120.3026384128
 10
109.0929406787
 20
120.324417402
 10
109.0688603345
 20
120.3455076388
  0
LINE
  5
5D8
100
AcDbEntity
  8
INCISIONI
100
AcDbLine
 62
253
  6
CONTINUOUS
 10
107.7331564608
 20
112.1119110816
 11
107.7331664578
 21
113.5392060816
  0
LINE
  5
5D9
100
AcDbEntity
  8
INCISIONI
100
AcDbLine
 62
253
  6
CONTINUOUS
 10
107.7939979237
 20
102.1706080816
 11
107.7939979237
 21
102.8762870816
  0
LINE
  5
5DA
100
AcDbEntity
  8
INCISIONI
100
AcDbLine
 62
253
  6
CONTINUOUS
 10
108.1931563084
 20
113.5392060816
 11
108.1931663053
 21
112.1119110816
  0
LINE
  5
5DB
100
AcDbEntity
  8
INCISIONI
100
AcDbLine
 62
253
  6
CONTINUOUS
 10
108.3303635042
 20
99.7096390816
 11
108.3303635042
 21
100.2718330816
  0
LINE
  5
5DC
100
AcDbEntity
  8
INCISIONI
100
AcDbLine
 62
253
  6
CONTINUOUS
 10
108.3303635042
 20
102.6849010816
 11
108.3303565063
 21
102.1786700816
  0
LINE
  5
5DD
100
AcDbEntity
  8
INCISIONI
100
AcDbLine
 62
253
  6
CONTINUOUS
 10
108.8812176703
 20
100.4487620816
 11
108.8812176703
 21
99.5327170816
  0
LINE
  5
5DE
100
AcDbEntity
  8
0
100
AcDbLine
 62
7
  6
CONTINUOUS
 10
108.9678944633
 20
84.1157606143
 11
108.9678944633
 21
84.6983975489
  0
LINE
  5
5DF
100
AcDbEntity
  8
0
100
AcDbLine
 62
7
  6
CONTINUOUS
 10
108.9678944633
 20
130.4157606143
 11
108.9678944633
 21
130.9983975489
  0
LINE
  5
5E0
100
AcDbEntity
  8
INCISIONI
100
AcDbLine
 62
253
  6
CONTINUOUS
 10
108.9907792892
 20
112.1119110816
 11
108.990763294
 21
113.6547450816
  0
LINE
  5
5E1
100
AcDbEntity
  8
0
100
AcDbLine
 62
253
  6
CONTINUOUS
 10
109.0174874342
 20
83.6031868086
 11
109.0174874342
 21
85.2010013287
  0
LINE
  5
5E2
100
AcDbEntity
  8
0
100
AcDbLine
 62
253
  6
CONTINUOUS
 10
109.0174874342
 20
129.9131568346
 11
109.0174874342
 21
131.5109713547
  0
LINE
  5
5E3
100
AcDbEntity
  8
INCISIONI
100
AcDbLine
 62
253
  6
CONTINUOUS
 10
109.4507431477
 20
123.5585160816
 11
109.4507431477
 21
123.0411570816
  0
LINE
  5
5E4
100
AcDbEntity
  8
INCISIONI
100
AcDbLine
 62
253
  6
CONTINUOUS
 10
109.4507431477
 20
121.7157110816
 11
109.4507431477
 21
121.2172890816
  0
LINE
  5
5E5
100
AcDbEntity
  8
INCISIONI
100
AcDbLine
 62
253
  6
CONTINUOUS
 10
109.4507431477
 20
117.9149630816
 11
109.4507431477
 21
117.2636600816
  0
LINE
  5
5E6
100
AcDbEntity
  8
INCISIONI
100
AcDbLine
 62
253
  6
CONTINUOUS
 10
109.4507431477
 20
115.9286640816
 11
109.4507431477
 21
115.4109170816
  0
LINE
  5
5E7
100
AcDbEntity
  8
INCISIONI
100
AcDbLine
 62
253
  6
CONTINUOUS
 10
109.4507431477
 20
114.7951860816
 11
109.4507431477
 21
114.2774170816
  0
LINE
  5
5E8
100
AcDbEntity
  8
INCISIONI
100
AcDbLine
 62
253
  6
CONTINUOUS
 10
109.4507431477
 20
113.6547450816
 11
109.4507431477
 21
111.5941730816
  0
LINE
  5
5E9
100
AcDbEntity
  8
INCISIONI
100
AcDbLine
 62
253
  6
CONTINUOUS
 10
109.4513869515
 20
92.4882110816
 11
109.4513799537
 21
93.0682550816
  0
LINE
  5
5EA
100
AcDbEntity
  8
INCISIONI
100
AcDbLine
 62
253
  6
CONTINUOUS
 10
109.4513869515
 20
94.3860650816
 11
109.4513799537
 21
94.9660870816
  0
LINE
  5
5EB
100
AcDbEntity
  8
INCISIONI
100
AcDbLine
 62
253
  6
CONTINUOUS
 10
109.4513799537
 20
96.6744920816
 11
109.4513719561
 21
97.2544990816
  0
LINE
  5
5EC
100
AcDbEntity
  8
INCISIONI
100
AcDbLine
 62
253
  6
CONTINUOUS
 10
109.4513719561
 20
99.3496040816
 11
109.4513799537
 21
98.7695820816
  0
LINE
  5
5ED
100
AcDbEntity
  8
INCISIONI
100
AcDbLine
 62
253
  6
CONTINUOUS
 10
109.4513649582
 20
103.9194600816
 11
109.4513719561
 21
103.2661550816
  0
LINE
  5
5EE
100
AcDbEntity
  8
INCISIONI
100
AcDbLine
 62
253
  6
CONTINUOUS
 10
109.4513719561
 20
102.1786050816
 11
109.4513719561
 21
101.5985760816
  0
LINE
  5
5EF
100
AcDbEntity
  8
INCISIONI
100
AcDbLine
 62
253
  6
CONTINUOUS
 10
109.4513799537
 20
95.5460940816
 11
109.4513799537
 21
96.1261160816
  0
LINE
  5
5F0
100
AcDbEntity
  8
INCISIONI
100
AcDbLine
 62
253
  6
CONTINUOUS
 10
109.4513799537
 20
97.8028820816
 11
109.4513799537
 21
98.3829030816
  0
LINE
  5
5F1
100
AcDbEntity
  8
INCISIONI
100
AcDbLine
 62
253
  6
CONTINUOUS
 10
109.4513799537
 20
101.2118970816
 11
109.4513719561
 21
100.6318680816
  0
LINE
  5
5F2
100
AcDbEntity
  8
0
100
AcDbLine
 62
7
  6
CONTINUOUS
 10
109.4678944633
 20
84.1007212669
 11
109.4678944633
 21
85.2036209538
  0
LINE
  5
5F3
100
AcDbEntity
  8
0
100
AcDbLine
 62
7
  6
CONTINUOUS
 10
109.4678944633
 20
129.9105372095
 11
109.4678944633
 21
131.0134368963
  0
LWPOLYLINE
  5
5F4
100
AcDbEntity
  8
INCISIONI
100
AcDbPolyline
 62
253
  6
CONTINUOUS
 90
38
 70
0
 10
109.0561527409
 20
119.3150298152
 10
109.0559612936
 20
119.2973700605
 10
109.0553881233
 20
119.2796291549
 10
109.054434987
 20
119.2618205627
 10
109.0531036422
 20
119.2439577481
 10
109.0513958459
 20
119.2260541751
 10
109.0493133555
 20
119.2081233082
 10
109.0468579282
 20
119.1901786113
 10
109.0440313211
 20
119.1722335488
 10
109.0408352916
 20
119.1543015848
 10
109.0372715968
 20
119.1363961835
 10
109.033341994
 20
119.1185308091
 10
109.0290482404
 20
119.1007189258
 10
109.0243920933
 20
119.0829739978
 10
109.0193753098
 20
119.0653094893
 10
109.0139996473
 20
119.0477388645
 10
109.0082668629
 20
119.0302755875
 10
109.0021787138
 20
119.0129331226
 10
108.9957369574
 20
118.9957249339
 10
108.9889433507
 20
118.9786644857
 10
108.9817996512
 20
118.9617652421
 10
108.9743076159
 20
118.9450406673
 10
108.9664690021
 20
118.9285042256
 10
108.9582855671
 20
118.9121693811
 10
108.9497590681
 20
118.896049598
 10
108.9408912622
 20
118.8801583405
 10
108.9316839068
 20
118.8645090728
 10
108.9221387591
 20
118.849115259
 10
108.9122575763
 20
118.8339903635
 10
108.9020421156
 20
118.8191478504
 10
108.8914941342
 20
118.8046011838
 10
108.8806153895
 20
118.790363828
 10
108.8694076386
 20
118.7764492471
 10
108.8578726387
 20
118.7628709054
 10
108.8460121471
 20
118.749642267
 10
108.833827921
 20
118.7367767961
 10
108.8213217176
 20
118.724287957
 10
108.8084952942
 20
118.7121892138
  0
LWPOLYLINE
  5
5F5
100
AcDbEntity
  8
RACCORDO
100
AcDbPolyline
 62
253
  6
CONTINUOUS
 90
64
 70
0
 10
118.7396680688
 20
124.2326962404
 10
118.7513121139
 20
124.2532709106
 10
118.7909935901
 20
124.3118793297
 10
118.8364866683
 20
124.3692491406
 10
118.8879419525
 20
124.4255233847
 10
118.9452088387
 20
124.4805590205
 10
119.0078355155
 20
124.5339269241
 10
119.0758634626
 20
124.5856143508
 10
119.1492512004
 20
124.6356340454
 10
119.2274224774
 20
124.6835951176
 10
119.3104102804
 20
124.7294795019
 10
119.3981816228
 20
124.7733052639
 10
119.4900612929
 20
124.814735711
 10
119.5860780792
 20
124.853752757
 10
119.6862031932
 20
124.8903744881
 10
119.7896750576
 20
124.9243184706
 10
119.8965374321
 20
124.9555679605
 10
120.006746557
 20
124.9841397018
 10
120.1194095758
 20
125.0098014927
 10
120.2345580778
 20
125.0325272459
 10
120.3521604738
 20
125.0523430486
 10
120.4712291403
 20
125.069094962
 10
120.5917046859
 20
125.0827539483
 10
120.713646502
 20
125.0933490453
 10
120.8362451387
 20
125.1008134269
 10
120.9594741323
 20
125.1051405159
 10
121.0833599465
 20
125.1063368896
 10
121.2071725223
 20
125.1043554536
 10
121.3311769025
 20
125.099146946
 10
121.4551080442
 20
125.0907606286
 10
121.5774407606
 20
125.0792971923
 10
121.6984241206
 20
125.0645945229
 10
121.8178090553
 20
125.0468147346
 10
121.9333231708
 20
125.0265448611
 10
122.0446948249
 20
125.0036679309
 10
122.15219566
 20
124.9783009154
 10
122.2543682084
 20
124.9513817631
 10
122.3507739318
 20
124.9229409744
 10
122.4418513687
 20
124.8929480489
 10
122.5274586665
 20
124.8622494334
 10
122.6073907054
 20
124.8309137506
 10
122.6818526053
 20
124.7988723778
 10
122.7513178731
 20
124.7667658943
 10
122.8157024048
 20
124.7346667812
 10
122.8750903044
 20
124.7025025573
 10
122.9302073919
 20
124.670696359
 10
122.9810246617
 20
124.639321439
 10
123.0275711193
 20
124.6083045446
 10
123.070659601
 20
124.5778490533
 10
123.1103243784
 20
124.5479954995
 10
123.1465311799
 20
124.5187033489
 10
123.1799900273
 20
124.4900543758
 10
123.2107396021
 20
124.4620780397
 10
123.2387412229
 20
124.4347448812
 10
123.264588867
 20
124.4080482965
 10
123.2883204596
 20
124.3820099283
 10
123.3098980755
 20
124.3566081339
 10
123.3298019172
 20
124.3317713824
 10
123.3480665325
 20
124.3075147124
 10
123.3646573734
 20
124.2838230853
 10
123.379950999
 20
124.2605798536
 10
123.3940729286
 20
124.2377461347
 10
123.4068976428
 20
124.2153608113
 10
123.4184251416
 20
124.1934238832
  0
LWPOLYLINE
  5
5F6
100
AcDbEntity
  8
RACCORDO
100
AcDbPolyline
 62
253
  6
CONTINUOUS
 90
10
 70
0
 10
118.6491615082
 20
124.2625744285
 10
118.6603450504
 20
124.2797442488
 10
118.7078025061
 20
124.3415320107
 10
118.7615992456
 20
124.4020088582
 10
118.8215907135
 20
124.4610118316
 10
118.8876144477
 20
124.5183810891
 10
118.9594934818
 20
124.5739629784
 10
119.0370341849
 20
124.6276078783
 10
119.1200244112
 20
124.6791695647
 10
119.2142664885
 20
124.7316985142
  0
LINE
  5
5F7
100
AcDbEntity
  8
INCISIONI
100
AcDbLine
 62
253
  6
CONTINUOUS
 10
122.6678944633
 20
104.2104127456
 11
123.9678944633
 21
104.2104127456
  0
LINE
  5
5F8
100
AcDbEntity
  8
INCISIONI
100
AcDbLine
 62
253
  6
CONTINUOUS
 10
123.2250372873
 20
105.5624117538
 11
123.9678944633
 21
105.5624117538
  0
LWPOLYLINE
  5
5F9
100
AcDbEntity
  8
0
100
AcDbPolyline
 62
253
  6
CONTINUOUS
 90
6
 70
0
 10
102.2193488962
 20
132.0527072476
 10
102.2194163414
 20
132.052424628
 10
102.2194803773
 20
132.0515777262
 10
102.2195408547
 20
132.0501677302
 10
102.2195976399
 20
132.0481967842
 10
102.2196505906
 20
132.0456687943
  0
LINE
  5
5FA
100
AcDbEntity
  8
INCISIONI
100
AcDbLine
 62
253
  6
CONTINUOUS
 10
110.7278944633
 20
120.0794791633
 11
110.7278944633
 21
119.5658791224
  0
LINE
  5
5FB
100
AcDbEntity
  8
INCISIONI
100
AcDbLine
 62
253
  6
CONTINUOUS
 10
110.7278944633
 20
116.313079102
 11
110.7278944633
 21
115.7994790969
  0
LINE
  5
5FC
100
AcDbEntity
  8
INCISIONI
100
AcDbLine
 62
253
  6
CONTINUOUS
 10
110.7278944633
 20
117.8538790816
 11
110.7278944633
 21
118.025079
  0
LINE
  5
5FD
100
AcDbEntity
  8
INCISIONI
100
AcDbLine
 62
253
  6
CONTINUOUS
 10
110.7278944633
 20
121.1066792449
 11
110.7278944633
 21
122.1338793265
  0
LINE
  5
5FE
100
AcDbEntity
  8
INCISIONI
100
AcDbLine
 62
253
  6
CONTINUOUS
 10
111.6450372658
 20
121.7914789184
 11
111.6450372658
 21
121.1066792449
  0
LINE
  5
5FF
100
AcDbEntity
  8
0
100
AcDbLine
 62
7
  6
CONTINUOUS
 10
120.7178944633
 20
124.4385213516
 11
120.5720544003
 21
124.1934238832
  0
LINE
  5
600
100
AcDbEntity
  8
INCISIONI
100
AcDbLine
 62
253
  6
CONTINUOUS
 10
123.9678944633
 20
102.9624126464
 11
122.6678944633
 21
103.3784117538
  0
LINE
  5
601
100
AcDbEntity
  8
INCISIONI
100
AcDbLine
 62
253
  6
CONTINUOUS
 10
112.8678944633
 20
120.421879
 11
112.8678944633
 21
119.223479
  0
LINE
  5
602
100
AcDbEntity
  8
INCISIONI
100
AcDbLine
 62
253
  6
CONTINUOUS
 10
112.8678944633
 20
118.025079
 11
112.8678944633
 21
117.8538790816
  0
LINE
  5
603
100
AcDbEntity
  8
INCISIONI
100
AcDbLine
 62
253
  6
CONTINUOUS
 10
112.8678944633
 20
116.6554790816
 11
112.8678944633
 21
115.4570790816
  0
LINE
  5
604
100
AcDbEntity
  8
INCISIONI
100
AcDbLine
 62
253
  6
CONTINUOUS
 10
112.8678944633
 20
121.1066792449
 11
112.8678944633
 21
121.7914789184
  0
LINE
  5
605
100
AcDbEntity
  8
0
100
AcDbLine
 62
253
  6
CONTINUOUS
 10
113.4766206666
 20
129.1492371123
 11
113.4766206666
 21
128.4570790816
  0
LINE
  5
606
100
AcDbEntity
  8
0
100
AcDbLine
 62
253
  6
CONTINUOUS
 10
113.4766206666
 20
86.6570790816
 11
113.4766206666
 21
85.964921051
  0
LINE
  5
607
100
AcDbEntity
  8
INCISIONI
100
AcDbLine
 62
253
  6
CONTINUOUS
 10
108.2606327497
 20
103.3020570816
 11
109.4513649582
 21
103.9194600816
  0
LINE
  5
608
100
AcDbEntity
  8
INCISIONI
100
AcDbLine
 62
253
  6
CONTINUOUS
 10
123.7821801693
 20
94.7810789329
 11
123.9678944633
 21
94.573079032
  0
LINE
  5
609
100
AcDbEntity
  8
0
100
AcDbLine
 62
7
  6
CONTINUOUS
 10
113.9678944633
 20
128.8901571154
 11
113.9678944633
 21
128.4570790816
  0
LINE
  5
60A
100
AcDbEntity
  8
0
100
AcDbLine
 62
7
  6
CONTINUOUS
 10
113.9678944633
 20
86.6570790816
 11
113.9678944633
 21
86.2240010479
  0
LINE
  5
60B
100
AcDbEntity
  8
DRAFT
100
AcDbLine
 62
7
  6
CONTINUOUS
 10
113.9678944633
 20
86.6570790816
 11
113.9678944633
 21
86.7070790816
  0
LINE
  5
60C
100
AcDbEntity
  8
RACCORDO
100
AcDbLine
 62
7
  6
CONTINUOUS
 10
113.9678944633
 20
86.7070790816
 11
113.9678944633
 21
88.2389485225
  0
LINE
  5
60D
100
AcDbEntity
  8
ASSI
100
AcDbLine
 62
7
  6
CONTINUOUS
 10
113.9678944633
 20
86.7070790816
 11
113.9678944633
 21
88.2389485225
  0
LINE
  5
60E
100
AcDbEntity
  8
RACCORDO
100
AcDbLine
 62
7
  6
CONTINUOUS
 10
113.9678944633
 20
121.8002794926
 11
113.9678944633
 21
125.1564768841
  0
LINE
  5
60F
100
AcDbEntity
  8
DRAFT
100
AcDbLine
 62
7
  6
CONTINUOUS
 10
113.9678944633
 20
128.4070790816
 11
113.9678944633
 21
128.4570790816
  0
LINE
  5
610
100
AcDbEntity
  8
0
100
AcDbLine
 62
7
  6
CONTINUOUS
 10
113.9678944633
 20
125.1564768841
 11
113.9678944633
 21
128.4070790816
  0
LINE
  5
611
100
AcDbEntity
  8
ASSI
100
AcDbLine
 62
7
  6
CONTINUOUS
 10
113.9678944633
 20
121.8002794926
 11
113.9678944633
 21
128.4070790816
  0
LWPOLYLINE
  5
612
100
AcDbEntity
  8
0
100
AcDbPolyline
 62
253
  6
CONTINUOUS
 90
6
 70
0
 10
102.3396414077
 20
83.9230206421
 10
102.3408506395
 20
83.9252320521
 10
102.3417822855
 20
83.9269637347
 10
102.3424342921
 20
83.9282118633
 10
102.3428052763
 20
83.9289737773
 10
102.3428944633
 20
83.9292478653
  0
LINE
  5
613
100
AcDbEntity
  8
0
100
AcDbLine
 62
253
  6
CONTINUOUS
 10
102.3364019475
 20
83.917180092
 11
102.3396414077
 21
83.9230206421
  0
LINE
  5
614
100
AcDbEntity
  8
0
100
AcDbLine
 62
253
  6
CONTINUOUS
 10
102.3267540592
 20
83.9000344488
 11
102.3364019475
 21
83.917180092
  0
LINE
  5
615
100
AcDbEntity
  8
0
100
AcDbLine
 62
253
  6
CONTINUOUS
 10
102.2961864739
 20
83.8463696919
 11
102.3267540592
 21
83.9000344488
  0
LINE
  5
616
100
AcDbEntity
  8
0
100
AcDbLine
 62
253
  6
CONTINUOUS
 10
102.2193488962
 20
83.7127415143
 11
102.2961864739
 21
83.8463696919
  0
LINE
  5
617
100
AcDbEntity
  8
INCISIONI
100
AcDbLine
 62
253
  6
CONTINUOUS
 10
109.4513719561
 20
103.2661550816
 11
108.3303635042
 21
102.6849010816
  0
LINE
  5
618
100
AcDbEntity
  8
INCISIONI
100
AcDbLine
 62
253
  6
CONTINUOUS
 10
109.4507431477
 20
111.5941730816
 11
106.5525321726
 21
111.5941730816
  0
LINE
  5
619
100
AcDbEntity
  8
INCISIONI
100
AcDbLine
 62
253
  6
CONTINUOUS
 10
107.8161571722
 20
115.9286540816
 11
106.5525321726
 21
117.2139150816
  0
LINE
  5
61A
100
AcDbEntity
  8
INCISIONI
100
AcDbLine
 62
253
  6
CONTINUOUS
 10
106.5525321726
 20
117.9081290816
 11
107.7451188161
 21
116.6612990816
  0
LINE
  5
61B
100
AcDbEntity
  8
INCISIONI
100
AcDbLine
 62
253
  6
CONTINUOUS
 10
108.1011253483
 20
116.2988980816
 11
108.4463161758
 21
115.9286540816
  0
LINE
  5
61C
100
AcDbEntity
  8
0
100
AcDbLine
 62
253
  6
CONTINUOUS
 10
102.2193488962
 20
131.4014166489
 11
102.3007251006
 21
131.2598510126
  0
LINE
  5
61D
100
AcDbEntity
  8
0
100
AcDbLine
 62
253
  6
CONTINUOUS
 10
102.3007251006
 20
131.2598510126
 11
102.3267526877
 21
131.2141261386
  0
LINE
  5
61E
100
AcDbEntity
  8
0
100
AcDbLine
 62
253
  6
CONTINUOUS
 10
102.3267526877
 20
131.2141261386
 11
102.3364009088
 21
131.1969799325
  0
LWPOLYLINE
  5
61F
100
AcDbEntity
  8
0
100
AcDbPolyline
 62
253
  6
CONTINUOUS
 90
7
 70
0
 10
102.3364009088
 20
131.1969799325
 10
102.3396405916
 20
131.1911390052
 10
102.340849947
 20
131.1889273865
 10
102.3417817992
 20
131.1871953436
 10
102.3424340449
 20
131.1859467855
 10
102.3428052122
 20
131.1851845302
 10
102.3428944633
 20
131.184910298
  0
LWPOLYLINE
  5
620
100
AcDbEntity
  8
0
100
AcDbPolyline
 62
7
  6
CONTINUOUS
 90
22
 70
0
 10
117.7178944633
 20
124.8027505572
 10
117.725498865
 20
124.9049346831
 10
117.7482699998
 20
125.0065536345
 10
117.7860819326
 20
125.1070454594
 10
117.8387255458
 20
125.2058543909
 10
117.9059096954
 20
125.3024339692
 10
117.9872628217
 20
125.396250064
 10
118.0823350037
 20
125.4867838284
 10
118.1906004477
 20
125.5735345681
 10
118.311460395
 20
125.656022511
 10
118.4442464335
 20
125.7337914601
 10
118.5882241941
 20
125.8064113165
 10
118.7425974124
 20
125.8734804585
 10
118.9065123321
 20
125.9346279622
 10
119.0790624268
 20
125.9895156534
 10
119.2592934137
 20
126.0378399773
 10
119.4462085309
 20
126.0793336778
 10
119.6387740501
 20
126.1137672753
 10
119.8359249939
 20
126.1409503358
 10
120.0365710251
 20
126.1607325243
 10
120.2396024771
 20
126.1730044359
 10
120.4438964907
 20
126.1776982014
  0
LWPOLYLINE
  5
621
100
AcDbEntity
  8
ASSI
100
AcDbPolyline
 62
7
  6
CONTINUOUS
 90
22
 70
0
 10
117.7178944633
 20
124.8027505572
 10
117.725498865
 20
124.9049346831
 10
117.7482699998
 20
125.0065536345
 10
117.7860819326
 20
125.1070454594
 10
117.8387255458
 20
125.2058543909
 10
117.9059096954
 20
125.3024339692
 10
117.9872628217
 20
125.396250064
 10
118.0823350037
 20
125.4867838284
 10
118.1906004477
 20
125.5735345681
 10
118.311460395
 20
125.656022511
 10
118.4442464335
 20
125.7337914601
 10
118.5882241941
 20
125.8064113165
 10
118.7425974124
 20
125.8734804585
 10
118.9065123321
 20
125.9346279622
 10
119.0790624268
 20
125.9895156534
 10
119.2592934137
 20
126.0378399773
 10
119.4462085309
 20
126.0793336778
 10
119.6387740501
 20
126.1137672753
 10
119.8359249939
 20
126.1409503358
 10
120.0365710251
 20
126.1607325243
 10
120.2396024771
 20
126.1730044359
 10
120.4438964907
 20
126.1776982014
  0
LINE
  5
622
100
AcDbEntity
  8
INCISIONI
100
AcDbLine
 62
253
  6
CONTINUOUS
 10
106.5521252965
 20
100.2807580816
 11
109.4513799537
 21
101.2118970816
  0
LINE
  5
623
100
AcDbEntity
  8
INCISIONI
100
AcDbLine
 62
253
  6
CONTINUOUS
 10
108.3303635042
 20
100.2718330816
 11
107.4550911815
 21
99.9907290816
  0
LINE
  5
624
100
AcDbEntity
  8
INCISIONI
100
AcDbLine
 62
253
  6
CONTINUOUS
 10
109.4513719561
 20
100.6318680816
 11
108.8812176703
 21
100.4487620816
  0
LINE
  5
625
100
AcDbEntity
  8
DRAFT
100
AcDbLine
 62
7
  6
CONTINUOUS
 10
128.2417477405
 20
114.6310381389
 11
129.6940414461
 21
114.7580973742
  0
LINE
  5
626
100
AcDbEntity
  8
ASSI
100
AcDbLine
 62
7
  6
CONTINUOUS
 10
128.2417477405
 20
114.6310381389
 11
129.6940414461
 21
114.7580973742
  0
LINE
  5
627
100
AcDbEntity
  8
INCISIONI
100
AcDbLine
 62
253
  6
CONTINUOUS
 10
107.0125060281
 20
112.1119110816
 11
107.7331564608
 21
112.1119110816
  0
LINE
  5
628
100
AcDbEntity
  8
INCISIONI
100
AcDbLine
 62
253
  6
CONTINUOUS
 10
108.1931663053
 20
112.1119110816
 11
108.9907792892
 21
112.1119110816
  0
LINE
  5
629
100
AcDbEntity
  8
INCISIONI
100
AcDbLine
 62
253
  6
CONTINUOUS
 10
107.7331664578
 20
113.5392060816
 11
108.1931563084
 21
113.5392060816
  0
LINE
  5
62A
100
AcDbEntity
  8
INCISIONI
100
AcDbLine
 62
253
  6
CONTINUOUS
 10
106.5525321726
 20
113.6430920816
 11
107.0125120262
 21
113.6430920816
  0
LINE
  5
62B
100
AcDbEntity
  8
INCISIONI
100
AcDbLine
 62
253
  6
CONTINUOUS
 10
108.990763294
 20
113.6547450816
 11
109.4507431477
 21
113.6547450816
  0
LINE
  5
62C
100
AcDbEntity
  8
INCISIONI
100
AcDbLine
 62
253
  6
CONTINUOUS
 10
123.2250372873
 20
105.5624117538
 11
122.6678944633
 21
105.9784129439
  0
LINE
  5
62D
100
AcDbEntity
  8
INCISIONI
100
AcDbLine
 62
253
  6
CONTINUOUS
 10
110.7278944633
 20
115.7994790969
 11
111.1864659284
 21
115.4570790816
  0
LWPOLYLINE
  5
62E
100
AcDbEntity
  8
INCISIONI
100
AcDbPolyline
 62
253
  6
CONTINUOUS
 90
35
 70
0
 10
106.9338260949
 20
118.2816976666
 10
106.959131539
 20
118.2607222981
 10
106.9850058122
 20
118.2403994601
 10
107.0114261544
 20
118.2207265828
 10
107.0383698056
 20
118.2017010965
 10
107.065814006
 20
118.1833204315
 10
107.0937359954
 20
118.1655820181
 10
107.1221130139
 20
118.1484832864
 10
107.1509223015
 20
118.1320216667
 10
107.1801410982
 20
118.1161945892
 10
107.2097466441
 20
118.1009994843
 10
107.239716179
 20
118.0864337822
 10
107.2700269432
 20
118.0724949131
 10
107.3006561764
 20
118.0591803074
 10
107.3315811189
 20
118.0464873951
 10
107.3627790105
 20
118.0344136067
 10
107.3942270913
 20
118.0229563723
 10
107.4259026014
 20
118.0121131221
 10
107.4577827806
 20
118.0018812866
 10
107.489844869
 20
117.9922582959
 10
107.5220661067
 20
117.9832415802
 10
107.5544237337
 20
117.9748285698
 10
107.5868949898
 20
117.967016695
 10
107.6194571153
 20
117.9598033861
 10
107.65208735
 20
117.9531860732
 10
107.6847629341
 20
117.9471621866
 10
107.7174611074
 20
117.9417291566
 10
107.7528930841
 20
117.9365073508
 10
107.7883300326
 20
117.9319774607
 10
107.823777125
 20
117.9281408195
 10
107.8592395336
 20
117.9249987602
 10
107.8947224303
 20
117.9225526159
 10
107.9302309875
 20
117.9208037195
 10
107.9657703772
 20
117.9197534041
 10
108.0013457715
 20
117.9194030027
  0
LWPOLYLINE
  5
62F
100
AcDbEntity
  8
INCISIONI
100
AcDbPolyline
 62
253
  6
CONTINUOUS
 90
38
 70
0
 10
107.1947434169
 20
118.7121892138
 10
107.181917167
 20
118.7242881465
 10
107.1694111182
 20
118.7367771543
 10
107.1572270285
 20
118.749642774
 10
107.1453666558
 20
118.7628715422
 10
107.1338317582
 20
118.7764499956
 10
107.1226240938
 20
118.7903646709
 10
107.1117454206
 20
118.8046021048
 10
107.1011974965
 20
118.819148834
 10
107.0909820798
 20
118.8339913951
 10
107.0811009283
 20
118.8491163248
 10
107.0715558001
 20
118.8645101599
 10
107.0623484533
 20
118.8801594369
 10
107.0534806458
 20
118.8960506927
 10
107.0449541358
 20
118.9121704638
 10
107.0367706812
 20
118.928505287
 10
107.0289320402
 20
118.9450416989
 10
107.0214399706
 20
118.9617662362
 10
107.0142962306
 20
118.9786654356
 10
107.0075025782
 20
118.9957258339
 10
107.0010607714
 20
119.0129339676
 10
106.9949725682
 20
119.0302763734
 10
106.9892397267
 20
119.0477395881
 10
106.983864005
 20
119.0653101484
 10
106.978847161
 20
119.0829745908
 10
106.9741909528
 20
119.1007194522
 10
106.9698971384
 20
119.1185312691
 10
106.9659674759
 20
119.1363965783
 10
106.9624037233
 20
119.1543019164
 10
106.9592076386
 20
119.1722338202
 10
106.9563809798
 20
119.1901788263
 10
106.953925505
 20
119.2081234713
 10
106.9518429723
 20
119.2260542921
 10
106.9501351396
 20
119.2439578252
 10
106.948803765
 20
119.2618206074
 10
106.9478506066
 20
119.2796291754
 10
106.9472774223
 20
119.2973700657
 10
106.9470859702
 20
119.3150298152
  0
LINE
  5
630
100
AcDbEntity
  8
INCISIONI
100
AcDbLine
 62
253
  6
CONTINUOUS
 10
111.0336087308
 20
117.511479102
 11
110.7278944633
 21
117.8538790816
  0
LINE
  5
631
100
AcDbEntity
  8
0
100
AcDbLine
 62
7
  6
CONTINUOUS
 10
117.7239256923
 20
124.7217058587
 11
117.7178944633
 21
124.8027505572
  0
LINE
  5
632
100
AcDbEntity
  8
ASSI
100
AcDbLine
 62
7
  6
CONTINUOUS
 10
117.7239256923
 20
124.7217058587
 11
117.7178944633
 21
124.8027505572
  0
LINE
  5
633
100
AcDbEntity
  8
INCISIONI
100
AcDbLine
 62
253
  6
CONTINUOUS
 10
122.6678944633
 20
103.3784117538
 11
123.9678944633
 21
103.7944129439
  0
LINE
  5
634
100
AcDbEntity
  8
INCISIONI
100
AcDbLine
 62
253
  6
CONTINUOUS
 10
109.4507431477
 20
114.2774170816
 11
106.5525321726
 21
114.2774170816
  0
LINE
  5
635
100
AcDbEntity
  8
INCISIONI
100
AcDbLine
 62
253
  6
CONTINUOUS
 10
106.5525321726
 20
114.7951860816
 11
109.4507431477
 21
114.7951860816
  0
LINE
  5
636
100
AcDbEntity
  8
INCISIONI
100
AcDbLine
 62
253
  6
CONTINUOUS
 10
109.4507431477
 20
115.4109170816
 11
106.5525321726
 21
115.4109170816
  0
LINE
  5
637
100
AcDbEntity
  8
INCISIONI
100
AcDbLine
 62
253
  6
CONTINUOUS
 10
106.5525321726
 20
115.9286640816
 11
107.8161571722
 21
115.9286540816
  0
LINE
  5
638
100
AcDbEntity
  8
INCISIONI
100
AcDbLine
 62
253
  6
CONTINUOUS
 10
108.4463161758
 20
115.9286540816
 11
109.4507431477
 21
115.9286640816
  0
LINE
  5
639
100
AcDbEntity
  8
INCISIONI
100
AcDbLine
 62
253
  6
CONTINUOUS
 10
112.8678944633
 20
115.4570790816
 11
111.3393229983
 21
116.6554790816
  0
LWPOLYLINE
  5
63A
100
AcDbEntity
  8
INCISIONI
100
AcDbPolyline
 62
253
  6
CONTINUOUS
 90
35
 70
0
 10
109.0688603345
 20
120.3455076388
 10
109.0435541261
 20
120.3664816164
 10
109.0176792042
 20
120.3868031661
 10
108.9912583231
 20
120.4064748534
 10
108.9643142368
 20
120.4254992434
 10
108.9368696995
 20
120.4438789016
 10
108.9089474653
 20
120.4616163931
 10
108.8805702885
 20
120.4787142834
 10
108.8517609232
 20
120.4951751378
 10
108.8225421235
 20
120.5110015214
 10
108.7929366436
 20
120.5261959998
 10
108.7629672376
 20
120.5407611381
 10
108.7326566597
 20
120.5546995017
 10
108.7020276642
 20
120.5680136559
 10
108.671103005
 20
120.580706166
 10
108.6399054365
 20
120.5927795972
 10
108.6084577126
 20
120.604236515
 10
108.5767825877
 20
120.6150794847
 10
108.5449028158
 20
120.6253110715
 10
108.5128411512
 20
120.6349338407
 10
108.4806203479
 20
120.6439503577
 10
108.4482631602
 20
120.6523631877
 10
108.4157923422
 20
120.6601748962
 10
108.383230648
 20
120.6673880483
 10
108.3506008318
 20
120.6740052094
 10
108.3179256478
 20
120.6800289448
 10
108.2852278501
 20
120.6854618199
 10
108.2497962465
 20
120.690683451
 10
108.2143596426
 20
120.6952131643
 10
108.1789128736
 20
120.6990496346
 10
108.1434507742
 20
120.7021915366
 10
108.1079681794
 20
120.7046375451
 10
108.072459924
 20
120.7063863348
 10
108.0369208431
 20
120.7074365805
 10
108.0013457715
 20
120.7077869569
  0
LWPOLYLINE
  5
63B
100
AcDbEntity
  8
INCISIONI
100
AcDbPolyline
 62
253
  6
CONTINUOUS
 90
38
 70
0
 10
108.8084952942
 20
119.915005861
 10
108.8212710799
 20
119.902956441
 10
108.8337321938
 20
119.8905203102
 10
108.8458766443
 20
119.8777107764
 10
108.8577024397
 20
119.8645411476
 10
108.8692075884
 20
119.8510247314
 10
108.8803900986
 20
119.8371748358
 10
108.8912479787
 20
119.8230047686
 10
108.9017792371
 20
119.8085278377
 10
108.9119818821
 20
119.7937573508
 10
108.921853922
 20
119.7787066158
 10
108.9313933652
 20
119.7633889405
 10
108.9405982199
 20
119.7478176328
 10
108.9494664946
 20
119.7320060005
 10
108.9579961976
 20
119.7159673514
 10
108.9661853372
 20
119.6997149934
 10
108.9740319217
 20
119.6832622343
 10
108.9815339595
 20
119.666622382
 10
108.9886894589
 20
119.6498087442
 10
108.9954964283
 20
119.6328346288
 10
109.0019528759
 20
119.6157133437
 10
109.0080568102
 20
119.5984581966
 10
109.0138062394
 20
119.5810824955
 10
109.0191991719
 20
119.5635995481
 10
109.024233616
 20
119.5460226623
 10
109.0289075801
 20
119.5283651459
 10
109.0332190725
 20
119.5106403067
 10
109.0371661016
 20
119.4928614526
 10
109.0407466756
 20
119.4750418915
 10
109.0439588029
 20
119.4571949311
 10
109.0468004919
 20
119.4393338793
 10
109.0492697508
 20
119.4214720439
 10
109.0513645881
 20
119.4036227328
 10
109.053083012
 20
119.3857992537
 10
109.0544230309
 20
119.3680149146
 10
109.0553826531
 20
119.3502830233
 10
109.055959887
 20
119.3326168875
 10
109.0561527409
 20
119.3150298152
  0
LINE
  5
63C
100
AcDbEntity
  8
INCISIONI
100
AcDbLine
 62
253
  6
CONTINUOUS
 10
112.562180164
 20
118.3674791224
 11
112.8678944633
 21
118.025079
  0
LINE
  5
63D
100
AcDbEntity
  8
0
100
AcDbLine
 62
253
  6
CONTINUOUS
 10
120.4438964907
 20
126.1776982014
 11
120.4400681762
 21
127.0550860381
  0
LINE
  5
63E
100
AcDbEntity
  8
ASSI
100
AcDbLine
 62
253
  6
CONTINUOUS
 10
120.4438964907
 20
126.1776982014
 11
120.4400681762
 21
127.0550860381
  0
LINE
  5
63F
100
AcDbEntity
  8
0
100
AcDbLine
 62
253
  6
CONTINUOUS
 10
120.4438964907
 20
125.6819932097
 11
120.4438964907
 21
126.1776982014
  0
LINE
  5
640
100
AcDbEntity
  8
ASSI
100
AcDbLine
 62
253
  6
CONTINUOUS
 10
120.4438964907
 20
125.6819932097
 11
120.4438964907
 21
126.1776982014
  0
LINE
  5
641
100
AcDbEntity
  8
0
100
AcDbLine
 62
7
  6
CONTINUOUS
 10
120.5720544003
 20
124.1934238832
 11
120.5720544003
 21
123.9824005217
  0
LINE
  5
642
100
AcDbEntity
  8
0
100
AcDbLine
 62
7
  6
CONTINUOUS
 10
120.7178944633
 20
123.9812743017
 11
120.7178944633
 21
124.9384238832
  0
LINE
  5
643
100
AcDbEntity
  8
DRAFT
100
AcDbLine
 62
253
  6
CONTINUOUS
 10
121.4178944633
 20
125.6813358054
 11
121.4178944633
 21
125.3864591222
  0
LINE
  5
644
100
AcDbEntity
  8
ASSI
100
AcDbLine
 62
253
  6
CONTINUOUS
 10
121.4178944633
 20
125.6813358054
 11
121.4178944633
 21
125.3864591222
  0
LINE
  5
645
100
AcDbEntity
  8
DRAFT
100
AcDbLine
 62
7
  6
CONTINUOUS
 10
121.4178944633
 20
125.3864591222
 11
121.4178944633
 21
125.2483231035
  0
LINE
  5
646
100
AcDbEntity
  8
ASSI
100
AcDbLine
 62
7
  6
CONTINUOUS
 10
121.4178944633
 20
125.3864591222
 11
121.4178944633
 21
125.2483231035
  0
LINE
  5
647
100
AcDbEntity
  8
0
100
AcDbLine
 62
7
  6
CONTINUOUS
 10
121.4178944633
 20
123.9758686948
 11
121.4178944633
 21
124.9384238832
  0
LINE
  5
648
100
AcDbEntity
  8
0
100
AcDbLine
 62
7
  6
CONTINUOUS
 10
121.5637345264
 20
124.1934238832
 11
121.5637345264
 21
123.9747424747
  0
LINE
  5
649
100
AcDbEntity
  8
INCISIONI
100
AcDbLine
 62
253
  6
CONTINUOUS
 10
122.6678944633
 20
105.1464119521
 11
123.2250372873
 21
105.5624117538
  0
LINE
  5
64A
100
AcDbEntity
  8
INCISIONI
100
AcDbLine
 62
253
  6
CONTINUOUS
 10
108.4402260313
 20
96.9644990816
 11
106.5521322944
 21
96.4229310816
  0
LINE
  5
64B
100
AcDbEntity
  8
INCISIONI
100
AcDbLine
 62
253
  6
CONTINUOUS
 10
107.5395204577
 20
96.1261160816
 11
109.4513799537
 21
96.6744920816
  0
LWPOLYLINE
  5
64C
100
AcDbEntity
  8
INCISIONI
100
AcDbPolyline
 62
253
  6
CONTINUOUS
 90
34
 70
0
 10
108.0013457715
 20
117.9194030027
 10
108.0370368887
 20
117.919751045
 10
108.0727929433
 20
117.9207957958
 10
108.1085926001
 20
117.9225381913
 10
108.1444145239
 20
117.9249791674
 10
108.1802373796
 20
117.9281196601
 10
108.216039832
 20
117.9319606054
 10
108.2518005461
 20
117.9365029395
 10
108.2874981867
 20
117.9417475982
 10
108.3231114186
 20
117.9476955177
 10
108.3586189066
 20
117.9543476339
 10
108.3939993157
 20
117.9617048829
 10
108.4292313107
 20
117.9697682006
 10
108.4642935565
 20
117.9785385231
 10
108.4991647178
 20
117.9880167865
 10
108.5338234596
 20
117.9982039267
 10
108.5682484467
 20
118.0091008798
 10
108.602418344
 20
118.0207085817
 10
108.6363118163
 20
118.0330279685
 10
108.6699075285
 20
118.0460599763
 10
108.7031841454
 20
118.059805541
 10
108.7361203319
 20
118.0742655987
 10
108.7686947528
 20
118.0894410853
 10
108.800886073
 20
118.1053329369
 10
108.8326729574
 20
118.1219420896
 10
108.8605618281
 20
118.1373055178
 10
108.888091911
 20
118.1532450006
 10
108.9152406335
 20
118.1697694279
 10
108.941985423
 20
118.1868876897
 10
108.9683037069
 20
118.2046086761
 10
108.9941729126
 20
118.2229412769
 10
109.0195704675
 20
118.2418943823
 10
109.044473799
 20
118.2614768822
 10
109.0688603345
 20
118.2816976666
  0
LINE
  5
64D
100
AcDbEntity
  8
INCISIONI
100
AcDbLine
 62
253
  6
CONTINUOUS
 10
111.3393229983
 20
116.6554790816
 11
111.0336087308
 21
116.6554790816
  0
LINE
  5
64E
100
AcDbEntity
  8
INCISIONI
100
AcDbLine
 62
253
  6
CONTINUOUS
 10
112.2564658646
 20
117.3402790408
 11
111.3393229983
 21
117.3402790408
  0
LWPOLYLINE
  5
64F
100
AcDbEntity
  8
0
100
AcDbPolyline
 62
253
  6
CONTINUOUS
 90
4
 70
0
 10
93.5493361485
 20
117.0475790816
 10
93.060012641
 20
117.0570294398
 10
93.0586177663
 20
117.057063088
 10
93.05815261
 20
117.0570790816
  0
LINE
  5
650
100
AcDbEntity
  8
INCISIONI
100
AcDbLine
 62
253
  6
CONTINUOUS
 10
111.3393229983
 20
117.3402790408
 11
111.0336087308
 21
117.511479102
  0
LINE
  5
651
100
AcDbEntity
  8
INCISIONI
100
AcDbLine
 62
253
  6
CONTINUOUS
 10
112.2564658646
 20
118.5386790408
 11
112.562180164
 21
118.3674791224
  0
LINE
  5
652
100
AcDbEntity
  8
INCISIONI
100
AcDbLine
 62
253
  6
CONTINUOUS
 10
110.7278944633
 20
119.5658791224
 11
111.1864659284
 21
119.223479
  0
LINE
  5
653
100
AcDbEntity
  8
INCISIONI
100
AcDbLine
 62
253
  6
CONTINUOUS
 10
112.8678944633
 20
119.223479
 11
111.3393229983
 21
120.421879
  0
LINE
  5
654
100
AcDbEntity
  8
INCISIONI
100
AcDbLine
 62
253
  6
CONTINUOUS
 10
111.3393229983
 20
122.818679
 11
110.7278944633
 21
123.5034792449
  0
LWPOLYLINE
  5
655
100
AcDbEntity
  8
RACCORDO
100
AcDbPolyline
 62
253
  6
CONTINUOUS
 90
12
 70
0
 10
127.8444023322
 20
94.8938925435
 10
127.9597810851
 20
94.6501406026
 10
128.0124614425
 20
94.5333182842
 10
128.0601498142
 20
94.4208116452
 10
128.1034382899
 20
94.3125554572
 10
128.1409214883
 20
94.2101453949
 10
128.1721069251
 20
94.1138894676
 10
128.1974870846
 20
94.0231462493
 10
128.2171340387
 20
93.9378898104
 10
128.2310718113
 20
93.8579634765
 10
128.2392763786
 20
93.7830984272
 10
128.2417477405
 20
93.7130693168
  0
LWPOLYLINE
  5
656
100
AcDbEntity
  8
ASSI
100
AcDbPolyline
 62
253
  6
CONTINUOUS
 90
12
 70
0
 10
127.8444023322
 20
94.8938925435
 10
127.9597810851
 20
94.6501406026
 10
128.0124614425
 20
94.5333182842
 10
128.0601498142
 20
94.4208116452
 10
128.1034382899
 20
94.3125554572
 10
128.1409214883
 20
94.2101453949
 10
128.1721069251
 20
94.1138894676
 10
128.1974870846
 20
94.0231462493
 10
128.2171340387
 20
93.9378898104
 10
128.2310718113
 20
93.8579634765
 10
128.2392763786
 20
93.7830984272
 10
128.2417477405
 20
93.7130693168
  0
LINE
  5
657
100
AcDbEntity
  8
INCISIONI
100
AcDbLine
 62
253
  6
CONTINUOUS
 10
122.6678944633
 20
94.0530791064
 11
122.6678944633
 21
94.573079032
  0
LINE
  5
658
100
AcDbEntity
  8
INCISIONI
100
AcDbLine
 62
253
  6
CONTINUOUS
 10
122.6678944633
 20
95.370412448
 11
122.6678944633
 21
95.9944124976
  0
LINE
  5
659
100
AcDbEntity
  8
INCISIONI
100
AcDbLine
 62
253
  6
CONTINUOUS
 10
122.6678944633
 20
101.7144125472
 11
122.6678944633
 21
102.5464121505
  0
LINE
  5
65A
100
AcDbEntity
  8
INCISIONI
100
AcDbLine
 62
253
  6
CONTINUOUS
 10
123.2250372873
 20
95.7864122497
 11
123.2250372873
 21
95.370412448
  0
LINE
  5
65B
100
AcDbEntity
  8
INCISIONI
100
AcDbLine
 62
253
  6
CONTINUOUS
 10
123.5964658753
 20
92.9437457524
 11
123.5964658753
 21
93.4984124728
  0
LINE
  5
65C
100
AcDbEntity
  8
INCISIONI
100
AcDbLine
 62
253
  6
CONTINUOUS
 10
123.5964658753
 20
103.1010787841
 11
123.5964658753
 21
103.6557454177
  0
LINE
  5
65D
100
AcDbEntity
  8
INCISIONI
100
AcDbLine
 62
253
  6
CONTINUOUS
 10
123.9678944633
 20
95.9944124976
 11
123.9678944633
 21
95.370412448
  0
LINE
  5
65E
100
AcDbEntity
  8
INCISIONI
100
AcDbLine
 62
253
  6
CONTINUOUS
 10
123.9678944633
 20
94.573079032
 11
123.9678944633
 21
94.0530791064
  0
LINE
  5
65F
100
AcDbEntity
  8
INCISIONI
100
AcDbLine
 62
253
  6
CONTINUOUS
 10
123.9678944633
 20
104.2104127456
 11
123.9678944633
 21
104.7304121505
  0
LINE
  5
660
100
AcDbEntity
  8
INCISIONI
100
AcDbLine
 62
253
  6
CONTINUOUS
 10
111.3393229983
 20
118.5386790408
 11
112.2564658646
 21
118.5386790408
  0
LWPOLYLINE
  5
661
100
AcDbEntity
  8
INCISIONI
100
AcDbPolyline
 62
253
  6
CONTINUOUS
 90
36
 70
0
 10
108.0016270261
 20
118.4403889291
 10
107.975690773
 20
118.4406030381
 10
107.9496941984
 20
118.4412490978
 10
107.9236529863
 20
118.4423327068
 10
107.8975828207
 20
118.4438594641
 10
107.8714993854
 20
118.4458349683
 10
107.8454183646
 20
118.4482648183
 10
107.819355442
 20
118.4511546128
 10
107.7933263017
 20
118.4545099507
 10
107.7673466275
 20
118.4583364307
 10
107.7414321035
 20
118.4626396516
 10
107.7155984136
 20
118.4674252122
 10
107.6898612418
 20
118.4726987113
 10
107.6642362719
 20
118.4784657476
 10
107.638739188
 20
118.48473192
 10
107.6133856739
 20
118.4915028272
 10
107.5881914137
 20
118.4987840681
 10
107.5631720912
 20
118.5065812414
 10
107.5383433905
 20
118.5148999458
 10
107.5137209954
 20
118.5237457803
 10
107.48932059
 20
118.5331243435
 10
107.4651578581
 20
118.5430412343
 10
107.4412484838
 20
118.5535020515
 10
107.4176081509
 20
118.5645123937
 10
107.3942525434
 20
118.5760778599
 10
107.3711973453
 20
118.5882040488
 10
107.3522441272
 20
118.5987324566
 10
107.3335295282
 20
118.6096597126
 10
107.3150730516
 20
118.6209920911
 10
107.2968942005
 20
118.6327358664
 10
107.2790124784
 20
118.6448973128
 10
107.2614473885
 20
118.6574827047
 10
107.2442184341
 20
118.6704983165
 10
107.2273451185
 20
118.6839504223
 10
107.210846945
 20
118.6978452967
 10
107.1947434169
 20
118.7121892138
  0
LINE
  5
662
100
AcDbEntity
  8
INCISIONI
100
AcDbLine
 62
253
  6
CONTINUOUS
 10
112.8678944633
 20
121.7914789184
 11
112.562180164
 21
122.1338793265
  0
LWPOLYLINE
  5
663
100
AcDbEntity
  8
RACCORDO
100
AcDbPolyline
 62
253
  6
CONTINUOUS
 90
13
 70
0
 10
127.662142055
 20
94.7873483143
 10
127.7072764119
 20
94.6527953171
 10
127.7508963109
 20
94.5198722752
 10
127.7913740461
 20
94.3914857358
 10
127.8283110308
 20
94.2680464325
 10
127.8615250361
 20
94.1491436318
 10
127.8902335086
 20
94.0364516806
 10
127.9142834215
 20
93.9306726174
 10
127.9338419674
 20
93.8311044036
 10
127.9489028605
 20
93.7373152702
 10
127.9595294364
 20
93.6491612942
 10
127.9658235898
 20
93.5667863986
 10
127.9678944633
 20
93.4901905833
  0
LWPOLYLINE
  5
664
100
AcDbEntity
  8
ASSI
100
AcDbPolyline
 62
253
  6
CONTINUOUS
 90
13
 70
0
 10
127.662142055
 20
94.7873483143
 10
127.7072764119
 20
94.6527953171
 10
127.7508963109
 20
94.5198722752
 10
127.7913740461
 20
94.3914857358
 10
127.8283110308
 20
94.2680464325
 10
127.8615250361
 20
94.1491436318
 10
127.8902335086
 20
94.0364516806
 10
127.9142834215
 20
93.9306726174
 10
127.9338419674
 20
93.8311044036
 10
127.9489028605
 20
93.7373152702
 10
127.9595294364
 20
93.6491612942
 10
127.9658235898
 20
93.5667863986
 10
127.9678944633
 20
93.4901905833
  0
LINE
  5
665
100
AcDbEntity
  8
0
100
AcDbLine
 62
7
  6
CONTINUOUS
 10
99.9678944633
 20
84.4344293508
 11
99.0928944633
 21
83.9292478653
  0
LINE
  5
666
100
AcDbEntity
  8
0
100
AcDbLine
 62
253
  6
CONTINUOUS
 10
100.2164400305
 20
84.2900917835
 11
99.2164400305
 21
83.7127415143
  0
LINE
  5
667
100
AcDbEntity
  8
INCISIONI
100
AcDbLine
 62
253
  6
CONTINUOUS
 10
122.6678944633
 20
98.4904123488
 11
123.9678944633
 21
99.2184123488
  0
LINE
  5
668
100
AcDbEntity
  8
INCISIONI
100
AcDbLine
 62
253
  6
CONTINUOUS
 10
108.5484210666
 20
92.7782400816
 11
106.5521322944
 21
92.1371080816
  0
LINE
  5
669
100
AcDbEntity
  8
INCISIONI
100
AcDbLine
 62
253
  6
CONTINUOUS
 10
106.5521322944
 20
91.5570790816
 11
109.4513869515
 21
92.4882110816
  0
LWPOLYLINE
  5
66A
100
AcDbEntity
  8
INCISIONI
100
AcDbPolyline
 62
253
  6
CONTINUOUS
 90
34
 70
0
 10
108.0013457715
 20
120.7077869569
 10
107.9656546334
 20
120.7074389676
 10
107.929898533
 20
120.7063943706
 10
107.8940988075
 20
120.7046522216
 10
107.858276794
 20
120.7022115766
 10
107.8224538298
 20
120.6990714916
 10
107.7866512519
 20
120.6952310226
 10
107.7508903975
 20
120.6906892253
 10
107.7151926039
 20
120.6854451559
 10
107.679579208
 20
120.6794978702
 10
107.6440715472
 20
120.6728464241
 10
107.6086909584
 20
120.6654898736
 10
107.573458779
 20
120.6574272747
 10
107.5383963461
 20
120.6486576832
 10
107.5035249967
 20
120.6391801551
 10
107.4688660681
 20
120.6289937463
 10
107.4344408974
 20
120.6180975129
 10
107.4002708218
 20
120.6064905106
 10
107.3663771785
 20
120.5941717955
 10
107.3327813045
 20
120.5811404235
 10
107.2995045371
 20
120.5673954505
 10
107.2665682133
 20
120.5529359324
 10
107.2339936704
 20
120.5377609253
 10
107.2018022456
 20
120.521869485
 10
107.1700152758
 20
120.5052606675
 10
107.1421263439
 20
120.4898974713
 10
107.1145962011
 20
120.4739581778
 10
107.0874474046
 20
120.4574339208
 10
107.0607025114
 20
120.4403158342
 10
107.0343840787
 20
120.4225950516
 10
107.0085146636
 20
120.404262707
 10
106.9831168232
 20
120.3853099342
 10
106.9582131146
 20
120.3657278668
 10
106.9338260949
 20
120.3455076388
  0
LINE
  5
66B
100
AcDbEntity
  8
RACCORDO
100
AcDbLine
 62
253
  6
CONTINUOUS
 10
126.9853468698
 20
121.8440159876
 11
113.9678944633
 21
121.8002794926
  0
LINE
  5
66C
100
AcDbEntity
  8
ASSI
100
AcDbLine
 62
253
  6
CONTINUOUS
 10
126.9853468698
 20
121.8440159876
 11
113.9678944633
 21
121.8002794926
  0
LINE
  5
66D
100
AcDbEntity
  8
INCISIONI
100
AcDbLine
 62
253
  6
CONTINUOUS
 10
111.3393229983
 20
120.421879
 11
111.0336087308
 21
120.421879
  0
LINE
  5
66E
100
AcDbEntity
  8
INCISIONI
100
AcDbLine
 62
253
  6
CONTINUOUS
 10
111.6450372658
 20
121.1066792449
 11
110.7278944633
 21
121.1066792449
  0
LINE
  5
66F
100
AcDbEntity
  8
INCISIONI
100
AcDbLine
 62
253
  6
CONTINUOUS
 10
109.4507431477
 20
121.2172890816
 11
106.5525321726
 21
121.2172890816
  0
LINE
  5
670
100
AcDbEntity
  8
RACCORDO
100
AcDbLine
 62
253
  6
CONTINUOUS
 10
127.9678944633
 20
121.8440159876
 11
126.9853468698
 21
121.8440159876
  0
LINE
  5
671
100
AcDbEntity
  8
ASSI
100
AcDbLine
 62
253
  6
CONTINUOUS
 10
127.9678944633
 20
121.8440159876
 11
126.9853468698
 21
121.8440159876
  0
LINE
  5
672
100
AcDbEntity
  8
INCISIONI
100
AcDbLine
 62
253
  6
CONTINUOUS
 10
112.562180164
 20
122.1338793265
 11
111.9507515971
 21
122.1338793265
  0
LINE
  5
673
100
AcDbEntity
  8
INCISIONI
100
AcDbLine
 62
253
  6
CONTINUOUS
 10
107.4261340042
 20
121.7227350816
 11
109.4507431477
 21
121.7157110816
  0
LWPOLYLINE
  5
674
100
AcDbEntity
  8
INCISIONI
100
AcDbPolyline
 62
253
  6
CONTINUOUS
 90
36
 70
0
 10
108.0016270261
 20
120.1868010305
 10
108.0275627834
 20
120.1865869219
 10
108.0535588552
 20
120.1859408645
 10
108.0795995587
 20
120.1848572603
 10
108.105669211
 20
120.1833305115
 10
108.1317521293
 20
120.1813550203
 10
108.1578326306
 20
120.178925189
 10
108.1838950322
 20
120.1760354197
 10
108.209923651
 20
120.1726801146
 10
108.2359028043
 20
120.1688536759
 10
108.2618168092
 20
120.1645505057
 10
108.2876499828
 20
120.1597650063
 10
108.3133866422
 20
120.1544915799
 10
108.3390111046
 20
120.1487246286
 10
108.3645076871
 20
120.1424585547
 10
108.3898607067
 20
120.1356877603
 10
108.4150544808
 20
120.1284066476
 10
108.4400733263
 20
120.1206096188
 10
108.4649015603
 20
120.1122910761
 10
108.4895235002
 20
120.1034454217
 10
108.5139234628
 20
120.0940670578
 10
108.5380857655
 20
120.0841503865
 10
108.5619947252
 20
120.0736898101
 10
108.5856346592
 20
120.0626797308
 10
108.6089898845
 20
120.0511145506
 10
108.6320447183
 20
120.0389886719
 10
108.6509976464
 20
120.0284605402
 10
108.6697119622
 20
120.0175335704
 10
108.6881681562
 20
120.0062014812
 10
108.7063467186
 20
119.9944579909
 10
108.72422814
 20
119.982296818
 10
108.7417929107
 20
119.969711681
 10
108.7590215211
 20
119.9566962983
 10
108.7758944615
 20
119.9432443884
 10
108.7923922224
 20
119.9293496699
 10
108.8084952942
 20
119.915005861
  0
LINE
  5
675
100
AcDbEntity
  8
0
100
AcDbLine
 62
7
  6
CONTINUOUS
 10
99.0928944633
 20
131.184910298
 11
99.9678944633
 21
130.6797288124
  0
LINE
  5
676
100
AcDbEntity
  8
0
100
AcDbLine
 62
253
  6
CONTINUOUS
 10
99.2164400305
 20
131.4014166489
 11
100.2164400305
 21
130.8240663797
  0
LWPOLYLINE
  5
677
100
AcDbEntity
  8
RACCORDO
100
AcDbPolyline
 62
253
  6
CONTINUOUS
 90
13
 70
0
 10
127.9678944633
 20
98.52396758
 10
127.9701841084
 20
98.4963787916
 10
127.9770180935
 20
98.4692111272
 10
127.9882921027
 20
98.4428792819
 10
128.0038340458
 20
98.4177851931
 10
128.023406686
 20
98.3943119043
 10
128.0467112609
 20
98.3728177185
 10
128.0733920423
 20
98.3536307294
 10
128.103041767
 20
98.337043813
 10
128.1352078531
 20
98.3233101568
 10
128.169399308
 20
98.3126393956
 10
128.2050942231
 20
98.3051944113
 10
128.2417477405
 20
98.3010888464
  0
LWPOLYLINE
  5
678
100
AcDbEntity
  8
ASSI
100
AcDbPolyline
 62
253
  6
CONTINUOUS
 90
13
 70
0
 10
127.9678944633
 20
98.52396758
 10
127.9701841084
 20
98.4963787916
 10
127.9770180935
 20
98.4692111272
 10
127.9882921027
 20
98.4428792819
 10
128.0038340458
 20
98.4177851931
 10
128.023406686
 20
98.3943119043
 10
128.0467112609
 20
98.3728177185
 10
128.0733920423
 20
98.3536307294
 10
128.103041767
 20
98.337043813
 10
128.1352078531
 20
98.3233101568
 10
128.169399308
 20
98.3126393956
 10
128.2050942231
 20
98.3051944113
 10
128.2417477405
 20
98.3010888464
  0
LINE
  5
679
100
AcDbEntity
  8
RACCORDO
100
AcDbLine
 62
253
  6
CONTINUOUS
 10
126.9751411062
 20
122.6635974219
 11
126.9737121947
 21
122.7100267356
  0
LINE
  5
67A
100
AcDbEntity
  8
ASSI
100
AcDbLine
 62
253
  6
CONTINUOUS
 10
126.9751411062
 20
122.6635974219
 11
126.9737121947
 21
122.7100267356
  0
LINE
  5
67B
100
AcDbEntity
  8
RACCORDO
100
AcDbLine
 62
253
  6
CONTINUOUS
 10
126.977836641
 20
122.5522470369
 11
126.9751411062
 21
122.6635974219
  0
LINE
  5
67C
100
AcDbEntity
  8
ASSI
100
AcDbLine
 62
253
  6
CONTINUOUS
 10
126.977836641
 20
122.5522470369
 11
126.9751411062
 21
122.6635974219
  0
LINE
  5
67D
100
AcDbEntity
  8
RACCORDO
100
AcDbLine
 62
253
  6
CONTINUOUS
 10
126.980247241
 20
122.418670996
 11
126.977836641
 21
122.5522470369
  0
LINE
  5
67E
100
AcDbEntity
  8
ASSI
100
AcDbLine
 62
253
  6
CONTINUOUS
 10
126.980247241
 20
122.418670996
 11
126.977836641
 21
122.5522470369
  0
LINE
  5
67F
100
AcDbEntity
  8
RACCORDO
100
AcDbLine
 62
253
  6
CONTINUOUS
 10
126.9831384274
 20
122.1867707805
 11
126.980247241
 21
122.418670996
  0
LINE
  5
680
100
AcDbEntity
  8
ASSI
100
AcDbLine
 62
253
  6
CONTINUOUS
 10
126.9831384274
 20
122.1867707805
 11
126.980247241
 21
122.418670996
  0
LINE
  5
681
100
AcDbEntity
  8
RACCORDO
100
AcDbLine
 62
253
  6
CONTINUOUS
 10
126.9866227649
 20
88.3072956042
 11
126.9853468698
 21
88.4661689995
  0
LINE
  5
682
100
AcDbEntity
  8
ASSI
100
AcDbLine
 62
253
  6
CONTINUOUS
 10
126.9866227649
 20
88.3072956042
 11
126.9853468698
 21
88.4661689995
  0
LINE
  5
683
100
AcDbEntity
  8
RACCORDO
100
AcDbLine
 62
253
  6
CONTINUOUS
 10
126.984986612
 20
121.9313979266
 11
126.9831384274
 21
122.1867707805
  0
LINE
  5
684
100
AcDbEntity
  8
ASSI
100
AcDbLine
 62
253
  6
CONTINUOUS
 10
126.984986612
 20
121.9313979266
 11
126.9831384274
 21
122.1867707805
  0
LINE
  5
685
100
AcDbEntity
  8
RACCORDO
100
AcDbLine
 62
253
  6
CONTINUOUS
 10
126.9853468698
 20
90.0517990824
 11
126.986623491
 21
89.5342217587
  0
LINE
  5
686
100
AcDbEntity
  8
ASSI
100
AcDbLine
 62
253
  6
CONTINUOUS
 10
126.9853468698
 20
90.0517990824
 11
126.986623491
 21
89.5342217587
  0
LINE
  5
687
100
AcDbEntity
  8
0
100
AcDbLine
 62
7
  6
CONTINUOUS
 10
126.4678944633
 20
126.9498699389
 11
126.4678944633
 21
125.6779272851
  0
LINE
  5
688
100
AcDbEntity
  8
DRAFT
100
AcDbLine
 62
7
  6
CONTINUOUS
 10
126.4678944633
 20
125.6779272851
 11
126.4678944633
 21
123.9368711022
  0
LINE
  5
689
100
AcDbEntity
  8
0
100
AcDbLine
 62
7
  6
CONTINUOUS
 10
126.4678944633
 20
123.9368711022
 11
126.4678944633
 21
123.6057961058
  0
LINE
  5
68A
100
AcDbEntity
  8
ASSI
100
AcDbLine
 62
7
  6
CONTINUOUS
 10
126.4678944633
 20
126.9498699389
 11
126.4678944633
 21
123.6057961058
  0
LINE
  5
68B
100
AcDbEntity
  8
RACCORDO
100
AcDbLine
 62
253
  6
CONTINUOUS
 10
126.9737121947
 20
123.6032475996
 11
126.9737121947
 21
122.7100267356
  0
LINE
  5
68C
100
AcDbEntity
  8
ASSI
100
AcDbLine
 62
253
  6
CONTINUOUS
 10
126.9737121947
 20
123.6032475996
 11
126.9737121947
 21
122.7100267356
  0
LINE
  5
68D
100
AcDbEntity
  8
RACCORDO
100
AcDbLine
 62
253
  6
CONTINUOUS
 10
126.9853468698
 20
88.6378009116
 11
126.9853468698
 21
88.4661689995
  0
LINE
  5
68E
100
AcDbEntity
  8
ASSI
100
AcDbLine
 62
253
  6
CONTINUOUS
 10
126.9853468698
 20
88.6378009116
 11
126.9853468698
 21
88.4661689995
  0
LINE
  5
68F
100
AcDbEntity
  8
RACCORDO
100
AcDbLine
 62
253
  6
CONTINUOUS
 10
126.9853468698
 20
90.0517990824
 11
126.984986612
 21
121.9313979266
  0
LINE
  5
690
100
AcDbEntity
  8
ASSI
100
AcDbLine
 62
253
  6
CONTINUOUS
 10
126.9853468698
 20
90.0517990824
 11
126.984986612
 21
121.9313979266
  0
LINE
  5
691
100
AcDbEntity
  8
RACCORDO
100
AcDbLine
 62
7
  6
CONTINUOUS
 10
127.9678944633
 20
125.9409900784
 11
127.9678944633
 21
123.5752767877
  0
LINE
  5
692
100
AcDbEntity
  8
ASSI
100
AcDbLine
 62
7
  6
CONTINUOUS
 10
127.9678944633
 20
125.9409900784
 11
127.9678944633
 21
123.5752767877
  0
LINE
  5
693
100
AcDbEntity
  8
RACCORDO
100
AcDbLine
 62
7
  6
CONTINUOUS
 10
127.9678944633
 20
122.7372368517
 11
127.9678944633
 21
98.52396758
  0
LINE
  5
694
100
AcDbEntity
  8
ASSI
100
AcDbLine
 62
7
  6
CONTINUOUS
 10
127.9678944633
 20
122.7372368517
 11
127.9678944633
 21
98.52396758
  0
LINE
  5
695
100
AcDbEntity
  8
RACCORDO
100
AcDbLine
 62
7
  6
CONTINUOUS
 10
127.9678944633
 20
93.4901905833
 11
127.9678944633
 21
89.1731680849
  0
LINE
  5
696
100
AcDbEntity
  8
ASSI
100
AcDbLine
 62
7
  6
CONTINUOUS
 10
127.9678944633
 20
93.4901905833
 11
127.9678944633
 21
89.1731680849
  0
LINE
  5
697
100
AcDbEntity
  8
RACCORDO
100
AcDbLine
 62
253
  6
CONTINUOUS
 10
126.986623491
 20
89.5342217587
 11
126.9866235703
 21
89.0519783858
  0
LINE
  5
698
100
AcDbEntity
  8
ASSI
100
AcDbLine
 62
253
  6
CONTINUOUS
 10
126.986623491
 20
89.5342217587
 11
126.9866235703
 21
89.0519783858
  0
LWPOLYLINE
  5
699
100
AcDbEntity
  8
RACCORDO
100
AcDbPolyline
 62
253
  6
CONTINUOUS
 90
3
 70
0
 10
126.9866235703
 20
89.0519783858
 10
126.9857802476
 20
88.733323351
 10
126.9853468698
 20
88.6378009116
  0
LWPOLYLINE
  5
69A
100
AcDbEntity
  8
ASSI
100
AcDbPolyline
 62
253
  6
CONTINUOUS
 90
3
 70
0
 10
126.9866235703
 20
89.0519783858
 10
126.9857802476
 20
88.733323351
 10
126.9853468698
 20
88.6378009116
  0
LWPOLYLINE
  5
69B
100
AcDbEntity
  8
RACCORDO
100
AcDbPolyline
 62
253
  6
CONTINUOUS
 90
23
 70
0
 10
127.9678944633
 20
98.52396758
 10
127.9674531769
 20
98.489038349
 10
127.9661194873
 20
98.4529130421
 10
127.9638792006
 20
98.4155916593
 10
127.9607286174
 20
98.3772162638
 10
127.9566503032
 20
98.3376447924
 10
127.9515886704
 20
98.2964510559
 10
127.9455078478
 20
98.2536496854
 10
127.9383776538
 20
98.2092260499
 10
127.9301114874
 20
98.1627100661
 10
127.9206558866
 20
98.1141147509
 10
127.9099660501
 20
98.0634270875
 10
127.8979358245
 20
98.0101379425
 10
127.8844973856
 20
97.9542572262
 10
127.8695973361
 20
97.8957750284
 10
127.8531277274
 20
97.8341524844
 10
127.835010346
 20
97.7693963715
 10
127.8151940971
 20
97.7014999125
 10
127.7936024673
 20
97.6299039109
 10
127.7701397794
 20
97.5545783732
 10
127.7447873962
 20
97.4755532929
 10
127.7176043597
 20
97.3923594532
 10
127.688405907
 20
97.3047341031
  0
LWPOLYLINE
  5
69C
100
AcDbEntity
  8
ASSI
100
AcDbPolyline
 62
253
  6
CONTINUOUS
 90
23
 70
0
 10
127.9678944633
 20
98.52396758
 10
127.9674531769
 20
98.489038349
 10
127.9661194873
 20
98.4529130421
 10
127.9638792006
 20
98.4155916593
 10
127.9607286174
 20
98.3772162638
 10
127.9566503032
 20
98.3376447924
 10
127.9515886704
 20
98.2964510559
 10
127.9455078478
 20
98.2536496854
 10
127.9383776538
 20
98.2092260499
 10
127.9301114874
 20
98.1627100661
 10
127.9206558866
 20
98.1141147509
 10
127.9099660501
 20
98.0634270875
 10
127.8979358245
 20
98.0101379425
 10
127.8844973856
 20
97.9542572262
 10
127.8695973361
 20
97.8957750284
 10
127.8531277274
 20
97.8341524844
 10
127.835010346
 20
97.7693963715
 10
127.8151940971
 20
97.7014999125
 10
127.7936024673
 20
97.6299039109
 10
127.7701397794
 20
97.5545783732
 10
127.7447873962
 20
97.4755532929
 10
127.7176043597
 20
97.3923594532
 10
127.688405907
 20
97.3047341031
  0
LINE
  5
69D
100
AcDbEntity
  8
RACCORDO
100
AcDbLine
 62
253
  6
CONTINUOUS
 10
126.9737121947
 20
122.7100267356
 11
113.9678944633
 21
122.6663293311
  0
LINE
  5
69E
100
AcDbEntity
  8
ASSI
100
AcDbLine
 62
253
  6
CONTINUOUS
 10
126.9737121947
 20
122.7100267356
 11
113.9678944633
 21
122.6663293311
  0
LINE
  5
69F
100
AcDbEntity
  8
INCISIONI
100
AcDbLine
 62
253
  6
CONTINUOUS
 10
108.5994825092
 20
123.0600780816
 11
106.5525321726
 21
123.0600880816
  0
LINE
  5
6A0
100
AcDbEntity
  8
INCISIONI
100
AcDbLine
 62
253
  6
CONTINUOUS
 10
110.7278944633
 20
123.5034792449
 11
112.8678944633
 21
123.5034792449
  0
LINE
  5
6A1
100
AcDbEntity
  8
INCISIONI
100
AcDbLine
 62
253
  6
CONTINUOUS
 10
106.5525321726
 20
123.5585160816
 11
109.4507431477
 21
123.5585160816
  0
LINE
  5
6A2
100
AcDbEntity
  8
RACCORDO
100
AcDbLine
 62
7
  6
CONTINUOUS
 10
123.4184251416
 20
124.1934238832
 11
121.5637345264
 21
124.1934238832
  0
LINE
  5
6A3
100
AcDbEntity
  8
RACCORDO
100
AcDbLine
 62
7
  6
CONTINUOUS
 10
120.5720544003
 20
124.1934238832
 11
118.8764127294
 21
124.1934238832
  0
LINE
  5
6A4
100
AcDbEntity
  8
RACCORDO
100
AcDbLine
 62
7
  6
CONTINUOUS
 10
126.9737121947
 20
123.6032475996
 11
126.4678944633
 21
123.6057961058
  0
LINE
  5
6A5
100
AcDbEntity
  8
ASSI
100
AcDbLine
 62
7
  6
CONTINUOUS
 10
126.9737121947
 20
123.6032475996
 11
126.4678944633
 21
123.6057961058
  0
LINE
  5
6A6
100
AcDbEntity
  8
0
100
AcDbLine
 62
7
  6
CONTINUOUS
 10
126.4678944633
 20
123.9368711022
 11
120.439047717
 21
123.9834276386
  0
LINE
  5
6A7
100
AcDbEntity
  8
ASSI
100
AcDbLine
 62
7
  6
CONTINUOUS
 10
126.4678944633
 20
123.9368711022
 11
120.439047717
 21
123.9834276386
  0
LINE
  5
6A8
100
AcDbEntity
  8
DRAFT
100
AcDbLine
 62
7
  6
CONTINUOUS
 10
127.9678944633
 20
120.8070790816
 11
129.6940411706
 21
120.6560608132
  0
LINE
  5
6A9
100
AcDbEntity
  8
ASSI
100
AcDbLine
 62
7
  6
CONTINUOUS
 10
127.9678944633
 20
120.8070790816
 11
129.6940411706
 21
120.6560608132
  0
LINE
  5
6AA
100
AcDbEntity
  8
RACCORDO
100
AcDbLine
 62
253
  6
CONTINUOUS
 10
127.9678944633
 20
121.0608998889
 11
128.7260788146
 21
120.9891206917
  0
LINE
  5
6AB
100
AcDbEntity
  8
ASSI
100
AcDbLine
 62
253
  6
CONTINUOUS
 10
127.9678944633
 20
121.0608998889
 11
128.7260788146
 21
120.9891206917
  0
LWPOLYLINE
  5
6AC
100
AcDbEntity
  8
RACCORDO
100
AcDbPolyline
 62
253
  6
CONTINUOUS
 90
3
 70
0
 10
128.7260788146
 20
120.9891206917
 10
129.3731676585
 20
120.9270467161
 10
129.6940412588
 20
120.8960163923
  0
LWPOLYLINE
  5
6AD
100
AcDbEntity
  8
ASSI
100
AcDbPolyline
 62
253
  6
CONTINUOUS
 90
3
 70
0
 10
128.7260788146
 20
120.9891206917
 10
129.3731676585
 20
120.9270467161
 10
129.6940412588
 20
120.8960163923
  0
LINE
  5
6AE
100
AcDbEntity
  8
0
100
AcDbLine
 62
7
  6
CONTINUOUS
 10
101.4678944633
 20
126.0570790816
 11
103.9678944633
 21
125.6162616299
  0
LWPOLYLINE
  5
6AF
100
AcDbEntity
  8
RACCORDO
100
AcDbPolyline
 62
253
  6
CONTINUOUS
 90
19
 70
0
 10
127.9678944633
 20
121.8440159876
 10
127.9641172789
 20
121.9192162288
 10
127.9528142599
 20
121.9938483797
 10
127.9340707936
 20
122.0673486413
 10
127.9080284748
 20
122.1391617658
 10
127.874884037
 20
122.2087452502
 10
127.8348878654
 20
122.2755734352
 10
127.788342106
 20
122.3391414761
 10
127.7355983824
 20
122.3989691564
 10
127.6770551403
 20
122.4546045158
 10
127.6131546368
 20
122.5056272643
 10
127.5443796
 20
122.5516519572
 10
127.4712495819
 20
122.5923309069
 10
127.3943170336
 20
122.6273568098
 10
127.3141631319
 20
122.6564650672
 10
127.231393389
 20
122.6794357846
 10
127.146633078
 20
122.6960954327
 10
127.0605225095
 20
122.7063181585
 10
126.9737121947
 20
122.7100267356
  0
LWPOLYLINE
  5
6B0
100
AcDbEntity
  8
ASSI
100
AcDbPolyline
 62
253
  6
CONTINUOUS
 90
19
 70
0
 10
127.9678944633
 20
121.8440159876
 10
127.9641172789
 20
121.9192162288
 10
127.9528142599
 20
121.9938483797
 10
127.9340707936
 20
122.0673486413
 10
127.9080284748
 20
122.1391617658
 10
127.874884037
 20
122.2087452502
 10
127.8348878654
 20
122.2755734352
 10
127.788342106
 20
122.3391414761
 10
127.7355983824
 20
122.3989691564
 10
127.6770551403
 20
122.4546045158
 10
127.6131546368
 20
122.5056272643
 10
127.5443796
 20
122.5516519572
 10
127.4712495819
 20
122.5923309069
 10
127.3943170336
 20
122.6273568098
 10
127.3141631319
 20
122.6564650672
 10
127.231393389
 20
122.6794357846
 10
127.146633078
 20
122.6960954327
 10
127.0605225095
 20
122.7063181585
 10
126.9737121947
 20
122.7100267356
  0
LWPOLYLINE
  5
6B1
100
AcDbEntity
  8
RACCORDO
100
AcDbPolyline
 62
7
  6
CONTINUOUS
 90
25
 70
0
 10
127.9678944633
 20
119.5752767877
 10
127.9684434101
 20
119.5579399303
 10
127.9700261008
 20
119.5407740714
 10
127.9726425354
 20
119.5237792111
 10
127.9763021465
 20
119.5069122421
 10
127.9809955015
 20
119.4902162716
 10
127.9866943025
 20
119.4738206218
 10
127.9934004883
 20
119.4577188073
 10
128.0011121201
 20
119.4419173135
 10
128.0097950843
 20
119.4265649188
 10
128.0194505385
 20
119.4116590643
 10
128.030077325
 20
119.397202309
 10
128.0416378573
 20
119.3833511077
 10
128.0541521465
 20
119.3700899329
 10
128.0676001813
 20
119.3574343123
 10
128.081884342
 20
119.3455872838
 10
128.0970186317
 20
119.3345520724
 10
128.1129890473
 20
119.3243254531
 10
128.1296559588
 20
119.3151007889
 10
128.14705641
 20
119.3068822127
 10
128.1651533572
 20
119.2996655917
 10
128.1836960399
 20
119.2936318905
 10
128.2026008712
 20
119.2888414307
 10
128.2219514381
 20
119.2852338906
 10
128.2417477405
 20
119.2828092705
  0
LWPOLYLINE
  5
6B2
100
AcDbEntity
  8
ASSI
100
AcDbPolyline
 62
7
  6
CONTINUOUS
 90
25
 70
0
 10
127.9678944633
 20
119.5752767877
 10
127.9684434101
 20
119.5579399303
 10
127.9700261008
 20
119.5407740714
 10
127.9726425354
 20
119.5237792111
 10
127.9763021465
 20
119.5069122421
 10
127.9809955015
 20
119.4902162716
 10
127.9866943025
 20
119.4738206218
 10
127.9934004883
 20
119.4577188073
 10
128.0011121201
 20
119.4419173135
 10
128.0097950843
 20
119.4265649188
 10
128.0194505385
 20
119.4116590643
 10
128.030077325
 20
119.397202309
 10
128.0416378573
 20
119.3833511077
 10
128.0541521465
 20
119.3700899329
 10
128.0676001813
 20
119.3574343123
 10
128.081884342
 20
119.3455872838
 10
128.0970186317
 20
119.3345520724
 10
128.1129890473
 20
119.3243254531
 10
128.1296559588
 20
119.3151007889
 10
128.14705641
 20
119.3068822127
 10
128.1651533572
 20
119.2996655917
 10
128.1836960399
 20
119.2936318905
 10
128.2026008712
 20
119.2888414307
 10
128.2219514381
 20
119.2852338906
 10
128.2417477405
 20
119.2828092705
  0
LWPOLYLINE
  5
6B3
100
AcDbEntity
  8
RACCORDO
100
AcDbPolyline
 62
253
  6
CONTINUOUS
 90
3
 70
0
 10
129.7028570174
 20
120.7086074507
 10
129.7043060406
 20
120.6643192568
 10
129.7045665416
 20
120.6544799494
  0
LWPOLYLINE
  5
6B4
100
AcDbEntity
  8
ASSI
100
AcDbPolyline
 62
253
  6
CONTINUOUS
 90
3
 70
0
 10
129.7028570174
 20
120.7086074507
 10
129.7043060406
 20
120.6643192568
 10
129.7045665416
 20
120.6544799494
  0
LINE
  5
6B5
100
AcDbEntity
  8
RACCORDO
100
AcDbLine
 62
253
  6
CONTINUOUS
 10
128.2417477405
 20
93.7130693168
 11
128.2417478721
 21
92.9310386545
  0
LINE
  5
6B6
100
AcDbEntity
  8
ASSI
100
AcDbLine
 62
253
  6
CONTINUOUS
 10
128.2417477405
 20
93.7130693168
 11
128.2417478721
 21
92.9310386545
  0
LINE
  5
6B7
100
AcDbEntity
  8
RACCORDO
100
AcDbLine
 62
253
  6
CONTINUOUS
 10
128.2417477405
 20
119.2828092705
 11
128.2417477405
 21
114.6310381393
  0
LINE
  5
6B8
100
AcDbEntity
  8
ASSI
100
AcDbLine
 62
253
  6
CONTINUOUS
 10
128.2417477405
 20
119.2828092705
 11
128.2417477405
 21
114.6310381393
  0
LINE
  5
6B9
100
AcDbEntity
  8
RACCORDO
100
AcDbLine
 62
253
  6
CONTINUOUS
 10
128.2417478239
 20
99.083119655
 11
128.2417477405
 21
98.3010888465
  0
LINE
  5
6BA
100
AcDbEntity
  8
ASSI
100
AcDbLine
 62
253
  6
CONTINUOUS
 10
128.2417478239
 20
99.083119655
 11
128.2417477405
 21
98.3010888465
  0
LINE
  5
6BB
100
AcDbEntity
  8
RACCORDO
100
AcDbLine
 62
253
  6
CONTINUOUS
 10
129.6940414468
 20
123.1560607889
 11
129.6940412588
 21
120.8960163923
  0
LINE
  5
6BC
100
AcDbEntity
  8
ASSI
100
AcDbLine
 62
253
  6
CONTINUOUS
 10
129.6940414468
 20
123.1560607889
 11
129.6940412588
 21
120.8960163923
  0
LINE
  5
6BD
100
AcDbEntity
  8
RACCORDO
100
AcDbLine
 62
253
  6
CONTINUOUS
 10
129.6940413907
 20
98.956060793
 11
129.6940416306
 21
93.0580973913
  0
LINE
  5
6BE
100
AcDbEntity
  8
ASSI
100
AcDbLine
 62
253
  6
CONTINUOUS
 10
129.6940413907
 20
98.956060793
 11
129.6940416306
 21
93.0580973913
  0
LINE
  5
6BF
100
AcDbEntity
  8
RACCORDO
100
AcDbLine
 62
253
  6
CONTINUOUS
 10
129.6940411201
 20
120.6560608171
 11
129.6940414468
 21
114.7580973744
  0
LINE
  5
6C0
100
AcDbEntity
  8
ASSI
100
AcDbLine
 62
253
  6
CONTINUOUS
 10
129.6940411201
 20
120.6560608171
 11
129.6940414468
 21
114.7580973744
  0
LINE
  5
6C1
100
AcDbEntity
  8
RACCORDO
100
AcDbLine
 62
7
  6
CONTINUOUS
 10
129.9678944633
 20
122.8571537027
 11
129.9678944633
 21
115.0570044606
  0
LINE
  5
6C2
100
AcDbEntity
  8
ASSI
100
AcDbLine
 62
7
  6
CONTINUOUS
 10
129.9678944633
 20
122.8571537027
 11
129.9678944633
 21
115.0570044606
  0
LINE
  5
6C3
100
AcDbEntity
  8
RACCORDO
100
AcDbLine
 62
7
  6
CONTINUOUS
 10
129.9678944633
 20
98.657106356
 11
129.9678944633
 21
93.3570530197
  0
LINE
  5
6C4
100
AcDbEntity
  8
ASSI
100
AcDbLine
 62
7
  6
CONTINUOUS
 10
129.9678944633
 20
98.657106356
 11
129.9678944633
 21
93.3570530197
  0
LWPOLYLINE
  5
6C5
100
AcDbEntity
  8
RACCORDO
100
AcDbPolyline
 62
253
  6
CONTINUOUS
 90
23
 70
0
 10
128.2417477405
 20
98.3010888465
 10
128.2412030605
 20
98.2692145632
 10
128.2394628655
 20
98.2363033276
 10
128.2365271556
 20
98.2023311669
 10
128.2324398128
 20
98.1673726137
 10
128.2271569551
 20
98.1313094564
 10
128.2205469361
 20
98.0938139085
 10
128.2126386879
 20
98.0548422623
 10
128.2034032785
 20
98.0143627876
 10
128.1926222652
 20
97.9720357349
 10
128.1803159638
 20
97.9278026058
 10
128.1664640586
 20
97.8816184798
 10
128.1507871592
 20
97.8331341909
 10
128.13329251
 20
97.7822773871
 10
128.1139728666
 20
97.7289911087
 10
128.0925271065
 20
97.6729205993
 10
128.068939668
 20
97.6139845922
 10
128.0432261129
 20
97.5521149858
 10
128.0151320026
 20
97.4869508984
 10
127.9845786649
 20
97.4183839449
 10
127.9516447721
 20
97.3463638631
 10
127.9163119034
 20
97.2706004254
 10
127.8782892768
 20
97.1908101482
  0
LWPOLYLINE
  5
6C6
100
AcDbEntity
  8
ASSI
100
AcDbPolyline
 62
253
  6
CONTINUOUS
 90
23
 70
0
 10
128.2417477405
 20
98.3010888465
 10
128.2412030605
 20
98.2692145632
 10
128.2394628655
 20
98.2363033276
 10
128.2365271556
 20
98.2023311669
 10
128.2324398128
 20
98.1673726137
 10
128.2271569551
 20
98.1313094564
 10
128.2205469361
 20
98.0938139085
 10
128.2126386879
 20
98.0548422623
 10
128.2034032785
 20
98.0143627876
 10
128.1926222652
 20
97.9720357349
 10
128.1803159638
 20
97.9278026058
 10
128.1664640586
 20
97.8816184798
 10
128.1507871592
 20
97.8331341909
 10
128.13329251
 20
97.7822773871
 10
128.1139728666
 20
97.7289911087
 10
128.0925271065
 20
97.6729205993
 10
128.068939668
 20
97.6139845922
 10
128.0432261129
 20
97.5521149858
 10
128.0151320026
 20
97.4869508984
 10
127.9845786649
 20
97.4183839449
 10
127.9516447721
 20
97.3463638631
 10
127.9163119034
 20
97.2706004254
 10
127.8782892768
 20
97.1908101482
  0
LWPOLYLINE
  5
6C7
100
AcDbEntity
  8
RACCORDO
100
AcDbPolyline
 62
253
  6
CONTINUOUS
 90
19
 70
0
 10
127.9678944633
 20
89.1731680849
 10
127.9642095081
 20
89.1125202011
 10
127.9531613242
 20
89.0522358457
 10
127.9348010065
 20
88.9927633498
 10
127.9092217241
 20
88.9345229633
 10
127.8765906845
 20
88.8779807057
 10
127.8371786747
 20
88.8236362838
 10
127.7912985939
 20
88.7719165193
 10
127.7392761014
 20
88.7231845471
 10
127.6815018117
 20
88.6778073313
 10
127.6184069589
 20
88.63612363
 10
127.5504613897
 20
88.5984439005
 10
127.4781746267
 20
88.5650504339
 10
127.4020833504
 20
88.5361908442
 10
127.3227576357
 20
88.5120810524
 10
127.240801089
 20
88.4929027052
 10
127.1568297906
 20
88.4787966273
 10
127.0714663049
 20
88.4698641415
 10
126.9853468698
 20
88.4661689995
  0
LWPOLYLINE
  5
6C8
100
AcDbEntity
  8
ASSI
100
AcDbPolyline
 62
253
  6
CONTINUOUS
 90
19
 70
0
 10
127.9678944633
 20
89.1731680849
 10
127.9642095081
 20
89.1125202011
 10
127.9531613242
 20
89.0522358457
 10
127.9348010065
 20
88.9927633498
 10
127.9092217241
 20
88.9345229633
 10
127.8765906845
 20
88.8779807057
 10
127.8371786747
 20
88.8236362838
 10
127.7912985939
 20
88.7719165193
 10
127.7392761014
 20
88.7231845471
 10
127.6815018117
 20
88.6778073313
 10
127.6184069589
 20
88.63612363
 10
127.5504613897
 20
88.5984439005
 10
127.4781746267
 20
88.5650504339
 10
127.4020833504
 20
88.5361908442
 10
127.3227576357
 20
88.5120810524
 10
127.240801089
 20
88.4929027052
 10
127.1568297906
 20
88.4787966273
 10
127.0714663049
 20
88.4698641415
 10
126.9853468698
 20
88.4661689995
  0
LINE
  5
6C9
100
AcDbEntity
  8
RACCORDO
100
AcDbLine
 62
253
  6
CONTINUOUS
 10
127.9678944633
 20
89.344799997
 11
127.9625373099
 21
89.2717055106
  0
LINE
  5
6CA
100
AcDbEntity
  8
ASSI
100
AcDbLine
 62
253
  6
CONTINUOUS
 10
127.9678944633
 20
89.344799997
 11
127.9625373099
 21
89.2717055106
  0
LWPOLYLINE
  5
6CB
100
AcDbEntity
  8
RACCORDO
100
AcDbPolyline
 62
253
  6
CONTINUOUS
 90
13
 70
0
 10
127.9678944633
 20
93.4901905833
 10
127.9701841374
 20
93.517779545
 10
127.9770181969
 20
93.5449473403
 10
127.9882923062
 20
93.57127927
 10
128.0038343543
 20
93.5963733949
 10
128.0234070862
 20
93.6198466766
 10
128.0467117275
 20
93.6413408224
 10
128.0733925359
 20
93.6605277452
 10
128.1030422396
 20
93.6771145801
 10
128.1352082639
 20
93.6908481558
 10
128.1693996201
 20
93.7015188472
 10
128.2050943969
 20
93.708963779
 10
128.2417477405
 20
93.7130693168
  0
LWPOLYLINE
  5
6CC
100
AcDbEntity
  8
ASSI
100
AcDbPolyline
 62
253
  6
CONTINUOUS
 90
13
 70
0
 10
127.9678944633
 20
93.4901905833
 10
127.9701841374
 20
93.517779545
 10
127.9770181969
 20
93.5449473403
 10
127.9882923062
 20
93.57127927
 10
128.0038343543
 20
93.5963733949
 10
128.0234070862
 20
93.6198466766
 10
128.0467117275
 20
93.6413408224
 10
128.0733925359
 20
93.6605277452
 10
128.1030422396
 20
93.6771145801
 10
128.1352082639
 20
93.6908481558
 10
128.1693996201
 20
93.7015188472
 10
128.2050943969
 20
93.708963779
 10
128.2417477405
 20
93.7130693168
  0
LWPOLYLINE
  5
6CD
100
AcDbEntity
  8
RACCORDO
100
AcDbPolyline
 62
253
  6
CONTINUOUS
 90
6
 70
0
 10
126.9853468698
 20
88.1733203897
 10
126.985910317
 20
88.1771348844
 10
126.9863366967
 20
88.1885273593
 10
126.9866227649
 20
88.2074111387
 10
126.9867663452
 20
88.2336425518
 10
126.9866227649
 20
88.3072956042
  0
LWPOLYLINE
  5
6CE
100
AcDbEntity
  8
ASSI
100
AcDbPolyline
 62
253
  6
CONTINUOUS
 90
6
 70
0
 10
126.9853468698
 20
88.1733203897
 10
126.985910317
 20
88.1771348844
 10
126.9863366967
 20
88.1885273593
 10
126.9866227649
 20
88.2074111387
 10
126.9867663452
 20
88.2336425518
 10
126.9866227649
 20
88.3072956042
  0
LWPOLYLINE
  5
6CF
100
AcDbEntity
  8
RACCORDO
100
AcDbPolyline
 62
253
  6
CONTINUOUS
 90
14
 70
0
 10
127.4865946958
 20
96.6972940451
 10
127.4517833208
 20
96.582968447
 10
127.4212512827
 20
96.4615661219
 10
127.3944463246
 20
96.3306478238
 10
127.3724546567
 20
96.1926527987
 10
127.3619589372
 20
96.0518563295
 10
127.3662383888
 20
95.9081619279
 10
127.382129808
 20
95.7616660823
 10
127.4065936196
 20
95.616933541
 10
127.4398629749
 20
95.4757580669
 10
127.4807863927
 20
95.3363458972
 10
127.5243859506
 20
95.1978804911
 10
127.5693546457
 20
95.0598619379
 10
127.662142055
 20
94.7873483143
  0
LWPOLYLINE
  5
6D0
100
AcDbEntity
  8
ASSI
100
AcDbPolyline
 62
253
  6
CONTINUOUS
 90
14
 70
0
 10
127.4865946958
 20
96.6972940451
 10
127.4517833208
 20
96.582968447
 10
127.4212512827
 20
96.4615661219
 10
127.3944463246
 20
96.3306478238
 10
127.3724546567
 20
96.1926527987
 10
127.3619589372
 20
96.0518563295
 10
127.3662383888
 20
95.9081619279
 10
127.382129808
 20
95.7616660823
 10
127.4065936196
 20
95.616933541
 10
127.4398629749
 20
95.4757580669
 10
127.4807863927
 20
95.3363458972
 10
127.5243859506
 20
95.1978804911
 10
127.5693546457
 20
95.0598619379
 10
127.662142055
 20
94.7873483143
  0
LINE
  5
6D1
100
AcDbEntity
  8
RACCORDO
100
AcDbLine
 62
253
  6
CONTINUOUS
 10
127.5564956545
 20
96.9147950568
 11
127.4865946958
 21
96.6972940451
  0
LINE
  5
6D2
100
AcDbEntity
  8
ASSI
100
AcDbLine
 62
253
  6
CONTINUOUS
 10
127.5564956545
 20
96.9147950568
 11
127.4865946958
 21
96.6972940451
  0
LINE
  5
6D3
100
AcDbEntity
  8
RACCORDO
100
AcDbLine
 62
253
  6
CONTINUOUS
 10
127.688405907
 20
97.3047341031
 11
127.5564956545
 21
96.9147950568
  0
LINE
  5
6D4
100
AcDbEntity
  8
ASSI
100
AcDbLine
 62
253
  6
CONTINUOUS
 10
127.688405907
 20
97.3047341031
 11
127.5564956545
 21
96.9147950568
  0
LINE
  5
6D5
100
AcDbEntity
  8
INCISIONI
100
AcDbLine
 62
253
  6
CONTINUOUS
 10
122.6678944633
 20
94.573079032
 11
122.853608738
 21
94.7810789329
  0
LINE
  5
6D6
100
AcDbEntity
  8
INCISIONI
100
AcDbLine
 62
253
  6
CONTINUOUS
 10
122.6678944633
 20
93.221079156
 11
123.9678944633
 21
93.6370791312
  0
LINE
  5
6D7
100
AcDbEntity
  8
0
100
AcDbLine
 62
7
  6
CONTINUOUS
 10
120.4438964907
 20
126.1776982014
 11
126.4678944633
 21
126.2039835183
  0
LINE
  5
6D8
100
AcDbEntity
  8
ASSI
100
AcDbLine
 62
7
  6
CONTINUOUS
 10
120.4438964907
 20
126.1776982014
 11
126.4678944633
 21
126.2039835183
  0
LINE
  5
6D9
100
AcDbEntity
  8
0
100
AcDbLine
 62
7
  6
CONTINUOUS
 10
120.7178944633
 20
124.9384238832
 11
121.4178944633
 21
124.9384238832
  0
LINE
  5
6DA
100
AcDbEntity
  8
DRAFT
100
AcDbLine
 62
7
  6
CONTINUOUS
 10
120.4438964907
 20
125.6819932097
 11
126.4678944633
 21
125.6779272851
  0
LINE
  5
6DB
100
AcDbEntity
  8
ASSI
100
AcDbLine
 62
7
  6
CONTINUOUS
 10
120.4438964907
 20
125.6819932097
 11
126.4678944633
 21
125.6779272851
  0
LINE
  5
6DC
100
AcDbEntity
  8
DRAFT
100
AcDbLine
 62
7
  6
CONTINUOUS
 10
118.7845804916
 20
125.4017792947
 11
121.4178944633
 21
125.3864591222
  0
LINE
  5
6DD
100
AcDbEntity
  8
ASSI
100
AcDbLine
 62
7
  6
CONTINUOUS
 10
118.7845804916
 20
125.4017792947
 11
121.4178944633
 21
125.3864591222
  0
LINE
  5
6DE
100
AcDbEntity
  8
0
100
AcDbLine
 62
253
  6
CONTINUOUS
 10
113.9678944633
 20
125.1564768841
 11
103.9678944633
 21
125.2287781304
  0
LINE
  5
6DF
100
AcDbEntity
  8
ASSI
100
AcDbLine
 62
253
  6
CONTINUOUS
 10
113.9678944633
 20
125.1564768841
 11
103.9678944633
 21
125.2287781304
  0
LINE
  5
6E0
100
AcDbEntity
  8
DRAFT
100
AcDbLine
 62
7
  6
CONTINUOUS
 10
102.4678944633
 20
126.065369606
 11
103.9678944633
 21
126.0414321234
  0
LWPOLYLINE
  5
6E1
100
AcDbEntity
  8
RACCORDO
100
AcDbPolyline
 62
7
  6
CONTINUOUS
 90
19
 70
0
 10
126.9737121947
 20
123.6032475996
 10
127.0615857623
 20
123.5993296483
 10
127.1474780249
 20
123.5891330121
 10
127.2313889825
 20
123.572657691
 10
127.3139183456
 20
123.5496862038
 10
127.3944664037
 20
123.5204360318
 10
127.4712340254
 20
123.4855596189
 10
127.5441383701
 20
123.4449290464
 10
127.6132622784
 20
123.3986722331
 10
127.6770551403
 20
123.3478253799
 10
127.7353959057
 20
123.2922842626
 10
127.7884056247
 20
123.2321531053
 10
127.8348968368
 20
123.1687807815
 10
127.8747213545
 20
123.1020962944
 10
127.9080273654
 20
123.0321706407
 10
127.9340719715
 20
122.9605656833
 10
127.9526075402
 20
122.8878020432
 10
127.9638817042
 20
122.8133590993
 10
127.9678944633
 20
122.7372368517
  0
LWPOLYLINE
  5
6E2
100
AcDbEntity
  8
ASSI
100
AcDbPolyline
 62
7
  6
CONTINUOUS
 90
19
 70
0
 10
126.9737121947
 20
123.6032475996
 10
127.0615857623
 20
123.5993296483
 10
127.1474780249
 20
123.5891330121
 10
127.2313889825
 20
123.572657691
 10
127.3139183456
 20
123.5496862038
 10
127.3944664037
 20
123.5204360318
 10
127.4712340254
 20
123.4855596189
 10
127.5441383701
 20
123.4449290464
 10
127.6132622784
 20
123.3986722331
 10
127.6770551403
 20
123.3478253799
 10
127.7353959057
 20
123.2922842626
 10
127.7884056247
 20
123.2321531053
 10
127.8348968368
 20
123.1687807815
 10
127.8747213545
 20
123.1020962944
 10
127.9080273654
 20
123.0321706407
 10
127.9340719715
 20
122.9605656833
 10
127.9526075402
 20
122.8878020432
 10
127.9638817042
 20
122.8133590993
 10
127.9678944633
 20
122.7372368517
  0
LINE
  5
6E3
100
AcDbEntity
  8
RACCORDO
100
AcDbLine
 62
7
  6
CONTINUOUS
 10
128.2417477405
 20
123.2828092705
 11
127.6956903778
 21
123.3300844074
  0
LINE
  5
6E4
100
AcDbEntity
  8
ASSI
100
AcDbLine
 62
7
  6
CONTINUOUS
 10
128.2417477405
 20
123.2828092705
 11
127.6956903778
 21
123.3300844074
  0
LINE
  5
6E5
100
AcDbEntity
  8
DRAFT
100
AcDbLine
 62
7
  6
CONTINUOUS
 10
128.2417477405
 20
123.2831200244
 11
129.6940414461
 21
123.1560607891
  0
LINE
  5
6E6
100
AcDbEntity
  8
ASSI
100
AcDbLine
 62
7
  6
CONTINUOUS
 10
128.2417477405
 20
123.2831200244
 11
129.6940414461
 21
123.1560607891
  0
LWPOLYLINE
  5
6E7
100
AcDbEntity
  8
RACCORDO
100
AcDbPolyline
 62
7
  6
CONTINUOUS
 90
18
 70
0
 10
128.2417477405
 20
123.2828092705
 10
128.2219365738
 20
123.2852338203
 10
128.2025653543
 20
123.2888473466
 10
128.1836340822
 20
123.2936498495
 10
128.1650560568
 20
123.2997022474
 10
128.1469179788
 20
123.3069436218
 10
128.1294799492
 20
123.3151912177
 10
128.1127798842
 20
123.3244511917
 10
128.0967798677
 20
123.3347173873
 10
128.0816262523
 20
123.34578858
 10
128.0673358658
 20
123.3576676134
 10
128.0538918805
 20
123.3703516439
 10
128.0413901655
 20
123.3836309163
 10
128.0298526455
 20
123.3974872962
 10
128.0192573958
 20
123.4119389181
 10
128.0096345126
 20
123.4268304299
 10
128.0009845818
 20
123.4421571297
 10
127.9933070174
 20
123.4579237195
  0
LWPOLYLINE
  5
6E8
100
AcDbEntity
  8
ASSI
100
AcDbPolyline
 62
7
  6
CONTINUOUS
 90
18
 70
0
 10
128.2417477405
 20
123.2828092705
 10
128.2219365738
 20
123.2852338203
 10
128.2025653543
 20
123.2888473466
 10
128.1836340822
 20
123.2936498495
 10
128.1650560568
 20
123.2997022474
 10
128.1469179788
 20
123.3069436218
 10
128.1294799492
 20
123.3151912177
 10
128.1127798842
 20
123.3244511917
 10
128.0967798677
 20
123.3347173873
 10
128.0816262523
 20
123.34578858
 10
128.0673358658
 20
123.3576676134
 10
128.0538918805
 20
123.3703516439
 10
128.0413901655
 20
123.3836309163
 10
128.0298526455
 20
123.3974872962
 10
128.0192573958
 20
123.4119389181
 10
128.0096345126
 20
123.4268304299
 10
128.0009845818
 20
123.4421571297
 10
127.9933070174
 20
123.4579237195
  0
LINE
  5
6E9
100
AcDbEntity
  8
0
100
AcDbLine
 62
253
  6
CONTINUOUS
 10
94.5338575249
 20
128.6932370311
 11
94.1612939315
 21
128.7498992664
  0
LINE
  5
6EA
100
AcDbEntity
  8
0
100
AcDbLine
 62
253
  6
CONTINUOUS
 10
94.1612939315
 20
128.7498992664
 11
94.0772798842
 21
128.7629618658
  0
LINE
  5
6EB
100
AcDbEntity
  8
0
100
AcDbLine
 62
253
  6
CONTINUOUS
 10
94.0772798842
 20
128.7629618658
 11
94.0595969284
 21
128.7657921649
  0
LWPOLYLINE
  5
6EC
100
AcDbEntity
  8
0
100
AcDbPolyline
 62
253
  6
CONTINUOUS
 90
5
 70
0
 10
94.0595969284
 20
128.7657921649
 10
94.0522864929
 20
128.7670064878
 10
94.0499976687
 20
128.7674081168
 10
94.0486260224
 20
128.7676716419
 10
94.048174108
 20
128.7677965724
  0
LINE
  5
6ED
100
AcDbEntity
  8
0
100
AcDbLine
 62
7
  6
CONTINUOUS
 10
121.5637345264
 20
124.1934238832
 11
121.4178944633
 21
124.4385213516
  0
LINE
  5
6EE
100
AcDbEntity
  8
RACCORDO
100
AcDbLine
 62
253
  6
CONTINUOUS
 10
129.6940414
 20
120.8960165364
 11
129.6976729797
 21
120.827337183
  0
LINE
  5
6EF
100
AcDbEntity
  8
ASSI
100
AcDbLine
 62
253
  6
CONTINUOUS
 10
129.6940414
 20
120.8960165364
 11
129.6976729797
 21
120.827337183
  0
LINE
  5
6F0
100
AcDbEntity
  8
RACCORDO
100
AcDbLine
 62
253
  6
CONTINUOUS
 10
129.6976729797
 20
120.827337183
 11
129.6999501612
 21
120.7794964638
  0
LINE
  5
6F1
100
AcDbEntity
  8
ASSI
100
AcDbLine
 62
253
  6
CONTINUOUS
 10
129.6976729797
 20
120.827337183
 11
129.6999501612
 21
120.7794964638
  0
LWPOLYLINE
  5
6F2
100
AcDbEntity
  8
RACCORDO
100
AcDbPolyline
 62
253
  6
CONTINUOUS
 90
3
 70
0
 10
129.6999501612
 20
120.7794964638
 10
129.7019717373
 20
120.7319056741
 10
129.7028570174
 20
120.7086074507
  0
LWPOLYLINE
  5
6F3
100
AcDbEntity
  8
ASSI
100
AcDbPolyline
 62
253
  6
CONTINUOUS
 90
3
 70
0
 10
129.6999501612
 20
120.7794964638
 10
129.7019717373
 20
120.7319056741
 10
129.7028570174
 20
120.7086074507
  0
LWPOLYLINE
  5
6F4
100
AcDbEntity
  8
RACCORDO
100
AcDbPolyline
 62
253
  6
CONTINUOUS
 90
15
 70
0
 10
127.9625373099
 20
89.2717055106
 10
127.9465232476
 20
89.1993941809
 10
127.9200238561
 20
89.1286407738
 10
127.883323058
 20
89.060203363
 10
127.836814077
 20
88.9948152078
 10
127.7809952244
 20
88.9331768971
 10
127.7164645607
 20
88.8759488426
 10
127.6439134872
 20
88.8237442033
 10
127.5641193384
 20
88.7771223157
 10
127.4779370532
 20
88.736582701
 10
127.3862900151
 20
88.7025597132
 10
127.2901601586
 20
88.675417885
 10
127.1905774486
 20
88.6554480223
 10
127.0886088446
 20
88.6428640885
 10
126.9853468698
 20
88.6378009116
  0
LWPOLYLINE
  5
6F5
100
AcDbEntity
  8
ASSI
100
AcDbPolyline
 62
253
  6
CONTINUOUS
 90
15
 70
0
 10
127.9625373099
 20
89.2717055106
 10
127.9465232476
 20
89.1993941809
 10
127.9200238561
 20
89.1286407738
 10
127.883323058
 20
89.060203363
 10
127.836814077
 20
88.9948152078
 10
127.7809952244
 20
88.9331768971
 10
127.7164645607
 20
88.8759488426
 10
127.6439134872
 20
88.8237442033
 10
127.5641193384
 20
88.7771223157
 10
127.4779370532
 20
88.736582701
 10
127.3862900151
 20
88.7025597132
 10
127.2901601586
 20
88.675417885
 10
127.1905774486
 20
88.6554480223
 10
127.0886088446
 20
88.6428640885
 10
126.9853468698
 20
88.6378009116
  0
LWPOLYLINE
  5
6F6
100
AcDbEntity
  8
RACCORDO
100
AcDbPolyline
 62
253
  6
CONTINUOUS
 90
17
 70
0
 10
127.7065695991
 20
96.8353661259
 10
127.6615846791
 20
96.7375319118
 10
127.615930382
 20
96.6368299364
 10
127.5707294011
 20
96.5324328335
 10
127.5313481843
 20
96.4215267233
 10
127.4964511867
 20
96.3022677366
 10
127.4673739531
 20
96.1766997908
 10
127.4534895658
 20
96.0480295784
 10
127.4595001696
 20
95.9165152128
 10
127.4807036196
 20
95.7826984262
 10
127.5123665636
 20
95.6503126721
 10
127.5554343498
 20
95.5213817618
 10
127.60896163
 20
95.394530447
 10
127.665379008
 20
95.2682584376
 10
127.7235327996
 20
95.1422777969
 10
127.7845766889
 20
95.0174421228
 10
127.8444023322
 20
94.8938925435
  0
LWPOLYLINE
  5
6F7
100
AcDbEntity
  8
ASSI
100
AcDbPolyline
 62
253
  6
CONTINUOUS
 90
17
 70
0
 10
127.7065695991
 20
96.8353661259
 10
127.6615846791
 20
96.7375319118
 10
127.615930382
 20
96.6368299364
 10
127.5707294011
 20
96.5324328335
 10
127.5313481843
 20
96.4215267233
 10
127.4964511867
 20
96.3022677366
 10
127.4673739531
 20
96.1766997908
 10
127.4534895658
 20
96.0480295784
 10
127.4595001696
 20
95.9165152128
 10
127.4807036196
 20
95.7826984262
 10
127.5123665636
 20
95.6503126721
 10
127.5554343498
 20
95.5213817618
 10
127.60896163
 20
95.394530447
 10
127.665379008
 20
95.2682584376
 10
127.7235327996
 20
95.1422777969
 10
127.7845766889
 20
95.0174421228
 10
127.8444023322
 20
94.8938925435
  0
LINE
  5
6F8
100
AcDbEntity
  8
RACCORDO
100
AcDbLine
 62
253
  6
CONTINUOUS
 10
127.8782892768
 20
97.1908101482
 11
127.7065695991
 21
96.8353661259
  0
LINE
  5
6F9
100
AcDbEntity
  8
ASSI
100
AcDbLine
 62
253
  6
CONTINUOUS
 10
127.8782892768
 20
97.1908101482
 11
127.7065695991
 21
96.8353661259
  0
LINE
  5
6FA
100
AcDbEntity
  8
INCISIONI
100
AcDbLine
 62
253
  6
CONTINUOUS
 10
122.6678944633
 20
91.5570790816
 11
123.4107516007
 21
91.9730791002
  0
LINE
  5
6FB
100
AcDbEntity
  8
DRAFT
100
AcDbLine
 62
7
  6
CONTINUOUS
 10
103.9678944633
 20
127.2701693833
 11
102.4678944633
 21
127.2570790816
  0
LINE
  5
6FC
100
AcDbEntity
  8
0
100
AcDbLine
 62
253
  6
CONTINUOUS
 10
113.9678944633
 20
126.5704750549
 11
103.9678944633
 21
126.6427763011
  0
LINE
  5
6FD
100
AcDbEntity
  8
ASSI
100
AcDbLine
 62
253
  6
CONTINUOUS
 10
113.9678944633
 20
126.5704750549
 11
103.9678944633
 21
126.6427763011
  0
LINE
  5
6FE
100
AcDbEntity
  8
DRAFT
100
AcDbLine
 62
7
  6
CONTINUOUS
 10
102.4678944633
 20
127.0570790816
 11
103.9678944633
 21
127.0308964842
  0
LINE
  5
6FF
100
AcDbEntity
  8
RACCORDO
100
AcDbLine
 62
7
  6
CONTINUOUS
 10
126.9853468698
 20
126.9408377735
 11
126.4678944633
 21
126.9498699389
  0
LINE
  5
700
100
AcDbEntity
  8
0
100
AcDbLine
 62
7
  6
CONTINUOUS
 10
113.9678944633
 20
127.1680582505
 11
126.4678944633
 21
126.9498699389
  0
LINE
  5
701
100
AcDbEntity
  8
ASSI
100
AcDbLine
 62
7
  6
CONTINUOUS
 10
113.9678944633
 20
127.1680582505
 11
126.9853468698
 21
126.9408377735
  0
LWPOLYLINE
  5
702
100
AcDbEntity
  8
RACCORDO
100
AcDbPolyline
 62
7
  6
CONTINUOUS
 90
31
 70
0
 10
122.9215224382
 20
124.7316985142
 10
122.8200412636
 20
124.7823713698
 10
122.7139797758
 20
124.8298448754
 10
122.6036604481
 20
124.8740530456
 10
122.4894106449
 20
124.9149347802
 10
122.3715465211
 20
124.9524387747
 10
122.2503911701
 20
124.9865159859
 10
122.1263157492
 20
125.0171111482
 10
121.9996371342
 20
125.0441904576
 10
121.8706202886
 20
125.0677320098
 10
121.7396138344
 20
125.0876995352
 10
121.6069727787
 20
125.1040633166
 10
121.4729818163
 20
125.1168070112
 10
121.3379976574
 20
125.1259101363
 10
121.2023788458
 20
125.1313598253
 10
121.0664177356
 20
125.1331509271
 10
120.9304733055
 20
125.1312806791
 10
120.7949049612
 20
125.1257541109
 10
120.6600053972
 20
125.116578685
 10
120.5261310045
 20
125.103769472
 10
120.3936379803
 20
125.0873492799
 10
120.2628130927
 20
125.0673372988
 10
120.1340067881
 20
125.0437653223
 10
120.0075665659
 20
125.0166722471
 10
119.8837633087
 20
124.9860846779
 10
119.7629312563
 20
124.95204594
 10
119.6454126924
 20
124.9146086178
 10
119.531471422
 20
124.8738040672
 10
119.4214064052
 20
124.8296742409
 10
119.3155637063
 20
124.7822843932
 10
119.2142664885
 20
124.7316985142
  0
LINE
  5
703
100
AcDbEntity
  8
0
100
AcDbLine
 62
7
  6
CONTINUOUS
 10
123.7372562948
 20
124.3015459219
 11
122.9215224382
 21
124.7316985142
  0
LINE
  5
704
100
AcDbEntity
  8
RACCORDO
100
AcDbLine
 62
253
  6
CONTINUOUS
 10
123.7376792793
 20
124.3013228364
 11
123.7372563287
 21
124.301545904
  0
LINE
  5
705
100
AcDbEntity
  8
RACCORDO
100
AcDbLine
 62
253
  6
CONTINUOUS
 10
122.9215224382
 20
124.7316985142
 11
122.9337194809
 21
124.7252217447
  0
LWPOLYLINE
  5
706
100
AcDbEntity
  8
RACCORDO
100
AcDbPolyline
 62
253
  6
CONTINUOUS
 90
21
 70
0
 10
122.9337194809
 20
124.7252217447
 10
122.9952955714
 20
124.6910838156
 10
123.0521624188
 20
124.6572263821
 10
123.1045024981
 20
124.6238264431
 10
123.1525648514
 20
124.591011029
 10
123.1968216041
 20
124.5587241654
 10
123.2374637762
 20
124.5270754916
 10
123.274683237
 20
124.4961659427
 10
123.3088885969
 20
124.465889782
 10
123.3402403724
 20
124.4363218652
 10
123.3688983239
 20
124.407530753
 10
123.3952061695
 20
124.3793740541
 10
123.4192910973
 20
124.3519022585
 10
123.4412797613
 20
124.3251607947
 10
123.4614545609
 20
124.2989797382
 10
123.4799108994
 20
124.2733922289
 10
123.496743461
 20
124.2484282464
 10
123.5121770808
 20
124.2238986528
 10
123.5263190649
 20
124.1997521612
 10
123.5391885886
 20
124.1760803881
 10
123.550850925
 20
124.1529015921
  0
LWPOLYLINE
  5
707
100
AcDbEntity
  8
RACCORDO
100
AcDbPolyline
 62
7
  6
CONTINUOUS
 90
10
 70
0
 10
123.550850925
 20
124.1529015921
 10
123.538337666
 20
124.1610929448
 10
123.5251724521
 20
124.1683975816
 10
123.5113552833
 20
124.1748155023
 10
123.4967518377
 20
124.1803940444
 10
123.4814964372
 20
124.1850858705
 10
123.4659920477
 20
124.1887489686
 10
123.4503729913
 20
124.1913360015
 10
123.4345049459
 20
124.1928943063
 10
123.4183879116
 20
124.1934238832
  0
LINE
  5
708
100
AcDbEntity
  8
RACCORDO
100
AcDbLine
 62
7
  6
CONTINUOUS
 10
123.8270127389
 20
123.9572647714
 11
123.550850925
 21
124.1529015921
  0
LWPOLYLINE
  5
709
100
AcDbEntity
  8
0
100
AcDbPolyline
 62
253
  6
CONTINUOUS
 90
43
 70
0
 10
95.003051754
 20
129.1180412622
 10
94.986742395
 20
129.1169487014
 10
94.9705117635
 20
129.1153299138
 10
94.9543598597
 20
129.1131848995
 10
94.9382696706
 20
129.1105102561
 10
94.922258209
 20
129.1073093859
 10
94.906376514
 20
129.1035924958
 10
94.8906249975
 20
129.0993579347
 10
94.8750032475
 20
129.0946073536
 10
94.8595610672
 20
129.0893559124
 10
94.8442990296
 20
129.083602014
 10
94.8292165617
 20
129.0773472555
 10
94.8143617474
 20
129.0706115889
 10
94.7997353153
 20
129.0633934821
 10
94.7853365368
 20
129.0556944672
 10
94.7712113097
 20
129.0475390922
 10
94.7573605043
 20
129.0389259009
 10
94.7437832503
 20
129.0298563494
 10
94.7305228353
 20
129.0203593549
 10
94.717580271
 20
129.010433555
 10
94.7049545456
 20
129.0000803119
 10
94.692685911
 20
128.989332629
 10
94.6807755063
 20
128.9781892491
 10
94.6692221924
 20
128.9666514293
 10
94.658062804
 20
128.954755944
 10
94.6472985946
 20
128.9425016501
 10
94.6369283108
 20
128.9298896907
 10
94.6269850267
 20
128.9169602698
 10
94.6174701065
 20
128.9037123801
 10
94.6083821861
 20
128.8901470289
 10
94.5997502465
 20
128.876307442
 10
94.5915757366
 20
128.8621927375
 10
94.5838572076
 20
128.8478037974
 10
94.5766192936
 20
128.8331864933
 10
94.5698635233
 20
128.8183400784
 10
94.563588368
 20
128.8032652995
 10
94.5578138757
 20
128.7880102684
 10
94.5525416705
 20
128.7725745028
 10
94.5477701282
 20
128.7569584851
 10
94.543514425
 20
128.7412117733
 10
94.5397796193
 20
128.7253508867
 10
94.5365606526
 20
128.709359306
 10
94.5338575249
 20
128.6932370311
  0
LINE
  5
70A
100
AcDbEntity
  8
0
100
AcDbLine
 62
253
  6
CONTINUOUS
 10
101.4679173068
 20
129.4568514267
 11
95.003051754
 21
129.1180412622
  0
LINE
  5
70B
100
AcDbEntity
  8
0
100
AcDbLine
 62
7
  6
CONTINUOUS
 10
113.4766206666
 20
129.1492371123
 11
102.4678944633
 21
128.9570790816
  0
LINE
  5
70C
100
AcDbEntity
  8
DRAFT
100
AcDbLine
 62
7
  6
CONTINUOUS
 10
103.9678944633
 20
128.4070790816
 11
113.9678944633
 21
128.4070790816
  0
LINE
  5
70D
100
AcDbEntity
  8
ASSI
100
AcDbLine
 62
7
  6
CONTINUOUS
 10
103.9678944633
 20
128.4070790816
 11
113.9678944633
 21
128.4070790816
  0
LINE
  5
70E
100
AcDbEntity
  8
0
100
AcDbLine
 62
7
  6
CONTINUOUS
 10
113.9678944633
 20
128.4570790816
 11
102.4678944633
 21
128.4570790816
  0
LINE
  5
70F
100
AcDbEntity
  8
0
100
AcDbLine
 62
253
  6
CONTINUOUS
 10
102.4678944633
 20
129.4512781749
 11
101.4678944633
 21
129.4570960047
  0
LINE
  5
710
100
AcDbEntity
  8
0
100
AcDbLine
 62
7
  6
CONTINUOUS
 10
112.9737121947
 20
129.8901401922
 11
101.4678946386
 21
129.9570790806
  0
LWPOLYLINE
  5
711
100
AcDbEntity
  8
RACCORDO
100
AcDbPolyline
 62
253
  6
CONTINUOUS
 90
5
 70
0
 10
124.1335432599
 20
124.0515645016
 10
124.0869294594
 20
124.0868714989
 10
123.9795383379
 20
124.1600811339
 10
123.8650524843
 20
124.2305520133
 10
123.7376792793
 20
124.3013228364
  0
LWPOLYLINE
  5
712
100
AcDbEntity
  8
RACCORDO
100
AcDbPolyline
 62
7
  6
CONTINUOUS
 90
6
 70
0
 10
124.1341852221
 20
124.053262882
 10
124.12767712
 20
124.0583462885
 10
124.0157458145
 20
124.1367966486
 10
123.8965139992
 20
124.2120348026
 10
123.7705778286
 20
124.2837453021
 10
123.7376792793
 20
124.3013228364
  0
LWPOLYLINE
  5
713
100
AcDbEntity
  8
RACCORDO
100
AcDbPolyline
 62
7
  6
CONTINUOUS
 90
8
 70
0
 10
127.9933070174
 20
123.4579237195
 10
127.9866301575
 20
123.4739889525
 10
127.9809540409
 20
123.4903462123
 10
127.9762786288
 20
123.5070021155
 10
127.9726321428
 20
123.5238352644
 10
127.9700239902
 20
123.5408051931
 10
127.9684447637
 20
123.5579523675
 10
127.9678944633
 20
123.5752767877
  0
LWPOLYLINE
  5
714
100
AcDbEntity
  8
ASSI
100
AcDbPolyline
 62
7
  6
CONTINUOUS
 90
8
 70
0
 10
127.9933070174
 20
123.4579237195
 10
127.9866301575
 20
123.4739889525
 10
127.9809540409
 20
123.4903462123
 10
127.9762786288
 20
123.5070021155
 10
127.9726321428
 20
123.5238352644
 10
127.9700239902
 20
123.5408051931
 10
127.9684447637
 20
123.5579523675
 10
127.9678944633
 20
123.5752767877
  0
LWPOLYLINE
  5
715
100
AcDbEntity
  8
RACCORDO
100
AcDbPolyline
 62
253
  6
CONTINUOUS
 90
13
 70
0
 10
129.9678944633
 20
120.8261975126
 10
129.9656047961
 20
120.8348399764
 10
129.9587707803
 20
120.8433505148
 10
129.9474967382
 20
120.8515992202
 10
129.9319547661
 20
120.8594601821
 10
129.9123821064
 20
120.8668134091
 10
129.8890775248
 20
120.8735466606
 10
129.862396753
 20
120.879557159
 10
129.8327470565
 20
120.8847531593
 10
129.8005810148
 20
120.8890553498
 10
129.7663896185
 20
120.8923980616
 10
129.730694776
 20
120.894730271
 10
129.6940413427
 20
120.8960163795
  0
LWPOLYLINE
  5
716
100
AcDbEntity
  8
ASSI
100
AcDbPolyline
 62
253
  6
CONTINUOUS
 90
13
 70
0
 10
129.9678944633
 20
120.8261975126
 10
129.9656047961
 20
120.8348399764
 10
129.9587707803
 20
120.8433505148
 10
129.9474967382
 20
120.8515992202
 10
129.9319547661
 20
120.8594601821
 10
129.9123821064
 20
120.8668134091
 10
129.8890775248
 20
120.8735466606
 10
129.862396753
 20
120.879557159
 10
129.8327470565
 20
120.8847531593
 10
129.8005810148
 20
120.8890553498
 10
129.7663896185
 20
120.8923980616
 10
129.730694776
 20
120.894730271
 10
129.6940413427
 20
120.8960163795
  0
LINE
  5
717
100
AcDbEntity
  8
0
100
AcDbLine
 62
7
  6
CONTINUOUS
 10
101.4678944633
 20
129.9570790816
 11
94.9846573943
 21
129.6173070243
  0
LINE
  5
718
100
AcDbEntity
  8
0
100
AcDbLine
 62
253
  6
CONTINUOUS
 10
99.2164400305
 20
131.7939847337
 11
101.4678944633
 21
131.8070833124
  0
LINE
  5
719
100
AcDbEntity
  8
0
100
AcDbLine
 62
7
  6
CONTINUOUS
 10
99.2164400305
 20
132.0439805029
 11
101.4678944633
 21
132.0570790816
  0
LINE
  5
71A
100
AcDbEntity
  8
0
100
AcDbLine
 62
253
  6
CONTINUOUS
 10
102.4678944633
 20
131.4014166489
 11
102.2193488962
 21
131.4014166489
  0
LINE
  5
71B
100
AcDbEntity
  8
0
100
AcDbLine
 62
253
  6
CONTINUOUS
 10
98.9678944633
 20
131.4014166489
 11
99.2164400305
 21
131.4014166489
  0
LINE
  5
71C
100
AcDbEntity
  8
0
100
AcDbLine
 62
253
  6
CONTINUOUS
 10
98.9678944633
 20
131.7939847337
 11
99.2164400305
 21
131.7939847337
  0
LINE
  5
71D
100
AcDbEntity
  8
0
100
AcDbLine
 62
253
  6
CONTINUOUS
 10
102.4678944633
 20
131.8027114784
 11
102.2193488962
 21
131.8027114784
  0
LINE
  5
71E
100
AcDbEntity
  8
0
100
AcDbLine
 62
7
  6
CONTINUOUS
 10
108.970803329
 20
131.5134284348
 11
102.4678944633
 21
131.5512612518
  0
LINE
  5
71F
100
AcDbEntity
  8
0
100
AcDbLine
 62
253
  6
CONTINUOUS
 10
101.4678944633
 20
131.8070833124
 11
102.2193488962
 21
131.8027114784
  0
LINE
  5
720
100
AcDbEntity
  8
0
100
AcDbLine
 62
7
  6
CONTINUOUS
 10
101.4678944633
 20
132.0570790816
 11
102.2193488962
 21
132.0527072476
  0
ARC
  5
721
100
AcDbEntity
  8
0
100
AcDbCircle
 62
7
  6
CONTINUOUS
 10
156.1877089851
 20
84.4070790816
 40
0.5
100
AcDbArc
 50
334.1580672368
 51
25.8419327632
  0
ARC
  5
722
100
AcDbEntity
  8
0
100
AcDbCircle
 62
7
  6
CONTINUOUS
 10
148.1877089851
 20
84.4070790816
 40
0.5
100
AcDbArc
 50
154.1580672368
 51
205.8419327632
  0
ARC
  5
723
100
AcDbEntity
  8
0
100
AcDbCircle
 62
7
  6
CONTINUOUS
 10
148.1877089851
 20
130.7070790816
 40
0.5
100
AcDbArc
 50
154.1580672368
 51
205.8419327632
  0
ARC
  5
724
100
AcDbEntity
  8
0
100
AcDbCircle
 62
7
  6
CONTINUOUS
 10
156.1877089851
 20
130.7070790816
 40
0.5
100
AcDbArc
 50
334.1580672368
 51
25.8419327632
  0
ARC
  5
725
100
AcDbEntity
  8
0
100
AcDbCircle
 62
7
  6
CONTINUOUS
 10
108.9678944633
 20
84.1007212669
 40
0.5
100
AcDbArc
 50
270.3333333333
 51
360.0
  0
ARC
  5
726
100
AcDbEntity
  8
0
100
AcDbCircle
 62
7
  6
CONTINUOUS
 10
99.2178944633
 20
83.7127415143
 40
0.25
100
AcDbArc
 50
120.0
 51
180.0
  0
ARC
  5
727
100
AcDbEntity
  8
0
100
AcDbCircle
 62
7
  6
CONTINUOUS
 10
102.2178944633
 20
83.7127415143
 40
0.25
100
AcDbArc
 50
0.0
 51
60.0
  0
ARC
  5
728
100
AcDbEntity
  8
0
100
AcDbCircle
 62
7
  6
CONTINUOUS
 10
102.2178944633
 20
83.3114466848
 40
0.25
100
AcDbArc
 50
270.3333333333
 51
360.0
  0
ARC
  5
729
100
AcDbEntity
  8
0
100
AcDbCircle
 62
7
  6
CONTINUOUS
 10
99.2178944633
 20
83.3201734296
 40
0.25
100
AcDbArc
 50
180.0
 51
269.6666666667
  0
ARC
  5
72A
100
AcDbEntity
  8
0
100
AcDbCircle
 62
7
  6
CONTINUOUS
 10
95.0369933505
 20
86.4954806737
 40
1.0
100
AcDbArc
 50
188.5758796048
 51
267.0
  0
ARC
  5
72B
100
AcDbEntity
  8
0
100
AcDbCircle
 62
7
  6
CONTINUOUS
 10
112.9678944633
 20
86.2240010479
 40
1.0
100
AcDbArc
 50
270.3333333333
 51
360.0
  0
ARC
  5
72C
100
AcDbEntity
  8
RACCORDO
100
AcDbCircle
 62
7
  6
CONTINUOUS
 10
126.9678944633
 20
89.1731680849
 40
1.0
100
AcDbArc
 50
271.0
 51
360.0
  0
ARC
  5
72D
100
AcDbEntity
  8
ASSI
100
AcDbCircle
 62
7
  6
CONTINUOUS
 10
126.9678944633
 20
89.1731680849
 40
1.0
100
AcDbArc
 50
271.0
 51
360.0
  0
ARC
  5
72E
100
AcDbEntity
  8
RACCORDO
100
AcDbCircle
 62
7
  6
CONTINUOUS
 10
129.6678944633
 20
98.6572024024
 40
0.3
100
AcDbArc
 50
359.9996411134
 51
84.9999603223
  0
ARC
  5
72F
100
AcDbEntity
  8
RACCORDO
100
AcDbCircle
 62
7
  6
CONTINUOUS
 10
129.6678944633
 20
93.3569557609
 40
0.3
100
AcDbArc
 50
275.0000855806
 51
0.0007801287
  0
ARC
  5
730
100
AcDbEntity
  8
RACCORDO
100
AcDbCircle
 62
7
  6
CONTINUOUS
 10
128.2678944633
 20
92.6321797294
 40
0.3
100
AcDbArc
 50
94.9999742484
 51
179.9997072883
  0
ARC
  5
731
100
AcDbEntity
  8
RACCORDO
100
AcDbCircle
 62
7
  6
CONTINUOUS
 10
128.2678944633
 20
99.3819784338
 40
0.3
100
AcDbArc
 50
180.0001881026
 51
265.0000165014
  0
ARC
  5
732
100
AcDbEntity
  8
ASSI
100
AcDbCircle
 62
7
  6
CONTINUOUS
 10
129.6678944633
 20
98.6572024024
 40
0.3
100
AcDbArc
 50
359.9996411134
 51
84.9999603223
  0
ARC
  5
733
100
AcDbEntity
  8
ASSI
100
AcDbCircle
 62
7
  6
CONTINUOUS
 10
129.6678944633
 20
93.3569557609
 40
0.3
100
AcDbArc
 50
275.0000855806
 51
0.0007801287
  0
ARC
  5
734
100
AcDbEntity
  8
ASSI
100
AcDbCircle
 62
7
  6
CONTINUOUS
 10
128.2678944633
 20
92.6321797294
 40
0.3
100
AcDbArc
 50
94.9999742484
 51
179.9997072883
  0
ARC
  5
735
100
AcDbEntity
  8
ASSI
100
AcDbCircle
 62
7
  6
CONTINUOUS
 10
128.2678944633
 20
99.3819784338
 40
0.3
100
AcDbArc
 50
180.0001881026
 51
265.0000165014
  0
ARC
  5
736
100
AcDbEntity
  8
0
100
AcDbCircle
 62
7
  6
CONTINUOUS
 10
183.0419061435
 20
99.7670790816
 40
90.0
100
AcDbArc
 50
181.08868532
 51
188.5758796048
  0
ARC
  5
737
100
AcDbEntity
  8
RACCORDO
100
AcDbCircle
 62
7
  6
CONTINUOUS
 10
183.0419061435
 20
99.7670790816
 40
90.0
100
AcDbArc
 50
181.08868532
 51
181.6580964486
  0
ARC
  5
738
100
AcDbEntity
  8
RACCORDO
100
AcDbCircle
 62
7
  6
CONTINUOUS
 10
129.6678944633
 20
120.3572024024
 40
0.3
100
AcDbArc
 50
0.0000653838
 51
85.0000029871
  0
ARC
  5
739
100
AcDbEntity
  8
RACCORDO
100
AcDbCircle
 62
7
  6
CONTINUOUS
 10
129.6678944633
 20
115.0569557609
 40
0.3
100
AcDbArc
 50
275.0000498327
 51
0.0004529379
  0
ARC
  5
73A
100
AcDbEntity
  8
RACCORDO
100
AcDbCircle
 62
7
  6
CONTINUOUS
 10
129.6678944633
 20
122.8572024024
 40
0.3
100
AcDbArc
 50
359.9995470621
 51
84.9999501673
  0
ARC
  5
73B
100
AcDbEntity
  8
RACCORDO
100
AcDbCircle
 62
7
  6
CONTINUOUS
 10
128.2678944633
 20
114.3321797294
 40
0.3
100
AcDbArc
 50
95.0
 51
180.0
  0
ARC
  5
73C
100
AcDbEntity
  8
ASSI
100
AcDbCircle
 62
7
  6
CONTINUOUS
 10
129.6678944633
 20
120.3572024024
 40
0.3
100
AcDbArc
 50
0.0000653838
 51
85.0000029871
  0
ARC
  5
73D
100
AcDbEntity
  8
ASSI
100
AcDbCircle
 62
7
  6
CONTINUOUS
 10
129.6678944633
 20
115.0569557609
 40
0.3
100
AcDbArc
 50
275.0000498327
 51
0.0004529379
  0
ARC
  5
73E
100
AcDbEntity
  8
ASSI
100
AcDbCircle
 62
7
  6
CONTINUOUS
 10
129.6678944633
 20
122.8572024024
 40
0.3
100
AcDbArc
 50
359.9995470621
 51
84.9999501673
  0
ARC
  5
73F
100
AcDbEntity
  8
ASSI
100
AcDbCircle
 62
7
  6
CONTINUOUS
 10
128.2678944633
 20
114.3321797294
 40
0.3
100
AcDbArc
 50
95.0
 51
180.0
  0
ARC
  5
740
100
AcDbEntity
  8
0
100
AcDbCircle
 62
7
  6
CONTINUOUS
 10
95.0369933505
 20
128.6186774895
 40
1.0
100
AcDbArc
 50
93.0
 51
171.4241203952
  0
ARC
  5
741
100
AcDbEntity
  8
0
100
AcDbCircle
 62
7
  6
CONTINUOUS
 10
112.9678944633
 20
128.8901571154
 40
1.0
100
AcDbArc
 50
0.0
 51
89.6666666667
  0
ARC
  5
742
100
AcDbEntity
  8
RACCORDO
100
AcDbCircle
 62
7
  6
CONTINUOUS
 10
126.9678944633
 20
125.9409900784
 40
1.0
100
AcDbArc
 50
0.0
 51
89.0
  0
ARC
  5
743
100
AcDbEntity
  8
ASSI
100
AcDbCircle
 62
7
  6
CONTINUOUS
 10
126.9678944633
 20
125.9409900784
 40
1.0
100
AcDbArc
 50
0.0
 51
89.0
  0
ARC
  5
744
100
AcDbEntity
  8
0
100
AcDbCircle
 62
7
  6
CONTINUOUS
 10
108.9678944633
 20
131.0134368963
 40
0.5
100
AcDbArc
 50
0.0
 51
89.6666666667
  0
ARC
  5
745
100
AcDbEntity
  8
0
100
AcDbCircle
 62
7
  6
CONTINUOUS
 10
102.2178944633
 20
131.4014166489
 40
0.25
100
AcDbArc
 50
300.0
 51
360.0
  0
ARC
  5
746
100
AcDbEntity
  8
0
100
AcDbCircle
 62
7
  6
CONTINUOUS
 10
99.2178944633
 20
131.4014166489
 40
0.25
100
AcDbArc
 50
180.0
 51
240.0
  0
ARC
  5
747
100
AcDbEntity
  8
0
100
AcDbCircle
 62
7
  6
CONTINUOUS
 10
102.2178944633
 20
131.8027114784
 40
0.25
100
AcDbArc
 50
0.0
 51
89.6666666667
  0
ARC
  5
748
100
AcDbEntity
  8
0
100
AcDbCircle
 62
7
  6
CONTINUOUS
 10
99.2178944633
 20
131.7939847337
 40
0.25
100
AcDbArc
 50
90.3333333333
 51
180.0
  0
ARC
  5
749
100
AcDbEntity
  8
0
100
AcDbCircle
 62
7
  6
CONTINUOUS
 10
183.0419061435
 20
115.3470790816
 40
90.0
100
AcDbArc
 50
171.4241203952
 51
178.91131468
  0
ARC
  5
74A
100
AcDbEntity
  8
RACCORDO
100
AcDbCircle
 62
7
  6
CONTINUOUS
 10
183.0419061435
 20
115.3470790816
 40
90.0
100
AcDbArc
 50
177.3255262266
 51
178.91131468
  0
ARC
  5
74B
100
AcDbEntity
  8
0
100
AcDbCircle
 62
7
  6
CONTINUOUS
 10
592.9678944633
 20
107.5570790816
 40
500.0
100
AcDbArc
 50
178.91131468
 51
181.08868532
  0
ELLIPSE
  5
74C
100
AcDbEntity
  8
0
100
AcDbEllipse
 62
7
  6
CONTINUOUS
 10
142.2949855033
 20
85.2225888057
 30
0.0
 11
0.25
 21
-0.0
 31
0.0
 40
0.0524077793
 41
1.5707963268
 42
3.1357748894
  0
ELLIPSE
  5
74D
100
AcDbEntity
  8
0
100
AcDbEllipse
 62
7
  6
CONTINUOUS
 10
144.680432467
 20
85.2225888057
 30
0.0
 11
0.25
 21
-0.0
 31
0.0
 40
0.0524077793
 41
0.0058177642
 42
1.5707963268
  0
ELLIPSE
  5
74E
100
AcDbEntity
  8
0
100
AcDbEllipse
 62
7
  6
CONTINUOUS
 10
159.6949855033
 20
85.2225888057
 30
0.0
 11
0.25
 21
-0.0
 31
0.0
 40
0.0524077793
 41
1.5707963268
 42
3.1357748894
  0
ELLIPSE
  5
74F
100
AcDbEntity
  8
0
100
AcDbEllipse
 62
7
  6
CONTINUOUS
 10
162.080432467
 20
85.2225888057
 30
0.0
 11
0.25
 21
-0.0
 31
0.0
 40
0.0524077793
 41
0.0058177642
 42
1.5707963268
  0
ELLIPSE
  5
750
100
AcDbEntity
  8
0
100
AcDbEllipse
 62
7
  6
CONTINUOUS
 10
153.3877089851
 20
129.9413567478
 30
0.0
 11
0.2
 21
-0.0
 31
0.0
 40
0.0524077793
 41
3.1415926536
 42
4.7123889804
  0
ELLIPSE
  5
751
100
AcDbEntity
  8
0
100
AcDbEllipse
 62
7
  6
CONTINUOUS
 10
150.9877089851
 20
129.9413567478
 30
0.0
 11
0.2
 21
0.0
 31
0.0
 40
0.0524077793
 41
-1.5707963268
 42
-0.0
  0
ELLIPSE
  5
752
100
AcDbEntity
  8
0
100
AcDbEllipse
 62
7
  6
CONTINUOUS
 10
153.3877089851
 20
85.1728014154
 30
0.0
 11
0.2
 21
-0.0
 31
0.0
 40
0.0524077793
 41
1.5707963268
 42
3.1415926536
  0
ELLIPSE
  5
753
100
AcDbEntity
  8
0
100
AcDbEllipse
 62
7
  6
CONTINUOUS
 10
150.9877089851
 20
85.1728014154
 30
0.0
 11
0.2
 21
-0.0
 31
0.0
 40
0.0524077793
 41
-0.0
 42
1.5707963268
  0
ELLIPSE
  5
754
100
AcDbEntity
  8
0
100
AcDbEllipse
 62
7
  6
CONTINUOUS
 10
162.080432467
 20
129.8915693575
 30
0.0
 11
0.25
 21
0.0
 31
0.0
 40
0.0524077793
 41
-1.5707963268
 42
-0.0058177642
  0
ELLIPSE
  5
755
100
AcDbEntity
  8
0
100
AcDbEllipse
 62
7
  6
CONTINUOUS
 10
144.680432467
 20
129.8915693575
 30
0.0
 11
0.25
 21
-0.0
 31
0.0
 40
0.0524077793
 41
-1.5707963268
 42
-0.0058177642
  0
ELLIPSE
  5
756
100
AcDbEntity
  8
0
100
AcDbEllipse
 62
7
  6
CONTINUOUS
 10
142.2949855033
 20
129.8915693575
 30
0.0
 11
0.25
 21
-0.0
 31
0.0
 40
0.0524077793
 41
-3.1357748894
 42
-1.5707963268
  0
ELLIPSE
  5
757
100
AcDbEntity
  8
0
100
AcDbEllipse
 62
7
  6
CONTINUOUS
 10
159.6949855033
 20
129.8915693575
 30
0.0
 11
0.25
 21
-0.0
 31
0.0
 40
0.0524077793
 41
-3.1357748894
 42
-1.5707963268
  0
ELLIPSE
  5
758
100
AcDbEntity
  8
0
100
AcDbEllipse
 62
7
  6
CONTINUOUS
 10
113.4678944633
 20
129.6491609599
 30
0.0
 11
0.5
 21
-0.0
 31
0.0
 40
1.0
 41
-1.5533430343
 42
-0.6663193164
  0
ELLIPSE
  5
759
100
AcDbEntity
  8
0
100
AcDbEllipse
 62
7
  6
CONTINUOUS
 10
113.4678944633
 20
85.4649972034
 30
0.0
 11
0.5
 21
0.0
 31
0.0
 40
1.0
 41
0.6663193164
 42
1.5533430343
  0
ELLIPSE
  5
75A
100
AcDbEntity
  8
0
100
AcDbEllipse
 62
7
  6
CONTINUOUS
 10
178.8163241394
 20
130.7070790816
 30
0.0
 11
85.9426996401
 21
0.0
 31
0.0
 40
0.0058178298
 41
2.5196231925
 42
2.6791261215
  0
ELLIPSE
  5
75B
100
AcDbEntity
  8
0
100
AcDbEllipse
 62
7
  6
CONTINUOUS
 10
178.8163241394
 20
130.7070790816
 30
0.0
 11
85.9426996401
 21
-0.0
 31
0.0
 40
0.0058178298
 41
-2.6905658418
 42
-2.5196231925
  0
ELLIPSE
  5
75C
100
AcDbEntity
  8
0
100
AcDbEllipse
 62
7
  6
CONTINUOUS
 10
178.8163241394
 20
84.4070790816
 30
0.0
 11
85.9426996401
 21
-0.0
 31
0.0
 40
0.0058178298
 41
2.5196231925
 42
2.6905658418
  0
ELLIPSE
  5
75D
100
AcDbEntity
  8
0
100
AcDbEllipse
 62
7
  6
CONTINUOUS
 10
178.8163241394
 20
84.4070790816
 30
0.0
 11
85.9426996401
 21
-0.0
 31
0.0
 40
0.0058178298
 41
-2.6791261215
 42
-2.5196231925
  0
ELLIPSE
  5
75E
100
AcDbEntity
  8
DRAFT
100
AcDbEllipse
 62
7
  6
CONTINUOUS
 10
120.4678944633
 20
124.3069246544
 30
0.0
 11
2.7499844883
 21
-0.0184737782
 31
0.0
 40
0.4999830772
 41
1.5828817345
 42
2.8929905793
  0
ELLIPSE
  5
75F
100
AcDbEntity
  8
DRAFT
100
AcDbEllipse
 62
7
  6
CONTINUOUS
 10
121.4178944633
 20
123.8691254835
 30
0.0
 11
2.7583796809
 21
-0.0185301752
 31
0.0
 40
0.4999830772
 41
0.1610394621
 42
1.5741550882
  0
ELLIPSE
  5
760
100
AcDbEntity
  8
0
100
AcDbEllipse
 62
7
  6
CONTINUOUS
 10
120.4567913515
 20
125.6360823781
 30
0.0
 11
3.3055359022
 21
-0.0222057643
 31
0.0
 40
0.4999802567
 41
2.0885246239
 42
4.7103798606
  0
ELLIPSE
  5
761
100
AcDbEntity
  8
DRAFT
100
AcDbEllipse
 62
7
  6
CONTINUOUS
 10
121.4178944633
 20
124.3021381854
 30
0.0
 11
2.7583796809
 21
-0.0185301752
 31
0.0
 40
0.4999830772
 41
6.0422152274
 42
7.8573403954
  0
ELLIPSE
  5
762
100
AcDbEntity
  8
ASSI
100
AcDbEllipse
 62
7
  6
CONTINUOUS
 10
121.4178944633
 20
123.8691254835
 30
0.0
 11
2.7583796809
 21
-0.0185301752
 31
0.0
 40
0.4999830772
 41
0.1610394621
 42
1.5741550882
  0
ELLIPSE
  5
763
100
AcDbEntity
  8
ASSI
100
AcDbEllipse
 62
7
  6
CONTINUOUS
 10
120.4678944633
 20
124.3069246544
 30
0.0
 11
2.7499844883
 21
-0.0184737782
 31
0.0
 40
0.4999830772
 41
1.5828817345
 42
2.8929905793
  0
ELLIPSE
  5
764
100
AcDbEntity
  8
ASSI
100
AcDbEllipse
 62
7
  6
CONTINUOUS
 10
121.4178944633
 20
124.3021381854
 30
0.0
 11
2.7583796809
 21
-0.0185301752
 31
0.0
 40
0.4999830772
 41
6.0422152274
 42
7.8573403954
  0
ELLIPSE
  5
765
100
AcDbEntity
  8
ASSI
100
AcDbEllipse
 62
7
  6
CONTINUOUS
 10
120.4567913515
 20
125.6360823781
 30
0.0
 11
3.3055359022
 21
-0.0222057643
 31
0.0
 40
0.4999802567
 41
2.0885246239
 42
4.7103798606
  0
ELLIPSE
  5
766
100
AcDbEntity
  8
INCISIONI
100
AcDbEllipse
 62
253
  6
CONTINUOUS
 10
107.441242401
 20
102.8762840816
 30
0.0
 11
0.0
 21
0.352865
 31
0.0
 40
0.9996954135
 41
-1.5707963268
 42
1.5707963268
  0
ENDSEC
  0
SECTION
  2
OBJECTS
  0
DICTIONARY
  5
C
100
AcDbDictionary
280
0
281
1
  3
ACAD_GROUP
350
D
  3
ACAD_MLINESTYLE
350
17
  3
ACAD_LAYOUT
350
1A
  3
ACAD_PLOTSETTINGS
350
19
  3
ACAD_PLOTSTYLENAME
350
E
  0
DICTIONARY
  5
D
102
{ACAD_REACTORS
330
C
102
}
100
AcDbDictionary
280
0
281
1
  0
ACDBDICTIONARYWDFLT
  5
E
102
{ACAD_REACTORS
330
C
102
}
100
AcDbDictionary
281
1
  3
Normal
350
F
100
AcDbDictionaryWithDefault
340
F
  0
DICTIONARY
  5
17
102
{ACAD_REACTORS
330
C
102
}
100
AcDbDictionary
280
0
281
1
  3
Standard
350
18
  0
DICTIONARY
  5
19
102
{ACAD_REACTORS
330
C
102
}
100
AcDbDictionary
281
1
  0
DICTIONARY
  5
1A
102
{ACAD_REACTORS
330
C
102
}
100
AcDbDictionary
281
1
  3
Model
350
767
  3
Layout1
350
768
  0
ACDBPLACEHOLDER
  5
F
102
{ACAD_REACTORS
330
E
102
}
  0
MLINESTYLE
  5
18
102
{ACAD_REACTORS
330
17
102
}
100
AcDbMlineStyle
  2
STANDARD
 70
0
  3

 62
256
 51
90.0
 52
90.0
 71
2
 49
0.5
 62
256
  6
BYLAYER
 49
-0.5
 62
256
  6
BYLAYER
  0
LAYOUT
  5
767
102
{ACAD_REACTORS
330
1A
102
}
100
AcDbPlotSettings
  1

  2
none_device
  4
ISO_A4_(297.00_x_210.00_MM)
  6

 40
0.0
 41
0.0
 42
0.0
 43
0.0
 44
297.0
 45
210.0
 46
0.0
 47
0.0
 48
0.0
 49
0.0
140
0.0
141
0.0
142
1.0
143
1.0
 70
1024
 72
1
 73
0
 74
0
  7

 75
0
147
1.0
148
0.0
149
0.0
100
AcDbLayout
  1
Model
 70
0
 71
0
 10
0.0
 20
0.0
 11
297.0
 21
210.0
 12
0.0
 22
0.0
 32
0.0
 14
0.0
 24
0.0
 34
0.0
 15
0.0
 25
0.0
 35
0.0
146
0.0
 13
0.0
 23
0.0
 33
0.0
 16
1.0
 26
0.0
 36
0.0
 17
0.0
 27
1.0
 37
0.0
 76
0
330
215
345
0
346
0
  0
LAYOUT
  5
768
102
{ACAD_REACTORS
330
1A
102
}
100
AcDbPlotSettings
  1

  2
none_device
  4
ISO_A4_(297.00_x_210.00_MM)
  6

 40
0.0
 41
0.0
 42
0.0
 43
0.0
 44
297.0
 45
210.0
 46
0.0
 47
0.0
 48
0.0
 49
0.0
140
0.0
141
0.0
142
1.0
143
1.0
 70
0
 72
1
 73
0
 74
0
  7

 75
0
147
1.0
148
0.0
149
0.0
100
AcDbLayout
  1
Layout1
 70
0
 71
1
 10
0.0
 20
0.0
 11
297.0
 21
210.0
 12
0.0
 22
0.0
 32
0.0
 14
0.0
 24
0.0
 34
0.0
 15
0.0
 25
0.0
 35
0.0
146
0.0
 13
0.0
 23
0.0
 33
0.0
 16
1.0
 26
0.0
 36
0.0
 17
0.0
 27
1.0
 37
0.0
 76
0
330
216
345
0
346
0
  0
ENDSEC
  0
EOF
