  0
SECTION
  2
HEADER
  9
$ACADVER
  1
AC1015
  9
$DWGCODEPAGE
  3
ANSI_1252
  9
$EXTMAX
 10
297.0
 20
210.0
 30
0.0
  9
$EXTMIN
 10
0.0
 20
0.0
 30
0.0
  9
$LIMMIN
 10
0.0
 20
0.0
  9
$LIMMAX
 10
297.0
 20
210.0
  9
$VIEWCTR
 10
148.5
 20
105.0
  9
$VIEWSIZE
 40
210.0
  9
$CLAYER
  8
0
  9
$LTSCALE
 40
16.335
  9
$CELTYPE
  6
BYLAYER
  9
$DIMSCALE
 40
1.0
  9
$DIMASZ
 40
3.0
  9
$DIMEXO
 40
1.85625
  9
$DIMDLI
 40
11.286
  9
$DIMEXE
 40
5.346
  9
$DIMCEN
 40
2.673
  9
$DIMLFAC
 40
1.0
  9
$DIMBLK
  1
_FILLED
  9
$DIMTXT
 40
3.0
  9
$DIMTOL
 70
1
  9
$DIMLIM
 70
0
  9
$DIMTFAC
 40
1.0
  9
$DIMTP
 40
0.01
  9
$DIMTM
 40
0.01
  9
$PDMODE
 70
3
  9
$PDSIZE
 40
3.0
  9
$HANDSEED
  5
451
  9
$TILEMODE
 70
1
  9
$MEASUREMENT
 70
1
  9
$INSUNITS
 70
4
  0
ENDSEC
  0
SECTION
  2
CLASSES
  0
CLASS
  1
ACDBDICTIONARYWDFLT
  2
AcDbDictionaryWithDefault
  3
AutoCAD 2000
 90
0
280
0
281
0
  0
CLASS
  1
ACDBPLACEHOLDER
  2
AcDbPlaceHolder
  3
AutoCAD 2000
 90
0
280
0
281
0
  0
CLASS
  1
LAYOUT
  2
AcDbLayout
  3
AutoCAD 2000
 90
0
280
0
281
0
  0
ENDSEC
  0
SECTION
  2
TABLES
  0
TABLE
  2
VPORT
  5
8
100
AcDbSymbolTable
 70
2
  0
VPORT
  5
1F4
100
AcDbSymbolTableRecord
100
AcDbViewportTableRecord
  2
*ACTIVE
 70
0
 10
0.0
 20
0.0
 11
1.0
 21
1.0
 12
148.5
 22
105.0
 13
0.0
 23
0.0
 14
1.0
 24
1.0
 15
0.0
 25
0.0
 16
0.0
 26
0.0
 36
1.0
 17
0.0
 27
0.0
 37
0.0
 40
210.0
 41
1.4142857143
 42
50.0
 43
0.0
 44
0.0
 50
0.0
 51
0.0
 71
0
 72
100
 73
1
 74
1
 75
0
 76
0
 77
0
 78
0
  0
ENDTAB
  0
TABLE
  2
LTYPE
  5
5
100
AcDbSymbolTable
 70
6
  0
LTYPE
  5
14
100
AcDbSymbolTableRecord
100
AcDbLinetypeTableRecord
  2
BYBLOCK
 70
0
  3

 72
65
 73
0
 40
0.0
  0
LTYPE
  5
15
100
AcDbSymbolTableRecord
100
AcDbLinetypeTableRecord
  2
BYLAYER
 70
0
  3

 72
65
 73
0
 40
0.0
  0
LTYPE
  5
16
100
AcDbSymbolTableRecord
100
AcDbLinetypeTableRecord
  2
CONTINUOUS
 70
64
  3
Solid line
 72
65
 73
0
 40
0.0
  0
LTYPE
  5
1F5
100
AcDbSymbolTableRecord
100
AcDbLinetypeTableRecord
  2
CENTER
 70
64
  3
____ _ ____ _ ____ _ ____ _ ____ _ ____ _ ____
 72
65
 73
4
 40
0.6
 49
0.375
 74
0
 49
-0.075
 74
0
 49
0.075
 74
0
 49
-0.075
 74
0
  0
LTYPE
  5
1F6
100
AcDbSymbolTableRecord
100
AcDbLinetypeTableRecord
  2
HIDDEN
 70
64
  3
- - - - - - - - - - - - - - - - - - - -
 72
65
 73
2
 40
0.2
 49
0.1
 74
0
 49
-0.1
 74
0
  0
LTYPE
  5
1F7
100
AcDbSymbolTableRecord
100
AcDbLinetypeTableRecord
  2
PHANTOM
 70
64
  3
_____ _ _ _____ _ _ _____ _ _ _____
 72
65
 73
6
 40
0.8
 49
0.45
 74
0
 49
-0.05
 74
0
 49
0.1
 74
0
 49
-0.05
 74
0
 49
0.1
 74
0
 49
-0.05
 74
0
  0
LTYPE
  5
1F8
100
AcDbSymbolTableRecord
100
AcDbLinetypeTableRecord
  2
DOT
 70
64
  3
. . . . . . . . . . . . . . . . . . . .
 72
65
 73
2
 40
0.2
 49
0.1
 74
0
 49
-0.1
 74
0
  0
LTYPE
  5
1F9
100
AcDbSymbolTableRecord
100
AcDbLinetypeTableRecord
  2
DASHED
 70
64
  3
- - - - - - - - - - - - - - - - - - - -
 72
65
 73
2
 40
0.2
 49
0.1
 74
0
 49
-0.1
 74
0
  0
ENDTAB
  0
TABLE
  2
LAYER
  5
2
100
AcDbSymbolTable
 70
36
  0
LAYER
  5
10
100
AcDbSymbolTableRecord
100
AcDbLayerTableRecord
  2
0
 70
0
 62
7
  6
CONTINUOUS
370
-3
390
F
  0
LAYER
  5
1FA
100
AcDbSymbolTableRecord
100
AcDbLayerTableRecord
  2
DEFAULT_1
 70
0
 62
7
  6
CENTER
370
-3
390
F
  0
LAYER
  5
1FB
100
AcDbSymbolTableRecord
100
AcDbLayerTableRecord
  2
DEFAULT_2
 70
0
 62
7
  6
HIDDEN
370
-3
390
F
  0
LAYER
  5
1FC
100
AcDbSymbolTableRecord
100
AcDbLayerTableRecord
  2
DEFAULT_3
 70
0
 62
7
  6
PHANTOM
370
-3
390
F
  0
LAYER
  5
1FD
100
AcDbSymbolTableRecord
100
AcDbLayerTableRecord
  2
ASSI
 70
0
 62
7
  6
CONTINUOUS
370
-3
390
F
  0
LAYER
  5
1FE
100
AcDbSymbolTableRecord
100
AcDbLayerTableRecord
  2
COLORE
 70
0
 62
7
  6
CONTINUOUS
370
-3
390
F
  0
LAYER
  5
1FF
100
AcDbSymbolTableRecord
100
AcDbLayerTableRecord
  2
COORDINATE
 70
0
 62
7
  6
CONTINUOUS
370
-3
390
F
  0
LAYER
  5
200
100
AcDbSymbolTableRecord
100
AcDbLayerTableRecord
  2
COORD_ORIGINE
 70
0
 62
7
  6
CONTINUOUS
370
-3
390
F
  0
LAYER
  5
201
100
AcDbSymbolTableRecord
100
AcDbLayerTableRecord
  2
COPY_PUBLISH
 70
0
 62
7
  6
CONTINUOUS
370
-3
390
F
  0
LAYER
  5
202
100
AcDbSymbolTableRecord
100
AcDbLayerTableRecord
  2
COSMETICHE
 70
0
 62
7
  6
CONTINUOUS
370
-3
390
F
  0
LAYER
  5
203
100
AcDbSymbolTableRecord
100
AcDbLayerTableRecord
  2
COSMETICI
 70
0
 62
7
  6
CONTINUOUS
370
-3
390
F
  0
LAYER
  5
204
100
AcDbSymbolTableRecord
100
AcDbLayerTableRecord
  2
CURVE
 70
0
 62
7
  6
CONTINUOUS
370
-3
390
F
  0
LAYER
  5
205
100
AcDbSymbolTableRecord
100
AcDbLayerTableRecord
  2
DRAFT
 70
0
 62
7
  6
CONTINUOUS
370
-3
390
F
  0
LAYER
  5
206
100
AcDbSymbolTableRecord
100
AcDbLayerTableRecord
  2
IMPORT_IGES
 70
0
 62
7
  6
CONTINUOUS
370
-3
390
F
  0
LAYER
  5
207
100
AcDbSymbolTableRecord
100
AcDbLayerTableRecord
  2
NOTE
 70
0
 62
7
  6
CONTINUOUS
370
-3
390
F
  0
LAYER
  5
208
100
AcDbSymbolTableRecord
100
AcDbLayerTableRecord
  2
PIANI
 70
0
 62
7
  6
CONTINUOUS
370
-3
390
F
  0
LAYER
  5
209
100
AcDbSymbolTableRecord
100
AcDbLayerTableRecord
  2
PIANI_ORIGINE
 70
0
 62
7
  6
CONTINUOUS
370
-3
390
F
  0
LAYER
  5
20A
100
AcDbSymbolTableRecord
100
AcDbLayerTableRecord
  2
PUNTI
 70
0
 62
7
  6
CONTINUOUS
370
-3
390
F
  0
LAYER
  5
20B
100
AcDbSymbolTableRecord
100
AcDbLayerTableRecord
  2
RACCORDO
 70
0
 62
7
  6
CONTINUOUS
370
-3
390
F
  0
LAYER
  5
20C
100
AcDbSymbolTableRecord
100
AcDbLayerTableRecord
  2
SIMBOLI
 70
0
 62
7
  6
CONTINUOUS
370
-3
390
F
  0
LAYER
  5
20D
100
AcDbSymbolTableRecord
100
AcDbLayerTableRecord
  2
SMUSSO
 70
0
 62
7
  6
CONTINUOUS
370
-3
390
F
  0
LAYER
  5
20E
100
AcDbSymbolTableRecord
100
AcDbLayerTableRecord
  2
SNAPLINE
 70
0
 62
7
  6
CONTINUOUS
370
-3
390
F
  0
LAYER
  5
20F
100
AcDbSymbolTableRecord
100
AcDbLayerTableRecord
  2
SUPERFICI
 70
0
 62
7
  6
CONTINUOUS
370
-3
390
F
  0
LAYER
  5
210
100
AcDbSymbolTableRecord
100
AcDbLayerTableRecord
  2
TRASH
 70
0
 62
7
  6
CONTINUOUS
370
-3
390
F
  0
LAYER
  5
211
100
AcDbSymbolTableRecord
100
AcDbLayerTableRecord
  2
XSEC_DATUMS
 70
0
 62
7
  6
CONTINUOUS
370
-3
390
F
  0
ENDTAB
  0
TABLE
  2
STYLE
  5
3
100
AcDbSymbolTable
 70
1
  0
STYLE
  5
11
100
AcDbSymbolTableRecord
100
AcDbTextStyleTableRecord
  2
STANDARD
 70
0
 40
0.0
 41
0.8
 50
0.0
 71
0
 42
0.2
  3
txt
  4

  0
STYLE
  5
212
100
AcDbSymbolTableRecord
100
AcDbTextStyleTableRecord
  2
TEXTSTYLE_1
 70
0
 40
0.0
 41
0.8
 50
0.0
 71
0
 42
0.2
  3
gdt
  4

  0
ENDTAB
  0
TABLE
  2
VIEW
  5
6
100
AcDbSymbolTable
 70
0
  0
ENDTAB
  0
TABLE
  2
UCS
  5
7
100
AcDbSymbolTable
 70
0
  0
ENDTAB
  0
TABLE
  2
APPID
  5
9
100
AcDbSymbolTable
 70
1
  0
APPID
  5
213
100
AcDbSymbolTableRecord
100
AcDbRegAppTableRecord
  2
ACAD
 70
0
  0
ENDTAB
  0
TABLE
  2
BLOCK_RECORD
  5
1
100
AcDbSymbolTable
 70
0
  0
BLOCK_RECORD
  5
214
100
AcDbSymbolTableRecord
100
AcDbBlockTableRecord
  2
*Model_Space
  0
BLOCK_RECORD
  5
215
100
AcDbSymbolTableRecord
100
AcDbBlockTableRecord
  2
*Paper_Space
  0
BLOCK_RECORD
  5
216
100
AcDbSymbolTableRecord
100
AcDbBlockTableRecord
  2
_FILLED
  0
BLOCK_RECORD
  5
217
100
AcDbSymbolTableRecord
100
AcDbBlockTableRecord
  2
*D0
  0
BLOCK_RECORD
  5
218
100
AcDbSymbolTableRecord
100
AcDbBlockTableRecord
  2
*D1
  0
BLOCK_RECORD
  5
219
100
AcDbSymbolTableRecord
100
AcDbBlockTableRecord
  2
*D2
  0
ENDTAB
  0
TABLE
  2
DIMSTYLE
  5
A
100
AcDbSymbolTable
 70
1
100
AcDbDimStyleTable
 71
0
  0
DIMSTYLE
105
21A
100
AcDbSymbolTableRecord
100
AcDbDimStyleTableRecord
  2
STANDARD
 70
0
  3

  4

 40
1.0
 41
3.0
 42
0.0625
 43
0.38
 44
0.18
 45
0.0
 46
0.0
 47
0.01
 48
0.01
140
3.0
141
0.09
142
0.0
143
25.4
144
1.0
145
0.0
146
1.0
147
0.09
 71
1.0
 72
0.0
 73
0
 74
0
 75
0
 76
0
 77
1
 78
8
170
0
171
2
172
0
173
0
174
0
175
0
176
0
177
0
178
0
270
2
271
2
272
2
273
2
274
2
275
0
280
0
281
0
282
0
283
1
284
8
285
0
286
0
287
3
288
0
340
11
341
216
342
216
343
216
344
216
  0
DIMSTYLE
105
21B
100
AcDbSymbolTableRecord
100
AcDbDimStyleTableRecord
  2
DIMSTYLE_1
 70
0
  3

  4

 40
1.0
 41
3.0
 42
0.0625
 43
0.38
 44
0.18
 45
0.0
 46
0.0
 47
0.0
 48
0.0
140
3.0
141
0.09
142
0.0
143
25.4
144
1.0
145
0.0
146
1.0
147
0.09
 71
0.0
 72
0.0
 73
0
 74
0
 75
0
 76
0
 77
1
 78
8
170
0
171
2
172
0
173
0
174
0
175
0
176
0
177
0
178
0
270
2
271
2
272
2
273
2
274
2
275
0
280
0
281
0
282
0
283
1
284
8
285
0
286
0
287
3
288
0
340
11
341
216
342
216
343
216
344
216
  0
ENDTAB
  0
ENDSEC
  0
SECTION
  2
BLOCKS
  0
BLOCK
  5
20
100
AcDbEntity
  8
0
100
AcDbBlockBegin
  2
*Model_Space
 70
0
 10
0.0
 20
0.0
 30
0.0
  3
*Model_Space
  1

  0
ENDBLK
  5
21
100
AcDbEntity
  8
0
100
AcDbBlockEnd
  0
BLOCK
  5
1C
100
AcDbEntity
  8
0
100
AcDbBlockBegin
  2
*Paper_Space
 70
0
 10
0.0
 20
0.0
 30
0.0
  3
*Paper_Space
  1

  0
ENDBLK
  5
1D
100
AcDbEntity
  8
0
100
AcDbBlockEnd
  0
BLOCK
  5
21C
100
AcDbEntity
  8
0
100
AcDbBlockBegin
  2
_FILLED
 70
64
 10
0.0
 20
0.0
  3
_FILLED
  1

  0
SOLID
  5
21D
100
AcDbEntity
  8
0
  6
BYBLOCK
 62
0
100
AcDbTrace
 10
0.0
 20
0.0
 11
-1.0
 21
0.3166666667
 12
-1.0
 22
-0.3166666667
 13
-1.0
 23
-0.3166666667
  0
ENDBLK
  5
21E
100
AcDbEntity
  8
0
  6
BYBLOCK
 62
0
100
AcDbBlockEnd
  0
BLOCK
  5
21F
100
AcDbEntity
  8
0
100
AcDbBlockBegin
 62
7
  6
CONTINUOUS
  2
*D0
 70
65
 10
0.0
 20
0.0
  3
*D0
  1

  0
LINE
  5
220
100
AcDbEntity
  8
0
100
AcDbLine
 62
7
  6
CONTINUOUS
 10
-47.0214864865
 20
0.5
 11
-47.0214864865
 21
44.5
  0
LINE
  5
221
100
AcDbEntity
  8
0
100
AcDbLine
 62
7
  6
CONTINUOUS
 10
-38.2214864865
 20
27.7023651948
 11
-38.2214864865
 21
44.5
  0
LINE
  5
222
100
AcDbEntity
  8
0
100
AcDbLine
 62
7
  6
CONTINUOUS
 10
-47.0214864865
 20
43.0
 11
-51.0214864865
 21
43.0
  0
LINE
  5
223
100
AcDbEntity
  8
0
100
AcDbLine
 62
7
  6
CONTINUOUS
 10
-51.0214864865
 20
43.0
 11
-42.6214864865
 21
43.0
  0
LINE
  5
224
100
AcDbEntity
  8
0
100
AcDbLine
 62
7
  6
CONTINUOUS
 10
-38.2214864865
 20
43.0
 11
-34.2214864865
 21
43.0
  0
LINE
  5
225
100
AcDbEntity
  8
0
100
AcDbLine
 62
7
  6
CONTINUOUS
 10
-34.2214864865
 20
43.0
 11
-42.6214864865
 21
43.0
  0
INSERT
  5
226
100
AcDbEntity
  8
0
100
AcDbBlockReference
 62
7
  6
CONTINUOUS
  2
_FILLED
 10
-47.0214864865
 20
43.0
 41
3.0
 42
3.0
 43
3.0
  0
INSERT
  5
227
100
AcDbEntity
  8
0
100
AcDbBlockReference
 62
7
  6
CONTINUOUS
  2
_FILLED
 10
-38.2214864865
 20
43.0
 41
3.0
 42
3.0
 43
3.0
 50
180.0
  0
ENDBLK
  5
228
100
AcDbEntity
  8
0
  6
BYBLOCK
 62
0
100
AcDbBlockEnd
  0
BLOCK
  5
229
100
AcDbEntity
  8
0
100
AcDbBlockBegin
 62
7
  6
CONTINUOUS
  2
*D1
 70
65
 10
0.0
 20
0.0
  3
*D1
  1

  0
LINE
  5
22A
100
AcDbEntity
  8
0
100
AcDbLine
 62
7
  6
CONTINUOUS
 10
-24.5
 20
24.2507615242
 11
-24.5
 21
44.5
  0
LINE
  5
22B
100
AcDbEntity
  8
0
100
AcDbLine
 62
7
  6
CONTINUOUS
 10
24.5
 20
24.2507615242
 11
24.5
 21
44.5
  0
LINE
  5
22C
100
AcDbEntity
  8
0
100
AcDbLine
 62
7
  6
CONTINUOUS
 10
-24.5
 20
43.0
 11
0.0
 21
43.0
  0
LINE
  5
22D
100
AcDbEntity
  8
0
100
AcDbLine
 62
7
  6
CONTINUOUS
 10
24.5
 20
43.0
 11
0.0
 21
43.0
  0
INSERT
  5
22E
100
AcDbEntity
  8
0
100
AcDbBlockReference
 62
7
  6
CONTINUOUS
  2
_FILLED
 10
-24.5
 20
43.0
 41
3.0
 42
3.0
 43
3.0
 50
180.0
  0
INSERT
  5
22F
100
AcDbEntity
  8
0
100
AcDbBlockReference
 62
7
  6
CONTINUOUS
  2
_FILLED
 10
24.5
 20
43.0
 41
3.0
 42
3.0
 43
3.0
  0
ENDBLK
  5
230
100
AcDbEntity
  8
0
  6
BYBLOCK
 62
0
100
AcDbBlockEnd
  0
BLOCK
  5
231
100
AcDbEntity
  8
0
100
AcDbBlockBegin
 62
7
  6
CONTINUOUS
  2
*D2
 70
65
 10
0.0
 20
0.0
  3
*D2
  1

  0
LINE
  5
232
100
AcDbEntity
  8
0
100
AcDbLine
 62
7
  6
CONTINUOUS
 10
20.0007615242
 20
-28.75
 11
44.5
 21
-28.75
  0
LINE
  5
233
100
AcDbEntity
  8
0
100
AcDbLine
 62
7
  6
CONTINUOUS
 10
20.0007615242
 20
28.75
 11
44.5
 21
28.75
  0
LINE
  5
234
100
AcDbEntity
  8
0
100
AcDbLine
 62
7
  6
CONTINUOUS
 10
43.0
 20
-28.75
 11
43.0
 21
0.0
  0
LINE
  5
235
100
AcDbEntity
  8
0
100
AcDbLine
 62
7
  6
CONTINUOUS
 10
43.0
 20
28.75
 11
43.0
 21
0.0
  0
INSERT
  5
236
100
AcDbEntity
  8
0
100
AcDbBlockReference
 62
7
  6
CONTINUOUS
  2
_FILLED
 10
43.0
 20
-28.75
 41
3.0
 42
3.0
 43
3.0
 50
270.0
  0
INSERT
  5
237
100
AcDbEntity
  8
0
100
AcDbBlockReference
 62
7
  6
CONTINUOUS
  2
_FILLED
 10
43.0
 20
28.75
 41
3.0
 42
3.0
 43
3.0
 50
90.0
  0
ENDBLK
  5
238
100
AcDbEntity
  8
0
  6
BYBLOCK
 62
0
100
AcDbBlockEnd
  0
ENDSEC
  0
SECTION
  2
ENTITIES
  0
DIMENSION
  5
239
100
AcDbEntity
  8
0
100
AcDbDimension
 62
7
  6
CONTINUOUS
  2
*D0
 10
-38.2214864865
 20
43.0
 11
-45.8357722008
 21
43.75
 70
160
 71
2
 42
8.8
  3
DIMSTYLE_1
100
AcDbAlignedDimension
 13
-47.0214864865
 23
0.5
 14
-38.2214864865
 24
27.7023651948
100
AcDbRotatedDimension
  0
DIMENSION
  5
23A
100
AcDbEntity
  8
0
100
AcDbDimension
 62
7
  6
CONTINUOUS
  2
*D1
 10
24.5
 20
43.0
 11
-2.3571428571
 21
43.75
 70
160
 71
2
 42
49.0
  3
DIMSTYLE_1
100
AcDbAlignedDimension
 13
-24.5
 23
24.2507615242
 14
24.5
 24
24.2507615242
100
AcDbRotatedDimension
  0
DIMENSION
  5
23B
100
AcDbEntity
  8
0
100
AcDbDimension
 62
7
  6
CONTINUOUS
  2
*D2
 10
43.0
 20
28.75
 11
42.25
 21
-4.1785714286
 70
160
 71
2
 42
57.5
  3
DIMSTYLE_1
100
AcDbAlignedDimension
 13
20.0007615242
 23
-28.75
 14
20.0007615242
 24
28.75
 50
90.0
100
AcDbRotatedDimension
  0
LWPOLYLINE
  5
23C
100
AcDbEntity
  8
0
100
AcDbPolyline
 62
7
  6
CONTINUOUS
 90
10
 70
0
 43
0.3500000006
 10
0.4285714127
 20
43.7499994354
 10
1.2857142735
 20
44.6071419067
 10
1.5000000329
 20
45.4642843781
 10
1.5000000329
 20
46.3214268494
 10
1.0714285848
 20
46.750000351
 10
0.4285714127
 20
46.750000351
 10
0.0
 20
46.3214268494
 10
0.0
 20
45.4642843781
 10
0.4285714127
 20
45.0357154083
 10
1.3571429071
 20
45.0357154083
  0
LINE
  5
23D
100
AcDbEntity
  8
SMUSSO
100
AcDbLine
 62
7
  6
CONTINUOUS
 10
-15.25
 20
26.050091369
 11
-14.65
 21
26.650091369
  0
LINE
  5
23E
100
AcDbEntity
  8
RACCORDO
100
AcDbLine
 62
253
  6
CONTINUOUS
 10
-7.0031688183
 20
28.314405705
 11
-6.7319205029
 21
28.4424562366
  0
LINE
  5
23F
100
AcDbEntity
  8
RACCORDO
100
AcDbLine
 62
7
  6
CONTINUOUS
 10
19.5007615242
 20
-28.75
 11
7.17064049
 21
-28.75
  0
LINE
  5
240
100
AcDbEntity
  8
RACCORDO
100
AcDbLine
 62
7
  6
CONTINUOUS
 10
-7.17064049
 20
-28.75
 11
-19.5007615242
 21
-28.75
  0
LINE
  5
241
100
AcDbEntity
  8
RACCORDO
100
AcDbLine
 62
253
  6
CONTINUOUS
 10
-19.4795999352
 20
-28.7289625322
 11
-7.1840010288
 21
-28.7289625322
  0
LINE
  5
242
100
AcDbEntity
  8
RACCORDO
100
AcDbLine
 62
253
  6
CONTINUOUS
 10
7.1840010288
 20
-28.7289625322
 11
19.4796117038
 21
-28.7289625322
  0
LINE
  5
243
100
AcDbEntity
  8
RACCORDO
100
AcDbLine
 62
253
  6
CONTINUOUS
 10
-19.4797240564
 20
-28.4290082237
 11
-7.1840010288
 21
-28.4290082237
  0
LINE
  5
244
100
AcDbEntity
  8
RACCORDO
100
AcDbLine
 62
253
  6
CONTINUOUS
 10
7.1840010288
 20
-28.4290082237
 11
19.4797240564
 21
-28.4290082237
  0
LINE
  5
245
100
AcDbEntity
  8
DRAFT
100
AcDbLine
 62
7
  6
CONTINUOUS
 10
-14.65
 20
-27.15
 11
-12.0
 21
-27.15
  0
LINE
  5
246
100
AcDbEntity
  8
DRAFT
100
AcDbLine
 62
7
  6
CONTINUOUS
 10
-10.5
 20
-27.15
 11
-7.85
 21
-27.15
  0
LINE
  5
247
100
AcDbEntity
  8
DRAFT
100
AcDbLine
 62
7
  6
CONTINUOUS
 10
7.85
 20
-27.15
 11
10.5
 21
-27.15
  0
LINE
  5
248
100
AcDbEntity
  8
DRAFT
100
AcDbLine
 62
7
  6
CONTINUOUS
 10
12.0
 20
-27.15
 11
14.65
 21
-27.15
  0
LINE
  5
249
100
AcDbEntity
  8
DRAFT
100
AcDbLine
 62
7
  6
CONTINUOUS
 10
12.0
 20
-27.0
 11
10.5
 21
-27.0
  0
LINE
  5
24A
100
AcDbEntity
  8
DRAFT
100
AcDbLine
 62
7
  6
CONTINUOUS
 10
-10.5
 20
-27.0
 11
-12.0
 21
-27.0
  0
LINE
  5
24B
100
AcDbEntity
  8
RACCORDO
100
AcDbLine
 62
253
  6
CONTINUOUS
 10
-7.0031688182
 20
-28.314405705
 11
-6.7319205026
 21
-28.4424562358
  0
LINE
  5
24C
100
AcDbEntity
  8
SMUSSO
100
AcDbLine
 62
7
  6
CONTINUOUS
 10
-14.65
 20
-26.650091369
 11
-15.25
 21
-26.050091369
  0
LINE
  5
24D
100
AcDbEntity
  8
RACCORDO
100
AcDbLine
 62
7
  6
CONTINUOUS
 10
-24.5
 20
-23.7507615242
 11
-24.5
 21
23.7507615242
  0
LINE
  5
24E
100
AcDbEntity
  8
RACCORDO
100
AcDbLine
 62
253
  6
CONTINUOUS
 10
-24.4789625322
 20
23.7295999352
 11
-24.4789625322
 21
-23.7296117038
  0
LINE
  5
24F
100
AcDbEntity
  8
RACCORDO
100
AcDbLine
 62
253
  6
CONTINUOUS
 10
-24.1790082237
 20
23.7297240564
 11
-24.1790082237
 21
-23.7297240564
  0
LINE
  5
250
100
AcDbEntity
  8
DRAFT
100
AcDbLine
 62
7
  6
CONTINUOUS
 10
-8.75
 20
25.3
 11
-8.7526449144
 21
25.2973550856
  0
LINE
  5
251
100
AcDbEntity
  8
DRAFT
100
AcDbLine
 62
7
  6
CONTINUOUS
 10
8.7526449144
 20
-25.2973550856
 11
13.7473550856
 21
-25.2973550856
  0
LINE
  5
252
100
AcDbEntity
  8
DRAFT
100
AcDbLine
 62
7
  6
CONTINUOUS
 10
-8.7526449144
 20
-25.2973550856
 11
-13.7473550856
 21
-25.2973550856
  0
LINE
  5
253
100
AcDbEntity
  8
DRAFT
100
AcDbLine
 62
7
  6
CONTINUOUS
 10
-15.25
 20
-25.05
 11
-13.75
 21
-25.05
  0
LINE
  5
254
100
AcDbEntity
  8
DRAFT
100
AcDbLine
 62
7
  6
CONTINUOUS
 10
-8.75
 20
-25.05
 11
-7.25
 21
-25.05
  0
LINE
  5
255
100
AcDbEntity
  8
DRAFT
100
AcDbLine
 62
7
  6
CONTINUOUS
 10
7.25
 20
-25.05
 11
8.75
 21
-25.05
  0
LINE
  5
256
100
AcDbEntity
  8
DRAFT
100
AcDbLine
 62
7
  6
CONTINUOUS
 10
13.75
 20
-25.05
 11
15.25
 21
-25.05
  0
LINE
  5
257
100
AcDbEntity
  8
DRAFT
100
AcDbLine
 62
7
  6
CONTINUOUS
 10
8.7552365195
 20
-25.0401923789
 11
13.7447634805
 21
-25.0401923789
  0
LINE
  5
258
100
AcDbEntity
  8
DRAFT
100
AcDbLine
 62
7
  6
CONTINUOUS
 10
-8.7552365195
 20
-25.0401923789
 11
-13.7447634805
 21
-25.0401923789
  0
LINE
  5
259
100
AcDbEntity
  8
DRAFT
100
AcDbLine
 62
7
  6
CONTINUOUS
 10
8.7552365195
 20
-24.5803847577
 11
13.7447634805
 21
-24.5803847577
  0
LINE
  5
25A
100
AcDbEntity
  8
DRAFT
100
AcDbLine
 62
7
  6
CONTINUOUS
 10
-8.7552365195
 20
-24.5803847577
 11
-13.7447634805
 21
-24.5803847577
  0
LINE
  5
25B
100
AcDbEntity
  8
DRAFT
100
AcDbLine
 62
7
  6
CONTINUOUS
 10
8.75
 20
-24.5
 11
13.75
 21
-24.5
  0
LINE
  5
25C
100
AcDbEntity
  8
DRAFT
100
AcDbLine
 62
7
  6
CONTINUOUS
 10
-8.75
 20
-24.5
 11
-13.75
 21
-24.5
  0
LINE
  5
25D
100
AcDbEntity
  8
DRAFT
100
AcDbLine
 62
7
  6
CONTINUOUS
 10
-15.25
 20
-24.05
 11
-7.25
 21
-24.05
  0
LINE
  5
25E
100
AcDbEntity
  8
DRAFT
100
AcDbLine
 62
7
  6
CONTINUOUS
 10
7.25
 20
-24.05
 11
15.25
 21
-24.05
  0
LINE
  5
25F
100
AcDbEntity
  8
RACCORDO
100
AcDbLine
 62
253
  6
CONTINUOUS
 10
24.1790082237
 20
-23.7297240564
 11
24.4789625322
 21
-23.7297240564
  0
LINE
  5
260
100
AcDbEntity
  8
RACCORDO
100
AcDbLine
 62
253
  6
CONTINUOUS
 10
-24.1790082237
 20
-23.7297240564
 11
-24.4789625322
 21
-23.7297240563
  0
LINE
  5
261
100
AcDbEntity
  8
DRAFT
100
AcDbLine
 62
7
  6
CONTINUOUS
 10
15.25
 20
-22.85
 11
7.25
 21
-22.85
  0
LINE
  5
262
100
AcDbEntity
  8
DRAFT
100
AcDbLine
 62
7
  6
CONTINUOUS
 10
-7.25
 20
-22.85
 11
-15.25
 21
-22.85
  0
LINE
  5
263
100
AcDbEntity
  8
DRAFT
100
AcDbLine
 62
7
  6
CONTINUOUS
 10
-8.7526449144
 20
-25.2973550856
 11
-8.75
 21
-25.3
  0
LINE
  5
264
100
AcDbEntity
  8
RACCORDO
100
AcDbLine
 62
253
  6
CONTINUOUS
 10
-21.6534234708
 20
9.4999778387
 11
-21.6510754062
 21
0.7063988179
  0
LINE
  5
265
100
AcDbEntity
  8
RACCORDO
100
AcDbLine
 62
7
  6
CONTINUOUS
 10
-22.2900191294
 20
-21.742776427
 11
-22.2900191294
 21
21.742776427
  0
LINE
  5
266
100
AcDbEntity
  8
RACCORDO
100
AcDbLine
 62
253
  6
CONTINUOUS
 10
-19.4797240564
 20
-28.4290082237
 11
-19.4797240564
 21
-28.7289625322
  0
LINE
  5
267
100
AcDbEntity
  8
RACCORDO
100
AcDbLine
 62
253
  6
CONTINUOUS
 10
-19.4797240564
 20
28.4290082237
 11
-19.4797240563
 21
28.7289625322
  0
LINE
  5
268
100
AcDbEntity
  8
RACCORDO
100
AcDbLine
 62
253
  6
CONTINUOUS
 10
-21.651075406
 20
-0.7063988189
 11
-21.6534234704
 21
-9.4999767721
  0
LINE
  5
269
100
AcDbEntity
  8
RACCORDO
100
AcDbLine
 62
7
  6
CONTINUOUS
 10
-21.7905329658
 20
-22.2427766622
 11
21.7905329658
 21
-22.2427766622
  0
LINE
  5
26A
100
AcDbEntity
  8
RACCORDO
100
AcDbLine
 62
253
  6
CONTINUOUS
 10
21.6914028735
 20
-22.0443804367
 11
-21.6914028735
 21
-22.0443804367
  0
LINE
  5
26B
100
AcDbEntity
  8
RACCORDO
100
AcDbLine
 62
253
  6
CONTINUOUS
 10
21.6791411825
 20
-21.1946917253
 11
-21.6791411825
 21
-21.1946917253
  0
LINE
  5
26C
100
AcDbEntity
  8
DRAFT
100
AcDbLine
 62
7
  6
CONTINUOUS
 10
-6.3482544935
 20
19.0017455065
 11
-6.35
 21
19.0
  0
LINE
  5
26D
100
AcDbEntity
  8
DRAFT
100
AcDbLine
 62
7
  6
CONTINUOUS
 10
-13.75
 20
-24.5
 11
-13.7447634805
 21
-24.5803847577
  0
LINE
  5
26E
100
AcDbEntity
  8
DRAFT
100
AcDbLine
 62
7
  6
CONTINUOUS
 10
-13.7473550856
 20
25.2973550856
 11
-13.7447634805
 21
25.0401923789
  0
LINE
  5
26F
100
AcDbEntity
  8
SMUSSO
100
AcDbLine
 62
7
  6
CONTINUOUS
 10
-15.25
 20
26.050091369
 11
-15.25
 21
25.05
  0
LINE
  5
270
100
AcDbEntity
  8
DRAFT
100
AcDbLine
 62
7
  6
CONTINUOUS
 10
-15.25
 20
24.05
 11
-15.25
 21
22.85
  0
LINE
  5
271
100
AcDbEntity
  8
DRAFT
100
AcDbLine
 62
7
  6
CONTINUOUS
 10
-15.25
 20
-22.85
 11
-15.25
 21
-24.05
  0
LINE
  5
272
100
AcDbEntity
  8
SMUSSO
100
AcDbLine
 62
7
  6
CONTINUOUS
 10
-15.25
 20
-25.05
 11
-15.25
 21
-26.050091369
  0
LINE
  5
273
100
AcDbEntity
  8
SMUSSO
100
AcDbLine
 62
7
  6
CONTINUOUS
 10
-14.65
 20
27.15
 11
-14.65
 21
26.650091369
  0
LINE
  5
274
100
AcDbEntity
  8
SMUSSO
100
AcDbLine
 62
7
  6
CONTINUOUS
 10
-14.65
 20
-26.650091369
 11
-14.65
 21
-27.15
  0
LINE
  5
275
100
AcDbEntity
  8
DRAFT
100
AcDbLine
 62
7
  6
CONTINUOUS
 10
-13.75
 20
-25.05
 11
-13.75
 21
-24.5
  0
LINE
  5
276
100
AcDbEntity
  8
DRAFT
100
AcDbLine
 62
7
  6
CONTINUOUS
 10
-13.75
 20
24.5
 11
-13.75
 21
25.05
  0
LINE
  5
277
100
AcDbEntity
  8
DRAFT
100
AcDbLine
 62
7
  6
CONTINUOUS
 10
-13.7447634805
 20
25.0401923789
 11
-13.7447634805
 21
24.5803847577
  0
LINE
  5
278
100
AcDbEntity
  8
DRAFT
100
AcDbLine
 62
7
  6
CONTINUOUS
 10
-13.7447634805
 20
-24.5803847577
 11
-13.7447634805
 21
-25.0401923789
  0
LINE
  5
279
100
AcDbEntity
  8
DRAFT
100
AcDbLine
 62
7
  6
CONTINUOUS
 10
-13.7447634805
 20
-25.0401923789
 11
-13.7473550856
 21
-25.2973550856
  0
LINE
  5
27A
100
AcDbEntity
  8
DRAFT
100
AcDbLine
 62
7
  6
CONTINUOUS
 10
-13.7447634805
 20
24.5803847577
 11
-13.75
 21
24.5
  0
LINE
  5
27B
100
AcDbEntity
  8
RACCORDO
100
AcDbLine
 62
253
  6
CONTINUOUS
 10
-6.55549112
 20
22.0443804367
 11
-6.4981403136
 21
22.2165727725
  0
LINE
  5
27C
100
AcDbEntity
  8
RACCORDO
100
AcDbLine
 62
253
  6
CONTINUOUS
 10
-6.4055139657
 20
21.8945860065
 11
-6.3482544935
 21
22.0665041169
  0
LINE
  5
27D
100
AcDbEntity
  8
SMUSSO
100
AcDbLine
 62
7
  6
CONTINUOUS
 10
7.25
 20
26.050091369
 11
7.85
 21
26.650091369
  0
LINE
  5
27E
100
AcDbEntity
  8
SMUSSO
100
AcDbLine
 62
7
  6
CONTINUOUS
 10
7.85
 20
-26.650091369
 11
7.25
 21
-26.050091369
  0
LINE
  5
27F
100
AcDbEntity
  8
DRAFT
100
AcDbLine
 62
7
  6
CONTINUOUS
 10
-12.0
 20
27.15
 11
-12.0
 21
27.0
  0
LINE
  5
280
100
AcDbEntity
  8
DRAFT
100
AcDbLine
 62
7
  6
CONTINUOUS
 10
-12.0
 20
-27.0
 11
-12.0
 21
-27.15
  0
LINE
  5
281
100
AcDbEntity
  8
DRAFT
100
AcDbLine
 62
7
  6
CONTINUOUS
 10
-10.5
 20
-27.15
 11
-10.5
 21
-27.0
  0
LINE
  5
282
100
AcDbEntity
  8
DRAFT
100
AcDbLine
 62
7
  6
CONTINUOUS
 10
-10.5
 20
27.0
 11
-10.5
 21
27.15
  0
LINE
  5
283
100
AcDbEntity
  8
DRAFT
100
AcDbLine
 62
7
  6
CONTINUOUS
 10
-6.1467267152
 20
18.1892899476
 11
-6.1098533507
 21
18.3
  0
LINE
  5
284
100
AcDbEntity
  8
DRAFT
100
AcDbLine
 62
7
  6
CONTINUOUS
 10
-3.0087275325
 20
22.2165727725
 11
-3.0
 21
22.2427766622
  0
LINE
  5
285
100
AcDbEntity
  8
RACCORDO
100
AcDbLine
 62
253
  6
CONTINUOUS
 10
-22.1912315359
 20
-21.5450656693
 11
-22.2900191294
 21
-21.742776427
  0
LINE
  5
286
100
AcDbEntity
  8
RACCORDO
100
AcDbLine
 62
253
  6
CONTINUOUS
 10
-21.6914028735
 20
-22.0443804367
 11
-21.7905329658
 21
-22.2427766622
  0
LINE
  5
287
100
AcDbEntity
  8
RACCORDO
100
AcDbLine
 62
253
  6
CONTINUOUS
 10
-21.6534234535
 20
-9.4999767721
 11
21.6534234535
 21
-9.499976772
  0
LINE
  5
288
100
AcDbEntity
  8
RACCORDO
100
AcDbLine
 62
253
  6
CONTINUOUS
 10
-22.2900191294
 20
21.742776427
 11
-22.1912315359
 21
21.5450656693
  0
LINE
  5
289
100
AcDbEntity
  8
RACCORDO
100
AcDbLine
 62
253
  6
CONTINUOUS
 10
-21.7905329658
 20
22.2427766622
 11
-21.6914028735
 21
22.0443804367
  0
LINE
  5
28A
100
AcDbEntity
  8
DRAFT
100
AcDbLine
 62
7
  6
CONTINUOUS
 10
-8.7552365195
 20
24.5803847577
 11
-8.75
 21
24.5
  0
LINE
  5
28B
100
AcDbEntity
  8
DRAFT
100
AcDbLine
 62
7
  6
CONTINUOUS
 10
-8.7552365195
 20
-25.0401923789
 11
-8.7526449144
 21
-25.2973550856
  0
LINE
  5
28C
100
AcDbEntity
  8
DRAFT
100
AcDbLine
 62
7
  6
CONTINUOUS
 10
-8.7552365195
 20
25.0401923789
 11
-8.7552365195
 21
24.5803847577
  0
LINE
  5
28D
100
AcDbEntity
  8
DRAFT
100
AcDbLine
 62
7
  6
CONTINUOUS
 10
-8.7552365195
 20
-24.5803847577
 11
-8.7552365195
 21
-25.0401923789
  0
LINE
  5
28E
100
AcDbEntity
  8
DRAFT
100
AcDbLine
 62
7
  6
CONTINUOUS
 10
-8.75
 20
-25.05
 11
-8.75
 21
-24.5
  0
LINE
  5
28F
100
AcDbEntity
  8
DRAFT
100
AcDbLine
 62
7
  6
CONTINUOUS
 10
-8.75
 20
24.5
 11
-8.75
 21
25.05
  0
LINE
  5
290
100
AcDbEntity
  8
SMUSSO
100
AcDbLine
 62
7
  6
CONTINUOUS
 10
-7.85
 20
-27.15
 11
-7.85
 21
-26.650091369
  0
LINE
  5
291
100
AcDbEntity
  8
SMUSSO
100
AcDbLine
 62
7
  6
CONTINUOUS
 10
-7.85
 20
26.650091369
 11
-7.85
 21
27.15
  0
LINE
  5
292
100
AcDbEntity
  8
SMUSSO
100
AcDbLine
 62
7
  6
CONTINUOUS
 10
-7.25
 20
-26.050091369
 11
-7.25
 21
-25.05
  0
LINE
  5
293
100
AcDbEntity
  8
DRAFT
100
AcDbLine
 62
7
  6
CONTINUOUS
 10
-7.25
 20
-24.05
 11
-7.25
 21
-22.85
  0
LINE
  5
294
100
AcDbEntity
  8
DRAFT
100
AcDbLine
 62
7
  6
CONTINUOUS
 10
-7.25
 20
22.85
 11
-7.25
 21
24.05
  0
LINE
  5
295
100
AcDbEntity
  8
SMUSSO
100
AcDbLine
 62
7
  6
CONTINUOUS
 10
-7.25
 20
25.05
 11
-7.25
 21
26.050091369
  0
LINE
  5
296
100
AcDbEntity
  8
RACCORDO
100
AcDbLine
 62
253
  6
CONTINUOUS
 10
-7.1840010288
 20
-28.4290082237
 11
-7.1840010277
 21
-28.7289625322
  0
LINE
  5
297
100
AcDbEntity
  8
RACCORDO
100
AcDbLine
 62
253
  6
CONTINUOUS
 10
-7.1840010288
 20
28.4290082237
 11
-7.1840010288
 21
28.7289625322
  0
LINE
  5
298
100
AcDbEntity
  8
DRAFT
100
AcDbLine
 62
7
  6
CONTINUOUS
 10
-6.35
 20
16.0
 11
-6.35
 21
19.0
  0
LINE
  5
299
100
AcDbEntity
  8
RACCORDO
100
AcDbLine
 62
7
  6
CONTINUOUS
 10
-6.3482544935
 20
19.0017455065
 11
-6.3482544935
 21
22.0665041169
  0
LINE
  5
29A
100
AcDbEntity
  8
DRAFT
100
AcDbLine
 62
7
  6
CONTINUOUS
 10
-8.7526449144
 20
25.2973550856
 11
-8.7552365195
 21
25.0401923789
  0
LINE
  5
29B
100
AcDbEntity
  8
DRAFT
100
AcDbLine
 62
7
  6
CONTINUOUS
 10
-8.75
 20
-24.5
 11
-8.7552365195
 21
-24.5803847577
  0
LINE
  5
29C
100
AcDbEntity
  8
DRAFT
100
AcDbLine
 62
7
  6
CONTINUOUS
 10
13.75
 20
25.3
 11
13.7473550856
 21
25.2973550856
  0
LINE
  5
29D
100
AcDbEntity
  8
RACCORDO
100
AcDbLine
 62
253
  6
CONTINUOUS
 10
19.5007615242
 20
28.75
 11
19.4795999352
 21
28.7289625322
  0
LINE
  5
29E
100
AcDbEntity
  8
RACCORDO
100
AcDbLine
 62
253
  6
CONTINUOUS
 10
19.5007615242
 20
-28.75
 11
19.4796117038
 21
-28.7289625322
  0
LINE
  5
29F
100
AcDbEntity
  8
DRAFT
100
AcDbLine
 62
7
  6
CONTINUOUS
 10
13.7473550856
 20
-25.2973550856
 11
13.75
 21
-25.3
  0
LINE
  5
2A0
100
AcDbEntity
  8
RACCORDO
100
AcDbLine
 62
7
  6
CONTINUOUS
 10
-6.15
 20
22.0665041169
 11
-6.15
 21
19.9205378924
  0
LINE
  5
2A1
100
AcDbEntity
  8
DRAFT
100
AcDbLine
 62
7
  6
CONTINUOUS
 10
-6.1467267152
 20
18.1892899476
 11
-6.1467267152
 21
16.0
  0
LINE
  5
2A2
100
AcDbEntity
  8
DRAFT
100
AcDbLine
 62
7
  6
CONTINUOUS
 10
-6.1098533507
 20
19.8
 11
-6.1098533507
 21
18.3
  0
LINE
  5
2A3
100
AcDbEntity
  8
DRAFT
100
AcDbLine
 62
7
  6
CONTINUOUS
 10
-3.0
 20
22.2427766622
 11
-3.0
 21
22.2165727725
  0
LINE
  5
2A4
100
AcDbEntity
  8
DRAFT
100
AcDbLine
 62
7
  6
CONTINUOUS
 10
-2.3498778128
 20
10.089526961
 11
-2.3478713764
 21
10.1
  0
LWPOLYLINE
  5
2A5
100
AcDbEntity
  8
0
100
AcDbPolyline
 62
7
  6
CONTINUOUS
 90
2
 70
0
 43
0.3500000006
 10
-1.3571429071
 20
43.7499994354
 10
-1.3571429071
 20
45.2499998932
  0
LINE
  5
2A6
100
AcDbEntity
  8
RACCORDO
100
AcDbLine
 62
253
  6
CONTINUOUS
 10
-3.5572010965
 20
-26.4407980242
 11
-3.6
 21
-26.7589237452
  0
LINE
  5
2A7
100
AcDbEntity
  8
RACCORDO
100
AcDbLine
 62
253
  6
CONTINUOUS
 10
3.5572010965
 20
26.4407980242
 11
3.6
 21
26.7589237452
  0
LINE
  5
2A8
100
AcDbEntity
  8
RACCORDO
100
AcDbLine
 62
253
  6
CONTINUOUS
 10
5.9427633736
 20
22.0443804367
 11
6.0001141799
 21
22.2165727725
  0
LINE
  5
2A9
100
AcDbEntity
  8
RACCORDO
100
AcDbLine
 62
253
  6
CONTINUOUS
 10
6.0927405278
 20
21.8945860065
 11
6.15
 21
22.0665041169
  0
LINE
  5
2AA
100
AcDbEntity
  8
DRAFT
100
AcDbLine
 62
7
  6
CONTINUOUS
 10
6.1098533507
 20
19.8
 11
6.15
 21
19.9205378924
  0
LINE
  5
2AB
100
AcDbEntity
  8
RACCORDO
100
AcDbLine
 62
253
  6
CONTINUOUS
 10
-24.5
 20
-23.7507615242
 11
-24.4789625322
 21
-23.7296117038
  0
LWPOLYLINE
  5
2AC
100
AcDbEntity
  8
0
100
AcDbPolyline
 62
7
  6
CONTINUOUS
 90
4
 70
0
 43
0.3500000006
 10
39.892856369
 20
-2.0357142563
 10
39.2499983826
 20
-2.0357142563
 10
39.2499983826
 20
-0.5357137985
 10
42.2499992981
 20
-1.3928574028
  0
LINE
  5
2AD
100
AcDbEntity
  8
RACCORDO
100
AcDbLine
 62
253
  6
CONTINUOUS
 10
-24.5
 20
23.7507615242
 11
-24.4789625322
 21
23.7295999352
  0
LINE
  5
2AE
100
AcDbEntity
  8
RACCORDO
100
AcDbLine
 62
253
  6
CONTINUOUS
 10
-3.6
 20
26.7589237452
 11
-3.5572010965
 21
26.4407980242
  0
LINE
  5
2AF
100
AcDbEntity
  8
RACCORDO
100
AcDbLine
 62
253
  6
CONTINUOUS
 10
3.5572010965
 20
-26.4407980242
 11
3.6
 21
-26.7589237452
  0
LINE
  5
2B0
100
AcDbEntity
  8
DRAFT
100
AcDbLine
 62
7
  6
CONTINUOUS
 10
3.0
 20
22.2165727725
 11
3.0
 21
22.2427766622
  0
LINE
  5
2B1
100
AcDbEntity
  8
RACCORDO
100
AcDbLine
 62
253
  6
CONTINUOUS
 10
24.5
 20
23.7507615242
 11
24.4789625322
 21
23.7296117038
  0
LINE
  5
2B2
100
AcDbEntity
  8
RACCORDO
100
AcDbLine
 62
253
  6
CONTINUOUS
 10
24.5
 20
-23.7507615242
 11
24.4789625322
 21
-23.7295999352
  0
LINE
  5
2B3
100
AcDbEntity
  8
DRAFT
100
AcDbLine
 62
7
  6
CONTINUOUS
 10
-6.1098533507
 20
19.8
 11
-6.15
 21
19.9205378924
  0
LINE
  5
2B4
100
AcDbEntity
  8
RACCORDO
100
AcDbLine
 62
253
  6
CONTINUOUS
 10
-6.15
 20
22.0665041169
 11
-6.0927405278
 21
21.8945860065
  0
LINE
  5
2B5
100
AcDbEntity
  8
RACCORDO
100
AcDbLine
 62
253
  6
CONTINUOUS
 10
-6.0001141799
 20
22.2165727725
 11
-5.9427633736
 21
22.0443804367
  0
LINE
  5
2B6
100
AcDbEntity
  8
DRAFT
100
AcDbLine
 62
7
  6
CONTINUOUS
 10
6.1098533507
 20
19.8
 11
6.1098533507
 21
18.3
  0
LINE
  5
2B7
100
AcDbEntity
  8
DRAFT
100
AcDbLine
 62
7
  6
CONTINUOUS
 10
6.1467267152
 20
18.1892899476
 11
6.1467267152
 21
16.0
  0
LINE
  5
2B8
100
AcDbEntity
  8
RACCORDO
100
AcDbLine
 62
7
  6
CONTINUOUS
 10
6.15
 20
19.9205378924
 11
6.15
 21
22.0665041169
  0
LINE
  5
2B9
100
AcDbEntity
  8
RACCORDO
100
AcDbLine
 62
7
  6
CONTINUOUS
 10
6.3482544935
 20
19.0017455065
 11
6.3482544935
 21
22.0665041169
  0
LINE
  5
2BA
100
AcDbEntity
  8
DRAFT
100
AcDbLine
 62
7
  6
CONTINUOUS
 10
6.35
 20
16.0
 11
6.35
 21
19.0
  0
LINE
  5
2BB
100
AcDbEntity
  8
RACCORDO
100
AcDbLine
 62
253
  6
CONTINUOUS
 10
-19.5007615242
 20
-28.75
 11
-19.4795999352
 21
-28.7289625322
  0
LINE
  5
2BC
100
AcDbEntity
  8
RACCORDO
100
AcDbLine
 62
253
  6
CONTINUOUS
 10
-19.5007615242
 20
28.75
 11
-19.4796117038
 21
28.7289625322
  0
LINE
  5
2BD
100
AcDbEntity
  8
DRAFT
100
AcDbLine
 62
7
  6
CONTINUOUS
 10
2.3498778128
 20
10.089526961
 11
2.3478713764
 21
10.1
  0
LINE
  5
2BE
100
AcDbEntity
  8
DRAFT
100
AcDbLine
 62
7
  6
CONTINUOUS
 10
8.75
 20
-24.5
 11
8.7552365195
 21
-24.5803847577
  0
LINE
  5
2BF
100
AcDbEntity
  8
DRAFT
100
AcDbLine
 62
7
  6
CONTINUOUS
 10
8.7526449144
 20
25.2973550856
 11
8.7552365195
 21
25.0401923789
  0
LINE
  5
2C0
100
AcDbEntity
  8
RACCORDO
100
AcDbLine
 62
253
  6
CONTINUOUS
 10
7.1840010288
 20
-28.4290082237
 11
7.1840010288
 21
-28.7289625322
  0
LINE
  5
2C1
100
AcDbEntity
  8
RACCORDO
100
AcDbLine
 62
253
  6
CONTINUOUS
 10
7.1840010288
 20
28.4290082237
 11
7.1840010277
 21
28.7289625322
  0
LINE
  5
2C2
100
AcDbEntity
  8
SMUSSO
100
AcDbLine
 62
7
  6
CONTINUOUS
 10
7.25
 20
26.050091369
 11
7.25
 21
25.05
  0
LINE
  5
2C3
100
AcDbEntity
  8
DRAFT
100
AcDbLine
 62
7
  6
CONTINUOUS
 10
7.25
 20
24.05
 11
7.25
 21
22.85
  0
LINE
  5
2C4
100
AcDbEntity
  8
DRAFT
100
AcDbLine
 62
7
  6
CONTINUOUS
 10
7.25
 20
-22.85
 11
7.25
 21
-24.05
  0
LINE
  5
2C5
100
AcDbEntity
  8
SMUSSO
100
AcDbLine
 62
7
  6
CONTINUOUS
 10
7.25
 20
-25.05
 11
7.25
 21
-26.050091369
  0
LINE
  5
2C6
100
AcDbEntity
  8
SMUSSO
100
AcDbLine
 62
7
  6
CONTINUOUS
 10
7.85
 20
27.15
 11
7.85
 21
26.650091369
  0
LINE
  5
2C7
100
AcDbEntity
  8
SMUSSO
100
AcDbLine
 62
7
  6
CONTINUOUS
 10
7.85
 20
-26.650091369
 11
7.85
 21
-27.15
  0
LINE
  5
2C8
100
AcDbEntity
  8
DRAFT
100
AcDbLine
 62
7
  6
CONTINUOUS
 10
8.75
 20
-25.05
 11
8.75
 21
-24.5
  0
LINE
  5
2C9
100
AcDbEntity
  8
DRAFT
100
AcDbLine
 62
7
  6
CONTINUOUS
 10
8.75
 20
24.5
 11
8.75
 21
25.05
  0
LINE
  5
2CA
100
AcDbEntity
  8
DRAFT
100
AcDbLine
 62
7
  6
CONTINUOUS
 10
8.7552365195
 20
25.0401923789
 11
8.7552365195
 21
24.5803847577
  0
LINE
  5
2CB
100
AcDbEntity
  8
DRAFT
100
AcDbLine
 62
7
  6
CONTINUOUS
 10
8.7552365195
 20
-24.5803847577
 11
8.7552365195
 21
-25.0401923789
  0
LINE
  5
2CC
100
AcDbEntity
  8
DRAFT
100
AcDbLine
 62
7
  6
CONTINUOUS
 10
8.7552365195
 20
-25.0401923789
 11
8.7526449144
 21
-25.2973550856
  0
LINE
  5
2CD
100
AcDbEntity
  8
DRAFT
100
AcDbLine
 62
7
  6
CONTINUOUS
 10
8.7552365195
 20
24.5803847577
 11
8.75
 21
24.5
  0
LINE
  5
2CE
100
AcDbEntity
  8
RACCORDO
100
AcDbLine
 62
253
  6
CONTINUOUS
 10
21.6914028735
 20
22.0443804367
 11
21.7905329658
 21
22.2427766622
  0
LINE
  5
2CF
100
AcDbEntity
  8
RACCORDO
100
AcDbLine
 62
253
  6
CONTINUOUS
 10
22.1912315359
 20
21.5450656693
 11
22.2900191294
 21
21.742776427
  0
LINE
  5
2D0
100
AcDbEntity
  8
DRAFT
100
AcDbLine
 62
7
  6
CONTINUOUS
 10
-13.7473550856
 20
-25.2973550856
 11
-13.75
 21
-25.3
  0
LINE
  5
2D1
100
AcDbEntity
  8
RACCORDO
100
AcDbLine
 62
253
  6
CONTINUOUS
 10
-21.6534234708
 20
9.4999778387
 11
-1.0469899359
 21
9.4999999999
  0
LINE
  5
2D2
100
AcDbEntity
  8
RACCORDO
100
AcDbLine
 62
253
  6
CONTINUOUS
 10
1.0469899363
 20
9.5
 11
21.6534234708
 21
9.4999778388
  0
LINE
  5
2D3
100
AcDbEntity
  8
DRAFT
100
AcDbLine
 62
7
  6
CONTINUOUS
 10
2.3498778128
 20
10.089526961
 11
1.6467182875
 21
10.089526961
  0
LINE
  5
2D4
100
AcDbEntity
  8
DRAFT
100
AcDbLine
 62
7
  6
CONTINUOUS
 10
-1.6467170677
 20
10.089526961
 11
-2.3498778128
 21
10.089526961
  0
LINE
  5
2D5
100
AcDbEntity
  8
DRAFT
100
AcDbLine
 62
7
  6
CONTINUOUS
 10
2.3478713764
 20
10.1
 11
1.6845851725
 21
10.1
  0
LINE
  5
2D6
100
AcDbEntity
  8
DRAFT
100
AcDbLine
 62
7
  6
CONTINUOUS
 10
-1.684584371
 20
10.1
 11
-2.3478713764
 21
10.1
  0
LINE
  5
2D7
100
AcDbEntity
  8
DRAFT
100
AcDbLine
 62
7
  6
CONTINUOUS
 10
-13.75
 20
25.3
 11
-13.7473550856
 21
25.2973550856
  0
LINE
  5
2D8
100
AcDbEntity
  8
RACCORDO
100
AcDbLine
 62
253
  6
CONTINUOUS
 10
21.7905329658
 20
-22.2427766622
 11
21.6914028735
 21
-22.0443804367
  0
LINE
  5
2D9
100
AcDbEntity
  8
RACCORDO
100
AcDbLine
 62
253
  6
CONTINUOUS
 10
22.2900191294
 20
-21.742776427
 11
22.1912315359
 21
-21.5450656693
  0
LINE
  5
2DA
100
AcDbEntity
  8
DRAFT
100
AcDbLine
 62
7
  6
CONTINUOUS
 10
3.0087275325
 20
22.2165727725
 11
3.0
 21
22.2427766622
  0
LINE
  5
2DB
100
AcDbEntity
  8
DRAFT
100
AcDbLine
 62
7
  6
CONTINUOUS
 10
13.7447634805
 20
-25.0401923789
 11
13.7473550856
 21
-25.2973550856
  0
LINE
  5
2DC
100
AcDbEntity
  8
DRAFT
100
AcDbLine
 62
7
  6
CONTINUOUS
 10
10.5
 20
27.15
 11
10.5
 21
27.0
  0
LINE
  5
2DD
100
AcDbEntity
  8
DRAFT
100
AcDbLine
 62
7
  6
CONTINUOUS
 10
10.5
 20
-27.0
 11
10.5
 21
-27.15
  0
LINE
  5
2DE
100
AcDbEntity
  8
DRAFT
100
AcDbLine
 62
7
  6
CONTINUOUS
 10
12.0
 20
-27.15
 11
12.0
 21
-27.0
  0
LINE
  5
2DF
100
AcDbEntity
  8
DRAFT
100
AcDbLine
 62
7
  6
CONTINUOUS
 10
12.0
 20
27.0
 11
12.0
 21
27.15
  0
LINE
  5
2E0
100
AcDbEntity
  8
DRAFT
100
AcDbLine
 62
7
  6
CONTINUOUS
 10
13.7473550856
 20
25.2973550856
 11
13.7447634805
 21
25.0401923789
  0
LINE
  5
2E1
100
AcDbEntity
  8
SMUSSO
100
AcDbLine
 62
7
  6
CONTINUOUS
 10
-7.25
 20
-26.050091369
 11
-7.85
 21
-26.650091369
  0
LINE
  5
2E2
100
AcDbEntity
  8
SMUSSO
100
AcDbLine
 62
7
  6
CONTINUOUS
 10
-7.85
 20
26.650091369
 11
-7.25
 21
26.050091369
  0
LINE
  5
2E3
100
AcDbEntity
  8
DRAFT
100
AcDbLine
 62
7
  6
CONTINUOUS
 10
6.1467267152
 20
18.1892899476
 11
6.1098533507
 21
18.3
  0
LINE
  5
2E4
100
AcDbEntity
  8
RACCORDO
100
AcDbLine
 62
253
  6
CONTINUOUS
 10
6.3482544935
 20
22.0665041169
 11
6.4055139657
 21
21.8945860065
  0
LINE
  5
2E5
100
AcDbEntity
  8
RACCORDO
100
AcDbLine
 62
253
  6
CONTINUOUS
 10
6.4981403136
 20
22.2165727725
 11
6.55549112
 21
22.0443804367
  0
LINE
  5
2E6
100
AcDbEntity
  8
DRAFT
100
AcDbLine
 62
7
  6
CONTINUOUS
 10
13.7447634805
 20
24.5803847577
 11
13.75
 21
24.5
  0
LINE
  5
2E7
100
AcDbEntity
  8
DRAFT
100
AcDbLine
 62
7
  6
CONTINUOUS
 10
13.7447634805
 20
25.0401923789
 11
13.7447634805
 21
24.5803847577
  0
LINE
  5
2E8
100
AcDbEntity
  8
DRAFT
100
AcDbLine
 62
7
  6
CONTINUOUS
 10
13.7447634805
 20
-24.5803847577
 11
13.7447634805
 21
-25.0401923789
  0
LINE
  5
2E9
100
AcDbEntity
  8
DRAFT
100
AcDbLine
 62
7
  6
CONTINUOUS
 10
13.75
 20
-25.05
 11
13.75
 21
-24.5
  0
LINE
  5
2EA
100
AcDbEntity
  8
DRAFT
100
AcDbLine
 62
7
  6
CONTINUOUS
 10
13.75
 20
24.5
 11
13.75
 21
25.05
  0
LINE
  5
2EB
100
AcDbEntity
  8
SMUSSO
100
AcDbLine
 62
7
  6
CONTINUOUS
 10
14.65
 20
-27.15
 11
14.65
 21
-26.650091369
  0
LINE
  5
2EC
100
AcDbEntity
  8
SMUSSO
100
AcDbLine
 62
7
  6
CONTINUOUS
 10
14.65
 20
26.650091369
 11
14.65
 21
27.15
  0
LINE
  5
2ED
100
AcDbEntity
  8
SMUSSO
100
AcDbLine
 62
7
  6
CONTINUOUS
 10
15.25
 20
-26.050091369
 11
15.25
 21
-25.05
  0
LINE
  5
2EE
100
AcDbEntity
  8
DRAFT
100
AcDbLine
 62
7
  6
CONTINUOUS
 10
15.25
 20
-24.05
 11
15.25
 21
-22.85
  0
LINE
  5
2EF
100
AcDbEntity
  8
DRAFT
100
AcDbLine
 62
7
  6
CONTINUOUS
 10
15.25
 20
22.85
 11
15.25
 21
24.05
  0
LINE
  5
2F0
100
AcDbEntity
  8
SMUSSO
100
AcDbLine
 62
7
  6
CONTINUOUS
 10
15.25
 20
25.05
 11
15.25
 21
26.050091369
  0
LINE
  5
2F1
100
AcDbEntity
  8
DRAFT
100
AcDbLine
 62
7
  6
CONTINUOUS
 10
13.75
 20
-24.5
 11
13.7447634805
 21
-24.5803847577
  0
LINE
  5
2F2
100
AcDbEntity
  8
RACCORDO
100
AcDbLine
 62
253
  6
CONTINUOUS
 10
6.4303408168
 20
16.0000531395
 11
6.35
 21
16.0
  0
LINE
  5
2F3
100
AcDbEntity
  8
RACCORDO
100
AcDbLine
 62
253
  6
CONTINUOUS
 10
-6.1467267152
 20
16.0
 11
-6.0679136283
 21
16.0000251845
  0
LINE
  5
2F4
100
AcDbEntity
  8
DRAFT
100
AcDbLine
 62
253
  6
CONTINUOUS
 10
-6.35
 20
16.0
 11
-6.1467267152
 21
16.0
  0
LINE
  5
2F5
100
AcDbEntity
  8
DRAFT
100
AcDbLine
 62
253
  6
CONTINUOUS
 10
6.35
 20
16.0
 11
6.1467267152
 21
16.0
  0
LINE
  5
2F6
100
AcDbEntity
  8
RACCORDO
100
AcDbLine
 62
253
  6
CONTINUOUS
 10
6.0679135848
 20
16.0
 11
6.1467267152
 21
16.0
  0
LINE
  5
2F7
100
AcDbEntity
  8
RACCORDO
100
AcDbLine
 62
253
  6
CONTINUOUS
 10
-6.35
 20
16.0
 11
-6.430340666
 21
16.0001403485
  0
LWPOLYLINE
  5
2F8
100
AcDbEntity
  8
0
100
AcDbPolyline
 62
7
  6
CONTINUOUS
 90
3
 70
0
 43
0.3500000006
 10
41.9642836304
 20
1.0357133102
 10
42.1785726471
 20
0.9642866592
 10
42.464283783
 20
0.8214288254
  0
LINE
  5
2F9
100
AcDbEntity
  8
RACCORDO
100
AcDbLine
 62
253
  6
CONTINUOUS
 10
19.4797240564
 20
-28.4290082237
 11
19.4797240563
 21
-28.7289625322
  0
LINE
  5
2FA
100
AcDbEntity
  8
RACCORDO
100
AcDbLine
 62
253
  6
CONTINUOUS
 10
19.4797240564
 20
28.4290082237
 11
19.4797240564
 21
28.7289625322
  0
LWPOLYLINE
  5
2FB
100
AcDbEntity
  8
0
100
AcDbPolyline
 62
7
  6
CONTINUOUS
 90
10
 70
0
 43
0.3500000006
 10
41.7499991455
 20
0.9642866592
 10
41.8928569794
 20
1.0357133102
 10
41.9642836304
 20
1.0357133102
 10
42.1071414642
 20
0.8928577423
 10
42.1071414642
 20
0.8214288254
 10
42.0357148132
 20
0.7499999084
 10
41.9642836304
 20
0.7499999084
 10
41.8214303284
 20
0.8214288254
 10
41.7499991455
 20
0.8928577423
 10
41.7499991455
 20
0.9642866592
  0
LINE
  5
2FC
100
AcDbEntity
  8
DRAFT
100
AcDbLine
 62
7
  6
CONTINUOUS
 10
-6.35
 20
18.1843223248
 11
-6.1467267152
 21
18.1892899476
  0
LINE
  5
2FD
100
AcDbEntity
  8
DRAFT
100
AcDbLine
 62
7
  6
CONTINUOUS
 10
-6.3482544935
 20
19.0017455065
 11
-6.1098533507
 21
19.0017455065
  0
LINE
  5
2FE
100
AcDbEntity
  8
DRAFT
100
AcDbLine
 62
7
  6
CONTINUOUS
 10
6.3482544935
 20
19.0017455065
 11
6.1098533507
 21
19.0017455065
  0
LINE
  5
2FF
100
AcDbEntity
  8
DRAFT
100
AcDbLine
 62
7
  6
CONTINUOUS
 10
6.35
 20
18.1843223248
 11
6.1467267152
 21
18.1892899476
  0
LINE
  5
300
100
AcDbEntity
  8
DRAFT
100
AcDbLine
 62
7
  6
CONTINUOUS
 10
6.3482544935
 20
19.0017455065
 11
6.35
 21
19.0
  0
LINE
  5
301
100
AcDbEntity
  8
RACCORDO
100
AcDbLine
 62
253
  6
CONTINUOUS
 10
21.6534234704
 20
-9.499976772
 11
21.6510754062
 21
-0.7063988178
  0
LINE
  5
302
100
AcDbEntity
  8
RACCORDO
100
AcDbLine
 62
7
  6
CONTINUOUS
 10
22.2900191294
 20
-21.742776427
 11
22.2900191294
 21
21.742776427
  0
LINE
  5
303
100
AcDbEntity
  8
RACCORDO
100
AcDbLine
 62
253
  6
CONTINUOUS
 10
21.651075406
 20
0.706398819
 11
21.6534234708
 21
9.4999778388
  0
LINE
  5
304
100
AcDbEntity
  8
RACCORDO
100
AcDbLine
 62
253
  6
CONTINUOUS
 10
-21.6791411824
 20
21.1946917154
 11
-6.5693859383
 21
21.1946919002
  0
LINE
  5
305
100
AcDbEntity
  8
RACCORDO
100
AcDbLine
 62
253
  6
CONTINUOUS
 10
-5.9288685552
 20
21.1946919009
 11
5.9288685552
 21
21.1946919005
  0
LINE
  5
306
100
AcDbEntity
  8
RACCORDO
100
AcDbLine
 62
253
  6
CONTINUOUS
 10
6.5693859383
 20
21.1946918998
 11
21.6791411824
 21
21.1946917154
  0
LINE
  5
307
100
AcDbEntity
  8
RACCORDO
100
AcDbLine
 62
253
  6
CONTINUOUS
 10
-21.6914028735
 20
22.0443804367
 11
-6.55549112
 21
22.0443804367
  0
LINE
  5
308
100
AcDbEntity
  8
RACCORDO
100
AcDbLine
 62
253
  6
CONTINUOUS
 10
-5.9427633736
 20
22.0443804367
 11
5.9427633736
 21
22.0443804367
  0
LINE
  5
309
100
AcDbEntity
  8
RACCORDO
100
AcDbLine
 62
253
  6
CONTINUOUS
 10
6.55549112
 20
22.0443804367
 11
21.6914028735
 21
22.0443804367
  0
LINE
  5
30A
100
AcDbEntity
  8
RACCORDO
100
AcDbLine
 62
7
  6
CONTINUOUS
 10
-6.4981403136
 20
22.2165727725
 11
6.4981403136
 21
22.2165727725
  0
LINE
  5
30B
100
AcDbEntity
  8
RACCORDO
100
AcDbLine
 62
7
  6
CONTINUOUS
 10
-21.7905329658
 20
22.2427766622
 11
-3.0
 21
22.2427766622
  0
LINE
  5
30C
100
AcDbEntity
  8
RACCORDO
100
AcDbLine
 62
7
  6
CONTINUOUS
 10
3.0
 20
22.2427766622
 11
21.7905329658
 21
22.2427766622
  0
LINE
  5
30D
100
AcDbEntity
  8
RACCORDO
100
AcDbLine
 62
7
  6
CONTINUOUS
 10
-0.0607169643
 20
22.4
 11
0.0607169643
 21
22.4
  0
LINE
  5
30E
100
AcDbEntity
  8
DRAFT
100
AcDbLine
 62
7
  6
CONTINUOUS
 10
-15.25
 20
22.85
 11
-7.25
 21
22.85
  0
LINE
  5
30F
100
AcDbEntity
  8
DRAFT
100
AcDbLine
 62
7
  6
CONTINUOUS
 10
7.25
 20
22.85
 11
15.25
 21
22.85
  0
LINE
  5
310
100
AcDbEntity
  8
RACCORDO
100
AcDbLine
 62
253
  6
CONTINUOUS
 10
24.1790082237
 20
-23.7297240564
 11
24.1790082237
 21
23.7297240564
  0
LINE
  5
311
100
AcDbEntity
  8
RACCORDO
100
AcDbLine
 62
253
  6
CONTINUOUS
 10
24.4789625322
 20
-23.7295999352
 11
24.4789625322
 21
23.7296117038
  0
LINE
  5
312
100
AcDbEntity
  8
RACCORDO
100
AcDbLine
 62
7
  6
CONTINUOUS
 10
24.5
 20
23.7507615242
 11
24.5
 21
-23.7507615242
  0
LINE
  5
313
100
AcDbEntity
  8
DRAFT
100
AcDbLine
 62
7
  6
CONTINUOUS
 10
8.7526449144
 20
-25.2973550856
 11
8.75
 21
-25.3
  0
LINE
  5
314
100
AcDbEntity
  8
RACCORDO
100
AcDbLine
 62
253
  6
CONTINUOUS
 10
24.1790082237
 20
23.7297240564
 11
24.4789625322
 21
23.7297240563
  0
LINE
  5
315
100
AcDbEntity
  8
RACCORDO
100
AcDbLine
 62
253
  6
CONTINUOUS
 10
-24.1790082237
 20
23.7297240564
 11
-24.4789625322
 21
23.7297240564
  0
LINE
  5
316
100
AcDbEntity
  8
DRAFT
100
AcDbLine
 62
7
  6
CONTINUOUS
 10
15.25
 20
24.05
 11
7.25
 21
24.05
  0
LINE
  5
317
100
AcDbEntity
  8
DRAFT
100
AcDbLine
 62
7
  6
CONTINUOUS
 10
-7.25
 20
24.05
 11
-15.25
 21
24.05
  0
LINE
  5
318
100
AcDbEntity
  8
DRAFT
100
AcDbLine
 62
7
  6
CONTINUOUS
 10
8.75
 20
24.5
 11
13.75
 21
24.5
  0
LINE
  5
319
100
AcDbEntity
  8
DRAFT
100
AcDbLine
 62
7
  6
CONTINUOUS
 10
-8.75
 20
24.5
 11
-13.75
 21
24.5
  0
LINE
  5
31A
100
AcDbEntity
  8
DRAFT
100
AcDbLine
 62
7
  6
CONTINUOUS
 10
8.7552365195
 20
24.5803847577
 11
13.7447634805
 21
24.5803847577
  0
LINE
  5
31B
100
AcDbEntity
  8
DRAFT
100
AcDbLine
 62
7
  6
CONTINUOUS
 10
-8.7552365195
 20
24.5803847577
 11
-13.7447634805
 21
24.5803847577
  0
LINE
  5
31C
100
AcDbEntity
  8
DRAFT
100
AcDbLine
 62
7
  6
CONTINUOUS
 10
8.7552365195
 20
25.0401923789
 11
13.7447634805
 21
25.0401923789
  0
LINE
  5
31D
100
AcDbEntity
  8
DRAFT
100
AcDbLine
 62
7
  6
CONTINUOUS
 10
-8.7552365195
 20
25.0401923789
 11
-13.7447634805
 21
25.0401923789
  0
LINE
  5
31E
100
AcDbEntity
  8
DRAFT
100
AcDbLine
 62
7
  6
CONTINUOUS
 10
15.25
 20
25.05
 11
13.75
 21
25.05
  0
LINE
  5
31F
100
AcDbEntity
  8
DRAFT
100
AcDbLine
 62
7
  6
CONTINUOUS
 10
8.75
 20
25.05
 11
7.25
 21
25.05
  0
LINE
  5
320
100
AcDbEntity
  8
DRAFT
100
AcDbLine
 62
7
  6
CONTINUOUS
 10
-7.25
 20
25.05
 11
-8.75
 21
25.05
  0
LINE
  5
321
100
AcDbEntity
  8
DRAFT
100
AcDbLine
 62
7
  6
CONTINUOUS
 10
-13.75
 20
25.05
 11
-15.25
 21
25.05
  0
LINE
  5
322
100
AcDbEntity
  8
DRAFT
100
AcDbLine
 62
7
  6
CONTINUOUS
 10
8.7526449144
 20
25.2973550856
 11
13.7473550856
 21
25.2973550856
  0
LINE
  5
323
100
AcDbEntity
  8
DRAFT
100
AcDbLine
 62
7
  6
CONTINUOUS
 10
-8.7526449144
 20
25.2973550856
 11
-13.7473550856
 21
25.2973550856
  0
LINE
  5
324
100
AcDbEntity
  8
DRAFT
100
AcDbLine
 62
7
  6
CONTINUOUS
 10
8.75
 20
25.3
 11
8.7526449144
 21
25.2973550856
  0
LINE
  5
325
100
AcDbEntity
  8
SMUSSO
100
AcDbLine
 62
7
  6
CONTINUOUS
 10
15.25
 20
-26.050091369
 11
14.65
 21
-26.650091369
  0
LINE
  5
326
100
AcDbEntity
  8
RACCORDO
100
AcDbLine
 62
253
  6
CONTINUOUS
 10
7.0031688183
 20
-28.314405705
 11
6.7319205029
 21
-28.4424562366
  0
LINE
  5
327
100
AcDbEntity
  8
DRAFT
100
AcDbLine
 62
7
  6
CONTINUOUS
 10
-12.0
 20
27.0
 11
-10.5
 21
27.0
  0
LINE
  5
328
100
AcDbEntity
  8
DRAFT
100
AcDbLine
 62
7
  6
CONTINUOUS
 10
10.5
 20
27.0
 11
12.0
 21
27.0
  0
LINE
  5
329
100
AcDbEntity
  8
DRAFT
100
AcDbLine
 62
7
  6
CONTINUOUS
 10
14.65
 20
27.15
 11
12.0
 21
27.15
  0
LINE
  5
32A
100
AcDbEntity
  8
DRAFT
100
AcDbLine
 62
7
  6
CONTINUOUS
 10
10.5
 20
27.15
 11
7.85
 21
27.15
  0
LINE
  5
32B
100
AcDbEntity
  8
DRAFT
100
AcDbLine
 62
7
  6
CONTINUOUS
 10
-7.85
 20
27.15
 11
-10.5
 21
27.15
  0
LINE
  5
32C
100
AcDbEntity
  8
DRAFT
100
AcDbLine
 62
7
  6
CONTINUOUS
 10
-12.0
 20
27.15
 11
-14.65
 21
27.15
  0
LINE
  5
32D
100
AcDbEntity
  8
RACCORDO
100
AcDbLine
 62
253
  6
CONTINUOUS
 10
19.4797240564
 20
28.4290082237
 11
7.1840010288
 21
28.4290082237
  0
LINE
  5
32E
100
AcDbEntity
  8
RACCORDO
100
AcDbLine
 62
253
  6
CONTINUOUS
 10
-7.1840010288
 20
28.4290082237
 11
-19.4797240564
 21
28.4290082237
  0
LINE
  5
32F
100
AcDbEntity
  8
RACCORDO
100
AcDbLine
 62
253
  6
CONTINUOUS
 10
19.4795999352
 20
28.7289625322
 11
7.1840010288
 21
28.7289625322
  0
LINE
  5
330
100
AcDbEntity
  8
RACCORDO
100
AcDbLine
 62
253
  6
CONTINUOUS
 10
-7.1840010288
 20
28.7289625322
 11
-19.4796117038
 21
28.7289625322
  0
LINE
  5
331
100
AcDbEntity
  8
RACCORDO
100
AcDbLine
 62
7
  6
CONTINUOUS
 10
-19.5007615242
 20
28.75
 11
-7.17064049
 21
28.75
  0
LINE
  5
332
100
AcDbEntity
  8
RACCORDO
100
AcDbLine
 62
7
  6
CONTINUOUS
 10
7.17064049
 20
28.75
 11
19.5007615242
 21
28.75
  0
LINE
  5
333
100
AcDbEntity
  8
RACCORDO
100
AcDbLine
 62
253
  6
CONTINUOUS
 10
7.0031688182
 20
28.314405705
 11
6.7319205026
 21
28.4424562358
  0
LINE
  5
334
100
AcDbEntity
  8
SMUSSO
100
AcDbLine
 62
7
  6
CONTINUOUS
 10
14.65
 20
26.650091369
 11
15.25
 21
26.050091369
  0
LWPOLYLINE
  5
335
100
AcDbEntity
  8
0
100
AcDbPolyline
 62
7
  6
CONTINUOUS
 90
8
 70
0
 43
0.3500000006
 10
42.2499992981
 20
-4.1785715675
 10
42.2499992981
 20
-3.3214290962
 10
41.8214303284
 20
-2.8928567276
 10
40.9642878571
 20
-2.8928567276
 10
40.5357143555
 20
-3.3214290962
 10
40.5357143555
 20
-4.1785715675
 10
39.2499983826
 20
-4.1785715675
 10
39.2499983826
 20
-2.8928567276
  0
LWPOLYLINE
  5
336
100
AcDbEntity
  8
0
100
AcDbPolyline
 62
7
  6
CONTINUOUS
 90
8
 70
0
 43
0.3500000006
 10
42.2499992981
 20
2.0357136154
 10
42.2499992981
 20
2.8928560867
 10
41.8214303284
 20
3.3214295883
 10
40.9642878571
 20
3.3214295883
 10
40.5357143555
 20
2.8928560867
 10
40.5357143555
 20
2.0357136154
 10
39.2499983826
 20
2.0357136154
 10
39.2499983826
 20
3.3214295883
  0
LWPOLYLINE
  5
337
100
AcDbEntity
  8
0
100
AcDbPolyline
 62
7
  6
CONTINUOUS
 90
3
 70
0
 43
0.3500000006
 10
-0.8571428254
 20
44.3928574219
 10
-2.3571427875
 20
44.3928574219
 10
-1.7142856507
 20
46.750000351
  0
LINE
  5
338
100
AcDbEntity
  8
RACCORDO
100
AcDbLine
 62
7
  6
CONTINUOUS
 10
-38.4671233849
 20
-28.2781050106
 11
-39.7214864865
 21
-28.3
  0
LINE
  5
339
100
AcDbEntity
  8
RACCORDO
100
AcDbLine
 62
253
  6
CONTINUOUS
 10
-38.4671233849
 20
-28.0281430868
 11
-39.7214864865
 21
-28.0500380762
  0
LINE
  5
33A
100
AcDbEntity
  8
RACCORDO
100
AcDbLine
 62
253
  6
CONTINUOUS
 10
-38.2214864865
 20
-28.0281430868
 11
-38.4671233849
 21
-28.0281430868
  0
LINE
  5
33B
100
AcDbEntity
  8
RACCORDO
100
AcDbLine
 62
7
  6
CONTINUOUS
 10
-39.7214864865
 20
-28.75
 11
-40.9267222084
 21
-28.7289625322
  0
LINE
  5
33C
100
AcDbEntity
  8
RACCORDO
100
AcDbLine
 62
7
  6
CONTINUOUS
 10
-38.2224437686
 20
-27.2023484854
 11
-39.7214864865
 21
-27.1761825974
  0
LINE
  5
33D
100
AcDbEntity
  8
DRAFT
100
AcDbLine
 62
7
  6
CONTINUOUS
 10
-39.7214864865
 20
-27.0261825974
 11
-38.2214864865
 21
-27.0523651948
  0
LINE
  5
33E
100
AcDbEntity
  8
DRAFT
100
AcDbLine
 62
7
  6
CONTINUOUS
 10
-41.2214864865
 20
-24.5
 11
-41.5214864865
 21
-24.5803847577
  0
LINE
  5
33F
100
AcDbEntity
  8
RACCORDO
100
AcDbLine
 62
253
  6
CONTINUOUS
 10
-41.2214864865
 20
-23.7297240564
 11
-40.9267222084
 21
-23.7297240564
  0
LINE
  5
340
100
AcDbEntity
  8
DRAFT
100
AcDbLine
 62
7
  6
CONTINUOUS
 10
-41.3730135285
 20
-25.2973550856
 11
-41.2214864865
 21
-25.3
  0
LINE
  5
341
100
AcDbEntity
  8
RACCORDO
100
AcDbLine
 62
253
  6
CONTINUOUS
 10
-39.7214864865
 20
-23.7507615242
 11
-40.9267222084
 21
-23.7295999352
  0
LINE
  5
342
100
AcDbEntity
  8
DRAFT
100
AcDbLine
 62
7
  6
CONTINUOUS
 10
-39.7214864865
 20
-23.0
 11
-38.5162507646
 21
-22.9789625322
  0
LINE
  5
343
100
AcDbEntity
  8
DRAFT
100
AcDbLine
 62
7
  6
CONTINUOUS
 10
-39.7214864865
 20
-21.0
 11
-38.5162507646
 21
-21.0210374678
  0
LINE
  5
344
100
AcDbEntity
  8
RACCORDO
100
AcDbLine
 62
7
  6
CONTINUOUS
 10
-41.2214864865
 20
-22.2427766622
 11
-45.0071119826
 21
-22.0443804367
  0
LINE
  5
345
100
AcDbEntity
  8
RACCORDO
100
AcDbLine
 62
253
  6
CONTINUOUS
 10
-41.2214864865
 20
-21.742776427
 11
-44.9940324786
 21
-21.5450656693
  0
LINE
  5
346
100
AcDbEntity
  8
DRAFT
100
AcDbLine
 62
7
  6
CONTINUOUS
 10
-39.7214864865
 20
-19.5
 11
-38.5162507646
 21
-19.4789625322
  0
LINE
  5
347
100
AcDbEntity
  8
DRAFT
100
AcDbLine
 62
7
  6
CONTINUOUS
 10
-39.7214864865
 20
-17.5
 11
-38.5162507646
 21
-17.5210374678
  0
LWPOLYLINE
  5
348
100
AcDbEntity
  8
0
100
AcDbPolyline
 62
7
  6
CONTINUOUS
 90
3
 70
0
 43
0.3500000006
 10
-42.7643427887
 20
44.0357151031
 10
-42.8357739716
 20
43.8214306183
 10
-42.9786272736
 20
43.5357149506
  0
LINE
  5
349
100
AcDbEntity
  8
DRAFT
100
AcDbLine
 62
7
  6
CONTINUOUS
 10
-41.3730135285
 20
25.2973550856
 11
-41.5214864865
 21
25.0401923789
  0
LINE
  5
34A
100
AcDbEntity
  8
DRAFT
100
AcDbLine
 62
7
  6
CONTINUOUS
 10
-41.5214864865
 20
-25.0401923789
 11
-41.3730135285
 21
-25.2973550856
  0
LINE
  5
34B
100
AcDbEntity
  8
RACCORDO
100
AcDbLine
 62
253
  6
CONTINUOUS
 10
-46.9312283395
 20
-9.5
 11
-46.4444070723
 21
-9.4905
  0
LINE
  5
34C
100
AcDbEntity
  8
RACCORDO
100
AcDbLine
 62
7
  6
CONTINUOUS
 10
-47.0208288843
 20
0.5912862298
 11
-47.018140014
 21
0.1103369458
  0
LINE
  5
34D
100
AcDbEntity
  8
RACCORDO
100
AcDbLine
 62
7
  6
CONTINUOUS
 10
-47.0208288843
 20
0.5912862298
 11
-47.0209875077
 21
0.7063988417
  0
LINE
  5
34E
100
AcDbEntity
  8
RACCORDO
100
AcDbLine
 62
7
  6
CONTINUOUS
 10
-47.0208547579
 20
-0.5984156863
 11
-47.0209875077
 21
-0.7063988417
  0
LINE
  5
34F
100
AcDbEntity
  8
RACCORDO
100
AcDbLine
 62
7
  6
CONTINUOUS
 10
-47.018140014
 20
0.1103369458
 11
-47.0181606047
 21
-0.11742182
  0
LINE
  5
350
100
AcDbEntity
  8
RACCORDO
100
AcDbLine
 62
7
  6
CONTINUOUS
 10
-47.0181606047
 20
-0.11742182
 11
-47.0208547579
 21
-0.5984156863
  0
LWPOLYLINE
  5
351
100
AcDbEntity
  8
0
100
AcDbPolyline
 62
7
  6
CONTINUOUS
 90
4
 70
0
 43
0.3500000006
 10
-45.8357703552
 20
44.178572937
 10
-45.8357703552
 20
45.0357154083
 10
-45.4072013855
 20
45.4642843781
 10
-44.764343399
 20
45.4642843781
  0
LWPOLYLINE
  5
352
100
AcDbEntity
  8
0
100
AcDbPolyline
 62
7
  6
CONTINUOUS
 90
4
 70
0
 43
0.3500000006
 10
-41.7643424835
 20
44.178572937
 10
-41.7643424835
 20
45.0357154083
 10
-41.3357735138
 20
45.4642843781
 10
-40.6929155273
 20
45.4642843781
  0
LINE
  5
353
100
AcDbEntity
  8
RACCORDO
100
AcDbLine
 62
7
  6
CONTINUOUS
 10
-41.7214864865
 20
22.2165727725
 11
-41.7214864865
 21
22.4
  0
LINE
  5
354
100
AcDbEntity
  8
DRAFT
100
AcDbLine
 62
7
  6
CONTINUOUS
 10
-41.5214864865
 20
25.0401923789
 11
-41.5214864865
 21
24.5803847577
  0
LINE
  5
355
100
AcDbEntity
  8
DRAFT
100
AcDbLine
 62
7
  6
CONTINUOUS
 10
-41.5214864865
 20
-24.5803847577
 11
-41.5214864865
 21
-25.0401923789
  0
LINE
  5
356
100
AcDbEntity
  8
RACCORDO
100
AcDbLine
 62
7
  6
CONTINUOUS
 10
-41.2214864865
 20
-28.4290082237
 11
-41.2214864865
 21
28.4290082237
  0
LINE
  5
357
100
AcDbEntity
  8
RACCORDO
100
AcDbLine
 62
253
  6
CONTINUOUS
 10
-40.9267222084
 20
-23.7295999352
 11
-40.9267222084
 21
23.7296117038
  0
LINE
  5
358
100
AcDbEntity
  8
RACCORDO
100
AcDbLine
 62
7
  6
CONTINUOUS
 10
-39.7214864865
 20
28.75
 11
-39.7214864865
 21
-28.75
  0
LINE
  5
359
100
AcDbEntity
  8
RACCORDO
100
AcDbLine
 62
253
  6
CONTINUOUS
 10
-38.5162507646
 20
22.9789625322
 11
-38.5162507646
 21
21.0210374678
  0
LINE
  5
35A
100
AcDbEntity
  8
RACCORDO
100
AcDbLine
 62
253
  6
CONTINUOUS
 10
-38.5162507646
 20
19.4789625322
 11
-38.5162507646
 21
17.5210374678
  0
LINE
  5
35B
100
AcDbEntity
  8
RACCORDO
100
AcDbLine
 62
253
  6
CONTINUOUS
 10
-38.5162507646
 20
-17.5210374678
 11
-38.5162507646
 21
-19.4789625322
  0
LINE
  5
35C
100
AcDbEntity
  8
RACCORDO
100
AcDbLine
 62
253
  6
CONTINUOUS
 10
-38.5162507646
 20
-21.0210374678
 11
-38.5162507646
 21
-22.9789625322
  0
LINE
  5
35D
100
AcDbEntity
  8
RACCORDO
100
AcDbLine
 62
253
  6
CONTINUOUS
 10
-38.4671233849
 20
28.0281430868
 11
-38.4671233849
 21
27.1980775868
  0
LINE
  5
35E
100
AcDbEntity
  8
RACCORDO
100
AcDbLine
 62
253
  6
CONTINUOUS
 10
-38.4671233849
 20
-27.1980775868
 11
-38.4671233849
 21
-28.0281430868
  0
LINE
  5
35F
100
AcDbEntity
  8
RACCORDO
100
AcDbLine
 62
7
  6
CONTINUOUS
 10
-38.2214864865
 20
28.0281430868
 11
-38.2214864865
 21
27.2023651948
  0
LINE
  5
360
100
AcDbEntity
  8
RACCORDO
100
AcDbLine
 62
7
  6
CONTINUOUS
 10
-38.2214864865
 20
22.678954066
 11
-38.2214864865
 21
21.321045934
  0
LINE
  5
361
100
AcDbEntity
  8
RACCORDO
100
AcDbLine
 62
7
  6
CONTINUOUS
 10
-38.2214864865
 20
19.178954066
 11
-38.2214864865
 21
17.821045934
  0
LINE
  5
362
100
AcDbEntity
  8
RACCORDO
100
AcDbLine
 62
7
  6
CONTINUOUS
 10
-38.2214864865
 20
-17.821045934
 11
-38.2214864865
 21
-19.178954066
  0
LINE
  5
363
100
AcDbEntity
  8
RACCORDO
100
AcDbLine
 62
7
  6
CONTINUOUS
 10
-38.2214864865
 20
-21.321045934
 11
-38.2214864865
 21
-22.678954066
  0
LINE
  5
364
100
AcDbEntity
  8
RACCORDO
100
AcDbLine
 62
7
  6
CONTINUOUS
 10
-38.2214864865
 20
-27.0523651948
 11
-38.2214864865
 21
-28.0281430868
  0
LINE
  5
365
100
AcDbEntity
  8
DRAFT
100
AcDbLine
 62
7
  6
CONTINUOUS
 10
-38.2214864865
 20
27.0523651948
 11
-38.2214864865
 21
27.2023651948
  0
LINE
  5
366
100
AcDbEntity
  8
RACCORDO
100
AcDbLine
 62
253
  6
CONTINUOUS
 10
-46.9312283191
 20
9.4999999996
 11
-46.4444070723
 21
9.4905
  0
LINE
  5
367
100
AcDbEntity
  8
DRAFT
100
AcDbLine
 62
7
  6
CONTINUOUS
 10
-39.7214864865
 20
17.5
 11
-38.5162507646
 21
17.5210374678
  0
LWPOLYLINE
  5
368
100
AcDbEntity
  8
0
100
AcDbPolyline
 62
7
  6
CONTINUOUS
 90
10
 70
0
 43
0.3500000006
 10
-42.8357739716
 20
44.249999588
 10
-42.7643427887
 20
44.1071417542
 10
-42.7643427887
 20
44.0357151031
 10
-42.9072006226
 20
43.8928572693
 10
-42.9786272736
 20
43.8928572693
 10
-43.0500584564
 20
43.9642839203
 10
-43.0500584564
 20
44.0357151031
 10
-42.9786272736
 20
44.178572937
 10
-42.9072006226
 20
44.249999588
 10
-42.8357739716
 20
44.249999588
  0
LINE
  5
369
100
AcDbEntity
  8
DRAFT
100
AcDbLine
 62
7
  6
CONTINUOUS
 10
-39.7214864865
 20
21.0
 11
-38.5162507646
 21
21.0210374678
  0
LINE
  5
36A
100
AcDbEntity
  8
DRAFT
100
AcDbLine
 62
7
  6
CONTINUOUS
 10
-39.7214864865
 20
19.5
 11
-38.5162507646
 21
19.4789625322
  0
LINE
  5
36B
100
AcDbEntity
  8
RACCORDO
100
AcDbLine
 62
253
  6
CONTINUOUS
 10
-44.9940324786
 20
21.5450656693
 11
-41.2214864865
 21
21.742776427
  0
LINE
  5
36C
100
AcDbEntity
  8
RACCORDO
100
AcDbLine
 62
7
  6
CONTINUOUS
 10
-45.0071119826
 20
22.0443804367
 11
-41.2214864865
 21
22.2427766622
  0
LINE
  5
36D
100
AcDbEntity
  8
RACCORDO
100
AcDbLine
 62
253
  6
CONTINUOUS
 10
-39.7214864865
 20
23.7507615242
 11
-40.9267222084
 21
23.7296117038
  0
LINE
  5
36E
100
AcDbEntity
  8
RACCORDO
100
AcDbLine
 62
253
  6
CONTINUOUS
 10
-41.2214864865
 20
23.7297240564
 11
-40.9267222084
 21
23.7297240563
  0
LINE
  5
36F
100
AcDbEntity
  8
DRAFT
100
AcDbLine
 62
7
  6
CONTINUOUS
 10
-39.7214864865
 20
23.0
 11
-38.5162507646
 21
22.9789625322
  0
LINE
  5
370
100
AcDbEntity
  8
RACCORDO
100
AcDbLine
 62
7
  6
CONTINUOUS
 10
-41.7214864865
 20
22.4
 11
-41.2214864865
 21
22.3118365096
  0
LINE
  5
371
100
AcDbEntity
  8
DRAFT
100
AcDbLine
 62
7
  6
CONTINUOUS
 10
-41.5214864865
 20
24.5803847577
 11
-41.2214864865
 21
24.5
  0
LINE
  5
372
100
AcDbEntity
  8
DRAFT
100
AcDbLine
 62
7
  6
CONTINUOUS
 10
-41.2214864865
 20
25.3
 11
-41.3730135285
 21
25.2973550856
  0
LINE
  5
373
100
AcDbEntity
  8
DRAFT
100
AcDbLine
 62
7
  6
CONTINUOUS
 10
-39.7214864865
 20
27.0261825974
 11
-38.2214864865
 21
27.0523651948
  0
LINE
  5
374
100
AcDbEntity
  8
RACCORDO
100
AcDbLine
 62
7
  6
CONTINUOUS
 10
-38.2214864865
 20
27.2023651948
 11
-39.7214864865
 21
27.1761825974
  0
LINE
  5
375
100
AcDbEntity
  8
RACCORDO
100
AcDbLine
 62
253
  6
CONTINUOUS
 10
-38.4671233849
 20
28.0281430868
 11
-38.2214864865
 21
28.0281430868
  0
LINE
  5
376
100
AcDbEntity
  8
RACCORDO
100
AcDbLine
 62
253
  6
CONTINUOUS
 10
-39.7214864865
 20
28.0500380762
 11
-38.4671233849
 21
28.0281430868
  0
LINE
  5
377
100
AcDbEntity
  8
RACCORDO
100
AcDbLine
 62
7
  6
CONTINUOUS
 10
-39.7214864865
 20
28.3
 11
-38.4671233849
 21
28.2781050106
  0
LINE
  5
378
100
AcDbEntity
  8
RACCORDO
100
AcDbLine
 62
7
  6
CONTINUOUS
 10
-39.7214864865
 20
28.75
 11
-40.9267222084
 21
28.7289625322
  0
LWPOLYLINE
  5
379
100
AcDbEntity
  8
0
100
AcDbPolyline
 62
7
  6
CONTINUOUS
 90
13
 70
0
 43
0.3500000006
 10
-45.4072013855
 20
45.4642843781
 10
-45.6929170532
 20
45.6785733948
 10
-45.6929170532
 20
46.3214268494
 10
-45.4072013855
 20
46.750000351
 10
-44.764343399
 20
46.750000351
 10
-44.4786277313
 20
46.3214268494
 10
-44.4786277313
 20
45.6785733948
 10
-44.764343399
 20
45.4642843781
 10
-44.3357744293
 20
45.0357154083
 10
-44.3357744293
 20
44.178572937
 10
-44.764343399
 20
43.7499994354
 10
-45.4072013855
 20
43.7499994354
 10
-45.8357703552
 20
44.178572937
  0
LWPOLYLINE
  5
37A
100
AcDbEntity
  8
0
100
AcDbPolyline
 62
7
  6
CONTINUOUS
 90
13
 70
0
 43
0.3500000006
 10
-41.3357735138
 20
45.4642843781
 10
-41.6214846497
 20
45.6785733948
 10
-41.6214846497
 20
46.3214268494
 10
-41.3357735138
 20
46.750000351
 10
-40.6929155273
 20
46.750000351
 10
-40.4071998596
 20
46.3214268494
 10
-40.4071998596
 20
45.6785733948
 10
-40.6929155273
 20
45.4642843781
 10
-40.2643420258
 20
45.0357154083
 10
-40.2643420258
 20
44.178572937
 10
-40.6929155273
 20
43.7499994354
 10
-41.3357735138
 20
43.7499994354
 10
-41.7643424835
 20
44.178572937
  0
ARC
  5
37B
100
AcDbEntity
  8
RACCORDO
100
AcDbCircle
 62
253
  6
CONTINUOUS
 10
-3446.0925211291
 20
-7.816713252
 40
3424.4395113749
100
AcDbArc
 50
359.776166683
 51
359.9718365884
  0
ARC
  5
37C
100
AcDbEntity
  8
RACCORDO
100
AcDbCircle
 62
253
  6
CONTINUOUS
 10
-3408.6411835771
 20
-7.8165857072
 40
3386.4883451378
100
AcDbArc
 50
359.7749160602
 51
359.9716791501
  0
ARC
  5
37D
100
AcDbEntity
  8
RACCORDO
100
AcDbCircle
 62
253
  6
CONTINUOUS
 10
-1.1342427481
 20
-22.6867758249
 40
9.7470190967
100
AcDbArc
 50
323.6662079219
 51
323.8070241859
  0
ARC
  5
37E
100
AcDbEntity
  8
RACCORDO
100
AcDbCircle
 62
253
  6
CONTINUOUS
 10
-14.996859263
 20
-0.0003325645
 40
6.391571952
100
AcDbArc
 50
179.9970188022
 51
186.0530082634
  0
ARC
  5
37F
100
AcDbEntity
  8
RACCORDO
100
AcDbCircle
 62
253
  6
CONTINUOUS
 10
-15.0000113534
 20
-0.0008582029
 40
6.3886498875
100
AcDbArc
 50
0.0076968578
 51
173.9333909116
  0
ARC
  5
380
100
AcDbEntity
  8
RACCORDO
100
AcDbCircle
 62
253
  6
CONTINUOUS
 10
-19.4798883659
 20
-23.7298883667
 40
4.9990652165
100
AcDbArc
 50
179.9968291407
 51
270.0033057276
  0
ARC
  5
381
100
AcDbEntity
  8
RACCORDO
100
AcDbCircle
 62
253
  6
CONTINUOUS
 10
-19.4799986044
 20
-23.7299986044
 40
4.6989998641
100
AcDbArc
 50
179.9966523924
 51
270.0033476076
  0
ARC
  5
382
100
AcDbEntity
  8
RACCORDO
100
AcDbCircle
 62
253
  6
CONTINUOUS
 10
-4.0
 20
-29.7321374946
 40
3.3209917763
100
AcDbArc
 50
82.3377443392
 51
154.7290057538
  0
ARC
  5
383
100
AcDbEntity
  8
RACCORDO
100
AcDbCircle
 62
253
  6
CONTINUOUS
 10
-4.0
 20
-29.7321374946
 40
3.0210374678
100
AcDbArc
 50
82.3377443392
 51
154.7299831569
  0
ARC
  5
384
100
AcDbEntity
  8
RACCORDO
100
AcDbCircle
 62
7
  6
CONTINUOUS
 10
-4.0
 20
-29.7321374946
 40
3.0
100
AcDbArc
 50
82.3377443392
 51
154.9470712452
  0
ARC
  5
385
100
AcDbEntity
  8
RACCORDO
100
AcDbCircle
 62
253
  6
CONTINUOUS
 10
-21.6908656416
 20
-21.5439781215
 40
0.5003861324
100
AcDbArc
 50
180.1245324765
 51
269.9384872856
  0
ARC
  5
386
100
AcDbEntity
  8
RACCORDO
100
AcDbCircle
 62
253
  6
CONTINUOUS
 10
-7.1840804402
 20
-28.2289133783
 40
0.5000511629
100
AcDbArc
 50
270.0090989759
 51
334.7140019613
  0
ARC
  5
387
100
AcDbEntity
  8
RACCORDO
100
AcDbCircle
 62
7
  6
CONTINUOUS
 10
-7.1706516968
 20
-28.2500585434
 40
0.4999434378
100
AcDbArc
 50
270.001284353
 51
334.9457868923
  0
ARC
  5
388
100
AcDbEntity
  8
RACCORDO
100
AcDbCircle
 62
253
  6
CONTINUOUS
 10
-7.1840143947
 20
-28.2290175946
 40
0.1999906296
100
AcDbArc
 50
270.0038292127
 51
334.7251765407
  0
ARC
  5
389
100
AcDbEntity
  8
RACCORDO
100
AcDbCircle
 62
253
  6
CONTINUOUS
 10
-3427.2613055165
 20
7.8581249654
 40
3405.6082778327
100
AcDbArc
 50
0.0276224499
 51
0.2243742905
  0
ARC
  5
38A
100
AcDbEntity
  8
RACCORDO
100
AcDbCircle
 62
253
  6
CONTINUOUS
 10
-3390.0238564481
 20
7.8577556468
 40
3367.8710000849
100
AcDbArc
 50
0.0277770034
 51
0.2256277863
  0
ARC
  5
38B
100
AcDbEntity
  8
RACCORDO
100
AcDbCircle
 62
253
  6
CONTINUOUS
 10
-0.0031239521
 20
15.9913462292
 40
6.4273983168
100
AcDbArc
 50
179.9216043846
 51
260.868830202
  0
ARC
  5
38C
100
AcDbEntity
  8
RACCORDO
100
AcDbCircle
 62
253
  6
CONTINUOUS
 10
-14.9968513227
 20
0.0003321449
 40
6.3915798922
100
AcDbArc
 50
173.9469955017
 51
180.0029774326
  0
ARC
  5
38D
100
AcDbEntity
  8
RACCORDO
100
AcDbCircle
 62
253
  6
CONTINUOUS
 10
-15.000011355
 20
0.000858199
 40
6.3886499893
100
AcDbArc
 50
186.0666090548
 51
359.9923031775
  0
CIRCLE
  5
38E
100
AcDbEntity
  8
DRAFT
100
AcDbCircle
 62
7
  6
CONTINUOUS
 10
-15.0
 20
0.0
 40
6.35
  0
ARC
  5
38F
100
AcDbEntity
  8
RACCORDO
100
AcDbCircle
 62
253
  6
CONTINUOUS
 10
-19.4798883667
 20
23.7298883659
 40
4.9990652165
100
AcDbArc
 50
89.9968291407
 51
180.0033057276
  0
ARC
  5
390
100
AcDbEntity
  8
RACCORDO
100
AcDbCircle
 62
253
  6
CONTINUOUS
 10
-19.4799986044
 20
23.7299986044
 40
4.6989998641
100
AcDbArc
 50
89.9966523924
 51
180.0033476076
  0
ARC
  5
391
100
AcDbEntity
  8
RACCORDO
100
AcDbCircle
 62
253
  6
CONTINUOUS
 10
-4.0
 20
29.7321374946
 40
3.3209917763
100
AcDbArc
 50
205.2709942462
 51
277.6622556608
  0
ARC
  5
392
100
AcDbEntity
  8
RACCORDO
100
AcDbCircle
 62
253
  6
CONTINUOUS
 10
-4.0
 20
29.7321374946
 40
3.0210374678
100
AcDbArc
 50
205.2709942463
 51
277.6622556608
  0
ARC
  5
393
100
AcDbEntity
  8
RACCORDO
100
AcDbCircle
 62
7
  6
CONTINUOUS
 10
-4.0
 20
29.7321374946
 40
3.0
100
AcDbArc
 50
205.0529287548
 51
277.6622556608
  0
ARC
  5
394
100
AcDbEntity
  8
RACCORDO
100
AcDbCircle
 62
253
  6
CONTINUOUS
 10
-21.6908654555
 20
21.5439779351
 40
0.5003862505
100
AcDbArc
 50
90.0615340082
 51
179.8754462345
  0
ARC
  5
395
100
AcDbEntity
  8
RACCORDO
100
AcDbCircle
 62
253
  6
CONTINUOUS
 10
-7.1840806266
 20
28.2289130868
 40
0.5000514826
100
AcDbArc
 50
25.2801145729
 51
89.9908796734
  0
ARC
  5
396
100
AcDbEntity
  8
RACCORDO
100
AcDbCircle
 62
7
  6
CONTINUOUS
 10
-7.1706517198
 20
28.2500585072
 40
0.4999434378
100
AcDbArc
 50
25.0542157429
 51
89.9987130118
  0
ARC
  5
397
100
AcDbEntity
  8
RACCORDO
100
AcDbCircle
 62
253
  6
CONTINUOUS
 10
-7.1840143947
 20
28.2290175946
 40
0.1999906296
100
AcDbArc
 50
25.2748234602
 51
89.9961707861
  0
ARC
  5
398
100
AcDbEntity
  8
RACCORDO
100
AcDbCircle
 62
253
  6
CONTINUOUS
 10
-5.9426544529
 20
21.8942813591
 40
0.1500849207
100
AcDbArc
 50
90.041577171
 51
179.8837001468
  0
ARC
  5
399
100
AcDbEntity
  8
RACCORDO
100
AcDbCircle
 62
253
  6
CONTINUOUS
 10
-6.5555556754
 20
21.8943258632
 40
0.150048532
100
AcDbArc
 50
0.0993396995
 51
89.9753506048
  0
ARC
  5
39A
100
AcDbEntity
  8
RACCORDO
100
AcDbCircle
 62
253
  6
CONTINUOUS
 10
3427.2614685228
 20
-7.8581244287
 40
3405.60844084
100
AcDbArc
 50
180.0276224396
 51
180.2243742889
  0
ARC
  5
39B
100
AcDbEntity
  8
RACCORDO
100
AcDbCircle
 62
253
  6
CONTINUOUS
 10
3390.0238812321
 20
-7.857755592
 40
3367.8710248689
100
AcDbArc
 50
180.0277770041
 51
180.2256277856
  0
ARC
  5
39C
100
AcDbEntity
  8
RACCORDO
100
AcDbCircle
 62
253
  6
CONTINUOUS
 10
14.9968513228
 20
-0.0003321449
 40
6.3915798922
100
AcDbArc
 50
353.9469955017
 51
0.0029774326
  0
ARC
  5
39D
100
AcDbEntity
  8
RACCORDO
100
AcDbCircle
 62
253
  6
CONTINUOUS
 10
15.0000102119
 20
-0.0008582588
 40
6.3886498836
100
AcDbArc
 50
6.0666085045
 51
179.9923026399
  0
ARC
  5
39E
100
AcDbEntity
  8
RACCORDO
100
AcDbCircle
 62
253
  6
CONTINUOUS
 10
19.4798878996
 20
-23.7298878987
 40
4.9990652165
100
AcDbArc
 50
269.9968344951
 51
0.0033003733
  0
ARC
  5
39F
100
AcDbEntity
  8
RACCORDO
100
AcDbCircle
 62
253
  6
CONTINUOUS
 10
19.4799981605
 20
-23.7299981605
 40
4.6989998641
100
AcDbArc
 50
269.9966578052
 51
0.0033421948
  0
ARC
  5
3A0
100
AcDbEntity
  8
RACCORDO
100
AcDbCircle
 62
253
  6
CONTINUOUS
 10
4.0
 20
-29.7321374946
 40
3.3209917763
100
AcDbArc
 50
25.2709942462
 51
97.6622556608
  0
ARC
  5
3A1
100
AcDbEntity
  8
RACCORDO
100
AcDbCircle
 62
253
  6
CONTINUOUS
 10
0.0
 20
-0.0004033824
 40
3.021374999
100
AcDbArc
 50
0.0076496767
 51
179.9923503233
  0
ARC
  5
3A2
100
AcDbEntity
  8
RACCORDO
100
AcDbCircle
 62
253
  6
CONTINUOUS
 10
4.0
 20
-29.7321374946
 40
3.0210374678
100
AcDbArc
 50
25.2709942463
 51
97.6622556608
  0
ARC
  5
3A3
100
AcDbEntity
  8
RACCORDO
100
AcDbCircle
 62
7
  6
CONTINUOUS
 10
4.0
 20
-29.7321374946
 40
3.0
100
AcDbArc
 50
25.0529287548
 51
97.6622556608
  0
ARC
  5
3A4
100
AcDbEntity
  8
RACCORDO
100
AcDbCircle
 62
253
  6
CONTINUOUS
 10
21.6908656442
 20
-21.5439781187
 40
0.5003861324
100
AcDbArc
 50
270.0615124157
 51
359.8754672048
  0
ARC
  5
3A5
100
AcDbEntity
  8
RACCORDO
100
AcDbCircle
 62
253
  6
CONTINUOUS
 10
7.1840806044
 20
-28.2289131218
 40
0.5000514826
100
AcDbArc
 50
205.280112029
 51
269.9908822173
  0
ARC
  5
3A6
100
AcDbEntity
  8
RACCORDO
100
AcDbCircle
 62
7
  6
CONTINUOUS
 10
7.1706516968
 20
-28.2500585434
 40
0.4999434378
100
AcDbArc
 50
205.0542131077
 51
269.998715647
  0
ARC
  5
3A7
100
AcDbEntity
  8
RACCORDO
100
AcDbCircle
 62
253
  6
CONTINUOUS
 10
7.1840143947
 20
-28.2290175946
 40
0.1999906296
100
AcDbArc
 50
205.2748234603
 51
269.9961707861
  0
ARC
  5
3A8
100
AcDbEntity
  8
DRAFT
100
AcDbCircle
 62
7
  6
CONTINUOUS
 10
0.0
 20
0.0
 40
27.0
100
AcDbArc
 50
262.3377443392
 51
277.6622556608
  0
ARC
  5
3A9
100
AcDbEntity
  8
DRAFT
100
AcDbCircle
 62
7
  6
CONTINUOUS
 10
-0.0
 20
0.0
 40
27.0
100
AcDbArc
 50
82.3377443392
 51
97.6622556608
  0
ARC
  5
3AA
100
AcDbEntity
  8
RACCORDO
100
AcDbCircle
 62
253
  6
CONTINUOUS
 10
-0.0
 20
0.0
 40
26.9789625322
100
AcDbArc
 50
82.3377443392
 51
97.6622556608
  0
ARC
  5
3AB
100
AcDbEntity
  8
RACCORDO
100
AcDbCircle
 62
253
  6
CONTINUOUS
 10
0.0
 20
0.0
 40
26.9789625322
100
AcDbArc
 50
262.3377443392
 51
277.6622556608
  0
ARC
  5
3AC
100
AcDbEntity
  8
RACCORDO
100
AcDbCircle
 62
253
  6
CONTINUOUS
 10
0.0
 20
0.0
 40
26.6790082237
100
AcDbArc
 50
262.3377443392
 51
277.6622556608
  0
ARC
  5
3AD
100
AcDbEntity
  8
RACCORDO
100
AcDbCircle
 62
253
  6
CONTINUOUS
 10
-0.0
 20
0.0
 40
26.6790082237
100
AcDbArc
 50
82.3377443392
 51
97.6622556608
  0
ARC
  5
3AE
100
AcDbEntity
  8
RACCORDO
100
AcDbCircle
 62
253
  6
CONTINUOUS
 10
14.996859263
 20
0.0003325645
 40
6.391571952
100
AcDbArc
 50
359.9970188022
 51
6.0530082634
  0
ARC
  5
3AF
100
AcDbEntity
  8
RACCORDO
100
AcDbCircle
 62
253
  6
CONTINUOUS
 10
15.0000102096
 20
0.0008582641
 40
6.3886499931
100
AcDbArc
 50
180.0076974074
 51
353.9333914505
  0
CIRCLE
  5
3B0
100
AcDbEntity
  8
DRAFT
100
AcDbCircle
 62
7
  6
CONTINUOUS
 10
15.0
 20
0.0
 40
6.35
  0
ARC
  5
3B1
100
AcDbEntity
  8
RACCORDO
100
AcDbCircle
 62
253
  6
CONTINUOUS
 10
-0.0
 20
0.0004034012
 40
3.021375003
100
AcDbArc
 50
180.0076500348
 51
359.9923499652
  0
CIRCLE
  5
3B2
100
AcDbEntity
  8
0
100
AcDbCircle
 62
7
  6
CONTINUOUS
 10
0.0
 20
0.0
 40
3.0
  0
CIRCLE
  5
3B3
100
AcDbEntity
  8
DRAFT
100
AcDbCircle
 62
7
  6
CONTINUOUS
 10
0.0
 20
0.0
 40
1.6302007667
  0
CIRCLE
  5
3B4
100
AcDbEntity
  8
DRAFT
100
AcDbCircle
 62
7
  6
CONTINUOUS
 10
0.0
 20
0.0
 40
1.6
  0
ARC
  5
3B5
100
AcDbEntity
  8
RACCORDO
100
AcDbCircle
 62
253
  6
CONTINUOUS
 10
1.1342427479
 20
22.6867758251
 40
9.7470190964
100
AcDbArc
 50
143.6662079219
 51
143.807024186
  0
ARC
  5
3B6
100
AcDbEntity
  8
RACCORDO
100
AcDbCircle
 62
253
  6
CONTINUOUS
 10
0.0000000001
 20
15.9987048237
 40
6.5825034989
100
AcDbArc
 50
260.8478639186
 51
279.1521360832
  0
ARC
  5
3B7
100
AcDbEntity
  8
RACCORDO
100
AcDbCircle
 62
253
  6
CONTINUOUS
 10
0.0
 20
15.9976776158
 40
6.4343259383
100
AcDbArc
 50
260.8503119451
 51
279.1496880549
  0
ARC
  5
3B8
100
AcDbEntity
  8
RACCORDO
100
AcDbCircle
 62
253
  6
CONTINUOUS
 10
0.0031296573
 20
15.9913391213
 40
6.4273895616
100
AcDbArc
 50
279.1311296405
 51
0.0776816178
  0
ARC
  5
3B9
100
AcDbEntity
  8
DRAFT
100
AcDbCircle
 62
7
  6
CONTINUOUS
 10
0.0
 20
16.0
 40
6.360473039
100
AcDbArc
 50
248.3182884719
 51
291.6817115281
  0
ARC
  5
3BA
100
AcDbEntity
  8
DRAFT
100
AcDbCircle
 62
7
  6
CONTINUOUS
 10
0.0
 20
16.0
 40
6.35
100
AcDbArc
 50
291.6998006075
 51
360.0
  0
ARC
  5
3BB
100
AcDbEntity
  8
DRAFT
100
AcDbCircle
 62
7
  6
CONTINUOUS
 10
0.0
 20
16.0
 40
6.35
100
AcDbArc
 50
180.0
 51
248.3001993925
  0
ARC
  5
3BC
100
AcDbEntity
  8
DRAFT
100
AcDbCircle
 62
7
  6
CONTINUOUS
 10
0.0
 20
16.0
 40
6.339526961
100
AcDbArc
 50
78.7651044528
 51
87.761487741
  0
ARC
  5
3BD
100
AcDbEntity
  8
DRAFT
100
AcDbCircle
 62
7
  6
CONTINUOUS
 10
0.0
 20
16.0
 40
6.339526961
100
AcDbArc
 50
92.2385122645
 51
101.2348955703
  0
ARC
  5
3BE
100
AcDbEntity
  8
RACCORDO
100
AcDbCircle
 62
253
  6
CONTINUOUS
 10
0.0
 20
16.0
 40
6.3222242126
100
AcDbArc
 50
100.4360383425
 51
100.4680137089
  0
ARC
  5
3BF
100
AcDbEntity
  8
RACCORDO
100
AcDbCircle
 62
253
  6
CONTINUOUS
 10
0.0
 20
16.0
 40
6.3222242126
100
AcDbArc
 50
87.5642867504
 51
87.5757945589
  0
ARC
  5
3C0
100
AcDbEntity
  8
RACCORDO
100
AcDbCircle
 62
7
  6
CONTINUOUS
 10
0.0
 20
16.0
 40
6.3221480601
100
AcDbArc
 50
92.4357132496
 51
100.4360383425
  0
ARC
  5
3C1
100
AcDbEntity
  8
RACCORDO
100
AcDbCircle
 62
7
  6
CONTINUOUS
 10
0.0
 20
16.0
 40
6.3221480601
100
AcDbArc
 50
79.5639616575
 51
87.5642867504
  0
ARC
  5
3C2
100
AcDbEntity
  8
DRAFT
100
AcDbCircle
 62
7
  6
CONTINUOUS
 10
0.0
 20
16.0
 40
6.1467267152
100
AcDbArc
 50
180.0
 51
200.9294929351
  0
ARC
  5
3C3
100
AcDbEntity
  8
DRAFT
100
AcDbCircle
 62
7
  6
CONTINUOUS
 10
0.0
 20
16.0
 40
6.1467267152
100
AcDbArc
 50
339.0705070649
 51
360.0
  0
ARC
  5
3C4
100
AcDbEntity
  8
DRAFT
100
AcDbCircle
 62
7
  6
CONTINUOUS
 10
0.0
 20
16.0
 40
6.1377814546
100
AcDbArc
 50
246.8180950499
 51
293.1819049501
  0
ARC
  5
3C5
100
AcDbEntity
  8
DRAFT
100
AcDbCircle
 62
7
  6
CONTINUOUS
 10
0.0
 20
16.0
 40
6.1098533507
100
AcDbArc
 50
294.1530278842
 51
338.0384843224
  0
ARC
  5
3C6
100
AcDbEntity
  8
DRAFT
100
AcDbCircle
 62
7
  6
CONTINUOUS
 10
0.0
 20
16.0
 40
6.1098533507
100
AcDbArc
 50
201.9615156776
 51
245.8469721158
  0
ARC
  5
3C7
100
AcDbEntity
  8
RACCORDO
100
AcDbCircle
 62
253
  6
CONTINUOUS
 10
19.4798878987
 20
23.7298878996
 40
4.9990652165
100
AcDbArc
 50
359.9968344951
 51
90.0033003733
  0
ARC
  5
3C8
100
AcDbEntity
  8
RACCORDO
100
AcDbCircle
 62
253
  6
CONTINUOUS
 10
19.4799981605
 20
23.7299981605
 40
4.6989998641
100
AcDbArc
 50
359.9966578052
 51
90.0033421948
  0
ARC
  5
3C9
100
AcDbEntity
  8
RACCORDO
100
AcDbCircle
 62
253
  6
CONTINUOUS
 10
4.0
 20
29.7321374946
 40
3.3209917763
100
AcDbArc
 50
262.3377443392
 51
334.7290057538
  0
ARC
  5
3CA
100
AcDbEntity
  8
RACCORDO
100
AcDbCircle
 62
253
  6
CONTINUOUS
 10
4.0
 20
29.7321374946
 40
3.0210374678
100
AcDbArc
 50
262.3377443392
 51
334.7299831569
  0
ARC
  5
3CB
100
AcDbEntity
  8
RACCORDO
100
AcDbCircle
 62
7
  6
CONTINUOUS
 10
4.0
 20
29.7321374946
 40
3.0
100
AcDbArc
 50
262.3377443392
 51
334.9470712452
  0
ARC
  5
3CC
100
AcDbEntity
  8
RACCORDO
100
AcDbCircle
 62
253
  6
CONTINUOUS
 10
21.6908654583
 20
21.5439779325
 40
0.5003862504
100
AcDbArc
 50
0.1245540673
 51
89.9384663223
  0
ARC
  5
3CD
100
AcDbEntity
  8
RACCORDO
100
AcDbCircle
 62
253
  6
CONTINUOUS
 10
7.1840804625
 20
28.2289133431
 40
0.5000511629
100
AcDbArc
 50
90.0091015325
 51
154.7139994047
  0
ARC
  5
3CE
100
AcDbEntity
  8
RACCORDO
100
AcDbCircle
 62
7
  6
CONTINUOUS
 10
7.1706517198
 20
28.2500585072
 40
0.4999434378
100
AcDbArc
 50
90.0012869881
 51
154.9457842571
  0
ARC
  5
3CF
100
AcDbEntity
  8
RACCORDO
100
AcDbCircle
 62
253
  6
CONTINUOUS
 10
7.1840143947
 20
28.2290175946
 40
0.1999906296
100
AcDbArc
 50
90.0038292127
 51
154.7251765407
  0
ARC
  5
3D0
100
AcDbEntity
  8
RACCORDO
100
AcDbCircle
 62
253
  6
CONTINUOUS
 10
5.9426543382
 20
21.8942814153
 40
0.1500849577
100
AcDbArc
 50
0.1162783019
 51
89.9583790349
  0
ARC
  5
3D1
100
AcDbEntity
  8
RACCORDO
100
AcDbCircle
 62
253
  6
CONTINUOUS
 10
6.555555676
 20
21.8943258641
 40
0.1500485318
100
AcDbArc
 50
90.0246496223
 51
179.9006606355
  0
ARC
  5
3D2
100
AcDbEntity
  8
RACCORDO
100
AcDbCircle
 62
253
  6
CONTINUOUS
 10
3446.0921817854
 20
7.8167141745
 40
3424.4391720302
100
AcDbArc
 50
179.7761666764
 51
179.9718365832
  0
ARC
  5
3D3
100
AcDbEntity
  8
RACCORDO
100
AcDbCircle
 62
253
  6
CONTINUOUS
 10
3408.6412083525
 20
7.8165856524
 40
3386.4883699132
100
AcDbArc
 50
179.774916061
 51
179.9716791494
  0
ARC
  5
3D4
100
AcDbEntity
  8
RACCORDO
100
AcDbCircle
 62
7
  6
CONTINUOUS
 10
43.0525251937
 20
-7.79
 40
90.0
100
AcDbArc
 50
181.08867053
 51
188.565562066
  0
ARC
  5
3D5
100
AcDbEntity
  8
RACCORDO
100
AcDbCircle
 62
253
  6
CONTINUOUS
 10
43.0389687136
 20
-7.7900395227
 40
89.4995313277
100
AcDbArc
 50
181.0886657155
 51
188.565581798
  0
ARC
  5
3D6
100
AcDbEntity
  8
0
100
AcDbCircle
 62
7
  6
CONTINUOUS
 10
-41.5214864865
 20
-14.0
 40
2.75
100
AcDbArc
 50
310.897676794
 51
49.102323206
  0
ARC
  5
3D7
100
AcDbEntity
  8
RACCORDO
100
AcDbCircle
 62
7
  6
CONTINUOUS
 10
-44.9547760263
 20
-21.0457509019
 40
1.0
100
AcDbArc
 50
188.5655507192
 51
267.0
  0
ARC
  5
3D8
100
AcDbEntity
  8
RACCORDO
100
AcDbCircle
 62
253
  6
CONTINUOUS
 10
-44.9678618203
 20
-21.045747948
 40
0.5000030902
100
AcDbArc
 50
188.5658511763
 51
266.9997110172
  0
ARC
  5
3D9
100
AcDbEntity
  8
RACCORDO
100
AcDbCircle
 62
7
  6
CONTINUOUS
 10
-38.5214864865
 20
-21.3209917763
 40
0.3
100
AcDbArc
 50
0.0
 51
89.0
  0
ARC
  5
3DA
100
AcDbEntity
  8
RACCORDO
100
AcDbCircle
 62
7
  6
CONTINUOUS
 10
-38.5214864865
 20
-22.6790082237
 40
0.3
100
AcDbArc
 50
271.0
 51
360.0
  0
ARC
  5
3DB
100
AcDbEntity
  8
RACCORDO
100
AcDbCircle
 62
7
  6
CONTINUOUS
 10
-38.5214864865
 20
-17.8209917763
 40
0.3
100
AcDbArc
 50
0.0
 51
89.0
  0
ARC
  5
3DC
100
AcDbEntity
  8
RACCORDO
100
AcDbCircle
 62
7
  6
CONTINUOUS
 10
-38.5214864865
 20
-19.1790082237
 40
0.3
100
AcDbArc
 50
271.0
 51
360.0
  0
ARC
  5
3DD
100
AcDbEntity
  8
RACCORDO
100
AcDbCircle
 62
7
  6
CONTINUOUS
 10
-40.9214864865
 20
-28.4290082237
 40
0.3
100
AcDbArc
 50
180.0
 51
269.0
  0
ARC
  5
3DE
100
AcDbEntity
  8
RACCORDO
100
AcDbCircle
 62
7
  6
CONTINUOUS
 10
-38.4714864865
 20
-28.0281430868
 40
0.25
100
AcDbArc
 50
271.0
 51
360.0
  0
ARC
  5
3DF
100
AcDbEntity
  8
RACCORDO
100
AcDbCircle
 62
7
  6
CONTINUOUS
 10
-38.5214864865
 20
17.8209917763
 40
0.3
100
AcDbArc
 50
271.0
 51
360.0
  0
ARC
  5
3E0
100
AcDbEntity
  8
RACCORDO
100
AcDbCircle
 62
7
  6
CONTINUOUS
 10
-44.9547760263
 20
21.0457509019
 40
1.0
100
AcDbArc
 50
93.0
 51
171.4344391674
  0
ARC
  5
3E1
100
AcDbEntity
  8
RACCORDO
100
AcDbCircle
 62
253
  6
CONTINUOUS
 10
-44.9678618203
 20
21.045747948
 40
0.5000030902
100
AcDbArc
 50
93.0002889813
 51
171.4341488252
  0
ARC
  5
3E2
100
AcDbEntity
  8
RACCORDO
100
AcDbCircle
 62
7
  6
CONTINUOUS
 10
-38.5214864865
 20
19.1790082237
 40
0.3
100
AcDbArc
 50
0.0
 51
89.0
  0
ARC
  5
3E3
100
AcDbEntity
  8
RACCORDO
100
AcDbCircle
 62
7
  6
CONTINUOUS
 10
-38.5214864865
 20
22.6790082237
 40
0.3
100
AcDbArc
 50
0.0
 51
89.0
  0
ARC
  5
3E4
100
AcDbEntity
  8
RACCORDO
100
AcDbCircle
 62
7
  6
CONTINUOUS
 10
-38.5214864865
 20
21.3209917763
 40
0.3
100
AcDbArc
 50
271.0
 51
360.0
  0
ARC
  5
3E5
100
AcDbEntity
  8
RACCORDO
100
AcDbCircle
 62
7
  6
CONTINUOUS
 10
-40.9214864865
 20
28.4290082237
 40
0.3
100
AcDbArc
 50
91.0
 51
180.0
  0
ARC
  5
3E6
100
AcDbEntity
  8
RACCORDO
100
AcDbCircle
 62
7
  6
CONTINUOUS
 10
-38.4714864865
 20
28.0281430868
 40
0.25
100
AcDbArc
 50
0.0
 51
89.0
  0
ARC
  5
3E7
100
AcDbEntity
  8
RACCORDO
100
AcDbCircle
 62
7
  6
CONTINUOUS
 10
43.0525251937
 20
7.79
 40
90.0
100
AcDbArc
 50
171.4344379403
 51
178.9113287908
  0
ARC
  5
3E8
100
AcDbEntity
  8
RACCORDO
100
AcDbCircle
 62
253
  6
CONTINUOUS
 10
43.038968714
 20
7.7900395227
 40
89.499531328
100
AcDbArc
 50
171.434418202
 51
178.9113342845
  0
ARC
  5
3E9
100
AcDbEntity
  8
RACCORDO
100
AcDbCircle
 62
7
  6
CONTINUOUS
 10
452.9785135135
 20
0.0
 40
500.0
100
AcDbArc
 50
180.0809473688
 51
181.0886826578
  0
ARC
  5
3EA
100
AcDbEntity
  8
RACCORDO
100
AcDbCircle
 62
7
  6
CONTINUOUS
 10
452.9785135135
 20
0.0
 40
500.0
100
AcDbArc
 50
178.9113172199
 51
179.9190526311
  0
ARC
  5
3EB
100
AcDbEntity
  8
RACCORDO
100
AcDbCircle
 62
7
  6
CONTINUOUS
 10
452.9785135135
 20
0.0
 40
500.0
100
AcDbArc
 50
179.9203008966
 51
180.0794846375
  0
ARC
  5
3EC
100
AcDbEntity
  8
RACCORDO
100
AcDbCircle
 62
253
  6
CONTINUOUS
 10
453.0107169945
 20
-0.0
 40
499.5452837799
100
AcDbArc
 50
178.9114133812
 51
181.0885866188
  0
SPLINE
  5
3ED
100
AcDbEntity
  8
RACCORDO
100
AcDbSpline
 62
7
  6
CONTINUOUS
 70
0
 71
3
 72
27
 73
23
 74
21
 42
0.0000001
 43
0.0000001
 44
0.0000000001
 12
0.029756593
 22
-19.0245394462
 32
0.0
 13
0.0297923549
 23
19.0245393903
 33
0.0
 40
0.0
 40
0.0
 40
0.0
 40
0.0
 40
0.0623053896
 40
0.0935225422
 40
0.1247557346
 40
0.1871900127
 40
0.2496754783
 40
0.2809707848
 40
0.3122741823
 40
0.3748277269
 40
0.4374076651
 40
0.5000018488
 40
0.5625961761
 40
0.625175708
 40
0.6877284129
 40
0.7190315176
 40
0.7503265362
 40
0.812811542
 40
0.8752454059
 40
0.9064782962
 40
0.9376951203
 40
1.0
 40
1.0
 40
1.0
 40
1.0
 10
-6.0679136229
 20
16.0000251845
 30
0.0
 10
-6.0672956242
 20
15.6049147374
 30
0.0
 10
-6.008014818
 20
15.0098133939
 30
0.0
 10
-5.8150923111
 20
14.2416238438
 30
0.0
 10
-5.5478868338
 20
13.4948783794
 30
0.0
 10
-5.0782768812
 20
12.6154299158
 30
0.0
 10
-4.4458395297
 20
11.8441554667
 30
0.0
 10
-3.8575876365
 20
11.310358558
 30
0.0
 10
-3.2196137662
 20
10.8364151976
 30
0.0
 10
-2.3389385029
 20
10.3648152349
 30
0.0
 10
-1.1926519491
 20
10.0165978368
 30
0.0
 10
0.0000244597
 20
9.8988983249
 30
0.0
 10
1.1926971053
 20
10.0166060481
 30
0.0
 10
2.3389760429
 20
10.3648255682
 30
0.0
 10
3.2196373279
 20
10.8364303266
 30
0.0
 10
3.8576034926
 20
11.3103688815
 30
0.0
 10
4.4458462476
 20
11.8441660886
 30
0.0
 10
5.0782789225
 20
12.6154341473
 30
0.0
 10
5.5478856422
 20
13.4948759671
 30
0.0
 10
5.8150895343
 20
14.2416149259
 30
0.0
 10
6.0080115435
 20
15.0097970569
 30
0.0
 10
6.0672948484
 20
15.6048927873
 30
0.0
 10
6.0679135848
 20
16.0
 30
0.0
 11
-6.0679136229
 21
16.0000251845
 31
0.0
 11
-5.950431234
 21
14.8205288029
 31
0.0
 11
-5.8058602236
 21
14.244501255
 31
0.0
 11
-5.6056079297
 21
13.6850639674
 31
0.0
 11
-5.0459429546
 21
12.6373961113
 31
0.0
 11
-4.2923233214
 21
11.7180460151
 31
0.0
 11
-3.8514498289
 21
11.3179118642
 31
0.0
 11
-3.3733596074
 21
10.962820569
 31
0.0
 11
-2.3241860491
 21
10.4011596677
 31
0.0
 11
-1.1850508426
 21
10.0550462825
 31
0.0
 11
0.00002335
 21
9.9381358982
 31
0.0
 11
1.1850994905
 21
10.0550543799
 31
0.0
 11
2.3242253646
 21
10.4011718884
 31
0.0
 11
3.3733806177
 21
10.9628331346
 31
0.0
 11
3.8514652456
 21
11.3179226199
 31
0.0
 11
4.2923323334
 21
11.7180556763
 31
0.0
 11
5.0459451178
 21
12.6374000765
 31
0.0
 11
5.6056068008
 21
13.6850607588
 31
0.0
 11
5.805857666
 21
14.2444924513
 31
0.0
 11
5.9504282711
 21
14.8205136574
 31
0.0
 11
6.0679135848
 21
16.0
 31
0.0
  0
LINE
  5
3EE
100
AcDbEntity
  8
DRAFT
100
AcDbLine
 62
7
  6
CONTINUOUS
 10
-5.9297688893
 20
13.7335295565
 11
-5.7411701128
 21
13.8042734579
  0
LINE
  5
3EF
100
AcDbEntity
  8
DRAFT
100
AcDbLine
 62
7
  6
CONTINUOUS
 10
5.9297688874
 20
13.7335295572
 11
5.7411701128
 21
13.8042734579
  0
SPLINE
  5
3F0
100
AcDbEntity
  8
RACCORDO
100
AcDbSpline
 62
253
  6
CONTINUOUS
 70
0
 71
3
 72
9
 73
5
 74
3
 42
0.0000001
 43
0.0000001
 44
0.0000000001
 12
0.0082843
 22
5.1809907614
 32
0.0
 13
0.0135986067
 23
5.1809795384
 33
0.0
 40
0.0
 40
0.0
 40
0.0
 40
0.0
 40
0.2506321062
 40
1.0
 40
1.0
 40
1.0
 40
1.0
 10
5.9179364305
 20
16.013706177
 30
0.0
 10
5.9186285343
 20
16.4465470526
 30
0.0
 10
5.9216098405
 20
18.173543614
 30
0.0
 10
5.9254717688
 20
19.900538659
 30
0.0
 10
5.9288685552
 20
21.1946919005
 30
0.0
 11
5.9179364305
 21
16.013706177
 31
0.0
 11
5.920178274
 21
17.3122285287
 31
0.0
 11
5.9288685552
 21
21.1946919005
 31
0.0
  0
SPLINE
  5
3F1
100
AcDbEntity
  8
RACCORDO
100
AcDbSpline
 62
253
  6
CONTINUOUS
 70
0
 71
3
 72
27
 73
23
 74
21
 42
0.0000001
 43
0.0000001
 44
0.0000000001
 12
0.0298463143
 22
-18.5694324814
 32
0.0
 13
0.029838728
 23
18.5694324936
 33
0.0
 40
0.0
 40
0.0
 40
0.0
 40
0.0
 40
0.0622982763
 40
0.0935129946
 40
0.1247445709
 40
0.1871779091
 40
0.2496643598
 40
0.280960654
 40
0.3122652822
 40
0.3748215548
 40
0.4374045228
 40
0.5000018715
 40
0.5625993567
 40
0.625181902
 40
0.6877373196
 40
0.7190416533
 40
0.7503376566
 40
0.812823646
 40
0.8752565692
 40
0.9064878434
 40
0.9377022329
 40
1.0
 40
1.0
 40
1.0
 40
1.0
 10
-5.9179364305
 20
16.013706177
 30
0.0
 10
-5.9173166392
 20
15.6280916316
 30
0.0
 10
-5.8595926395
 20
15.0472979526
 30
0.0
 10
-5.6717448162
 20
14.2974449604
 30
0.0
 10
-5.4115277103
 20
13.5683883465
 30
0.0
 10
-4.9540892926
 20
12.709512666
 30
0.0
 10
-4.3377409107
 20
11.9559013635
 30
0.0
 10
-3.7642112259
 20
11.4341271084
 30
0.0
 10
-3.142042661
 20
10.9707377604
 30
0.0
 10
-2.2828795185
 20
10.5094587937
 30
0.0
 10
-1.1641763187
 20
10.1687363733
 30
0.0
 10
0.000036247
 20
10.0535488257
 30
0.0
 10
1.1642444589
 20
10.1687502884
 30
0.0
 10
2.2829382797
 20
10.5094799556
 30
0.0
 10
3.1420861297
 20
10.9707661735
 30
0.0
 10
3.7642452114
 20
11.4341532795
 30
0.0
 10
4.3377639879
 20
11.9559299367
 30
0.0
 10
4.9541047403
 20
12.7095374748
 30
0.0
 10
5.4115366429
 20
13.5684084595
 30
0.0
 10
5.6717490804
 20
14.297459822
 30
0.0
 10
5.8595934388
 20
15.0473063607
 30
0.0
 10
5.9173168018
 20
15.6280947836
 30
0.0
 10
5.9179364305
 20
16.013706177
 30
0.0
 11
-5.9179364305
 21
16.013706177
 31
0.0
 11
-5.8035266389
 21
14.8625324041
 31
0.0
 11
-5.6627533993
 21
14.3002461493
 31
0.0
 11
-5.4677370681
 21
13.7540643357
 31
0.0
 11
-4.9225412666
 21
12.7309019456
 31
0.0
 11
-4.1880536632
 21
11.8326171661
 31
0.0
 11
-3.7582090482
 21
11.441497054
 31
0.0
 11
-3.2919607671
 21
11.0943173091
 31
0.0
 11
-2.2684202251
 21
10.5449878
 31
0.0
 11
-1.1567200752
 21
10.2063539787
 31
0.0
 11
0.0000351114
 21
10.0919499919
 31
0.0
 11
1.1567914915
 21
10.2063676788
 31
0.0
 11
2.2684807078
 21
10.5450104554
 31
0.0
 11
3.2920011559
 21
11.0943438316
 31
0.0
 11
3.7582425994
 21
11.4415236034
 31
0.0
 11
4.1880794229
 21
11.8326442495
 31
0.0
 11
4.9225567689
 21
12.7309263521
 31
0.0
 11
5.4677452433
 21
13.7540839144
 31
0.0
 11
5.6627578944
 21
14.3002610843
 31
0.0
 11
5.8035283903
 21
14.8625417336
 31
0.0
 11
5.9179364305
 21
16.013706177
 31
0.0
  0
SPLINE
  5
3F2
100
AcDbEntity
  8
RACCORDO
100
AcDbSpline
 62
253
  6
CONTINUOUS
 70
0
 71
3
 72
9
 73
5
 74
3
 42
0.0000001
 43
0.0000001
 44
0.0000000001
 12
0.0135986068
 22
-5.1809795392
 32
0.0
 13
0.0082842995
 23
-5.1809907622
 33
0.0
 40
0.0
 40
0.0
 40
0.0
 40
0.0
 40
0.2493153459
 40
1.0
 40
1.0
 40
1.0
 40
1.0
 10
-5.9288685552
 20
21.1946919009
 30
0.0
 10
-5.9277384414
 20
20.7641259989
 30
0.0
 10
-5.9234289447
 20
19.0371322397
 30
0.0
 10
-5.920009396
 20
17.3101362631
 30
0.0
 10
-5.9179364305
 20
16.013706177
 30
0.0
 11
-5.9288685552
 21
21.1946919009
 31
0.0
 11
-5.9256449116
 21
19.9029937682
 31
0.0
 11
-5.9179364305
 21
16.013706177
 31
0.0
  0
SPLINE
  5
3F3
100
AcDbEntity
  8
RACCORDO
100
AcDbSpline
 62
253
  6
CONTINUOUS
 70
0
 71
3
 72
13
 73
9
 74
7
 42
0.0000001
 43
0.0000001
 44
0.0000000001
 12
0.1540925431
 22
-0.0003960072
 32
0.0
 13
0.0179044778
 23
-0.153049333
 33
0.0
 40
0.0
 40
0.0
 40
0.0
 40
0.0
 40
0.3683131428
 40
0.6841492761
 40
0.8072016499
 40
0.9013279808
 40
0.9646806358
 40
1.0
 40
1.0
 40
1.0
 40
1.0
 10
5.9288685553
 20
21.1946877118
 30
0.0
 10
5.9477866583
 20
21.1946390936
 30
0.0
 10
5.9829139619
 20
21.1935737848
 30
0.0
 10
6.0243011846
 20
21.189803466
 30
0.0
 10
6.0512388369
 20
21.1852269018
 30
0.0
 10
6.0653279733
 20
21.1814747093
 30
0.0
 10
6.0742937658
 20
21.1779961266
 30
0.0
 10
6.0786349158
 20
21.1741526385
 30
0.0
 10
6.0788457074
 20
21.1723507701
 30
0.0
 11
5.9288685553
 21
21.1946877118
 31
0.0
 11
5.9855940853
 21
21.1928746759
 31
0.0
 11
6.0340188139
 21
21.1880131078
 31
0.0
 11
6.0526787303
 21
21.1846446359
 31
0.0
 11
6.066664258
 21
21.1808005203
 31
0.0
 11
6.0754954079
 21
21.176639821
 31
0.0
 11
6.0788457074
 21
21.1723507701
 31
0.0
  0
SPLINE
  5
3F4
100
AcDbEntity
  8
RACCORDO
100
AcDbSpline
 62
253
  6
CONTINUOUS
 70
0
 71
3
 72
17
 73
13
 74
11
 42
0.0000001
 43
0.0000001
 44
0.0000000001
 12
0.2265583386
 22
-0.6861267333
 32
0.0
 13
0.0019057172
 23
-0.7225613767
 33
0.0
 40
0.0
 40
0.0
 40
0.0
 40
0.0
 40
0.0097411185
 40
0.0278993723
 40
0.0543982604
 40
0.0891084963
 40
0.1820266497
 40
0.3039587626
 40
0.4512668279
 40
0.6197257356
 40
0.8045960781
 40
1.0
 40
1.0
 40
1.0
 40
1.0
 10
-6.0927405278
 20
21.8945860065
 30
0.0
 10
-6.092004884
 20
21.8923581259
 30
0.0
 10
-6.0912300296
 20
21.885619594
 30
0.0
 10
-6.0899697286
 20
21.8726204654
 30
0.0
 10
-6.0888590757
 20
21.8535129596
 30
0.0
 10
-6.0871200612
 20
21.8164432547
 30
0.0
 10
-6.0852655337
 20
21.7563526466
 30
0.0
 10
-6.0833259669
 20
21.6691505443
 30
0.0
 10
-6.0816661511
 20
21.5637395813
 30
0.0
 10
-6.0803207287
 20
21.4431664913
 30
0.0
 10
-6.0793477094
 20
21.3110047131
 30
0.0
 10
-6.0789698378
 20
21.2194145457
 30
0.0
 10
-6.0788457095
 20
21.1723507701
 30
0.0
 11
-6.0927405278
 21
21.8945860065
 31
0.0
 11
-6.0914794629
 21
21.8876613166
 31
0.0
 11
-6.0902307018
 21
21.8746003796
 31
0.0
 11
-6.0890050826
 21
21.8554925064
 31
0.0
 11
-6.0878131804
 21
21.8304404809
 31
0.0
 11
-6.0855645496
 21
21.7633388447
 31
0.0
 11
-6.0835482028
 21
21.6752581791
 31
0.0
 11
-6.0818222749
 21
21.5688326844
 31
0.0
 11
-6.0804382598
 21
21.4471182293
 31
0.0
 11
-6.0794364476
 21
21.3135413522
 31
0.0
 11
-6.0788457095
 21
21.1723507701
 31
0.0
  0
SPLINE
  5
3F5
100
AcDbEntity
  8
RACCORDO
100
AcDbSpline
 62
253
  6
CONTINUOUS
 70
0
 71
3
 72
17
 73
13
 74
11
 42
0.0000001
 43
0.0000001
 44
0.0000000001
 12
0.2306310313
 22
-0.8180802699
 32
0.0
 13
0.0019067696
 23
-0.8499660962
 33
0.0
 40
0.0
 40
0.0
 40
0.0
 40
0.0
 40
0.0096893192
 40
0.0278348379
 40
0.0543334837
 40
0.0890411187
 40
0.1819487215
 40
0.3038828882
 40
0.451205059
 40
0.6196801806
 40
0.8045720115
 40
1.0
 40
1.0
 40
1.0
 40
1.0
 10
-5.9427633736
 20
22.0443804367
 30
0.0
 10
-5.9420184877
 20
22.0417382231
 30
0.0
 10
-5.9412576433
 20
22.0338320462
 30
0.0
 10
-5.9399889065
 20
22.0185284601
 30
0.0
 10
-5.9388831367
 20
21.9960521238
 30
0.0
 10
-5.9371416051
 20
21.9524335809
 30
0.0
 10
-5.9352887659
 20
21.8817446638
 30
0.0
 10
-5.9333484859
 20
21.7791572089
 30
0.0
 10
-5.9316889528
 20
21.6551471037
 30
0.0
 10
-5.9303434775
 20
21.51329708
 30
0.0
 10
-5.9293706713
 20
21.3578136561
 30
0.0
 10
-5.9289927672
 20
21.2500609557
 30
0.0
 10
-5.9288685552
 20
21.1946919009
 30
0.0
 11
-5.9427633736
 21
22.0443804367
 31
0.0
 11
-5.9415022223
 21
22.0362419585
 31
0.0
 11
-5.9402534038
 21
22.0208694859
 31
0.0
 11
-5.9390277558
 21
21.9983798518
 31
0.0
 11
-5.9378358647
 21
21.9689035521
 31
0.0
 11
-5.9355873387
 21
21.8899670593
 31
0.0
 11
-5.9335709873
 21
21.7863465071
 31
0.0
 11
-5.9318450205
 21
21.6611392372
 31
0.0
 11
-5.9304610596
 21
21.5179474234
 31
0.0
 11
-5.9294593659
 21
21.3607984326
 31
0.0
 11
-5.9288685552
 21
21.1946919009
 31
0.0
  0
SPLINE
  5
3F6
100
AcDbEntity
  8
RACCORDO
100
AcDbSpline
 62
253
  6
CONTINUOUS
 70
0
 71
3
 72
9
 73
5
 74
3
 42
0.0000001
 43
0.0000001
 44
0.0000000001
 12
0.0135985406
 22
-5.1723193907
 32
0.0
 13
0.0082842592
 23
-5.1723306324
 33
0.0
 40
0.0
 40
0.0
 40
0.0
 40
0.0
 40
0.2493153477
 40
1.0
 40
1.0
 40
1.0
 40
1.0
 10
-6.0788457095
 20
21.1723507701
 30
0.0
 10
-6.0777156013
 20
20.7425045677
 30
0.0
 10
-6.073406125
 20
19.0183975236
 30
0.0
 10
-6.0699865837
 20
17.2942882586
 30
0.0
 10
-6.0679136283
 20
16.0000251845
 30
0.0
 11
-6.0788457095
 21
21.1723507701
 31
0.0
 11
-6.0756220808
 21
19.8828117353
 31
0.0
 11
-6.0679136283
 21
16.0000251845
 31
0.0
  0
SPLINE
  5
3F7
100
AcDbEntity
  8
RACCORDO
100
AcDbSpline
 62
253
  6
CONTINUOUS
 70
0
 71
3
 72
13
 73
9
 74
7
 42
0.0000001
 43
0.0000001
 44
0.0000000001
 12
-0.1540956687
 22
-0.0003961457
 32
0.0
 13
-0.0177337575
 23
-0.1530723551
 33
0.0
 40
0.0
 40
0.0
 40
0.0
 40
0.0
 40
0.3683458095
 40
0.684196176
 40
0.8072449492
 40
0.9013600441
 40
0.964695455
 40
1.0
 40
1.0
 40
1.0
 40
1.0
 10
-5.9288685553
 20
21.1946919229
 30
0.0
 10
-5.9477887199
 20
21.1946432834
 30
0.0
 10
-5.98291915
 20
21.1935777769
 30
0.0
 10
-6.024309379
 20
21.1898064978
 30
0.0
 10
-6.0512474526
 20
21.1852292152
 30
0.0
 10
-6.0653349456
 20
21.181475926
 30
0.0
 10
-6.0742986737
 20
21.1779978661
 30
0.0
 10
-6.0786370155
 20
21.1741521534
 30
0.0
 10
-6.0788457095
 20
21.1723507701
 30
0.0
 11
-5.9288685553
 21
21.1946919229
 31
0.0
 11
-5.9856002583
 21
21.1928784125
 31
0.0
 11
-6.0340280707
 21
21.1880157215
 31
0.0
 11
-6.0526876891
 21
21.1846465566
 31
0.0
 11
-6.0666715323
 21
21.180801735
 31
0.0
 11
-6.0754996525
 21
21.1766403758
 31
0.0
 11
-6.0788457095
 21
21.1723507701
 31
0.0
  0
SPLINE
  5
3F8
100
AcDbEntity
  8
RACCORDO
100
AcDbSpline
 62
253
  6
CONTINUOUS
 70
0
 71
3
 72
17
 73
13
 74
11
 42
0.0000001
 43
0.0000001
 44
0.0000000001
 12
0.001906815
 22
0.8499660987
 32
0.0
 13
0.2306370972
 23
0.8180785624
 33
0.0
 40
0.0
 40
0.0
 40
0.0
 40
0.0
 40
0.1954288911
 40
0.3803225161
 40
0.5487977102
 40
0.6961193324
 40
0.8180530992
 40
0.9109599334
 40
0.9456673512
 40
0.9721657493
 40
0.9903109296
 40
1.0
 40
1.0
 40
1.0
 40
1.0
 10
5.9288685552
 20
21.1946919005
 30
0.0
 10
5.9289927708
 20
21.2500612112
 30
0.0
 10
5.9293706861
 20
21.3578146759
 30
0.0
 10
5.9303434845
 20
21.5132988849
 30
0.0
 10
5.9316889755
 20
21.6551492823
 30
0.0
 10
5.9333485178
 20
21.7791591397
 30
0.0
 10
5.9352887951
 20
21.8817461082
 30
0.0
 10
5.9371416514
 20
21.9524346327
 30
0.0
 10
5.9388831638
 20
21.996052826
 30
0.0
 10
5.9399889145
 20
22.0185289366
 30
0.0
 10
5.9412576438
 20
22.0338322842
 30
0.0
 10
5.9420184872
 20
22.0417382965
 30
0.0
 10
5.9427633736
 20
22.0443804367
 30
0.0
 11
5.9288685552
 21
21.1946919005
 31
0.0
 11
5.9294593756
 21
21.3607991999
 31
0.0
 11
5.9304610751
 21
21.517949716
 31
0.0
 11
5.931845046
 21
21.6611415918
 31
0.0
 11
5.933571018
 21
21.7863483957
 31
0.0
 11
5.9355873766
 21
21.8899686082
 31
0.0
 11
5.9378359013
 21
21.9689044477
 31
0.0
 11
5.9390277815
 21
21.9983805631
 31
0.0
 11
5.9402534164
 21
22.0208699872
 31
0.0
 11
5.9415022257
 21
22.036242172
 31
0.0
 11
5.9427633736
 21
22.0443804367
 31
0.0
  0
SPLINE
  5
3F9
100
AcDbEntity
  8
RACCORDO
100
AcDbSpline
 62
253
  6
CONTINUOUS
 70
0
 71
3
 72
17
 73
13
 74
11
 42
0.0000001
 43
0.0000001
 44
0.0000000001
 12
0.0019057561
 22
0.7225613798
 32
0.0
 13
0.22657009
 23
0.6861228562
 33
0.0
 40
0.0
 40
0.0
 40
0.0
 40
0.0
 40
0.1954048206
 40
0.3802769657
 40
0.5487359355
 40
0.6960434332
 40
0.8179750637
 40
0.9108924148
 40
0.9456025028
 40
0.972101244
 40
0.9902592035
 40
1.0
 40
1.0
 40
1.0
 40
1.0
 10
6.0788457095
 20
21.1723507701
 30
0.0
 10
6.0789698409
 20
21.2194147624
 30
0.0
 10
6.0793477236
 20
21.3110055807
 30
0.0
 10
6.0803207354
 20
21.4431680252
 30
0.0
 10
6.0816661737
 20
21.5637414279
 30
0.0
 10
6.083325998
 20
21.6691521535
 30
0.0
 10
6.0852655626
 20
21.7563538094
 30
0.0
 10
6.0871201065
 20
21.8164440734
 30
0.0
 10
6.0888591046
 20
21.8535135125
 30
0.0
 10
6.0899697312
 20
21.8726208817
 30
0.0
 10
6.0912300349
 20
21.8856198185
 30
0.0
 10
6.0920048701
 20
21.8923582121
 30
0.0
 10
6.0927405278
 20
21.8945860065
 30
0.0
 11
6.0788457095
 21
21.1723507701
 31
0.0
 11
6.0794364567
 21
21.3135420022
 31
0.0
 11
6.080438275
 21
21.4471201824
 31
0.0
 11
6.0818223003
 21
21.5688346827
 31
0.0
 11
6.0835482332
 21
21.6752597676
 31
0.0
 11
6.0855645865
 21
21.7633400849
 31
0.0
 11
6.0878132155
 21
21.8304411414
 31
0.0
 11
6.0890051071
 21
21.8554930605
 31
0.0
 11
6.0902307139
 21
21.8746008281
 31
0.0
 11
6.0914794662
 21
21.8876615525
 31
0.0
 11
6.0927405278
 21
21.8945860065
 31
0.0
  0
SPLINE
  5
3FA
100
AcDbEntity
  8
RACCORDO
100
AcDbSpline
 62
253
  6
CONTINUOUS
 70
0
 71
3
 72
9
 73
5
 74
3
 42
0.0000001
 43
0.0000001
 44
0.0000000001
 12
0.0082843001
 22
5.1723558164
 32
0.0
 13
0.0135986067
 23
5.1723445747
 33
0.0
 40
0.0
 40
0.0
 40
0.0
 40
0.0
 40
0.2506321063
 40
1.0
 40
1.0
 40
1.0
 40
1.0
 10
6.0679135848
 20
16.0
 30
0.0
 10
6.0686056886
 20
16.4321194775
 30
0.0
 10
6.0715869948
 20
18.1562377234
 30
0.0
 10
6.0754489231
 20
19.8803544502
 30
0.0
 10
6.0788457095
 20
21.1723507701
 30
0.0
 11
6.0679135848
 21
16.0
 31
0.0
 11
6.0701554283
 21
17.2963581569
 31
0.0
 11
6.0788457095
 21
21.1723507701
 31
0.0
  0
SPLINE
  5
3FB
100
AcDbEntity
  8
RACCORDO
100
AcDbSpline
 62
253
  6
CONTINUOUS
 70
0
 71
3
 72
14
 73
10
 74
8
 42
0.0000001
 43
0.0000001
 44
0.0000000001
 12
-0.1516665704
 22
-0.0002409337
 32
0.0
 13
-0.028335376
 23
-0.1489963526
 33
0.0
 40
0.0
 40
0.0
 40
0.0
 40
0.0
 40
0.3740989309
 40
0.5444759756
 40
0.6940191072
 40
0.8178021913
 40
0.9113123448
 40
0.9719173789
 40
1.0
 40
1.0
 40
1.0
 40
1.0
 10
-5.9179364305
 20
16.0137061707
 30
0.0
 10
-5.9368491978
 20
16.0136761264
 30
0.0
 10
-5.9643884595
 20
16.0131668749
 30
0.0
 10
-5.999414022
 20
16.011483033
 30
0.0
 10
-6.0218425692
 20
16.0098322555
 30
0.0
 10
-6.0401372975
 20
16.0078996281
 30
0.0
 10
-6.0543981939
 20
16.0056581356
 30
0.0
 10
-6.0626146839
 20
16.0035190385
 30
0.0
 10
-6.0676478471
 20
16.001394736
 30
0.0
 10
-6.067913091
 20
16.0
 30
0.0
 11
-5.9179364305
 21
16.0137061707
 31
0.0
 11
-5.9746638853
 21
16.0125931142
 31
0.0
 11
-6.0004727943
 21
16.0113150514
 31
0.0
 11
-6.0230893189
 21
16.0096097687
 31
0.0
 11
-6.0417489746
 21
16.0075428752
 31
0.0
 11
-6.0557338516
 21
16.0051842359
 31
0.0
 11
-6.0645640212
 21
16.002631448
 31
0.0
 11
-6.067913091
 21
16.0
 31
0.0
  0
SPLINE
  5
3FC
100
AcDbEntity
  8
RACCORDO
100
AcDbSpline
 62
253
  6
CONTINUOUS
 70
0
 71
3
 72
14
 73
10
 74
8
 42
0.0000001
 43
0.0000001
 44
0.0000000001
 12
0.1516670669
 22
-0.0002408891
 32
0.0
 13
0.0283348939
 23
-0.1489969497
 33
0.0
 40
0.0
 40
0.0
 40
0.0
 40
0.0
 40
0.3740987754
 40
0.5444758526
 40
0.6940190462
 40
0.8178021947
 40
0.9113123888
 40
0.9719174234
 40
1.0
 40
1.0
 40
1.0
 40
1.0
 10
5.9179364305
 20
16.0137061765
 30
0.0
 10
5.9368492518
 20
16.0136761378
 30
0.0
 10
5.9643885977
 20
16.0131668916
 30
0.0
 10
5.999414272
 20
16.0114830532
 30
0.0
 10
6.0218429014
 20
16.0098322752
 30
0.0
 10
6.0401376973
 20
16.007899646
 30
0.0
 10
6.0543986496
 20
16.0056581483
 30
0.0
 10
6.0626151609
 20
16.0035190494
 30
0.0
 10
6.0676483458
 20
16.0013947394
 30
0.0
 10
6.0679135848
 20
16.0
 30
0.0
 11
5.9179364305
 21
16.0137061765
 31
0.0
 11
5.9746640477
 21
16.012593132
 31
0.0
 11
6.0004730464
 21
16.0113150713
 31
0.0
 11
6.0230896549
 21
16.0096097882
 31
0.0
 11
6.0417493819
 21
16.0075428918
 31
0.0
 11
6.0557343114
 21
16.005184248
 31
0.0
 11
6.0645645108
 21
16.0026314542
 31
0.0
 11
6.0679135848
 21
16.0
 31
0.0
  0
SPLINE
  5
3FD
100
AcDbEntity
  8
RACCORDO
100
AcDbSpline
 62
253
  6
CONTINUOUS
 70
0
 71
3
 72
13
 73
9
 74
7
 42
0.0000001
 43
0.0000001
 44
0.0000000001
 12
-0.2948194474
 22
0.0555107544
 32
0.0
 13
-0.2983233084
 23
0.031672608
 33
0.0
 40
0.0
 40
0.0
 40
0.0
 40
0.0
 40
0.0221810362
 40
0.0810836505
 40
0.1745239567
 40
0.2990248082
 40
0.6212620839
 40
1.0
 40
1.0
 40
1.0
 40
1.0
 10
-21.352796683
 20
0.67431436
 30
0.0
 10
-21.3549764833
 20
0.6747247887
 30
0.0
 10
-21.3630787055
 20
0.6753549642
 30
0.0
 10
-21.3803860476
 20
0.6775151562
 30
0.0
 10
-21.4079300838
 20
0.6803699447
 30
0.0
 10
-21.4616250549
 20
0.6862322839
 30
0.0
 10
-21.5437119536
 20
0.6949660332
 30
0.0
 10
-21.613413286
 20
0.7024003035
 30
0.0
 10
-21.651075402
 20
0.7063988427
 30
0.0
 11
-21.352796683
 21
0.67431436
 31
0.0
 11
-21.3594047462
 21
0.6750975136
 31
0.0
 11
-21.3769683676
 21
0.6770406162
 31
0.0
 11
-21.404836138
 21
0.6800713119
 31
0.0
 11
-21.4419709765
 21
0.6840768806
 31
0.0
 11
-21.5380923736
 21
0.6943719975
 31
0.0
 11
-21.651075402
 21
0.7063988427
 31
0.0
  0
SPLINE
  5
3FE
100
AcDbEntity
  8
RACCORDO
100
AcDbSpline
 62
253
  6
CONTINUOUS
 70
0
 71
3
 72
17
 73
13
 74
11
 42
0.0000001
 43
0.0000001
 44
0.0000000001
 12
0.0016788097
 22
0.4252746887
 32
0.0
 13
0.1897693696
 23
0.3805902857
 33
0.0
 40
0.0
 40
0.0
 40
0.0
 40
0.0
 40
0.1954317034
 40
0.3800732682
 40
0.5484684332
 40
0.6957536979
 40
0.8176154638
 40
0.9105317389
 40
0.9452666845
 40
0.9718444828
 40
0.9900922846
 40
1.0
 40
1.0
 40
1.0
 40
1.0
 10
22.1789698456
 20
21.1202214126
 30
0.0
 10
22.1790792098
 20
21.1479254649
 30
0.0
 10
22.1794120098
 20
21.201803552
 30
0.0
 10
22.1802723383
 20
21.2795498576
 30
0.0
 10
22.1814593999
 20
21.350465039
 30
0.0
 10
22.1829233479
 20
21.4124760408
 30
0.0
 10
22.1846347877
 20
21.4637690939
 30
0.0
 10
22.1862756826
 20
21.4991151331
 30
0.0
 10
22.1878044461
 20
21.5209118106
 30
0.0
 10
22.1887940377
 20
21.5321739929
 30
0.0
 10
22.1898844847
 20
21.5398076971
 30
0.0
 10
22.190604809
 20
21.5438087426
 30
0.0
 10
22.1912315359
 20
21.5450656693
 30
0.0
 11
22.1789698456
 21
21.1202214126
 31
0.0
 11
22.1794910955
 21
21.2033325825
 31
0.0
 11
22.1803754635
 21
21.2818515981
 31
0.0
 11
22.1815969101
 21
21.3534559403
 31
0.0
 11
22.1831197232
 21
21.4160746097
 31
0.0
 11
22.1848994883
 21
21.4678691689
 31
0.0
 11
22.1868839229
 21
21.5073345567
 31
0.0
 11
22.1879350075
 21
21.5220691232
 31
0.0
 11
22.1890155947
 21
21.5333203043
 31
0.0
 11
22.1901175918
 21
21.5410020512
 31
0.0
 11
22.1912315359
 21
21.5450656693
 31
0.0
  0
SPLINE
  5
3FF
100
AcDbEntity
  8
RACCORDO
100
AcDbSpline
 62
253
  6
CONTINUOUS
 70
0
 71
3
 72
14
 73
10
 74
8
 42
0.0000001
 43
0.0000001
 44
0.0000000001
 12
-0.5132618551
 22
-0.0019794743
 32
0.0
 13
-0.0878557596
 23
-0.5056906324
 33
0.0
 40
0.0
 40
0.0
 40
0.0
 40
0.0
 40
0.3671982671
 40
0.6816242347
 40
0.8048582576
 40
0.8996239968
 40
0.935611409
 40
0.9639206142
 40
1.0
 40
1.0
 40
1.0
 40
1.0
 10
-21.6791411831
 20
21.1946919198
 30
0.0
 10
-21.7419641377
 20
21.1944496333
 30
0.0
 10
-21.8585835158
 20
21.1907618939
 30
0.0
 10
-21.9958666084
 20
21.1782804752
 30
0.0
 10
-22.0857221668
 20
21.1627021064
 30
0.0
 10
-22.1278429945
 20
21.1521254448
 30
0.0
 10
-22.1534791117
 20
21.1422801998
 30
0.0
 10
-22.168320954
 20
21.1345397547
 30
0.0
 10
-22.1779132517
 20
21.1263030818
 30
0.0
 10
-22.1789698456
 20
21.1202214126
 30
0.0
 11
-21.6791411831
 21
21.1946919198
 31
0.0
 11
-21.8675090158
 21
21.1884789855
 31
0.0
 11
-22.0280708621
 21
21.1722091693
 31
0.0
 11
-22.0903226833
 21
21.1610064845
 31
0.0
 11
-22.1372700736
 21
21.148286727
 31
0.0
 11
-22.1544485584
 21
21.1414984049
 31
0.0
 11
-22.1671858847
 21
21.1345065825
 31
0.0
 11
-22.1789698456
 21
21.1202214126
 31
0.0
  0
SPLINE
  5
400
100
AcDbEntity
  8
RACCORDO
100
AcDbSpline
 62
253
  6
CONTINUOUS
 70
0
 71
3
 72
18
 73
14
 74
12
 42
0.0000001
 43
0.0000001
 44
0.0000000001
 12
-0.5001067351
 22
-0.0002487744
 32
0.0
 13
-0.4046590053
 23
-0.2938671431
 33
0.0
 40
0.0
 40
0.0
 40
0.0
 40
0.0
 40
0.1916833037
 40
0.3765955137
 40
0.5472901342
 40
0.6976446779
 40
0.822156141
 40
0.8731802246
 40
0.9161041449
 40
0.9505114872
 40
0.9760610652
 40
0.9925827804
 40
1.0
 40
1.0
 40
1.0
 40
1.0
 10
-21.6534234781
 20
9.5
 30
0.0
 10
-21.6853775152
 20
9.4999841047
 30
0.0
 10
-21.7481568935
 20
9.4998387618
 30
0.0
 10
-21.8393897218
 20
9.499287774
 30
0.0
 10
-21.9237312842
 20
9.498426978
 30
0.0
 10
-21.9979965946
 20
9.4972852181
 30
0.0
 10
-22.0523164437
 20
9.4961014806
 30
0.0
 10
-22.0887086584
 20
9.4949801529
 30
0.0
 10
-22.1101101699
 20
9.4941956677
 30
0.0
 10
-22.1271883059
 20
9.4932904953
 30
0.0
 10
-22.140036651
 20
9.4926223237
 30
0.0
 10
-22.1480037017
 20
9.4914836412
 30
0.0
 10
-22.152251659
 20
9.491226559
 30
0.0
 10
-22.1532521406
 20
9.4905
 30
0.0
 11
-21.6534234781
 21
9.5
 31
0.0
 11
-21.7492853385
 21
9.4997755786
 31
0.0
 11
-21.8417594416
 21
9.4992066774
 31
0.0
 11
-21.9271203162
 21
9.498314214
 31
0.0
 11
-22.0023043357
 21
9.4971310086
 31
0.0
 11
-22.0645569659
 21
9.4957020225
 31
0.0
 11
-22.0900622074
 21
9.4949114477
 31
0.0
 11
-22.1115126285
 21
9.4940796099
 31
0.0
 11
-22.1286981772
 21
9.4932137777
 31
0.0
 11
-22.141444537
 21
9.4923219997
 31
0.0
 11
-22.1496571236
 21
9.4914140654
 31
0.0
 11
-22.1532521406
 21
9.4905
 31
0.0
  0
SPLINE
  5
401
100
AcDbEntity
  8
RACCORDO
100
AcDbSpline
 62
253
  6
CONTINUOUS
 70
0
 71
3
 72
9
 73
5
 74
3
 42
0.0000001
 43
0.0000001
 44
0.0000000001
 12
0.0000369815
 22
-0.7140422224
 32
0.0
 13
0.1830726377
 23
-0.6901744026
 33
0.0
 40
0.0
 40
0.0
 40
0.0
 40
0.0
 40
0.5000217986
 40
1.0
 40
1.0
 40
1.0
 40
1.0
 10
-21.7443702647
 20
0.0
 30
0.0
 10
-21.7443641009
 20
-0.1190122254
 30
0.0
 10
-21.728470599
 20
-0.3572911256
 30
0.0
 10
-21.681586178
 20
-0.5913747895
 30
0.0
 10
-21.651075402
 20
-0.7063988417
 30
0.0
 11
-21.7443702647
 21
0.0
 31
0.0
 11
-21.7207215008
 21
-0.3562526134
 31
0.0
 11
-21.651075402
 21
-0.7063988417
 31
0.0
  0
SPLINE
  5
402
100
AcDbEntity
  8
RACCORDO
100
AcDbSpline
 62
253
  6
CONTINUOUS
 70
0
 71
3
 72
9
 73
5
 74
3
 42
0.0000001
 43
0.0000001
 44
0.0000000001
 12
-0.1830782586
 22
-0.6901728606
 32
0.0
 13
-0.0000377436
 23
-0.714042173
 33
0.0
 40
0.0
 40
0.0
 40
0.0
 40
0.0
 40
0.4999778674
 40
1.0
 40
1.0
 40
1.0
 40
1.0
 10
-21.651075402
 20
0.7063988417
 30
0.0
 10
-21.6815870944
 20
0.5913751234
 30
0.0
 10
-21.7284694308
 20
0.3572909819
 30
0.0
 10
-21.7443639738
 20
0.1190122967
 30
0.0
 10
-21.7443702647
 20
0.0
 30
0.0
 11
-21.651075402
 21
0.7063988417
 31
0.0
 11
-21.720721093
 21
0.3562528006
 31
0.0
 11
-21.7443702647
 21
0.0
 31
0.0
  0
SPLINE
  5
403
100
AcDbEntity
  8
RACCORDO
100
AcDbSpline
 62
253
  6
CONTINUOUS
 70
0
 71
3
 72
9
 73
5
 74
3
 42
0.0000001
 43
0.0000001
 44
0.0000000001
 12
-0.0094453649
 22
18.9809980905
 32
0.0
 13
0.0094453647
 23
18.9809980905
 33
0.0
 40
0.0
 40
0.0
 40
0.0
 40
0.0
 40
0.2499885537
 40
1.0
 40
1.0
 40
1.0
 40
1.0
 10
22.1532521406
 20
-9.4905
 30
0.0
 10
22.1524650629
 20
-7.90882258
 30
0.0
 10
22.1501040079
 20
-1.5818228492
 30
0.0
 10
22.1508907634
 20
4.7451780565
 30
0.0
 10
22.1532521406
 20
9.4905
 30
0.0
 11
22.1532521406
 21
-9.4905
 31
0.0
 11
22.1514813096
 21
-4.7454674829
 31
0.0
 11
22.1532521406
 21
9.4905
 31
0.0
  0
SPLINE
  5
404
100
AcDbEntity
  8
RACCORDO
100
AcDbSpline
 62
253
  6
CONTINUOUS
 70
0
 71
3
 72
17
 73
13
 74
11
 42
0.0000001
 43
0.0000001
 44
0.0000000001
 12
-0.1897693803
 22
0.3805902804
 32
0.0
 13
-0.0016788097
 23
0.4252746887
 33
0.0
 40
0.0
 40
0.0
 40
0.0
 40
0.0
 40
0.0099077153
 40
0.0281555172
 40
0.0547333155
 40
0.0894682611
 40
0.1823845362
 40
0.3042463021
 40
0.4515315668
 40
0.6199267318
 40
0.8045682966
 40
1.0
 40
1.0
 40
1.0
 40
1.0
 10
22.1912315359
 20
-21.5450656693
 30
0.0
 10
22.1906048089
 20
-21.5438087426
 30
0.0
 10
22.1898844847
 20
-21.5398076972
 30
0.0
 10
22.1887940376
 20
-21.5321739929
 30
0.0
 10
22.1878044461
 20
-21.5209118105
 30
0.0
 10
22.1862756826
 20
-21.4991151331
 30
0.0
 10
22.1846347877
 20
-21.4637690939
 30
0.0
 10
22.1829233479
 20
-21.4124760408
 30
0.0
 10
22.1814593999
 20
-21.350465039
 30
0.0
 10
22.1802723383
 20
-21.2795498576
 30
0.0
 10
22.1794120098
 20
-21.201803552
 30
0.0
 10
22.1790792098
 20
-21.1479254649
 30
0.0
 10
22.1789698456
 20
-21.1202214126
 30
0.0
 11
22.1912315359
 21
-21.5450656693
 31
0.0
 11
22.1901175918
 21
-21.5410020513
 31
0.0
 11
22.1890155947
 21
-21.5333203043
 31
0.0
 11
22.1879350075
 21
-21.5220691232
 31
0.0
 11
22.1868839229
 21
-21.5073345567
 31
0.0
 11
22.1848994883
 21
-21.4678691689
 31
0.0
 11
22.1831197232
 21
-21.4160746097
 31
0.0
 11
22.1815969101
 21
-21.3534559403
 31
0.0
 11
22.1803754635
 21
-21.2818515981
 31
0.0
 11
22.1794910955
 21
-21.2033325825
 31
0.0
 11
22.1789698456
 21
-21.1202214126
 31
0.0
  0
SPLINE
  5
405
100
AcDbEntity
  8
RACCORDO
100
AcDbSpline
 62
253
  6
CONTINUOUS
 70
0
 71
3
 72
17
 73
13
 74
11
 42
0.0000001
 43
0.0000001
 44
0.0000000001
 12
-0.0016788097
 22
-0.4252746887
 32
0.0
 13
-0.1897693696
 23
-0.3805902857
 33
0.0
 40
0.0
 40
0.0
 40
0.0
 40
0.0
 40
0.1954317034
 40
0.3800732682
 40
0.5484684332
 40
0.6957536979
 40
0.8176154638
 40
0.9105317389
 40
0.9452666845
 40
0.9718444828
 40
0.9900922846
 40
1.0
 40
1.0
 40
1.0
 40
1.0
 10
-22.1789698456
 20
-21.1202214126
 30
0.0
 10
-22.1790792098
 20
-21.1479254649
 30
0.0
 10
-22.1794120098
 20
-21.201803552
 30
0.0
 10
-22.1802723383
 20
-21.2795498576
 30
0.0
 10
-22.1814593999
 20
-21.350465039
 30
0.0
 10
-22.1829233479
 20
-21.4124760408
 30
0.0
 10
-22.1846347877
 20
-21.4637690939
 30
0.0
 10
-22.1862756826
 20
-21.4991151331
 30
0.0
 10
-22.1878044461
 20
-21.5209118106
 30
0.0
 10
-22.1887940377
 20
-21.5321739929
 30
0.0
 10
-22.1898844847
 20
-21.5398076971
 30
0.0
 10
-22.190604809
 20
-21.5438087426
 30
0.0
 10
-22.1912315359
 20
-21.5450656693
 30
0.0
 11
-22.1789698456
 21
-21.1202214126
 31
0.0
 11
-22.1794910955
 21
-21.2033325825
 31
0.0
 11
-22.1803754635
 21
-21.2818515981
 31
0.0
 11
-22.1815969101
 21
-21.3534559403
 31
0.0
 11
-22.1831197232
 21
-21.4160746097
 31
0.0
 11
-22.1848994883
 21
-21.4678691689
 31
0.0
 11
-22.1868839229
 21
-21.5073345567
 31
0.0
 11
-22.1879350075
 21
-21.5220691232
 31
0.0
 11
-22.1890155947
 21
-21.5333203043
 31
0.0
 11
-22.1901175918
 21
-21.5410020512
 31
0.0
 11
-22.1912315359
 21
-21.5450656693
 31
0.0
  0
SPLINE
  5
406
100
AcDbEntity
  8
RACCORDO
100
AcDbSpline
 62
253
  6
CONTINUOUS
 70
0
 71
3
 72
9
 73
5
 74
3
 42
0.0000001
 43
0.0000001
 44
0.0000000001
 12
0.0094453647
 22
-18.9809980905
 32
0.0
 13
-0.0094453649
 23
-18.9809980905
 33
0.0
 40
0.0
 40
0.0
 40
0.0
 40
0.0
 40
0.2499885537
 40
1.0
 40
1.0
 40
1.0
 40
1.0
 10
-22.1532521406
 20
9.4905
 30
0.0
 10
-22.1524650629
 20
7.90882258
 30
0.0
 10
-22.1501040079
 20
1.5818228492
 30
0.0
 10
-22.1508907633
 20
-4.7451780565
 30
0.0
 10
-22.1532521406
 20
-9.4905
 30
0.0
 11
-22.1532521406
 21
9.4905
 31
0.0
 11
-22.1514813096
 21
4.7454674829
 31
0.0
 11
-22.1532521406
 21
-9.4905
 31
0.0
  0
SPLINE
  5
407
100
AcDbEntity
  8
RACCORDO
100
AcDbSpline
 62
253
  6
CONTINUOUS
 70
0
 71
3
 72
17
 73
13
 74
11
 42
0.0000001
 43
0.0000001
 44
0.0000000001
 12
0.1897693803
 22
-0.3805902804
 32
0.0
 13
0.0016788097
 23
-0.4252746887
 33
0.0
 40
0.0
 40
0.0
 40
0.0
 40
0.0
 40
0.0099077153
 40
0.0281555172
 40
0.0547333155
 40
0.0894682611
 40
0.1823845362
 40
0.3042463021
 40
0.4515315668
 40
0.6199267318
 40
0.8045682966
 40
1.0
 40
1.0
 40
1.0
 40
1.0
 10
-22.1912315359
 20
21.5450656693
 30
0.0
 10
-22.1906048089
 20
21.5438087426
 30
0.0
 10
-22.1898844847
 20
21.5398076972
 30
0.0
 10
-22.1887940376
 20
21.5321739929
 30
0.0
 10
-22.1878044461
 20
21.5209118105
 30
0.0
 10
-22.1862756826
 20
21.4991151331
 30
0.0
 10
-22.1846347877
 20
21.4637690939
 30
0.0
 10
-22.1829233479
 20
21.4124760408
 30
0.0
 10
-22.1814593999
 20
21.350465039
 30
0.0
 10
-22.1802723383
 20
21.2795498576
 30
0.0
 10
-22.1794120098
 20
21.201803552
 30
0.0
 10
-22.1790792098
 20
21.1479254649
 30
0.0
 10
-22.1789698456
 20
21.1202214126
 30
0.0
 11
-22.1912315359
 21
21.5450656693
 31
0.0
 11
-22.1901175918
 21
21.5410020513
 31
0.0
 11
-22.1890155947
 21
21.5333203043
 31
0.0
 11
-22.1879350075
 21
21.5220691232
 31
0.0
 11
-22.1868839229
 21
21.5073345567
 31
0.0
 11
-22.1848994883
 21
21.4678691689
 31
0.0
 11
-22.1831197232
 21
21.4160746097
 31
0.0
 11
-22.1815969101
 21
21.3534559403
 31
0.0
 11
-22.1803754635
 21
21.2818515981
 31
0.0
 11
-22.1794910955
 21
21.2033325825
 31
0.0
 11
-22.1789698456
 21
21.1202214126
 31
0.0
  0
LINE
  5
408
100
AcDbEntity
  8
RACCORDO
100
AcDbLine
 62
253
  6
CONTINUOUS
 10
6.7177509809
 20
28.4617715609
 11
6.7319425025
 21
28.4425028392
  0
LINE
  5
409
100
AcDbEntity
  8
RACCORDO
100
AcDbLine
 62
253
  6
CONTINUOUS
 10
-6.7177509809
 20
-28.4617715609
 11
-6.7319425025
 21
-28.4425028392
  0
LINE
  5
40A
100
AcDbEntity
  8
RACCORDO
100
AcDbLine
 62
253
  6
CONTINUOUS
 10
7.1840010288
 20
-28.7289625322
 11
7.17064049
 21
-28.75
  0
LINE
  5
40B
100
AcDbEntity
  8
RACCORDO
100
AcDbLine
 62
253
  6
CONTINUOUS
 10
-7.17064049
 20
-28.75
 11
-7.1840010288
 21
-28.7289625322
  0
SPLINE
  5
40C
100
AcDbEntity
  8
RACCORDO
100
AcDbSpline
 62
253
  6
CONTINUOUS
 70
0
 71
3
 72
18
 73
14
 74
12
 42
0.0000001
 43
0.0000001
 44
0.0000000001
 12
-0.500106735
 22
0.0002487744
 32
0.0
 13
-0.4046592522
 23
0.2938668029
 33
0.0
 40
0.0
 40
0.0
 40
0.0
 40
0.0
 40
0.1916832983
 40
0.3765955035
 40
0.5472901203
 40
0.6976446623
 40
0.8221561257
 40
0.8731802104
 40
0.9161041322
 40
0.9505114768
 40
0.9760610578
 40
0.9925827764
 40
1.0
 40
1.0
 40
1.0
 40
1.0
 10
-21.6534234781
 20
-9.4999999996
 30
0.0
 10
-21.6853775143
 20
-9.4999841043
 30
0.0
 10
-21.7481568909
 20
-9.4998387614
 30
0.0
 10
-21.8393897169
 20
-9.4992877736
 30
0.0
 10
-21.9237312775
 20
-9.4984269777
 30
0.0
 10
-21.9979965871
 20
-9.4972852178
 30
0.0
 10
-22.0523164361
 20
-9.4961014803
 30
0.0
 10
-22.0887086513
 20
-9.4949801527
 30
0.0
 10
-22.1101101635
 20
-9.4941956675
 30
0.0
 10
-22.1271883009
 20
-9.4932904953
 30
0.0
 10
-22.140036647
 20
-9.4926223234
 30
0.0
 10
-22.1480037002
 20
-9.4914836416
 30
0.0
 10
-22.1522516579
 20
-9.4912265586
 30
0.0
 10
-22.1532521406
 20
-9.4905
 30
0.0
 11
-21.6534234781
 21
-9.4999999996
 31
0.0
 11
-21.7492853357
 21
-9.4997755782
 31
0.0
 11
-21.8417594364
 21
-9.499206677
 31
0.0
 11
-21.9271203092
 21
-9.4983142137
 31
0.0
 11
-22.0023043278
 21
-9.4971310083
 31
0.0
 11
-22.0645569582
 21
-9.4957020223
 31
0.0
 11
-22.0900622001
 21
-9.4949114475
 31
0.0
 11
-22.1115126221
 21
-9.4940796098
 31
0.0
 11
-22.1286981719
 21
-9.4932137776
 31
0.0
 11
-22.1414445332
 21
-9.4923219996
 31
0.0
 11
-22.1496571215
 21
-9.4914140654
 31
0.0
 11
-22.1532521406
 21
-9.4905
 31
0.0
  0
SPLINE
  5
40D
100
AcDbEntity
  8
RACCORDO
100
AcDbSpline
 62
253
  6
CONTINUOUS
 70
0
 71
3
 72
14
 73
10
 74
8
 42
0.0000001
 43
0.0000001
 44
0.0000000001
 12
-0.5132610461
 22
0.0019794189
 32
0.0
 13
-0.0878918979
 23
0.5056835313
 33
0.0
 40
0.0
 40
0.0
 40
0.0
 40
0.0
 40
0.3671952296
 40
0.6816202788
 40
0.8048548363
 40
0.8996216452
 40
0.9356097185
 40
0.9639196067
 40
1.0
 40
1.0
 40
1.0
 40
1.0
 10
-21.6791411831
 20
-21.194690515
 30
0.0
 10
-21.741963519
 20
-21.1944482372
 30
0.0
 10
-21.8585820382
 20
-21.1907605982
 30
0.0
 10
-21.9958643403
 20
-21.1782794668
 30
0.0
 10
-22.0857199327
 20
-21.1627014631
 30
0.0
 10
-22.1278411269
 20
-21.1521249666
 30
0.0
 10
-22.1534777044
 20
-21.1422799225
 30
0.0
 10
-22.1683200091
 20
-21.134539514
 30
0.0
 10
-22.1779127875
 20
-21.1263031662
 30
0.0
 10
-22.1789698456
 20
-21.1202214126
 30
0.0
 11
-21.6791411831
 21
-21.194690515
 31
0.0
 11
-21.8675071646
 21
-21.1884777635
 31
0.0
 11
-22.0280683224
 21
-21.1722083521
 31
0.0
 11
-22.0903203625
 21
-21.161005897
 31
0.0
 11
-22.1372683018
 21
-21.14828636
 31
0.0
 11
-22.1544471607
 21
-21.1414981404
 31
0.0
 11
-22.1671849133
 21
-21.1345064137
 31
0.0
 11
-22.1789698456
 21
-21.1202214126
 31
0.0
  0
SPLINE
  5
40E
100
AcDbEntity
  8
RACCORDO
100
AcDbSpline
 62
253
  6
CONTINUOUS
 70
0
 71
3
 72
14
 73
10
 74
8
 42
0.0000001
 43
0.0000001
 44
0.0000000001
 12
0.5132618554
 22
0.0019794743
 32
0.0
 13
0.0878557419
 23
0.5056906358
 33
0.0
 40
0.0
 40
0.0
 40
0.0
 40
0.0
 40
0.3671982681
 40
0.6816242361
 40
0.8048582589
 40
0.8996239978
 40
0.9356114098
 40
0.9639206147
 40
1.0
 40
1.0
 40
1.0
 40
1.0
 10
21.6791411831
 20
-21.1946919202
 30
0.0
 10
21.7419641379
 20
-21.1944496337
 30
0.0
 10
21.8585835163
 20
-21.1907618943
 30
0.0
 10
21.9958666092
 20
-21.1782804756
 30
0.0
 10
22.0857221676
 20
-21.1627021066
 30
0.0
 10
22.1278429953
 20
-21.152125445
 30
0.0
 10
22.1534791124
 20
-21.1422801999
 30
0.0
 10
22.1683209544
 20
-21.1345397548
 30
0.0
 10
22.1779132519
 20
-21.1263030817
 30
0.0
 10
22.1789698456
 20
-21.1202214126
 30
0.0
 11
21.6791411831
 21
-21.1946919202
 31
0.0
 11
21.8675090164
 21
-21.1884789859
 31
0.0
 11
22.028070863
 21
-21.1722091695
 31
0.0
 11
22.0903226842
 21
-21.1610064847
 31
0.0
 11
22.1372700743
 21
-21.1482867272
 31
0.0
 11
22.154448559
 21
-21.141498405
 31
0.0
 11
22.1671858851
 21
-21.1345065826
 31
0.0
 11
22.1789698456
 21
-21.1202214126
 31
0.0
  0
SPLINE
  5
40F
100
AcDbEntity
  8
RACCORDO
100
AcDbSpline
 62
253
  6
CONTINUOUS
 70
0
 71
3
 72
18
 73
14
 74
12
 42
0.0000001
 43
0.0000001
 44
0.0000000001
 12
0.5001067351
 22
0.0002487744
 32
0.0
 13
0.4046590047
 23
0.2938671439
 33
0.0
 40
0.0
 40
0.0
 40
0.0
 40
0.0
 40
0.1916833037
 40
0.3765955137
 40
0.5472901342
 40
0.6976446779
 40
0.822156141
 40
0.8731802247
 40
0.9161041449
 40
0.9505114872
 40
0.9760610653
 40
0.9925827804
 40
1.0
 40
1.0
 40
1.0
 40
1.0
 10
21.6534234781
 20
-9.5
 30
0.0
 10
21.6853775152
 20
-9.4999841047
 30
0.0
 10
21.7481568935
 20
-9.4998387618
 30
0.0
 10
21.8393897218
 20
-9.499287774
 30
0.0
 10
21.9237312842
 20
-9.498426978
 30
0.0
 10
21.9979965947
 20
-9.4972852181
 30
0.0
 10
22.0523164437
 20
-9.4961014806
 30
0.0
 10
22.0887086584
 20
-9.4949801529
 30
0.0
 10
22.1101101699
 20
-9.4941956677
 30
0.0
 10
22.1271883059
 20
-9.4932904953
 30
0.0
 10
22.140036651
 20
-9.4926223237
 30
0.0
 10
22.1480037017
 20
-9.4914836412
 30
0.0
 10
22.152251659
 20
-9.4912265591
 30
0.0
 10
22.1532521406
 20
-9.4905
 30
0.0
 11
21.6534234781
 21
-9.5
 31
0.0
 11
21.7492853385
 21
-9.4997755786
 31
0.0
 11
21.8417594416
 21
-9.4992066774
 31
0.0
 11
21.9271203162
 21
-9.498314214
 31
0.0
 11
22.0023043357
 21
-9.4971310086
 31
0.0
 11
22.0645569659
 21
-9.4957020225
 31
0.0
 11
22.0900622074
 21
-9.4949114477
 31
0.0
 11
22.1115126285
 21
-9.4940796099
 31
0.0
 11
22.1286981772
 21
-9.4932137777
 31
0.0
 11
22.141444537
 21
-9.4923219997
 31
0.0
 11
22.1496571236
 21
-9.4914140654
 31
0.0
 11
22.1532521406
 21
-9.4905
 31
0.0
  0
SPLINE
  5
410
100
AcDbEntity
  8
RACCORDO
100
AcDbSpline
 62
253
  6
CONTINUOUS
 70
0
 71
3
 72
9
 73
5
 74
3
 42
0.0000001
 43
0.0000001
 44
0.0000000001
 12
-0.0000369815
 22
0.7140422224
 32
0.0
 13
-0.1830726377
 23
0.6901744026
 33
0.0
 40
0.0
 40
0.0
 40
0.0
 40
0.0
 40
0.5000217986
 40
1.0
 40
1.0
 40
1.0
 40
1.0
 10
21.7443702647
 20
0.0
 30
0.0
 10
21.7443641009
 20
0.1190122254
 30
0.0
 10
21.728470599
 20
0.3572911256
 30
0.0
 10
21.681586178
 20
0.5913747895
 30
0.0
 10
21.651075402
 20
0.7063988417
 30
0.0
 11
21.7443702647
 21
0.0
 31
0.0
 11
21.7207215008
 21
0.3562526134
 31
0.0
 11
21.651075402
 21
0.7063988417
 31
0.0
  0
SPLINE
  5
411
100
AcDbEntity
  8
RACCORDO
100
AcDbSpline
 62
253
  6
CONTINUOUS
 70
0
 71
3
 72
9
 73
5
 74
3
 42
0.0000001
 43
0.0000001
 44
0.0000000001
 12
0.1830782586
 22
0.6901728606
 32
0.0
 13
0.0000377436
 23
0.714042173
 33
0.0
 40
0.0
 40
0.0
 40
0.0
 40
0.0
 40
0.4999778674
 40
1.0
 40
1.0
 40
1.0
 40
1.0
 10
21.651075402
 20
-0.7063988417
 30
0.0
 10
21.6815870944
 20
-0.5913751234
 30
0.0
 10
21.7284694308
 20
-0.3572909819
 30
0.0
 10
21.7443639738
 20
-0.1190122967
 30
0.0
 10
21.7443702647
 20
0.0
 30
0.0
 11
21.651075402
 21
-0.7063988417
 31
0.0
 11
21.720721093
 21
-0.3562528006
 31
0.0
 11
21.7443702647
 21
0.0
 31
0.0
  0
SPLINE
  5
412
100
AcDbEntity
  8
RACCORDO
100
AcDbSpline
 62
253
  6
CONTINUOUS
 70
0
 71
3
 72
18
 73
14
 74
12
 42
0.0000001
 43
0.0000001
 44
0.0000000001
 12
0.500106735
 22
-0.0002487744
 32
0.0
 13
0.4046592233
 23
-0.2938668428
 33
0.0
 40
0.0
 40
0.0
 40
0.0
 40
0.0
 40
0.1916832989
 40
0.3765955047
 40
0.547290122
 40
0.6976446641
 40
0.8221561275
 40
0.873180212
 40
0.9161041337
 40
0.950511478
 40
0.9760610587
 40
0.9925827769
 40
1.0
 40
1.0
 40
1.0
 40
1.0
 10
21.6534234781
 20
9.4999999996
 30
0.0
 10
21.6853775144
 20
9.4999841043
 30
0.0
 10
21.7481568912
 20
9.4998387614
 30
0.0
 10
21.8393897174
 20
9.4992877736
 30
0.0
 10
21.9237312783
 20
9.4984269777
 30
0.0
 10
21.997996588
 20
9.4972852178
 30
0.0
 10
22.052316437
 20
9.4961014803
 30
0.0
 10
22.0887086521
 20
9.4949801527
 30
0.0
 10
22.1101101643
 20
9.4941956676
 30
0.0
 10
22.1271883014
 20
9.4932904953
 30
0.0
 10
22.1400366475
 20
9.4926223234
 30
0.0
 10
22.1480037004
 20
9.4914836415
 30
0.0
 10
22.152251658
 20
9.4912265586
 30
0.0
 10
22.1532521406
 20
9.4905
 30
0.0
 11
21.6534234781
 21
9.4999999996
 31
0.0
 11
21.749285336
 21
9.4997755782
 31
0.0
 11
21.841759437
 21
9.4992066771
 31
0.0
 11
21.92712031
 21
9.4983142137
 31
0.0
 11
22.0023043287
 21
9.4971310083
 31
0.0
 11
22.0645569591
 21
9.4957020223
 31
0.0
 11
22.090062201
 21
9.4949114475
 31
0.0
 11
22.1115126229
 21
9.4940796098
 31
0.0
 11
22.1286981725
 21
9.4932137776
 31
0.0
 11
22.1414445337
 21
9.4923219996
 31
0.0
 11
22.1496571218
 21
9.4914140654
 31
0.0
 11
22.1532521406
 21
9.4905
 31
0.0
  0
SPLINE
  5
413
100
AcDbEntity
  8
RACCORDO
100
AcDbSpline
 62
253
  6
CONTINUOUS
 70
0
 71
3
 72
14
 73
10
 74
8
 42
0.0000001
 43
0.0000001
 44
0.0000000001
 12
0.5132610461
 22
-0.0019794189
 32
0.0
 13
0.0878918979
 23
-0.5056835313
 33
0.0
 40
0.0
 40
0.0
 40
0.0
 40
0.0
 40
0.3671952296
 40
0.6816202788
 40
0.8048548363
 40
0.8996216452
 40
0.9356097185
 40
0.9639196067
 40
1.0
 40
1.0
 40
1.0
 40
1.0
 10
21.6791411831
 20
21.194690515
 30
0.0
 10
21.741963519
 20
21.1944482372
 30
0.0
 10
21.8585820382
 20
21.1907605982
 30
0.0
 10
21.9958643403
 20
21.1782794668
 30
0.0
 10
22.0857199327
 20
21.1627014631
 30
0.0
 10
22.1278411269
 20
21.1521249666
 30
0.0
 10
22.1534777044
 20
21.1422799225
 30
0.0
 10
22.1683200091
 20
21.134539514
 30
0.0
 10
22.1779127875
 20
21.1263031662
 30
0.0
 10
22.1789698456
 20
21.1202214126
 30
0.0
 11
21.6791411831
 21
21.194690515
 31
0.0
 11
21.8675071646
 21
21.1884777635
 31
0.0
 11
22.0280683224
 21
21.1722083521
 31
0.0
 11
22.0903203625
 21
21.161005897
 31
0.0
 11
22.1372683018
 21
21.14828636
 31
0.0
 11
22.1544471607
 21
21.1414981404
 31
0.0
 11
22.1671849133
 21
21.1345064137
 31
0.0
 11
22.1789698456
 21
21.1202214126
 31
0.0
  0
SPLINE
  5
414
100
AcDbEntity
  8
RACCORDO
100
AcDbSpline
 62
253
  6
CONTINUOUS
 70
0
 71
3
 72
17
 73
13
 74
11
 42
0.0000001
 43
0.0000001
 44
0.0000000001
 12
-0.0016814632
 22
-0.8499052005
 32
0.0
 13
-0.2060555828
 23
-0.8245500433
 33
0.0
 40
0.0
 40
0.0
 40
0.0
 40
0.0
 40
0.1955559031
 40
0.3803158396
 40
0.5488141569
 40
0.6961811607
 40
0.8180949788
 40
0.9110081591
 40
0.9457073227
 40
0.9722187984
 40
0.9903476646
 40
1.0
 40
1.0
 40
1.0
 40
1.0
 10
-21.6791411825
 20
-21.1946917253
 30
0.0
 10
-21.6792507892
 20
-21.2500930516
 30
0.0
 10
-21.6795833074
 20
-21.3578369695
 30
0.0
 10
-21.6804429326
 20
-21.5133151998
 30
0.0
 10
-21.6816304806
 20
-21.6551383262
 30
0.0
 10
-21.6830932828
 20
-21.7791550784
 30
0.0
 10
-21.6848076902
 20
-21.8817483251
 30
0.0
 10
-21.6864420267
 20
-21.9524289292
 30
0.0
 10
-21.687980552
 20
-21.9960567915
 30
0.0
 10
-21.6889511025
 20
-22.0185301241
 30
0.0
 10
-21.6900741394
 20
-22.033839704
 30
0.0
 10
-21.6907399009
 20
-22.0417274922
 30
0.0
 10
-21.6914028735
 20
-22.0443804367
 30
0.0
 11
-21.6791411825
 21
-21.1946917253
 31
0.0
 11
-21.6796623307
 21
-21.3608952126
 31
0.0
 11
-21.6805462699
 21
-21.5179214628
 31
0.0
 11
-21.6817677315
 21
-21.66112413
 31
0.0
 11
-21.6832905932
 21
-21.7863630996
 31
0.0
 11
-21.6850706283
 21
-21.8899631994
 31
0.0
 11
-21.6870555294
 21
-21.9689057993
 31
0.0
 11
-21.6881065524
 21
-21.9983781221
 31
0.0
 11
-21.6891867218
 21
-22.0208845014
 31
0.0
 11
-21.6902882734
 21
-22.0362529222
 31
0.0
 11
-21.6914028735
 21
-22.0443804367
 31
0.0
  0
SPLINE
  5
415
100
AcDbEntity
  8
RACCORDO
100
AcDbSpline
 62
253
  6
CONTINUOUS
 70
0
 71
3
 72
17
 73
13
 74
11
 42
0.0000001
 43
0.0000001
 44
0.0000000001
 12
-0.2060555946
 22
0.8245500404
 32
0.0
 13
-0.0016814632
 23
0.8499052005
 33
0.0
 40
0.0
 40
0.0
 40
0.0
 40
0.0
 40
0.0096523354
 40
0.0277812016
 40
0.0542926773
 40
0.0889918409
 40
0.1819050212
 40
0.3038188393
 40
0.4511858431
 40
0.6196841604
 40
0.8044440969
 40
1.0
 40
1.0
 40
1.0
 40
1.0
 10
21.6914028735
 20
-22.0443804367
 30
0.0
 10
21.6907399009
 20
-22.0417274922
 30
0.0
 10
21.6900741395
 20
-22.033839704
 30
0.0
 10
21.6889511025
 20
-22.0185301241
 30
0.0
 10
21.687980552
 20
-21.9960567915
 30
0.0
 10
21.6864420267
 20
-21.9524289292
 30
0.0
 10
21.6848076902
 20
-21.8817483251
 30
0.0
 10
21.6830932828
 20
-21.7791550784
 30
0.0
 10
21.6816304806
 20
-21.6551383262
 30
0.0
 10
21.6804429326
 20
-21.5133151998
 30
0.0
 10
21.6795833074
 20
-21.3578369695
 30
0.0
 10
21.6792507892
 20
-21.2500930516
 30
0.0
 10
21.6791411825
 20
-21.1946917253
 30
0.0
 11
21.6914028735
 21
-22.0443804367
 31
0.0
 11
21.6902882734
 21
-22.0362529223
 31
0.0
 11
21.6891867218
 21
-22.0208845014
 31
0.0
 11
21.6881065524
 21
-21.9983781221
 31
0.0
 11
21.6870555294
 21
-21.9689057993
 31
0.0
 11
21.6850706283
 21
-21.8899631994
 31
0.0
 11
21.6832905932
 21
-21.7863630996
 31
0.0
 11
21.6817677315
 21
-21.66112413
 31
0.0
 11
21.6805462699
 21
-21.5179214628
 31
0.0
 11
21.6796623307
 21
-21.3608952125
 31
0.0
 11
21.6791411825
 21
-21.1946917253
 31
0.0
  0
SPLINE
  5
416
100
AcDbEntity
  8
RACCORDO
100
AcDbSpline
 62
253
  6
CONTINUOUS
 70
0
 71
3
 72
17
 73
13
 74
11
 42
0.0000001
 43
0.0000001
 44
0.0000000001
 12
0.0018996959
 22
0.8499664208
 32
0.0
 13
0.2315446199
 23
0.8178224834
 33
0.0
 40
0.0
 40
0.0
 40
0.0
 40
0.0
 40
0.1954855623
 40
0.3802108106
 40
0.5487366689
 40
0.6961332292
 40
0.8180724677
 40
0.9109937364
 40
0.9456877746
 40
0.9721992503
 40
0.9903319975
 40
1.0
 40
1.0
 40
1.0
 40
1.0
 10
-6.5693859383
 20
21.1946919002
 30
0.0
 10
-6.5692621506
 20
21.2500772881
 30
0.0
 10
-6.5688850841
 20
21.3577991471
 30
0.0
 10
-6.5679105878
 20
21.5132661094
 30
0.0
 10
-6.5665653949
 20
21.6551044304
 30
0.0
 10
-6.5649073328
 20
21.7791515144
 30
0.0
 10
-6.5629647488
 20
21.8817653057
 30
0.0
 10
-6.5611124088
 20
21.9524558201
 30
0.0
 10
-6.5593694537
 20
21.9960778478
 30
0.0
 10
-6.5582670765
 20
22.0185507393
 30
0.0
 10
-6.5569987872
 20
22.0338479334
 30
0.0
 10
-6.5562373113
 20
22.0417448668
 30
0.0
 10
-6.55549112
 20
22.0443804367
 30
0.0
 11
-6.5693859383
 21
21.1946919002
 31
0.0
 11
-6.5687955976
 21
21.3608474302
 31
0.0
 11
-6.5677938171
 21
21.5178548846
 31
0.0
 11
-6.5664097502
 21
21.6610898761
 31
0.0
 11
-6.5646838288
 21
21.7863604269
 31
0.0
 11
-6.5626665719
 21
21.8899853108
 31
0.0
 11
-6.5604172885
 21
21.9689334309
 31
0.0
 11
-6.5592260626
 21
21.998398202
 31
0.0
 11
-6.5580017676
 21
22.0208988391
 31
0.0
 11
-6.5567533552
 21
22.0362604591
 31
0.0
 11
-6.55549112
 21
22.0443804367
 31
0.0
  0
SPLINE
  5
417
100
AcDbEntity
  8
RACCORDO
100
AcDbSpline
 62
253
  6
CONTINUOUS
 70
0
 71
3
 72
17
 73
13
 74
11
 42
0.0000001
 43
0.0000001
 44
0.0000000001
 12
0.206055597
 22
-0.8245500499
 32
0.0
 13
0.0016814633
 23
-0.8499052103
 33
0.0
 40
0.0
 40
0.0
 40
0.0
 40
0.0
 40
0.0096523353
 40
0.0277812016
 40
0.0542926774
 40
0.088991841
 40
0.1819050215
 40
0.3038188397
 40
0.4511858436
 40
0.6196841609
 40
0.8044440973
 40
1.0
 40
1.0
 40
1.0
 40
1.0
 10
-21.6914028735
 20
22.0443804367
 30
0.0
 10
-21.6907399009
 20
22.0417274922
 30
0.0
 10
-21.6900741395
 20
22.0338397039
 30
0.0
 10
-21.6889511025
 20
22.0185301238
 30
0.0
 10
-21.687980552
 20
21.9960567909
 30
0.0
 10
-21.6864420267
 20
21.9524289281
 30
0.0
 10
-21.6848076901
 20
21.881748323
 30
0.0
 10
-21.6830932828
 20
21.779155075
 30
0.0
 10
-21.6816304805
 20
21.6551383213
 30
0.0
 10
-21.6804429325
 20
21.5133151932
 30
0.0
 10
-21.6795833074
 20
21.3578369612
 30
0.0
 10
-21.6792507891
 20
21.2500930423
 30
0.0
 10
-21.6791411824
 20
21.1946917154
 30
0.0
 11
-21.6914028735
 21
22.0443804367
 31
0.0
 11
-21.6902882734
 21
22.0362529222
 31
0.0
 11
-21.6891867218
 21
22.0208845011
 31
0.0
 11
-21.6881065524
 21
21.9983781215
 31
0.0
 11
-21.6870555294
 21
21.9689057983
 31
0.0
 11
-21.6850706283
 21
21.8899631974
 31
0.0
 11
-21.6832905932
 21
21.7863630963
 31
0.0
 11
-21.6817677314
 21
21.6611241251
 31
0.0
 11
-21.6805462699
 21
21.5179214562
 31
0.0
 11
-21.6796623307
 21
21.3608952043
 31
0.0
 11
-21.6791411824
 21
21.1946917154
 31
0.0
  0
SPLINE
  5
418
100
AcDbEntity
  8
RACCORDO
100
AcDbSpline
 62
253
  6
CONTINUOUS
 70
0
 71
3
 72
17
 73
13
 74
11
 42
0.0000001
 43
0.0000001
 44
0.0000000001
 12
0.0016814633
 22
0.8499052103
 32
0.0
 13
0.2060555852
 23
0.8245500529
 33
0.0
 40
0.0
 40
0.0
 40
0.0
 40
0.0
 40
0.1955559027
 40
0.3803158391
 40
0.5488141564
 40
0.6961811603
 40
0.8180949785
 40
0.911008159
 40
0.9457073227
 40
0.9722187983
 40
0.9903476646
 40
1.0
 40
1.0
 40
1.0
 40
1.0
 10
21.6791411824
 20
21.1946917154
 30
0.0
 10
21.6792507891
 20
21.2500930423
 30
0.0
 10
21.6795833074
 20
21.3578369612
 30
0.0
 10
21.6804429325
 20
21.5133151932
 30
0.0
 10
21.6816304805
 20
21.6551383213
 30
0.0
 10
21.6830932828
 20
21.779155075
 30
0.0
 10
21.6848076901
 20
21.881748323
 30
0.0
 10
21.6864420267
 20
21.9524289281
 30
0.0
 10
21.687980552
 20
21.9960567909
 30
0.0
 10
21.6889511025
 20
22.0185301238
 30
0.0
 10
21.6900741394
 20
22.0338397039
 30
0.0
 10
21.6907399009
 20
22.0417274921
 30
0.0
 10
21.6914028735
 20
22.0443804367
 30
0.0
 11
21.6791411824
 21
21.1946917154
 31
0.0
 11
21.6796623307
 21
21.3608952043
 31
0.0
 11
21.6805462699
 21
21.5179214562
 31
0.0
 11
21.6817677314
 21
21.6611241251
 31
0.0
 11
21.6832905932
 21
21.7863630963
 31
0.0
 11
21.6850706283
 21
21.8899631974
 31
0.0
 11
21.6870555294
 21
21.9689057984
 31
0.0
 11
21.6881065524
 21
21.9983781215
 31
0.0
 11
21.6891867218
 21
22.0208845011
 31
0.0
 11
21.6902882734
 21
22.0362529221
 31
0.0
 11
21.6914028735
 21
22.0443804367
 31
0.0
  0
SPLINE
  5
419
100
AcDbEntity
  8
RACCORDO
100
AcDbSpline
 62
253
  6
CONTINUOUS
 70
0
 71
3
 72
17
 73
13
 74
11
 42
0.0000001
 43
0.0000001
 44
0.0000000001
 12
0.2315418699
 22
-0.8178232622
 32
0.0
 13
0.0018996746
 23
-0.8499664211
 33
0.0
 40
0.0
 40
0.0
 40
0.0
 40
0.0
 40
0.0096680251
 40
0.0278007505
 40
0.0543122177
 40
0.0890062613
 40
0.1819275336
 40
0.3038667702
 40
0.451263331
 40
0.6197891896
 40
0.8045144376
 40
1.0
 40
1.0
 40
1.0
 40
1.0
 10
6.55549112
 20
22.0443804367
 30
0.0
 10
6.5562373042
 20
22.0417448581
 30
0.0
 10
6.5569987916
 20
22.0338479284
 30
0.0
 10
6.5582670752
 20
22.0185507339
 30
0.0
 10
6.5593694548
 20
21.9960778506
 30
0.0
 10
6.5611124072
 20
21.9524558221
 30
0.0
 10
6.5629647498
 20
21.8817653062
 30
0.0
 10
6.5649073322
 20
21.779151514
 30
0.0
 10
6.5665653949
 20
21.6551044303
 30
0.0
 10
6.5679105894
 20
21.5132661091
 30
0.0
 10
6.5688850808
 20
21.3577991467
 30
0.0
 10
6.569262152
 20
21.2500772878
 30
0.0
 10
6.5693859383
 20
21.1946918998
 30
0.0
 11
6.55549112
 21
22.0443804367
 31
0.0
 11
6.5567533555
 21
22.0362604398
 31
0.0
 11
6.558001768
 21
22.0208988383
 31
0.0
 11
6.5592260626
 21
21.9983982084
 31
0.0
 11
6.5604172882
 21
21.9689334327
 31
0.0
 11
6.562666572
 21
21.8899853095
 31
0.0
 11
6.5646838286
 21
21.7863604271
 31
0.0
 11
6.5664097503
 21
21.6610898759
 31
0.0
 11
6.5677938177
 21
21.5178548842
 31
0.0
 11
6.5687955963
 21
21.3608474299
 31
0.0
 11
6.5693859383
 21
21.1946918998
 31
0.0
  0
SPLINE
  5
41A
100
AcDbEntity
  8
RACCORDO
100
AcDbSpline
 62
253
  6
CONTINUOUS
 70
0
 71
3
 72
15
 73
11
 74
9
 42
0.0000001
 43
0.0000001
 44
0.0000000001
 12
-9.1701427074
 22
1.4789940189
 32
0.0
 13
0.0144467267
 23
9.2886345538
 33
0.0
 40
0.0
 40
0.0
 40
0.0
 40
0.0
 40
0.1251401101
 40
0.2502696091
 40
0.3753895562
 40
0.5004809672
 40
0.6255193412
 40
0.7504727636
 40
0.8753046414
 40
1.0
 40
1.0
 40
1.0
 40
1.0
 10
-1.0469899362
 20
9.4999999999
 30
0.0
 10
-1.4295074922
 20
9.5616938247
 30
0.0
 10
-2.1852562456
 20
9.7534021135
 30
0.0
 10
-3.2491651511
 20
10.2355904077
 30
0.0
 10
-4.2118459647
 20
10.8975043858
 30
0.0
 10
-5.0427973963
 20
11.7181849322
 30
0.0
 10
-5.7163531225
 20
12.6716453931
 30
0.0
 10
-6.2117035351
 20
13.7278948665
 30
0.0
 10
-6.5139844442
 20
14.8532049597
 30
0.0
 10
-6.5809185429
 20
15.6276229713
 30
0.0
 10
-6.580318063
 20
16.013706177
 30
0.0
 11
-1.0469899362
 21
9.4999999999
 31
0.0
 11
-2.1736752843
 21
9.7858538169
 31
0.0
 11
-3.2323410958
 21
10.2655723306
 31
0.0
 11
-4.1899942797
 21
10.9240533812
 31
0.0
 11
-5.0167248015
 21
11.7405076194
 31
0.0
 11
-5.6868493567
 21
12.6891220671
 31
0.0
 11
-6.1797132856
 21
13.7399260995
 31
0.0
 11
-6.4804367516
 21
14.8597698079
 31
0.0
 11
-6.580318063
 21
16.013706177
 31
0.0
  0
SPLINE
  5
41B
100
AcDbEntity
  8
RACCORDO
100
AcDbSpline
 62
253
  6
CONTINUOUS
 70
0
 71
3
 72
9
 73
5
 74
3
 42
0.0000001
 43
0.0000001
 44
0.0000000001
 12
0.0082842995
 22
5.1809907612
 32
0.0
 13
0.0135986067
 23
5.1809795382
 33
0.0
 40
0.0
 40
0.0
 40
0.0
 40
0.0
 40
0.2506321063
 40
1.0
 40
1.0
 40
1.0
 40
1.0
 10
-6.580318063
 20
16.013706177
 30
0.0
 10
-6.5796259592
 20
16.4465470526
 30
0.0
 10
-6.5766446529
 20
18.173543614
 30
0.0
 10
-6.5727827247
 20
19.9005386589
 30
0.0
 10
-6.5693859383
 20
21.1946919002
 30
0.0
 11
-6.580318063
 21
16.013706177
 31
0.0
 11
-6.5780762195
 21
17.3122285287
 31
0.0
 11
-6.5693859383
 21
21.1946919002
 31
0.0
  0
SPLINE
  5
41C
100
AcDbEntity
  8
RACCORDO
100
AcDbSpline
 62
253
  6
CONTINUOUS
 70
0
 71
3
 72
9
 73
5
 74
3
 42
0.0000001
 43
0.0000001
 44
0.0000000001
 12
0.0135986066
 22
-5.1809795382
 32
0.0
 13
0.0082843
 23
-5.1809907612
 33
0.0
 40
0.0
 40
0.0
 40
0.0
 40
0.0
 40
0.2493153459
 40
1.0
 40
1.0
 40
1.0
 40
1.0
 10
6.5693859383
 20
21.1946918998
 30
0.0
 10
6.5705160521
 20
20.764125998
 30
0.0
 10
6.5748255488
 20
19.0371322391
 30
0.0
 10
6.5782450974
 20
17.3101362628
 30
0.0
 10
6.580318063
 20
16.013706177
 30
0.0
 11
6.5693859383
 21
21.1946918998
 31
0.0
 11
6.5726095819
 21
19.9029937674
 31
0.0
 11
6.580318063
 21
16.013706177
 31
0.0
  0
SPLINE
  5
41D
100
AcDbEntity
  8
RACCORDO
100
AcDbSpline
 62
253
  6
CONTINUOUS
 70
0
 71
3
 72
15
 73
11
 74
9
 42
0.0000001
 43
0.0000001
 44
0.0000000001
 12
0.0146985669
 22
-9.2886366585
 32
0.0
 13
-9.1700795051
 23
-1.479401532
 33
0.0
 40
0.0
 40
0.0
 40
0.0
 40
0.0
 40
0.1247337796
 40
0.2496027575
 40
0.3745837292
 40
0.4996274813
 40
0.6247000379
 40
0.749789558
 40
0.8748923017
 40
1.0
 40
1.0
 40
1.0
 40
1.0
 10
6.580318063
 20
16.013706177
 30
0.0
 10
6.5809291989
 20
15.6275039243
 30
0.0
 10
6.5139271015
 20
14.85285097
 30
0.0
 10
6.2114793737
 20
13.7272526264
 30
0.0
 10
5.7159087787
 20
12.6708616095
 30
0.0
 10
5.0421911363
 20
11.7174605335
 30
0.0
 10
4.2112195815
 20
10.8969963994
 30
0.0
 10
3.2486691133
 20
10.2353176739
 30
0.0
 10
2.1849825948
 20
9.7533109203
 30
0.0
 10
1.429405783
 20
9.5616948402
 30
0.0
 10
1.0469899363
 20
9.5
 30
0.0
 11
6.580318063
 21
16.013706177
 31
0.0
 11
6.4803665564
 21
14.8594173581
 31
0.0
 11
6.1794633558
 21
13.7392647777
 31
0.0
 11
5.6863650865
 21
12.688287678
 31
0.0
 11
5.016074598
 21
11.7397289188
 31
0.0
 11
4.1893533448
 21
10.9235141043
 31
0.0
 11
3.2318643454
 21
10.2652925564
 31
0.0
 11
2.173391397
 21
9.7857497989
 31
0.0
 11
1.0469899363
 21
9.5
 31
0.0
  0
SPLINE
  5
41E
100
AcDbEntity
  8
RACCORDO
100
AcDbSpline
 62
253
  6
CONTINUOUS
 70
0
 71
3
 72
12
 73
8
 74
6
 42
0.0000001
 43
0.0000001
 44
0.0000000001
 12
-0.1540775576
 22
-0.0003960991
 32
0.0
 13
-0.0177316757
 23
-0.153054364
 33
0.0
 40
0.0
 40
0.0
 40
0.0
 40
0.0
 40
0.368856428
 40
0.6841971612
 40
0.9013885394
 40
0.9647024116
 40
1.0
 40
1.0
 40
1.0
 40
1.0
 10
6.5693859382
 20
21.1946919229
 30
0.0
 10
6.5504417724
 20
21.1946432216
 30
0.0
 10
6.5152271329
 20
21.1935840176
 30
0.0
 10
6.4693295228
 20
21.1893817924
 30
0.0
 10
6.4386949695
 20
21.1836987903
 30
0.0
 10
6.4239147306
 20
21.1780226418
 30
0.0
 10
6.4196174124
 20
21.1741515868
 30
0.0
 10
6.419408784
 20
21.1723507701
 30
0.0
 11
6.5693859382
 21
21.1946919229
 31
0.0
 11
6.512582081
 21
21.19288197
 31
0.0
 11
6.4642394907
 21
21.1880137748
 31
0.0
 11
6.4315590788
 21
21.1808124833
 31
0.0
 11
6.4227345609
 21
21.1766539556
 31
0.0
 11
6.419408784
 21
21.1723507701
 31
0.0
  0
SPLINE
  5
41F
100
AcDbEntity
  8
RACCORDO
100
AcDbSpline
 62
253
  6
CONTINUOUS
 70
0
 71
3
 72
14
 73
10
 74
8
 42
0.0000001
 43
0.0000001
 44
0.0000000001
 12
-0.1516805059
 22
-0.0002403402
 32
0.0
 13
-0.0283579558
 23
-0.1490062414
 33
0.0
 40
0.0
 40
0.0
 40
0.0
 40
0.0
 40
0.3745496937
 40
0.544406365
 40
0.6938933991
 40
0.8176442635
 40
0.9114101509
 40
0.9719880698
 40
1.0
 40
1.0
 40
1.0
 40
1.0
 10
6.5803180629
 20
16.0137059806
 30
0.0
 10
6.5613807673
 20
16.0136759742
 30
0.0
 10
6.5338421865
 20
16.0131787553
 30
0.0
 10
6.4988202004
 20
16.0114773037
 30
0.0
 10
6.4764210385
 20
16.0098326315
 30
0.0
 10
6.4581140524
 20
16.0078940166
 30
0.0
 10
6.4438466405
 20
16.0056620226
 30
0.0
 10
6.435603597
 20
16.0035429871
 30
0.0
 10
6.4305997305
 20
16.0013913176
 30
0.0
 10
6.4303349435
 20
16.0000000001
 30
0.0
 11
6.5803180629
 21
16.0137059806
 31
0.0
 11
6.5235169627
 21
16.0125952952
 31
0.0
 11
6.4977848877
 21
16.0113135438
 31
0.0
 11
6.475174776
 21
16.0096086641
 31
0.0
 11
6.4565182263
 21
16.0075424541
 31
0.0
 11
6.4424915007
 21
16.0051909085
 31
0.0
 11
6.433664241
 21
16.0026398232
 31
0.0
 11
6.4303349435
 21
16.0000000001
 31
0.0
  0
SPLINE
  5
420
100
AcDbEntity
  8
RACCORDO
100
AcDbSpline
 62
253
  6
CONTINUOUS
 70
0
 71
3
 72
13
 73
9
 74
7
 42
0.0000001
 43
0.0000001
 44
0.0000000001
 12
-0.0234098761
 22
0.1452974397
 32
0.0
 13
-0.0478421234
 23
0.1391779419
 33
0.0
 40
0.0
 40
0.0
 40
0.0
 40
0.0
 40
0.3800533326
 40
0.702075604
 40
0.8260877873
 40
0.9192474676
 40
0.9778618417
 40
1.0
 40
1.0
 40
1.0
 40
1.0
 10
1.0469899364
 20
9.4999999972
 30
0.0
 10
1.0440242693
 20
9.5184069226
 30
0.0
 10
1.0385110922
 20
9.552402718
 30
0.0
 10
1.0320441912
 20
9.5924147854
 30
0.0
 10
1.0276722885
 20
9.6184937624
 30
0.0
 10
1.0255868517
 20
9.6318774932
 30
0.0
 10
1.0239061046
 20
9.6402175933
 30
0.0
 10
1.0235020377
 20
9.644198954
 30
0.0
 10
1.0231489922
 20
9.6452260018
 30
0.0
 11
1.0469899364
 21
9.4999999972
 31
0.0
 11
1.0380603996
 21
9.5552155215
 31
0.0
 11
1.0304290328
 21
9.6019894763
 31
0.0
 11
1.0274608251
 21
9.61999752
 31
0.0
 11
1.0252053994
 21
9.6335211577
 31
0.0
 11
1.0237518718
 21
9.6420241663
 31
0.0
 11
1.0231489922
 21
9.6452260018
 31
0.0
  0
SPLINE
  5
421
100
AcDbEntity
  8
RACCORDO
100
AcDbSpline
 62
253
  6
CONTINUOUS
 70
0
 71
3
 72
13
 73
9
 74
7
 42
0.0000001
 43
0.0000001
 44
0.0000000001
 12
0.0234104127
 22
0.145300854
 32
0.0
 13
0.0478484522
 23
0.1391794209
 33
0.0
 40
0.0
 40
0.0
 40
0.0
 40
0.0
 40
0.3800524467
 40
0.7020755285
 40
0.8260881797
 40
0.9192481155
 40
0.9778623805
 40
1.0
 40
1.0
 40
1.0
 40
1.0
 10
-1.0469899364
 20
9.5000000076
 30
0.0
 10
-1.0440242082
 20
9.5184073226
 30
0.0
 10
-1.0385109001
 20
9.5524039116
 30
0.0
 10
-1.0320438616
 20
9.5924169432
 30
0.0
 10
-1.0276718232
 20
9.6184965994
 30
0.0
 10
-1.0255863737
 20
9.6318806884
 30
0.0
 10
-1.0239055164
 20
9.6402209394
 30
0.0
 10
-1.0235015253
 20
9.6442023905
 30
0.0
 10
-1.0231484417
 20
9.6452294242
 30
0.0
 11
-1.0469899364
 21
9.5000000076
 31
0.0
 11
-1.038060215
 21
9.5552167006
 31
0.0
 11
-1.0304286528
 21
9.6019918721
 31
0.0
 11
-1.0274603653
 21
9.6200004067
 31
0.0
 11
-1.0252048813
 21
9.6335243993
 31
0.0
 11
-1.0237513224
 21
9.6420275918
 31
0.0
 11
-1.0231484417
 21
9.6452294242
 31
0.0
  0
SPLINE
  5
422
100
AcDbEntity
  8
RACCORDO
100
AcDbSpline
 62
253
  6
CONTINUOUS
 70
0
 71
3
 72
14
 73
10
 74
8
 42
0.0000001
 43
0.0000001
 44
0.0000000001
 12
0.1516746669
 22
-0.0002409012
 32
0.0
 13
0.0283362966
 23
-0.1490044191
 33
0.0
 40
0.0
 40
0.0
 40
0.0
 40
0.0
 40
0.3745552598
 40
0.544412761
 40
0.6938995814
 40
0.8176494095
 40
0.9114136768
 40
0.9719896696
 40
1.0
 40
1.0
 40
1.0
 40
1.0
 10
-6.580318063
 20
16.0137061767
 30
0.0
 10
-6.5613812149
 20
16.0136760998
 30
0.0
 10
-6.5338433709
 20
16.0131788002
 30
0.0
 10
-6.4988224301
 20
16.0114772724
 30
0.0
 10
-6.4764241513
 20
16.0098325577
 30
0.0
 10
-6.4581180427
 20
16.0078939658
 30
0.0
 10
-6.4438513842
 20
16.0056619087
 30
0.0
 10
-6.4356090044
 20
16.0035430525
 30
0.0
 10
-6.4306054784
 20
16.001391221
 30
0.0
 10
-6.4303409087
 20
16.0
 30
0.0
 11
-6.580318063
 21
16.0137061767
 31
0.0
 11
-6.5235183089
 21
16.0125953133
 31
0.0
 11
-6.4977871035
 21
16.0113135062
 31
0.0
 11
-6.475177902
 21
16.0096085944
 31
0.0
 11
-6.4565222383
 21
16.0075423749
 31
0.0
 11
-6.442496315
 21
16.0051908404
 31
0.0
 11
-6.4336697195
 21
16.0026397833
 31
0.0
 11
-6.4303409087
 21
16.0
 31
0.0
  0
SPLINE
  5
423
100
AcDbEntity
  8
RACCORDO
100
AcDbSpline
 62
253
  6
CONTINUOUS
 70
0
 71
3
 72
12
 73
8
 74
6
 42
0.0000001
 43
0.0000001
 44
0.0000000001
 12
0.1540772089
 22
-0.0003960911
 32
0.0
 13
0.0177505601
 23
-0.1530518239
 33
0.0
 40
0.0
 40
0.0
 40
0.0
 40
0.0
 40
0.3688527579
 40
0.6841919374
 40
0.9013849958
 40
0.964700783
 40
1.0
 40
1.0
 40
1.0
 40
1.0
 10
-6.5693859382
 20
21.1946914511
 30
0.0
 10
-6.5504420038
 20
21.1946427513
 30
0.0
 10
-6.5152277119
 20
21.1935835901
 30
0.0
 10
-6.4693303863
 20
21.1893813966
 30
0.0
 10
-6.4386957675
 20
21.1836986247
 30
0.0
 10
-6.4239152803
 20
21.1780224484
 30
0.0
 10
-6.4196176443
 20
21.17415164
 30
0.0
 10
-6.419408784
 20
21.1723507701
 30
0.0
 11
-6.5693859382
 21
21.1946914511
 31
0.0
 11
-6.5125827739
 21
21.1928815494
 31
0.0
 11
-6.464240522
 21
21.18801348
 31
0.0
 11
-6.431559888
 21
21.1808123454
 31
0.0
 11
-6.4227350332
 21
21.1766538922
 31
0.0
 11
-6.419408784
 21
21.1723507701
 31
0.0
  0
SPLINE
  5
424
100
AcDbEntity
  8
RACCORDO
100
AcDbSpline
 62
253
  6
CONTINUOUS
 70
0
 71
3
 72
13
 73
9
 74
7
 42
0.0000001
 43
0.0000001
 44
0.0000000001
 12
0.2948280801
 22
0.0555041147
 32
0.0
 13
0.2983305135
 23
0.0316734635
 33
0.0
 40
0.0
 40
0.0
 40
0.0
 40
0.0
 40
0.0221817238
 40
0.0810851155
 40
0.1745261793
 40
0.2990276196
 40
0.6212648627
 40
1.0
 40
1.0
 40
1.0
 40
1.0
 10
21.3527894679
 20
0.6743135946
 30
0.0
 10
21.3549693995
 20
0.6747239869
 30
0.0
 10
21.3630719428
 20
0.6753542898
 30
0.0
 10
21.3803799451
 20
0.6775144518
 30
0.0
 10
21.407924849
 20
0.680369376
 30
0.0
 10
21.461621256
 20
0.6862318343
 30
0.0
 10
21.5437099145
 20
0.6949657941
 30
0.0
 10
21.6134126526
 20
0.7024002226
 30
0.0
 10
21.651075402
 20
0.7063988405
 30
0.0
 11
21.3527894679
 21
0.6743135946
 31
0.0
 11
21.3593978975
 21
0.6750967764
 31
0.0
 11
21.3769621768
 21
0.6770399396
 31
0.0
 11
21.4048308481
 21
0.6800707237
 31
0.0
 11
21.4419667609
 21
0.6840764025
 31
0.0
 11
21.5380904727
 21
0.6943717692
 31
0.0
 11
21.651075402
 21
0.7063988405
 31
0.0
  0
SPLINE
  5
425
100
AcDbEntity
  8
RACCORDO
100
AcDbSpline
 62
253
  6
CONTINUOUS
 70
0
 71
3
 72
13
 73
9
 74
7
 42
0.0000001
 43
0.0000001
 44
0.0000000001
 12
0.2948194473
 22
-0.0555107546
 32
0.0
 13
0.2983233084
 23
-0.031672608
 33
0.0
 40
0.0
 40
0.0
 40
0.0
 40
0.0
 40
0.0221810362
 40
0.0810836505
 40
0.1745239567
 40
0.2990248082
 40
0.6212620839
 40
1.0
 40
1.0
 40
1.0
 40
1.0
 10
21.352796683
 20
-0.67431436
 30
0.0
 10
21.3549764833
 20
-0.6747247887
 30
0.0
 10
21.3630787055
 20
-0.6753549642
 30
0.0
 10
21.3803860476
 20
-0.6775151562
 30
0.0
 10
21.4079300838
 20
-0.6803699447
 30
0.0
 10
21.4616250549
 20
-0.6862322839
 30
0.0
 10
21.5437119536
 20
-0.6949660332
 30
0.0
 10
21.613413286
 20
-0.7024003035
 30
0.0
 10
21.651075402
 20
-0.7063988427
 30
0.0
 11
21.352796683
 21
-0.67431436
 31
0.0
 11
21.3594047462
 21
-0.6750975136
 31
0.0
 11
21.3769683676
 21
-0.6770406162
 31
0.0
 11
21.404836138
 21
-0.6800713119
 31
0.0
 11
21.4419709765
 21
-0.6840768806
 31
0.0
 11
21.5380923736
 21
-0.6943719975
 31
0.0
 11
21.651075402
 21
-0.7063988427
 31
0.0
  0
SPLINE
  5
426
100
AcDbEntity
  8
RACCORDO
100
AcDbSpline
 62
253
  6
CONTINUOUS
 70
0
 71
3
 72
13
 73
9
 74
7
 42
0.0000001
 43
0.0000001
 44
0.0000000001
 12
-0.2948281013
 22
-0.0555041139
 32
0.0
 13
-0.298330534
 23
-0.0316734657
 33
0.0
 40
0.0
 40
0.0
 40
0.0
 40
0.0
 40
0.0221817247
 40
0.0810851179
 40
0.1745261835
 40
0.2990276254
 40
0.6212648691
 40
1.0
 40
1.0
 40
1.0
 40
1.0
 10
-21.3527894473
 20
-0.6743135924
 30
0.0
 10
-21.3549693792
 20
-0.6747239847
 30
0.0
 10
-21.3630719233
 20
-0.6753542877
 30
0.0
 10
-21.3803799272
 20
-0.6775144499
 30
0.0
 10
-21.4079248334
 20
-0.6803693744
 30
0.0
 10
-21.4616212445
 20
-0.6862318331
 30
0.0
 10
-21.5437099084
 20
-0.6949657935
 30
0.0
 10
-21.6134126507
 20
-0.7024002224
 30
0.0
 10
-21.651075402
 20
-0.7063988405
 30
0.0
 11
-21.3527894473
 21
-0.6743135924
 31
0.0
 11
-21.3593978776
 21
-0.6750967743
 31
0.0
 11
-21.3769621586
 21
-0.6770399377
 31
0.0
 11
-21.4048308324
 21
-0.6800707221
 31
0.0
 11
-21.4419667482
 21
-0.6840764012
 31
0.0
 11
-21.5380904668
 21
-0.6943717686
 31
0.0
 11
-21.651075402
 21
-0.7063988405
 31
0.0
  0
SPLINE
  5
427
100
AcDbEntity
  8
RACCORDO
100
AcDbSpline
 62
253
  6
CONTINUOUS
 70
0
 71
3
 72
27
 73
23
 74
21
 42
0.0000001
 43
0.0000001
 44
0.0000000001
 12
-0.0008586703
 22
20.2849722966
 32
0.0
 13
-2.1392930381
 23
-20.1718498683
 33
0.0
 40
0.0
 40
0.0
 40
0.0
 40
0.0
 40
0.0624846138
 40
0.093759558
 40
0.1250360114
 40
0.1875184494
 40
0.2500003915
 40
0.2812764419
 40
0.312552568
 40
0.3750345887
 40
0.4375171156
 40
0.5000000214
 40
0.5624830235
 40
0.624965797
 40
0.6874480694
 40
0.7187242731
 40
0.7500003478
 40
0.8124821759
 40
0.8749643751
 40
0.9062406597
 40
0.9375153847
 40
1.0
 40
1.0
 40
1.0
 40
1.0
 10
-8.3115531587
 20
-0.0
 30
0.0
 10
-8.3115710433
 20
0.4224995536
 30
0.0
 10
-8.3720376395
 20
1.0586034778
 30
0.0
 10
-8.5708861088
 20
1.8812702511
 30
0.0
 10
-8.8466001632
 20
2.6817073452
 30
0.0
 10
-9.3317804113
 20
3.6277212637
 30
0.0
 10
-9.9869104745
 20
4.465100204
 30
0.0
 10
-10.5977735318
 20
5.0511846675
 30
0.0
 10
-11.2613080481
 20
5.5768619517
 30
0.0
 10
-12.1800322462
 20
6.1122734999
 30
0.0
 10
-13.382961926
 20
6.534648252
 30
0.0
 10
-14.6441716326
 20
6.7225633628
 30
0.0
 10
-15.918179027
 20
6.6689656084
 30
0.0
 10
-17.1590064462
 20
6.3760472878
 30
0.0
 10
-18.1291528141
 20
5.9406762137
 30
0.0
 10
-18.8444965714
 20
5.4880145664
 30
0.0
 10
-19.5138343425
 20
4.9697134196
 30
0.0
 10
-20.2537094909
 20
4.2061799041
 30
0.0
 10
-20.8360316527
 20
3.316664323
 30
0.0
 10
-21.1946779103
 20
2.549796917
 30
0.0
 10
-21.4792130598
 20
1.7527070962
 30
0.0
 10
-21.606517772
 20
1.1265422443
 30
0.0
 10
-21.6510754062
 20
0.7063988179
 30
0.0
 11
-8.3115531587
 21
-0.0
 31
0.0
 11
-8.4315341308
 21
1.2618072057
 31
0.0
 11
-8.5804971748
 21
1.8784820034
 31
0.0
 11
-8.7871796471
 21
2.478314476
 31
0.0
 11
-9.3657648297
 21
3.6060024472
 31
0.0
 11
-10.1465938389
 21
4.604361867
 31
0.0
 11
-10.604360725
 21
5.0436291511
 31
0.0
 11
-11.1016858348
 21
5.437552938
 31
0.0
 11
-12.1968130469
 21
6.0756092879
 31
0.0
 11
-13.3926717086
 21
6.4955707193
 31
0.0
 11
-14.6463036549
 21
6.6823111041
 31
0.0
 11
-15.9126512637
 21
6.629078475
 31
0.0
 11
-17.1461915002
 21
6.3378110519
 31
0.0
 11
-18.3025953875
 21
5.8190023159
 31
0.0
 11
-18.8387436147
 21
5.4798043041
 31
0.0
 11
-19.3403374104
 21
5.0913322226
 31
0.0
 11
-20.2222042396
 21
4.1809913481
 31
0.0
 11
-20.9165840711
 21
3.1206775541
 31
0.0
 11
-21.1854122471
 21
2.5460092088
 31
0.0
 11
-21.3986156856
 21
1.9485006747
 31
0.0
 11
-21.6510754062
 21
0.7063988179
 31
0.0
  0
SPLINE
  5
428
100
AcDbEntity
  8
RACCORDO
100
AcDbSpline
 62
253
  6
CONTINUOUS
 70
0
 71
3
 72
27
 73
23
 74
21
 42
0.0000001
 43
0.0000001
 44
0.0000000001
 12
2.1392887627
 22
-20.1718502479
 32
0.0
 13
0.0008334143
 23
20.2849722243
 33
0.0
 40
0.0
 40
0.0
 40
0.0
 40
0.0
 40
0.0624846468
 40
0.0937593744
 40
0.1250356556
 40
0.1875178462
 40
0.2499996671
 40
0.2812757401
 40
0.3125519428
 40
0.3750342118
 40
0.4375169798
 40
0.4999999776
 40
0.5624828787
 40
0.6249654004
 40
0.6874474178
 40
0.718723542
 40
0.7499995894
 40
0.8124815231
 40
0.8749639559
 40
0.9062404094
 40
0.9375153589
 40
1.0
 40
1.0
 40
1.0
 40
1.0
 10
-21.651075406
 20
-0.7063988189
 30
0.0
 10
-21.6065178384
 20
-1.1265424651
 30
0.0
 10
-21.4792130095
 20
-1.7527075306
 30
0.0
 10
-21.1946779082
 20
-2.5497975879
 30
0.0
 10
-20.8360314427
 20
-3.3166648271
 30
0.0
 10
-20.2537093792
 20
-4.2061802961
 30
0.0
 10
-19.513834213
 20
-4.9697136337
 30
0.0
 10
-18.8444964784
 20
-5.4880147095
 30
0.0
 10
-18.1291527213
 20
-5.9406762757
 30
0.0
 10
-17.1590064068
 20
-6.3760472907
 30
0.0
 10
-15.9181790656
 20
-6.6689655321
 30
0.0
 10
-14.6441717753
 20
-6.7225632594
 30
0.0
 10
-13.3829621718
 20
-6.5346481607
 30
0.0
 10
-12.1800325676
 20
-6.1122734766
 30
0.0
 10
-11.2613084287
 20
-5.5768619842
 30
0.0
 10
-10.5977739054
 20
-5.0511848008
 30
0.0
 10
-9.9869109083
 20
-4.465100417
 30
0.0
 10
-9.3317807093
 20
-3.6277217057
 30
0.0
 10
-8.8466006387
 20
-2.681707848
 30
0.0
 10
-8.5708860298
 20
-1.8812709226
 30
0.0
 10
-8.3720381051
 20
-1.0586038213
 30
0.0
 10
-8.3115705173
 20
-0.4224997362
 30
0.0
 10
-8.3115531587
 20
-0.0
 30
0.0
 11
-21.651075406
 21
-0.7063988189
 31
0.0
 11
-21.3986156184
 21
-1.9485013098
 31
0.0
 11
-21.1854121858
 21
-2.5460098979
 31
0.0
 11
-20.9165839272
 21
-3.1206781261
 31
0.0
 11
-20.2222041116
 21
-4.180991719
 31
0.0
 11
-19.3403373119
 21
-5.09133241
 31
0.0
 11
-18.838743524
 21
-5.4798044409
 31
0.0
 11
-18.3025952918
 21
-5.8190024045
 31
0.0
 11
-17.1461914482
 21
-6.3378110587
 31
0.0
 11
-15.9126513132
 21
-6.6290784067
 31
0.0
 11
-14.6463037952
 21
-6.682311007
 31
0.0
 11
-13.3926719473
 21
-6.4955706369
 31
0.0
 11
-12.1968133799
 21
-6.0756092701
 31
0.0
 11
-11.101686206
 21
-5.4375529978
 31
0.0
 11
-10.6043610978
 21
-5.0436292736
 31
0.0
 11
-10.1465942341
 21
-4.6043620593
 31
0.0
 11
-9.3657652037
 21
-3.6060028774
 31
0.0
 11
-8.7871799418
 21
-2.4783150718
 31
0.0
 11
-8.5804972503
 21
-1.8784826725
 31
0.0
 11
-8.4315343245
 21
-1.2618077374
 31
0.0
 11
-8.3115531587
 21
-0.0
 31
0.0
  0
SPLINE
  5
429
100
AcDbEntity
  8
RACCORDO
100
AcDbSpline
 62
253
  6
CONTINUOUS
 70
0
 71
3
 72
27
 73
23
 74
21
 42
0.0000001
 43
0.0000001
 44
0.0000000001
 12
0.0008593965
 22
-20.2849723031
 32
0.0
 13
2.1392921744
 23
20.1718499665
 33
0.0
 40
0.0
 40
0.0
 40
0.0
 40
0.0
 40
0.0624846439
 40
0.0937595972
 40
0.125036052
 40
0.1875184846
 40
0.2500004179
 40
0.2812764654
 40
0.3125525897
 40
0.3750346078
 40
0.4375171298
 40
0.5000000309
 40
0.5624830289
 40
0.6249657973
 40
0.6874480659
 40
0.7187242684
 40
0.7500003414
 40
0.8124821627
 40
0.8749643533
 40
0.9062406348
 40
0.9375153621
 40
1.0
 40
1.0
 40
1.0
 40
1.0
 10
8.3115531587
 20
-0.0
 30
0.0
 10
8.3115710584
 20
-0.4224997568
 30
0.0
 10
8.3720376944
 20
-1.0586039469
 30
0.0
 10
8.5708862911
 20
-1.8812709762
 30
0.0
 10
8.8466005206
 20
-2.6817080463
 30
0.0
 10
9.331780766
 20
-3.6277218637
 30
0.0
 10
9.9869108671
 20
-4.4651006287
 30
0.0
 10
10.5977738889
 20
-5.0511849969
 30
0.0
 10
11.2613084215
 20
-5.5768621818
 30
0.0
 10
12.1800325805
 20
-6.1122736687
 30
0.0
 10
13.3829622113
 20
-6.5346483153
 30
0.0
 10
14.6441718297
 20
-6.7225633709
 30
0.0
 10
15.9181791277
 20
-6.6689655938
 30
0.0
 10
17.1590064578
 20
-6.3760472832
 30
0.0
 10
18.1291527612
 20
-5.9406762357
 30
0.0
 10
18.844496489
 20
-5.4880146248
 30
0.0
 10
19.5138342156
 20
-4.9697135288
 30
0.0
 10
20.2537093149
 20
-4.2061801267
 30
0.0
 10
20.8360314272
 20
-3.3166646672
 30
0.0
 10
21.1946777343
 20
-2.5497973544
 30
0.0
 10
21.4792129827
 20
-1.7527074126
 30
0.0
 10
21.6065177739
 20
-1.1265423983
 30
0.0
 10
21.6510754062
 20
-0.7063988178
 30
0.0
 11
8.3115531587
 21
-0.0
 31
0.0
 11
8.4315342398
 21
-1.2618078078
 31
0.0
 11
8.5804973862
 21
-1.878482773
 31
0.0
 11
8.7871799688
 21
-2.4783152378
 31
0.0
 11
9.3657652074
 21
-3.6060030569
 31
0.0
 11
10.1465942053
 21
-4.6043622597
 31
0.0
 11
10.6043610785
 21
-5.0436294711
 31
0.0
 11
11.1016861954
 21
-5.4375531933
 31
0.0
 11
12.1968133959
 21
-6.0756094582
 31
0.0
 11
13.3926719877
 21
-6.4955707913
 31
0.0
 11
14.646303847
 21
-6.6823111174
 31
0.0
 11
15.9126513721
 21
-6.629078465
 31
0.0
 11
17.1461915032
 21
-6.3378110547
 31
0.0
 11
18.302595323
 21
-5.8190023516
 31
0.0
 11
18.8387435354
 21
-5.4798043606
 31
0.0
 11
19.3403373109
 21
-5.0913323089
 31
0.0
 11
20.2222040721
 21
-4.1809915623
 31
0.0
 11
20.9165838546
 21
-3.1206779431
 31
0.0
 11
21.1854120543
 21
-2.546009677
 31
0.0
 11
21.3986155519
 21
-1.948501116
 31
0.0
 11
21.6510754062
 21
-0.7063988178
 31
0.0
  0
SPLINE
  5
42A
100
AcDbEntity
  8
RACCORDO
100
AcDbSpline
 62
253
  6
CONTINUOUS
 70
0
 71
3
 72
27
 73
23
 74
21
 42
0.0000001
 43
0.0000001
 44
0.0000000001
 12
-2.1392896614
 22
20.1718501461
 32
0.0
 13
-0.0008327018
 23
-20.2849722179
 33
0.0
 40
0.0
 40
0.0
 40
0.0
 40
0.0
 40
0.0624846247
 40
0.0937593501
 40
0.1250356344
 40
0.1875178336
 40
0.2499996613
 40
0.281275736
 40
0.3125519399
 40
0.3750342126
 40
0.4375169859
 40
0.4999999878
 40
0.5624828936
 40
0.6249654202
 40
0.6874474402
 40
0.7187235661
 40
0.7499996165
 40
0.812481559
 40
0.8749639972
 40
0.9062404493
 40
0.9375153894
 40
1.0
 40
1.0
 40
1.0
 40
1.0
 10
21.651075406
 20
0.706398819
 30
0.0
 10
21.6065178355
 20
1.126542314
 30
0.0
 10
21.4792130853
 20
1.7527072209
 30
0.0
 10
21.1946780803
 20
2.5497971607
 30
0.0
 10
20.836031662
 20
3.316664493
 30
0.0
 10
20.2537095483
 20
4.206180083
 30
0.0
 10
19.5138343314
 20
4.9697135323
 30
0.0
 10
18.8444965518
 20
5.488014658
 30
0.0
 10
18.1291527637
 20
5.9406762589
 30
0.0
 10
17.159006384
 20
6.3760472998
 30
0.0
 10
15.9181789525
 20
6.6689655483
 30
0.0
 10
14.6441715655
 20
6.7225632507
 30
0.0
 10
13.3829618737
 20
6.5346480945
 30
0.0
 10
12.1800322215
 20
6.1122733018
 30
0.0
 10
11.2613080438
 20
5.5768617469
 30
0.0
 10
10.5977735382
 20
5.0511844619
 30
0.0
 10
9.986910506
 20
4.4650999816
 30
0.0
 10
9.3317803473
 20
3.6277210929
 30
0.0
 10
8.846600275
 20
2.681707134
 30
0.0
 10
8.5708858446
 20
1.8812701855
 30
0.0
 10
8.3720380487
 20
1.058603345
 30
0.0
 10
8.3115705024
 20
0.42249953
 30
0.0
 10
8.3115531587
 20
-0.0
 30
0.0
 11
21.651075406
 21
0.706398819
 31
0.0
 11
21.3986157496
 21
1.9485008772
 31
0.0
 11
21.1854123743
 21
2.5460094405
 31
0.0
 11
20.916584138
 21
3.1206777476
 31
0.0
 11
20.222204272
 21
4.1809915141
 31
0.0
 11
19.3403374029
 21
5.0913323311
 31
0.0
 11
18.8387435943
 21
5.4798043911
 31
0.0
 11
18.3025953463
 21
5.8190023745
 31
0.0
 11
17.1461914337
 21
6.3378110601
 31
0.0
 11
15.9126511926
 21
6.6290784183
 31
0.0
 11
14.6463035905
 21
6.6823109932
 31
0.0
 11
13.3926716555
 21
6.4955705618
 31
0.0
 11
12.1968130189
 21
6.075609094
 31
0.0
 11
11.1016858345
 21
5.4375527347
 31
0.0
 11
10.6043607342
 21
5.0436289444
 31
0.0
 11
10.1465938581
 21
4.6043616563
 31
0.0
 11
9.3657648182
 21
3.6060022548
 31
0.0
 11
8.7871796146
 21
2.4783142964
 31
0.0
 11
8.5804970354
 21
1.8784818903
 31
0.0
 11
8.4315342136
 21
1.2618071266
 31
0.0
 11
8.3115531587
 21
-0.0
 31
0.0
  0
SPLINE
  5
42B
100
AcDbEntity
  8
RACCORDO
100
AcDbSpline
 62
253
  6
CONTINUOUS
 70
0
 71
3
 72
23
 73
19
 74
17
 42
0.0000001
 43
0.0000001
 44
0.0000000001
 12
-0.0008266499
 22
10.4194136254
 32
0.0
 13
-0.0008142979
 23
-10.4194136263
 33
0.0
 40
0.0
 40
0.0
 40
0.0
 40
0.0
 40
0.0625019478
 40
0.124999641
 40
0.1875003125
 40
0.2500000588
 40
0.3125000086
 40
0.3749999436
 40
0.4374999339
 40
0.5000000156
 40
0.5625000968
 40
0.6250000864
 40
0.6875000227
 40
0.7499999764
 40
0.8124997244
 40
0.8750003975
 40
0.9374980711
 40
1.0
 40
1.0
 40
1.0
 40
1.0
 10
3.321135325
 20
-0.0
 30
0.0
 10
3.3211181026
 20
0.2170778822
 30
0.0
 10
3.2783587866
 20
0.6524230091
 30
0.0
 10
3.0881911607
 20
1.279433395
 30
0.0
 10
2.7794346787
 20
1.8576026707
 30
0.0
 10
2.3638258865
 20
2.3643770768
 30
0.0
 10
1.8573428234
 20
2.7803590487
 30
0.0
 10
1.279413112
 20
3.0894955939
 30
0.0
 10
0.6522569155
 20
3.2798787473
 30
0.0
 10
-0.0000002615
 20
3.3441662887
 30
0.0
 10
-0.6522574299
 20
3.2798786939
 30
0.0
 10
-1.2794136128
 20
3.0894954872
 30
0.0
 10
-1.8573433046
 20
2.7803588884
 30
0.0
 10
-2.3638263965
 20
2.3643768841
 30
0.0
 10
-2.7794349987
 20
1.85760233
 30
0.0
 10
-3.0881917681
 20
1.2794332276
 30
0.0
 10
-3.2783586363
 20
0.6524227757
 30
0.0
 10
-3.3211183599
 20
0.2170778167
 30
0.0
 10
-3.321135325
 20
-0.0
 30
0.0
 11
3.321135325
 21
-0.0
 31
0.0
 11
3.2573512698
 21
0.6481025069
 31
0.0
 11
3.0684300014
 21
1.2712848893
 31
0.0
 11
2.7616247677
 21
1.8457050267
 31
0.0
 11
2.34868041
 21
2.3492448425
 31
0.0
 11
1.8454351191
 21
2.7625514204
 31
0.0
 11
1.2712089485
 21
3.0697032646
 31
0.0
 11
0.6480738129
 21
3.2588627302
 31
0.0
 11
-0.0000002619
 21
3.3227370889
 31
0.0
 11
-0.6480743272
 21
3.2588626769
 31
0.0
 11
-1.2712094393
 21
3.0697031617
 31
0.0
 11
-1.8454355995
 21
2.7625512692
 31
0.0
 11
-2.3486808885
 21
2.3492446253
 31
0.0
 11
-2.7616251745
 21
1.8457047267
 31
0.0
 11
-3.0684304672
 21
1.2712846034
 31
0.0
 11
-3.2573513507
 21
0.6481023172
 31
0.0
 11
-3.321135325
 21
-0.0
 31
0.0
  0
SPLINE
  5
42C
100
AcDbEntity
  8
RACCORDO
100
AcDbSpline
 62
253
  6
CONTINUOUS
 70
0
 71
3
 72
23
 73
19
 74
17
 42
0.0000001
 43
0.0000001
 44
0.0000000001
 12
0.0008282732
 22
-10.4194136369
 32
0.0
 13
0.0008159044
 23
10.4194136379
 33
0.0
 40
0.0
 40
0.0
 40
0.0
 40
0.0
 40
0.0625020333
 40
0.1249997741
 40
0.1875004362
 40
0.250000146
 40
0.3125000625
 40
0.3749999788
 40
0.4374999552
 40
0.5000000131
 40
0.5625000708
 40
0.6250000464
 40
0.687499964
 40
0.7499998842
 40
0.8124995955
 40
0.8750002597
 40
0.9374979833
 40
1.0
 40
1.0
 40
1.0
 40
1.0
 10
-3.321135325
 20
-0.0
 30
0.0
 10
-3.3211180687
 20
-0.2170781794
 30
0.0
 10
-3.2783587198
 20
-0.6524237769
 30
0.0
 10
-3.0881907137
 20
-1.2794345134
 30
0.0
 10
-2.7794340063
 20
-1.8576036721
 30
0.0
 10
-2.363825201
 20
-2.3643777047
 30
0.0
 10
-1.8573422983
 20
-2.7803593746
 30
0.0
 10
-1.2794127521
 20
-3.0894957389
 30
0.0
 10
-0.6522567275
 20
-3.2798787777
 30
0.0
 10
0.0000002357
 20
-3.3441662782
 30
0.0
 10
0.6522571916
 20
-3.2798787349
 30
0.0
 10
1.2794132059
 20
-3.0894956526
 30
0.0
 10
1.8573427359
 20
-2.7803592423
 30
0.0
 10
2.363825672
 20
-2.3643775487
 30
0.0
 10
2.7794342966
 20
-1.8576033748
 30
0.0
 10
3.0881913061
 20
-1.2794343863
 30
0.0
 10
3.2783585656
 20
-0.6524235676
 30
0.0
 10
3.3211183264
 20
-0.2170781219
 30
0.0
 10
3.321135325
 20
-0.0
 30
0.0
 11
-3.321135325
 21
-0.0
 31
0.0
 11
-3.2573511094
 21
-0.6481033869
 31
0.0
 11
-3.0684294776
 21
-1.2712861791
 31
0.0
 11
-2.7616240553
 21
-1.8457061045
 31
0.0
 11
-2.3486797593
 21
-2.3492454797
 31
0.0
 11
-1.8454346478
 21
-2.7625517311
 31
0.0
 11
-1.2712086095
 21
-3.0697034109
 31
0.0
 11
-0.6480735958
 21
-3.2588627798
 31
0.0
 11
0.000000236
 21
-3.3227370949
 31
0.0
 11
0.6480740602
 21
-3.258862737
 31
0.0
 11
1.2712090542
 21
-3.0697033278
 31
0.0
 11
1.8454350853
 21
-2.7625516078
 31
0.0
 11
2.3486801994
 21
-2.3492452993
 31
0.0
 11
2.7616244309
 21
-1.84570585
 31
0.0
 11
3.0684299249
 21
-1.2712859381
 31
0.0
 11
3.2573511853
 21
-0.648103221
 31
0.0
 11
3.321135325
 21
-0.0
 31
0.0
  0
LINE
  5
42D
100
AcDbEntity
  8
RACCORDO
100
AcDbLine
 62
253
  6
CONTINUOUS
 10
-7.1840010288
 20
28.7289625322
 11
-7.17064049
 21
28.75
  0
LINE
  5
42E
100
AcDbEntity
  8
RACCORDO
100
AcDbLine
 62
253
  6
CONTINUOUS
 10
7.17064049
 20
28.75
 11
7.1840010288
 21
28.7289625322
  0
SPLINE
  5
42F
100
AcDbEntity
  8
RACCORDO
100
AcDbSpline
 62
253
  6
CONTINUOUS
 70
0
 71
3
 72
17
 73
13
 74
11
 42
0.0000001
 43
0.0000001
 44
0.0000000001
 12
0.001899802
 22
0.7225618487
 32
0.0
 13
0.2283422807
 23
0.6855355842
 33
0.0
 40
0.0
 40
0.0
 40
0.0
 40
0.0
 40
0.1954853848
 40
0.3801825003
 40
0.548693758
 40
0.6960677181
 40
0.8179911085
 40
0.9109056429
 40
0.9456082115
 40
0.9721303111
 40
0.9902880925
 40
1.0
 40
1.0
 40
1.0
 40
1.0
 10
-6.419408784
 20
21.1723507701
 30
0.0
 10
-6.4192849895
 20
21.2194341971
 30
0.0
 10
-6.4189079134
 20
21.3110023246
 30
0.0
 10
-6.4179332295
 20
21.4431546856
 30
0.0
 10
-6.4165883368
 20
21.563714595
 30
0.0
 10
-6.414929898
 20
21.6691520758
 30
0.0
 10
-6.4129882992
 20
21.7563669766
 30
0.0
 10
-6.4111339496
 20
21.8164530588
 30
0.0
 10
-6.4093934626
 20
21.8535252403
 30
0.0
 10
-6.408286891
 20
21.8726372564
 30
0.0
 10
-6.4070261172
 20
21.8856335712
 30
0.0
 10
-6.4062531787
 20
21.8923667204
 30
0.0
 10
-6.4055139657
 20
21.8945860065
 30
0.0
 11
-6.419408784
 21
21.1723507701
 31
0.0
 11
-6.418818354
 21
21.3136003054
 31
0.0
 11
-6.4178165616
 21
21.4470520958
 31
0.0
 11
-6.4164325404
 21
21.5688044564
 31
0.0
 11
-6.4147066786
 21
21.6752776389
 31
0.0
 11
-6.4126895246
 21
21.7633520375
 31
0.0
 11
-6.4104402092
 21
21.8304510767
 31
0.0
 11
-6.4092490045
 21
21.8554976049
 31
0.0
 11
-6.4080248279
 21
21.8746223887
 31
0.0
 11
-6.406776465
 21
21.8876830293
 31
0.0
 11
-6.4055139657
 21
21.8945860065
 31
0.0
  0
SPLINE
  5
430
100
AcDbEntity
  8
RACCORDO
100
AcDbSpline
 62
253
  6
CONTINUOUS
 70
0
 71
3
 72
9
 73
5
 74
3
 42
0.0000001
 43
0.0000001
 44
0.0000000001
 12
0.0082840748
 22
5.1722154679
 32
0.0
 13
0.0135982377
 23
5.1722042265
 33
0.0
 40
0.0
 40
0.0
 40
0.0
 40
0.0
 40
0.2506321085
 40
1.0
 40
1.0
 40
1.0
 40
1.0
 10
-6.430340666
 20
16.0001403485
 30
0.0
 10
-6.429648581
 20
16.4322481046
 30
0.0
 10
-6.4266673288
 20
18.1563195676
 30
0.0
 10
-6.4228054782
 20
19.8803895116
 30
0.0
 10
-6.419408784
 20
21.1723507701
 30
0.0
 11
-6.430340666
 21
16.0001403485
 31
0.0
 11
-6.4280988699
 21
17.2964633411
 31
0.0
 11
-6.419408784
 21
21.1723507701
 31
0.0
  0
SPLINE
  5
431
100
AcDbEntity
  8
RACCORDO
100
AcDbSpline
 62
253
  6
CONTINUOUS
 70
0
 71
3
 72
17
 73
13
 74
11
 42
0.0000001
 43
0.0000001
 44
0.0000000001
 12
0.2283363626
 22
-0.6855375556
 32
0.0
 13
0.0018997829
 23
-0.7225618488
 33
0.0
 40
0.0
 40
0.0
 40
0.0
 40
0.0
 40
0.0097119076
 40
0.0278696201
 40
0.0543917752
 40
0.0890944016
 40
0.1820088728
 40
0.3039322791
 40
0.4513062484
 40
0.619817476
 40
0.8045146271
 40
1.0
 40
1.0
 40
1.0
 40
1.0
 10
6.4055139657
 20
21.8945860065
 30
0.0
 10
6.4062531596
 20
21.892366714
 30
0.0
 10
6.4070261313
 20
21.8856335933
 30
0.0
 10
6.4082868884
 20
21.872637274
 30
0.0
 10
6.4093934638
 20
21.8535252504
 30
0.0
 10
6.4111339449
 20
21.8164530549
 30
0.0
 10
6.4129883023
 20
21.7563669716
 30
0.0
 10
6.414929897
 20
21.6691520794
 30
0.0
 10
6.4165883363
 20
21.5637145999
 30
0.0
 10
6.4179332311
 20
21.4431546869
 30
0.0
 10
6.4189079109
 20
21.3110023274
 30
0.0
 10
6.4192849907
 20
21.2194341943
 30
0.0
 10
6.419408784
 20
21.1723507701
 30
0.0
 11
6.4055139657
 21
21.8945860065
 31
0.0
 11
6.406776465
 21
21.8876830292
 31
0.0
 11
6.4080248279
 21
21.8746224387
 31
0.0
 11
6.4092490043
 21
21.8554976146
 31
0.0
 11
6.4104402089
 21
21.8304510447
 31
0.0
 11
6.4126895247
 21
21.7633520511
 31
0.0
 11
6.4147066786
 21
21.6752776409
 31
0.0
 11
6.4164325402
 21
21.5688044518
 31
0.0
 11
6.4178165621
 21
21.447052113
 31
0.0
 11
6.4188183532
 21
21.3136002968
 31
0.0
 11
6.419408784
 21
21.1723507701
 31
0.0
  0
SPLINE
  5
432
100
AcDbEntity
  8
RACCORDO
100
AcDbSpline
 62
253
  6
CONTINUOUS
 70
0
 71
3
 72
9
 73
5
 74
3
 42
0.0000001
 43
0.0000001
 44
0.0000000001
 12
0.0135984669
 22
-5.1722914357
 32
0.0
 13
0.008284215
 23
-5.1723026773
 33
0.0
 40
0.0
 40
0.0
 40
0.0
 40
0.0
 40
0.2493153497
 40
1.0
 40
1.0
 40
1.0
 40
1.0
 10
6.419408784
 20
21.1723507701
 30
0.0
 10
6.4205388861
 20
20.7425068874
 30
0.0
 10
6.4248483398
 20
19.0184091617
 30
0.0
 10
6.4282678725
 20
17.294309215
 30
0.0
 10
6.4303408168
 20
16.0000531395
 30
0.0
 11
6.419408784
 21
21.1723507701
 31
0.0
 11
6.4226323962
 21
19.8828186944
 31
0.0
 11
6.4303408168
 21
16.0000531395
 31
0.0
  0
LINE
  5
433
100
AcDbEntity
  8
RACCORDO
100
AcDbLine
 62
253
  6
CONTINUOUS
 10
-40.9267220718
 20
-28.7289625308
 11
-40.926721928
 21
-23.7295999401
  0
SPLINE
  5
434
100
AcDbEntity
  8
RACCORDO
100
AcDbSpline
 62
253
  6
CONTINUOUS
 70
0
 71
3
 72
18
 73
14
 74
12
 42
0.0000001
 43
0.0000001
 44
0.0000000001
 12
0.2500340364
 22
-0.0043643603
 32
0.0
 13
-0.0043630314
 23
-0.2500340596
 33
0.0
 40
0.0
 40
0.0
 40
0.0
 40
0.0
 40
0.0051239212
 40
0.0196182269
 40
0.0434845939
 40
0.0765727967
 40
0.1185426301
 40
0.1689689154
 40
0.293313138
 40
0.4447333406
 40
0.6174990955
 40
0.8051839969
 40
1.0
 40
1.0
 40
1.0
 40
1.0
 10
-38.4671233849
 20
28.2781050106
 30
0.0
 10
-38.4666963333
 20
28.2780975564
 30
0.0
 10
-38.4667875194
 20
28.2756284075
 30
0.0
 10
-38.4661446693
 20
28.272810999
 30
0.0
 10
-38.4660539189
 20
28.2664158181
 30
0.0
 10
-38.4657277691
 20
28.2583672074
 30
0.0
 10
-38.4655659844
 20
28.2478350019
 30
0.0
 10
-38.4653504857
 20
28.2298031243
 30
0.0
 10
-38.4652845797
 20
28.202591056
 30
0.0
 10
-38.4654123633
 20
28.1652115958
 30
0.0
 10
-38.465770066
 20
28.1225418521
 30
0.0
 10
-38.4663377647
 20
28.076260566
 30
0.0
 10
-38.4668400554
 20
28.0443799655
 30
0.0
 10
-38.4671233849
 20
28.0281430868
 30
0.0
 11
-38.4671233849
 21
28.2781050106
 31
0.0
 11
-38.466717961
 21
28.2768894906
 31
0.0
 11
-38.4663572265
 21
28.2732828642
 31
0.0
 11
-38.4660453618
 21
28.2673227047
 31
0.0
 11
-38.4657863363
 21
28.2590523229
 31
0.0
 11
-38.4655825113
 21
28.2485588168
 31
0.0
 11
-38.4654355066
 21
28.2359494655
 31
0.0
 11
-38.465317352
 21
28.2048546662
 31
0.0
 11
-38.4654355566
 21
28.166988879
 31
0.0
 11
-38.4657864347
 21
28.1237864047
 31
0.0
 11
-38.4663572533
 21
28.0768551141
 31
0.0
 11
-38.4671233849
 21
28.0281430868
 31
0.0
  0
SPLINE
  5
435
100
AcDbEntity
  8
RACCORDO
100
AcDbSpline
 62
253
  6
CONTINUOUS
 70
0
 71
3
 72
20
 73
16
 74
14
 42
0.0000001
 43
0.0000001
 44
0.0000000001
 12
-0.4993524074
 22
0.0261699508
 32
0.0
 13
0.0261520691
 23
0.4993533443
 33
0.0
 40
0.0
 40
0.0
 40
0.0
 40
0.0
 40
0.0017584427
 40
0.0055881851
 40
0.0201799749
 40
0.0441070285
 40
0.0772068438
 40
0.1191460445
 40
0.1695595041
 40
0.2279582169
 40
0.2937738272
 40
0.4451191799
 40
0.6177331341
 40
0.8051809334
 40
1.0
 40
1.0
 40
1.0
 40
1.0
 10
-45.0071119826
 20
-22.0443804367
 30
0.0
 10
-45.0074046768
 20
-22.0443650973
 30
0.0
 10
-45.0079628436
 20
-22.0433528481
 30
0.0
 10
-45.0086315134
 20
-22.0402907874
 30
0.0
 10
-45.0093760027
 20
-22.033027196
 30
0.0
 10
-45.0098759212
 20
-22.0212330555
 30
0.0
 10
-45.0101843248
 20
-22.0046809278
 30
0.0
 10
-45.010211311
 20
-21.9837922415
 30
0.0
 10
-45.0099742601
 20
-21.9586580599
 30
0.0
 10
-45.009462953
 20
-21.9295580825
 30
0.0
 10
-45.0083702593
 20
-21.8836397189
 30
0.0
 10
-45.00631851
 20
-21.8187044377
 30
0.0
 10
-45.0030231304
 20
-21.7335264884
 30
0.0
 10
-44.9989020556
 20
-21.6411308374
 30
0.0
 10
-44.9957307858
 20
-21.5774935201
 30
0.0
 10
-44.9940324786
 20
-21.5450656693
 30
0.0
 11
-45.0071119826
 21
-22.0443804367
 31
0.0
 11
-45.0077190213
 21
-22.0437443151
 31
0.0
 11
-45.0082625247
 21
-22.0419080448
 31
0.0
 11
-45.0091532963
 21
-22.0346661781
 31
0.0
 11
-45.009773101
 21
-22.0227178144
 31
0.0
 11
-45.0101144212
 21
-22.0061701789
 31
0.0
 11
-45.010175443
 21
-21.9851990866
 31
0.0
 11
-45.0099551558
 21
-21.9599914191
 31
0.0
 11
-45.0094561874
 21
-21.9307941248
 31
0.0
 11
-45.0086835131
 21
-21.8978929107
 31
0.0
 11
-45.006347048
 21
-21.8222506061
 31
0.0
 11
-45.0030373545
 21
-21.7360006013
 31
0.0
 11
-44.9988769258
 21
-21.6423620163
 31
0.0
 11
-44.9940324786
 21
-21.5450656693
 31
0.0
  0
SPLINE
  5
436
100
AcDbEntity
  8
RACCORDO
100
AcDbSpline
 62
253
  6
CONTINUOUS
 70
0
 71
3
 72
22
 73
18
 74
16
 42
0.0000001
 43
0.0000001
 44
0.0000000001
 12
-0.0725456022
 22
0.4816423278
 32
0.0
 13
0.4816350191
 23
0.0725941096
 33
0.0
 40
0.0
 40
0.0
 40
0.0
 40
0.0
 40
0.0012183478
 40
0.0048205745
 40
0.0107968086
 40
0.0191302369
 40
0.0298032678
 40
0.0427980969
 40
0.0756587185
 40
0.1173770487
 40
0.1675421282
 40
0.2257336276
 40
0.2913976046
 40
0.4425119433
 40
0.6153515064
 40
0.803713106
 40
1.0
 40
1.0
 40
1.0
 40
1.0
 10
-45.9436220868
 20
-21.1946919202
 30
0.0
 10
-45.9436515488
 20
-21.1944963176
 30
0.0
 10
-45.9423841772
 20
-21.1945692317
 30
0.0
 10
-45.9411485307
 20
-21.1939853406
 30
0.0
 10
-45.9380126946
 20
-21.1936045107
 30
0.0
 10
-45.9341366836
 20
-21.1928513284
 30
0.0
 10
-45.9289666163
 20
-21.1920121514
 30
0.0
 10
-45.9199333166
 20
-21.1905060704
 30
0.0
 10
-45.9058825317
 20
-21.1882463731
 30
0.0
 10
-45.8858867612
 20
-21.1850624877
 30
0.0
 10
-45.8618146156
 20
-21.1812774399
 30
0.0
 10
-45.8338994853
 20
-21.1769208463
 30
0.0
 10
-45.7897828765
 20
-21.1700794091
 30
0.0
 10
-45.7272612899
 20
-21.1604578679
 30
0.0
 10
-45.6450367828
 20
-21.1478943926
 30
0.0
 10
-45.5555503516
 20
-21.1343019434
 30
0.0
 10
-45.4938004217
 20
-21.1249711701
 30
0.0
 10
-45.462287541
 20
-21.1202214126
 30
0.0
 11
-45.9436220868
 21
-21.1946919202
 31
0.0
 11
-45.9430566355
 21
-21.194511864
 31
0.0
 11
-45.9413380966
 21
-21.1941581867
 31
0.0
 11
-45.9384750926
 21
-21.193632447
 31
0.0
 11
-45.934476246
 21
-21.1929362041
 31
0.0
 11
-45.9293501793
 21
-21.1920710167
 31
0.0
 11
-45.9231055147
 21
-21.1910384437
 31
0.0
 11
-45.9073058897
 21
-21.1884789859
 31
0.0
 11
-45.8872387113
 21
-21.1852838029
 31
0.0
 11
-45.8631017824
 21
-21.1814841972
 31
0.0
 11
-45.8350973789
 21
-21.1771121366
 31
0.0
 11
-45.803492129
 21
-21.1722091695
 31
0.0
 11
-45.7307456218
 21
-21.1610064847
 31
0.0
 11
-45.6475262372
 21
-21.1482867272
 31
0.0
 11
-45.5568207654
 21
-21.1345065826
 31
0.0
 11
-45.462287541
 21
-21.1202214126
 31
0.0
  0
SPLINE
  5
437
100
AcDbEntity
  8
RACCORDO
100
AcDbSpline
 62
253
  6
CONTINUOUS
 70
0
 71
3
 72
9
 73
5
 74
3
 42
0.0000001
 43
0.0000001
 44
0.0000000001
 12
-0.0000347659
 22
0.7051965268
 32
0.0
 13
0.0008843595
 23
0.7051959732
 33
0.0
 40
0.0
 40
0.0
 40
0.0
 40
0.0
 40
0.5043003418
 40
1.0
 40
1.0
 40
1.0
 40
1.0
 10
-47.0127029898
 20
0.0
 30
0.0
 10
-47.0127088339
 20
0.1185436165
 30
0.0
 10
-47.0159575918
 20
0.3535940456
 30
0.0
 10
-47.0211353127
 20
0.5886255761
 30
0.0
 10
-47.0209891872
 20
0.7051473771
 30
0.0
 11
-47.0127029898
 21
0.0
 31
0.0
 11
-47.016476105
 21
0.3556108337
 31
0.0
 11
-47.0209891872
 21
0.7051473771
 31
0.0
  0
SPLINE
  5
438
100
AcDbEntity
  8
RACCORDO
100
AcDbSpline
 62
253
  6
CONTINUOUS
 70
0
 71
3
 72
22
 73
18
 74
16
 42
0.0000001
 43
0.0000001
 44
0.0000000001
 12
-0.0726295422
 22
-0.4816201439
 32
0.0
 13
0.4816256939
 23
-0.0725927293
 33
0.0
 40
0.0
 40
0.0
 40
0.0
 40
0.0
 40
0.0012183017
 40
0.0048204574
 40
0.0107965979
 40
0.019129912
 40
0.0298028098
 40
0.0427974889
 40
0.0756577695
 40
0.117375729
 40
0.167540439
 40
0.2257316013
 40
0.2913953051
 40
0.4425093928
 40
0.6153492319
 40
0.8037116958
 40
1.0
 40
1.0
 40
1.0
 40
1.0
 10
-45.9436127651
 20
21.194690515
 30
0.0
 10
-45.94364226
 20
21.1944949287
 30
0.0
 10
-45.9423748646
 20
21.1945678166
 30
0.0
 10
-45.9411393456
 20
21.193983965
 30
0.0
 10
-45.938003574
 20
21.1936031359
 30
0.0
 10
-45.9341277113
 20
21.192849981
 30
0.0
 10
-45.9289578008
 20
21.1920108271
 30
0.0
 10
-45.9199247798
 20
21.1905047902
 30
0.0
 10
-45.905874403
 20
21.1882451555
 30
0.0
 10
-45.8858791944
 20
21.1850613565
 30
0.0
 10
-45.8618076876
 20
21.181276406
 30
0.0
 10
-45.8338932553
 20
21.1769199185
 30
0.0
 10
-45.7897776391
 20
21.170078631
 30
0.0
 10
-45.727257303
 20
21.1604572775
 30
0.0
 10
-45.6450342453
 20
21.1478940184
 30
0.0
 10
-45.5555491374
 20
21.134301765
 30
0.0
 10
-45.4938000379
 20
21.1249711139
 30
0.0
 10
-45.462287541
 20
21.1202214126
 30
0.0
 11
-45.9436127651
 21
21.194690515
 31
0.0
 11
-45.9430473473
 21
21.1945104648
 31
0.0
 11
-45.9413288761
 21
21.1941567987
 31
0.0
 11
-45.9384659728
 21
21.1936310753
 31
0.0
 11
-45.9344672588
 21
21.1929348533
 31
0.0
 11
-45.9293413555
 21
21.1920696915
 31
0.0
 11
-45.9230968842
 21
21.1910371486
 31
0.0
 11
-45.9072977295
 21
21.1884777635
 31
0.0
 11
-45.8872311182
 21
21.1852826676
 31
0.0
 11
-45.8630948348
 21
21.1814831604
 31
0.0
 11
-45.8350911359
 21
21.1771112068
 31
0.0
 11
-45.8034866296
 21
21.1722083521
 31
0.0
 11
-45.730741652
 21
21.161005897
 31
0.0
 11
-45.6475237459
 21
21.14828636
 31
0.0
 11
-45.5568196142
 21
21.1345064137
 31
0.0
 11
-45.462287541
 21
21.1202214126
 31
0.0
  0
SPLINE
  5
439
100
AcDbEntity
  8
RACCORDO
100
AcDbSpline
 62
253
  6
CONTINUOUS
 70
0
 71
3
 72
20
 73
16
 74
14
 42
0.0000001
 43
0.0000001
 44
0.0000000001
 12
-0.4993524071
 22
-0.0261699507
 32
0.0
 13
0.0261520673
 23
-0.4993533441
 33
0.0
 40
0.0
 40
0.0
 40
0.0
 40
0.0
 40
0.0017584421
 40
0.0055881836
 40
0.0201799709
 40
0.0441070224
 40
0.0772068328
 40
0.1191460285
 40
0.1695594849
 40
0.2279581924
 40
0.2937738
 40
0.4451191488
 40
0.6177331057
 40
0.8051809229
 40
1.0
 40
1.0
 40
1.0
 40
1.0
 10
-45.0071119826
 20
22.0443804367
 30
0.0
 10
-45.0074046767
 20
22.0443650973
 30
0.0
 10
-45.0079628432
 20
22.0433528483
 30
0.0
 10
-45.0086315127
 20
22.0402907883
 30
0.0
 10
-45.0093760017
 20
22.0330271977
 30
0.0
 10
-45.0098759198
 20
22.0212330588
 30
0.0
 10
-45.0101843235
 20
22.0046809331
 30
0.0
 10
-45.0102113099
 20
21.983792249
 30
0.0
 10
-45.0099742589
 20
21.9586580696
 30
0.0
 10
-45.0094629521
 20
21.9295580942
 30
0.0
 10
-45.0083702585
 20
21.8836397325
 30
0.0
 10
-45.0063185096
 20
21.818704452
 30
0.0
 10
-45.0030231303
 20
21.7335265
 30
0.0
 10
-44.9989020555
 20
21.6411308439
 30
0.0
 10
-44.9957307858
 20
21.5774935219
 30
0.0
 10
-44.9940324786
 20
21.5450656693
 30
0.0
 11
-45.0071119826
 21
22.0443804367
 31
0.0
 11
-45.0077190211
 21
22.0437443153
 31
0.0
 11
-45.0082625242
 21
22.0419080454
 31
0.0
 11
-45.0091532954
 21
22.0346661799
 31
0.0
 11
-45.0097730997
 21
22.0227178172
 31
0.0
 11
-45.0101144199
 21
22.0061701842
 31
0.0
 11
-45.0101754418
 21
21.9851990943
 31
0.0
 11
-45.0099551547
 21
21.9599914285
 31
0.0
 11
-45.0094561865
 21
21.9307941369
 31
0.0
 11
-45.0086835123
 21
21.8978929241
 31
0.0
 11
-45.0063470477
 21
21.8222506215
 31
0.0
 11
-45.0030373545
 21
21.7360006154
 31
0.0
 11
-44.9988769257
 21
21.6423620215
 31
0.0
 11
-44.9940324786
 21
21.5450656693
 31
0.0
  0
SPLINE
  5
43A
100
AcDbEntity
  8
RACCORDO
100
AcDbSpline
 62
253
  6
CONTINUOUS
 70
0
 71
3
 72
9
 73
5
 74
3
 42
0.0000001
 43
0.0000001
 44
0.0000000001
 12
-0.0008820608
 22
0.705171127
 32
0.0
 13
0.0000354036
 23
0.7051716778
 33
0.0
 40
0.0
 40
0.0
 40
0.0
 40
0.0
 40
0.4956996984
 40
1.0
 40
1.0
 40
1.0
 40
1.0
 10
-47.0209892187
 20
-0.7051225253
 30
0.0
 10
-47.0211349644
 20
-0.5886048204
 30
0.0
 10
-47.0159572652
 20
-0.353581581
 30
0.0
 10
-47.0127089411
 20
-0.1185394299
 30
0.0
 10
-47.0127029898
 20
0.0
 30
0.0
 11
-47.0209892187
 21
-0.7051225253
 31
0.0
 11
-47.0164758791
 21
-0.3555982757
 31
0.0
 11
-47.0127029898
 21
0.0
 31
0.0
  0
SPLINE
  5
43B
100
AcDbEntity
  8
RACCORDO
100
AcDbSpline
 62
253
  6
CONTINUOUS
 70
0
 71
3
 72
18
 73
14
 74
12
 42
0.0000001
 43
0.0000001
 44
0.0000000001
 12
0.0043630315
 22
-0.2500340648
 32
0.0
 13
-0.2500340416
 23
-0.0043643604
 33
0.0
 40
0.0
 40
0.0
 40
0.0
 40
0.0
 40
0.1948266539
 40
0.3825267536
 40
0.5552863631
 40
0.7066991494
 40
0.8310400578
 40
0.8814640841
 40
0.9234311497
 40
0.9565177065
 40
0.9803830148
 40
0.9948764343
 40
1.0
 40
1.0
 40
1.0
 40
1.0
 10
-38.4671233849
 20
-28.0281430868
 30
0.0
 10
-38.4668400399
 20
-28.0443808536
 30
0.0
 10
-38.466337752
 20
-28.0762636097
 30
0.0
 10
-38.4657699953
 20
-28.1225465386
 30
0.0
 10
-38.4654123339
 20
-28.1652164199
 30
0.0
 10
-38.4652845829
 20
-28.2025944747
 30
0.0
 10
-38.4653505035
 20
-28.2298054597
 30
0.0
 10
-38.4655660016
 20
-28.2478366443
 30
0.0
 10
-38.4657278022
 20
-28.2583682876
 30
0.0
 10
-38.4660539279
 20
-28.2664164558
 30
0.0
 10
-38.4661446942
 20
-28.2728113097
 30
0.0
 10
-38.4667874814
 20
-28.2756285863
 30
0.0
 10
-38.4666963629
 20
-28.2780975569
 30
0.0
 10
-38.4671233849
 20
-28.2781050106
 30
0.0
 11
-38.4671233849
 21
-28.0281430868
 31
0.0
 11
-38.4663572321
 21
-28.0768577785
 31
0.0
 11
-38.4657863603
 21
-28.1237928704
 31
0.0
 11
-38.465435525
 21
-28.1669938092
 31
0.0
 11
-38.4653173549
 21
-28.2048577426
 31
0.0
 11
-38.465435525
 21
-28.2359517137
 31
0.0
 11
-38.4655825334
 21
-28.2485605003
 31
0.0
 11
-38.4657863603
 21
-28.2590533142
 31
0.0
 11
-38.466045377
 21
-28.2673232847
 31
0.0
 11
-38.4663572321
 21
-28.2732831797
 31
0.0
 11
-38.4667179621
 21
-28.2768895839
 31
0.0
 11
-38.4671233849
 21
-28.2781050106
 31
0.0
  0
LINE
  5
43C
100
AcDbEntity
  8
RACCORDO
100
AcDbLine
 62
253
  6
CONTINUOUS
 10
-40.9267219546
 20
23.7296117083
 11
-40.9267217733
 21
28.7289625379
  0
ELLIPSE
  5
43D
100
AcDbEntity
  8
RACCORDO
100
AcDbEllipse
 62
7
  6
CONTINUOUS
 10
5.9999771508
 20
22.0663669206
 30
0.0
 11
0.0474717307
 21
0.1425310072
 31
0.0
 40
0.9984778551
 41
-1.2488325878
 42
0.3210503505
  0
ELLIPSE
  5
43E
100
AcDbEntity
  8
RACCORDO
100
AcDbEllipse
 62
7
  6
CONTINUOUS
 10
-5.9999771508
 20
22.0663669206
 30
0.0
 11
-0.0474717307
 21
0.1425310072
 31
0.0
 40
0.9984778551
 41
-0.3210503505
 42
1.2488325878
  0
ELLIPSE
  5
43F
100
AcDbEntity
  8
DRAFT
100
AcDbEllipse
 62
7
  6
CONTINUOUS
 10
-0.8559996014
 20
18.1227773529
 30
0.0
 11
-2.5700871559
 21
6.3735109228
 31
0.0
 40
0.942904759
 41
-4.3898742718
 42
-4.3728393399
  0
ELLIPSE
  5
440
100
AcDbEntity
  8
DRAFT
100
AcDbEllipse
 62
7
  6
CONTINUOUS
 10
2.6007975158
 20
16.0
 30
0.0
 11
7.8087376202
 21
0.0
 31
0.0
 40
0.942904759
 41
-2.2826212818
 42
-2.2685244207
  0
ELLIPSE
  5
441
100
AcDbEntity
  8
DRAFT
100
AcDbEllipse
 62
7
  6
CONTINUOUS
 10
-2.6007975158
 20
16.0
 30
0.0
 11
7.8087376202
 21
0.0
 31
0.0
 40
0.942904759
 41
-0.8730682329
 42
-0.8589713718
  0
ELLIPSE
  5
442
100
AcDbEntity
  8
DRAFT
100
AcDbEllipse
 62
7
  6
CONTINUOUS
 10
0.8559996014
 20
18.1227773529
 30
0.0
 11
2.5700871559
 21
6.3735109228
 31
0.0
 40
0.942904759
 41
-1.9103459673
 42
-1.8933110353
  0
ELLIPSE
  5
443
100
AcDbEntity
  8
RACCORDO
100
AcDbEllipse
 62
7
  6
CONTINUOUS
 10
0.0598076523
 20
22.0953720164
 30
0.0
 11
-0.0300136675
 21
-0.3031910442
 31
0.0
 40
0.9846622838
 41
2.0771519867
 42
3.2387599651
  0
ELLIPSE
  5
444
100
AcDbEntity
  8
RACCORDO
100
AcDbEllipse
 62
7
  6
CONTINUOUS
 10
-0.0598076523
 20
22.0953720164
 30
0.0
 11
-0.0300136675
 21
0.3031910442
 31
0.0
 40
0.9846622838
 41
-0.0971673115
 42
1.0644406669
  0
ELLIPSE
  5
445
100
AcDbEntity
  8
RACCORDO
100
AcDbEllipse
 62
7
  6
CONTINUOUS
 10
-19.4992383598
 20
23.7492383598
 30
0.0
 11
3.5366109458
 21
-3.5366109459
 31
0.0
 40
0.9996954599
 41
2.3563467834
 42
3.9268385237
  0
ELLIPSE
  5
446
100
AcDbEntity
  8
RACCORDO
100
AcDbEllipse
 62
7
  6
CONTINUOUS
 10
-19.4992383598
 20
-23.7492383598
 30
0.0
 11
3.5366109458
 21
3.5366109458
 31
0.0
 40
0.9996954599
 41
-3.9268385237
 42
-2.3563467834
  0
ELLIPSE
  5
447
100
AcDbEntity
  8
RACCORDO
100
AcDbEllipse
 62
7
  6
CONTINUOUS
 10
19.4992383598
 20
-23.7492383598
 30
0.0
 11
3.5366109458
 21
-3.5366109458
 31
0.0
 40
0.9996954599
 41
-0.7852458701
 42
0.7852458701
  0
ELLIPSE
  5
448
100
AcDbEntity
  8
RACCORDO
100
AcDbEllipse
 62
7
  6
CONTINUOUS
 10
19.4992383598
 20
23.7492383598
 30
0.0
 11
3.5366109458
 21
3.5366109458
 31
0.0
 40
0.9996954599
 41
-0.7852458702
 42
0.7852458701
  0
ELLIPSE
  5
449
100
AcDbEntity
  8
RACCORDO
100
AcDbEllipse
 62
7
  6
CONTINUOUS
 10
-21.7898477332
 20
21.7420904892
 30
0.0
 11
-0.2238673116
 21
0.4480418466
 31
0.0
 40
0.9982882662
 41
-0.4626886447
 42
1.1067376861
  0
ELLIPSE
  5
44A
100
AcDbEntity
  8
RACCORDO
100
AcDbEllipse
 62
7
  6
CONTINUOUS
 10
-21.7898477332
 20
-21.7420904892
 30
0.0
 11
0.2238673116
 21
0.4480418466
 31
0.0
 40
0.9982882662
 41
-4.2483303396
 42
-2.6789040089
  0
ELLIPSE
  5
44B
100
AcDbEntity
  8
RACCORDO
100
AcDbEllipse
 62
7
  6
CONTINUOUS
 10
21.7898477332
 20
-21.7420904892
 30
0.0
 11
-0.2238673116
 21
0.4480418466
 31
0.0
 40
0.9982882662
 41
-3.6042812983
 42
-2.0348549675
  0
ELLIPSE
  5
44C
100
AcDbEntity
  8
RACCORDO
100
AcDbEllipse
 62
7
  6
CONTINUOUS
 10
21.7898477332
 20
21.7420904892
 30
0.0
 11
0.2238673116
 21
0.4480418466
 31
0.0
 40
0.9982882662
 41
-1.1067376861
 42
0.4626886447
  0
ELLIPSE
  5
44D
100
AcDbEntity
  8
RACCORDO
100
AcDbEllipse
 62
7
  6
CONTINUOUS
 10
6.4982773427
 20
22.0663669206
 30
0.0
 11
-0.0474717307
 21
0.1425310072
 31
0.0
 40
0.9984778551
 41
-0.3210503505
 42
1.2488325878
  0
ELLIPSE
  5
44E
100
AcDbEntity
  8
RACCORDO
100
AcDbEllipse
 62
7
  6
CONTINUOUS
 10
-6.4982773427
 20
22.0663669206
 30
0.0
 11
0.0474717307
 21
0.1425310072
 31
0.0
 40
0.9984778551
 41
-1.2488325878
 42
0.3210503505
  0
ENDSEC
  0
SECTION
  2
OBJECTS
  0
DICTIONARY
  5
C
100
AcDbDictionary
280
0
281
1
  3
ACAD_GROUP
350
D
  3
ACAD_MLINESTYLE
350
17
  3
ACAD_LAYOUT
350
1A
  3
ACAD_PLOTSETTINGS
350
19
  3
ACAD_PLOTSTYLENAME
350
E
  0
DICTIONARY
  5
D
102
{ACAD_REACTORS
330
C
102
}
100
AcDbDictionary
280
0
281
1
  0
ACDBDICTIONARYWDFLT
  5
E
102
{ACAD_REACTORS
330
C
102
}
100
AcDbDictionary
281
1
  3
Normal
350
F
100
AcDbDictionaryWithDefault
340
F
  0
DICTIONARY
  5
17
102
{ACAD_REACTORS
330
C
102
}
100
AcDbDictionary
280
0
281
1
  3
Standard
350
18
  0
DICTIONARY
  5
19
102
{ACAD_REACTORS
330
C
102
}
100
AcDbDictionary
281
1
  0
DICTIONARY
  5
1A
102
{ACAD_REACTORS
330
C
102
}
100
AcDbDictionary
281
1
  3
Model
350
44F
  3
Layout1
350
450
  0
ACDBPLACEHOLDER
  5
F
102
{ACAD_REACTORS
330
E
102
}
  0
MLINESTYLE
  5
18
102
{ACAD_REACTORS
330
17
102
}
100
AcDbMlineStyle
  2
STANDARD
 70
0
  3

 62
256
 51
90.0
 52
90.0
 71
2
 49
0.5
 62
256
  6
BYLAYER
 49
-0.5
 62
256
  6
BYLAYER
  0
LAYOUT
  5
44F
102
{ACAD_REACTORS
330
1A
102
}
100
AcDbPlotSettings
  1

  2
none_device
  4
ISO_A4_(297.00_x_210.00_MM)
  6

 40
0.0
 41
0.0
 42
0.0
 43
0.0
 44
297.0
 45
210.0
 46
0.0
 47
0.0
 48
0.0
 49
0.0
140
0.0
141
0.0
142
1.0
143
1.0
 70
1024
 72
1
 73
0
 74
0
  7

 75
0
147
1.0
148
0.0
149
0.0
100
AcDbLayout
  1
Model
 70
0
 71
0
 10
0.0
 20
0.0
 11
297.0
 21
210.0
 12
0.0
 22
0.0
 32
0.0
 14
0.0
 24
0.0
 34
0.0
 15
0.0
 25
0.0
 35
0.0
146
0.0
 13
0.0
 23
0.0
 33
0.0
 16
1.0
 26
0.0
 36
0.0
 17
0.0
 27
1.0
 37
0.0
 76
0
330
214
345
0
346
0
  0
LAYOUT
  5
450
102
{ACAD_REACTORS
330
1A
102
}
100
AcDbPlotSettings
  1

  2
none_device
  4
ISO_A4_(297.00_x_210.00_MM)
  6

 40
0.0
 41
0.0
 42
0.0
 43
0.0
 44
297.0
 45
210.0
 46
0.0
 47
0.0
 48
0.0
 49
0.0
140
0.0
141
0.0
142
1.0
143
1.0
 70
0
 72
1
 73
0
 74
0
  7

 75
0
147
1.0
148
0.0
149
0.0
100
AcDbLayout
  1
Layout1
 70
0
 71
1
 10
0.0
 20
0.0
 11
297.0
 21
210.0
 12
0.0
 22
0.0
 32
0.0
 14
0.0
 24
0.0
 34
0.0
 15
0.0
 25
0.0
 35
0.0
146
0.0
 13
0.0
 23
0.0
 33
0.0
 16
1.0
 26
0.0
 36
0.0
 17
0.0
 27
1.0
 37
0.0
 76
0
330
215
345
0
346
0
  0
ENDSEC
  0
EOF
