  0
SECTION
  2
HEADER
  9
$ACADVER
  1
AC1021
  9
$DWGCODEPAGE
  3
ANSI_1252
  9
$EXTMAX
 10
558.8
 20
431.8
 30
0.0
  9
$EXTMIN
 10
0.0
 20
0.0
 30
0.0
  9
$LIMMIN
 10
0.0
 20
0.0
  9
$LIMMAX
 10
558.8
 20
431.8
  9
$VIEWCTR
 10
279.4
 20
215.9
  9
$VIEWSIZE
 40
431.8
  9
$CLAYER
  8
0
  9
$LTSCALE
 40
30.734
  9
$CELTYPE
  6
BYLAYER
  9
$DIMSCALE
 40
1.0
  9
$DIMASZ
 40
3.0
  9
$DIMEXO
 40
0.5
  9
$DIMDLI
 40
21.2344
  9
$DIMEXE
 40
1.5
  9
$DIMCEN
 40
5.0292
  9
$DIMLFAC
 40
1.0
  9
$DIMBLK
  1
_FILLED
  9
$DIMALT
 70
0
  9
$DIMALTF
 40
0.0393700787
  9
$DIMTXT
 40
3.0
  9
$DIMTOL
 70
1
  9
$DIMLIM
 70
0
  9
$DIMTFAC
 40
1.0
  9
$DIMTP
 40
0.01
  9
$DIMTM
 40
0.01
  9
$DIMGAP
 40
0.625
  9
$DIMDSEP
 70
44
  9
$AUNITS
 70
0
  9
$PDMODE
 70
3
  9
$PDSIZE
 40
3.0
  9
$HANDSEED
  5
68B
  9
$TILEMODE
 70
1
  9
$MEASUREMENT
 70
1
  9
$INSUNITS
 70
4
  0
ENDSEC
  0
SECTION
  2
CLASSES
  0
CLASS
  1
ACDBDICTIONARYWDFLT
  2
AcDbDictionaryWithDefault
  3
AutoCAD 2000
 90
0
 91
1
280
0
281
0
  0
CLASS
  1
ACDBPLACEHOLDER
  2
AcDbPlaceHolder
  3
AutoCAD 2000
 90
0
 91
1
280
0
281
0
  0
CLASS
  1
LAYOUT
  2
AcDbLayout
  3
AutoCAD 2000
 90
0
 91
0
280
0
281
0
  0
ENDSEC
  0
SECTION
  2
TABLES
  0
TABLE
  2
VPORT
  5
8
100
AcDbSymbolTable
 70
2
  0
VPORT
  5
1F4
100
AcDbSymbolTableRecord
100
AcDbViewportTableRecord
  2
*ACTIVE
 70
0
 10
0.0
 20
0.0
 11
1.0
 21
1.0
 12
279.4
 22
215.9
 13
0.0
 23
0.0
 14
1.0
 24
1.0
 15
0.0
 25
0.0
 16
0.0
 26
0.0
 36
1.0
 17
0.0
 27
0.0
 37
0.0
 40
431.8
 41
1.2941176471
 42
50.0
 43
0.0
 44
0.0
 50
0.0
 51
0.0
 71
0
 72
100
 73
1
 74
1
 75
0
 76
0
 77
0
 78
0
  0
ENDTAB
  0
TABLE
  2
LTYPE
  5
5
100
AcDbSymbolTable
 70
6
  0
LTYPE
  5
14
100
AcDbSymbolTableRecord
100
AcDbLinetypeTableRecord
  2
BYBLOCK
 70
0
  3

 72
65
 73
0
 40
0.0
  0
LTYPE
  5
15
100
AcDbSymbolTableRecord
100
AcDbLinetypeTableRecord
  2
BYLAYER
 70
0
  3

 72
65
 73
0
 40
0.0
  0
LTYPE
  5
16
100
AcDbSymbolTableRecord
100
AcDbLinetypeTableRecord
  2
CONTINUOUS
 70
64
  3
Solid line
 72
65
 73
0
 40
0.0
  0
LTYPE
  5
1F5
100
AcDbSymbolTableRecord
100
AcDbLinetypeTableRecord
  2
CENTER
 70
64
  3
____ _ ____ _ ____ _ ____ _ ____ _ ____ _ ____
 72
65
 73
4
 40
0.6
 49
0.375
 74
0
 49
-0.075
 74
0
 49
0.075
 74
0
 49
-0.075
 74
0
  0
LTYPE
  5
1F6
100
AcDbSymbolTableRecord
100
AcDbLinetypeTableRecord
  2
HIDDEN
 70
64
  3
- - - - - - - - - - - - - - - - - - - -
 72
65
 73
2
 40
0.2
 49
0.1
 74
0
 49
-0.1
 74
0
  0
LTYPE
  5
1F7
100
AcDbSymbolTableRecord
100
AcDbLinetypeTableRecord
  2
PHANTOM
 70
64
  3
_____ _ _ _____ _ _ _____ _ _ _____
 72
65
 73
6
 40
0.8
 49
0.45
 74
0
 49
-0.05
 74
0
 49
0.1
 74
0
 49
-0.05
 74
0
 49
0.1
 74
0
 49
-0.05
 74
0
  0
LTYPE
  5
1F8
100
AcDbSymbolTableRecord
100
AcDbLinetypeTableRecord
  2
DOT
 70
64
  3
. . . . . . . . . . . . . . . . . . . .
 72
65
 73
2
 40
0.2
 49
0.1
 74
0
 49
-0.1
 74
0
  0
LTYPE
  5
1F9
100
AcDbSymbolTableRecord
100
AcDbLinetypeTableRecord
  2
DASHED
 70
64
  3
- - - - - - - - - - - - - - - - - - - -
 72
65
 73
2
 40
0.2
 49
0.1
 74
0
 49
-0.1
 74
0
  0
ENDTAB
  0
TABLE
  2
LAYER
  5
2
100
AcDbSymbolTable
 70
36
  0
LAYER
  5
10
100
AcDbSymbolTableRecord
100
AcDbLayerTableRecord
  2
0
 70
0
 62
7
  6
CONTINUOUS
370
-3
390
F
  0
LAYER
  5
1FA
100
AcDbSymbolTableRecord
100
AcDbLayerTableRecord
  2
DEFAULT_1
 70
0
 62
7
  6
CENTER
370
-3
390
F
  0
LAYER
  5
1FB
100
AcDbSymbolTableRecord
100
AcDbLayerTableRecord
  2
DEFAULT_2
 70
0
 62
7
  6
HIDDEN
370
-3
390
F
  0
LAYER
  5
1FC
100
AcDbSymbolTableRecord
100
AcDbLayerTableRecord
  2
DEFAULT_3
 70
0
 62
7
  6
PHANTOM
370
-3
390
F
  0
LAYER
  5
1FD
100
AcDbSymbolTableRecord
100
AcDbLayerTableRecord
  2
ASSI
 70
0
 62
7
  6
CONTINUOUS
370
-3
390
F
  0
LAYER
  5
1FE
100
AcDbSymbolTableRecord
100
AcDbLayerTableRecord
  2
COORDINATE
 70
0
 62
7
  6
CONTINUOUS
370
-3
390
F
  0
LAYER
  5
1FF
100
AcDbSymbolTableRecord
100
AcDbLayerTableRecord
  2
COORD_ORIGINE
 70
0
 62
7
  6
CONTINUOUS
370
-3
390
F
  0
LAYER
  5
200
100
AcDbSymbolTableRecord
100
AcDbLayerTableRecord
  2
COPY_PUBLISH
 70
0
 62
7
  6
CONTINUOUS
370
-3
390
F
  0
LAYER
  5
201
100
AcDbSymbolTableRecord
100
AcDbLayerTableRecord
  2
COSMETIC
 70
0
 62
7
  6
CONTINUOUS
370
-3
390
F
  0
LAYER
  5
202
100
AcDbSymbolTableRecord
100
AcDbLayerTableRecord
  2
CURVE
 70
0
 62
7
  6
CONTINUOUS
370
-3
390
F
  0
LAYER
  5
203
100
AcDbSymbolTableRecord
100
AcDbLayerTableRecord
  2
DRAFT
 70
0
 62
7
  6
CONTINUOUS
370
-3
390
F
  0
LAYER
  5
204
100
AcDbSymbolTableRecord
100
AcDbLayerTableRecord
  2
IMPORT
 70
0
 62
7
  6
CONTINUOUS
370
-3
390
F
  0
LAYER
  5
205
100
AcDbSymbolTableRecord
100
AcDbLayerTableRecord
  2
IMPORT_IGES
 70
0
 62
7
  6
CONTINUOUS
370
-3
390
F
  0
LAYER
  5
206
100
AcDbSymbolTableRecord
100
AcDbLayerTableRecord
  2
INTF_1
 70
0
 62
7
  6
CONTINUOUS
370
-3
390
F
  0
LAYER
  5
207
100
AcDbSymbolTableRecord
100
AcDbLayerTableRecord
  2
INTF_11
 70
0
 62
7
  6
CONTINUOUS
370
-3
390
F
  0
LAYER
  5
208
100
AcDbSymbolTableRecord
100
AcDbLayerTableRecord
  2
LAY0001
 70
0
 62
7
  6
CONTINUOUS
370
-3
390
F
  0
LAYER
  5
209
100
AcDbSymbolTableRecord
100
AcDbLayerTableRecord
  2
NOTE
 70
0
 62
7
  6
CONTINUOUS
370
-3
390
F
  0
LAYER
  5
20A
100
AcDbSymbolTableRecord
100
AcDbLayerTableRecord
  2
PIANI
 70
0
 62
7
  6
CONTINUOUS
370
-3
390
F
  0
LAYER
  5
20B
100
AcDbSymbolTableRecord
100
AcDbLayerTableRecord
  2
PIANI_DI_RIFERIMENTO
 70
0
 62
7
  6
CONTINUOUS
370
-3
390
F
  0
LAYER
  5
20C
100
AcDbSymbolTableRecord
100
AcDbLayerTableRecord
  2
PIANI_ORIGINE
 70
0
 62
7
  6
CONTINUOUS
370
-3
390
F
  0
LAYER
  5
20D
100
AcDbSymbolTableRecord
100
AcDbLayerTableRecord
  2
PIANI_SFORMO
 70
0
 62
7
  6
CONTINUOUS
370
-3
390
F
  0
LAYER
  5
20E
100
AcDbSymbolTableRecord
100
AcDbLayerTableRecord
  2
PUNTI
 70
0
 62
7
  6
CONTINUOUS
370
-3
390
F
  0
LAYER
  5
20F
100
AcDbSymbolTableRecord
100
AcDbLayerTableRecord
  2
RACCORDO
 70
0
 62
7
  6
CONTINUOUS
370
-3
390
F
  0
LAYER
  5
210
100
AcDbSymbolTableRecord
100
AcDbLayerTableRecord
  2
SMUSSO
 70
0
 62
7
  6
CONTINUOUS
370
-3
390
F
  0
LAYER
  5
211
100
AcDbSymbolTableRecord
100
AcDbLayerTableRecord
  2
SNAPLINE
 70
0
 62
7
  6
CONTINUOUS
370
-3
390
F
  0
LAYER
  5
212
100
AcDbSymbolTableRecord
100
AcDbLayerTableRecord
  2
SUPERFICI
 70
0
 62
7
  6
CONTINUOUS
370
-3
390
F
  0
LAYER
  5
213
100
AcDbSymbolTableRecord
100
AcDbLayerTableRecord
  2
TRASH
 70
0
 62
7
  6
CONTINUOUS
370
-3
390
F
  0
LAYER
  5
214
100
AcDbSymbolTableRecord
100
AcDbLayerTableRecord
  2
XSEC_DATUMS
 70
0
 62
7
  6
CONTINUOUS
370
-3
390
F
  0
ENDTAB
  0
TABLE
  2
STYLE
  5
3
100
AcDbSymbolTable
 70
1
  0
STYLE
  5
11
100
AcDbSymbolTableRecord
100
AcDbTextStyleTableRecord
  2
STANDARD
 70
0
 40
0.0
 41
0.8
 50
0.0
 71
0
 42
0.2
  3
txt
  4

  0
STYLE
  5
215
100
AcDbSymbolTableRecord
100
AcDbTextStyleTableRecord
  2
TEXTSTYLE_1
 70
0
 40
0.0
 41
0.8
 50
0.0
 71
0
 42
0.2
  3
gdt
  4

  0
ENDTAB
  0
TABLE
  2
VIEW
  5
6
100
AcDbSymbolTable
 70
0
  0
ENDTAB
  0
TABLE
  2
UCS
  5
7
100
AcDbSymbolTable
 70
0
  0
ENDTAB
  0
TABLE
  2
APPID
  5
9
100
AcDbSymbolTable
 70
1
  0
APPID
  5
216
100
AcDbSymbolTableRecord
100
AcDbRegAppTableRecord
  2
ACAD
 70
0
  0
ENDTAB
  0
TABLE
  2
BLOCK_RECORD
  5
1
100
AcDbSymbolTable
 70
0
  0
BLOCK_RECORD
  5
217
100
AcDbSymbolTableRecord
100
AcDbBlockTableRecord
  2
*Model_Space
  0
BLOCK_RECORD
  5
218
100
AcDbSymbolTableRecord
100
AcDbBlockTableRecord
  2
*Paper_Space
  0
BLOCK_RECORD
  5
219
100
AcDbSymbolTableRecord
100
AcDbBlockTableRecord
  2
_FILLED
  0
BLOCK_RECORD
  5
21A
100
AcDbSymbolTableRecord
100
AcDbBlockTableRecord
  2
*D0
  0
BLOCK_RECORD
  5
21B
100
AcDbSymbolTableRecord
100
AcDbBlockTableRecord
  2
*D1
  0
BLOCK_RECORD
  5
21C
100
AcDbSymbolTableRecord
100
AcDbBlockTableRecord
  2
*D2
  0
BLOCK_RECORD
  5
21D
100
AcDbSymbolTableRecord
100
AcDbBlockTableRecord
  2
*D3
  0
ENDTAB
  0
TABLE
  2
DIMSTYLE
  5
A
100
AcDbSymbolTable
 70
1
100
AcDbDimStyleTable
 71
0
  0
DIMSTYLE
105
21E
100
AcDbSymbolTableRecord
100
AcDbDimStyleTableRecord
  2
STANDARD
 70
0
  3

  4

 40
1.0
 41
3.0
 42
0.5
 43
0.38
 44
1.5
 45
0.0
 46
0.0
 47
0.01
 48
0.01
140
3.0
141
0.09
142
0.0
143
25.4
144
1.0
145
0.0
146
1.0
147
0.625
 71
1.0
 72
0.0
 73
0
 74
0
 75
0
 76
0
 77
1
 78
8
 79
2
170
0
171
1
172
0
173
0
174
0
175
0
176
0
177
0
178
0
270
2
179
2
271
2
272
2
273
2
274
2
275
0
280
0
281
0
282
0
283
1
284
8
285
0
286
0
287
3
288
0
340
11
278
44
341
219
342
219
343
219
344
219
  0
DIMSTYLE
105
21F
100
AcDbSymbolTableRecord
100
AcDbDimStyleTableRecord
  2
DIMSTYLE_1
 70
0
  3

  4

 40
1.0
 41
3.0
 42
0.5
 43
0.38
 44
1.5
 45
0.0
 46
0.0
 47
0.0
 48
0.0
140
3.0
141
0.09
142
0.0
143
25.4
144
1.0
145
0.0
146
1.0
147
0.75
 71
0.0
 72
0.0
 73
0
 74
0
 75
0
 76
0
 77
1
 78
8
 79
2
170
0
171
1
172
0
173
0
174
0
175
0
176
0
177
0
178
0
270
2
179
2
271
2
272
2
273
2
274
2
275
0
280
0
281
0
282
0
283
1
284
8
285
0
286
0
287
3
288
0
340
11
278
44
341
219
342
219
343
219
344
219
  0
ENDTAB
  0
ENDSEC
  0
SECTION
  2
BLOCKS
  0
BLOCK
  5
20
100
AcDbEntity
  8
0
100
AcDbBlockBegin
  2
*Model_Space
 70
0
 10
0.0
 20
0.0
 30
0.0
  3
*Model_Space
  1

  0
ENDBLK
  5
21
100
AcDbEntity
  8
0
100
AcDbBlockEnd
  0
BLOCK
  5
1C
100
AcDbEntity
  8
0
100
AcDbBlockBegin
  2
*Paper_Space
 70
0
 10
0.0
 20
0.0
 30
0.0
  3
*Paper_Space
  1

  0
ENDBLK
  5
1D
100
AcDbEntity
  8
0
100
AcDbBlockEnd
  0
BLOCK
  5
220
100
AcDbEntity
  8
0
100
AcDbBlockBegin
  2
_FILLED
 70
64
 10
0.0
 20
0.0
  3
_FILLED
  1

  0
SOLID
  5
221
100
AcDbEntity
  8
0
  6
BYBLOCK
 62
0
100
AcDbTrace
 10
0.0
 20
0.0
 11
-1.0
 21
0.3166666667
 12
-1.0
 22
-0.3166666667
 13
-1.0
 23
-0.3166666667
  0
ENDBLK
  5
222
100
AcDbEntity
  8
0
  6
BYBLOCK
 62
0
100
AcDbBlockEnd
  0
BLOCK
  5
223
100
AcDbEntity
  8
0
100
AcDbBlockBegin
 62
7
  6
CONTINUOUS
  2
*D0
 70
65
 10
0.0
 20
0.0
  3
*D0
  1

  0
LINE
  5
224
100
AcDbEntity
  8
0
100
AcDbLine
 62
7
  6
CONTINUOUS
 10
-13.0584176551
 20
22.400016923
 11
-13.0584176551
 21
34.0416085831
  0
LINE
  5
225
100
AcDbEntity
  8
0
100
AcDbLine
 62
7
  6
CONTINUOUS
 10
9.2424550317
 20
22.400016923
 11
9.2424550317
 21
34.0416085831
  0
LINE
  5
226
100
AcDbEntity
  8
0
100
AcDbLine
 62
7
  6
CONTINUOUS
 10
-13.0584176551
 20
32.5416085831
 11
-1.9079813117
 21
32.5416085831
  0
LINE
  5
227
100
AcDbEntity
  8
0
100
AcDbLine
 62
7
  6
CONTINUOUS
 10
9.2424550317
 20
32.5416085831
 11
-1.9079813117
 21
32.5416085831
  0
INSERT
  5
228
100
AcDbEntity
  8
0
100
AcDbBlockReference
 62
7
  6
CONTINUOUS
  2
_FILLED
 10
-13.0584176551
 20
32.5416085831
 41
3.0
 42
3.0
 43
3.0
 50
180.0
  0
INSERT
  5
229
100
AcDbEntity
  8
0
100
AcDbBlockReference
 62
7
  6
CONTINUOUS
  2
_FILLED
 10
9.2424550317
 20
32.5416085831
 41
3.0
 42
3.0
 43
3.0
  0
ENDBLK
  5
22A
100
AcDbEntity
  8
0
  6
BYBLOCK
 62
0
100
AcDbBlockEnd
  0
BLOCK
  5
22B
100
AcDbEntity
  8
0
100
AcDbBlockBegin
 62
7
  6
CONTINUOUS
  2
*D1
 70
65
 10
0.0
 20
0.0
  3
*D1
  1

  0
LINE
  5
22C
100
AcDbEntity
  8
0
100
AcDbLine
 62
7
  6
CONTINUOUS
 10
8.4920229191
 20
24.5
 11
22.8560376359
 21
24.5
  0
LINE
  5
22D
100
AcDbEntity
  8
0
100
AcDbLine
 62
7
  6
CONTINUOUS
 10
8.4920229191
 20
-24.5
 11
22.8560376359
 21
-24.5
  0
LINE
  5
22E
100
AcDbEntity
  8
0
100
AcDbLine
 62
7
  6
CONTINUOUS
 10
21.3560376359
 20
24.5
 11
21.3560376359
 21
0.0
  0
LINE
  5
22F
100
AcDbEntity
  8
0
100
AcDbLine
 62
7
  6
CONTINUOUS
 10
21.3560376359
 20
-24.5
 11
21.3560376359
 21
0.0
  0
INSERT
  5
230
100
AcDbEntity
  8
0
100
AcDbBlockReference
 62
7
  6
CONTINUOUS
  2
_FILLED
 10
21.3560376359
 20
24.5
 41
3.0
 42
3.0
 43
3.0
 50
90.0
  0
INSERT
  5
231
100
AcDbEntity
  8
0
100
AcDbBlockReference
 62
7
  6
CONTINUOUS
  2
_FILLED
 10
21.3560376359
 20
-24.5
 41
3.0
 42
3.0
 43
3.0
 50
270.0
  0
ENDBLK
  5
232
100
AcDbEntity
  8
0
  6
BYBLOCK
 62
0
100
AcDbBlockEnd
  0
BLOCK
  5
233
100
AcDbEntity
  8
0
100
AcDbBlockBegin
 62
7
  6
CONTINUOUS
  2
*D2
 70
65
 10
0.0
 20
0.0
  3
*D2
  1

  0
LINE
  5
234
100
AcDbEntity
  8
0
100
AcDbLine
 62
7
  6
CONTINUOUS
 10
-24.2875539867
 20
5.2228182695
 11
-24.2875539867
 21
34.0269080432
  0
LINE
  5
235
100
AcDbEntity
  8
0
100
AcDbLine
 62
7
  6
CONTINUOUS
 10
-57.8875539867
 20
24.7456323968
 11
-57.8875539867
 21
34.0269080432
  0
LINE
  5
236
100
AcDbEntity
  8
0
100
AcDbLine
 62
7
  6
CONTINUOUS
 10
-24.2875539867
 20
32.5269080432
 11
-41.0875539867
 21
32.5269080432
  0
LINE
  5
237
100
AcDbEntity
  8
0
100
AcDbLine
 62
7
  6
CONTINUOUS
 10
-57.8875539867
 20
32.5269080432
 11
-41.0875539867
 21
32.5269080432
  0
INSERT
  5
238
100
AcDbEntity
  8
0
100
AcDbBlockReference
 62
7
  6
CONTINUOUS
  2
_FILLED
 10
-24.2875539867
 20
32.5269080432
 41
3.0
 42
3.0
 43
3.0
  0
INSERT
  5
239
100
AcDbEntity
  8
0
100
AcDbBlockReference
 62
7
  6
CONTINUOUS
  2
_FILLED
 10
-57.8875539867
 20
32.5269080432
 41
3.0
 42
3.0
 43
3.0
 50
180.0
  0
ENDBLK
  5
23A
100
AcDbEntity
  8
0
  6
BYBLOCK
 62
0
100
AcDbBlockEnd
  0
BLOCK
  5
23B
100
AcDbEntity
  8
0
100
AcDbBlockBegin
 62
7
  6
CONTINUOUS
  2
*D3
 70
65
 10
0.0
 20
0.0
  3
*D3
  1

  0
LINE
  5
23C
100
AcDbEntity
  8
0
100
AcDbLine
 62
7
  6
CONTINUOUS
 10
-24.2875539867
 20
5.2228182695
 11
-24.2875539867
 21
44.2107526041
  0
LINE
  5
23D
100
AcDbEntity
  8
0
100
AcDbLine
 62
7
  6
CONTINUOUS
 10
-67.3875539867
 20
0.5
 11
-67.3875539867
 21
44.2107526041
  0
LINE
  5
23E
100
AcDbEntity
  8
0
100
AcDbLine
 62
7
  6
CONTINUOUS
 10
-24.2875539867
 20
42.7107526041
 11
-45.8375539867
 21
42.7107526041
  0
LINE
  5
23F
100
AcDbEntity
  8
0
100
AcDbLine
 62
7
  6
CONTINUOUS
 10
-67.3875539867
 20
42.7107526041
 11
-45.8375539867
 21
42.7107526041
  0
INSERT
  5
240
100
AcDbEntity
  8
0
100
AcDbBlockReference
 62
7
  6
CONTINUOUS
  2
_FILLED
 10
-24.2875539867
 20
42.7107526041
 41
3.0
 42
3.0
 43
3.0
  0
INSERT
  5
241
100
AcDbEntity
  8
0
100
AcDbBlockReference
 62
7
  6
CONTINUOUS
  2
_FILLED
 10
-67.3875539867
 20
42.7107526041
 41
3.0
 42
3.0
 43
3.0
 50
180.0
  0
ENDBLK
  5
242
100
AcDbEntity
  8
0
  6
BYBLOCK
 62
0
100
AcDbBlockEnd
  0
ENDSEC
  0
SECTION
  2
ENTITIES
  0
DIMENSION
  5
243
100
AcDbEntity
  8
0
100
AcDbDimension
 62
7
  6
CONTINUOUS
  2
*D0
 10
9.2424550317
 20
32.5416085831
 11
-6.1936955974
 21
32.5416085831
 70
160
 71
2
 72
2
 41
0.9
 42
22.3008726868
  3
DIMSTYLE_1
100
AcDbAlignedDimension
 13
-13.0584176551
 23
21.900016923
 14
9.2424550317
 24
21.900016923
100
AcDbRotatedDimension
  0
DIMENSION
  5
244
100
AcDbEntity
  8
0
100
AcDbDimension
 62
7
  6
CONTINUOUS
  2
*D1
 10
21.3560376359
 20
-24.5
 11
21.3560376359
 21
-2.3571428571
 70
160
 71
2
 72
2
 41
0.9
 42
49.0
  3
DIMSTYLE_1
100
AcDbAlignedDimension
 13
7.9920229191
 23
24.5
 14
7.9920229191
 24
-24.5
 50
270.0
100
AcDbRotatedDimension
  0
DIMENSION
  5
245
100
AcDbEntity
  8
0
100
AcDbDimension
 62
7
  6
CONTINUOUS
  2
*D2
 10
-57.8875539867
 20
32.5269080432
 11
-45.2661254153
 21
32.5269080432
 70
160
 71
2
 72
2
 41
0.9
 42
33.6
  3
DIMSTYLE_1
100
AcDbAlignedDimension
 13
-24.2875539867
 23
4.7228182695
 14
-57.8875539867
 24
24.2456323968
 50
180.0
100
AcDbRotatedDimension
  0
DIMENSION
  5
246
100
AcDbEntity
  8
0
100
AcDbDimension
 62
7
  6
CONTINUOUS
  2
*D3
 10
-67.3875539867
 20
42.7107526041
 11
-49.801839701
 21
42.7107526041
 70
160
 71
2
 72
2
 41
0.9
 42
43.1
  3
DIMSTYLE_1
100
AcDbAlignedDimension
 13
-24.2875539867
 23
4.7228182695
 14
-67.3875539867
 24
0.0
 50
180.0
100
AcDbRotatedDimension
  0
LWPOLYLINE
  5
247
100
AcDbEntity
  8
0
100
AcDbPolyline
 62
7
  6
CONTINUOUS
 90
5
 70
0
 43
0.3500000087
 10
1.0920187005
 20
35.0058942871
 10
1.4491615448
 20
35.2201808197
 10
1.4491615448
 20
35.8630361542
 10
1.0920187005
 20
36.2916092194
 10
0.2348758342
 20
36.2916092194
  0
LWPOLYLINE
  5
248
100
AcDbEntity
  8
0
100
AcDbPolyline
 62
7
  6
CONTINUOUS
 90
32
 70
0
 10
-11.8217670416
 20
-24.4854512088
 10
-11.8304213534
 20
-24.4843619039
 10
-11.842152848
 20
-24.4823909579
 10
-11.8537822832
 20
-24.479862968
 10
-11.8652782489
 20
-24.4767843893
 10
-11.876613014
 20
-24.4731627796
 10
-11.887762626
 20
-24.4690059252
 10
-11.8987020271
 20
-24.4643231516
 10
-11.9094065619
 20
-24.4591249663
 10
-11.9198518154
 20
-24.4534231778
 10
-11.930013891
 20
-24.4472308154
 10
-11.9398696757
 20
-24.4405619782
 10
-11.9493969371
 20
-24.4334317248
 10
-11.9585741504
 20
-24.4258561639
 10
-11.967380542
 20
-24.4178524323
 10
-11.9757961282
 20
-24.4094386807
 10
-11.9838018223
 20
-24.4006339852
 10
-11.9913794789
 20
-24.3914582982
 10
-11.9985119299
 20
-24.381932404
 10
-12.00518301
 20
-24.3720778879
 10
-12.0113776023
 20
-24.3619170757
 10
-12.0170816676
 20
-24.3514729905
 10
-12.0222822752
 20
-24.340769304
 10
-12.0269676395
 20
-24.3298302705
 10
-12.0311271438
 20
-24.3186806742
 10
-12.034751361
 20
-24.3073457817
 10
-12.0378320796
 20
-24.2958512706
 10
-12.0403623166
 20
-24.2842231913
 10
-12.0423363352
 20
-24.2724879116
 10
-12.043749664
 20
-24.2606720293
 10
-12.0445991041
 20
-24.248802311
 10
-12.0448784529
 20
-24.2383600852
  0
LINE
  5
249
100
AcDbEntity
  8
0
100
AcDbLine
 62
250
  6
CONTINUOUS
 10
-9.4210756596
 20
24.4869014213
 11
-9.4203505831
 21
24.4876264978
  0
LWPOLYLINE
  5
24A
100
AcDbEntity
  8
0
100
AcDbPolyline
 62
7
  6
CONTINUOUS
 90
22
 70
0
 10
-3.1079813117
 20
-23.9982478817
 10
-3.0984635428
 20
-23.9980212874
 10
-3.0889673264
 20
-23.9973420164
 10
-3.0795141811
 20
-23.996211606
 10
-3.0701255216
 20
-23.9946326143
 10
-3.0608226295
 20
-23.992608618
 10
-3.0516266036
 20
-23.9901442066
 10
-3.0425582874
 20
-23.9872449671
 10
-3.0336382243
 20
-23.9839174684
 10
-3.024886629
 20
-23.9801692522
 10
-3.0163233307
 20
-23.976008812
 10
-3.0079677351
 20
-23.9714455769
 10
-2.9998387826
 20
-23.9664898927
 10
-2.9919548941
 20
-23.961152992
 10
-2.9843339309
 20
-23.9554469688
 10
-2.9769931614
 20
-23.9493847549
 10
-2.9699492129
 20
-23.9429800842
 10
-2.9632180506
 20
-23.9362474753
 10
-2.95681494
 20
-23.9292022024
 10
-2.9507544033
 20
-23.9218602553
 10
-2.9450501497
 20
-23.9142382532
 10
-2.9397150661
 20
-23.9063534174
  0
LWPOLYLINE
  5
24B
100
AcDbEntity
  8
0
100
AcDbPolyline
 62
7
  6
CONTINUOUS
 90
13
 70
0
 10
-3.1079813117
 20
-24.0
 10
-3.0992573358
 20
-23.9998096367
 10
-3.0905499724
 20
-23.99923891
 10
-3.0818757966
 20
-23.9982889069
 10
-3.0732513207
 20
-23.9969614365
 10
-3.0646929619
 20
-23.9952590264
 10
-3.0562170115
 20
-23.9931849183
 10
-3.0478396041
 20
-23.9907430608
 10
-3.0395766866
 20
-23.9879381028
 10
-3.0314439879
 20
-23.9847753849
 10
-3.0234569891
 20
-23.9812609278
 10
-3.0156308937
 20
-23.9774014221
 10
-3.0079805993
 20
-23.973204216
  0
LINE
  5
24C
100
AcDbEntity
  8
0
100
AcDbLine
 62
7
  6
CONTINUOUS
 10
-11.7948869638
 20
-24.4869014213
 11
-9.4210756596
 21
-24.4869014213
  0
LINE
  5
24D
100
AcDbEntity
  8
0
100
AcDbLine
 62
7
  6
CONTINUOUS
 10
5.6051130362
 20
-24.4869014213
 11
7.9789243404
 21
-24.4869014213
  0
LINE
  5
24E
100
AcDbEntity
  8
0
100
AcDbLine
 62
250
  6
CONTINUOUS
 10
5.355117267
 20
-24.2369056521
 11
8.2289201096
 21
-24.2369056521
  0
LINE
  5
24F
100
AcDbEntity
  8
0
100
AcDbLine
 62
250
  6
CONTINUOUS
 10
-9.1710798904
 20
-24.2369056521
 11
-12.044882733
 21
-24.2369056521
  0
LINE
  5
250
100
AcDbEntity
  8
0
100
AcDbLine
 62
7
  6
CONTINUOUS
 10
-5.4079813117
 20
-23.9982478817
 11
-3.1079813117
 21
-23.9982478817
  0
LINE
  5
251
100
AcDbEntity
  8
0
100
AcDbLine
 62
7
  6
CONTINUOUS
 10
-0.7079813117
 20
-23.9982478817
 11
1.5920186883
 21
-23.9982478817
  0
LINE
  5
252
100
AcDbEntity
  8
0
100
AcDbLine
 62
7
  6
CONTINUOUS
 10
2.5332919436
 20
-23.9912732553
 11
1.5920186883
 21
-23.9912732553
  0
LINE
  5
253
100
AcDbEntity
  8
0
100
AcDbLine
 62
7
  6
CONTINUOUS
 10
-5.4079813117
 20
-23.9912732553
 11
-6.349254567
 21
-23.9912732553
  0
LINE
  5
254
100
AcDbEntity
  8
0
100
AcDbLine
 62
250
  6
CONTINUOUS
 10
5.355117267
 20
-23.8443375673
 11
8.2289201096
 21
-23.8443375673
  0
LINE
  5
255
100
AcDbEntity
  8
0
100
AcDbLine
 62
250
  6
CONTINUOUS
 10
-9.1710798904
 20
-23.8443375673
 11
-12.044882733
 21
-23.8443375673
  0
LWPOLYLINE
  5
256
100
AcDbEntity
  8
0
100
AcDbPolyline
 62
7
  6
CONTINUOUS
 90
37
 70
0
 10
-0.7079813117
 20
-24.0
 10
-0.7167052876
 20
-23.9998096367
 10
-0.725412651
 20
-23.99923891
 10
-0.7340868268
 20
-23.9982889069
 10
-0.7427113027
 20
-23.9969614365
 10
-0.7512696615
 20
-23.9952590264
 10
-0.7597456119
 20
-23.9931849183
 10
-0.7681230193
 20
-23.9907430608
 10
-0.7763859368
 20
-23.9879381028
 10
-0.7845186355
 20
-23.9847753849
 10
-0.7925056343
 20
-23.9812609278
 10
-0.8003317297
 20
-23.9774014221
 10
-0.8079820241
 20
-23.973204216
 10
-0.815441955
 20
-23.9686772994
 10
-0.8226973224
 20
-23.96382929
 10
-0.8297343153
 20
-23.9586694178
 10
-0.8365395388
 20
-23.9532075051
 10
-0.8431000392
 20
-23.9474539493
 10
-0.8494033286
 20
-23.9414197042
 10
-0.8554374088
 20
-23.9351162564
 10
-0.8611907942
 20
-23.928555605
 10
-0.8666525334
 20
-23.92175024
 10
-0.8718122304
 20
-23.9147131159
 10
-0.8766600641
 20
-23.9074576282
 10
-0.8811868072
 20
-23.8999975893
 10
-0.8853838434
 20
-23.8923471996
 10
-0.8892431843
 20
-23.8845210219
 10
-0.8927574843
 20
-23.8765339547
 10
-0.8959200544
 20
-23.8684012014
 10
-0.8987248753
 20
-23.8601382427
 10
-0.9011666088
 20
-23.8517608084
 10
-0.9032406076
 20
-23.8432848447
 10
-0.9049429245
 20
-23.8347264854
 10
-0.90627032
 20
-23.8261020222
 10
-0.9072202677
 20
-23.8174278719
 10
-0.9077909602
 20
-23.8087205449
 10
-0.9079813117
 20
-23.7999966153
  0
LWPOLYLINE
  5
257
100
AcDbEntity
  8
0
100
AcDbPolyline
 62
7
  6
CONTINUOUS
 90
34
 70
0
 10
-11.8079855425
 20
-24.5
 10
-11.8198808277
 20
-24.4997168498
 10
-11.8317491673
 20
-24.4988680342
 10
-11.8435636778
 20
-24.4974554741
 10
-11.8552975992
 20
-24.4954823677
 10
-11.8669243505
 20
-24.4929531817
 10
-11.8784175907
 20
-24.4898736417
 10
-11.8897512855
 20
-24.4862507213
 10
-11.900899761
 20
-24.4820926258
 10
-11.911837758
 20
-24.4774087722
 10
-11.9225404993
 20
-24.4722097688
 10
-11.93298374
 20
-24.4665073916
 10
-11.9431438176
 20
-24.4603145581
 10
-11.9529977168
 20
-24.4536452955
 10
-11.9625231155
 20
-24.4465147107
 10
-11.9716984308
 20
-24.4389389589
 10
-11.9805028778
 20
-24.4309352005
 10
-11.9889165122
 20
-24.4225215661
 10
-11.9969202706
 20
-24.4137171191
 10
-12.0044960224
 20
-24.4045418038
 10
-12.0116266072
 20
-24.3950164051
 10
-12.0182958698
 20
-24.3851625059
 10
-12.0244887033
 20
-24.3750024283
 10
-12.0301910805
 20
-24.3645591876
 10
-12.0353900839
 20
-24.3538564463
 10
-12.0400739375
 20
-24.3429184493
 10
-12.044232033
 20
-24.3317699738
 10
-12.0478549534
 20
-24.320436279
 10
-12.0509344934
 20
-24.3089430388
 10
-12.0534636794
 20
-24.2973162875
 10
-12.0554367858
 20
-24.2855823661
 10
-12.0568493459
 20
-24.2737678556
 10
-12.0576981615
 20
-24.261899516
 10
-12.0579813117
 20
-24.2500042308
  0
LWPOLYLINE
  5
258
100
AcDbEntity
  8
0
100
AcDbPolyline
 62
250
  6
CONTINUOUS
 90
4
 70
0
 10
-11.7948869638
 20
-24.4869014213
 10
-11.8067624353
 20
-24.4866188016
 10
-11.8186161778
 20
-24.4857718998
 10
-11.8217670416
 20
-24.4854512088
  0
LWPOLYLINE
  5
259
100
AcDbEntity
  8
0
100
AcDbPolyline
 62
7
  6
CONTINUOUS
 90
34
 70
0
 10
5.5920144575
 20
-24.5
 10
5.5801191723
 20
-24.4997168498
 10
5.5682508327
 20
-24.4988680342
 10
5.5564363222
 20
-24.4974554741
 10
5.5447024008
 20
-24.4954823677
 10
5.5330756495
 20
-24.4929531817
 10
5.5215824093
 20
-24.4898736417
 10
5.5102487145
 20
-24.4862507213
 10
5.499100239
 20
-24.4820926258
 10
5.488162242
 20
-24.4774087722
 10
5.4774595007
 20
-24.4722097688
 10
5.46701626
 20
-24.4665073916
 10
5.4568561824
 20
-24.4603145581
 10
5.4470022832
 20
-24.4536452955
 10
5.4374768845
 20
-24.4465147107
 10
5.4283015692
 20
-24.4389389589
 10
5.4194971222
 20
-24.4309352005
 10
5.4110834878
 20
-24.4225215661
 10
5.4030797294
 20
-24.4137171191
 10
5.3955039776
 20
-24.4045418038
 10
5.3883733928
 20
-24.3950164051
 10
5.3817041302
 20
-24.3851625059
 10
5.3755112967
 20
-24.3750024283
 10
5.3698089195
 20
-24.3645591876
 10
5.3646099161
 20
-24.3538564463
 10
5.3599260625
 20
-24.3429184493
 10
5.355767967
 20
-24.3317699738
 10
5.3521450466
 20
-24.320436279
 10
5.3490655066
 20
-24.3089430388
 10
5.3465363206
 20
-24.2973162875
 10
5.3445632142
 20
-24.2855823661
 10
5.3431506541
 20
-24.2737678556
 10
5.3423018385
 20
-24.261899516
 10
5.3420186883
 20
-24.2500042308
  0
LWPOLYLINE
  5
25A
100
AcDbEntity
  8
0
100
AcDbPolyline
 62
7
  6
CONTINUOUS
 90
34
 70
0
 10
5.6051130362
 20
-24.4869014213
 10
5.5932180147
 20
-24.4866178705
 10
5.581349938
 20
-24.4857686655
 10
5.5695356901
 20
-24.4843557301
 10
5.5578020329
 20
-24.4823822649
 10
5.5461755457
 20
-24.4798527401
 10
5.534682565
 20
-24.4767728857
 10
5.5233491252
 20
-24.4731496783
 10
5.512200899
 20
-24.4689913253
 10
5.5012631396
 20
-24.4643072462
 10
5.4905606234
 20
-24.4591080515
 10
5.4801175941
 20
-24.4534055187
 10
5.4699577076
 20
-24.4472125651
 10
5.4601039781
 20
-24.4405432193
 10
5.4505787266
 20
-24.4334125887
 10
5.4414035299
 20
-24.4258368259
 10
5.432599172
 20
-24.4178330917
 10
5.4241855966
 20
-24.4094195163
 10
5.4161818624
 20
-24.4006151584
 10
5.4086060996
 20
-24.3914399617
 10
5.401475469
 20
-24.3819147102
 10
5.3948061232
 20
-24.3720609807
 10
5.3886131696
 20
-24.3619010942
 10
5.3829106368
 20
-24.3514580649
 10
5.3777114421
 20
-24.3407555487
 10
5.3730273631
 20
-24.3298177893
 10
5.36886901
 20
-24.3186695631
 10
5.3652458026
 20
-24.3073361233
 10
5.3621659482
 20
-24.2958431426
 10
5.3596364234
 20
-24.2842166554
 10
5.3576629582
 20
-24.2724829982
 10
5.3562500228
 20
-24.2606687503
 10
5.3554008178
 20
-24.2488006736
 10
5.355117267
 20
-24.2369056521
  0
LWPOLYLINE
  5
25B
100
AcDbEntity
  8
0
100
AcDbPolyline
 62
250
  6
CONTINUOUS
 90
12
 70
0
 10
-0.7079813117
 20
-23.9982478817
 10
-0.7174976949
 20
-23.9980213534
 10
-0.7269925204
 20
-23.9973422816
 10
-0.7364442793
 20
-23.9962122046
 10
-0.7458315606
 20
-23.9946336824
 10
-0.7551330988
 20
-23.9926102908
 10
-0.7643278231
 20
-23.9901466136
 10
-0.7733949044
 20
-23.9872482316
 10
-0.7823138028
 20
-23.9839217108
 10
-0.7910643143
 20
-23.9801745867
 10
-0.799626616
 20
-23.9760153477
 10
-0.8079813117
 20
-23.971453416
  0
LINE
  5
25C
100
AcDbEntity
  8
0
100
AcDbLine
 62
250
  6
CONTINUOUS
 10
-8.9683328887
 20
22.3323858467
 11
-8.9652654452
 21
22.3349016357
  0
LWPOLYLINE
  5
25D
100
AcDbEntity
  8
0
100
AcDbPolyline
 62
250
  6
CONTINUOUS
 90
13
 70
0
 10
8.4347345548
 20
-22.3349016357
 10
8.4086344869
 20
-22.3366176328
 10
8.3829808942
 20
-22.3417203858
 10
8.3582125506
 20
-22.3501225942
 10
8.3347530856
 20
-22.3616805241
 10
8.3130037328
 20
-22.3761964702
 10
8.2933364687
 20
-22.3934221415
 10
8.2760876635
 20
-22.4130628984
 10
8.2615523163
 20
-22.4347828014
 10
8.2499790094
 20
-22.4582103666
 10
8.2415656722
 20
-22.4829449
 10
8.2364561905
 20
-22.508563347
 10
8.2347379394
 20
-22.5346275426
  0
LWPOLYLINE
  5
25E
100
AcDbEntity
  8
0
100
AcDbPolyline
 62
250
  6
CONTINUOUS
 90
10
 70
0
 10
5.3477708454
 20
-22.315485478
 10
5.3346162559
 20
-22.3159665914
 10
5.2985616725
 20
-22.3174982593
 10
5.26542776
 20
-22.3192303761
 10
5.2361319017
 20
-22.3211131403
 10
5.210738701
 20
-22.3231511399
 10
5.1891835545
 20
-22.3253397868
 10
5.172190036
 20
-22.3276155164
 10
5.1599993366
 20
-22.3299571403
 10
5.1523702653
 20
-22.3323858467
  0
LWPOLYLINE
  5
25F
100
AcDbEntity
  8
0
100
AcDbPolyline
 62
7
  6
CONTINUOUS
 90
46
 70
0
 10
5.5992952064
 20
-23.1226497308
 10
5.5897734961
 20
-23.122789871
 10
5.5802799162
 20
-23.1231350796
 10
5.5708281083
 20
-23.1236853565
 10
5.5614189606
 20
-23.124445448
 10
5.5520785233
 20
-23.1254106079
 10
5.5428571695
 20
-23.1265665975
 10
5.5337797935
 20
-23.1279138384
 10
5.524844436
 20
-23.129451909
 10
5.5160597157
 20
-23.1311653069
 10
5.5074359738
 20
-23.1330543018
 10
5.498982902
 20
-23.1351186239
 10
5.4907075205
 20
-23.1373419612
 10
5.4826186798
 20
-23.1397244588
 10
5.4747246092
 20
-23.1422659715
 10
5.4670308588
 20
-23.1449497513
 10
5.459544865
 20
-23.1477758427
 10
5.4522734877
 20
-23.1507442011
 10
5.445220968
 20
-23.153837946
 10
5.4383934086
 20
-23.1570570531
 10
5.4317964194
 20
-23.1604015466
 10
5.4254331506
 20
-23.1638546185
 10
5.4193084769
 20
-23.1674162006
 10
5.4134268549
 20
-23.1710863611
 10
5.4077905356
 20
-23.174848497
 10
5.4024032682
 20
-23.1787025133
 10
5.397268444
 20
-23.1826485049
 10
5.392387563
 20
-23.1866701532
 10
5.3877633425
 20
-23.1907673474
 10
5.383398185
 20
-23.1949401982
 10
5.3792929415
 20
-23.19917272
 10
5.3754493787
 20
-23.20346479
 10
5.3718689754
 20
-23.2078165308
 10
5.3685519931
 20
-23.2122123248
 10
5.3654993165
 20
-23.2166520374
 10
5.3627115564
 20
-23.2211358032
 10
5.3601884122
 20
-23.2256484084
 10
5.3579299443
 20
-23.2301897017
 10
5.3559359453
 20
-23.2347598345
 10
5.3542055554
 20
-23.2393440468
 10
5.3527380617
 20
-23.2439421659
 10
5.351532486
 20
-23.2485543646
 10
5.3505874072
 20
-23.2531664013
 10
5.3499013588
 20
-23.2577735289
 10
5.3494726932
 20
-23.2623804945
 10
5.3492994372
 20
-23.2669872981
  0
LWPOLYLINE
  5
260
100
AcDbEntity
  8
0
100
AcDbPolyline
 62
250
  6
CONTINUOUS
 90
16
 70
0
 10
5.5992952064
 20
-22.5111812444
 10
5.5729459826
 20
-22.5113281989
 10
5.546976712
 20
-22.5117167392
 10
5.5216703735
 20
-22.5123468652
 10
5.4973064784
 20
-22.5132322683
 10
5.4741317115
 20
-22.5143592572
 10
5.4523618812
 20
-22.515686758
 10
5.4322382108
 20
-22.5172175255
 10
5.4139453252
 20
-22.5189488049
 10
5.3976090006
 20
-22.5208312576
 10
5.3834049775
 20
-22.5228697113
 10
5.3715046228
 20
-22.5250593384
 10
5.362029511
 20
-22.5273363172
 10
5.3551036643
 20
-22.5296793739
 10
5.3508357719
 20
-22.5321097824
 10
5.3492994372
 20
-22.5346275426
  0
LWPOLYLINE
  5
261
100
AcDbEntity
  8
0
100
AcDbPolyline
 62
250
  6
CONTINUOUS
 90
16
 70
0
 10
-11.8007047936
 20
-22.5111812444
 10
-11.8270540174
 20
-22.5113281989
 10
-11.853023288
 20
-22.5117167392
 10
-11.8783296265
 20
-22.5123468652
 10
-11.9026935216
 20
-22.5132322683
 10
-11.9258682885
 20
-22.5143592572
 10
-11.9476381188
 20
-22.515686758
 10
-11.9677617892
 20
-22.5172175255
 10
-11.9860546748
 20
-22.5189488049
 10
-12.0023909994
 20
-22.5208312576
 10
-12.0165950225
 20
-22.5228697113
 10
-12.0284953772
 20
-22.5250593384
 10
-12.037970489
 20
-22.5273363172
 10
-12.0448963357
 20
-22.5296793739
 10
-12.0491642281
 20
-22.5321097824
 10
-12.0507005628
 20
-22.5346275426
  0
LWPOLYLINE
  5
262
100
AcDbEntity
  8
0
100
AcDbPolyline
 62
7
  6
CONTINUOUS
 90
7
 70
0
 10
5.5992952064
 20
-22.3114553375
 10
5.5509770012
 20
-22.3116033898
 10
5.5043408147
 20
-22.3119929714
 10
5.459386647
 20
-22.3126240824
 10
5.4157016139
 20
-22.3135104162
 10
5.3736985995
 20
-22.3146382793
 10
5.3477708454
 20
-22.315485478
  0
LWPOLYLINE
  5
263
100
AcDbEntity
  8
0
100
AcDbPolyline
 62
7
  6
CONTINUOUS
 90
7
 70
0
 10
-11.8007047936
 20
-22.3114553375
 10
-11.8490229988
 20
-22.3116033898
 10
-11.8956591853
 20
-22.3119929714
 10
-11.940613353
 20
-22.3126240824
 10
-11.9842983861
 20
-22.3135104162
 10
-12.0263014005
 20
-22.3146382793
 10
-12.0522291546
 20
-22.315485478
  0
LINE
  5
264
100
AcDbEntity
  8
0
100
AcDbLine
 62
250
  6
CONTINUOUS
 10
-5.4079813117
 20
-23.7982512664
 11
-2.9079813117
 21
-23.7982512664
  0
LINE
  5
265
100
AcDbEntity
  8
0
100
AcDbLine
 62
250
  6
CONTINUOUS
 10
1.5920186883
 20
-23.7982512664
 11
-0.9079813117
 21
-23.7982512664
  0
LINE
  5
266
100
AcDbEntity
  8
0
100
AcDbLine
 62
250
  6
CONTINUOUS
 10
7.9789243404
 20
-23.6278312164
 11
5.6051130362
 21
-23.6278312164
  0
LINE
  5
267
100
AcDbEntity
  8
0
100
AcDbLine
 62
250
  6
CONTINUOUS
 10
-9.4210756596
 20
-23.6278312164
 11
-11.7948869638
 21
-23.6278312164
  0
LINE
  5
268
100
AcDbEntity
  8
0
100
AcDbLine
 62
7
  6
CONTINUOUS
 10
-11.8007047936
 20
-23.1226497308
 11
-9.4152578298
 21
-23.1226497308
  0
LINE
  5
269
100
AcDbEntity
  8
0
100
AcDbLine
 62
7
  6
CONTINUOUS
 10
7.9847421702
 20
-23.1226497308
 11
5.5992952064
 21
-23.1226497308
  0
LINE
  5
26A
100
AcDbEntity
  8
0
100
AcDbLine
 62
250
  6
CONTINUOUS
 10
7.9847421702
 20
-22.5111812444
 11
5.5992952064
 21
-22.5111812444
  0
LINE
  5
26B
100
AcDbEntity
  8
0
100
AcDbLine
 62
250
  6
CONTINUOUS
 10
-9.4152578298
 20
-22.5111812444
 11
-11.8007047936
 21
-22.5111812444
  0
LINE
  5
26C
100
AcDbEntity
  8
0
100
AcDbLine
 62
7
  6
CONTINUOUS
 10
-12.5584240012
 20
-22.4
 11
-12.2579237998
 21
-22.4
  0
LINE
  5
26D
100
AcDbEntity
  8
0
100
AcDbLine
 62
7
  6
CONTINUOUS
 10
-8.9580388236
 20
-22.4
 11
-6.3579813117
 21
-22.4
  0
LINE
  5
26E
100
AcDbEntity
  8
0
100
AcDbLine
 62
7
  6
CONTINUOUS
 10
2.5420186883
 20
-22.4
 11
5.1420762002
 21
-22.4
  0
LINE
  5
26F
100
AcDbEntity
  8
0
100
AcDbLine
 62
7
  6
CONTINUOUS
 10
-0.9079813117
 20
-22.4
 11
-2.9079813117
 21
-22.4
  0
LINE
  5
270
100
AcDbEntity
  8
0
100
AcDbLine
 62
7
  6
CONTINUOUS
 10
8.4419611764
 20
-22.4
 11
8.7424613778
 21
-22.4
  0
LINE
  5
271
100
AcDbEntity
  8
0
100
AcDbLine
 62
7
  6
CONTINUOUS
 10
-5.4079813117
 20
-22.3737961104
 11
-3.1079813117
 21
-22.3737961104
  0
LINE
  5
272
100
AcDbEntity
  8
0
100
AcDbLine
 62
7
  6
CONTINUOUS
 10
-0.7079813117
 20
-22.3737961104
 11
1.5920186883
 21
-22.3737961104
  0
LINE
  5
273
100
AcDbEntity
  8
0
100
AcDbLine
 62
7
  6
CONTINUOUS
 10
2.5332919436
 20
-22.3213883311
 11
1.5920186883
 21
-22.3213883311
  0
LINE
  5
274
100
AcDbEntity
  8
0
100
AcDbLine
 62
7
  6
CONTINUOUS
 10
-5.4079813117
 20
-22.3213883311
 11
-6.349254567
 21
-22.3213883311
  0
LINE
  5
275
100
AcDbEntity
  8
0
100
AcDbLine
 62
250
  6
CONTINUOUS
 10
7.9847421702
 20
-22.3114553375
 11
5.5992952064
 21
-22.3114553375
  0
LINE
  5
276
100
AcDbEntity
  8
0
100
AcDbLine
 62
250
  6
CONTINUOUS
 10
-9.4152578298
 20
-22.3114553375
 11
-11.8007047936
 21
-22.3114553375
  0
LINE
  5
277
100
AcDbEntity
  8
0
100
AcDbLine
 62
250
  6
CONTINUOUS
 10
8.6283612108
 20
-22.0602279426
 11
-12.4443238342
 21
-22.0602279426
  0
LINE
  5
278
100
AcDbEntity
  8
0
100
AcDbLine
 62
7
  6
CONTINUOUS
 10
-9.3669396237
 20
-22.3116033896
 11
-9.4152578298
 21
-22.3114553375
  0
LINE
  5
279
100
AcDbEntity
  8
0
100
AcDbLine
 62
7
  6
CONTINUOUS
 10
8.0330603763
 20
-22.3116033896
 11
7.9847421702
 21
-22.3114553375
  0
LWPOLYLINE
  5
27A
100
AcDbEntity
  8
0
100
AcDbPolyline
 62
7
  6
CONTINUOUS
 90
40
 70
0
 10
-12.5574891582
 20
-22.4
 10
-12.577502667
 20
-22.3995989119
 10
-12.5975199092
 20
-22.3983931752
 10
-12.6175084353
 20
-22.3963803578
 10
-12.6374533865
 20
-22.3935564624
 10
-12.6573037634
 20
-22.3899231464
 10
-12.6769737903
 20
-22.3854948974
 10
-12.696414035
 20
-22.380286152
 10
-12.7156118241
 20
-22.3743036902
 10
-12.7345383555
 20
-22.3675586046
 10
-12.7531464878
 20
-22.36007091
 10
-12.7714247294
 20
-22.3518484808
 10
-12.7893957436
 20
-22.3428793991
 10
-12.80705927
 20
-22.333155703
 10
-12.8243517971
 20
-22.3227040858
 10
-12.8412017213
 20
-22.3115654086
 10
-12.8575769034
 20
-22.2997623963
 10
-12.8734566069
 20
-22.2873115832
 10
-12.8887929047
 20
-22.2742541204
 10
-12.9035381255
 20
-22.2606393471
 10
-12.9176992184
 20
-22.2464698921
 10
-12.9313076234
 20
-22.2317142956
 10
-12.9443601672
 20
-22.2163658932
 10
-12.9568077486
 20
-22.2004718186
 10
-12.9686101911
 20
-22.1840786325
 10
-12.9797510865
 20
-22.1672060781
 10
-12.9902067871
 20
-22.1498868057
 10
-12.9999357496
 20
-22.1321932748
 10
-13.0089112427
 20
-22.1141884054
 10
-13.0171406363
 20
-22.0958728483
 10
-13.0246347022
 20
-22.0772264828
 10
-13.0313851016
 20
-22.0582621661
 10
-13.0373723535
 20
-22.0390258389
 10
-13.0425858191
 20
-22.019545063
 10
-13.0470186157
 20
-21.9998321985
 10
-13.0506560213
 20
-21.9799370232
 10
-13.0534834924
 20
-21.9599450105
 10
-13.0554991732
 20
-21.9399070889
 10
-13.05670679
 20
-21.9198382917
 10
-13.0571085584
 20
-21.8997711479
  0
LWPOLYLINE
  5
27B
100
AcDbEntity
  8
0
100
AcDbPolyline
 62
7
  6
CONTINUOUS
 90
6
 70
0
 10
-9.1637323919
 20
-22.3154855161
 10
-9.1896612239
 20
-22.3146382794
 10
-9.2316642368
 20
-22.3135104161
 10
-9.275349269
 20
-22.3126240822
 10
-9.3203034367
 20
-22.3119929712
 10
-9.3669396237
 20
-22.3116033896
  0
LWPOLYLINE
  5
27C
100
AcDbEntity
  8
0
100
AcDbPolyline
 62
7
  6
CONTINUOUS
 90
6
 70
0
 10
8.2362676081
 20
-22.3154855161
 10
8.2103387761
 20
-22.3146382794
 10
8.1683357632
 20
-22.3135104161
 10
8.124650731
 20
-22.3126240822
 10
8.0796965633
 20
-22.3119929712
 10
8.0330603763
 20
-22.3116033896
  0
LWPOLYLINE
  5
27D
100
AcDbEntity
  8
0
100
AcDbPolyline
 62
250
  6
CONTINUOUS
 90
13
 70
0
 10
-12.2506971782
 20
-22.3349016357
 10
-12.2245974114
 20
-22.3366175931
 10
-12.198944046
 20
-22.3417202443
 10
-12.1741758483
 20
-22.3501223151
 10
-12.150716445
 20
-22.3616800996
 10
-12.1289670776
 20
-22.3761959173
 10
-12.1092997397
 20
-22.3934214948
 10
-12.0920508147
 20
-22.4130622116
 10
-12.0775153222
 20
-22.4347821399
 10
-12.0659418723
 20
-22.4582097894
 10
-12.0575284133
 20
-22.4829444617
 10
-12.052418846
 20
-22.5085631036
 10
-12.0507005628
 20
-22.5346275426
  0
LWPOLYLINE
  5
27E
100
AcDbEntity
  8
0
100
AcDbPolyline
 62
250
  6
CONTINUOUS
 90
11
 70
0
 10
-8.9652654452
 20
-22.3349016357
 10
-8.9683328835
 20
-22.3323858466
 10
-8.9759619518
 20
-22.3299571401
 10
-8.9881526503
 20
-22.3276155162
 10
-9.0051461711
 20
-22.3253397867
 10
-9.026701322
 20
-22.3231511398
 10
-9.0520945261
 20
-22.3211131404
 10
-9.0813903855
 20
-22.3192303762
 10
-9.1145242982
 20
-22.3174982594
 10
-9.1505788812
 20
-22.3159665915
 10
-9.1637323919
 20
-22.3154855161
  0
LWPOLYLINE
  5
27F
100
AcDbEntity
  8
0
100
AcDbPolyline
 62
7
  6
CONTINUOUS
 90
13
 70
0
 10
-0.815441955
 20
23.9686772994
 10
-0.8226973224
 20
23.96382929
 10
-0.8297343153
 20
23.9586694178
 10
-0.8365395388
 20
23.9532075051
 10
-0.8431000392
 20
23.9474539493
 10
-0.8494033286
 20
23.9414197042
 10
-0.8554374088
 20
23.9351162564
 10
-0.8611907942
 20
23.928555605
 10
-0.8666525334
 20
23.92175024
 10
-0.8718122304
 20
23.9147131159
 10
-0.8766600641
 20
23.9074576282
 10
-0.8811868072
 20
23.8999975893
 10
-0.8857627912
 20
23.8898671026
  0
LWPOLYLINE
  5
280
100
AcDbEntity
  8
0
100
AcDbPolyline
 62
250
  6
CONTINUOUS
 90
13
 70
0
 10
-8.9652654452
 20
-22.3349016357
 10
-8.9913655131
 20
-22.3366176328
 10
-9.0170191058
 20
-22.3417203858
 10
-9.0417874494
 20
-22.3501225942
 10
-9.0652469144
 20
-22.3616805241
 10
-9.0869962672
 20
-22.3761964702
 10
-9.1066635313
 20
-22.3934221415
 10
-9.1239123365
 20
-22.4130628984
 10
-9.1384476837
 20
-22.4347828014
 10
-9.1500209906
 20
-22.4582103666
 10
-9.1584343278
 20
-22.4829449
 10
-9.1635438095
 20
-22.508563347
 10
-9.1652620606
 20
-22.5346275426
  0
LWPOLYLINE
  5
281
100
AcDbEntity
  8
0
100
AcDbPolyline
 62
250
  6
CONTINUOUS
 90
10
 70
0
 10
-12.0522291546
 20
-22.315485478
 10
-12.0653837441
 20
-22.3159665914
 10
-12.1014383275
 20
-22.3174982593
 10
-12.13457224
 20
-22.3192303761
 10
-12.1638680983
 20
-22.3211131403
 10
-12.189261299
 20
-22.3231511399
 10
-12.2108164455
 20
-22.3253397868
 10
-12.227809964
 20
-22.3276155164
 10
-12.2400006634
 20
-22.3299571403
 10
-12.2476297347
 20
-22.3323858467
  0
LINE
  5
282
100
AcDbEntity
  8
0
100
AcDbLine
 62
250
  6
CONTINUOUS
 10
8.6201880225
 20
-21.2107174911
 11
-12.4361506459
 21
-21.2107174911
  0
LWPOLYLINE
  5
283
100
AcDbEntity
  8
0
100
AcDbPolyline
 62
250
  6
CONTINUOUS
 90
13
 70
0
 10
5.1493028218
 20
-22.3349016357
 10
5.1754025886
 20
-22.3366175931
 10
5.201055954
 20
-22.3417202443
 10
5.2258241517
 20
-22.3501223151
 10
5.249283555
 20
-22.3616800996
 10
5.2710329224
 20
-22.3761959173
 10
5.2907002603
 20
-22.3934214948
 10
5.3079491853
 20
-22.4130622116
 10
5.3224846778
 20
-22.4347821399
 10
5.3340581277
 20
-22.4582097894
 10
5.3424715867
 20
-22.4829444617
 10
5.347581154
 20
-22.5085631036
 10
5.3492994372
 20
-22.5346275426
  0
LWPOLYLINE
  5
284
100
AcDbEntity
  8
0
100
AcDbPolyline
 62
250
  6
CONTINUOUS
 90
11
 70
0
 10
-0.815441955
 20
-23.9686772994
 10
-0.8161094752
 20
-23.9664991256
 10
-0.8239926936
 20
-23.9611636997
 10
-0.8316131089
 20
-23.9554592248
 10
-0.8389534585
 20
-23.9493986233
 10
-0.845997114
 20
-23.9429956244
 10
-0.8527281193
 20
-23.936264733
 10
-0.8591312266
 20
-23.9292211967
 10
-0.8651919306
 20
-23.9218809714
 10
-0.8708965021
 20
-23.914260685
 10
-0.8762320183
 20
-23.9063776
  0
LWPOLYLINE
  5
285
100
AcDbEntity
  8
0
100
AcDbPolyline
 62
250
  6
CONTINUOUS
 90
16
 70
0
 10
-9.1652620606
 20
-22.5346275426
 10
-9.1667983953
 20
-22.5321097822
 10
-9.1710662877
 20
-22.5296793735
 10
-9.1779921344
 20
-22.5273363168
 10
-9.1874672462
 20
-22.525059338
 10
-9.1993676009
 20
-22.5228697111
 10
-9.213571624
 20
-22.5208312575
 10
-9.2299079486
 20
-22.5189488052
 10
-9.2482008342
 20
-22.5172175262
 10
-9.2683245047
 20
-22.5156867588
 10
-9.2900943349
 20
-22.5143592575
 10
-9.3132691018
 20
-22.5132322677
 10
-9.3376329968
 20
-22.5123468641
 10
-9.3629393353
 20
-22.5117167381
 10
-9.388908606
 20
-22.5113281982
 10
-9.4152578298
 20
-22.5111812444
  0
LWPOLYLINE
  5
286
100
AcDbEntity
  8
0
100
AcDbPolyline
 62
250
  6
CONTINUOUS
 90
37
 70
0
 10
-12.9360744935
 20
21.1361579495
 10
-12.9352368247
 20
21.1393749592
 10
-12.9334698754
 20
21.142585979
 10
-12.9307769356
 20
21.1457850299
 10
-12.9271630194
 20
21.1489661555
 10
-12.9226348558
 20
21.1521234326
 10
-12.917200876
 20
21.1552509826
 10
-12.910871198
 20
21.1583429819
 10
-12.9036576074
 20
21.1613936735
 10
-12.8955735357
 20
21.164397377
 10
-12.886634035
 20
21.1673484997
 10
-12.8768557504
 20
21.1702415466
 10
-12.8662568888
 20
21.1730711311
 10
-12.8548571848
 20
21.1758319845
 10
-12.8426778642
 20
21.1785189662
 10
-12.8297416046
 20
21.1811270732
 10
-12.8160724927
 20
21.1836514492
 10
-12.80169598
 20
21.1860873941
 10
-12.7866388351
 20
21.188430372
 10
-12.7709290937
 20
21.1906760205
 10
-12.7545960069
 20
21.1928201583
 10
-12.7376699863
 20
21.1948587931
 10
-12.7201825474
 20
21.1967881289
 10
-12.7021662514
 20
21.1986045735
 10
-12.6836546439
 20
21.2003047446
 10
-12.6646821929
 20
21.2018854767
 10
-12.6452842243
 20
21.2033438265
 10
-12.6254968565
 20
21.2046770785
 10
-12.6053569328
 20
21.2058827503
 10
-12.5849019532
 20
21.206958597
 10
-12.5641700039
 20
21.2079026154
 10
-12.5431996873
 20
21.2087130477
 10
-12.5220300491
 20
21.209388385
 10
-12.5007005066
 20
21.2099273699
 10
-12.4792507746
 20
21.2103289986
 10
-12.4577207916
 20
21.2105925235
 10
-12.4361506459
 20
21.2107174539
  0
LWPOLYLINE
  5
287
100
AcDbEntity
  8
0
100
AcDbPolyline
 62
250
  6
CONTINUOUS
 90
37
 70
0
 10
-12.9360744935
 20
-21.1361579495
 10
-12.935236831
 20
-21.1393749605
 10
-12.9334698877
 20
-21.1425859814
 10
-12.9307769535
 20
-21.1457850337
 10
-12.9271630424
 20
-21.1489661606
 10
-12.9226348836
 20
-21.1521234391
 10
-12.9172009082
 20
-21.1552509904
 10
-12.9108712342
 20
-21.1583429911
 10
-12.9036576471
 20
-21.1613936841
 10
-12.8955735785
 20
-21.164397389
 10
-12.8866340805
 20
-21.167348513
 10
-12.8768557982
 20
-21.1702415614
 10
-12.8662569385
 20
-21.1730711472
 10
-12.854857236
 20
-21.175832002
 10
-12.8426779165
 20
-21.1785189851
 10
-12.8297416576
 20
-21.1811270934
 10
-12.816072546
 20
-21.1836514708
 10
-12.8016960333
 20
-21.1860874169
 10
-12.7866388878
 20
-21.1884303961
 10
-12.7709291457
 20
-21.1906760458
 10
-12.7545960577
 20
-21.1928201848
 10
-12.7376700356
 20
-21.1948588206
 10
-12.720182595
 20
-21.1967881575
 10
-12.7021662969
 20
-21.1986046031
 10
-12.683654687
 20
-21.2003047752
 10
-12.6646822334
 20
-21.2018855082
 10
-12.6452842619
 20
-21.2033438588
 10
-12.625496891
 20
-21.2046771116
 10
-12.6053569641
 20
-21.2058827841
 10
-12.5849019809
 20
-21.2069586315
 10
-12.564170028
 20
-21.2079026504
 10
-12.5431997076
 20
-21.2087130833
 10
-12.5220300655
 20
-21.209388421
 10
-12.500700519
 20
-21.2099274062
 10
-12.4792507829
 20
-21.2103290352
 10
-12.4577207958
 20
-21.2105925603
 10
-12.4361506459
 20
-21.2107174908
  0
LINE
  5
288
100
AcDbEntity
  8
0
100
AcDbLine
 62
7
  6
CONTINUOUS
 10
-13.0920186883
 20
-18.1473460386
 11
-13.0579813117
 21
-18.491183651
  0
LINE
  5
289
100
AcDbEntity
  8
0
100
AcDbLine
 62
7
  6
CONTINUOUS
 10
-13.0920186883
 20
18.1473460386
 11
-13.0579813117
 21
18.491183651
  0
LWPOLYLINE
  5
28A
100
AcDbEntity
  8
0
100
AcDbPolyline
 62
250
  6
CONTINUOUS
 90
40
 70
0
 10
-12.9442478933
 20
-21.5609138104
 10
-12.9438245532
 20
-21.5810075147
 10
-12.9425919633
 20
-21.6010686638
 10
-12.9405521204
 20
-21.6210647565
 10
-12.9377083294
 20
-21.6409633967
 10
-12.9340651973
 20
-21.6607323463
 10
-12.9296286264
 20
-21.6803395772
 10
-12.9244058044
 20
-21.6997533234
 10
-12.9184051928
 20
-21.7189421323
 10
-12.9116365133
 20
-21.7378749158
 10
-12.9041107318
 20
-21.7565210006
 10
-12.8958400409
 20
-21.7748501777
 10
-12.8868378402
 20
-21.7928327518
 10
-12.877118714
 20
-21.8104395888
 10
-12.8666984086
 20
-21.8276421636
 10
-12.8555938061
 20
-21.8444126059
 10
-12.8438228972
 20
-21.8607237455
 10
-12.8314047522
 20
-21.8765491563
 10
-12.8183594901
 20
-21.8918631993
 10
-12.8047082457
 20
-21.9066410637
 10
-12.7904731356
 20
-21.9208588077
 10
-12.7756772226
 20
-21.9344933968
 10
-12.7603444778
 20
-21.9475227413
 10
-12.744499742
 20
-21.9599257321
 10
-12.7281686855
 20
-21.9716822751
 10
-12.7113777667
 20
-21.9827733232
 10
-12.6941541887
 20
-21.9931809075
 10
-12.6765258559
 20
-22.0028881666
 10
-12.6585213282
 20
-22.0118793736
 10
-12.6401697751
 20
-22.0201399616
 10
-12.6215009283
 20
-22.0276565476
 10
-12.6025450335
 20
-22.0344169538
 10
-12.5833328015
 20
-22.0404102275
 10
-12.5638953585
 20
-22.0456266589
 10
-12.5442641953
 20
-22.0500577969
 10
-12.5244711168
 20
-22.0536964623
 10
-12.5045481902
 20
-22.0565367603
 10
-12.4845276929
 20
-22.0585740891
 10
-12.4644420606
 20
-22.0598051481
 10
-12.4443238342
 20
-22.0602279426
  0
LINE
  5
28B
100
AcDbEntity
  8
0
100
AcDbLine
 62
250
  6
CONTINUOUS
 10
-12.9363998224
 20
21.2153526486
 11
-12.9372219339
 21
21.3189689649
  0
LINE
  5
28C
100
AcDbEntity
  8
0
100
AcDbLine
 62
7
  6
CONTINUOUS
 10
-13.0920186883
 20
-18.1473460386
 11
-13.0920186883
 21
18.1473460386
  0
LINE
  5
28D
100
AcDbEntity
  8
0
100
AcDbLine
 62
7
  6
CONTINUOUS
 10
-13.0584176551
 20
21.900016923
 11
-13.0584176551
 21
18.5
  0
LINE
  5
28E
100
AcDbEntity
  8
0
100
AcDbLine
 62
7
  6
CONTINUOUS
 10
-13.0584176551
 20
-21.900016923
 11
-13.0584176551
 21
-18.5
  0
LINE
  5
28F
100
AcDbEntity
  8
0
100
AcDbLine
 62
250
  6
CONTINUOUS
 10
-12.9288961253
 20
-18.0447671448
 11
-12.9363998224
 21
21.2153526486
  0
LINE
  5
290
100
AcDbEntity
  8
0
100
AcDbLine
 62
250
  6
CONTINUOUS
 10
-12.936491859
 20
-21.2308047356
 11
-12.9288961253
 21
-18.0447671448
  0
LINE
  5
291
100
AcDbEntity
  8
0
100
AcDbLine
 62
250
  6
CONTINUOUS
 10
-12.937222237
 20
-21.3189977965
 11
-12.936491859
 21
-21.2308047356
  0
LWPOLYLINE
  5
292
100
AcDbEntity
  8
0
100
AcDbPolyline
 62
7
  6
CONTINUOUS
 90
40
 70
0
 10
-13.0571085584
 20
21.8997711479
 10
-13.05670679
 20
21.9198382916
 10
-13.0554991732
 20
21.9399070889
 10
-13.0534834924
 20
21.9599450105
 10
-13.0506560213
 20
21.9799370232
 10
-13.0470186157
 20
21.9998321984
 10
-13.0425858191
 20
22.019545063
 10
-13.0373723535
 20
22.0390258388
 10
-13.0313851017
 20
22.058262166
 10
-13.0246347022
 20
22.0772264828
 10
-13.0171406363
 20
22.0958728482
 10
-13.0089112428
 20
22.1141884053
 10
-12.9999357497
 20
22.1321932747
 10
-12.9902067871
 20
22.1498868057
 10
-12.9797510865
 20
22.167206078
 10
-12.9686101912
 20
22.1840786325
 10
-12.9568077486
 20
22.2004718186
 10
-12.9443601673
 20
22.2163658932
 10
-12.9313076234
 20
22.2317142955
 10
-12.9176992184
 20
22.246469892
 10
-12.9035381256
 20
22.2606393471
 10
-12.8887929048
 20
22.2742541203
 10
-12.873456607
 20
22.2873115831
 10
-12.8575769035
 20
22.2997623962
 10
-12.8412017214
 20
22.3115654085
 10
-12.8243517972
 20
22.3227040857
 10
-12.8070592702
 20
22.3331557029
 10
-12.7893957437
 20
22.3428793991
 10
-12.7714247295
 20
22.3518484807
 10
-12.7531464879
 20
22.3600709099
 10
-12.7345383557
 20
22.3675586046
 10
-12.7156118243
 20
22.3743036902
 10
-12.6964140352
 20
22.380286152
 10
-12.6769737905
 20
22.3854948973
 10
-12.6573037636
 20
22.3899231464
 10
-12.6374533867
 20
22.3935564624
 10
-12.6175084355
 20
22.3963803578
 10
-12.5975199094
 20
22.3983931752
 10
-12.5775026671
 20
22.3995989119
 10
-12.5574891582
 20
22.4
  0
LWPOLYLINE
  5
293
100
AcDbEntity
  8
0
100
AcDbPolyline
 62
250
  6
CONTINUOUS
 90
40
 70
0
 10
-12.9442476818
 20
21.5609131753
 10
-12.9438243382
 20
21.5810068776
 10
-12.9425917448
 20
21.6010680257
 10
-12.9405518985
 20
21.6210641183
 10
-12.9377081041
 20
21.6409627592
 10
-12.934064969
 20
21.6607317103
 10
-12.9296283953
 20
21.6803389436
 10
-12.9244055709
 20
21.6997526931
 10
-12.9184049574
 20
21.7189415061
 10
-12.9116362765
 20
21.7378742946
 10
-12.9041104942
 20
21.7565203852
 10
-12.8958398032
 20
21.7748495689
 10
-12.886837603
 20
21.7928321505
 10
-12.8771184782
 20
21.8104389959
 10
-12.866698175
 20
21.82764158
 10
-12.8555935754
 20
21.8444120325
 10
-12.8438226703
 20
21.8607231835
 10
-12.8314045299
 20
21.8765486068
 10
-12.818359273
 20
21.8918626634
 10
-12.8047080345
 20
21.9066405428
 10
-12.790472931
 20
21.9208583029
 10
-12.7756770252
 20
21.9344929095
 10
-12.760344288
 20
21.9475222727
 10
-12.7444995603
 20
21.9599252836
 10
-12.7281685125
 20
21.9716818477
 10
-12.7113776028
 20
21.982772918
 10
-12.6941540344
 20
21.9931805257
 10
-12.6765257116
 20
22.0028878092
 10
-12.6585211944
 20
22.0118790416
 10
-12.6401696521
 20
22.020139656
 10
-12.6215008164
 20
22.0276562693
 10
-12.6025449331
 20
22.0344167037
 10
-12.5833327129
 20
22.0404100063
 10
-12.563895282
 20
22.0456264675
 10
-12.5442641311
 20
22.0500576359
 10
-12.5244710652
 20
22.0536963325
 10
-12.5045481513
 20
22.0565366621
 10
-12.4845276668
 20
22.0585740232
 10
-12.4644420475
 20
22.0598051148
 10
-12.4443238342
 20
22.0602279426
  0
LWPOLYLINE
  5
294
100
AcDbEntity
  8
0
100
AcDbPolyline
 62
250
  6
CONTINUOUS
 90
10
 70
0
 10
-12.9188896089
 20
9.4905
 10
-12.9180479657
 20
9.490909846
 10
-12.9162772786
 20
9.4913189291
 10
-12.9135808439
 20
9.4917264877
 10
-12.9099636809
 20
9.4921317633
 10
-12.9054325229
 20
9.4925340013
 10
-12.8999958048
 20
9.492932453
 10
-12.8936636471
 20
9.4933263766
 10
-12.886447837
 20
9.493715039
 10
-12.8783618069
 20
9.4940977165
  0
LWPOLYLINE
  5
295
100
AcDbEntity
  8
0
100
AcDbPolyline
 62
250
  6
CONTINUOUS
 90
11
 70
0
 10
-12.9188896089
 20
-9.4905
 10
-12.9180479658
 20
-9.490909846
 10
-12.9162772788
 20
-9.4913189291
 10
-12.9135808441
 20
-9.4917264877
 10
-12.9099636812
 20
-9.4921317633
 10
-12.9054325233
 20
-9.4925340013
 10
-12.8999958053
 20
-9.492932453
 10
-12.8936636476
 20
-9.4933263766
 10
-12.8864478376
 20
-9.493715039
 10
-12.8783618075
 20
-9.4940977165
 10
-12.8596408878
 20
-9.4948422803
  0
LWPOLYLINE
  5
296
100
AcDbEntity
  8
0
100
AcDbPolyline
 62
250
  6
CONTINUOUS
 90
10
 70
0
 10
-12.941747561
 20
21.5320276846
 10
-12.9420166281
 20
21.5372955399
 10
-12.9422888342
 20
21.5420640567
 10
-12.9425633109
 20
21.5463180499
 10
-12.9428400807
 20
21.5500559198
 10
-12.9431191211
 20
21.5532792661
 10
-12.943399495
 20
21.5559777033
 10
-12.9436808903
 20
21.5581477697
 10
-12.9439636192
 20
21.559792927
 10
-12.9442476818
 20
21.5609131753
  0
LINE
  5
297
100
AcDbEntity
  8
0
100
AcDbLine
 62
7
  6
CONTINUOUS
 10
-13.0579813117
 20
18.491183651
 11
-13.0584176551
 21
18.5
  0
LINE
  5
298
100
AcDbEntity
  8
0
100
AcDbLine
 62
250
  6
CONTINUOUS
 10
-12.9412188667
 20
21.5199907999
 11
-12.941747561
 21
21.5320276846
  0
LWPOLYLINE
  5
299
100
AcDbEntity
  8
0
100
AcDbPolyline
 62
7
  6
CONTINUOUS
 90
46
 70
0
 10
-12.0507005628
 20
23.2669872981
 10
-12.0505283115
 20
23.2624086438
 10
-12.0501022357
 20
23.2578133363
 10
-12.0494200181
 20
23.2532084873
 10
-12.0484796168
 20
23.2486040164
 10
-12.0472792502
 20
23.2440046301
 10
-12.0458173112
 20
23.2394098269
 10
-12.0440925105
 20
23.2348274049
 10
-12.0421038263
 20
23.2302649474
 10
-12.0398503061
 20
23.2257218339
 10
-12.0373314758
 20
23.2212061961
 10
-12.0345471374
 20
23.2167259548
 10
-12.031497002
 20
23.2122803754
 10
-12.0281814695
 20
23.2078778818
 10
-12.02460122
 20
23.2035266855
 10
-12.0207566313
 20
23.1992259418
 10
-12.0166490232
 20
23.1949843084
 10
-12.0122800201
 20
23.190810255
 10
-12.0076507086
 20
23.1867028731
 10
-12.0027633906
 20
23.1826710024
 10
-11.9976207023
 20
23.1787233192
 10
-11.9922245031
 20
23.174858895
 10
-11.986578142
 20
23.1710866868
 10
-11.9806853456
 20
23.1674155212
 10
-11.9745488484
 20
23.1638445008
 10
-11.9681731181
 20
23.1603826202
 10
-11.961563059
 20
23.1570387866
 10
-11.9547224219
 20
23.1538121858
 10
-11.9476568724
 20
23.1507117507
 10
-11.940372584
 20
23.1477463786
 10
-11.9328744986
 20
23.1449153837
 10
-11.9251695647
 20
23.1422275134
 10
-11.9172653116
 20
23.139691538
 10
-11.9091680607
 20
23.1373069291
 10
-11.9008861589
 20
23.1350821053
 10
-11.8924285333
 20
23.1330255505
 10
-11.8838029554
 20
23.1311368767
 10
-11.8750192199
 20
23.1294239958
 10
-11.8660877144
 20
23.1278949421
 10
-11.8570177391
 20
23.1265494608
 10
-11.8478338516
 20
23.1253969981
 10
-11.8385348234
 20
23.1244418396
 10
-11.8290911622
 20
23.123679751
 10
-11.819501191
 20
23.1231181344
 10
-11.8097919705
 20
23.1227714623
 10
-11.7999775648
 20
23.1226497308
  0
LWPOLYLINE
  5
29A
100
AcDbEntity
  8
0
100
AcDbPolyline
 62
250
  6
CONTINUOUS
 90
7
 70
0
 10
-12.4426391708
 20
22.0310281125
 10
-12.4429158865
 20
22.0385084369
 10
-12.4431948658
 20
22.0449512541
 10
-12.4434752374
 20
22.0503498153
 10
-12.4437567108
 20
22.0546983775
 10
-12.4440395764
 20
22.0579922626
 10
-12.4443238342
 20
22.0602279426
  0
LINE
  5
29B
100
AcDbEntity
  8
0
100
AcDbLine
 62
250
  6
CONTINUOUS
 10
-12.9407052462
 20
21.5060148076
 11
-12.9412188667
 21
21.5199907999
  0
LWPOLYLINE
  5
29C
100
AcDbEntity
  8
0
100
AcDbPolyline
 62
250
  6
CONTINUOUS
 90
34
 70
0
 10
-12.044882733
 20
23.8443375673
 10
-12.0445660823
 20
23.8340547998
 10
-12.0436859205
 20
23.8237952398
 10
-12.0422442342
 20
23.8135820427
 10
-12.0402442772
 20
23.803438259
 10
-12.0376905631
 20
23.7933867826
 10
-12.0345888558
 20
23.7834502991
 10
-12.0309461553
 20
23.7736512346
 10
-12.0267706833
 20
23.764011705
 10
-12.0220718634
 20
23.7545534661
 10
-12.0168603006
 20
23.7452978646
 10
-12.011147757
 20
23.7362657898
 10
-12.0049471257
 20
23.7274776267
 10
-11.9982724009
 20
23.7189532096
 10
-11.9911386473
 20
23.7107117775
 10
-11.9835619651
 20
23.702771931
 10
-11.9755594547
 20
23.6951515897
 10
-11.9671491771
 20
23.6878679524
 10
-11.9583501139
 20
23.6809374578
 10
-11.949182124
 20
23.6743757476
 10
-11.939665899
 20
23.6681976311
 10
-11.9298229165
 20
23.6624170521
 10
-11.9196753916
 20
23.6570470569
 10
-11.9092462265
 20
23.6520997654
 10
-11.8985589593
 20
23.6475863432
 10
-11.8876377106
 20
23.6435169769
 10
-11.8765071289
 20
23.6399008509
 10
-11.8651923353
 20
23.6367461264
 10
-11.8537188667
 20
23.6340599235
 10
-11.8421126179
 20
23.6318483049
 10
-11.8303997836
 20
23.630116262
 10
-11.8186067989
 20
23.6288677039
 10
-11.80676028
 20
23.6281054486
 10
-11.7948869638
 20
23.6278312164
  0
LINE
  5
29D
100
AcDbEntity
  8
0
100
AcDbLine
 62
250
  6
CONTINUOUS
 10
-12.9402083324
 20
21.4901441316
 11
-12.9407052462
 21
21.5060148076
  0
LINE
  5
29E
100
AcDbEntity
  8
0
100
AcDbLine
 62
250
  6
CONTINUOUS
 10
-12.4420925258
 20
22.012987569
 11
-12.4426391708
 21
22.0310281125
  0
LINE
  5
29F
100
AcDbEntity
  8
0
100
AcDbLine
 62
250
  6
CONTINUOUS
 10
-12.9394995486
 20
21.4629507581
 11
-12.9402083324
 21
21.4901441316
  0
LINE
  5
2A0
100
AcDbEntity
  8
0
100
AcDbLine
 62
250
  6
CONTINUOUS
 10
-12.4415575877
 20
21.990906599
 11
-12.4420925258
 21
22.012987569
  0
LINE
  5
2A1
100
AcDbEntity
  8
0
100
AcDbLine
 62
250
  6
CONTINUOUS
 10
-12.9386330477
 20
21.4207826821
 11
-12.9394995486
 21
21.4629507581
  0
LINE
  5
2A2
100
AcDbEntity
  8
0
100
AcDbLine
 62
250
  6
CONTINUOUS
 10
-12.4407812742
 20
21.9504193023
 11
-12.4415575877
 21
21.990906599
  0
LINE
  5
2A3
100
AcDbEntity
  8
0
100
AcDbLine
 62
250
  6
CONTINUOUS
 10
-12.9376962233
 20
21.3595868432
 11
-12.9386330477
 21
21.4207826821
  0
LINE
  5
2A4
100
AcDbEntity
  8
0
100
AcDbLine
 62
250
  6
CONTINUOUS
 10
-12.4395756983
 20
21.8643030031
 11
-12.4407812742
 21
21.9504193023
  0
LINE
  5
2A5
100
AcDbEntity
  8
0
100
AcDbLine
 62
250
  6
CONTINUOUS
 10
-12.9372219339
 20
21.3189689649
 11
-12.9376962233
 21
21.3595868432
  0
LINE
  5
2A6
100
AcDbEntity
  8
0
100
AcDbLine
 62
250
  6
CONTINUOUS
 10
-12.044882733
 20
-23.8443375673
 11
-12.0507005628
 21
-23.2669872981
  0
LINE
  5
2A7
100
AcDbEntity
  8
0
100
AcDbLine
 62
250
  6
CONTINUOUS
 10
-11.7948869638
 20
-23.6278312164
 11
-11.7999775648
 21
-23.1226497308
  0
LINE
  5
2A8
100
AcDbEntity
  8
0
100
AcDbLine
 62
250
  6
CONTINUOUS
 10
-12.4379456724
 20
21.6834464647
 11
-12.4395756983
 21
21.8643030031
  0
LINE
  5
2A9
100
AcDbEntity
  8
0
100
AcDbLine
 62
250
  6
CONTINUOUS
 10
-12.0448784529
 20
-24.2383600852
 11
-12.044882733
 21
-24.2369056521
  0
LINE
  5
2AA
100
AcDbEntity
  8
0
100
AcDbLine
 62
250
  6
CONTINUOUS
 10
-12.4363188893
 20
21.3065254633
 11
-12.4379456724
 21
21.6834464647
  0
LINE
  5
2AB
100
AcDbEntity
  8
0
100
AcDbLine
 62
250
  6
CONTINUOUS
 10
-12.4189657613
 20
9.5
 11
-12.4363188893
 21
21.3065254633
  0
LINE
  5
2AC
100
AcDbEntity
  8
0
100
AcDbLine
 62
7
  6
CONTINUOUS
 10
-12.0579813117
 20
-23.2669872981
 11
-12.0579813117
 21
-23.8443375673
  0
LINE
  5
2AD
100
AcDbEntity
  8
0
100
AcDbLine
 62
7
  6
CONTINUOUS
 10
-12.0579813117
 20
23.2669872981
 11
-12.0579813117
 21
23.8443375673
  0
LINE
  5
2AE
100
AcDbEntity
  8
0
100
AcDbLine
 62
7
  6
CONTINUOUS
 10
-12.0507005628
 20
23.2669872981
 11
-12.0507005628
 21
22.5346275426
  0
LINE
  5
2AF
100
AcDbEntity
  8
0
100
AcDbLine
 62
7
  6
CONTINUOUS
 10
-12.0507005628
 20
-22.5346275426
 11
-12.0507005628
 21
-23.2669872981
  0
LINE
  5
2B0
100
AcDbEntity
  8
0
100
AcDbLine
 62
7
  6
CONTINUOUS
 10
-12.044882733
 20
24.2369056521
 11
-12.044882733
 21
23.8443375673
  0
LINE
  5
2B1
100
AcDbEntity
  8
0
100
AcDbLine
 62
7
  6
CONTINUOUS
 10
-12.044882733
 20
-23.8443375673
 11
-12.044882733
 21
-24.2369056521
  0
LINE
  5
2B2
100
AcDbEntity
  8
0
100
AcDbLine
 62
250
  6
CONTINUOUS
 10
-11.8007047936
 20
-22.3114553375
 11
-11.8007047936
 21
-23.1226497308
  0
LINE
  5
2B3
100
AcDbEntity
  8
0
100
AcDbLine
 62
250
  6
CONTINUOUS
 10
-11.8007047936
 20
22.3114553375
 11
-11.8007047936
 21
23.1226497308
  0
LINE
  5
2B4
100
AcDbEntity
  8
0
100
AcDbLine
 62
250
  6
CONTINUOUS
 10
-11.7948869638
 20
-23.6278312164
 11
-11.7948869638
 21
-24.4869014213
  0
LINE
  5
2B5
100
AcDbEntity
  8
0
100
AcDbLine
 62
250
  6
CONTINUOUS
 10
-11.7948869638
 20
23.6278312164
 11
-11.7948869638
 21
24.4869014213
  0
LINE
  5
2B6
100
AcDbEntity
  8
0
100
AcDbLine
 62
250
  6
CONTINUOUS
 10
-12.4189657613
 20
-9.5
 11
-12.4189657613
 21
9.5
  0
LINE
  5
2B7
100
AcDbEntity
  8
0
100
AcDbLine
 62
250
  6
CONTINUOUS
 10
-12.4374485576
 20
-21.6040336742
 11
-12.4189657613
 21
-9.5
  0
LINE
  5
2B8
100
AcDbEntity
  8
0
100
AcDbLine
 62
250
  6
CONTINUOUS
 10
-12.4391303885
 20
-21.8237547188
 11
-12.4374485576
 21
-21.6040336742
  0
LINE
  5
2B9
100
AcDbEntity
  8
0
100
AcDbLine
 62
250
  6
CONTINUOUS
 10
-12.0507005628
 20
23.2669872981
 11
-12.044882733
 21
23.8443375673
  0
LINE
  5
2BA
100
AcDbEntity
  8
0
100
AcDbLine
 62
250
  6
CONTINUOUS
 10
-11.7999775648
 20
23.1226497308
 11
-11.7948869638
 21
23.6278312164
  0
LINE
  5
2BB
100
AcDbEntity
  8
0
100
AcDbLine
 62
250
  6
CONTINUOUS
 10
-12.4402844303
 20
-21.9186840982
 11
-12.4391303885
 21
-21.8237547188
  0
LINE
  5
2BC
100
AcDbEntity
  8
0
100
AcDbLine
 62
250
  6
CONTINUOUS
 10
-12.9380503065
 20
-21.3851319815
 11
-12.937222237
 21
-21.3189977965
  0
LINE
  5
2BD
100
AcDbEntity
  8
0
100
AcDbLine
 62
250
  6
CONTINUOUS
 10
-12.9388407605
 20
-21.4319372256
 11
-12.9380503065
 21
-21.3851319815
  0
LINE
  5
2BE
100
AcDbEntity
  8
0
100
AcDbLine
 62
250
  6
CONTINUOUS
 10
-12.4412948634
 20
-21.9783796779
 11
-12.4402844303
 21
-21.9186840982
  0
LINE
  5
2BF
100
AcDbEntity
  8
0
100
AcDbLine
 62
250
  6
CONTINUOUS
 10
-12.9394997521
 20
-21.462959416
 11
-12.9388407605
 21
-21.4319372256
  0
LINE
  5
2C0
100
AcDbEntity
  8
0
100
AcDbLine
 62
250
  6
CONTINUOUS
 10
-12.4418235033
 20
-22.0024467109
 11
-12.4412948634
 21
-21.9783796779
  0
LWPOLYLINE
  5
2C1
100
AcDbEntity
  8
0
100
AcDbPolyline
 62
7
  6
CONTINUOUS
 90
34
 70
0
 10
-12.0579813117
 20
24.2500042308
 10
-12.0576981615
 20
24.261899516
 10
-12.0568493459
 20
24.2737678556
 10
-12.0554367858
 20
24.2855823661
 10
-12.0534636794
 20
24.2973162875
 10
-12.0509344934
 20
24.3089430388
 10
-12.0478549534
 20
24.320436279
 10
-12.044232033
 20
24.3317699738
 10
-12.0400739375
 20
24.3429184493
 10
-12.0353900839
 20
24.3538564463
 10
-12.0301910805
 20
24.3645591876
 10
-12.0244887033
 20
24.3750024283
 10
-12.0182958698
 20
24.3851625059
 10
-12.0116266072
 20
24.3950164051
 10
-12.0044960224
 20
24.4045418038
 10
-11.9969202706
 20
24.4137171191
 10
-11.9889165122
 20
24.4225215661
 10
-11.9805028778
 20
24.4309352005
 10
-11.9716984308
 20
24.4389389589
 10
-11.9625231155
 20
24.4465147107
 10
-11.9529977168
 20
24.4536452955
 10
-11.9431438176
 20
24.4603145581
 10
-11.93298374
 20
24.4665073916
 10
-11.9225404993
 20
24.4722097688
 10
-11.911837758
 20
24.4774087722
 10
-11.900899761
 20
24.4820926258
 10
-11.8897512855
 20
24.4862507213
 10
-11.8784175907
 20
24.4898736417
 10
-11.8669243505
 20
24.4929531817
 10
-11.8552975992
 20
24.4954823677
 10
-11.8435636778
 20
24.4974554741
 10
-11.8317491673
 20
24.4988680342
 10
-11.8198808277
 20
24.4997168498
 10
-11.8079855425
 20
24.5
  0
LWPOLYLINE
  5
2C2
100
AcDbEntity
  8
0
100
AcDbPolyline
 62
7
  6
CONTINUOUS
 90
32
 70
0
 10
-12.044882733
 20
24.2369056521
 10
-12.0445991041
 20
24.248802311
 10
-12.043749664
 20
24.2606720293
 10
-12.0423363352
 20
24.2724879116
 10
-12.0403623166
 20
24.2842231913
 10
-12.0378320796
 20
24.2958512706
 10
-12.034751361
 20
24.3073457817
 10
-12.0311271438
 20
24.3186806742
 10
-12.0269676395
 20
24.3298302705
 10
-12.0222822752
 20
24.340769304
 10
-12.0170816676
 20
24.3514729905
 10
-12.0113776023
 20
24.3619170757
 10
-12.00518301
 20
24.3720778879
 10
-11.9985119299
 20
24.381932404
 10
-11.9913794789
 20
24.3914582982
 10
-11.9838018223
 20
24.4006339852
 10
-11.9757961282
 20
24.4094386807
 10
-11.967380542
 20
24.4178524323
 10
-11.9585741504
 20
24.4258561639
 10
-11.9493969371
 20
24.4334317248
 10
-11.9398696757
 20
24.4405619782
 10
-11.930013891
 20
24.4472308154
 10
-11.9198518154
 20
24.4534231778
 10
-11.9094065619
 20
24.4591249663
 10
-11.8987020271
 20
24.4643231516
 10
-11.887762626
 20
24.4690059252
 10
-11.876613014
 20
24.4731627796
 10
-11.8652782489
 20
24.4767843893
 10
-11.8537822832
 20
24.479862968
 10
-11.842152848
 20
24.4823909579
 10
-11.8304213534
 20
24.4843619039
 10
-11.8217670416
 20
24.4854512088
  0
LINE
  5
2C3
100
AcDbEntity
  8
0
100
AcDbLine
 62
250
  6
CONTINUOUS
 10
-12.9402084534
 20
-21.4901482648
 11
-12.9394997521
 21
-21.462959416
  0
LWPOLYLINE
  5
2C4
100
AcDbEntity
  8
0
100
AcDbPolyline
 62
250
  6
CONTINUOUS
 90
34
 70
0
 10
-12.044882733
 20
-23.8443375673
 10
-12.0445666058
 20
-23.8340637895
 10
-12.0436876935
 20
-23.8238108791
 10
-12.042247602
 20
-23.8136019692
 10
-12.040249036
 20
-23.8034593699
 10
-12.0376962202
 20
-23.7934067803
 10
-12.0345953001
 20
-23.7834691596
 10
-12.030953592
 20
-23.7736697274
 10
-12.0267790866
 20
-23.7640297916
 10
-12.022081106
 20
-23.7545709211
 10
-12.0168701495
 20
-23.7453143541
 10
-12.0111580083
 20
-23.7362811256
 10
-12.0049576761
 20
-23.7274918143
 10
-11.9982832001
 20
-23.7189663226
 10
-11.9911496022
 20
-23.7107238287
 10
-11.9835729682
 20
-23.7027829214
 10
-11.975570386
 20
-23.6951615168
 10
-11.9671599277
 20
-23.6878768325
 10
-11.9583605953
 20
-23.6809453292
 10
-11.9491922584
 20
-23.6743826581
 10
-11.9396756066
 20
-23.6682036281
 10
-11.9298321215
 20
-23.6624221869
 10
-11.9196840228
 20
-23.6570513849
 10
-11.9092542179
 20
-23.6521033459
 10
-11.8985662505
 20
-23.6475892394
 10
-11.8876442339
 20
-23.6435192505
 10
-11.8765128347
 20
-23.6399025721
 10
-11.8651972203
 20
-23.6367473785
 10
-11.8537229624
 20
-23.6340607927
 10
-11.8421159367
 20
-23.6318488662
 10
-11.830402303
 20
-23.6301165815
 10
-11.8186084881
 20
-23.6288678476
 10
-11.8067611275
 20
-23.6281054856
 10
-11.7948869638
 20
-23.6278312164
  0
LINE
  5
2C5
100
AcDbEntity
  8
0
100
AcDbLine
 62
250
  6
CONTINUOUS
 10
-12.9407053095
 20
-21.5060166319
 11
-12.9402084534
 21
-21.4901482648
  0
LWPOLYLINE
  5
2C6
100
AcDbEntity
  8
0
100
AcDbPolyline
 62
7
  6
CONTINUOUS
 90
46
 70
0
 10
-12.0507005628
 20
-23.2669872981
 10
-12.0505283115
 20
-23.2624086438
 10
-12.0501022357
 20
-23.2578133363
 10
-12.0494200181
 20
-23.2532084873
 10
-12.0484796168
 20
-23.2486040164
 10
-12.0472792502
 20
-23.2440046301
 10
-12.0458173112
 20
-23.2394098269
 10
-12.0440925105
 20
-23.2348274049
 10
-12.0421038263
 20
-23.2302649474
 10
-12.0398503061
 20
-23.2257218339
 10
-12.0373314758
 20
-23.2212061961
 10
-12.0345471374
 20
-23.2167259548
 10
-12.031497002
 20
-23.2122803754
 10
-12.0281814695
 20
-23.2078778818
 10
-12.02460122
 20
-23.2035266855
 10
-12.0207566313
 20
-23.1992259418
 10
-12.0166490232
 20
-23.1949843084
 10
-12.0122800201
 20
-23.190810255
 10
-12.0076507086
 20
-23.1867028731
 10
-12.0027633906
 20
-23.1826710024
 10
-11.9976207023
 20
-23.1787233192
 10
-11.9922245031
 20
-23.174858895
 10
-11.986578142
 20
-23.1710866868
 10
-11.9806853456
 20
-23.1674155212
 10
-11.9745488484
 20
-23.1638445008
 10
-11.9681731181
 20
-23.1603826202
 10
-11.961563059
 20
-23.1570387866
 10
-11.9547224219
 20
-23.1538121858
 10
-11.9476568724
 20
-23.1507117507
 10
-11.940372584
 20
-23.1477463786
 10
-11.9328744986
 20
-23.1449153837
 10
-11.9251695647
 20
-23.1422275134
 10
-11.9172653116
 20
-23.139691538
 10
-11.9091680607
 20
-23.1373069291
 10
-11.9008861589
 20
-23.1350821053
 10
-11.8924285333
 20
-23.1330255505
 10
-11.8838029554
 20
-23.1311368767
 10
-11.8750192199
 20
-23.1294239958
 10
-11.8660877144
 20
-23.1278949421
 10
-11.8570177391
 20
-23.1265494608
 10
-11.8478338516
 20
-23.1253969981
 10
-11.8385348234
 20
-23.1244418396
 10
-11.8290911622
 20
-23.123679751
 10
-11.819501191
 20
-23.1231181344
 10
-11.8097919705
 20
-23.1227714623
 10
-11.7999775648
 20
-23.1226497308
  0
LINE
  5
2C7
100
AcDbEntity
  8
0
100
AcDbLine
 62
250
  6
CONTINUOUS
 10
-12.9412188721
 20
-21.519990863
 11
-12.9407053095
 21
-21.5060166319
  0
LINE
  5
2C8
100
AcDbEntity
  8
0
100
AcDbLine
 62
7
  6
CONTINUOUS
 10
-13.0584176551
 20
-18.5
 11
-13.0579813117
 21
-18.491183651
  0
LINE
  5
2C9
100
AcDbEntity
  8
0
100
AcDbLine
 62
250
  6
CONTINUOUS
 10
-8.9652654452
 20
22.3349016357
 11
-8.9580388233
 21
22.4
  0
LWPOLYLINE
  5
2CA
100
AcDbEntity
  8
0
100
AcDbPolyline
 62
7
  6
CONTINUOUS
 90
3
 70
0
 43
0.3500000087
 10
-0.7651241431
 20
33.5773245087
 10
-0.8365527653
 20
33.3630379761
 10
-0.9794098763
 20
33.0773240204
  0
LWPOLYLINE
  5
2CB
100
AcDbEntity
  8
0
100
AcDbPolyline
 62
7
  6
CONTINUOUS
 90
10
 70
0
 10
-0.8857627912
 20
23.8898671026
 10
-0.8899212418
 20
23.8813032282
 10
-0.8936673278
 20
23.8725514452
 10
-0.8969926415
 20
23.8636314815
 10
-0.8998897217
 20
23.8545633862
 10
-0.9023523625
 20
23.8453662265
 10
-0.9043744852
 20
23.8360622836
 10
-0.9059508831
 20
23.8266769845
 10
-0.9070784647
 20
23.817233139
 10
-0.9077555765
 20
23.8077507432
  0
LWPOLYLINE
  5
2CC
100
AcDbEntity
  8
0
100
AcDbPolyline
 62
7
  6
CONTINUOUS
 90
11
 70
0
 10
-0.8853838434
 20
23.8923471996
 10
-0.8892431843
 20
23.8845210219
 10
-0.8927574843
 20
23.8765339547
 10
-0.8959200544
 20
23.8684012014
 10
-0.8987248753
 20
23.8601382427
 10
-0.9011666088
 20
23.8517608084
 10
-0.9032406076
 20
23.8432848447
 10
-0.9049429245
 20
23.8347264854
 10
-0.90627032
 20
23.8261020222
 10
-0.9072202677
 20
23.8174278719
 10
-0.9077909602
 20
23.8087205449
  0
LINE
  5
2CD
100
AcDbEntity
  8
0
100
AcDbLine
 62
250
  6
CONTINUOUS
 10
8.4316671113
 20
22.3323858467
 11
8.4347345548
 21
22.3349016357
  0
LWPOLYLINE
  5
2CE
100
AcDbEntity
  8
0
100
AcDbPolyline
 62
250
  6
CONTINUOUS
 90
11
 70
0
 10
8.4347345548
 20
-22.3349016357
 10
8.4316671165
 20
-22.3323858466
 10
8.4240380482
 20
-22.3299571401
 10
8.4118473497
 20
-22.3276155162
 10
8.3948538289
 20
-22.3253397867
 10
8.373298678
 20
-22.3231511398
 10
8.3479054739
 20
-22.3211131404
 10
8.3186096145
 20
-22.3192303762
 10
8.2854757018
 20
-22.3174982594
 10
8.2494211188
 20
-22.3159665915
 10
8.2362676081
 20
-22.3154855161
  0
LWPOLYLINE
  5
2CF
100
AcDbEntity
  8
0
100
AcDbPolyline
 62
250
  6
CONTINUOUS
 90
11
 70
0
 10
-0.8853838434
 20
-23.8923471996
 10
-0.8857484014
 20
-23.8898950198
 10
-0.8899077108
 20
-23.8813328629
 10
-0.8936548983
 20
-23.8725824996
 10
-0.8969814754
 20
-23.863663752
 10
-0.8998799064
 20
-23.8545968242
 10
-0.9023436254
 20
-23.8454022555
 10
-0.9043670511
 20
-23.8361008747
 10
-0.9059456001
 20
-23.8267137523
 10
-0.9070756962
 20
-23.8172621533
 10
-0.9077547795
 20
-23.8077674885
  0
LINE
  5
2D0
100
AcDbEntity
  8
0
100
AcDbLine
 62
250
  6
CONTINUOUS
 10
-8.9580388233
 20
-22.4
 11
-8.9652654452
 21
-22.3349016357
  0
LWPOLYLINE
  5
2D1
100
AcDbEntity
  8
0
100
AcDbPolyline
 62
7
  6
CONTINUOUS
 90
46
 70
0
 10
-9.1652620606
 20
-23.2669872981
 10
-9.1654343119
 20
-23.2624086438
 10
-9.1658603877
 20
-23.2578133363
 10
-9.1665426053
 20
-23.2532084873
 10
-9.1674830066
 20
-23.2486040164
 10
-9.1686833732
 20
-23.2440046301
 10
-9.1701453122
 20
-23.2394098269
 10
-9.1718701129
 20
-23.2348274049
 10
-9.1738587971
 20
-23.2302649474
 10
-9.1761123173
 20
-23.2257218339
 10
-9.1786311476
 20
-23.2212061961
 10
-9.181415486
 20
-23.2167259548
 10
-9.1844656214
 20
-23.2122803754
 10
-9.1877811539
 20
-23.2078778818
 10
-9.1913614034
 20
-23.2035266855
 10
-9.1952059921
 20
-23.1992259418
 10
-9.1993136002
 20
-23.1949843084
 10
-9.2036826033
 20
-23.190810255
 10
-9.2083119148
 20
-23.1867028731
 10
-9.2131992327
 20
-23.1826710024
 10
-9.2183419211
 20
-23.1787233192
 10
-9.2237381203
 20
-23.174858895
 10
-9.2293844814
 20
-23.1710866868
 10
-9.2352772778
 20
-23.1674155212
 10
-9.241413775
 20
-23.1638445008
 10
-9.2477895053
 20
-23.1603826202
 10
-9.2543995644
 20
-23.1570387866
 10
-9.2612402015
 20
-23.1538121858
 10
-9.268305751
 20
-23.1507117507
 10
-9.2755900394
 20
-23.1477463786
 10
-9.2830881248
 20
-23.1449153837
 10
-9.2907930587
 20
-23.1422275134
 10
-9.2986973118
 20
-23.139691538
 10
-9.3067945627
 20
-23.1373069291
 10
-9.3150764645
 20
-23.1350821053
 10
-9.3235340901
 20
-23.1330255505
 10
-9.332159668
 20
-23.1311368767
 10
-9.3409434035
 20
-23.1294239958
 10
-9.349874909
 20
-23.1278949421
 10
-9.3589448843
 20
-23.1265494608
 10
-9.3681287718
 20
-23.1253969981
 10
-9.3774278
 20
-23.1244418396
 10
-9.3868714612
 20
-23.123679751
 10
-9.3964614324
 20
-23.1231181344
 10
-9.4061706529
 20
-23.1227714623
 10
-9.4159850585
 20
-23.1226497308
  0
LWPOLYLINE
  5
2D2
100
AcDbEntity
  8
0
100
AcDbPolyline
 62
250
  6
CONTINUOUS
 90
34
 70
0
 10
-9.1710798904
 20
-23.8443375673
 10
-9.1713965411
 20
-23.8340547998
 10
-9.1722767029
 20
-23.8237952398
 10
-9.1737183892
 20
-23.8135820427
 10
-9.1757183462
 20
-23.803438259
 10
-9.1782720602
 20
-23.7933867826
 10
-9.1813737676
 20
-23.7834502991
 10
-9.185016468
 20
-23.7736512346
 10
-9.1891919401
 20
-23.764011705
 10
-9.19389076
 20
-23.7545534661
 10
-9.1991023228
 20
-23.7452978646
 10
-9.2048148664
 20
-23.7362657898
 10
-9.2110154977
 20
-23.7274776267
 10
-9.2176902225
 20
-23.7189532096
 10
-9.2248239761
 20
-23.7107117775
 10
-9.2324006582
 20
-23.702771931
 10
-9.2404031687
 20
-23.6951515897
 10
-9.2488134463
 20
-23.6878679524
 10
-9.2576125095
 20
-23.6809374578
 10
-9.2667804994
 20
-23.6743757476
 10
-9.2762967244
 20
-23.6681976311
 10
-9.2861397069
 20
-23.6624170521
 10
-9.2962872318
 20
-23.6570470569
 10
-9.3067163969
 20
-23.6520997654
 10
-9.3174036641
 20
-23.6475863432
 10
-9.3283249128
 20
-23.6435169769
 10
-9.3394554945
 20
-23.6399008509
 10
-9.3507702881
 20
-23.6367461264
 10
-9.3622437567
 20
-23.6340599235
 10
-9.3738500055
 20
-23.6318483049
 10
-9.3855628398
 20
-23.630116262
 10
-9.3973558245
 20
-23.6288677039
 10
-9.4092023434
 20
-23.6281054486
 10
-9.4210756596
 20
-23.6278312164
  0
LINE
  5
2D3
100
AcDbEntity
  8
0
100
AcDbLine
 62
250
  6
CONTINUOUS
 10
-9.4210756596
 20
23.6278312164
 11
-9.4159850585
 21
23.1226497308
  0
LINE
  5
2D4
100
AcDbEntity
  8
0
100
AcDbLine
 62
250
  6
CONTINUOUS
 10
-9.1710841705
 20
24.2383600852
 11
-9.1710798904
 21
24.2369056521
  0
LINE
  5
2D5
100
AcDbEntity
  8
0
100
AcDbLine
 62
250
  6
CONTINUOUS
 10
-9.4210756596
 20
-23.6278312164
 11
-9.4210756596
 21
-24.4869014213
  0
LINE
  5
2D6
100
AcDbEntity
  8
0
100
AcDbLine
 62
250
  6
CONTINUOUS
 10
-9.4210756596
 20
23.6278312164
 11
-9.4210756596
 21
24.4869014213
  0
LINE
  5
2D7
100
AcDbEntity
  8
0
100
AcDbLine
 62
250
  6
CONTINUOUS
 10
-9.4152578298
 20
-22.3114553375
 11
-9.4152578298
 21
-23.1226497308
  0
LINE
  5
2D8
100
AcDbEntity
  8
0
100
AcDbLine
 62
250
  6
CONTINUOUS
 10
-9.4152578298
 20
22.3114553375
 11
-9.4152578298
 21
23.1226497308
  0
LINE
  5
2D9
100
AcDbEntity
  8
0
100
AcDbLine
 62
7
  6
CONTINUOUS
 10
-9.1710798904
 20
-24.2369056521
 11
-9.1710798904
 21
-23.8443375673
  0
LINE
  5
2DA
100
AcDbEntity
  8
0
100
AcDbLine
 62
7
  6
CONTINUOUS
 10
-9.1710798904
 20
23.8443375673
 11
-9.1710798904
 21
24.2369056521
  0
LINE
  5
2DB
100
AcDbEntity
  8
0
100
AcDbLine
 62
7
  6
CONTINUOUS
 10
-9.1652620606
 20
-23.2669872981
 11
-9.1652620606
 21
-22.5346275426
  0
LINE
  5
2DC
100
AcDbEntity
  8
0
100
AcDbLine
 62
7
  6
CONTINUOUS
 10
-9.1652620606
 20
22.5346275426
 11
-9.1652620606
 21
23.2669872981
  0
LINE
  5
2DD
100
AcDbEntity
  8
0
100
AcDbLine
 62
7
  6
CONTINUOUS
 10
-9.1579813117
 20
-23.2669872981
 11
-9.1579813117
 21
-23.8443375673
  0
LINE
  5
2DE
100
AcDbEntity
  8
0
100
AcDbLine
 62
7
  6
CONTINUOUS
 10
-9.1579813117
 20
23.2669872981
 11
-9.1579813117
 21
23.8443375673
  0
LINE
  5
2DF
100
AcDbEntity
  8
0
100
AcDbLine
 62
250
  6
CONTINUOUS
 10
-9.4159850585
 20
-23.1226497308
 11
-9.4210756596
 21
-23.6278312164
  0
LWPOLYLINE
  5
2E0
100
AcDbEntity
  8
0
100
AcDbPolyline
 62
250
  6
CONTINUOUS
 90
34
 70
0
 10
-9.1710798904
 20
23.8443375673
 10
-9.1713960176
 20
23.8340637895
 10
-9.1722749299
 20
23.8238108791
 10
-9.1737150214
 20
23.8136019692
 10
-9.1757135873
 20
23.8034593699
 10
-9.1782664032
 20
23.7934067803
 10
-9.1813673233
 20
23.7834691596
 10
-9.1850090313
 20
23.7736697274
 10
-9.1891835367
 20
23.7640297916
 10
-9.1938815174
 20
23.7545709211
 10
-9.1990924739
 20
23.7453143541
 10
-9.204804615
 20
23.7362811256
 10
-9.2110049473
 20
23.7274918143
 10
-9.2176794233
 20
23.7189663226
 10
-9.2248130212
 20
23.7107238287
 10
-9.2323896552
 20
23.7027829214
 10
-9.2403922374
 20
23.6951615168
 10
-9.2488026957
 20
23.6878768325
 10
-9.2576020281
 20
23.6809453292
 10
-9.266770365
 20
23.6743826581
 10
-9.2762870168
 20
23.6682036281
 10
-9.2861305018
 20
23.6624221869
 10
-9.2962786006
 20
23.6570513849
 10
-9.3067084055
 20
23.6521033459
 10
-9.3173963729
 20
23.6475892394
 10
-9.3283183895
 20
23.6435192505
 10
-9.3394497887
 20
23.6399025721
 10
-9.3507654031
 20
23.6367473785
 10
-9.362239661
 20
23.6340607927
 10
-9.3738466867
 20
23.6318488662
 10
-9.3855603204
 20
23.6301165815
 10
-9.3973541353
 20
23.6288678476
 10
-9.4092014959
 20
23.6281054856
 10
-9.4210756596
 20
23.6278312164
  0
LWPOLYLINE
  5
2E1
100
AcDbEntity
  8
0
100
AcDbPolyline
 62
7
  6
CONTINUOUS
 90
46
 70
0
 10
-9.1652620606
 20
23.2669872981
 10
-9.1654343119
 20
23.2624086438
 10
-9.1658603877
 20
23.2578133363
 10
-9.1665426053
 20
23.2532084873
 10
-9.1674830066
 20
23.2486040164
 10
-9.1686833732
 20
23.2440046301
 10
-9.1701453122
 20
23.2394098269
 10
-9.1718701129
 20
23.2348274049
 10
-9.1738587971
 20
23.2302649474
 10
-9.1761123173
 20
23.2257218339
 10
-9.1786311476
 20
23.2212061961
 10
-9.181415486
 20
23.2167259548
 10
-9.1844656214
 20
23.2122803754
 10
-9.1877811539
 20
23.2078778818
 10
-9.1913614034
 20
23.2035266855
 10
-9.1952059921
 20
23.1992259418
 10
-9.1993136002
 20
23.1949843084
 10
-9.2036826033
 20
23.190810255
 10
-9.2083119148
 20
23.1867028731
 10
-9.2131992327
 20
23.1826710024
 10
-9.2183419211
 20
23.1787233192
 10
-9.2237381203
 20
23.174858895
 10
-9.2293844814
 20
23.1710866868
 10
-9.2352772778
 20
23.1674155212
 10
-9.241413775
 20
23.1638445008
 10
-9.2477895053
 20
23.1603826202
 10
-9.2543995644
 20
23.1570387866
 10
-9.2612402015
 20
23.1538121858
 10
-9.268305751
 20
23.1507117507
 10
-9.2755900394
 20
23.1477463786
 10
-9.2830881248
 20
23.1449153837
 10
-9.2907930587
 20
23.1422275134
 10
-9.2986973118
 20
23.139691538
 10
-9.3067945627
 20
23.1373069291
 10
-9.3150764645
 20
23.1350821053
 10
-9.3235340901
 20
23.1330255505
 10
-9.332159668
 20
23.1311368767
 10
-9.3409434035
 20
23.1294239958
 10
-9.349874909
 20
23.1278949421
 10
-9.3589448843
 20
23.1265494608
 10
-9.3681287718
 20
23.1253969981
 10
-9.3774278
 20
23.1244418396
 10
-9.3868714612
 20
23.123679751
 10
-9.3964614324
 20
23.1231181344
 10
-9.4061706529
 20
23.1227714623
 10
-9.4159850585
 20
23.1226497308
  0
LINE
  5
2E2
100
AcDbEntity
  8
0
100
AcDbLine
 62
250
  6
CONTINUOUS
 10
-12.2506971782
 20
-22.3349016357
 11
-12.2579238
 21
-22.4
  0
LWPOLYLINE
  5
2E3
100
AcDbEntity
  8
0
100
AcDbPolyline
 62
250
  6
CONTINUOUS
 90
9
 70
0
 10
-12.4443236499
 20
-22.0602279426
 10
-12.4440394932
 20
-22.0579923172
 10
-12.4437567
 20
-22.0546984958
 10
-12.4434752702
 20
-22.0503499793
 10
-12.4431949009
 20
-22.0449513892
 10
-12.4429158951
 20
-22.0385084611
 10
-12.4426391615
 20
-22.0310280379
 10
-12.4423647146
 20
-22.0225180633
 10
-12.4418235033
 20
-22.0024467109
  0
LINE
  5
2E4
100
AcDbEntity
  8
0
100
AcDbLine
 62
250
  6
CONTINUOUS
 10
9.0623991837
 20
-9.4940977165
 11
9.043678264
 21
-9.4948422802
  0
LINE
  5
2E5
100
AcDbEntity
  8
0
100
AcDbLine
 62
250
  6
CONTINUOUS
 10
9.043678264
 20
-9.4948422802
 11
9.0216775961
 21
-9.4955545263
  0
LINE
  5
2E6
100
AcDbEntity
  8
0
100
AcDbLine
 62
250
  6
CONTINUOUS
 10
9.0216775961
 20
-9.4955545263
 11
8.9965609212
 21
-9.4962291538
  0
LINE
  5
2E7
100
AcDbEntity
  8
0
100
AcDbLine
 62
250
  6
CONTINUOUS
 10
8.9965609212
 20
-9.4962291538
 11
8.9534583121
 21
-9.4971596626
  0
LINE
  5
2E8
100
AcDbEntity
  8
0
100
AcDbLine
 62
250
  6
CONTINUOUS
 10
8.9534583121
 20
-9.4971596626
 11
8.8870053068
 21
-9.4982245713
  0
LINE
  5
2E9
100
AcDbEntity
  8
0
100
AcDbLine
 62
250
  6
CONTINUOUS
 10
8.8870053068
 20
-9.4982245713
 11
8.7923278004
 21
-9.4992298544
  0
LINE
  5
2EA
100
AcDbEntity
  8
0
100
AcDbLine
 62
250
  6
CONTINUOUS
 10
8.7923278004
 20
-9.4992298544
 11
8.6888723351
 21
-9.4998303815
  0
LINE
  5
2EB
100
AcDbEntity
  8
0
100
AcDbLine
 62
250
  6
CONTINUOUS
 10
8.6888723351
 20
-9.4998303815
 11
-12.4189657613
 21
-9.5
  0
LINE
  5
2EC
100
AcDbEntity
  8
0
100
AcDbLine
 62
250
  6
CONTINUOUS
 10
-12.546970103
 20
-9.499640963
 11
-12.4189657613
 21
-9.5
  0
LINE
  5
2ED
100
AcDbEntity
  8
0
100
AcDbLine
 62
250
  6
CONTINUOUS
 10
-12.6474720192
 20
-9.4988741028
 11
-12.546970103
 21
-9.499640963
  0
LINE
  5
2EE
100
AcDbEntity
  8
0
100
AcDbLine
 62
250
  6
CONTINUOUS
 10
-12.7204542456
 20
-9.4979787369
 11
-12.6474720192
 21
-9.4988741028
  0
LINE
  5
2EF
100
AcDbEntity
  8
0
100
AcDbLine
 62
250
  6
CONTINUOUS
 10
-12.769420936
 20
-9.4971596626
 11
-12.7204542456
 21
-9.4979787369
  0
LINE
  5
2F0
100
AcDbEntity
  8
0
100
AcDbLine
 62
250
  6
CONTINUOUS
 10
-12.8125235451
 20
-9.4962291538
 11
-12.769420936
 21
-9.4971596626
  0
LINE
  5
2F1
100
AcDbEntity
  8
0
100
AcDbLine
 62
250
  6
CONTINUOUS
 10
-12.83764022
 20
-9.4955545263
 11
-12.8125235451
 21
-9.4962291538
  0
LINE
  5
2F2
100
AcDbEntity
  8
0
100
AcDbLine
 62
250
  6
CONTINUOUS
 10
-12.8596408878
 20
-9.4948422803
 11
-12.83764022
 21
-9.4955545263
  0
LINE
  5
2F3
100
AcDbEntity
  8
0
100
AcDbLine
 62
250
  6
CONTINUOUS
 10
-12.2579238
 20
22.4
 11
-12.2506971782
 21
22.3349016357
  0
LINE
  5
2F4
100
AcDbEntity
  8
0
100
AcDbLine
 62
250
  6
CONTINUOUS
 10
-9.1710798904
 20
23.8443375673
 11
-9.1652620606
 21
23.2669872981
  0
LINE
  5
2F5
100
AcDbEntity
  8
0
100
AcDbLine
 62
7
  6
CONTINUOUS
 10
-8.0579813117
 20
4.7
 11
-8.0579813117
 21
-3.3
  0
LINE
  5
2F6
100
AcDbEntity
  8
0
100
AcDbLine
 62
7
  6
CONTINUOUS
 10
-7.6079813117
 20
2.25
 11
-7.6079813117
 21
0.55
  0
LINE
  5
2F7
100
AcDbEntity
  8
0
100
AcDbLine
 62
250
  6
CONTINUOUS
 10
-8.5673628352
 20
5.2145961196
 11
-8.5674731305
 21
-3.813305124
  0
LINE
  5
2F8
100
AcDbEntity
  8
0
100
AcDbLine
 62
250
  6
CONTINUOUS
 10
-8.0674251939
 20
4.7094438822
 11
-8.0675232612
 21
-3.3095419495
  0
LINE
  5
2F9
100
AcDbEntity
  8
0
100
AcDbLine
 62
250
  6
CONTINUOUS
 10
-9.1652620606
 20
-23.2669872981
 11
-9.1710798904
 21
-23.8443375673
  0
LWPOLYLINE
  5
2FA
100
AcDbEntity
  8
0
100
AcDbPolyline
 62
7
  6
CONTINUOUS
 90
34
 70
0
 10
-9.1710798904
 20
-24.2369056521
 10
-9.1713634412
 20
-24.2488006736
 10
-9.1722126462
 20
-24.2606687503
 10
-9.1736255816
 20
-24.2724829982
 10
-9.1755990468
 20
-24.2842166554
 10
-9.1781285716
 20
-24.2958431426
 10
-9.181208426
 20
-24.3073361233
 10
-9.1848316334
 20
-24.3186695631
 10
-9.1889899864
 20
-24.3298177893
 10
-9.1936740655
 20
-24.3407555487
 10
-9.1988732602
 20
-24.3514580649
 10
-9.204575793
 20
-24.3619010942
 10
-9.2107687466
 20
-24.3720609807
 10
-9.2174380924
 20
-24.3819147102
 10
-9.224568723
 20
-24.3914399617
 10
-9.2321444857
 20
-24.4006151584
 10
-9.24014822
 20
-24.4094195163
 10
-9.2485617954
 20
-24.4178330917
 10
-9.2573661533
 20
-24.4258368259
 10
-9.26654135
 20
-24.4334125887
 10
-9.2760666015
 20
-24.4405432193
 10
-9.2859203309
 20
-24.4472125651
 10
-9.2960802175
 20
-24.4534055187
 10
-9.3065232468
 20
-24.4591080515
 10
-9.317225763
 20
-24.4643072462
 10
-9.3281635224
 20
-24.4689913253
 10
-9.3393117486
 20
-24.4731496783
 10
-9.3506451884
 20
-24.4767728857
 10
-9.362138169
 20
-24.4798527401
 10
-9.3737646563
 20
-24.4823822649
 10
-9.3854983135
 20
-24.4843557301
 10
-9.3973125614
 20
-24.4857686655
 10
-9.4091806381
 20
-24.4866178705
 10
-9.4210756596
 20
-24.4869014213
  0
LWPOLYLINE
  5
2FB
100
AcDbEntity
  8
0
100
AcDbPolyline
 62
7
  6
CONTINUOUS
 90
34
 70
0
 10
-9.1579813117
 20
-24.2500042308
 10
-9.1582644619
 20
-24.261899516
 10
-9.1591132775
 20
-24.2737678556
 10
-9.1605258375
 20
-24.2855823661
 10
-9.162498944
 20
-24.2973162875
 10
-9.16502813
 20
-24.3089430388
 10
-9.16810767
 20
-24.320436279
 10
-9.1717305904
 20
-24.3317699738
 10
-9.1758886859
 20
-24.3429184493
 10
-9.1805725395
 20
-24.3538564463
 10
-9.1857715429
 20
-24.3645591876
 10
-9.1914739201
 20
-24.3750024283
 10
-9.1976667536
 20
-24.3851625059
 10
-9.2043360162
 20
-24.3950164051
 10
-9.211466601
 20
-24.4045418038
 10
-9.2190423528
 20
-24.4137171191
 10
-9.2270461112
 20
-24.4225215661
 10
-9.2354597456
 20
-24.4309352005
 10
-9.2442641926
 20
-24.4389389589
 10
-9.2534395079
 20
-24.4465147107
 10
-9.2629649066
 20
-24.4536452955
 10
-9.2728188058
 20
-24.4603145581
 10
-9.2829788834
 20
-24.4665073916
 10
-9.2934221241
 20
-24.4722097688
 10
-9.3041248654
 20
-24.4774087722
 10
-9.3150628624
 20
-24.4820926258
 10
-9.3262113379
 20
-24.4862507213
 10
-9.3375450327
 20
-24.4898736417
 10
-9.3490382729
 20
-24.4929531817
 10
-9.3606650242
 20
-24.4954823677
 10
-9.3723989456
 20
-24.4974554741
 10
-9.3842134561
 20
-24.4988680342
 10
-9.3960817957
 20
-24.4997168498
 10
-9.4079770809
 20
-24.5
  0
LWPOLYLINE
  5
2FC
100
AcDbEntity
  8
0
100
AcDbPolyline
 62
250
  6
CONTINUOUS
 90
11
 70
0
 10
-12.9442481967
 20
-21.5609147213
 10
-12.943963808
 20
-21.5597929482
 10
-12.9436808395
 20
-21.5581466307
 10
-12.9433992915
 20
-21.5559757687
 10
-12.9431188793
 20
-21.5532769789
 10
-12.9428398876
 20
-21.5500536446
 10
-12.9425631693
 20
-21.546315916
 10
-12.9422887204
 20
-21.5420621177
 10
-12.9420165451
 20
-21.5372939249
 10
-12.9417475086
 20
-21.532026514
 10
-12.9412188721
 20
-21.519990863
  0
LINE
  5
2FD
100
AcDbEntity
  8
CURVE
100
AcDbLine
 62
250
  6
CONTINUOUS
 10
-3.7222670132
 20
7.928571403
 11
-4.1508384162
 21
7.5
  0
LINE
  5
2FE
100
AcDbEntity
  8
0
100
AcDbLine
 62
7
  6
CONTINUOUS
 10
-6.8829813117
 20
4.15
 11
-6.8829813117
 21
2.25
  0
LINE
  5
2FF
100
AcDbEntity
  8
0
100
AcDbLine
 62
7
  6
CONTINUOUS
 10
-6.8829813117
 20
0.55
 11
-6.8829813117
 21
-2.8
  0
LINE
  5
300
100
AcDbEntity
  8
0
100
AcDbLine
 62
7
  6
CONTINUOUS
 10
-6.6879813117
 20
4.15
 11
-6.6879813117
 21
0.65
  0
LINE
  5
301
100
AcDbEntity
  8
0
100
AcDbLine
 62
7
  6
CONTINUOUS
 10
-6.349254567
 20
23.9912732553
 11
-6.349254567
 21
22.3213883311
  0
LINE
  5
302
100
AcDbEntity
  8
0
100
AcDbLine
 62
7
  6
CONTINUOUS
 10
-6.349254567
 20
-22.3213883311
 11
-6.349254567
 21
-23.9912732553
  0
LINE
  5
303
100
AcDbEntity
  8
0
100
AcDbLine
 62
7
  6
CONTINUOUS
 10
-6.1879813117
 20
4.15
 11
-6.1879813117
 21
0.65
  0
LINE
  5
304
100
AcDbEntity
  8
0
100
AcDbLine
 62
250
  6
CONTINUOUS
 10
-5.7674731305
 20
-3.813305124
 11
-5.7673442837
 21
-5.4147777497
  0
LINE
  5
305
100
AcDbEntity
  8
0
100
AcDbLine
 62
7
  6
CONTINUOUS
 10
-5.6679813117
 20
4.15
 11
-5.6679813117
 21
0.65
  0
LINE
  5
306
100
AcDbEntity
  8
0
100
AcDbLine
 62
7
  6
CONTINUOUS
 10
-5.4079813117
 20
-23.9912732553
 11
-5.4079813117
 21
-22.3213883311
  0
LINE
  5
307
100
AcDbEntity
  8
0
100
AcDbLine
 62
7
  6
CONTINUOUS
 10
-5.4079813117
 20
22.3213883311
 11
-5.4079813117
 21
23.9912732553
  0
LINE
  5
308
100
AcDbEntity
  8
0
100
AcDbLine
 62
250
  6
CONTINUOUS
 10
-13.0571089572
 20
-21.8997723451
 11
-12.9442481967
 21
-21.5609147213
  0
LINE
  5
309
100
AcDbEntity
  8
CURVE
100
AcDbLine
 62
250
  6
CONTINUOUS
 10
-3.5079813117
 20
6.4285714477
 11
-3.9365527147
 21
6.0
  0
LINE
  5
30A
100
AcDbEntity
  8
CURVE
100
AcDbLine
 62
250
  6
CONTINUOUS
 10
-0.2936956996
 20
8.571428597
 11
0.1348758823
 21
9.0
  0
LINE
  5
30B
100
AcDbEntity
  8
CURVE
100
AcDbLine
 62
250
  6
CONTINUOUS
 10
-1.5794097299
 20
6.0
 11
-1.1508385056
 21
6.4285714477
  0
LINE
  5
30C
100
AcDbEntity
  8
0
100
AcDbLine
 62
250
  6
CONTINUOUS
 10
-4.7172183
 20
-6.6158528412
 11
0.9012556766
 21
-6.6158528412
  0
LINE
  5
30D
100
AcDbEntity
  8
0
100
AcDbLine
 62
7
  6
CONTINUOUS
 10
-4.2172373385
 20
-6.1092560268
 11
0.4012747151
 21
-6.1092560268
  0
LINE
  5
30E
100
AcDbEntity
  8
0
100
AcDbLine
 62
250
  6
CONTINUOUS
 10
-5.7673442837
 20
-5.4147777497
 11
-4.7173442837
 21
-5.4147777497
  0
LINE
  5
30F
100
AcDbEntity
  8
0
100
AcDbLine
 62
250
  6
CONTINUOUS
 10
0.9013816603
 20
-5.4147777497
 11
1.9513816603
 21
-5.4147777497
  0
LINE
  5
310
100
AcDbEntity
  8
0
100
AcDbLine
 62
250
  6
CONTINUOUS
 10
-12.9442476818
 20
21.5609131753
 11
-13.0571089572
 21
21.8997723451
  0
LINE
  5
311
100
AcDbEntity
  8
0
100
AcDbLine
 62
250
  6
CONTINUOUS
 10
-5.2675232612
 20
-3.3095419495
 11
-5.2674083892
 21
-4.9094270775
  0
LINE
  5
312
100
AcDbEntity
  8
0
100
AcDbLine
 62
7
  6
CONTINUOUS
 10
-5.2579813117
 20
-3.3
 11
-5.2579813117
 21
-4.9
  0
LINE
  5
313
100
AcDbEntity
  8
0
100
AcDbLine
 62
7
  6
CONTINUOUS
 10
-5.2079813117
 20
-2.8
 11
-5.2079813117
 21
-4.4
  0
LINE
  5
314
100
AcDbEntity
  8
0
100
AcDbLine
 62
7
  6
CONTINUOUS
 10
-5.1679813117
 20
4.15
 11
-5.1679813117
 21
0.65
  0
LINE
  5
315
100
AcDbEntity
  8
CURVE
100
AcDbLine
 62
250
  6
CONTINUOUS
 10
-5.0079813117
 20
6.0
 11
-5.0079813117
 21
8.9999999928
  0
LINE
  5
316
100
AcDbEntity
  8
0
100
AcDbLine
 62
250
  6
CONTINUOUS
 10
-4.7173442837
 20
-5.4147777497
 11
-4.7172183
 21
-6.6158528412
  0
LINE
  5
317
100
AcDbEntity
  8
0
100
AcDbLine
 62
7
  6
CONTINUOUS
 10
-4.6479813117
 20
4.15
 11
-4.6479813117
 21
0.65
  0
LINE
  5
318
100
AcDbEntity
  8
0
100
AcDbLine
 62
250
  6
CONTINUOUS
 10
-4.2174083892
 20
-4.9094270775
 11
-4.2172928867
 21
-6.109311575
  0
LINE
  5
319
100
AcDbEntity
  8
0
100
AcDbLine
 62
7
  6
CONTINUOUS
 10
-4.2079813117
 20
-4.9
 11
-4.2079813117
 21
-6.1
  0
LINE
  5
31A
100
AcDbEntity
  8
0
100
AcDbLine
 62
7
  6
CONTINUOUS
 10
-4.1479813117
 20
4.15
 11
-4.1479813117
 21
0.65
  0
LINE
  5
31B
100
AcDbEntity
  8
0
100
AcDbLine
 62
7
  6
CONTINUOUS
 10
-3.9479813117
 20
-4.4
 11
-3.9479813117
 21
-5.3
  0
LINE
  5
31C
100
AcDbEntity
  8
CURVE
100
AcDbLine
 62
250
  6
CONTINUOUS
 10
-3.7222670132
 20
8.571428597
 11
-3.7222670132
 21
7.9285714005
  0
LINE
  5
31D
100
AcDbEntity
  8
0
100
AcDbLine
 62
7
  6
CONTINUOUS
 10
-3.6279813117
 20
4.15
 11
-3.6279813117
 21
0.65
  0
LINE
  5
31E
100
AcDbEntity
  8
ASSI
100
AcDbLine
 62
7
  6
CONTINUOUS
 10
-3.6029813117
 20
4.15
 11
-3.6029813117
 21
0.65
  0
LINE
  5
31F
100
AcDbEntity
  8
CURVE
100
AcDbLine
 62
250
  6
CONTINUOUS
 10
-3.5079813117
 20
7.071428597
 11
-3.5079813117
 21
6.4285714495
  0
LINE
  5
320
100
AcDbEntity
  8
0
100
AcDbLine
 62
250
  6
CONTINUOUS
 10
-12.5574891582
 20
-22.4
 11
-12.4443238342
 21
-22.0602279426
  0
LINE
  5
321
100
AcDbEntity
  8
CURVE
100
AcDbLine
 62
250
  6
CONTINUOUS
 10
0.7777330762
 20
6.0
 11
1.2063043004
 21
6.4285714477
  0
LINE
  5
322
100
AcDbEntity
  8
0
100
AcDbLine
 62
7
  6
CONTINUOUS
 10
-3.9479813117
 20
-5.3
 11
0.1320186883
 21
-5.3
  0
LINE
  5
323
100
AcDbEntity
  8
0
100
AcDbLine
 62
7
  6
CONTINUOUS
 10
-5.2673633221
 20
-4.9093820104
 11
-4.2173633221
 21
-4.9093820104
  0
LINE
  5
324
100
AcDbEntity
  8
0
100
AcDbLine
 62
7
  6
CONTINUOUS
 10
0.4014006987
 20
-4.9093820104
 11
1.4514006987
 21
-4.9093820104
  0
LINE
  5
325
100
AcDbEntity
  8
0
100
AcDbLine
 62
7
  6
CONTINUOUS
 10
-5.2079813117
 20
-4.4
 11
-3.9479813117
 21
-4.4
  0
LINE
  5
326
100
AcDbEntity
  8
0
100
AcDbLine
 62
7
  6
CONTINUOUS
 10
0.1320186883
 20
-4.4
 11
1.3920186883
 21
-4.4
  0
LINE
  5
327
100
AcDbEntity
  8
0
100
AcDbLine
 62
250
  6
CONTINUOUS
 10
-8.5674731305
 20
-3.813305124
 11
-5.7674731305
 21
-3.813305124
  0
LINE
  5
328
100
AcDbEntity
  8
0
100
AcDbLine
 62
250
  6
CONTINUOUS
 10
1.9515105072
 20
-3.813305124
 11
4.7515105072
 21
-3.813305124
  0
LWPOLYLINE
  5
329
100
AcDbEntity
  8
0
100
AcDbPolyline
 62
7
  6
CONTINUOUS
 90
6
 70
0
 10
0.4003883903
 20
-6.1092560268
 10
0.4043938078
 20
-6.1123182305
 10
0.4116282917
 20
-6.120103164
 10
0.422091842
 20
-6.131877969
 10
0.4361463023
 20
-6.1467916988
 10
0.453429829
 20
-6.1642366173
  0
LINE
  5
32A
100
AcDbEntity
  8
0
100
AcDbLine
 62
7
  6
CONTINUOUS
 10
0.8704179118
 20
-6.585215157
 11
0.9012556766
 21
-6.6158528412
  0
LINE
  5
32B
100
AcDbEntity
  8
0
100
AcDbLine
 62
7
  6
CONTINUOUS
 10
0.6546000845
 20
-6.3683104917
 11
0.8704179118
 21
-6.585215157
  0
LINE
  5
32C
100
AcDbEntity
  8
0
100
AcDbLine
 62
7
  6
CONTINUOUS
 10
0.569189176
 20
-6.2821088412
 11
0.6546000845
 21
-6.3683104917
  0
LINE
  5
32D
100
AcDbEntity
  8
0
100
AcDbLine
 62
7
  6
CONTINUOUS
 10
0.5179324633
 20
-6.2299856638
 11
0.569189176
 21
-6.2821088412
  0
LWPOLYLINE
  5
32E
100
AcDbEntity
  8
0
100
AcDbPolyline
 62
7
  6
CONTINUOUS
 90
3
 70
0
 10
0.453429829
 20
-6.1642366173
 10
0.4943229095
 20
-6.2062026198
 10
0.5179324633
 20
-6.2299856638
  0
LWPOLYLINE
  5
32F
100
AcDbEntity
  8
0
100
AcDbPolyline
 62
250
  6
CONTINUOUS
 90
16
 70
0
 10
8.2347379394
 20
-22.5346275426
 10
8.2332016047
 20
-22.5321097822
 10
8.2289337123
 20
-22.5296793735
 10
8.2220078656
 20
-22.5273363168
 10
8.2125327538
 20
-22.525059338
 10
8.2006323991
 20
-22.5228697111
 10
8.186428376
 20
-22.5208312575
 10
8.1700920514
 20
-22.5189488052
 10
8.1517991658
 20
-22.5172175262
 10
8.1316754953
 20
-22.5156867588
 10
8.1099056651
 20
-22.5143592575
 10
8.0867308982
 20
-22.5132322677
 10
8.0623670032
 20
-22.5123468641
 10
8.0370606647
 20
-22.5117167381
 10
8.011091394
 20
-22.5113281982
 10
7.9847421702
 20
-22.5111812444
  0
LINE
  5
330
100
AcDbEntity
  8
0
100
AcDbLine
 62
250
  6
CONTINUOUS
 10
-12.4443238342
 20
22.0602279426
 11
-12.5574891582
 21
22.4
  0
LINE
  5
331
100
AcDbEntity
  8
0
100
AcDbLine
 62
250
  6
CONTINUOUS
 10
-2.9079813117
 20
23.7999966153
 11
-2.9079813117
 21
23.7982512664
  0
LINE
  5
332
100
AcDbEntity
  8
ASSI
100
AcDbLine
 62
7
  6
CONTINUOUS
 10
-3.1529813117
 20
4.15
 11
-3.1529813117
 21
0.65
  0
LINE
  5
333
100
AcDbEntity
  8
0
100
AcDbLine
 62
7
  6
CONTINUOUS
 10
-3.1279813117
 20
4.15
 11
-3.1279813117
 21
0.65
  0
LINE
  5
334
100
AcDbEntity
  8
0
100
AcDbLine
 62
250
  6
CONTINUOUS
 10
-3.1079813117
 20
-22.3737961104
 11
-3.1079813117
 21
-23.9982478817
  0
LINE
  5
335
100
AcDbEntity
  8
0
100
AcDbLine
 62
250
  6
CONTINUOUS
 10
-3.1079813117
 20
22.3737961104
 11
-3.1079813117
 21
23.9982478817
  0
LINE
  5
336
100
AcDbEntity
  8
0
100
AcDbLine
 62
7
  6
CONTINUOUS
 10
-2.9079813117
 20
-23.7982512664
 11
-2.9079813117
 21
-22.3842776662
  0
LINE
  5
337
100
AcDbEntity
  8
0
100
AcDbLine
 62
7
  6
CONTINUOUS
 10
-2.9079813117
 20
22.3842776662
 11
-2.9079813117
 21
23.7982512664
  0
LINE
  5
338
100
AcDbEntity
  8
CURVE
100
AcDbLine
 62
250
  6
CONTINUOUS
 10
-2.6508385056
 20
9.0
 11
-2.6508385056
 21
6.4285715502
  0
LINE
  5
339
100
AcDbEntity
  8
0
100
AcDbLine
 62
7
  6
CONTINUOUS
 10
-2.6079813117
 20
4.15
 11
-2.6079813117
 21
0.65
  0
LINE
  5
33A
100
AcDbEntity
  8
ASSI
100
AcDbLine
 62
7
  6
CONTINUOUS
 10
-2.6029813117
 20
4.15
 11
-2.6029813117
 21
0.65
  0
LINE
  5
33B
100
AcDbEntity
  8
ASSI
100
AcDbLine
 62
7
  6
CONTINUOUS
 10
-2.1529813117
 20
4.15
 11
-2.1529813117
 21
0.65
  0
LINE
  5
33C
100
AcDbEntity
  8
0
100
AcDbLine
 62
7
  6
CONTINUOUS
 10
-2.1079813117
 20
4.15
 11
-2.1079813117
 21
0.65
  0
LINE
  5
33D
100
AcDbEntity
  8
0
100
AcDbLine
 62
7
  6
CONTINUOUS
 10
-2.9081716632
 20
-23.8087205449
 11
-2.9079813117
 21
-23.7982512664
  0
LWPOLYLINE
  5
33E
100
AcDbEntity
  8
0
100
AcDbPolyline
 62
7
  6
CONTINUOUS
 90
3
 70
0
 10
-8.1600973003
 20
-3.404381852
 10
-8.183685664
 20
-3.4279722298
 10
-8.2348986175
 20
-3.479755591
  0
LINE
  5
33F
100
AcDbEntity
  8
0
100
AcDbLine
 62
7
  6
CONTINUOUS
 10
-8.2348986175
 20
-3.479755591
 11
-8.5364874667
 21
-3.7825255553
  0
LINE
  5
340
100
AcDbEntity
  8
0
100
AcDbLine
 62
7
  6
CONTINUOUS
 10
-8.5364874667
 20
-3.7825255553
 11
-8.5674731305
 21
-3.813305124
  0
LWPOLYLINE
  5
341
100
AcDbEntity
  8
0
100
AcDbPolyline
 62
7
  6
CONTINUOUS
 90
7
 70
0
 10
-8.067492169
 20
-3.3095108573
 10
-8.0709639192
 20
-3.3123800247
 10
-8.077791131
 20
-3.3197307094
 10
-8.0879738044
 20
-3.3309868307
 10
-8.1019152074
 20
-3.3455039753
 10
-8.119212072
 20
-3.3627602259
 10
-8.1600973003
 20
-3.404381852
  0
LINE
  5
342
100
AcDbEntity
  8
0
100
AcDbLine
 62
7
  6
CONTINUOUS
 10
-8.067492169
 20
-3.3095108573
 11
-5.267492169
 21
-3.3095108573
  0
LINE
  5
343
100
AcDbEntity
  8
0
100
AcDbLine
 62
7
  6
CONTINUOUS
 10
1.4515295456
 20
-3.3095108573
 11
4.2515295456
 21
-3.3095108573
  0
LINE
  5
344
100
AcDbEntity
  8
0
100
AcDbLine
 62
7
  6
CONTINUOUS
 10
-5.2079813117
 20
-3.25
 11
1.3920186883
 21
-3.25
  0
LINE
  5
345
100
AcDbEntity
  8
0
100
AcDbLine
 62
7
  6
CONTINUOUS
 10
-6.8829813117
 20
-2.8
 11
-5.2079813117
 21
-2.8
  0
LINE
  5
346
100
AcDbEntity
  8
0
100
AcDbLine
 62
7
  6
CONTINUOUS
 10
1.3920186883
 20
-2.8
 11
3.0670186883
 21
-2.8
  0
LWPOLYLINE
  5
347
100
AcDbEntity
  8
0
100
AcDbPolyline
 62
7
  6
CONTINUOUS
 90
6
 70
0
 10
1.4515295456
 20
-3.3095108573
 10
1.4549402001
 20
-3.3123513175
 10
1.4617111768
 20
-3.3196368706
 10
1.4718424756
 20
-3.3308140036
 10
1.4857291034
 20
-3.3452633052
 10
1.5029760533
 20
-3.3624786832
  0
LWPOLYLINE
  5
348
100
AcDbEntity
  8
0
100
AcDbPolyline
 62
7
  6
CONTINUOUS
 90
6
 70
0
 10
1.4514006987
 20
-4.9093820104
 10
1.454820533
 20
-4.9123023196
 10
1.4616052919
 20
-4.9197721365
 10
1.4717549755
 20
-4.9311792457
 10
1.4856756869
 20
-4.9458335351
 10
1.502961323
 20
-4.9631908994
  0
LWPOLYLINE
  5
349
100
AcDbEntity
  8
0
100
AcDbPolyline
 62
7
  6
CONTINUOUS
 90
6
 70
0
 10
-8.0673818737
 20
4.709400562
 10
-8.0707235158
 20
4.7122741983
 10
-8.0774355353
 20
4.7196377944
 10
-8.0875179322
 20
4.7309154201
 10
-8.1013649041
 20
4.7454577913
 10
-8.1185822534
 20
4.7627456319
  0
LWPOLYLINE
  5
34A
100
AcDbEntity
  8
0
100
AcDbPolyline
 62
7
  6
CONTINUOUS
 90
6
 70
0
 10
0.4014006987
 20
-4.9093820104
 10
0.4047325095
 20
-4.9122603983
 10
0.4114361232
 20
-4.9196351689
 10
0.4215115399
 20
-4.9309271753
 10
0.4353528373
 20
-4.9454828518
 10
0.4525659376
 20
-4.9627810403
  0
LINE
  5
34B
100
AcDbEntity
  8
0
100
AcDbLine
 62
7
  6
CONTINUOUS
 10
0.8706238176
 20
-5.3842241643
 11
0.9013816603
 21
-5.4147777497
  0
LINE
  5
34C
100
AcDbEntity
  8
0
100
AcDbLine
 62
7
  6
CONTINUOUS
 10
1.9203305376
 20
-5.3839301898
 11
1.9513816603
 21
-5.4147777497
  0
LINE
  5
34D
100
AcDbEntity
  8
0
100
AcDbLine
 62
7
  6
CONTINUOUS
 10
-8.5366018243
 20
5.1840396328
 11
-8.5673628352
 21
5.2145961196
  0
LINE
  5
34E
100
AcDbEntity
  8
0
100
AcDbLine
 62
7
  6
CONTINUOUS
 10
-8.2345201106
 20
4.8804199592
 11
-8.5366018243
 21
5.1840396328
  0
LINE
  5
34F
100
AcDbEntity
  8
0
100
AcDbLine
 62
7
  6
CONTINUOUS
 10
0.5685088123
 20
-5.080520622
 11
0.8706238176
 21
-5.3842241643
  0
LINE
  5
350
100
AcDbEntity
  8
0
100
AcDbLine
 62
7
  6
CONTINUOUS
 10
1.6185922664
 20
-5.0806066895
 11
1.9203305376
 21
-5.3839301898
  0
LINE
  5
351
100
AcDbEntity
  8
0
100
AcDbLine
 62
7
  6
CONTINUOUS
 10
-8.1830979959
 20
4.8282714499
 11
-8.2345201106
 21
4.8804199592
  0
LINE
  5
352
100
AcDbEntity
  8
0
100
AcDbLine
 62
7
  6
CONTINUOUS
 10
0.517080316
 20
-5.0283440509
 11
0.5685088123
 21
-5.080520622
  0
LINE
  5
353
100
AcDbEntity
  8
0
100
AcDbLine
 62
7
  6
CONTINUOUS
 10
1.5674017694
 20
-5.028675512
 11
1.6185922664
 21
-5.0806066895
  0
LWPOLYLINE
  5
354
100
AcDbEntity
  8
0
100
AcDbPolyline
 62
7
  6
CONTINUOUS
 90
3
 70
0
 10
-8.1185822534
 20
4.7627456319
 10
-8.1594487993
 20
4.8045316954
 10
-8.1830979959
 20
4.8282714499
  0
LWPOLYLINE
  5
355
100
AcDbEntity
  8
0
100
AcDbPolyline
 62
7
  6
CONTINUOUS
 90
3
 70
0
 10
0.4525659376
 20
-4.9627810403
 10
0.4934296769
 20
-5.0045905961
 10
0.517080316
 20
-5.0283440509
  0
LWPOLYLINE
  5
356
100
AcDbEntity
  8
0
100
AcDbPolyline
 62
7
  6
CONTINUOUS
 90
3
 70
0
 10
1.502961323
 20
-4.9631908994
 10
1.5438243642
 20
-5.0050000023
 10
1.5674017694
 20
-5.028675512
  0
LINE
  5
357
100
AcDbEntity
  8
0
100
AcDbLine
 62
250
  6
CONTINUOUS
 10
-0.9079813117
 20
-23.7999966153
 11
-0.9079813117
 21
-23.7982512664
  0
LINE
  5
358
100
AcDbEntity
  8
ASSI
100
AcDbLine
 62
7
  6
CONTINUOUS
 10
-1.6029813117
 20
4.15
 11
-1.6029813117
 21
0.65
  0
LINE
  5
359
100
AcDbEntity
  8
ASSI
100
AcDbLine
 62
7
  6
CONTINUOUS
 10
-1.1529813117
 20
4.15
 11
-1.1529813117
 21
0.65
  0
LINE
  5
35A
100
AcDbEntity
  8
CURVE
100
AcDbLine
 62
250
  6
CONTINUOUS
 10
-1.1508385056
 20
6.4285714477
 11
-1.1508385056
 21
8.9999998975
  0
LINE
  5
35B
100
AcDbEntity
  8
0
100
AcDbLine
 62
7
  6
CONTINUOUS
 10
-1.0879813117
 20
4.15
 11
-1.0879813117
 21
0.65
  0
LINE
  5
35C
100
AcDbEntity
  8
0
100
AcDbLine
 62
7
  6
CONTINUOUS
 10
-0.9079813117
 20
23.7982512664
 11
-0.9079813117
 21
22.3842776662
  0
LINE
  5
35D
100
AcDbEntity
  8
0
100
AcDbLine
 62
7
  6
CONTINUOUS
 10
-0.9079813117
 20
-22.3842776662
 11
-0.9079813117
 21
-23.7982512664
  0
LINE
  5
35E
100
AcDbEntity
  8
0
100
AcDbLine
 62
250
  6
CONTINUOUS
 10
-0.7079813117
 20
-22.3737961104
 11
-0.7079813117
 21
-23.9982478817
  0
LINE
  5
35F
100
AcDbEntity
  8
0
100
AcDbLine
 62
250
  6
CONTINUOUS
 10
-0.7079813117
 20
22.3737961104
 11
-0.7079813117
 21
23.9982478817
  0
LINE
  5
360
100
AcDbEntity
  8
ASSI
100
AcDbLine
 62
7
  6
CONTINUOUS
 10
-0.6029813117
 20
4.15
 11
-0.6029813117
 21
0.65
  0
LINE
  5
361
100
AcDbEntity
  8
CURVE
100
AcDbLine
 62
250
  6
CONTINUOUS
 10
-0.2936956996
 20
8.1428571939
 11
-0.2936956996
 21
8.5714285944
  0
LINE
  5
362
100
AcDbEntity
  8
ASSI
100
AcDbLine
 62
7
  6
CONTINUOUS
 10
-0.1529813117
 20
4.15
 11
-0.1529813117
 21
0.65
  0
LINE
  5
363
100
AcDbEntity
  8
0
100
AcDbLine
 62
7
  6
CONTINUOUS
 10
-0.0679813117
 20
4.15
 11
-0.0679813117
 21
0.65
  0
LINE
  5
364
100
AcDbEntity
  8
0
100
AcDbLine
 62
7
  6
CONTINUOUS
 10
0.1320186883
 20
-5.3
 11
0.1320186883
 21
-4.4
  0
LINE
  5
365
100
AcDbEntity
  8
0
100
AcDbLine
 62
7
  6
CONTINUOUS
 10
-0.9077909602
 20
23.8087205449
 11
-0.9079813117
 21
23.7982512664
  0
LWPOLYLINE
  5
366
100
AcDbEntity
  8
0
100
AcDbPolyline
 62
7
  6
CONTINUOUS
 90
3
 70
0
 10
-5.3593923013
 20
-5.0045905971
 10
-5.3830429406
 20
-5.028344052
 10
-5.4344714371
 20
-5.0805206234
  0
LWPOLYLINE
  5
367
100
AcDbEntity
  8
0
100
AcDbPolyline
 62
7
  6
CONTINUOUS
 90
3
 70
0
 10
4.343486176
 20
4.8045316954
 10
4.3671353725
 20
4.8282714499
 10
4.4185574872
 20
4.8804199592
  0
LWPOLYLINE
  5
368
100
AcDbEntity
  8
0
100
AcDbPolyline
 62
7
  6
CONTINUOUS
 90
3
 70
0
 10
-5.3600972942
 20
-3.4043818464
 10
-5.3836856571
 20
-3.4279722235
 10
-5.4348986094
 20
-3.4797555835
  0
LINE
  5
369
100
AcDbEntity
  8
0
100
AcDbLine
 62
7
  6
CONTINUOUS
 10
4.4185574872
 20
4.8804199592
 11
4.7206392009
 21
5.1840396328
  0
LINE
  5
36A
100
AcDbEntity
  8
0
100
AcDbLine
 62
7
  6
CONTINUOUS
 10
-5.4344714371
 20
-5.0805206234
 11
-5.7365864412
 21
-5.3842241645
  0
LINE
  5
36B
100
AcDbEntity
  8
0
100
AcDbLine
 62
7
  6
CONTINUOUS
 10
-5.4348986094
 20
-3.4797555835
 11
-5.7364874654
 21
-3.7825255541
  0
LINE
  5
36C
100
AcDbEntity
  8
0
100
AcDbLine
 62
7
  6
CONTINUOUS
 10
-5.7364874654
 20
-3.7825255541
 11
-5.7674731305
 21
-3.813305124
  0
LINE
  5
36D
100
AcDbEntity
  8
0
100
AcDbLine
 62
7
  6
CONTINUOUS
 10
4.7206392009
 20
5.1840396328
 11
4.7514002118
 21
5.2145961196
  0
LINE
  5
36E
100
AcDbEntity
  8
0
100
AcDbLine
 62
7
  6
CONTINUOUS
 10
-5.7365864412
 20
-5.3842241645
 11
-5.7673442837
 21
-5.4147777497
  0
LWPOLYLINE
  5
36F
100
AcDbEntity
  8
0
100
AcDbPolyline
 62
7
  6
CONTINUOUS
 90
7
 70
0
 10
4.2514192503
 20
4.709400562
 10
4.2547608924
 20
4.7122741983
 10
4.2614729119
 20
4.7196377944
 10
4.2715553088
 20
4.7309154201
 10
4.2854022807
 20
4.7454577913
 10
4.30261963
 20
4.7627456319
 10
4.343486176
 20
4.8045316954
  0
LWPOLYLINE
  5
370
100
AcDbEntity
  8
0
100
AcDbPolyline
 62
7
  6
CONTINUOUS
 90
7
 70
0
 10
-5.267492169
 20
-3.3095108573
 10
-5.2709639187
 20
-3.3123800244
 10
-5.2777911298
 20
-3.3197307085
 10
-5.2879738024
 20
-3.330986829
 10
-5.3019152045
 20
-3.3455039727
 10
-5.3192120679
 20
-3.3627602222
 10
-5.3600972942
 20
-3.4043818464
  0
LWPOLYLINE
  5
371
100
AcDbEntity
  8
0
100
AcDbPolyline
 62
7
  6
CONTINUOUS
 90
2
 70
0
 43
0.3500000087
 10
20.6060377731
 20
-1.3571421616
 10
19.1060384399
 20
-1.3571421616
  0
LWPOLYLINE
  5
372
100
AcDbEntity
  8
0
100
AcDbPolyline
 62
7
  6
CONTINUOUS
 90
6
 70
0
 10
4.2515295456
 20
-3.3095108573
 10
4.2550012958
 20
-3.3123800247
 10
4.2618285076
 20
-3.3197307094
 10
4.272011181
 20
-3.3309868307
 10
4.285952584
 20
-3.3455039753
 10
4.3032494486
 20
-3.3627602259
  0
LINE
  5
373
100
AcDbEntity
  8
0
100
AcDbLine
 62
7
  6
CONTINUOUS
 10
1.9207272403
 20
-3.7827283925
 11
1.9515105072
 21
-3.813305124
  0
LINE
  5
374
100
AcDbEntity
  8
0
100
AcDbLine
 62
7
  6
CONTINUOUS
 10
1.6188783866
 20
-3.4796963518
 11
1.9207272403
 21
-3.7827283925
  0
LINE
  5
375
100
AcDbEntity
  8
0
100
AcDbLine
 62
7
  6
CONTINUOUS
 10
1.5675010444
 20
-3.427744208
 11
1.6188783866
 21
-3.4796963518
  0
LWPOLYLINE
  5
376
100
AcDbEntity
  8
0
100
AcDbPolyline
 62
7
  6
CONTINUOUS
 90
3
 70
0
 10
1.5029760533
 20
-3.3624786832
 10
1.5438620238
 20
-3.4041003144
 10
1.5675010444
 20
-3.427744208
  0
LINE
  5
377
100
AcDbEntity
  8
0
100
AcDbLine
 62
7
  6
CONTINUOUS
 10
0.3920186883
 20
-6.1
 11
0.3920186883
 21
-4.9
  0
LINE
  5
378
100
AcDbEntity
  8
0
100
AcDbLine
 62
7
  6
CONTINUOUS
 10
0.4520186883
 20
4.15
 11
0.4520186883
 21
0.65
  0
LINE
  5
379
100
AcDbEntity
  8
0
100
AcDbLine
 62
7
  6
CONTINUOUS
 10
0.9520186883
 20
4.15
 11
0.9520186883
 21
0.65
  0
LINE
  5
37A
100
AcDbEntity
  8
CURVE
100
AcDbLine
 62
250
  6
CONTINUOUS
 10
1.2063043004
 20
6.4285714477
 11
1.2063043004
 21
6.857142894
  0
LINE
  5
37B
100
AcDbEntity
  8
0
100
AcDbLine
 62
7
  6
CONTINUOUS
 10
1.3920186883
 20
-4.4
 11
1.3920186883
 21
-2.8
  0
LINE
  5
37C
100
AcDbEntity
  8
0
100
AcDbLine
 62
7
  6
CONTINUOUS
 10
1.4420186883
 20
-4.9
 11
1.4420186883
 21
-3.3
  0
LINE
  5
37D
100
AcDbEntity
  8
0
100
AcDbLine
 62
7
  6
CONTINUOUS
 10
1.4720186883
 20
4.15
 11
1.4720186883
 21
0.65
  0
LINE
  5
37E
100
AcDbEntity
  8
0
100
AcDbLine
 62
7
  6
CONTINUOUS
 10
1.5920186883
 20
23.9912732553
 11
1.5920186883
 21
22.3213883311
  0
LINE
  5
37F
100
AcDbEntity
  8
0
100
AcDbLine
 62
7
  6
CONTINUOUS
 10
1.5920186883
 20
-22.3213883311
 11
1.5920186883
 21
-23.9912732553
  0
LINE
  5
380
100
AcDbEntity
  8
0
100
AcDbLine
 62
7
  6
CONTINUOUS
 10
1.9720186883
 20
4.15
 11
1.9720186883
 21
0.65
  0
LINE
  5
381
100
AcDbEntity
  8
0
100
AcDbLine
 62
250
  6
CONTINUOUS
 10
0.4013302633
 20
-6.109311575
 11
0.4014457658
 21
-4.9094270775
  0
LINE
  5
382
100
AcDbEntity
  8
0
100
AcDbLine
 62
250
  6
CONTINUOUS
 10
0.9012556766
 20
-6.6158528412
 11
0.9013816603
 21
-5.4147777497
  0
LINE
  5
383
100
AcDbEntity
  8
0
100
AcDbLine
 62
250
  6
CONTINUOUS
 10
1.4514457658
 20
-4.9094270775
 11
1.4515606378
 21
-3.3095419495
  0
LINE
  5
384
100
AcDbEntity
  8
0
100
AcDbLine
 62
250
  6
CONTINUOUS
 10
1.9513816603
 20
-5.4147777497
 11
1.9515105072
 21
-3.813305124
  0
LINE
  5
385
100
AcDbEntity
  8
0
100
AcDbLine
 62
250
  6
CONTINUOUS
 10
8.7415265348
 20
22.4
 11
8.6283612108
 21
22.0602279426
  0
LINE
  5
386
100
AcDbEntity
  8
0
100
AcDbLine
 62
250
  6
CONTINUOUS
 10
9.2411463338
 20
21.8997723451
 11
9.1282850584
 21
21.5609131753
  0
LWPOLYLINE
  5
387
100
AcDbEntity
  8
0
100
AcDbPolyline
 62
7
  6
CONTINUOUS
 90
3
 70
0
 10
-4.3102855329
 20
-6.2062026198
 10
-4.3338950867
 20
-6.2299856638
 10
-4.3851517994
 20
-6.2821088412
  0
LWPOLYLINE
  5
388
100
AcDbEntity
  8
0
100
AcDbPolyline
 62
7
  6
CONTINUOUS
 90
3
 70
0
 10
-4.3097869866
 20
-5.0050000013
 10
-4.3333643916
 20
-5.0286755109
 10
-4.3845548885
 20
-5.0806066882
  0
LINE
  5
389
100
AcDbEntity
  8
0
100
AcDbLine
 62
7
  6
CONTINUOUS
 10
-4.3851517994
 20
-6.2821088412
 11
-4.6863805352
 21
-6.585215157
  0
LINE
  5
38A
100
AcDbEntity
  8
0
100
AcDbLine
 62
7
  6
CONTINUOUS
 10
-4.3845548885
 20
-5.0806066882
 11
-4.6862931608
 21
-5.3839301896
  0
LINE
  5
38B
100
AcDbEntity
  8
0
100
AcDbLine
 62
7
  6
CONTINUOUS
 10
-4.6862931608
 20
-5.3839301896
 11
-4.7173442837
 21
-5.4147777497
  0
LINE
  5
38C
100
AcDbEntity
  8
0
100
AcDbLine
 62
7
  6
CONTINUOUS
 10
-4.6863805352
 20
-6.585215157
 11
-4.7172183
 21
-6.6158528412
  0
LWPOLYLINE
  5
38D
100
AcDbEntity
  8
0
100
AcDbPolyline
 62
7
  6
CONTINUOUS
 90
7
 70
0
 10
-5.2673633221
 20
-4.9093820104
 10
-5.270695133
 20
-4.9122603983
 10
-5.2773987468
 20
-4.919635169
 10
-5.2874741636
 20
-4.9309271756
 10
-5.3013154611
 20
-4.9454828523
 10
-5.3185285616
 20
-4.962781041
 10
-5.3593923013
 20
-5.0045905971
  0
LWPOLYLINE
  5
38E
100
AcDbEntity
  8
0
100
AcDbPolyline
 62
7
  6
CONTINUOUS
 90
7
 70
0
 10
-4.2173633221
 20
-4.9093820104
 10
-4.2207831563
 20
-4.9123023196
 10
-4.2275679151
 20
-4.9197721364
 10
-4.2377175986
 20
-4.9311792454
 10
-4.2516383098
 20
-4.9458335346
 10
-4.2689239457
 20
-4.9631908987
 10
-4.3097869866
 20
-5.0050000013
  0
LINE
  5
38F
100
AcDbEntity
  8
0
100
AcDbLine
 62
7
  6
CONTINUOUS
 10
-7.6079813117
 20
0.55
 11
-6.8829813117
 21
0.55
  0
LINE
  5
390
100
AcDbEntity
  8
0
100
AcDbLine
 62
7
  6
CONTINUOUS
 10
3.0670186883
 20
0.55
 11
3.7920186883
 21
0.55
  0
LINE
  5
391
100
AcDbEntity
  8
0
100
AcDbLine
 62
7
  6
CONTINUOUS
 10
-6.6879813117
 20
0.65
 11
-6.1879813117
 21
0.65
  0
LINE
  5
392
100
AcDbEntity
  8
0
100
AcDbLine
 62
7
  6
CONTINUOUS
 10
-5.6679813117
 20
0.65
 11
-5.1679813117
 21
0.65
  0
LINE
  5
393
100
AcDbEntity
  8
0
100
AcDbLine
 62
7
  6
CONTINUOUS
 10
-4.6479813117
 20
0.65
 11
-4.1479813117
 21
0.65
  0
LINE
  5
394
100
AcDbEntity
  8
ASSI
100
AcDbLine
 62
7
  6
CONTINUOUS
 10
-3.6029813117
 20
0.65
 11
-3.1529813117
 21
0.65
  0
LINE
  5
395
100
AcDbEntity
  8
0
100
AcDbLine
 62
7
  6
CONTINUOUS
 10
-3.6279813117
 20
0.65
 11
-3.1279813117
 21
0.65
  0
LINE
  5
396
100
AcDbEntity
  8
ASSI
100
AcDbLine
 62
7
  6
CONTINUOUS
 10
-2.6029813117
 20
0.65
 11
-2.1529813117
 21
0.65
  0
LINE
  5
397
100
AcDbEntity
  8
0
100
AcDbLine
 62
7
  6
CONTINUOUS
 10
-2.6079813117
 20
0.65
 11
-2.1079813117
 21
0.65
  0
LINE
  5
398
100
AcDbEntity
  8
0
100
AcDbLine
 62
7
  6
CONTINUOUS
 10
-1.5879813117
 20
0.65
 11
-1.0879813117
 21
0.65
  0
LINE
  5
399
100
AcDbEntity
  8
ASSI
100
AcDbLine
 62
7
  6
CONTINUOUS
 10
-1.6029813117
 20
0.65
 11
-1.1529813117
 21
0.65
  0
LINE
  5
39A
100
AcDbEntity
  8
ASSI
100
AcDbLine
 62
7
  6
CONTINUOUS
 10
-0.6029813117
 20
0.65
 11
-0.1529813117
 21
0.65
  0
LINE
  5
39B
100
AcDbEntity
  8
0
100
AcDbLine
 62
7
  6
CONTINUOUS
 10
-0.5679813117
 20
0.65
 11
-0.0679813117
 21
0.65
  0
LINE
  5
39C
100
AcDbEntity
  8
0
100
AcDbLine
 62
7
  6
CONTINUOUS
 10
0.4520186883
 20
0.65
 11
0.9520186883
 21
0.65
  0
LINE
  5
39D
100
AcDbEntity
  8
0
100
AcDbLine
 62
7
  6
CONTINUOUS
 10
1.4720186883
 20
0.65
 11
1.9720186883
 21
0.65
  0
LINE
  5
39E
100
AcDbEntity
  8
0
100
AcDbLine
 62
7
  6
CONTINUOUS
 10
2.4920186883
 20
0.65
 11
2.9920186883
 21
0.65
  0
LINE
  5
39F
100
AcDbEntity
  8
0
100
AcDbLine
 62
7
  6
CONTINUOUS
 10
4.7205248433
 20
-3.7825255553
 11
4.7515105072
 21
-3.813305124
  0
LINE
  5
3A0
100
AcDbEntity
  8
0
100
AcDbLine
 62
7
  6
CONTINUOUS
 10
4.4189359941
 20
-3.479755591
 11
4.7205248433
 21
-3.7825255553
  0
LINE
  5
3A1
100
AcDbEntity
  8
0
100
AcDbLine
 62
7
  6
CONTINUOUS
 10
4.3677230406
 20
-3.4279722298
 11
4.4189359941
 21
-3.479755591
  0
LWPOLYLINE
  5
3A2
100
AcDbEntity
  8
0
100
AcDbPolyline
 62
7
  6
CONTINUOUS
 90
3
 70
0
 10
4.3032494486
 20
-3.3627602259
 10
4.3441346769
 20
-3.404381852
 10
4.3677230406
 20
-3.4279722298
  0
LWPOLYLINE
  5
3A3
100
AcDbEntity
  8
0
100
AcDbPolyline
 62
250
  6
CONTINUOUS
 90
16
 70
0
 10
-12.0507005628
 20
22.5346275426
 10
-12.0491642281
 20
22.5321097822
 10
-12.0448963357
 20
22.5296793735
 10
-12.037970489
 20
22.5273363168
 10
-12.0284953772
 20
22.525059338
 10
-12.0165950225
 20
22.5228697111
 10
-12.0023909994
 20
22.5208312575
 10
-11.9860546748
 20
22.5189488052
 10
-11.9677617892
 20
22.5172175262
 10
-11.9476381187
 20
22.5156867588
 10
-11.9258682885
 20
22.5143592575
 10
-11.9026935216
 20
22.5132322677
 10
-11.8783296265
 20
22.5123468641
 10
-11.8530232881
 20
22.5117167381
 10
-11.8270540174
 20
22.5113281982
 10
-11.8007047936
 20
22.5111812444
  0
LINE
  5
3A4
100
AcDbEntity
  8
0
100
AcDbLine
 62
250
  6
CONTINUOUS
 10
8.6283612108
 20
-22.0602279426
 11
8.7415265348
 21
-22.4
  0
LINE
  5
3A5
100
AcDbEntity
  8
0
100
AcDbLine
 62
250
  6
CONTINUOUS
 10
9.1282803462
 20
-21.5608990273
 11
9.2411463338
 21
-21.8997723451
  0
LINE
  5
3A6
100
AcDbEntity
  8
0
100
AcDbLine
 62
7
  6
CONTINUOUS
 10
2.4920186883
 20
4.15
 11
2.4920186883
 21
0.65
  0
LINE
  5
3A7
100
AcDbEntity
  8
0
100
AcDbLine
 62
7
  6
CONTINUOUS
 10
2.5332919436
 20
-23.9912732553
 11
2.5332919436
 21
-22.3213883311
  0
LINE
  5
3A8
100
AcDbEntity
  8
0
100
AcDbLine
 62
7
  6
CONTINUOUS
 10
2.5332919436
 20
22.3213883311
 11
2.5332919436
 21
23.9912732553
  0
LINE
  5
3A9
100
AcDbEntity
  8
0
100
AcDbLine
 62
7
  6
CONTINUOUS
 10
2.9920186883
 20
4.15
 11
2.9920186883
 21
0.65
  0
LINE
  5
3AA
100
AcDbEntity
  8
0
100
AcDbLine
 62
7
  6
CONTINUOUS
 10
3.0670186883
 20
-2.8
 11
3.0670186883
 21
0.55
  0
LINE
  5
3AB
100
AcDbEntity
  8
0
100
AcDbLine
 62
7
  6
CONTINUOUS
 10
3.0670186883
 20
2.25
 11
3.0670186883
 21
4.15
  0
LINE
  5
3AC
100
AcDbEntity
  8
0
100
AcDbLine
 62
7
  6
CONTINUOUS
 10
3.7920186883
 20
0.55
 11
3.7920186883
 21
2.25
  0
LWPOLYLINE
  5
3AD
100
AcDbEntity
  8
0
100
AcDbPolyline
 62
250
  6
CONTINUOUS
 90
12
 70
0
 10
9.1282850584
 20
21.5609131753
 10
9.1280009959
 20
21.559792927
 10
9.1277182669
 20
21.5581477697
 10
9.1274368717
 20
21.5559777033
 10
9.1271564977
 20
21.5532792661
 10
9.1268774574
 20
21.5500559198
 10
9.1266006875
 20
21.5463180499
 10
9.1263262109
 20
21.5420640567
 10
9.1260540047
 20
21.5372955399
 10
9.1257849377
 20
21.5320276846
 10
9.1255190209
 20
21.5262589115
 10
9.1249974398
 20
21.5132432737
  0
LWPOLYLINE
  5
3AE
100
AcDbEntity
  8
0
100
AcDbPolyline
 62
7
  6
CONTINUOUS
 90
7
 70
0
 10
-4.2163510137
 20
-6.1092560268
 10
-4.2203564312
 20
-6.1123182305
 10
-4.2275909151
 20
-6.120103164
 10
-4.2380544654
 20
-6.131877969
 10
-4.2521089257
 20
-6.1467916988
 10
-4.2693924524
 20
-6.1642366173
 10
-4.3102855329
 20
-6.2062026198
  0
LINE
  5
3AF
100
AcDbEntity
  8
0
100
AcDbLine
 62
7
  6
CONTINUOUS
 10
3.7920186883
 20
2.25
 11
3.0670186883
 21
2.25
  0
LINE
  5
3B0
100
AcDbEntity
  8
0
100
AcDbLine
 62
7
  6
CONTINUOUS
 10
-6.8829813117
 20
2.25
 11
-7.6079813117
 21
2.25
  0
LINE
  5
3B1
100
AcDbEntity
  8
ASSI
100
AcDbLine
 62
250
  6
CONTINUOUS
 10
-3.6029813117
 20
3.7269999865
 11
-3.1529813117
 21
3.7269999865
  0
LINE
  5
3B2
100
AcDbEntity
  8
ASSI
100
AcDbLine
 62
250
  6
CONTINUOUS
 10
-2.6029813117
 20
3.7269999865
 11
-2.1529813117
 21
3.7269999865
  0
LINE
  5
3B3
100
AcDbEntity
  8
ASSI
100
AcDbLine
 62
250
  6
CONTINUOUS
 10
-1.6029813117
 20
3.7269999865
 11
-1.1529813117
 21
3.7269999865
  0
LINE
  5
3B4
100
AcDbEntity
  8
ASSI
100
AcDbLine
 62
250
  6
CONTINUOUS
 10
-0.6029813117
 20
3.7269999865
 11
-0.1529813117
 21
3.7269999865
  0
LINE
  5
3B5
100
AcDbEntity
  8
CURVE
100
AcDbLine
 62
250
  6
CONTINUOUS
 10
-3.9365527147
 20
7.5
 11
-3.5079813117
 21
7.071428597
  0
LINE
  5
3B6
100
AcDbEntity
  8
CURVE
100
AcDbLine
 62
250
  6
CONTINUOUS
 10
-2.6508385056
 20
6.4285714477
 11
-2.2222671026
 21
6.0
  0
LINE
  5
3B7
100
AcDbEntity
  8
0
100
AcDbLine
 62
250
  6
CONTINUOUS
 10
5.355117267
 20
-23.8443375673
 11
5.3492994372
 21
-23.2669872981
  0
LINE
  5
3B8
100
AcDbEntity
  8
0
100
AcDbLine
 62
250
  6
CONTINUOUS
 10
5.6051130362
 20
-23.6278312164
 11
5.6000224352
 21
-23.1226497308
  0
LINE
  5
3B9
100
AcDbEntity
  8
0
100
AcDbLine
 62
7
  6
CONTINUOUS
 10
4.2420186883
 20
-3.3
 11
4.2420186883
 21
4.7
  0
LINE
  5
3BA
100
AcDbEntity
  8
0
100
AcDbLine
 62
7
  6
CONTINUOUS
 10
5.3420186883
 20
-23.2669872981
 11
5.3420186883
 21
-23.8443375673
  0
LINE
  5
3BB
100
AcDbEntity
  8
0
100
AcDbLine
 62
7
  6
CONTINUOUS
 10
5.3420186883
 20
23.2669872981
 11
5.3420186883
 21
23.8443375673
  0
LINE
  5
3BC
100
AcDbEntity
  8
0
100
AcDbLine
 62
7
  6
CONTINUOUS
 10
5.3492994372
 20
23.2669872981
 11
5.3492994372
 21
22.5346275426
  0
LINE
  5
3BD
100
AcDbEntity
  8
0
100
AcDbLine
 62
7
  6
CONTINUOUS
 10
5.3492994372
 20
-22.5346275426
 11
5.3492994372
 21
-23.2669872981
  0
LINE
  5
3BE
100
AcDbEntity
  8
0
100
AcDbLine
 62
7
  6
CONTINUOUS
 10
5.355117267
 20
24.2369056521
 11
5.355117267
 21
23.8443375673
  0
LINE
  5
3BF
100
AcDbEntity
  8
0
100
AcDbLine
 62
7
  6
CONTINUOUS
 10
5.355117267
 20
-23.8443375673
 11
5.355117267
 21
-24.2369056521
  0
LINE
  5
3C0
100
AcDbEntity
  8
0
100
AcDbLine
 62
250
  6
CONTINUOUS
 10
5.5992952064
 20
-22.3114553375
 11
5.5992952064
 21
-23.1226497308
  0
LINE
  5
3C1
100
AcDbEntity
  8
0
100
AcDbLine
 62
250
  6
CONTINUOUS
 10
5.5992952064
 20
22.3114553375
 11
5.5992952064
 21
23.1226497308
  0
LINE
  5
3C2
100
AcDbEntity
  8
0
100
AcDbLine
 62
250
  6
CONTINUOUS
 10
5.6051130362
 20
-23.6278312164
 11
5.6051130362
 21
-24.4869014213
  0
LINE
  5
3C3
100
AcDbEntity
  8
0
100
AcDbLine
 62
250
  6
CONTINUOUS
 10
5.6051130362
 20
23.6278312164
 11
5.6051130362
 21
24.4869014213
  0
LINE
  5
3C4
100
AcDbEntity
  8
0
100
AcDbLine
 62
250
  6
CONTINUOUS
 10
4.2515606378
 20
-3.3095419495
 11
4.2514625705
 21
4.7094438822
  0
LINE
  5
3C5
100
AcDbEntity
  8
0
100
AcDbLine
 62
250
  6
CONTINUOUS
 10
4.7515105072
 20
-3.813305124
 11
4.7514002118
 21
5.2145961196
  0
LINE
  5
3C6
100
AcDbEntity
  8
0
100
AcDbLine
 62
250
  6
CONTINUOUS
 10
5.3492994372
 20
23.2669872981
 11
5.355117267
 21
23.8443375673
  0
LINE
  5
3C7
100
AcDbEntity
  8
0
100
AcDbLine
 62
250
  6
CONTINUOUS
 10
5.6000224352
 20
23.1226497308
 11
5.6051130362
 21
23.6278312164
  0
LWPOLYLINE
  5
3C8
100
AcDbEntity
  8
0
100
AcDbPolyline
 62
7
  6
CONTINUOUS
 90
34
 70
0
 10
5.3420186883
 20
24.2500042308
 10
5.3423018385
 20
24.261899516
 10
5.3431506541
 20
24.2737678556
 10
5.3445632142
 20
24.2855823661
 10
5.3465363206
 20
24.2973162875
 10
5.3490655066
 20
24.3089430388
 10
5.3521450466
 20
24.320436279
 10
5.355767967
 20
24.3317699738
 10
5.3599260625
 20
24.3429184493
 10
5.3646099161
 20
24.3538564463
 10
5.3698089195
 20
24.3645591876
 10
5.3755112967
 20
24.3750024283
 10
5.3817041302
 20
24.3851625059
 10
5.3883733928
 20
24.3950164051
 10
5.3955039776
 20
24.4045418038
 10
5.4030797294
 20
24.4137171191
 10
5.4110834878
 20
24.4225215661
 10
5.4194971222
 20
24.4309352005
 10
5.4283015692
 20
24.4389389589
 10
5.4374768845
 20
24.4465147107
 10
5.4470022832
 20
24.4536452955
 10
5.4568561824
 20
24.4603145581
 10
5.46701626
 20
24.4665073916
 10
5.4774595007
 20
24.4722097688
 10
5.488162242
 20
24.4774087722
 10
5.499100239
 20
24.4820926258
 10
5.5102487145
 20
24.4862507213
 10
5.5215824093
 20
24.4898736417
 10
5.5330756495
 20
24.4929531817
 10
5.5447024008
 20
24.4954823677
 10
5.5564363222
 20
24.4974554741
 10
5.5682508327
 20
24.4988680342
 10
5.5801191723
 20
24.4997168498
 10
5.5920144575
 20
24.5
  0
LWPOLYLINE
  5
3C9
100
AcDbEntity
  8
0
100
AcDbPolyline
 62
7
  6
CONTINUOUS
 90
34
 70
0
 10
5.355117267
 20
24.2369056521
 10
5.3554008178
 20
24.2488006736
 10
5.3562500228
 20
24.2606687503
 10
5.3576629582
 20
24.2724829982
 10
5.3596364234
 20
24.2842166554
 10
5.3621659482
 20
24.2958431426
 10
5.3652458026
 20
24.3073361233
 10
5.36886901
 20
24.3186695631
 10
5.3730273631
 20
24.3298177893
 10
5.3777114421
 20
24.3407555487
 10
5.3829106368
 20
24.3514580649
 10
5.3886131696
 20
24.3619010942
 10
5.3948061232
 20
24.3720609807
 10
5.401475469
 20
24.3819147102
 10
5.4086060996
 20
24.3914399617
 10
5.4161818624
 20
24.4006151584
 10
5.4241855966
 20
24.4094195163
 10
5.432599172
 20
24.4178330917
 10
5.4414035299
 20
24.4258368259
 10
5.4505787266
 20
24.4334125887
 10
5.4601039781
 20
24.4405432193
 10
5.4699577076
 20
24.4472125651
 10
5.4801175941
 20
24.4534055187
 10
5.4905606234
 20
24.4591080515
 10
5.5012631396
 20
24.4643072462
 10
5.512200899
 20
24.4689913253
 10
5.5233491252
 20
24.4731496783
 10
5.534682565
 20
24.4767728857
 10
5.5461755457
 20
24.4798527401
 10
5.5578020329
 20
24.4823822649
 10
5.5695356901
 20
24.4843557301
 10
5.581349938
 20
24.4857686655
 10
5.5932180147
 20
24.4866178705
 10
5.6051130362
 20
24.4869014213
  0
LWPOLYLINE
  5
3CA
100
AcDbEntity
  8
0
100
AcDbPolyline
 62
250
  6
CONTINUOUS
 90
9
 70
0
 10
8.6283612108
 20
22.0602279426
 10
8.628076953
 20
22.0579922626
 10
8.6277940874
 20
22.0546983775
 10
8.627512614
 20
22.0503498153
 10
8.6272322424
 20
22.0449512541
 10
8.6269532631
 20
22.0385084369
 10
8.6266765474
 20
22.0310281125
 10
8.6264020931
 20
22.0225181306
 10
8.6258608541
 20
22.0024466391
  0
LINE
  5
3CB
100
AcDbEntity
  8
0
100
AcDbLine
 62
7
  6
CONTINUOUS
 10
3.0670186883
 20
4.15
 11
-6.8829813117
 21
4.15
  0
LINE
  5
3CC
100
AcDbEntity
  8
0
100
AcDbLine
 62
7
  6
CONTINUOUS
 10
4.2514192503
 20
4.709400562
 11
-8.0673818737
 21
4.709400562
  0
LINE
  5
3CD
100
AcDbEntity
  8
0
100
AcDbLine
 62
250
  6
CONTINUOUS
 10
4.7514002118
 20
5.2145961196
 11
-8.5673628352
 21
5.2145961196
  0
LINE
  5
3CE
100
AcDbEntity
  8
CURVE
100
AcDbLine
 62
250
  6
CONTINUOUS
 10
-4.1508384162
 20
8.9285713434
 11
-3.7222670132
 21
8.571428597
  0
LINE
  5
3CF
100
AcDbEntity
  8
CURVE
100
AcDbLine
 62
250
  6
CONTINUOUS
 10
-0.2936956996
 20
6.2142857239
 11
-0.0794097299
 21
6.0
  0
LWPOLYLINE
  5
3D0
100
AcDbEntity
  8
0
100
AcDbPolyline
 62
7
  6
CONTINUOUS
 90
46
 70
0
 10
5.3492994372
 20
23.2669872981
 10
5.3494716885
 20
23.2624086438
 10
5.3498977643
 20
23.2578133363
 10
5.3505799819
 20
23.2532084873
 10
5.3515203832
 20
23.2486040164
 10
5.3527207498
 20
23.2440046301
 10
5.3541826888
 20
23.2394098269
 10
5.3559074895
 20
23.2348274049
 10
5.3578961737
 20
23.2302649474
 10
5.3601496939
 20
23.2257218339
 10
5.3626685242
 20
23.2212061961
 10
5.3654528626
 20
23.2167259548
 10
5.368502998
 20
23.2122803754
 10
5.3718185305
 20
23.2078778818
 10
5.37539878
 20
23.2035266855
 10
5.3792433687
 20
23.1992259418
 10
5.3833509768
 20
23.1949843084
 10
5.3877199799
 20
23.190810255
 10
5.3923492914
 20
23.1867028731
 10
5.3972366094
 20
23.1826710024
 10
5.4023792977
 20
23.1787233192
 10
5.4077754969
 20
23.174858895
 10
5.413421858
 20
23.1710866868
 10
5.4193146544
 20
23.1674155212
 10
5.4254511516
 20
23.1638445008
 10
5.4318268819
 20
23.1603826202
 10
5.438436941
 20
23.1570387866
 10
5.4452775781
 20
23.1538121858
 10
5.4523431276
 20
23.1507117507
 10
5.459627416
 20
23.1477463786
 10
5.4671255014
 20
23.1449153837
 10
5.4748304353
 20
23.1422275134
 10
5.4827346884
 20
23.139691538
 10
5.4908319393
 20
23.1373069291
 10
5.4991138411
 20
23.1350821053
 10
5.5075714667
 20
23.1330255505
 10
5.5161970446
 20
23.1311368767
 10
5.5249807801
 20
23.1294239958
 10
5.5339122856
 20
23.1278949421
 10
5.5429822609
 20
23.1265494608
 10
5.5521661484
 20
23.1253969981
 10
5.5614651766
 20
23.1244418396
 10
5.5709088378
 20
23.123679751
 10
5.580498809
 20
23.1231181344
 10
5.5902080295
 20
23.1227714623
 10
5.6000224352
 20
23.1226497308
  0
LWPOLYLINE
  5
3D1
100
AcDbEntity
  8
0
100
AcDbPolyline
 62
7
  6
CONTINUOUS
 90
46
 70
0
 10
8.2347379394
 20
-23.2669872981
 10
8.2345656881
 20
-23.2624086438
 10
8.2341396123
 20
-23.2578133363
 10
8.2334573947
 20
-23.2532084873
 10
8.2325169934
 20
-23.2486040164
 10
8.2313166268
 20
-23.2440046301
 10
8.2298546878
 20
-23.2394098269
 10
8.2281298871
 20
-23.2348274049
 10
8.2261412029
 20
-23.2302649474
 10
8.2238876827
 20
-23.2257218339
 10
8.2213688524
 20
-23.2212061961
 10
8.218584514
 20
-23.2167259548
 10
8.2155343786
 20
-23.2122803754
 10
8.2122188461
 20
-23.2078778818
 10
8.2086385966
 20
-23.2035266855
 10
8.2047940079
 20
-23.1992259418
 10
8.2006863998
 20
-23.1949843084
 10
8.1963173967
 20
-23.190810255
 10
8.1916880852
 20
-23.1867028731
 10
8.1868007673
 20
-23.1826710024
 10
8.1816580789
 20
-23.1787233192
 10
8.1762618797
 20
-23.174858895
 10
8.1706155186
 20
-23.1710866868
 10
8.1647227222
 20
-23.1674155212
 10
8.158586225
 20
-23.1638445008
 10
8.1522104947
 20
-23.1603826202
 10
8.1456004356
 20
-23.1570387866
 10
8.1387597985
 20
-23.1538121858
 10
8.131694249
 20
-23.1507117507
 10
8.1244099606
 20
-23.1477463786
 10
8.1169118752
 20
-23.1449153837
 10
8.1092069413
 20
-23.1422275134
 10
8.1013026882
 20
-23.139691538
 10
8.0932054373
 20
-23.1373069291
 10
8.0849235355
 20
-23.1350821053
 10
8.0764659099
 20
-23.1330255505
 10
8.067840332
 20
-23.1311368767
 10
8.0590565965
 20
-23.1294239958
 10
8.050125091
 20
-23.1278949421
 10
8.0410551157
 20
-23.1265494608
 10
8.0318712282
 20
-23.1253969981
 10
8.0225722
 20
-23.1244418396
 10
8.0131285388
 20
-23.123679751
 10
8.0035385676
 20
-23.1231181344
 10
7.9938293471
 20
-23.1227714623
 10
7.9840149415
 20
-23.1226497308
  0
LWPOLYLINE
  5
3D2
100
AcDbEntity
  8
0
100
AcDbPolyline
 62
250
  6
CONTINUOUS
 90
34
 70
0
 10
5.355117267
 20
23.8443375673
 10
5.3554339177
 20
23.8340547998
 10
5.3563140795
 20
23.8237952398
 10
5.3577557658
 20
23.8135820427
 10
5.3597557228
 20
23.803438259
 10
5.3623094369
 20
23.7933867826
 10
5.3654111442
 20
23.7834502991
 10
5.3690538447
 20
23.7736512346
 10
5.3732293167
 20
23.764011705
 10
5.3779281366
 20
23.7545534661
 10
5.3831396994
 20
23.7452978646
 10
5.388852243
 20
23.7362657898
 10
5.3950528743
 20
23.7274776267
 10
5.4017275991
 20
23.7189532096
 10
5.4088613527
 20
23.7107117775
 10
5.4164380349
 20
23.702771931
 10
5.4244405453
 20
23.6951515897
 10
5.4328508229
 20
23.6878679524
 10
5.4416498861
 20
23.6809374578
 10
5.450817876
 20
23.6743757476
 10
5.460334101
 20
23.6681976311
 10
5.4701770835
 20
23.6624170521
 10
5.4803246084
 20
23.6570470569
 10
5.4907537735
 20
23.6520997654
 10
5.5014410407
 20
23.6475863432
 10
5.5123622894
 20
23.6435169769
 10
5.5234928711
 20
23.6399008509
 10
5.5348076647
 20
23.6367461264
 10
5.5462811333
 20
23.6340599235
 10
5.5578873821
 20
23.6318483049
 10
5.5696002164
 20
23.630116262
 10
5.5813932011
 20
23.6288677039
 10
5.59323972
 20
23.6281054486
 10
5.6051130362
 20
23.6278312164
  0
LWPOLYLINE
  5
3D3
100
AcDbEntity
  8
0
100
AcDbPolyline
 62
250
  6
CONTINUOUS
 90
34
 70
0
 10
8.2289201096
 20
-23.8443375673
 10
8.2286034476
 20
-23.8340546062
 10
8.2277232534
 20
-23.823794854
 10
8.2262815135
 20
-23.8135814673
 10
8.2242814834
 20
-23.8034375035
 10
8.2217276765
 20
-23.7933858521
 10
8.2186258511
 20
-23.7834491834
 10
8.2149830004
 20
-23.773649913
 10
8.2108073474
 20
-23.7640101717
 10
8.2061083252
 20
-23.7545517387
 10
8.2008965451
 20
-23.7452959695
 10
8.1951837675
 20
-23.7362637463
 10
8.1889828843
 20
-23.7274754512
 10
8.1823078906
 20
-23.7189509186
 10
8.1751738531
 20
-23.7107093898
 10
8.1675968736
 20
-23.7027694659
 10
8.159594054
 20
-23.6951490678
 10
8.1511834569
 20
-23.6878653946
 10
8.1423840643
 20
-23.680934885
 10
8.1332157384
 20
-23.6743731824
 10
8.123699171
 20
-23.6681950956
 10
8.1138558348
 20
-23.6624145653
 10
8.1037079334
 20
-23.6570446328
 10
8.0932783825
 20
-23.6520974265
 10
8.0825907549
 20
-23.6475841265
 10
8.071669195
 20
-23.6435149235
 10
8.0605383352
 20
-23.6398989896
 10
8.0492232716
 20
-23.6367444758
 10
8.0377492496
 20
-23.6340584395
 10
8.0261424522
 20
-23.6318470295
 10
8.0144299433
 20
-23.630115347
 10
8.0026384664
 20
-23.6288672183
 10
7.9907943556
 20
-23.6281053043
 10
7.9789243404
 20
-23.6278312164
  0
LWPOLYLINE
  5
3D4
100
AcDbEntity
  8
0
100
AcDbPolyline
 62
250
  6
CONTINUOUS
 90
34
 70
0
 10
5.355117267
 20
-23.8443375673
 10
5.3554339177
 20
-23.8340547998
 10
5.3563140795
 20
-23.8237952398
 10
5.3577557658
 20
-23.8135820427
 10
5.3597557228
 20
-23.803438259
 10
5.3623094369
 20
-23.7933867826
 10
5.3654111442
 20
-23.7834502991
 10
5.3690538447
 20
-23.7736512346
 10
5.3732293167
 20
-23.764011705
 10
5.3779281366
 20
-23.7545534661
 10
5.3831396994
 20
-23.7452978646
 10
5.388852243
 20
-23.7362657898
 10
5.3950528743
 20
-23.7274776267
 10
5.4017275991
 20
-23.7189532096
 10
5.4088613527
 20
-23.7107117775
 10
5.4164380349
 20
-23.702771931
 10
5.4244405453
 20
-23.6951515897
 10
5.4328508229
 20
-23.6878679524
 10
5.4416498861
 20
-23.6809374578
 10
5.450817876
 20
-23.6743757476
 10
5.460334101
 20
-23.6681976311
 10
5.4701770835
 20
-23.6624170521
 10
5.4803246084
 20
-23.6570470569
 10
5.4907537735
 20
-23.6520997654
 10
5.5014410407
 20
-23.6475863432
 10
5.5123622894
 20
-23.6435169769
 10
5.5234928711
 20
-23.6399008509
 10
5.5348076647
 20
-23.6367461264
 10
5.5462811333
 20
-23.6340599235
 10
5.5578873821
 20
-23.6318483049
 10
5.5696002164
 20
-23.630116262
 10
5.5813932011
 20
-23.6288677039
 10
5.59323972
 20
-23.6281054486
 10
5.6051130362
 20
-23.6278312164
  0
LWPOLYLINE
  5
3D5
100
AcDbEntity
  8
0
100
AcDbPolyline
 62
250
  6
CONTINUOUS
 90
34
 70
0
 10
8.2289201096
 20
23.8443375673
 10
8.2286034589
 20
23.8340547998
 10
8.2277232971
 20
23.8237952398
 10
8.2262816108
 20
23.8135820427
 10
8.2242816538
 20
23.803438259
 10
8.2217279398
 20
23.7933867826
 10
8.2186262324
 20
23.7834502991
 10
8.214983532
 20
23.7736512346
 10
8.2108080599
 20
23.764011705
 10
8.20610924
 20
23.7545534661
 10
8.2008976772
 20
23.7452978646
 10
8.1951851336
 20
23.7362657898
 10
8.1889845023
 20
23.7274776267
 10
8.1823097775
 20
23.7189532096
 10
8.1751760239
 20
23.7107117775
 10
8.1675993418
 20
23.702771931
 10
8.1595968313
 20
23.6951515897
 10
8.1511865537
 20
23.6878679524
 10
8.1423874905
 20
23.6809374578
 10
8.1332195006
 20
23.6743757476
 10
8.1237032756
 20
23.6681976311
 10
8.1138602931
 20
23.6624170521
 10
8.1037127682
 20
23.6570470569
 10
8.0932836031
 20
23.6520997654
 10
8.0825963359
 20
23.6475863432
 10
8.0716750872
 20
23.6435169769
 10
8.0605445055
 20
23.6399008509
 10
8.0492297119
 20
23.6367461264
 10
8.0377562433
 20
23.6340599235
 10
8.0261499945
 20
23.6318483049
 10
8.0144371602
 20
23.630116262
 10
8.0026441755
 20
23.6288677039
 10
7.9907976566
 20
23.6281054486
 10
7.9789243404
 20
23.6278312164
  0
LINE
  5
3D6
100
AcDbEntity
  8
0
100
AcDbLine
 62
250
  6
CONTINUOUS
 10
8.4347345548
 20
22.3349016357
 11
8.4419611767
 21
22.4
  0
LINE
  5
3D7
100
AcDbEntity
  8
0
100
AcDbLine
 62
250
  6
CONTINUOUS
 10
5.1493028218
 20
-22.3349016357
 11
5.1420762
 21
-22.4
  0
LINE
  5
3D8
100
AcDbEntity
  8
CURVE
100
AcDbLine
 62
250
  6
CONTINUOUS
 10
-2.2222671026
 20
6.0
 11
-1.5794097299
 21
6.0
  0
LINE
  5
3D9
100
AcDbEntity
  8
CURVE
100
AcDbLine
 62
250
  6
CONTINUOUS
 10
-0.0794097299
 20
6.0
 11
0.7777330762
 21
6.0
  0
LINE
  5
3DA
100
AcDbEntity
  8
CURVE
100
AcDbLine
 62
250
  6
CONTINUOUS
 10
-3.9365527147
 20
6.0
 11
-5.0079813117
 21
6.0
  0
LINE
  5
3DB
100
AcDbEntity
  8
CURVE
100
AcDbLine
 62
250
  6
CONTINUOUS
 10
-3.9365527147
 20
7.5
 11
-5.0079813117
 21
7.5
  0
LINE
  5
3DC
100
AcDbEntity
  8
CURVE
100
AcDbLine
 62
250
  6
CONTINUOUS
 10
-4.3651241625
 20
9.0
 11
-4.1508384162
 21
8.9285713434
  0
LINE
  5
3DD
100
AcDbEntity
  8
CURVE
100
AcDbLine
 62
250
  6
CONTINUOUS
 10
1.2063043004
 20
6.8571428955
 11
-0.2936956996
 21
8.1428571939
  0
LINE
  5
3DE
100
AcDbEntity
  8
CURVE
100
AcDbLine
 62
250
  6
CONTINUOUS
 10
0.9920186883
 20
9.0
 11
1.2063043004
 21
8.7857142091
  0
LINE
  5
3DF
100
AcDbEntity
  8
0
100
AcDbLine
 62
250
  6
CONTINUOUS
 10
8.4419611767
 20
-22.4
 11
8.4347345548
 21
-22.3349016357
  0
LINE
  5
3E0
100
AcDbEntity
  8
0
100
AcDbLine
 62
250
  6
CONTINUOUS
 10
5.1420762
 20
22.4
 11
5.1493028218
 21
22.3349016357
  0
LWPOLYLINE
  5
3E1
100
AcDbEntity
  8
0
100
AcDbPolyline
 62
250
  6
CONTINUOUS
 90
10
 70
0
 10
9.1257810009
 20
-21.5319463166
 10
9.1260498751
 20
-21.5372188145
 10
9.1263218896
 20
-21.5419926184
 10
9.1265961802
 20
-21.5462525468
 10
9.1268727423
 20
-21.5499969225
 10
9.1271515806
 20
-21.5532274228
 10
9.1274318452
 20
-21.5559338984
 10
9.1277132526
 20
-21.5581129661
 10
9.1279960863
 20
-21.5597680091
 10
9.1282803462
 20
-21.5608990273
  0
LINE
  5
3E2
100
AcDbEntity
  8
0
100
AcDbLine
 62
7
  6
CONTINUOUS
 10
9.2424550317
 20
-18.5
 11
9.2420186883
 21
-18.491183651
  0
LINE
  5
3E3
100
AcDbEntity
  8
0
100
AcDbLine
 62
250
  6
CONTINUOUS
 10
9.1252526931
 20
-21.5199020704
 11
9.1257810009
 21
-21.5319463166
  0
LWPOLYLINE
  5
3E4
100
AcDbEntity
  8
0
100
AcDbPolyline
 62
250
  6
CONTINUOUS
 90
7
 70
0
 10
8.6266765381
 20
-22.0310280379
 10
8.6269532717
 20
-22.0385084611
 10
8.6272322775
 20
-22.0449513892
 10
8.6275126468
 20
-22.0503499793
 10
8.6277940766
 20
-22.0546984958
 10
8.6280768698
 20
-22.0579923172
 10
8.6283610265
 20
-22.0602279426
  0
LINE
  5
3E5
100
AcDbEntity
  8
0
100
AcDbLine
 62
250
  6
CONTINUOUS
 10
9.1247394609
 20
-21.5059213303
 11
9.1252526931
 21
-21.5199020704
  0
LINE
  5
3E6
100
AcDbEntity
  8
0
100
AcDbLine
 62
250
  6
CONTINUOUS
 10
9.1242429346
 20
-21.4900485226
 11
9.1247394609
 21
-21.5059213303
  0
LINE
  5
3E7
100
AcDbEntity
  8
0
100
AcDbLine
 62
250
  6
CONTINUOUS
 10
8.6261299166
 20
-22.0129875785
 11
8.6266765381
 21
-22.0310280379
  0
LINE
  5
3E8
100
AcDbEntity
  8
0
100
AcDbLine
 62
250
  6
CONTINUOUS
 10
9.1235347185
 20
-21.4628567962
 11
9.1242429346
 21
-21.4900485226
  0
LINE
  5
3E9
100
AcDbEntity
  8
0
100
AcDbLine
 62
250
  6
CONTINUOUS
 10
8.625594991
 20
-21.9909066579
 11
8.6261299166
 21
-22.0129875785
  0
LINE
  5
3EA
100
AcDbEntity
  8
0
100
AcDbLine
 62
250
  6
CONTINUOUS
 10
9.1226689075
 20
-21.4206985069
 11
9.1235347185
 21
-21.4628567962
  0
LINE
  5
3EB
100
AcDbEntity
  8
0
100
AcDbLine
 62
250
  6
CONTINUOUS
 10
8.6248186713
 20
-21.9504192146
 11
8.625594991
 21
-21.9909066579
  0
LINE
  5
3EC
100
AcDbEntity
  8
0
100
AcDbLine
 62
250
  6
CONTINUOUS
 10
9.1217327981
 20
-21.3595248979
 11
9.1226689075
 21
-21.4206985069
  0
LINE
  5
3ED
100
AcDbEntity
  8
0
100
AcDbLine
 62
250
  6
CONTINUOUS
 10
8.6236130917
 20
-21.8643030559
 11
8.6248186713
 21
-21.9504192146
  0
LINE
  5
3EE
100
AcDbEntity
  8
0
100
AcDbLine
 62
250
  6
CONTINUOUS
 10
7.9789243404
 20
23.6278312164
 11
7.9840149415
 21
23.1226497308
  0
LINE
  5
3EF
100
AcDbEntity
  8
0
100
AcDbLine
 62
250
  6
CONTINUOUS
 10
8.2289201096
 20
23.8443375673
 11
8.2347379394
 21
23.2669872981
  0
LINE
  5
3F0
100
AcDbEntity
  8
0
100
AcDbLine
 62
250
  6
CONTINUOUS
 10
9.1208562879
 20
-21.2758670137
 11
9.1217327981
 21
-21.3595248979
  0
LINE
  5
3F1
100
AcDbEntity
  8
0
100
AcDbLine
 62
250
  6
CONTINUOUS
 10
8.6219830445
 20
-21.6834468536
 11
8.6236130917
 21
-21.8643030559
  0
LINE
  5
3F2
100
AcDbEntity
  8
0
100
AcDbLine
 62
250
  6
CONTINUOUS
 10
9.1202150204
 20
-21.1682140114
 11
9.1208562879
 21
-21.2758670137
  0
LINE
  5
3F3
100
AcDbEntity
  8
0
100
AcDbLine
 62
250
  6
CONTINUOUS
 10
8.6203562708
 20
-21.3065246352
 11
8.6219830445
 21
-21.6834468536
  0
LINE
  5
3F4
100
AcDbEntity
  8
0
100
AcDbLine
 62
250
  6
CONTINUOUS
 10
9.1087858799
 20
-15.7178272766
 11
9.1202150204
 21
-21.1682140114
  0
LINE
  5
3F5
100
AcDbEntity
  8
0
100
AcDbLine
 62
250
  6
CONTINUOUS
 10
8.603003138
 20
-9.5
 11
8.6203562708
 21
-21.3065246352
  0
LINE
  5
3F6
100
AcDbEntity
  8
0
100
AcDbLine
 62
250
  6
CONTINUOUS
 10
9.1029269855
 20
-9.4905
 11
9.1087858799
 21
-15.7178272766
  0
LINE
  5
3F7
100
AcDbEntity
  8
0
100
AcDbLine
 62
250
  6
CONTINUOUS
 10
7.9789243404
 20
-23.6278312164
 11
7.9789243404
 21
-24.4869014213
  0
LINE
  5
3F8
100
AcDbEntity
  8
0
100
AcDbLine
 62
250
  6
CONTINUOUS
 10
7.9789243404
 20
23.6278312164
 11
7.9789243404
 21
24.4869014213
  0
LINE
  5
3F9
100
AcDbEntity
  8
0
100
AcDbLine
 62
250
  6
CONTINUOUS
 10
7.9847421702
 20
-22.3114553375
 11
7.9847421702
 21
-23.1226497308
  0
LINE
  5
3FA
100
AcDbEntity
  8
0
100
AcDbLine
 62
250
  6
CONTINUOUS
 10
7.9847421702
 20
22.3114553375
 11
7.9847421702
 21
23.1226497308
  0
LINE
  5
3FB
100
AcDbEntity
  8
0
100
AcDbLine
 62
7
  6
CONTINUOUS
 10
8.2289201096
 20
-24.2369056521
 11
8.2289201096
 21
-23.8443375673
  0
LINE
  5
3FC
100
AcDbEntity
  8
0
100
AcDbLine
 62
7
  6
CONTINUOUS
 10
8.2289201096
 20
23.8443375673
 11
8.2289201096
 21
24.2369056521
  0
LINE
  5
3FD
100
AcDbEntity
  8
0
100
AcDbLine
 62
7
  6
CONTINUOUS
 10
8.2347379394
 20
-23.2669872981
 11
8.2347379394
 21
-22.5346275426
  0
LINE
  5
3FE
100
AcDbEntity
  8
0
100
AcDbLine
 62
7
  6
CONTINUOUS
 10
8.2347379394
 20
22.5346275426
 11
8.2347379394
 21
23.2669872981
  0
LINE
  5
3FF
100
AcDbEntity
  8
0
100
AcDbLine
 62
7
  6
CONTINUOUS
 10
8.2420186883
 20
-23.2669872981
 11
8.2420186883
 21
-23.8443375673
  0
LINE
  5
400
100
AcDbEntity
  8
0
100
AcDbLine
 62
7
  6
CONTINUOUS
 10
8.2420186883
 20
23.2669872981
 11
8.2420186883
 21
23.8443375673
  0
LINE
  5
401
100
AcDbEntity
  8
0
100
AcDbLine
 62
7
  6
CONTINUOUS
 10
9.2424550317
 20
21.900016923
 11
9.2424550317
 21
18.5
  0
LINE
  5
402
100
AcDbEntity
  8
0
100
AcDbLine
 62
7
  6
CONTINUOUS
 10
9.2424550317
 20
-21.900016923
 11
9.2424550317
 21
-18.5
  0
LINE
  5
403
100
AcDbEntity
  8
0
100
AcDbLine
 62
7
  6
CONTINUOUS
 10
9.2760560649
 20
18.1473460386
 11
9.2760560649
 21
-18.1473460386
  0
LINE
  5
404
100
AcDbEntity
  8
0
100
AcDbLine
 62
250
  6
CONTINUOUS
 10
8.603003138
 20
9.5
 11
8.603003138
 21
-9.5
  0
LINE
  5
405
100
AcDbEntity
  8
0
100
AcDbLine
 62
250
  6
CONTINUOUS
 10
8.6214859361
 20
21.6040332215
 11
8.603003138
 21
9.5
  0
LINE
  5
406
100
AcDbEntity
  8
0
100
AcDbLine
 62
250
  6
CONTINUOUS
 10
9.1205290173
 20
21.2307701221
 11
9.1029269855
 21
-9.4905
  0
LINE
  5
407
100
AcDbEntity
  8
0
100
AcDbLine
 62
250
  6
CONTINUOUS
 10
8.6231677565
 20
21.8237546145
 11
8.6214859361
 21
21.6040332215
  0
LINE
  5
408
100
AcDbEntity
  8
0
100
AcDbLine
 62
250
  6
CONTINUOUS
 10
7.9840149415
 20
-23.1226497308
 11
7.9789243404
 21
-23.6278312164
  0
LINE
  5
409
100
AcDbEntity
  8
0
100
AcDbLine
 62
250
  6
CONTINUOUS
 10
8.2347379394
 20
-23.2669872981
 11
8.2289201096
 21
-23.8443375673
  0
LINE
  5
40A
100
AcDbEntity
  8
0
100
AcDbLine
 62
250
  6
CONTINUOUS
 10
9.1214096323
 20
21.3327957409
 11
9.1205290173
 21
21.2307701221
  0
LINE
  5
40B
100
AcDbEntity
  8
0
100
AcDbLine
 62
250
  6
CONTINUOUS
 10
8.6243217852
 20
21.9186842304
 11
8.6231677565
 21
21.8237546145
  0
LINE
  5
40C
100
AcDbEntity
  8
0
100
AcDbLine
 62
250
  6
CONTINUOUS
 10
9.1222748444
 20
21.397358737
 11
9.1214096323
 21
21.3327957409
  0
LINE
  5
40D
100
AcDbEntity
  8
0
100
AcDbLine
 62
250
  6
CONTINUOUS
 10
8.6253322169
 20
21.9783796723
 11
8.6243217852
 21
21.9186842304
  0
LINE
  5
40E
100
AcDbEntity
  8
0
100
AcDbLine
 62
250
  6
CONTINUOUS
 10
9.1230915643
 20
21.4426699022
 11
9.1222748444
 21
21.397358737
  0
LINE
  5
40F
100
AcDbEntity
  8
0
100
AcDbLine
 62
250
  6
CONTINUOUS
 10
8.6258608541
 20
22.0024466391
 11
8.6253322169
 21
21.9783796723
  0
LWPOLYLINE
  5
410
100
AcDbEntity
  8
0
100
AcDbPolyline
 62
7
  6
CONTINUOUS
 90
34
 70
0
 10
8.2289201096
 20
-24.2369056521
 10
8.2286365588
 20
-24.2488006736
 10
8.2277873538
 20
-24.2606687503
 10
8.2263744184
 20
-24.2724829982
 10
8.2244009532
 20
-24.2842166554
 10
8.2218714284
 20
-24.2958431426
 10
8.218791574
 20
-24.3073361233
 10
8.2151683666
 20
-24.3186695631
 10
8.2110100136
 20
-24.3298177893
 10
8.2063259345
 20
-24.3407555487
 10
8.2011267398
 20
-24.3514580649
 10
8.195424207
 20
-24.3619010942
 10
8.1892312534
 20
-24.3720609807
 10
8.1825619076
 20
-24.3819147102
 10
8.175431277
 20
-24.3914399617
 10
8.1678555143
 20
-24.4006151584
 10
8.15985178
 20
-24.4094195163
 10
8.1514382046
 20
-24.4178330917
 10
8.1426338467
 20
-24.4258368259
 10
8.13345865
 20
-24.4334125887
 10
8.1239333985
 20
-24.4405432193
 10
8.1140796691
 20
-24.4472125651
 10
8.1039197825
 20
-24.4534055187
 10
8.0934767532
 20
-24.4591080515
 10
8.082774237
 20
-24.4643072462
 10
8.0718364776
 20
-24.4689913253
 10
8.0606882514
 20
-24.4731496783
 10
8.0493548116
 20
-24.4767728857
 10
8.037861831
 20
-24.4798527401
 10
8.0262353437
 20
-24.4823822649
 10
8.0145016865
 20
-24.4843557301
 10
8.0026874386
 20
-24.4857686655
 10
7.9908193619
 20
-24.4866178705
 10
7.9789243404
 20
-24.4869014213
  0
LWPOLYLINE
  5
411
100
AcDbEntity
  8
0
100
AcDbPolyline
 62
7
  6
CONTINUOUS
 90
34
 70
0
 10
8.2420186883
 20
-24.2500042308
 10
8.2417355381
 20
-24.261899516
 10
8.2408867225
 20
-24.2737678556
 10
8.2394741625
 20
-24.2855823661
 10
8.237501056
 20
-24.2973162875
 10
8.23497187
 20
-24.3089430388
 10
8.23189233
 20
-24.320436279
 10
8.2282694096
 20
-24.3317699738
 10
8.2241113141
 20
-24.3429184493
 10
8.2194274605
 20
-24.3538564463
 10
8.2142284571
 20
-24.3645591876
 10
8.2085260799
 20
-24.3750024283
 10
8.2023332464
 20
-24.3851625059
 10
8.1956639838
 20
-24.3950164051
 10
8.188533399
 20
-24.4045418038
 10
8.1809576472
 20
-24.4137171191
 10
8.1729538888
 20
-24.4225215661
 10
8.1645402544
 20
-24.4309352005
 10
8.1557358074
 20
-24.4389389589
 10
8.1465604921
 20
-24.4465147107
 10
8.1370350934
 20
-24.4536452955
 10
8.1271811942
 20
-24.4603145581
 10
8.1170211166
 20
-24.4665073916
 10
8.1065778759
 20
-24.4722097688
 10
8.0958751346
 20
-24.4774087722
 10
8.0849371376
 20
-24.4820926258
 10
8.0737886621
 20
-24.4862507213
 10
8.0624549673
 20
-24.4898736417
 10
8.0509617271
 20
-24.4929531817
 10
8.0393349758
 20
-24.4954823677
 10
8.0276010544
 20
-24.4974554741
 10
8.0157865439
 20
-24.4988680342
 10
8.0039182043
 20
-24.4997168498
 10
7.9920229191
 20
-24.5
  0
LINE
  5
412
100
AcDbEntity
  8
0
100
AcDbLine
 62
250
  6
CONTINUOUS
 10
9.1237679121
 20
21.4724508504
 11
9.1230915643
 21
21.4426699022
  0
LINE
  5
413
100
AcDbEntity
  8
0
100
AcDbLine
 62
250
  6
CONTINUOUS
 10
9.12449178
 20
21.4983069269
 11
9.1237679121
 21
21.4724508504
  0
LINE
  5
414
100
AcDbEntity
  8
0
100
AcDbLine
 62
250
  6
CONTINUOUS
 10
9.1249974398
 20
21.5132432737
 11
9.12449178
 21
21.4983069269
  0
LINE
  5
415
100
AcDbEntity
  8
0
100
AcDbLine
 62
7
  6
CONTINUOUS
 10
9.2420186883
 20
18.491183651
 11
9.2424550317
 21
18.5
  0
LWPOLYLINE
  5
416
100
AcDbEntity
  8
0
100
AcDbPolyline
 62
7
  6
CONTINUOUS
 90
10
 70
0
 10
-2.9301998322
 20
-23.8898671026
 10
-2.9260413816
 20
-23.8813032282
 10
-2.9222952956
 20
-23.8725514452
 10
-2.9189699819
 20
-23.8636314815
 10
-2.9160729017
 20
-23.8545633862
 10
-2.9136102609
 20
-23.8453662265
 10
-2.9115881382
 20
-23.8360622836
 10
-2.9100117403
 20
-23.8266769845
 10
-2.9088841587
 20
-23.817233139
 10
-2.9082070469
 20
-23.8077507432
  0
LWPOLYLINE
  5
417
100
AcDbEntity
  8
0
100
AcDbPolyline
 62
7
  6
CONTINUOUS
 90
11
 70
0
 10
-2.93057878
 20
-23.8923471996
 10
-2.9267194391
 20
-23.8845210219
 10
-2.9232051391
 20
-23.8765339547
 10
-2.920042569
 20
-23.8684012014
 10
-2.9172377481
 20
-23.8601382427
 10
-2.9147960146
 20
-23.8517608084
 10
-2.9127220158
 20
-23.8432848447
 10
-2.9110196989
 20
-23.8347264854
 10
-2.9096923034
 20
-23.8261020222
 10
-2.9087423557
 20
-23.8174278719
 10
-2.9081716632
 20
-23.8087205449
  0
LINE
  5
418
100
AcDbEntity
  8
0
100
AcDbLine
 62
250
  6
CONTINUOUS
 10
-11.7948869638
 20
-24.4869014213
 11
-11.7956120403
 21
-24.4876264978
  0
LINE
  5
419
100
AcDbEntity
  8
0
100
AcDbLine
 62
250
  6
CONTINUOUS
 10
-12.2476297347
 20
-22.3323858467
 11
-12.2506971782
 21
-22.3349016357
  0
LINE
  5
41A
100
AcDbEntity
  8
CURVE
100
AcDbLine
 62
250
  6
CONTINUOUS
 10
-5.0079813117
 20
9.0
 11
-4.3651241625
 21
9.0
  0
LINE
  5
41B
100
AcDbEntity
  8
CURVE
100
AcDbLine
 62
250
  6
CONTINUOUS
 10
0.1348758823
 20
9.0
 11
0.9920186883
 21
9.0
  0
LINE
  5
41C
100
AcDbEntity
  8
0
100
AcDbLine
 62
250
  6
CONTINUOUS
 10
8.6245706955
 20
9.4999840063
 11
-12.4189657613
 21
9.5
  0
LWPOLYLINE
  5
41D
100
AcDbEntity
  8
0
100
AcDbPolyline
 62
250
  6
CONTINUOUS
 90
11
 70
0
 10
-12.2506971782
 20
22.3349016357
 10
-12.2476297399
 20
22.3323858466
 10
-12.2400006715
 20
22.3299571401
 10
-12.2278099731
 20
22.3276155162
 10
-12.2108164523
 20
22.3253397867
 10
-12.1892613014
 20
22.3231511398
 10
-12.1638680973
 20
22.3211131404
 10
-12.1345722378
 20
22.3192303762
 10
-12.1014383252
 20
22.3174982594
 10
-12.0653837422
 20
22.3159665915
 10
-12.0522302315
 20
22.3154855161
  0
LWPOLYLINE
  5
41E
100
AcDbEntity
  8
0
100
AcDbPolyline
 62
250
  6
CONTINUOUS
 90
11
 70
0
 10
-2.93057878
 20
23.8923471996
 10
-2.930214222
 20
23.8898950198
 10
-2.9260549126
 20
23.8813328629
 10
-2.9223077251
 20
23.8725824996
 10
-2.918981148
 20
23.863663752
 10
-2.916082717
 20
23.8545968242
 10
-2.913618998
 20
23.8454022555
 10
-2.9115955722
 20
23.8361008747
 10
-2.9100170233
 20
23.8267137523
 10
-2.9088869272
 20
23.8172621533
 10
-2.9082078439
 20
23.8077674885
  0
LINE
  5
41F
100
AcDbEntity
  8
0
100
AcDbLine
 62
7
  6
CONTINUOUS
 10
9.2760560649
 20
18.1473460386
 11
9.2420186883
 21
18.491183651
  0
LWPOLYLINE
  5
420
100
AcDbEntity
  8
0
100
AcDbPolyline
 62
250
  6
CONTINUOUS
 90
40
 70
0
 10
9.1282850584
 20
21.5609131753
 10
9.1278617149
 20
21.5810068741
 10
9.1266291219
 20
21.601068019
 10
9.1245892763
 20
21.6210641086
 10
9.1217454828
 20
21.6409627467
 10
9.1181023486
 20
21.6607316954
 10
9.1136657762
 20
21.6803389264
 10
9.1084429531
 20
21.6997526739
 10
9.102442341
 20
21.7189414853
 10
9.0956736615
 20
21.7378742724
 10
9.0881478808
 20
21.7565203618
 10
9.0798771913
 20
21.7748495447
 10
9.0708749926
 20
21.7928321256
 10
9.0611558694
 20
21.8104389707
 10
9.0507355676
 20
21.8276415547
 10
9.0396309694
 20
21.8444120074
 10
9.0278600655
 20
21.8607231587
 10
9.0154419262
 20
21.8765485826
 10
9.0023966703
 20
21.89186264
 10
8.9887454327
 20
21.9066405203
 10
8.9745103299
 20
21.9208582815
 10
8.9597144245
 20
21.9344928893
 10
8.9443816877
 20
21.9475222539
 10
8.9285369601
 20
21.9599252661
 10
8.9122059122
 20
21.9716818317
 10
8.8954150022
 20
21.9827729035
 10
8.8781914334
 20
21.9931805128
 10
8.8605631099
 20
22.0028877978
 10
8.8425585917
 20
22.0118790318
 10
8.8242070483
 20
22.0201396477
 10
8.8055382113
 20
22.0276562624
 10
8.7865823266
 20
22.034416698
 10
8.7673701047
 20
22.0404100019
 10
8.7479326719
 20
22.0456264642
 10
8.7283015191
 20
22.0500576335
 10
8.7085084511
 20
22.0536963309
 10
8.688585535
 20
22.0565366612
 10
8.6685650483
 20
22.0585740228
 10
8.6484794265
 20
22.0598051147
 10
8.6283612108
 20
22.0602279426
  0
LWPOLYLINE
  5
421
100
AcDbEntity
  8
0
100
AcDbPolyline
 62
7
  6
CONTINUOUS
 90
40
 70
0
 10
9.2411459351
 20
-21.8997711479
 10
9.2407441666
 20
-21.9198382916
 10
9.2395365498
 20
-21.9399070889
 10
9.237520869
 20
-21.9599450105
 10
9.2346933979
 20
-21.9799370232
 10
9.2310559923
 20
-21.9998321984
 10
9.2266231958
 20
-22.019545063
 10
9.2214097301
 20
-22.0390258388
 10
9.2154224783
 20
-22.058262166
 10
9.2086720788
 20
-22.0772264828
 10
9.2011780129
 20
-22.0958728482
 10
9.1929486194
 20
-22.1141884053
 10
9.1839731263
 20
-22.1321932747
 10
9.1742441637
 20
-22.1498868057
 10
9.1637884631
 20
-22.167206078
 10
9.1526475678
 20
-22.1840786325
 10
9.1408451252
 20
-22.2004718186
 10
9.1283975439
 20
-22.2163658932
 10
9.115345
 20
-22.2317142955
 10
9.101736595
 20
-22.246469892
 10
9.0875755022
 20
-22.2606393471
 10
9.0728302814
 20
-22.2742541203
 10
9.0574939836
 20
-22.2873115831
 10
9.0416142801
 20
-22.2997623962
 10
9.025239098
 20
-22.3115654085
 10
9.0083891739
 20
-22.3227040857
 10
8.9910966468
 20
-22.3331557029
 10
8.9734331203
 20
-22.3428793991
 10
8.9554621061
 20
-22.3518484807
 10
8.9371838645
 20
-22.3600709099
 10
8.9185757323
 20
-22.3675586046
 10
8.8996492009
 20
-22.3743036902
 10
8.8804514118
 20
-22.380286152
 10
8.8610111671
 20
-22.3854948973
 10
8.8413411402
 20
-22.3899231464
 10
8.8214907633
 20
-22.3935564624
 10
8.8015458121
 20
-22.3963803578
 10
8.781557286
 20
-22.3983931752
 10
8.7615400437
 20
-22.3995989119
 10
8.7415265348
 20
-22.4
  0
LWPOLYLINE
  5
422
100
AcDbEntity
  8
0
100
AcDbPolyline
 62
250
  6
CONTINUOUS
 90
40
 70
0
 10
9.1282800253
 20
-21.5608980638
 10
9.127856662
 20
-21.5809917081
 10
9.126624049
 20
-21.6010527978
 10
9.1245841834
 20
-21.6210488314
 10
9.1217403685
 20
-21.6409474082
 10
9.1180972134
 20
-21.6607162948
 10
9.1136606248
 20
-21.6803234771
 10
9.1084377902
 20
-21.6997371882
 10
9.1024371718
 20
-21.7189259763
 10
9.0956684966
 20
-21.7378587704
 10
9.0881427306
 20
-21.7565048967
 10
9.0798720665
 20
-21.7748341467
 10
9.0708699097
 20
-21.7928168428
 10
9.0611508468
 20
-21.8104238572
 10
9.0507306219
 20
-21.8276266587
 10
9.0396261164
 20
-21.8443973763
 10
9.0278553226
 20
-21.8607088447
 10
9.0154373091
 20
-21.8765346332
 10
9.0023921892
 20
-21.8918490878
 10
8.9887410968
 20
-21.906627396
 10
8.9745061493
 20
-21.9208456177
 10
8.9597104064
 20
-21.9344807101
 10
8.944377838
 20
-21.9475105806
 10
8.9285332859
 20
-21.9599141228
 10
8.912202421
 20
-21.971671242
 10
8.8954117017
 20
-21.9827628913
 10
8.878188331
 20
-21.9931711017
 10
8.8605602131
 20
-22.0028790099
 10
8.8425559084
 20
-22.0118708899
 10
8.8242045858
 20
-22.020132174
 10
8.8055359756
 20
-22.0276494748
 10
8.7865803235
 20
-22.0344106144
 10
8.7673683402
 20
-22.0404046401
 10
8.74793115
 20
-22.0456218372
 10
8.728300244
 20
-22.0500537545
 10
8.7085074268
 20
-22.0536932128
 10
8.6885847638
 20
-22.056534312
 10
8.6685645319
 20
-22.0585724487
 10
8.6484791672
 20
-22.0598043238
 10
8.6283612108
 20
-22.0602279426
  0
LINE
  5
423
100
AcDbEntity
  8
0
100
AcDbLine
 62
7
  6
CONTINUOUS
 10
9.2760560649
 20
-18.1473460386
 11
9.2420186883
 21
-18.491183651
  0
LINE
  5
424
100
AcDbEntity
  8
0
100
AcDbLine
 62
250
  6
CONTINUOUS
 10
-12.8783618069
 20
9.4940977165
 11
-12.8596408871
 21
9.4948422802
  0
LINE
  5
425
100
AcDbEntity
  8
0
100
AcDbLine
 62
250
  6
CONTINUOUS
 10
-12.8596408871
 20
9.4948422802
 11
-12.8376402192
 21
9.4955545263
  0
LINE
  5
426
100
AcDbEntity
  8
0
100
AcDbLine
 62
250
  6
CONTINUOUS
 10
-12.8376402192
 20
9.4955545263
 11
-12.8125235443
 21
9.4962291538
  0
LINE
  5
427
100
AcDbEntity
  8
0
100
AcDbLine
 62
250
  6
CONTINUOUS
 10
-12.8125235443
 20
9.4962291538
 11
-12.7694209352
 21
9.4971596626
  0
LINE
  5
428
100
AcDbEntity
  8
0
100
AcDbLine
 62
250
  6
CONTINUOUS
 10
-12.7694209352
 20
9.4971596626
 11
-12.70296793
 21
9.4982245713
  0
LINE
  5
429
100
AcDbEntity
  8
0
100
AcDbLine
 62
250
  6
CONTINUOUS
 10
-12.70296793
 20
9.4982245713
 11
-12.6082904236
 21
9.4992298544
  0
LINE
  5
42A
100
AcDbEntity
  8
0
100
AcDbLine
 62
250
  6
CONTINUOUS
 10
-12.6082904236
 20
9.4992298544
 11
-12.5048349584
 21
9.4998303815
  0
LINE
  5
42B
100
AcDbEntity
  8
0
100
AcDbLine
 62
250
  6
CONTINUOUS
 10
-12.5048349584
 20
9.4998303815
 11
-12.4189657613
 21
9.5
  0
LINE
  5
42C
100
AcDbEntity
  8
0
100
AcDbLine
 62
250
  6
CONTINUOUS
 10
8.7517371467
 20
9.4995206337
 11
8.6245706955
 21
9.4999840063
  0
LINE
  5
42D
100
AcDbEntity
  8
0
100
AcDbLine
 62
250
  6
CONTINUOUS
 10
8.8504801983
 20
9.4986726714
 11
8.7517371467
 21
9.4995206337
  0
LINE
  5
42E
100
AcDbEntity
  8
0
100
AcDbLine
 62
250
  6
CONTINUOUS
 10
8.921416715
 20
9.4977189808
 11
8.8504801983
 21
9.4986726714
  0
LINE
  5
42F
100
AcDbEntity
  8
0
100
AcDbLine
 62
250
  6
CONTINUOUS
 10
8.968515172
 20
9.4968611417
 11
8.921416715
 21
9.4977189808
  0
LINE
  5
430
100
AcDbEntity
  8
0
100
AcDbLine
 62
250
  6
CONTINUOUS
 10
9.0094976048
 20
9.4958968632
 11
8.968515172
 21
9.4968611417
  0
LINE
  5
431
100
AcDbEntity
  8
0
100
AcDbLine
 62
250
  6
CONTINUOUS
 10
9.0330782239
 20
9.4952027804
 11
9.0094976048
 21
9.4958968632
  0
LWPOLYLINE
  5
432
100
AcDbEntity
  8
0
100
AcDbPolyline
 62
250
  6
CONTINUOUS
 90
10
 70
0
 10
9.1029269855
 20
-9.4905
 10
9.1020853423
 20
-9.490909846
 10
9.1003146553
 20
-9.4913189291
 10
9.0976182206
 20
-9.4917264877
 10
9.0940010576
 20
-9.4921317633
 10
9.0894698997
 20
-9.4925340013
 10
9.0840331816
 20
-9.492932453
 10
9.0777010239
 20
-9.4933263766
 10
9.0704852138
 20
-9.493715039
 10
9.0623991837
 20
-9.4940977165
  0
LWPOLYLINE
  5
433
100
AcDbEntity
  8
0
100
AcDbPolyline
 62
250
  6
CONTINUOUS
 90
12
 70
0
 10
9.1029269855
 20
9.4905
 10
9.1020853424
 20
9.490909846
 10
9.1003146554
 20
9.4913189291
 10
9.0976182208
 20
9.4917264877
 10
9.0940010578
 20
9.4921317633
 10
9.0894698999
 20
9.4925340013
 10
9.0840331819
 20
9.492932453
 10
9.0777010242
 20
9.4933263766
 10
9.0704852142
 20
9.493715039
 10
9.0623991842
 20
9.4940977165
 10
9.0534579862
 20
9.4944736969
 10
9.0330782239
 20
9.4952027804
  0
LWPOLYLINE
  5
434
100
AcDbEntity
  8
0
100
AcDbPolyline
 62
250
  6
CONTINUOUS
 90
37
 70
0
 10
9.1201118701
 20
-21.1361579495
 10
9.1192742011
 20
-21.1393749595
 10
9.1175072512
 20
-21.1425859796
 10
9.1148143103
 20
-21.1457850308
 10
9.1112003926
 20
-21.1489661567
 10
9.1066722272
 20
-21.1521234341
 10
9.1012382453
 20
-21.1552509842
 10
9.0949085649
 20
-21.1583429837
 10
9.0876949716
 20
-21.1613936754
 10
9.0796108969
 20
-21.164397379
 10
9.0706713931
 20
-21.1673485017
 10
9.0608931054
 20
-21.1702415486
 10
9.0502942406
 20
-21.1730711329
 10
9.0388945334
 20
-21.1758319861
 10
9.0267152098
 20
-21.1785189675
 10
9.0137789474
 20
-21.1811270742
 10
9.0001098329
 20
-21.1836514498
 10
8.9857333179
 20
-21.1860873942
 10
8.970676171
 20
-21.1884303716
 10
8.954966428
 20
-21.1906760196
 10
8.9386333401
 20
-21.1928201567
 10
8.9217073188
 20
-21.1948587908
 10
8.9042198798
 20
-21.196788126
 10
8.8862035842
 20
-21.1986045699
 10
8.8676919776
 20
-21.2003047404
 10
8.8487195279
 20
-21.2018854718
 10
8.8293215613
 20
-21.2033438209
 10
8.8095341959
 20
-21.2046770723
 10
8.7893942752
 20
-21.2058827435
 10
8.7689392989
 20
-21.2069585896
 10
8.7482073533
 20
-21.2079026075
 10
8.7272370407
 20
-21.2087130394
 10
8.7060674069
 20
-21.2093883763
 10
8.6847378689
 20
-21.2099273609
 10
8.6632881416
 20
-21.2103289894
 10
8.6417581634
 20
-21.2105925142
 10
8.6201880225
 20
-21.2107174445
  0
LWPOLYLINE
  5
435
100
AcDbEntity
  8
0
100
AcDbPolyline
 62
7
  6
CONTINUOUS
 90
10
 70
0
 43
0.3500000087
 10
20.6060377731
 20
0.4285711273
 10
19.7488937744
 20
1.285715126
 10
18.8917519073
 20
1.499999527
 10
18.0346100403
 20
1.499999527
 10
17.6060380409
 20
1.0714285934
 10
17.6060380409
 20
0.4285711273
 10
18.0346100403
 20
0.0000001938
 10
18.8917519073
 20
0.0000001938
 10
19.3203228409
 20
0.4285711273
 10
19.3203228409
 20
1.3571425491
  0
LWPOLYLINE
  5
436
100
AcDbEntity
  8
0
100
AcDbPolyline
 62
7
  6
CONTINUOUS
 90
10
 70
0
 43
0.3500000087
 10
-0.8365527653
 20
33.791606778
 10
-0.7651241431
 20
33.6487519318
 10
-0.7651241431
 20
33.5773245087
 10
-0.9079813208
 20
33.4344653992
 10
-0.9794098763
 20
33.4344653992
 10
-1.0508384319
 20
33.5058928223
 10
-1.0508384319
 20
33.5773245087
 10
-0.9794098763
 20
33.7201793549
 10
-0.9079813208
 20
33.791606778
 10
-0.8365527653
 20
33.791606778
  0
LWPOLYLINE
  5
437
100
AcDbEntity
  8
0
100
AcDbPolyline
 62
250
  6
CONTINUOUS
 90
37
 70
0
 10
9.1201118701
 20
21.1361579495
 10
9.1192742077
 20
21.1393749605
 10
9.1175072644
 20
21.1425859814
 10
9.1148143301
 20
21.1457850337
 10
9.1112004191
 20
21.1489661606
 10
9.1066722603
 20
21.1521234391
 10
9.101238285
 20
21.1552509904
 10
9.094908611
 20
21.1583429911
 10
9.0876950239
 20
21.1613936841
 10
9.0796109553
 20
21.164397389
 10
9.0706714574
 20
21.1673485131
 10
9.0608931751
 20
21.1702415614
 10
9.0502943153
 20
21.1730711473
 10
9.0388946128
 20
21.1758320021
 10
9.0267152934
 20
21.1785189852
 10
9.0137790344
 20
21.1811270935
 10
9.0001099229
 20
21.1836514709
 10
8.9857334101
 20
21.186087417
 10
8.9706762647
 20
21.1884303961
 10
8.9549665225
 20
21.1906760459
 10
8.9386334346
 20
21.1928201848
 10
8.9217074125
 20
21.1948588207
 10
8.9042199719
 20
21.1967881576
 10
8.8862036738
 20
21.1986046032
 10
8.8676920639
 20
21.2003047753
 10
8.8487196102
 20
21.2018855083
 10
8.8293216387
 20
21.2033438589
 10
8.8095342678
 20
21.2046771117
 10
8.7893943408
 20
21.2058827842
 10
8.7689393577
 20
21.2069586316
 10
8.7482074048
 20
21.2079026505
 10
8.7272370843
 20
21.2087130834
 10
8.7060674422
 20
21.2093884211
 10
8.6847378956
 20
21.2099274063
 10
8.6632881595
 20
21.2103290353
 10
8.6417581724
 20
21.2105925604
 10
8.6201880225
 20
21.2107174909
  0
LWPOLYLINE
  5
438
100
AcDbEntity
  8
0
100
AcDbPolyline
 62
250
  6
CONTINUOUS
 90
16
 70
0
 10
5.3492994372
 20
22.5346275426
 10
5.3508357719
 20
22.5321097822
 10
5.3551036643
 20
22.5296793735
 10
5.362029511
 20
22.5273363168
 10
5.3715046228
 20
22.525059338
 10
5.3834049775
 20
22.5228697111
 10
5.3976090006
 20
22.5208312575
 10
5.4139453252
 20
22.5189488052
 10
5.4322382108
 20
22.5172175262
 10
5.4523618813
 20
22.5156867588
 10
5.4741317115
 20
22.5143592575
 10
5.4973064784
 20
22.5132322677
 10
5.5216703735
 20
22.5123468641
 10
5.5469767119
 20
22.5117167381
 10
5.5729459826
 20
22.5113281982
 10
5.5992952064
 20
22.5111812444
  0
LWPOLYLINE
  5
439
100
AcDbEntity
  8
0
100
AcDbPolyline
 62
7
  6
CONTINUOUS
 90
13
 70
0
 10
-3.0005206683
 20
-23.9686772994
 10
-2.993265301
 20
-23.96382929
 10
-2.9862283081
 20
-23.9586694178
 10
-2.9794230846
 20
-23.9532075051
 10
-2.9728625842
 20
-23.9474539493
 10
-2.9665592948
 20
-23.9414197042
 10
-2.9605252146
 20
-23.9351162564
 10
-2.9547718292
 20
-23.928555605
 10
-2.94931009
 20
-23.92175024
 10
-2.944150393
 20
-23.9147131159
 10
-2.9393025593
 20
-23.9074576282
 10
-2.9347758162
 20
-23.8999975893
 10
-2.9301998322
 20
-23.8898671026
  0
LWPOLYLINE
  5
43A
100
AcDbEntity
  8
0
100
AcDbPolyline
 62
7
  6
CONTINUOUS
 90
3
 70
0
 43
0.3500000087
 10
19.963180307
 20
-0.8571438049
 10
19.963180307
 20
-2.3571431381
 10
17.6060380409
 20
-1.714285672
  0
LINE
  5
43B
100
AcDbEntity
  8
0
100
AcDbLine
 62
250
  6
CONTINUOUS
 10
5.1523702653
 20
-22.3323858467
 11
5.1493028218
 21
-22.3349016357
  0
LWPOLYLINE
  5
43C
100
AcDbEntity
  8
0
100
AcDbPolyline
 62
250
  6
CONTINUOUS
 90
11
 70
0
 10
-3.0005206683
 20
23.9686772994
 10
-2.9998531482
 20
23.9664991256
 10
-2.9919699298
 20
23.9611636997
 10
-2.9843495145
 20
23.9554592248
 10
-2.9770091649
 20
23.9493986233
 10
-2.9699655094
 20
23.9429956244
 10
-2.9632345041
 20
23.936264733
 10
-2.9568313968
 20
23.9292211967
 10
-2.9507706927
 20
23.9218809714
 10
-2.9450661213
 20
23.914260685
 10
-2.9397306051
 20
23.9063776
  0
LWPOLYLINE
  5
43D
100
AcDbEntity
  8
0
100
AcDbPolyline
 62
250
  6
CONTINUOUS
 90
11
 70
0
 10
5.1493028218
 20
22.3349016357
 10
5.1523702601
 20
22.3323858466
 10
5.1599993285
 20
22.3299571401
 10
5.1721900269
 20
22.3276155162
 10
5.1891835477
 20
22.3253397867
 10
5.2107386986
 20
22.3231511398
 10
5.2361319027
 20
22.3211131404
 10
5.2654277622
 20
22.3192303762
 10
5.2985616748
 20
22.3174982594
 10
5.3346162578
 20
22.3159665915
 10
5.3477697685
 20
22.3154855161
  0
LWPOLYLINE
  5
43E
100
AcDbEntity
  8
0
100
AcDbPolyline
 62
250
  6
CONTINUOUS
 90
13
 70
0
 10
5.1493028218
 20
22.3349016357
 10
5.1754028898
 20
22.3366176328
 10
5.2010564824
 20
22.3417203858
 10
5.225824826
 20
22.3501225942
 10
5.249284291
 20
22.3616805241
 10
5.2710336438
 20
22.3761964702
 10
5.2907009079
 20
22.3934221415
 10
5.3079497131
 20
22.4130628984
 10
5.3224850603
 20
22.4347828014
 10
5.3340583672
 20
22.4582103666
 10
5.3424717044
 20
22.4829449
 10
5.3475811861
 20
22.508563347
 10
5.3492994372
 20
22.5346275426
  0
LWPOLYLINE
  5
43F
100
AcDbEntity
  8
0
100
AcDbPolyline
 62
250
  6
CONTINUOUS
 90
10
 70
0
 10
8.2362665312
 20
22.315485478
 10
8.2494211207
 20
22.3159665914
 10
8.2854757041
 20
22.3174982593
 10
8.3186096166
 20
22.3192303761
 10
8.3479054749
 20
22.3211131403
 10
8.3732986757
 20
22.3231511399
 10
8.3948538221
 20
22.3253397868
 10
8.4118473406
 20
22.3276155164
 10
8.42403804
 20
22.3299571403
 10
8.4316671113
 20
22.3323858467
  0
LWPOLYLINE
  5
440
100
AcDbEntity
  8
0
100
AcDbPolyline
 62
250
  6
CONTINUOUS
 90
16
 70
0
 10
7.9847421702
 20
22.5111812444
 10
8.011091394
 20
22.5113281989
 10
8.0370606647
 20
22.5117167392
 10
8.0623670031
 20
22.5123468652
 10
8.0867308982
 20
22.5132322683
 10
8.1099056651
 20
22.5143592572
 10
8.1316754954
 20
22.515686758
 10
8.1517991658
 20
22.5172175255
 10
8.1700920514
 20
22.5189488049
 10
8.186428376
 20
22.5208312576
 10
8.2006323991
 20
22.5228697113
 10
8.2125327538
 20
22.5250593384
 10
8.2220078656
 20
22.5273363172
 10
8.2289337123
 20
22.5296793739
 10
8.2332016047
 20
22.5321097824
 10
8.2347379394
 20
22.5346275426
  0
LWPOLYLINE
  5
441
100
AcDbEntity
  8
0
100
AcDbPolyline
 62
7
  6
CONTINUOUS
 90
7
 70
0
 10
7.9847421702
 20
22.3114553375
 10
8.0330603754
 20
22.3116033898
 10
8.0796965619
 20
22.3119929714
 10
8.1246507296
 20
22.3126240824
 10
8.1683357627
 20
22.3135104162
 10
8.2103387771
 20
22.3146382793
 10
8.2362665312
 20
22.315485478
  0
LWPOLYLINE
  5
442
100
AcDbEntity
  8
0
100
AcDbPolyline
 62
7
  6
CONTINUOUS
 90
7
 70
0
 10
-9.4152578298
 20
22.3114553375
 10
-9.3669396246
 20
22.3116033898
 10
-9.3203034381
 20
22.3119929714
 10
-9.2753492704
 20
22.3126240824
 10
-9.2316642373
 20
22.3135104162
 10
-9.1896612229
 20
22.3146382793
 10
-9.1637334688
 20
22.315485478
  0
LINE
  5
443
100
AcDbEntity
  8
0
100
AcDbLine
 62
250
  6
CONTINUOUS
 10
-12.4361506459
 20
21.2107174911
 11
8.6201880225
 21
21.2107174911
  0
LINE
  5
444
100
AcDbEntity
  8
0
100
AcDbLine
 62
250
  6
CONTINUOUS
 10
-12.4443238342
 20
22.0602279426
 11
8.6283612108
 21
22.0602279426
  0
LINE
  5
445
100
AcDbEntity
  8
0
100
AcDbLine
 62
250
  6
CONTINUOUS
 10
-11.8007047936
 20
22.3114553375
 11
-9.4152578298
 21
22.3114553375
  0
LINE
  5
446
100
AcDbEntity
  8
0
100
AcDbLine
 62
250
  6
CONTINUOUS
 10
5.5992952064
 20
22.3114553375
 11
7.9847421702
 21
22.3114553375
  0
LINE
  5
447
100
AcDbEntity
  8
0
100
AcDbLine
 62
7
  6
CONTINUOUS
 10
2.5332919436
 20
22.3213883311
 11
1.5920186883
 21
22.3213883311
  0
LINE
  5
448
100
AcDbEntity
  8
0
100
AcDbLine
 62
7
  6
CONTINUOUS
 10
-5.4079813117
 20
22.3213883311
 11
-6.349254567
 21
22.3213883311
  0
LINE
  5
449
100
AcDbEntity
  8
0
100
AcDbLine
 62
7
  6
CONTINUOUS
 10
-5.4079813117
 20
22.3737961104
 11
-3.1079813117
 21
22.3737961104
  0
LINE
  5
44A
100
AcDbEntity
  8
0
100
AcDbLine
 62
7
  6
CONTINUOUS
 10
-0.7079813117
 20
22.3737961104
 11
1.5920186883
 21
22.3737961104
  0
LINE
  5
44B
100
AcDbEntity
  8
0
100
AcDbLine
 62
7
  6
CONTINUOUS
 10
-12.5574891582
 20
22.4
 11
-12.2579238
 21
22.4
  0
LINE
  5
44C
100
AcDbEntity
  8
0
100
AcDbLine
 62
7
  6
CONTINUOUS
 10
-8.9580388233
 20
22.4
 11
-6.3579813117
 21
22.4
  0
LINE
  5
44D
100
AcDbEntity
  8
0
100
AcDbLine
 62
7
  6
CONTINUOUS
 10
2.5420186883
 20
22.4
 11
5.1420762
 21
22.4
  0
LINE
  5
44E
100
AcDbEntity
  8
0
100
AcDbLine
 62
7
  6
CONTINUOUS
 10
-0.9079813117
 20
22.4
 11
-2.9079813117
 21
22.4
  0
LINE
  5
44F
100
AcDbEntity
  8
0
100
AcDbLine
 62
7
  6
CONTINUOUS
 10
8.4419611767
 20
22.4
 11
8.7415265348
 21
22.4
  0
LINE
  5
450
100
AcDbEntity
  8
0
100
AcDbLine
 62
7
  6
CONTINUOUS
 10
-11.8490229997
 20
22.3116033896
 11
-11.8007047936
 21
22.3114553375
  0
LINE
  5
451
100
AcDbEntity
  8
0
100
AcDbLine
 62
7
  6
CONTINUOUS
 10
5.5509770003
 20
22.3116033896
 11
5.5992952064
 21
22.3114553375
  0
LWPOLYLINE
  5
452
100
AcDbEntity
  8
0
100
AcDbPolyline
 62
7
  6
CONTINUOUS
 90
6
 70
0
 10
-12.0522302315
 20
22.3154855161
 10
-12.0263013995
 20
22.3146382794
 10
-11.9842983866
 20
22.3135104161
 10
-11.9406133544
 20
22.3126240822
 10
-11.8956591867
 20
22.3119929712
 10
-11.8490229997
 20
22.3116033896
  0
LWPOLYLINE
  5
453
100
AcDbEntity
  8
0
100
AcDbPolyline
 62
250
  6
CONTINUOUS
 90
13
 70
0
 10
-8.9652654452
 20
22.3349016357
 10
-8.991365212
 20
22.3366175931
 10
-9.0170185774
 20
22.3417202443
 10
-9.0417867751
 20
22.3501223151
 10
-9.0652461784
 20
22.3616800996
 10
-9.0869955458
 20
22.3761959173
 10
-9.1066628837
 20
22.3934214948
 10
-9.1239118087
 20
22.4130622116
 10
-9.1384473012
 20
22.4347821399
 10
-9.1500207511
 20
22.4582097894
 10
-9.1584342101
 20
22.4829444617
 10
-9.1635437774
 20
22.5085631036
 10
-9.1652620606
 20
22.5346275426
  0
LWPOLYLINE
  5
454
100
AcDbEntity
  8
0
100
AcDbPolyline
 62
250
  6
CONTINUOUS
 90
13
 70
0
 10
-12.2506971782
 20
22.3349016357
 10
-12.2245971102
 20
22.3366176328
 10
-12.1989435176
 20
22.3417203858
 10
-12.174175174
 20
22.3501225942
 10
-12.150715709
 20
22.3616805241
 10
-12.1289663562
 20
22.3761964702
 10
-12.1092990921
 20
22.3934221415
 10
-12.0920502869
 20
22.4130628984
 10
-12.0775149397
 20
22.4347828014
 10
-12.0659416328
 20
22.4582103666
 10
-12.0575282956
 20
22.4829449
 10
-12.0524188139
 20
22.508563347
 10
-12.0507005628
 20
22.5346275426
  0
LWPOLYLINE
  5
455
100
AcDbEntity
  8
0
100
AcDbPolyline
 62
250
  6
CONTINUOUS
 90
10
 70
0
 10
-9.1637334688
 20
22.315485478
 10
-9.1505788793
 20
22.3159665914
 10
-9.1145242959
 20
22.3174982593
 10
-9.0813903834
 20
22.3192303761
 10
-9.0520945251
 20
22.3211131403
 10
-9.0267013243
 20
22.3231511399
 10
-9.0051461779
 20
22.3253397868
 10
-8.9881526594
 20
22.3276155164
 10
-8.97596196
 20
22.3299571403
 10
-8.9683328887
 20
22.3323858467
  0
LWPOLYLINE
  5
456
100
AcDbEntity
  8
0
100
AcDbPolyline
 62
7
  6
CONTINUOUS
 90
22
 70
0
 10
-0.7079813117
 20
23.9982478817
 10
-0.7174990806
 20
23.9980212874
 10
-0.726995297
 20
23.9973420164
 10
-0.7364484423
 20
23.996211606
 10
-0.7458371017
 20
23.9946326143
 10
-0.7551399939
 20
23.992608618
 10
-0.7643360198
 20
23.9901442066
 10
-0.773404336
 20
23.9872449671
 10
-0.7823243991
 20
23.9839174684
 10
-0.7910759944
 20
23.9801692522
 10
-0.7996392927
 20
23.976008812
 10
-0.8079948882
 20
23.9714455769
 10
-0.8161238408
 20
23.9664898927
 10
-0.8240077293
 20
23.961152992
 10
-0.8316286925
 20
23.9554469688
 10
-0.838969462
 20
23.9493847549
 10
-0.8460134105
 20
23.9429800842
 10
-0.8527445728
 20
23.9362474753
 10
-0.8591476834
 20
23.9292022024
 10
-0.86520822
 20
23.9218602553
 10
-0.8709124737
 20
23.9142382532
 10
-0.8762475573
 20
23.9063534174
  0
LWPOLYLINE
  5
457
100
AcDbEntity
  8
0
100
AcDbPolyline
 62
7
  6
CONTINUOUS
 90
13
 70
0
 10
-0.7079813117
 20
24.0
 10
-0.7167052876
 20
23.9998096367
 10
-0.725412651
 20
23.99923891
 10
-0.7340868268
 20
23.9982889069
 10
-0.7427113027
 20
23.9969614365
 10
-0.7512696615
 20
23.9952590264
 10
-0.7597456119
 20
23.9931849183
 10
-0.7681230193
 20
23.9907430608
 10
-0.7763859368
 20
23.9879381028
 10
-0.7845186355
 20
23.9847753849
 10
-0.7925056343
 20
23.9812609278
 10
-0.8003317297
 20
23.9774014221
 10
-0.8079820241
 20
23.973204216
  0
LWPOLYLINE
  5
458
100
AcDbEntity
  8
0
100
AcDbPolyline
 62
7
  6
CONTINUOUS
 90
46
 70
0
 10
7.9847421702
 20
23.1226497308
 10
7.9942638805
 20
23.122789871
 10
8.0037574604
 20
23.1231350796
 10
8.0132092683
 20
23.1236853565
 10
8.022618416
 20
23.124445448
 10
8.0319588533
 20
23.1254106079
 10
8.0411802071
 20
23.1265665975
 10
8.0502575831
 20
23.1279138384
 10
8.0591929406
 20
23.129451909
 10
8.0679776609
 20
23.1311653069
 10
8.0766014028
 20
23.1330543018
 10
8.0850544746
 20
23.1351186239
 10
8.0933298562
 20
23.1373419612
 10
8.1014186968
 20
23.1397244588
 10
8.1093127674
 20
23.1422659715
 10
8.1170065179
 20
23.1449497513
 10
8.1244925116
 20
23.1477758427
 10
8.1317638889
 20
23.1507442011
 10
8.1388164086
 20
23.153837946
 10
8.145643968
 20
23.1570570531
 10
8.1522409572
 20
23.1604015466
 10
8.158604226
 20
23.1638546185
 10
8.1647288997
 20
23.1674162006
 10
8.1706105217
 20
23.1710863611
 10
8.176246841
 20
23.174848497
 10
8.1816341085
 20
23.1787025133
 10
8.1867689326
 20
23.1826485049
 10
8.1916498136
 20
23.1866701532
 10
8.1962740341
 20
23.1907673474
 10
8.2006391916
 20
23.1949401982
 10
8.2047444352
 20
23.19917272
 10
8.2085879979
 20
23.20346479
 10
8.2121684012
 20
23.2078165308
 10
8.2154853835
 20
23.2122123248
 10
8.2185380602
 20
23.2166520374
 10
8.2213258202
 20
23.2211358032
 10
8.2238489645
 20
23.2256484084
 10
8.2261074323
 20
23.2301897017
 10
8.2281014313
 20
23.2347598345
 10
8.2298318212
 20
23.2393440468
 10
8.2312993149
 20
23.2439421659
 10
8.2325048906
 20
23.2485543646
 10
8.2334499694
 20
23.2531664013
 10
8.2341360178
 20
23.2577735289
 10
8.2345646834
 20
23.2623804945
 10
8.2347379394
 20
23.2669872981
  0
LWPOLYLINE
  5
459
100
AcDbEntity
  8
0
100
AcDbPolyline
 62
250
  6
CONTINUOUS
 90
16
 70
0
 10
-9.4152578298
 20
22.5111812444
 10
-9.388908606
 20
22.5113281989
 10
-9.3629393353
 20
22.5117167392
 10
-9.3376329969
 20
22.5123468652
 10
-9.3132691018
 20
22.5132322683
 10
-9.2900943349
 20
22.5143592572
 10
-9.2683245046
 20
22.515686758
 10
-9.2482008342
 20
22.5172175255
 10
-9.2299079486
 20
22.5189488049
 10
-9.213571624
 20
22.5208312576
 10
-9.1993676009
 20
22.5228697113
 10
-9.1874672462
 20
22.5250593384
 10
-9.1779921344
 20
22.5273363172
 10
-9.1710662877
 20
22.5296793739
 10
-9.1667983953
 20
22.5321097824
 10
-9.1652620606
 20
22.5346275426
  0
LINE
  5
45A
100
AcDbEntity
  8
0
100
AcDbLine
 62
250
  6
CONTINUOUS
 10
-11.8007047936
 20
22.5111812444
 11
-9.4152578298
 21
22.5111812444
  0
LINE
  5
45B
100
AcDbEntity
  8
0
100
AcDbLine
 62
250
  6
CONTINUOUS
 10
5.5992952064
 20
22.5111812444
 11
7.9847421702
 21
22.5111812444
  0
LINE
  5
45C
100
AcDbEntity
  8
0
100
AcDbLine
 62
7
  6
CONTINUOUS
 10
-11.8007047936
 20
23.1226497308
 11
-9.4152578298
 21
23.1226497308
  0
LINE
  5
45D
100
AcDbEntity
  8
0
100
AcDbLine
 62
7
  6
CONTINUOUS
 10
7.9847421702
 20
23.1226497308
 11
5.5992952064
 21
23.1226497308
  0
LINE
  5
45E
100
AcDbEntity
  8
0
100
AcDbLine
 62
250
  6
CONTINUOUS
 10
-11.7948869638
 20
23.6278312164
 11
-9.4210756596
 21
23.6278312164
  0
LINE
  5
45F
100
AcDbEntity
  8
0
100
AcDbLine
 62
250
  6
CONTINUOUS
 10
5.6051130362
 20
23.6278312164
 11
7.9789243404
 21
23.6278312164
  0
LINE
  5
460
100
AcDbEntity
  8
0
100
AcDbLine
 62
250
  6
CONTINUOUS
 10
1.5920186883
 20
23.7982512664
 11
-0.9079813117
 21
23.7982512664
  0
LINE
  5
461
100
AcDbEntity
  8
0
100
AcDbLine
 62
250
  6
CONTINUOUS
 10
-2.9079813117
 20
23.7982512664
 11
-5.4079813117
 21
23.7982512664
  0
LINE
  5
462
100
AcDbEntity
  8
0
100
AcDbLine
 62
250
  6
CONTINUOUS
 10
5.355117267
 20
23.8443375673
 11
8.2289201096
 21
23.8443375673
  0
LINE
  5
463
100
AcDbEntity
  8
0
100
AcDbLine
 62
250
  6
CONTINUOUS
 10
-9.1710798904
 20
23.8443375673
 11
-12.044882733
 21
23.8443375673
  0
LINE
  5
464
100
AcDbEntity
  8
0
100
AcDbLine
 62
7
  6
CONTINUOUS
 10
-6.349254567
 20
23.9912732553
 11
-5.4079813117
 21
23.9912732553
  0
LINE
  5
465
100
AcDbEntity
  8
0
100
AcDbLine
 62
7
  6
CONTINUOUS
 10
1.5920186883
 20
23.9912732553
 11
2.5332919436
 21
23.9912732553
  0
LINE
  5
466
100
AcDbEntity
  8
0
100
AcDbLine
 62
7
  6
CONTINUOUS
 10
1.5920186883
 20
23.9982478817
 11
-0.7079813117
 21
23.9982478817
  0
LINE
  5
467
100
AcDbEntity
  8
0
100
AcDbLine
 62
7
  6
CONTINUOUS
 10
-3.1079813117
 20
23.9982478817
 11
-5.4079813117
 21
23.9982478817
  0
LINE
  5
468
100
AcDbEntity
  8
0
100
AcDbLine
 62
250
  6
CONTINUOUS
 10
5.355117267
 20
24.2369056521
 11
8.2289201096
 21
24.2369056521
  0
LINE
  5
469
100
AcDbEntity
  8
0
100
AcDbLine
 62
250
  6
CONTINUOUS
 10
-9.1710798904
 20
24.2369056521
 11
-12.044882733
 21
24.2369056521
  0
LWPOLYLINE
  5
46A
100
AcDbEntity
  8
0
100
AcDbPolyline
 62
7
  6
CONTINUOUS
 90
40
 70
0
 10
8.7415265348
 20
22.4
 10
8.7615400436
 20
22.3995989119
 10
8.7815572858
 20
22.3983931752
 10
8.8015458119
 20
22.3963803578
 10
8.8214907631
 20
22.3935564624
 10
8.84134114
 20
22.3899231464
 10
8.8610111669
 20
22.3854948974
 10
8.8804514116
 20
22.380286152
 10
8.8996492007
 20
22.3743036902
 10
8.9185757322
 20
22.3675586046
 10
8.9371838644
 20
22.36007091
 10
8.955462106
 20
22.3518484808
 10
8.9734331202
 20
22.3428793991
 10
8.9910966467
 20
22.333155703
 10
9.0083891737
 20
22.3227040858
 10
9.0252390979
 20
22.3115654086
 10
9.04161428
 20
22.2997623963
 10
9.0574939835
 20
22.2873115832
 10
9.0728302813
 20
22.2742541204
 10
9.0875755021
 20
22.2606393471
 10
9.101736595
 20
22.2464698921
 10
9.115345
 20
22.2317142956
 10
9.1283975438
 20
22.2163658932
 10
9.1408451252
 20
22.2004718186
 10
9.1526475678
 20
22.1840786325
 10
9.1637884631
 20
22.1672060781
 10
9.1742441637
 20
22.1498868057
 10
9.1839731262
 20
22.1321932748
 10
9.1929486194
 20
22.1141884054
 10
9.2011780129
 20
22.0958728483
 10
9.2086720788
 20
22.0772264828
 10
9.2154224783
 20
22.0582621661
 10
9.2214097301
 20
22.0390258389
 10
9.2266231957
 20
22.019545063
 10
9.2310559923
 20
21.9998321985
 10
9.2346933979
 20
21.9799370232
 10
9.237520869
 20
21.9599450105
 10
9.2395365498
 20
21.9399070889
 10
9.2407441666
 20
21.9198382917
 10
9.2411459351
 20
21.8997711479
  0
LWPOLYLINE
  5
46B
100
AcDbEntity
  8
0
100
AcDbPolyline
 62
7
  6
CONTINUOUS
 90
37
 70
0
 10
-3.1079813117
 20
24.0
 10
-3.0992573358
 20
23.9998096367
 10
-3.0905499724
 20
23.99923891
 10
-3.0818757966
 20
23.9982889069
 10
-3.0732513207
 20
23.9969614365
 10
-3.0646929619
 20
23.9952590264
 10
-3.0562170115
 20
23.9931849183
 10
-3.0478396041
 20
23.9907430608
 10
-3.0395766866
 20
23.9879381028
 10
-3.0314439879
 20
23.9847753849
 10
-3.0234569891
 20
23.9812609278
 10
-3.0156308937
 20
23.9774014221
 10
-3.0079805993
 20
23.973204216
 10
-3.0005206683
 20
23.9686772994
 10
-2.993265301
 20
23.96382929
 10
-2.9862283081
 20
23.9586694178
 10
-2.9794230846
 20
23.9532075051
 10
-2.9728625842
 20
23.9474539493
 10
-2.9665592948
 20
23.9414197042
 10
-2.9605252146
 20
23.9351162564
 10
-2.9547718292
 20
23.928555605
 10
-2.94931009
 20
23.92175024
 10
-2.944150393
 20
23.9147131159
 10
-2.9393025593
 20
23.9074576282
 10
-2.9347758162
 20
23.8999975893
 10
-2.93057878
 20
23.8923471996
 10
-2.9267194391
 20
23.8845210219
 10
-2.9232051391
 20
23.8765339547
 10
-2.920042569
 20
23.8684012014
 10
-2.9172377481
 20
23.8601382427
 10
-2.9147960146
 20
23.8517608084
 10
-2.9127220158
 20
23.8432848447
 10
-2.9110196989
 20
23.8347264854
 10
-2.9096923034
 20
23.8261020222
 10
-2.9087423557
 20
23.8174278719
 10
-2.9081716632
 20
23.8087205449
 10
-2.9079813117
 20
23.7999966153
  0
LWPOLYLINE
  5
46C
100
AcDbEntity
  8
0
100
AcDbPolyline
 62
250
  6
CONTINUOUS
 90
12
 70
0
 10
-3.1079813117
 20
23.9982478817
 10
-3.0984649285
 20
23.9980213534
 10
-3.088970103
 20
23.9973422816
 10
-3.079518344
 20
23.9962122046
 10
-3.0701310628
 20
23.9946336824
 10
-3.0608295246
 20
23.9926102908
 10
-3.0516348003
 20
23.9901466136
 10
-3.042567719
 20
23.9872482316
 10
-3.0336488206
 20
23.9839217108
 10
-3.0248983091
 20
23.9801745867
 10
-3.0163360073
 20
23.9760153477
 10
-3.0079813117
 20
23.971453416
  0
LWPOLYLINE
  5
46D
100
AcDbEntity
  8
0
100
AcDbPolyline
 62
250
  6
CONTINUOUS
 90
4
 70
0
 10
-9.4210756596
 20
24.4869014213
 10
-9.4092001881
 20
24.4866188016
 10
-9.3973464455
 20
24.4857718998
 10
-9.3941955818
 20
24.4854512088
  0
LWPOLYLINE
  5
46E
100
AcDbEntity
  8
0
100
AcDbPolyline
 62
7
  6
CONTINUOUS
 90
34
 70
0
 10
-9.4079770809
 20
24.5
 10
-9.3960817957
 20
24.4997168498
 10
-9.3842134561
 20
24.4988680342
 10
-9.3723989456
 20
24.4974554741
 10
-9.3606650242
 20
24.4954823677
 10
-9.3490382729
 20
24.4929531817
 10
-9.3375450327
 20
24.4898736417
 10
-9.3262113379
 20
24.4862507213
 10
-9.3150628624
 20
24.4820926258
 10
-9.3041248654
 20
24.4774087722
 10
-9.2934221241
 20
24.4722097688
 10
-9.2829788834
 20
24.4665073916
 10
-9.2728188058
 20
24.4603145581
 10
-9.2629649066
 20
24.4536452955
 10
-9.2534395079
 20
24.4465147107
 10
-9.2442641926
 20
24.4389389589
 10
-9.2354597456
 20
24.4309352005
 10
-9.2270461112
 20
24.4225215661
 10
-9.2190423528
 20
24.4137171191
 10
-9.211466601
 20
24.4045418038
 10
-9.2043360162
 20
24.3950164051
 10
-9.1976667536
 20
24.3851625059
 10
-9.1914739201
 20
24.3750024283
 10
-9.1857715429
 20
24.3645591876
 10
-9.1805725395
 20
24.3538564463
 10
-9.1758886859
 20
24.3429184493
 10
-9.1717305904
 20
24.3317699738
 10
-9.16810767
 20
24.320436279
 10
-9.16502813
 20
24.3089430388
 10
-9.162498944
 20
24.2973162875
 10
-9.1605258375
 20
24.2855823661
 10
-9.1591132775
 20
24.2737678556
 10
-9.1582644619
 20
24.261899516
 10
-9.1579813117
 20
24.2500042308
  0
LWPOLYLINE
  5
46F
100
AcDbEntity
  8
0
100
AcDbPolyline
 62
7
  6
CONTINUOUS
 90
6
 70
0
 10
5.3477697685
 20
22.3154855161
 10
5.3736986005
 20
22.3146382794
 10
5.4157016134
 20
22.3135104161
 10
5.4593866456
 20
22.3126240822
 10
5.5043408133
 20
22.3119929712
 10
5.5509770003
 20
22.3116033896
  0
LWPOLYLINE
  5
470
100
AcDbEntity
  8
0
100
AcDbPolyline
 62
250
  6
CONTINUOUS
 90
13
 70
0
 10
8.4347345548
 20
22.3349016357
 10
8.408634788
 20
22.3366175931
 10
8.3829814226
 20
22.3417202443
 10
8.3582132249
 20
22.3501223151
 10
8.3347538216
 20
22.3616800996
 10
8.3130044542
 20
22.3761959173
 10
8.2933371163
 20
22.3934214948
 10
8.2760881913
 20
22.4130622116
 10
8.2615526988
 20
22.4347821399
 10
8.2499792489
 20
22.4582097894
 10
8.2415657899
 20
22.4829444617
 10
8.2364562226
 20
22.5085631036
 10
8.2347379394
 20
22.5346275426
  0
LWPOLYLINE
  5
471
100
AcDbEntity
  8
0
100
AcDbPolyline
 62
7
  6
CONTINUOUS
 90
32
 70
0
 10
-9.3941955818
 20
24.4854512088
 10
-9.38554127
 20
24.4843619039
 10
-9.3738097754
 20
24.4823909579
 10
-9.3621803401
 20
24.479862968
 10
-9.3506843745
 20
24.4767843893
 10
-9.3393496094
 20
24.4731627796
 10
-9.3281999974
 20
24.4690059252
 10
-9.3172605963
 20
24.4643231516
 10
-9.3065560615
 20
24.4591249663
 10
-9.296110808
 20
24.4534231778
 10
-9.2859487324
 20
24.4472308154
 10
-9.2760929477
 20
24.4405619782
 10
-9.2665656862
 20
24.4334317248
 10
-9.257388473
 20
24.4258561639
 10
-9.2485820814
 20
24.4178524323
 10
-9.2401664952
 20
24.4094386807
 10
-9.232160801
 20
24.4006339852
 10
-9.2245831445
 20
24.3914582982
 10
-9.2174506935
 20
24.381932404
 10
-9.2107796134
 20
24.3720778879
 10
-9.2045850211
 20
24.3619170757
 10
-9.1988809558
 20
24.3514729905
 10
-9.1936803482
 20
24.340769304
 10
-9.1889949839
 20
24.3298302705
 10
-9.1848354796
 20
24.3186806742
 10
-9.1812112624
 20
24.3073457817
 10
-9.1781305438
 20
24.2958512706
 10
-9.1756003068
 20
24.2842231913
 10
-9.1736262882
 20
24.2724879116
 10
-9.1722129594
 20
24.2606720293
 10
-9.1713635193
 20
24.248802311
 10
-9.1710841705
 20
24.2383600852
  0
LWPOLYLINE
  5
472
100
AcDbEntity
  8
0
100
AcDbPolyline
 62
250
  6
CONTINUOUS
 90
4
 70
0
 10
-11.8217670416
 20
24.4854512088
 10
-11.8186161778
 20
24.4857718998
 10
-11.8067624353
 20
24.4866188016
 10
-11.7948869638
 20
24.4869014213
  0
LINE
  5
473
100
AcDbEntity
  8
0
100
AcDbLine
 62
7
  6
CONTINUOUS
 10
7.9789243404
 20
24.4869014213
 11
5.6051130362
 21
24.4869014213
  0
LINE
  5
474
100
AcDbEntity
  8
0
100
AcDbLine
 62
7
  6
CONTINUOUS
 10
-9.4210756596
 20
24.4869014213
 11
-11.7948869638
 21
24.4869014213
  0
LWPOLYLINE
  5
475
100
AcDbEntity
  8
0
100
AcDbPolyline
 62
7
  6
CONTINUOUS
 90
6
 70
0
 43
0.3500000087
 10
0.2348758342
 20
33.291610553
 10
1.3063044337
 20
33.291610553
 10
1.520590167
 20
33.5058928223
 10
1.520590167
 20
34.5773212219
 10
1.0920187005
 20
35.0058942871
 10
0.6634472341
 20
35.0058942871
  0
LWPOLYLINE
  5
476
100
AcDbEntity
  8
0
100
AcDbPolyline
 62
7
  6
CONTINUOUS
 90
7
 70
0
 43
0.3500000087
 10
-2.3365526314
 20
33.291610553
 10
-3.8365527639
 20
33.291610553
 10
-2.3365526314
 20
35.4344673523
 10
-2.3365526314
 20
35.8630361542
 10
-2.7651240978
 20
36.2916092194
 10
-3.4079812975
 20
36.2916092194
 10
-3.8365527639
 20
35.6487496216
  0
LWPOLYLINE
  5
477
100
AcDbEntity
  8
0
100
AcDbPolyline
 62
7
  6
CONTINUOUS
 90
7
 70
0
 43
0.3500000087
 10
-4.6936954304
 20
33.291610553
 10
-6.1936958294
 20
33.291610553
 10
-4.6936954304
 20
35.4344673523
 10
-4.6936954304
 20
35.8630361542
 10
-5.1222668968
 20
36.2916092194
 10
-5.7651243629
 20
36.2916092194
 10
-6.1936958294
 20
35.6487496216
  0
LWPOLYLINE
  5
478
100
AcDbEntity
  8
0
100
AcDbPolyline
 62
7
  6
CONTINUOUS
 90
34
 70
0
 10
7.9789243404
 20
24.4869014213
 10
7.9908193619
 20
24.4866178705
 10
8.0026874386
 20
24.4857686655
 10
8.0145016865
 20
24.4843557301
 10
8.0262353437
 20
24.4823822649
 10
8.037861831
 20
24.4798527401
 10
8.0493548116
 20
24.4767728857
 10
8.0606882514
 20
24.4731496783
 10
8.0718364776
 20
24.4689913253
 10
8.082774237
 20
24.4643072462
 10
8.0934767532
 20
24.4591080515
 10
8.1039197825
 20
24.4534055187
 10
8.1140796691
 20
24.4472125651
 10
8.1239333985
 20
24.4405432193
 10
8.13345865
 20
24.4334125887
 10
8.1426338467
 20
24.4258368259
 10
8.1514382046
 20
24.4178330917
 10
8.15985178
 20
24.4094195163
 10
8.1678555143
 20
24.4006151584
 10
8.175431277
 20
24.3914399617
 10
8.1825619076
 20
24.3819147102
 10
8.1892312534
 20
24.3720609807
 10
8.195424207
 20
24.3619010942
 10
8.2011267398
 20
24.3514580649
 10
8.2063259345
 20
24.3407555487
 10
8.2110100136
 20
24.3298177893
 10
8.2151683666
 20
24.3186695631
 10
8.218791574
 20
24.3073361233
 10
8.2218714284
 20
24.2958431426
 10
8.2244009532
 20
24.2842166554
 10
8.2263744184
 20
24.2724829982
 10
8.2277873538
 20
24.2606687503
 10
8.2286365588
 20
24.2488006736
 10
8.2289201096
 20
24.2369056521
  0
LWPOLYLINE
  5
479
100
AcDbEntity
  8
0
100
AcDbPolyline
 62
7
  6
CONTINUOUS
 90
34
 70
0
 10
7.9920229191
 20
24.5
 10
8.0039182043
 20
24.4997168498
 10
8.0157865439
 20
24.4988680342
 10
8.0276010544
 20
24.4974554741
 10
8.0393349758
 20
24.4954823677
 10
8.0509617271
 20
24.4929531817
 10
8.0624549673
 20
24.4898736417
 10
8.0737886621
 20
24.4862507213
 10
8.0849371376
 20
24.4820926258
 10
8.0958751346
 20
24.4774087722
 10
8.1065778759
 20
24.4722097688
 10
8.1170211166
 20
24.4665073916
 10
8.1271811942
 20
24.4603145581
 10
8.1370350934
 20
24.4536452955
 10
8.1465604921
 20
24.4465147107
 10
8.1557358074
 20
24.4389389589
 10
8.1645402544
 20
24.4309352005
 10
8.1729538888
 20
24.4225215661
 10
8.1809576472
 20
24.4137171191
 10
8.188533399
 20
24.4045418038
 10
8.1956639838
 20
24.3950164051
 10
8.2023332464
 20
24.3851625059
 10
8.2085260799
 20
24.3750024283
 10
8.2142284571
 20
24.3645591876
 10
8.2194274605
 20
24.3538564463
 10
8.2241113141
 20
24.3429184493
 10
8.2282694096
 20
24.3317699738
 10
8.23189233
 20
24.320436279
 10
8.23497187
 20
24.3089430388
 10
8.237501056
 20
24.2973162875
 10
8.2394741625
 20
24.2855823661
 10
8.2408867225
 20
24.2737678556
 10
8.2417355381
 20
24.261899516
 10
8.2420186883
 20
24.2500042308
  0
LWPOLYLINE
  5
47A
100
AcDbEntity
  8
0
100
AcDbPolyline
 62
7
  6
CONTINUOUS
 90
5
 70
0
 43
0.3500000087
 10
-46.5875540222
 20
45.175037915
 10
-46.2304126434
 20
45.3893244476
 10
-46.2304126434
 20
46.0321797821
 10
-46.5875540222
 20
46.4607528473
 10
-47.4446958893
 20
46.4607528473
  0
LWPOLYLINE
  5
47B
100
AcDbEntity
  8
0
100
AcDbPolyline
 62
7
  6
CONTINUOUS
 90
3
 70
0
 43
0.3500000087
 10
-43.5875553558
 20
45.6036109802
 10
-42.7304092255
 20
46.4607528473
 10
-42.7304092255
 20
43.4607541809
  0
LWPOLYLINE
  5
47C
100
AcDbEntity
  8
0
100
AcDbPolyline
 62
7
  6
CONTINUOUS
 90
5
 70
0
 43
0.3500000087
 10
-44.4089835114
 20
34.9911944092
 10
-44.0518378693
 20
35.2054809418
 10
-44.0518378693
 20
35.8483362762
 10
-44.4089835114
 20
36.2769093414
 10
-45.2661253784
 20
36.2769093414
  0
LWPOLYLINE
  5
47D
100
AcDbEntity
  8
0
100
AcDbPolyline
 62
7
  6
CONTINUOUS
 90
4
 70
0
 10
-60.3875539867
 20
23.1226497308
 10
-60.387372595
 20
23.122789871
 10
-60.3868297753
 20
23.1231350796
 10
-60.3859279474
 20
23.1236853565
  0
LWPOLYLINE
  5
47E
100
AcDbEntity
  8
0
100
AcDbPolyline
 62
7
  6
CONTINUOUS
 90
5
 70
0
 43
0.3500000087
 10
-42.266126712
 20
34.9911944092
 10
-41.9089810699
 20
35.2054809418
 10
-41.9089810699
 20
35.8483362762
 10
-42.266126712
 20
36.2769093414
 10
-43.1232685791
 20
36.2769093414
  0
LINE
  5
47F
100
AcDbEntity
  8
0
100
AcDbLine
 62
7
  6
CONTINUOUS
 10
-60.3859279474
 20
23.1236853565
 11
-60.3830546687
 21
23.1254106079
  0
LINE
  5
480
100
AcDbEntity
  8
0
100
AcDbLine
 62
7
  6
CONTINUOUS
 10
-60.3830546687
 20
23.1254106079
 11
-60.323145356
 21
23.1604015466
  0
LINE
  5
481
100
AcDbEntity
  8
0
100
AcDbLine
 62
250
  6
CONTINUOUS
 10
-58.8875539867
 20
23.4104851482
 11
-58.1360995539
 21
23.8443375673
  0
LINE
  5
482
100
AcDbEntity
  8
0
100
AcDbLine
 62
7
  6
CONTINUOUS
 10
-58.8875539867
 20
23.1226497308
 11
-58.0125539867
 21
23.6278312164
  0
LINE
  5
483
100
AcDbEntity
  8
0
100
AcDbLine
 62
7
  6
CONTINUOUS
 10
-60.323145356
 20
23.1604015466
 11
-60.1390084196
 21
23.2669872981
  0
LINE
  5
484
100
AcDbEntity
  8
0
100
AcDbLine
 62
250
  6
CONTINUOUS
 10
-58.1360995539
 20
-23.8443375673
 11
-58.8875539867
 21
-23.4104851482
  0
LINE
  5
485
100
AcDbEntity
  8
0
100
AcDbLine
 62
7
  6
CONTINUOUS
 10
-58.0125539867
 20
-23.6278312164
 11
-58.8875539867
 21
-23.1226497308
  0
LINE
  5
486
100
AcDbEntity
  8
0
100
AcDbLine
 62
7
  6
CONTINUOUS
 10
-60.1390084196
 20
-23.2669872981
 11
-60.3587198492
 21
-23.139691538
  0
LWPOLYLINE
  5
487
100
AcDbEntity
  8
0
100
AcDbPolyline
 62
7
  6
CONTINUOUS
 90
7
 70
0
 10
-60.3587198492
 20
-23.139691538
 10
-60.383071167
 20
-23.1253969981
 10
-60.3846782322
 20
-23.1244418396
 10
-60.3859371868
 20
-23.123679751
 10
-60.3868386089
 20
-23.1231181344
 10
-60.3873794387
 20
-23.1227714623
 10
-60.3875539867
 20
-23.1226497308
  0
LINE
  5
488
100
AcDbEntity
  8
0
100
AcDbLine
 62
250
  6
CONTINUOUS
 10
-61.1797381122
 20
23.7736512346
 11
-61.2365791521
 21
23.6743757476
  0
LINE
  5
489
100
AcDbEntity
  8
0
100
AcDbLine
 62
250
  6
CONTINUOUS
 10
-61.1390084196
 20
23.8443375673
 11
-61.1797381122
 21
23.7736512346
  0
LINE
  5
48A
100
AcDbEntity
  8
0
100
AcDbLine
 62
7
  6
CONTINUOUS
 10
-58.8875539867
 20
-24.5
 11
-58.1360995539
 21
-24.495628166
  0
LINE
  5
48B
100
AcDbEntity
  8
0
100
AcDbLine
 62
250
  6
CONTINUOUS
 10
-58.8875539867
 20
-24.2500042308
 11
-58.1360995539
 21
-24.2456323968
  0
LINE
  5
48C
100
AcDbEntity
  8
0
100
AcDbLine
 62
7
  6
CONTINUOUS
 10
-51.3846451211
 20
-23.9563493531
 11
-57.8866822459
 21
-23.9941770985
  0
LINE
  5
48D
100
AcDbEntity
  8
0
100
AcDbLine
 62
250
  6
CONTINUOUS
 10
-57.8875539867
 20
-24.2456323968
 11
-58.1360995539
 21
-24.2456323968
  0
LINE
  5
48E
100
AcDbEntity
  8
0
100
AcDbLine
 62
250
  6
CONTINUOUS
 10
-61.3875539867
 20
-24.2369056521
 11
-61.1390084196
 21
-24.2369056521
  0
LINE
  5
48F
100
AcDbEntity
  8
0
100
AcDbLine
 62
250
  6
CONTINUOUS
 10
-61.3875539867
 20
-23.8443375673
 11
-61.1390084196
 21
-23.8443375673
  0
LINE
  5
490
100
AcDbEntity
  8
0
100
AcDbLine
 62
250
  6
CONTINUOUS
 10
-57.8875539867
 20
-23.8443375673
 11
-58.1360995539
 21
-23.8443375673
  0
LINE
  5
491
100
AcDbEntity
  8
0
100
AcDbLine
 62
7
  6
CONTINUOUS
 10
-61.1390084196
 20
-24.4869014213
 11
-58.8875539867
 21
-24.5
  0
LINE
  5
492
100
AcDbEntity
  8
0
100
AcDbLine
 62
250
  6
CONTINUOUS
 10
-61.1390084196
 20
-24.2369056521
 11
-58.8875539867
 21
-24.2500042308
  0
LINE
  5
493
100
AcDbEntity
  8
0
100
AcDbLine
 62
250
  6
CONTINUOUS
 10
-58.8875539867
 20
-22.6002134903
 11
-60.1390084196
 21
-22.5346275426
  0
LINE
  5
494
100
AcDbEntity
  8
0
100
AcDbLine
 62
7
  6
CONTINUOUS
 10
-65.3707910558
 20
-22.0602279426
 11
-58.8875539867
 21
-22.4
  0
LINE
  5
495
100
AcDbEntity
  8
0
100
AcDbLine
 62
250
  6
CONTINUOUS
 10
-60.1390084196
 20
-22.5346275426
 11
-60.3875539867
 21
-22.5111812444
  0
LINE
  5
496
100
AcDbEntity
  8
0
100
AcDbLine
 62
250
  6
CONTINUOUS
 10
-61.1390084196
 20
-23.8443375673
 11
-61.2203860329
 21
-23.7027694659
  0
LINE
  5
497
100
AcDbEntity
  8
0
100
AcDbLine
 62
250
  6
CONTINUOUS
 10
-61.2203860329
 20
-23.7027694659
 11
-61.2365806112
 21
-23.6743731824
  0
LWPOLYLINE
  5
498
100
AcDbEntity
  8
0
100
AcDbPolyline
 62
250
  6
CONTINUOUS
 90
6
 70
0
 10
-61.259300115
 20
23.6340599235
 10
-61.2605094704
 20
23.6318483049
 10
-61.2614413226
 20
23.630116262
 10
-61.2620935684
 20
23.6288677039
 10
-61.2624647356
 20
23.6281054486
 10
-61.2625539867
 20
23.6278312164
  0
LINE
  5
499
100
AcDbEntity
  8
0
100
AcDbLine
 62
250
  6
CONTINUOUS
 10
-61.2560604322
 20
23.6399008509
 11
-61.259300115
 21
23.6340599235
  0
LINE
  5
49A
100
AcDbEntity
  8
0
100
AcDbLine
 62
250
  6
CONTINUOUS
 10
-61.2464122112
 20
23.6570470569
 11
-61.2560604322
 21
23.6399008509
  0
LINE
  5
49B
100
AcDbEntity
  8
0
100
AcDbLine
 62
250
  6
CONTINUOUS
 10
-61.2365791521
 20
23.6743757476
 11
-61.2464122112
 21
23.6570470569
  0
LINE
  5
49C
100
AcDbEntity
  8
0
100
AcDbLine
 62
7
  6
CONTINUOUS
 10
-56.8875539867
 20
-20.85
 11
-46.8875539867
 21
-20.6754493507
  0
LINE
  5
49D
100
AcDbEntity
  8
0
100
AcDbLine
 62
7
  6
CONTINUOUS
 10
-47.8817362554
 20
-22.3359700255
 11
-58.8875539867
 21
-22.4
  0
LINE
  5
49E
100
AcDbEntity
  8
0
100
AcDbLine
 62
250
  6
CONTINUOUS
 10
-58.8875539867
 20
-21.900016923
 11
-57.8875539867
 21
-21.8941990932
  0
LINE
  5
49F
100
AcDbEntity
  8
0
100
AcDbLine
 62
7
  6
CONTINUOUS
 10
-46.8875539867
 20
-20.9
 11
-57.8875539867
 21
-20.9
  0
LINE
  5
4A0
100
AcDbEntity
  8
0
100
AcDbLine
 62
7
  6
CONTINUOUS
 10
-47.3788277835
 20
-21.4537354271
 11
-57.8875539867
 21
-21.4
  0
LINE
  5
4A1
100
AcDbEntity
  8
0
100
AcDbLine
 62
250
  6
CONTINUOUS
 10
-65.3536192404
 20
-21.5608990273
 11
-58.8875311433
 21
-21.8997723451
  0
LINE
  5
4A2
100
AcDbEntity
  8
0
100
AcDbLine
 62
250
  6
CONTINUOUS
 10
-61.2365806112
 20
-23.6743731824
 11
-61.2517527523
 21
-23.6475841265
  0
LWPOLYLINE
  5
4A3
100
AcDbEntity
  8
0
100
AcDbPolyline
 62
250
  6
CONTINUOUS
 90
8
 70
0
 10
-61.2517527523
 20
-23.6475841265
 10
-61.2578169013
 20
-23.6367444758
 10
-61.2593009311
 20
-23.6340584395
 10
-61.2605101629
 20
-23.6318470295
 10
-61.2614418089
 20
-23.630115347
 10
-61.2620938155
 20
-23.6288672183
 10
-61.2624647997
 20
-23.6281053043
 10
-61.2625539867
 20
-23.6278312164
  0
LWPOLYLINE
  5
4A4
100
AcDbEntity
  8
0
100
AcDbPolyline
 62
250
  6
CONTINUOUS
 90
43
 70
0
 10
-65.8215909252
 20
-21.1361579495
 10
-65.8188931832
 20
-21.1522510557
 10
-65.8156814497
 20
-21.1682140114
 10
-65.8119557247
 20
-21.1840468165
 10
-65.807710982
 20
-21.199765896
 10
-65.8029522478
 20
-21.215354825
 10
-65.7976946003
 20
-21.2307643287
 10
-65.7919364256
 20
-21.2459939364
 10
-65.7856793376
 20
-21.2610441189
 10
-65.778943257
 20
-21.2758670137
 10
-65.7717266665
 20
-21.2904618784
 10
-65.7640310834
 20
-21.3048294554
 10
-65.7558809801
 20
-21.3189241094
 10
-65.7472749178
 20
-21.332744966
 10
-65.7382143353
 20
-21.3462928996
 10
-65.728728022
 20
-21.3595248979
 10
-65.7188146228
 20
-21.3724399623
 10
-65.7084754926
 20
-21.3850390914
 10
-65.697743486
 20
-21.3972822697
 10
-65.6866173571
 20
-21.4091683637
 10
-65.6750983517
 20
-21.4206985069
 10
-65.6632230611
 20
-21.4318360833
 10
-65.6509903529
 20
-21.4425798464
 10
-65.6384013595
 20
-21.4529310428
 10
-65.6254960684
 20
-21.4628567962
 10
-65.6122734731
 20
-21.4723557562
 10
-65.5987345801
 20
-21.4814292732
 10
-65.5849223961
 20
-21.4900485226
 10
-65.5708360548
 20
-21.4982120603
 10
-65.5564764225
 20
-21.5059213303
 10
-65.5418891043
 20
-21.5131518402
 10
-65.5270733746
 20
-21.5199020704
 10
-65.5120299591
 20
-21.5261735406
 10
-65.4968066404
 20
-21.5319463166
 10
-65.4814028458
 20
-21.5372188145
 10
-65.4658191481
 20
-21.5419926184
 10
-65.4501050479
 20
-21.5462525468
 10
-65.4342608144
 20
-21.5499969225
 10
-65.4182861785
 20
-21.5532274228
 10
-65.4022298338
 20
-21.5559338984
 10
-65.3861080115
 20
-21.5581129661
 10
-65.3699044803
 20
-21.5597680091
 10
-65.3536192404
 20
-21.5608990273
  0
LWPOLYLINE
  5
4A5
100
AcDbEntity
  8
0
100
AcDbPolyline
 62
250
  6
CONTINUOUS
 90
16
 70
0
 10
-66.8061123016
 20
-9.4905
 10
-66.78789858
 20
-10.2700827361
 10
-66.7628995825
 20
-11.0493596116
 10
-66.7311153093
 20
-11.8283306265
 10
-66.6925423182
 20
-12.6070550132
 10
-66.6471840512
 20
-13.3854735393
 10
-66.5950508345
 20
-14.1634085077
 10
-66.5361411254
 20
-14.940859671
 10
-66.4704564666
 20
-15.7178272766
 10
-66.3980118114
 20
-16.4941343697
 10
-66.3188055863
 20
-17.2697810135
 10
-66.2328393649
 20
-18.0447671448
 10
-66.1401328207
 20
-18.8189156185
 10
-66.0406925116
 20
-19.5921673863
 10
-65.9345118798
 20
-20.3645814967
 10
-65.8215909252
 20
-21.1361579495
  0
LWPOLYLINE
  5
4A6
100
AcDbEntity
  8
0
100
AcDbPolyline
 62
250
  6
CONTINUOUS
 90
13
 70
0
 10
-66.8061123016
 20
9.4905
 10
-66.8336640723
 20
7.9087896556
 10
-66.8562063273
 20
6.3270634198
 10
-66.8737390666
 20
4.7453212927
 10
-66.8862621646
 20
3.1635579699
 10
-66.8937757469
 20
1.5817787557
 10
-66.89628019
 20
-0.0000004368
 10
-66.8937757443
 20
-1.5817796113
 10
-66.8862621594
 20
-3.1635587642
 10
-66.8737390602
 20
-4.7453219719
 10
-66.8562063217
 20
-6.3270639264
 10
-66.8336640688
 20
-7.9087899358
 10
-66.8061123016
 20
-9.4905
  0
LWPOLYLINE
  5
4A7
100
AcDbEntity
  8
0
100
AcDbPolyline
 62
250
  6
CONTINUOUS
 90
16
 70
0
 10
-65.8215909252
 20
21.1361579495
 10
-65.9345120031
 20
20.3645805488
 10
-66.040692723
 20
19.5921657259
 10
-66.140133085
 20
18.8189134809
 10
-66.2328396353
 20
18.0447648433
 10
-66.3188058276
 20
17.2697787835
 10
-66.3980120229
 20
16.4941322128
 10
-66.4704566591
 20
15.7178251164
 10
-66.5361412983
 20
14.9408575091
 10
-66.595050988
 20
14.1634063458
 10
-66.6471841877
 20
13.3854713004
 10
-66.692542438
 20
12.607052699
 10
-66.7311154076
 20
11.8283284749
 10
-66.7628996529
 20
11.0493579393
 10
-66.7878986175
 20
10.270081781
 10
-66.8061123016
 20
9.4905
  0
LWPOLYLINE
  5
4A8
100
AcDbEntity
  8
0
100
AcDbPolyline
 62
7
  6
CONTINUOUS
 90
10
 70
0
 43
0.3500000087
 10
-38.1946953827
 20
36.2769093414
 10
-38.8375549805
 20
35.6340497437
 10
-39.2661237823
 20
34.7769078766
 10
-39.2661237823
 20
33.7054794769
 10
-38.8375549805
 20
33.2769064117
 10
-38.1946953827
 20
33.2769064117
 10
-37.7661265808
 20
33.7054794769
 10
-37.7661265808
 20
34.562621344
 10
-38.1946953827
 20
34.9911944092
 10
-39.1232689362
 20
34.9911944092
  0
LINE
  5
4A9
100
AcDbEntity
  8
0
100
AcDbLine
 62
250
  6
CONTINUOUS
 10
-66.270524946
 20
-21.2046770723
 11
-66.2958512294
 21
-21.2087130394
  0
LINE
  5
4AA
100
AcDbEntity
  8
0
100
AcDbLine
 62
250
  6
CONTINUOUS
 10
-66.0832546276
 20
-21.1758319861
 11
-66.270524946
 21
-21.2046770723
  0
LINE
  5
4AB
100
AcDbEntity
  8
0
100
AcDbLine
 62
250
  6
CONTINUOUS
 10
-65.8215909252
 20
-21.1361579495
 11
-66.0832546276
 21
-21.1758319861
  0
LINE
  5
4AC
100
AcDbEntity
  8
0
100
AcDbLine
 62
7
  6
CONTINUOUS
 10
-25.2701015803
 20
-19.1226659647
 11
-46.8875539867
 21
-19.5
  0
LINE
  5
4AD
100
AcDbEntity
  8
0
100
AcDbLine
 62
250
  6
CONTINUOUS
 10
-25.2701015803
 20
-18.1228182695
 11
-46.8875539867
 21
-18.5001523048
  0
LINE
  5
4AE
100
AcDbEntity
  8
0
100
AcDbLine
 62
7
  6
CONTINUOUS
 10
-57.8875539867
 20
-19.5
 11
-56.8875539867
 21
-19.4912731322
  0
LINE
  5
4AF
100
AcDbEntity
  8
0
100
AcDbLine
 62
250
  6
CONTINUOUS
 10
-56.8875539867
 20
-19.0856972195
 11
-46.8875539867
 21
-19.0133959733
  0
LINE
  5
4B0
100
AcDbEntity
  8
0
100
AcDbLine
 62
7
  6
CONTINUOUS
 10
-57.8875539867
 20
-18.5082905244
 11
-56.8875539867
 21
-18.5046757374
  0
LINE
  5
4B1
100
AcDbEntity
  8
0
100
AcDbLine
 62
250
  6
CONTINUOUS
 10
-24.2875539867
 20
-18.1228182695
 11
-25.2701015803
 21
-18.1228182695
  0
LINE
  5
4B2
100
AcDbEntity
  8
0
100
AcDbLine
 62
250
  6
CONTINUOUS
 10
-65.3637162487
 20
21.7748495447
 11
-65.3673087319
 21
21.8607231587
  0
LINE
  5
4B3
100
AcDbEntity
  8
0
100
AcDbLine
 62
250
  6
CONTINUOUS
 10
-65.3673087319
 20
21.8607231587
 11
-65.369529057
 21
21.9208582815
  0
LINE
  5
4B4
100
AcDbEntity
  8
0
100
AcDbLine
 62
250
  6
CONTINUOUS
 10
-65.369529057
 20
21.9208582815
 11
-65.3707740028
 21
21.9599252661
  0
LINE
  5
4B5
100
AcDbEntity
  8
0
100
AcDbLine
 62
250
  6
CONTINUOUS
 10
-65.3707740028
 20
21.9599252661
 11
-65.3713932508
 21
21.9827729035
  0
LINE
  5
4B6
100
AcDbEntity
  8
0
100
AcDbLine
 62
250
  6
CONTINUOUS
 10
-65.3713932508
 20
21.9827729035
 11
-65.3718390856
 21
22.0028877978
  0
LWPOLYLINE
  5
4B7
100
AcDbEntity
  8
0
100
AcDbPolyline
 62
250
  6
CONTINUOUS
 90
12
 70
0
 10
-65.3718390856
 20
22.0028877978
 10
-65.3721086193
 20
22.0201396477
 10
-65.3721766826
 20
22.0276562624
 10
-65.3722001058
 20
22.034416698
 10
-65.372178851
 20
22.0404100019
 10
-65.3721129525
 20
22.0456264642
 10
-65.3720025172
 20
22.0500576335
 10
-65.3718477239
 20
22.0536963309
 10
-65.3716488235
 20
22.0565366612
 10
-65.3714061382
 20
22.0585740228
 10
-65.3711200611
 20
22.0598051147
 10
-65.3707910558
 20
22.0602279426
  0
LWPOLYLINE
  5
4B8
100
AcDbEntity
  8
0
100
AcDbPolyline
 62
250
  6
CONTINUOUS
 90
11
 70
0
 10
-65.372251034
 20
-22.020132174
 10
-65.372306037
 20
-22.0276494748
 10
-65.372316055
 20
-22.0344106144
 10
-65.372281053
 20
-22.0404046401
 10
-65.3722011571
 20
-22.0456218372
 10
-65.3720764729
 20
-22.0500537545
 10
-65.3719071804
 20
-22.0536932128
 10
-65.3716936253
 20
-22.056534312
 10
-65.3714361614
 20
-22.0585724487
 10
-65.3711351505
 20
-22.0598043238
 10
-65.3707910558
 20
-22.0602279426
  0
LINE
  5
4B9
100
AcDbEntity
  8
0
100
AcDbLine
 62
250
  6
CONTINUOUS
 10
-65.3720065126
 20
-22.0028790099
 11
-65.372251034
 21
-22.020132174
  0
LINE
  5
4BA
100
AcDbEntity
  8
0
100
AcDbLine
 62
250
  6
CONTINUOUS
 10
-65.3715839542
 20
-21.9827628913
 11
-65.3720065126
 21
-22.0028790099
  0
LINE
  5
4BB
100
AcDbEntity
  8
0
100
AcDbLine
 62
250
  6
CONTINUOUS
 10
-65.3706228288
 20
-21.9475105806
 11
-65.3715839542
 21
-21.9827628913
  0
LINE
  5
4BC
100
AcDbEntity
  8
0
100
AcDbLine
 62
250
  6
CONTINUOUS
 10
-65.3692823153
 20
-21.906627396
 11
-65.3706228288
 21
-21.9475105806
  0
LINE
  5
4BD
100
AcDbEntity
  8
0
100
AcDbLine
 62
250
  6
CONTINUOUS
 10
-65.3669381658
 20
-21.8443973763
 11
-65.3692823153
 21
-21.906627396
  0
LINE
  5
4BE
100
AcDbEntity
  8
0
100
AcDbLine
 62
250
  6
CONTINUOUS
 10
-65.3640099719
 20
-21.7748341467
 11
-65.3669381658
 21
-21.8443973763
  0
LWPOLYLINE
  5
4BF
100
AcDbEntity
  8
0
100
AcDbPolyline
 62
250
  6
CONTINUOUS
 90
8
 70
0
 10
-61.1390084196
 20
24.4869014213
 10
-61.1390759731
 20
24.4866178705
 10
-61.1391400791
 20
24.4857686655
 10
-61.1392005921
 20
24.4843557301
 10
-61.1392573753
 20
24.4823822649
 10
-61.1393102999
 20
24.4798527401
 10
-61.139359246
 20
24.4767728857
 10
-61.1394447687
 20
24.4689913253
  0
LINE
  5
4C0
100
AcDbEntity
  8
0
100
AcDbLine
 62
7
  6
CONTINUOUS
 10
-56.8875539867
 20
-18.1473460386
 11
-58.8875539867
 21
-18.5
  0
LWPOLYLINE
  5
4C1
100
AcDbEntity
  8
0
100
AcDbPolyline
 62
250
  6
CONTINUOUS
 90
4
 70
0
 10
-66.3031616559
 20
-21.2099273609
 10
-66.3054504771
 20
-21.2103289894
 10
-66.3068221215
 20
-21.2105925142
 10
-66.3072740351
 20
-21.2107174445
  0
LINE
  5
4C2
100
AcDbEntity
  8
0
100
AcDbLine
 62
250
  6
CONTINUOUS
 10
-66.2958512294
 20
-21.2087130394
 11
-66.3031616559
 21
-21.2099273609
  0
LINE
  5
4C3
100
AcDbEntity
  8
0
100
AcDbLine
 62
250
  6
CONTINUOUS
 10
-56.8875539867
 20
-17.6716990487
 11
-46.8875539867
 21
-17.5993978025
  0
LINE
  5
4C4
100
AcDbEntity
  8
0
100
AcDbLine
 62
250
  6
CONTINUOUS
 10
-65.3533492809
 20
21.5609131753
 11
-65.3602792057
 21
21.6997526739
  0
LINE
  5
4C5
100
AcDbEntity
  8
0
100
AcDbLine
 62
250
  6
CONTINUOUS
 10
-65.3602792057
 20
21.6997526739
 11
-65.3637162487
 21
21.7748495447
  0
LINE
  5
4C6
100
AcDbEntity
  8
0
100
AcDbLine
 62
250
  6
CONTINUOUS
 10
-65.3586968786
 20
-21.6607162948
 11
-65.3640099719
 21
-21.7748341467
  0
LINE
  5
4C7
100
AcDbEntity
  8
0
100
AcDbLine
 62
250
  6
CONTINUOUS
 10
-65.353637625
 20
-21.5608980638
 11
-65.3586968786
 21
-21.6607162948
  0
LINE
  5
4C8
100
AcDbEntity
  8
0
100
AcDbLine
 62
7
  6
CONTINUOUS
 10
-54.3552655226
 20
15.503009
 11
-53.8568375226
 21
16.001437
  0
LINE
  5
4C9
100
AcDbEntity
  8
0
100
AcDbLine
 62
250
  6
CONTINUOUS
 10
-54.3552655226
 20
14.166101
 11
-52.308315186
 21
15.502999
  0
LINE
  5
4CA
100
AcDbEntity
  8
0
100
AcDbLine
 62
250
  6
CONTINUOUS
 10
-51.4570545474
 20
15.484078
 11
-53.481663691
 21
14.165656
  0
LINE
  5
4CB
100
AcDbEntity
  8
0
100
AcDbLine
 62
250
  6
CONTINUOUS
 10
-37.0783159601
 20
-13.068876
 11
-33.7166070426
 21
-12.774826
  0
LINE
  5
4CC
100
AcDbEntity
  8
0
100
AcDbLine
 62
250
  6
CONTINUOUS
 10
-30.8875539867
 20
-14.092362
 11
-31.9064107863
 21
-14.092362
  0
LINE
  5
4CD
100
AcDbEntity
  8
0
100
AcDbLine
 62
250
  6
CONTINUOUS
 10
-54.3556654007
 20
-14.137714
 11
-52.3593766286
 21
-14.778839
  0
LINE
  5
4CE
100
AcDbEntity
  8
0
100
AcDbLine
 62
250
  6
CONTINUOUS
 10
-51.4564177415
 20
-14.488824
 11
-54.3556654007
 21
-13.557685
  0
LWPOLYLINE
  5
4CF
100
AcDbEntity
  8
0
100
AcDbPolyline
 62
250
  6
CONTINUOUS
 90
4
 70
0
 10
-60.1297047746
 20
-22.3349016357
 10
-60.1296428603
 20
-22.3366176328
 10
-60.129761036
 20
-22.3417203858
 10
-60.130057279
 20
-22.3501225942
  0
LWPOLYLINE
  5
4D0
100
AcDbEntity
  8
0
100
AcDbPolyline
 62
250
  6
CONTINUOUS
 90
6
 70
0
 10
-61.1393102999
 20
-24.4798527401
 10
-61.1392573753
 20
-24.4823822649
 10
-61.1392005921
 20
-24.4843557301
 10
-61.1391400791
 20
-24.4857686655
 10
-61.1390759731
 20
-24.4866178705
 10
-61.1390084196
 20
-24.4869014213
  0
LINE
  5
4D1
100
AcDbEntity
  8
0
100
AcDbLine
 62
250
  6
CONTINUOUS
 10
-61.1394041028
 20
-24.4731496783
 11
-61.1393102999
 21
-24.4798527401
  0
LINE
  5
4D2
100
AcDbEntity
  8
0
100
AcDbLine
 62
250
  6
CONTINUOUS
 10
-61.1395131689
 20
-24.4591080515
 11
-61.1394041028
 21
-24.4731496783
  0
LINE
  5
4D3
100
AcDbEntity
  8
0
100
AcDbLine
 62
250
  6
CONTINUOUS
 10
-61.139596285
 20
24.3914399617
 11
-61.1390084196
 21
24.2369056521
  0
LINE
  5
4D4
100
AcDbEntity
  8
0
100
AcDbLine
 62
250
  6
CONTINUOUS
 10
-61.1396102481
 20
-24.4178330917
 11
-61.1395131689
 21
-24.4591080515
  0
LINE
  5
4D5
100
AcDbEntity
  8
0
100
AcDbLine
 62
7
  6
CONTINUOUS
 10
-61.3875539867
 20
-24.2369056521
 11
-61.3875539867
 21
-23.8443375673
  0
LINE
  5
4D6
100
AcDbEntity
  8
0
100
AcDbLine
 62
7
  6
CONTINUOUS
 10
-61.3875539867
 20
23.8443375673
 11
-61.3875539867
 21
24.2369056521
  0
LINE
  5
4D7
100
AcDbEntity
  8
0
100
AcDbLine
 62
250
  6
CONTINUOUS
 10
-61.1390084196
 20
-24.2369056521
 11
-61.1390084196
 21
-23.8443375673
  0
LINE
  5
4D8
100
AcDbEntity
  8
0
100
AcDbLine
 62
250
  6
CONTINUOUS
 10
-61.1390084196
 20
23.8443375673
 11
-61.1390084196
 21
24.2369056521
  0
LINE
  5
4D9
100
AcDbEntity
  8
0
100
AcDbLine
 62
7
  6
CONTINUOUS
 10
-60.3875539867
 20
-23.1226497308
 11
-60.3875539867
 21
-22.5111812444
  0
LINE
  5
4DA
100
AcDbEntity
  8
0
100
AcDbLine
 62
7
  6
CONTINUOUS
 10
-60.3875539867
 20
22.5111812444
 11
-60.3875539867
 21
23.1226497308
  0
LINE
  5
4DB
100
AcDbEntity
  8
0
100
AcDbLine
 62
250
  6
CONTINUOUS
 10
-60.1390084196
 20
-23.2669872981
 11
-60.1390084196
 21
-22.5346275426
  0
LINE
  5
4DC
100
AcDbEntity
  8
0
100
AcDbLine
 62
250
  6
CONTINUOUS
 10
-60.1390084196
 20
22.5346275426
 11
-60.1390084196
 21
23.2669872981
  0
LINE
  5
4DD
100
AcDbEntity
  8
0
100
AcDbLine
 62
250
  6
CONTINUOUS
 10
-61.1395638273
 20
24.4472125651
 11
-61.139596285
 21
24.3914399617
  0
LINE
  5
4DE
100
AcDbEntity
  8
0
100
AcDbLine
 62
250
  6
CONTINUOUS
 10
-61.1393102999
 20
-24.2958431426
 11
-61.1396102481
 21
-24.4178330917
  0
LINE
  5
4DF
100
AcDbEntity
  8
0
100
AcDbLine
 62
250
  6
CONTINUOUS
 10
-61.1390084196
 20
-24.2369056521
 11
-61.1393102999
 21
-24.2958431426
  0
LINE
  5
4E0
100
AcDbEntity
  8
0
100
AcDbLine
 62
250
  6
CONTINUOUS
 10
-61.1394447687
 20
24.4689913253
 11
-61.1395638273
 21
24.4472125651
  0
LWPOLYLINE
  5
4E1
100
AcDbEntity
  8
0
100
AcDbPolyline
 62
250
  6
CONTINUOUS
 90
6
 70
0
 10
-60.1297047746
 20
22.3349016357
 10
-60.1296428601
 20
22.3366175931
 10
-60.1297610318
 20
22.3417202443
 10
-60.1300572685
 20
22.3501223151
 10
-60.1305265035
 20
22.3616800996
 10
-60.1328780193
 20
22.4130622116
  0
LINE
  5
4E2
100
AcDbEntity
  8
0
100
AcDbLine
 62
250
  6
CONTINUOUS
 10
-49.6172329053
 20
15.985714221
 11
-49.8886201207
 21
15.714285779
  0
LWPOLYLINE
  5
4E3
100
AcDbEntity
  8
0
100
AcDbPolyline
 62
250
  6
CONTINUOUS
 90
36
 70
0
 10
-53.7130542783
 20
12.3579267794
 10
-53.6958325507
 20
12.3732516729
 10
-53.6781685641
 20
12.3880814617
 10
-53.6600797595
 20
12.4024205933
 10
-53.6415835779
 20
12.4162735154
 10
-53.6226974603
 20
12.4296446757
 10
-53.6034388478
 20
12.4425385219
 10
-53.5838251814
 20
12.4549595016
 10
-53.5638739022
 20
12.4669120625
 10
-53.5436024512
 20
12.4784006523
 10
-53.5230282694
 20
12.4894297187
 10
-53.5021687978
 20
12.5000037093
 10
-53.4810414776
 20
12.5101270718
 10
-53.4596637497
 20
12.5198042539
 10
-53.4380530551
 20
12.5290397032
 10
-53.4162268349
 20
12.5378378674
 10
-53.3942025302
 20
12.5462031942
 10
-53.3719975819
 20
12.5541401313
 10
-53.3496294311
 20
12.5616531262
 10
-53.3271155189
 20
12.5687466268
 10
-53.3044732862
 20
12.5754250807
 10
-53.2817201742
 20
12.5816929354
 10
-53.2588736238
 20
12.5875546388
 10
-53.235951076
 20
12.5930146385
 10
-53.212969972
 20
12.5980773821
 10
-53.1899477527
 20
12.6027473174
 10
-53.1669018591
 20
12.6070288919
 10
-53.1438497324
 20
12.6109265534
 10
-53.1208088136
 20
12.6144447496
 10
-53.0901186913
 20
12.6185537386
 10
-53.0594638569
 20
12.6220050351
 10
-53.0288286436
 20
12.6248079483
 10
-52.9981973849
 20
12.6269717872
 10
-52.967554414
 20
12.6285058608
 10
-52.9368840643
 20
12.6294194783
 10
-52.906170669
 20
12.6297219488
  0
LWPOLYLINE
  5
4E4
100
AcDbEntity
  8
0
100
AcDbPolyline
 62
250
  6
CONTINUOUS
 90
37
 70
0
 10
-53.9739716002
 20
12.7884285572
 10
-53.9980510581
 20
12.7673374324
 10
-54.021576149
 20
12.7455577044
 10
-54.0445338661
 20
12.7231124901
 10
-54.0669112026
 20
12.7000249068
 10
-54.0886951517
 20
12.6763180716
 10
-54.1098727067
 20
12.6520151016
 10
-54.1304308608
 20
12.627139114
 10
-54.1503566073
 20
12.6017132259
 10
-54.1696369392
 20
12.5757605544
 10
-54.18825885
 20
12.5493042167
 10
-54.2062093327
 20
12.52236733
 10
-54.2234753807
 20
12.4949730113
 10
-54.2400439871
 20
12.4671443779
 10
-54.2559021452
 20
12.4389045468
 10
-54.2710368481
 20
12.4102766352
 10
-54.2854350892
 20
12.3812837603
 10
-54.2990838616
 20
12.3519490391
 10
-54.3119701586
 20
12.3222955888
 10
-54.3240873483
 20
12.2923389622
 10
-54.3354377199
 20
12.2621059613
 10
-54.3460302949
 20
12.2316159603
 10
-54.3558740951
 20
12.2008883333
 10
-54.3649781422
 20
12.1699424542
 10
-54.3733514577
 20
12.1387976973
 10
-54.3810030634
 20
12.1074734365
 10
-54.387941981
 20
12.075989046
 10
-54.3941772322
 20
12.0443638998
 10
-54.3997178385
 20
12.0126173719
 10
-54.4045728218
 20
11.9807688366
 10
-54.4087512036
 20
11.9488376677
 10
-54.4122620056
 20
11.9168432395
 10
-54.4151142496
 20
11.884804926
 10
-54.4173169572
 20
11.8527421012
 10
-54.4188791501
 20
11.8206741393
 10
-54.4198098499
 20
11.7886204143
 10
-54.4201180784
 20
11.7566003002
  0
LWPOLYLINE
  5
4E5
100
AcDbEntity
  8
0
100
AcDbPolyline
 62
250
  6
CONTINUOUS
 90
17
 70
0
 10
-33.8377325918
 20
-11.452892
 10
-33.776054711
 20
-11.4468435097
 10
-33.7167261215
 20
-11.4289284239
 10
-33.6620066309
 20
-11.3998291227
 10
-33.6131953383
 20
-11.3598714569
 10
-33.5738587676
 20
-11.3119750371
 10
-33.544573069
 20
-11.2573491201
 10
-33.5264537254
 20
-11.19807439
 10
-33.5201889626
 20
-11.1353
 10
-33.5262365317
 20
-11.0736127239
 10
-33.5441488889
 20
-11.014275097
 10
-33.5732437582
 20
-10.9595472711
 10
-33.6131953383
 20
-10.9107285431
 10
-33.6610844632
 20
-10.8713859804
 10
-33.7157020604
 20
-10.8420958207
 10
-33.7749677626
 20
-10.8239737171
 10
-33.8377326196
 20
-10.817708
  0
LWPOLYLINE
  5
4E6
100
AcDbEntity
  8
0
100
AcDbPolyline
 62
250
  6
CONTINUOUS
 90
17
 70
0
 10
-33.8377325918
 20
-11.27581
 10
-33.8104448798
 20
-11.2731340089
 10
-33.7841965483
 20
-11.2652079632
 10
-33.759987388
 20
-11.2523337635
 10
-33.7383921503
 20
-11.2346555738
 10
-33.7209887474
 20
-11.2134650969
 10
-33.7080320812
 20
-11.1892973358
 10
-33.7000156672
 20
-11.1630728329
 10
-33.6972439922
 20
-11.1353
 10
-33.6999195757
 20
-11.1080081313
 10
-33.7078444142
 20
-11.0817558014
 10
-33.7207166531
 20
-11.0575429534
 10
-33.7383921503
 20
-11.0359444262
 10
-33.7595793998
 20
-11.0185383722
 10
-33.7837434801
 20
-11.0055797324
 10
-33.8099639889
 20
-10.9975620973
 10
-33.8377326041
 20
-10.99479
  0
LWPOLYLINE
  5
4E7
100
AcDbEntity
  8
0
100
AcDbPolyline
 62
250
  6
CONTINUOUS
 90
17
 70
0
 10
-33.8377325918
 20
-10.99479
 10
-33.8650203038
 20
-10.9974659911
 10
-33.8912686354
 20
-11.0053920368
 10
-33.9154777956
 20
-11.0182662365
 10
-33.9370730333
 20
-11.0359444262
 10
-33.9544764362
 20
-11.0571349031
 10
-33.9674331024
 20
-11.0813026642
 10
-33.9754495164
 20
-11.1075271671
 10
-33.9782211915
 20
-11.1353
 10
-33.9755456079
 20
-11.1625918687
 10
-33.9676207694
 20
-11.1888441986
 10
-33.9547485305
 20
-11.2130570466
 10
-33.9370730333
 20
-11.2346555738
 10
-33.9158857838
 20
-11.2520616278
 10
-33.8917217035
 20
-11.2650202676
 10
-33.8655011948
 20
-11.2730379027
 10
-33.8377325795
 20
-11.27581
  0
LWPOLYLINE
  5
4E8
100
AcDbEntity
  8
0
100
AcDbPolyline
 62
250
  6
CONTINUOUS
 90
17
 70
0
 10
-33.8377325918
 20
-10.817708
 10
-33.8994104726
 20
-10.8237564903
 10
-33.9587390621
 20
-10.8416715761
 10
-34.0134585527
 20
-10.8707708773
 10
-34.0622698453
 20
-10.9107285431
 10
-34.101606416
 20
-10.9586249629
 10
-34.1308921147
 20
-11.0132508799
 10
-34.1490114582
 20
-11.07252561
 10
-34.155276221
 20
-11.1353
 10
-34.1492286519
 20
-11.1969872761
 10
-34.1313162947
 20
-11.256324903
 10
-34.1022214254
 20
-11.3110527289
 10
-34.0622698453
 20
-11.3598714569
 10
-34.0143807205
 20
-11.3992140196
 10
-33.9597631233
 20
-11.4285041793
 10
-33.900497421
 20
-11.4466262829
 10
-33.8377325641
 20
-11.452892
  0
LWPOLYLINE
  5
4E9
100
AcDbEntity
  8
0
100
AcDbPolyline
 62
250
  6
CONTINUOUS
 90
17
 70
0
 10
-37.1827770477
 20
-10.902669
 10
-37.145376705
 20
-10.8990013057
 10
-37.1094009298
 20
-10.8881379242
 10
-37.076220028
 20
-10.8704926384
 10
-37.0466217499
 20
-10.8462630381
 10
-37.0227687704
 20
-10.8172195222
 10
-37.0050104565
 20
-10.7840953618
 10
-36.9940232169
 20
-10.7481522459
 10
-36.9902243789
 20
-10.710087
 10
-36.9938915146
 20
-10.6726809602
 10
-37.0047532415
 20
-10.6366997048
 10
-37.0223958399
 20
-10.6035137487
 10
-37.0466217499
 20
-10.5739109619
 10
-37.0756608423
 20
-10.5500543489
 10
-37.1087799577
 20
-10.53229333
 10
-37.1447175993
 20
-10.5213044166
 10
-37.1827770646
 20
-10.517505
  0
LWPOLYLINE
  5
4EA
100
AcDbEntity
  8
0
100
AcDbPolyline
 62
250
  6
CONTINUOUS
 90
17
 70
0
 10
-37.1827770477
 20
-10.517505
 10
-37.2201773904
 20
-10.5211726943
 10
-37.2561531657
 20
-10.5320360758
 10
-37.2893340674
 20
-10.5496813616
 10
-37.3189323456
 20
-10.5739109619
 10
-37.342785325
 20
-10.6029544778
 10
-37.3605436389
 20
-10.6360786382
 10
-37.3715308786
 20
-10.6720217541
 10
-37.3753297166
 20
-10.710087
 10
-37.3716625809
 20
-10.7474930398
 10
-37.360800854
 20
-10.7834742952
 10
-37.3431582556
 20
-10.8166602513
 10
-37.3189323456
 20
-10.8462630381
 10
-37.2898932532
 20
-10.8701196511
 10
-37.2567741377
 20
-10.88788067
 10
-37.2208364961
 20
-10.8988695834
 10
-37.1827770309
 20
-10.902669
  0
LINE
  5
4EB
100
AcDbEntity
  8
0
100
AcDbLine
 62
250
  6
CONTINUOUS
 10
-54.3556654007
 20
-13.171006
 11
-51.4564107436
 21
-13.171014
  0
LINE
  5
4EC
100
AcDbEntity
  8
0
100
AcDbLine
 62
250
  6
CONTINUOUS
 10
-37.0783159601
 20
-12.781784
 11
-37.4728738579
 21
-12.781784
  0
LINE
  5
4ED
100
AcDbEntity
  8
0
100
AcDbLine
 62
250
  6
CONTINUOUS
 10
-44.424373558
 20
-12.76459
 11
-43.6539649128
 21
-12.76459
  0
LINE
  5
4EE
100
AcDbEntity
  8
0
100
AcDbLine
 62
250
  6
CONTINUOUS
 10
-40.1211190643
 20
-12.76459
 11
-39.3507104192
 21
-12.76459
  0
LINE
  5
4EF
100
AcDbEntity
  8
0
100
AcDbLine
 62
250
  6
CONTINUOUS
 10
-33.5201889626
 20
-12.718117
 11
-33.7166070426
 21
-12.718117
  0
LINE
  5
4F0
100
AcDbEntity
  8
0
100
AcDbLine
 62
250
  6
CONTINUOUS
 10
-37.4728738579
 20
-12.68241
 11
-37.0783159601
 21
-12.68241
  0
LINE
  5
4F1
100
AcDbEntity
  8
0
100
AcDbLine
 62
250
  6
CONTINUOUS
 10
-33.7166070426
 20
-12.600497
 11
-33.5201889626
 21
-12.600497
  0
LINE
  5
4F2
100
AcDbEntity
  8
0
100
AcDbLine
 62
250
  6
CONTINUOUS
 10
-51.4564177415
 20
-12.590992
 11
-54.3556654007
 21
-12.590985
  0
LINE
  5
4F3
100
AcDbEntity
  8
0
100
AcDbLine
 62
250
  6
CONTINUOUS
 10
-36.0350488789
 20
-12.21193
 11
-36.2506520365
 21
-12.21193
  0
LINE
  5
4F4
100
AcDbEntity
  8
0
100
AcDbLine
 62
250
  6
CONTINUOUS
 10
-37.3483728229
 20
-12.156927
 11
-37.5658336975
 21
-12.156927
  0
LINE
  5
4F5
100
AcDbEntity
  8
0
100
AcDbLine
 62
250
  6
CONTINUOUS
 10
-54.3556654007
 20
-12.010985
 11
-51.4564177415
 21
-12.010985
  0
LINE
  5
4F6
100
AcDbEntity
  8
0
100
AcDbLine
 62
250
  6
CONTINUOUS
 10
-37.5652757825
 20
-11.583924
 11
-37.3478149078
 21
-11.583924
  0
LINE
  5
4F7
100
AcDbEntity
  8
0
100
AcDbLine
 62
250
  6
CONTINUOUS
 10
-51.4564177415
 20
-11.430963
 11
-53.3682772375
 21
-11.430963
  0
LINE
  5
4F8
100
AcDbEntity
  8
0
100
AcDbLine
 62
250
  6
CONTINUOUS
 10
-36.2506520365
 20
-11.38859
 11
-36.0350488789
 21
-11.38859
  0
LINE
  5
4F9
100
AcDbEntity
  8
0
100
AcDbLine
 62
250
  6
CONTINUOUS
 10
-54.3556654007
 20
-10.051012
 11
-52.4675716638
 21
-10.59258
  0
LINE
  5
4FA
100
AcDbEntity
  8
0
100
AcDbLine
 62
250
  6
CONTINUOUS
 10
-60.1328780193
 20
22.4130622116
 11
-60.1390084196
 21
22.5346275426
  0
LINE
  5
4FB
100
AcDbEntity
  8
0
100
AcDbLine
 62
250
  6
CONTINUOUS
 10
-58.1357978595
 20
24.4885897127
 11
-58.1357040147
 21
24.4818895243
  0
LINE
  5
4FC
100
AcDbEntity
  8
0
100
AcDbLine
 62
250
  6
CONTINUOUS
 10
-58.1357040147
 20
24.4818895243
 11
-58.1355948971
 21
24.467851711
  0
LINE
  5
4FD
100
AcDbEntity
  8
0
100
AcDbLine
 62
250
  6
CONTINUOUS
 10
-58.1360995539
 20
-24.2456323968
 11
-58.1355116657
 21
-24.4001850429
  0
LINE
  5
4FE
100
AcDbEntity
  8
0
100
AcDbLine
 62
250
  6
CONTINUOUS
 10
-58.1355948971
 20
24.467851711
 11
-58.1354977309
 21
24.4265791771
  0
LINE
  5
4FF
100
AcDbEntity
  8
0
100
AcDbLine
 62
7
  6
CONTINUOUS
 10
-58.8875539867
 20
-18.5
 11
-58.8875539867
 21
-24.5
  0
LINE
  5
500
100
AcDbEntity
  8
0
100
AcDbLine
 62
7
  6
CONTINUOUS
 10
-58.8875539867
 20
24.5
 11
-58.8875539867
 21
18.5
  0
LINE
  5
501
100
AcDbEntity
  8
0
100
AcDbLine
 62
250
  6
CONTINUOUS
 10
-58.1360995539
 20
24.2456323968
 11
-58.1360995539
 21
23.8443375673
  0
LINE
  5
502
100
AcDbEntity
  8
0
100
AcDbLine
 62
250
  6
CONTINUOUS
 10
-58.1360995539
 20
-23.8443375673
 11
-58.1360995539
 21
-24.2456323968
  0
LINE
  5
503
100
AcDbEntity
  8
0
100
AcDbLine
 62
7
  6
CONTINUOUS
 10
-57.8875539867
 20
24.2456323968
 11
-57.8875539867
 21
23.8443375673
  0
LINE
  5
504
100
AcDbEntity
  8
0
100
AcDbLine
 62
7
  6
CONTINUOUS
 10
-57.8875539867
 20
-18.5082905244
 11
-57.8875539867
 21
-22.3941821702
  0
LINE
  5
505
100
AcDbEntity
  8
0
100
AcDbLine
 62
7
  6
CONTINUOUS
 10
-57.8875539867
 20
-23.8443375673
 11
-57.8875539867
 21
-24.2456323968
  0
LINE
  5
506
100
AcDbEntity
  8
0
100
AcDbLine
 62
7
  6
CONTINUOUS
 10
-57.8875539867
 20
18.5082905244
 11
-57.8875539867
 21
22.3941821702
  0
LINE
  5
507
100
AcDbEntity
  8
0
100
AcDbLine
 62
250
  6
CONTINUOUS
 10
-58.1355116657
 20
-24.4001850429
 11
-58.1355442053
 21
-24.4559575601
  0
LINE
  5
508
100
AcDbEntity
  8
0
100
AcDbLine
 62
250
  6
CONTINUOUS
 10
-58.1354977309
 20
24.4265791771
 11
-58.1357976378
 21
24.3045780153
  0
LINE
  5
509
100
AcDbEntity
  8
0
100
AcDbLine
 62
250
  6
CONTINUOUS
 10
-58.1357976378
 20
24.3045780153
 11
-58.1360995539
 21
24.2456323968
  0
LINE
  5
50A
100
AcDbEntity
  8
0
100
AcDbLine
 62
250
  6
CONTINUOUS
 10
-58.1355442053
 20
-24.4559575601
 11
-58.1356633321
 21
-24.4777326699
  0
LWPOLYLINE
  5
50B
100
AcDbEntity
  8
0
100
AcDbPolyline
 62
250
  6
CONTINUOUS
 90
8
 70
0
 10
-58.1356633321
 20
-24.4777326699
 10
-58.1357488886
 20
-24.4855111341
 10
-58.1357978595
 20
-24.4885897127
 10
-58.1358508101
 20
-24.4911177026
 10
-58.1359075954
 20
-24.4930886486
 10
-58.1359680727
 20
-24.4944986445
 10
-58.1360321087
 20
-24.4953455463
 10
-58.1360995539
 20
-24.495628166
  0
LINE
  5
50C
100
AcDbEntity
  8
0
100
AcDbLine
 62
250
  6
CONTINUOUS
 10
-60.130057279
 20
-22.3501225942
 11
-60.1311607358
 21
-22.3761964702
  0
LINE
  5
50D
100
AcDbEntity
  8
0
100
AcDbLine
 62
250
  6
CONTINUOUS
 10
-60.1311607358
 20
-22.3761964702
 11
-60.1350922349
 21
-22.4582103666
  0
LINE
  5
50E
100
AcDbEntity
  8
0
100
AcDbLine
 62
250
  6
CONTINUOUS
 10
-60.1350922349
 20
-22.4582103666
 11
-60.1390084196
 21
-22.5346275426
  0
LWPOLYLINE
  5
50F
100
AcDbEntity
  8
0
100
AcDbPolyline
 62
7
  6
CONTINUOUS
 90
3
 70
0
 43
0.3500000087
 10
-44.5875520691
 20
43.7464681366
 10
-44.6589837555
 20
43.532181604
 10
-44.8018386017
 20
43.2464676483
  0
LINE
  5
510
100
AcDbEntity
  8
0
100
AcDbLine
 62
250
  6
CONTINUOUS
 10
-49.0744584746
 20
15.035714221
 11
-48.8030712026
 21
15.307142663
  0
LINE
  5
511
100
AcDbEntity
  8
0
100
AcDbLine
 62
250
  6
CONTINUOUS
 10
-49.6172329053
 20
14.492857337
 11
-49.8886201207
 21
14.221428442
  0
LINE
  5
512
100
AcDbEntity
  8
0
100
AcDbLine
 62
250
  6
CONTINUOUS
 10
-48.8030712026
 20
13.0
 11
-49.0744584746
 21
12.7285713315
  0
LWPOLYLINE
  5
513
100
AcDbEntity
  8
0
100
AcDbPolyline
 62
250
  6
CONTINUOUS
 90
36
 70
0
 10
-52.0993024009
 20
11.1551101322
 10
-52.1165244911
 20
11.1397861619
 10
-52.1341887316
 20
11.1249571787
 10
-52.1522776873
 20
11.1106187398
 10
-52.1707739229
 20
11.0967664027
 10
-52.1896600032
 20
11.0833957247
 10
-52.208918493
 20
11.070502263
 10
-52.2285319572
 20
11.058081575
 10
-52.2484829605
 20
11.046129218
 10
-52.2687540676
 20
11.0346407494
 10
-52.2893278435
 20
11.0236117264
 10
-52.3101868529
 20
11.0130377065
 10
-52.3313136606
 20
11.0029142468
 10
-52.3526908313
 20
10.9932369049
 10
-52.37430093
 20
10.9840012379
 10
-52.3961265213
 20
10.9752028032
 10
-52.4181501701
 20
10.9668371581
 10
-52.4403544412
 20
10.95889986
 10
-52.4627218993
 20
10.9513864661
 10
-52.4852351093
 20
10.9442925339
 10
-52.507876636
 20
10.9376136206
 10
-52.5306290441
 20
10.9313452835
 10
-52.5534748985
 20
10.9254830801
 10
-52.5763967639
 20
10.9200225675
 10
-52.5993772051
 20
10.9149593032
 10
-52.622398787
 20
10.9102888444
 10
-52.6454440743
 20
10.9060067485
 10
-52.6684956319
 20
10.9021085728
 10
-52.6915360244
 20
10.8985898747
 10
-52.7222255207
 20
10.8944802443
 10
-52.752879799
 20
10.8910283553
 10
-52.7835145093
 20
10.8882249166
 10
-52.8141453015
 20
10.8860606375
 10
-52.8447878255
 20
10.8845262268
 10
-52.8754577314
 20
10.8836123938
 10
-52.906170669
 20
10.8833098474
  0
LWPOLYLINE
  5
514
100
AcDbEntity
  8
0
100
AcDbPolyline
 62
250
  6
CONTINUOUS
 90
37
 70
0
 10
-51.8389373607
 20
10.7246185849
 10
-51.8148557754
 20
10.745712995
 10
-51.7913290022
 20
10.7674963375
 10
-51.7683700111
 20
10.7899454649
 10
-51.7459917724
 20
10.8130372299
 10
-51.7242072563
 20
10.8367484849
 10
-51.7030294328
 20
10.8610560827
 10
-51.6824712722
 20
10.8859368758
 10
-51.6625457446
 20
10.9113677168
 10
-51.6432658202
 20
10.9373254582
 10
-51.6246444691
 20
10.9637869527
 10
-51.6066946616
 20
10.9907290529
 10
-51.5894293677
 20
11.0181286112
 10
-51.5728615577
 20
11.0459624805
 10
-51.5570042018
 20
11.0742075131
 10
-51.54187027
 20
11.1028405617
 10
-51.5274727326
 20
11.1318384789
 10
-51.5138245597
 20
11.1611781172
 10
-51.5009387215
 20
11.1908363293
 10
-51.4888218281
 20
11.2207975258
 10
-51.4774715921
 20
11.2510349259
 10
-51.4668790093
 20
11.2815291709
 10
-51.4570350755
 20
11.312260902
 10
-51.4479307863
 20
11.3432107605
 10
-51.4395571377
 20
11.3743593877
 10
-51.4319051253
 20
11.4056874249
 10
-51.4249657449
 20
11.4371755134
 10
-51.4187299922
 20
11.4688042945
 10
-51.4131888631
 20
11.5005544093
 10
-51.4083333533
 20
11.5324064993
 10
-51.4041544585
 20
11.5643412057
 10
-51.4006431746
 20
11.5963391698
 10
-51.3977904972
 20
11.6283810328
 10
-51.3955874222
 20
11.6604474361
 10
-51.3940249453
 20
11.6925190209
 10
-51.3930940622
 20
11.7245764285
 10
-51.3927857688
 20
11.7566003002
  0
LINE
  5
515
100
AcDbEntity
  8
0
100
AcDbLine
 62
250
  6
CONTINUOUS
 10
-49.6172329053
 20
12.9547618508
 11
-49.8886201207
 21
12.7285713315
  0
LINE
  5
516
100
AcDbEntity
  8
0
100
AcDbLine
 62
250
  6
CONTINUOUS
 10
-53.162678879
 20
9.10422
 11
-51.4570545474
 21
10.357884
  0
LINE
  5
517
100
AcDbEntity
  8
0
100
AcDbLine
 62
250
  6
CONTINUOUS
 10
-51.4570545474
 20
9.706581
 11
-52.8066723469
 21
8.741819
  0
LINE
  5
518
100
AcDbEntity
  8
0
100
AcDbLine
 62
250
  6
CONTINUOUS
 10
-49.6172329053
 20
11.5071428895
 11
-49.3458456899
 21
11.6428571105
  0
LINE
  5
519
100
AcDbEntity
  8
0
100
AcDbLine
 62
250
  6
CONTINUOUS
 10
-48.2602967435
 20
10.8285714447
 11
-48.5316839872
 21
10.6928571105
  0
LINE
  5
51A
100
AcDbEntity
  8
0
100
AcDbLine
 62
250
  6
CONTINUOUS
 10
-66.8061123016
 20
-9.4905
 11
-67.2954358077
 21
-9.4999503581
  0
LINE
  5
51B
100
AcDbEntity
  8
0
100
AcDbLine
 62
250
  6
CONTINUOUS
 10
-36.3430539611
 20
-10.932113
 11
-36.715461233
 21
-10.932113
  0
LINE
  5
51C
100
AcDbEntity
  8
0
100
AcDbLine
 62
250
  6
CONTINUOUS
 10
-36.715461233
 20
-10.582053
 11
-36.3430539611
 21
-10.582053
  0
LINE
  5
51D
100
AcDbEntity
  8
0
100
AcDbLine
 62
250
  6
CONTINUOUS
 10
-31.9064107863
 20
-9.907638
 11
-30.8875539867
 21
-9.907638
  0
LINE
  5
51E
100
AcDbEntity
  8
0
100
AcDbLine
 62
250
  6
CONTINUOUS
 10
-53.3682772375
 20
-9.754205
 11
-51.4564177415
 21
-9.754197
  0
LINE
  5
51F
100
AcDbEntity
  8
0
100
AcDbLine
 62
250
  6
CONTINUOUS
 10
-51.4564177415
 20
-9.174176
 11
-54.3556654007
 21
-9.174176
  0
LINE
  5
520
100
AcDbEntity
  8
0
100
AcDbLine
 62
250
  6
CONTINUOUS
 10
-42.269983732
 20
-8.93959
 11
-41.5051002452
 21
-8.93959
  0
LINE
  5
521
100
AcDbEntity
  8
0
100
AcDbLine
 62
250
  6
CONTINUOUS
 10
-34.1546843112
 20
-11.119407
 11
-37.0507681564
 21
-10.850161
  0
LINE
  5
522
100
AcDbEntity
  8
0
100
AcDbLine
 62
250
  6
CONTINUOUS
 10
-51.456425739
 20
-10.30258
 11
-53.3682772375
 21
-9.754205
  0
LINE
  5
523
100
AcDbEntity
  8
0
100
AcDbLine
 62
250
  6
CONTINUOUS
 10
-51.4564177415
 20
-8.787497
 11
-54.3556723986
 21
-7.856372
  0
LINE
  5
524
100
AcDbEntity
  8
0
100
AcDbLine
 62
7
  6
CONTINUOUS
 10
-56.8875539867
 20
20.85
 11
-56.8875539867
 21
-20.85
  0
LINE
  5
525
100
AcDbEntity
  8
0
100
AcDbLine
 62
250
  6
CONTINUOUS
 10
-49.8886201207
 20
11.235714221
 11
-49.6172329053
 21
11.5071428895
  0
LINE
  5
526
100
AcDbEntity
  8
0
100
AcDbLine
 62
250
  6
CONTINUOUS
 10
-49.6172329053
 20
10.15
 11
-49.8886201207
 21
9.8785714447
  0
LINE
  5
527
100
AcDbEntity
  8
0
100
AcDbLine
 62
250
  6
CONTINUOUS
 10
-47.9889094999
 20
11.1
 11
-48.2602967435
 21
10.8285714447
  0
LINE
  5
528
100
AcDbEntity
  8
0
100
AcDbLine
 62
250
  6
CONTINUOUS
 10
-67.2968306823
 20
-9.4999840063
 11
-67.2972958386
 21
-9.5
  0
LINE
  5
529
100
AcDbEntity
  8
0
100
AcDbLine
 62
250
  6
CONTINUOUS
 10
-44.424373558
 20
-8.42959
 11
-43.6539649128
 21
-8.42959
  0
LINE
  5
52A
100
AcDbEntity
  8
0
100
AcDbLine
 62
250
  6
CONTINUOUS
 10
-40.1211190643
 20
-8.42959
 11
-39.3507104192
 21
-8.42959
  0
LINE
  5
52B
100
AcDbEntity
  8
0
100
AcDbLine
 62
250
  6
CONTINUOUS
 10
-52.0265800248
 20
-8.024362
 11
-51.456425739
 21
-8.207475
  0
LINE
  5
52C
100
AcDbEntity
  8
0
100
AcDbLine
 62
250
  6
CONTINUOUS
 10
-53.4527065136
 20
-7.56635
 11
-52.577434191
 21
-7.84744
  0
LWPOLYLINE
  5
52D
100
AcDbEntity
  8
0
100
AcDbPolyline
 62
250
  6
CONTINUOUS
 90
37
 70
0
 10
-54.4201180784
 20
11.7566003002
 10
-54.419809856
 20
11.7245763675
 10
-54.4188791772
 20
11.6925188843
 10
-54.4173170242
 20
11.6604472097
 10
-54.4151143793
 20
11.6283807028
 10
-54.4122622248
 20
11.5963387227
 10
-54.4087515429
 20
11.5643406285
 10
-54.4045733159
 20
11.5324057793
 10
-54.3997185262
 20
11.5005535341
 10
-54.394178156
 20
11.4688032522
 10
-54.3879431876
 20
11.4371742926
 10
-54.3810046033
 20
11.4056860143
 10
-54.3733533854
 20
11.3743577766
 10
-54.3649805161
 20
11.3432089384
 10
-54.3558769778
 20
11.3122588589
 10
-54.3460337526
 20
11.2815268972
 10
-54.335441823
 20
11.2510324123
 10
-54.3240921712
 20
11.2207947634
 10
-54.3119757795
 20
11.1908333096
 10
-54.299090353
 20
11.1611748416
 10
-54.2854424981
 20
11.1318349483
 10
-54.2710451866
 20
11.1028367862
 10
-54.2559113903
 20
11.0742035119
 10
-54.2400540812
 20
11.045958282
 10
-54.2234862312
 20
11.0181242531
 10
-54.206220812
 20
10.9907245819
 10
-54.1882707957
 20
10.9637824248
 10
-54.169649154
 20
10.9373209385
 10
-54.1503688589
 20
10.9113632796
 10
-54.1304428823
 20
10.8859326047
 10
-54.109884196
 20
10.8610520703
 10
-54.0887057719
 20
10.8367448331
 10
-54.0669205819
 20
10.8130340496
 10
-54.0445415978
 20
10.7899428764
 10
-54.0215817916
 20
10.7674944702
 10
-53.9980541351
 20
10.7457119875
 10
-53.9739716002
 20
10.7246185849
  0
LINE
  5
52E
100
AcDbEntity
  8
0
100
AcDbLine
 62
250
  6
CONTINUOUS
 10
-54.3556723986
 20
-7.856372
 11
-54.3556723986
 21
-7.276321
  0
LINE
  5
52F
100
AcDbEntity
  8
0
100
AcDbLine
 62
250
  6
CONTINUOUS
 10
-54.3556723986
 20
-5.958503
 11
-54.3556723986
 21
-4.600288
  0
LINE
  5
530
100
AcDbEntity
  8
0
100
AcDbLine
 62
250
  6
CONTINUOUS
 10
-54.3556654007
 20
-9.174176
 11
-54.3556654007
 21
-10.051012
  0
LINE
  5
531
100
AcDbEntity
  8
0
100
AcDbLine
 62
250
  6
CONTINUOUS
 10
-54.3556654007
 20
-11.134148
 11
-54.3556654007
 21
-12.010985
  0
LINE
  5
532
100
AcDbEntity
  8
0
100
AcDbLine
 62
250
  6
CONTINUOUS
 10
-54.3556654007
 20
-12.590985
 11
-54.3556654007
 21
-13.171006
  0
LINE
  5
533
100
AcDbEntity
  8
0
100
AcDbLine
 62
250
  6
CONTINUOUS
 10
-54.3556654007
 20
-13.557685
 11
-54.3556654007
 21
-14.137714
  0
LINE
  5
534
100
AcDbEntity
  8
0
100
AcDbLine
 62
250
  6
CONTINUOUS
 10
-54.3556654007
 20
-15.419971
 11
-54.3556654007
 21
-16.0
  0
LINE
  5
535
100
AcDbEntity
  8
0
100
AcDbLine
 62
250
  6
CONTINUOUS
 10
-54.3552655226
 20
4.037094
 11
-54.3552655226
 21
6.086013
  0
LINE
  5
536
100
AcDbEntity
  8
0
100
AcDbLine
 62
250
  6
CONTINUOUS
 10
-54.3552655226
 20
6.720338
 11
-54.3552655226
 21
7.238107
  0
LINE
  5
537
100
AcDbEntity
  8
0
100
AcDbLine
 62
250
  6
CONTINUOUS
 10
-54.3552655226
 20
7.853838
 11
-54.3552655226
 21
8.371585
  0
LINE
  5
538
100
AcDbEntity
  8
0
100
AcDbLine
 62
250
  6
CONTINUOUS
 10
-54.3552655226
 20
9.656836
 11
-54.3552655226
 21
10.35105
  0
LINE
  5
539
100
AcDbEntity
  8
0
100
AcDbLine
 62
250
  6
CONTINUOUS
 10
-54.3552655226
 20
13.66021
 11
-54.3552655226
 21
14.166101
  0
LINE
  5
53A
100
AcDbEntity
  8
0
100
AcDbLine
 62
250
  6
CONTINUOUS
 10
-54.3552655226
 20
15.503009
 11
-54.3552655226
 21
16.001437
  0
LINE
  5
53B
100
AcDbEntity
  8
0
100
AcDbLine
 62
250
  6
CONTINUOUS
 10
-53.8952856689
 20
6.086013
 11
-53.8952916671
 21
4.554832
  0
LINE
  5
53C
100
AcDbEntity
  8
0
100
AcDbLine
 62
250
  6
CONTINUOUS
 10
-53.819313816
 20
-4.680792
 11
-53.819313816
 21
-5.386478
  0
LINE
  5
53D
100
AcDbEntity
  8
0
100
AcDbLine
 62
250
  6
CONTINUOUS
 10
-53.1746412344
 20
4.554832
 11
-53.1746312374
 21
5.982127
  0
LINE
  5
53E
100
AcDbEntity
  8
0
100
AcDbLine
 62
250
  6
CONTINUOUS
 10
-53.1137997715
 20
-5.386471
 11
-53.1137997715
 21
-4.680792
  0
LWPOLYLINE
  5
53F
100
AcDbEntity
  8
0
100
AcDbPolyline
 62
250
  6
CONTINUOUS
 90
38
 70
0
 10
-53.960711725
 20
11.7579507336
 10
-53.9605188763
 20
11.7755378115
 10
-53.9599416573
 20
11.7932039636
 10
-53.9589820589
 20
11.8109358809
 10
-53.9576420718
 20
11.8287202548
 10
-53.9559236869
 20
11.8465437764
 10
-53.953828895
 20
11.8643931371
 10
-53.9513596868
 20
11.8822550279
 10
-53.9485180533
 20
11.9001161401
 10
-53.945305985
 20
11.9179631651
 10
-53.941725473
 20
11.9357827939
 10
-53.937778508
 20
11.9535617178
 10
-53.9334670807
 20
11.971286628
 10
-53.928793182
 20
11.9889442159
 10
-53.9237588027
 20
12.0065211725
 10
-53.9183659336
 20
12.0240041891
 10
-53.9126165655
 20
12.0413799569
 10
-53.9065126892
 20
12.0586351673
 10
-53.9000562956
 20
12.0757565113
 10
-53.8932493753
 20
12.0927306802
 10
-53.8860939192
 20
12.1095443653
 10
-53.8785919181
 20
12.1261842578
 10
-53.8707453629
 20
12.1426370488
 10
-53.8625562443
 20
12.1588894297
 10
-53.8540265531
 20
12.1749280916
 10
-53.8451582801
 20
12.1907397258
 10
-53.8359534161
 20
12.2063110234
 10
-53.826413952
 20
12.2216286758
 10
-53.8165418785
 20
12.2366793742
 10
-53.8063391865
 20
12.2514498097
 10
-53.7958078667
 20
12.2659266737
 10
-53.7849499099
 20
12.2800966572
 10
-53.773767307
 20
12.2939464516
 10
-53.7622620488
 20
12.3074627481
 10
-53.750436126
 20
12.3206322379
 10
-53.7382915294
 20
12.3334416122
 10
-53.7258302499
 20
12.3458775623
 10
-53.7130542783
 20
12.3579267794
  0
LINE
  5
540
100
AcDbEntity
  8
0
100
AcDbLine
 62
250
  6
CONTINUOUS
 10
-51.456425739
 20
-5.958503
 11
-54.3556723986
 21
-5.958503
  0
LINE
  5
541
100
AcDbEntity
  8
0
100
AcDbLine
 62
250
  6
CONTINUOUS
 10
-53.819313816
 20
-5.386478
 11
-53.1137997715
 21
-5.386471
  0
LINE
  5
542
100
AcDbEntity
  8
0
100
AcDbLine
 62
250
  6
CONTINUOUS
 10
-52.5774411888
 20
-5.378409
 11
-51.456425739
 21
-5.378474
  0
LINE
  5
543
100
AcDbEntity
  8
0
100
AcDbLine
 62
7
  6
CONTINUOUS
 10
-25.2701015803
 20
-5.1946658545
 11
-44.8220337452
 21
-5.1154879757
  0
LINE
  5
544
100
AcDbEntity
  8
0
100
AcDbLine
 62
7
  6
CONTINUOUS
 10
-28.2403914544
 20
-4.8277217249
 11
-44.8185981971
 21
-4.7218131513
  0
LINE
  5
545
100
AcDbEntity
  8
0
100
AcDbLine
 62
7
  6
CONTINUOUS
 10
-24.2875539867
 20
-4.8622176149
 11
-28.2403914544
 21
-4.8277217249
  0
LWPOLYLINE
  5
546
100
AcDbEntity
  8
0
100
AcDbPolyline
 62
250
  6
CONTINUOUS
 90
73
 70
0
 10
-52.6471669448
 20
-4.255024
 10
-52.660859436
 20
-4.2241841821
 10
-52.6757470689
 20
-4.1938422761
 10
-52.6917997495
 20
-4.1640480313
 10
-52.708987384
 20
-4.1348511972
 10
-52.7272798784
 20
-4.1063015231
 10
-52.7466471388
 20
-4.0784487582
 10
-52.7670590714
 20
-4.051342652
 10
-52.7884855823
 20
-4.0250329538
 10
-52.8108965775
 20
-3.9995694128
 10
-52.8342606169
 20
-3.9749981577
 10
-52.8585408756
 20
-3.9513508336
 10
-52.8836991822
 20
-3.9286554648
 10
-52.9096973656
 20
-3.9069400756
 10
-52.9364972546
 20
-3.8862326905
 10
-52.9640606779
 20
-3.8665613336
 10
-52.9923494642
 20
-3.8479540295
 10
-53.0213254425
 20
-3.8304388024
 10
-53.0509504413
 20
-3.8140436766
 10
-53.0811847822
 20
-3.7987946565
 10
-53.1119827571
 20
-3.7847096666
 10
-53.1432971504
 20
-3.7718046114
 10
-53.1750807467
 20
-3.7600953953
 10
-53.2072863306
 20
-3.7495979229
 10
-53.2398666865
 20
-3.7403280986
 10
-53.2727745991
 20
-3.7323018269
 10
-53.3059628528
 20
-3.7255350123
 10
-53.3393842322
 20
-3.7200435593
 10
-53.3729911721
 20
-3.715840458
 10
-53.4067347085
 20
-3.7129270416
 10
-53.4405655276
 20
-3.7113017286
 10
-53.4744343159
 20
-3.7109629379
 10
-53.5082917594
 20
-3.711909088
 10
-53.5420885446
 20
-3.7141385976
 10
-53.5757753576
 20
-3.7176498856
 10
-53.6093028848
 20
-3.7224413705
 10
-53.6426218124
 20
-3.7285114712
 10
-53.6756833691
 20
-3.735855921
 10
-53.7084409526
 20
-3.7444597129
 10
-53.7408485031
 20
-3.7543051544
 10
-53.7728599606
 20
-3.7653745533
 10
-53.8044292653
 20
-3.7776502172
 10
-53.8355103573
 20
-3.7911144537
 10
-53.8660571766
 20
-3.8057495705
 10
-53.8960236634
 20
-3.8215378752
 10
-53.9253637578
 20
-3.8384616756
 10
-53.9540328533
 20
-3.8565007292
 10
-53.9819921562
 20
-3.8756245941
 10
-54.0092043264
 20
-3.8958002783
 10
-54.0356320238
 20
-3.9169947897
 10
-54.061237908
 20
-3.9391751365
 10
-54.0859846389
 20
-3.9623083266
 10
-54.1098348763
 20
-3.986361368
 10
-54.13275128
 20
-4.0113012687
 10
-54.1546965098
 20
-4.0370950369
 10
-54.1756353985
 20
-4.0637084042
 10
-54.1955414713
 20
-4.0911019976
 10
-54.2143904266
 20
-4.119235168
 10
-54.2321579626
 20
-4.1480672661
 10
-54.2488197775
 20
-4.1775576426
 10
-54.2643515697
 20
-4.2076656483
 10
-54.2787290374
 20
-4.238350634
 10
-54.2919278788
 20
-4.2695719505
 10
-54.3039237923
 20
-4.3012889485
 10
-54.3146951219
 20
-4.3334581646
 10
-54.3242307952
 20
-4.3660248793
 10
-54.3325223853
 20
-4.3989315587
 10
-54.3395614656
 20
-4.4321206689
 10
-54.3453396094
 20
-4.4655346762
 10
-54.34984839
 20
-4.4991160468
 10
-54.3530793806
 20
-4.5328072468
 10
-54.3550241545
 20
-4.5665507425
 10
-54.3556742851
 20
-4.600289
  0
LWPOLYLINE
  5
547
100
AcDbEntity
  8
0
100
AcDbPolyline
 62
250
  6
CONTINUOUS
 90
37
 70
0
 10
-51.3927857688
 20
11.7566003002
 10
-51.3930939987
 20
11.7886204992
 10
-51.3940247025
 20
11.8206742978
 10
-51.3955869013
 20
11.8527423242
 10
-51.3977896165
 20
11.8848052067
 10
-51.4006418691
 20
11.9168435735
 10
-51.4041526805
 20
11.9488380527
 10
-51.4083310718
 20
11.9807692728
 10
-51.4131860642
 20
12.0126178618
 10
-51.418726679
 20
12.0443644481
 10
-51.4249619373
 20
12.0759896599
 10
-51.4319008604
 20
12.1074741253
 10
-51.4395524695
 20
12.1387984727
 10
-51.4479257857
 20
12.1699433303
 10
-51.4570298304
 20
12.2008893263
 10
-51.4668736246
 20
12.231617089
 10
-51.4774661897
 20
12.2621072466
 10
-51.4888165467
 20
12.2923404272
 10
-51.500933717
 20
12.3222972593
 10
-51.51381999
 20
12.35195094
 10
-51.5274687395
 20
12.3812859092
 10
-51.5418669653
 20
12.4102790392
 10
-51.5570016672
 20
12.4389072024
 10
-51.5728598449
 20
12.4671472715
 10
-51.5894284984
 20
12.4949761187
 10
-51.6066946272
 20
12.5223706165
 10
-51.6246452313
 20
12.5493076375
 10
-51.6432673103
 20
12.5757640541
 10
-51.6625478642
 20
12.6017167386
 10
-51.6824738926
 20
12.6271425636
 10
-51.7030323953
 20
12.6520184015
 10
-51.7242103722
 20
12.6763211247
 10
-51.7459948229
 20
12.7000276058
 10
-51.7683727474
 20
12.7231147171
 10
-51.7913311453
 20
12.7455593311
 10
-51.8148570165
 20
12.7673383204
 10
-51.8389373607
 20
12.7884285572
  0
LINE
  5
548
100
AcDbEntity
  8
0
100
AcDbLine
 62
250
  6
CONTINUOUS
 10
-52.7146413868
 20
5.982127
 11
-52.7146313898
 21
4.554832
  0
LINE
  5
549
100
AcDbEntity
  8
0
100
AcDbLine
 62
250
  6
CONTINUOUS
 10
-52.577434191
 20
-7.84744
 11
-52.577434191
 21
-7.285246
  0
LINE
  5
54A
100
AcDbEntity
  8
0
100
AcDbLine
 62
250
  6
CONTINUOUS
 10
-52.577434191
 20
-4.872178
 11
-52.5774411888
 21
-5.378409
  0
LINE
  5
54B
100
AcDbEntity
  8
0
100
AcDbLine
 62
250
  6
CONTINUOUS
 10
-52.0265800248
 20
-7.108317
 11
-52.0265800248
 21
-8.024362
  0
LINE
  5
54C
100
AcDbEntity
  8
0
100
AcDbLine
 62
250
  6
CONTINUOUS
 10
-51.917018406
 20
4.554832
 11
-51.9170344011
 21
6.097666
  0
LINE
  5
54D
100
AcDbEntity
  8
0
100
AcDbLine
 62
250
  6
CONTINUOUS
 10
-51.4570545474
 20
16.001437
 11
-51.4570545474
 21
15.484078
  0
LINE
  5
54E
100
AcDbEntity
  8
0
100
AcDbLine
 62
250
  6
CONTINUOUS
 10
-51.4570545474
 20
14.158632
 11
-51.4570545474
 21
13.66021
  0
LINE
  5
54F
100
AcDbEntity
  8
0
100
AcDbLine
 62
250
  6
CONTINUOUS
 10
-51.4570545474
 20
10.357884
 11
-51.4570545474
 21
9.706581
  0
LINE
  5
550
100
AcDbEntity
  8
0
100
AcDbLine
 62
250
  6
CONTINUOUS
 10
-51.4570545474
 20
8.371585
 11
-51.4570545474
 21
7.853838
  0
LINE
  5
551
100
AcDbEntity
  8
0
100
AcDbLine
 62
250
  6
CONTINUOUS
 10
-51.4570545474
 20
7.238107
 11
-51.4570545474
 21
6.720338
  0
LINE
  5
552
100
AcDbEntity
  8
0
100
AcDbLine
 62
250
  6
CONTINUOUS
 10
-51.4570545474
 20
6.097666
 11
-51.4570545474
 21
4.037094
  0
LINE
  5
553
100
AcDbEntity
  8
0
100
AcDbLine
 62
250
  6
CONTINUOUS
 10
-51.4564107436
 20
-15.068868
 11
-51.4564177415
 21
-14.488824
  0
LINE
  5
554
100
AcDbEntity
  8
0
100
AcDbLine
 62
250
  6
CONTINUOUS
 10
-51.4564107436
 20
-13.171014
 11
-51.4564177415
 21
-12.590992
  0
LINE
  5
555
100
AcDbEntity
  8
0
100
AcDbLine
 62
250
  6
CONTINUOUS
 10
-51.4564177415
 20
-10.882587
 11
-51.456425739
 21
-10.30258
  0
LINE
  5
556
100
AcDbEntity
  8
0
100
AcDbLine
 62
250
  6
CONTINUOUS
 10
-51.456425739
 20
-8.207475
 11
-51.4564177415
 21
-8.787497
  0
LINE
  5
557
100
AcDbEntity
  8
0
100
AcDbLine
 62
250
  6
CONTINUOUS
 10
-51.4564327369
 20
-3.637619
 11
-51.456425739
 21
-4.290924
  0
LINE
  5
558
100
AcDbEntity
  8
0
100
AcDbLine
 62
250
  6
CONTINUOUS
 10
-51.456425739
 20
-5.378474
 11
-51.456425739
 21
-5.958503
  0
LINE
  5
559
100
AcDbEntity
  8
0
100
AcDbLine
 62
250
  6
CONTINUOUS
 10
-51.4564177415
 20
-12.010985
 11
-51.4564177415
 21
-11.430963
  0
LINE
  5
55A
100
AcDbEntity
  8
0
100
AcDbLine
 62
250
  6
CONTINUOUS
 10
-51.4564177415
 20
-9.754197
 11
-51.4564177415
 21
-9.174176
  0
LINE
  5
55B
100
AcDbEntity
  8
0
100
AcDbLine
 62
250
  6
CONTINUOUS
 10
-51.4564177415
 20
-6.345182
 11
-51.456425739
 21
-6.925211
  0
LINE
  5
55C
100
AcDbEntity
  8
0
100
AcDbLine
 62
7
  6
CONTINUOUS
 10
-51.3875539867
 20
-23.4413184673
 11
-51.3875539867
 21
-22.8586815327
  0
LINE
  5
55D
100
AcDbEntity
  8
0
100
AcDbLine
 62
7
  6
CONTINUOUS
 10
-51.3875539867
 20
22.8586815327
 11
-51.3875539867
 21
23.4413184673
  0
LINE
  5
55E
100
AcDbEntity
  8
0
100
AcDbLine
 62
250
  6
CONTINUOUS
 10
-51.3379610159
 20
23.9538922731
 11
-51.3379610159
 21
22.356077753
  0
LINE
  5
55F
100
AcDbEntity
  8
0
100
AcDbLine
 62
250
  6
CONTINUOUS
 10
-51.3379610159
 20
-22.356077753
 11
-51.3379610159
 21
-23.9538922731
  0
LINE
  5
560
100
AcDbEntity
  8
0
100
AcDbLine
 62
7
  6
CONTINUOUS
 10
-50.8875539867
 20
23.4563578147
 11
-50.8875539867
 21
22.3534573615
  0
LINE
  5
561
100
AcDbEntity
  8
0
100
AcDbLine
 62
7
  6
CONTINUOUS
 10
-50.8875539867
 20
-22.3534573615
 11
-50.8875539867
 21
-23.4563578147
  0
LWPOLYLINE
  5
562
100
AcDbEntity
  8
0
100
AcDbPolyline
 62
250
  6
CONTINUOUS
 90
38
 70
0
 10
-51.8516449542
 20
11.7579507336
 10
-51.8518364015
 20
11.7402909788
 10
-51.8524095719
 20
11.7225500733
 10
-51.8533627081
 20
11.7047414811
 10
-51.854694053
 20
11.6868786664
 10
-51.8564018492
 20
11.6689750935
 10
-51.8584843396
 20
11.6510442265
 10
-51.860939767
 20
11.6330995297
 10
-51.8637663741
 20
11.6151544672
 10
-51.8669624036
 20
11.5972225032
 10
-51.8705260984
 20
11.5793171019
 10
-51.8744557012
 20
11.5614517275
 10
-51.8787494547
 20
11.5436398442
 10
-51.8834056019
 20
11.5258949162
 10
-51.8884223853
 20
11.5082304077
 10
-51.8937980479
 20
11.4906597828
 10
-51.8995308323
 20
11.4731965058
 10
-51.9056189813
 20
11.4558540409
 10
-51.9120607378
 20
11.4386458523
 10
-51.9188543444
 20
11.421585404
 10
-51.925998044
 20
11.4046861604
 10
-51.9334900793
 20
11.3879615857
 10
-51.941328693
 20
11.3714251439
 10
-51.949512128
 20
11.3550902994
 10
-51.9580386271
 20
11.3389705163
 10
-51.9669064329
 20
11.3230792588
 10
-51.9761137883
 20
11.3074299911
 10
-51.985658936
 20
11.2920361774
 10
-51.9955401189
 20
11.2769112819
 10
-52.0057555796
 20
11.2620687687
 10
-52.0163035609
 20
11.2475221021
 10
-52.0271823057
 20
11.2332847463
 10
-52.0383900566
 20
11.2193701654
 10
-52.0499250565
 20
11.2057918237
 10
-52.0617855481
 20
11.1925631853
 10
-52.0739697742
 20
11.1796977145
 10
-52.0864759775
 20
11.1672088754
 10
-52.0993024009
 20
11.1551101322
  0
LWPOLYLINE
  5
563
100
AcDbEntity
  8
0
100
AcDbPolyline
 62
7
  6
CONTINUOUS
 90
3
 70
0
 43
0.3500000087
 10
-40.2661247589
 20
33.5626203674
 10
-40.337552182
 20
33.3483380981
 10
-40.4804112915
 20
33.0626241425
  0
LINE
  5
564
100
AcDbEntity
  8
ASSI
100
AcDbLine
 62
7
  6
CONTINUOUS
 10
-35.0375539867
 20
-2.45
 11
-32.5375539867
 21
-2.45
  0
LINE
  5
565
100
AcDbEntity
  8
ASSI
100
AcDbLine
 62
7
  6
CONTINUOUS
 10
-30.0375539867
 20
-2.45
 11
-27.5375539867
 21
-2.45
  0
LINE
  5
566
100
AcDbEntity
  8
ASSI
100
AcDbLine
 62
250
  6
CONTINUOUS
 10
-35.0375539867
 20
-2.05
 11
-32.5375539867
 21
-2.05
  0
LINE
  5
567
100
AcDbEntity
  8
ASSI
100
AcDbLine
 62
250
  6
CONTINUOUS
 10
-30.0375539867
 20
-2.05
 11
-27.5375539867
 21
-2.05
  0
LWPOLYLINE
  5
568
100
AcDbEntity
  8
0
100
AcDbPolyline
 62
250
  6
CONTINUOUS
 90
6
 70
0
 10
-58.1360995539
 20
24.495628166
 10
-58.1360321087
 20
24.4953455463
 10
-58.1359680727
 20
24.4944986445
 10
-58.1359075954
 20
24.4930886486
 10
-58.1358508101
 20
24.4911177026
 10
-58.1357978595
 20
24.4885897127
  0
LINE
  5
569
100
AcDbEntity
  8
0
100
AcDbLine
 62
250
  6
CONTINUOUS
 10
-49.8886201207
 20
15.714285779
 11
-49.8886201207
 21
15.307142663
  0
LINE
  5
56A
100
AcDbEntity
  8
0
100
AcDbLine
 62
250
  6
CONTINUOUS
 10
-49.8886201207
 20
14.221428442
 11
-49.8886201207
 21
13.814285779
  0
LINE
  5
56B
100
AcDbEntity
  8
0
100
AcDbLine
 62
250
  6
CONTINUOUS
 10
-49.8886201207
 20
12.7285713315
 11
-49.8886201207
 21
12.185714221
  0
LINE
  5
56C
100
AcDbEntity
  8
0
100
AcDbLine
 62
250
  6
CONTINUOUS
 10
-49.8886201207
 20
9.8785714447
 11
-49.8886201207
 21
9.4714285836
  0
LINE
  5
56D
100
AcDbEntity
  8
0
100
AcDbLine
 62
250
  6
CONTINUOUS
 10
-49.8886201207
 20
11.1
 11
-49.8886201207
 21
11.235714221
  0
LINE
  5
56E
100
AcDbEntity
  8
0
100
AcDbLine
 62
250
  6
CONTINUOUS
 10
-49.0744584746
 20
12.7285713315
 11
-49.0744584746
 21
12.4571428895
  0
LINE
  5
56F
100
AcDbEntity
  8
0
100
AcDbLine
 62
250
  6
CONTINUOUS
 10
-48.8030712026
 20
15.307142663
 11
-48.8030712026
 21
15.8952379227
  0
LWPOLYLINE
  5
570
100
AcDbEntity
  8
0
100
AcDbPolyline
 62
7
  6
CONTINUOUS
 90
2
 70
0
 43
0.3500000087
 10
-48.8018382446
 20
43.4607541809
 10
-48.8018382446
 20
44.9607513824
  0
LINE
  5
571
100
AcDbEntity
  8
0
100
AcDbLine
 62
7
  6
CONTINUOUS
 10
-24.2875539867
 20
-1.3377823851
 11
-28.2403914544
 21
-1.3722782751
  0
LINE
  5
572
100
AcDbEntity
  8
0
100
AcDbLine
 62
7
  6
CONTINUOUS
 10
-28.2403914544
 20
-1.3722782751
 11
-44.8185981971
 21
-1.4781868487
  0
LINE
  5
573
100
AcDbEntity
  8
0
100
AcDbLine
 62
7
  6
CONTINUOUS
 10
-25.2701015803
 20
-1.0053341455
 11
-44.8220337452
 21
-1.0845120243
  0
LINE
  5
574
100
AcDbEntity
  8
0
100
AcDbLine
 62
250
  6
CONTINUOUS
 10
-47.9889094999
 20
14.492857337
 11
-47.9889094999
 21
13.542857337
  0
LINE
  5
575
100
AcDbEntity
  8
0
100
AcDbLine
 62
250
  6
CONTINUOUS
 10
-47.9889094999
 20
11.235714221
 11
-47.9889094999
 21
11.1
  0
LINE
  5
576
100
AcDbEntity
  8
0
100
AcDbLine
 62
250
  6
CONTINUOUS
 10
-47.9889094999
 20
10.15
 11
-47.9889094999
 21
9.2
  0
LINE
  5
577
100
AcDbEntity
  8
0
100
AcDbLine
 62
250
  6
CONTINUOUS
 10
-47.9889094999
 20
12.185714221
 11
-47.9889094999
 21
12.864285779
  0
LINE
  5
578
100
AcDbEntity
  8
0
100
AcDbLine
 62
250
  6
CONTINUOUS
 10
-47.3788277835
 20
-21.4537354271
 11
-47.3788277835
 21
-20.9
  0
LINE
  5
579
100
AcDbEntity
  8
0
100
AcDbLine
 62
250
  6
CONTINUOUS
 10
-47.3788277835
 20
20.9
 11
-47.3788277835
 21
21.4537354271
  0
LINE
  5
57A
100
AcDbEntity
  8
0
100
AcDbLine
 62
7
  6
CONTINUOUS
 10
-46.8875539867
 20
-21.3359869487
 11
-46.8875539867
 21
21.3359869487
  0
LINE
  5
57B
100
AcDbEntity
  8
0
100
AcDbLine
 62
250
  6
CONTINUOUS
 10
-52.6471649455
 20
-4.255022
 11
-51.4564327369
 21
-3.637619
  0
LINE
  5
57C
100
AcDbEntity
  8
0
100
AcDbLine
 62
250
  6
CONTINUOUS
 10
-51.456425739
 20
-4.290924
 11
-52.577434191
 21
-4.872178
  0
LINE
  5
57D
100
AcDbEntity
  8
0
100
AcDbLine
 62
250
  6
CONTINUOUS
 10
-28.3580511483
 20
1.4214285553
 11
-29.172212851
 21
1.4214285553
  0
LINE
  5
57E
100
AcDbEntity
  8
0
100
AcDbLine
 62
250
  6
CONTINUOUS
 10
-34.1571677802
 20
1.4214285553
 11
-34.9713294829
 21
1.4214285553
  0
LINE
  5
57F
100
AcDbEntity
  8
0
100
AcDbLine
 62
250
  6
CONTINUOUS
 10
-29.5578683825
 20
2.4
 11
-29.9649492339
 21
2.4
  0
LINE
  5
580
100
AcDbEntity
  8
0
100
AcDbLine
 62
250
  6
CONTINUOUS
 10
-32.8145151934
 20
2.4
 11
-33.3572896241
 21
2.4
  0
LINE
  5
581
100
AcDbEntity
  8
0
100
AcDbLine
 62
250
  6
CONTINUOUS
 10
-32.976957712
 20
-14.375622
 11
-37.9864726224
 21
-9.43899
  0
LWPOLYLINE
  5
582
100
AcDbEntity
  8
0
100
AcDbPolyline
 62
250
  6
CONTINUOUS
 90
17
 70
0
 10
-43.66073152
 20
-13.2222387988
 10
-43.5876060378
 20
-13.5628461661
 10
-43.4467035564
 20
-13.8882096853
 10
-43.2442802223
 20
-14.1792995123
 10
-42.9883231849
 20
-14.4246299264
 10
-42.6944935245
 20
-14.61171325
 10
-42.363926401
 20
-14.7398267191
 10
-42.0145622677
 20
-14.8000636886
 10
-41.6601862126
 20
-14.7900473491
 10
-41.3147810822
 20
-14.7101729218
 10
-40.99736996
 20
-14.5667092432
 10
-40.7091791083
 20
-14.3602105601
 10
-40.4674836877
 20
-14.1008141393
 10
-40.2818204316
 20
-13.7987551539
 10
-40.161083561
 20
-13.4719822807
 10
-40.1057395217
 20
-13.1217579498
 10
-40.1211190645
 20
-12.7645899989
  0
LINE
  5
583
100
AcDbEntity
  8
0
100
AcDbLine
 62
250
  6
CONTINUOUS
 10
-44.8220337452
 20
-1.0845120243
 11
-44.8185981971
 21
-1.4781868487
  0
LWPOLYLINE
  5
584
100
AcDbEntity
  8
0
100
AcDbPolyline
 62
250
  6
CONTINUOUS
 90
17
 70
0
 10
-44.424373558
 20
-8.42959
 10
-44.4255822108
 20
-8.9272613275
 10
-44.3275511947
 20
-9.4242124046
 10
-44.1332431475
 20
-9.8919797192
 10
-43.8503250082
 20
-10.3121062718
 10
-43.4899600621
 20
-10.6680148559
 10
-43.0742516941
 20
-10.9415328838
 10
-42.6048059211
 20
-11.1316036663
 10
-42.1070585984
 20
-11.2251210381
 10
-41.600649666
 20
-11.2183950236
 10
-41.1055608306
 20
-11.1116910153
 10
-40.6490989497
 20
-10.9135565139
 10
-40.2330274845
 20
-10.6247569775
 10
-39.8822392747
 20
-10.2594030101
 10
-39.610575599
 20
-9.831910621
 10
-39.4287556679
 20
-9.3591476555
 10
-39.3440050407
 20
-8.8605127873
  0
LWPOLYLINE
  5
585
100
AcDbEntity
  8
0
100
AcDbPolyline
 62
250
  6
CONTINUOUS
 90
17
 70
0
 10
-44.424373558
 20
-12.76459
 10
-44.4255822108
 20
-13.2622613275
 10
-44.3275511947
 20
-13.7592124046
 10
-44.1332431475
 20
-14.2269797192
 10
-43.8503250082
 20
-14.6471062718
 10
-43.4899600621
 20
-15.0030148559
 10
-43.0742516941
 20
-15.2765328838
 10
-42.6048059211
 20
-15.4666036663
 10
-42.1070585984
 20
-15.5601210381
 10
-41.600649666
 20
-15.5533950236
 10
-41.1055608306
 20
-15.4466910153
 10
-40.6490989497
 20
-15.2485565139
 10
-40.2330274845
 20
-14.9597569775
 10
-39.8822392747
 20
-14.5944030101
 10
-39.610575599
 20
-14.166910621
 10
-39.4287556679
 20
-13.6941476555
 10
-39.3440050407
 20
-13.1955127873
  0
LINE
  5
586
100
AcDbEntity
  8
0
100
AcDbLine
 62
250
  6
CONTINUOUS
 10
-44.8220337452
 20
-5.1154879757
 11
-44.8185981971
 21
-4.7218131513
  0
LWPOLYLINE
  5
587
100
AcDbEntity
  8
0
100
AcDbPolyline
 62
250
  6
CONTINUOUS
 90
6
 70
0
 10
-58.0158078585
 20
-23.6340599235
 10
-58.0145985031
 20
-23.6318483049
 10
-58.0136666509
 20
-23.630116262
 10
-58.0130144051
 20
-23.6288677039
 10
-58.0126432379
 20
-23.6281054486
 10
-58.0125539867
 20
-23.6278312164
  0
LINE
  5
588
100
AcDbEntity
  8
0
100
AcDbLine
 62
250
  6
CONTINUOUS
 10
-58.0190475413
 20
-23.6399008509
 11
-58.0158078585
 21
-23.6340599235
  0
LINE
  5
589
100
AcDbEntity
  8
0
100
AcDbLine
 62
250
  6
CONTINUOUS
 10
-58.0286957623
 20
-23.6570470569
 11
-58.0190475413
 21
-23.6399008509
  0
LINE
  5
58A
100
AcDbEntity
  8
0
100
AcDbLine
 62
250
  6
CONTINUOUS
 10
-58.0592633422
 20
-23.7107117775
 11
-58.0286957623
 21
-23.6570470569
  0
LINE
  5
58B
100
AcDbEntity
  8
0
100
AcDbLine
 62
250
  6
CONTINUOUS
 10
-58.1360995539
 20
-23.8443375673
 11
-58.0592633422
 21
-23.7107117775
  0
LINE
  5
58C
100
AcDbEntity
  8
0
100
AcDbLine
 62
250
  6
CONTINUOUS
 10
-29.5578683825
 20
3.35
 11
-30.2363364775
 21
3.35
  0
LINE
  5
58D
100
AcDbEntity
  8
0
100
AcDbLine
 62
250
  6
CONTINUOUS
 10
-51.4570545474
 20
4.037094
 11
-54.3552655226
 21
4.037094
  0
LINE
  5
58E
100
AcDbEntity
  8
0
100
AcDbLine
 62
250
  6
CONTINUOUS
 10
-30.2363364775
 20
4.3
 11
-29.5578683825
 21
4.3
  0
LINE
  5
58F
100
AcDbEntity
  8
0
100
AcDbLine
 62
250
  6
CONTINUOUS
 10
-31.321885339
 20
4.3
 11
-31.7289663319
 21
4.3
  0
LINE
  5
590
100
AcDbEntity
  8
0
100
AcDbLine
 62
250
  6
CONTINUOUS
 10
-32.6788216423
 20
4.3
 11
-33.221596073
 21
4.3
  0
LINE
  5
591
100
AcDbEntity
  8
0
100
AcDbLine
 62
250
  6
CONTINUOUS
 10
-53.8952916671
 20
4.554832
 11
-53.1746412344
 21
4.554832
  0
LINE
  5
592
100
AcDbEntity
  8
0
100
AcDbLine
 62
250
  6
CONTINUOUS
 10
-52.7146313898
 20
4.554832
 11
-51.917018406
 21
4.554832
  0
LINE
  5
593
100
AcDbEntity
  8
0
100
AcDbLine
 62
250
  6
CONTINUOUS
 10
-24.2875539867
 20
4.7228182695
 11
-25.2701015803
 21
4.7228182695
  0
LWPOLYLINE
  5
594
100
AcDbEntity
  8
0
100
AcDbPolyline
 62
250
  6
CONTINUOUS
 90
35
 70
0
 10
-53.9739716002
 20
10.7246185849
 10
-53.9486661561
 20
10.7036432164
 10
-53.922791883
 20
10.6833203784
 10
-53.8963715408
 20
10.6636475012
 10
-53.8694278895
 20
10.6446220149
 10
-53.8419836892
 20
10.6262413499
 10
-53.8140616998
 20
10.6085029364
 10
-53.7856846813
 20
10.5914042047
 10
-53.7568753936
 20
10.574942585
 10
-53.7276565969
 20
10.5591155076
 10
-53.6980510511
 20
10.5439204027
 10
-53.6680815161
 20
10.5293547006
 10
-53.637770752
 20
10.5154158315
 10
-53.6071415187
 20
10.5021012257
 10
-53.5762165763
 20
10.4894083135
 10
-53.5450186846
 20
10.477334525
 10
-53.5135706038
 20
10.4658772906
 10
-53.4818950938
 20
10.4550340405
 10
-53.4500149146
 20
10.444802205
 10
-53.4179528261
 20
10.4351792142
 10
-53.3857315884
 20
10.4261624986
 10
-53.3533739615
 20
10.4177494882
 10
-53.3209027053
 20
10.4099376134
 10
-53.2883405798
 20
10.4027243044
 10
-53.2557103451
 20
10.3961069915
 10
-53.2230347611
 20
10.390083105
 10
-53.1903365878
 20
10.384650075
 10
-53.154904611
 20
10.3794282692
 10
-53.1194676625
 20
10.3748983791
 10
-53.0840205701
 20
10.3710617379
 10
-53.0485581616
 20
10.3679196786
 10
-53.0130752648
 20
10.3654735342
 10
-52.9775667077
 20
10.3637246378
 10
-52.942027318
 20
10.3626743224
 10
-52.9064519236
 20
10.3623239211
  0
LWPOLYLINE
  5
595
100
AcDbEntity
  8
0
100
AcDbPolyline
 62
250
  6
CONTINUOUS
 90
38
 70
0
 10
-53.7130542783
 20
11.1551101322
 10
-53.7258805281
 20
11.1672090648
 10
-53.7383865769
 20
11.1796980727
 10
-53.7505706667
 20
11.1925636924
 10
-53.7624310394
 20
11.2057924606
 10
-53.7739659369
 20
11.219370914
 10
-53.7851736014
 20
11.2332855893
 10
-53.7960522746
 20
11.2475230232
 10
-53.8066001986
 20
11.2620697523
 10
-53.8168156154
 20
11.2769123134
 10
-53.8266967669
 20
11.2920372432
 10
-53.836241895
 20
11.3074310782
 10
-53.8454492419
 20
11.3230803553
 10
-53.8543170493
 20
11.3389716111
 10
-53.8628435593
 20
11.3550913822
 10
-53.8710270139
 20
11.3714262053
 10
-53.878865655
 20
11.3879626172
 10
-53.8863577245
 20
11.4046871546
 10
-53.8935014646
 20
11.421586354
 10
-53.900295117
 20
11.4386467522
 10
-53.9067369238
 20
11.4558548859
 10
-53.9128251269
 20
11.4731972918
 10
-53.9185579684
 20
11.4906605065
 10
-53.9239336902
 20
11.5082310667
 10
-53.9289505341
 20
11.5258955092
 10
-53.9336067424
 20
11.5436403705
 10
-53.9379005567
 20
11.5614521874
 10
-53.9418302193
 20
11.5793174966
 10
-53.9453939719
 20
11.5972228348
 10
-53.9485900566
 20
11.6151547385
 10
-53.9514167153
 20
11.6330997446
 10
-53.9538721901
 20
11.6510443897
 10
-53.9559547228
 20
11.6689752105
 10
-53.9576625555
 20
11.6868787436
 10
-53.9589939301
 20
11.7047415258
 10
-53.9599470886
 20
11.7225500937
 10
-53.9605202729
 20
11.7402909841
 10
-53.960711725
 20
11.7579507336
  0
LINE
  5
596
100
AcDbEntity
  8
0
100
AcDbLine
 62
250
  6
CONTINUOUS
 10
-53.0916405229
 20
8.371575
 11
-54.3552655226
 21
9.656836
  0
LINE
  5
597
100
AcDbEntity
  8
0
100
AcDbLine
 62
250
  6
CONTINUOUS
 10
-54.3552655226
 20
10.35105
 11
-53.162678879
 21
9.10422
  0
LINE
  5
598
100
AcDbEntity
  8
0
100
AcDbLine
 62
250
  6
CONTINUOUS
 10
-52.8066723469
 20
8.741819
 11
-52.4614815193
 21
8.371575
  0
LINE
  5
599
100
AcDbEntity
  8
0
100
AcDbLine
 62
250
  6
CONTINUOUS
 10
-58.1360995539
 20
23.8443375673
 11
-58.0547219406
 21
23.7027694659
  0
LINE
  5
59A
100
AcDbEntity
  8
0
100
AcDbLine
 62
250
  6
CONTINUOUS
 10
-58.0547219406
 20
23.7027694659
 11
-58.0286943909
 21
23.6570446328
  0
LINE
  5
59B
100
AcDbEntity
  8
0
100
AcDbLine
 62
250
  6
CONTINUOUS
 10
-58.0286943909
 20
23.6570446328
 11
-58.0190465026
 21
23.6398989896
  0
LWPOLYLINE
  5
59C
100
AcDbEntity
  8
0
100
AcDbPolyline
 62
250
  6
CONTINUOUS
 90
7
 70
0
 10
-58.0190465026
 20
23.6398989896
 10
-58.0158070424
 20
23.6340584395
 10
-58.0145978106
 20
23.6318470295
 10
-58.0136661646
 20
23.630115347
 10
-58.013014158
 20
23.6288672183
 10
-58.0126431738
 20
23.6281053043
 10
-58.0125539867
 20
23.6278312164
  0
LINE
  5
59D
100
AcDbEntity
  8
0
100
AcDbLine
 62
250
  6
CONTINUOUS
 10
-42.269983732
 20
-8.93959
 11
-42.269983732
 21
-10.428126
  0
LINE
  5
59E
100
AcDbEntity
  8
0
100
AcDbLine
 62
250
  6
CONTINUOUS
 10
-41.5051002452
 20
-8.93959
 11
-41.5051002452
 21
-10.428126
  0
LWPOLYLINE
  5
59F
100
AcDbEntity
  8
0
100
AcDbPolyline
 62
250
  6
CONTINUOUS
 90
8
 70
0
 10
-43.6539649128
 20
-8.42959
 10
-43.6679514465
 20
-8.8086947743
 10
-43.6015200693
 20
-9.1821939578
 10
-43.4576713678
 20
-9.5332172606
 10
-43.2388413288
 20
-9.8506343253
 10
-42.961946892
 20
-10.1099068143
 10
-42.6365235074
 20
-10.304800292
 10
-42.2699837925
 20
-10.4281264426
  0
LWPOLYLINE
  5
5A0
100
AcDbEntity
  8
0
100
AcDbPolyline
 62
250
  6
CONTINUOUS
 90
7
 70
0
 10
-43.6539649128
 20
-12.76459
 10
-43.6630921252
 20
-12.8387950608
 10
-43.6691044192
 20
-12.9133172973
 10
-43.6719912474
 20
-12.9880259722
 10
-43.6715859019
 20
-13.0690187464
 10
-43.6679514465
 20
-13.1436947743
 10
-43.6607315178
 20
-13.2222388174
  0
LINE
  5
5A1
100
AcDbEntity
  8
0
100
AcDbLine
 62
250
  6
CONTINUOUS
 10
-54.3556723986
 20
-7.276321
 11
-51.4564177415
 21
-6.345182
  0
LINE
  5
5A2
100
AcDbEntity
  8
0
100
AcDbLine
 62
250
  6
CONTINUOUS
 10
-52.577434191
 20
-7.285246
 11
-53.4527065136
 21
-7.56635
  0
LINE
  5
5A3
100
AcDbEntity
  8
0
100
AcDbLine
 62
250
  6
CONTINUOUS
 10
-51.456425739
 20
-6.925211
 11
-52.0265800248
 21
-7.108317
  0
LINE
  5
5A4
100
AcDbEntity
  8
0
100
AcDbLine
 62
250
  6
CONTINUOUS
 10
-53.1746312374
 20
5.982127
 11
-52.7146413868
 21
5.982127
  0
LINE
  5
5A5
100
AcDbEntity
  8
0
100
AcDbLine
 62
250
  6
CONTINUOUS
 10
-54.3552655226
 20
6.086013
 11
-53.8952856689
 21
6.086013
  0
LINE
  5
5A6
100
AcDbEntity
  8
0
100
AcDbLine
 62
250
  6
CONTINUOUS
 10
-51.9170344011
 20
6.097666
 11
-51.4570545474
 21
6.097666
  0
LINE
  5
5A7
100
AcDbEntity
  8
0
100
AcDbLine
 62
250
  6
CONTINUOUS
 10
-51.4570545474
 20
6.720338
 11
-54.3552655226
 21
6.720338
  0
LINE
  5
5A8
100
AcDbEntity
  8
0
100
AcDbLine
 62
250
  6
CONTINUOUS
 10
-46.8875539867
 20
5.1001523048
 11
-25.2701015803
 21
4.7228182695
  0
LINE
  5
5A9
100
AcDbEntity
  8
0
100
AcDbLine
 62
7
  6
CONTINUOUS
 10
-46.8875539867
 20
6.1
 11
-25.2701015803
 21
5.7226659647
  0
LINE
  5
5AA
100
AcDbEntity
  8
0
100
AcDbLine
 62
250
  6
CONTINUOUS
 10
-49.8886201207
 20
9.4714285836
 11
-49.481539241
 21
9.2
  0
LWPOLYLINE
  5
5AB
100
AcDbEntity
  8
0
100
AcDbPolyline
 62
250
  6
CONTINUOUS
 90
38
 70
0
 10
-52.0993024009
 20
12.3579267794
 10
-52.0865266152
 20
12.3458773594
 10
-52.0740655013
 20
12.3334412285
 10
-52.0619210508
 20
12.3206316948
 10
-52.0500952554
 20
12.3074620659
 10
-52.0385901068
 20
12.2939456498
 10
-52.0274075966
 20
12.2800957542
 10
-52.0165497164
 20
12.265925687
 10
-52.006018458
 20
12.2514487561
 10
-51.995815813
 20
12.2366782692
 10
-51.9859437731
 20
12.2216275341
 10
-51.97640433
 20
12.2063098589
 10
-51.9671994752
 20
12.1907385512
 10
-51.9583312005
 20
12.1749269189
 10
-51.9498014975
 20
12.1588882698
 10
-51.941612358
 20
12.1426359118
 10
-51.9337657734
 20
12.1261831527
 10
-51.9262637357
 20
12.1095433003
 10
-51.9191082362
 20
12.0927296626
 10
-51.9123012669
 20
12.0757555472
 10
-51.9058448193
 20
12.0586342621
 10
-51.899740885
 20
12.041379115
 10
-51.8939914558
 20
12.0240034139
 10
-51.8885985233
 20
12.0065204665
 10
-51.8835640791
 20
11.9889435806
 10
-51.878890115
 20
11.9712860642
 10
-51.8745786226
 20
11.9535612251
 10
-51.8706315936
 20
11.935782371
 10
-51.8670510196
 20
11.9179628099
 10
-51.8638388922
 20
11.9001158495
 10
-51.8609972033
 20
11.8822547977
 10
-51.8585279443
 20
11.8643929623
 10
-51.8564331071
 20
11.8465436511
 10
-51.8547146831
 20
11.8287201721
 10
-51.8533746642
 20
11.810935833
 10
-51.852415042
 20
11.7932039416
 10
-51.8518378081
 20
11.7755378059
 10
-51.8516449542
 20
11.7579507336
  0
LINE
  5
5AC
100
AcDbEntity
  8
0
100
AcDbLine
 62
250
  6
CONTINUOUS
 10
-49.6172329053
 20
10.8285714447
 11
-49.8886201207
 21
11.1
  0
LINE
  5
5AD
100
AcDbEntity
  8
0
100
AcDbLine
 62
250
  6
CONTINUOUS
 10
-49.0744584746
 20
12.7285713315
 11
-49.2101520256
 21
12.9547618508
  0
LINE
  5
5AE
100
AcDbEntity
  8
0
100
AcDbLine
 62
250
  6
CONTINUOUS
 10
-33.221596073
 20
4.3
 11
-33.4929831752
 21
4.0285714164
  0
LINE
  5
5AF
100
AcDbEntity
  8
0
100
AcDbLine
 62
250
  6
CONTINUOUS
 10
-31.7289663319
 20
4.3
 11
-32.000353434
 21
4.0285714164
  0
LINE
  5
5B0
100
AcDbEntity
  8
0
100
AcDbLine
 62
250
  6
CONTINUOUS
 10
-32.5431278648
 20
2.6714285553
 11
-32.8145151934
 21
2.4
  0
LINE
  5
5B1
100
AcDbEntity
  8
0
100
AcDbLine
 62
250
  6
CONTINUOUS
 10
-52.4675716638
 20
-10.59258
 11
-54.3556654007
 21
-11.134148
  0
LINE
  5
5B2
100
AcDbEntity
  8
0
100
AcDbLine
 62
250
  6
CONTINUOUS
 10
-54.3552655226
 20
7.238107
 11
-51.4570545474
 21
7.238107
  0
LINE
  5
5B3
100
AcDbEntity
  8
0
100
AcDbLine
 62
250
  6
CONTINUOUS
 10
-51.4570545474
 20
7.853838
 11
-54.3552655226
 21
7.853838
  0
LINE
  5
5B4
100
AcDbEntity
  8
0
100
AcDbLine
 62
250
  6
CONTINUOUS
 10
-54.3552655226
 20
8.371585
 11
-53.0916405229
 21
8.371575
  0
LINE
  5
5B5
100
AcDbEntity
  8
0
100
AcDbLine
 62
250
  6
CONTINUOUS
 10
-52.4614815193
 20
8.371575
 11
-51.4570545474
 21
8.371585
  0
LINE
  5
5B6
100
AcDbEntity
  8
0
100
AcDbLine
 62
250
  6
CONTINUOUS
 10
-66.8061123016
 20
9.4905
 11
-67.2954358092
 21
9.4999503582
  0
LINE
  5
5B7
100
AcDbEntity
  8
0
100
AcDbLine
 62
250
  6
CONTINUOUS
 10
-67.2968306838
 20
9.4999840063
 11
-67.2972958401
 21
9.5
  0
LINE
  5
5B8
100
AcDbEntity
  8
0
100
AcDbLine
 62
250
  6
CONTINUOUS
 10
-29.9649492339
 20
2.4
 11
-30.1006428699
 21
2.4452381492
  0
LINE
  5
5B9
100
AcDbEntity
  8
0
100
AcDbLine
 62
250
  6
CONTINUOUS
 10
-49.3458456899
 20
10.6928571105
 11
-49.6172329053
 21
10.8285714447
  0
LINE
  5
5BA
100
AcDbEntity
  8
0
100
AcDbLine
 62
250
  6
CONTINUOUS
 10
-47.9889094999
 20
9.2
 11
-49.3458456899
 21
10.15
  0
LWPOLYLINE
  5
5BB
100
AcDbEntity
  8
0
100
AcDbPolyline
 62
250
  6
CONTINUOUS
 90
35
 70
0
 10
-51.8389373607
 20
12.7884285572
 10
-51.8642435691
 20
12.8094025347
 10
-51.8901184909
 20
12.8297240845
 10
-51.9165393721
 20
12.8493957717
 10
-51.9434834584
 20
12.8684201618
 10
-51.9709279957
 20
12.8867998199
 10
-51.9988502298
 20
12.9045373115
 10
-52.0272274066
 20
12.9216352018
 10
-52.056036772
 20
12.9380960561
 10
-52.0852555717
 20
12.9539224398
 10
-52.1148610516
 20
12.9691169182
 10
-52.1448304575
 20
12.9836820565
 10
-52.1751410354
 20
12.9976204201
 10
-52.205770031
 20
13.0109345742
 10
-52.2366946901
 20
13.0236270843
 10
-52.2678922587
 20
13.0357005156
 10
-52.2993399825
 20
13.0471574334
 10
-52.3310151074
 20
13.0580004031
 10
-52.3628948793
 20
13.0682319898
 10
-52.3949565439
 20
13.0778547591
 10
-52.4271773472
 20
13.086871276
 10
-52.4595345349
 20
13.0952841061
 10
-52.492005353
 20
13.1030958145
 10
-52.5245670472
 20
13.1103089667
 10
-52.5571968634
 20
13.1169261278
 10
-52.5898720474
 20
13.1229498632
 10
-52.6225698451
 20
13.1283827383
 10
-52.6580014487
 20
13.1336043693
 10
-52.6934380525
 20
13.1381340827
 10
-52.7288848216
 20
13.141970553
 10
-52.764346921
 20
13.145112455
 10
-52.7998295158
 20
13.1475584635
 10
-52.8353377711
 20
13.1493072532
 10
-52.870876852
 20
13.1503574988
 10
-52.9064519236
 20
13.1507078752
  0
LINE
  5
5BC
100
AcDbEntity
  8
0
100
AcDbLine
 62
250
  6
CONTINUOUS
 10
-48.2602967435
 20
11.5071428895
 11
-47.9889094999
 21
11.235714221
  0
LWPOLYLINE
  5
5BD
100
AcDbEntity
  8
0
100
AcDbPolyline
 62
250
  6
CONTINUOUS
 90
60
 70
0
 10
-37.5136609769
 20
-12.1569273296
 10
-37.5126561466
 20
-12.183146566
 10
-37.5115081434
 20
-12.2092549776
 10
-37.5101904895
 20
-12.2352614747
 10
-37.508676707
 20
-12.2611749677
 10
-37.506940318
 20
-12.2870043669
 10
-37.5049548446
 20
-12.3127585827
 10
-37.5026938092
 20
-12.3384465254
 10
-37.5001307336
 20
-12.3640771054
 10
-37.4972391402
 20
-12.3896592331
 10
-37.4939925511
 20
-12.4152018187
 10
-37.4903644883
 20
-12.4407137726
 10
-37.4863284741
 20
-12.4662040052
 10
-37.4818580306
 20
-12.4916814267
 10
-37.4769266799
 20
-12.5171549477
 10
-37.4715079442
 20
-12.5426334783
 10
-37.4655753456
 20
-12.568125929
 10
-37.4591024062
 20
-12.5936412101
 10
-37.4520626483
 20
-12.6191882319
 10
-37.4444295939
 20
-12.6447759049
 10
-37.4361767652
 20
-12.6704131392
 10
-37.4272776844
 20
-12.6961088454
 10
-37.4177058735
 20
-12.7218719337
 10
-37.4074348548
 20
-12.7477113144
 10
-37.3964381503
 20
-12.773635898
 10
-37.3846892822
 20
-12.7996545948
 10
-37.3721617727
 20
-12.8257763151
 10
-37.366147765
 20
-12.8377914839
 10
-37.3599633557
 20
-12.8498067259
 10
-37.353607553
 20
-12.8617985617
 10
-37.347079365
 20
-12.8737435119
 10
-37.3403777999
 20
-12.885618097
 10
-37.3335018658
 20
-12.8973988377
 10
-37.3264505707
 20
-12.9090622545
 10
-37.3192229227
 20
-12.9205848681
 10
-37.3118179301
 20
-12.9319431989
 10
-37.3042346009
 20
-12.9431137676
 10
-37.2964719433
 20
-12.9540730947
 10
-37.2885289653
 20
-12.964797701
 10
-37.2804046751
 20
-12.9752641068
 10
-37.2720980808
 20
-12.9854488328
 10
-37.2636081904
 20
-12.9953283996
 10
-37.2549340122
 20
-13.0048793279
 10
-37.2460745543
 20
-13.014078138
 10
-37.2370288247
 20
-13.0229013507
 10
-37.2277958316
 20
-13.0313254866
 10
-37.2183745831
 20
-13.0393270661
 10
-37.2087640872
 20
-13.0468826099
 10
-37.1989633523
 20
-13.0539686387
 10
-37.1889713862
 20
-13.0605616728
 10
-37.1787871972
 20
-13.066638233
 10
-37.1684097934
 20
-13.0721748399
 10
-37.1578381829
 20
-13.0771480139
 10
-37.1470713739
 20
-13.0815342758
 10
-37.1361083743
 20
-13.085310146
 10
-37.1249481924
 20
-13.0884521451
 10
-37.1135898363
 20
-13.0909367938
 10
-37.102032314
 20
-13.0927406127
 10
-37.0902746337
 20
-13.0938401222
 10
-37.0783158036
 20
-13.094211843
  0
LINE
  5
5BE
100
AcDbEntity
  8
0
100
AcDbLine
 62
250
  6
CONTINUOUS
 10
-37.4728738579
 20
-12.781784
 11
-37.4728738579
 21
-12.68241
  0
LINE
  5
5BF
100
AcDbEntity
  8
0
100
AcDbLine
 62
250
  6
CONTINUOUS
 10
-37.0783159601
 20
-13.309973
 11
-37.0783159601
 21
-10.872066
  0
LINE
  5
5C0
100
AcDbEntity
  8
0
100
AcDbLine
 62
250
  6
CONTINUOUS
 10
-37.5658336975
 20
-12.156927
 11
-37.5652757825
 21
-11.583924
  0
LINE
  5
5C1
100
AcDbEntity
  8
0
100
AcDbLine
 62
250
  6
CONTINUOUS
 10
-37.3478149078
 20
-11.583924
 11
-37.3483728229
 21
-12.156927
  0
LWPOLYLINE
  5
5C2
100
AcDbEntity
  8
0
100
AcDbPolyline
 62
250
  6
CONTINUOUS
 90
7
 70
0
 10
-39.344005028
 20
-8.8605126037
 10
-39.3400854155
 20
-8.7894134757
 10
-39.3381522331
 20
-8.7182326096
 10
-39.3382069881
 20
-8.6470255099
 10
-39.3402496378
 20
-8.5758477019
 10
-39.3442785895
 20
-8.5047546879
 10
-39.35071042
 20
-8.4295899921
  0
LWPOLYLINE
  5
5C3
100
AcDbEntity
  8
0
100
AcDbPolyline
 62
250
  6
CONTINUOUS
 90
7
 70
0
 10
-39.344005028
 20
-13.1955126037
 10
-39.3400854155
 20
-13.1244134757
 10
-39.3381522331
 20
-13.0532326096
 10
-39.3382069881
 20
-12.9820255099
 10
-39.3402496378
 20
-12.9108477019
 10
-39.3442785895
 20
-12.8397546879
 10
-39.35071042
 20
-12.7645899921
  0
LINE
  5
5C4
100
AcDbEntity
  8
0
100
AcDbLine
 62
250
  6
CONTINUOUS
 10
-30.5077236929
 20
4.0285714164
 11
-30.2363364775
 21
4.3
  0
LINE
  5
5C5
100
AcDbEntity
  8
0
100
AcDbLine
 62
250
  6
CONTINUOUS
 10
-30.3720300852
 20
3.0785714447
 11
-30.1006428699
 21
3.35
  0
LINE
  5
5C6
100
AcDbEntity
  8
0
100
AcDbLine
 62
250
  6
CONTINUOUS
 10
-53.3682772375
 20
-11.430963
 11
-51.4564177415
 21
-10.882587
  0
LWPOLYLINE
  5
5C7
100
AcDbEntity
  8
0
100
AcDbPolyline
 62
250
  6
CONTINUOUS
 90
34
 70
0
 10
-52.9064519236
 20
10.3623239211
 10
-52.8707608064
 20
10.3626719633
 10
-52.8350047518
 20
10.3637167142
 10
-52.7992050951
 20
10.3654591097
 10
-52.7633831713
 20
10.3679000857
 10
-52.7275603156
 20
10.3710405784
 10
-52.6917578631
 20
10.3748815238
 10
-52.655997149
 20
10.3794238579
 10
-52.6202995085
 20
10.3846685166
 10
-52.5846862766
 20
10.3906164361
 10
-52.5491787885
 20
10.3972685523
 10
-52.5137983794
 20
10.4046258012
 10
-52.4785663844
 20
10.412689119
 10
-52.4435041387
 20
10.4214594415
 10
-52.4086329773
 20
10.4309377049
 10
-52.3739742355
 20
10.4411248451
 10
-52.3395492484
 20
10.4520217981
 10
-52.3053793511
 20
10.4636295001
 10
-52.2714858788
 20
10.4759488869
 10
-52.2378901667
 20
10.4889808947
 10
-52.2046135498
 20
10.5027264594
 10
-52.1716773633
 20
10.517186517
 10
-52.1391029424
 20
10.5323620037
 10
-52.1069116221
 20
10.5482538553
 10
-52.0751247378
 20
10.564863008
 10
-52.0472358671
 20
10.5802264362
 10
-52.0197057842
 20
10.596165919
 10
-51.9925570617
 20
10.6126903463
 10
-51.9658122722
 20
10.6298086081
 10
-51.9394939883
 20
10.6475295944
 10
-51.9136247826
 20
10.6658621953
 10
-51.8882272277
 20
10.6848153007
 10
-51.8633238962
 20
10.7043978006
 10
-51.8389373607
 20
10.7246185849
  0
LINE
  5
5C8
100
AcDbEntity
  8
0
100
AcDbLine
 62
250
  6
CONTINUOUS
 10
-49.3458456899
 20
10.15
 11
-49.6172329053
 21
10.15
  0
LINE
  5
5C9
100
AcDbEntity
  8
0
100
AcDbLine
 62
250
  6
CONTINUOUS
 10
-48.5316839872
 20
10.6928571105
 11
-49.3458456899
 21
10.6928571105
  0
LINE
  5
5CA
100
AcDbEntity
  8
0
100
AcDbLine
 62
250
  6
CONTINUOUS
 10
-49.3458456899
 20
11.6428571105
 11
-48.5316839872
 21
11.6428571105
  0
LWPOLYLINE
  5
5CB
100
AcDbEntity
  8
0
100
AcDbPolyline
 62
250
  6
CONTINUOUS
 90
36
 70
0
 10
-52.906170669
 20
10.8833098474
 10
-52.9321069222
 20
10.8835239565
 10
-52.9581034968
 20
10.8841700162
 10
-52.9841447089
 20
10.8852536252
 10
-53.0102148745
 20
10.8867803825
 10
-53.0362983097
 20
10.8887558867
 10
-53.0623793306
 20
10.8911857367
 10
-53.0884422532
 20
10.8940755312
 10
-53.1144713935
 20
10.8974308691
 10
-53.1404510676
 20
10.9012573491
 10
-53.1663655916
 20
10.90556057
 10
-53.1921992815
 20
10.9103461306
 10
-53.2179364534
 20
10.9156196296
 10
-53.2435614232
 20
10.921386666
 10
-53.2690585072
 20
10.9276528384
 10
-53.2944120212
 20
10.9344237456
 10
-53.3196062815
 20
10.9417049865
 10
-53.3446256039
 20
10.9495021597
 10
-53.3694543046
 20
10.9578208642
 10
-53.3940766997
 20
10.9666666987
 10
-53.4184771051
 20
10.9760452619
 10
-53.442639837
 20
10.9859621527
 10
-53.4665492114
 20
10.9964229698
 10
-53.4901895442
 20
11.0074333121
 10
-53.5135451517
 20
11.0189987783
 10
-53.5366003498
 20
11.0311249672
 10
-53.5555535679
 20
11.041653375
 10
-53.5742681669
 20
11.052580631
 10
-53.5927246436
 20
11.0639130094
 10
-53.6109034946
 20
11.0756567847
 10
-53.6287852167
 20
11.0878182312
 10
-53.6463503066
 20
11.1004036231
 10
-53.663579261
 20
11.1134192348
 10
-53.6804525766
 20
11.1268713407
 10
-53.6969507502
 20
11.140766215
 10
-53.7130542783
 20
11.1551101322
  0
LINE
  5
5CC
100
AcDbEntity
  8
0
100
AcDbLine
 62
250
  6
CONTINUOUS
 10
-48.5316839872
 20
11.6428571105
 11
-48.2602967435
 21
11.5071428895
  0
LINE
  5
5CD
100
AcDbEntity
  8
0
100
AcDbLine
 62
250
  6
CONTINUOUS
 10
-49.8886201207
 20
13.814285779
 11
-49.481539241
 21
13.542857337
  0
LINE
  5
5CE
100
AcDbEntity
  8
0
100
AcDbLine
 62
250
  6
CONTINUOUS
 10
-47.9889094999
 20
13.542857337
 11
-49.3458456899
 21
14.492857337
  0
LINE
  5
5CF
100
AcDbEntity
  8
0
100
AcDbLine
 62
250
  6
CONTINUOUS
 10
-47.9889094999
 20
12.864285779
 11
-48.1246031217
 21
13.0
  0
LINE
  5
5D0
100
AcDbEntity
  8
0
100
AcDbLine
 62
250
  6
CONTINUOUS
 10
-49.8886201207
 20
15.307142663
 11
-49.6172329053
 21
15.035714221
  0
LINE
  5
5D1
100
AcDbEntity
  8
0
100
AcDbLine
 62
250
  6
CONTINUOUS
 10
-47.9889094999
 20
15.307142663
 11
-48.5316839872
 21
15.85
  0
LINE
  5
5D2
100
AcDbEntity
  8
ASSI
100
AcDbLine
 62
7
  6
CONTINUOUS
 10
-35.0375539867
 20
-2.05
 11
-35.3536934632
 21
-1.4177210471
  0
LINE
  5
5D3
100
AcDbEntity
  8
0
100
AcDbLine
 62
250
  6
CONTINUOUS
 10
-36.715461233
 20
-10.932113
 11
-36.715461233
 21
-10.582053
  0
LINE
  5
5D4
100
AcDbEntity
  8
0
100
AcDbLine
 62
250
  6
CONTINUOUS
 10
-36.3430539611
 20
-10.582053
 11
-36.3430539611
 21
-10.932113
  0
LINE
  5
5D5
100
AcDbEntity
  8
0
100
AcDbLine
 62
7
  6
CONTINUOUS
 10
-36.2875539867
 20
-4.7763130582
 11
-36.2875539867
 21
-1.4236869418
  0
LINE
  5
5D6
100
AcDbEntity
  8
0
100
AcDbLine
 62
250
  6
CONTINUOUS
 10
-36.2506520365
 20
-12.21193
 11
-36.2506520365
 21
-11.38859
  0
LINE
  5
5D7
100
AcDbEntity
  8
0
100
AcDbLine
 62
250
  6
CONTINUOUS
 10
-36.0350488789
 20
-11.38859
 11
-36.0350488789
 21
-12.21193
  0
LINE
  5
5D8
100
AcDbEntity
  8
0
100
AcDbLine
 62
7
  6
CONTINUOUS
 10
-35.8375539867
 20
-4.7791878479
 11
-35.8375539867
 21
-1.4208121521
  0
LINE
  5
5D9
100
AcDbEntity
  8
ASSI
100
AcDbLine
 62
7
  6
CONTINUOUS
 10
-35.0375539867
 20
-2.05
 11
-35.0375539867
 21
-2.45
  0
LINE
  5
5DA
100
AcDbEntity
  8
0
100
AcDbLine
 62
250
  6
CONTINUOUS
 10
-34.5642486316
 20
1.8285714164
 11
-34.5642486316
 21
1.0142856658
  0
LWPOLYLINE
  5
5DB
100
AcDbEntity
  8
0
100
AcDbPolyline
 62
250
  6
CONTINUOUS
 90
8
 70
0
 10
-41.5051002452
 20
-10.428126
 10
-41.1453410767
 20
-10.307918064
 10
-40.819105796
 20
-10.1143873028
 10
-40.541129867
 20
-9.8562751548
 10
-40.3209747195
 20
-9.5397761207
 10
-40.1756597322
 20
-9.1893575688
 10
-40.1076674047
 20
-8.8161395686
 10
-40.1211195101
 20
-8.4295900283
  0
LINE
  5
5DC
100
AcDbEntity
  8
0
100
AcDbLine
 62
250
  6
CONTINUOUS
 10
-52.3593766286
 20
-14.778839
 11
-54.3556654007
 21
-15.419971
  0
LINE
  5
5DD
100
AcDbEntity
  8
0
100
AcDbLine
 62
250
  6
CONTINUOUS
 10
-54.3556654007
 20
-16.0
 11
-51.4564107436
 21
-15.068868
  0
LWPOLYLINE
  5
5DE
100
AcDbEntity
  8
0
100
AcDbPolyline
 62
250
  6
CONTINUOUS
 90
34
 70
0
 10
-52.9064519236
 20
13.1507078752
 10
-52.9421430618
 20
13.150359886
 10
-52.9778991622
 20
13.1493152889
 10
-53.0136988877
 20
13.1475731399
 10
-53.0495209011
 20
13.145132495
 10
-53.0853438654
 20
13.14199241
 10
-53.1211464432
 20
13.1381519409
 10
-53.1569072976
 20
13.1336101437
 10
-53.1926050913
 20
13.1283660743
 10
-53.2282184871
 20
13.1224187885
 10
-53.263726148
 20
13.1157673425
 10
-53.2991067367
 20
13.108410792
 10
-53.3343389161
 20
13.100348193
 10
-53.3694013491
 20
13.0915786015
 10
-53.4042726985
 20
13.0821010735
 10
-53.438931627
 20
13.0719146647
 10
-53.4733567977
 20
13.0610184312
 10
-53.5075268733
 20
13.049411429
 10
-53.5414205167
 20
13.0370927139
 10
-53.5750163907
 20
13.0240613418
 10
-53.6082931581
 20
13.0103163689
 10
-53.6412294818
 20
12.9958568508
 10
-53.6738040247
 20
12.9806818437
 10
-53.7059954496
 20
12.9647904034
 10
-53.7377824193
 20
12.9481815859
 10
-53.7656713512
 20
12.9328183896
 10
-53.793201494
 20
12.9168790961
 10
-53.8203502906
 20
12.9003548392
 10
-53.8470951837
 20
12.8832367525
 10
-53.8734136164
 20
12.86551597
 10
-53.8992830315
 20
12.8471836254
 10
-53.9246808719
 20
12.8282308525
 10
-53.9495845805
 20
12.8086487852
 10
-53.9739716002
 20
12.7884285572
  0
LINE
  5
5DF
100
AcDbEntity
  8
0
100
AcDbLine
 62
250
  6
CONTINUOUS
 10
-49.2101520256
 20
12.9547618508
 11
-49.6172329053
 21
12.9547618508
  0
LINE
  5
5E0
100
AcDbEntity
  8
0
100
AcDbLine
 62
250
  6
CONTINUOUS
 10
-48.1246031217
 20
13.0
 11
-48.8030712026
 21
13.0
  0
LINE
  5
5E1
100
AcDbEntity
  8
0
100
AcDbLine
 62
250
  6
CONTINUOUS
 10
-51.4570545474
 20
13.66021
 11
-54.3552655226
 21
13.66021
  0
LWPOLYLINE
  5
5E2
100
AcDbEntity
  8
0
100
AcDbPolyline
 62
250
  6
CONTINUOUS
 90
36
 70
0
 10
-52.906170669
 20
12.6297219488
 10
-52.8802349118
 20
12.6295078403
 10
-52.8542388399
 20
12.6288617828
 10
-52.8281981364
 20
12.6277781786
 10
-52.8021284841
 20
12.6262514298
 10
-52.7760455658
 20
12.6242759387
 10
-52.7499650645
 20
12.6218461074
 10
-52.723902663
 20
12.6189563381
 10
-52.6978740441
 20
12.6156010329
 10
-52.6718948908
 20
12.6117745942
 10
-52.6459808859
 20
12.6074714241
 10
-52.6201477123
 20
12.6026859247
 10
-52.5944110529
 20
12.5974124983
 10
-52.5687865905
 20
12.591645547
 10
-52.5432900081
 20
12.5853794731
 10
-52.5179369884
 20
12.5786086787
 10
-52.4927432144
 20
12.571327566
 10
-52.4677243689
 20
12.5635305372
 10
-52.4428961348
 20
12.5552119945
 10
-52.418274195
 20
12.5463663401
 10
-52.3938742323
 20
12.5369879762
 10
-52.3697119297
 20
12.5270713049
 10
-52.3458029699
 20
12.5166107285
 10
-52.322163036
 20
12.5056006491
 10
-52.2988078106
 20
12.494035469
 10
-52.2757529768
 20
12.4819095903
 10
-52.2568000487
 20
12.4713814585
 10
-52.2380857329
 20
12.4604544888
 10
-52.219629539
 20
12.4491223995
 10
-52.2014509765
 20
12.4373789092
 10
-52.1835695552
 20
12.4252177363
 10
-52.1660047845
 20
12.4126325993
 10
-52.1487761741
 20
12.3996172167
 10
-52.1319032336
 20
12.3861653068
 10
-52.1154054727
 20
12.3722705882
 10
-52.0993024009
 20
12.3579267794
  0
LINE
  5
5E3
100
AcDbEntity
  8
0
100
AcDbLine
 62
250
  6
CONTINUOUS
 10
-30.1006428699
 20
2.4452381492
 11
-30.3720300852
 21
2.6714285553
  0
LINE
  5
5E4
100
AcDbEntity
  8
0
100
AcDbLine
 62
250
  6
CONTINUOUS
 10
-33.4929831752
 20
3.7571428329
 11
-32.5431278648
 21
2.9428571105
  0
LINE
  5
5E5
100
AcDbEntity
  8
0
100
AcDbLine
 62
250
  6
CONTINUOUS
 10
-33.3572896241
 20
2.4
 11
-33.4929831752
 21
2.5357143342
  0
LINE
  5
5E6
100
AcDbEntity
  8
0
100
AcDbLine
 62
250
  6
CONTINUOUS
 10
-33.7166070426
 20
-12.774826
 11
-33.7166070426
 21
-11.428959
  0
LINE
  5
5E7
100
AcDbEntity
  8
0
100
AcDbLine
 62
250
  6
CONTINUOUS
 10
-33.5201889626
 20
-12.600497
 11
-33.5201889626
 21
-12.718117
  0
LINE
  5
5E8
100
AcDbEntity
  8
0
100
AcDbLine
 62
250
  6
CONTINUOUS
 10
-33.4929831752
 20
4.0285714164
 11
-33.4929831752
 21
3.7571428329
  0
LINE
  5
5E9
100
AcDbEntity
  8
0
100
AcDbLine
 62
250
  6
CONTINUOUS
 10
-32.5431278648
 20
2.9428571105
 11
-32.5431278648
 21
2.6714285553
  0
LINE
  5
5EA
100
AcDbEntity
  8
ASSI
100
AcDbLine
 62
7
  6
CONTINUOUS
 10
-32.5375539867
 20
-2.05
 11
-32.5375539867
 21
-2.45
  0
LINE
  5
5EB
100
AcDbEntity
  8
ASSI
100
AcDbLine
 62
7
  6
CONTINUOUS
 10
-32.2113772901
 20
-1.3976466066
 11
-32.5375539867
 21
-2.05
  0
LWPOLYLINE
  5
5EC
100
AcDbEntity
  8
0
100
AcDbPolyline
 62
250
  6
CONTINUOUS
 90
36
 70
0
 10
-37.2314752197
 20
-10.896457109
 10
-37.2446170596
 20
-10.9098920862
 10
-37.2573574571
 20
-10.9237030913
 10
-37.2697021092
 20
-10.937875713
 10
-37.2816567133
 20
-10.9523955398
 10
-37.2932269666
 20
-10.9672481603
 10
-37.3044185661
 20
-10.982419163
 10
-37.3152372091
 20
-10.9978941366
 10
-37.3256885929
 20
-11.0136586695
 10
-37.3357784145
 20
-11.0296983504
 10
-37.3455123713
 20
-11.0459987678
 10
-37.3548961603
 20
-11.0625455103
 10
-37.3639354788
 20
-11.0793241664
 10
-37.372636024
 20
-11.0963203247
 10
-37.381003493
 20
-11.1135195738
 10
-37.3890435831
 20
-11.1309075021
 10
-37.3967619915
 20
-11.1484696984
 10
-37.4041644153
 20
-11.1661917511
 10
-37.4112565518
 20
-11.1840592489
 10
-37.4180440981
 20
-11.2020577802
 10
-37.4245327514
 20
-11.2201729336
 10
-37.430728209
 20
-11.2383902978
 10
-37.436636168
 20
-11.2566954612
 10
-37.4422623256
 20
-11.2750740125
 10
-37.4476123791
 20
-11.2935115401
 10
-37.4526920255
 20
-11.3119936328
 10
-37.4575069622
 20
-11.3305058789
 10
-37.4620628862
 20
-11.3490338671
 10
-37.4663654949
 20
-11.367563186
 10
-37.4722098787
 20
-11.3945897746
 10
-37.4775885515
 20
-11.4215995436
 10
-37.4825633098
 20
-11.4486035397
 10
-37.4871959501
 20
-11.4756128096
 10
-37.4915482691
 20
-11.5026384001
 10
-37.4956820631
 20
-11.5296913578
 10
-37.5035412626
 20
-11.5839235619
  0
LINE
  5
5ED
100
AcDbEntity
  8
0
100
AcDbLine
 62
7
  6
CONTINUOUS
 10
-60.3875539867
 20
-23.1226497308
 11
-61.2625539867
 21
-23.6278312164
  0
LINE
  5
5EE
100
AcDbEntity
  8
0
100
AcDbLine
 62
250
  6
CONTINUOUS
 10
-60.1390084196
 20
-23.2669872981
 11
-61.1390084196
 21
-23.8443375673
  0
LINE
  5
5EF
100
AcDbEntity
  8
0
100
AcDbLine
 62
250
  6
CONTINUOUS
 10
-49.3458456899
 20
14.492857337
 11
-49.6172329053
 21
14.492857337
  0
LINE
  5
5F0
100
AcDbEntity
  8
0
100
AcDbLine
 62
250
  6
CONTINUOUS
 10
-49.6172329053
 20
15.035714221
 11
-49.0744584746
 21
15.035714221
  0
LINE
  5
5F1
100
AcDbEntity
  8
0
100
AcDbLine
 62
250
  6
CONTINUOUS
 10
-52.308315186
 20
15.502999
 11
-54.3552655226
 21
15.503009
  0
LINE
  5
5F2
100
AcDbEntity
  8
0
100
AcDbLine
 62
250
  6
CONTINUOUS
 10
-49.0744584746
 20
15.985714221
 11
-49.6172329053
 21
15.985714221
  0
LINE
  5
5F3
100
AcDbEntity
  8
0
100
AcDbLine
 62
250
  6
CONTINUOUS
 10
-54.3552655226
 20
16.001437
 11
-51.4570545474
 21
16.001437
  0
LINE
  5
5F4
100
AcDbEntity
  8
0
100
AcDbLine
 62
250
  6
CONTINUOUS
 10
-53.481663691
 20
14.165656
 11
-51.4570545474
 21
14.158632
  0
LINE
  5
5F5
100
AcDbEntity
  8
0
100
AcDbLine
 62
250
  6
CONTINUOUS
 10
-48.5316839872
 20
15.85
 11
-49.0744584746
 21
15.985714221
  0
LINE
  5
5F6
100
AcDbEntity
  8
0
100
AcDbLine
 62
7
  6
CONTINUOUS
 10
-61.2625539867
 20
23.6278312164
 11
-60.3875539867
 21
23.1226497308
  0
LINE
  5
5F7
100
AcDbEntity
  8
0
100
AcDbLine
 62
250
  6
CONTINUOUS
 10
-61.1390084196
 20
23.8443375673
 11
-60.1390084196
 21
23.2669872981
  0
LINE
  5
5F8
100
AcDbEntity
  8
0
100
AcDbLine
 62
250
  6
CONTINUOUS
 10
-32.5431278648
 20
4.1642857082
 11
-32.6788216423
 21
4.3
  0
LINE
  5
5F9
100
AcDbEntity
  8
0
100
AcDbLine
 62
250
  6
CONTINUOUS
 10
-31.0504981236
 20
4.0285714164
 11
-31.321885339
 21
4.3
  0
LINE
  5
5FA
100
AcDbEntity
  8
0
100
AcDbLine
 62
250
  6
CONTINUOUS
 10
-30.2363364775
 20
3.35
 11
-30.5077236929
 21
3.6214285553
  0
LINE
  5
5FB
100
AcDbEntity
  8
ASSI
100
AcDbLine
 62
7
  6
CONTINUOUS
 10
-30.0375539867
 20
-2.05
 11
-30.3696136647
 21
-1.3858806442
  0
LINE
  5
5FC
100
AcDbEntity
  8
0
100
AcDbLine
 62
250
  6
CONTINUOUS
 10
-32.000353434
 20
4.0285714164
 11
-32.000353434
 21
2.4
  0
LINE
  5
5FD
100
AcDbEntity
  8
0
100
AcDbLine
 62
250
  6
CONTINUOUS
 10
-31.9064107863
 20
-14.092362
 11
-31.9064107863
 21
-9.907638
  0
LINE
  5
5FE
100
AcDbEntity
  8
0
100
AcDbLine
 62
7
  6
CONTINUOUS
 10
-31.7375539867
 20
-4.8053803764
 11
-31.7375539867
 21
-1.3946196236
  0
LINE
  5
5FF
100
AcDbEntity
  8
0
100
AcDbLine
 62
250
  6
CONTINUOUS
 10
-31.0504981236
 20
2.4
 11
-31.0504981236
 21
4.0285714164
  0
LINE
  5
600
100
AcDbEntity
  8
0
100
AcDbLine
 62
250
  6
CONTINUOUS
 10
-30.8875539867
 20
-9.907638
 11
-30.8875539867
 21
-14.092362
  0
LINE
  5
601
100
AcDbEntity
  8
0
100
AcDbLine
 62
7
  6
CONTINUOUS
 10
-30.8375539867
 20
-4.8111299558
 11
-30.8375539867
 21
-1.3888700442
  0
LINE
  5
602
100
AcDbEntity
  8
0
100
AcDbLine
 62
250
  6
CONTINUOUS
 10
-30.5077236929
 20
3.6214285553
 11
-30.5077236929
 21
4.0285714164
  0
LINE
  5
603
100
AcDbEntity
  8
0
100
AcDbLine
 62
250
  6
CONTINUOUS
 10
-30.3720300852
 20
2.6714285553
 11
-30.3720300852
 21
3.0785714447
  0
LINE
  5
604
100
AcDbEntity
  8
ASSI
100
AcDbLine
 62
7
  6
CONTINUOUS
 10
-30.0375539867
 20
-2.05
 11
-30.0375539867
 21
-2.45
  0
LINE
  5
605
100
AcDbEntity
  8
0
100
AcDbLine
 62
250
  6
CONTINUOUS
 10
-37.9628012282
 20
-14.50013
 11
-32.9862732929
 21
-9.768444
  0
LINE
  5
606
100
AcDbEntity
  8
0
100
AcDbLine
 62
7
  6
CONTINUOUS
 10
-57.8875539867
 20
18.5082905244
 11
-56.8875539867
 21
18.5046757374
  0
LINE
  5
607
100
AcDbEntity
  8
0
100
AcDbLine
 62
250
  6
CONTINUOUS
 10
-46.8875539867
 20
17.5993978025
 11
-56.8875539867
 21
17.6716990487
  0
LINE
  5
608
100
AcDbEntity
  8
0
100
AcDbLine
 62
250
  6
CONTINUOUS
 10
-65.8215909252
 20
21.1361579495
 11
-66.2620297058
 21
21.2033438589
  0
LINE
  5
609
100
AcDbEntity
  8
0
100
AcDbLine
 62
250
  6
CONTINUOUS
 10
-66.2620297058
 20
21.2033438589
 11
-66.2908435229
 21
21.2079026505
  0
LWPOLYLINE
  5
60A
100
AcDbEntity
  8
0
100
AcDbPolyline
 62
250
  6
CONTINUOUS
 90
6
 70
0
 10
-66.2908435229
 20
21.2079026505
 10
-66.2999602175
 20
21.2093884211
 10
-66.3031619579
 20
21.2099274063
 10
-66.3054507821
 20
21.2103290353
 10
-66.3068224284
 20
21.2105925604
 10
-66.3072743428
 20
21.2107174909
  0
LINE
  5
60B
100
AcDbEntity
  8
0
100
AcDbLine
 62
7
  6
CONTINUOUS
 10
-56.8875539867
 20
18.1473460386
 11
-58.8875539867
 21
18.5
  0
LINE
  5
60C
100
AcDbEntity
  8
0
100
AcDbLine
 62
250
  6
CONTINUOUS
 10
-29.5578683825
 20
4.3
 11
-29.5578683825
 21
2.4
  0
LINE
  5
60D
100
AcDbEntity
  8
0
100
AcDbLine
 62
250
  6
CONTINUOUS
 10
-28.7651319997
 20
1.8285714164
 11
-28.7651319997
 21
1.0142856658
  0
LINE
  5
60E
100
AcDbEntity
  8
ASSI
100
AcDbLine
 62
7
  6
CONTINUOUS
 10
-27.1941278221
 20
-1.3631476707
 11
-27.5375539867
 21
-2.05
  0
LINE
  5
60F
100
AcDbEntity
  8
0
100
AcDbLine
 62
7
  6
CONTINUOUS
 10
-31.9064107863
 20
-10.3027692693
 11
-31.511279517
 21
-9.907638
  0
LINE
  5
610
100
AcDbEntity
  8
0
100
AcDbLine
 62
7
  6
CONTINUOUS
 10
-31.9064107863
 20
-10.6979005387
 11
-31.1161482476
 21
-9.907638
  0
LINE
  5
611
100
AcDbEntity
  8
0
100
AcDbLine
 62
7
  6
CONTINUOUS
 10
-31.9064107863
 20
-11.093031808
 11
-30.8875539867
 21
-10.0741750084
  0
LINE
  5
612
100
AcDbEntity
  8
0
100
AcDbLine
 62
7
  6
CONTINUOUS
 10
-31.9064107863
 20
-11.4881630773
 11
-30.8875539867
 21
-10.4693062778
  0
LINE
  5
613
100
AcDbEntity
  8
0
100
AcDbLine
 62
7
  6
CONTINUOUS
 10
-31.9064107863
 20
-11.8832943466
 11
-30.8875539867
 21
-10.8644375471
  0
LINE
  5
614
100
AcDbEntity
  8
0
100
AcDbLine
 62
7
  6
CONTINUOUS
 10
-31.9064107863
 20
-12.278425616
 11
-30.8875539867
 21
-11.2595688164
  0
LINE
  5
615
100
AcDbEntity
  8
0
100
AcDbLine
 62
7
  6
CONTINUOUS
 10
-31.9064107863
 20
-12.6735568853
 11
-30.8875539867
 21
-11.6547000858
  0
LINE
  5
616
100
AcDbEntity
  8
0
100
AcDbLine
 62
7
  6
CONTINUOUS
 10
-46.8875539867
 20
20.9
 11
-57.8875539867
 21
20.9
  0
LINE
  5
617
100
AcDbEntity
  8
0
100
AcDbLine
 62
250
  6
CONTINUOUS
 10
-46.8875539867
 20
19.0133959733
 11
-56.8875539867
 21
19.0856972195
  0
LINE
  5
618
100
AcDbEntity
  8
0
100
AcDbLine
 62
7
  6
CONTINUOUS
 10
-57.8875539867
 20
19.5
 11
-56.8875539867
 21
19.4912731322
  0
LINE
  5
619
100
AcDbEntity
  8
0
100
AcDbLine
 62
7
  6
CONTINUOUS
 10
-56.8875539867
 20
20.85
 11
-46.8875539867
 21
20.6754493507
  0
LINE
  5
61A
100
AcDbEntity
  8
0
100
AcDbLine
 62
250
  6
CONTINUOUS
 10
-25.2663532189
 20
-18.3682197652
 11
-25.2701015803
 21
-18.1228182695
  0
LINE
  5
61B
100
AcDbEntity
  8
0
100
AcDbLine
 62
250
  6
CONTINUOUS
 10
-25.2641047577
 20
-18.5742018347
 11
-25.2663532189
 21
-18.3682197652
  0
LINE
  5
61C
100
AcDbEntity
  8
0
100
AcDbLine
 62
250
  6
CONTINUOUS
 10
-25.2630657516
 20
-18.7368362686
 11
-25.2641047577
 21
-18.5742018347
  0
LINE
  5
61D
100
AcDbEntity
  8
0
100
AcDbLine
 62
250
  6
CONTINUOUS
 10
-25.2628786565
 20
-18.8199016638
 11
-25.2630657516
 21
-18.7368362686
  0
LINE
  5
61E
100
AcDbEntity
  8
ASSI
100
AcDbLine
 62
7
  6
CONTINUOUS
 10
-27.5375539867
 20
-2.05
 11
-27.5375539867
 21
-2.45
  0
LINE
  5
61F
100
AcDbEntity
  8
0
100
AcDbLine
 62
7
  6
CONTINUOUS
 10
-26.7375539867
 20
-4.8408367888
 11
-26.7375539867
 21
-1.3591632112
  0
LINE
  5
620
100
AcDbEntity
  8
0
100
AcDbLine
 62
7
  6
CONTINUOUS
 10
-26.2875539867
 20
-4.8447638793
 11
-26.2875539867
 21
-1.3552361207
  0
LINE
  5
621
100
AcDbEntity
  8
0
100
AcDbLine
 62
7
  6
CONTINUOUS
 10
-25.6875539867
 20
-4.85
 11
-25.6875539867
 21
-1.35
  0
LINE
  5
622
100
AcDbEntity
  8
0
100
AcDbLine
 62
250
  6
CONTINUOUS
 10
-25.2635499856
 20
5.246320414
 11
-25.2629348348
 21
5.3793655359
  0
LINE
  5
623
100
AcDbEntity
  8
0
100
AcDbLine
 62
250
  6
CONTINUOUS
 10
-25.2653828333
 20
5.0474076599
 11
-25.2635499856
 21
5.246320414
  0
LINE
  5
624
100
AcDbEntity
  8
0
100
AcDbLine
 62
250
  6
CONTINUOUS
 10
-25.2687206754
 20
4.8053690679
 11
-25.2653828333
 21
5.0474076599
  0
LINE
  5
625
100
AcDbEntity
  8
0
100
AcDbLine
 62
250
  6
CONTINUOUS
 10
-25.2701015803
 20
4.7228182695
 11
-25.2687206754
 21
4.8053690679
  0
LINE
  5
626
100
AcDbEntity
  8
0
100
AcDbLine
 62
7
  6
CONTINUOUS
 10
-31.9064107863
 20
-13.0686881546
 11
-30.8875539867
 21
-12.0498313551
  0
LINE
  5
627
100
AcDbEntity
  8
0
100
AcDbLine
 62
7
  6
CONTINUOUS
 10
-31.9064107863
 20
-13.4638194239
 11
-30.8875539867
 21
-12.4449626244
  0
LINE
  5
628
100
AcDbEntity
  8
0
100
AcDbLine
 62
7
  6
CONTINUOUS
 10
-31.9064107863
 20
-13.8589506933
 11
-30.8875539867
 21
-12.8400938937
  0
LINE
  5
629
100
AcDbEntity
  8
0
100
AcDbLine
 62
7
  6
CONTINUOUS
 10
-31.7446908237
 20
-14.092362
 11
-30.8875539867
 21
-13.2352251631
  0
LINE
  5
62A
100
AcDbEntity
  8
0
100
AcDbLine
 62
7
  6
CONTINUOUS
 10
-31.3495595544
 20
-14.092362
 11
-30.8875539867
 21
-13.6303564324
  0
LINE
  5
62B
100
AcDbEntity
  8
0
100
AcDbLine
 62
7
  6
CONTINUOUS
 10
-30.954428285
 20
-14.092362
 11
-30.8875539867
 21
-14.0254877017
  0
LWPOLYLINE
  5
62C
100
AcDbEntity
  8
0
100
AcDbPolyline
 62
250
  6
CONTINUOUS
 90
43
 70
0
 10
-65.3533492809
 20
21.5609131753
 10
-65.3696232125
 20
21.559792927
 10
-65.385820741
 20
21.5581477697
 10
-65.4019418665
 20
21.5559777033
 10
-65.4180044798
 20
21.5532792661
 10
-65.43399069
 20
21.5500559198
 10
-65.4498468246
 20
21.5463180499
 10
-65.4655715806
 20
21.5420640567
 10
-65.4811662609
 20
21.5372955399
 10
-65.4965811019
 20
21.5320276846
 10
-65.5118154619
 20
21.5262589115
 10
-65.5268699826
 20
21.5199907999
 10
-65.5416968255
 20
21.5132432737
 10
-65.5562952786
 20
21.5060148076
 10
-65.5706660538
 20
21.4983069269
 10
-65.5847634489
 20
21.4901441316
 10
-65.5985866237
 20
21.4815249483
 10
-65.6121364184
 20
21.4724508504
 10
-65.6253696508
 20
21.4629507581
 10
-65.6382852848
 20
21.4530233274
 10
-65.6508843565
 20
21.4426699022
 10
-65.6631267924
 20
21.4319234354
 10
-65.6750114499
 20
21.4207826821
 10
-65.6865394714
 20
21.4092488871
 10
-65.6976742106
 20
21.397358737
 10
-65.7084144268
 20
21.3851110826
 10
-65.7187613606
 20
21.3725070732
 10
-65.7286820878
 20
21.3595868432
 10
-65.7381752365
 20
21.3463494023
 10
-65.7472421787
 20
21.3327957409
 10
-65.7558541065
 20
21.3189689649
 10
-65.764009572
 20
21.3048682201
 10
-65.7717100232
 20
21.2904943605
 10
-65.7789309958
 20
21.2758930542
 10
-65.7856709774
 20
21.2610635093
 10
-65.7919314804
 20
21.2460065175
 10
-65.7976925774
 20
21.2307701221
 10
-65.8029528429
 20
21.2153526486
 10
-65.8077137024
 20
21.1997557715
 10
-65.8119595055
 20
21.1840325564
 10
-65.8156850352
 20
21.168200692
 10
-65.8188955085
 20
21.1522424897
 10
-65.8215909252
 20
21.1361579495
  0
LINE
  5
62D
100
AcDbEntity
  8
0
100
AcDbLine
 62
250
  6
CONTINUOUS
 10
-58.8875311433
 20
21.8997723451
 11
-65.3533492809
 21
21.5609131753
  0
LINE
  5
62E
100
AcDbEntity
  8
0
100
AcDbLine
 62
7
  6
CONTINUOUS
 10
-58.8875539867
 20
22.4
 11
-65.3707910558
 21
22.0602279426
  0
LINE
  5
62F
100
AcDbEntity
  8
0
100
AcDbLine
 62
250
  6
CONTINUOUS
 10
-60.1390084196
 20
22.5346275426
 11
-58.8875539867
 21
22.6002134903
  0
LINE
  5
630
100
AcDbEntity
  8
0
100
AcDbLine
 62
7
  6
CONTINUOUS
 10
-47.3788277835
 20
21.4537354271
 11
-57.8875539867
 21
21.4
  0
LINE
  5
631
100
AcDbEntity
  8
0
100
AcDbLine
 62
250
  6
CONTINUOUS
 10
-57.8875539867
 20
21.8941990932
 11
-58.8875539867
 21
21.900016923
  0
LINE
  5
632
100
AcDbEntity
  8
0
100
AcDbLine
 62
7
  6
CONTINUOUS
 10
-47.8817362554
 20
22.3359700255
 11
-58.8875539867
 21
22.4
  0
LWPOLYLINE
  5
633
100
AcDbEntity
  8
0
100
AcDbPolyline
 62
7
  6
CONTINUOUS
 90
10
 70
0
 43
0.3500000087
 10
-40.337552182
 20
33.7769069
 10
-40.2661247589
 20
33.6340520538
 10
-40.2661247589
 20
33.5626203674
 10
-40.4089838684
 20
33.4197655212
 10
-40.4804112915
 20
33.4197655212
 10
-40.5518387146
 20
33.4911929443
 10
-40.5518387146
 20
33.5626203674
 10
-40.4804112915
 20
33.7054794769
 10
-40.4089838684
 20
33.7769069
 10
-40.337552182
 20
33.7769069
  0
LWPOLYLINE
  5
634
100
AcDbEntity
  8
0
100
AcDbPolyline
 62
7
  6
CONTINUOUS
 90
10
 70
0
 43
0.3500000087
 10
-44.6589837555
 20
43.9607546692
 10
-44.5875520691
 20
43.8178955597
 10
-44.5875520691
 20
43.7464681366
 10
-44.7304111786
 20
43.6036090271
 10
-44.8018386017
 20
43.6036090271
 10
-44.8732702881
 20
43.6750364502
 10
-44.8732702881
 20
43.7464681366
 10
-44.8018386017
 20
43.8893229828
 10
-44.7304111786
 20
43.9607546692
 10
-44.6589837555
 20
43.9607546692
  0
LWPOLYLINE
  5
635
100
AcDbEntity
  8
0
100
AcDbPolyline
 62
250
  6
CONTINUOUS
 90
13
 70
0
 10
-25.2653828333
 20
5.6684134089
 10
-25.2656897801
 20
5.6770045606
 10
-25.2660133239
 20
5.6848713976
 10
-25.2663532189
 20
5.6920079482
 10
-25.2667092073
 20
5.6984087952
 10
-25.2670810188
 20
5.7040690798
 10
-25.2674683712
 20
5.7089845052
 10
-25.2678709704
 20
5.7131513401
 10
-25.2682885107
 20
5.7165664217
 10
-25.2687206754
 20
5.7192271575
 10
-25.2691671362
 20
5.7211315278
 10
-25.2696275544
 20
5.7222780869
 10
-25.2701015803
 20
5.7226659647
  0
LINE
  5
636
100
AcDbEntity
  8
0
100
AcDbLine
 62
250
  6
CONTINUOUS
 10
-25.2648196497
 20
5.6490847921
 11
-25.2653828333
 21
5.6684134089
  0
LINE
  5
637
100
AcDbEntity
  8
0
100
AcDbLine
 62
250
  6
CONTINUOUS
 10
-25.2643254828
 20
5.6269442249
 11
-25.2648196497
 21
5.6490847921
  0
LINE
  5
638
100
AcDbEntity
  8
0
100
AcDbLine
 62
250
  6
CONTINUOUS
 10
-25.2639018327
 20
5.6020589213
 11
-25.2643254828
 21
5.6269442249
  0
LINE
  5
639
100
AcDbEntity
  8
0
100
AcDbLine
 62
250
  6
CONTINUOUS
 10
-25.2634013306
 20
5.559752066
 11
-25.2639018327
 21
5.6020589213
  0
LINE
  5
63A
100
AcDbEntity
  8
0
100
AcDbLine
 62
250
  6
CONTINUOUS
 10
-25.2629909704
 20
5.4945086887
 11
-25.2634013306
 21
5.559752066
  0
LINE
  5
63B
100
AcDbEntity
  8
0
100
AcDbLine
 62
250
  6
CONTINUOUS
 10
-25.2701015803
 20
4.7228182695
 11
-25.2701015803
 21
-1.0053341455
  0
LINE
  5
63C
100
AcDbEntity
  8
0
100
AcDbLine
 62
250
  6
CONTINUOUS
 10
-25.2701015803
 20
-5.1946658545
 11
-25.2701015803
 21
-18.1228182695
  0
LINE
  5
63D
100
AcDbEntity
  8
0
100
AcDbLine
 62
7
  6
CONTINUOUS
 10
-24.2875539867
 20
-18.1228182695
 11
-24.2875539867
 21
4.7228182695
  0
LWPOLYLINE
  5
63E
100
AcDbEntity
  8
0
100
AcDbPolyline
 62
250
  6
CONTINUOUS
 90
3
 70
0
 10
-25.2629348348
 20
5.3793655359
 10
-25.2628973873
 20
5.3998905798
 10
-25.2629909704
 20
5.4945086887
  0
LINE
  5
63F
100
AcDbEntity
  8
0
100
AcDbLine
 62
250
  6
CONTINUOUS
 10
-25.2630657516
 20
-18.9117303198
 11
-25.2628786565
 21
-18.8199016638
  0
LINE
  5
640
100
AcDbEntity
  8
0
100
AcDbLine
 62
250
  6
CONTINUOUS
 10
-25.2634013306
 20
-18.959752066
 11
-25.2630657516
 21
-18.9117303198
  0
LINE
  5
641
100
AcDbEntity
  8
0
100
AcDbLine
 62
250
  6
CONTINUOUS
 10
-25.2639018327
 20
-19.0020589213
 11
-25.2634013306
 21
-18.959752066
  0
LINE
  5
642
100
AcDbEntity
  8
0
100
AcDbLine
 62
250
  6
CONTINUOUS
 10
-25.2643254828
 20
-19.0269442249
 11
-25.2639018327
 21
-19.0020589213
  0
LINE
  5
643
100
AcDbEntity
  8
0
100
AcDbLine
 62
250
  6
CONTINUOUS
 10
-25.2648196497
 20
-19.0490847921
 11
-25.2643254828
 21
-19.0269442249
  0
LINE
  5
644
100
AcDbEntity
  8
0
100
AcDbLine
 62
250
  6
CONTINUOUS
 10
-60.3875539867
 20
22.5111812444
 11
-60.1390084196
 21
22.5346275426
  0
LINE
  5
645
100
AcDbEntity
  8
0
100
AcDbLine
 62
250
  6
CONTINUOUS
 10
-61.1390084196
 20
24.2369056521
 11
-58.8875539867
 21
24.2500042308
  0
LINE
  5
646
100
AcDbEntity
  8
0
100
AcDbLine
 62
7
  6
CONTINUOUS
 10
-61.1390084196
 20
24.4869014213
 11
-58.8875539867
 21
24.5
  0
LINE
  5
647
100
AcDbEntity
  8
0
100
AcDbLine
 62
250
  6
CONTINUOUS
 10
-61.3875539867
 20
23.8443375673
 11
-61.1390084196
 21
23.8443375673
  0
LINE
  5
648
100
AcDbEntity
  8
0
100
AcDbLine
 62
250
  6
CONTINUOUS
 10
-57.8875539867
 20
23.8443375673
 11
-58.1360995539
 21
23.8443375673
  0
LINE
  5
649
100
AcDbEntity
  8
0
100
AcDbLine
 62
250
  6
CONTINUOUS
 10
-61.3875539867
 20
24.2369056521
 11
-61.1390084196
 21
24.2369056521
  0
LINE
  5
64A
100
AcDbEntity
  8
0
100
AcDbLine
 62
250
  6
CONTINUOUS
 10
-57.8875539867
 20
24.2456323968
 11
-58.1360995539
 21
24.2456323968
  0
LINE
  5
64B
100
AcDbEntity
  8
0
100
AcDbLine
 62
7
  6
CONTINUOUS
 10
-57.8866822459
 20
23.9941770985
 11
-51.3846451211
 21
23.9563493531
  0
LINE
  5
64C
100
AcDbEntity
  8
0
100
AcDbLine
 62
250
  6
CONTINUOUS
 10
-58.8875539867
 20
24.2500042308
 11
-58.1360995539
 21
24.2456323968
  0
LINE
  5
64D
100
AcDbEntity
  8
0
100
AcDbLine
 62
7
  6
CONTINUOUS
 10
-58.8875539867
 20
24.5
 11
-58.1360995539
 21
24.495628166
  0
LWPOLYLINE
  5
64E
100
AcDbEntity
  8
0
100
AcDbPolyline
 62
250
  6
CONTINUOUS
 90
14
 70
0
 10
-25.2701015803
 20
-19.1226659647
 10
-25.2696275544
 20
-19.1222780869
 10
-25.2691671362
 20
-19.1211315278
 10
-25.2687206754
 20
-19.1192271575
 10
-25.2682885107
 20
-19.1165664217
 10
-25.2678709704
 20
-19.1131513401
 10
-25.2674683712
 20
-19.1089845052
 10
-25.2670810188
 20
-19.1040690798
 10
-25.2667092073
 20
-19.0984087952
 10
-25.2663532189
 20
-19.0920079482
 10
-25.2660133239
 20
-19.0848713976
 10
-25.2656897801
 20
-19.0770045606
 10
-25.2653828333
 20
-19.0684134089
 10
-25.2648196497
 20
-19.0490847921
  0
LWPOLYLINE
  5
64F
100
AcDbEntity
  8
0
100
AcDbPolyline
 62
7
  6
CONTINUOUS
 90
6
 70
0
 43
0.3500000087
 10
-45.2661253784
 20
33.2769064117
 10
-44.1946969788
 20
33.2769064117
 10
-43.9804104462
 20
33.4911929443
 10
-43.9804104462
 20
34.562621344
 10
-44.4089835114
 20
34.9911944092
 10
-44.8375523132
 20
34.9911944092
  0
LWPOLYLINE
  5
650
100
AcDbEntity
  8
0
100
AcDbPolyline
 62
7
  6
CONTINUOUS
 90
6
 70
0
 43
0.3500000087
 10
-43.1232685791
 20
33.2769064117
 10
-42.0518401794
 20
33.2769064117
 10
-41.8375536469
 20
33.4911929443
 10
-41.8375536469
 20
34.562621344
 10
-42.266126712
 20
34.9911944092
 10
-42.6946955139
 20
34.9911944092
  0
LWPOLYLINE
  5
651
100
AcDbEntity
  8
0
100
AcDbPolyline
 62
7
  6
CONTINUOUS
 90
6
 70
0
 43
0.3500000087
 10
-47.4446958893
 20
43.4607541809
 10
-46.3732674896
 20
43.4607541809
 10
-46.158980957
 20
43.6750364502
 10
-46.158980957
 20
44.7464648499
 10
-46.5875540222
 20
45.175037915
 10
-47.0161270874
 20
45.175037915
  0
LWPOLYLINE
  5
652
100
AcDbEntity
  8
0
100
AcDbPolyline
 62
7
  6
CONTINUOUS
 90
3
 70
0
 43
0.3500000087
 10
-48.3018377563
 20
44.1036095154
 10
-49.8018392212
 20
44.1036095154
 10
-49.1589838867
 20
46.4607528473
  0
ARC
  5
653
100
AcDbEntity
  8
0
100
AcDbCircle
 62
7
  6
CONTINUOUS
 10
-5.9079813117
 20
23.15
 40
0.5
100
AcDbArc
 50
154.1580672368
 51
205.8419327632
  0
ARC
  5
654
100
AcDbEntity
  8
0
100
AcDbCircle
 62
7
  6
CONTINUOUS
 10
2.0920186883
 20
23.15
 40
0.5
100
AcDbArc
 50
334.1580672368
 51
25.8419327632
  0
ARC
  5
655
100
AcDbEntity
  8
0
100
AcDbCircle
 62
7
  6
CONTINUOUS
 10
2.0920186883
 20
-23.15
 40
0.5
100
AcDbArc
 50
334.1580672368
 51
25.8419327632
  0
ARC
  5
656
100
AcDbEntity
  8
0
100
AcDbCircle
 62
7
  6
CONTINUOUS
 10
-5.9079813117
 20
-23.15
 40
0.5
100
AcDbArc
 50
154.1580672368
 51
205.8419327632
  0
ARC
  5
657
100
AcDbEntity
  8
0
100
AcDbCircle
 62
7
  6
CONTINUOUS
 10
22.6864576934
 20
-7.79
 40
90.0
100
AcDbArc
 50
181.08868532
 51
188.5758796048
  0
ARC
  5
658
100
AcDbEntity
  8
0
100
AcDbCircle
 62
7
  6
CONTINUOUS
 10
-33.7875539867
 20
-2.85
 40
1.75
100
AcDbArc
 50
0.0
 51
37.6855336254
  0
ARC
  5
659
100
AcDbEntity
  8
ASSI
100
AcDbCircle
 62
7
  6
CONTINUOUS
 10
-33.7875539867
 20
-2.85
 40
1.75
100
AcDbArc
 50
180.0
 51
360.0
  0
ARC
  5
65A
100
AcDbEntity
  8
0
100
AcDbCircle
 62
7
  6
CONTINUOUS
 10
-33.7875539867
 20
-2.85
 40
1.75
100
AcDbArc
 50
142.3144663746
 51
180.0
  0
ARC
  5
65B
100
AcDbEntity
  8
0
100
AcDbCircle
 62
7
  6
CONTINUOUS
 10
-28.7875539867
 20
-2.85
 40
1.75
100
AcDbArc
 50
0.0
 51
37.6855336254
  0
ARC
  5
65C
100
AcDbEntity
  8
ASSI
100
AcDbCircle
 62
7
  6
CONTINUOUS
 10
-28.7875539867
 20
-2.85
 40
1.75
100
AcDbArc
 50
180.0
 51
360.0
  0
ARC
  5
65D
100
AcDbEntity
  8
0
100
AcDbCircle
 62
7
  6
CONTINUOUS
 10
-28.7875539867
 20
-2.85
 40
1.75
100
AcDbArc
 50
142.3144663746
 51
180.0
  0
ARC
  5
65E
100
AcDbEntity
  8
0
100
AcDbCircle
 62
7
  6
CONTINUOUS
 10
-65.3184550996
 20
-21.0615984079
 40
1.0
100
AcDbArc
 50
188.5758796048
 51
267.0
  0
ARC
  5
65F
100
AcDbEntity
  8
0
100
AcDbCircle
 62
7
  6
CONTINUOUS
 10
-47.8875539867
 20
-21.3359869487
 40
1.0
100
AcDbArc
 50
270.3333333333
 51
360.0
  0
ARC
  5
660
100
AcDbEntity
  8
0
100
AcDbCircle
 62
7
  6
CONTINUOUS
 10
-25.2875539867
 20
-18.1228182695
 40
1.0
100
AcDbArc
 50
271.0
 51
360.0
  0
ARC
  5
661
100
AcDbEntity
  8
0
100
AcDbCircle
 62
7
  6
CONTINUOUS
 10
-51.3875539867
 20
-23.4563578147
 40
0.5
100
AcDbArc
 50
270.3333333333
 51
360.0
  0
ARC
  5
662
100
AcDbEntity
  8
0
100
AcDbCircle
 62
7
  6
CONTINUOUS
 10
-58.1375539867
 20
-23.8443375673
 40
0.25
100
AcDbArc
 50
0.0
 51
60.0
  0
ARC
  5
663
100
AcDbEntity
  8
0
100
AcDbCircle
 62
7
  6
CONTINUOUS
 10
-61.1375539867
 20
-23.8443375673
 40
0.25
100
AcDbArc
 50
120.0
 51
180.0
  0
ARC
  5
664
100
AcDbEntity
  8
0
100
AcDbCircle
 62
7
  6
CONTINUOUS
 10
-58.1375539867
 20
-24.2456323968
 40
0.25
100
AcDbArc
 50
270.3333333333
 51
360.0
  0
ARC
  5
665
100
AcDbEntity
  8
0
100
AcDbCircle
 62
7
  6
CONTINUOUS
 10
-61.1375539867
 20
-24.2369056521
 40
0.25
100
AcDbArc
 50
180.0
 51
269.6666666667
  0
ARC
  5
666
100
AcDbEntity
  8
0
100
AcDbCircle
 62
7
  6
CONTINUOUS
 10
-60.5875539867
 20
-22.5111812444
 40
0.2
100
AcDbArc
 50
0.0
 51
87.0
  0
ARC
  5
667
100
AcDbEntity
  8
0
100
AcDbCircle
 62
7
  6
CONTINUOUS
 10
22.6864576934
 20
7.79
 40
90.0
100
AcDbArc
 50
171.4241203952
 51
178.91131468
  0
ARC
  5
668
100
AcDbEntity
  8
0
100
AcDbCircle
 62
7
  6
CONTINUOUS
 10
-65.3184550996
 20
21.0615984079
 40
1.0
100
AcDbArc
 50
93.0
 51
171.4241203952
  0
ARC
  5
669
100
AcDbEntity
  8
0
100
AcDbCircle
 62
7
  6
CONTINUOUS
 10
-47.8875539867
 20
21.3359869487
 40
1.0
100
AcDbArc
 50
0.0
 51
89.6666666667
  0
ARC
  5
66A
100
AcDbEntity
  8
0
100
AcDbCircle
 62
7
  6
CONTINUOUS
 10
-25.2875539867
 20
4.7228182695
 40
1.0
100
AcDbArc
 50
0.0
 51
89.0
  0
ARC
  5
66B
100
AcDbEntity
  8
0
100
AcDbCircle
 62
7
  6
CONTINUOUS
 10
-51.3875539867
 20
23.4563578147
 40
0.5
100
AcDbArc
 50
0.0
 51
89.6666666667
  0
ARC
  5
66C
100
AcDbEntity
  8
0
100
AcDbCircle
 62
7
  6
CONTINUOUS
 10
-61.1375539867
 20
23.8443375673
 40
0.25
100
AcDbArc
 50
180.0
 51
240.0
  0
ARC
  5
66D
100
AcDbEntity
  8
0
100
AcDbCircle
 62
7
  6
CONTINUOUS
 10
-58.1375539867
 20
23.8443375673
 40
0.25
100
AcDbArc
 50
300.0
 51
360.0
  0
ARC
  5
66E
100
AcDbEntity
  8
0
100
AcDbCircle
 62
7
  6
CONTINUOUS
 10
-61.1375539867
 20
24.2369056521
 40
0.25
100
AcDbArc
 50
90.3333333333
 51
180.0
  0
ARC
  5
66F
100
AcDbEntity
  8
0
100
AcDbCircle
 62
7
  6
CONTINUOUS
 10
-58.1375539867
 20
24.2456323968
 40
0.25
100
AcDbArc
 50
0.0
 51
89.6666666667
  0
ARC
  5
670
100
AcDbEntity
  8
0
100
AcDbCircle
 62
7
  6
CONTINUOUS
 10
-60.5875547975
 20
22.5111812019
 40
0.2000003603
100
AcDbArc
 50
273.0002325676
 51
0.0000121716
  0
ARC
  5
671
100
AcDbEntity
  8
0
100
AcDbCircle
 62
7
  6
CONTINUOUS
 10
432.6124460133
 20
0.0
 40
500.0
100
AcDbArc
 50
178.91131468
 51
181.08868532
  0
ELLIPSE
  5
672
100
AcDbEntity
  8
0
100
AcDbEllipse
 62
7
  6
CONTINUOUS
 10
-8.957977927
 20
-22.6002744692
 30
0.0
 11
0.0220972656
 21
-0.1990550872
 31
0.0
 40
0.9986126811
 41
3.031186653
 42
4.336630236
  0
ELLIPSE
  5
673
100
AcDbEntity
  8
0
100
AcDbEllipse
 62
7
  6
CONTINUOUS
 10
-12.2579846964
 20
-22.6002744692
 30
0.0
 11
0.0220972656
 21
0.1990550872
 31
0.0
 40
0.9986126811
 41
-1.4600858474
 42
0.1104060006
  0
ELLIPSE
  5
674
100
AcDbEntity
  8
0
100
AcDbEllipse
 62
7
  6
CONTINUOUS
 10
8.442022073
 20
-22.6002744692
 30
0.0
 11
0.0220972656
 21
-0.1990550872
 31
0.0
 40
0.9986126811
 41
3.031186653
 42
4.336630236
  0
ELLIPSE
  5
675
100
AcDbEntity
  8
0
100
AcDbEllipse
 62
7
  6
CONTINUOUS
 10
5.1420153036
 20
-22.6002744692
 30
0.0
 11
0.0220972656
 21
0.1990550872
 31
0.0
 40
0.9986126811
 41
-1.4600858474
 42
0.1104060006
  0
ELLIPSE
  5
676
100
AcDbEntity
  8
0
100
AcDbEllipse
 62
7
  6
CONTINUOUS
 10
-12.2579846964
 20
22.6002744692
 30
0.0
 11
-0.0220972656
 21
0.1990550872
 31
0.0
 40
0.9986126811
 41
3.031186653
 42
4.336630236
  0
ELLIPSE
  5
677
100
AcDbEntity
  8
0
100
AcDbEllipse
 62
7
  6
CONTINUOUS
 10
-8.957977927
 20
22.6002744692
 30
0.0
 11
-0.0220972656
 21
-0.1990550872
 31
0.0
 40
0.9986126811
 41
-1.4600858474
 42
0.1104060006
  0
ELLIPSE
  5
678
100
AcDbEntity
  8
0
100
AcDbEllipse
 62
7
  6
CONTINUOUS
 10
5.1420153036
 20
22.6002744692
 30
0.0
 11
-0.0220972656
 21
0.1990550872
 31
0.0
 40
0.9986126811
 41
3.031186653
 42
4.336630236
  0
ELLIPSE
  5
679
100
AcDbEntity
  8
0
100
AcDbEllipse
 62
7
  6
CONTINUOUS
 10
8.442022073
 20
22.6002744692
 30
0.0
 11
-0.0220972656
 21
-0.1990550872
 31
0.0
 40
0.9986126811
 41
-1.4600858474
 42
0.1104060006
  0
ELLIPSE
  5
67A
100
AcDbEntity
  8
0
100
AcDbEllipse
 62
7
  6
CONTINUOUS
 10
-3.1079813117
 20
-22.3842776662
 30
0.0
 11
0.2
 21
0.0
 31
0.0
 40
0.0524077793
 41
-0.0
 42
1.5707963268
  0
ELLIPSE
  5
67B
100
AcDbEntity
  8
0
100
AcDbEllipse
 62
7
  6
CONTINUOUS
 10
-0.7079813117
 20
-22.3842776662
 30
0.0
 11
0.2
 21
-0.0
 31
0.0
 40
0.0524077793
 41
1.5707963268
 42
3.1415926536
  0
ELLIPSE
  5
67C
100
AcDbEntity
  8
0
100
AcDbEllipse
 62
7
  6
CONTINUOUS
 10
-3.1079813117
 20
22.3842776662
 30
0.0
 11
0.2
 21
-0.0
 31
0.0
 40
0.0524077793
 41
-1.5707963268
 42
0.0
  0
ELLIPSE
  5
67D
100
AcDbEntity
  8
0
100
AcDbEllipse
 62
7
  6
CONTINUOUS
 10
-0.7079813117
 20
22.3842776662
 30
0.0
 11
0.2
 21
-0.0
 31
0.0
 40
0.0524077793
 41
-3.1415926536
 42
-1.5707963268
  0
ELLIPSE
  5
67E
100
AcDbEntity
  8
0
100
AcDbEllipse
 62
7
  6
CONTINUOUS
 10
18.4608756893
 20
23.15
 30
0.0
 11
85.9426996401
 21
0.0
 31
0.0
 40
0.0058178298
 41
-2.6905658418
 42
-2.5196231925
  0
ELLIPSE
  5
67F
100
AcDbEntity
  8
0
100
AcDbEllipse
 62
7
  6
CONTINUOUS
 10
-47.3875539867
 20
21.9537669705
 30
0.0
 11
-0.3546425507
 21
0.3568377408
 31
0.0
 40
0.9877342685
 41
2.3705624082
 42
3.3979007832
  0
ELLIPSE
  5
680
100
AcDbEntity
  8
0
100
AcDbEllipse
 62
7
  6
CONTINUOUS
 10
-47.3875539867
 20
-21.9537669705
 30
0.0
 11
0.3546425507
 21
0.3568377408
 31
0.0
 40
0.9877342685
 41
-0.2563081296
 42
0.7710302454
  0
ELLIPSE
  5
681
100
AcDbEntity
  8
0
100
AcDbEllipse
 62
7
  6
CONTINUOUS
 10
18.4608756893
 20
-23.15
 30
0.0
 11
85.9426996401
 21
-0.0
 31
0.0
 40
0.0058178298
 41
2.5196231925
 42
2.6905658418
  0
ELLIPSE
  5
682
100
AcDbEntity
  8
0
100
AcDbEllipse
 62
7
  6
CONTINUOUS
 10
18.4608756893
 20
-23.15
 30
0.0
 11
85.9426996401
 21
-0.0
 31
0.0
 40
0.0058178298
 41
-2.6791261215
 42
-2.5196231925
  0
ELLIPSE
  5
683
100
AcDbEntity
  8
0
100
AcDbEllipse
 62
7
  6
CONTINUOUS
 10
18.4608756893
 20
23.15
 30
0.0
 11
85.9426996401
 21
-0.0
 31
0.0
 40
0.0058178298
 41
2.5196231925
 42
2.6791261215
  0
ELLIPSE
  5
684
100
AcDbEntity
  8
0
100
AcDbEllipse
 62
7
  6
CONTINUOUS
 10
-44.8082373143
 20
-3.1
 30
0.0
 11
1.6218506799
 21
0.0
 31
0.0
 40
0.999997266
 41
1.5771846789
 42
4.7060006283
  0
ELLIPSE
  5
685
100
AcDbEntity
  8
0
100
AcDbEllipse
 62
7
  6
CONTINUOUS
 10
-44.813871608
 20
-3.1
 30
0.0
 11
2.0155265474
 21
0.0
 31
0.0
 40
0.9999890624
 41
1.5748459681
 42
4.7083393391
  0
ELLIPSE
  5
686
100
AcDbEntity
  8
0
100
AcDbEllipse
 62
7
  6
CONTINUOUS
 10
-25.2875539867
 20
-4.9265949657
 30
0.0
 11
0.999996827
 21
-0.0094018592
 31
0.0
 40
0.2679374115
 41
-1.5508239218
 42
0.0025191125
  0
ELLIPSE
  5
687
100
AcDbEntity
  8
0
100
AcDbEllipse
 62
7
  6
CONTINUOUS
 10
-25.2875539867
 20
-1.2734050343
 30
0.0
 11
0.999996827
 21
0.0094018592
 31
0.0
 40
0.2679374115
 41
-0.0025191125
 42
1.5508239218
  0
ELLIPSE
  5
688
100
AcDbEntity
  8
0
100
AcDbEllipse
 62
250
  6
CONTINUOUS
 10
-53.4665552942
 20
-4.680795
 30
0.0
 11
0.0
 21
0.352865
 31
0.0
 40
0.9996954135
 41
-1.5707963268
 42
1.5707963268
  0
ENDSEC
  0
SECTION
  2
OBJECTS
  0
DICTIONARY
  5
C
100
AcDbDictionary
280
0
281
1
  3
ACAD_GROUP
350
D
  3
ACAD_MLINESTYLE
350
17
  3
ACAD_LAYOUT
350
1A
  3
ACAD_PLOTSETTINGS
350
19
  3
ACAD_PLOTSTYLENAME
350
E
  0
DICTIONARY
  5
D
102
{ACAD_REACTORS
330
C
102
}
100
AcDbDictionary
280
0
281
1
  0
ACDBDICTIONARYWDFLT
  5
E
102
{ACAD_REACTORS
330
C
102
}
100
AcDbDictionary
281
1
  3
Normal
350
F
100
AcDbDictionaryWithDefault
340
F
  0
DICTIONARY
  5
17
102
{ACAD_REACTORS
330
C
102
}
100
AcDbDictionary
280
0
281
1
  3
Standard
350
18
  0
DICTIONARY
  5
19
102
{ACAD_REACTORS
330
C
102
}
100
AcDbDictionary
281
1
  0
DICTIONARY
  5
1A
102
{ACAD_REACTORS
330
C
102
}
100
AcDbDictionary
281
1
  3
Model
350
689
  3
Layout1
350
68A
  0
ACDBPLACEHOLDER
  5
F
102
{ACAD_REACTORS
330
E
102
}
  0
MLINESTYLE
  5
18
102
{ACAD_REACTORS
330
17
102
}
100
AcDbMlineStyle
  2
STANDARD
 70
0
  3

 62
256
 51
90.0
 52
90.0
 71
2
 49
0.5
 62
256
  6
BYLAYER
 49
-0.5
 62
256
  6
BYLAYER
  0
LAYOUT
  5
689
102
{ACAD_REACTORS
330
1A
102
}
100
AcDbPlotSettings
  1

  2
none_device
  4
ANSI_C_(22.00_x_17.00_Inches)
  6

 40
0.0
 41
0.0
 42
0.0
 43
0.0
 44
558.8
 45
431.8
 46
0.0
 47
0.0
 48
0.0
 49
0.0
140
0.0
141
0.0
142
1.0
143
1.0
 70
1024
 72
1
 73
0
 74
0
  7

 75
0
147
1.0
148
0.0
149
0.0
100
AcDbLayout
  1
Model
 70
0
 71
0
 10
0.0
 20
0.0
 11
558.8
 21
431.8
 12
0.0
 22
0.0
 32
0.0
 14
0.0
 24
0.0
 34
0.0
 15
0.0
 25
0.0
 35
0.0
146
0.0
 13
0.0
 23
0.0
 33
0.0
 16
1.0
 26
0.0
 36
0.0
 17
0.0
 27
1.0
 37
0.0
 76
0
330
217
345
0
346
0
  0
LAYOUT
  5
68A
102
{ACAD_REACTORS
330
1A
102
}
100
AcDbPlotSettings
  1

  2
none_device
  4
ANSI_C_(22.00_x_17.00_Inches)
  6

 40
0.0
 41
0.0
 42
0.0
 43
0.0
 44
558.8
 45
431.8
 46
0.0
 47
0.0
 48
0.0
 49
0.0
140
0.0
141
0.0
142
1.0
143
1.0
 70
0
 72
1
 73
0
 74
0
  7

 75
0
147
1.0
148
0.0
149
0.0
100
AcDbLayout
  1
Layout1
 70
0
 71
1
 10
0.0
 20
0.0
 11
558.8
 21
431.8
 12
0.0
 22
0.0
 32
0.0
 14
0.0
 24
0.0
 34
0.0
 15
0.0
 25
0.0
 35
0.0
146
0.0
 13
0.0
 23
0.0
 33
0.0
 16
1.0
 26
0.0
 36
0.0
 17
0.0
 27
1.0
 37
0.0
 76
0
330
218
345
0
346
0
  0
ENDSEC
  0
EOF
