  0
SECTION
  2
HEADER
  9
$ACADVER
  1
AC1024
  9
$DWGCODEPAGE
  3
ANSI_1252
  9
$EXTMAX
 10
297.0
 20
210.0
 30
0.0
  9
$EXTMIN
 10
0.0
 20
0.0
 30
0.0
  9
$LIMMIN
 10
0.0
 20
0.0
  9
$LIMMAX
 10
297.0
 20
210.0
  9
$VIEWCTR
 10
148.5
 20
105.0
  9
$VIEWSIZE
 40
210.0
  9
$CLAYER
  8
0
  9
$LTSCALE
 40
16.335
  9
$CELTYPE
  6
BYLAYER
  9
$DIMSCALE
 40
1.0
  9
$DIMASZ
 40
3.0
  9
$DIMEXO
 40
0.5
  9
$DIMDLI
 40
11.286
  9
$DIMEXE
 40
1.5
  9
$DIMCEN
 40
2.673
  9
$DIMLFAC
 40
1.0
  9
$DIMBLK
  1
_FILLED
  9
$DIMALT
 70
0
  9
$DIMALTF
 40
0.0393700787
  9
$DIMTXT
 40
3.0
  9
$DIMTOL
 70
1
  9
$DIMLIM
 70
0
  9
$DIMTFAC
 40
1.0
  9
$DIMTP
 40
0.01
  9
$DIMTM
 40
0.01
  9
$DIMGAP
 40
0.625
  9
$DIMDSEP
 70
44
  9
$AUNITS
 70
0
  9
$PDMODE
 70
3
  9
$PDSIZE
 40
3.0
  9
$HANDSEED
  5
7A6
  9
$TILEMODE
 70
1
  9
$MEASUREMENT
 70
1
  9
$INSUNITS
 70
4
  0
ENDSEC
  0
SECTION
  2
CLASSES
  0
CLASS
  1
ACDBDICTIONARYWDFLT
  2
AcDbDictionaryWithDefault
  3
AutoCAD 2000
 90
0
 91
1
280
0
281
0
  0
CLASS
  1
ACDBPLACEHOLDER
  2
AcDbPlaceHolder
  3
AutoCAD 2000
 90
0
 91
1
280
0
281
0
  0
CLASS
  1
LAYOUT
  2
AcDbLayout
  3
AutoCAD 2000
 90
0
 91
0
280
0
281
0
  0
ENDSEC
  0
SECTION
  2
TABLES
  0
TABLE
  2
VPORT
  5
8
100
AcDbSymbolTable
 70
2
  0
VPORT
  5
1F4
100
AcDbSymbolTableRecord
100
AcDbViewportTableRecord
  2
*ACTIVE
 70
0
 10
0.0
 20
0.0
 11
1.0
 21
1.0
 12
148.5
 22
105.0
 13
0.0
 23
0.0
 14
1.0
 24
1.0
 15
0.0
 25
0.0
 16
0.0
 26
0.0
 36
1.0
 17
0.0
 27
0.0
 37
0.0
 40
210.0
 41
1.4142857143
 42
50.0
 43
0.0
 44
0.0
 50
0.0
 51
0.0
 71
0
 72
100
 73
1
 74
1
 75
0
 76
0
 77
0
 78
0
  0
ENDTAB
  0
TABLE
  2
LTYPE
  5
5
100
AcDbSymbolTable
 70
6
  0
LTYPE
  5
14
100
AcDbSymbolTableRecord
100
AcDbLinetypeTableRecord
  2
BYBLOCK
 70
0
  3

 72
65
 73
0
 40
0.0
  0
LTYPE
  5
15
100
AcDbSymbolTableRecord
100
AcDbLinetypeTableRecord
  2
BYLAYER
 70
0
  3

 72
65
 73
0
 40
0.0
  0
LTYPE
  5
16
100
AcDbSymbolTableRecord
100
AcDbLinetypeTableRecord
  2
CONTINUOUS
 70
64
  3
Solid line
 72
65
 73
0
 40
0.0
  0
LTYPE
  5
1F5
100
AcDbSymbolTableRecord
100
AcDbLinetypeTableRecord
  2
CENTER
 70
64
  3
____ _ ____ _ ____ _ ____ _ ____ _ ____ _ ____
 72
65
 73
4
 40
0.6
 49
0.375
 74
0
 49
-0.075
 74
0
 49
0.075
 74
0
 49
-0.075
 74
0
  0
LTYPE
  5
1F6
100
AcDbSymbolTableRecord
100
AcDbLinetypeTableRecord
  2
HIDDEN
 70
64
  3
- - - - - - - - - - - - - - - - - - - -
 72
65
 73
2
 40
0.2
 49
0.1
 74
0
 49
-0.1
 74
0
  0
LTYPE
  5
1F7
100
AcDbSymbolTableRecord
100
AcDbLinetypeTableRecord
  2
PHANTOM
 70
64
  3
_____ _ _ _____ _ _ _____ _ _ _____
 72
65
 73
6
 40
0.8
 49
0.45
 74
0
 49
-0.05
 74
0
 49
0.1
 74
0
 49
-0.05
 74
0
 49
0.1
 74
0
 49
-0.05
 74
0
  0
LTYPE
  5
1F8
100
AcDbSymbolTableRecord
100
AcDbLinetypeTableRecord
  2
DOT
 70
64
  3
. . . . . . . . . . . . . . . . . . . .
 72
65
 73
2
 40
0.2
 49
0.1
 74
0
 49
-0.1
 74
0
  0
LTYPE
  5
1F9
100
AcDbSymbolTableRecord
100
AcDbLinetypeTableRecord
  2
DASHED
 70
64
  3
- - - - - - - - - - - - - - - - - - - -
 72
65
 73
2
 40
0.2
 49
0.1
 74
0
 49
-0.1
 74
0
  0
ENDTAB
  0
TABLE
  2
LAYER
  5
2
100
AcDbSymbolTable
 70
36
  0
LAYER
  5
10
100
AcDbSymbolTableRecord
100
AcDbLayerTableRecord
  2
0
 70
0
 62
7
  6
CONTINUOUS
370
-3
390
F
  0
LAYER
  5
1FA
100
AcDbSymbolTableRecord
100
AcDbLayerTableRecord
  2
DEFAULT_1
 70
0
 62
7
  6
CENTER
370
-3
390
F
  0
LAYER
  5
1FB
100
AcDbSymbolTableRecord
100
AcDbLayerTableRecord
  2
DEFAULT_2
 70
0
 62
7
  6
HIDDEN
370
-3
390
F
  0
LAYER
  5
1FC
100
AcDbSymbolTableRecord
100
AcDbLayerTableRecord
  2
DEFAULT_3
 70
0
 62
7
  6
PHANTOM
370
-3
390
F
  0
LAYER
  5
1FD
100
AcDbSymbolTableRecord
100
AcDbLayerTableRecord
  2
ASSI
 70
0
 62
7
  6
CONTINUOUS
370
-3
390
F
  0
LAYER
  5
1FE
100
AcDbSymbolTableRecord
100
AcDbLayerTableRecord
  2
CN-MRT4P5_3SQV01-VIMAR_1600000
 70
0
 62
7
  6
CONTINUOUS
370
-3
390
F
  0
LAYER
  5
1FF
100
AcDbSymbolTableRecord
100
AcDbLayerTableRecord
  2
COLOR5
 70
0
 62
7
  6
CONTINUOUS
370
-3
390
F
  0
LAYER
  5
200
100
AcDbSymbolTableRecord
100
AcDbLayerTableRecord
  2
COLORE_MATERIALE
 70
0
 62
7
  6
CONTINUOUS
370
-3
390
F
  0
LAYER
  5
201
100
AcDbSymbolTableRecord
100
AcDbLayerTableRecord
  2
COORDINATE
 70
0
 62
7
  6
CONTINUOUS
370
-3
390
F
  0
LAYER
  5
202
100
AcDbSymbolTableRecord
100
AcDbLayerTableRecord
  2
COORD_ORIGINE
 70
0
 62
7
  6
CONTINUOUS
370
-3
390
F
  0
LAYER
  5
203
100
AcDbSymbolTableRecord
100
AcDbLayerTableRecord
  2
COPY_PUBLISH
 70
0
 62
7
  6
CONTINUOUS
370
-3
390
F
  0
LAYER
  5
204
100
AcDbSymbolTableRecord
100
AcDbLayerTableRecord
  2
COSMETIC
 70
0
 62
7
  6
CONTINUOUS
370
-3
390
F
  0
LAYER
  5
205
100
AcDbSymbolTableRecord
100
AcDbLayerTableRecord
  2
CURVE
 70
0
 62
7
  6
CONTINUOUS
370
-3
390
F
  0
LAYER
  5
206
100
AcDbSymbolTableRecord
100
AcDbLayerTableRecord
  2
DRAFT
 70
0
 62
7
  6
CONTINUOUS
370
-3
390
F
  0
LAYER
  5
207
100
AcDbSymbolTableRecord
100
AcDbLayerTableRecord
  2
IMPORT_IGES
 70
0
 62
7
  6
CONTINUOUS
370
-3
390
F
  0
LAYER
  5
208
100
AcDbSymbolTableRecord
100
AcDbLayerTableRecord
  2
INCISIONI
 70
0
 62
7
  6
CONTINUOUS
370
-3
390
F
  0
LAYER
  5
209
100
AcDbSymbolTableRecord
100
AcDbLayerTableRecord
  2
INTF_1
 70
0
 62
7
  6
CONTINUOUS
370
-3
390
F
  0
LAYER
  5
20A
100
AcDbSymbolTableRecord
100
AcDbLayerTableRecord
  2
INTF_RED
 70
0
 62
7
  6
CONTINUOUS
370
-3
390
F
  0
LAYER
  5
20B
100
AcDbSymbolTableRecord
100
AcDbLayerTableRecord
  2
NOTE
 70
0
 62
7
  6
CONTINUOUS
370
-3
390
F
  0
LAYER
  5
20C
100
AcDbSymbolTableRecord
100
AcDbLayerTableRecord
  2
PIANI
 70
0
 62
7
  6
CONTINUOUS
370
-3
390
F
  0
LAYER
  5
20D
100
AcDbSymbolTableRecord
100
AcDbLayerTableRecord
  2
PIANI_DI_RIFERIMENTO
 70
0
 62
7
  6
CONTINUOUS
370
-3
390
F
  0
LAYER
  5
20E
100
AcDbSymbolTableRecord
100
AcDbLayerTableRecord
  2
PIANI_ORIGINE
 70
0
 62
7
  6
CONTINUOUS
370
-3
390
F
  0
LAYER
  5
20F
100
AcDbSymbolTableRecord
100
AcDbLayerTableRecord
  2
PIANI_RIFERIMENTO
 70
0
 62
7
  6
CONTINUOUS
370
-3
390
F
  0
LAYER
  5
210
100
AcDbSymbolTableRecord
100
AcDbLayerTableRecord
  2
PUBLISHED_GEOMETRY
 70
0
 62
7
  6
CONTINUOUS
370
-3
390
F
  0
LAYER
  5
211
100
AcDbSymbolTableRecord
100
AcDbLayerTableRecord
  2
PUNTI
 70
0
 62
7
  6
CONTINUOUS
370
-3
390
F
  0
LAYER
  5
212
100
AcDbSymbolTableRecord
100
AcDbLayerTableRecord
  2
RACCORDO
 70
0
 62
7
  6
CONTINUOUS
370
-3
390
F
  0
LAYER
  5
213
100
AcDbSymbolTableRecord
100
AcDbLayerTableRecord
  2
SKEL
 70
0
 62
7
  6
CONTINUOUS
370
-3
390
F
  0
LAYER
  5
214
100
AcDbSymbolTableRecord
100
AcDbLayerTableRecord
  2
SMUSSO
 70
0
 62
7
  6
CONTINUOUS
370
-3
390
F
  0
LAYER
  5
215
100
AcDbSymbolTableRecord
100
AcDbLayerTableRecord
  2
SNAPLINE
 70
0
 62
7
  6
CONTINUOUS
370
-3
390
F
  0
LAYER
  5
216
100
AcDbSymbolTableRecord
100
AcDbLayerTableRecord
  2
SUPERFICI
 70
0
 62
7
  6
CONTINUOUS
370
-3
390
F
  0
LAYER
  5
217
100
AcDbSymbolTableRecord
100
AcDbLayerTableRecord
  2
TRASH
 70
0
 62
7
  6
CONTINUOUS
370
-3
390
F
  0
LAYER
  5
218
100
AcDbSymbolTableRecord
100
AcDbLayerTableRecord
  2
XSEC_DATUMS
 70
0
 62
7
  6
CONTINUOUS
370
-3
390
F
  0
LAYER
  5
219
100
AcDbSymbolTableRecord
100
AcDbLayerTableRecord
  2
___SHELL
 70
0
 62
7
  6
CONTINUOUS
370
-3
390
F
  0
ENDTAB
  0
TABLE
  2
STYLE
  5
3
100
AcDbSymbolTable
 70
1
  0
STYLE
  5
11
100
AcDbSymbolTableRecord
100
AcDbTextStyleTableRecord
  2
STANDARD
 70
0
 40
0.0
 41
0.8
 50
0.0
 71
0
 42
0.2
  3
txt
  4

  0
STYLE
  5
21A
100
AcDbSymbolTableRecord
100
AcDbTextStyleTableRecord
  2
TEXTSTYLE_1
 70
0
 40
0.0
 41
0.8
 50
0.0
 71
0
 42
0.2
  3
gdt
  4

  0
ENDTAB
  0
TABLE
  2
VIEW
  5
6
100
AcDbSymbolTable
 70
0
  0
ENDTAB
  0
TABLE
  2
UCS
  5
7
100
AcDbSymbolTable
 70
0
  0
ENDTAB
  0
TABLE
  2
APPID
  5
9
100
AcDbSymbolTable
 70
1
  0
APPID
  5
21B
100
AcDbSymbolTableRecord
100
AcDbRegAppTableRecord
  2
ACAD
 70
0
  0
ENDTAB
  0
TABLE
  2
BLOCK_RECORD
  5
1
100
AcDbSymbolTable
 70
0
  0
BLOCK_RECORD
  5
21C
100
AcDbSymbolTableRecord
100
AcDbBlockTableRecord
  2
*Model_Space
  0
BLOCK_RECORD
  5
21D
100
AcDbSymbolTableRecord
100
AcDbBlockTableRecord
  2
*Paper_Space
  0
BLOCK_RECORD
  5
21E
100
AcDbSymbolTableRecord
100
AcDbBlockTableRecord
  2
_FILLED
  0
BLOCK_RECORD
  5
21F
100
AcDbSymbolTableRecord
100
AcDbBlockTableRecord
  2
*D0
  0
BLOCK_RECORD
  5
220
100
AcDbSymbolTableRecord
100
AcDbBlockTableRecord
  2
*D1
  0
BLOCK_RECORD
  5
221
100
AcDbSymbolTableRecord
100
AcDbBlockTableRecord
  2
*D2
  0
BLOCK_RECORD
  5
222
100
AcDbSymbolTableRecord
100
AcDbBlockTableRecord
  2
*D3
  0
ENDTAB
  0
TABLE
  2
DIMSTYLE
  5
A
100
AcDbSymbolTable
 70
1
100
AcDbDimStyleTable
 71
0
  0
DIMSTYLE
105
223
100
AcDbSymbolTableRecord
100
AcDbDimStyleTableRecord
  2
STANDARD
 70
0
  3

  4

 40
1.0
 41
3.0
 42
0.5
 43
0.38
 44
1.5
 45
0.0
 46
0.0
 47
0.01
 48
0.01
140
3.0
141
0.0
142
0.0
143
25.4
144
1.0
145
0.0
146
1.0
147
0.625
 71
1
 72
0
 73
0
 74
0
 75
0
 76
0
 77
1
 78
8
 79
2
170
0
171
1
172
0
173
0
174
0
175
0
176
0
177
0
178
0
270
2
179
2
271
2
272
2
273
2
274
2
275
0
280
0
281
0
282
0
283
1
284
8
285
0
286
0
287
3
288
0
340
11
278
44
341
21E
342
21E
343
21E
344
21E
  0
DIMSTYLE
105
224
100
AcDbSymbolTableRecord
100
AcDbDimStyleTableRecord
  2
DIMSTYLE_1
 70
0
  3

  4

 40
1.0
 41
3.0
 42
0.5
 43
0.38
 44
1.5
 45
0.0
 46
0.0
 47
0.0
 48
0.0
140
3.0
141
0.0
142
0.0
143
25.4
144
1.0
145
0.0
146
1.0
147
0.75
 71
0
 72
0
 73
0
 74
0
 75
0
 76
0
 77
1
 78
8
 79
2
170
0
171
1
172
0
173
0
174
0
175
0
176
0
177
0
178
0
270
2
179
2
271
2
272
2
273
2
274
2
275
0
280
0
281
0
282
0
283
1
284
8
285
0
286
0
287
3
288
0
340
11
278
44
341
21E
342
21E
343
21E
344
21E
  0
DIMSTYLE
105
225
100
AcDbSymbolTableRecord
100
AcDbDimStyleTableRecord
  2
DIMSTYLE_2
 70
0
  3

  4

 40
1.0
 41
3.0
 42
0.5
 43
0.38
 44
1.5
 45
0.0
 46
0.0
 47
0.0
 48
0.0
140
3.0
141
0.0
142
0.0
143
25.4
144
1.0
145
0.0
146
1.0
147
0.75
 71
0
 72
0
 73
0
 74
0
 75
0
 76
0
 77
1
 78
8
 79
2
170
0
171
1
172
0
173
0
174
0
175
0
176
0
177
0
178
0
270
2
179
2
271
1
272
2
273
2
274
2
275
0
280
0
281
0
282
0
283
1
284
8
285
0
286
0
287
3
288
0
340
11
278
44
341
21E
342
21E
343
21E
344
21E
  0
ENDTAB
  0
ENDSEC
  0
SECTION
  2
BLOCKS
  0
BLOCK
  5
20
100
AcDbEntity
  8
0
100
AcDbBlockBegin
  2
*Model_Space
 70
0
 10
0.0
 20
0.0
 30
0.0
  3
*Model_Space
  1

  0
ENDBLK
  5
21
100
AcDbEntity
  8
0
100
AcDbBlockEnd
  0
BLOCK
  5
1C
100
AcDbEntity
  8
0
100
AcDbBlockBegin
  2
*Paper_Space
 70
0
 10
0.0
 20
0.0
 30
0.0
  3
*Paper_Space
  1

  0
ENDBLK
  5
1D
100
AcDbEntity
  8
0
100
AcDbBlockEnd
  0
BLOCK
  5
226
100
AcDbEntity
  8
0
100
AcDbBlockBegin
  2
_FILLED
 70
64
 10
0.0
 20
0.0
 30
0.0
  3
_FILLED
  1

  0
SOLID
  5
227
100
AcDbEntity
  8
0
  6
BYBLOCK
 62
0
100
AcDbTrace
 10
0.0
 20
0.0
 30
0.0
 11
-1.0
 21
0.3166666667
 31
0.0
 12
-1.0
 22
-0.3166666667
 32
0.0
 13
-1.0
 23
-0.3166666667
 33
0.0
  0
ENDBLK
  5
228
100
AcDbEntity
  8
0
  6
BYBLOCK
 62
0
100
AcDbBlockEnd
  0
BLOCK
  5
229
100
AcDbEntity
  8
0
100
AcDbBlockBegin
 62
7
  6
CONTINUOUS
  2
*D0
 70
65
 10
0.0
 20
0.0
 30
0.0
  3
*D0
  1

  0
MTEXT
  5
22A
100
AcDbEntity
  8
0
100
AcDbMText
 62
7
  6
CONTINUOUS
  7
STANDARD
 71
2
 72
1
 10
0.0
 20
36.9248420466
 30
0.0
 11
1.0
 21
0.0
 31
0.0
 73
2
 44
0.9
  1
{\ftxt;\W0.0001;\H0.0001;\~}{\ftxt;\W2.8571428571;\H3.0; }{\ftxt;\W0.0001;\H0.0001;\~}
 40
3.0
 41
12.8571428571
  0
LINE
  5
22B
100
AcDbEntity
  8
0
100
AcDbLine
 62
7
  6
CONTINUOUS
 10
-11.15
 20
22.400016923
 30
0.0
 11
-11.15
 21
34.6748420466
 31
0.0
  0
LINE
  5
22C
100
AcDbEntity
  8
0
100
AcDbLine
 62
7
  6
CONTINUOUS
 10
11.15
 20
22.400016923
 30
0.0
 11
11.15
 21
34.6748420466
 31
0.0
  0
LINE
  5
22D
100
AcDbEntity
  8
0
100
AcDbLine
 62
7
  6
CONTINUOUS
 10
-11.15
 20
33.1748420466
 30
0.0
 11
0.0
 21
33.1748420466
 31
0.0
  0
LINE
  5
22E
100
AcDbEntity
  8
0
100
AcDbLine
 62
7
  6
CONTINUOUS
 10
11.15
 20
33.1748420466
 30
0.0
 11
0.0
 21
33.1748420466
 31
0.0
  0
INSERT
  5
22F
100
AcDbEntity
  8
0
100
AcDbBlockReference
 62
7
  6
CONTINUOUS
  2
_FILLED
 10
-11.15
 20
33.1748420466
 30
0.0
 41
3.0
 42
3.0
 43
3.0
 50
180.0
  0
INSERT
  5
230
100
AcDbEntity
  8
0
100
AcDbBlockReference
 62
7
  6
CONTINUOUS
  2
_FILLED
 10
11.15
 20
33.1748420466
 30
0.0
 41
3.0
 42
3.0
 43
3.0
  0
ENDBLK
  5
231
100
AcDbEntity
  8
0
  6
BYBLOCK
 62
0
100
AcDbBlockEnd
  0
BLOCK
  5
232
100
AcDbEntity
  8
0
100
AcDbBlockBegin
 62
7
  6
CONTINUOUS
  2
*D1
 70
65
 10
0.0
 20
0.0
 30
0.0
  3
*D1
  1

  0
MTEXT
  5
233
100
AcDbEntity
  8
0
100
AcDbMText
 62
7
  6
CONTINUOUS
  7
STANDARD
 71
2
 72
1
 10
15.4349101299
 20
0.0
 30
0.0
 11
0.0
 21
1.0
 31
0.0
 73
2
 44
0.9
  1
{\ftxt;\W0.0001;\H0.0001;\~}{\ftxt;\W1.5714285714;\H3.0; }{\ftxt;\W0.0001;\H0.0001;\~}
 40
3.0
 41
7.0714285714
  0
LINE
  5
234
100
AcDbEntity
  8
0
100
AcDbLine
 62
7
  6
CONTINUOUS
 10
10.4000042308
 20
-24.5
 30
0.0
 11
20.6849101299
 21
-24.5
 31
0.0
  0
LINE
  5
235
100
AcDbEntity
  8
0
100
AcDbLine
 62
7
  6
CONTINUOUS
 10
10.4000042308
 20
24.5
 30
0.0
 11
20.6849101299
 21
24.5
 31
0.0
  0
LINE
  5
236
100
AcDbEntity
  8
0
100
AcDbLine
 62
7
  6
CONTINUOUS
 10
19.1849101299
 20
-24.5
 30
0.0
 11
19.1849101299
 21
0.0
 31
0.0
  0
LINE
  5
237
100
AcDbEntity
  8
0
100
AcDbLine
 62
7
  6
CONTINUOUS
 10
19.1849101299
 20
24.5
 30
0.0
 11
19.1849101299
 21
0.0
 31
0.0
  0
INSERT
  5
238
100
AcDbEntity
  8
0
100
AcDbBlockReference
 62
7
  6
CONTINUOUS
  2
_FILLED
 10
19.1849101299
 20
-24.5
 30
0.0
 41
3.0
 42
3.0
 43
3.0
 50
270.0
  0
INSERT
  5
239
100
AcDbEntity
  8
0
100
AcDbBlockReference
 62
7
  6
CONTINUOUS
  2
_FILLED
 10
19.1849101299
 20
24.5
 30
0.0
 41
3.0
 42
3.0
 43
3.0
 50
90.0
  0
ENDBLK
  5
23A
100
AcDbEntity
  8
0
  6
BYBLOCK
 62
0
100
AcDbBlockEnd
  0
BLOCK
  5
23B
100
AcDbEntity
  8
0
100
AcDbBlockBegin
 62
7
  6
CONTINUOUS
  2
*D2
 70
65
 10
0.0
 20
0.0
 30
0.0
  3
*D2
  1

  0
MTEXT
  5
23C
100
AcDbEntity
  8
0
100
AcDbMText
 62
7
  6
CONTINUOUS
  7
STANDARD
 71
2
 72
1
 10
-33.6983367983
 20
36.8189346869
 30
0.0
 11
1.0
 21
0.0
 31
0.0
 73
2
 44
0.9
  1
{\ftxt;\W0.0001;\H0.0001;\~}{\ftxt;\W2.9285714286;\H3.0; }{\ftxt;\W0.0001;\H0.0001;\~}
 40
3.0
 41
13.1785714286
  0
LINE
  5
23D
100
AcDbEntity
  8
0
100
AcDbLine
 62
7
  6
CONTINUOUS
 10
-21.4983367983
 20
18.009618074
 30
0.0
 11
-21.4983367983
 21
34.5689346869
 31
0.0
  0
LINE
  5
23E
100
AcDbEntity
  8
0
100
AcDbLine
 62
7
  6
CONTINUOUS
 10
-45.8983367983
 20
24.7456323968
 30
0.0
 11
-45.8983367983
 21
34.5689346869
 31
0.0
  0
LINE
  5
23F
100
AcDbEntity
  8
0
100
AcDbLine
 62
7
  6
CONTINUOUS
 10
-21.4983367983
 20
33.0689346869
 30
0.0
 11
-33.6983367983
 21
33.0689346869
 31
0.0
  0
LINE
  5
240
100
AcDbEntity
  8
0
100
AcDbLine
 62
7
  6
CONTINUOUS
 10
-45.8983367983
 20
33.0689346869
 30
0.0
 11
-33.6983367983
 21
33.0689346869
 31
0.0
  0
INSERT
  5
241
100
AcDbEntity
  8
0
100
AcDbBlockReference
 62
7
  6
CONTINUOUS
  2
_FILLED
 10
-21.4983367983
 20
33.0689346869
 30
0.0
 41
3.0
 42
3.0
 43
3.0
  0
INSERT
  5
242
100
AcDbEntity
  8
0
100
AcDbBlockReference
 62
7
  6
CONTINUOUS
  2
_FILLED
 10
-45.8983367983
 20
33.0689346869
 30
0.0
 41
3.0
 42
3.0
 43
3.0
 50
180.0
  0
ENDBLK
  5
243
100
AcDbEntity
  8
0
  6
BYBLOCK
 62
0
100
AcDbBlockEnd
  0
BLOCK
  5
244
100
AcDbEntity
  8
0
100
AcDbBlockBegin
 62
7
  6
CONTINUOUS
  2
*D3
 70
65
 10
0.0
 20
0.0
 30
0.0
  3
*D3
  1

  0
MTEXT
  5
245
100
AcDbEntity
  8
0
100
AcDbMText
 62
7
  6
CONTINUOUS
  7
STANDARD
 71
2
 72
1
 10
-39.2583367983
 20
46.8189346869
 30
0.0
 11
1.0
 21
0.0
 31
0.0
 73
2
 44
0.9
  1
{\ftxt;\W0.0001;\H0.0001;\~}{\ftxt;\W2.7142857143;\H3.0; }{\ftxt;\W0.0001;\H0.0001;\~}
 40
3.0
 41
12.2142857143
  0
LINE
  5
246
100
AcDbEntity
  8
0
100
AcDbLine
 62
7
  6
CONTINUOUS
 10
-21.4983367983
 20
18.009618074
 30
0.0
 11
-21.4983367983
 21
44.5689346869
 31
0.0
  0
LINE
  5
247
100
AcDbEntity
  8
0
100
AcDbLine
 62
7
  6
CONTINUOUS
 10
-57.0183367983
 20
17.7426744638
 30
0.0
 11
-57.0183367983
 21
44.5689346869
 31
0.0
  0
LINE
  5
248
100
AcDbEntity
  8
0
100
AcDbLine
 62
7
  6
CONTINUOUS
 10
-21.4983367983
 20
43.0689346869
 30
0.0
 11
-39.2583367983
 21
43.0689346869
 31
0.0
  0
LINE
  5
249
100
AcDbEntity
  8
0
100
AcDbLine
 62
7
  6
CONTINUOUS
 10
-57.0183367983
 20
43.0689346869
 30
0.0
 11
-39.2583367983
 21
43.0689346869
 31
0.0
  0
INSERT
  5
24A
100
AcDbEntity
  8
0
100
AcDbBlockReference
 62
7
  6
CONTINUOUS
  2
_FILLED
 10
-21.4983367983
 20
43.0689346869
 30
0.0
 41
3.0
 42
3.0
 43
3.0
  0
INSERT
  5
24B
100
AcDbEntity
  8
0
100
AcDbBlockReference
 62
7
  6
CONTINUOUS
  2
_FILLED
 10
-57.0183367983
 20
43.0689346869
 30
0.0
 41
3.0
 42
3.0
 43
3.0
 50
180.0
  0
ENDBLK
  5
24C
100
AcDbEntity
  8
0
  6
BYBLOCK
 62
0
100
AcDbBlockEnd
  0
ENDSEC
  0
SECTION
  2
ENTITIES
  0
DIMENSION
  5
24D
100
AcDbEntity
  8
0
100
AcDbDimension
 62
7
  6
CONTINUOUS
  2
*D0
 10
11.15
 20
33.1748420466
 30
0.0
 11
-0.4285715189
 21
33.1748420466
 31
0.0
 70
160
 71
2
 72
2
 41
0.9
 42
22.3
  1
{\ftxt;\W0.0001;\H0.0001;\~}{\ftxt;\W2.8571428571;\H3.0; }{\ftxt;\W0.0001;\H0.0001;\~}
  3
DIMSTYLE_1
100
AcDbAlignedDimension
 13
-11.15
 23
21.900016923
 33
0.0
 14
11.15
 24
21.900016923
 34
0.0
100
AcDbRotatedDimension
  0
DIMENSION
  5
24E
100
AcDbEntity
  8
0
100
AcDbDimension
 62
7
  6
CONTINUOUS
  2
*D1
 10
19.1849101299
 20
24.5
 30
0.0
 11
19.1849101299
 21
-0.4285712899
 31
0.0
 70
160
 71
2
 72
2
 41
0.9
 42
49.0
  1
{\ftxt;\W0.0001;\H0.0001;\~}{\ftxt;\W1.5714285714;\H3.0; }{\ftxt;\W0.0001;\H0.0001;\~}
  3
DIMSTYLE_1
100
AcDbAlignedDimension
 13
9.9000042308
 23
-24.5
 33
0.0
 14
9.9000042308
 24
24.5
 34
0.0
 50
90.0
100
AcDbRotatedDimension
  0
DIMENSION
  5
24F
100
AcDbEntity
  8
0
100
AcDbDimension
 62
7
  6
CONTINUOUS
  2
*D2
 10
-45.8983367983
 20
33.0689346869
 30
0.0
 11
-34.1269081306
 21
33.0689346869
 31
0.0
 70
160
 71
2
 72
2
 41
0.9
 42
24.4
  1
{\ftxt;\W0.0001;\H0.0001;\~}{\ftxt;\W2.9285714286;\H3.0; }{\ftxt;\W0.0001;\H0.0001;\~}
  3
DIMSTYLE_1
100
AcDbAlignedDimension
 13
-21.4983367983
 23
17.509618074
 33
0.0
 14
-45.8983367983
 24
24.2456323968
 34
0.0
 50
180.0
100
AcDbRotatedDimension
  0
DIMENSION
  5
250
100
AcDbEntity
  8
0
100
AcDbDimension
 62
7
  6
CONTINUOUS
  2
*D3
 10
-57.0183367983
 20
43.0689346869
 30
0.0
 11
-39.6869082413
 21
43.0689346869
 31
0.0
 70
160
 71
2
 72
2
 41
0.9
 42
35.52
  1
{\ftxt;\W0.0001;\H0.0001;\~}{\ftxt;\W2.7142857143;\H3.0; }{\ftxt;\W0.0001;\H0.0001;\~}
  3
DIMSTYLE_2
100
AcDbAlignedDimension
 13
-21.4983367983
 23
17.509618074
 33
0.0
 14
-57.0183367983
 24
17.2426744638
 34
0.0
 50
180.0
100
AcDbRotatedDimension
  0
LWPOLYLINE
  5
251
100
AcDbEntity
  8
0
100
AcDbPolyline
 62
7
  6
CONTINUOUS
 90
5
 70
0
 43
0.3500000006
 10
3.0000000658
 20
35.6391295624
 10
3.357142951
 20
35.8534140472
 10
3.357142951
 20
36.4962720337
 10
3.0000000658
 20
36.9248410034
 10
2.1428571696
 20
36.9248410034
  0
LINE
  5
252
100
AcDbEntity
  8
RACCORDO
100
AcDbLine
 62
7
  6
CONTINUOUS
 10
-9.9000042308
 20
-24.5
 30
0.0
 11
-7.4999957692
 21
-24.5
 31
0.0
  0
LINE
  5
253
100
AcDbEntity
  8
SUPERFICI
100
AcDbLine
 62
7
  6
CONTINUOUS
 10
-9.9000042308
 20
-24.5
 30
0.0
 11
-7.4999957692
 21
-24.5
 31
0.0
  0
LINE
  5
254
100
AcDbEntity
  8
RACCORDO
100
AcDbLine
 62
7
  6
CONTINUOUS
 10
7.4999957692
 20
-24.5
 30
0.0
 11
9.9000042308
 21
-24.5
 31
0.0
  0
LINE
  5
255
100
AcDbEntity
  8
SUPERFICI
100
AcDbLine
 62
7
  6
CONTINUOUS
 10
7.4999957692
 20
-24.5
 30
0.0
 11
9.9000042308
 21
-24.5
 31
0.0
  0
LINE
  5
256
100
AcDbEntity
  8
RACCORDO
100
AcDbLine
 62
250
  6
CONTINUOUS
 10
-9.8869056521
 20
-24.4869014213
 30
0.0
 11
-7.5130943479
 21
-24.4869014213
 31
0.0
  0
LINE
  5
257
100
AcDbEntity
  8
SUPERFICI
100
AcDbLine
 62
7
  6
CONTINUOUS
 10
-9.8869056521
 20
-24.4869014213
 30
0.0
 11
-7.5130943479
 21
-24.4869014213
 31
0.0
  0
LINE
  5
258
100
AcDbEntity
  8
RACCORDO
100
AcDbLine
 62
250
  6
CONTINUOUS
 10
7.5130943479
 20
-24.4869014213
 30
0.0
 11
9.8869056521
 21
-24.4869014213
 31
0.0
  0
LINE
  5
259
100
AcDbEntity
  8
SUPERFICI
100
AcDbLine
 62
7
  6
CONTINUOUS
 10
7.5130943479
 20
-24.4869014213
 30
0.0
 11
9.8869056521
 21
-24.4869014213
 31
0.0
  0
LINE
  5
25A
100
AcDbEntity
  8
RACCORDO
100
AcDbLine
 62
250
  6
CONTINUOUS
 10
7.2630985787
 20
-24.2369056521
 30
0.0
 11
10.1369014213
 21
-24.2369056521
 31
0.0
  0
LINE
  5
25B
100
AcDbEntity
  8
SUPERFICI
100
AcDbLine
 62
250
  6
CONTINUOUS
 10
7.2630985787
 20
-24.2369056521
 30
0.0
 11
10.1369014213
 21
-24.2369056521
 31
0.0
  0
LINE
  5
25C
100
AcDbEntity
  8
RACCORDO
100
AcDbLine
 62
250
  6
CONTINUOUS
 10
-7.2630985787
 20
-24.2369056521
 30
0.0
 11
-10.1369014213
 21
-24.2369056521
 31
0.0
  0
LINE
  5
25D
100
AcDbEntity
  8
SUPERFICI
100
AcDbLine
 62
250
  6
CONTINUOUS
 10
-7.2630985787
 20
-24.2369056521
 30
0.0
 11
-10.1369014213
 21
-24.2369056521
 31
0.0
  0
LINE
  5
25E
100
AcDbEntity
  8
RACCORDO
100
AcDbLine
 62
7
  6
CONTINUOUS
 10
4.45
 20
-24.0
 30
0.0
 11
3.4982647806
 21
-24.0
 31
0.0
  0
LINE
  5
25F
100
AcDbEntity
  8
SUPERFICI
100
AcDbLine
 62
7
  6
CONTINUOUS
 10
4.45
 20
-24.0
 30
0.0
 11
3.4982647806
 21
-24.0
 31
0.0
  0
LINE
  5
260
100
AcDbEntity
  8
RACCORDO
100
AcDbLine
 62
7
  6
CONTINUOUS
 10
-3.4982647806
 20
-24.0
 30
0.0
 11
-4.45
 21
-24.0
 31
0.0
  0
LINE
  5
261
100
AcDbEntity
  8
SUPERFICI
100
AcDbLine
 62
7
  6
CONTINUOUS
 10
-3.4982647806
 20
-24.0
 30
0.0
 11
-4.45
 21
-24.0
 31
0.0
  0
LINE
  5
262
100
AcDbEntity
  8
RACCORDO
100
AcDbLine
 62
250
  6
CONTINUOUS
 10
-3.4982647806
 20
-23.9982478817
 30
0.0
 11
-1.202625676
 21
-23.9982478817
 31
0.0
  0
LINE
  5
263
100
AcDbEntity
  8
SUPERFICI
100
AcDbLine
 62
7
  6
CONTINUOUS
 10
-3.4982647806
 20
-23.9982478817
 30
0.0
 11
-1.202625676
 21
-23.9982478817
 31
0.0
  0
LINE
  5
264
100
AcDbEntity
  8
RACCORDO
100
AcDbLine
 62
250
  6
CONTINUOUS
 10
1.202625676
 20
-23.9982478817
 30
0.0
 11
3.4982647806
 21
-23.9982478817
 31
0.0
  0
LINE
  5
265
100
AcDbEntity
  8
SUPERFICI
100
AcDbLine
 62
7
  6
CONTINUOUS
 10
1.202625676
 20
-23.9982478817
 30
0.0
 11
3.4982647806
 21
-23.9982478817
 31
0.0
  0
LINE
  5
266
100
AcDbEntity
  8
DRAFT
100
AcDbLine
 62
7
  6
CONTINUOUS
 10
4.4412732553
 20
-23.9912732553
 30
0.0
 11
3.5087268678
 21
-23.9912732553
 31
0.0
  0
LINE
  5
267
100
AcDbEntity
  8
SUPERFICI
100
AcDbLine
 62
7
  6
CONTINUOUS
 10
4.4412732553
 20
-23.9912732553
 30
0.0
 11
3.5087268678
 21
-23.9912732553
 31
0.0
  0
LINE
  5
268
100
AcDbEntity
  8
DRAFT
100
AcDbLine
 62
7
  6
CONTINUOUS
 10
-3.5087268678
 20
-23.9912732553
 30
0.0
 11
-4.4412732553
 21
-23.9912732553
 31
0.0
  0
LINE
  5
269
100
AcDbEntity
  8
SUPERFICI
100
AcDbLine
 62
7
  6
CONTINUOUS
 10
-3.5087268678
 20
-23.9912732553
 30
0.0
 11
-4.4412732553
 21
-23.9912732553
 31
0.0
  0
LINE
  5
26A
100
AcDbEntity
  8
RACCORDO
100
AcDbLine
 62
250
  6
CONTINUOUS
 10
7.2630985787
 20
-23.8443375673
 30
0.0
 11
10.1369014213
 21
-23.8443375673
 31
0.0
  0
LINE
  5
26B
100
AcDbEntity
  8
SUPERFICI
100
AcDbLine
 62
250
  6
CONTINUOUS
 10
7.2630985787
 20
-23.8443375673
 30
0.0
 11
10.1369014213
 21
-23.8443375673
 31
0.0
  0
LINE
  5
26C
100
AcDbEntity
  8
RACCORDO
100
AcDbLine
 62
250
  6
CONTINUOUS
 10
-7.2630985787
 20
-23.8443375673
 30
0.0
 11
-10.1369014213
 21
-23.8443375673
 31
0.0
  0
LINE
  5
26D
100
AcDbEntity
  8
SUPERFICI
100
AcDbLine
 62
250
  6
CONTINUOUS
 10
-7.2630985787
 20
-23.8443375673
 30
0.0
 11
-10.1369014213
 21
-23.8443375673
 31
0.0
  0
LINE
  5
26E
100
AcDbEntity
  8
RACCORDO
100
AcDbLine
 62
250
  6
CONTINUOUS
 10
-3.5
 20
-23.7982512664
 30
0.0
 11
-1.0026332914
 21
-23.7982512664
 31
0.0
  0
LINE
  5
26F
100
AcDbEntity
  8
SUPERFICI
100
AcDbLine
 62
250
  6
CONTINUOUS
 10
-3.5
 20
-23.7982512664
 30
0.0
 11
-1.0026332914
 21
-23.7982512664
 31
0.0
  0
LINE
  5
270
100
AcDbEntity
  8
RACCORDO
100
AcDbLine
 62
250
  6
CONTINUOUS
 10
1.0026332914
 20
-23.7982512664
 30
0.0
 11
3.5
 21
-23.7982512664
 31
0.0
  0
LINE
  5
271
100
AcDbEntity
  8
SUPERFICI
100
AcDbLine
 62
250
  6
CONTINUOUS
 10
1.0026332914
 20
-23.7982512664
 30
0.0
 11
3.5
 21
-23.7982512664
 31
0.0
  0
LINE
  5
272
100
AcDbEntity
  8
RACCORDO
100
AcDbLine
 62
250
  6
CONTINUOUS
 10
9.8869056521
 20
-23.6278312164
 30
0.0
 11
7.5130943479
 21
-23.6278312164
 31
0.0
  0
LINE
  5
273
100
AcDbEntity
  8
SUPERFICI
100
AcDbLine
 62
250
  6
CONTINUOUS
 10
9.8869056521
 20
-23.6278312164
 30
0.0
 11
7.5130943479
 21
-23.6278312164
 31
0.0
  0
LINE
  5
274
100
AcDbEntity
  8
RACCORDO
100
AcDbLine
 62
250
  6
CONTINUOUS
 10
-7.5130943479
 20
-23.6278312164
 30
0.0
 11
-9.8869056521
 21
-23.6278312164
 31
0.0
  0
LINE
  5
275
100
AcDbEntity
  8
SUPERFICI
100
AcDbLine
 62
250
  6
CONTINUOUS
 10
-7.5130943479
 20
-23.6278312164
 30
0.0
 11
-9.8869056521
 21
-23.6278312164
 31
0.0
  0
LINE
  5
276
100
AcDbEntity
  8
RACCORDO
100
AcDbLine
 62
250
  6
CONTINUOUS
 10
-7.5130943479
 20
24.4869014213
 30
0.0
 11
-7.4999957692
 21
24.5
 31
0.0
  0
LINE
  5
277
100
AcDbEntity
  8
SUPERFICI
100
AcDbLine
 62
250
  6
CONTINUOUS
 10
-7.5130943479
 20
24.4869014213
 30
0.0
 11
-7.4999957692
 21
24.5
 31
0.0
  0
LINE
  5
278
100
AcDbEntity
  8
RACCORDO
100
AcDbLine
 62
250
  6
CONTINUOUS
 10
-7.2630985787
 20
24.2369056521
 30
0.0
 11
-7.25
 21
24.2500042308
 31
0.0
  0
LINE
  5
279
100
AcDbEntity
  8
SUPERFICI
100
AcDbLine
 62
250
  6
CONTINUOUS
 10
-7.2630985787
 20
24.2369056521
 30
0.0
 11
-7.25
 21
24.2500042308
 31
0.0
  0
LINE
  5
27A
100
AcDbEntity
  8
RACCORDO
100
AcDbLine
 62
7
  6
CONTINUOUS
 10
-3.5087268678
 20
23.9912732553
 30
0.0
 11
-3.4982647806
 21
23.9982478817
 31
0.0
  0
LINE
  5
27B
100
AcDbEntity
  8
SUPERFICI
100
AcDbLine
 62
7
  6
CONTINUOUS
 10
-3.5087268678
 20
23.9912732553
 30
0.0
 11
-3.4982647806
 21
23.9982478817
 31
0.0
  0
LINE
  5
27C
100
AcDbEntity
  8
RACCORDO
100
AcDbLine
 62
7
  6
CONTINUOUS
 10
-9.8927234819
 20
-23.1226497308
 30
0.0
 11
-7.5072765181
 21
-23.1226497308
 31
0.0
  0
LINE
  5
27D
100
AcDbEntity
  8
SUPERFICI
100
AcDbLine
 62
7
  6
CONTINUOUS
 10
-9.8927234819
 20
-23.1226497308
 30
0.0
 11
-7.5072765181
 21
-23.1226497308
 31
0.0
  0
LINE
  5
27E
100
AcDbEntity
  8
RACCORDO
100
AcDbLine
 62
7
  6
CONTINUOUS
 10
9.8927234819
 20
-23.1226497308
 30
0.0
 11
7.5072765181
 21
-23.1226497308
 31
0.0
  0
LINE
  5
27F
100
AcDbEntity
  8
SUPERFICI
100
AcDbLine
 62
7
  6
CONTINUOUS
 10
9.8927234819
 20
-23.1226497308
 30
0.0
 11
7.5072765181
 21
-23.1226497308
 31
0.0
  0
LINE
  5
280
100
AcDbEntity
  8
DRAFT
100
AcDbLine
 62
7
  6
CONTINUOUS
 10
-10.6500063461
 20
-22.4
 30
0.0
 11
-10.15
 21
-22.4
 31
0.0
  0
LINE
  5
281
100
AcDbEntity
  8
SUPERFICI
100
AcDbLine
 62
7
  6
CONTINUOUS
 10
-10.6500063461
 20
-22.4
 30
0.0
 11
-10.15
 21
-22.4
 31
0.0
  0
LINE
  5
282
100
AcDbEntity
  8
DRAFT
100
AcDbLine
 62
7
  6
CONTINUOUS
 10
-7.25
 20
-22.4
 30
0.0
 11
-4.45
 21
-22.4
 31
0.0
  0
LINE
  5
283
100
AcDbEntity
  8
SUPERFICI
100
AcDbLine
 62
7
  6
CONTINUOUS
 10
-7.25
 20
-22.4
 30
0.0
 11
-4.45
 21
-22.4
 31
0.0
  0
LINE
  5
284
100
AcDbEntity
  8
DRAFT
100
AcDbLine
 62
7
  6
CONTINUOUS
 10
1.0
 20
-22.4
 30
0.0
 11
-1.0
 21
-22.4
 31
0.0
  0
LINE
  5
285
100
AcDbEntity
  8
SUPERFICI
100
AcDbLine
 62
7
  6
CONTINUOUS
 10
1.0
 20
-22.4
 30
0.0
 11
-1.0
 21
-22.4
 31
0.0
  0
LINE
  5
286
100
AcDbEntity
  8
DRAFT
100
AcDbLine
 62
7
  6
CONTINUOUS
 10
4.45
 20
-22.4
 30
0.0
 11
7.25
 21
-22.4
 31
0.0
  0
LINE
  5
287
100
AcDbEntity
  8
SUPERFICI
100
AcDbLine
 62
7
  6
CONTINUOUS
 10
4.45
 20
-22.4
 30
0.0
 11
7.25
 21
-22.4
 31
0.0
  0
LINE
  5
288
100
AcDbEntity
  8
DRAFT
100
AcDbLine
 62
7
  6
CONTINUOUS
 10
10.15
 20
-22.4
 30
0.0
 11
10.6500063461
 21
-22.4
 31
0.0
  0
LINE
  5
289
100
AcDbEntity
  8
SUPERFICI
100
AcDbLine
 62
7
  6
CONTINUOUS
 10
10.15
 20
-22.4
 30
0.0
 11
10.6500063461
 21
-22.4
 31
0.0
  0
LINE
  5
28A
100
AcDbEntity
  8
RACCORDO
100
AcDbLine
 62
7
  6
CONTINUOUS
 10
-3.5
 20
-22.3737961104
 30
0.0
 11
-1.202625676
 21
-22.3737961104
 31
0.0
  0
LINE
  5
28B
100
AcDbEntity
  8
SUPERFICI
100
AcDbLine
 62
7
  6
CONTINUOUS
 10
-3.5
 20
-22.3737961104
 30
0.0
 11
-1.202625676
 21
-22.3737961104
 31
0.0
  0
LINE
  5
28C
100
AcDbEntity
  8
RACCORDO
100
AcDbLine
 62
7
  6
CONTINUOUS
 10
1.202625676
 20
-22.3737961104
 30
0.0
 11
3.5
 21
-22.3737961104
 31
0.0
  0
LINE
  5
28D
100
AcDbEntity
  8
SUPERFICI
100
AcDbLine
 62
7
  6
CONTINUOUS
 10
1.202625676
 20
-22.3737961104
 30
0.0
 11
3.5
 21
-22.3737961104
 31
0.0
  0
LINE
  5
28E
100
AcDbEntity
  8
RACCORDO
100
AcDbLine
 62
7
  6
CONTINUOUS
 10
9.8927234819
 20
-22.3213883311
 30
0.0
 11
7.5072765181
 21
-22.3213883311
 31
0.0
  0
LINE
  5
28F
100
AcDbEntity
  8
SUPERFICI
100
AcDbLine
 62
7
  6
CONTINUOUS
 10
9.8927234819
 20
-22.3213883311
 30
0.0
 11
7.5072765181
 21
-22.3213883311
 31
0.0
  0
LINE
  5
290
100
AcDbEntity
  8
DRAFT
100
AcDbLine
 62
7
  6
CONTINUOUS
 10
4.4412732553
 20
-22.3213883311
 30
0.0
 11
3.5087268678
 21
-22.3213883311
 31
0.0
  0
LINE
  5
291
100
AcDbEntity
  8
SUPERFICI
100
AcDbLine
 62
7
  6
CONTINUOUS
 10
4.4412732553
 20
-22.3213883311
 30
0.0
 11
3.5087268678
 21
-22.3213883311
 31
0.0
  0
LINE
  5
292
100
AcDbEntity
  8
DRAFT
100
AcDbLine
 62
7
  6
CONTINUOUS
 10
-3.5087268678
 20
-22.3213883311
 30
0.0
 11
-4.4412732553
 21
-22.3213883311
 31
0.0
  0
LINE
  5
293
100
AcDbEntity
  8
SUPERFICI
100
AcDbLine
 62
7
  6
CONTINUOUS
 10
-3.5087268678
 20
-22.3213883311
 30
0.0
 11
-4.4412732553
 21
-22.3213883311
 31
0.0
  0
LINE
  5
294
100
AcDbEntity
  8
RACCORDO
100
AcDbLine
 62
7
  6
CONTINUOUS
 10
-7.5072765181
 20
-22.3213883311
 30
0.0
 11
-9.8927234819
 21
-22.3213883311
 31
0.0
  0
LINE
  5
295
100
AcDbEntity
  8
SUPERFICI
100
AcDbLine
 62
7
  6
CONTINUOUS
 10
-7.5072765181
 20
-22.3213883311
 30
0.0
 11
-9.8927234819
 21
-22.3213883311
 31
0.0
  0
LINE
  5
296
100
AcDbEntity
  8
RACCORDO
100
AcDbLine
 62
250
  6
CONTINUOUS
 10
10.5372152757
 20
-22.0602279426
 30
0.0
 11
-10.5372152757
 21
-22.0602279426
 31
0.0
  0
LINE
  5
297
100
AcDbEntity
  8
RACCORDO
100
AcDbLine
 62
250
  6
CONTINUOUS
 10
10.5290420874
 20
-21.2107174911
 30
0.0
 11
-10.5290420874
 21
-21.2107174911
 31
0.0
  0
LINE
  5
298
100
AcDbEntity
  8
RACCORDO
100
AcDbLine
 62
7
  6
CONTINUOUS
 10
-3.4982647806
 20
-23.9982478817
 30
0.0
 11
-3.5087268678
 21
-23.9912732553
 31
0.0
  0
LINE
  5
299
100
AcDbEntity
  8
SUPERFICI
100
AcDbLine
 62
7
  6
CONTINUOUS
 10
-3.4982647806
 20
-23.9982478817
 30
0.0
 11
-3.5087268678
 21
-23.9912732553
 31
0.0
  0
LINE
  5
29A
100
AcDbEntity
  8
RACCORDO
100
AcDbLine
 62
250
  6
CONTINUOUS
 10
-7.5130943479
 20
-24.4869014213
 30
0.0
 11
-7.4999957692
 21
-24.5
 31
0.0
  0
LINE
  5
29B
100
AcDbEntity
  8
SUPERFICI
100
AcDbLine
 62
250
  6
CONTINUOUS
 10
-7.5130943479
 20
-24.4869014213
 30
0.0
 11
-7.4999957692
 21
-24.5
 31
0.0
  0
LINE
  5
29C
100
AcDbEntity
  8
RACCORDO
100
AcDbLine
 62
250
  6
CONTINUOUS
 10
-7.2630985787
 20
-24.2369056521
 30
0.0
 11
-7.25
 21
-24.2500042308
 31
0.0
  0
LINE
  5
29D
100
AcDbEntity
  8
SUPERFICI
100
AcDbLine
 62
250
  6
CONTINUOUS
 10
-7.2630985787
 20
-24.2369056521
 30
0.0
 11
-7.25
 21
-24.2500042308
 31
0.0
  0
LINE
  5
29E
100
AcDbEntity
  8
DRAFT
100
AcDbLine
 62
7
  6
CONTINUOUS
 10
4.4412732553
 20
23.9912732553
 30
0.0
 11
4.45
 21
24.0
 31
0.0
  0
LINE
  5
29F
100
AcDbEntity
  8
SUPERFICI
100
AcDbLine
 62
7
  6
CONTINUOUS
 10
4.4412732553
 20
23.9912732553
 30
0.0
 11
4.45
 21
24.0
 31
0.0
  0
LINE
  5
2A0
100
AcDbEntity
  8
DRAFT
100
AcDbLine
 62
7
  6
CONTINUOUS
 10
4.45
 20
-24.0
 30
0.0
 11
4.4412732553
 21
-23.9912732553
 31
0.0
  0
LINE
  5
2A1
100
AcDbEntity
  8
SUPERFICI
100
AcDbLine
 62
7
  6
CONTINUOUS
 10
4.45
 20
-24.0
 30
0.0
 11
4.4412732553
 21
-23.9912732553
 31
0.0
  0
LINE
  5
2A2
100
AcDbEntity
  8
DRAFT
100
AcDbLine
 62
7
  6
CONTINUOUS
 10
-11.15
 20
-18.5
 30
0.0
 11
-11.1849101299
 21
-18.1473460386
 31
0.0
  0
LINE
  5
2A3
100
AcDbEntity
  8
SUPERFICI
100
AcDbLine
 62
7
  6
CONTINUOUS
 10
-11.15
 20
-18.5
 30
0.0
 11
-11.1849101299
 21
-18.1473460386
 31
0.0
  0
LINE
  5
2A4
100
AcDbEntity
  8
RACCORDO
100
AcDbLine
 62
250
  6
CONTINUOUS
 10
-10.1369014213
 20
-23.8443375673
 30
0.0
 11
-10.1427192511
 21
-23.2669872981
 31
0.0
  0
LINE
  5
2A5
100
AcDbEntity
  8
SUPERFICI
100
AcDbLine
 62
250
  6
CONTINUOUS
 10
-10.1369014213
 20
-23.8443375673
 30
0.0
 11
-10.1427192511
 21
-23.2669872981
 31
0.0
  0
LINE
  5
2A6
100
AcDbEntity
  8
RACCORDO
100
AcDbLine
 62
250
  6
CONTINUOUS
 10
-9.8869056521
 20
-23.6278312164
 30
0.0
 11
-9.8919962532
 21
-23.1226497308
 31
0.0
  0
LINE
  5
2A7
100
AcDbEntity
  8
SUPERFICI
100
AcDbLine
 62
250
  6
CONTINUOUS
 10
-9.8869056521
 20
-23.6278312164
 30
0.0
 11
-9.8919962532
 21
-23.1226497308
 31
0.0
  0
LINE
  5
2A8
100
AcDbEntity
  8
DRAFT
100
AcDbLine
 62
7
  6
CONTINUOUS
 10
-11.1849101299
 20
-18.1473460386
 30
0.0
 11
-11.1849101299
 21
18.1473460386
 31
0.0
  0
LINE
  5
2A9
100
AcDbEntity
  8
SUPERFICI
100
AcDbLine
 62
7
  6
CONTINUOUS
 10
-11.1849101299
 20
-18.1473460386
 30
0.0
 11
-11.1849101299
 21
18.1473460386
 31
0.0
  0
LINE
  5
2AA
100
AcDbEntity
  8
RACCORDO
100
AcDbLine
 62
7
  6
CONTINUOUS
 10
-11.15
 20
21.900016923
 30
0.0
 11
-11.15
 21
18.5
 31
0.0
  0
LINE
  5
2AB
100
AcDbEntity
  8
SUPERFICI
100
AcDbLine
 62
7
  6
CONTINUOUS
 10
-11.15
 20
21.900016923
 30
0.0
 11
-11.15
 21
18.5
 31
0.0
  0
LINE
  5
2AC
100
AcDbEntity
  8
RACCORDO
100
AcDbLine
 62
7
  6
CONTINUOUS
 10
-11.15
 20
-21.900016923
 30
0.0
 11
-11.15
 21
-18.5
 31
0.0
  0
LINE
  5
2AD
100
AcDbEntity
  8
SUPERFICI
100
AcDbLine
 62
7
  6
CONTINUOUS
 10
-11.15
 20
-21.900016923
 30
0.0
 11
-11.15
 21
-18.5
 31
0.0
  0
LINE
  5
2AE
100
AcDbEntity
  8
RACCORDO
100
AcDbLine
 62
7
  6
CONTINUOUS
 10
-10.15
 20
-22.4
 30
0.0
 11
-10.15
 21
-24.2500042308
 31
0.0
  0
LINE
  5
2AF
100
AcDbEntity
  8
SUPERFICI
100
AcDbLine
 62
7
  6
CONTINUOUS
 10
-10.15
 20
-22.4
 30
0.0
 11
-10.15
 21
-24.2500042308
 31
0.0
  0
LINE
  5
2B0
100
AcDbEntity
  8
RACCORDO
100
AcDbLine
 62
7
  6
CONTINUOUS
 10
-10.15
 20
22.4
 30
0.0
 11
-10.15
 21
24.2500042308
 31
0.0
  0
LINE
  5
2B1
100
AcDbEntity
  8
SUPERFICI
100
AcDbLine
 62
7
  6
CONTINUOUS
 10
-10.15
 20
22.4
 30
0.0
 11
-10.15
 21
24.2500042308
 31
0.0
  0
LINE
  5
2B2
100
AcDbEntity
  8
RACCORDO
100
AcDbLine
 62
250
  6
CONTINUOUS
 10
-10.1427192511
 20
23.2669872981
 30
0.0
 11
-10.1427192511
 21
22.3344140523
 31
0.0
  0
LINE
  5
2B3
100
AcDbEntity
  8
SUPERFICI
100
AcDbLine
 62
7
  6
CONTINUOUS
 10
-10.1427192511
 20
23.2669872981
 30
0.0
 11
-10.1427192511
 21
22.3344140523
 31
0.0
  0
LINE
  5
2B4
100
AcDbEntity
  8
RACCORDO
100
AcDbLine
 62
250
  6
CONTINUOUS
 10
-10.1427192511
 20
-22.3344140523
 30
0.0
 11
-10.1427192511
 21
-23.2669872981
 31
0.0
  0
LINE
  5
2B5
100
AcDbEntity
  8
SUPERFICI
100
AcDbLine
 62
7
  6
CONTINUOUS
 10
-10.1427192511
 20
-22.3344140523
 30
0.0
 11
-10.1427192511
 21
-23.2669872981
 31
0.0
  0
LINE
  5
2B6
100
AcDbEntity
  8
RACCORDO
100
AcDbLine
 62
250
  6
CONTINUOUS
 10
-10.1369014213
 20
24.2369056521
 30
0.0
 11
-10.1369014213
 21
23.8443375673
 31
0.0
  0
LINE
  5
2B7
100
AcDbEntity
  8
SUPERFICI
100
AcDbLine
 62
7
  6
CONTINUOUS
 10
-10.1369014213
 20
24.2369056521
 30
0.0
 11
-10.1369014213
 21
23.8443375673
 31
0.0
  0
LINE
  5
2B8
100
AcDbEntity
  8
RACCORDO
100
AcDbLine
 62
250
  6
CONTINUOUS
 10
-10.1369014213
 20
-23.8443375673
 30
0.0
 11
-10.1369014213
 21
-24.2369056521
 31
0.0
  0
LINE
  5
2B9
100
AcDbEntity
  8
SUPERFICI
100
AcDbLine
 62
7
  6
CONTINUOUS
 10
-10.1369014213
 20
-23.8443375673
 30
0.0
 11
-10.1369014213
 21
-24.2369056521
 31
0.0
  0
LINE
  5
2BA
100
AcDbEntity
  8
RACCORDO
100
AcDbLine
 62
250
  6
CONTINUOUS
 10
-9.8927234819
 20
23.1226497308
 30
0.0
 11
-9.8927234819
 21
22.3213883311
 31
0.0
  0
LINE
  5
2BB
100
AcDbEntity
  8
SUPERFICI
100
AcDbLine
 62
250
  6
CONTINUOUS
 10
-9.8927234819
 20
23.1226497308
 30
0.0
 11
-9.8927234819
 21
22.3213883311
 31
0.0
  0
LINE
  5
2BC
100
AcDbEntity
  8
RACCORDO
100
AcDbLine
 62
250
  6
CONTINUOUS
 10
-9.8927234819
 20
-22.3213883311
 30
0.0
 11
-9.8927234819
 21
-23.1226497308
 31
0.0
  0
LINE
  5
2BD
100
AcDbEntity
  8
SUPERFICI
100
AcDbLine
 62
250
  6
CONTINUOUS
 10
-9.8927234819
 20
-22.3213883311
 30
0.0
 11
-9.8927234819
 21
-23.1226497308
 31
0.0
  0
LINE
  5
2BE
100
AcDbEntity
  8
RACCORDO
100
AcDbLine
 62
250
  6
CONTINUOUS
 10
-9.8869056521
 20
-23.6278312164
 30
0.0
 11
-9.8869056521
 21
-24.4869014213
 31
0.0
  0
LINE
  5
2BF
100
AcDbEntity
  8
SUPERFICI
100
AcDbLine
 62
250
  6
CONTINUOUS
 10
-9.8869056521
 20
-23.6278312164
 30
0.0
 11
-9.8869056521
 21
-24.4869014213
 31
0.0
  0
LINE
  5
2C0
100
AcDbEntity
  8
RACCORDO
100
AcDbLine
 62
250
  6
CONTINUOUS
 10
-9.8869056521
 20
23.6278312164
 30
0.0
 11
-9.8869056521
 21
24.4869014213
 31
0.0
  0
LINE
  5
2C1
100
AcDbEntity
  8
SUPERFICI
100
AcDbLine
 62
250
  6
CONTINUOUS
 10
-9.8869056521
 20
23.6278312164
 30
0.0
 11
-9.8869056521
 21
24.4869014213
 31
0.0
  0
LINE
  5
2C2
100
AcDbEntity
  8
RACCORDO
100
AcDbLine
 62
250
  6
CONTINUOUS
 10
-10.1427192511
 20
23.2669872981
 30
0.0
 11
-10.1369014213
 21
23.8443375673
 31
0.0
  0
LINE
  5
2C3
100
AcDbEntity
  8
SUPERFICI
100
AcDbLine
 62
250
  6
CONTINUOUS
 10
-10.1427192511
 20
23.2669872981
 30
0.0
 11
-10.1369014213
 21
23.8443375673
 31
0.0
  0
LINE
  5
2C4
100
AcDbEntity
  8
RACCORDO
100
AcDbLine
 62
250
  6
CONTINUOUS
 10
-9.8919962532
 20
23.1226497308
 30
0.0
 11
-9.8869056521
 21
23.6278312164
 31
0.0
  0
LINE
  5
2C5
100
AcDbEntity
  8
SUPERFICI
100
AcDbLine
 62
250
  6
CONTINUOUS
 10
-9.8919962532
 20
23.1226497308
 30
0.0
 11
-9.8869056521
 21
23.6278312164
 31
0.0
  0
LINE
  5
2C6
100
AcDbEntity
  8
DRAFT
100
AcDbLine
 62
7
  6
CONTINUOUS
 10
-11.1849101299
 20
18.1473460386
 30
0.0
 11
-11.15
 21
18.5
 31
0.0
  0
LINE
  5
2C7
100
AcDbEntity
  8
SUPERFICI
100
AcDbLine
 62
7
  6
CONTINUOUS
 10
-11.1849101299
 20
18.1473460386
 30
0.0
 11
-11.15
 21
18.5
 31
0.0
  0
LINE
  5
2C8
100
AcDbEntity
  8
RACCORDO
100
AcDbLine
 62
250
  6
CONTINUOUS
 10
9.8869056521
 20
24.4869014213
 30
0.0
 11
9.9000042308
 21
24.5
 31
0.0
  0
LINE
  5
2C9
100
AcDbEntity
  8
SUPERFICI
100
AcDbLine
 62
250
  6
CONTINUOUS
 10
9.8869056521
 20
24.4869014213
 30
0.0
 11
9.9000042308
 21
24.5
 31
0.0
  0
LINE
  5
2CA
100
AcDbEntity
  8
RACCORDO
100
AcDbLine
 62
250
  6
CONTINUOUS
 10
10.1369014213
 20
24.2369056521
 30
0.0
 11
10.15
 21
24.2500042308
 31
0.0
  0
LINE
  5
2CB
100
AcDbEntity
  8
SUPERFICI
100
AcDbLine
 62
250
  6
CONTINUOUS
 10
10.1369014213
 20
24.2369056521
 30
0.0
 11
10.15
 21
24.2500042308
 31
0.0
  0
LINE
  5
2CC
100
AcDbEntity
  8
RACCORDO
100
AcDbLine
 62
250
  6
CONTINUOUS
 10
9.8869056521
 20
-24.4869014213
 30
0.0
 11
9.9000042308
 21
-24.5
 31
0.0
  0
LINE
  5
2CD
100
AcDbEntity
  8
SUPERFICI
100
AcDbLine
 62
250
  6
CONTINUOUS
 10
9.8869056521
 20
-24.4869014213
 30
0.0
 11
9.9000042308
 21
-24.5
 31
0.0
  0
LINE
  5
2CE
100
AcDbEntity
  8
RACCORDO
100
AcDbLine
 62
250
  6
CONTINUOUS
 10
10.1369014213
 20
-24.2369056521
 30
0.0
 11
10.15
 21
-24.2500042308
 31
0.0
  0
LINE
  5
2CF
100
AcDbEntity
  8
SUPERFICI
100
AcDbLine
 62
250
  6
CONTINUOUS
 10
10.1369014213
 20
-24.2369056521
 30
0.0
 11
10.15
 21
-24.2500042308
 31
0.0
  0
LINE
  5
2D0
100
AcDbEntity
  8
RACCORDO
100
AcDbLine
 62
250
  6
CONTINUOUS
 10
-7.5130943479
 20
23.6278312164
 30
0.0
 11
-7.5080037468
 21
23.1226497308
 31
0.0
  0
LINE
  5
2D1
100
AcDbEntity
  8
SUPERFICI
100
AcDbLine
 62
250
  6
CONTINUOUS
 10
-7.5130943479
 20
23.6278312164
 30
0.0
 11
-7.5080037468
 21
23.1226497308
 31
0.0
  0
LINE
  5
2D2
100
AcDbEntity
  8
RACCORDO
100
AcDbLine
 62
250
  6
CONTINUOUS
 10
-7.2630985787
 20
23.8443375673
 30
0.0
 11
-7.2572807489
 21
23.2669872981
 31
0.0
  0
LINE
  5
2D3
100
AcDbEntity
  8
SUPERFICI
100
AcDbLine
 62
250
  6
CONTINUOUS
 10
-7.2630985787
 20
23.8443375673
 30
0.0
 11
-7.2572807489
 21
23.2669872981
 31
0.0
  0
LINE
  5
2D4
100
AcDbEntity
  8
RACCORDO
100
AcDbLine
 62
250
  6
CONTINUOUS
 10
-7.5130943479
 20
-23.6278312164
 30
0.0
 11
-7.5130943479
 21
-24.4869014213
 31
0.0
  0
LINE
  5
2D5
100
AcDbEntity
  8
SUPERFICI
100
AcDbLine
 62
250
  6
CONTINUOUS
 10
-7.5130943479
 20
-23.6278312164
 30
0.0
 11
-7.5130943479
 21
-24.4869014213
 31
0.0
  0
LINE
  5
2D6
100
AcDbEntity
  8
RACCORDO
100
AcDbLine
 62
250
  6
CONTINUOUS
 10
-7.5130943479
 20
23.6278312164
 30
0.0
 11
-7.5130943479
 21
24.4869014213
 31
0.0
  0
LINE
  5
2D7
100
AcDbEntity
  8
SUPERFICI
100
AcDbLine
 62
250
  6
CONTINUOUS
 10
-7.5130943479
 20
23.6278312164
 30
0.0
 11
-7.5130943479
 21
24.4869014213
 31
0.0
  0
LINE
  5
2D8
100
AcDbEntity
  8
RACCORDO
100
AcDbLine
 62
250
  6
CONTINUOUS
 10
-7.5072765181
 20
-23.1226497308
 30
0.0
 11
-7.5072765181
 21
-22.3213883311
 31
0.0
  0
LINE
  5
2D9
100
AcDbEntity
  8
SUPERFICI
100
AcDbLine
 62
250
  6
CONTINUOUS
 10
-7.5072765181
 20
-23.1226497308
 30
0.0
 11
-7.5072765181
 21
-22.3213883311
 31
0.0
  0
LINE
  5
2DA
100
AcDbEntity
  8
RACCORDO
100
AcDbLine
 62
250
  6
CONTINUOUS
 10
-7.5072765181
 20
22.3213883311
 30
0.0
 11
-7.5072765181
 21
23.1226497308
 31
0.0
  0
LINE
  5
2DB
100
AcDbEntity
  8
SUPERFICI
100
AcDbLine
 62
250
  6
CONTINUOUS
 10
-7.5072765181
 20
22.3213883311
 30
0.0
 11
-7.5072765181
 21
23.1226497308
 31
0.0
  0
LINE
  5
2DC
100
AcDbEntity
  8
RACCORDO
100
AcDbLine
 62
250
  6
CONTINUOUS
 10
-7.2630985787
 20
-24.2369056521
 30
0.0
 11
-7.2630985787
 21
-23.8443375673
 31
0.0
  0
LINE
  5
2DD
100
AcDbEntity
  8
SUPERFICI
100
AcDbLine
 62
7
  6
CONTINUOUS
 10
-7.2630985787
 20
-24.2369056521
 30
0.0
 11
-7.2630985787
 21
-23.8443375673
 31
0.0
  0
LINE
  5
2DE
100
AcDbEntity
  8
RACCORDO
100
AcDbLine
 62
250
  6
CONTINUOUS
 10
-7.2630985787
 20
23.8443375673
 30
0.0
 11
-7.2630985787
 21
24.2369056521
 31
0.0
  0
LINE
  5
2DF
100
AcDbEntity
  8
SUPERFICI
100
AcDbLine
 62
7
  6
CONTINUOUS
 10
-7.2630985787
 20
23.8443375673
 30
0.0
 11
-7.2630985787
 21
24.2369056521
 31
0.0
  0
LINE
  5
2E0
100
AcDbEntity
  8
RACCORDO
100
AcDbLine
 62
250
  6
CONTINUOUS
 10
-7.2572807489
 20
-23.2669872981
 30
0.0
 11
-7.2572807489
 21
-22.3344140523
 31
0.0
  0
LINE
  5
2E1
100
AcDbEntity
  8
SUPERFICI
100
AcDbLine
 62
7
  6
CONTINUOUS
 10
-7.2572807489
 20
-23.2669872981
 30
0.0
 11
-7.2572807489
 21
-22.3344140523
 31
0.0
  0
LINE
  5
2E2
100
AcDbEntity
  8
RACCORDO
100
AcDbLine
 62
250
  6
CONTINUOUS
 10
-7.2572807489
 20
22.3344140523
 30
0.0
 11
-7.2572807489
 21
23.2669872981
 31
0.0
  0
LINE
  5
2E3
100
AcDbEntity
  8
SUPERFICI
100
AcDbLine
 62
7
  6
CONTINUOUS
 10
-7.2572807489
 20
22.3344140523
 30
0.0
 11
-7.2572807489
 21
23.2669872981
 31
0.0
  0
LINE
  5
2E4
100
AcDbEntity
  8
RACCORDO
100
AcDbLine
 62
7
  6
CONTINUOUS
 10
-7.25
 20
-22.4
 30
0.0
 11
-7.25
 21
-24.2500042308
 31
0.0
  0
LINE
  5
2E5
100
AcDbEntity
  8
SUPERFICI
100
AcDbLine
 62
7
  6
CONTINUOUS
 10
-7.25
 20
-22.4
 30
0.0
 11
-7.25
 21
-24.2500042308
 31
0.0
  0
LINE
  5
2E6
100
AcDbEntity
  8
RACCORDO
100
AcDbLine
 62
7
  6
CONTINUOUS
 10
-7.25
 20
22.4
 30
0.0
 11
-7.25
 21
24.2500042308
 31
0.0
  0
LINE
  5
2E7
100
AcDbEntity
  8
SUPERFICI
100
AcDbLine
 62
7
  6
CONTINUOUS
 10
-7.25
 20
22.4
 30
0.0
 11
-7.25
 21
24.2500042308
 31
0.0
  0
LINE
  5
2E8
100
AcDbEntity
  8
RACCORDO
100
AcDbLine
 62
250
  6
CONTINUOUS
 10
-7.5080037468
 20
-23.1226497308
 30
0.0
 11
-7.5130943479
 21
-23.6278312164
 31
0.0
  0
LINE
  5
2E9
100
AcDbEntity
  8
SUPERFICI
100
AcDbLine
 62
250
  6
CONTINUOUS
 10
-7.5080037468
 20
-23.1226497308
 30
0.0
 11
-7.5130943479
 21
-23.6278312164
 31
0.0
  0
LINE
  5
2EA
100
AcDbEntity
  8
RACCORDO
100
AcDbLine
 62
250
  6
CONTINUOUS
 10
-7.2572807489
 20
-23.2669872981
 30
0.0
 11
-7.2630985787
 21
-23.8443375673
 31
0.0
  0
LINE
  5
2EB
100
AcDbEntity
  8
SUPERFICI
100
AcDbLine
 62
250
  6
CONTINUOUS
 10
-7.2572807489
 20
-23.2669872981
 30
0.0
 11
-7.2630985787
 21
-23.8443375673
 31
0.0
  0
LINE
  5
2EC
100
AcDbEntity
  8
DRAFT
100
AcDbLine
 62
7
  6
CONTINUOUS
 10
-3.5
 20
22.3737961104
 30
0.0
 11
-3.5087268678
 21
22.3213883311
 31
0.0
  0
LINE
  5
2ED
100
AcDbEntity
  8
SUPERFICI
100
AcDbLine
 62
7
  6
CONTINUOUS
 10
-3.5
 20
22.3737961104
 30
0.0
 11
-3.5087268678
 21
22.3213883311
 31
0.0
  0
LWPOLYLINE
  5
2EE
100
AcDbEntity
  8
0
100
AcDbPolyline
 62
7
  6
CONTINUOUS
 90
3
 70
0
 43
0.3500000006
 10
1.1428571477
 20
34.2105557556
 10
1.0714285848
 20
33.9962712708
 10
0.9285714591
 20
33.710555603
  0
LINE
  5
2EF
100
AcDbEntity
  8
RACCORDO
100
AcDbLine
 62
250
  6
CONTINUOUS
 10
10.5118572029
 20
-9.5
 30
0.0
 11
-10.5118572029
 21
-9.5
 31
0.0
  0
LINE
  5
2F0
100
AcDbEntity
  8
DRAFT
100
AcDbLine
 62
7
  6
CONTINUOUS
 10
-3.5
 20
-22.3737961104
 30
0.0
 11
-3.5087268678
 21
-22.3213883311
 31
0.0
  0
LINE
  5
2F1
100
AcDbEntity
  8
SUPERFICI
100
AcDbLine
 62
7
  6
CONTINUOUS
 10
-3.5
 20
-22.3737961104
 30
0.0
 11
-3.5087268678
 21
-22.3213883311
 31
0.0
  0
LINE
  5
2F2
100
AcDbEntity
  8
ASSI
100
AcDbLine
 62
7
  6
CONTINUOUS
 10
-4.45
 20
-22.4
 30
0.0
 11
-4.45
 21
-24.0
 31
0.0
  0
LINE
  5
2F3
100
AcDbEntity
  8
SUPERFICI
100
AcDbLine
 62
7
  6
CONTINUOUS
 10
-4.45
 20
-22.4
 30
0.0
 11
-4.45
 21
-24.0
 31
0.0
  0
LINE
  5
2F4
100
AcDbEntity
  8
ASSI
100
AcDbLine
 62
7
  6
CONTINUOUS
 10
-4.45
 20
22.4
 30
0.0
 11
-4.45
 21
24.0
 31
0.0
  0
LINE
  5
2F5
100
AcDbEntity
  8
SUPERFICI
100
AcDbLine
 62
7
  6
CONTINUOUS
 10
-4.45
 20
22.4
 30
0.0
 11
-4.45
 21
24.0
 31
0.0
  0
LINE
  5
2F6
100
AcDbEntity
  8
DRAFT
100
AcDbLine
 62
7
  6
CONTINUOUS
 10
-4.4412732553
 20
23.9912732553
 30
0.0
 11
-4.4412732553
 21
22.3213883311
 31
0.0
  0
LINE
  5
2F7
100
AcDbEntity
  8
SUPERFICI
100
AcDbLine
 62
7
  6
CONTINUOUS
 10
-4.4412732553
 20
23.9912732553
 30
0.0
 11
-4.4412732553
 21
22.3213883311
 31
0.0
  0
LINE
  5
2F8
100
AcDbEntity
  8
DRAFT
100
AcDbLine
 62
7
  6
CONTINUOUS
 10
-4.4412732553
 20
-22.3213883311
 30
0.0
 11
-4.4412732553
 21
-23.9912732553
 31
0.0
  0
LINE
  5
2F9
100
AcDbEntity
  8
SUPERFICI
100
AcDbLine
 62
7
  6
CONTINUOUS
 10
-4.4412732553
 20
-22.3213883311
 30
0.0
 11
-4.4412732553
 21
-23.9912732553
 31
0.0
  0
LINE
  5
2FA
100
AcDbEntity
  8
DRAFT
100
AcDbLine
 62
7
  6
CONTINUOUS
 10
-3.5087268678
 20
-23.9912732553
 30
0.0
 11
-3.5087268678
 21
-22.3213883311
 31
0.0
  0
LINE
  5
2FB
100
AcDbEntity
  8
SUPERFICI
100
AcDbLine
 62
7
  6
CONTINUOUS
 10
-3.5087268678
 20
-23.9912732553
 30
0.0
 11
-3.5087268678
 21
-22.3213883311
 31
0.0
  0
LINE
  5
2FC
100
AcDbEntity
  8
DRAFT
100
AcDbLine
 62
7
  6
CONTINUOUS
 10
-3.5087268678
 20
22.3213883311
 30
0.0
 11
-3.5087268678
 21
23.9912732553
 31
0.0
  0
LINE
  5
2FD
100
AcDbEntity
  8
SUPERFICI
100
AcDbLine
 62
7
  6
CONTINUOUS
 10
-3.5087268678
 20
22.3213883311
 30
0.0
 11
-3.5087268678
 21
23.9912732553
 31
0.0
  0
LINE
  5
2FE
100
AcDbEntity
  8
RACCORDO
100
AcDbLine
 62
7
  6
CONTINUOUS
 10
-3.5
 20
23.7982512664
 30
0.0
 11
-3.5
 21
22.3737961104
 31
0.0
  0
LINE
  5
2FF
100
AcDbEntity
  8
SUPERFICI
100
AcDbLine
 62
7
  6
CONTINUOUS
 10
-3.5
 20
23.7982512664
 30
0.0
 11
-3.5
 21
22.3737961104
 31
0.0
  0
LINE
  5
300
100
AcDbEntity
  8
RACCORDO
100
AcDbLine
 62
7
  6
CONTINUOUS
 10
-3.5
 20
-23.7982512664
 30
0.0
 11
-3.5
 21
-22.3737961104
 31
0.0
  0
LINE
  5
301
100
AcDbEntity
  8
SUPERFICI
100
AcDbLine
 62
7
  6
CONTINUOUS
 10
-3.5
 20
-23.7982512664
 30
0.0
 11
-3.5
 21
-22.3737961104
 31
0.0
  0
LINE
  5
302
100
AcDbEntity
  8
0
100
AcDbLine
 62
250
  6
CONTINUOUS
 10
0.8153095521
 20
17.2426672258
 30
0.0
 11
1.0741350848
 21
18.20858252
 31
0.0
  0
LINE
  5
303
100
AcDbEntity
  8
0
100
AcDbLine
 62
250
  6
CONTINUOUS
 10
-1.0740629894
 20
10.1913981621
 30
0.0
 11
-0.8152548289
 21
11.1573181111
 31
0.0
  0
LINE
  5
304
100
AcDbEntity
  8
RACCORDO
100
AcDbLine
 62
250
  6
CONTINUOUS
 10
-11.15
 20
-21.8997711479
 30
0.0
 11
-11.0371391233
 21
-21.5609131753
 31
0.0
  0
LINE
  5
305
100
AcDbEntity
  8
RACCORDO
100
AcDbLine
 62
250
  6
CONTINUOUS
 10
-10.6503805997
 20
-22.4
 30
0.0
 11
-10.5372152757
 21
-22.0602279426
 31
0.0
  0
LINE
  5
306
100
AcDbEntity
  8
RACCORDO
100
AcDbLine
 62
250
  6
CONTINUOUS
 10
-11.0371391233
 20
21.5609131753
 30
0.0
 11
-11.15
 21
21.8997711479
 31
0.0
  0
LINE
  5
307
100
AcDbEntity
  8
RACCORDO
100
AcDbLine
 62
250
  6
CONTINUOUS
 10
-10.5372152757
 20
22.0602279426
 30
0.0
 11
-10.6503805997
 21
22.4
 31
0.0
  0
LINE
  5
308
100
AcDbEntity
  8
RACCORDO
100
AcDbLine
 62
250
  6
CONTINUOUS
 10
-1.202625676
 20
-22.3737961104
 30
0.0
 11
-1.202625676
 21
-23.9982478817
 31
0.0
  0
LINE
  5
309
100
AcDbEntity
  8
SUPERFICI
100
AcDbLine
 62
250
  6
CONTINUOUS
 10
-1.202625676
 20
-22.3737961104
 30
0.0
 11
-1.202625676
 21
-23.9982478817
 31
0.0
  0
LINE
  5
30A
100
AcDbEntity
  8
RACCORDO
100
AcDbLine
 62
250
  6
CONTINUOUS
 10
-1.202625676
 20
22.3737961104
 30
0.0
 11
-1.202625676
 21
23.9982478817
 31
0.0
  0
LINE
  5
30B
100
AcDbEntity
  8
SUPERFICI
100
AcDbLine
 62
250
  6
CONTINUOUS
 10
-1.202625676
 20
22.3737961104
 30
0.0
 11
-1.202625676
 21
23.9982478817
 31
0.0
  0
LINE
  5
30C
100
AcDbEntity
  8
RACCORDO
100
AcDbLine
 62
250
  6
CONTINUOUS
 10
-1.0026332914
 20
-23.7982512664
 30
0.0
 11
-1.0026332914
 21
-22.3841861985
 31
0.0
  0
LINE
  5
30D
100
AcDbEntity
  8
SUPERFICI
100
AcDbLine
 62
7
  6
CONTINUOUS
 10
-1.0026332914
 20
-23.7982512664
 30
0.0
 11
-1.0026332914
 21
-22.3841861985
 31
0.0
  0
LINE
  5
30E
100
AcDbEntity
  8
RACCORDO
100
AcDbLine
 62
250
  6
CONTINUOUS
 10
-1.0026332914
 20
22.3841861985
 30
0.0
 11
-1.0026332914
 21
23.7982512664
 31
0.0
  0
LINE
  5
30F
100
AcDbEntity
  8
SUPERFICI
100
AcDbLine
 62
7
  6
CONTINUOUS
 10
-1.0026332914
 20
22.3841861985
 30
0.0
 11
-1.0026332914
 21
23.7982512664
 31
0.0
  0
LINE
  5
310
100
AcDbEntity
  8
DRAFT
100
AcDbLine
 62
7
  6
CONTINUOUS
 10
-4.45
 20
-22.4
 30
0.0
 11
-4.4412732553
 21
-22.3213883311
 31
0.0
  0
LINE
  5
311
100
AcDbEntity
  8
SUPERFICI
100
AcDbLine
 62
7
  6
CONTINUOUS
 10
-4.45
 20
-22.4
 30
0.0
 11
-4.4412732553
 21
-22.3213883311
 31
0.0
  0
LWPOLYLINE
  5
312
100
AcDbEntity
  8
0
100
AcDbPolyline
 62
7
  6
CONTINUOUS
 90
2
 70
0
 43
0.3500000006
 10
18.4349100037
 20
-1.3571429443
 10
16.9349106789
 20
-1.3571429443
  0
LINE
  5
313
100
AcDbEntity
  8
0
100
AcDbLine
 62
250
  6
CONTINUOUS
 10
-4.1499999998
 20
-0.0000373193
 30
0.0
 11
-3.150008494
 21
-0.0000283268
 31
0.0
  0
LINE
  5
314
100
AcDbEntity
  8
0
100
AcDbLine
 62
250
  6
CONTINUOUS
 10
3.150008494
 20
-0.0000283268
 30
0.0
 11
4.1499999998
 21
-0.0000373193
 31
0.0
  0
LINE
  5
315
100
AcDbEntity
  8
DRAFT
100
AcDbLine
 62
7
  6
CONTINUOUS
 10
-4.4412732553
 20
22.3213883311
 30
0.0
 11
-4.45
 21
22.4
 31
0.0
  0
LINE
  5
316
100
AcDbEntity
  8
SUPERFICI
100
AcDbLine
 62
7
  6
CONTINUOUS
 10
-4.4412732553
 20
22.3213883311
 30
0.0
 11
-4.45
 21
22.4
 31
0.0
  0
LINE
  5
317
100
AcDbEntity
  8
RACCORDO
100
AcDbLine
 62
250
  6
CONTINUOUS
 10
1.0026332914
 20
23.7982512664
 30
0.0
 11
1.0026332914
 21
22.3841861985
 31
0.0
  0
LINE
  5
318
100
AcDbEntity
  8
SUPERFICI
100
AcDbLine
 62
7
  6
CONTINUOUS
 10
1.0026332914
 20
23.7982512664
 30
0.0
 11
1.0026332914
 21
22.3841861985
 31
0.0
  0
LINE
  5
319
100
AcDbEntity
  8
RACCORDO
100
AcDbLine
 62
250
  6
CONTINUOUS
 10
1.0026332914
 20
-22.3841861985
 30
0.0
 11
1.0026332914
 21
-23.7982512664
 31
0.0
  0
LINE
  5
31A
100
AcDbEntity
  8
SUPERFICI
100
AcDbLine
 62
7
  6
CONTINUOUS
 10
1.0026332914
 20
-22.3841861985
 30
0.0
 11
1.0026332914
 21
-23.7982512664
 31
0.0
  0
LINE
  5
31B
100
AcDbEntity
  8
RACCORDO
100
AcDbLine
 62
250
  6
CONTINUOUS
 10
1.202625676
 20
-22.3737961104
 30
0.0
 11
1.202625676
 21
-23.9982478817
 31
0.0
  0
LINE
  5
31C
100
AcDbEntity
  8
SUPERFICI
100
AcDbLine
 62
250
  6
CONTINUOUS
 10
1.202625676
 20
-22.3737961104
 30
0.0
 11
1.202625676
 21
-23.9982478817
 31
0.0
  0
LINE
  5
31D
100
AcDbEntity
  8
RACCORDO
100
AcDbLine
 62
250
  6
CONTINUOUS
 10
1.202625676
 20
22.3737961104
 30
0.0
 11
1.202625676
 21
23.9982478817
 31
0.0
  0
LINE
  5
31E
100
AcDbEntity
  8
SUPERFICI
100
AcDbLine
 62
250
  6
CONTINUOUS
 10
1.202625676
 20
22.3737961104
 30
0.0
 11
1.202625676
 21
23.9982478817
 31
0.0
  0
LINE
  5
31F
100
AcDbEntity
  8
RACCORDO
100
AcDbLine
 62
7
  6
CONTINUOUS
 10
3.5
 20
23.7982512664
 30
0.0
 11
3.5
 21
22.3737961104
 31
0.0
  0
LINE
  5
320
100
AcDbEntity
  8
SUPERFICI
100
AcDbLine
 62
7
  6
CONTINUOUS
 10
3.5
 20
23.7982512664
 30
0.0
 11
3.5
 21
22.3737961104
 31
0.0
  0
LINE
  5
321
100
AcDbEntity
  8
RACCORDO
100
AcDbLine
 62
7
  6
CONTINUOUS
 10
3.5
 20
-23.7982512664
 30
0.0
 11
3.5
 21
-22.3737961104
 31
0.0
  0
LINE
  5
322
100
AcDbEntity
  8
SUPERFICI
100
AcDbLine
 62
7
  6
CONTINUOUS
 10
3.5
 20
-23.7982512664
 30
0.0
 11
3.5
 21
-22.3737961104
 31
0.0
  0
LINE
  5
323
100
AcDbEntity
  8
DRAFT
100
AcDbLine
 62
7
  6
CONTINUOUS
 10
3.5087268678
 20
23.9912732553
 30
0.0
 11
3.5087268678
 21
22.3213883311
 31
0.0
  0
LINE
  5
324
100
AcDbEntity
  8
SUPERFICI
100
AcDbLine
 62
7
  6
CONTINUOUS
 10
3.5087268678
 20
23.9912732553
 30
0.0
 11
3.5087268678
 21
22.3213883311
 31
0.0
  0
LINE
  5
325
100
AcDbEntity
  8
DRAFT
100
AcDbLine
 62
7
  6
CONTINUOUS
 10
3.5087268678
 20
-22.3213883311
 30
0.0
 11
3.5087268678
 21
-23.9912732553
 31
0.0
  0
LINE
  5
326
100
AcDbEntity
  8
SUPERFICI
100
AcDbLine
 62
7
  6
CONTINUOUS
 10
3.5087268678
 20
-22.3213883311
 30
0.0
 11
3.5087268678
 21
-23.9912732553
 31
0.0
  0
LINE
  5
327
100
AcDbEntity
  8
DRAFT
100
AcDbLine
 62
7
  6
CONTINUOUS
 10
4.45
 20
22.4
 30
0.0
 11
4.4412732553
 21
22.3213883311
 31
0.0
  0
LINE
  5
328
100
AcDbEntity
  8
SUPERFICI
100
AcDbLine
 62
7
  6
CONTINUOUS
 10
4.45
 20
22.4
 30
0.0
 11
4.4412732553
 21
22.3213883311
 31
0.0
  0
LINE
  5
329
100
AcDbEntity
  8
0
100
AcDbLine
 62
250
  6
CONTINUOUS
 10
-1.0740629894
 20
-18.2086018379
 30
0.0
 11
-0.8152548289
 21
-17.2426818889
 31
0.0
  0
LINE
  5
32A
100
AcDbEntity
  8
0
100
AcDbLine
 62
250
  6
CONTINUOUS
 10
0.8153095521
 20
-11.1573327742
 30
0.0
 11
1.0741350848
 21
-10.19141748
 31
0.0
  0
LINE
  5
32B
100
AcDbEntity
  8
RACCORDO
100
AcDbLine
 62
250
  6
CONTINUOUS
 10
10.6503805997
 20
22.4
 30
0.0
 11
10.5372152757
 21
22.0602279426
 31
0.0
  0
LINE
  5
32C
100
AcDbEntity
  8
RACCORDO
100
AcDbLine
 62
250
  6
CONTINUOUS
 10
11.15
 20
21.8997711479
 30
0.0
 11
11.0371391233
 21
21.5609131753
 31
0.0
  0
LINE
  5
32D
100
AcDbEntity
  8
RACCORDO
100
AcDbLine
 62
250
  6
CONTINUOUS
 10
10.5372152757
 20
-22.0602279426
 30
0.0
 11
10.6503805997
 21
-22.4
 31
0.0
  0
LINE
  5
32E
100
AcDbEntity
  8
SUPERFICI
100
AcDbLine
 62
250
  6
CONTINUOUS
 10
10.5372152757
 20
-22.0602279426
 30
0.0
 11
10.6503805997
 21
-22.4
 31
0.0
  0
LINE
  5
32F
100
AcDbEntity
  8
RACCORDO
100
AcDbLine
 62
250
  6
CONTINUOUS
 10
11.0371391233
 20
-21.5609131753
 30
0.0
 11
11.15
 21
-21.8997711479
 31
0.0
  0
LINE
  5
330
100
AcDbEntity
  8
DRAFT
100
AcDbLine
 62
7
  6
CONTINUOUS
 10
4.4412732553
 20
-22.3213883311
 30
0.0
 11
4.45
 21
-22.4
 31
0.0
  0
LINE
  5
331
100
AcDbEntity
  8
SUPERFICI
100
AcDbLine
 62
7
  6
CONTINUOUS
 10
4.4412732553
 20
-22.3213883311
 30
0.0
 11
4.45
 21
-22.4
 31
0.0
  0
LINE
  5
332
100
AcDbEntity
  8
RACCORDO
100
AcDbLine
 62
250
  6
CONTINUOUS
 10
7.2630985787
 20
-23.8443375673
 30
0.0
 11
7.2572807489
 21
-23.2669872981
 31
0.0
  0
LINE
  5
333
100
AcDbEntity
  8
SUPERFICI
100
AcDbLine
 62
250
  6
CONTINUOUS
 10
7.2630985787
 20
-23.8443375673
 30
0.0
 11
7.2572807489
 21
-23.2669872981
 31
0.0
  0
LINE
  5
334
100
AcDbEntity
  8
RACCORDO
100
AcDbLine
 62
250
  6
CONTINUOUS
 10
7.5130943479
 20
-23.6278312164
 30
0.0
 11
7.5080037468
 21
-23.1226497308
 31
0.0
  0
LINE
  5
335
100
AcDbEntity
  8
SUPERFICI
100
AcDbLine
 62
250
  6
CONTINUOUS
 10
7.5130943479
 20
-23.6278312164
 30
0.0
 11
7.5080037468
 21
-23.1226497308
 31
0.0
  0
LINE
  5
336
100
AcDbEntity
  8
DRAFT
100
AcDbLine
 62
7
  6
CONTINUOUS
 10
4.4412732553
 20
-23.9912732553
 30
0.0
 11
4.4412732553
 21
-22.3213883311
 31
0.0
  0
LINE
  5
337
100
AcDbEntity
  8
SUPERFICI
100
AcDbLine
 62
7
  6
CONTINUOUS
 10
4.4412732553
 20
-23.9912732553
 30
0.0
 11
4.4412732553
 21
-22.3213883311
 31
0.0
  0
LINE
  5
338
100
AcDbEntity
  8
DRAFT
100
AcDbLine
 62
7
  6
CONTINUOUS
 10
4.4412732553
 20
22.3213883311
 30
0.0
 11
4.4412732553
 21
23.9912732553
 31
0.0
  0
LINE
  5
339
100
AcDbEntity
  8
SUPERFICI
100
AcDbLine
 62
7
  6
CONTINUOUS
 10
4.4412732553
 20
22.3213883311
 30
0.0
 11
4.4412732553
 21
23.9912732553
 31
0.0
  0
LINE
  5
33A
100
AcDbEntity
  8
ASSI
100
AcDbLine
 62
7
  6
CONTINUOUS
 10
4.45
 20
-22.4
 30
0.0
 11
4.45
 21
-24.0
 31
0.0
  0
LINE
  5
33B
100
AcDbEntity
  8
SUPERFICI
100
AcDbLine
 62
7
  6
CONTINUOUS
 10
4.45
 20
-22.4
 30
0.0
 11
4.45
 21
-24.0
 31
0.0
  0
LINE
  5
33C
100
AcDbEntity
  8
ASSI
100
AcDbLine
 62
7
  6
CONTINUOUS
 10
4.45
 20
22.4
 30
0.0
 11
4.45
 21
24.0
 31
0.0
  0
LINE
  5
33D
100
AcDbEntity
  8
SUPERFICI
100
AcDbLine
 62
7
  6
CONTINUOUS
 10
4.45
 20
22.4
 30
0.0
 11
4.45
 21
24.0
 31
0.0
  0
LINE
  5
33E
100
AcDbEntity
  8
RACCORDO
100
AcDbLine
 62
7
  6
CONTINUOUS
 10
7.25
 20
-22.4
 30
0.0
 11
7.25
 21
-24.2500042308
 31
0.0
  0
LINE
  5
33F
100
AcDbEntity
  8
SUPERFICI
100
AcDbLine
 62
7
  6
CONTINUOUS
 10
7.25
 20
-22.4
 30
0.0
 11
7.25
 21
-24.2500042308
 31
0.0
  0
LINE
  5
340
100
AcDbEntity
  8
RACCORDO
100
AcDbLine
 62
7
  6
CONTINUOUS
 10
7.25
 20
22.4
 30
0.0
 11
7.25
 21
24.2500042308
 31
0.0
  0
LINE
  5
341
100
AcDbEntity
  8
SUPERFICI
100
AcDbLine
 62
7
  6
CONTINUOUS
 10
7.25
 20
22.4
 30
0.0
 11
7.25
 21
24.2500042308
 31
0.0
  0
LINE
  5
342
100
AcDbEntity
  8
RACCORDO
100
AcDbLine
 62
250
  6
CONTINUOUS
 10
7.2572807489
 20
23.2669872981
 30
0.0
 11
7.2572807489
 21
22.3344140523
 31
0.0
  0
LINE
  5
343
100
AcDbEntity
  8
SUPERFICI
100
AcDbLine
 62
7
  6
CONTINUOUS
 10
7.2572807489
 20
23.2669872981
 30
0.0
 11
7.2572807489
 21
22.3344140523
 31
0.0
  0
LINE
  5
344
100
AcDbEntity
  8
RACCORDO
100
AcDbLine
 62
250
  6
CONTINUOUS
 10
7.2572807489
 20
-22.3344140523
 30
0.0
 11
7.2572807489
 21
-23.2669872981
 31
0.0
  0
LINE
  5
345
100
AcDbEntity
  8
SUPERFICI
100
AcDbLine
 62
7
  6
CONTINUOUS
 10
7.2572807489
 20
-22.3344140523
 30
0.0
 11
7.2572807489
 21
-23.2669872981
 31
0.0
  0
LINE
  5
346
100
AcDbEntity
  8
RACCORDO
100
AcDbLine
 62
250
  6
CONTINUOUS
 10
7.2630985787
 20
24.2369056521
 30
0.0
 11
7.2630985787
 21
23.8443375673
 31
0.0
  0
LINE
  5
347
100
AcDbEntity
  8
SUPERFICI
100
AcDbLine
 62
7
  6
CONTINUOUS
 10
7.2630985787
 20
24.2369056521
 30
0.0
 11
7.2630985787
 21
23.8443375673
 31
0.0
  0
LINE
  5
348
100
AcDbEntity
  8
RACCORDO
100
AcDbLine
 62
250
  6
CONTINUOUS
 10
7.2630985787
 20
-23.8443375673
 30
0.0
 11
7.2630985787
 21
-24.2369056521
 31
0.0
  0
LINE
  5
349
100
AcDbEntity
  8
SUPERFICI
100
AcDbLine
 62
7
  6
CONTINUOUS
 10
7.2630985787
 20
-23.8443375673
 30
0.0
 11
7.2630985787
 21
-24.2369056521
 31
0.0
  0
LINE
  5
34A
100
AcDbEntity
  8
RACCORDO
100
AcDbLine
 62
250
  6
CONTINUOUS
 10
7.2572807489
 20
23.2669872981
 30
0.0
 11
7.2630985787
 21
23.8443375673
 31
0.0
  0
LINE
  5
34B
100
AcDbEntity
  8
SUPERFICI
100
AcDbLine
 62
250
  6
CONTINUOUS
 10
7.2572807489
 20
23.2669872981
 30
0.0
 11
7.2630985787
 21
23.8443375673
 31
0.0
  0
LINE
  5
34C
100
AcDbEntity
  8
RACCORDO
100
AcDbLine
 62
250
  6
CONTINUOUS
 10
7.5080037468
 20
23.1226497308
 30
0.0
 11
7.5130943479
 21
23.6278312164
 31
0.0
  0
LINE
  5
34D
100
AcDbEntity
  8
SUPERFICI
100
AcDbLine
 62
250
  6
CONTINUOUS
 10
7.5080037468
 20
23.1226497308
 30
0.0
 11
7.5130943479
 21
23.6278312164
 31
0.0
  0
LINE
  5
34E
100
AcDbEntity
  8
DRAFT
100
AcDbLine
 62
7
  6
CONTINUOUS
 10
3.5087268678
 20
-22.3213883311
 30
0.0
 11
3.5
 21
-22.3737961104
 31
0.0
  0
LINE
  5
34F
100
AcDbEntity
  8
SUPERFICI
100
AcDbLine
 62
7
  6
CONTINUOUS
 10
3.5087268678
 20
-22.3213883311
 30
0.0
 11
3.5
 21
-22.3737961104
 31
0.0
  0
LINE
  5
350
100
AcDbEntity
  8
DRAFT
100
AcDbLine
 62
7
  6
CONTINUOUS
 10
3.5
 20
22.3737961104
 30
0.0
 11
3.5087268678
 21
22.3213883311
 31
0.0
  0
LINE
  5
351
100
AcDbEntity
  8
SUPERFICI
100
AcDbLine
 62
7
  6
CONTINUOUS
 10
3.5
 20
22.3737961104
 30
0.0
 11
3.5087268678
 21
22.3213883311
 31
0.0
  0
LINE
  5
352
100
AcDbEntity
  8
RACCORDO
100
AcDbLine
 62
250
  6
CONTINUOUS
 10
9.8869056521
 20
23.6278312164
 30
0.0
 11
9.8919962532
 21
23.1226497308
 31
0.0
  0
LINE
  5
353
100
AcDbEntity
  8
SUPERFICI
100
AcDbLine
 62
250
  6
CONTINUOUS
 10
9.8869056521
 20
23.6278312164
 30
0.0
 11
9.8919962532
 21
23.1226497308
 31
0.0
  0
LINE
  5
354
100
AcDbEntity
  8
RACCORDO
100
AcDbLine
 62
250
  6
CONTINUOUS
 10
10.1369014213
 20
23.8443375673
 30
0.0
 11
10.1427192511
 21
23.2669872981
 31
0.0
  0
LINE
  5
355
100
AcDbEntity
  8
SUPERFICI
100
AcDbLine
 62
250
  6
CONTINUOUS
 10
10.1369014213
 20
23.8443375673
 30
0.0
 11
10.1427192511
 21
23.2669872981
 31
0.0
  0
LINE
  5
356
100
AcDbEntity
  8
RACCORDO
100
AcDbLine
 62
250
  6
CONTINUOUS
 10
7.5072765181
 20
23.1226497308
 30
0.0
 11
7.5072765181
 21
22.3213883311
 31
0.0
  0
LINE
  5
357
100
AcDbEntity
  8
SUPERFICI
100
AcDbLine
 62
250
  6
CONTINUOUS
 10
7.5072765181
 20
23.1226497308
 30
0.0
 11
7.5072765181
 21
22.3213883311
 31
0.0
  0
LINE
  5
358
100
AcDbEntity
  8
RACCORDO
100
AcDbLine
 62
250
  6
CONTINUOUS
 10
7.5072765181
 20
-22.3213883311
 30
0.0
 11
7.5072765181
 21
-23.1226497308
 31
0.0
  0
LINE
  5
359
100
AcDbEntity
  8
SUPERFICI
100
AcDbLine
 62
250
  6
CONTINUOUS
 10
7.5072765181
 20
-22.3213883311
 30
0.0
 11
7.5072765181
 21
-23.1226497308
 31
0.0
  0
LINE
  5
35A
100
AcDbEntity
  8
RACCORDO
100
AcDbLine
 62
250
  6
CONTINUOUS
 10
7.5130943479
 20
-23.6278312164
 30
0.0
 11
7.5130943479
 21
-24.4869014213
 31
0.0
  0
LINE
  5
35B
100
AcDbEntity
  8
SUPERFICI
100
AcDbLine
 62
250
  6
CONTINUOUS
 10
7.5130943479
 20
-23.6278312164
 30
0.0
 11
7.5130943479
 21
-24.4869014213
 31
0.0
  0
LINE
  5
35C
100
AcDbEntity
  8
RACCORDO
100
AcDbLine
 62
250
  6
CONTINUOUS
 10
7.5130943479
 20
23.6278312164
 30
0.0
 11
7.5130943479
 21
24.4869014213
 31
0.0
  0
LINE
  5
35D
100
AcDbEntity
  8
SUPERFICI
100
AcDbLine
 62
250
  6
CONTINUOUS
 10
7.5130943479
 20
23.6278312164
 30
0.0
 11
7.5130943479
 21
24.4869014213
 31
0.0
  0
LINE
  5
35E
100
AcDbEntity
  8
RACCORDO
100
AcDbLine
 62
250
  6
CONTINUOUS
 10
9.8869056521
 20
-23.6278312164
 30
0.0
 11
9.8869056521
 21
-24.4869014213
 31
0.0
  0
LINE
  5
35F
100
AcDbEntity
  8
SUPERFICI
100
AcDbLine
 62
250
  6
CONTINUOUS
 10
9.8869056521
 20
-23.6278312164
 30
0.0
 11
9.8869056521
 21
-24.4869014213
 31
0.0
  0
LINE
  5
360
100
AcDbEntity
  8
RACCORDO
100
AcDbLine
 62
250
  6
CONTINUOUS
 10
9.8869056521
 20
23.6278312164
 30
0.0
 11
9.8869056521
 21
24.4869014213
 31
0.0
  0
LINE
  5
361
100
AcDbEntity
  8
SUPERFICI
100
AcDbLine
 62
250
  6
CONTINUOUS
 10
9.8869056521
 20
23.6278312164
 30
0.0
 11
9.8869056521
 21
24.4869014213
 31
0.0
  0
LINE
  5
362
100
AcDbEntity
  8
RACCORDO
100
AcDbLine
 62
250
  6
CONTINUOUS
 10
9.8927234819
 20
-23.1226497308
 30
0.0
 11
9.8927234819
 21
-22.3213883311
 31
0.0
  0
LINE
  5
363
100
AcDbEntity
  8
SUPERFICI
100
AcDbLine
 62
250
  6
CONTINUOUS
 10
9.8927234819
 20
-23.1226497308
 30
0.0
 11
9.8927234819
 21
-22.3213883311
 31
0.0
  0
LINE
  5
364
100
AcDbEntity
  8
RACCORDO
100
AcDbLine
 62
250
  6
CONTINUOUS
 10
9.8927234819
 20
22.3213883311
 30
0.0
 11
9.8927234819
 21
23.1226497308
 31
0.0
  0
LINE
  5
365
100
AcDbEntity
  8
SUPERFICI
100
AcDbLine
 62
250
  6
CONTINUOUS
 10
9.8927234819
 20
22.3213883311
 30
0.0
 11
9.8927234819
 21
23.1226497308
 31
0.0
  0
LINE
  5
366
100
AcDbEntity
  8
RACCORDO
100
AcDbLine
 62
250
  6
CONTINUOUS
 10
10.1369014213
 20
-24.2369056521
 30
0.0
 11
10.1369014213
 21
-23.8443375673
 31
0.0
  0
LINE
  5
367
100
AcDbEntity
  8
SUPERFICI
100
AcDbLine
 62
7
  6
CONTINUOUS
 10
10.1369014213
 20
-24.2369056521
 30
0.0
 11
10.1369014213
 21
-23.8443375673
 31
0.0
  0
LINE
  5
368
100
AcDbEntity
  8
RACCORDO
100
AcDbLine
 62
250
  6
CONTINUOUS
 10
10.1369014213
 20
23.8443375673
 30
0.0
 11
10.1369014213
 21
24.2369056521
 31
0.0
  0
LINE
  5
369
100
AcDbEntity
  8
SUPERFICI
100
AcDbLine
 62
7
  6
CONTINUOUS
 10
10.1369014213
 20
23.8443375673
 30
0.0
 11
10.1369014213
 21
24.2369056521
 31
0.0
  0
LINE
  5
36A
100
AcDbEntity
  8
RACCORDO
100
AcDbLine
 62
250
  6
CONTINUOUS
 10
10.1427192511
 20
-23.2669872981
 30
0.0
 11
10.1427192511
 21
-22.3344140523
 31
0.0
  0
LINE
  5
36B
100
AcDbEntity
  8
SUPERFICI
100
AcDbLine
 62
7
  6
CONTINUOUS
 10
10.1427192511
 20
-23.2669872981
 30
0.0
 11
10.1427192511
 21
-22.3344140523
 31
0.0
  0
LINE
  5
36C
100
AcDbEntity
  8
RACCORDO
100
AcDbLine
 62
250
  6
CONTINUOUS
 10
10.1427192511
 20
22.3344140523
 30
0.0
 11
10.1427192511
 21
23.2669872981
 31
0.0
  0
LINE
  5
36D
100
AcDbEntity
  8
SUPERFICI
100
AcDbLine
 62
7
  6
CONTINUOUS
 10
10.1427192511
 20
22.3344140523
 30
0.0
 11
10.1427192511
 21
23.2669872981
 31
0.0
  0
LINE
  5
36E
100
AcDbEntity
  8
RACCORDO
100
AcDbLine
 62
7
  6
CONTINUOUS
 10
10.15
 20
-22.4
 30
0.0
 11
10.15
 21
-24.2500042308
 31
0.0
  0
LINE
  5
36F
100
AcDbEntity
  8
SUPERFICI
100
AcDbLine
 62
7
  6
CONTINUOUS
 10
10.15
 20
-22.4
 30
0.0
 11
10.15
 21
-24.2500042308
 31
0.0
  0
LINE
  5
370
100
AcDbEntity
  8
RACCORDO
100
AcDbLine
 62
7
  6
CONTINUOUS
 10
10.15
 20
22.4
 30
0.0
 11
10.15
 21
24.2500042308
 31
0.0
  0
LINE
  5
371
100
AcDbEntity
  8
SUPERFICI
100
AcDbLine
 62
7
  6
CONTINUOUS
 10
10.15
 20
22.4
 30
0.0
 11
10.15
 21
24.2500042308
 31
0.0
  0
LINE
  5
372
100
AcDbEntity
  8
RACCORDO
100
AcDbLine
 62
250
  6
CONTINUOUS
 10
9.8919962532
 20
-23.1226497308
 30
0.0
 11
9.8869056521
 21
-23.6278312164
 31
0.0
  0
LINE
  5
373
100
AcDbEntity
  8
SUPERFICI
100
AcDbLine
 62
250
  6
CONTINUOUS
 10
9.8919962532
 20
-23.1226497308
 30
0.0
 11
9.8869056521
 21
-23.6278312164
 31
0.0
  0
LINE
  5
374
100
AcDbEntity
  8
RACCORDO
100
AcDbLine
 62
250
  6
CONTINUOUS
 10
10.1427192511
 20
-23.2669872981
 30
0.0
 11
10.1369014213
 21
-23.8443375673
 31
0.0
  0
LINE
  5
375
100
AcDbEntity
  8
SUPERFICI
100
AcDbLine
 62
250
  6
CONTINUOUS
 10
10.1427192511
 20
-23.2669872981
 30
0.0
 11
10.1369014213
 21
-23.8443375673
 31
0.0
  0
LINE
  5
376
100
AcDbEntity
  8
RACCORDO
100
AcDbLine
 62
250
  6
CONTINUOUS
 10
-10.1369014213
 20
-24.2369056521
 30
0.0
 11
-10.15
 21
-24.2500042308
 31
0.0
  0
LINE
  5
377
100
AcDbEntity
  8
SUPERFICI
100
AcDbLine
 62
250
  6
CONTINUOUS
 10
-10.1369014213
 20
-24.2369056521
 30
0.0
 11
-10.15
 21
-24.2500042308
 31
0.0
  0
LINE
  5
378
100
AcDbEntity
  8
RACCORDO
100
AcDbLine
 62
250
  6
CONTINUOUS
 10
-9.8869056521
 20
-24.4869014213
 30
0.0
 11
-9.9000042308
 21
-24.5
 31
0.0
  0
LINE
  5
379
100
AcDbEntity
  8
SUPERFICI
100
AcDbLine
 62
250
  6
CONTINUOUS
 10
-9.8869056521
 20
-24.4869014213
 30
0.0
 11
-9.9000042308
 21
-24.5
 31
0.0
  0
LINE
  5
37A
100
AcDbEntity
  8
RACCORDO
100
AcDbLine
 62
250
  6
CONTINUOUS
 10
10.5118572029
 20
9.5
 30
0.0
 11
-10.5118572029
 21
9.5
 31
0.0
  0
LINE
  5
37B
100
AcDbEntity
  8
RACCORDO
100
AcDbLine
 62
250
  6
CONTINUOUS
 10
-10.1369014213
 20
24.2369056521
 30
0.0
 11
-10.15
 21
24.2500042308
 31
0.0
  0
LINE
  5
37C
100
AcDbEntity
  8
SUPERFICI
100
AcDbLine
 62
250
  6
CONTINUOUS
 10
-10.1369014213
 20
24.2369056521
 30
0.0
 11
-10.15
 21
24.2500042308
 31
0.0
  0
LINE
  5
37D
100
AcDbEntity
  8
RACCORDO
100
AcDbLine
 62
250
  6
CONTINUOUS
 10
-9.8869056521
 20
24.4869014213
 30
0.0
 11
-9.9000042308
 21
24.5
 31
0.0
  0
LINE
  5
37E
100
AcDbEntity
  8
SUPERFICI
100
AcDbLine
 62
250
  6
CONTINUOUS
 10
-9.8869056521
 20
24.4869014213
 30
0.0
 11
-9.9000042308
 21
24.5
 31
0.0
  0
LINE
  5
37F
100
AcDbEntity
  8
DRAFT
100
AcDbLine
 62
7
  6
CONTINUOUS
 10
11.1849101299
 20
18.1473460386
 30
0.0
 11
11.15
 21
18.5
 31
0.0
  0
LINE
  5
380
100
AcDbEntity
  8
SUPERFICI
100
AcDbLine
 62
7
  6
CONTINUOUS
 10
11.1849101299
 20
18.1473460386
 30
0.0
 11
11.15
 21
18.5
 31
0.0
  0
LINE
  5
381
100
AcDbEntity
  8
RACCORDO
100
AcDbLine
 62
7
  6
CONTINUOUS
 10
11.15
 20
21.900016923
 30
0.0
 11
11.15
 21
18.5
 31
0.0
  0
LINE
  5
382
100
AcDbEntity
  8
SUPERFICI
100
AcDbLine
 62
7
  6
CONTINUOUS
 10
11.15
 20
21.900016923
 30
0.0
 11
11.15
 21
18.5
 31
0.0
  0
LINE
  5
383
100
AcDbEntity
  8
RACCORDO
100
AcDbLine
 62
7
  6
CONTINUOUS
 10
11.15
 20
-21.900016923
 30
0.0
 11
11.15
 21
-18.5
 31
0.0
  0
LINE
  5
384
100
AcDbEntity
  8
SUPERFICI
100
AcDbLine
 62
7
  6
CONTINUOUS
 10
11.15
 20
-21.900016923
 30
0.0
 11
11.15
 21
-18.5
 31
0.0
  0
LINE
  5
385
100
AcDbEntity
  8
DRAFT
100
AcDbLine
 62
7
  6
CONTINUOUS
 10
11.1849101299
 20
18.1473460386
 30
0.0
 11
11.1849101299
 21
-18.1473460386
 31
0.0
  0
LINE
  5
386
100
AcDbEntity
  8
SUPERFICI
100
AcDbLine
 62
7
  6
CONTINUOUS
 10
11.1849101299
 20
18.1473460386
 30
0.0
 11
11.1849101299
 21
-18.1473460386
 31
0.0
  0
LINE
  5
387
100
AcDbEntity
  8
DRAFT
100
AcDbLine
 62
7
  6
CONTINUOUS
 10
11.15
 20
-18.5
 30
0.0
 11
11.1849101299
 21
-18.1473460386
 31
0.0
  0
LINE
  5
388
100
AcDbEntity
  8
SUPERFICI
100
AcDbLine
 62
7
  6
CONTINUOUS
 10
11.15
 20
-18.5
 30
0.0
 11
11.1849101299
 21
-18.1473460386
 31
0.0
  0
LINE
  5
389
100
AcDbEntity
  8
DRAFT
100
AcDbLine
 62
7
  6
CONTINUOUS
 10
-4.45
 20
-24.0
 30
0.0
 11
-4.4412732553
 21
-23.9912732553
 31
0.0
  0
LINE
  5
38A
100
AcDbEntity
  8
SUPERFICI
100
AcDbLine
 62
7
  6
CONTINUOUS
 10
-4.45
 20
-24.0
 30
0.0
 11
-4.4412732553
 21
-23.9912732553
 31
0.0
  0
LWPOLYLINE
  5
38B
100
AcDbEntity
  8
0
100
AcDbPolyline
 62
7
  6
CONTINUOUS
 90
10
 70
0
 43
0.3500000006
 10
18.4349100037
 20
0.4285709152
 10
17.5777675323
 20
1.2857133865
 10
16.7206239281
 20
1.5000001373
 10
15.8634814568
 20
1.5000001373
 10
15.4349102211
 20
1.0714289017
 10
15.4349102211
 20
0.4285709152
 10
15.8634814568
 20
-0.0000003204
 10
16.7206239281
 20
-0.0000003204
 10
17.1491962967
 20
0.4285709152
 10
17.1491962967
 20
1.3571423035
  0
LINE
  5
38C
100
AcDbEntity
  8
DRAFT
100
AcDbLine
 62
7
  6
CONTINUOUS
 10
-4.45
 20
24.0
 30
0.0
 11
-4.4412732553
 21
23.9912732553
 31
0.0
  0
LINE
  5
38D
100
AcDbEntity
  8
SUPERFICI
100
AcDbLine
 62
7
  6
CONTINUOUS
 10
-4.45
 20
24.0
 30
0.0
 11
-4.4412732553
 21
23.9912732553
 31
0.0
  0
LWPOLYLINE
  5
38E
100
AcDbEntity
  8
0
100
AcDbPolyline
 62
7
  6
CONTINUOUS
 90
10
 70
0
 43
0.3500000006
 10
1.0714285848
 20
34.4248402405
 10
1.1428571477
 20
34.2819869385
 10
1.1428571477
 20
34.2105557556
 10
1.0000000219
 20
34.0676979218
 10
0.9285714591
 20
34.0676979218
 10
0.8571428254
 20
34.1391291046
 10
0.8571428254
 20
34.2105557556
 10
0.9285714591
 20
34.3534135895
 10
1.0000000219
 20
34.4248402405
 10
1.0714285848
 20
34.4248402405
  0
LWPOLYLINE
  5
38F
100
AcDbEntity
  8
0
100
AcDbPolyline
 62
7
  6
CONTINUOUS
 90
3
 70
0
 43
0.3500000006
 10
17.7920531502
 20
-0.8571427917
 10
17.7920531502
 20
-2.3571432495
 10
15.4349102211
 20
-1.7142852631
  0
LINE
  5
390
100
AcDbEntity
  8
RACCORDO
100
AcDbLine
 62
250
  6
CONTINUOUS
 10
7.2630985787
 20
-24.2369056521
 30
0.0
 11
7.25
 21
-24.2500042308
 31
0.0
  0
LINE
  5
391
100
AcDbEntity
  8
SUPERFICI
100
AcDbLine
 62
250
  6
CONTINUOUS
 10
7.2630985787
 20
-24.2369056521
 30
0.0
 11
7.25
 21
-24.2500042308
 31
0.0
  0
LINE
  5
392
100
AcDbEntity
  8
RACCORDO
100
AcDbLine
 62
250
  6
CONTINUOUS
 10
7.5130943479
 20
-24.4869014213
 30
0.0
 11
7.4999957692
 21
-24.5
 31
0.0
  0
LINE
  5
393
100
AcDbEntity
  8
SUPERFICI
100
AcDbLine
 62
250
  6
CONTINUOUS
 10
7.5130943479
 20
-24.4869014213
 30
0.0
 11
7.4999957692
 21
-24.5
 31
0.0
  0
LINE
  5
394
100
AcDbEntity
  8
RACCORDO
100
AcDbLine
 62
7
  6
CONTINUOUS
 10
3.5087268678
 20
-23.9912732553
 30
0.0
 11
3.4982647806
 21
-23.9982478817
 31
0.0
  0
LINE
  5
395
100
AcDbEntity
  8
SUPERFICI
100
AcDbLine
 62
7
  6
CONTINUOUS
 10
3.5087268678
 20
-23.9912732553
 30
0.0
 11
3.4982647806
 21
-23.9982478817
 31
0.0
  0
LINE
  5
396
100
AcDbEntity
  8
RACCORDO
100
AcDbLine
 62
250
  6
CONTINUOUS
 10
-10.5290420874
 20
21.2107174911
 30
0.0
 11
10.5290420874
 21
21.2107174911
 31
0.0
  0
LINE
  5
397
100
AcDbEntity
  8
RACCORDO
100
AcDbLine
 62
250
  6
CONTINUOUS
 10
-10.5372152757
 20
22.0602279426
 30
0.0
 11
10.5372152757
 21
22.0602279426
 31
0.0
  0
LINE
  5
398
100
AcDbEntity
  8
SUPERFICI
100
AcDbLine
 62
250
  6
CONTINUOUS
 10
-10.5372152757
 20
22.0602279426
 30
0.0
 11
10.5372152757
 21
22.0602279426
 31
0.0
  0
LINE
  5
399
100
AcDbEntity
  8
RACCORDO
100
AcDbLine
 62
7
  6
CONTINUOUS
 10
9.8927234819
 20
22.3213883311
 30
0.0
 11
7.5072765181
 21
22.3213883311
 31
0.0
  0
LINE
  5
39A
100
AcDbEntity
  8
SUPERFICI
100
AcDbLine
 62
7
  6
CONTINUOUS
 10
9.8927234819
 20
22.3213883311
 30
0.0
 11
7.5072765181
 21
22.3213883311
 31
0.0
  0
LINE
  5
39B
100
AcDbEntity
  8
DRAFT
100
AcDbLine
 62
7
  6
CONTINUOUS
 10
4.4412732553
 20
22.3213883311
 30
0.0
 11
3.5087268678
 21
22.3213883311
 31
0.0
  0
LINE
  5
39C
100
AcDbEntity
  8
SUPERFICI
100
AcDbLine
 62
7
  6
CONTINUOUS
 10
4.4412732553
 20
22.3213883311
 30
0.0
 11
3.5087268678
 21
22.3213883311
 31
0.0
  0
LINE
  5
39D
100
AcDbEntity
  8
DRAFT
100
AcDbLine
 62
7
  6
CONTINUOUS
 10
-3.5087268678
 20
22.3213883311
 30
0.0
 11
-4.4412732553
 21
22.3213883311
 31
0.0
  0
LINE
  5
39E
100
AcDbEntity
  8
SUPERFICI
100
AcDbLine
 62
7
  6
CONTINUOUS
 10
-3.5087268678
 20
22.3213883311
 30
0.0
 11
-4.4412732553
 21
22.3213883311
 31
0.0
  0
LINE
  5
39F
100
AcDbEntity
  8
RACCORDO
100
AcDbLine
 62
7
  6
CONTINUOUS
 10
-7.5072765181
 20
22.3213883311
 30
0.0
 11
-9.8927234819
 21
22.3213883311
 31
0.0
  0
LINE
  5
3A0
100
AcDbEntity
  8
SUPERFICI
100
AcDbLine
 62
7
  6
CONTINUOUS
 10
-7.5072765181
 20
22.3213883311
 30
0.0
 11
-9.8927234819
 21
22.3213883311
 31
0.0
  0
LINE
  5
3A1
100
AcDbEntity
  8
RACCORDO
100
AcDbLine
 62
7
  6
CONTINUOUS
 10
-3.5
 20
22.3737961104
 30
0.0
 11
-1.202625676
 21
22.3737961104
 31
0.0
  0
LINE
  5
3A2
100
AcDbEntity
  8
SUPERFICI
100
AcDbLine
 62
7
  6
CONTINUOUS
 10
-3.5
 20
22.3737961104
 30
0.0
 11
-1.202625676
 21
22.3737961104
 31
0.0
  0
LINE
  5
3A3
100
AcDbEntity
  8
RACCORDO
100
AcDbLine
 62
7
  6
CONTINUOUS
 10
1.202625676
 20
22.3737961104
 30
0.0
 11
3.5
 21
22.3737961104
 31
0.0
  0
LINE
  5
3A4
100
AcDbEntity
  8
SUPERFICI
100
AcDbLine
 62
7
  6
CONTINUOUS
 10
1.202625676
 20
22.3737961104
 30
0.0
 11
3.5
 21
22.3737961104
 31
0.0
  0
LINE
  5
3A5
100
AcDbEntity
  8
DRAFT
100
AcDbLine
 62
7
  6
CONTINUOUS
 10
-10.6503805997
 20
22.4
 30
0.0
 11
-10.15
 21
22.4
 31
0.0
  0
LINE
  5
3A6
100
AcDbEntity
  8
SUPERFICI
100
AcDbLine
 62
7
  6
CONTINUOUS
 10
-10.6503805997
 20
22.4
 30
0.0
 11
-10.15
 21
22.4
 31
0.0
  0
LINE
  5
3A7
100
AcDbEntity
  8
DRAFT
100
AcDbLine
 62
7
  6
CONTINUOUS
 10
-7.25
 20
22.4
 30
0.0
 11
-4.45
 21
22.4
 31
0.0
  0
LINE
  5
3A8
100
AcDbEntity
  8
SUPERFICI
100
AcDbLine
 62
7
  6
CONTINUOUS
 10
-7.25
 20
22.4
 30
0.0
 11
-4.45
 21
22.4
 31
0.0
  0
LINE
  5
3A9
100
AcDbEntity
  8
DRAFT
100
AcDbLine
 62
7
  6
CONTINUOUS
 10
1.0
 20
22.4
 30
0.0
 11
-1.0
 21
22.4
 31
0.0
  0
LINE
  5
3AA
100
AcDbEntity
  8
SUPERFICI
100
AcDbLine
 62
7
  6
CONTINUOUS
 10
1.0
 20
22.4
 30
0.0
 11
-1.0
 21
22.4
 31
0.0
  0
LINE
  5
3AB
100
AcDbEntity
  8
DRAFT
100
AcDbLine
 62
7
  6
CONTINUOUS
 10
4.45
 20
22.4
 30
0.0
 11
7.25
 21
22.4
 31
0.0
  0
LINE
  5
3AC
100
AcDbEntity
  8
SUPERFICI
100
AcDbLine
 62
7
  6
CONTINUOUS
 10
4.45
 20
22.4
 30
0.0
 11
7.25
 21
22.4
 31
0.0
  0
LINE
  5
3AD
100
AcDbEntity
  8
DRAFT
100
AcDbLine
 62
7
  6
CONTINUOUS
 10
10.15
 20
22.4
 30
0.0
 11
10.6503805997
 21
22.4
 31
0.0
  0
LINE
  5
3AE
100
AcDbEntity
  8
SUPERFICI
100
AcDbLine
 62
7
  6
CONTINUOUS
 10
10.15
 20
22.4
 30
0.0
 11
10.6503805997
 21
22.4
 31
0.0
  0
LINE
  5
3AF
100
AcDbEntity
  8
RACCORDO
100
AcDbLine
 62
7
  6
CONTINUOUS
 10
-9.8927234819
 20
23.1226497308
 30
0.0
 11
-7.5072765181
 21
23.1226497308
 31
0.0
  0
LINE
  5
3B0
100
AcDbEntity
  8
SUPERFICI
100
AcDbLine
 62
7
  6
CONTINUOUS
 10
-9.8927234819
 20
23.1226497308
 30
0.0
 11
-7.5072765181
 21
23.1226497308
 31
0.0
  0
LINE
  5
3B1
100
AcDbEntity
  8
RACCORDO
100
AcDbLine
 62
7
  6
CONTINUOUS
 10
9.8927234819
 20
23.1226497308
 30
0.0
 11
7.5072765181
 21
23.1226497308
 31
0.0
  0
LINE
  5
3B2
100
AcDbEntity
  8
SUPERFICI
100
AcDbLine
 62
7
  6
CONTINUOUS
 10
9.8927234819
 20
23.1226497308
 30
0.0
 11
7.5072765181
 21
23.1226497308
 31
0.0
  0
LINE
  5
3B3
100
AcDbEntity
  8
RACCORDO
100
AcDbLine
 62
250
  6
CONTINUOUS
 10
-9.8869056521
 20
23.6278312164
 30
0.0
 11
-7.5130943479
 21
23.6278312164
 31
0.0
  0
LINE
  5
3B4
100
AcDbEntity
  8
SUPERFICI
100
AcDbLine
 62
250
  6
CONTINUOUS
 10
-9.8869056521
 20
23.6278312164
 30
0.0
 11
-7.5130943479
 21
23.6278312164
 31
0.0
  0
LINE
  5
3B5
100
AcDbEntity
  8
RACCORDO
100
AcDbLine
 62
250
  6
CONTINUOUS
 10
7.5130943479
 20
23.6278312164
 30
0.0
 11
9.8869056521
 21
23.6278312164
 31
0.0
  0
LINE
  5
3B6
100
AcDbEntity
  8
SUPERFICI
100
AcDbLine
 62
250
  6
CONTINUOUS
 10
7.5130943479
 20
23.6278312164
 30
0.0
 11
9.8869056521
 21
23.6278312164
 31
0.0
  0
LINE
  5
3B7
100
AcDbEntity
  8
RACCORDO
100
AcDbLine
 62
250
  6
CONTINUOUS
 10
3.5
 20
23.7982512664
 30
0.0
 11
1.0026332914
 21
23.7982512664
 31
0.0
  0
LINE
  5
3B8
100
AcDbEntity
  8
SUPERFICI
100
AcDbLine
 62
250
  6
CONTINUOUS
 10
3.5
 20
23.7982512664
 30
0.0
 11
1.0026332914
 21
23.7982512664
 31
0.0
  0
LINE
  5
3B9
100
AcDbEntity
  8
RACCORDO
100
AcDbLine
 62
250
  6
CONTINUOUS
 10
-1.0026332914
 20
23.7982512664
 30
0.0
 11
-3.5
 21
23.7982512664
 31
0.0
  0
LINE
  5
3BA
100
AcDbEntity
  8
SUPERFICI
100
AcDbLine
 62
250
  6
CONTINUOUS
 10
-1.0026332914
 20
23.7982512664
 30
0.0
 11
-3.5
 21
23.7982512664
 31
0.0
  0
LINE
  5
3BB
100
AcDbEntity
  8
RACCORDO
100
AcDbLine
 62
250
  6
CONTINUOUS
 10
7.2630985787
 20
23.8443375673
 30
0.0
 11
10.1369014213
 21
23.8443375673
 31
0.0
  0
LINE
  5
3BC
100
AcDbEntity
  8
SUPERFICI
100
AcDbLine
 62
250
  6
CONTINUOUS
 10
7.2630985787
 20
23.8443375673
 30
0.0
 11
10.1369014213
 21
23.8443375673
 31
0.0
  0
LINE
  5
3BD
100
AcDbEntity
  8
RACCORDO
100
AcDbLine
 62
250
  6
CONTINUOUS
 10
-7.2630985787
 20
23.8443375673
 30
0.0
 11
-10.1369014213
 21
23.8443375673
 31
0.0
  0
LINE
  5
3BE
100
AcDbEntity
  8
SUPERFICI
100
AcDbLine
 62
250
  6
CONTINUOUS
 10
-7.2630985787
 20
23.8443375673
 30
0.0
 11
-10.1369014213
 21
23.8443375673
 31
0.0
  0
LINE
  5
3BF
100
AcDbEntity
  8
DRAFT
100
AcDbLine
 62
7
  6
CONTINUOUS
 10
-4.4412732553
 20
23.9912732553
 30
0.0
 11
-3.5087268678
 21
23.9912732553
 31
0.0
  0
LINE
  5
3C0
100
AcDbEntity
  8
SUPERFICI
100
AcDbLine
 62
7
  6
CONTINUOUS
 10
-4.4412732553
 20
23.9912732553
 30
0.0
 11
-3.5087268678
 21
23.9912732553
 31
0.0
  0
LINE
  5
3C1
100
AcDbEntity
  8
DRAFT
100
AcDbLine
 62
7
  6
CONTINUOUS
 10
3.5087268678
 20
23.9912732553
 30
0.0
 11
4.4412732553
 21
23.9912732553
 31
0.0
  0
LINE
  5
3C2
100
AcDbEntity
  8
SUPERFICI
100
AcDbLine
 62
7
  6
CONTINUOUS
 10
3.5087268678
 20
23.9912732553
 30
0.0
 11
4.4412732553
 21
23.9912732553
 31
0.0
  0
LINE
  5
3C3
100
AcDbEntity
  8
RACCORDO
100
AcDbLine
 62
250
  6
CONTINUOUS
 10
3.4982647806
 20
23.9982478817
 30
0.0
 11
1.202625676
 21
23.9982478817
 31
0.0
  0
LINE
  5
3C4
100
AcDbEntity
  8
SUPERFICI
100
AcDbLine
 62
7
  6
CONTINUOUS
 10
3.4982647806
 20
23.9982478817
 30
0.0
 11
1.202625676
 21
23.9982478817
 31
0.0
  0
LINE
  5
3C5
100
AcDbEntity
  8
RACCORDO
100
AcDbLine
 62
250
  6
CONTINUOUS
 10
-1.202625676
 20
23.9982478817
 30
0.0
 11
-3.4982647806
 21
23.9982478817
 31
0.0
  0
LINE
  5
3C6
100
AcDbEntity
  8
SUPERFICI
100
AcDbLine
 62
7
  6
CONTINUOUS
 10
-1.202625676
 20
23.9982478817
 30
0.0
 11
-3.4982647806
 21
23.9982478817
 31
0.0
  0
LINE
  5
3C7
100
AcDbEntity
  8
RACCORDO
100
AcDbLine
 62
7
  6
CONTINUOUS
 10
-4.45
 20
24.0
 30
0.0
 11
-3.4982647806
 21
24.0
 31
0.0
  0
LINE
  5
3C8
100
AcDbEntity
  8
SUPERFICI
100
AcDbLine
 62
7
  6
CONTINUOUS
 10
-4.45
 20
24.0
 30
0.0
 11
-3.4982647806
 21
24.0
 31
0.0
  0
LINE
  5
3C9
100
AcDbEntity
  8
RACCORDO
100
AcDbLine
 62
7
  6
CONTINUOUS
 10
3.4982647806
 20
24.0
 30
0.0
 11
4.45
 21
24.0
 31
0.0
  0
LINE
  5
3CA
100
AcDbEntity
  8
SUPERFICI
100
AcDbLine
 62
7
  6
CONTINUOUS
 10
3.4982647806
 20
24.0
 30
0.0
 11
4.45
 21
24.0
 31
0.0
  0
LINE
  5
3CB
100
AcDbEntity
  8
RACCORDO
100
AcDbLine
 62
250
  6
CONTINUOUS
 10
7.2630985787
 20
24.2369056521
 30
0.0
 11
10.1369014213
 21
24.2369056521
 31
0.0
  0
LINE
  5
3CC
100
AcDbEntity
  8
SUPERFICI
100
AcDbLine
 62
250
  6
CONTINUOUS
 10
7.2630985787
 20
24.2369056521
 30
0.0
 11
10.1369014213
 21
24.2369056521
 31
0.0
  0
LINE
  5
3CD
100
AcDbEntity
  8
RACCORDO
100
AcDbLine
 62
250
  6
CONTINUOUS
 10
-7.2630985787
 20
24.2369056521
 30
0.0
 11
-10.1369014213
 21
24.2369056521
 31
0.0
  0
LINE
  5
3CE
100
AcDbEntity
  8
SUPERFICI
100
AcDbLine
 62
250
  6
CONTINUOUS
 10
-7.2630985787
 20
24.2369056521
 30
0.0
 11
-10.1369014213
 21
24.2369056521
 31
0.0
  0
LINE
  5
3CF
100
AcDbEntity
  8
RACCORDO
100
AcDbLine
 62
7
  6
CONTINUOUS
 10
3.4982647806
 20
23.9982478817
 30
0.0
 11
3.5087268678
 21
23.9912732553
 31
0.0
  0
LINE
  5
3D0
100
AcDbEntity
  8
SUPERFICI
100
AcDbLine
 62
7
  6
CONTINUOUS
 10
3.4982647806
 20
23.9982478817
 30
0.0
 11
3.5087268678
 21
23.9912732553
 31
0.0
  0
LINE
  5
3D1
100
AcDbEntity
  8
RACCORDO
100
AcDbLine
 62
250
  6
CONTINUOUS
 10
7.2630985787
 20
24.2369056521
 30
0.0
 11
7.25
 21
24.2500042308
 31
0.0
  0
LINE
  5
3D2
100
AcDbEntity
  8
SUPERFICI
100
AcDbLine
 62
250
  6
CONTINUOUS
 10
7.2630985787
 20
24.2369056521
 30
0.0
 11
7.25
 21
24.2500042308
 31
0.0
  0
LINE
  5
3D3
100
AcDbEntity
  8
RACCORDO
100
AcDbLine
 62
250
  6
CONTINUOUS
 10
7.5130943479
 20
24.4869014213
 30
0.0
 11
7.4999957692
 21
24.5
 31
0.0
  0
LINE
  5
3D4
100
AcDbEntity
  8
SUPERFICI
100
AcDbLine
 62
250
  6
CONTINUOUS
 10
7.5130943479
 20
24.4869014213
 30
0.0
 11
7.4999957692
 21
24.5
 31
0.0
  0
LINE
  5
3D5
100
AcDbEntity
  8
RACCORDO
100
AcDbLine
 62
250
  6
CONTINUOUS
 10
9.8869056521
 20
24.4869014213
 30
0.0
 11
7.5130943479
 21
24.4869014213
 31
0.0
  0
LINE
  5
3D6
100
AcDbEntity
  8
SUPERFICI
100
AcDbLine
 62
7
  6
CONTINUOUS
 10
9.8869056521
 20
24.4869014213
 30
0.0
 11
7.5130943479
 21
24.4869014213
 31
0.0
  0
LINE
  5
3D7
100
AcDbEntity
  8
RACCORDO
100
AcDbLine
 62
250
  6
CONTINUOUS
 10
-7.5130943479
 20
24.4869014213
 30
0.0
 11
-9.8869056521
 21
24.4869014213
 31
0.0
  0
LINE
  5
3D8
100
AcDbEntity
  8
SUPERFICI
100
AcDbLine
 62
7
  6
CONTINUOUS
 10
-7.5130943479
 20
24.4869014213
 30
0.0
 11
-9.8869056521
 21
24.4869014213
 31
0.0
  0
LINE
  5
3D9
100
AcDbEntity
  8
RACCORDO
100
AcDbLine
 62
7
  6
CONTINUOUS
 10
9.9000042308
 20
24.5
 30
0.0
 11
7.4999957692
 21
24.5
 31
0.0
  0
LINE
  5
3DA
100
AcDbEntity
  8
SUPERFICI
100
AcDbLine
 62
7
  6
CONTINUOUS
 10
9.9000042308
 20
24.5
 30
0.0
 11
7.4999957692
 21
24.5
 31
0.0
  0
LINE
  5
3DB
100
AcDbEntity
  8
RACCORDO
100
AcDbLine
 62
7
  6
CONTINUOUS
 10
-7.4999957692
 20
24.5
 30
0.0
 11
-9.9000042308
 21
24.5
 31
0.0
  0
LINE
  5
3DC
100
AcDbEntity
  8
SUPERFICI
100
AcDbLine
 62
7
  6
CONTINUOUS
 10
-7.4999957692
 20
24.5
 30
0.0
 11
-9.9000042308
 21
24.5
 31
0.0
  0
LWPOLYLINE
  5
3DD
100
AcDbEntity
  8
0
100
AcDbPolyline
 62
7
  6
CONTINUOUS
 90
7
 70
0
 43
0.3500000006
 10
-0.4285714127
 20
33.9248400879
 10
-1.9285714102
 20
33.9248400879
 10
-0.4285714127
 20
36.0676985321
 10
-0.4285714127
 20
36.4962720337
 10
-0.8571428254
 20
36.9248410034
 10
-1.5000000329
 20
36.9248410034
 10
-1.9285714102
 20
36.281983017
  0
LWPOLYLINE
  5
3DE
100
AcDbEntity
  8
0
100
AcDbPolyline
 62
7
  6
CONTINUOUS
 90
6
 70
0
 43
0.3500000006
 10
2.1428571696
 20
33.9248400879
 10
3.2142856836
 20
33.9248400879
 10
3.4285713015
 20
34.1391291046
 10
3.4285713015
 20
35.2105560608
 10
3.0000000658
 20
35.6391295624
 10
2.5714285469
 20
35.6391295624
  0
LWPOLYLINE
  5
3DF
100
AcDbEntity
  8
0
100
AcDbPolyline
 62
7
  6
CONTINUOUS
 90
7
 70
0
 43
0.3500000006
 10
-2.7857141647
 20
33.9248400879
 10
-4.2857143393
 20
33.9248400879
 10
-2.7857141647
 20
36.0676985321
 10
-2.7857141647
 20
36.4962720337
 10
-3.2142856836
 20
36.9248410034
 10
-3.8571428204
 20
36.9248410034
 10
-4.2857143393
 20
36.281983017
  0
LWPOLYLINE
  5
3E0
100
AcDbEntity
  8
0
100
AcDbPolyline
 62
7
  6
CONTINUOUS
 90
5
 70
0
 43
0.3500000006
 10
-42.472622406
 20
45.5332185059
 10
-42.1154800873
 20
45.7475075226
 10
-42.1154800873
 20
46.390365509
 10
-42.472622406
 20
46.8189344788
 10
-43.3297648773
 20
46.8189344788
  0
LINE
  5
3E1
100
AcDbEntity
  8
RACCORDO
100
AcDbLine
 62
7
  6
CONTINUOUS
 10
-46.8983367983
 20
-24.5
 30
0.0
 11
-46.1468823655
 21
-24.495628166
 31
0.0
  0
LINE
  5
3E2
100
AcDbEntity
  8
SUPERFICI
100
AcDbLine
 62
7
  6
CONTINUOUS
 10
-46.8983367983
 20
-24.5
 30
0.0
 11
-46.1468823655
 21
-24.495628166
 31
0.0
  0
LINE
  5
3E3
100
AcDbEntity
  8
RACCORDO
100
AcDbLine
 62
7
  6
CONTINUOUS
 10
-49.1497912312
 20
-24.4869014213
 30
0.0
 11
-46.8983367983
 21
-24.5
 31
0.0
  0
LINE
  5
3E4
100
AcDbEntity
  8
SUPERFICI
100
AcDbLine
 62
7
  6
CONTINUOUS
 10
-49.1497912312
 20
-24.4869014213
 30
0.0
 11
-46.8983367983
 21
-24.5
 31
0.0
  0
LINE
  5
3E5
100
AcDbEntity
  8
RACCORDO
100
AcDbLine
 62
250
  6
CONTINUOUS
 10
-49.1497912312
 20
-24.2369056521
 30
0.0
 11
-46.8983367983
 21
-24.2500042308
 31
0.0
  0
LINE
  5
3E6
100
AcDbEntity
  8
SUPERFICI
100
AcDbLine
 62
250
  6
CONTINUOUS
 10
-49.1497912312
 20
-24.2369056521
 30
0.0
 11
-46.8983367983
 21
-24.2500042308
 31
0.0
  0
LINE
  5
3E7
100
AcDbEntity
  8
RACCORDO
100
AcDbLine
 62
250
  6
CONTINUOUS
 10
-46.8983367983
 20
23.4104851482
 30
0.0
 11
-46.1468823655
 21
23.8443375673
 31
0.0
  0
LINE
  5
3E8
100
AcDbEntity
  8
SUPERFICI
100
AcDbLine
 62
250
  6
CONTINUOUS
 10
-46.8983367983
 20
23.4104851482
 30
0.0
 11
-46.1468823655
 21
23.8443375673
 31
0.0
  0
LINE
  5
3E9
100
AcDbEntity
  8
RACCORDO
100
AcDbLine
 62
7
  6
CONTINUOUS
 10
-46.8983367983
 20
23.1226497308
 30
0.0
 11
-46.0233367983
 21
23.6278312164
 31
0.0
  0
LINE
  5
3EA
100
AcDbEntity
  8
SUPERFICI
100
AcDbLine
 62
7
  6
CONTINUOUS
 10
-46.8983367983
 20
23.1226497308
 30
0.0
 11
-46.0233367983
 21
23.6278312164
 31
0.0
  0
LINE
  5
3EB
100
AcDbEntity
  8
RACCORDO
100
AcDbLine
 62
250
  6
CONTINUOUS
 10
-46.8983367983
 20
-24.2500042308
 30
0.0
 11
-46.1468823655
 21
-24.2456323968
 31
0.0
  0
LINE
  5
3EC
100
AcDbEntity
  8
SUPERFICI
100
AcDbLine
 62
250
  6
CONTINUOUS
 10
-46.8983367983
 20
-24.2500042308
 30
0.0
 11
-46.1468823655
 21
-24.2456323968
 31
0.0
  0
LINE
  5
3ED
100
AcDbEntity
  8
ASSI
100
AcDbLine
 62
7
  6
CONTINUOUS
 10
-39.3954279327
 20
-23.9563493531
 30
0.0
 11
-45.8983367983
 21
-23.9941821702
 31
0.0
  0
LINE
  5
3EE
100
AcDbEntity
  8
SUPERFICI
100
AcDbLine
 62
7
  6
CONTINUOUS
 10
-39.3954279327
 20
-23.9563493531
 30
0.0
 11
-45.8983367983
 21
-23.9941821702
 31
0.0
  0
LINE
  5
3EF
100
AcDbEntity
  8
RACCORDO
100
AcDbLine
 62
7
  6
CONTINUOUS
 10
-35.892519067
 20
-22.3359700255
 30
0.0
 11
-46.8983367983
 21
-22.4
 31
0.0
  0
LINE
  5
3F0
100
AcDbEntity
  8
SUPERFICI
100
AcDbLine
 62
7
  6
CONTINUOUS
 10
-35.892519067
 20
-22.3359700255
 30
0.0
 11
-46.8983367983
 21
-22.4
 31
0.0
  0
LINE
  5
3F1
100
AcDbEntity
  8
RACCORDO
100
AcDbLine
 62
250
  6
CONTINUOUS
 10
-46.8983367983
 20
-21.900016923
 30
0.0
 11
-45.8983367983
 21
-21.8941990932
 31
0.0
  0
LINE
  5
3F2
100
AcDbEntity
  8
SUPERFICI
100
AcDbLine
 62
250
  6
CONTINUOUS
 10
-46.8983367983
 20
-21.900016923
 30
0.0
 11
-45.8983367983
 21
-21.8941990932
 31
0.0
  0
LINE
  5
3F3
100
AcDbEntity
  8
RACCORDO
100
AcDbLine
 62
250
  6
CONTINUOUS
 10
-45.8983367983
 20
-24.2456323968
 30
0.0
 11
-46.1468823655
 21
-24.2456323968
 31
0.0
  0
LINE
  5
3F4
100
AcDbEntity
  8
SUPERFICI
100
AcDbLine
 62
250
  6
CONTINUOUS
 10
-45.8983367983
 20
-24.2456323968
 30
0.0
 11
-46.1468823655
 21
-24.2456323968
 31
0.0
  0
LINE
  5
3F5
100
AcDbEntity
  8
RACCORDO
100
AcDbLine
 62
250
  6
CONTINUOUS
 10
-49.3983367983
 20
-24.2369056521
 30
0.0
 11
-49.1497912312
 21
-24.2369056521
 31
0.0
  0
LINE
  5
3F6
100
AcDbEntity
  8
SUPERFICI
100
AcDbLine
 62
250
  6
CONTINUOUS
 10
-49.3983367983
 20
-24.2369056521
 30
0.0
 11
-49.1497912312
 21
-24.2369056521
 31
0.0
  0
LINE
  5
3F7
100
AcDbEntity
  8
RACCORDO
100
AcDbLine
 62
250
  6
CONTINUOUS
 10
-49.3983367983
 20
-23.8443375673
 30
0.0
 11
-49.1497912312
 21
-23.8443375673
 31
0.0
  0
LINE
  5
3F8
100
AcDbEntity
  8
SUPERFICI
100
AcDbLine
 62
250
  6
CONTINUOUS
 10
-49.3983367983
 20
-23.8443375673
 30
0.0
 11
-49.1497912312
 21
-23.8443375673
 31
0.0
  0
LINE
  5
3F9
100
AcDbEntity
  8
RACCORDO
100
AcDbLine
 62
250
  6
CONTINUOUS
 10
-45.8983367983
 20
-23.8443375673
 30
0.0
 11
-46.1468823655
 21
-23.8443375673
 31
0.0
  0
LINE
  5
3FA
100
AcDbEntity
  8
SUPERFICI
100
AcDbLine
 62
250
  6
CONTINUOUS
 10
-45.8983367983
 20
-23.8443375673
 30
0.0
 11
-46.1468823655
 21
-23.8443375673
 31
0.0
  0
LINE
  5
3FB
100
AcDbEntity
  8
DRAFT
100
AcDbLine
 62
7
  6
CONTINUOUS
 10
-44.8983367983
 20
-20.85
 30
0.0
 11
-34.8983367983
 21
-20.85
 31
0.0
  0
LINE
  5
3FC
100
AcDbEntity
  8
ASSI
100
AcDbLine
 62
7
  6
CONTINUOUS
 10
-44.8983367983
 20
-20.85
 30
0.0
 11
-34.8983367983
 21
-20.85
 31
0.0
  0
LINE
  5
3FD
100
AcDbEntity
  8
ASSI
100
AcDbLine
 62
7
  6
CONTINUOUS
 10
-35.3896105951
 20
-21.4537354271
 30
0.0
 11
-45.8983367983
 21
-21.4
 31
0.0
  0
LINE
  5
3FE
100
AcDbEntity
  8
SUPERFICI
100
AcDbLine
 62
7
  6
CONTINUOUS
 10
-35.3896105951
 20
-21.4537354271
 30
0.0
 11
-45.8983367983
 21
-21.4
 31
0.0
  0
LINE
  5
3FF
100
AcDbEntity
  8
ASSI
100
AcDbLine
 62
7
  6
CONTINUOUS
 10
-34.8983367983
 20
-20.9959955457
 30
0.0
 11
-45.8983367983
 21
-20.9
 31
0.0
  0
LINE
  5
400
100
AcDbEntity
  8
SUPERFICI
100
AcDbLine
 62
7
  6
CONTINUOUS
 10
-34.8983367983
 20
-20.9959955457
 30
0.0
 11
-45.8983367983
 21
-20.9
 31
0.0
  0
LINE
  5
401
100
AcDbEntity
  8
RACCORDO
100
AcDbLine
 62
7
  6
CONTINUOUS
 10
-53.3815738674
 20
-22.0602279426
 30
0.0
 11
-46.8983367983
 21
-22.4
 31
0.0
  0
LINE
  5
402
100
AcDbEntity
  8
SUPERFICI
100
AcDbLine
 62
7
  6
CONTINUOUS
 10
-53.3815738674
 20
-22.0602279426
 30
0.0
 11
-46.8983367983
 21
-22.4
 31
0.0
  0
LINE
  5
403
100
AcDbEntity
  8
RACCORDO
100
AcDbLine
 62
250
  6
CONTINUOUS
 10
-53.3641320925
 20
-21.5609131753
 30
0.0
 11
-46.8983367983
 21
-21.8997711479
 31
0.0
  0
LINE
  5
404
100
AcDbEntity
  8
SUPERFICI
100
AcDbLine
 62
250
  6
CONTINUOUS
 10
-53.3641320925
 20
-21.5609131753
 30
0.0
 11
-46.8983367983
 21
-21.8997711479
 31
0.0
  0
LINE
  5
405
100
AcDbEntity
  8
RACCORDO
100
AcDbLine
 62
250
  6
CONTINUOUS
 10
-46.1468823655
 20
-23.8443375673
 30
0.0
 11
-46.8983367983
 21
-23.4104851482
 31
0.0
  0
LINE
  5
406
100
AcDbEntity
  8
SUPERFICI
100
AcDbLine
 62
250
  6
CONTINUOUS
 10
-46.1468823655
 20
-23.8443375673
 30
0.0
 11
-46.8983367983
 21
-23.4104851482
 31
0.0
  0
LINE
  5
407
100
AcDbEntity
  8
RACCORDO
100
AcDbLine
 62
7
  6
CONTINUOUS
 10
-46.0233367983
 20
-23.6278312164
 30
0.0
 11
-46.8983367983
 21
-23.1226497308
 31
0.0
  0
LINE
  5
408
100
AcDbEntity
  8
SUPERFICI
100
AcDbLine
 62
7
  6
CONTINUOUS
 10
-46.0233367983
 20
-23.6278312164
 30
0.0
 11
-46.8983367983
 21
-23.1226497308
 31
0.0
  0
LINE
  5
409
100
AcDbEntity
  8
0
100
AcDbLine
 62
7
  6
CONTINUOUS
 10
-57.0183367983
 20
17.3499494971
 30
0.0
 11
-57.0183367983
 21
11.0500101801
 31
0.0
  0
LINE
  5
40A
100
AcDbEntity
  8
0
100
AcDbLine
 62
7
  6
CONTINUOUS
 10
-57.0183367983
 20
3.1497950897
 30
0.0
 11
-57.0183367983
 21
-3.1497950897
 31
0.0
  0
LINE
  5
40B
100
AcDbEntity
  8
0
100
AcDbLine
 62
7
  6
CONTINUOUS
 10
-57.0183367983
 20
-11.0500505029
 30
0.0
 11
-57.0183367983
 21
-17.3499494971
 31
0.0
  0
LINE
  5
40C
100
AcDbEntity
  8
RACCORDO
100
AcDbLine
 62
7
  6
CONTINUOUS
 10
-22.4808843919
 20
-19.3942317309
 30
0.0
 11
-34.8983367983
 21
-19.6109791689
 31
0.0
  0
LINE
  5
40D
100
AcDbEntity
  8
ASSI
100
AcDbLine
 62
7
  6
CONTINUOUS
 10
-22.4808843919
 20
-19.3942317309
 30
0.0
 11
-34.8983367983
 21
-19.6109791689
 31
0.0
  0
LINE
  5
40E
100
AcDbEntity
  8
RACCORDO
100
AcDbLine
 62
250
  6
CONTINUOUS
 10
-22.4808843919
 20
-19.1013831211
 30
0.0
 11
-34.8983367983
 21
-19.3181305591
 31
0.0
  0
LINE
  5
40F
100
AcDbEntity
  8
ASSI
100
AcDbLine
 62
250
  6
CONTINUOUS
 10
-22.4808843919
 20
-19.1013831211
 30
0.0
 11
-34.8983367983
 21
-19.3181305591
 31
0.0
  0
LINE
  5
410
100
AcDbEntity
  8
DRAFT
100
AcDbLine
 62
7
  6
CONTINUOUS
 10
-45.8983367983
 20
-18.5087268678
 30
0.0
 11
-44.8983367983
 21
-18.492768546
 31
0.0
  0
LINE
  5
411
100
AcDbEntity
  8
RACCORDO
100
AcDbLine
 62
250
  6
CONTINUOUS
 10
-44.8983367983
 20
-19.0856972195
 30
0.0
 11
-22.4808843919
 21
-18.9236182982
 31
0.0
  0
LINE
  5
412
100
AcDbEntity
  8
ASSI
100
AcDbLine
 62
250
  6
CONTINUOUS
 10
-44.8983367983
 20
-19.0856972195
 30
0.0
 11
-22.4808843919
 21
-18.9236182982
 31
0.0
  0
LINE
  5
413
100
AcDbEntity
  8
RACCORDO
100
AcDbLine
 62
250
  6
CONTINUOUS
 10
-44.8983367983
 20
-17.6716990487
 30
0.0
 11
-22.4808843919
 21
-17.5096157267
 31
0.0
  0
LINE
  5
414
100
AcDbEntity
  8
ASSI
100
AcDbLine
 62
250
  6
CONTINUOUS
 10
-44.8983367983
 20
-17.6716990487
 30
0.0
 11
-22.4808843919
 21
-17.5096157267
 31
0.0
  0
LINE
  5
415
100
AcDbEntity
  8
0
100
AcDbLine
 62
7
  6
CONTINUOUS
 10
-44.8983367983
 20
-19.7
 30
0.0
 11
-45.8983367983
 21
-19.7
 31
0.0
  0
LINE
  5
416
100
AcDbEntity
  8
0
100
AcDbLine
 62
7
  6
CONTINUOUS
 10
-45.8983367983
 20
-19.5
 30
0.0
 11
-44.8983367983
 21
-19.5
 31
0.0
  0
LINE
  5
417
100
AcDbEntity
  8
0
100
AcDbLine
 62
7
  6
CONTINUOUS
 10
-56.0183367983
 20
-18.35
 30
0.0
 11
-54.701911572
 21
-18.35
 31
0.0
  0
LINE
  5
418
100
AcDbEntity
  8
RACCORDO
100
AcDbLine
 62
250
  6
CONTINUOUS
 10
-21.4983367983
 20
-17.509618074
 30
0.0
 11
-22.4808843919
 21
-17.509618074
 31
0.0
  0
LINE
  5
419
100
AcDbEntity
  8
ASSI
100
AcDbLine
 62
250
  6
CONTINUOUS
 10
-21.4983367983
 20
-17.509618074
 30
0.0
 11
-22.4808843919
 21
-17.509618074
 31
0.0
  0
LINE
  5
41A
100
AcDbEntity
  8
DRAFT
100
AcDbLine
 62
7
  6
CONTINUOUS
 10
-44.8983367983
 20
-19.7087268678
 30
0.0
 11
-45.8983367983
 21
-19.7
 31
0.0
  0
LINE
  5
41B
100
AcDbEntity
  8
DRAFT
100
AcDbLine
 62
7
  6
CONTINUOUS
 10
-45.8983367983
 20
-18.5087268678
 30
0.0
 11
-44.8983367983
 21
-18.5174537356
 31
0.0
  0
LINE
  5
41C
100
AcDbEntity
  8
0
100
AcDbLine
 62
250
  6
CONTINUOUS
 10
-56.0183367983
 20
-18.3499999802
 30
0.0
 11
-56.0183367983
 21
-10.0500002806
 31
0.0
  0
LINE
  5
41D
100
AcDbEntity
  8
0
100
AcDbLine
 62
250
  6
CONTINUOUS
 10
-56.0183367983
 20
-4.1499999998
 30
0.0
 11
-56.0183367983
 21
4.1499999998
 31
0.0
  0
LINE
  5
41E
100
AcDbEntity
  8
0
100
AcDbLine
 62
250
  6
CONTINUOUS
 10
-56.0183367983
 20
10.0500000198
 30
0.0
 11
-56.0183367983
 21
18.3499997194
 31
0.0
  0
LINE
  5
41F
100
AcDbEntity
  8
INCISIONI
100
AcDbLine
 62
250
  6
CONTINUOUS
 10
-42.3051081653
 20
-15.342748
 30
0.0
 11
-40.3097950959
 21
-14.790021
 31
0.0
  0
LINE
  5
420
100
AcDbEntity
  8
DRAFT
100
AcDbLine
 62
7
  6
CONTINUOUS
 10
-46.8983367983
 20
-18.5
 30
0.0
 11
-44.8983367983
 21
-18.1473460386
 31
0.0
  0
LINE
  5
421
100
AcDbEntity
  8
SUPERFICI
100
AcDbLine
 62
7
  6
CONTINUOUS
 10
-46.8983367983
 20
-18.5
 30
0.0
 11
-44.8983367983
 21
-18.1473460386
 31
0.0
  0
LINE
  5
422
100
AcDbEntity
  8
ASSI
100
AcDbLine
 62
7
  6
CONTINUOUS
 10
-21.4983367983
 20
-17.1
 30
0.0
 11
-28.9983367983
 21
-17.1
 31
0.0
  0
LINE
  5
423
100
AcDbEntity
  8
0
100
AcDbLine
 62
250
  6
CONTINUOUS
 10
-36.2983367983
 20
-16.0
 30
0.0
 11
-37.7981083411
 21
-16.0
 31
0.0
  0
LINE
  5
424
100
AcDbEntity
  8
0
100
AcDbLine
 62
250
  6
CONTINUOUS
 10
-37.7981083411
 20
-15.1428571045
 30
0.0
 11
-36.2983367983
 21
-15.1428571045
 31
0.0
  0
LINE
  5
425
100
AcDbEntity
  8
INCISIONI
100
AcDbLine
 62
250
  6
CONTINUOUS
 10
-40.3097950959
 20
-14.790021
 30
0.0
 11
-42.3051081653
 21
-14.22041
 31
0.0
  0
LINE
  5
426
100
AcDbEntity
  8
INCISIONI
100
AcDbLine
 62
250
  6
CONTINUOUS
 10
-42.3051081653
 20
-13.615552
 30
0.0
 11
-39.4063383604
 21
-14.547617
 31
0.0
  0
LINE
  5
427
100
AcDbEntity
  8
RACCORDO
100
AcDbLine
 62
7
  6
CONTINUOUS
 10
-49.3983367983
 20
-24.2369056521
 30
0.0
 11
-49.3983367983
 21
-23.8443375673
 31
0.0
  0
LINE
  5
428
100
AcDbEntity
  8
SUPERFICI
100
AcDbLine
 62
7
  6
CONTINUOUS
 10
-49.3983367983
 20
-24.2369056521
 30
0.0
 11
-49.3983367983
 21
-23.8443375673
 31
0.0
  0
LINE
  5
429
100
AcDbEntity
  8
RACCORDO
100
AcDbLine
 62
7
  6
CONTINUOUS
 10
-49.3983367983
 20
23.8443375673
 30
0.0
 11
-49.3983367983
 21
24.2369056521
 31
0.0
  0
LINE
  5
42A
100
AcDbEntity
  8
SUPERFICI
100
AcDbLine
 62
7
  6
CONTINUOUS
 10
-49.3983367983
 20
23.8443375673
 30
0.0
 11
-49.3983367983
 21
24.2369056521
 31
0.0
  0
LWPOLYLINE
  5
42B
100
AcDbEntity
  8
0
100
AcDbPolyline
 62
7
  6
CONTINUOUS
 90
3
 70
0
 43
0.3500000006
 10
-38.3297633514
 20
44.104649231
 10
-38.4011945343
 20
43.8903647461
 10
-38.5440523682
 20
43.6046490784
  0
LINE
  5
42C
100
AcDbEntity
  8
INCISIONI
100
AcDbLine
 62
7
  6
CONTINUOUS
 10
-42.2971915773
 20
15.9499404633
 30
0.0
 11
-42.2456950406
 21
16.001437
 31
0.0
  0
LINE
  5
42D
100
AcDbEntity
  8
INCISIONI
100
AcDbLine
 62
7
  6
CONTINUOUS
 10
-42.2971915773
 20
15.7399297493
 30
0.0
 11
-42.0356843266
 21
16.001437
 31
0.0
  0
LINE
  5
42E
100
AcDbEntity
  8
INCISIONI
100
AcDbLine
 62
7
  6
CONTINUOUS
 10
-42.2971915773
 20
15.5299190353
 30
0.0
 11
-41.8256736126
 21
16.001437
 31
0.0
  0
LINE
  5
42F
100
AcDbEntity
  8
INCISIONI
100
AcDbLine
 62
7
  6
CONTINUOUS
 10
-42.1140917931
 20
15.5030081055
 30
0.0
 11
-41.6156628986
 21
16.001437
 31
0.0
  0
LINE
  5
430
100
AcDbEntity
  8
INCISIONI
100
AcDbLine
 62
7
  6
CONTINUOUS
 10
-41.9040821051
 20
15.5030070795
 30
0.0
 11
-41.4056521846
 21
16.001437
 31
0.0
  0
LINE
  5
431
100
AcDbEntity
  8
INCISIONI
100
AcDbLine
 62
7
  6
CONTINUOUS
 10
-41.694072417
 20
15.5030060536
 30
0.0
 11
-41.1956414706
 21
16.001437
 31
0.0
  0
LINE
  5
432
100
AcDbEntity
  8
INCISIONI
100
AcDbLine
 62
7
  6
CONTINUOUS
 10
-41.484062729
 20
15.5030050276
 30
0.0
 11
-40.9856307566
 21
16.001437
 31
0.0
  0
LINE
  5
433
100
AcDbEntity
  8
INCISIONI
100
AcDbLine
 62
7
  6
CONTINUOUS
 10
-41.2740530409
 20
15.5030040016
 30
0.0
 11
-40.7756200426
 21
16.001437
 31
0.0
  0
LINE
  5
434
100
AcDbEntity
  8
INCISIONI
100
AcDbLine
 62
7
  6
CONTINUOUS
 10
-41.0640433529
 20
15.5030029757
 30
0.0
 11
-40.5656093285
 21
16.001437
 31
0.0
  0
LINE
  5
435
100
AcDbEntity
  8
INCISIONI
100
AcDbLine
 62
7
  6
CONTINUOUS
 10
-42.2971915773
 20
14.0598440372
 30
0.0
 11
-41.9908722899
 21
14.3661633246
 31
0.0
  0
LINE
  5
436
100
AcDbEntity
  8
INCISIONI
100
AcDbLine
 62
7
  6
CONTINUOUS
 10
-40.8540336648
 20
15.5030019497
 30
0.0
 11
-40.3555986145
 21
16.001437
 31
0.0
  0
LINE
  5
437
100
AcDbEntity
  8
INCISIONI
100
AcDbLine
 62
7
  6
CONTINUOUS
 10
-42.2971915773
 20
13.8498333232
 30
0.0
 11
-41.3854500139
 21
14.7615748866
 31
0.0
  0
LINE
  5
438
100
AcDbEntity
  8
INCISIONI
100
AcDbLine
 62
7
  6
CONTINUOUS
 10
-40.6440239768
 20
15.5030009238
 30
0.0
 11
-40.1455879005
 21
16.001437
 31
0.0
  0
LINE
  5
439
100
AcDbEntity
  8
INCISIONI
100
AcDbLine
 62
7
  6
CONTINUOUS
 10
-42.2768041865
 20
13.66021
 30
0.0
 11
-40.7800277379
 21
15.1569864486
 31
0.0
  0
LINE
  5
43A
100
AcDbEntity
  8
INCISIONI
100
AcDbLine
 62
7
  6
CONTINUOUS
 10
-40.4340142887
 20
15.5029998978
 30
0.0
 11
-39.9355771865
 21
16.001437
 31
0.0
  0
LINE
  5
43B
100
AcDbEntity
  8
INCISIONI
100
AcDbLine
 62
7
  6
CONTINUOUS
 10
-42.0667934725
 20
13.66021
 30
0.0
 11
-39.7255664725
 21
16.001437
 31
0.0
  0
LINE
  5
43C
100
AcDbEntity
  8
INCISIONI
100
AcDbLine
 62
7
  6
CONTINUOUS
 10
-41.8567827585
 20
13.66021
 30
0.0
 11
-41.35158656
 21
14.1654061985
 31
0.0
  0
LINE
  5
43D
100
AcDbEntity
  8
INCISIONI
100
AcDbLine
 62
7
  6
CONTINUOUS
 10
-41.2164434391
 20
14.3005493194
 30
0.0
 11
-39.5155557585
 21
16.001437
 31
0.0
  0
LINE
  5
43E
100
AcDbEntity
  8
INCISIONI
100
AcDbLine
 62
7
  6
CONTINUOUS
 10
-41.6467720445
 20
13.66021
 30
0.0
 11
-41.1423019196
 21
14.1646801249
 31
0.0
  0
LINE
  5
43F
100
AcDbEntity
  8
INCISIONI
100
AcDbLine
 62
7
  6
CONTINUOUS
 10
-40.6143514642
 20
14.6926305802
 30
0.0
 11
-39.3989806022
 21
15.9080014423
 31
0.0
  0
LINE
  5
440
100
AcDbEntity
  8
INCISIONI
100
AcDbLine
 62
7
  6
CONTINUOUS
 10
-41.4367613305
 20
13.66021
 30
0.0
 11
-40.9330172792
 21
14.1639540512
 31
0.0
  0
LINE
  5
441
100
AcDbEntity
  8
INCISIONI
100
AcDbLine
 62
7
  6
CONTINUOUS
 10
-40.0122594894
 20
15.084711841
 30
0.0
 11
-39.3989806022
 21
15.6979907283
 31
0.0
  0
LINE
  5
442
100
AcDbEntity
  8
INCISIONI
100
AcDbLine
 62
7
  6
CONTINUOUS
 10
-41.2267506164
 20
13.66021
 30
0.0
 11
-40.7237326388
 21
14.1632279776
 31
0.0
  0
LINE
  5
443
100
AcDbEntity
  8
INCISIONI
100
AcDbLine
 62
7
  6
CONTINUOUS
 10
-39.4101675146
 20
15.4767931018
 30
0.0
 11
-39.3989806022
 21
15.4879800143
 31
0.0
  0
LINE
  5
444
100
AcDbEntity
  8
INCISIONI
100
AcDbLine
 62
7
  6
CONTINUOUS
 10
-42.1322872815
 20
12.5446626209
 30
0.0
 11
-41.8061485757
 21
12.8708013267
 31
0.0
  0
LINE
  5
445
100
AcDbEntity
  8
INCISIONI
100
AcDbLine
 62
7
  6
CONTINUOUS
 10
-41.0167399024
 20
13.66021
 30
0.0
 11
-40.5144479984
 21
14.162501904
 31
0.0
  0
LINE
  5
446
100
AcDbEntity
  8
INCISIONI
100
AcDbLine
 62
7
  6
CONTINUOUS
 10
-42.3099114908
 20
12.1570276976
 30
0.0
 11
-41.4023148945
 21
13.0646242939
 31
0.0
  0
LINE
  5
447
100
AcDbEntity
  8
INCISIONI
100
AcDbLine
 62
7
  6
CONTINUOUS
 10
-40.8067291884
 20
13.66021
 30
0.0
 11
-40.3051633581
 21
14.1617758304
 31
0.0
  0
LINE
  5
448
100
AcDbEntity
  8
INCISIONI
100
AcDbLine
 62
7
  6
CONTINUOUS
 10
-42.3548448104
 20
11.902083664
 30
0.0
 11
-41.1283715709
 21
13.1285569035
 31
0.0
  0
LINE
  5
449
100
AcDbEntity
  8
INCISIONI
100
AcDbLine
 62
7
  6
CONTINUOUS
 10
-40.5967184744
 20
13.66021
 30
0.0
 11
-40.0958787177
 21
14.1610497567
 31
0.0
  0
LINE
  5
44A
100
AcDbEntity
  8
INCISIONI
100
AcDbLine
 62
7
  6
CONTINUOUS
 10
-42.3600137958
 20
11.6869039646
 30
0.0
 11
-40.8976500653
 21
13.1492676951
 31
0.0
  0
LINE
  5
44B
100
AcDbEntity
  8
INCISIONI
100
AcDbLine
 62
7
  6
CONTINUOUS
 10
-40.3867077604
 20
13.66021
 30
0.0
 11
-39.8865940773
 21
14.1603236831
 31
0.0
  0
LINE
  5
44C
100
AcDbEntity
  8
INCISIONI
100
AcDbLine
 62
7
  6
CONTINUOUS
 10
-42.3403394217
 20
11.4965676247
 30
0.0
 11
-41.8780587587
 21
11.9588482877
 31
0.0
  0
LINE
  5
44D
100
AcDbEntity
  8
INCISIONI
100
AcDbLine
 62
7
  6
CONTINUOUS
 10
-41.2681016407
 20
12.5688054057
 30
0.0
 11
-40.693426371
 21
13.1434806754
 31
0.0
  0
LINE
  5
44E
100
AcDbEntity
  8
INCISIONI
100
AcDbLine
 62
7
  6
CONTINUOUS
 10
-40.1766970464
 20
13.66021
 30
0.0
 11
-39.6773094369
 21
14.1595976095
 31
0.0
  0
LINE
  5
44F
100
AcDbEntity
  8
INCISIONI
100
AcDbLine
 62
7
  6
CONTINUOUS
 10
-42.3010135174
 20
11.3258828149
 30
0.0
 11
-41.9015560559
 21
11.7253402765
 31
0.0
  0
LINE
  5
450
100
AcDbEntity
  8
INCISIONI
100
AcDbLine
 62
7
  6
CONTINUOUS
 10
-41.0056136382
 20
12.6212826942
 30
0.0
 11
-40.5087392543
 21
13.1181570781
 31
0.0
  0
LINE
  5
451
100
AcDbEntity
  8
INCISIONI
100
AcDbLine
 62
7
  6
CONTINUOUS
 10
-39.9666863324
 20
13.66021
 30
0.0
 11
-39.4680247965
 21
14.1588715358
 31
0.0
  0
LINE
  5
452
100
AcDbEntity
  8
INCISIONI
100
AcDbLine
 62
250
  6
CONTINUOUS
 10
-37.9266602038
 20
14.6119047403
 30
0.0
 11
-38.1980474191
 21
14.385714221
 31
0.0
  0
LINE
  5
453
100
AcDbEntity
  8
INCISIONI
100
AcDbLine
 62
250
  6
CONTINUOUS
 10
-42.2971915773
 20
14.166101
 30
0.0
 11
-40.2502412407
 21
15.502999
 31
0.0
  0
LINE
  5
454
100
AcDbEntity
  8
INCISIONI
100
AcDbLine
 62
250
  6
CONTINUOUS
 10
-39.3989806022
 20
15.484078
 30
0.0
 11
-41.4235897457
 21
14.165656
 31
0.0
  0
LINE
  5
455
100
AcDbEntity
  8
0
100
AcDbLine
 62
250
  6
CONTINUOUS
 10
-36.2983367983
 20
-13.428571403
 30
0.0
 11
-37.7981083411
 21
-13.428571403
 31
0.0
  0
LINE
  5
456
100
AcDbEntity
  8
INCISIONI
100
AcDbLine
 62
250
  6
CONTINUOUS
 10
-42.3052821123
 20
-13.390935
 30
0.0
 11
-39.4063383604
 21
-13.390935
 31
0.0
  0
LINE
  5
457
100
AcDbEntity
  8
ASSI
100
AcDbLine
 62
7
  6
CONTINUOUS
 10
-21.4983367983
 20
-12.9
 30
0.0
 11
-28.9983367983
 21
-12.9
 31
0.0
  0
LINE
  5
458
100
AcDbEntity
  8
INCISIONI
100
AcDbLine
 62
250
  6
CONTINUOUS
 10
-39.4063383604
 20
-12.785664
 30
0.0
 11
-42.3052821123
 21
-12.785664
 31
0.0
  0
LINE
  5
459
100
AcDbEntity
  8
0
100
AcDbLine
 62
250
  6
CONTINUOUS
 10
-37.5838552763
 20
-12.6785715818
 30
0.0
 11
-36.5125898854
 21
-12.6785715818
 31
0.0
  0
LINE
  5
45A
100
AcDbEntity
  8
ASSI
100
AcDbLine
 62
7
  6
CONTINUOUS
 10
-21.4983367983
 20
-12.1
 30
0.0
 11
-28.9983367983
 21
-12.1
 31
0.0
  0
LINE
  5
45B
100
AcDbEntity
  8
0
100
AcDbLine
 62
250
  6
CONTINUOUS
 10
-36.2983367983
 20
-12.0714285374
 30
0.0
 11
-37.7981083411
 21
-12.0714285374
 31
0.0
  0
LINE
  5
45C
100
AcDbEntity
  8
RACCORDO
100
AcDbLine
 62
250
  6
CONTINUOUS
 10
-56.0183367983
 20
-10.19141748
 30
0.0
 11
-55.2919262668
 21
-10.19141748
 31
0.0
  0
LINE
  5
45D
100
AcDbEntity
  8
INCISIONI
100
AcDbLine
 62
250
  6
CONTINUOUS
 10
-41.2991806506
 20
-11.750162
 30
0.0
 11
-39.4063383604
 21
-11.880779
 31
0.0
  0
LINE
  5
45E
100
AcDbEntity
  8
INCISIONI
100
AcDbLine
 62
250
  6
CONTINUOUS
 10
-39.4063383604
 20
-12.459827
 30
0.0
 11
-42.3051081653
 21
-12.198005
 31
0.0
  0
LINE
  5
45F
100
AcDbEntity
  8
0
100
AcDbLine
 62
250
  6
CONTINUOUS
 10
-36.2983367983
 20
-14.7142857015
 30
0.0
 11
-37.7981083411
 21
-14.2857142091
 31
0.0
  0
LINE
  5
460
100
AcDbEntity
  8
INCISIONI
100
AcDbLine
 62
250
  6
CONTINUOUS
 10
-40.6957025179
 20
-10.994355
 30
0.0
 11
-42.3051081653
 21
-10.389084
 31
0.0
  0
LINE
  5
461
100
AcDbEntity
  8
INCISIONI
100
AcDbLine
 62
250
  6
CONTINUOUS
 10
-41.2912900547
 20
-10.235548
 30
0.0
 11
-39.4063383604
 21
-10.955216
 31
0.0
  0
LINE
  5
462
100
AcDbEntity
  8
0
100
AcDbLine
 62
250
  6
CONTINUOUS
 10
-36.9410960373
 20
-15.5714285523
 30
0.0
 11
-37.7981083411
 21
-15.1428571045
 31
0.0
  0
LINE
  5
463
100
AcDbEntity
  8
RACCORDO
100
AcDbLine
 62
250
  6
CONTINUOUS
 10
-49.1497912312
 20
-24.2369056521
 30
0.0
 11
-49.1497912312
 21
-23.8443375673
 31
0.0
  0
LINE
  5
464
100
AcDbEntity
  8
SUPERFICI
100
AcDbLine
 62
250
  6
CONTINUOUS
 10
-49.1497912312
 20
-24.2369056521
 30
0.0
 11
-49.1497912312
 21
-23.8443375673
 31
0.0
  0
LINE
  5
465
100
AcDbEntity
  8
RACCORDO
100
AcDbLine
 62
250
  6
CONTINUOUS
 10
-49.1497912312
 20
23.8443375673
 30
0.0
 11
-49.1497912312
 21
24.2369056521
 31
0.0
  0
LINE
  5
466
100
AcDbEntity
  8
SUPERFICI
100
AcDbLine
 62
250
  6
CONTINUOUS
 10
-49.1497912312
 20
23.8443375673
 30
0.0
 11
-49.1497912312
 21
24.2369056521
 31
0.0
  0
LINE
  5
467
100
AcDbEntity
  8
RACCORDO
100
AcDbLine
 62
7
  6
CONTINUOUS
 10
-48.3983367983
 20
-23.1226497308
 30
0.0
 11
-48.3983367983
 21
-22.3213883311
 31
0.0
  0
LINE
  5
468
100
AcDbEntity
  8
SUPERFICI
100
AcDbLine
 62
7
  6
CONTINUOUS
 10
-48.3983367983
 20
-23.1226497308
 30
0.0
 11
-48.3983367983
 21
-22.3213883311
 31
0.0
  0
LINE
  5
469
100
AcDbEntity
  8
RACCORDO
100
AcDbLine
 62
7
  6
CONTINUOUS
 10
-48.3983367983
 20
22.3213883311
 30
0.0
 11
-48.3983367983
 21
23.1226497308
 31
0.0
  0
LINE
  5
46A
100
AcDbEntity
  8
SUPERFICI
100
AcDbLine
 62
7
  6
CONTINUOUS
 10
-48.3983367983
 20
22.3213883311
 30
0.0
 11
-48.3983367983
 21
23.1226497308
 31
0.0
  0
LINE
  5
46B
100
AcDbEntity
  8
RACCORDO
100
AcDbLine
 62
250
  6
CONTINUOUS
 10
-48.1497912312
 20
-23.2669872981
 30
0.0
 11
-48.1497912312
 21
-22.3344140523
 31
0.0
  0
LINE
  5
46C
100
AcDbEntity
  8
SUPERFICI
100
AcDbLine
 62
250
  6
CONTINUOUS
 10
-48.1497912312
 20
-23.2669872981
 30
0.0
 11
-48.1497912312
 21
-22.3344140523
 31
0.0
  0
LINE
  5
46D
100
AcDbEntity
  8
RACCORDO
100
AcDbLine
 62
250
  6
CONTINUOUS
 10
-48.1497912312
 20
22.3344140523
 30
0.0
 11
-48.1497912312
 21
23.2669872981
 31
0.0
  0
LINE
  5
46E
100
AcDbEntity
  8
SUPERFICI
100
AcDbLine
 62
250
  6
CONTINUOUS
 10
-48.1497912312
 20
22.3344140523
 30
0.0
 11
-48.1497912312
 21
23.2669872981
 31
0.0
  0
LINE
  5
46F
100
AcDbEntity
  8
RACCORDO
100
AcDbLine
 62
7
  6
CONTINUOUS
 10
-46.8983367983
 20
21.900016923
 30
0.0
 11
-46.8983367983
 21
18.5
 31
0.0
  0
LINE
  5
470
100
AcDbEntity
  8
SUPERFICI
100
AcDbLine
 62
7
  6
CONTINUOUS
 10
-46.8983367983
 20
21.900016923
 30
0.0
 11
-46.8983367983
 21
18.5
 31
0.0
  0
LINE
  5
471
100
AcDbEntity
  8
RACCORDO
100
AcDbLine
 62
7
  6
CONTINUOUS
 10
-46.8983367983
 20
-21.900016923
 30
0.0
 11
-46.8983367983
 21
-18.5
 31
0.0
  0
LINE
  5
472
100
AcDbEntity
  8
SUPERFICI
100
AcDbLine
 62
7
  6
CONTINUOUS
 10
-46.8983367983
 20
-21.900016923
 30
0.0
 11
-46.8983367983
 21
-18.5
 31
0.0
  0
LINE
  5
473
100
AcDbEntity
  8
RACCORDO
100
AcDbLine
 62
7
  6
CONTINUOUS
 10
-46.8983367983
 20
-22.4
 30
0.0
 11
-46.8983367983
 21
-24.2500042308
 31
0.0
  0
LINE
  5
474
100
AcDbEntity
  8
SUPERFICI
100
AcDbLine
 62
7
  6
CONTINUOUS
 10
-46.8983367983
 20
-22.4
 30
0.0
 11
-46.8983367983
 21
-24.2500042308
 31
0.0
  0
LINE
  5
475
100
AcDbEntity
  8
RACCORDO
100
AcDbLine
 62
7
  6
CONTINUOUS
 10
-46.8983367983
 20
22.4
 30
0.0
 11
-46.8983367983
 21
24.2500042308
 31
0.0
  0
LINE
  5
476
100
AcDbEntity
  8
SUPERFICI
100
AcDbLine
 62
7
  6
CONTINUOUS
 10
-46.8983367983
 20
22.4
 30
0.0
 11
-46.8983367983
 21
24.2500042308
 31
0.0
  0
LINE
  5
477
100
AcDbEntity
  8
RACCORDO
100
AcDbLine
 62
250
  6
CONTINUOUS
 10
-46.1468823655
 20
24.2456323968
 30
0.0
 11
-46.1468823655
 21
23.8443375673
 31
0.0
  0
LINE
  5
478
100
AcDbEntity
  8
SUPERFICI
100
AcDbLine
 62
250
  6
CONTINUOUS
 10
-46.1468823655
 20
24.2456323968
 30
0.0
 11
-46.1468823655
 21
23.8443375673
 31
0.0
  0
LINE
  5
479
100
AcDbEntity
  8
RACCORDO
100
AcDbLine
 62
250
  6
CONTINUOUS
 10
-46.1468823655
 20
-23.8443375673
 30
0.0
 11
-46.1468823655
 21
-24.2456323968
 31
0.0
  0
LINE
  5
47A
100
AcDbEntity
  8
SUPERFICI
100
AcDbLine
 62
250
  6
CONTINUOUS
 10
-46.1468823655
 20
-23.8443375673
 30
0.0
 11
-46.1468823655
 21
-24.2456323968
 31
0.0
  0
LINE
  5
47B
100
AcDbEntity
  8
RACCORDO
100
AcDbLine
 62
7
  6
CONTINUOUS
 10
-45.8983367983
 20
24.2456323968
 30
0.0
 11
-45.8983367983
 21
23.8443375673
 31
0.0
  0
LINE
  5
47C
100
AcDbEntity
  8
SUPERFICI
100
AcDbLine
 62
7
  6
CONTINUOUS
 10
-45.8983367983
 20
24.2456323968
 30
0.0
 11
-45.8983367983
 21
23.8443375673
 31
0.0
  0
LINE
  5
47D
100
AcDbEntity
  8
SUPERFICI
100
AcDbLine
 62
7
  6
CONTINUOUS
 10
-45.8983367983
 20
22.3941821702
 30
0.0
 11
-45.8983367983
 21
21.8941990932
 31
0.0
  0
LINE
  5
47E
100
AcDbEntity
  8
DRAFT
100
AcDbLine
 62
7
  6
CONTINUOUS
 10
-45.8983367983
 20
-21.8941990932
 30
0.0
 11
-45.8983367983
 21
-18.5087268678
 31
0.0
  0
LINE
  5
47F
100
AcDbEntity
  8
RACCORDO
100
AcDbLine
 62
7
  6
CONTINUOUS
 10
-45.8983367983
 20
-18.5087268678
 30
0.0
 11
-45.8983367983
 21
-22.3941821702
 31
0.0
  0
LINE
  5
480
100
AcDbEntity
  8
SUPERFICI
100
AcDbLine
 62
7
  6
CONTINUOUS
 10
-45.8983367983
 20
-21.8941990932
 30
0.0
 11
-45.8983367983
 21
-22.3941821702
 31
0.0
  0
LINE
  5
481
100
AcDbEntity
  8
RACCORDO
100
AcDbLine
 62
7
  6
CONTINUOUS
 10
-45.8983367983
 20
-23.8443375673
 30
0.0
 11
-45.8983367983
 21
-24.2456323968
 31
0.0
  0
LINE
  5
482
100
AcDbEntity
  8
SUPERFICI
100
AcDbLine
 62
7
  6
CONTINUOUS
 10
-45.8983367983
 20
-23.8443375673
 30
0.0
 11
-45.8983367983
 21
-24.2456323968
 31
0.0
  0
LINE
  5
483
100
AcDbEntity
  8
RACCORDO
100
AcDbLine
 62
7
  6
CONTINUOUS
 10
-45.8983367983
 20
18.5087268678
 30
0.0
 11
-45.8983367983
 21
22.3941821702
 31
0.0
  0
LINE
  5
484
100
AcDbEntity
  8
DRAFT
100
AcDbLine
 62
7
  6
CONTINUOUS
 10
-45.8983367983
 20
18.5087268678
 30
0.0
 11
-45.8983367983
 21
21.8941990932
 31
0.0
  0
LINE
  5
485
100
AcDbEntity
  8
INCISIONI
100
AcDbLine
 62
7
  6
CONTINUOUS
 10
-42.2450604235
 20
11.1718251949
 30
0.0
 11
-41.8749701898
 21
11.5419154286
 31
0.0
  0
LINE
  5
486
100
AcDbEntity
  8
INCISIONI
100
AcDbLine
 62
7
  6
CONTINUOUS
 10
-40.78870656
 20
12.6281790584
 30
0.0
 11
-40.3390570319
 21
13.0778285865
 31
0.0
  0
LINE
  5
487
100
AcDbEntity
  8
INCISIONI
100
AcDbLine
 62
7
  6
CONTINUOUS
 10
-39.7566756184
 20
13.66021
 30
0.0
 11
-39.3989806022
 21
14.0179050162
 31
0.0
  0
LINE
  5
488
100
AcDbEntity
  8
INCISIONI
100
AcDbLine
 62
7
  6
CONTINUOUS
 10
-42.173803726
 20
11.0330711783
 30
0.0
 11
-41.8200044485
 21
11.3868704558
 31
0.0
  0
LINE
  5
489
100
AcDbEntity
  8
INCISIONI
100
AcDbLine
 62
7
  6
CONTINUOUS
 10
-40.5978656872
 20
12.6090092172
 30
0.0
 11
-40.1821568813
 21
13.024718023
 31
0.0
  0
LINE
  5
48A
100
AcDbEntity
  8
INCISIONI
100
AcDbLine
 62
7
  6
CONTINUOUS
 10
-39.5466649043
 20
13.66021
 30
0.0
 11
-39.3989806022
 21
13.8078943022
 31
0.0
  0
LINE
  5
48B
100
AcDbEntity
  8
INCISIONI
100
AcDbLine
 62
250
  6
CONTINUOUS
 10
-37.1124985011
 20
16.014285779
 30
0.0
 11
-37.383885773
 21
15.742857337
 31
0.0
  0
LINE
  5
48C
100
AcDbEntity
  8
INCISIONI
100
AcDbLine
 62
7
  6
CONTINUOUS
 10
-42.0887155436
 20
10.9081486468
 30
0.0
 11
-41.7424254272
 21
11.2544387631
 31
0.0
  0
LINE
  5
48D
100
AcDbEntity
  8
INCISIONI
100
AcDbLine
 62
7
  6
CONTINUOUS
 10
-40.4280171804
 20
12.5688470099
 30
0.0
 11
-40.0379438206
 21
12.9589203697
 31
0.0
  0
LINE
  5
48E
100
AcDbEntity
  8
INCISIONI
100
AcDbLine
 62
7
  6
CONTINUOUS
 10
-41.9914684613
 20
10.7953850151
 30
0.0
 11
-41.6424488838
 21
11.1444045925
 31
0.0
  0
LINE
  5
48F
100
AcDbEntity
  8
INCISIONI
100
AcDbLine
 62
7
  6
CONTINUOUS
 10
-40.2761081579
 20
12.5107453184
 30
0.0
 11
-39.9056924541
 21
12.8811610222
 31
0.0
  0
LINE
  5
490
100
AcDbEntity
  8
INCISIONI
100
AcDbLine
 62
7
  6
CONTINUOUS
 10
-42.2971915773
 20
10.279651185
 30
0.0
 11
-42.262285989
 21
10.3145567733
 31
0.0
  0
LINE
  5
491
100
AcDbEntity
  8
INCISIONI
100
AcDbLine
 62
7
  6
CONTINUOUS
 10
-41.8802867089
 20
10.6965560534
 30
0.0
 11
-41.5211378327
 21
11.0557049296
 31
0.0
  0
LINE
  5
492
100
AcDbEntity
  8
INCISIONI
100
AcDbLine
 62
7
  6
CONTINUOUS
 10
-40.1412879981
 20
12.4355547642
 30
0.0
 11
-39.7850865445
 21
12.7917562178
 31
0.0
  0
LINE
  5
493
100
AcDbEntity
  8
INCISIONI
100
AcDbLine
 62
7
  6
CONTINUOUS
 10
-42.2971915773
 20
10.069640471
 30
0.0
 11
-42.1596155521
 21
10.2072164962
 31
0.0
  0
LINE
  5
494
100
AcDbEntity
  8
INCISIONI
100
AcDbLine
 62
7
  6
CONTINUOUS
 10
-41.757302518
 20
10.6095295303
 30
0.0
 11
-41.3814874381
 21
10.9853446102
 31
0.0
  0
LINE
  5
495
100
AcDbEntity
  8
INCISIONI
100
AcDbLine
 62
7
  6
CONTINUOUS
 10
-40.0250668522
 20
12.3417651961
 30
0.0
 11
-39.6784125297
 21
12.6884195186
 31
0.0
  0
LINE
  5
496
100
AcDbEntity
  8
INCISIONI
100
AcDbLine
 62
7
  6
CONTINUOUS
 10
-42.2971915773
 20
9.859629757
 30
0.0
 11
-42.0569451152
 21
10.0998762191
 31
0.0
  0
LINE
  5
497
100
AcDbEntity
  8
INCISIONI
100
AcDbLine
 62
7
  6
CONTINUOUS
 10
-41.621324845
 20
10.5354964893
 30
0.0
 11
-41.22491614
 21
10.9319051943
 31
0.0
  0
LINE
  5
498
100
AcDbEntity
  8
INCISIONI
100
AcDbLine
 62
7
  6
CONTINUOUS
 10
-39.9309221419
 20
12.2258991923
 30
0.0
 11
-39.5835392963
 21
12.573282038
 31
0.0
  0
LINE
  5
499
100
AcDbEntity
  8
INCISIONI
100
AcDbLine
 62
7
  6
CONTINUOUS
 10
-42.2936137291
 20
9.6531968912
 30
0.0
 11
-41.9542746783
 21
9.9925359419
 31
0.0
  0
LINE
  5
49A
100
AcDbEntity
  8
INCISIONI
100
AcDbLine
 62
7
  6
CONTINUOUS
 10
-41.4737260057
 20
10.4730846146
 30
0.0
 11
-41.0497073403
 21
10.8971032799
 31
0.0
  0
LINE
  5
49B
100
AcDbEntity
  8
INCISIONI
100
AcDbLine
 62
7
  6
CONTINUOUS
 10
-39.8591013941
 20
12.0877092262
 30
0.0
 11
-39.5027583393
 21
12.4440522809
 31
0.0
  0
LINE
  5
49C
100
AcDbEntity
  8
INCISIONI
100
AcDbLine
 62
250
  6
CONTINUOUS
 10
-37.1124985011
 20
14.657142663
 30
0.0
 11
-37.383885773
 21
14.385714221
 31
0.0
  0
LINE
  5
49D
100
AcDbEntity
  8
INCISIONI
100
AcDbLine
 62
7
  6
CONTINUOUS
 10
-42.189499701
 20
9.5473002052
 30
0.0
 11
-41.8516042414
 21
9.8851956648
 31
0.0
  0
LINE
  5
49E
100
AcDbEntity
  8
INCISIONI
100
AcDbLine
 62
7
  6
CONTINUOUS
 10
-41.3140786129
 20
10.4227212934
 30
0.0
 11
-40.8533534958
 21
10.8834464104
 31
0.0
  0
LINE
  5
49F
100
AcDbEntity
  8
INCISIONI
100
AcDbLine
 62
7
  6
CONTINUOUS
 10
-39.8106815499
 20
11.9261183563
 30
0.0
 11
-39.4351169125
 21
12.3016829937
 31
0.0
  0
LINE
  5
4A0
100
AcDbEntity
  8
INCISIONI
100
AcDbLine
 62
7
  6
CONTINUOUS
 10
-42.085385673
 20
9.4414035193
 30
0.0
 11
-41.7489338046
 21
9.7778553877
 31
0.0
  0
LINE
  5
4A1
100
AcDbEntity
  8
INCISIONI
100
AcDbLine
 62
7
  6
CONTINUOUS
 10
-41.1406084855
 20
10.3861807067
 30
0.0
 11
-40.627120314
 21
10.8996688783
 31
0.0
  0
LINE
  5
4A2
100
AcDbEntity
  8
INCISIONI
100
AcDbLine
 62
7
  6
CONTINUOUS
 10
-39.7944195399
 20
11.7323696523
 30
0.0
 11
-39.3829594718
 21
12.1438297205
 31
0.0
  0
LINE
  5
4A3
100
AcDbEntity
  8
INCISIONI
100
AcDbLine
 62
7
  6
CONTINUOUS
 10
-41.981271645
 20
9.3355068333
 30
0.0
 11
-41.6462633677
 21
9.6705151106
 31
0.0
  0
LINE
  5
4A4
100
AcDbEntity
  8
INCISIONI
100
AcDbLine
 62
7
  6
CONTINUOUS
 10
-40.9513231547
 20
10.3654553235
 30
0.0
 11
-40.3434434571
 21
10.9733350212
 31
0.0
  0
LINE
  5
4A5
100
AcDbEntity
  8
INCISIONI
100
AcDbLine
 62
7
  6
CONTINUOUS
 10
-39.8407107193
 20
11.476067759
 30
0.0
 11
-39.348972569
 21
11.9678059092
 31
0.0
  0
LINE
  5
4A6
100
AcDbEntity
  8
INCISIONI
100
AcDbLine
 62
7
  6
CONTINUOUS
 10
-41.8771576169
 20
9.2296101473
 30
0.0
 11
-41.5435929308
 21
9.5631748334
 31
0.0
  0
LINE
  5
4A7
100
AcDbEntity
  8
INCISIONI
100
AcDbLine
 62
7
  6
CONTINUOUS
 10
-40.7413139999
 20
10.3654537643
 30
0.0
 11
-39.3351493808
 21
11.7716183834
 31
0.0
  0
LINE
  5
4A8
100
AcDbEntity
  8
INCISIONI
100
AcDbLine
 62
7
  6
CONTINUOUS
 10
-41.7730435889
 20
9.1237134613
 30
0.0
 11
-41.4409224939
 21
9.4558345563
 31
0.0
  0
LINE
  5
4A9
100
AcDbEntity
  8
INCISIONI
100
AcDbLine
 62
7
  6
CONTINUOUS
 10
-40.5007642819
 20
10.3959927683
 30
0.0
 11
-39.3485405732
 21
11.548216477
 31
0.0
  0
LINE
  5
4AA
100
AcDbEntity
  8
INCISIONI
100
AcDbLine
 62
7
  6
CONTINUOUS
 10
-41.6689295609
 20
9.0178167753
 30
0.0
 11
-41.338252057
 21
9.3484942792
 31
0.0
  0
LINE
  5
4AB
100
AcDbEntity
  8
INCISIONI
100
AcDbLine
 62
7
  6
CONTINUOUS
 10
-40.208956686
 20
10.4777896502
 30
0.0
 11
-39.4109628611
 21
11.2757834751
 31
0.0
  0
LINE
  5
4AC
100
AcDbEntity
  8
INCISIONI
100
AcDbLine
 62
7
  6
CONTINUOUS
 10
-42.2971915773
 20
8.1795440449
 30
0.0
 11
-42.1051521419
 21
8.3715834802
 31
0.0
  0
LINE
  5
4AD
100
AcDbEntity
  8
INCISIONI
100
AcDbLine
 62
7
  6
CONTINUOUS
 10
-41.5648155328
 20
8.9119200894
 30
0.0
 11
-41.2355816201
 21
9.241154002
 31
0.0
  0
LINE
  5
4AE
100
AcDbEntity
  8
INCISIONI
100
AcDbLine
 62
250
  6
CONTINUOUS
 10
-37.1124985011
 20
13.3
 30
0.0
 11
-37.383885773
 21
13.0285713315
 31
0.0
  0
LINE
  5
4AF
100
AcDbEntity
  8
INCISIONI
100
AcDbLine
 62
7
  6
CONTINUOUS
 10
-42.2971915773
 20
7.9695333309
 30
0.0
 11
-41.8951430899
 21
8.3715818183
 31
0.0
  0
LINE
  5
4B0
100
AcDbEntity
  8
INCISIONI
100
AcDbLine
 62
7
  6
CONTINUOUS
 10
-41.4607015048
 20
8.8060234034
 30
0.0
 11
-41.1329111833
 21
9.1338137249
 31
0.0
  0
LINE
  5
4B1
100
AcDbEntity
  8
INCISIONI
100
AcDbLine
 62
7
  6
CONTINUOUS
 10
-42.2028761942
 20
7.853838
 30
0.0
 11
-41.6851340378
 21
8.3715801563
 31
0.0
  0
LINE
  5
4B2
100
AcDbEntity
  8
INCISIONI
100
AcDbLine
 62
7
  6
CONTINUOUS
 10
-41.3565874768
 20
8.7001267174
 30
0.0
 11
-40.5305638942
 21
9.5261502999
 31
0.0
  0
LINE
  5
4B3
100
AcDbEntity
  8
INCISIONI
100
AcDbLine
 62
7
  6
CONTINUOUS
 10
-41.9928654801
 20
7.853838
 30
0.0
 11
-41.4751249858
 21
8.3715784944
 31
0.0
  0
LINE
  5
4B4
100
AcDbEntity
  8
INCISIONI
100
AcDbLine
 62
7
  6
CONTINUOUS
 10
-41.2524734487
 20
8.5942300314
 30
0.0
 11
-39.7380178262
 21
10.108685654
 31
0.0
  0
LINE
  5
4B5
100
AcDbEntity
  8
INCISIONI
100
AcDbLine
 62
250
  6
CONTINUOUS
 10
-38.1980474191
 20
11.535714221
 30
0.0
 11
-37.9266602038
 21
11.8071428895
 31
0.0
  0
LINE
  5
4B6
100
AcDbEntity
  8
INCISIONI
100
AcDbLine
 62
7
  6
CONTINUOUS
 10
-41.7828547661
 20
7.853838
 30
0.0
 11
-41.2651159337
 21
8.3715768324
 31
0.0
  0
LINE
  5
4B7
100
AcDbEntity
  8
INCISIONI
100
AcDbLine
 62
7
  6
CONTINUOUS
 10
-41.1483594207
 20
8.4883333454
 30
0.0
 11
-39.3989806022
 21
10.2377121639
 31
0.0
  0
LINE
  5
4B8
100
AcDbEntity
  8
INCISIONI
100
AcDbLine
 62
7
  6
CONTINUOUS
 10
-42.2971915773
 20
7.1294904748
 30
0.0
 11
-42.1885750521
 21
7.238107
 31
0.0
  0
LINE
  5
4B9
100
AcDbEntity
  8
INCISIONI
100
AcDbLine
 62
7
  6
CONTINUOUS
 10
-41.5728440521
 20
7.853838
 30
0.0
 11
-41.0551068817
 21
8.3715751705
 31
0.0
  0
LINE
  5
4BA
100
AcDbEntity
  8
INCISIONI
100
AcDbLine
 62
7
  6
CONTINUOUS
 10
-41.0442453927
 20
8.3824366595
 30
0.0
 11
-40.7178466725
 21
8.7088353797
 31
0.0
  0
LINE
  5
4BB
100
AcDbEntity
  8
INCISIONI
100
AcDbLine
 62
7
  6
CONTINUOUS
 10
-40.5250903702
 20
8.9015916819
 30
0.0
 11
-39.3989806022
 21
10.0277014499
 31
0.0
  0
LINE
  5
4BC
100
AcDbEntity
  8
INCISIONI
100
AcDbLine
 62
7
  6
CONTINUOUS
 10
-42.2971915773
 20
6.9194797608
 30
0.0
 11
-41.9785643381
 21
7.238107
 31
0.0
  0
LINE
  5
4BD
100
AcDbEntity
  8
INCISIONI
100
AcDbLine
 62
7
  6
CONTINUOUS
 10
-41.3628333381
 20
7.853838
 30
0.0
 11
-40.6165184042
 21
8.6001529339
 31
0.0
  0
LINE
  5
4BE
100
AcDbEntity
  8
INCISIONI
100
AcDbLine
 62
7
  6
CONTINUOUS
 10
-39.7886218068
 20
9.4280495313
 30
0.0
 11
-39.3989806022
 21
9.8176907359
 31
0.0
  0
LINE
  5
4BF
100
AcDbEntity
  8
INCISIONI
100
AcDbLine
 62
7
  6
CONTINUOUS
 10
-42.2863226241
 20
6.720338
 30
0.0
 11
-41.7685536241
 21
7.238107
 31
0.0
  0
LINE
  5
4C0
100
AcDbEntity
  8
INCISIONI
100
AcDbLine
 62
7
  6
CONTINUOUS
 10
-41.1528226241
 20
7.853838
 30
0.0
 11
-40.5151901359
 21
8.4914704882
 31
0.0
  0
LINE
  5
4C1
100
AcDbEntity
  8
INCISIONI
100
AcDbLine
 62
7
  6
CONTINUOUS
 10
-42.0763119101
 20
6.720338
 30
0.0
 11
-41.5585429101
 21
7.238107
 31
0.0
  0
LINE
  5
4C2
100
AcDbEntity
  8
INCISIONI
100
AcDbLine
 62
7
  6
CONTINUOUS
 10
-40.9428119101
 20
7.853838
 30
0.0
 11
-40.4138618676
 21
8.3827880425
 31
0.0
  0
LINE
  5
4C3
100
AcDbEntity
  8
INCISIONI
100
AcDbLine
 62
250
  6
CONTINUOUS
 10
-37.9266602038
 20
13.2547618508
 30
0.0
 11
-38.1980474191
 21
13.0285713315
 31
0.0
  0
LINE
  5
4C4
100
AcDbEntity
  8
INCISIONI
100
AcDbLine
 62
250
  6
CONTINUOUS
 10
-41.1046049338
 20
9.10422
 30
0.0
 11
-39.3989806022
 21
10.357884
 31
0.0
  0
LINE
  5
4C5
100
AcDbEntity
  8
INCISIONI
100
AcDbLine
 62
250
  6
CONTINUOUS
 10
-39.3989806022
 20
9.706581
 30
0.0
 11
-40.7485984016
 21
8.741819
 31
0.0
  0
LINE
  5
4C6
100
AcDbEntity
  8
INCISIONI
100
AcDbLine
 62
250
  6
CONTINUOUS
 10
-37.9266602038
 20
11.8071428895
 30
0.0
 11
-37.6552729884
 21
11.9428571105
 31
0.0
  0
LINE
  5
4C7
100
AcDbEntity
  8
INCISIONI
100
AcDbLine
 62
250
  6
CONTINUOUS
 10
-36.569724042
 20
11.1285714447
 30
0.0
 11
-36.8411112857
 21
10.9928571105
 31
0.0
  0
LINE
  5
4C8
100
AcDbEntity
  8
INCISIONI
100
AcDbLine
 62
250
  6
CONTINUOUS
 10
-39.4063383604
 20
-7.677235
 30
0.0
 11
-39.9850360432
 21
-7.834033
 31
0.0
  0
LINE
  5
4C9
100
AcDbEntity
  8
INCISIONI
100
AcDbLine
 62
250
  6
CONTINUOUS
 10
-40.4328296098
 20
-7.954996
 30
0.0
 11
-41.5085998449
 21
-8.233126
 31
0.0
  0
LINE
  5
4CA
100
AcDbEntity
  8
INCISIONI
100
AcDbLine
 62
250
  6
CONTINUOUS
 10
-42.3051081653
 20
-9.790227
 30
0.0
 11
-39.4063383604
 21
-9.519077
 31
0.0
  0
LINE
  5
4CB
100
AcDbEntity
  8
INCISIONI
100
AcDbLine
 62
250
  6
CONTINUOUS
 10
-39.4063383604
 20
-10.111193
 30
0.0
 11
-41.2912900547
 21
-10.235548
 31
0.0
  0
LINE
  5
4CC
100
AcDbEntity
  8
RACCORDO
100
AcDbLine
 62
250
  6
CONTINUOUS
 10
-54.8168951132
 20
-9.4905
 30
0.0
 11
-55.3080786502
 21
-9.5
 31
0.0
  0
LINE
  5
4CD
100
AcDbEntity
  8
SUPERFICI
100
AcDbLine
 62
250
  6
CONTINUOUS
 10
-54.8168951132
 20
-9.4905
 30
0.0
 11
-55.3080786502
 21
-9.5
 31
0.0
  0
LINE
  5
4CE
100
AcDbEntity
  8
0
100
AcDbLine
 62
7
  6
CONTINUOUS
 10
-56.0183367983
 20
-10.05
 30
0.0
 11
-55.2952299576
 21
-10.05
 31
0.0
  0
LINE
  5
4CF
100
AcDbEntity
  8
0
100
AcDbLine
 62
250
  6
CONTINUOUS
 10
-36.2983367983
 20
-9.5357146263
 30
0.0
 11
-37.7981083411
 21
-9.5357146263
 31
0.0
  0
LINE
  5
4D0
100
AcDbEntity
  8
0
100
AcDbLine
 62
250
  6
CONTINUOUS
 10
-36.2983367983
 20
-8.8571429253
 30
0.0
 11
-37.7981083411
 21
-8.8571429253
 31
0.0
  0
LINE
  5
4D1
100
AcDbEntity
  8
0
100
AcDbLine
 62
250
  6
CONTINUOUS
 10
-36.2983367983
 20
-8.1071429253
 30
0.0
 11
-37.7981083411
 21
-8.1071429253
 31
0.0
  0
LINE
  5
4D2
100
AcDbEntity
  8
ASSI
100
AcDbLine
 62
7
  6
CONTINUOUS
 10
-21.4983367983
 20
-7.9
 30
0.0
 11
-28.9983367983
 21
-7.9
 31
0.0
  0
LINE
  5
4D3
100
AcDbEntity
  8
ASSI
100
AcDbLine
 62
7
  6
CONTINUOUS
 10
-21.4983367983
 20
-7.1
 30
0.0
 11
-28.9983367983
 21
-7.1
 31
0.0
  0
LINE
  5
4D4
100
AcDbEntity
  8
INCISIONI
100
AcDbLine
 62
250
  6
CONTINUOUS
 10
-42.2712408313
 20
-6.8615673444
 30
0.0
 11
-39.4063380083
 21
-6.8615673444
 31
0.0
  0
LINE
  5
4D5
100
AcDbEntity
  8
INCISIONI
100
AcDbLine
 62
250
  6
CONTINUOUS
 10
-41.5085998449
 20
-8.233126
 30
0.0
 11
-40.4328296098
 21
-8.5345
 31
0.0
  0
LINE
  5
4D6
100
AcDbEntity
  8
INCISIONI
100
AcDbLine
 62
250
  6
CONTINUOUS
 10
-39.9850360432
 20
-8.658312
 30
0.0
 11
-39.4063383604
 21
-8.825329
 31
0.0
  0
LINE
  5
4D7
100
AcDbEntity
  8
INCISIONI
100
AcDbLine
 62
250
  6
CONTINUOUS
 10
-39.4063383604
 20
-9.424033
 30
0.0
 11
-42.3051081653
 21
-8.514517
 31
0.0
  0
LINE
  5
4D8
100
AcDbEntity
  8
0
100
AcDbLine
 62
250
  6
CONTINUOUS
 10
-36.5125898854
 20
-12.6785715818
 30
0.0
 11
-36.2983367983
 21
-12.8928571939
 31
0.0
  0
LINE
  5
4D9
100
AcDbEntity
  8
RACCORDO
100
AcDbLine
 62
7
  6
CONTINUOUS
 10
-44.8983367983
 20
20.85
 30
0.0
 11
-44.8983367983
 21
19.0856972195
 31
0.0
  0
LINE
  5
4DA
100
AcDbEntity
  8
SUPERFICI
100
AcDbLine
 62
7
  6
CONTINUOUS
 10
-44.8983367983
 20
18.1473460386
 30
0.0
 11
-44.8983367983
 21
-18.1473460386
 31
0.0
  0
LINE
  5
4DB
100
AcDbEntity
  8
RACCORDO
100
AcDbLine
 62
7
  6
CONTINUOUS
 10
-44.8983367983
 20
-19.0856972195
 30
0.0
 11
-44.8983367983
 21
-20.85
 31
0.0
  0
LINE
  5
4DC
100
AcDbEntity
  8
DRAFT
100
AcDbLine
 62
7
  6
CONTINUOUS
 10
-44.8983367983
 20
19.5
 30
0.0
 11
-44.8983367983
 21
-19.5
 31
0.0
  0
LINE
  5
4DD
100
AcDbEntity
  8
ASSI
100
AcDbLine
 62
7
  6
CONTINUOUS
 10
-44.8983367983
 20
-20.85
 30
0.0
 11
-44.8983367983
 21
-18.8870650905
 31
0.0
  0
LINE
  5
4DE
100
AcDbEntity
  8
ASSI
100
AcDbLine
 62
7
  6
CONTINUOUS
 10
-44.8983367983
 20
18.8870650905
 30
0.0
 11
-44.8983367983
 21
20.85
 31
0.0
  0
LWPOLYLINE
  5
4DF
100
AcDbEntity
  8
0
100
AcDbPolyline
 62
7
  6
CONTINUOUS
 90
3
 70
0
 43
0.3500000006
 10
-32.6626221313
 20
34.1046507111
 10
-32.7340510483
 20
33.8903616943
 10
-32.8769088821
 20
33.6046505585
  0
LINE
  5
4E0
100
AcDbEntity
  8
INCISIONI
100
AcDbLine
 62
7
  6
CONTINUOUS
 10
-41.8663011961
 20
6.720338
 30
0.0
 11
-41.3485321961
 21
7.238107
 31
0.0
  0
LINE
  5
4E1
100
AcDbEntity
  8
INCISIONI
100
AcDbLine
 62
7
  6
CONTINUOUS
 10
-40.7328011961
 20
7.853838
 30
0.0
 11
-40.2150623209
 21
8.3715768752
 31
0.0
  0
LINE
  5
4E2
100
AcDbEntity
  8
INCISIONI
100
AcDbLine
 62
7
  6
CONTINUOUS
 10
-42.2971915773
 20
6.0794369047
 30
0.0
 11
-42.2906154821
 21
6.086013
 31
0.0
  0
LINE
  5
4E3
100
AcDbEntity
  8
INCISIONI
100
AcDbLine
 62
7
  6
CONTINUOUS
 10
-41.6562904821
 20
6.720338
 30
0.0
 11
-41.1385214821
 21
7.238107
 31
0.0
  0
LINE
  5
4E4
100
AcDbEntity
  8
INCISIONI
100
AcDbLine
 62
7
  6
CONTINUOUS
 10
-40.5227904821
 20
7.853838
 30
0.0
 11
-40.005049516
 21
8.371578966
 31
0.0
  0
LINE
  5
4E5
100
AcDbEntity
  8
INCISIONI
100
AcDbLine
 62
250
  6
CONTINUOUS
 10
-37.9266602038
 20
10.45
 30
0.0
 11
-38.1980474191
 21
10.1785714447
 31
0.0
  0
LINE
  5
4E6
100
AcDbEntity
  8
INCISIONI
100
AcDbLine
 62
7
  6
CONTINUOUS
 10
-42.2971915773
 20
5.8694261907
 30
0.0
 11
-42.080604768
 21
6.086013
 31
0.0
  0
LINE
  5
4E7
100
AcDbEntity
  8
INCISIONI
100
AcDbLine
 62
7
  6
CONTINUOUS
 10
-41.446279768
 20
6.720338
 30
0.0
 11
-40.928510768
 21
7.238107
 31
0.0
  0
LINE
  5
4E8
100
AcDbEntity
  8
INCISIONI
100
AcDbLine
 62
7
  6
CONTINUOUS
 10
-40.312779768
 20
7.853838
 30
0.0
 11
-39.7950367111
 21
8.3715810569
 31
0.0
  0
LINE
  5
4E9
100
AcDbEntity
  8
INCISIONI
100
AcDbLine
 62
7
  6
CONTINUOUS
 10
-42.2971915773
 20
5.6594154767
 30
0.0
 11
-41.870594054
 21
6.086013
 31
0.0
  0
LINE
  5
4EA
100
AcDbEntity
  8
INCISIONI
100
AcDbLine
 62
7
  6
CONTINUOUS
 10
-41.236269054
 20
6.720338
 30
0.0
 11
-40.718500054
 21
7.238107
 31
0.0
  0
LINE
  5
4EB
100
AcDbEntity
  8
INCISIONI
100
AcDbLine
 62
7
  6
CONTINUOUS
 10
-40.102769054
 20
7.853838
 30
0.0
 11
-39.5850239063
 21
8.3715831478
 31
0.0
  0
LINE
  5
4EC
100
AcDbEntity
  8
INCISIONI
100
AcDbLine
 62
7
  6
CONTINUOUS
 10
-42.2971915773
 20
5.4494047627
 30
0.0
 11
-41.8372124156
 21
5.9093839244
 31
0.0
  0
LINE
  5
4ED
100
AcDbEntity
  8
INCISIONI
100
AcDbLine
 62
7
  6
CONTINUOUS
 10
-41.02625834
 20
6.720338
 30
0.0
 11
-40.50848934
 21
7.238107
 31
0.0
  0
LINE
  5
4EE
100
AcDbEntity
  8
INCISIONI
100
AcDbLine
 62
7
  6
CONTINUOUS
 10
-39.89275834
 20
7.853838
 30
0.0
 11
-39.3989806022
 21
8.3476157378
 31
0.0
  0
LINE
  5
4EF
100
AcDbEntity
  8
INCISIONI
100
AcDbLine
 62
250
  6
CONTINUOUS
 10
-36.2983367983
 20
11.4
 30
0.0
 11
-36.569724042
 21
11.1285714447
 31
0.0
  0
LINE
  5
4F0
100
AcDbEntity
  8
INCISIONI
100
AcDbLine
 62
7
  6
CONTINUOUS
 10
-42.2971915773
 20
5.2393940487
 30
0.0
 11
-41.8372132383
 21
5.6993723877
 31
0.0
  0
LINE
  5
4F1
100
AcDbEntity
  8
INCISIONI
100
AcDbLine
 62
7
  6
CONTINUOUS
 10
-40.816247626
 20
6.720338
 30
0.0
 11
-40.298478626
 21
7.238107
 31
0.0
  0
LINE
  5
4F2
100
AcDbEntity
  8
INCISIONI
100
AcDbLine
 62
7
  6
CONTINUOUS
 10
-39.682747626
 20
7.853838
 30
0.0
 11
-39.3989806022
 21
8.1376050238
 31
0.0
  0
LINE
  5
4F3
100
AcDbEntity
  8
INCISIONI
100
AcDbLine
 62
7
  6
CONTINUOUS
 10
-42.2971915773
 20
5.0293833347
 30
0.0
 11
-41.8372140609
 21
5.489360851
 31
0.0
  0
LINE
  5
4F4
100
AcDbEntity
  8
INCISIONI
100
AcDbLine
 62
7
  6
CONTINUOUS
 10
-40.606236912
 20
6.720338
 30
0.0
 11
-40.088467912
 21
7.238107
 31
0.0
  0
LINE
  5
4F5
100
AcDbEntity
  8
INCISIONI
100
AcDbLine
 62
7
  6
CONTINUOUS
 10
-39.472736912
 20
7.853838
 30
0.0
 11
-39.3989806022
 21
7.9275943098
 31
0.0
  0
LINE
  5
4F6
100
AcDbEntity
  8
INCISIONI
100
AcDbLine
 62
7
  6
CONTINUOUS
 10
-42.2971915773
 20
4.8193726207
 30
0.0
 11
-41.8372148836
 21
5.2793493143
 31
0.0
  0
LINE
  5
4F7
100
AcDbEntity
  8
INCISIONI
100
AcDbLine
 62
7
  6
CONTINUOUS
 10
-40.396226198
 20
6.720338
 30
0.0
 11
-39.878457198
 21
7.238107
 31
0.0
  0
LINE
  5
4F8
100
AcDbEntity
  8
INCISIONI
100
AcDbLine
 62
7
  6
CONTINUOUS
 10
-42.2971915773
 20
4.6093619067
 30
0.0
 11
-41.8372157063
 21
5.0693377776
 31
0.0
  0
LINE
  5
4F9
100
AcDbEntity
  8
INCISIONI
100
AcDbLine
 62
7
  6
CONTINUOUS
 10
-41.1165586379
 20
5.7899948461
 30
0.0
 11
-40.924426484
 21
5.982127
 31
0.0
  0
LINE
  5
4FA
100
AcDbEntity
  8
INCISIONI
100
AcDbLine
 62
7
  6
CONTINUOUS
 10
-40.186215484
 20
6.720338
 30
0.0
 11
-39.668446484
 21
7.238107
 31
0.0
  0
LINE
  5
4FB
100
AcDbEntity
  8
INCISIONI
100
AcDbLine
 62
7
  6
CONTINUOUS
 10
-42.2971915773
 20
4.3993511926
 30
0.0
 11
-41.837216529
 21
4.8593262409
 31
0.0
  0
LINE
  5
4FC
100
AcDbEntity
  8
INCISIONI
100
AcDbLine
 62
7
  6
CONTINUOUS
 10
-41.1165601088
 20
5.5799826612
 30
0.0
 11
-40.71441577
 21
5.982127
 31
0.0
  0
LINE
  5
4FD
100
AcDbEntity
  8
INCISIONI
100
AcDbLine
 62
7
  6
CONTINUOUS
 10
-39.97620477
 20
6.720338
 30
0.0
 11
-39.45843577
 21
7.238107
 31
0.0
  0
LINE
  5
4FE
100
AcDbEntity
  8
INCISIONI
100
AcDbLine
 62
7
  6
CONTINUOUS
 10
-42.2971915773
 20
4.1893404786
 30
0.0
 11
-41.8372173517
 21
4.6493147042
 31
0.0
  0
LINE
  5
4FF
100
AcDbEntity
  8
INCISIONI
100
AcDbLine
 62
7
  6
CONTINUOUS
 10
-41.1165615798
 20
5.3699704762
 30
0.0
 11
-40.6565663758
 21
5.8299656802
 31
0.0
  0
LINE
  5
500
100
AcDbEntity
  8
INCISIONI
100
AcDbLine
 62
7
  6
CONTINUOUS
 10
-39.7661940559
 20
6.720338
 30
0.0
 11
-39.3989806022
 21
7.0875514538
 31
0.0
  0
LINE
  5
501
100
AcDbEntity
  8
INCISIONI
100
AcDbLine
 62
7
  6
CONTINUOUS
 10
-42.2394273419
 20
4.037094
 30
0.0
 11
-41.7216893419
 21
4.554832
 31
0.0
  0
LINE
  5
502
100
AcDbEntity
  8
INCISIONI
100
AcDbLine
 62
7
  6
CONTINUOUS
 10
-41.1165630507
 20
5.1599582912
 30
0.0
 11
-40.6565649048
 21
5.6199564371
 31
0.0
  0
LINE
  5
503
100
AcDbEntity
  8
INCISIONI
100
AcDbLine
 62
7
  6
CONTINUOUS
 10
-39.5561833419
 20
6.720338
 30
0.0
 11
-39.3989806022
 21
6.8775407397
 31
0.0
  0
LINE
  5
504
100
AcDbEntity
  8
INCISIONI
100
AcDbLine
 62
7
  6
CONTINUOUS
 10
-42.0294166279
 20
4.037094
 30
0.0
 11
-41.5116786279
 21
4.554832
 31
0.0
  0
LINE
  5
505
100
AcDbEntity
  8
INCISIONI
100
AcDbLine
 62
7
  6
CONTINUOUS
 10
-41.1165645217
 20
4.9499461063
 30
0.0
 11
-40.6565634339
 21
5.409947194
 31
0.0
  0
LINE
  5
506
100
AcDbEntity
  8
INCISIONI
100
AcDbLine
 62
7
  6
CONTINUOUS
 10
-41.8194059139
 20
4.037094
 30
0.0
 11
-41.3016679139
 21
4.554832
 31
0.0
  0
LINE
  5
507
100
AcDbEntity
  8
INCISIONI
100
AcDbLine
 62
7
  6
CONTINUOUS
 10
-41.1165659926
 20
4.7399339213
 30
0.0
 11
-40.656561963
 21
5.1999379509
 31
0.0
  0
LINE
  5
508
100
AcDbEntity
  8
INCISIONI
100
AcDbLine
 62
7
  6
CONTINUOUS
 10
-39.8589594178
 20
5.9975404961
 30
0.0
 11
-39.7588339139
 21
6.097666
 31
0.0
  0
LINE
  5
509
100
AcDbEntity
  8
INCISIONI
100
AcDbLine
 62
7
  6
CONTINUOUS
 10
-41.6093951999
 20
4.037094
 30
0.0
 11
-40.656560492
 21
4.9899287079
 31
0.0
  0
LINE
  5
50A
100
AcDbEntity
  8
INCISIONI
100
AcDbLine
 62
7
  6
CONTINUOUS
 10
-39.8589572406
 20
5.7875319593
 30
0.0
 11
-39.5488231999
 21
6.097666
 31
0.0
  0
LINE
  5
50B
100
AcDbEntity
  8
INCISIONI
100
AcDbLine
 62
7
  6
CONTINUOUS
 10
-41.3993844859
 20
4.037094
 30
0.0
 11
-40.6565590211
 21
4.7799194648
 31
0.0
  0
LINE
  5
50C
100
AcDbEntity
  8
INCISIONI
100
AcDbLine
 62
7
  6
CONTINUOUS
 10
-39.8589550633
 20
5.5775234225
 30
0.0
 11
-39.3989806022
 21
6.0374978837
 31
0.0
  0
LINE
  5
50D
100
AcDbEntity
  8
INCISIONI
100
AcDbLine
 62
7
  6
CONTINUOUS
 10
-41.1893737719
 20
4.037094
 30
0.0
 11
-40.6565575502
 21
4.5699102217
 31
0.0
  0
LINE
  5
50E
100
AcDbEntity
  8
INCISIONI
100
AcDbLine
 62
7
  6
CONTINUOUS
 10
-39.8589528861
 20
5.3675148858
 30
0.0
 11
-39.3989806022
 21
5.8274871697
 31
0.0
  0
LINE
  5
50F
100
AcDbEntity
  8
INCISIONI
100
AcDbLine
 62
7
  6
CONTINUOUS
 10
-40.9793630579
 20
4.037094
 30
0.0
 11
-40.4616250579
 21
4.554832
 31
0.0
  0
LINE
  5
510
100
AcDbEntity
  8
INCISIONI
100
AcDbLine
 62
7
  6
CONTINUOUS
 10
-39.8589507089
 20
5.157506349
 30
0.0
 11
-39.3989806022
 21
5.6174764557
 31
0.0
  0
LINE
  5
511
100
AcDbEntity
  8
INCISIONI
100
AcDbLine
 62
7
  6
CONTINUOUS
 10
-40.7693523438
 20
4.037094
 30
0.0
 11
-40.2516143438
 21
4.554832
 31
0.0
  0
LINE
  5
512
100
AcDbEntity
  8
INCISIONI
100
AcDbLine
 62
7
  6
CONTINUOUS
 10
-39.8589485316
 20
4.9474978122
 30
0.0
 11
-39.3989806022
 21
5.4074657417
 31
0.0
  0
LINE
  5
513
100
AcDbEntity
  8
INCISIONI
100
AcDbLine
 62
7
  6
CONTINUOUS
 10
-40.5593416298
 20
4.037094
 30
0.0
 11
-40.0416036298
 21
4.554832
 31
0.0
  0
LINE
  5
514
100
AcDbEntity
  8
INCISIONI
100
AcDbLine
 62
7
  6
CONTINUOUS
 10
-39.8589463544
 20
4.7374892754
 30
0.0
 11
-39.3989806022
 21
5.1974550277
 31
0.0
  0
LINE
  5
515
100
AcDbEntity
  8
INCISIONI
100
AcDbLine
 62
7
  6
CONTINUOUS
 10
-40.3493309158
 20
4.037094
 30
0.0
 11
-39.3989806022
 21
4.9874443136
 31
0.0
  0
LINE
  5
516
100
AcDbEntity
  8
INCISIONI
100
AcDbLine
 62
7
  6
CONTINUOUS
 10
-40.1393202018
 20
4.037094
 30
0.0
 11
-39.3989806022
 21
4.7774335996
 31
0.0
  0
LINE
  5
517
100
AcDbEntity
  8
INCISIONI
100
AcDbLine
 62
7
  6
CONTINUOUS
 10
-39.9293094878
 20
4.037094
 30
0.0
 11
-39.3989806022
 21
4.5674228856
 31
0.0
  0
LINE
  5
518
100
AcDbEntity
  8
INCISIONI
100
AcDbLine
 62
7
  6
CONTINUOUS
 10
-39.7192987738
 20
4.037094
 30
0.0
 11
-39.3989806022
 21
4.3574121716
 31
0.0
  0
LINE
  5
519
100
AcDbEntity
  8
INCISIONI
100
AcDbLine
 62
250
  6
CONTINUOUS
 10
-41.0155049818
 20
-6.2788012718
 30
0.0
 11
-41.8112738847
 21
-6.2788012718
 31
0.0
  0
LINE
  5
51A
100
AcDbEntity
  8
INCISIONI
100
AcDbLine
 62
250
  6
CONTINUOUS
 10
-39.4063380083
 20
-6.2587313832
 30
0.0
 11
-40.5407564887
 21
-6.2587313832
 31
0.0
  0
LINE
  5
51B
100
AcDbEntity
  8
0
100
AcDbLine
 62
250
  6
CONTINUOUS
 10
-36.2983367983
 20
-6.2142858505
 30
0.0
 11
-37.7981083411
 21
-6.2142858505
 31
0.0
  0
LINE
  5
51C
100
AcDbEntity
  8
INCISIONI
100
AcDbLine
 62
250
  6
CONTINUOUS
 10
-40.759458164
 20
-5.30544429
 30
0.0
 11
-40.7765873679
 21
-5.30544429
 31
0.0
  0
LINE
  5
51D
100
AcDbEntity
  8
0
100
AcDbLine
 62
250
  6
CONTINUOUS
 10
-36.2983367983
 20
-5.1071429253
 30
0.0
 11
-37.7981083411
 21
-5.1071429253
 31
0.0
  0
LINE
  5
51E
100
AcDbEntity
  8
0
100
AcDbLine
 62
7
  6
CONTINUOUS
 10
-56.0183367983
 20
-4.15
 30
0.0
 11
-55.3811072222
 21
-4.15
 31
0.0
  0
LINE
  5
51F
100
AcDbEntity
  8
0
100
AcDbLine
 62
250
  6
CONTINUOUS
 10
-36.2983367983
 20
-4.2499997616
 30
0.0
 11
-37.7981083411
 21
-3.8214292526
 31
0.0
  0
LINE
  5
520
100
AcDbEntity
  8
INCISIONI
100
AcDbLine
 62
250
  6
CONTINUOUS
 10
-42.3052821123
 20
-12.785664
 30
0.0
 11
-42.3052821123
 21
-13.390935
 31
0.0
  0
LINE
  5
521
100
AcDbEntity
  8
INCISIONI
100
AcDbLine
 62
250
  6
CONTINUOUS
 10
-42.3051081653
 20
-16.00026
 30
0.0
 11
-42.3051081653
 21
-15.342748
 31
0.0
  0
LINE
  5
522
100
AcDbEntity
  8
INCISIONI
100
AcDbLine
 62
250
  6
CONTINUOUS
 10
-42.3051081653
 20
-14.22041
 30
0.0
 11
-42.3051081653
 21
-13.615552
 31
0.0
  0
LINE
  5
523
100
AcDbEntity
  8
INCISIONI
100
AcDbLine
 62
250
  6
CONTINUOUS
 10
-42.3051081653
 20
-12.198005
 30
0.0
 11
-42.3051081653
 21
-11.593234
 31
0.0
  0
LINE
  5
524
100
AcDbEntity
  8
INCISIONI
100
AcDbLine
 62
250
  6
CONTINUOUS
 10
-42.3051081653
 20
-10.389084
 30
0.0
 11
-42.3051081653
 21
-9.790227
 31
0.0
  0
LINE
  5
525
100
AcDbEntity
  8
INCISIONI
100
AcDbLine
 62
250
  6
CONTINUOUS
 10
-42.3051081653
 20
-8.514517
 30
0.0
 11
-42.3051081653
 21
-7.92899
 31
0.0
  0
LINE
  5
526
100
AcDbEntity
  8
INCISIONI
100
AcDbLine
 62
250
  6
CONTINUOUS
 10
-42.2971915773
 20
4.037094
 30
0.0
 11
-42.2971915773
 21
6.086013
 31
0.0
  0
LINE
  5
527
100
AcDbEntity
  8
INCISIONI
100
AcDbLine
 62
250
  6
CONTINUOUS
 10
-42.2971915773
 20
6.720338
 30
0.0
 11
-42.2971915773
 21
7.238107
 31
0.0
  0
LINE
  5
528
100
AcDbEntity
  8
INCISIONI
100
AcDbLine
 62
250
  6
CONTINUOUS
 10
-42.2971915773
 20
7.853838
 30
0.0
 11
-42.2971915773
 21
8.371585
 31
0.0
  0
LINE
  5
529
100
AcDbEntity
  8
INCISIONI
100
AcDbLine
 62
250
  6
CONTINUOUS
 10
-42.2971915773
 20
9.656836
 30
0.0
 11
-42.2971915773
 21
10.35105
 31
0.0
  0
LINE
  5
52A
100
AcDbEntity
  8
INCISIONI
100
AcDbLine
 62
250
  6
CONTINUOUS
 10
-42.2971915773
 20
13.66021
 30
0.0
 11
-42.2971915773
 21
14.166101
 31
0.0
  0
LINE
  5
52B
100
AcDbEntity
  8
INCISIONI
100
AcDbLine
 62
250
  6
CONTINUOUS
 10
-42.2971915773
 20
15.503009
 30
0.0
 11
-42.2971915773
 21
16.001437
 31
0.0
  0
LINE
  5
52C
100
AcDbEntity
  8
INCISIONI
100
AcDbLine
 62
250
  6
CONTINUOUS
 10
-41.8372117237
 20
6.086013
 30
0.0
 11
-41.8372177218
 21
4.554832
 31
0.0
  0
LINE
  5
52D
100
AcDbEntity
  8
INCISIONI
100
AcDbLine
 62
250
  6
CONTINUOUS
 10
-41.1165672891
 20
4.554832
 30
0.0
 11
-41.1165572921
 21
5.982127
 31
0.0
  0
LINE
  5
52E
100
AcDbEntity
  8
INCISIONI
100
AcDbLine
 62
250
  6
CONTINUOUS
 10
-41.0155049818
 20
-5.9328946758
 30
0.0
 11
-41.0155049818
 21
-6.2788012718
 31
0.0
  0
LINE
  5
52F
100
AcDbEntity
  8
INCISIONI
100
AcDbLine
 62
250
  6
CONTINUOUS
 10
-40.6565674415
 20
5.982127
 30
0.0
 11
-40.6565574446
 21
4.554832
 31
0.0
  0
LINE
  5
530
100
AcDbEntity
  8
INCISIONI
100
AcDbLine
 62
250
  6
CONTINUOUS
 10
-40.5407564887
 20
-6.2587313832
 30
0.0
 11
-40.5407564887
 21
-5.9341993273
 31
0.0
  0
LINE
  5
531
100
AcDbEntity
  8
INCISIONI
100
AcDbLine
 62
250
  6
CONTINUOUS
 10
-40.4328296098
 20
-8.5345
 30
0.0
 11
-40.4328296098
 21
-7.954996
 31
0.0
  0
LINE
  5
532
100
AcDbEntity
  8
INCISIONI
100
AcDbLine
 62
250
  6
CONTINUOUS
 10
-39.9850360432
 20
-7.834033
 30
0.0
 11
-39.9850360432
 21
-8.658312
 31
0.0
  0
LINE
  5
533
100
AcDbEntity
  8
INCISIONI
100
AcDbLine
 62
250
  6
CONTINUOUS
 10
-39.8589444607
 20
4.554832
 30
0.0
 11
-39.8589604558
 21
6.097666
 31
0.0
  0
LINE
  5
534
100
AcDbEntity
  8
INCISIONI
100
AcDbLine
 62
250
  6
CONTINUOUS
 10
-39.4063383604
 20
-7.039304
 30
0.0
 11
-39.4063383604
 21
-7.677235
 31
0.0
  0
LINE
  5
535
100
AcDbEntity
  8
INCISIONI
100
AcDbLine
 62
250
  6
CONTINUOUS
 10
-39.4063383604
 20
-8.825329
 30
0.0
 11
-39.4063383604
 21
-9.424033
 31
0.0
  0
LINE
  5
536
100
AcDbEntity
  8
INCISIONI
100
AcDbLine
 62
250
  6
CONTINUOUS
 10
-39.4063383604
 20
-9.519077
 30
0.0
 11
-39.4063383604
 21
-10.111193
 31
0.0
  0
LINE
  5
537
100
AcDbEntity
  8
INCISIONI
100
AcDbLine
 62
250
  6
CONTINUOUS
 10
-39.4063383604
 20
-10.955216
 30
0.0
 11
-39.4063383604
 21
-11.040105
 31
0.0
  0
LINE
  5
538
100
AcDbEntity
  8
INCISIONI
100
AcDbLine
 62
250
  6
CONTINUOUS
 10
-39.4063383604
 20
-11.880779
 30
0.0
 11
-39.4063383604
 21
-12.459827
 31
0.0
  0
LINE
  5
539
100
AcDbEntity
  8
INCISIONI
100
AcDbLine
 62
250
  6
CONTINUOUS
 10
-39.4063383604
 20
-14.547617
 30
0.0
 11
-39.4063383604
 21
-15.081013
 31
0.0
  0
LINE
  5
53A
100
AcDbEntity
  8
INCISIONI
100
AcDbLine
 62
250
  6
CONTINUOUS
 10
-39.4063383604
 20
-13.390935
 30
0.0
 11
-39.4063383604
 21
-12.785664
 31
0.0
  0
LINE
  5
53B
100
AcDbEntity
  8
INCISIONI
100
AcDbLine
 62
250
  6
CONTINUOUS
 10
-39.4063380083
 20
-6.8615673444
 30
0.0
 11
-39.4063380083
 21
-6.2587313832
 31
0.0
  0
LINE
  5
53C
100
AcDbEntity
  8
INCISIONI
100
AcDbLine
 62
250
  6
CONTINUOUS
 10
-39.4063380083
 20
-5.3318417383
 30
0.0
 11
-39.4063380083
 21
-4.7496410148
 31
0.0
  0
LINE
  5
53D
100
AcDbEntity
  8
INCISIONI
100
AcDbLine
 62
250
  6
CONTINUOUS
 10
-39.3989806022
 20
16.001437
 30
0.0
 11
-39.3989806022
 21
15.484078
 31
0.0
  0
LINE
  5
53E
100
AcDbEntity
  8
INCISIONI
100
AcDbLine
 62
250
  6
CONTINUOUS
 10
-39.3989806022
 20
14.158632
 30
0.0
 11
-39.3989806022
 21
13.66021
 31
0.0
  0
LINE
  5
53F
100
AcDbEntity
  8
INCISIONI
100
AcDbLine
 62
250
  6
CONTINUOUS
 10
-39.3989806022
 20
10.357884
 30
0.0
 11
-39.3989806022
 21
9.706581
 31
0.0
  0
LINE
  5
540
100
AcDbEntity
  8
INCISIONI
100
AcDbLine
 62
250
  6
CONTINUOUS
 10
-39.3989806022
 20
8.371585
 30
0.0
 11
-39.3989806022
 21
7.853838
 31
0.0
  0
LINE
  5
541
100
AcDbEntity
  8
INCISIONI
100
AcDbLine
 62
250
  6
CONTINUOUS
 10
-39.3989806022
 20
7.238107
 30
0.0
 11
-39.3989806022
 21
6.720338
 31
0.0
  0
LINE
  5
542
100
AcDbEntity
  8
INCISIONI
100
AcDbLine
 62
250
  6
CONTINUOUS
 10
-39.3989806022
 20
6.097666
 30
0.0
 11
-39.3989806022
 21
4.037094
 31
0.0
  0
LINE
  5
543
100
AcDbEntity
  8
ASSI
100
AcDbLine
 62
7
  6
CONTINUOUS
 10
-39.3983367983
 20
-23.4413184673
 30
0.0
 11
-39.3983367983
 21
-22.8586815327
 31
0.0
  0
LINE
  5
544
100
AcDbEntity
  8
SUPERFICI
100
AcDbLine
 62
7
  6
CONTINUOUS
 10
-39.3983367983
 20
-23.4413184673
 30
0.0
 11
-39.3983367983
 21
-22.8586815327
 31
0.0
  0
LINE
  5
545
100
AcDbEntity
  8
ASSI
100
AcDbLine
 62
7
  6
CONTINUOUS
 10
-39.3983367983
 20
22.8586815327
 30
0.0
 11
-39.3983367983
 21
23.4413184673
 31
0.0
  0
LINE
  5
546
100
AcDbEntity
  8
SUPERFICI
100
AcDbLine
 62
7
  6
CONTINUOUS
 10
-39.3983367983
 20
22.8586815327
 30
0.0
 11
-39.3983367983
 21
23.4413184673
 31
0.0
  0
LINE
  5
547
100
AcDbEntity
  8
ASSI
100
AcDbLine
 62
250
  6
CONTINUOUS
 10
-39.3487438275
 20
23.9538922731
 30
0.0
 11
-39.3487438275
 21
22.356077753
 31
0.0
  0
LINE
  5
548
100
AcDbEntity
  8
SUPERFICI
100
AcDbLine
 62
250
  6
CONTINUOUS
 10
-39.3487438275
 20
23.9538922731
 30
0.0
 11
-39.3487438275
 21
22.356077753
 31
0.0
  0
LINE
  5
549
100
AcDbEntity
  8
ASSI
100
AcDbLine
 62
250
  6
CONTINUOUS
 10
-39.3487438275
 20
-22.356077753
 30
0.0
 11
-39.3487438275
 21
-23.9538922731
 31
0.0
  0
LINE
  5
54A
100
AcDbEntity
  8
SUPERFICI
100
AcDbLine
 62
250
  6
CONTINUOUS
 10
-39.3487438275
 20
-22.356077753
 30
0.0
 11
-39.3487438275
 21
-23.9538922731
 31
0.0
  0
LINE
  5
54B
100
AcDbEntity
  8
ASSI
100
AcDbLine
 62
7
  6
CONTINUOUS
 10
-38.8983367983
 20
23.4563578147
 30
0.0
 11
-38.8983367983
 21
22.3534615319
 31
0.0
  0
LINE
  5
54C
100
AcDbEntity
  8
SUPERFICI
100
AcDbLine
 62
7
  6
CONTINUOUS
 10
-38.8983367983
 20
23.4563578147
 30
0.0
 11
-38.8983367983
 21
22.3534615319
 31
0.0
  0
LINE
  5
54D
100
AcDbEntity
  8
ASSI
100
AcDbLine
 62
7
  6
CONTINUOUS
 10
-38.8983367983
 20
-22.3534615319
 30
0.0
 11
-38.8983367983
 21
-23.4563578147
 31
0.0
  0
LINE
  5
54E
100
AcDbEntity
  8
SUPERFICI
100
AcDbLine
 62
7
  6
CONTINUOUS
 10
-38.8983367983
 20
-22.3534615319
 30
0.0
 11
-38.8983367983
 21
-23.4563578147
 31
0.0
  0
LINE
  5
54F
100
AcDbEntity
  8
INCISIONI
100
AcDbLine
 62
7
  6
CONTINUOUS
 10
-39.5092880598
 20
4.037094
 30
0.0
 11
-39.3989806022
 21
4.1474014576
 31
0.0
  0
LINE
  5
550
100
AcDbEntity
  8
0
100
AcDbLine
 62
250
  6
CONTINUOUS
 10
-37.7981083411
 20
-2.9642853737
 30
0.0
 11
-36.2983367983
 21
-2.9642853737
 31
0.0
  0
LINE
  5
551
100
AcDbEntity
  8
ASSI
100
AcDbLine
 62
7
  6
CONTINUOUS
 10
-21.4983367983
 20
-2.9
 30
0.0
 11
-28.9983367983
 21
-2.9
 31
0.0
  0
LINE
  5
552
100
AcDbEntity
  8
ASSI
100
AcDbLine
 62
7
  6
CONTINUOUS
 10
-21.4983367983
 20
-2.1
 30
0.0
 11
-28.9983367983
 21
-2.1
 31
0.0
  0
LINE
  5
553
100
AcDbEntity
  8
0
100
AcDbLine
 62
250
  6
CONTINUOUS
 10
-37.1553491468
 20
-1.5714292526
 30
0.0
 11
-36.2983367983
 21
-1.5714292526
 31
0.0
  0
LINE
  5
554
100
AcDbEntity
  8
0
100
AcDbLine
 62
250
  6
CONTINUOUS
 10
-57.0183367983
 20
-0.0000283268
 30
0.0
 11
-56.0183367983
 21
-0.0000373193
 31
0.0
  0
LINE
  5
555
100
AcDbEntity
  8
RACCORDO
100
AcDbLine
 62
250
  6
CONTINUOUS
 10
-56.0183367983
 20
-0.0000373192
 30
0.0
 11
-55.3983337246
 21
-0.0000373192
 31
0.0
  0
LINE
  5
556
100
AcDbEntity
  8
0
100
AcDbLine
 62
250
  6
CONTINUOUS
 10
-37.1553491468
 20
-1.5714292526
 30
0.0
 11
-37.7981083411
 21
-1.1428565979
 31
0.0
  0
LINE
  5
557
100
AcDbEntity
  8
INCISIONI
100
AcDbLine
 62
250
  6
CONTINUOUS
 10
-38.1980474191
 20
14.385714221
 30
0.0
 11
-38.1980474191
 21
13.842857337
 31
0.0
  0
LINE
  5
558
100
AcDbEntity
  8
INCISIONI
100
AcDbLine
 62
250
  6
CONTINUOUS
 10
-38.1980474191
 20
13.0285713315
 30
0.0
 11
-38.1980474191
 21
12.485714221
 31
0.0
  0
LINE
  5
559
100
AcDbEntity
  8
INCISIONI
100
AcDbLine
 62
250
  6
CONTINUOUS
 10
-38.1980474191
 20
10.1785714447
 30
0.0
 11
-38.1980474191
 21
9.7714285836
 31
0.0
  0
LINE
  5
55A
100
AcDbEntity
  8
INCISIONI
100
AcDbLine
 62
250
  6
CONTINUOUS
 10
-38.1980474191
 20
11.4
 30
0.0
 11
-38.1980474191
 21
11.535714221
 31
0.0
  0
LINE
  5
55B
100
AcDbEntity
  8
INCISIONI
100
AcDbLine
 62
250
  6
CONTINUOUS
 10
-38.1980474191
 20
15.2
 30
0.0
 11
-38.1980474191
 21
16.014285779
 31
0.0
  0
LINE
  5
55C
100
AcDbEntity
  8
0
100
AcDbLine
 62
250
  6
CONTINUOUS
 10
-37.7981083411
 20
-13.428571403
 30
0.0
 11
-37.7981083411
 21
-12.8928571939
 31
0.0
  0
LINE
  5
55D
100
AcDbEntity
  8
0
100
AcDbLine
 62
250
  6
CONTINUOUS
 10
-37.7981083411
 20
-12.0714285374
 30
0.0
 11
-37.7981083411
 21
-11.4285713434
 31
0.0
  0
LINE
  5
55E
100
AcDbEntity
  8
0
100
AcDbLine
 62
250
  6
CONTINUOUS
 10
-37.7981083411
 20
-5.5357141495
 30
0.0
 11
-37.7981083411
 21
-4.678571701
 31
0.0
  0
LINE
  5
55F
100
AcDbEntity
  8
INCISIONI
100
AcDbLine
 62
250
  6
CONTINUOUS
 10
-37.383885773
 20
15.742857337
 30
0.0
 11
-37.383885773
 21
15.2
 31
0.0
  0
LINE
  5
560
100
AcDbEntity
  8
INCISIONI
100
AcDbLine
 62
250
  6
CONTINUOUS
 10
-37.383885773
 20
14.385714221
 30
0.0
 11
-37.383885773
 21
14.114285779
 31
0.0
  0
LINE
  5
561
100
AcDbEntity
  8
INCISIONI
100
AcDbLine
 62
250
  6
CONTINUOUS
 10
-37.383885773
 20
13.0285713315
 30
0.0
 11
-37.383885773
 21
12.7571428895
 31
0.0
  0
LINE
  5
562
100
AcDbEntity
  8
0
100
AcDbLine
 62
250
  6
CONTINUOUS
 10
-37.1553491468
 20
-11.6428573132
 30
0.0
 11
-37.1553491468
 21
-12.0714285374
 31
0.0
  0
LINE
  5
563
100
AcDbEntity
  8
0
100
AcDbLine
 62
250
  6
CONTINUOUS
 10
-36.7268429726
 20
-14.5714285672
 30
0.0
 11
-36.7268429726
 21
-13.9999999404
 31
0.0
  0
LINE
  5
564
100
AcDbEntity
  8
0
100
AcDbLine
 62
250
  6
CONTINUOUS
 10
-36.7268429726
 20
-4.1071431637
 30
0.0
 11
-36.7268429726
 21
-3.5357146263
 31
0.0
  0
LINE
  5
565
100
AcDbEntity
  8
INCISIONI
100
AcDbLine
 62
250
  6
CONTINUOUS
 10
-36.2983367983
 20
11.535714221
 30
0.0
 11
-36.2983367983
 21
11.4
 31
0.0
  0
LINE
  5
566
100
AcDbEntity
  8
INCISIONI
100
AcDbLine
 62
250
  6
CONTINUOUS
 10
-36.2983367983
 20
10.45
 30
0.0
 11
-36.2983367983
 21
9.5
 31
0.0
  0
LINE
  5
567
100
AcDbEntity
  8
0
100
AcDbLine
 62
250
  6
CONTINUOUS
 10
-36.2983367983
 20
-12.8928571939
 30
0.0
 11
-36.2983367983
 21
-13.428571403
 31
0.0
  0
LINE
  5
568
100
AcDbEntity
  8
0
100
AcDbLine
 62
250
  6
CONTINUOUS
 10
-36.2983367983
 20
-12.0714285374
 30
0.0
 11
-36.2983367983
 21
-11.4285713434
 31
0.0
  0
LINE
  5
569
100
AcDbEntity
  8
0
100
AcDbLine
 62
250
  6
CONTINUOUS
 10
-36.2983367983
 20
-2.9642853737
 30
0.0
 11
-36.2983367983
 21
-2.428571701
 31
0.0
  0
LINE
  5
56A
100
AcDbEntity
  8
INCISIONI
100
AcDbLine
 62
250
  6
CONTINUOUS
 10
-36.2983367983
 20
12.485714221
 30
0.0
 11
-36.2983367983
 21
13.164285779
 31
0.0
  0
LINE
  5
56B
100
AcDbEntity
  8
INCISIONI
100
AcDbLine
 62
250
  6
CONTINUOUS
 10
-36.2983367983
 20
13.842857337
 30
0.0
 11
-36.2983367983
 21
14.521428442
 31
0.0
  0
LINE
  5
56C
100
AcDbEntity
  8
INCISIONI
100
AcDbLine
 62
250
  6
CONTINUOUS
 10
-36.2983367983
 20
15.2
 30
0.0
 11
-36.2983367983
 21
15.742857337
 31
0.0
  0
LINE
  5
56D
100
AcDbEntity
  8
ASSI
100
AcDbLine
 62
250
  6
CONTINUOUS
 10
-35.3896105951
 20
-21.4537354271
 30
0.0
 11
-35.3896105951
 21
-20.9917082642
 31
0.0
  0
LINE
  5
56E
100
AcDbEntity
  8
SUPERFICI
100
AcDbLine
 62
250
  6
CONTINUOUS
 10
-35.3896105951
 20
-21.4537354271
 30
0.0
 11
-35.3896105951
 21
-20.9917082642
 31
0.0
  0
LINE
  5
56F
100
AcDbEntity
  8
ASSI
100
AcDbLine
 62
250
  6
CONTINUOUS
 10
-35.3896105951
 20
20.9917082642
 30
0.0
 11
-35.3896105951
 21
21.4537354271
 31
0.0
  0
LINE
  5
570
100
AcDbEntity
  8
SUPERFICI
100
AcDbLine
 62
250
  6
CONTINUOUS
 10
-35.3896105951
 20
20.9917082642
 30
0.0
 11
-35.3896105951
 21
21.4537354271
 31
0.0
  0
LINE
  5
571
100
AcDbEntity
  8
0
100
AcDbLine
 62
250
  6
CONTINUOUS
 10
-37.7981083411
 20
-2.0000004768
 30
0.0
 11
-37.1553491468
 21
-1.5714292526
 31
0.0
  0
LINE
  5
572
100
AcDbEntity
  8
ASSI
100
AcDbLine
 62
7
  6
CONTINUOUS
 10
-21.4983367983
 20
2.1
 30
0.0
 11
-28.9983367983
 21
2.1
 31
0.0
  0
LINE
  5
573
100
AcDbEntity
  8
ASSI
100
AcDbLine
 62
7
  6
CONTINUOUS
 10
-21.4983367983
 20
2.9
 30
0.0
 11
-28.9983367983
 21
2.9
 31
0.0
  0
LINE
  5
574
100
AcDbEntity
  8
DRAFT
100
AcDbLine
 62
7
  6
CONTINUOUS
 10
-34.8983367983
 20
20.9959955457
 30
0.0
 11
-34.8983367983
 21
20.85
 31
0.0
  0
LINE
  5
575
100
AcDbEntity
  8
RACCORDO
100
AcDbLine
 62
7
  6
CONTINUOUS
 10
-34.8983367983
 20
-21.3359869487
 30
0.0
 11
-34.8983367983
 21
-20.9959955457
 31
0.0
  0
LINE
  5
576
100
AcDbEntity
  8
SUPERFICI
100
AcDbLine
 62
7
  6
CONTINUOUS
 10
-34.8983367983
 20
-21.3359869487
 30
0.0
 11
-34.8983367983
 21
-20.9959955457
 31
0.0
  0
LINE
  5
577
100
AcDbEntity
  8
DRAFT
100
AcDbLine
 62
7
  6
CONTINUOUS
 10
-34.8983367983
 20
-20.85
 30
0.0
 11
-34.8983367983
 21
-20.9959955457
 31
0.0
  0
LINE
  5
578
100
AcDbEntity
  8
RACCORDO
100
AcDbLine
 62
7
  6
CONTINUOUS
 10
-34.8983367983
 20
-20.85
 30
0.0
 11
-34.8983367983
 21
-19.3181305591
 31
0.0
  0
LINE
  5
579
100
AcDbEntity
  8
ASSI
100
AcDbLine
 62
7
  6
CONTINUOUS
 10
-34.8983367983
 20
-20.85
 30
0.0
 11
-34.8983367983
 21
-19.3181305591
 31
0.0
  0
LINE
  5
57A
100
AcDbEntity
  8
RACCORDO
100
AcDbLine
 62
7
  6
CONTINUOUS
 10
-34.8983367983
 20
19.3181305591
 30
0.0
 11
-34.8983367983
 21
20.85
 31
0.0
  0
LINE
  5
57B
100
AcDbEntity
  8
ASSI
100
AcDbLine
 62
7
  6
CONTINUOUS
 10
-34.8983367983
 20
19.3181305591
 30
0.0
 11
-34.8983367983
 21
20.85
 31
0.0
  0
LINE
  5
57C
100
AcDbEntity
  8
RACCORDO
100
AcDbLine
 62
7
  6
CONTINUOUS
 10
-34.8983367983
 20
20.9959955457
 30
0.0
 11
-34.8983367983
 21
21.3359869487
 31
0.0
  0
LINE
  5
57D
100
AcDbEntity
  8
SUPERFICI
100
AcDbLine
 62
7
  6
CONTINUOUS
 10
-34.8983367983
 20
20.9959955457
 30
0.0
 11
-34.8983367983
 21
21.3359869487
 31
0.0
  0
LWPOLYLINE
  5
57E
100
AcDbEntity
  8
0
100
AcDbPolyline
 62
7
  6
CONTINUOUS
 90
2
 70
0
 43
0.3500000006
 10
-34.7340516586
 20
33.8189350433
 10
-34.7340516586
 20
35.3189355011
  0
LINE
  5
57F
100
AcDbEntity
  8
INCISIONI
100
AcDbLine
 62
250
  6
CONTINUOUS
 10
-42.3051081653
 20
-7.92899
 30
0.0
 11
-39.4063383604
 21
-7.039304
 31
0.0
  0
LINE
  5
580
100
AcDbEntity
  8
0
100
AcDbLine
 62
250
  6
CONTINUOUS
 10
-37.7981083411
 20
-3.8214292526
 30
0.0
 11
-36.2983367983
 21
-3.3928565979
 31
0.0
  0
LINE
  5
581
100
AcDbEntity
  8
INCISIONI
100
AcDbLine
 62
250
  6
CONTINUOUS
 10
-39.3989806022
 20
4.037094
 30
0.0
 11
-42.2971915773
 21
4.037094
 31
0.0
  0
LINE
  5
582
100
AcDbEntity
  8
0
100
AcDbLine
 62
7
  6
CONTINUOUS
 10
-56.0183367983
 20
4.15
 30
0.0
 11
-55.3811065876
 21
4.15
 31
0.0
  0
LINE
  5
583
100
AcDbEntity
  8
INCISIONI
100
AcDbLine
 62
250
  6
CONTINUOUS
 10
-41.8372177218
 20
4.554832
 30
0.0
 11
-41.1165672891
 21
4.554832
 31
0.0
  0
LINE
  5
584
100
AcDbEntity
  8
INCISIONI
100
AcDbLine
 62
250
  6
CONTINUOUS
 10
-40.6565574446
 20
4.554832
 30
0.0
 11
-39.8589444607
 21
4.554832
 31
0.0
  0
LINE
  5
585
100
AcDbEntity
  8
INCISIONI
100
AcDbLine
 62
250
  6
CONTINUOUS
 10
-41.1165572921
 20
5.982127
 30
0.0
 11
-40.6565674415
 21
5.982127
 31
0.0
  0
LINE
  5
586
100
AcDbEntity
  8
INCISIONI
100
AcDbLine
 62
250
  6
CONTINUOUS
 10
-42.2971915773
 20
6.086013
 30
0.0
 11
-41.8372117237
 21
6.086013
 31
0.0
  0
LINE
  5
587
100
AcDbEntity
  8
INCISIONI
100
AcDbLine
 62
250
  6
CONTINUOUS
 10
-39.8589604558
 20
6.097666
 30
0.0
 11
-39.3989806022
 21
6.097666
 31
0.0
  0
LINE
  5
588
100
AcDbEntity
  8
INCISIONI
100
AcDbLine
 62
250
  6
CONTINUOUS
 10
-39.3989806022
 20
6.720338
 30
0.0
 11
-42.2971915773
 21
6.720338
 31
0.0
  0
LINE
  5
589
100
AcDbEntity
  8
ASSI
100
AcDbLine
 62
7
  6
CONTINUOUS
 10
-21.4983367983
 20
7.1
 30
0.0
 11
-28.9983367983
 21
7.1
 31
0.0
  0
LINE
  5
58A
100
AcDbEntity
  8
INCISIONI
100
AcDbLine
 62
250
  6
CONTINUOUS
 10
-42.2971915773
 20
7.238107
 30
0.0
 11
-39.3989806022
 21
7.238107
 31
0.0
  0
LINE
  5
58B
100
AcDbEntity
  8
INCISIONI
100
AcDbLine
 62
250
  6
CONTINUOUS
 10
-41.0335665777
 20
8.371575
 30
0.0
 11
-42.2971915773
 21
9.656836
 31
0.0
  0
LINE
  5
58C
100
AcDbEntity
  8
INCISIONI
100
AcDbLine
 62
250
  6
CONTINUOUS
 10
-42.2971915773
 20
10.35105
 30
0.0
 11
-41.1046049338
 21
9.10422
 31
0.0
  0
LINE
  5
58D
100
AcDbEntity
  8
INCISIONI
100
AcDbLine
 62
250
  6
CONTINUOUS
 10
-40.7485984016
 20
8.741819
 30
0.0
 11
-40.4034075741
 21
8.371575
 31
0.0
  0
LWPOLYLINE
  5
58E
100
AcDbEntity
  8
0
100
AcDbPolyline
 62
7
  6
CONTINUOUS
 90
2
 70
0
 43
0.3500000006
 10
-30.662621521
 20
33.8189350433
 10
-30.662621521
 20
35.3189355011
  0
LINE
  5
58F
100
AcDbEntity
  8
0
100
AcDbLine
 62
7
  6
CONTINUOUS
 10
-29.2483367983
 20
-16.9292871832
 30
0.0
 11
-29.2483367983
 21
-13.0465815459
 31
0.0
  0
LINE
  5
590
100
AcDbEntity
  8
0
100
AcDbLine
 62
7
  6
CONTINUOUS
 10
-29.2483367983
 20
-11.9292871832
 30
0.0
 11
-29.2483367983
 21
-8.0465815459
 31
0.0
  0
LINE
  5
591
100
AcDbEntity
  8
0
100
AcDbLine
 62
7
  6
CONTINUOUS
 10
-29.2483367983
 20
-6.9292871832
 30
0.0
 11
-29.2483367983
 21
-3.0465815459
 31
0.0
  0
LINE
  5
592
100
AcDbEntity
  8
0
100
AcDbLine
 62
7
  6
CONTINUOUS
 10
-29.2483367983
 20
-1.9292871832
 30
0.0
 11
-29.2483367983
 21
1.9534184541
 31
0.0
  0
LINE
  5
593
100
AcDbEntity
  8
0
100
AcDbLine
 62
7
  6
CONTINUOUS
 10
-29.2483367983
 20
3.0707128168
 30
0.0
 11
-29.2483367983
 21
6.9534184541
 31
0.0
  0
LINE
  5
594
100
AcDbEntity
  8
0
100
AcDbLine
 62
7
  6
CONTINUOUS
 10
-29.2483367983
 20
8.0707128168
 30
0.0
 11
-29.2483367983
 21
11.9534184541
 31
0.0
  0
LINE
  5
595
100
AcDbEntity
  8
0
100
AcDbLine
 62
7
  6
CONTINUOUS
 10
-28.3483367983
 20
11.960717527
 30
0.0
 11
-28.3483367983
 21
8.063282473
 31
0.0
  0
LINE
  5
596
100
AcDbEntity
  8
0
100
AcDbLine
 62
7
  6
CONTINUOUS
 10
-28.3483367983
 20
6.960717527
 30
0.0
 11
-28.3483367983
 21
3.063282473
 31
0.0
  0
LINE
  5
597
100
AcDbEntity
  8
0
100
AcDbLine
 62
7
  6
CONTINUOUS
 10
-28.3483367983
 20
1.960717527
 30
0.0
 11
-28.3483367983
 21
-1.936717527
 31
0.0
  0
LINE
  5
598
100
AcDbEntity
  8
0
100
AcDbLine
 62
7
  6
CONTINUOUS
 10
-28.3483367983
 20
-3.039282473
 30
0.0
 11
-28.3483367983
 21
-6.936717527
 31
0.0
  0
LINE
  5
599
100
AcDbEntity
  8
0
100
AcDbLine
 62
7
  6
CONTINUOUS
 10
-28.3483367983
 20
-8.039282473
 30
0.0
 11
-28.3483367983
 21
-11.936717527
 31
0.0
  0
LINE
  5
59A
100
AcDbEntity
  8
0
100
AcDbLine
 62
7
  6
CONTINUOUS
 10
-28.3483367983
 20
-13.039282473
 30
0.0
 11
-28.3483367983
 21
-16.936717527
 31
0.0
  0
LINE
  5
59B
100
AcDbEntity
  8
0
100
AcDbLine
 62
250
  6
CONTINUOUS
 10
-37.7981083411
 20
-12.8928571939
 30
0.0
 11
-37.5838552763
 21
-12.6785715818
 31
0.0
  0
LINE
  5
59C
100
AcDbEntity
  8
0
100
AcDbLine
 62
250
  6
CONTINUOUS
 10
-37.7981083411
 20
-8.8571429253
 30
0.0
 11
-36.2983367983
 21
-8.1071429253
 31
0.0
  0
LINE
  5
59D
100
AcDbEntity
  8
INCISIONI
100
AcDbLine
 62
250
  6
CONTINUOUS
 10
-39.4063383604
 20
-11.040105
 30
0.0
 11
-41.2991806506
 21
-11.750162
 31
0.0
  0
LINE
  5
59E
100
AcDbEntity
  8
INCISIONI
100
AcDbLine
 62
250
  6
CONTINUOUS
 10
-42.3051081653
 20
-11.593234
 30
0.0
 11
-40.6957025179
 21
-10.994355
 31
0.0
  0
LINE
  5
59F
100
AcDbEntity
  8
INCISIONI
100
AcDbLine
 62
250
  6
CONTINUOUS
 10
-39.3989806022
 20
7.853838
 30
0.0
 11
-42.2971915773
 21
7.853838
 31
0.0
  0
LINE
  5
5A0
100
AcDbEntity
  8
ASSI
100
AcDbLine
 62
7
  6
CONTINUOUS
 10
-21.4983367983
 20
7.9
 30
0.0
 11
-28.9983367983
 21
7.9
 31
0.0
  0
LINE
  5
5A1
100
AcDbEntity
  8
INCISIONI
100
AcDbLine
 62
250
  6
CONTINUOUS
 10
-42.2971915773
 20
8.371585
 30
0.0
 11
-41.0335665777
 21
8.371575
 31
0.0
  0
LINE
  5
5A2
100
AcDbEntity
  8
INCISIONI
100
AcDbLine
 62
250
  6
CONTINUOUS
 10
-40.4034075741
 20
8.371575
 30
0.0
 11
-39.3989806022
 21
8.371585
 31
0.0
  0
LINE
  5
5A3
100
AcDbEntity
  8
0
100
AcDbLine
 62
7
  6
CONTINUOUS
 10
-56.0183367983
 20
10.05
 30
0.0
 11
-55.2952299576
 21
10.05
 31
0.0
  0
LINE
  5
5A4
100
AcDbEntity
  8
INCISIONI
100
AcDbLine
 62
250
  6
CONTINUOUS
 10
-37.6552729884
 20
10.45
 30
0.0
 11
-37.9266602038
 21
10.45
 31
0.0
  0
LINE
  5
5A5
100
AcDbEntity
  8
INCISIONI
100
AcDbLine
 62
250
  6
CONTINUOUS
 10
-36.8411112857
 20
10.9928571105
 30
0.0
 11
-37.6552729884
 21
10.9928571105
 31
0.0
  0
LINE
  5
5A6
100
AcDbEntity
  8
RACCORDO
100
AcDbLine
 62
250
  6
CONTINUOUS
 10
-54.8168951132
 20
9.4905
 30
0.0
 11
-55.3080786517
 21
9.5
 31
0.0
  0
LINE
  5
5A7
100
AcDbEntity
  8
SUPERFICI
100
AcDbLine
 62
250
  6
CONTINUOUS
 10
-54.8168951132
 20
9.4905
 30
0.0
 11
-55.3080786517
 21
9.5
 31
0.0
  0
LINE
  5
5A8
100
AcDbEntity
  8
INCISIONI
100
AcDbLine
 62
250
  6
CONTINUOUS
 10
-37.6552729884
 20
10.9928571105
 30
0.0
 11
-37.9266602038
 21
11.1285714447
 31
0.0
  0
LINE
  5
5A9
100
AcDbEntity
  8
INCISIONI
100
AcDbLine
 62
250
  6
CONTINUOUS
 10
-38.1980474191
 20
9.7714285836
 30
0.0
 11
-37.7909665395
 21
9.5
 31
0.0
  0
LINE
  5
5AA
100
AcDbEntity
  8
INCISIONI
100
AcDbLine
 62
250
  6
CONTINUOUS
 10
-36.2983367983
 20
9.5
 30
0.0
 11
-37.6552729884
 21
10.45
 31
0.0
  0
LINE
  5
5AB
100
AcDbEntity
  8
INCISIONI
100
AcDbLine
 62
250
  6
CONTINUOUS
 10
-37.9266602038
 20
11.1285714447
 30
0.0
 11
-38.1980474191
 21
11.4
 31
0.0
  0
LINE
  5
5AC
100
AcDbEntity
  8
INCISIONI
100
AcDbLine
 62
250
  6
CONTINUOUS
 10
-36.569724042
 20
11.8071428895
 30
0.0
 11
-36.2983367983
 21
11.535714221
 31
0.0
  0
LINE
  5
5AD
100
AcDbEntity
  8
INCISIONI
100
AcDbLine
 62
250
  6
CONTINUOUS
 10
-37.383885773
 20
13.0285713315
 30
0.0
 11
-37.5195793241
 21
13.2547618508
 31
0.0
  0
LINE
  5
5AE
100
AcDbEntity
  8
INCISIONI
100
AcDbLine
 62
250
  6
CONTINUOUS
 10
-37.383885773
 20
14.385714221
 30
0.0
 11
-37.5195793241
 21
14.6119047403
 31
0.0
  0
LINE
  5
5AF
100
AcDbEntity
  8
0
100
AcDbLine
 62
7
  6
CONTINUOUS
 10
-25.9983367983
 20
12.1
 30
0.0
 11
-25.9983367983
 21
7.9
 31
0.0
  0
LINE
  5
5B0
100
AcDbEntity
  8
0
100
AcDbLine
 62
7
  6
CONTINUOUS
 10
-25.9983367983
 20
7.1
 30
0.0
 11
-25.9983367983
 21
2.9
 31
0.0
  0
LINE
  5
5B1
100
AcDbEntity
  8
0
100
AcDbLine
 62
7
  6
CONTINUOUS
 10
-25.9983367983
 20
2.1
 30
0.0
 11
-25.9983367983
 21
-2.1
 31
0.0
  0
LINE
  5
5B2
100
AcDbEntity
  8
0
100
AcDbLine
 62
7
  6
CONTINUOUS
 10
-25.9983367983
 20
-2.9
 30
0.0
 11
-25.9983367983
 21
-7.1
 31
0.0
  0
LINE
  5
5B3
100
AcDbEntity
  8
0
100
AcDbLine
 62
7
  6
CONTINUOUS
 10
-25.9983367983
 20
-7.9
 30
0.0
 11
-25.9983367983
 21
-12.1
 31
0.0
  0
LINE
  5
5B4
100
AcDbEntity
  8
0
100
AcDbLine
 62
7
  6
CONTINUOUS
 10
-25.9983367983
 20
-12.9
 30
0.0
 11
-25.9983367983
 21
-17.1
 31
0.0
  0
LINE
  5
5B5
100
AcDbEntity
  8
INCISIONI
100
AcDbLine
 62
250
  6
CONTINUOUS
 10
-39.4063383604
 20
-15.081013
 30
0.0
 11
-42.3051081653
 21
-16.00026
 31
0.0
  0
LINE
  5
5B6
100
AcDbEntity
  8
0
100
AcDbLine
 62
250
  6
CONTINUOUS
 10
-37.7981083411
 20
-14.2857142091
 30
0.0
 11
-36.2983367983
 21
-13.8571428061
 31
0.0
  0
LINE
  5
5B7
100
AcDbEntity
  8
INCISIONI
100
AcDbLine
 62
250
  6
CONTINUOUS
 10
-37.6552729884
 20
11.9428571105
 30
0.0
 11
-36.8411112857
 21
11.9428571105
 31
0.0
  0
LINE
  5
5B8
100
AcDbEntity
  8
ASSI
100
AcDbLine
 62
7
  6
CONTINUOUS
 10
-21.4983367983
 20
12.1
 30
0.0
 11
-28.9983367983
 21
12.1
 31
0.0
  0
LINE
  5
5B9
100
AcDbEntity
  8
INCISIONI
100
AcDbLine
 62
250
  6
CONTINUOUS
 10
-37.5195793241
 20
13.2547618508
 30
0.0
 11
-37.9266602038
 21
13.2547618508
 31
0.0
  0
LINE
  5
5BA
100
AcDbEntity
  8
INCISIONI
100
AcDbLine
 62
250
  6
CONTINUOUS
 10
-36.4340304202
 20
13.3
 30
0.0
 11
-37.1124985011
 21
13.3
 31
0.0
  0
LINE
  5
5BB
100
AcDbEntity
  8
INCISIONI
100
AcDbLine
 62
250
  6
CONTINUOUS
 10
-39.3989806022
 20
13.66021
 30
0.0
 11
-42.2971915773
 21
13.66021
 31
0.0
  0
LINE
  5
5BC
100
AcDbEntity
  8
INCISIONI
100
AcDbLine
 62
250
  6
CONTINUOUS
 10
-37.5195793241
 20
14.6119047403
 30
0.0
 11
-37.9266602038
 21
14.6119047403
 31
0.0
  0
LINE
  5
5BD
100
AcDbEntity
  8
INCISIONI
100
AcDbLine
 62
250
  6
CONTINUOUS
 10
-41.4235897457
 20
14.165656
 30
0.0
 11
-39.3989806022
 21
14.158632
 31
0.0
  0
LINE
  5
5BE
100
AcDbEntity
  8
INCISIONI
100
AcDbLine
 62
250
  6
CONTINUOUS
 10
-36.8411112857
 20
11.9428571105
 30
0.0
 11
-36.569724042
 21
11.8071428895
 31
0.0
  0
LINE
  5
5BF
100
AcDbEntity
  8
INCISIONI
100
AcDbLine
 62
250
  6
CONTINUOUS
 10
-36.2983367983
 20
13.164285779
 30
0.0
 11
-36.4340304202
 21
13.3
 31
0.0
  0
LINE
  5
5C0
100
AcDbEntity
  8
INCISIONI
100
AcDbLine
 62
250
  6
CONTINUOUS
 10
-36.2983367983
 20
14.521428442
 30
0.0
 11
-36.4340304202
 21
14.657142663
 31
0.0
  0
LINE
  5
5C1
100
AcDbEntity
  8
INCISIONI
100
AcDbLine
 62
250
  6
CONTINUOUS
 10
-36.2983367983
 20
15.742857337
 30
0.0
 11
-36.569724042
 21
16.014285779
 31
0.0
  0
LINE
  5
5C2
100
AcDbEntity
  8
0
100
AcDbLine
 62
7
  6
CONTINUOUS
 10
-23.8983367983
 20
12.1
 30
0.0
 11
-23.8983367983
 21
7.9
 31
0.0
  0
LINE
  5
5C3
100
AcDbEntity
  8
0
100
AcDbLine
 62
7
  6
CONTINUOUS
 10
-23.8983367983
 20
7.1
 30
0.0
 11
-23.8983367983
 21
2.9
 31
0.0
  0
LINE
  5
5C4
100
AcDbEntity
  8
0
100
AcDbLine
 62
7
  6
CONTINUOUS
 10
-23.8983367983
 20
2.1
 30
0.0
 11
-23.8983367983
 21
-2.1
 31
0.0
  0
LINE
  5
5C5
100
AcDbEntity
  8
0
100
AcDbLine
 62
7
  6
CONTINUOUS
 10
-23.8983367983
 20
-2.9
 30
0.0
 11
-23.8983367983
 21
-7.1
 31
0.0
  0
LINE
  5
5C6
100
AcDbEntity
  8
0
100
AcDbLine
 62
7
  6
CONTINUOUS
 10
-23.8983367983
 20
-7.9
 30
0.0
 11
-23.8983367983
 21
-12.1
 31
0.0
  0
LINE
  5
5C7
100
AcDbEntity
  8
0
100
AcDbLine
 62
7
  6
CONTINUOUS
 10
-23.8983367983
 20
-12.9
 30
0.0
 11
-23.8983367983
 21
-17.1
 31
0.0
  0
LINE
  5
5C8
100
AcDbEntity
  8
0
100
AcDbLine
 62
7
  6
CONTINUOUS
 10
-23.4983367983
 20
12.1
 30
0.0
 11
-23.4983367983
 21
7.9
 31
0.0
  0
LINE
  5
5C9
100
AcDbEntity
  8
0
100
AcDbLine
 62
7
  6
CONTINUOUS
 10
-23.4983367983
 20
7.1
 30
0.0
 11
-23.4983367983
 21
2.9
 31
0.0
  0
LINE
  5
5CA
100
AcDbEntity
  8
0
100
AcDbLine
 62
7
  6
CONTINUOUS
 10
-23.4983367983
 20
2.1
 30
0.0
 11
-23.4983367983
 21
-2.1
 31
0.0
  0
LINE
  5
5CB
100
AcDbEntity
  8
0
100
AcDbLine
 62
7
  6
CONTINUOUS
 10
-23.4983367983
 20
-2.9
 30
0.0
 11
-23.4983367983
 21
-7.1
 31
0.0
  0
LINE
  5
5CC
100
AcDbEntity
  8
0
100
AcDbLine
 62
7
  6
CONTINUOUS
 10
-23.4983367983
 20
-7.9
 30
0.0
 11
-23.4983367983
 21
-12.1
 31
0.0
  0
LINE
  5
5CD
100
AcDbEntity
  8
0
100
AcDbLine
 62
7
  6
CONTINUOUS
 10
-23.4983367983
 20
-12.9
 30
0.0
 11
-23.4983367983
 21
-17.1
 31
0.0
  0
LINE
  5
5CE
100
AcDbEntity
  8
RACCORDO
100
AcDbLine
 62
250
  6
CONTINUOUS
 10
-23.3957188377
 20
-17.1
 30
0.0
 11
-23.3957188377
 21
-12.9
 31
0.0
  0
LINE
  5
5CF
100
AcDbEntity
  8
ASSI
100
AcDbLine
 62
250
  6
CONTINUOUS
 10
-23.3957188377
 20
-17.1
 30
0.0
 11
-23.3957188377
 21
-12.9
 31
0.0
  0
LINE
  5
5D0
100
AcDbEntity
  8
RACCORDO
100
AcDbLine
 62
250
  6
CONTINUOUS
 10
-23.3957188377
 20
-12.1
 30
0.0
 11
-23.3957188377
 21
-7.9
 31
0.0
  0
LINE
  5
5D1
100
AcDbEntity
  8
ASSI
100
AcDbLine
 62
250
  6
CONTINUOUS
 10
-23.3957188377
 20
-12.1
 30
0.0
 11
-23.3957188377
 21
-7.9
 31
0.0
  0
LINE
  5
5D2
100
AcDbEntity
  8
RACCORDO
100
AcDbLine
 62
250
  6
CONTINUOUS
 10
-23.3957188377
 20
-7.1
 30
0.0
 11
-23.3957188377
 21
-2.9
 31
0.0
  0
LINE
  5
5D3
100
AcDbEntity
  8
ASSI
100
AcDbLine
 62
250
  6
CONTINUOUS
 10
-23.3957188377
 20
-7.1
 30
0.0
 11
-23.3957188377
 21
-2.9
 31
0.0
  0
LINE
  5
5D4
100
AcDbEntity
  8
RACCORDO
100
AcDbLine
 62
250
  6
CONTINUOUS
 10
-23.3957188377
 20
-2.1
 30
0.0
 11
-23.3957188377
 21
2.1
 31
0.0
  0
LINE
  5
5D5
100
AcDbEntity
  8
ASSI
100
AcDbLine
 62
250
  6
CONTINUOUS
 10
-23.3957188377
 20
-2.1
 30
0.0
 11
-23.3957188377
 21
2.1
 31
0.0
  0
LINE
  5
5D6
100
AcDbEntity
  8
RACCORDO
100
AcDbLine
 62
250
  6
CONTINUOUS
 10
-23.3957188377
 20
2.9
 30
0.0
 11
-23.3957188377
 21
7.1
 31
0.0
  0
LINE
  5
5D7
100
AcDbEntity
  8
ASSI
100
AcDbLine
 62
250
  6
CONTINUOUS
 10
-23.3957188377
 20
2.9
 30
0.0
 11
-23.3957188377
 21
7.1
 31
0.0
  0
LINE
  5
5D8
100
AcDbEntity
  8
RACCORDO
100
AcDbLine
 62
250
  6
CONTINUOUS
 10
-23.3957188377
 20
7.9
 30
0.0
 11
-23.3957188377
 21
12.1
 31
0.0
  0
LINE
  5
5D9
100
AcDbEntity
  8
ASSI
100
AcDbLine
 62
250
  6
CONTINUOUS
 10
-23.3957188377
 20
7.9
 30
0.0
 11
-23.3957188377
 21
12.1
 31
0.0
  0
LINE
  5
5DA
100
AcDbEntity
  8
ASSI
100
AcDbLine
 62
7
  6
CONTINUOUS
 10
-23.0986031605
 20
12.1
 30
0.0
 11
-23.0986031605
 21
7.9
 31
0.0
  0
LINE
  5
5DB
100
AcDbEntity
  8
ASSI
100
AcDbLine
 62
7
  6
CONTINUOUS
 10
-23.0986031605
 20
7.1
 30
0.0
 11
-23.0986031605
 21
2.9
 31
0.0
  0
LINE
  5
5DC
100
AcDbEntity
  8
ASSI
100
AcDbLine
 62
7
  6
CONTINUOUS
 10
-23.0986031605
 20
2.1
 30
0.0
 11
-23.0986031605
 21
-2.1
 31
0.0
  0
LINE
  5
5DD
100
AcDbEntity
  8
ASSI
100
AcDbLine
 62
7
  6
CONTINUOUS
 10
-23.0986031605
 20
-2.9
 30
0.0
 11
-23.0986031605
 21
-7.1
 31
0.0
  0
LINE
  5
5DE
100
AcDbEntity
  8
ASSI
100
AcDbLine
 62
7
  6
CONTINUOUS
 10
-23.0986031605
 20
-7.9
 30
0.0
 11
-23.0986031605
 21
-12.1
 31
0.0
  0
LINE
  5
5DF
100
AcDbEntity
  8
ASSI
100
AcDbLine
 62
7
  6
CONTINUOUS
 10
-23.0986031605
 20
-12.9
 30
0.0
 11
-23.0986031605
 21
-17.1
 31
0.0
  0
LINE
  5
5E0
100
AcDbEntity
  8
RACCORDO
100
AcDbLine
 62
250
  6
CONTINUOUS
 10
-22.4808843919
 20
19.1013831211
 30
0.0
 11
-22.4808843919
 21
18.9236182982
 31
0.0
  0
LINE
  5
5E1
100
AcDbEntity
  8
ASSI
100
AcDbLine
 62
250
  6
CONTINUOUS
 10
-22.4808843919
 20
19.1013831211
 30
0.0
 11
-22.4808843919
 21
18.9236182982
 31
0.0
  0
LINE
  5
5E2
100
AcDbEntity
  8
ASSI
100
AcDbLine
 62
250
  6
CONTINUOUS
 10
-22.4808843919
 20
17.5096157267
 30
0.0
 11
-22.4808843919
 21
12.1
 31
0.0
  0
LINE
  5
5E3
100
AcDbEntity
  8
ASSI
100
AcDbLine
 62
250
  6
CONTINUOUS
 10
-22.4808843919
 20
7.9
 30
0.0
 11
-22.4808843919
 21
7.1
 31
0.0
  0
LINE
  5
5E4
100
AcDbEntity
  8
ASSI
100
AcDbLine
 62
250
  6
CONTINUOUS
 10
-22.4808843919
 20
2.9
 30
0.0
 11
-22.4808843919
 21
2.1
 31
0.0
  0
LINE
  5
5E5
100
AcDbEntity
  8
ASSI
100
AcDbLine
 62
250
  6
CONTINUOUS
 10
-22.4808843919
 20
-2.1
 30
0.0
 11
-22.4808843919
 21
-2.9
 31
0.0
  0
LINE
  5
5E6
100
AcDbEntity
  8
ASSI
100
AcDbLine
 62
250
  6
CONTINUOUS
 10
-22.4808843919
 20
-7.1
 30
0.0
 11
-22.4808843919
 21
-7.9
 31
0.0
  0
LINE
  5
5E7
100
AcDbEntity
  8
ASSI
100
AcDbLine
 62
250
  6
CONTINUOUS
 10
-22.4808843919
 20
-12.1
 30
0.0
 11
-22.4808843919
 21
-12.9
 31
0.0
  0
LINE
  5
5E8
100
AcDbEntity
  8
ASSI
100
AcDbLine
 62
250
  6
CONTINUOUS
 10
-22.4808843919
 20
-17.1
 30
0.0
 11
-22.4808843919
 21
-17.5096157267
 31
0.0
  0
LINE
  5
5E9
100
AcDbEntity
  8
RACCORDO
100
AcDbLine
 62
250
  6
CONTINUOUS
 10
-22.4808843919
 20
-18.9236182982
 30
0.0
 11
-22.4808843919
 21
-19.1013831211
 31
0.0
  0
LINE
  5
5EA
100
AcDbEntity
  8
ASSI
100
AcDbLine
 62
250
  6
CONTINUOUS
 10
-22.4808843919
 20
-18.9236182982
 30
0.0
 11
-22.4808843919
 21
-19.1013831211
 31
0.0
  0
LINE
  5
5EB
100
AcDbEntity
  8
RACCORDO
100
AcDbLine
 62
7
  6
CONTINUOUS
 10
-21.4983367983
 20
18.3943840357
 30
0.0
 11
-21.4983367983
 21
17.509618074
 31
0.0
  0
LINE
  5
5EC
100
AcDbEntity
  8
RACCORDO
100
AcDbLine
 62
7
  6
CONTINUOUS
 10
-21.4983367983
 20
7.9
 30
0.0
 11
-21.4983367983
 21
7.1
 31
0.0
  0
LINE
  5
5ED
100
AcDbEntity
  8
RACCORDO
100
AcDbLine
 62
7
  6
CONTINUOUS
 10
-21.4983367983
 20
2.9
 30
0.0
 11
-21.4983367983
 21
2.1
 31
0.0
  0
LINE
  5
5EE
100
AcDbEntity
  8
RACCORDO
100
AcDbLine
 62
7
  6
CONTINUOUS
 10
-21.4983367983
 20
-2.1
 30
0.0
 11
-21.4983367983
 21
-2.9
 31
0.0
  0
LINE
  5
5EF
100
AcDbEntity
  8
RACCORDO
100
AcDbLine
 62
7
  6
CONTINUOUS
 10
-21.4983367983
 20
-7.1
 30
0.0
 11
-21.4983367983
 21
-7.9
 31
0.0
  0
LINE
  5
5F0
100
AcDbEntity
  8
RACCORDO
100
AcDbLine
 62
7
  6
CONTINUOUS
 10
-21.4983367983
 20
-12.1
 30
0.0
 11
-21.4983367983
 21
-12.9
 31
0.0
  0
LINE
  5
5F1
100
AcDbEntity
  8
RACCORDO
100
AcDbLine
 62
7
  6
CONTINUOUS
 10
-21.4983367983
 20
-17.509618074
 30
0.0
 11
-21.4983367983
 21
-18.3943840357
 31
0.0
  0
LINE
  5
5F2
100
AcDbEntity
  8
ASSI
100
AcDbLine
 62
7
  6
CONTINUOUS
 10
-21.4983367983
 20
-18.3943840357
 30
0.0
 11
-21.4983367983
 21
18.3943840357
 31
0.0
  0
LINE
  5
5F3
100
AcDbEntity
  8
RACCORDO
100
AcDbLine
 62
7
  6
CONTINUOUS
 10
-48.3983367983
 20
-23.1226497308
 30
0.0
 11
-49.2733367983
 21
-23.6278312164
 31
0.0
  0
LINE
  5
5F4
100
AcDbEntity
  8
SUPERFICI
100
AcDbLine
 62
7
  6
CONTINUOUS
 10
-48.3983367983
 20
-23.1226497308
 30
0.0
 11
-49.2733367983
 21
-23.6278312164
 31
0.0
  0
LINE
  5
5F5
100
AcDbEntity
  8
RACCORDO
100
AcDbLine
 62
250
  6
CONTINUOUS
 10
-48.1497912312
 20
-23.2669872981
 30
0.0
 11
-49.1497912312
 21
-23.8443375673
 31
0.0
  0
LINE
  5
5F6
100
AcDbEntity
  8
SUPERFICI
100
AcDbLine
 62
250
  6
CONTINUOUS
 10
-48.1497912312
 20
-23.2669872981
 30
0.0
 11
-49.1497912312
 21
-23.8443375673
 31
0.0
  0
LINE
  5
5F7
100
AcDbEntity
  8
0
100
AcDbLine
 62
250
  6
CONTINUOUS
 10
-37.7981083411
 20
-16.0
 30
0.0
 11
-36.9410960373
 21
-15.5714285523
 31
0.0
  0
LINE
  5
5F8
100
AcDbEntity
  8
INCISIONI
100
AcDbLine
 62
250
  6
CONTINUOUS
 10
-36.4340304202
 20
14.657142663
 30
0.0
 11
-37.1124985011
 21
14.657142663
 31
0.0
  0
LINE
  5
5F9
100
AcDbEntity
  8
INCISIONI
100
AcDbLine
 62
250
  6
CONTINUOUS
 10
-37.383885773
 20
15.2
 30
0.0
 11
-38.1980474191
 21
15.2
 31
0.0
  0
LINE
  5
5FA
100
AcDbEntity
  8
INCISIONI
100
AcDbLine
 62
250
  6
CONTINUOUS
 10
-40.2502412407
 20
15.502999
 30
0.0
 11
-42.2971915773
 21
15.503009
 31
0.0
  0
LINE
  5
5FB
100
AcDbEntity
  8
INCISIONI
100
AcDbLine
 62
250
  6
CONTINUOUS
 10
-42.2971915773
 20
16.001437
 30
0.0
 11
-39.3989806022
 21
16.001437
 31
0.0
  0
LINE
  5
5FC
100
AcDbEntity
  8
INCISIONI
100
AcDbLine
 62
250
  6
CONTINUOUS
 10
-36.569724042
 20
16.014285779
 30
0.0
 11
-37.1124985011
 21
16.014285779
 31
0.0
  0
LINE
  5
5FD
100
AcDbEntity
  8
RACCORDO
100
AcDbLine
 62
250
  6
CONTINUOUS
 10
-21.4983367983
 20
17.509618074
 30
0.0
 11
-22.4808843919
 21
17.509618074
 31
0.0
  0
LINE
  5
5FE
100
AcDbEntity
  8
ASSI
100
AcDbLine
 62
250
  6
CONTINUOUS
 10
-21.4983367983
 20
17.509618074
 30
0.0
 11
-22.4808843919
 21
17.509618074
 31
0.0
  0
LINE
  5
5FF
100
AcDbEntity
  8
RACCORDO
100
AcDbLine
 62
250
  6
CONTINUOUS
 10
-22.4808843919
 20
17.5096157267
 30
0.0
 11
-44.8983367983
 21
17.6716990487
 31
0.0
  0
LINE
  5
600
100
AcDbEntity
  8
ASSI
100
AcDbLine
 62
250
  6
CONTINUOUS
 10
-22.4808843919
 20
17.5096157267
 30
0.0
 11
-44.8983367983
 21
17.6716990487
 31
0.0
  0
LINE
  5
601
100
AcDbEntity
  8
DRAFT
100
AcDbLine
 62
7
  6
CONTINUOUS
 10
-44.8983367983
 20
18.1473460386
 30
0.0
 11
-46.8983367983
 21
18.5
 31
0.0
  0
LINE
  5
602
100
AcDbEntity
  8
SUPERFICI
100
AcDbLine
 62
7
  6
CONTINUOUS
 10
-44.8983367983
 20
18.1473460386
 30
0.0
 11
-46.8983367983
 21
18.5
 31
0.0
  0
LINE
  5
603
100
AcDbEntity
  8
RACCORDO
100
AcDbLine
 62
7
  6
CONTINUOUS
 10
-49.2733367983
 20
23.6278312164
 30
0.0
 11
-48.3983367983
 21
23.1226497308
 31
0.0
  0
LINE
  5
604
100
AcDbEntity
  8
SUPERFICI
100
AcDbLine
 62
7
  6
CONTINUOUS
 10
-49.2733367983
 20
23.6278312164
 30
0.0
 11
-48.3983367983
 21
23.1226497308
 31
0.0
  0
LINE
  5
605
100
AcDbEntity
  8
RACCORDO
100
AcDbLine
 62
250
  6
CONTINUOUS
 10
-49.1497912312
 20
23.8443375673
 30
0.0
 11
-48.1497912312
 21
23.2669872981
 31
0.0
  0
LINE
  5
606
100
AcDbEntity
  8
SUPERFICI
100
AcDbLine
 62
250
  6
CONTINUOUS
 10
-49.1497912312
 20
23.8443375673
 30
0.0
 11
-48.1497912312
 21
23.2669872981
 31
0.0
  0
LINE
  5
607
100
AcDbEntity
  8
DRAFT
100
AcDbLine
 62
7
  6
CONTINUOUS
 10
-45.8983367983
 20
18.5087268678
 30
0.0
 11
-44.8983367983
 21
18.5174537356
 31
0.0
  0
LINE
  5
608
100
AcDbEntity
  8
DRAFT
100
AcDbLine
 62
7
  6
CONTINUOUS
 10
-44.8983367983
 20
19.7087268678
 30
0.0
 11
-45.8983367983
 21
19.7
 31
0.0
  0
LINE
  5
609
100
AcDbEntity
  8
ASSI
100
AcDbLine
 62
7
  6
CONTINUOUS
 10
-34.8983367983
 20
20.9959955457
 30
0.0
 11
-45.8983367983
 21
20.9
 31
0.0
  0
LINE
  5
60A
100
AcDbEntity
  8
SUPERFICI
100
AcDbLine
 62
7
  6
CONTINUOUS
 10
-34.8983367983
 20
20.9959955457
 30
0.0
 11
-45.8983367983
 21
20.9
 31
0.0
  0
LINE
  5
60B
100
AcDbEntity
  8
ASSI
100
AcDbLine
 62
7
  6
CONTINUOUS
 10
-35.3896105951
 20
21.4537354271
 30
0.0
 11
-45.8983367983
 21
21.4
 31
0.0
  0
LINE
  5
60C
100
AcDbEntity
  8
SUPERFICI
100
AcDbLine
 62
7
  6
CONTINUOUS
 10
-35.3896105951
 20
21.4537354271
 30
0.0
 11
-45.8983367983
 21
21.4
 31
0.0
  0
LINE
  5
60D
100
AcDbEntity
  8
RACCORDO
100
AcDbLine
 62
250
  6
CONTINUOUS
 10
-56.0183367983
 20
18.20858252
 30
0.0
 11
-54.718846851
 21
18.20858252
 31
0.0
  0
LINE
  5
60E
100
AcDbEntity
  8
0
100
AcDbLine
 62
7
  6
CONTINUOUS
 10
-56.0183367983
 20
18.35
 30
0.0
 11
-54.701911572
 21
18.35
 31
0.0
  0
LINE
  5
60F
100
AcDbEntity
  8
0
100
AcDbLine
 62
7
  6
CONTINUOUS
 10
-45.8983367983
 20
19.5
 30
0.0
 11
-44.8983367983
 21
19.5
 31
0.0
  0
LINE
  5
610
100
AcDbEntity
  8
0
100
AcDbLine
 62
7
  6
CONTINUOUS
 10
-44.8983367983
 20
19.7
 30
0.0
 11
-45.8983367983
 21
19.7
 31
0.0
  0
LINE
  5
611
100
AcDbEntity
  8
DRAFT
100
AcDbLine
 62
7
  6
CONTINUOUS
 10
-44.8983367983
 20
20.85
 30
0.0
 11
-34.8983367983
 21
20.85
 31
0.0
  0
LINE
  5
612
100
AcDbEntity
  8
ASSI
100
AcDbLine
 62
7
  6
CONTINUOUS
 10
-44.8983367983
 20
20.85
 30
0.0
 11
-34.8983367983
 21
20.85
 31
0.0
  0
LINE
  5
613
100
AcDbEntity
  8
RACCORDO
100
AcDbLine
 62
250
  6
CONTINUOUS
 10
-22.4808843919
 20
18.9236182982
 30
0.0
 11
-44.8983367983
 21
19.0856972195
 31
0.0
  0
LINE
  5
614
100
AcDbEntity
  8
ASSI
100
AcDbLine
 62
250
  6
CONTINUOUS
 10
-22.4808843919
 20
18.9236182982
 30
0.0
 11
-44.8983367983
 21
19.0856972195
 31
0.0
  0
LINE
  5
615
100
AcDbEntity
  8
DRAFT
100
AcDbLine
 62
7
  6
CONTINUOUS
 10
-45.8983367983
 20
18.5087268678
 30
0.0
 11
-44.8983367983
 21
18.492768546
 31
0.0
  0
LINE
  5
616
100
AcDbEntity
  8
RACCORDO
100
AcDbLine
 62
250
  6
CONTINUOUS
 10
-34.8983367983
 20
19.3181305591
 30
0.0
 11
-22.4808843919
 21
19.1013831211
 31
0.0
  0
LINE
  5
617
100
AcDbEntity
  8
ASSI
100
AcDbLine
 62
250
  6
CONTINUOUS
 10
-34.8983367983
 20
19.3181305591
 30
0.0
 11
-22.4808843919
 21
19.1013831211
 31
0.0
  0
LINE
  5
618
100
AcDbEntity
  8
RACCORDO
100
AcDbLine
 62
7
  6
CONTINUOUS
 10
-34.8983367983
 20
19.6109791689
 30
0.0
 11
-22.4808843919
 21
19.3942317309
 31
0.0
  0
LINE
  5
619
100
AcDbEntity
  8
ASSI
100
AcDbLine
 62
7
  6
CONTINUOUS
 10
-34.8983367983
 20
19.6109791689
 30
0.0
 11
-22.4808843919
 21
19.3942317309
 31
0.0
  0
LWPOLYLINE
  5
61A
100
AcDbEntity
  8
0
100
AcDbPolyline
 62
7
  6
CONTINUOUS
 90
10
 70
0
 43
0.3500000006
 10
-38.4011945343
 20
44.3189337158
 10
-38.3297633514
 20
44.176075882
 10
-38.3297633514
 20
44.104649231
 10
-38.4726211853
 20
43.9617913971
 10
-38.5440523682
 20
43.9617913971
 10
-38.6154790192
 20
44.03322258
 10
-38.6154790192
 20
44.104649231
 10
-38.5440523682
 20
44.2475070648
 10
-38.4726211853
 20
44.3189337158
 10
-38.4011945343
 20
44.3189337158
  0
LWPOLYLINE
  5
61B
100
AcDbEntity
  8
0
100
AcDbPolyline
 62
7
  6
CONTINUOUS
 90
10
 70
0
 43
0.3500000006
 10
-32.7340510483
 20
34.3189351959
 10
-32.6626221313
 20
34.1760773621
 10
-32.6626221313
 20
34.1046507111
 10
-32.8054799652
 20
33.9617928772
 10
-32.8769088821
 20
33.9617928772
 10
-32.9483377991
 20
34.0332195282
 10
-32.9483377991
 20
34.1046507111
 10
-32.8769088821
 20
34.2475040131
 10
-32.8054799652
 20
34.3189351959
 10
-32.7340510483
 20
34.3189351959
  0
LINE
  5
61C
100
AcDbEntity
  8
RACCORDO
100
AcDbLine
 62
250
  6
CONTINUOUS
 10
-46.8983367983
 20
21.8997711479
 30
0.0
 11
-53.3641320925
 21
21.5609131753
 31
0.0
  0
LINE
  5
61D
100
AcDbEntity
  8
SUPERFICI
100
AcDbLine
 62
250
  6
CONTINUOUS
 10
-46.8983367983
 20
21.8997711479
 30
0.0
 11
-53.3641320925
 21
21.5609131753
 31
0.0
  0
LINE
  5
61E
100
AcDbEntity
  8
RACCORDO
100
AcDbLine
 62
7
  6
CONTINUOUS
 10
-46.8983367983
 20
22.4
 30
0.0
 11
-53.3815738674
 21
22.0602279426
 31
0.0
  0
LINE
  5
61F
100
AcDbEntity
  8
SUPERFICI
100
AcDbLine
 62
7
  6
CONTINUOUS
 10
-46.8983367983
 20
22.4
 30
0.0
 11
-53.3815738674
 21
22.0602279426
 31
0.0
  0
LINE
  5
620
100
AcDbEntity
  8
RACCORDO
100
AcDbLine
 62
250
  6
CONTINUOUS
 10
-49.1497912312
 20
24.2369056521
 30
0.0
 11
-46.8983367983
 21
24.2500042308
 31
0.0
  0
LINE
  5
621
100
AcDbEntity
  8
SUPERFICI
100
AcDbLine
 62
250
  6
CONTINUOUS
 10
-49.1497912312
 20
24.2369056521
 30
0.0
 11
-46.8983367983
 21
24.2500042308
 31
0.0
  0
LINE
  5
622
100
AcDbEntity
  8
RACCORDO
100
AcDbLine
 62
7
  6
CONTINUOUS
 10
-49.1497912312
 20
24.4869014213
 30
0.0
 11
-46.8983367983
 21
24.5
 31
0.0
  0
LINE
  5
623
100
AcDbEntity
  8
SUPERFICI
100
AcDbLine
 62
7
  6
CONTINUOUS
 10
-49.1497912312
 20
24.4869014213
 30
0.0
 11
-46.8983367983
 21
24.5
 31
0.0
  0
LINE
  5
624
100
AcDbEntity
  8
RACCORDO
100
AcDbLine
 62
250
  6
CONTINUOUS
 10
-49.3983367983
 20
23.8443375673
 30
0.0
 11
-49.1497912312
 21
23.8443375673
 31
0.0
  0
LINE
  5
625
100
AcDbEntity
  8
SUPERFICI
100
AcDbLine
 62
250
  6
CONTINUOUS
 10
-49.3983367983
 20
23.8443375673
 30
0.0
 11
-49.1497912312
 21
23.8443375673
 31
0.0
  0
LINE
  5
626
100
AcDbEntity
  8
RACCORDO
100
AcDbLine
 62
250
  6
CONTINUOUS
 10
-45.8983367983
 20
23.8443375673
 30
0.0
 11
-46.1468823655
 21
23.8443375673
 31
0.0
  0
LINE
  5
627
100
AcDbEntity
  8
SUPERFICI
100
AcDbLine
 62
250
  6
CONTINUOUS
 10
-45.8983367983
 20
23.8443375673
 30
0.0
 11
-46.1468823655
 21
23.8443375673
 31
0.0
  0
LINE
  5
628
100
AcDbEntity
  8
RACCORDO
100
AcDbLine
 62
250
  6
CONTINUOUS
 10
-49.3983367983
 20
24.2369056521
 30
0.0
 11
-49.1497912312
 21
24.2369056521
 31
0.0
  0
LINE
  5
629
100
AcDbEntity
  8
SUPERFICI
100
AcDbLine
 62
250
  6
CONTINUOUS
 10
-49.3983367983
 20
24.2369056521
 30
0.0
 11
-49.1497912312
 21
24.2369056521
 31
0.0
  0
LINE
  5
62A
100
AcDbEntity
  8
RACCORDO
100
AcDbLine
 62
250
  6
CONTINUOUS
 10
-45.8983367983
 20
24.2456323968
 30
0.0
 11
-46.1468823655
 21
24.2456323968
 31
0.0
  0
LINE
  5
62B
100
AcDbEntity
  8
SUPERFICI
100
AcDbLine
 62
250
  6
CONTINUOUS
 10
-45.8983367983
 20
24.2456323968
 30
0.0
 11
-46.1468823655
 21
24.2456323968
 31
0.0
  0
LINE
  5
62C
100
AcDbEntity
  8
RACCORDO
100
AcDbLine
 62
250
  6
CONTINUOUS
 10
-45.8983367983
 20
21.8941990932
 30
0.0
 11
-46.8983367983
 21
21.900016923
 31
0.0
  0
LINE
  5
62D
100
AcDbEntity
  8
SUPERFICI
100
AcDbLine
 62
250
  6
CONTINUOUS
 10
-45.8983367983
 20
21.8941990932
 30
0.0
 11
-46.8983367983
 21
21.900016923
 31
0.0
  0
LINE
  5
62E
100
AcDbEntity
  8
RACCORDO
100
AcDbLine
 62
7
  6
CONTINUOUS
 10
-35.892519067
 20
22.3359700255
 30
0.0
 11
-46.8983367983
 21
22.4
 31
0.0
  0
LINE
  5
62F
100
AcDbEntity
  8
SUPERFICI
100
AcDbLine
 62
7
  6
CONTINUOUS
 10
-35.892519067
 20
22.3359700255
 30
0.0
 11
-46.8983367983
 21
22.4
 31
0.0
  0
LINE
  5
630
100
AcDbEntity
  8
ASSI
100
AcDbLine
 62
7
  6
CONTINUOUS
 10
-45.8983367983
 20
23.9941821702
 30
0.0
 11
-39.3954279327
 21
23.9563493531
 31
0.0
  0
LINE
  5
631
100
AcDbEntity
  8
SUPERFICI
100
AcDbLine
 62
7
  6
CONTINUOUS
 10
-45.8983367983
 20
23.9941821702
 30
0.0
 11
-39.3954279327
 21
23.9563493531
 31
0.0
  0
LINE
  5
632
100
AcDbEntity
  8
RACCORDO
100
AcDbLine
 62
250
  6
CONTINUOUS
 10
-46.8983367983
 20
24.2500042308
 30
0.0
 11
-46.1468823655
 21
24.2456323968
 31
0.0
  0
LINE
  5
633
100
AcDbEntity
  8
SUPERFICI
100
AcDbLine
 62
250
  6
CONTINUOUS
 10
-46.8983367983
 20
24.2500042308
 30
0.0
 11
-46.1468823655
 21
24.2456323968
 31
0.0
  0
LINE
  5
634
100
AcDbEntity
  8
RACCORDO
100
AcDbLine
 62
7
  6
CONTINUOUS
 10
-46.8983367983
 20
24.5
 30
0.0
 11
-46.1468823655
 21
24.495628166
 31
0.0
  0
LINE
  5
635
100
AcDbEntity
  8
SUPERFICI
100
AcDbLine
 62
7
  6
CONTINUOUS
 10
-46.8983367983
 20
24.5
 30
0.0
 11
-46.1468823655
 21
24.495628166
 31
0.0
  0
LWPOLYLINE
  5
636
100
AcDbEntity
  8
0
100
AcDbPolyline
 62
7
  6
CONTINUOUS
 90
7
 70
0
 43
0.3500000006
 10
-36.5911944351
 20
33.8189350433
 10
-38.091192627
 20
33.8189350433
 10
-36.5911944351
 20
35.9617934875
 10
-36.5911944351
 20
36.3903624573
 10
-37.0197656708
 20
36.8189359589
 10
-37.6626213913
 20
36.8189359589
 10
-38.091192627
 20
36.1760779724
  0
LWPOLYLINE
  5
637
100
AcDbEntity
  8
0
100
AcDbPolyline
 62
7
  6
CONTINUOUS
 90
3
 70
0
 43
0.3500000006
 10
-30.1626236343
 20
34.4617930298
 10
-31.6626218262
 20
34.4617930298
 10
-31.0197661057
 20
36.8189359589
  0
LWPOLYLINE
  5
638
100
AcDbEntity
  8
0
100
AcDbPolyline
 62
7
  6
CONTINUOUS
 90
3
 70
0
 43
0.3500000006
 10
-34.234051506
 20
34.4617930298
 10
-35.7340519638
 20
34.4617930298
 10
-35.0911939774
 20
36.8189359589
  0
LWPOLYLINE
  5
639
100
AcDbEntity
  8
0
100
AcDbPolyline
 62
7
  6
CONTINUOUS
 90
6
 70
0
 43
0.3500000006
 10
-43.3297648773
 20
43.8189335632
 10
-42.2583379211
 20
43.8189335632
 10
-42.0440489044
 20
44.03322258
 10
-42.0440489044
 20
45.1046495361
 10
-42.472622406
 20
45.5332185059
 10
-42.9011959076
 20
45.5332185059
  0
LWPOLYLINE
  5
63A
100
AcDbEntity
  8
0
100
AcDbPolyline
 62
7
  6
CONTINUOUS
 90
8
 70
0
 43
0.3500000006
 10
-41.1869064331
 20
43.8189335632
 10
-40.3297639618
 20
43.8189335632
 10
-39.9011949921
 20
44.2475070648
 10
-39.9011949921
 20
45.1046495361
 10
-40.3297639618
 20
45.5332185059
 10
-41.1869064331
 20
45.5332185059
 10
-41.1869064331
 20
46.8189344788
 10
-39.9011949921
 20
46.8189344788
  0
LWPOLYLINE
  5
63B
100
AcDbEntity
  8
0
100
AcDbPolyline
 62
7
  6
CONTINUOUS
 90
8
 70
0
 43
0.3500000006
 10
-37.3297653122
 20
43.8189335632
 10
-36.4726228409
 20
43.8189335632
 10
-36.0440516052
 20
44.2475070648
 10
-36.0440516052
 20
45.1046495361
 10
-36.4726228409
 20
45.5332185059
 10
-37.3297653122
 20
45.5332185059
 10
-37.3297653122
 20
46.8189344788
 10
-36.0440516052
 20
46.8189344788
  0
ARC
  5
63C
100
AcDbEntity
  8
RACCORDO
100
AcDbCircle
 62
250
  6
CONTINUOUS
 10
-5119.3060980899
 20
-7.8584746637
 30
0.0
 40
5108.7945046092
100
AcDbArc
 50
359.8502527296
 51
359.9815900845
  0
ARC
  5
63D
100
AcDbEntity
  8
RACCORDO
100
AcDbCircle
 62
250
  6
CONTINUOUS
 10
-5063.1995678806
 20
-7.858094024
 30
0.0
 40
5052.1880505524
100
AcDbArc
 50
359.8494161557
 51
359.9814872341
  0
CIRCLE
  5
63E
100
AcDbEntity
  8
0
100
AcDbCircle
 62
7
  6
CONTINUOUS
 10
-0.0
 20
-14.2
 30
0.0
 40
4.15
  0
CIRCLE
  5
63F
100
AcDbEntity
  8
0
100
AcDbCircle
 62
250
  6
CONTINUOUS
 10
0.0
 20
-14.2
 30
0.0
 40
3.1500083971
  0
CIRCLE
  5
640
100
AcDbEntity
  8
0
100
AcDbCircle
 62
7
  6
CONTINUOUS
 10
-0.0
 20
-14.2
 30
0.0
 40
3.0
  0
CIRCLE
  5
641
100
AcDbEntity
  8
0
100
AcDbCircle
 62
7
  6
CONTINUOUS
 10
-0.0
 20
-14.2
 30
0.0
 40
1.75
  0
ARC
  5
642
100
AcDbEntity
  8
RACCORDO
100
AcDbCircle
 62
250
  6
CONTINUOUS
 10
-10.5370065338
 20
-21.560024939
 30
0.0
 40
0.5001717855
100
AcDbArc
 50
180.1017572919
 51
269.9760896479
  0
ARC
  5
643
100
AcDbEntity
  8
ASSI
100
AcDbCircle
 62
7
  6
CONTINUOUS
 10
-4.0
 20
-23.15
 30
0.0
 40
0.5
100
AcDbArc
 50
154.1580672368
 51
205.8419327632
  0
ARC
  5
644
100
AcDbEntity
  8
SUPERFICI
100
AcDbCircle
 62
7
  6
CONTINUOUS
 10
-4.0
 20
-23.15
 30
0.0
 40
0.5
100
AcDbArc
 50
154.1580672368
 51
205.8419327632
  0
ARC
  5
645
100
AcDbEntity
  8
RACCORDO
100
AcDbCircle
 62
7
  6
CONTINUOUS
 10
-10.650036351
 20
-21.9000451396
 30
0.0
 40
0.4999576362
100
AcDbArc
 50
179.9686005843
 51
269.9605484507
  0
ARC
  5
646
100
AcDbEntity
  8
SUPERFICI
100
AcDbCircle
 62
7
  6
CONTINUOUS
 10
-10.6500384553
 20
-21.9000439681
 30
0.0
 40
0.4999576362
100
AcDbArc
 50
179.9687347088
 51
269.9607896942
  0
ARC
  5
647
100
AcDbEntity
  8
SUPERFICI
100
AcDbCircle
 62
7
  6
CONTINUOUS
 10
-7.5002828881
 20
-24.2482971872
 30
0.0
 40
0.2517029765
100
AcDbArc
 50
270.0653576146
 51
289.0255885442
  0
ARC
  5
648
100
AcDbEntity
  8
SUPERFICI
100
AcDbCircle
 62
7
  6
CONTINUOUS
 10
-9.8982971872
 20
-24.2497171119
 30
0.0
 40
0.2517029765
100
AcDbArc
 50
180.0653576146
 51
199.0255885442
  0
ARC
  5
649
100
AcDbEntity
  8
SUPERFICI
100
AcDbCircle
 62
7
  6
CONTINUOUS
 10
-7.5003768759
 20
-24.2499774933
 30
0.0
 40
0.2503768773
100
AcDbArc
 50
340.9198302592
 51
359.9938814446
  0
ARC
  5
64A
100
AcDbEntity
  8
SUPERFICI
100
AcDbCircle
 62
7
  6
CONTINUOUS
 10
-9.8999774933
 20
-24.2496231241
 30
0.0
 40
0.2503768773
100
AcDbArc
 50
250.9198302592
 51
269.9938814446
  0
ARC
  5
64B
100
AcDbEntity
  8
RACCORDO
100
AcDbCircle
 62
250
  6
CONTINUOUS
 10
-9.8868948033
 20
-24.2368948033
 30
0.0
 40
0.2500066182
100
AcDbArc
 50
180.0024862874
 51
269.9975137126
  0
ARC
  5
64C
100
AcDbEntity
  8
SUPERFICI
100
AcDbCircle
 62
7
  6
CONTINUOUS
 10
-9.8868948033
 20
-24.2368948033
 30
0.0
 40
0.2500066182
100
AcDbArc
 50
180.0024862874
 51
269.9975137126
  0
ARC
  5
64D
100
AcDbEntity
  8
RACCORDO
100
AcDbCircle
 62
250
  6
CONTINUOUS
 10
-7.5131051962
 20
-24.2368948038
 30
0.0
 40
0.2500066177
100
AcDbArc
 50
270.0024861811
 51
359.9975138189
  0
ARC
  5
64E
100
AcDbEntity
  8
SUPERFICI
100
AcDbCircle
 62
7
  6
CONTINUOUS
 10
-7.5131051962
 20
-24.2368948038
 30
0.0
 40
0.2500066177
100
AcDbArc
 50
270.0024861811
 51
359.9975138189
  0
ARC
  5
64F
100
AcDbEntity
  8
RACCORDO
100
AcDbCircle
 62
7
  6
CONTINUOUS
 10
-7.4999946513
 20
-24.2500053487
 30
0.0
 40
0.2499946513
100
AcDbArc
 50
269.9997437926
 51
0.0002562074
  0
ARC
  5
650
100
AcDbEntity
  8
RACCORDO
100
AcDbCircle
 62
7
  6
CONTINUOUS
 10
-9.9000053487
 20
-24.2500053487
 30
0.0
 40
0.2499946513
100
AcDbArc
 50
179.9997437926
 51
270.0002562074
  0
ARC
  5
651
100
AcDbEntity
  8
SUPERFICI
100
AcDbCircle
 62
7
  6
CONTINUOUS
 10
-7.4999923624
 20
-24.2500076376
 30
0.0
 40
0.2499914143
100
AcDbArc
 50
289.0904347558
 51
340.9095652442
  0
ARC
  5
652
100
AcDbEntity
  8
SUPERFICI
100
AcDbCircle
 62
7
  6
CONTINUOUS
 10
-9.9000076376
 20
-24.2500076376
 30
0.0
 40
0.2499914143
100
AcDbArc
 50
199.0904347558
 51
250.9095652442
  0
ARC
  5
653
100
AcDbEntity
  8
RACCORDO
100
AcDbCircle
 62
7
  6
CONTINUOUS
 10
-1.200837342
 20
-23.799896093
 30
0.0
 40
0.2008373725
100
AcDbArc
 50
345.0316256515
 51
359.9684257858
  0
ARC
  5
654
100
AcDbEntity
  8
RACCORDO
100
AcDbCircle
 62
7
  6
CONTINUOUS
 10
-1.2000625052
 20
-23.7993964284
 30
0.0
 40
0.2006035821
100
AcDbArc
 50
270.018577553
 51
282.4805153407
  0
ARC
  5
655
100
AcDbEntity
  8
RACCORDO
100
AcDbCircle
 62
250
  6
CONTINUOUS
 10
-1.2026405561
 20
-23.7982406173
 30
0.0
 40
0.200007265
100
AcDbArc
 50
270.0042626759
 51
359.9969493805
  0
ARC
  5
656
100
AcDbEntity
  8
SUPERFICI
100
AcDbCircle
 62
7
  6
CONTINUOUS
 10
-1.2026405561
 20
-23.7982406173
 30
0.0
 40
0.200007265
100
AcDbArc
 50
270.0042626759
 51
359.9969493805
  0
ARC
  5
657
100
AcDbEntity
  8
SUPERFICI
100
AcDbCircle
 62
7
  6
CONTINUOUS
 10
-1.1999932435
 20
-23.8000067566
 30
0.0
 40
0.1999932435
100
AcDbArc
 50
269.9987915599
 51
359.9999963837
  0
ARC
  5
658
100
AcDbEntity
  8
RACCORDO
100
AcDbCircle
 62
7
  6
CONTINUOUS
 10
-1.1999846306
 20
-23.8000446114
 30
0.0
 40
0.199953897
100
AcDbArc
 50
282.498866502
 51
344.9998582139
  0
ARC
  5
659
100
AcDbEntity
  8
RACCORDO
100
AcDbCircle
 62
250
  6
CONTINUOUS
 10
-5147.6278732071
 20
7.8169138937
 30
0.0
 40
5137.1162917211
100
AcDbArc
 50
0.0187719582
 51
0.1493852277
  0
ARC
  5
65A
100
AcDbEntity
  8
RACCORDO
100
AcDbCircle
 62
250
  6
CONTINUOUS
 10
-5091.2074372152
 20
7.8167642853
 30
0.0
 40
5080.1959318816
100
AcDbArc
 50
0.0188768298
 51
0.1502197803
  0
CIRCLE
  5
65B
100
AcDbEntity
  8
0
100
AcDbCircle
 62
7
  6
CONTINUOUS
 10
-0.0
 20
0.0
 30
0.0
 40
4.15
  0
CIRCLE
  5
65C
100
AcDbEntity
  8
0
100
AcDbCircle
 62
250
  6
CONTINUOUS
 10
-0.0
 20
-0.0
 30
0.0
 40
3.1500083971
  0
CIRCLE
  5
65D
100
AcDbEntity
  8
0
100
AcDbCircle
 62
7
  6
CONTINUOUS
 10
-0.0
 20
0.0
 30
0.0
 40
3.0
  0
CIRCLE
  5
65E
100
AcDbEntity
  8
0
100
AcDbCircle
 62
7
  6
CONTINUOUS
 10
-0.0
 20
-0.0
 30
0.0
 40
1.75
  0
CIRCLE
  5
65F
100
AcDbEntity
  8
0
100
AcDbCircle
 62
7
  6
CONTINUOUS
 10
-0.0
 20
14.2
 30
0.0
 40
4.15
  0
CIRCLE
  5
660
100
AcDbEntity
  8
0
100
AcDbCircle
 62
250
  6
CONTINUOUS
 10
-0.0
 20
14.2
 30
0.0
 40
3.1500083971
  0
CIRCLE
  5
661
100
AcDbEntity
  8
0
100
AcDbCircle
 62
7
  6
CONTINUOUS
 10
0.0
 20
14.2
 30
0.0
 40
3.0
  0
CIRCLE
  5
662
100
AcDbEntity
  8
0
100
AcDbCircle
 62
7
  6
CONTINUOUS
 10
0.0
 20
14.2
 30
0.0
 40
1.75
  0
ARC
  5
663
100
AcDbEntity
  8
RACCORDO
100
AcDbCircle
 62
250
  6
CONTINUOUS
 10
-10.5370064725
 20
21.5600248774
 30
0.0
 40
0.5001717855
100
AcDbArc
 50
90.0239173788
 51
179.8982356668
  0
ARC
  5
664
100
AcDbEntity
  8
ASSI
100
AcDbCircle
 62
7
  6
CONTINUOUS
 10
-4.0
 20
23.15
 30
0.0
 40
0.5
100
AcDbArc
 50
154.1580672368
 51
205.8419327632
  0
ARC
  5
665
100
AcDbEntity
  8
SUPERFICI
100
AcDbCircle
 62
7
  6
CONTINUOUS
 10
-4.0
 20
23.15
 30
0.0
 40
0.5
100
AcDbArc
 50
154.1580672368
 51
205.8419327632
  0
ARC
  5
666
100
AcDbEntity
  8
RACCORDO
100
AcDbCircle
 62
7
  6
CONTINUOUS
 10
-10.650036351
 20
21.9000451396
 30
0.0
 40
0.4999576362
100
AcDbArc
 50
90.0394515498
 51
180.0313994153
  0
ARC
  5
667
100
AcDbEntity
  8
SUPERFICI
100
AcDbCircle
 62
7
  6
CONTINUOUS
 10
-10.6500384132
 20
21.9000440103
 30
0.0
 40
0.4999576362
100
AcDbArc
 50
90.0392151342
 51
180.0312701179
  0
ARC
  5
668
100
AcDbEntity
  8
SUPERFICI
100
AcDbCircle
 62
7
  6
CONTINUOUS
 10
-9.8997171119
 20
24.2482971872
 30
0.0
 40
0.2517029765
100
AcDbArc
 50
90.0653576146
 51
109.0255885442
  0
ARC
  5
669
100
AcDbEntity
  8
SUPERFICI
100
AcDbCircle
 62
7
  6
CONTINUOUS
 10
-7.5017028128
 20
24.2497171119
 30
0.0
 40
0.2517029765
100
AcDbArc
 50
0.0653576146
 51
19.0255885442
  0
ARC
  5
66A
100
AcDbEntity
  8
SUPERFICI
100
AcDbCircle
 62
7
  6
CONTINUOUS
 10
-9.8996231241
 20
24.2499774933
 30
0.0
 40
0.2503768773
100
AcDbArc
 50
160.9198302592
 51
179.9938814446
  0
ARC
  5
66B
100
AcDbEntity
  8
SUPERFICI
100
AcDbCircle
 62
7
  6
CONTINUOUS
 10
-7.5000225067
 20
24.2496231241
 30
0.0
 40
0.2503768773
100
AcDbArc
 50
70.9198302592
 51
89.9938814446
  0
ARC
  5
66C
100
AcDbEntity
  8
RACCORDO
100
AcDbCircle
 62
250
  6
CONTINUOUS
 10
-9.8868948033
 20
24.2368948033
 30
0.0
 40
0.2500066182
100
AcDbArc
 50
90.0024862874
 51
179.9975137126
  0
ARC
  5
66D
100
AcDbEntity
  8
RACCORDO
100
AcDbCircle
 62
250
  6
CONTINUOUS
 10
-7.5131051967
 20
24.2368948033
 30
0.0
 40
0.2500066182
100
AcDbArc
 50
0.0024862874
 51
89.9975137126
  0
ARC
  5
66E
100
AcDbEntity
  8
SUPERFICI
100
AcDbCircle
 62
7
  6
CONTINUOUS
 10
-9.8868948033
 20
24.2368948033
 30
0.0
 40
0.2500066182
100
AcDbArc
 50
90.0024862874
 51
179.9975137126
  0
ARC
  5
66F
100
AcDbEntity
  8
SUPERFICI
100
AcDbCircle
 62
7
  6
CONTINUOUS
 10
-7.5131051967
 20
24.2368948033
 30
0.0
 40
0.2500066182
100
AcDbArc
 50
0.0024862874
 51
89.9975137126
  0
ARC
  5
670
100
AcDbEntity
  8
RACCORDO
100
AcDbCircle
 62
7
  6
CONTINUOUS
 10
-7.4999946513
 20
24.2500053487
 30
0.0
 40
0.2499946513
100
AcDbArc
 50
359.9997437926
 51
90.0002562074
  0
ARC
  5
671
100
AcDbEntity
  8
RACCORDO
100
AcDbCircle
 62
7
  6
CONTINUOUS
 10
-9.9000053487
 20
24.2500053487
 30
0.0
 40
0.2499946513
100
AcDbArc
 50
89.9997437926
 51
180.0002562074
  0
ARC
  5
672
100
AcDbEntity
  8
SUPERFICI
100
AcDbCircle
 62
7
  6
CONTINUOUS
 10
-9.9000076376
 20
24.2500076376
 30
0.0
 40
0.2499914143
100
AcDbArc
 50
109.0904347558
 51
160.9095652442
  0
ARC
  5
673
100
AcDbEntity
  8
SUPERFICI
100
AcDbCircle
 62
7
  6
CONTINUOUS
 10
-7.4999923624
 20
24.2500076376
 30
0.0
 40
0.2499914143
100
AcDbArc
 50
19.0904347558
 51
70.9095652442
  0
ARC
  5
674
100
AcDbEntity
  8
RACCORDO
100
AcDbCircle
 62
7
  6
CONTINUOUS
 10
-1.200837342
 20
23.799896093
 30
0.0
 40
0.2008373725
100
AcDbArc
 50
0.0315742142
 51
14.9683743485
  0
ARC
  5
675
100
AcDbEntity
  8
RACCORDO
100
AcDbCircle
 62
7
  6
CONTINUOUS
 10
-1.2000625052
 20
23.7993964284
 30
0.0
 40
0.2006035821
100
AcDbArc
 50
77.5194846593
 51
89.981422447
  0
ARC
  5
676
100
AcDbEntity
  8
RACCORDO
100
AcDbCircle
 62
250
  6
CONTINUOUS
 10
-1.2026405561
 20
23.7982406173
 30
0.0
 40
0.200007265
100
AcDbArc
 50
0.0030506195
 51
89.9957373241
  0
ARC
  5
677
100
AcDbEntity
  8
SUPERFICI
100
AcDbCircle
 62
7
  6
CONTINUOUS
 10
-1.2026405561
 20
23.7982406173
 30
0.0
 40
0.200007265
100
AcDbArc
 50
0.0030506195
 51
89.9957373241
  0
ARC
  5
678
100
AcDbEntity
  8
SUPERFICI
100
AcDbCircle
 62
7
  6
CONTINUOUS
 10
-1.1999932435
 20
23.8000067566
 30
0.0
 40
0.1999932435
100
AcDbArc
 50
0.0000036163
 51
90.0012084401
  0
ARC
  5
679
100
AcDbEntity
  8
RACCORDO
100
AcDbCircle
 62
7
  6
CONTINUOUS
 10
-1.1999846306
 20
23.8000446114
 30
0.0
 40
0.199953897
100
AcDbArc
 50
15.0001417861
 51
77.5011334978
  0
ARC
  5
67A
100
AcDbEntity
  8
RACCORDO
100
AcDbCircle
 62
250
  6
CONTINUOUS
 10
5147.6279207689
 20
-7.8169138239
 30
0.0
 40
5137.1163392828
100
AcDbArc
 50
180.0187719588
 51
180.1493852271
  0
ARC
  5
67B
100
AcDbEntity
  8
RACCORDO
100
AcDbCircle
 62
250
  6
CONTINUOUS
 10
5091.2074838126
 20
-7.8167642165
 30
0.0
 40
5080.195978479
100
AcDbArc
 50
180.0188768305
 51
180.1502197797
  0
ARC
  5
67C
100
AcDbEntity
  8
RACCORDO
100
AcDbCircle
 62
250
  6
CONTINUOUS
 10
10.5370065339
 20
-21.560024939
 30
0.0
 40
0.5001717855
100
AcDbArc
 50
270.0239103489
 51
359.8982427151
  0
ARC
  5
67D
100
AcDbEntity
  8
ASSI
100
AcDbCircle
 62
7
  6
CONTINUOUS
 10
4.0
 20
-23.15
 30
0.0
 40
0.5
100
AcDbArc
 50
334.1580672368
 51
25.8419327632
  0
ARC
  5
67E
100
AcDbEntity
  8
SUPERFICI
100
AcDbCircle
 62
7
  6
CONTINUOUS
 10
4.0
 20
-23.15
 30
0.0
 40
0.5
100
AcDbArc
 50
334.1580672368
 51
25.8419327632
  0
ARC
  5
67F
100
AcDbEntity
  8
SUPERFICI
100
AcDbCircle
 62
7
  6
CONTINUOUS
 10
10.6500382294
 20
-21.9000437425
 30
0.0
 40
0.4999579139
100
AcDbArc
 50
270.0392361786
 51
0.0312394205
  0
ARC
  5
680
100
AcDbEntity
  8
RACCORDO
100
AcDbCircle
 62
7
  6
CONTINUOUS
 10
10.6500363802
 20
-21.9000451688
 30
0.0
 40
0.4999576362
100
AcDbArc
 50
270.0394482085
 51
0.0314027551
  0
ARC
  5
681
100
AcDbEntity
  8
SUPERFICI
100
AcDbCircle
 62
7
  6
CONTINUOUS
 10
9.8997171119
 20
-24.2482971872
 30
0.0
 40
0.2517029765
100
AcDbArc
 50
270.0653576146
 51
289.0255885442
  0
ARC
  5
682
100
AcDbEntity
  8
SUPERFICI
100
AcDbCircle
 62
7
  6
CONTINUOUS
 10
7.5017028128
 20
-24.2497171119
 30
0.0
 40
0.2517029765
100
AcDbArc
 50
180.0653576146
 51
199.0255885442
  0
ARC
  5
683
100
AcDbEntity
  8
SUPERFICI
100
AcDbCircle
 62
7
  6
CONTINUOUS
 10
9.8996231241
 20
-24.2499774933
 30
0.0
 40
0.2503768773
100
AcDbArc
 50
340.9198302592
 51
359.9938814446
  0
ARC
  5
684
100
AcDbEntity
  8
SUPERFICI
100
AcDbCircle
 62
7
  6
CONTINUOUS
 10
7.5000225067
 20
-24.2496231241
 30
0.0
 40
0.2503768773
100
AcDbArc
 50
250.9198302592
 51
269.9938814446
  0
ARC
  5
685
100
AcDbEntity
  8
RACCORDO
100
AcDbCircle
 62
250
  6
CONTINUOUS
 10
7.5131051962
 20
-24.2368948038
 30
0.0
 40
0.2500066177
100
AcDbArc
 50
180.0024861811
 51
269.9975138189
  0
ARC
  5
686
100
AcDbEntity
  8
RACCORDO
100
AcDbCircle
 62
250
  6
CONTINUOUS
 10
9.8868948038
 20
-24.2368948038
 30
0.0
 40
0.2500066177
100
AcDbArc
 50
270.0024861811
 51
359.9975138189
  0
ARC
  5
687
100
AcDbEntity
  8
SUPERFICI
100
AcDbCircle
 62
7
  6
CONTINUOUS
 10
9.8868948038
 20
-24.2368948038
 30
0.0
 40
0.2500066177
100
AcDbArc
 50
270.0024861811
 51
359.9975138189
  0
ARC
  5
688
100
AcDbEntity
  8
SUPERFICI
100
AcDbCircle
 62
7
  6
CONTINUOUS
 10
7.5131051962
 20
-24.2368948038
 30
0.0
 40
0.2500066177
100
AcDbArc
 50
180.0024861811
 51
269.9975138189
  0
ARC
  5
689
100
AcDbEntity
  8
RACCORDO
100
AcDbCircle
 62
7
  6
CONTINUOUS
 10
7.4999946513
 20
-24.2500053487
 30
0.0
 40
0.2499946513
100
AcDbArc
 50
179.9997437926
 51
270.0002562074
  0
ARC
  5
68A
100
AcDbEntity
  8
RACCORDO
100
AcDbCircle
 62
7
  6
CONTINUOUS
 10
9.9000053487
 20
-24.2500053487
 30
0.0
 40
0.2499946513
100
AcDbArc
 50
269.9997437926
 51
0.0002562074
  0
ARC
  5
68B
100
AcDbEntity
  8
SUPERFICI
100
AcDbCircle
 62
7
  6
CONTINUOUS
 10
9.9000076376
 20
-24.2500076376
 30
0.0
 40
0.2499914143
100
AcDbArc
 50
289.0904347558
 51
340.9095652442
  0
ARC
  5
68C
100
AcDbEntity
  8
SUPERFICI
100
AcDbCircle
 62
7
  6
CONTINUOUS
 10
7.4999923624
 20
-24.2500076376
 30
0.0
 40
0.2499914143
100
AcDbArc
 50
199.0904347558
 51
250.9095652442
  0
ARC
  5
68D
100
AcDbEntity
  8
RACCORDO
100
AcDbCircle
 62
7
  6
CONTINUOUS
 10
1.200837342
 20
-23.799896093
 30
0.0
 40
0.2008373725
100
AcDbArc
 50
180.0315742142
 51
194.9683743485
  0
ARC
  5
68E
100
AcDbEntity
  8
RACCORDO
100
AcDbCircle
 62
7
  6
CONTINUOUS
 10
1.2000625052
 20
-23.7993964284
 30
0.0
 40
0.2006035821
100
AcDbArc
 50
257.5194846593
 51
269.981422447
  0
ARC
  5
68F
100
AcDbEntity
  8
RACCORDO
100
AcDbCircle
 62
250
  6
CONTINUOUS
 10
1.2026405561
 20
-23.7982406173
 30
0.0
 40
0.200007265
100
AcDbArc
 50
180.0030506195
 51
269.9957373241
  0
ARC
  5
690
100
AcDbEntity
  8
SUPERFICI
100
AcDbCircle
 62
7
  6
CONTINUOUS
 10
1.2026405561
 20
-23.7982406173
 30
0.0
 40
0.200007265
100
AcDbArc
 50
180.0030506195
 51
269.9957373241
  0
ARC
  5
691
100
AcDbEntity
  8
SUPERFICI
100
AcDbCircle
 62
7
  6
CONTINUOUS
 10
1.1999932435
 20
-23.8000067566
 30
0.0
 40
0.1999932435
100
AcDbArc
 50
180.0000036163
 51
270.0012084401
  0
ARC
  5
692
100
AcDbEntity
  8
RACCORDO
100
AcDbCircle
 62
7
  6
CONTINUOUS
 10
1.1999846306
 20
-23.8000446114
 30
0.0
 40
0.199953897
100
AcDbArc
 50
195.0001417861
 51
257.501133498
  0
ARC
  5
693
100
AcDbEntity
  8
RACCORDO
100
AcDbCircle
 62
250
  6
CONTINUOUS
 10
5119.3061449679
 20
7.8584745949
 30
0.0
 40
5108.7945514873
100
AcDbArc
 50
179.8502527302
 51
179.9815900839
  0
ARC
  5
694
100
AcDbEntity
  8
RACCORDO
100
AcDbCircle
 62
250
  6
CONTINUOUS
 10
5063.1996144794
 20
7.8580939553
 30
0.0
 40
5052.1880971512
100
AcDbArc
 50
179.8494161563
 51
179.9814872335
  0
ARC
  5
695
100
AcDbEntity
  8
RACCORDO
100
AcDbCircle
 62
250
  6
CONTINUOUS
 10
10.5370065252
 20
21.5600249555
 30
0.0
 40
0.5001717855
100
AcDbArc
 50
0.1017554013
 51
89.9760886629
  0
ARC
  5
696
100
AcDbEntity
  8
ASSI
100
AcDbCircle
 62
7
  6
CONTINUOUS
 10
4.0
 20
23.15
 30
0.0
 40
0.5
100
AcDbArc
 50
334.1580672368
 51
25.8419327632
  0
ARC
  5
697
100
AcDbEntity
  8
SUPERFICI
100
AcDbCircle
 62
7
  6
CONTINUOUS
 10
4.0
 20
23.15
 30
0.0
 40
0.5
100
AcDbArc
 50
334.1580672368
 51
25.8419327632
  0
ARC
  5
698
100
AcDbEntity
  8
SUPERFICI
100
AcDbCircle
 62
7
  6
CONTINUOUS
 10
10.6500381873
 20
21.9000437846
 30
0.0
 40
0.4999579139
100
AcDbArc
 50
359.9687557531
 51
89.9607589944
  0
ARC
  5
699
100
AcDbEntity
  8
RACCORDO
100
AcDbCircle
 62
7
  6
CONTINUOUS
 10
10.6500363802
 20
21.9000451688
 30
0.0
 40
0.4999576362
100
AcDbArc
 50
359.9685972447
 51
89.9605517912
  0
ARC
  5
69A
100
AcDbEntity
  8
SUPERFICI
100
AcDbCircle
 62
7
  6
CONTINUOUS
 10
9.8982971872
 20
24.2497171119
 30
0.0
 40
0.2517029765
100
AcDbArc
 50
0.0653576146
 51
19.0255885442
  0
ARC
  5
69B
100
AcDbEntity
  8
SUPERFICI
100
AcDbCircle
 62
7
  6
CONTINUOUS
 10
7.5002828881
 20
24.2482971872
 30
0.0
 40
0.2517029765
100
AcDbArc
 50
90.0653576146
 51
109.0255885442
  0
ARC
  5
69C
100
AcDbEntity
  8
SUPERFICI
100
AcDbCircle
 62
7
  6
CONTINUOUS
 10
9.8999774933
 20
24.2496231241
 30
0.0
 40
0.2503768773
100
AcDbArc
 50
70.9198302592
 51
89.9938814446
  0
ARC
  5
69D
100
AcDbEntity
  8
SUPERFICI
100
AcDbCircle
 62
7
  6
CONTINUOUS
 10
7.5003768759
 20
24.2499774933
 30
0.0
 40
0.2503768773
100
AcDbArc
 50
160.9198302592
 51
179.9938814446
  0
ARC
  5
69E
100
AcDbEntity
  8
RACCORDO
100
AcDbCircle
 62
250
  6
CONTINUOUS
 10
7.5131051962
 20
24.2368948038
 30
0.0
 40
0.2500066177
100
AcDbArc
 50
90.0024861811
 51
179.9975138189
  0
ARC
  5
69F
100
AcDbEntity
  8
RACCORDO
100
AcDbCircle
 62
250
  6
CONTINUOUS
 10
9.8868948038
 20
24.2368948038
 30
0.0
 40
0.2500066177
100
AcDbArc
 50
0.0024861811
 51
89.9975138189
  0
ARC
  5
6A0
100
AcDbEntity
  8
SUPERFICI
100
AcDbCircle
 62
7
  6
CONTINUOUS
 10
9.8868948038
 20
24.2368948038
 30
0.0
 40
0.2500066177
100
AcDbArc
 50
0.0024861811
 51
89.9975138189
  0
ARC
  5
6A1
100
AcDbEntity
  8
SUPERFICI
100
AcDbCircle
 62
7
  6
CONTINUOUS
 10
7.5131051962
 20
24.2368948038
 30
0.0
 40
0.2500066177
100
AcDbArc
 50
90.0024861811
 51
179.9975138189
  0
ARC
  5
6A2
100
AcDbEntity
  8
RACCORDO
100
AcDbCircle
 62
7
  6
CONTINUOUS
 10
7.4999946513
 20
24.2500053487
 30
0.0
 40
0.2499946513
100
AcDbArc
 50
89.9997437926
 51
180.0002562074
  0
ARC
  5
6A3
100
AcDbEntity
  8
RACCORDO
100
AcDbCircle
 62
7
  6
CONTINUOUS
 10
9.9000053487
 20
24.2500053487
 30
0.0
 40
0.2499946513
100
AcDbArc
 50
359.9997437926
 51
90.0002562074
  0
ARC
  5
6A4
100
AcDbEntity
  8
SUPERFICI
100
AcDbCircle
 62
7
  6
CONTINUOUS
 10
9.9000076376
 20
24.2500076376
 30
0.0
 40
0.2499914143
100
AcDbArc
 50
19.0904347558
 51
70.9095652442
  0
ARC
  5
6A5
100
AcDbEntity
  8
SUPERFICI
100
AcDbCircle
 62
7
  6
CONTINUOUS
 10
7.4999923624
 20
24.2500076376
 30
0.0
 40
0.2499914143
100
AcDbArc
 50
109.0904347558
 51
160.9095652442
  0
ARC
  5
6A6
100
AcDbEntity
  8
RACCORDO
100
AcDbCircle
 62
7
  6
CONTINUOUS
 10
1.200837342
 20
23.799896093
 30
0.0
 40
0.2008373725
100
AcDbArc
 50
165.0316256515
 51
179.9684257858
  0
ARC
  5
6A7
100
AcDbEntity
  8
RACCORDO
100
AcDbCircle
 62
7
  6
CONTINUOUS
 10
1.2000625052
 20
23.7993964284
 30
0.0
 40
0.2006035821
100
AcDbArc
 50
90.018577553
 51
102.4805153407
  0
ARC
  5
6A8
100
AcDbEntity
  8
RACCORDO
100
AcDbCircle
 62
250
  6
CONTINUOUS
 10
1.2026405561
 20
23.7982406173
 30
0.0
 40
0.200007265
100
AcDbArc
 50
90.0042626759
 51
179.9969493805
  0
ARC
  5
6A9
100
AcDbEntity
  8
SUPERFICI
100
AcDbCircle
 62
7
  6
CONTINUOUS
 10
1.2026405561
 20
23.7982406173
 30
0.0
 40
0.200007265
100
AcDbArc
 50
90.0042626759
 51
179.9969493805
  0
ARC
  5
6AA
100
AcDbEntity
  8
SUPERFICI
100
AcDbCircle
 62
7
  6
CONTINUOUS
 10
1.1999932435
 20
23.8000067566
 30
0.0
 40
0.1999932435
100
AcDbArc
 50
89.9987915599
 51
179.9999963837
  0
ARC
  5
6AB
100
AcDbEntity
  8
RACCORDO
100
AcDbCircle
 62
7
  6
CONTINUOUS
 10
1.1999846306
 20
23.8000446114
 30
0.0
 40
0.199953897
100
AcDbArc
 50
102.498866502
 51
164.9998582139
  0
ARC
  5
6AC
100
AcDbEntity
  8
ASSI
100
AcDbCircle
 62
250
  6
CONTINUOUS
 10
-208.3319024669
 20
-18.2166167271
 30
0.0
 40
185.852362822
100
AcDbArc
 50
359.7820404152
 51
0.2179594088
  0
ARC
  5
6AD
100
AcDbEntity
  8
RACCORDO
100
AcDbCircle
 62
7
  6
CONTINUOUS
 10
-49.1483367983
 20
-24.2369056521
 30
0.0
 40
0.25
100
AcDbArc
 50
180.0
 51
269.6666666667
  0
ARC
  5
6AE
100
AcDbEntity
  8
RACCORDO
100
AcDbCircle
 62
7
  6
CONTINUOUS
 10
-49.1483367983
 20
-23.8443375673
 30
0.0
 40
0.25
100
AcDbArc
 50
120.0
 51
180.0
  0
ARC
  5
6AF
100
AcDbEntity
  8
SUPERFICI
100
AcDbCircle
 62
7
  6
CONTINUOUS
 10
-49.1483367983
 20
-24.2369056521
 30
0.0
 40
0.25
100
AcDbArc
 50
180.0
 51
269.6666666667
  0
ARC
  5
6B0
100
AcDbEntity
  8
SUPERFICI
100
AcDbCircle
 62
7
  6
CONTINUOUS
 10
-49.1483367983
 20
-23.8443375673
 30
0.0
 40
0.25
100
AcDbArc
 50
120.0
 51
180.0
  0
ARC
  5
6B1
100
AcDbEntity
  8
RACCORDO
100
AcDbCircle
 62
7
  6
CONTINUOUS
 10
-53.3292379112
 20
-21.0615984079
 30
0.0
 40
1.0
100
AcDbArc
 50
188.5758796048
 51
267.0
  0
ARC
  5
6B2
100
AcDbEntity
  8
SUPERFICI
100
AcDbCircle
 62
7
  6
CONTINUOUS
 10
-53.3292379112
 20
-21.0615984079
 30
0.0
 40
1.0
100
AcDbArc
 50
188.5758796048
 51
267.0
  0
ARC
  5
6B3
100
AcDbEntity
  8
RACCORDO
100
AcDbCircle
 62
250
  6
CONTINUOUS
 10
-53.3379641083
 20
-21.0615984012
 30
0.0
 40
0.500000007
100
AcDbArc
 50
188.5758802639
 51
266.9999993409
  0
ARC
  5
6B4
100
AcDbEntity
  8
SUPERFICI
100
AcDbCircle
 62
250
  6
CONTINUOUS
 10
-53.3379641083
 20
-21.0615984012
 30
0.0
 40
0.500000007
100
AcDbArc
 50
188.5758802639
 51
266.9999993409
  0
ARC
  5
6B5
100
AcDbEntity
  8
ASSI
100
AcDbCircle
 62
7
  6
CONTINUOUS
 10
-39.3983367983
 20
-23.4563578147
 30
0.0
 40
0.5
100
AcDbArc
 50
270.3333333333
 51
360.0
  0
ARC
  5
6B6
100
AcDbEntity
  8
SUPERFICI
100
AcDbCircle
 62
7
  6
CONTINUOUS
 10
-39.3983367983
 20
-23.4563578147
 30
0.0
 40
0.5
100
AcDbArc
 50
270.3333333333
 51
360.0
  0
ARC
  5
6B7
100
AcDbEntity
  8
RACCORDO
100
AcDbCircle
 62
7
  6
CONTINUOUS
 10
-46.1483367983
 20
-23.8443375673
 30
0.0
 40
0.25
100
AcDbArc
 50
0.0
 51
60.0
  0
ARC
  5
6B8
100
AcDbEntity
  8
RACCORDO
100
AcDbCircle
 62
7
  6
CONTINUOUS
 10
-46.1483367983
 20
-24.2456323968
 30
0.0
 40
0.25
100
AcDbArc
 50
270.3333333333
 51
360.0
  0
ARC
  5
6B9
100
AcDbEntity
  8
SUPERFICI
100
AcDbCircle
 62
7
  6
CONTINUOUS
 10
-46.1483367983
 20
-24.2456323968
 30
0.0
 40
0.25
100
AcDbArc
 50
270.3333333333
 51
360.0
  0
ARC
  5
6BA
100
AcDbEntity
  8
SUPERFICI
100
AcDbCircle
 62
7
  6
CONTINUOUS
 10
-46.1483367983
 20
-23.8443375673
 30
0.0
 40
0.25
100
AcDbArc
 50
0.0
 51
60.0
  0
ARC
  5
6BB
100
AcDbEntity
  8
0
100
AcDbCircle
 62
7
  6
CONTINUOUS
 10
-56.0183367983
 20
-17.35
 30
0.0
 40
1.0
100
AcDbArc
 50
179.9994167896
 51
270.0
  0
ARC
  5
6BC
100
AcDbEntity
  8
RACCORDO
100
AcDbCircle
 62
7
  6
CONTINUOUS
 10
-35.8983367983
 20
-21.3359869487
 30
0.0
 40
1.0
100
AcDbArc
 50
270.3333333333
 51
360.0
  0
ARC
  5
6BD
100
AcDbEntity
  8
SUPERFICI
100
AcDbCircle
 62
7
  6
CONTINUOUS
 10
-35.8983367983
 20
-21.3359869487
 30
0.0
 40
1.0
100
AcDbArc
 50
270.3333333333
 51
360.0
  0
ARC
  5
6BE
100
AcDbEntity
  8
ASSI
100
AcDbCircle
 62
7
  6
CONTINUOUS
 10
-28.9983367983
 20
-15.0
 30
0.0
 40
2.1
100
AcDbArc
 50
90.0
 51
270.0
  0
CIRCLE
  5
6BF
100
AcDbEntity
  8
0
100
AcDbCircle
 62
7
  6
CONTINUOUS
 10
-28.7983367983
 20
-14.988
 30
0.0
 40
2.0
  0
ARC
  5
6C0
100
AcDbEntity
  8
RACCORDO
100
AcDbCircle
 62
7
  6
CONTINUOUS
 10
-22.4983367983
 20
-18.3943840357
 30
0.0
 40
1.0
100
AcDbArc
 50
271.0
 51
360.0
  0
ARC
  5
6C1
100
AcDbEntity
  8
ASSI
100
AcDbCircle
 62
7
  6
CONTINUOUS
 10
-22.4983367983
 20
-18.3943840357
 30
0.0
 40
1.0
100
AcDbArc
 50
271.0
 51
360.0
  0
ARC
  5
6C2
100
AcDbEntity
  8
SUPERFICI
100
AcDbCircle
 62
7
  6
CONTINUOUS
 10
34.6756748818
 20
-7.79
 30
0.0
 40
90.0
100
AcDbArc
 50
181.08868532
 51
188.5758796048
  0
ARC
  5
6C3
100
AcDbEntity
  8
RACCORDO
100
AcDbCircle
 62
7
  6
CONTINUOUS
 10
34.6756748818
 20
-7.79
 30
0.0
 40
90.0
100
AcDbArc
 50
181.0886087502
 51
188.5758796048
  0
ARC
  5
6C4
100
AcDbEntity
  8
RACCORDO
100
AcDbCircle
 62
250
  6
CONTINUOUS
 10
34.667049078
 20
-7.7899915123
 30
0.0
 40
89.5001005425
100
AcDbArc
 50
181.0886895315
 51
188.5758753933
  0
ARC
  5
6C5
100
AcDbEntity
  8
SUPERFICI
100
AcDbCircle
 62
250
  6
CONTINUOUS
 10
34.667049078
 20
-7.7899915123
 30
0.0
 40
89.5001005425
100
AcDbArc
 50
181.0886895315
 51
188.5758753933
  0
ARC
  5
6C6
100
AcDbEntity
  8
ASSI
100
AcDbCircle
 62
7
  6
CONTINUOUS
 10
-28.9983367983
 20
-5.0
 30
0.0
 40
2.1
100
AcDbArc
 50
90.0
 51
270.0
  0
ARC
  5
6C7
100
AcDbEntity
  8
ASSI
100
AcDbCircle
 62
7
  6
CONTINUOUS
 10
-28.9983367983
 20
-10.0
 30
0.0
 40
2.1
100
AcDbArc
 50
90.0
 51
270.0
  0
CIRCLE
  5
6C8
100
AcDbEntity
  8
0
100
AcDbCircle
 62
7
  6
CONTINUOUS
 10
-28.7983367983
 20
-9.988
 30
0.0
 40
2.0
  0
CIRCLE
  5
6C9
100
AcDbEntity
  8
0
100
AcDbCircle
 62
7
  6
CONTINUOUS
 10
-28.7983367983
 20
-4.988
 30
0.0
 40
2.0
  0
ARC
  5
6CA
100
AcDbEntity
  8
0
100
AcDbCircle
 62
7
  6
CONTINUOUS
 10
-56.0183367983
 20
-3.15
 30
0.0
 40
1.0
100
AcDbArc
 50
180.0013896403
 51
270.0
  0
ARC
  5
6CB
100
AcDbEntity
  8
0
100
AcDbCircle
 62
7
  6
CONTINUOUS
 10
-56.0183367983
 20
-11.05
 30
0.0
 40
1.0
100
AcDbArc
 50
90.0
 51
180.0005832104
  0
ARC
  5
6CC
100
AcDbEntity
  8
0
100
AcDbCircle
 62
250
  6
CONTINUOUS
 10
-56.0883770557
 20
-11.157577451
 30
0.0
 40
0.9299597748
100
AcDbArc
 50
173.7048349026
 51
179.9849252068
  0
ARC
  5
6CD
100
AcDbEntity
  8
ASSI
100
AcDbCircle
 62
250
  6
CONTINUOUS
 10
-179.1248817613
 20
18.2166167719
 30
0.0
 40
156.6455928505
100
AcDbArc
 50
359.7414015116
 51
0.2585986644
  0
ARC
  5
6CE
100
AcDbEntity
  8
SUPERFICI
100
AcDbCircle
 62
7
  6
CONTINUOUS
 10
34.6756748818
 20
7.79
 30
0.0
 40
90.0
100
AcDbArc
 50
171.4241203952
 51
178.91131468
  0
ARC
  5
6CF
100
AcDbEntity
  8
RACCORDO
100
AcDbCircle
 62
7
  6
CONTINUOUS
 10
34.6756748818
 20
7.79
 30
0.0
 40
90.0
100
AcDbArc
 50
171.4241203952
 51
178.9113911863
  0
ARC
  5
6D0
100
AcDbEntity
  8
RACCORDO
100
AcDbCircle
 62
250
  6
CONTINUOUS
 10
34.667049078
 20
7.7899915123
 30
0.0
 40
89.5001005425
100
AcDbArc
 50
171.4241246067
 51
178.9113104685
  0
ARC
  5
6D1
100
AcDbEntity
  8
SUPERFICI
100
AcDbCircle
 62
250
  6
CONTINUOUS
 10
34.667049078
 20
7.7899915123
 30
0.0
 40
89.5001005425
100
AcDbArc
 50
171.4241246067
 51
178.9113104685
  0
ARC
  5
6D2
100
AcDbEntity
  8
ASSI
100
AcDbCircle
 62
7
  6
CONTINUOUS
 10
-28.9983367983
 20
10.0
 30
0.0
 40
2.1
100
AcDbArc
 50
90.0
 51
270.0
  0
ARC
  5
6D3
100
AcDbEntity
  8
ASSI
100
AcDbCircle
 62
7
  6
CONTINUOUS
 10
-28.9983367983
 20
5.0
 30
0.0
 40
2.1
100
AcDbArc
 50
90.0
 51
270.0
  0
ARC
  5
6D4
100
AcDbEntity
  8
ASSI
100
AcDbCircle
 62
7
  6
CONTINUOUS
 10
-28.9983367983
 20
-0.0
 30
0.0
 40
2.1
100
AcDbArc
 50
90.0
 51
270.0
  0
CIRCLE
  5
6D5
100
AcDbEntity
  8
0
100
AcDbCircle
 62
7
  6
CONTINUOUS
 10
-28.7983367983
 20
10.012
 30
0.0
 40
2.0
  0
CIRCLE
  5
6D6
100
AcDbEntity
  8
0
100
AcDbCircle
 62
7
  6
CONTINUOUS
 10
-28.7983367983
 20
0.012
 30
0.0
 40
2.0
  0
CIRCLE
  5
6D7
100
AcDbEntity
  8
0
100
AcDbCircle
 62
7
  6
CONTINUOUS
 10
-28.7983367983
 20
5.012
 30
0.0
 40
2.0
  0
ARC
  5
6D8
100
AcDbEntity
  8
0
100
AcDbCircle
 62
7
  6
CONTINUOUS
 10
-56.0183367983
 20
11.05
 30
0.0
 40
1.0
100
AcDbArc
 50
179.9994167896
 51
270.0
  0
ARC
  5
6D9
100
AcDbEntity
  8
0
100
AcDbCircle
 62
7
  6
CONTINUOUS
 10
-56.0183367983
 20
3.15
 30
0.0
 40
1.0
100
AcDbArc
 50
90.0
 51
179.9986103597
  0
ARC
  5
6DA
100
AcDbEntity
  8
0
100
AcDbCircle
 62
7
  6
CONTINUOUS
 10
-56.0183367983
 20
17.35
 30
0.0
 40
1.0
100
AcDbArc
 50
90.0
 51
180.0005832104
  0
ARC
  5
6DB
100
AcDbEntity
  8
0
100
AcDbCircle
 62
250
  6
CONTINUOUS
 10
-56.0883770557
 20
17.242422549
 30
0.0
 40
0.9299597748
100
AcDbArc
 50
173.7048349026
 51
179.9849252068
  0
ARC
  5
6DC
100
AcDbEntity
  8
RACCORDO
100
AcDbCircle
 62
7
  6
CONTINUOUS
 10
-53.3292379112
 20
21.0615984079
 30
0.0
 40
1.0
100
AcDbArc
 50
93.0
 51
171.4241203952
  0
ARC
  5
6DD
100
AcDbEntity
  8
SUPERFICI
100
AcDbCircle
 62
7
  6
CONTINUOUS
 10
-53.3292379112
 20
21.0615984079
 30
0.0
 40
1.0
100
AcDbArc
 50
93.0
 51
171.4241203952
  0
ARC
  5
6DE
100
AcDbEntity
  8
RACCORDO
100
AcDbCircle
 62
250
  6
CONTINUOUS
 10
-53.3379641083
 20
21.0615984012
 30
0.0
 40
0.500000007
100
AcDbArc
 50
93.0000006591
 51
171.4241197361
  0
ARC
  5
6DF
100
AcDbEntity
  8
SUPERFICI
100
AcDbCircle
 62
250
  6
CONTINUOUS
 10
-53.3379641083
 20
21.0615984012
 30
0.0
 40
0.500000007
100
AcDbArc
 50
93.0000006591
 51
171.4241197361
  0
ARC
  5
6E0
100
AcDbEntity
  8
RACCORDO
100
AcDbCircle
 62
7
  6
CONTINUOUS
 10
-49.1483367983
 20
23.8443375673
 30
0.0
 40
0.25
100
AcDbArc
 50
180.0
 51
240.0
  0
ARC
  5
6E1
100
AcDbEntity
  8
RACCORDO
100
AcDbCircle
 62
7
  6
CONTINUOUS
 10
-49.1483367983
 20
24.2369056521
 30
0.0
 40
0.25
100
AcDbArc
 50
90.3333333333
 51
180.0
  0
ARC
  5
6E2
100
AcDbEntity
  8
SUPERFICI
100
AcDbCircle
 62
7
  6
CONTINUOUS
 10
-49.1483367983
 20
24.2369056521
 30
0.0
 40
0.25
100
AcDbArc
 50
90.3333333333
 51
180.0
  0
ARC
  5
6E3
100
AcDbEntity
  8
SUPERFICI
100
AcDbCircle
 62
7
  6
CONTINUOUS
 10
-49.1483367983
 20
23.8443375673
 30
0.0
 40
0.25
100
AcDbArc
 50
180.0
 51
240.0
  0
ARC
  5
6E4
100
AcDbEntity
  8
ASSI
100
AcDbCircle
 62
7
  6
CONTINUOUS
 10
-39.3983367983
 20
23.4563578147
 30
0.0
 40
0.5
100
AcDbArc
 50
0.0
 51
89.6666666667
  0
ARC
  5
6E5
100
AcDbEntity
  8
SUPERFICI
100
AcDbCircle
 62
7
  6
CONTINUOUS
 10
-39.3983367983
 20
23.4563578147
 30
0.0
 40
0.5
100
AcDbArc
 50
0.0
 51
89.6666666667
  0
ARC
  5
6E6
100
AcDbEntity
  8
RACCORDO
100
AcDbCircle
 62
7
  6
CONTINUOUS
 10
-46.1483367983
 20
23.8443375673
 30
0.0
 40
0.25
100
AcDbArc
 50
300.0
 51
360.0
  0
ARC
  5
6E7
100
AcDbEntity
  8
RACCORDO
100
AcDbCircle
 62
7
  6
CONTINUOUS
 10
-46.1483367983
 20
24.2456323968
 30
0.0
 40
0.25
100
AcDbArc
 50
0.0
 51
89.6666666667
  0
ARC
  5
6E8
100
AcDbEntity
  8
SUPERFICI
100
AcDbCircle
 62
7
  6
CONTINUOUS
 10
-46.1483367983
 20
24.2456323968
 30
0.0
 40
0.25
100
AcDbArc
 50
0.0
 51
89.6666666667
  0
ARC
  5
6E9
100
AcDbEntity
  8
SUPERFICI
100
AcDbCircle
 62
7
  6
CONTINUOUS
 10
-46.1483367983
 20
23.8443375673
 30
0.0
 40
0.25
100
AcDbArc
 50
300.0
 51
360.0
  0
ARC
  5
6EA
100
AcDbEntity
  8
SUPERFICI
100
AcDbCircle
 62
7
  6
CONTINUOUS
 10
-25.783166519
 20
15.5339267369
 30
0.0
 40
44.7858999125
100
AcDbArc
 50
239.6711809666
 51
240.0388810573
  0
ARC
  5
6EB
100
AcDbEntity
  8
RACCORDO
100
AcDbCircle
 62
7
  6
CONTINUOUS
 10
-22.4983367983
 20
18.3943840357
 30
0.0
 40
1.0
100
AcDbArc
 50
0.0
 51
89.0
  0
ARC
  5
6EC
100
AcDbEntity
  8
ASSI
100
AcDbCircle
 62
7
  6
CONTINUOUS
 10
-22.4983367983
 20
18.3943840357
 30
0.0
 40
1.0
100
AcDbArc
 50
0.0
 51
89.0
  0
ARC
  5
6ED
100
AcDbEntity
  8
ASSI
100
AcDbCircle
 62
250
  6
CONTINUOUS
 10
-22.0041057396
 20
18.2162840827
 30
0.0
 40
0.505769051
100
AcDbArc
 50
0.0377324298
 51
10.9860360064
  0
ARC
  5
6EE
100
AcDbEntity
  8
RACCORDO
100
AcDbCircle
 62
7
  6
CONTINUOUS
 10
-35.8983367983
 20
21.3359869487
 30
0.0
 40
1.0
100
AcDbArc
 50
0.0
 51
89.6666666667
  0
ARC
  5
6EF
100
AcDbEntity
  8
SUPERFICI
100
AcDbCircle
 62
7
  6
CONTINUOUS
 10
-35.8983367983
 20
21.3359869487
 30
0.0
 40
1.0
100
AcDbArc
 50
0.0
 51
89.6666666667
  0
ARC
  5
6F0
100
AcDbEntity
  8
RACCORDO
100
AcDbCircle
 62
7
  6
CONTINUOUS
 10
444.6016632017
 20
-0.0
 30
0.0
 40
500.0
100
AcDbArc
 50
178.91131468
 51
181.08868532
  0
ARC
  5
6F1
100
AcDbEntity
  8
SUPERFICI
100
AcDbCircle
 62
7
  6
CONTINUOUS
 10
444.6016632017
 20
0.0
 30
0.0
 40
500.0
100
AcDbArc
 50
178.91131468
 51
181.08868532
  0
ARC
  5
6F2
100
AcDbEntity
  8
SUPERFICI
100
AcDbCircle
 62
250
  6
CONTINUOUS
 10
444.6382309106
 20
0.0
 30
0.0
 40
499.5452857366
100
AcDbArc
 50
178.9114133854
 51
181.0885866146
  0
ARC
  5
6F3
100
AcDbEntity
  8
RACCORDO
100
AcDbCircle
 62
250
  6
CONTINUOUS
 10
444.5929366793
 20
0.0
 30
0.0
 40
499.4999996809
100
AcDbArc
 50
178.9113146793
 51
181.0886853207
  0
SPLINE
  5
6F4
100
AcDbEntity
  8
RACCORDO
100
AcDbSpline
 62
7
  6
CONTINUOUS
 70
0
 71
3
 72
15
 73
11
 74
0
 42
0.0000001
 43
0.0000001
 44
0.0000000001
 40
0.0
 40
0.0
 40
0.0
 40
0.0
 40
0.0847246382
 40
0.1757279367
 40
0.2778501555
 40
0.3942839058
 40
0.5264550939
 40
0.6738071548
 40
0.8334364544
 40
1.0
 40
1.0
 40
1.0
 40
1.0
 10
7.2572807489
 20
23.2669872981
 30
0.0
 10
7.2573703905
 20
23.2580912117
 30
0.0
 10
7.2606131795
 20
23.2395608029
 30
0.0
 10
7.2741645701
 20
23.2133174142
 30
0.0
 10
7.296036015
 20
23.1888844894
 30
0.0
 10
7.325888076
 20
23.1669547435
 30
0.0
 10
7.363250807
 20
23.1483274499
 30
0.0
 10
7.4072234122
 20
23.133953471
 30
0.0
 10
7.4562269929
 20
23.1248150691
 30
0.0
 10
7.4905136879
 20
23.1226497308
 30
0.0
 10
7.5080037468
 20
23.1226497308
 30
0.0
  0
SPLINE
  5
6F5
100
AcDbEntity
  8
RACCORDO
100
AcDbSpline
 62
250
  6
CONTINUOUS
 70
0
 71
3
 72
13
 73
9
 74
0
 42
0.0000001
 43
0.0000001
 44
0.0000000001
 40
0.0
 40
0.0
 40
0.0
 40
0.0
 40
0.1162394861
 40
0.2339784844
 40
0.3543712552
 40
0.4780982232
 40
0.7345378384
 40
1.0
 40
1.0
 40
1.0
 40
1.0
 10
7.2630985787
 20
23.8443375673
 30
0.0
 10
7.2631461049
 20
23.830187852
 30
0.0
 10
7.2665046394
 20
23.8016148352
 30
0.0
 10
7.2810612251
 20
23.7606544996
 30
0.0
 10
7.3045320971
 20
23.7229827179
 30
0.0
 10
7.3468348209
 20
23.6786209833
 30
0.0
 10
7.416761089
 20
23.6387868014
 30
0.0
 10
7.4807798273
 20
23.6279126229
 30
0.0
 10
7.5130943479
 20
23.6278312164
 30
0.0
  0
SPLINE
  5
6F6
100
AcDbEntity
  8
RACCORDO
100
AcDbSpline
 62
7
  6
CONTINUOUS
 70
0
 71
3
 72
15
 73
11
 74
0
 42
0.0000001
 43
0.0000001
 44
0.0000000001
 40
0.0
 40
0.0
 40
0.0
 40
0.0
 40
0.1666133779
 40
0.3262255844
 40
0.4735308137
 40
0.6056575217
 40
0.7220676483
 40
0.8241942131
 40
0.9152281509
 40
1.0
 40
1.0
 40
1.0
 40
1.0
 10
9.8927234819
 20
23.1226497308
 30
0.0
 10
9.9101785017
 20
23.1226497308
 30
0.0
 10
9.9443856929
 20
23.124909705
 30
0.0
 10
9.9932620946
 20
23.1340775763
 30
0.0
 10
10.0371035061
 20
23.1484769636
 30
0.0
 10
10.0743461767
 20
23.1671011817
 30
0.0
 10
10.1040985049
 20
23.1890111222
 30
0.0
 10
10.1258950298
 20
23.2134107396
 30
0.0
 10
10.1393986841
 20
23.239611024
 30
0.0
 10
10.142629766
 20
23.2581067436
 30
0.0
 10
10.1427192511
 20
23.2669872981
 30
0.0
  0
SPLINE
  5
6F7
100
AcDbEntity
  8
RACCORDO
100
AcDbSpline
 62
250
  6
CONTINUOUS
 70
0
 71
3
 72
13
 73
9
 74
0
 42
0.0000001
 43
0.0000001
 44
0.0000000001
 40
0.0
 40
0.0
 40
0.0
 40
0.0
 40
0.1162394861
 40
0.2339784844
 40
0.3543712552
 40
0.4780982232
 40
0.7345378384
 40
1.0
 40
1.0
 40
1.0
 40
1.0
 10
10.1369014213
 20
23.8443375673
 30
0.0
 10
10.1368538951
 20
23.830187852
 30
0.0
 10
10.1334953606
 20
23.8016148352
 30
0.0
 10
10.1189387749
 20
23.7606544996
 30
0.0
 10
10.0954679029
 20
23.7229827179
 30
0.0
 10
10.0531651791
 20
23.6786209833
 30
0.0
 10
9.983238911
 20
23.6387868014
 30
0.0
 10
9.9192201727
 20
23.6279126229
 30
0.0
 10
9.8869056521
 20
23.6278312164
 30
0.0
  0
SPLINE
  5
6F8
100
AcDbEntity
  8
RACCORDO
100
AcDbSpline
 62
7
  6
CONTINUOUS
 70
0
 71
3
 72
15
 73
11
 74
0
 42
0.0000001
 43
0.0000001
 44
0.0000000001
 40
0.0
 40
0.0
 40
0.0
 40
0.0
 40
0.1666133779
 40
0.3262255844
 40
0.4735308137
 40
0.6056575217
 40
0.7220676483
 40
0.8241942131
 40
0.9152281509
 40
1.0
 40
1.0
 40
1.0
 40
1.0
 10
7.5072765181
 20
-23.1226497308
 30
0.0
 10
7.4898214983
 20
-23.1226497308
 30
0.0
 10
7.4556143071
 20
-23.124909705
 30
0.0
 10
7.4067379054
 20
-23.1340775763
 30
0.0
 10
7.3628964939
 20
-23.1484769636
 30
0.0
 10
7.3256538233
 20
-23.1671011817
 30
0.0
 10
7.2959014951
 20
-23.1890111222
 30
0.0
 10
7.2741049702
 20
-23.2134107396
 30
0.0
 10
7.2606013159
 20
-23.239611024
 30
0.0
 10
7.257370234
 20
-23.2581067436
 30
0.0
 10
7.2572807489
 20
-23.2669872981
 30
0.0
  0
SPLINE
  5
6F9
100
AcDbEntity
  8
RACCORDO
100
AcDbSpline
 62
250
  6
CONTINUOUS
 70
0
 71
3
 72
13
 73
9
 74
0
 42
0.0000001
 43
0.0000001
 44
0.0000000001
 40
0.0
 40
0.0
 40
0.0
 40
0.0
 40
0.1162394861
 40
0.2339784844
 40
0.3543712552
 40
0.4780982232
 40
0.7345378384
 40
1.0
 40
1.0
 40
1.0
 40
1.0
 10
7.2630985787
 20
-23.8443375673
 30
0.0
 10
7.2631461049
 20
-23.830187852
 30
0.0
 10
7.2665046394
 20
-23.8016148352
 30
0.0
 10
7.2810612251
 20
-23.7606544996
 30
0.0
 10
7.3045320971
 20
-23.7229827179
 30
0.0
 10
7.3468348209
 20
-23.6786209833
 30
0.0
 10
7.416761089
 20
-23.6387868014
 30
0.0
 10
7.4807798273
 20
-23.6279126229
 30
0.0
 10
7.5130943479
 20
-23.6278312164
 30
0.0
  0
SPLINE
  5
6FA
100
AcDbEntity
  8
RACCORDO
100
AcDbSpline
 62
7
  6
CONTINUOUS
 70
0
 71
3
 72
15
 73
11
 74
0
 42
0.0000001
 43
0.0000001
 44
0.0000000001
 40
0.0
 40
0.0
 40
0.0
 40
0.0
 40
0.0847246382
 40
0.1757279367
 40
0.2778501555
 40
0.3942839058
 40
0.5264550939
 40
0.6738071548
 40
0.8334364544
 40
1.0
 40
1.0
 40
1.0
 40
1.0
 10
10.1427192511
 20
-23.2669872981
 30
0.0
 10
10.1426296095
 20
-23.2580912117
 30
0.0
 10
10.1393868205
 20
-23.2395608029
 30
0.0
 10
10.1258354299
 20
-23.2133174142
 30
0.0
 10
10.103963985
 20
-23.1888844894
 30
0.0
 10
10.074111924
 20
-23.1669547435
 30
0.0
 10
10.036749193
 20
-23.1483274499
 30
0.0
 10
9.9927765878
 20
-23.133953471
 30
0.0
 10
9.9437730071
 20
-23.1248150691
 30
0.0
 10
9.9094863121
 20
-23.1226497308
 30
0.0
 10
9.8919962532
 20
-23.1226497308
 30
0.0
  0
SPLINE
  5
6FB
100
AcDbEntity
  8
RACCORDO
100
AcDbSpline
 62
250
  6
CONTINUOUS
 70
0
 71
3
 72
13
 73
9
 74
0
 42
0.0000001
 43
0.0000001
 44
0.0000000001
 40
0.0
 40
0.0
 40
0.0
 40
0.0
 40
0.1162394899
 40
0.2339784923
 40
0.3543712679
 40
0.4780982409
 40
0.7345378657
 40
1.0
 40
1.0
 40
1.0
 40
1.0
 10
10.1369014213
 20
-23.8443375673
 30
0.0
 10
10.136853895
 20
-23.8301878516
 30
0.0
 10
10.1334953604
 20
-23.8016148337
 30
0.0
 10
10.1189387735
 20
-23.7606544968
 30
0.0
 10
10.0954679002
 20
-23.7229827139
 30
0.0
 10
10.0531651734
 20
-23.6786209789
 30
0.0
 10
9.9832389055
 20
-23.6387867994
 30
0.0
 10
9.9192201694
 20
-23.6279126229
 30
0.0
 10
9.8869056521
 20
-23.6278312164
 30
0.0
  0
SPLINE
  5
6FC
100
AcDbEntity
  8
RACCORDO
100
AcDbSpline
 62
7
  6
CONTINUOUS
 70
0
 71
3
 72
15
 73
11
 74
0
 42
0.0000001
 43
0.0000001
 44
0.0000000001
 40
0.0
 40
0.0
 40
0.0
 40
0.0
 40
0.0847246382
 40
0.1757279367
 40
0.2778501555
 40
0.3942839058
 40
0.5264550939
 40
0.6738071548
 40
0.8334364544
 40
1.0
 40
1.0
 40
1.0
 40
1.0
 10
-7.2572807489
 20
-23.2669872981
 30
0.0
 10
-7.2573703905
 20
-23.2580912117
 30
0.0
 10
-7.2606131795
 20
-23.2395608029
 30
0.0
 10
-7.2741645701
 20
-23.2133174142
 30
0.0
 10
-7.296036015
 20
-23.1888844894
 30
0.0
 10
-7.325888076
 20
-23.1669547435
 30
0.0
 10
-7.363250807
 20
-23.1483274499
 30
0.0
 10
-7.4072234122
 20
-23.133953471
 30
0.0
 10
-7.4562269929
 20
-23.1248150691
 30
0.0
 10
-7.4905136879
 20
-23.1226497308
 30
0.0
 10
-7.5080037468
 20
-23.1226497308
 30
0.0
  0
SPLINE
  5
6FD
100
AcDbEntity
  8
RACCORDO
100
AcDbSpline
 62
250
  6
CONTINUOUS
 70
0
 71
3
 72
13
 73
9
 74
0
 42
0.0000001
 43
0.0000001
 44
0.0000000001
 40
0.0
 40
0.0
 40
0.0
 40
0.0
 40
0.1162394861
 40
0.2339784844
 40
0.3543712552
 40
0.4780982232
 40
0.7345378384
 40
1.0
 40
1.0
 40
1.0
 40
1.0
 10
-7.2630985787
 20
-23.8443375673
 30
0.0
 10
-7.2631461049
 20
-23.830187852
 30
0.0
 10
-7.2665046394
 20
-23.8016148352
 30
0.0
 10
-7.2810612251
 20
-23.7606544996
 30
0.0
 10
-7.3045320971
 20
-23.7229827179
 30
0.0
 10
-7.3468348209
 20
-23.6786209833
 30
0.0
 10
-7.416761089
 20
-23.6387868014
 30
0.0
 10
-7.4807798273
 20
-23.6279126229
 30
0.0
 10
-7.5130943479
 20
-23.6278312164
 30
0.0
  0
SPLINE
  5
6FE
100
AcDbEntity
  8
RACCORDO
100
AcDbSpline
 62
250
  6
CONTINUOUS
 70
0
 71
3
 72
13
 73
9
 74
0
 42
0.0000001
 43
0.0000001
 44
0.0000000001
 40
0.0
 40
0.0
 40
0.0
 40
0.0
 40
0.1162393822
 40
0.2339783947
 40
0.3543711753
 40
0.4780981573
 40
0.7345378061
 40
1.0
 40
1.0
 40
1.0
 40
1.0
 10
-10.1369014213
 20
-23.8443375673
 30
0.0
 10
-10.1368538951
 20
-23.8301878647
 30
0.0
 10
-10.1334953621
 20
-23.8016148597
 30
0.0
 10
-10.1189387922
 20
-23.7606545287
 30
0.0
 10
-10.09546792
 20
-23.7229827412
 30
0.0
 10
-10.0531651981
 20
-23.6786209956
 30
0.0
 10
-9.9832389227
 20
-23.6387868046
 30
0.0
 10
-9.9192201766
 20
-23.6279126229
 30
0.0
 10
-9.8869056521
 20
-23.6278312164
 30
0.0
  0
SPLINE
  5
6FF
100
AcDbEntity
  8
RACCORDO
100
AcDbSpline
 62
7
  6
CONTINUOUS
 70
0
 71
3
 72
15
 73
11
 74
0
 42
0.0000001
 43
0.0000001
 44
0.0000000001
 40
0.0
 40
0.0
 40
0.0
 40
0.0
 40
0.0847246382
 40
0.1757279367
 40
0.2778501555
 40
0.3942839058
 40
0.5264550939
 40
0.6738071548
 40
0.8334364544
 40
1.0
 40
1.0
 40
1.0
 40
1.0
 10
-10.1427192511
 20
-23.2669872981
 30
0.0
 10
-10.1426296095
 20
-23.2580912117
 30
0.0
 10
-10.1393868205
 20
-23.2395608029
 30
0.0
 10
-10.1258354299
 20
-23.2133174142
 30
0.0
 10
-10.103963985
 20
-23.1888844894
 30
0.0
 10
-10.074111924
 20
-23.1669547435
 30
0.0
 10
-10.036749193
 20
-23.1483274499
 30
0.0
 10
-9.9927765878
 20
-23.133953471
 30
0.0
 10
-9.9437730071
 20
-23.1248150691
 30
0.0
 10
-9.9094863121
 20
-23.1226497308
 30
0.0
 10
-9.8919962532
 20
-23.1226497308
 30
0.0
  0
SPLINE
  5
700
100
AcDbEntity
  8
RACCORDO
100
AcDbSpline
 62
7
  6
CONTINUOUS
 70
0
 71
3
 72
15
 73
11
 74
0
 42
0.0000001
 43
0.0000001
 44
0.0000000001
 40
0.0
 40
0.0
 40
0.0
 40
0.0
 40
0.0847246382
 40
0.1757279367
 40
0.2778501555
 40
0.3942839058
 40
0.5264550939
 40
0.6738071548
 40
0.8334364544
 40
1.0
 40
1.0
 40
1.0
 40
1.0
 10
-10.1427192511
 20
23.2669872981
 30
0.0
 10
-10.1426296095
 20
23.2580912117
 30
0.0
 10
-10.1393868205
 20
23.2395608029
 30
0.0
 10
-10.1258354299
 20
23.2133174142
 30
0.0
 10
-10.103963985
 20
23.1888844894
 30
0.0
 10
-10.074111924
 20
23.1669547435
 30
0.0
 10
-10.036749193
 20
23.1483274499
 30
0.0
 10
-9.9927765878
 20
23.133953471
 30
0.0
 10
-9.9437730071
 20
23.1248150691
 30
0.0
 10
-9.9094863121
 20
23.1226497308
 30
0.0
 10
-9.8919962532
 20
23.1226497308
 30
0.0
  0
SPLINE
  5
701
100
AcDbEntity
  8
RACCORDO
100
AcDbSpline
 62
250
  6
CONTINUOUS
 70
0
 71
3
 72
13
 73
9
 74
0
 42
0.0000001
 43
0.0000001
 44
0.0000000001
 40
0.0
 40
0.0
 40
0.0
 40
0.0
 40
0.1162394861
 40
0.2339784844
 40
0.3543712552
 40
0.4780982232
 40
0.7345378384
 40
1.0
 40
1.0
 40
1.0
 40
1.0
 10
-10.1369014213
 20
23.8443375673
 30
0.0
 10
-10.1368538951
 20
23.830187852
 30
0.0
 10
-10.1334953606
 20
23.8016148352
 30
0.0
 10
-10.1189387749
 20
23.7606544996
 30
0.0
 10
-10.0954679029
 20
23.7229827179
 30
0.0
 10
-10.0531651791
 20
23.6786209833
 30
0.0
 10
-9.983238911
 20
23.6387868014
 30
0.0
 10
-9.9192201727
 20
23.6279126229
 30
0.0
 10
-9.8869056521
 20
23.6278312164
 30
0.0
  0
SPLINE
  5
702
100
AcDbEntity
  8
RACCORDO
100
AcDbSpline
 62
250
  6
CONTINUOUS
 70
0
 71
3
 72
13
 73
9
 74
0
 42
0.0000001
 43
0.0000001
 44
0.0000000001
 40
0.0
 40
0.0
 40
0.0
 40
0.0
 40
0.1162393822
 40
0.2339783947
 40
0.3543711753
 40
0.4780981573
 40
0.7345378061
 40
1.0
 40
1.0
 40
1.0
 40
1.0
 10
-7.2630985787
 20
23.8443375673
 30
0.0
 10
-7.2631461049
 20
23.8301878647
 30
0.0
 10
-7.2665046379
 20
23.8016148597
 30
0.0
 10
-7.2810612078
 20
23.7606545287
 30
0.0
 10
-7.30453208
 20
23.7229827412
 30
0.0
 10
-7.3468348019
 20
23.6786209956
 30
0.0
 10
-7.4167610773
 20
23.6387868046
 30
0.0
 10
-7.4807798234
 20
23.6279126229
 30
0.0
 10
-7.5130943479
 20
23.6278312164
 30
0.0
  0
SPLINE
  5
703
100
AcDbEntity
  8
RACCORDO
100
AcDbSpline
 62
7
  6
CONTINUOUS
 70
0
 71
3
 72
15
 73
11
 74
0
 42
0.0000001
 43
0.0000001
 44
0.0000000001
 40
0.0
 40
0.0
 40
0.0
 40
0.0
 40
0.0847246382
 40
0.1757279367
 40
0.2778501555
 40
0.3942839058
 40
0.5264550939
 40
0.6738071548
 40
0.8334364544
 40
1.0
 40
1.0
 40
1.0
 40
1.0
 10
-7.2572807489
 20
23.2669872981
 30
0.0
 10
-7.2573703905
 20
23.2580912117
 30
0.0
 10
-7.2606131795
 20
23.2395608029
 30
0.0
 10
-7.2741645701
 20
23.2133174142
 30
0.0
 10
-7.296036015
 20
23.1888844894
 30
0.0
 10
-7.325888076
 20
23.1669547435
 30
0.0
 10
-7.363250807
 20
23.1483274499
 30
0.0
 10
-7.4072234122
 20
23.133953471
 30
0.0
 10
-7.4562269929
 20
23.1248150691
 30
0.0
 10
-7.4905136879
 20
23.1226497308
 30
0.0
 10
-7.5080037468
 20
23.1226497308
 30
0.0
  0
SPLINE
  5
704
100
AcDbEntity
  8
RACCORDO
100
AcDbSpline
 62
250
  6
CONTINUOUS
 70
0
 71
3
 72
20
 73
16
 74
0
 42
0.0000001
 43
0.0000001
 44
0.0000000001
 40
0.0
 40
0.0
 40
0.0
 40
0.0
 40
0.0037348504
 40
0.0096034565
 40
0.0277122608
 40
0.0542081165
 40
0.0889008884
 40
0.1315382587
 40
0.1818092816
 40
0.2393468539
 40
0.3037305924
 40
0.4511074194
 40
0.6196372652
 40
0.8043988809
 40
1.0
 40
1.0
 40
1.0
 40
1.0
 10
-10.5372152757
 20
-22.0602279426
 30
0.0
 10
-10.5370415758
 20
-22.0591845813
 30
0.0
 10
-10.5367713842
 20
-22.0564750969
 30
0.0
 10
-10.5362144766
 20
-22.0486483255
 30
0.0
 10
-10.5356159865
 20
-22.0343629707
 30
0.0
 10
-10.5349198209
 20
-22.0119178318
 30
0.0
 10
-10.5342454814
 20
-21.9825208491
 30
0.0
 10
-10.5335824562
 20
-21.9463900508
 30
0.0
 10
-10.5329471007
 20
-21.9037878635
 30
0.0
 10
-10.5323425565
 20
-21.8550261876
 30
0.0
 10
-10.5315501614
 20
-21.7787641678
 30
0.0
 10
-10.53070107
 20
-21.6710679157
 30
0.0
 10
-10.5299106293
 20
-21.5292791861
 30
0.0
 10
-10.5293368899
 20
-21.3738320508
 30
0.0
 10
-10.5291150148
 20
-21.2661122989
 30
0.0
 10
-10.5290420874
 20
-21.2107174911
 30
0.0
  0
SPLINE
  5
705
100
AcDbEntity
  8
RACCORDO
100
AcDbSpline
 62
250
  6
CONTINUOUS
 70
0
 71
3
 72
19
 73
15
 74
0
 42
0.0000001
 43
0.0000001
 44
0.0000000001
 40
0.0
 40
0.0
 40
0.0
 40
0.0
 40
0.0097160147
 40
0.027878913
 40
0.0544041831
 40
0.0891117634
 40
0.1317539566
 40
0.1820221919
 40
0.2395510655
 40
0.3039213963
 40
0.451260854
 40
0.6197440495
 40
0.8044537293
 40
1.0
 40
1.0
 40
1.0
 40
1.0
 10
-11.0371391233
 20
-21.5609131753
 30
0.0
 10
-11.036704354
 20
-21.5596073816
 30
0.0
 10
-11.0362490403
 20
-21.5556463681
 30
0.0
 10
-11.0355080054
 20
-21.5480012177
 30
0.0
 10
-11.034857315
 20
-21.5367592521
 30
0.0
 10
-11.0341645878
 20
-21.5220670736
 30
0.0
 10
-11.0335082066
 20
-21.5039996222
 30
0.0
 10
-11.0328705632
 20
-21.4827001026
 30
0.0
 10
-11.0322667545
 20
-21.4583197814
 30
0.0
 10
-11.0314740608
 20
-21.420190458
 30
0.0
 10
-11.0306251037
 20
-21.3663425397
 30
0.0
 10
-11.0298345386
 20
-21.295446526
 30
0.0
 10
-11.0292607854
 20
-21.217719725
 30
0.0
 10
-11.029038856
 20
-21.1638569301
 30
0.0
 10
-11.028965935
 20
-21.1361579495
 30
0.0
  0
SPLINE
  5
706
100
AcDbEntity
  8
RACCORDO
100
AcDbSpline
 62
250
  6
CONTINUOUS
 70
0
 71
3
 72
19
 73
15
 74
0
 42
0.0000001
 43
0.0000001
 44
0.0000000001
 40
0.0
 40
0.0
 40
0.0
 40
0.0
 40
0.0153639258
 40
0.024922227
 40
0.0361141547
 40
0.0639528689
 40
0.0995045421
 40
0.1428224244
 40
0.1937088886
 40
0.2518132404
 40
0.3166746733
 40
0.4643884699
 40
0.6316516244
 40
1.0
 40
1.0
 40
1.0
 40
1.0
 10
-11.028965935
 20
-21.1361579495
 30
0.0
 10
-11.0286631847
 20
-21.1387743949
 30
0.0
 10
-11.0265972238
 20
-21.142815568
 30
0.0
 10
-11.0223019119
 20
-21.1472591091
 30
0.0
 10
-11.0156894966
 20
-21.1523817132
 30
0.0
 10
-11.00435135
 20
-21.1584259412
 30
0.0
 10
-10.987294743
 20
-21.1650896013
 30
0.0
 10
-10.9659784208
 20
-21.1715146028
 30
0.0
 10
-10.9405880622
 20
-21.1776438444
 30
0.0
 10
-10.9113390609
 20
-21.1834079717
 30
0.0
 10
-10.8655293961
 20
-21.1908496774
 30
0.0
 10
-10.8008435581
 20
-21.1985776624
 30
0.0
 10
-10.6840492611
 20
-21.2078513415
 30
0.0
 10
-10.5921894011
 20
-21.2105549634
 30
0.0
 10
-10.5290420874
 20
-21.2107174908
 30
0.0
  0
SPLINE
  5
707
100
AcDbEntity
  8
RACCORDO
100
AcDbSpline
 62
250
  6
CONTINUOUS
 70
0
 71
3
 72
23
 73
19
 74
0
 42
0.0000001
 43
0.0000001
 44
0.0000000001
 40
0.0
 40
0.0
 40
0.0
 40
0.0
 40
0.0022236931
 40
0.006692322
 40
0.0134667193
 40
0.022548768
 40
0.0339218787
 40
0.0475646646
 40
0.0815288317
 40
0.1241309448
 40
0.174972948
 40
0.2335780002
 40
0.2993962122
 40
0.3718093415
 40
0.4501355968
 40
0.6215295964
 40
0.8071384882
 40
1.0
 40
1.0
 40
1.0
 40
1.0
 10
-11.0117810505
 20
-9.4905
 30
0.0
 10
-11.0115302618
 20
-9.4907731183
 30
0.0
 10
-11.0103674708
 20
-9.4910668022
 30
0.0
 10
-11.0082301479
 20
-9.4915230193
 30
0.0
 10
-11.0048325987
 20
-9.4919370784
 30
0.0
 10
-11.0003278191
 20
-9.4923857585
 30
0.0
 10
-10.9946535004
 20
-9.4928236226
 30
0.0
 10
-10.9848413335
 20
-9.4934561775
 30
0.0
 10
-10.9698151794
 20
-9.4941956196
 30
0.0
 10
-10.9485863476
 20
-9.4950108278
 30
0.0
 10
-10.9232440695
 20
-9.4957886426
 30
0.0
 10
-10.8940282585
 20
-9.4965217852
 30
0.0
 10
-10.8612132682
 20
-9.4972010572
 30
0.0
 10
-10.8251081494
 20
-9.4978196094
 30
0.0
 10
-10.771398605
 20
-9.4985774421
 30
0.0
 10
-10.6988121192
 20
-9.4993113586
 30
0.0
 10
-10.6071251961
 20
-9.4998538643
 30
0.0
 10
-10.5440163078
 20
-9.4999893365
 30
0.0
 10
-10.5118572029
 20
-9.5
 30
0.0
  0
SPLINE
  5
708
100
AcDbEntity
  8
RACCORDO
100
AcDbSpline
 62
250
  6
CONTINUOUS
 70
0
 71
3
 72
9
 73
5
 74
0
 42
0.0000001
 43
0.0000001
 44
0.0000000001
 40
0.0
 40
0.0
 40
0.0
 40
0.0
 40
0.2499887187
 40
1.0
 40
1.0
 40
1.0
 40
1.0
 10
-10.5118572029
 20
-9.5
 30
0.0
 10
-10.5113325507
 20
-7.9167381853
 30
0.0
 10
-10.509758711
 20
-1.5834049715
 30
0.0
 10
-10.5102831515
 20
4.7499287639
 30
0.0
 10
-10.5118572029
 20
9.5
 30
0.0
  0
SPLINE
  5
709
100
AcDbEntity
  8
RACCORDO
100
AcDbSpline
 62
250
  6
CONTINUOUS
 70
0
 71
3
 72
9
 73
5
 74
0
 42
0.0000001
 43
0.0000001
 44
0.0000000001
 40
0.0
 40
0.0
 40
0.0
 40
0.0
 40
0.2499887187
 40
1.0
 40
1.0
 40
1.0
 40
1.0
 10
-11.0117810505
 20
-9.4905
 30
0.0
 10
-11.0112563983
 20
-7.9088214473
 30
0.0
 10
-11.0096825586
 20
-1.5818215669
 30
0.0
 10
-11.0102069991
 20
4.7451788356
 30
0.0
 10
-11.0117810505
 20
9.4905
 30
0.0
  0
SPLINE
  5
70A
100
AcDbEntity
  8
RACCORDO
100
AcDbSpline
 62
250
  6
CONTINUOUS
 70
0
 71
3
 72
23
 73
19
 74
0
 42
0.0000001
 43
0.0000001
 44
0.0000000001
 40
0.0
 40
0.0
 40
0.0
 40
0.0
 40
0.0022236933
 40
0.0066923224
 40
0.0134667199
 40
0.0225487687
 40
0.0339218796
 40
0.0475646656
 40
0.081528833
 40
0.1241309461
 40
0.1749729495
 40
0.2335780017
 40
0.2993962137
 40
0.3718093429
 40
0.4501355981
 40
0.6215295974
 40
0.8071384887
 40
1.0
 40
1.0
 40
1.0
 40
1.0
 10
-11.0117810505
 20
9.4905
 30
0.0
 10
-11.0115302618
 20
9.4907731183
 30
0.0
 10
-11.0103674707
 20
9.4910668022
 30
0.0
 10
-11.0082301477
 20
9.4915230193
 30
0.0
 10
-11.0048325984
 20
9.4919370784
 30
0.0
 10
-11.0003278187
 20
9.4923857585
 30
0.0
 10
-10.9946535
 20
9.4928236226
 30
0.0
 10
-10.984841333
 20
9.4934561775
 30
0.0
 10
-10.9698151788
 20
9.4941956196
 30
0.0
 10
-10.9485863469
 20
9.4950108278
 30
0.0
 10
-10.9232440687
 20
9.4957886426
 30
0.0
 10
-10.8940282577
 20
9.4965217851
 30
0.0
 10
-10.8612132675
 20
9.4972010572
 30
0.0
 10
-10.8251081487
 20
9.4978196094
 30
0.0
 10
-10.7713986043
 20
9.498577442
 30
0.0
 10
-10.6988121187
 20
9.4993113586
 30
0.0
 10
-10.6071251959
 20
9.4998538642
 30
0.0
 10
-10.5440163077
 20
9.4999893364
 30
0.0
 10
-10.5118572029
 20
9.5
 30
0.0
  0
SPLINE
  5
70B
100
AcDbEntity
  8
RACCORDO
100
AcDbSpline
 62
250
  6
CONTINUOUS
 70
0
 71
3
 72
19
 73
15
 74
0
 42
0.0000001
 43
0.0000001
 44
0.0000000001
 40
0.0
 40
0.0
 40
0.0
 40
0.0
 40
0.0153639339
 40
0.0249222428
 40
0.0361141794
 40
0.0639529124
 40
0.0995046035
 40
0.1428225017
 40
0.1937089787
 40
0.2518133396
 40
0.3166747774
 40
0.4643885704
 40
0.6316517036
 40
1.0
 40
1.0
 40
1.0
 40
1.0
 10
-11.028965935
 20
21.1361579495
 30
0.0
 10
-11.0286631792
 20
21.1387743956
 30
0.0
 10
-11.0265972099
 20
21.1428155666
 30
0.0
 10
-11.0223018905
 20
21.1472591057
 30
0.0
 10
-11.0156894665
 20
21.1523817078
 30
0.0
 10
-11.0043513107
 20
21.1584259334
 30
0.0
 10
-10.987294694
 20
21.1650895909
 30
0.0
 10
-10.9659783637
 20
21.1715145896
 30
0.0
 10
-10.9405879991
 20
21.1776438283
 30
0.0
 10
-10.911338994
 20
21.1834079527
 30
0.0
 10
-10.8655293289
 20
21.190849654
 30
0.0
 10
-10.8008434969
 20
21.1985776342
 30
0.0
 10
-10.6840492228
 20
21.2078513067
 30
0.0
 10
-10.5921893845
 20
21.2105549267
 30
0.0
 10
-10.5290420874
 20
21.2107174539
 30
0.0
  0
SPLINE
  5
70C
100
AcDbEntity
  8
RACCORDO
100
AcDbSpline
 62
250
  6
CONTINUOUS
 70
0
 71
3
 72
20
 73
16
 74
0
 42
0.0000001
 43
0.0000001
 44
0.0000000001
 40
0.0
 40
0.0
 40
0.0
 40
0.0
 40
0.1956011191
 40
0.3803627348
 40
0.5488925806
 40
0.6962694076
 40
0.7606531461
 40
0.8181907184
 40
0.8684617413
 40
0.9110991116
 40
0.9457918835
 40
0.9722877392
 40
0.9903965435
 40
0.9962651496
 40
1.0
 40
1.0
 40
1.0
 40
1.0
 10
-10.5290420874
 20
21.2107174911
 30
0.0
 10
-10.5291150148
 20
21.2661122989
 30
0.0
 10
-10.5293368899
 20
21.3738320508
 30
0.0
 10
-10.5299106293
 20
21.5292791861
 30
0.0
 10
-10.53070107
 20
21.6710679157
 30
0.0
 10
-10.5315501614
 20
21.7787641678
 30
0.0
 10
-10.5323425565
 20
21.8550261876
 30
0.0
 10
-10.5329471007
 20
21.9037878635
 30
0.0
 10
-10.5335824562
 20
21.9463900508
 30
0.0
 10
-10.5342454814
 20
21.9825208491
 30
0.0
 10
-10.5349198209
 20
22.0119178318
 30
0.0
 10
-10.5356159865
 20
22.0343629707
 30
0.0
 10
-10.5362144766
 20
22.0486483255
 30
0.0
 10
-10.5367713842
 20
22.0564750969
 30
0.0
 10
-10.5370415758
 20
22.0591845813
 30
0.0
 10
-10.5372152757
 20
22.0602279426
 30
0.0
  0
SPLINE
  5
70D
100
AcDbEntity
  8
RACCORDO
100
AcDbSpline
 62
250
  6
CONTINUOUS
 70
0
 71
3
 72
19
 73
15
 74
0
 42
0.0000001
 43
0.0000001
 44
0.0000000001
 40
0.0
 40
0.0
 40
0.0
 40
0.0
 40
0.1955462707
 40
0.3802559505
 40
0.548739146
 40
0.6960786037
 40
0.7604489345
 40
0.8179778081
 40
0.8682460434
 40
0.9108882366
 40
0.9455958169
 40
0.972121087
 40
0.9902839853
 40
1.0
 40
1.0
 40
1.0
 40
1.0
 10
-11.028965935
 20
21.1361579495
 30
0.0
 10
-11.029038856
 20
21.1638569301
 30
0.0
 10
-11.0292607854
 20
21.217719725
 30
0.0
 10
-11.0298345386
 20
21.295446526
 30
0.0
 10
-11.0306251037
 20
21.3663425397
 30
0.0
 10
-11.0314740608
 20
21.420190458
 30
0.0
 10
-11.0322667545
 20
21.4583197814
 30
0.0
 10
-11.0328705632
 20
21.4827001026
 30
0.0
 10
-11.0335082066
 20
21.5039996222
 30
0.0
 10
-11.0341645878
 20
21.5220670736
 30
0.0
 10
-11.034857315
 20
21.5367592521
 30
0.0
 10
-11.0355080054
 20
21.5480012177
 30
0.0
 10
-11.0362490403
 20
21.5556463681
 30
0.0
 10
-11.036704354
 20
21.5596073816
 30
0.0
 10
-11.0371391233
 20
21.5609131753
 30
0.0
  0
SPLINE
  5
70E
100
AcDbEntity
  8
RACCORDO
100
AcDbSpline
 62
250
  6
CONTINUOUS
 70
0
 71
3
 72
20
 73
16
 74
0
 42
0.0000001
 43
0.0000001
 44
0.0000000001
 40
0.0
 40
0.0
 40
0.0
 40
0.0
 40
0.0037348504
 40
0.0096034565
 40
0.0277122608
 40
0.0542081165
 40
0.0889008884
 40
0.1315382587
 40
0.1818092816
 40
0.2393468539
 40
0.3037305924
 40
0.4511074194
 40
0.6196372652
 40
0.8043988809
 40
1.0
 40
1.0
 40
1.0
 40
1.0
 10
10.5372152757
 20
22.0602279426
 30
0.0
 10
10.5370415758
 20
22.0591845813
 30
0.0
 10
10.5367713842
 20
22.0564750969
 30
0.0
 10
10.5362144766
 20
22.0486483255
 30
0.0
 10
10.5356159865
 20
22.0343629707
 30
0.0
 10
10.5349198209
 20
22.0119178318
 30
0.0
 10
10.5342454814
 20
21.9825208491
 30
0.0
 10
10.5335824562
 20
21.9463900508
 30
0.0
 10
10.5329471007
 20
21.9037878635
 30
0.0
 10
10.5323425565
 20
21.8550261876
 30
0.0
 10
10.5315501614
 20
21.7787641678
 30
0.0
 10
10.53070107
 20
21.6710679157
 30
0.0
 10
10.5299106293
 20
21.5292791861
 30
0.0
 10
10.5293368899
 20
21.3738320508
 30
0.0
 10
10.5291150148
 20
21.2661122989
 30
0.0
 10
10.5290420874
 20
21.2107174911
 30
0.0
  0
SPLINE
  5
70F
100
AcDbEntity
  8
RACCORDO
100
AcDbSpline
 62
250
  6
CONTINUOUS
 70
0
 71
3
 72
19
 73
15
 74
0
 42
0.0000001
 43
0.0000001
 44
0.0000000001
 40
0.0
 40
0.0
 40
0.0
 40
0.0
 40
0.0097160147
 40
0.027878913
 40
0.0544041831
 40
0.0891117634
 40
0.1317539566
 40
0.1820221919
 40
0.2395510655
 40
0.3039213963
 40
0.451260854
 40
0.6197440495
 40
0.8044537293
 40
1.0
 40
1.0
 40
1.0
 40
1.0
 10
11.0371391233
 20
21.5609131753
 30
0.0
 10
11.036704354
 20
21.5596073816
 30
0.0
 10
11.0362490403
 20
21.5556463681
 30
0.0
 10
11.0355080054
 20
21.5480012177
 30
0.0
 10
11.034857315
 20
21.5367592521
 30
0.0
 10
11.0341645878
 20
21.5220670736
 30
0.0
 10
11.0335082066
 20
21.5039996222
 30
0.0
 10
11.0328705632
 20
21.4827001026
 30
0.0
 10
11.0322667545
 20
21.4583197814
 30
0.0
 10
11.0314740608
 20
21.420190458
 30
0.0
 10
11.0306251037
 20
21.3663425397
 30
0.0
 10
11.0298345386
 20
21.295446526
 30
0.0
 10
11.0292607854
 20
21.217719725
 30
0.0
 10
11.029038856
 20
21.1638569301
 30
0.0
 10
11.028965935
 20
21.1361579495
 30
0.0
  0
SPLINE
  5
710
100
AcDbEntity
  8
RACCORDO
100
AcDbSpline
 62
250
  6
CONTINUOUS
 70
0
 71
3
 72
19
 73
15
 74
0
 42
0.0000001
 43
0.0000001
 44
0.0000000001
 40
0.0
 40
0.0
 40
0.0
 40
0.0
 40
0.0153639257
 40
0.0249222269
 40
0.0361141546
 40
0.0639528687
 40
0.0995045418
 40
0.1428224241
 40
0.1937088882
 40
0.25181324
 40
0.3166746729
 40
0.4643884695
 40
0.6316516241
 40
1.0
 40
1.0
 40
1.0
 40
1.0
 10
11.028965935
 20
21.1361579495
 30
0.0
 10
11.0286631847
 20
21.1387743949
 30
0.0
 10
11.0265972239
 20
21.142815568
 30
0.0
 10
11.022301912
 20
21.1472591091
 30
0.0
 10
11.0156894967
 20
21.1523817132
 30
0.0
 10
11.0043513501
 20
21.1584259413
 30
0.0
 10
10.9872947432
 20
21.1650896014
 30
0.0
 10
10.965978421
 20
21.1715146028
 30
0.0
 10
10.9405880625
 20
21.1776438445
 30
0.0
 10
10.9113390612
 20
21.1834079718
 30
0.0
 10
10.8655293964
 20
21.1908496775
 30
0.0
 10
10.8008435583
 20
21.1985776625
 30
0.0
 10
10.6840492612
 20
21.2078513416
 30
0.0
 10
10.5921894011
 20
21.2105549635
 30
0.0
 10
10.5290420874
 20
21.2107174909
 30
0.0
  0
SPLINE
  5
711
100
AcDbEntity
  8
RACCORDO
100
AcDbSpline
 62
250
  6
CONTINUOUS
 70
0
 71
3
 72
23
 73
19
 74
0
 42
0.0000001
 43
0.0000001
 44
0.0000000001
 40
0.0
 40
0.0
 40
0.0
 40
0.0
 40
0.0022236931
 40
0.006692322
 40
0.0134667193
 40
0.022548768
 40
0.0339218787
 40
0.0475646646
 40
0.0815288317
 40
0.1241309447
 40
0.174972948
 40
0.2335780002
 40
0.2993962122
 40
0.3718093415
 40
0.4501355968
 40
0.6215295964
 40
0.8071384882
 40
1.0
 40
1.0
 40
1.0
 40
1.0
 10
11.0117810505
 20
9.4905
 30
0.0
 10
11.0115302618
 20
9.4907731183
 30
0.0
 10
11.0103674708
 20
9.4910668022
 30
0.0
 10
11.008230148
 20
9.4915230193
 30
0.0
 10
11.0048325987
 20
9.4919370784
 30
0.0
 10
11.0003278191
 20
9.4923857585
 30
0.0
 10
10.9946535004
 20
9.4928236226
 30
0.0
 10
10.9848413335
 20
9.4934561775
 30
0.0
 10
10.9698151794
 20
9.4941956196
 30
0.0
 10
10.9485863476
 20
9.4950108278
 30
0.0
 10
10.9232440695
 20
9.4957886426
 30
0.0
 10
10.8940282585
 20
9.4965217852
 30
0.0
 10
10.8612132683
 20
9.4972010572
 30
0.0
 10
10.8251081494
 20
9.4978196094
 30
0.0
 10
10.771398605
 20
9.4985774421
 30
0.0
 10
10.6988121192
 20
9.4993113586
 30
0.0
 10
10.6071251961
 20
9.4998538643
 30
0.0
 10
10.5440163078
 20
9.4999893365
 30
0.0
 10
10.5118572029
 20
9.5
 30
0.0
  0
SPLINE
  5
712
100
AcDbEntity
  8
RACCORDO
100
AcDbSpline
 62
250
  6
CONTINUOUS
 70
0
 71
3
 72
9
 73
5
 74
0
 42
0.0000001
 43
0.0000001
 44
0.0000000001
 40
0.0
 40
0.0
 40
0.0
 40
0.0
 40
0.2499887187
 40
1.0
 40
1.0
 40
1.0
 40
1.0
 10
10.5118572029
 20
9.5
 30
0.0
 10
10.5113325507
 20
7.9167381853
 30
0.0
 10
10.509758711
 20
1.5834049715
 30
0.0
 10
10.5102831515
 20
-4.7499287639
 30
0.0
 10
10.5118572029
 20
-9.5
 30
0.0
  0
SPLINE
  5
713
100
AcDbEntity
  8
RACCORDO
100
AcDbSpline
 62
250
  6
CONTINUOUS
 70
0
 71
3
 72
9
 73
5
 74
0
 42
0.0000001
 43
0.0000001
 44
0.0000000001
 40
0.0
 40
0.0
 40
0.0
 40
0.0
 40
0.2499887187
 40
1.0
 40
1.0
 40
1.0
 40
1.0
 10
11.0117810505
 20
9.4905
 30
0.0
 10
11.0112563982
 20
7.9088214473
 30
0.0
 10
11.0096825586
 20
1.5818215669
 30
0.0
 10
11.0102069991
 20
-4.7451788356
 30
0.0
 10
11.0117810505
 20
-9.4905
 30
0.0
  0
SPLINE
  5
714
100
AcDbEntity
  8
RACCORDO
100
AcDbSpline
 62
250
  6
CONTINUOUS
 70
0
 71
3
 72
23
 73
19
 74
0
 42
0.0000001
 43
0.0000001
 44
0.0000000001
 40
0.0
 40
0.0
 40
0.0
 40
0.0
 40
0.0022236932
 40
0.0066923223
 40
0.0134667197
 40
0.0225487685
 40
0.0339218793
 40
0.0475646653
 40
0.0815288325
 40
0.1241309457
 40
0.174972949
 40
0.2335780012
 40
0.2993962132
 40
0.3718093425
 40
0.4501355977
 40
0.6215295971
 40
0.8071384885
 40
1.0
 40
1.0
 40
1.0
 40
1.0
 10
11.0117810505
 20
-9.4905
 30
0.0
 10
11.0115302618
 20
-9.4907731183
 30
0.0
 10
11.0103674707
 20
-9.4910668022
 30
0.0
 10
11.0082301478
 20
-9.4915230193
 30
0.0
 10
11.0048325985
 20
-9.4919370784
 30
0.0
 10
11.0003278188
 20
-9.4923857585
 30
0.0
 10
10.9946535001
 20
-9.4928236226
 30
0.0
 10
10.9848413332
 20
-9.4934561775
 30
0.0
 10
10.969815179
 20
-9.4941956196
 30
0.0
 10
10.9485863471
 20
-9.4950108278
 30
0.0
 10
10.923244069
 20
-9.4957886426
 30
0.0
 10
10.894028258
 20
-9.4965217851
 30
0.0
 10
10.8612132677
 20
-9.4972010572
 30
0.0
 10
10.8251081489
 20
-9.4978196094
 30
0.0
 10
10.7713986045
 20
-9.498577442
 30
0.0
 10
10.6988121188
 20
-9.4993113586
 30
0.0
 10
10.607125196
 20
-9.4998538643
 30
0.0
 10
10.5440163077
 20
-9.4999893364
 30
0.0
 10
10.5118572029
 20
-9.5
 30
0.0
  0
SPLINE
  5
715
100
AcDbEntity
  8
RACCORDO
100
AcDbSpline
 62
250
  6
CONTINUOUS
 70
0
 71
3
 72
19
 73
15
 74
0
 42
0.0000001
 43
0.0000001
 44
0.0000000001
 40
0.0
 40
0.0
 40
0.0
 40
0.0
 40
0.1955462707
 40
0.3802559505
 40
0.548739146
 40
0.6960786037
 40
0.7604489345
 40
0.8179778081
 40
0.8682460434
 40
0.9108882366
 40
0.9455958169
 40
0.972121087
 40
0.9902839853
 40
1.0
 40
1.0
 40
1.0
 40
1.0
 10
11.028965935
 20
-21.1361579495
 30
0.0
 10
11.029038856
 20
-21.1638569301
 30
0.0
 10
11.0292607854
 20
-21.217719725
 30
0.0
 10
11.0298345386
 20
-21.295446526
 30
0.0
 10
11.0306251037
 20
-21.3663425397
 30
0.0
 10
11.0314740608
 20
-21.420190458
 30
0.0
 10
11.0322667545
 20
-21.4583197814
 30
0.0
 10
11.0328705632
 20
-21.4827001026
 30
0.0
 10
11.0335082066
 20
-21.5039996222
 30
0.0
 10
11.0341645878
 20
-21.5220670736
 30
0.0
 10
11.034857315
 20
-21.5367592521
 30
0.0
 10
11.0355080054
 20
-21.5480012177
 30
0.0
 10
11.0362490403
 20
-21.5556463681
 30
0.0
 10
11.036704354
 20
-21.5596073816
 30
0.0
 10
11.0371391233
 20
-21.5609131753
 30
0.0
  0
SPLINE
  5
716
100
AcDbEntity
  8
RACCORDO
100
AcDbSpline
 62
250
  6
CONTINUOUS
 70
0
 71
3
 72
20
 73
16
 74
0
 42
0.0000001
 43
0.0000001
 44
0.0000000001
 40
0.0
 40
0.0
 40
0.0
 40
0.0
 40
0.1956011191
 40
0.3803627348
 40
0.5488925806
 40
0.6962694076
 40
0.7606531461
 40
0.8181907184
 40
0.8684617413
 40
0.9110991116
 40
0.9457918835
 40
0.9722877392
 40
0.9903965435
 40
0.9962651496
 40
1.0
 40
1.0
 40
1.0
 40
1.0
 10
10.5290420874
 20
-21.2107174911
 30
0.0
 10
10.5291150148
 20
-21.2661122989
 30
0.0
 10
10.5293368899
 20
-21.3738320508
 30
0.0
 10
10.5299106293
 20
-21.5292791861
 30
0.0
 10
10.53070107
 20
-21.6710679157
 30
0.0
 10
10.5315501614
 20
-21.7787641678
 30
0.0
 10
10.5323425565
 20
-21.8550261876
 30
0.0
 10
10.5329471007
 20
-21.9037878635
 30
0.0
 10
10.5335824562
 20
-21.9463900508
 30
0.0
 10
10.5342454814
 20
-21.9825208491
 30
0.0
 10
10.5349198209
 20
-22.0119178318
 30
0.0
 10
10.5356159865
 20
-22.0343629707
 30
0.0
 10
10.5362144766
 20
-22.0486483255
 30
0.0
 10
10.5367713842
 20
-22.0564750969
 30
0.0
 10
10.5370415758
 20
-22.0591845813
 30
0.0
 10
10.5372152757
 20
-22.0602279426
 30
0.0
  0
SPLINE
  5
717
100
AcDbEntity
  8
RACCORDO
100
AcDbSpline
 62
250
  6
CONTINUOUS
 70
0
 71
3
 72
19
 73
15
 74
0
 42
0.0000001
 43
0.0000001
 44
0.0000000001
 40
0.0
 40
0.0
 40
0.0
 40
0.0
 40
0.0153639339
 40
0.0249222428
 40
0.0361141794
 40
0.0639529124
 40
0.0995046035
 40
0.1428225017
 40
0.1937089787
 40
0.2518133396
 40
0.3166747774
 40
0.4643885704
 40
0.6316517036
 40
1.0
 40
1.0
 40
1.0
 40
1.0
 10
11.028965935
 20
-21.1361579495
 30
0.0
 10
11.0286631792
 20
-21.1387743956
 30
0.0
 10
11.0265972099
 20
-21.1428155666
 30
0.0
 10
11.0223018905
 20
-21.1472591057
 30
0.0
 10
11.0156894665
 20
-21.1523817078
 30
0.0
 10
11.0043513107
 20
-21.1584259334
 30
0.0
 10
10.987294694
 20
-21.1650895909
 30
0.0
 10
10.9659783637
 20
-21.1715145896
 30
0.0
 10
10.9405879991
 20
-21.1776438283
 30
0.0
 10
10.911338994
 20
-21.1834079527
 30
0.0
 10
10.8655293289
 20
-21.190849654
 30
0.0
 10
10.8008434969
 20
-21.1985776342
 30
0.0
 10
10.6840492228
 20
-21.2078513067
 30
0.0
 10
10.5921893845
 20
-21.2105549267
 30
0.0
 10
10.5290420874
 20
-21.2107174539
 30
0.0
  0
SPLINE
  5
718
100
AcDbEntity
  8
RACCORDO
100
AcDbSpline
 62
250
  6
CONTINUOUS
 70
0
 71
3
 72
27
 73
23
 74
0
 42
0.0000001
 43
0.0000001
 44
0.0000000001
 40
0.0
 40
0.0
 40
0.0
 40
0.0
 40
0.062475995
 40
0.0937533398
 40
0.1250315722
 40
0.1875135942
 40
0.2499949849
 40
0.2812734011
 40
0.3125518637
 40
0.3750338898
 40
0.4375165276
 40
0.4999996285
 40
0.5624827254
 40
0.6249653551
 40
0.6874473784
 40
0.7187258447
 40
0.7500042612
 40
0.8124856689
 40
0.8749676235
 40
0.9062459486
 40
0.9375235812
 40
1.0
 40
1.0
 40
1.0
 40
1.0
 10
-0.0
 20
6.8468718661
 30
0.0
 10
0.447173298
 20
6.8468684428
 30
0.0
 10
1.1206389112
 20
6.7804435742
 30
0.0
 10
1.9896375475
 20
6.5623553907
 30
0.0
 10
2.8334316221
 20
6.2601622732
 30
0.0
 10
3.8262294834
 20
5.729014609
 30
0.0
 10
4.6960357194
 20
5.0139964835
 30
0.0
 10
5.2974117614
 20
4.3494916333
 30
0.0
 10
5.8309078986
 20
3.6293749541
 30
0.0
 10
6.3613269648
 20
2.635986997
 30
0.0
 10
6.7526924077
 20
1.3438488488
 30
0.0
 10
6.8849168855
 20
0.0000080486
 30
0.0
 10
6.7526954933
 20
-1.3438329943
 30
0.0
 10
6.3613331118
 20
-2.6359719519
 30
0.0
 10
5.830916442
 20
-3.6293611274
 30
0.0
 10
5.297422029
 20
-4.3494790927
 30
0.0
 10
4.6960474898
 20
-5.0139855074
 30
0.0
 10
3.8262432175
 20
-5.7290054452
 30
0.0
 10
2.8334464702
 20
-6.2601558224
 30
0.0
 10
1.9896509499
 20
-6.5623515823
 30
0.0
 10
1.1206471107
 20
-6.7804428261
 30
0.0
 10
0.4471763317
 20
-6.8468683836
 30
0.0
 10
-0.0
 20
-6.8468718661
 30
0.0
  0
SPLINE
  5
719
100
AcDbEntity
  8
RACCORDO
100
AcDbSpline
 62
250
  6
CONTINUOUS
 70
0
 71
3
 72
27
 73
23
 74
0
 42
0.0000001
 43
0.0000001
 44
0.0000000001
 40
0.0
 40
0.0
 40
0.0
 40
0.0
 40
0.0624760075
 40
0.0937533557
 40
0.1250315883
 40
0.1875136071
 40
0.2499949954
 40
0.2812734103
 40
0.3125518716
 40
0.3750338957
 40
0.4375165297
 40
0.499999649
 40
0.5624827629
 40
0.6249653889
 40
0.6874474102
 40
0.7187258752
 40
0.7500042905
 40
0.8124856956
 40
0.8749676484
 40
0.9062459708
 40
0.9375235976
 40
1.0
 40
1.0
 40
1.0
 40
1.0
 10
-0.0
 20
-6.8468718661
 30
0.0
 10
-0.4471733876
 20
-6.8468684371
 30
0.0
 10
-1.1206391158
 20
-6.780443548
 30
0.0
 10
-1.9896378549
 20
-6.5623552982
 30
0.0
 10
-2.8334319158
 20
-6.2601621337
 30
0.0
 10
-3.826229719
 20
-5.7290144439
 30
0.0
 10
-4.6960358893
 20
-5.0139963165
 30
0.0
 10
-5.2974118865
 20
-4.3494914741
 30
0.0
 10
-5.8309079839
 20
-3.6293748079
 30
0.0
 10
-6.3613270045
 20
-2.6359868844
 30
0.0
 10
-6.7526924579
 20
-1.3438486457
 30
0.0
 10
-6.8849169109
 20
-0.0000076084
 30
0.0
 10
-6.75269538
 20
1.343833655
 30
0.0
 10
-6.3613328291
 20
2.6359726455
 30
0.0
 10
-5.8309160806
 20
3.6293617222
 30
0.0
 10
-5.297421615
 20
4.3494796088
 30
0.0
 10
-4.6960470367
 20
5.0139859392
 30
0.0
 10
-3.8262427312
 20
5.7290057716
 30
0.0
 10
-2.8334459863
 20
6.2601560445
 30
0.0
 10
-1.9896505117
 20
6.5623517125
 30
0.0
 10
-1.1206468329
 20
6.7804428603
 30
0.0
 10
-0.4471762141
 20
6.8468683899
 30
0.0
 10
-0.0
 20
6.8468718661
 30
0.0
  0
SPLINE
  5
71A
100
AcDbEntity
  8
SUPERFICI
100
AcDbSpline
 62
250
  6
CONTINUOUS
 70
0
 71
3
 72
11
 73
7
 74
0
 42
0.0000001
 43
0.0000001
 44
0.0000000001
 40
0.0
 40
0.0
 40
0.0
 40
0.0
 40
0.2331623084
 40
0.476670585
 40
0.7338116789
 40
1.0
 40
1.0
 40
1.0
 40
1.0
 10
10.1369014213
 20
23.8443375673
 30
0.0
 10
10.1368063495
 20
23.8160323825
 30
0.0
 10
10.1228764917
 20
23.7574892432
 30
0.0
 10
10.0659440676
 20
23.6858281285
 30
0.0
 10
9.9832760274
 20
23.6388299314
 30
0.0
 10
9.9192201727
 20
23.6279126229
 30
0.0
 10
9.8869056521
 20
23.6278312164
 30
0.0
  0
SPLINE
  5
71B
100
AcDbEntity
  8
SUPERFICI
100
AcDbSpline
 62
7
  6
CONTINUOUS
 70
0
 71
3
 72
13
 73
9
 74
0
 42
0.0000001
 43
0.0000001
 44
0.0000000001
 40
0.0
 40
0.0
 40
0.0
 40
0.0
 40
0.3260521389
 40
0.605103046
 40
0.7216768541
 40
0.8239470167
 40
0.9151089552
 40
1.0
 40
1.0
 40
1.0
 40
1.0
 10
9.8927234819
 20
23.1226497308
 30
0.0
 10
9.9268339208
 20
23.1226497308
 30
0.0
 10
9.9903374823
 20
23.1303404936
 30
0.0
 10
10.0618989502
 20
23.1579699312
 30
0.0
 10
10.104100627
 20
23.1890075819
 30
0.0
 10
10.1258945542
 20
23.2134115332
 30
0.0
 10
10.1393988037
 20
23.2396108244
 30
0.0
 10
10.142629766
 20
23.2581067436
 30
0.0
 10
10.1427192511
 20
23.2669872981
 30
0.0
  0
SPLINE
  5
71C
100
AcDbEntity
  8
SUPERFICI
100
AcDbSpline
 62
7
  6
CONTINUOUS
 70
0
 71
3
 72
13
 73
9
 74
0
 42
0.0000001
 43
0.0000001
 44
0.0000000001
 40
0.0
 40
0.0
 40
0.0
 40
0.0
 40
0.0848440362
 40
0.1759755807
 40
0.278241715
 40
0.3948395492
 40
0.6739816576
 40
1.0
 40
1.0
 40
1.0
 40
1.0
 10
7.2572807489
 20
23.2669872981
 30
0.0
 10
7.2573703905
 20
23.2580912117
 30
0.0
 10
7.2606130596
 20
23.2395605855
 30
0.0
 10
7.2741650471
 20
23.2133182791
 30
0.0
 10
7.2960338861
 20
23.1888806294
 30
0.0
 10
7.338378653
 20
23.1578162275
 30
0.0
 10
7.4101493717
 20
23.130184663
 30
0.0
 10
7.4738182612
 20
23.1226497308
 30
0.0
 10
7.5080037468
 20
23.1226497308
 30
0.0
  0
SPLINE
  5
71D
100
AcDbEntity
  8
SUPERFICI
100
AcDbSpline
 62
250
  6
CONTINUOUS
 70
0
 71
3
 72
11
 73
7
 74
0
 42
0.0000001
 43
0.0000001
 44
0.0000000001
 40
0.0
 40
0.0
 40
0.0
 40
0.0
 40
0.2331623084
 40
0.476670585
 40
0.7338116789
 40
1.0
 40
1.0
 40
1.0
 40
1.0
 10
7.2630985787
 20
23.8443375673
 30
0.0
 10
7.2631936505
 20
23.8160323825
 30
0.0
 10
7.2771235083
 20
23.7574892432
 30
0.0
 10
7.3340559324
 20
23.6858281285
 30
0.0
 10
7.4167239726
 20
23.6388299314
 30
0.0
 10
7.4807798273
 20
23.6279126229
 30
0.0
 10
7.5130943479
 20
23.6278312164
 30
0.0
  0
SPLINE
  5
71E
100
AcDbEntity
  8
SUPERFICI
100
AcDbSpline
 62
250
  6
CONTINUOUS
 70
0
 71
3
 72
11
 73
7
 74
0
 42
0.0000001
 43
0.0000001
 44
0.0000000001
 40
0.0
 40
0.0
 40
0.0
 40
0.0
 40
0.2331622206
 40
0.4766705204
 40
0.7338116472
 40
1.0
 40
1.0
 40
1.0
 40
1.0
 10
-7.2630985787
 20
23.8443375673
 30
0.0
 10
-7.2631936505
 20
23.8160323931
 30
0.0
 10
-7.2771234989
 20
23.7574892617
 30
0.0
 10
-7.3340559138
 20
23.6858281428
 30
0.0
 10
-7.4167239605
 20
23.6388299344
 30
0.0
 10
-7.4807798234
 20
23.6279126229
 30
0.0
 10
-7.5130943479
 20
23.6278312164
 30
0.0
  0
SPLINE
  5
71F
100
AcDbEntity
  8
SUPERFICI
100
AcDbSpline
 62
7
  6
CONTINUOUS
 70
0
 71
3
 72
13
 73
9
 74
0
 42
0.0000001
 43
0.0000001
 44
0.0000000001
 40
0.0
 40
0.0
 40
0.0
 40
0.0
 40
0.0848440362
 40
0.1759755807
 40
0.278241715
 40
0.3948395492
 40
0.6739816576
 40
1.0
 40
1.0
 40
1.0
 40
1.0
 10
-7.2572807489
 20
23.2669872981
 30
0.0
 10
-7.2573703905
 20
23.2580912117
 30
0.0
 10
-7.2606130596
 20
23.2395605855
 30
0.0
 10
-7.2741650471
 20
23.2133182791
 30
0.0
 10
-7.2960338861
 20
23.1888806294
 30
0.0
 10
-7.338378653
 20
23.1578162275
 30
0.0
 10
-7.4101493717
 20
23.130184663
 30
0.0
 10
-7.4738182612
 20
23.1226497308
 30
0.0
 10
-7.5080037468
 20
23.1226497308
 30
0.0
  0
SPLINE
  5
720
100
AcDbEntity
  8
SUPERFICI
100
AcDbSpline
 62
7
  6
CONTINUOUS
 70
0
 71
3
 72
13
 73
9
 74
0
 42
0.0000001
 43
0.0000001
 44
0.0000000001
 40
0.0
 40
0.0
 40
0.0
 40
0.0
 40
0.3260521389
 40
0.605103046
 40
0.7216768541
 40
0.8239470167
 40
0.9151089552
 40
1.0
 40
1.0
 40
1.0
 40
1.0
 10
7.5072765181
 20
-23.1226497308
 30
0.0
 10
7.4731660792
 20
-23.1226497308
 30
0.0
 10
7.4096625177
 20
-23.1303404936
 30
0.0
 10
7.3381010498
 20
-23.1579699312
 30
0.0
 10
7.295899373
 20
-23.1890075819
 30
0.0
 10
7.2741054458
 20
-23.2134115332
 30
0.0
 10
7.2606011963
 20
-23.2396108244
 30
0.0
 10
7.257370234
 20
-23.2581067436
 30
0.0
 10
7.2572807489
 20
-23.2669872981
 30
0.0
  0
SPLINE
  5
721
100
AcDbEntity
  8
SUPERFICI
100
AcDbSpline
 62
7
  6
CONTINUOUS
 70
0
 71
3
 72
13
 73
9
 74
0
 42
0.0000001
 43
0.0000001
 44
0.0000000001
 40
0.0
 40
0.0
 40
0.0
 40
0.0
 40
0.0848440362
 40
0.1759755807
 40
0.278241715
 40
0.3948395492
 40
0.6739816576
 40
1.0
 40
1.0
 40
1.0
 40
1.0
 10
-10.1427192511
 20
23.2669872981
 30
0.0
 10
-10.1426296095
 20
23.2580912117
 30
0.0
 10
-10.1393869404
 20
23.2395605855
 30
0.0
 10
-10.1258349529
 20
23.2133182791
 30
0.0
 10
-10.1039661139
 20
23.1888806294
 30
0.0
 10
-10.061621347
 20
23.1578162275
 30
0.0
 10
-9.9898506283
 20
23.130184663
 30
0.0
 10
-9.9261817388
 20
23.1226497308
 30
0.0
 10
-9.8919962532
 20
23.1226497308
 30
0.0
  0
SPLINE
  5
722
100
AcDbEntity
  8
SUPERFICI
100
AcDbSpline
 62
250
  6
CONTINUOUS
 70
0
 71
3
 72
11
 73
7
 74
0
 42
0.0000001
 43
0.0000001
 44
0.0000000001
 40
0.0
 40
0.0
 40
0.0
 40
0.0
 40
0.2331623084
 40
0.476670585
 40
0.7338116789
 40
1.0
 40
1.0
 40
1.0
 40
1.0
 10
-10.1369014213
 20
23.8443375673
 30
0.0
 10
-10.1368063495
 20
23.8160323825
 30
0.0
 10
-10.1228764917
 20
23.7574892432
 30
0.0
 10
-10.0659440676
 20
23.6858281285
 30
0.0
 10
-9.9832760274
 20
23.6388299314
 30
0.0
 10
-9.9192201727
 20
23.6279126229
 30
0.0
 10
-9.8869056521
 20
23.6278312164
 30
0.0
  0
SPLINE
  5
723
100
AcDbEntity
  8
SUPERFICI
100
AcDbSpline
 62
250
  6
CONTINUOUS
 70
0
 71
3
 72
11
 73
7
 74
0
 42
0.0000001
 43
0.0000001
 44
0.0000000001
 40
0.0
 40
0.0
 40
0.0
 40
0.0
 40
0.2331622206
 40
0.4766705204
 40
0.7338116472
 40
1.0
 40
1.0
 40
1.0
 40
1.0
 10
-10.1369014213
 20
-23.8443375673
 30
0.0
 10
-10.1368063495
 20
-23.8160323931
 30
0.0
 10
-10.1228765011
 20
-23.7574892617
 30
0.0
 10
-10.0659440862
 20
-23.6858281428
 30
0.0
 10
-9.9832760395
 20
-23.6388299344
 30
0.0
 10
-9.9192201766
 20
-23.6279126229
 30
0.0
 10
-9.8869056521
 20
-23.6278312164
 30
0.0
  0
SPLINE
  5
724
100
AcDbEntity
  8
SUPERFICI
100
AcDbSpline
 62
7
  6
CONTINUOUS
 70
0
 71
3
 72
13
 73
9
 74
0
 42
0.0000001
 43
0.0000001
 44
0.0000000001
 40
0.0
 40
0.0
 40
0.0
 40
0.0
 40
0.0848440362
 40
0.1759755807
 40
0.278241715
 40
0.3948395492
 40
0.6739816576
 40
1.0
 40
1.0
 40
1.0
 40
1.0
 10
-10.1427192511
 20
-23.2669872981
 30
0.0
 10
-10.1426296095
 20
-23.2580912117
 30
0.0
 10
-10.1393869404
 20
-23.2395605855
 30
0.0
 10
-10.1258349529
 20
-23.2133182791
 30
0.0
 10
-10.1039661139
 20
-23.1888806294
 30
0.0
 10
-10.061621347
 20
-23.1578162275
 30
0.0
 10
-9.9898506283
 20
-23.130184663
 30
0.0
 10
-9.9261817388
 20
-23.1226497308
 30
0.0
 10
-9.8919962532
 20
-23.1226497308
 30
0.0
  0
SPLINE
  5
725
100
AcDbEntity
  8
SUPERFICI
100
AcDbSpline
 62
7
  6
CONTINUOUS
 70
0
 71
3
 72
13
 73
9
 74
0
 42
0.0000001
 43
0.0000001
 44
0.0000000001
 40
0.0
 40
0.0
 40
0.0
 40
0.0
 40
0.0848440362
 40
0.1759755807
 40
0.278241715
 40
0.3948395492
 40
0.6739816576
 40
1.0
 40
1.0
 40
1.0
 40
1.0
 10
-7.2572807489
 20
-23.2669872981
 30
0.0
 10
-7.2573703905
 20
-23.2580912117
 30
0.0
 10
-7.2606130596
 20
-23.2395605855
 30
0.0
 10
-7.2741650471
 20
-23.2133182791
 30
0.0
 10
-7.2960338861
 20
-23.1888806294
 30
0.0
 10
-7.338378653
 20
-23.1578162275
 30
0.0
 10
-7.4101493717
 20
-23.130184663
 30
0.0
 10
-7.4738182612
 20
-23.1226497308
 30
0.0
 10
-7.5080037468
 20
-23.1226497308
 30
0.0
  0
SPLINE
  5
726
100
AcDbEntity
  8
SUPERFICI
100
AcDbSpline
 62
250
  6
CONTINUOUS
 70
0
 71
3
 72
11
 73
7
 74
0
 42
0.0000001
 43
0.0000001
 44
0.0000000001
 40
0.0
 40
0.0
 40
0.0
 40
0.0
 40
0.2331623084
 40
0.476670585
 40
0.7338116789
 40
1.0
 40
1.0
 40
1.0
 40
1.0
 10
-7.2630985787
 20
-23.8443375673
 30
0.0
 10
-7.2631936505
 20
-23.8160323825
 30
0.0
 10
-7.2771235083
 20
-23.7574892432
 30
0.0
 10
-7.3340559324
 20
-23.6858281285
 30
0.0
 10
-7.4167239726
 20
-23.6388299314
 30
0.0
 10
-7.4807798273
 20
-23.6279126229
 30
0.0
 10
-7.5130943479
 20
-23.6278312164
 30
0.0
  0
SPLINE
  5
727
100
AcDbEntity
  8
SUPERFICI
100
AcDbSpline
 62
250
  6
CONTINUOUS
 70
0
 71
3
 72
11
 73
7
 74
0
 42
0.0000001
 43
0.0000001
 44
0.0000000001
 40
0.0
 40
0.0
 40
0.0
 40
0.0
 40
0.2331623084
 40
0.476670585
 40
0.7338116789
 40
1.0
 40
1.0
 40
1.0
 40
1.0
 10
7.2630985787
 20
-23.8443375673
 30
0.0
 10
7.2631936505
 20
-23.8160323825
 30
0.0
 10
7.2771235083
 20
-23.7574892432
 30
0.0
 10
7.3340559324
 20
-23.6858281285
 30
0.0
 10
7.4167239726
 20
-23.6388299314
 30
0.0
 10
7.4807798273
 20
-23.6279126229
 30
0.0
 10
7.5130943479
 20
-23.6278312164
 30
0.0
  0
SPLINE
  5
728
100
AcDbEntity
  8
SUPERFICI
100
AcDbSpline
 62
7
  6
CONTINUOUS
 70
0
 71
3
 72
13
 73
9
 74
0
 42
0.0000001
 43
0.0000001
 44
0.0000000001
 40
0.0
 40
0.0
 40
0.0
 40
0.0
 40
0.0848440362
 40
0.1759755807
 40
0.278241715
 40
0.3948395492
 40
0.6739816576
 40
1.0
 40
1.0
 40
1.0
 40
1.0
 10
10.1427192511
 20
-23.2669872981
 30
0.0
 10
10.1426296095
 20
-23.2580912117
 30
0.0
 10
10.1393869404
 20
-23.2395605855
 30
0.0
 10
10.1258349529
 20
-23.2133182791
 30
0.0
 10
10.1039661139
 20
-23.1888806294
 30
0.0
 10
10.061621347
 20
-23.1578162275
 30
0.0
 10
9.9898506283
 20
-23.130184663
 30
0.0
 10
9.9261817388
 20
-23.1226497308
 30
0.0
 10
9.8919962532
 20
-23.1226497308
 30
0.0
  0
SPLINE
  5
729
100
AcDbEntity
  8
SUPERFICI
100
AcDbSpline
 62
250
  6
CONTINUOUS
 70
0
 71
3
 72
11
 73
7
 74
0
 42
0.0000001
 43
0.0000001
 44
0.0000000001
 40
0.0
 40
0.0
 40
0.0
 40
0.0
 40
0.2331623162
 40
0.4766706026
 40
0.7338117062
 40
1.0
 40
1.0
 40
1.0
 40
1.0
 10
10.1369014213
 20
-23.8443375673
 30
0.0
 10
10.1368063495
 20
-23.8160323815
 30
0.0
 10
10.1228764906
 20
-23.7574892401
 30
0.0
 10
10.0659440627
 20
-23.685828124
 30
0.0
 10
9.9832760219
 20
-23.6388299294
 30
0.0
 10
9.9192201694
 20
-23.6279126229
 30
0.0
 10
9.8869056521
 20
-23.6278312164
 30
0.0
  0
SPLINE
  5
72A
100
AcDbEntity
  8
RACCORDO
100
AcDbSpline
 62
250
  6
CONTINUOUS
 70
0
 71
3
 72
9
 73
5
 74
0
 42
0.0000001
 43
0.0000001
 44
0.0000000001
 40
0.0
 40
0.0
 40
0.0
 40
0.0
 40
0.4977725169
 40
1.0
 40
1.0
 40
1.0
 40
1.0
 10
-21.4983367983
 20
-18.2166171594
 30
0.0
 10
-21.4983367983
 20
-18.2391158164
 30
0.0
 10
-21.5014018182
 20
-18.2843658351
 30
0.0
 10
-21.5104963444
 20
-18.3287911682
 30
0.0
 10
-21.5164767913
 20
-18.3506892266
 30
0.0
  0
SPLINE
  5
72B
100
AcDbEntity
  8
RACCORDO
100
AcDbSpline
 62
250
  6
CONTINUOUS
 70
0
 71
3
 72
16
 73
12
 74
0
 42
0.0000001
 43
0.0000001
 44
0.0000000001
 40
0.0
 40
0.0
 40
0.0
 40
0.0
 40
0.0516458785
 40
0.1043732496
 40
0.2138823246
 40
0.3300261451
 40
0.4532291246
 40
0.5831014768
 40
0.7185967895
 40
0.8581817655
 40
1.0
 40
1.0
 40
1.0
 40
1.0
 10
-21.5164767913
 20
-18.3506892266
 30
0.0
 10
-21.5219029769
 20
-18.3705577967
 30
0.0
 10
-21.5352412407
 20
-18.410103344
 30
0.0
 10
-21.5714433034
 20
-18.4874943377
 30
0.0
 10
-21.6346492865
 20
-18.5798016329
 30
0.0
 10
-21.7342000986
 20
-18.6780141617
 30
0.0
 10
-21.8554450036
 20
-18.7626713502
 30
0.0
 10
-21.9948708454
 20
-18.8314993823
 30
0.0
 10
-22.1485402446
 20
-18.8826760845
 30
0.0
 10
-22.3120798706
 20
-18.9148069546
 30
0.0
 10
-22.424332064
 20
-18.9229182424
 30
0.0
 10
-22.4808843919
 20
-18.9236162448
 30
0.0
  0
SPLINE
  5
72C
100
AcDbEntity
  8
RACCORDO
100
AcDbSpline
 62
250
  6
CONTINUOUS
 70
0
 71
3
 72
17
 73
13
 74
0
 42
0.0000001
 43
0.0000001
 44
0.0000000001
 40
0.0
 40
0.0
 40
0.0
 40
0.0
 40
0.0515908929
 40
0.1036598923
 40
0.156657205
 40
0.2109737202
 40
0.3245653768
 40
0.4461449403
 40
0.5758593351
 40
0.7127219469
 40
0.8548996392
 40
1.0
 40
1.0
 40
1.0
 40
1.0
 10
-21.4983367983
 20
18.3943840357
 30
0.0
 10
-21.4983367983
 20
18.4172850541
 30
0.0
 10
-21.5015157527
 20
18.46336102
 30
0.0
 10
-21.515744478
 20
18.531633381
 30
0.0
 10
-21.5392889979
 20
18.5985695098
 30
0.0
 10
-21.5833804735
 20
18.686409046
 30
0.0
 10
-21.6617032474
 20
18.7898180822
 30
0.0
 10
-21.7850769353
 20
18.8962878868
 30
0.0
 10
-21.9345318096
 20
18.9837295661
 30
0.0
 10
-22.1045486558
 20
19.0491455783
 30
0.0
 10
-22.2888951331
 20
19.090313009
 30
0.0
 10
-22.4164797507
 20
19.1005882007
 30
0.0
 10
-22.4808843919
 20
19.1013831211
 30
0.0
  0
SPLINE
  5
72D
100
AcDbEntity
  8
RACCORDO
100
AcDbSpline
 62
250
  6
CONTINUOUS
 70
0
 71
3
 72
26
 73
22
 74
0
 42
0.0000001
 43
0.0000001
 44
0.0000000001
 40
0.0
 40
0.0
 40
0.0
 40
0.0
 40
0.0003971256
 40
0.0012254039
 40
0.0043670231
 40
0.0095380282
 40
0.0167493193
 40
0.0260005682
 40
0.0372878978
 40
0.0506063409
 40
0.0659483835
 40
0.1026655047
 40
0.1473539989
 40
0.1999069527
 40
0.2601981921
 40
0.3280839118
 40
0.4033998165
 40
0.4859654089
 40
0.5755829009
 40
0.7750869405
 40
1.0
 40
1.0
 40
1.0
 40
1.0
 10
-22.4808843919
 20
19.3942317309
 30
0.0
 10
-22.4808456192
 20
19.3942310541
 30
0.0
 10
-22.4807621159
 20
19.3941118959
 30
0.0
 10
-22.4806527123
 20
19.3937236222
 30
0.0
 10
-22.4805113299
 20
19.3928168314
 30
0.0
 10
-22.4803773598
 20
19.3913203983
 30
0.0
 10
-22.4802415593
 20
19.3892061028
 30
0.0
 10
-22.4801174815
 20
19.3865014645
 30
0.0
 10
-22.4800018492
 20
19.3831965239
 30
0.0
 10
-22.4798968957
 20
19.3792973545
 30
0.0
 10
-22.4797628381
 20
19.3729146013
 30
0.0
 10
-22.4796313429
 20
19.3634682462
 30
0.0
 10
-22.4795233236
 20
19.3503877999
 30
0.0
 10
-22.479459267
 20
19.33500511
 30
0.0
 10
-22.4794395203
 20
19.3173571305
 30
0.0
 10
-22.4794645959
 20
19.297486401
 30
0.0
 10
-22.4795345863
 20
19.2754407172
 30
0.0
 10
-22.4796494484
 20
19.2512731275
 30
0.0
 10
-22.4798703518
 20
19.2149791771
 30
0.0
 10
-22.4802637633
 20
19.1647860802
 30
0.0
 10
-22.4806598797
 20
19.1233443503
 30
0.0
 10
-22.4808843919
 20
19.1013831211
 30
0.0
  0
SPLINE
  5
72E
100
AcDbEntity
  8
RACCORDO
100
AcDbSpline
 62
250
  6
CONTINUOUS
 70
0
 71
3
 72
26
 73
22
 74
0
 42
0.0000001
 43
0.0000001
 44
0.0000000001
 40
0.0
 40
0.0
 40
0.0
 40
0.0
 40
0.2249130595
 40
0.4244170991
 40
0.5140345911
 40
0.5966001835
 40
0.6719160882
 40
0.7398018079
 40
0.8000930473
 40
0.8526460011
 40
0.8973344953
 40
0.9340516165
 40
0.9493936591
 40
0.9627121022
 40
0.9739994318
 40
0.9832506807
 40
0.9904619718
 40
0.9956329769
 40
0.9987745961
 40
0.9996028744
 40
1.0
 40
1.0
 40
1.0
 40
1.0
 10
-22.4808843919
 20
-19.1013831211
 30
0.0
 10
-22.4806598797
 20
-19.1233443503
 30
0.0
 10
-22.4802637633
 20
-19.1647860802
 30
0.0
 10
-22.4798703518
 20
-19.2149791771
 30
0.0
 10
-22.4796494484
 20
-19.2512731275
 30
0.0
 10
-22.4795345863
 20
-19.2754407172
 30
0.0
 10
-22.4794645959
 20
-19.297486401
 30
0.0
 10
-22.4794395203
 20
-19.3173571305
 30
0.0
 10
-22.479459267
 20
-19.33500511
 30
0.0
 10
-22.4795233236
 20
-19.3503877999
 30
0.0
 10
-22.4796313429
 20
-19.3634682462
 30
0.0
 10
-22.4797628381
 20
-19.3729146013
 30
0.0
 10
-22.4798968957
 20
-19.3792973545
 30
0.0
 10
-22.4800018492
 20
-19.3831965239
 30
0.0
 10
-22.4801174815
 20
-19.3865014645
 30
0.0
 10
-22.4802415593
 20
-19.3892061028
 30
0.0
 10
-22.4803773598
 20
-19.3913203983
 30
0.0
 10
-22.4805113299
 20
-19.3928168314
 30
0.0
 10
-22.4806527123
 20
-19.3937236222
 30
0.0
 10
-22.4807621159
 20
-19.3941118959
 30
0.0
 10
-22.4808456192
 20
-19.3942310541
 30
0.0
 10
-22.4808843919
 20
-19.3942317309
 30
0.0
  0
SPLINE
  5
72F
100
AcDbEntity
  8
RACCORDO
100
AcDbSpline
 62
250
  6
CONTINUOUS
 70
0
 71
3
 72
10
 73
6
 74
0
 42
0.0000001
 43
0.0000001
 44
0.0000000001
 40
0.0
 40
0.0
 40
0.0
 40
0.0
 40
0.541189103
 40
0.785688022
 40
1.0
 40
1.0
 40
1.0
 40
1.0
 10
-22.4808844011
 20
-17.5096157267
 30
0.0
 10
-22.4799623702
 20
-17.7646956097
 30
0.0
 10
-22.4792102389
 20
-18.1350184829
 30
0.0
 10
-22.4796498278
 20
-18.6063538399
 30
0.0
 10
-22.4803680891
 20
-18.822606809
 30
0.0
 10
-22.4808844032
 20
-18.9236182983
 30
0.0
  0
SPLINE
  5
730
100
AcDbEntity
  8
RACCORDO
100
AcDbSpline
 62
250
  6
CONTINUOUS
 70
0
 71
3
 72
10
 73
6
 74
0
 42
0.0000001
 43
0.0000001
 44
0.0000000001
 40
0.0
 40
0.0
 40
0.0
 40
0.0
 40
0.214311978
 40
0.458810897
 40
1.0
 40
1.0
 40
1.0
 40
1.0
 10
-22.4808844032
 20
18.9236182983
 30
0.0
 10
-22.4803680891
 20
18.822606809
 30
0.0
 10
-22.4796498278
 20
18.6063538399
 30
0.0
 10
-22.4792102389
 20
18.1350184829
 30
0.0
 10
-22.4799623702
 20
17.7646956097
 30
0.0
 10
-22.4808844011
 20
17.5096157267
 30
0.0
  0
SPLINE
  5
731
100
AcDbEntity
  8
RACCORDO
100
AcDbSpline
 62
250
  6
CONTINUOUS
 70
0
 71
3
 72
9
 73
5
 74
0
 42
0.0000001
 43
0.0000001
 44
0.0000000001
 40
0.0
 40
0.0
 40
0.0
 40
0.0
 40
0.497772517
 40
1.0
 40
1.0
 40
1.0
 40
1.0
 10
-21.4983367983
 20
18.2166171594
 30
0.0
 10
-21.4983367983
 20
18.2391158162
 30
0.0
 10
-21.5014018182
 20
18.2843658345
 30
0.0
 10
-21.5104963441
 20
18.3287911672
 30
0.0
 10
-21.5164767909
 20
18.3506892253
 30
0.0
  0
SPLINE
  5
732
100
AcDbEntity
  8
RACCORDO
100
AcDbSpline
 62
250
  6
CONTINUOUS
 70
0
 71
3
 72
16
 73
12
 74
0
 42
0.0000001
 43
0.0000001
 44
0.0000000001
 40
0.0
 40
0.0
 40
0.0
 40
0.0
 40
0.0516458785
 40
0.1043732496
 40
0.2138823245
 40
0.3300261451
 40
0.4532291245
 40
0.5831014767
 40
0.7185967894
 40
0.8581817655
 40
1.0
 40
1.0
 40
1.0
 40
1.0
 10
-21.5164767909
 20
18.3506892253
 30
0.0
 10
-21.5219029765
 20
18.3705577954
 30
0.0
 10
-21.5352412402
 20
18.4101033428
 30
0.0
 10
-21.5714433028
 20
18.4874943367
 30
0.0
 10
-21.6346492859
 20
18.579801632
 30
0.0
 10
-21.7342000978
 20
18.6780141611
 30
0.0
 10
-21.8554450029
 20
18.7626713498
 30
0.0
 10
-21.9948708449
 20
18.8314993821
 30
0.0
 10
-22.1485402442
 20
18.8826760843
 30
0.0
 10
-22.3120798704
 20
18.9148069545
 30
0.0
 10
-22.4243320639
 20
18.9229182424
 30
0.0
 10
-22.4808843919
 20
18.9236162448
 30
0.0
  0
SPLINE
  5
733
100
AcDbEntity
  8
RACCORDO
100
AcDbSpline
 62
250
  6
CONTINUOUS
 70
0
 71
3
 72
17
 73
13
 74
0
 42
0.0000001
 43
0.0000001
 44
0.0000000001
 40
0.0
 40
0.0
 40
0.0
 40
0.0
 40
0.0515908929
 40
0.1036598923
 40
0.156657205
 40
0.2109737202
 40
0.3245653768
 40
0.4461449403
 40
0.5758593351
 40
0.7127219469
 40
0.8548996392
 40
1.0
 40
1.0
 40
1.0
 40
1.0
 10
-21.4983367983
 20
-18.3943840357
 30
0.0
 10
-21.4983367983
 20
-18.4172850541
 30
0.0
 10
-21.5015157527
 20
-18.46336102
 30
0.0
 10
-21.515744478
 20
-18.531633381
 30
0.0
 10
-21.5392889979
 20
-18.5985695098
 30
0.0
 10
-21.5833804735
 20
-18.686409046
 30
0.0
 10
-21.6617032474
 20
-18.7898180822
 30
0.0
 10
-21.7850769353
 20
-18.8962878868
 30
0.0
 10
-21.9345318096
 20
-18.9837295661
 30
0.0
 10
-22.1045486558
 20
-19.0491455783
 30
0.0
 10
-22.2888951331
 20
-19.090313009
 30
0.0
 10
-22.4164797507
 20
-19.1005882007
 30
0.0
 10
-22.4808843919
 20
-19.1013831211
 30
0.0
  0
SPLINE
  5
734
100
AcDbEntity
  8
ASSI
100
AcDbSpline
 62
250
  6
CONTINUOUS
 70
0
 71
3
 72
13
 73
9
 74
0
 42
0.0000001
 43
0.0000001
 44
0.0000000001
 40
0.0
 40
0.0
 40
0.0
 40
0.0
 40
0.1039029621
 40
0.2128014713
 40
0.3284088018
 40
0.4514020118
 40
0.7169662472
 40
1.0
 40
1.0
 40
1.0
 40
1.0
 10
-21.5076055854
 20
18.3126683642
 30
0.0
 10
-21.5157375123
 20
18.3546074279
 30
0.0
 10
-21.5433271221
 20
18.4386878682
 30
0.0
 10
-21.6141577893
 20
18.5548251284
 30
0.0
 10
-21.7124081904
 20
18.6598009015
 30
0.0
 10
-21.8796790758
 20
18.7837988277
 30
0.0
 10
-22.1383630218
 20
18.8917884699
 30
0.0
 10
-22.3645226427
 20
18.9221800389
 30
0.0
 10
-22.4808843919
 20
18.9236162448
 30
0.0
  0
SPLINE
  5
735
100
AcDbEntity
  8
ASSI
100
AcDbSpline
 62
250
  6
CONTINUOUS
 70
0
 71
3
 72
13
 73
9
 74
0
 42
0.0000001
 43
0.0000001
 44
0.0000000001
 40
0.0
 40
0.0
 40
0.0
 40
0.0
 40
0.1036335927
 40
0.2109524544
 40
0.3247780503
 40
0.4466080041
 40
0.7128414666
 40
1.0
 40
1.0
 40
1.0
 40
1.0
 10
-21.4983367983
 20
18.3943840357
 30
0.0
 10
-21.4983367983
 20
18.4402920814
 30
0.0
 10
-21.5114992675
 20
18.5342078845
 30
0.0
 10
-21.5691400544
 20
18.6676538623
 30
0.0
 10
-21.6616935622
 20
18.7897991026
 30
0.0
 10
-21.8310465988
 20
18.9359192251
 30
0.0
 10
-22.1077199105
 20
19.0640792459
 30
0.0
 10
-22.3536873827
 20
19.09981318
 30
0.0
 10
-22.4808843919
 20
19.1013831211
 30
0.0
  0
SPLINE
  5
736
100
AcDbEntity
  8
ASSI
100
AcDbSpline
 62
250
  6
CONTINUOUS
 70
0
 71
3
 72
13
 73
9
 74
0
 42
0.0000001
 43
0.0000001
 44
0.0000000001
 40
0.0
 40
0.0
 40
0.0
 40
0.0
 40
0.1036335927
 40
0.2109524544
 40
0.3247780503
 40
0.4466080041
 40
0.7128414666
 40
1.0
 40
1.0
 40
1.0
 40
1.0
 10
-21.4983367983
 20
-18.3943840357
 30
0.0
 10
-21.4983367983
 20
-18.4402920814
 30
0.0
 10
-21.5114992675
 20
-18.5342078845
 30
0.0
 10
-21.5691400544
 20
-18.6676538623
 30
0.0
 10
-21.6616935622
 20
-18.7897991026
 30
0.0
 10
-21.8310465988
 20
-18.9359192251
 30
0.0
 10
-22.1077199105
 20
-19.0640792459
 30
0.0
 10
-22.3536873827
 20
-19.09981318
 30
0.0
 10
-22.4808843919
 20
-19.1013831211
 30
0.0
  0
SPLINE
  5
737
100
AcDbEntity
  8
ASSI
100
AcDbSpline
 62
250
  6
CONTINUOUS
 70
0
 71
3
 72
13
 73
9
 74
0
 42
0.0000001
 43
0.0000001
 44
0.0000000001
 40
0.0
 40
0.0
 40
0.0
 40
0.0
 40
0.1036335927
 40
0.2109524543
 40
0.3247780502
 40
0.446608004
 40
0.7128414663
 40
1.0
 40
1.0
 40
1.0
 40
1.0
 10
-21.4983367983
 20
-18.2166171594
 30
0.0
 10
-21.4983367983
 20
-18.2625252051
 30
0.0
 10
-21.5114992675
 20
-18.3564410082
 30
0.0
 10
-21.5691400544
 20
-18.489886986
 30
0.0
 10
-21.6616935621
 20
-18.6120322262
 30
0.0
 10
-21.8310465986
 20
-18.7581523487
 30
0.0
 10
-22.1077199103
 20
-18.8863123696
 30
0.0
 10
-22.3536873826
 20
-18.9220463037
 30
0.0
 10
-22.4808843919
 20
-18.9236162448
 30
0.0
  0
SPLINE
  5
738
100
AcDbEntity
  8
ASSI
100
AcDbSpline
 62
250
  6
CONTINUOUS
 70
0
 71
3
 72
19
 73
15
 74
0
 42
0.0000001
 43
0.0000001
 44
0.0000000001
 40
0.0
 40
0.0
 40
0.0
 40
0.0
 40
0.0042857185
 40
0.0166673746
 40
0.0372073161
 40
0.0658700757
 40
0.1025902793
 40
0.1472825251
 40
0.1998398908
 40
0.2601361917
 40
0.4033497703
 40
0.5755472708
 40
0.7750680589
 40
1.0
 40
1.0
 40
1.0
 40
1.0
 10
-22.4808843919
 20
19.3942317309
 30
0.0
 10
-22.4804659977
 20
19.3942244278
 30
0.0
 10
-22.4806998056
 20
19.3917244361
 30
0.0
 10
-22.4800264984
 20
19.3889361802
 30
0.0
 10
-22.4800485897
 20
19.382453366
 30
0.0
 10
-22.4797506365
 20
19.3742742867
 30
0.0
 10
-22.4796423976
 20
19.3634466111
 30
0.0
 10
-22.4795195224
 20
19.3503952548
 30
0.0
 10
-22.479460463
 20
19.3350026905
 30
0.0
 10
-22.4794306651
 20
19.3100044316
 30
0.0
 10
-22.4795263642
 20
19.2733178108
 30
0.0
 10
-22.4798071375
 20
19.2230415781
 30
0.0
 10
-22.4802637714
 20
19.1647859915
 30
0.0
 10
-22.4806598797
 20
19.1233443503
 30
0.0
 10
-22.4808843919
 20
19.1013831211
 30
0.0
  0
SPLINE
  5
739
100
AcDbEntity
  8
ASSI
100
AcDbSpline
 62
250
  6
CONTINUOUS
 70
0
 71
3
 72
19
 73
15
 74
0
 42
0.0000001
 43
0.0000001
 44
0.0000000001
 40
0.0
 40
0.0
 40
0.0
 40
0.0
 40
0.2249319411
 40
0.4244527292
 40
0.5966502297
 40
0.7398638083
 40
0.8001601092
 40
0.8527174749
 40
0.8974097207
 40
0.9341299243
 40
0.9627926839
 40
0.9833326254
 40
0.9957142815
 40
1.0
 40
1.0
 40
1.0
 40
1.0
 10
-22.4808843919
 20
-19.1013831211
 30
0.0
 10
-22.4806598797
 20
-19.1233443503
 30
0.0
 10
-22.4802637714
 20
-19.1647859915
 30
0.0
 10
-22.4798071375
 20
-19.2230415781
 30
0.0
 10
-22.4795263642
 20
-19.2733178108
 30
0.0
 10
-22.4794306651
 20
-19.3100044316
 30
0.0
 10
-22.479460463
 20
-19.3350026905
 30
0.0
 10
-22.4795195224
 20
-19.3503952548
 30
0.0
 10
-22.4796423976
 20
-19.3634466111
 30
0.0
 10
-22.4797506365
 20
-19.3742742867
 30
0.0
 10
-22.4800485897
 20
-19.382453366
 30
0.0
 10
-22.4800264984
 20
-19.3889361802
 30
0.0
 10
-22.4806998056
 20
-19.3917244361
 30
0.0
 10
-22.4804659977
 20
-19.3942244278
 30
0.0
 10
-22.4808843919
 20
-19.3942317309
 30
0.0
  0
SPLINE
  5
73A
100
AcDbEntity
  8
INCISIONI
100
AcDbSpline
 62
250
  6
CONTINUOUS
 70
0
 71
3
 72
9
 73
5
 74
0
 42
0.0000001
 43
0.0000001
 44
0.0000000001
 40
0.0
 40
0.0
 40
0.0
 40
0.0
 40
0.7499778947
 40
1.0
 40
1.0
 40
1.0
 40
1.0
 10
-41.915897655
 20
10.7246185849
 30
0.0
 10
-41.6991144828
 20
10.539997002
 30
0.0
 10
-41.3211892965
 20
10.3922411511
 30
0.0
 10
-40.9432983004
 20
10.3623239211
 30
0.0
 10
-40.8483779783
 20
10.3623239211
 30
0.0
  0
SPLINE
  5
73B
100
AcDbEntity
  8
INCISIONI
100
AcDbSpline
 62
250
  6
CONTINUOUS
 70
0
 71
3
 72
9
 73
5
 74
0
 42
0.0000001
 43
0.0000001
 44
0.0000000001
 40
0.0
 40
0.0
 40
0.0
 40
0.0
 40
0.5000575813
 40
1.0
 40
1.0
 40
1.0
 40
1.0
 10
-42.3620441331
 20
11.7566003002
 30
0.0
 10
-42.3620441331
 20
11.5645960735
 30
0.0
 10
-42.2958003754
 20
11.174918261
 30
0.0
 10
-42.0620315556
 20
10.8490654469
 30
0.0
 10
-41.915897655
 20
10.7246185849
 30
0.0
  0
SPLINE
  5
73C
100
AcDbEntity
  8
INCISIONI
100
AcDbSpline
 62
250
  6
CONTINUOUS
 70
0
 71
3
 72
9
 73
5
 74
0
 42
0.0000001
 43
0.0000001
 44
0.0000000001
 40
0.0
 40
0.0
 40
0.0
 40
0.0
 40
0.4999423617
 40
1.0
 40
1.0
 40
1.0
 40
1.0
 10
-41.915897655
 20
12.7884285572
 30
0.0
 10
-42.0620114899
 20
12.6639938531
 30
0.0
 10
-42.295799203
 20
12.3382210796
 30
0.0
 10
-42.3620441331
 20
11.9485814034
 30
0.0
 10
-42.3620441331
 20
11.7566003002
 30
0.0
  0
SPLINE
  5
73D
100
AcDbEntity
  8
INCISIONI
100
AcDbSpline
 62
250
  6
CONTINUOUS
 70
0
 71
3
 72
9
 73
5
 74
0
 42
0.0000001
 43
0.0000001
 44
0.0000000001
 40
0.0
 40
0.0
 40
0.0
 40
0.0
 40
0.750054758
 40
1.0
 40
1.0
 40
1.0
 40
1.0
 10
-40.8483779783
 20
13.1507078752
 30
0.0
 10
-41.1335903354
 20
13.1507078752
 30
0.0
 10
-41.5248912338
 20
13.0616694123
 30
0.0
 10
-41.8435341863
 20
12.8500553485
 30
0.0
 10
-41.915897655
 20
12.7884285572
 30
0.0
  0
SPLINE
  5
73E
100
AcDbEntity
  8
INCISIONI
100
AcDbSpline
 62
250
  6
CONTINUOUS
 70
0
 71
3
 72
9
 73
5
 74
0
 42
0.0000001
 43
0.0000001
 44
0.0000000001
 40
0.0
 40
0.0
 40
0.0
 40
0.0
 40
0.7499778839
 40
1.0
 40
1.0
 40
1.0
 40
1.0
 10
-39.7808634154
 20
12.7884285572
 30
0.0
 10
-39.9976537287
 20
12.9730376276
 30
0.0
 10
-40.3755702054
 20
13.1207928882
 30
0.0
 10
-40.7534585421
 20
13.1507078752
 30
0.0
 10
-40.8483779783
 20
13.1507078752
 30
0.0
  0
SPLINE
  5
73F
100
AcDbEntity
  8
INCISIONI
100
AcDbSpline
 62
250
  6
CONTINUOUS
 70
0
 71
3
 72
9
 73
5
 74
0
 42
0.0000001
 43
0.0000001
 44
0.0000000001
 40
0.0
 40
0.0
 40
0.0
 40
0.0
 40
0.5000576434
 40
1.0
 40
1.0
 40
1.0
 40
1.0
 10
-39.3347118236
 20
11.7566003002
 30
0.0
 10
-39.3347118236
 20
11.948581952
 30
0.0
 10
-39.4009570751
 20
12.3382212405
 30
0.0
 10
-39.6347439315
 20
12.6639996485
 30
0.0
 10
-39.7808634154
 20
12.7884285572
 30
0.0
  0
SPLINE
  5
740
100
AcDbEntity
  8
INCISIONI
100
AcDbSpline
 62
250
  6
CONTINUOUS
 70
0
 71
3
 72
9
 73
5
 74
0
 42
0.0000001
 43
0.0000001
 44
0.0000000001
 40
0.0
 40
0.0
 40
0.0
 40
0.0
 40
0.4999424868
 40
1.0
 40
1.0
 40
1.0
 40
1.0
 10
-39.7808634154
 20
10.7246185849
 30
0.0
 10
-39.6347354081
 20
10.8490719536
 30
0.0
 10
-39.4009714249
 20
11.174920788
 30
0.0
 10
-39.3347118236
 20
11.5645963952
 30
0.0
 10
-39.3347118236
 20
11.7566003002
 30
0.0
  0
SPLINE
  5
741
100
AcDbEntity
  8
INCISIONI
100
AcDbSpline
 62
250
  6
CONTINUOUS
 70
0
 71
3
 72
9
 73
5
 74
0
 42
0.0000001
 43
0.0000001
 44
0.0000000001
 40
0.0
 40
0.0
 40
0.0
 40
0.0
 40
0.7500547609
 40
1.0
 40
1.0
 40
1.0
 40
1.0
 10
-40.8483779783
 20
10.3623239211
 30
0.0
 10
-40.5631656838
 20
10.3623239211
 30
0.0
 10
-40.1718683163
 20
10.4513763062
 30
0.0
 10
-39.8532252553
 20
10.662989915
 30
0.0
 10
-39.7808634154
 20
10.7246185849
 30
0.0
  0
SPLINE
  5
742
100
AcDbEntity
  8
INCISIONI
100
AcDbSpline
 62
250
  6
CONTINUOUS
 70
0
 71
3
 72
8
 73
4
 74
0
 42
0.0000001
 43
0.0000001
 44
0.0000000001
 40
0.0
 40
0.0
 40
0.0
 40
0.0
 40
1.0
 40
1.0
 40
1.0
 40
1.0
 10
-39.793571009
 20
11.7579507336
 30
0.0
 10
-39.793571009
 20
11.5407028749
 30
0.0
 10
-39.8810684345
 20
11.3018670207
 30
0.0
 10
-40.0412284556
 20
11.1551101322
 30
0.0
  0
SPLINE
  5
743
100
AcDbEntity
  8
INCISIONI
100
AcDbSpline
 62
250
  6
CONTINUOUS
 70
0
 71
3
 72
8
 73
4
 74
0
 42
0.0000001
 43
0.0000001
 44
0.0000000001
 40
0.0
 40
0.0
 40
0.0
 40
0.0
 40
1.0
 40
1.0
 40
1.0
 40
1.0
 10
-40.0412284556
 20
12.3579267794
 30
0.0
 10
-39.8817281444
 20
12.2117566921
 30
0.0
 10
-39.793571009
 20
11.9743156911
 30
0.0
 10
-39.793571009
 20
11.7579507336
 30
0.0
  0
SPLINE
  5
744
100
AcDbEntity
  8
INCISIONI
100
AcDbSpline
 62
250
  6
CONTINUOUS
 70
0
 71
3
 72
9
 73
5
 74
0
 42
0.0000001
 43
0.0000001
 44
0.0000000001
 40
0.0
 40
0.0
 40
0.0
 40
0.0
 40
0.7501681637
 40
1.0
 40
1.0
 40
1.0
 40
1.0
 10
-40.8480967238
 20
12.6297219488
 30
0.0
 10
-40.6322602874
 20
12.6297219488
 30
0.0
 10
-40.333990051
 20
12.5705197887
 30
0.0
 10
-40.0942258691
 20
12.4064949388
 30
0.0
 10
-40.0412284556
 20
12.3579267794
 30
0.0
  0
SPLINE
  5
745
100
AcDbEntity
  8
INCISIONI
100
AcDbSpline
 62
250
  6
CONTINUOUS
 70
0
 71
3
 72
9
 73
5
 74
0
 42
0.0000001
 43
0.0000001
 44
0.0000000001
 40
0.0
 40
0.0
 40
0.0
 40
0.0
 40
0.7499573393
 40
1.0
 40
1.0
 40
1.0
 40
1.0
 10
-41.654980333
 20
12.3579267794
 30
0.0
 10
-41.4963623457
 20
12.5032834455
 30
0.0
 10
-41.2047651385
 20
12.6100652632
 30
0.0
 10
-40.9198237176
 20
12.6297219488
 30
0.0
 10
-40.8480967238
 20
12.6297219488
 30
0.0
  0
SPLINE
  5
746
100
AcDbEntity
  8
INCISIONI
100
AcDbSpline
 62
250
  6
CONTINUOUS
 70
0
 71
3
 72
8
 73
4
 74
0
 42
0.0000001
 43
0.0000001
 44
0.0000000001
 40
0.0
 40
0.0
 40
0.0
 40
0.0
 40
1.0
 40
1.0
 40
1.0
 40
1.0
 10
-41.9026377797
 20
11.7579507336
 30
0.0
 10
-41.9026377797
 20
11.9743156911
 30
0.0
 10
-41.8144830668
 20
12.2117593364
 30
0.0
 10
-41.654980333
 20
12.3579267794
 30
0.0
  0
SPLINE
  5
747
100
AcDbEntity
  8
INCISIONI
100
AcDbSpline
 62
250
  6
CONTINUOUS
 70
0
 71
3
 72
8
 73
4
 74
0
 42
0.0000001
 43
0.0000001
 44
0.0000000001
 40
0.0
 40
0.0
 40
0.0
 40
0.0
 40
1.0
 40
1.0
 40
1.0
 40
1.0
 10
-41.654980333
 20
11.1551101322
 30
0.0
 10
-41.8151380929
 20
11.3018694891
 30
0.0
 10
-41.9026377797
 20
11.5407028749
 30
0.0
 10
-41.9026377797
 20
11.7579507336
 30
0.0
  0
SPLINE
  5
748
100
AcDbEntity
  8
INCISIONI
100
AcDbSpline
 62
250
  6
CONTINUOUS
 70
0
 71
3
 72
9
 73
5
 74
0
 42
0.0000001
 43
0.0000001
 44
0.0000000001
 40
0.0
 40
0.0
 40
0.0
 40
0.0
 40
0.7501681644
 40
1.0
 40
1.0
 40
1.0
 40
1.0
 10
-40.8480967238
 20
10.8833098474
 30
0.0
 10
-41.0639372609
 20
10.8833098474
 30
0.0
 10
-41.362214068
 20
10.9425121049
 30
0.0
 10
-41.6019813185
 20
11.106541699
 30
0.0
 10
-41.654980333
 20
11.1551101322
 30
0.0
  0
SPLINE
  5
749
100
AcDbEntity
  8
INCISIONI
100
AcDbSpline
 62
250
  6
CONTINUOUS
 70
0
 71
3
 72
9
 73
5
 74
0
 42
0.0000001
 43
0.0000001
 44
0.0000000001
 40
0.0
 40
0.0
 40
0.0
 40
0.0
 40
0.7499573136
 40
1.0
 40
1.0
 40
1.0
 40
1.0
 10
-40.0412284556
 20
11.1551101322
 30
0.0
 10
-40.199850353
 20
11.0097626482
 30
0.0
 10
-40.4914328263
 20
10.9029716844
 30
0.0
 10
-40.7763708267
 20
10.8833098474
 30
0.0
 10
-40.8480967238
 20
10.8833098474
 30
0.0
  0
SPLINE
  5
74A
100
AcDbEntity
  8
INCISIONI
100
AcDbSpline
 62
250
  6
CONTINUOUS
 70
0
 71
3
 72
11
 73
7
 74
0
 42
0.0000001
 43
0.0000001
 44
0.0000000001
 40
0.0
 40
0.0
 40
0.0
 40
0.0
 40
0.2491315025
 40
0.4973515609
 40
0.7462289133
 40
1.0
 40
1.0
 40
1.0
 40
1.0
 10
-41.4659726111
 20
-5.4627200261
 30
0.0
 10
-41.4047412603
 20
-5.4617749198
 30
0.0
 10
-41.2802871885
 20
-5.4732383197
 30
0.0
 10
-41.1166517856
 20
-5.5749993121
 30
0.0
 10
-41.0313978631
 20
-5.746549742
 30
0.0
 10
-41.0168977048
 20
-5.8705216342
 30
0.0
 10
-41.0155049818
 20
-5.9328946758
 30
0.0
  0
SPLINE
  5
74B
100
AcDbEntity
  8
INCISIONI
100
AcDbSpline
 62
250
  6
CONTINUOUS
 70
0
 71
3
 72
9
 73
5
 74
0
 42
0.0000001
 43
0.0000001
 44
0.0000000001
 40
0.0
 40
0.0
 40
0.0
 40
0.0
 40
0.5000882298
 40
1.0
 40
1.0
 40
1.0
 40
1.0
 10
-41.8283378758
 20
-5.804625691
 30
0.0
 10
-41.8180686685
 20
-5.7161471704
 30
0.0
 10
-41.7402170884
 20
-5.5367587789
 30
0.0
 10
-41.5549893814
 20
-5.4641127161
 30
0.0
 10
-41.4659726111
 20
-5.4627200261
 30
0.0
  0
SPLINE
  5
74C
100
AcDbEntity
  8
INCISIONI
100
AcDbSpline
 62
250
  6
CONTINUOUS
 70
0
 71
3
 72
9
 73
5
 74
0
 42
0.0000001
 43
0.0000001
 44
0.0000000001
 40
0.0
 40
0.0
 40
0.0
 40
0.0
 40
0.4997637338
 40
1.0
 40
1.0
 40
1.0
 40
1.0
 10
-41.8112738847
 20
-6.2788012718
 30
0.0
 10
-41.824602233
 20
-6.2006669333
 30
0.0
 10
-41.8439848428
 20
-6.0427263562
 30
0.0
 10
-41.8374826932
 20
-5.8834349988
 30
0.0
 10
-41.8283378758
 20
-5.804625691
 30
0.0
  0
SPLINE
  5
74D
100
AcDbEntity
  8
INCISIONI
100
AcDbSpline
 62
250
  6
CONTINUOUS
 70
0
 71
3
 72
11
 73
7
 74
0
 42
0.0000001
 43
0.0000001
 44
0.0000000001
 40
0.0
 40
0.0
 40
0.0
 40
0.0
 40
0.249614251
 40
0.499888924
 40
0.7499637517
 40
1.0
 40
1.0
 40
1.0
 40
1.0
 10
-42.2407212853
 20
-5.3678501192
 30
0.0
 10
-42.283295594
 20
-5.485729931
 30
0.0
 10
-42.3307712874
 20
-5.735014474
 30
0.0
 10
-42.3451780486
 20
-6.1116431473
 30
0.0
 10
-42.3220223749
 20
-6.4882750285
 30
0.0
 10
-42.2895086678
 20
-6.7373573696
 30
0.0
 10
-42.2712408313
 20
-6.8615673444
 30
0.0
  0
SPLINE
  5
74E
100
AcDbEntity
  8
INCISIONI
100
AcDbSpline
 62
250
  6
CONTINUOUS
 70
0
 71
3
 72
18
 73
14
 74
0
 42
0.0000001
 43
0.0000001
 44
0.0000000001
 40
0.0
 40
0.0
 40
0.0
 40
0.0
 40
0.0626155709
 40
0.1255750725
 40
0.1873779143
 40
0.2500548274
 40
0.3131302752
 40
0.3757850613
 40
0.5005898481
 40
0.6254073429
 40
0.7503252015
 40
0.8752611255
 40
1.0
 40
1.0
 40
1.0
 40
1.0
 10
-40.7765873679
 20
-5.30544429
 30
0.0
 10
-40.7814108569
 20
-5.2680508605
 30
0.0
 10
-40.8343832847
 20
-5.205742357
 30
0.0
 10
-40.906404586
 20
-5.1219941374
 30
0.0
 10
-40.9923538559
 20
-5.0470552444
 30
0.0
 10
-41.0887723335
 20
-4.9877497308
 30
0.0
 10
-41.1931515265
 20
-4.9423237958
 30
0.0
 10
-41.3388140968
 20
-4.9015430794
 30
0.0
 10
-41.5282104706
 20
-4.887359708
 30
0.0
 10
-41.7533807615
 20
-4.9207057947
 30
0.0
 10
-41.9619323474
 20
-5.0158512686
 30
0.0
 10
-42.1320206644
 20
-5.1675562972
 30
0.0
 10
-42.2152401681
 20
-5.2971955627
 30
0.0
 10
-42.2407212853
 20
-5.3678501192
 30
0.0
  0
SPLINE
  5
74F
100
AcDbEntity
  8
INCISIONI
100
AcDbSpline
 62
250
  6
CONTINUOUS
 70
0
 71
3
 72
11
 73
7
 74
0
 42
0.0000001
 43
0.0000001
 44
0.0000000001
 40
0.0
 40
0.0
 40
0.0
 40
0.0
 40
0.2450440156
 40
0.5033055314
 40
0.7579591626
 40
1.0
 40
1.0
 40
1.0
 40
1.0
 10
-40.1909120634
 20
-4.9565587397
 30
0.0
 10
-40.2452218999
 20
-4.9713588828
 30
0.0
 10
-40.3571833178
 20
-5.0005213919
 30
0.0
 10
-40.5195912458
 20
-5.0651610171
 30
0.0
 10
-40.6672280294
 20
-5.159157879
 30
0.0
 10
-40.7388672575
 20
-5.2537899196
 30
0.0
 10
-40.759458164
 20
-5.30544429
 30
0.0
  0
SPLINE
  5
750
100
AcDbEntity
  8
INCISIONI
100
AcDbSpline
 62
250
  6
CONTINUOUS
 70
0
 71
3
 72
8
 73
4
 74
0
 42
0.0000001
 43
0.0000001
 44
0.0000000001
 40
0.0
 40
0.0
 40
0.0
 40
0.0
 40
1.0
 40
1.0
 40
1.0
 40
1.0
 10
-39.4063380083
 20
-4.7496410148
 30
0.0
 10
-39.6673441632
 20
-4.8205511455
 30
0.0
 10
-39.9299619472
 20
-4.8854426
 30
0.0
 10
-40.1909120634
 20
-4.9565587397
 30
0.0
  0
SPLINE
  5
751
100
AcDbEntity
  8
INCISIONI
100
AcDbSpline
 62
250
  6
CONTINUOUS
 70
0
 71
3
 72
9
 73
5
 74
0
 42
0.0000001
 43
0.0000001
 44
0.0000000001
 40
0.0
 40
0.0
 40
0.0
 40
0.0
 40
0.499968398
 40
1.0
 40
1.0
 40
1.0
 40
1.0
 10
-40.2853400604
 20
-5.5965120355
 30
0.0
 10
-40.1421233416
 20
-5.542691105
 30
0.0
 10
-39.8465026377
 20
-5.4614309255
 30
0.0
 10
-39.5533915445
 20
-5.3741331019
 30
0.0
 10
-39.4063380083
 20
-5.3318417383
 30
0.0
  0
SPLINE
  5
752
100
AcDbEntity
  8
INCISIONI
100
AcDbSpline
 62
250
  6
CONTINUOUS
 70
0
 71
3
 72
11
 73
7
 74
0
 42
0.0000001
 43
0.0000001
 44
0.0000000001
 40
0.0
 40
0.0
 40
0.0
 40
0.0
 40
0.2477795725
 40
0.4960551195
 40
0.7486644071
 40
1.0
 40
1.0
 40
1.0
 40
1.0
 10
-40.5407564887
 20
-5.9341993273
 30
0.0
 10
-40.5407564887
 20
-5.8969831769
 30
0.0
 10
-40.5298682674
 20
-5.8216580962
 30
0.0
 10
-40.4741619085
 20
-5.7211454858
 30
0.0
 10
-40.3885019401
 20
-5.6450913069
 30
0.0
 10
-40.3206773364
 20
-5.609777727
 30
0.0
 10
-40.2853400604
 20
-5.5965120355
 30
0.0
  0
SPLINE
  5
753
100
AcDbEntity
  8
RACCORDO
100
AcDbSpline
 62
250
  6
CONTINUOUS
 70
0
 71
3
 72
26
 73
22
 74
0
 42
0.0000001
 43
0.0000001
 44
0.0000000001
 40
0.0
 40
0.0
 40
0.0
 40
0.0
 40
0.1952373303
 40
0.3828767077
 40
0.5557522251
 40
0.6345529812
 40
0.7072370395
 40
0.7731083627
 40
0.8315339236
 40
0.8819525002
 40
0.9238825542
 40
0.9415345305
 40
0.9569212142
 40
0.9700029891
 40
0.9807505739
 40
0.9891391978
 40
0.995146544
 40
0.9972538066
 40
0.998762781
 40
0.999674324
 40
1.0
 40
1.0
 40
1.0
 40
1.0
 10
-46.1468823655
 20
-23.8443375673
 30
0.0
 10
-46.1387708021
 20
-23.8302874519
 30
0.0
 10
-46.1228767242
 20
-23.8027262774
 30
0.0
 10
-46.0998466438
 20
-23.7626974533
 30
0.0
 10
-46.0816773149
 20
-23.7310346265
 30
0.0
 10
-46.068287656
 20
-23.7076424792
 30
0.0
 10
-46.0593280177
 20
-23.6919598769
 30
0.0
 10
-46.0512221224
 20
-23.6777394743
 30
0.0
 10
-46.0440476281
 20
-23.6651178092
 30
0.0
 10
-46.0378733294
 20
-23.6542160446
 30
0.0
 10
-46.0333854342
 20
-23.6462528745
 30
0.0
 10
-46.0303408934
 20
-23.6408180094
 30
0.0
 10
-46.0284747689
 20
-23.6374702721
 30
0.0
 10
-46.0268969749
 20
-23.6346199025
 30
0.0
 10
-46.0256076986
 20
-23.6322710383
 30
0.0
 10
-46.0246188857
 20
-23.630436974
 30
0.0
 10
-46.0239689788
 20
-23.6292158934
 30
0.0
 10
-46.0236213343
 20
-23.6285132654
 30
0.0
 10
-46.0234377641
 20
-23.6281552612
 30
0.0
 10
-46.0233847326
 20
-23.627979116
 30
0.0
 10
-46.0233133615
 20
-23.6278447476
 30
0.0
 10
-46.0233367983
 20
-23.6278312164
 30
0.0
  0
SPLINE
  5
754
100
AcDbEntity
  8
RACCORDO
100
AcDbSpline
 62
7
  6
CONTINUOUS
 70
0
 71
3
 72
13
 73
9
 74
0
 42
0.0000001
 43
0.0000001
 44
0.0000000001
 40
0.0
 40
0.0
 40
0.0
 40
0.0
 40
0.0225028512
 40
0.0871612167
 40
0.1883383507
 40
0.3188104058
 40
0.6393765232
 40
1.0
 40
1.0
 40
1.0
 40
1.0
 10
-48.3983367983
 20
23.1226497308
 30
0.0
 10
-48.3965035531
 20
23.1237845737
 30
0.0
 10
-48.3893703328
 20
23.1281260914
 30
0.0
 10
-48.3737601755
 20
23.1371789398
 30
0.0
 10
-48.3492559454
 20
23.1515104338
 30
0.0
 10
-48.3034993712
 20
23.1780694741
 30
0.0
 10
-48.2362181492
 20
23.2170587094
 30
0.0
 10
-48.1797121785
 20
23.2497119926
 30
0.0
 10
-48.1497912312
 20
23.2669872981
 30
0.0
  0
LINE
  5
755
100
AcDbEntity
  8
RACCORDO
100
AcDbLine
 62
7
  6
CONTINUOUS
 10
-46.8983367983
 20
-24.2500042308
 30
0.0
 11
-46.8983367983
 21
-24.5
 31
0.0
  0
SPLINE
  5
756
100
AcDbEntity
  8
RACCORDO
100
AcDbSpline
 62
250
  6
CONTINUOUS
 70
0
 71
3
 72
26
 73
22
 74
0
 42
0.0000001
 43
0.0000001
 44
0.0000000001
 40
0.0
 40
0.0
 40
0.0
 40
0.0
 40
0.195080196
 40
0.3826515393
 40
0.5555245815
 40
0.6343411269
 40
0.7070484192
 40
0.7729476609
 40
0.831403253
 40
0.881851676
 40
0.9238093952
 40
0.9414738478
 40
0.9568718917
 40
0.9699637695
 40
0.9807201068
 40
0.9891161374
 40
0.9951296516
 40
0.997239688
 40
0.9987514623
 40
0.9996664469
 40
1.0
 40
1.0
 40
1.0
 40
1.0
 10
-46.1468823655
 20
-24.2456323968
 30
0.0
 10
-46.1467877865
 20
-24.2618896962
 30
0.0
 10
-46.1466201817
 20
-24.2937786412
 30
0.0
 10
-46.1464309353
 20
-24.3400745182
 30
0.0
 10
-46.1463289509
 20
-24.3766814763
 30
0.0
 10
-46.1462874066
 20
-24.403716003
 30
0.0
 10
-46.1462767183
 20
-24.4218355876
 30
0.0
 10
-46.1462854924
 20
-24.4382583307
 30
0.0
 10
-46.1463134751
 20
-24.4528260562
 30
0.0
 10
-46.1463603108
 20
-24.46539845
 30
0.0
 10
-46.1464167535
 20
-24.4745714119
 30
0.0
 10
-46.1464737891
 20
-24.4808230755
 30
0.0
 10
-46.1465182551
 20
-24.4846694877
 30
0.0
 10
-46.1465670912
 20
-24.4879390802
 30
0.0
 10
-46.1466187528
 20
-24.4906278529
 30
0.0
 10
-46.1466759048
 20
-24.492719004
 30
0.0
 10
-46.1467248766
 20
-24.4941060198
 30
0.0
 10
-46.1467759272
 20
-24.4948925842
 30
0.0
 10
-46.1468008854
 20
-24.4952943483
 30
0.0
 10
-46.1468413306
 20
-24.495477879
 30
0.0
 10
-46.1468545683
 20
-24.4956280043
 30
0.0
 10
-46.1468823655
 20
-24.495628166
 30
0.0
  0
SPLINE
  5
757
100
AcDbEntity
  8
RACCORDO
100
AcDbSpline
 62
250
  6
CONTINUOUS
 70
0
 71
3
 72
26
 73
22
 74
0
 42
0.0000001
 43
0.0000001
 44
0.0000000001
 40
0.0
 40
0.0
 40
0.0
 40
0.0
 40
0.1950801482
 40
0.3826514546
 40
0.5555244637
 40
0.6343410028
 40
0.7070482891
 40
0.7729475285
 40
0.8314031303
 40
0.8818515616
 40
0.9238092906
 40
0.9414737585
 40
0.9568718137
 40
0.9699636982
 40
0.9807200538
 40
0.9891160957
 40
0.9951296193
 40
0.997239666
 40
0.9987514509
 40
0.9996664438
 40
1.0
 40
1.0
 40
1.0
 40
1.0
 10
-49.1497912312
 20
-24.2369056521
 30
0.0
 10
-49.1498858102
 20
-24.2531629475
 30
0.0
 10
-49.1500534149
 20
-24.2850518854
 30
0.0
 10
-49.1502426613
 20
-24.3313477526
 30
0.0
 10
-49.1503446457
 20
-24.3679547043
 30
0.0
 10
-49.1503861901
 20
-24.3949892272
 30
0.0
 10
-49.1503968783
 20
-24.4131088105
 30
0.0
 10
-49.1503881043
 20
-24.4295315538
 30
0.0
 10
-49.1503601217
 20
-24.4440992806
 30
0.0
 10
-49.150313286
 20
-24.4566716767
 30
0.0
 10
-49.1502568433
 20
-24.4658446414
 30
0.0
 10
-49.1501998078
 20
-24.472096308
 30
0.0
 10
-49.1501553419
 20
-24.475942723
 30
0.0
 10
-49.1501065058
 20
-24.4792123186
 30
0.0
 10
-49.1500548443
 20
-24.4819010943
 30
0.0
 10
-49.1499976923
 20
-24.4839922486
 30
0.0
 10
-49.1499487202
 20
-24.4853792671
 30
0.0
 10
-49.1498976695
 20
-24.4861658338
 30
0.0
 10
-49.1498727115
 20
-24.4865676007
 30
0.0
 10
-49.1498322657
 20
-24.4867511326
 30
0.0
 10
-49.1498190286
 20
-24.4869012596
 30
0.0
 10
-49.1497912312
 20
-24.4869014213
 30
0.0
  0
SPLINE
  5
758
100
AcDbEntity
  8
RACCORDO
100
AcDbSpline
 62
7
  6
CONTINUOUS
 70
0
 71
3
 72
13
 73
9
 74
0
 42
0.0000001
 43
0.0000001
 44
0.0000000001
 40
0.0
 40
0.0
 40
0.0
 40
0.0
 40
0.3612210663
 40
0.682170423
 40
0.812667465
 40
0.9137049675
 40
0.9780318448
 40
1.0
 40
1.0
 40
1.0
 40
1.0
 10
-48.1497912312
 20
-23.2669872981
 30
0.0
 10
-48.1797617617
 20
-23.249683365
 30
0.0
 10
-48.2363491372
 20
-23.2169831279
 30
0.0
 10
-48.3037134282
 20
-23.1779450624
 30
0.0
 10
-48.3494923965
 20
-23.1513733071
 30
0.0
 10
-48.3739588758
 20
-23.1370619739
 30
0.0
 10
-48.3894864629
 20
-23.1280587384
 30
0.0
 10
-48.3965474535
 20
-23.1237581614
 30
0.0
 10
-48.3983367983
 20
-23.1226497308
 30
0.0
  0
SPLINE
  5
759
100
AcDbEntity
  8
RACCORDO
100
AcDbSpline
 62
250
  6
CONTINUOUS
 70
0
 71
3
 72
26
 73
22
 74
0
 42
0.0000001
 43
0.0000001
 44
0.0000000001
 40
0.0
 40
0.0
 40
0.0
 40
0.0
 40
0.1952373367
 40
0.3828767197
 40
0.5557522426
 40
0.6345529999
 40
0.7072370592
 40
0.7731083831
 40
0.8315339428
 40
0.8819525183
 40
0.923882571
 40
0.941534545
 40
0.956921227
 40
0.9700030008
 40
0.9807505828
 40
0.9891392048
 40
0.9951465495
 40
0.9972538103
 40
0.9987627829
 40
0.9996743245
 40
1.0
 40
1.0
 40
1.0
 40
1.0
 10
-49.1497912312
 20
-23.8443375673
 30
0.0
 10
-49.1579027948
 20
-23.8302874514
 30
0.0
 10
-49.1737968732
 20
-23.8027262761
 30
0.0
 10
-49.1968269544
 20
-23.7626974507
 30
0.0
 10
-49.2149962838
 20
-23.7310346231
 30
0.0
 10
-49.228385943
 20
-23.7076424751
 30
0.0
 10
-49.2373455814
 20
-23.6919598726
 30
0.0
 10
-49.2454514767
 20
-23.67773947
 30
0.0
 10
-49.252625971
 20
-23.665117805
 30
0.0
 10
-49.2588002695
 20
-23.6542160407
 30
0.0
 10
-49.2632881645
 20
-23.646252871
 30
0.0
 10
-49.266332705
 20
-23.6408180062
 30
0.0
 10
-49.2681988294
 20
-23.6374702693
 30
0.0
 10
-49.2697766231
 20
-23.6346199
 30
0.0
 10
-49.2710658991
 20
-23.6322710363
 30
0.0
 10
-49.2720547118
 20
-23.6304369725
 30
0.0
 10
-49.2727046185
 20
-23.6292158922
 30
0.0
 10
-49.2730522628
 20
-23.6285132646
 30
0.0
 10
-49.2732358328
 20
-23.6281552608
 30
0.0
 10
-49.2732888643
 20
-23.6279791158
 30
0.0
 10
-49.2733602351
 20
-23.6278447476
 30
0.0
 10
-49.2733367983
 20
-23.6278312164
 30
0.0
  0
SPLINE
  5
75A
100
AcDbEntity
  8
RACCORDO
100
AcDbSpline
 62
250
  6
CONTINUOUS
 70
0
 71
3
 72
26
 73
22
 74
0
 42
0.0000001
 43
0.0000001
 44
0.0000000001
 40
0.0
 40
0.0
 40
0.0
 40
0.0
 40
0.1952373303
 40
0.3828767077
 40
0.5557522251
 40
0.6345529812
 40
0.7072370395
 40
0.7731083627
 40
0.8315339236
 40
0.8819525002
 40
0.9238825542
 40
0.9415345305
 40
0.9569212142
 40
0.9700029891
 40
0.9807505739
 40
0.9891391978
 40
0.995146544
 40
0.9972538066
 40
0.998762781
 40
0.999674324
 40
1.0
 40
1.0
 40
1.0
 40
1.0
 10
-49.1497912312
 20
23.8443375673
 30
0.0
 10
-49.1579027945
 20
23.8302874519
 30
0.0
 10
-49.1737968724
 20
23.8027262774
 30
0.0
 10
-49.1968269529
 20
23.7626974533
 30
0.0
 10
-49.2149962818
 20
23.7310346265
 30
0.0
 10
-49.2283859407
 20
23.7076424792
 30
0.0
 10
-49.237345579
 20
23.6919598769
 30
0.0
 10
-49.2454514743
 20
23.6777394743
 30
0.0
 10
-49.2526259686
 20
23.6651178092
 30
0.0
 10
-49.2588002673
 20
23.6542160446
 30
0.0
 10
-49.2632881625
 20
23.6462528745
 30
0.0
 10
-49.2663327032
 20
23.6408180094
 30
0.0
 10
-49.2681988278
 20
23.6374702721
 30
0.0
 10
-49.2697766218
 20
23.6346199025
 30
0.0
 10
-49.271065898
 20
23.6322710383
 30
0.0
 10
-49.272054711
 20
23.630436974
 30
0.0
 10
-49.2727046179
 20
23.6292158934
 30
0.0
 10
-49.2730522623
 20
23.6285132654
 30
0.0
 10
-49.2732358326
 20
23.6281552612
 30
0.0
 10
-49.2732888641
 20
23.627979116
 30
0.0
 10
-49.2733602352
 20
23.6278447476
 30
0.0
 10
-49.2733367983
 20
23.6278312164
 30
0.0
  0
SPLINE
  5
75B
100
AcDbEntity
  8
RACCORDO
100
AcDbSpline
 62
250
  6
CONTINUOUS
 70
0
 71
3
 72
26
 73
22
 74
0
 42
0.0000001
 43
0.0000001
 44
0.0000000001
 40
0.0
 40
0.0
 40
0.0
 40
0.0
 40
0.1952373367
 40
0.3828767197
 40
0.5557522426
 40
0.6345529999
 40
0.7072370592
 40
0.7731083831
 40
0.8315339428
 40
0.8819525183
 40
0.923882571
 40
0.941534545
 40
0.956921227
 40
0.9700030008
 40
0.9807505828
 40
0.9891392048
 40
0.9951465495
 40
0.9972538103
 40
0.9987627829
 40
0.9996743245
 40
1.0
 40
1.0
 40
1.0
 40
1.0
 10
-46.1468823655
 20
23.8443375673
 30
0.0
 10
-46.1387708019
 20
23.8302874514
 30
0.0
 10
-46.1228767235
 20
23.8027262761
 30
0.0
 10
-46.0998466423
 20
23.7626974507
 30
0.0
 10
-46.0816773129
 20
23.7310346231
 30
0.0
 10
-46.0682876537
 20
23.7076424751
 30
0.0
 10
-46.0593280153
 20
23.6919598726
 30
0.0
 10
-46.0512221199
 20
23.67773947
 30
0.0
 10
-46.0440476257
 20
23.665117805
 30
0.0
 10
-46.0378733271
 20
23.6542160407
 30
0.0
 10
-46.0333854321
 20
23.646252871
 30
0.0
 10
-46.0303408916
 20
23.6408180062
 30
0.0
 10
-46.0284747673
 20
23.6374702693
 30
0.0
 10
-46.0268969735
 20
23.6346199
 30
0.0
 10
-46.0256076975
 20
23.6322710363
 30
0.0
 10
-46.0246188849
 20
23.6304369725
 30
0.0
 10
-46.0239689781
 20
23.6292158922
 30
0.0
 10
-46.0236213339
 20
23.6285132646
 30
0.0
 10
-46.0234377638
 20
23.6281552608
 30
0.0
 10
-46.0233847324
 20
23.6279791158
 30
0.0
 10
-46.0233133615
 20
23.6278447476
 30
0.0
 10
-46.0233367983
 20
23.6278312164
 30
0.0
  0
SPLINE
  5
75C
100
AcDbEntity
  8
RACCORDO
100
AcDbSpline
 62
7
  6
CONTINUOUS
 70
0
 71
3
 72
21
 73
17
 74
0
 42
0.0000001
 43
0.0000001
 44
0.0000000001
 40
0.0
 40
0.0
 40
0.0
 40
0.0
 40
0.0979377884
 40
0.1949481034
 40
0.2900789877
 40
0.3824261876
 40
0.5552377377
 40
0.7067384049
 40
0.7726383607
 40
0.8311030019
 40
0.8815684396
 40
0.9235489484
 40
0.9566441116
 40
0.9805310921
 40
0.9950218788
 40
1.0
 40
1.0
 40
1.0
 40
1.0
 10
-46.8983367983
 20
21.8997711479
 30
0.0
 10
-46.8983367983
 20
21.9161043433
 30
0.0
 10
-46.8977080553
 20
21.9486125024
 30
0.0
 10
-46.8975558369
 20
21.9969901031
 30
0.0
 10
-46.8978267214
 20
22.0444339037
 30
0.0
 10
-46.89813335
 20
22.1045190323
 30
0.0
 10
-46.8987562767
 20
22.1740031755
 30
0.0
 10
-46.8993070865
 20
22.2390768519
 30
0.0
 10
-46.899628109
 20
22.2850822802
 30
0.0
 10
-46.8997786543
 20
22.3142381024
 30
0.0
 10
-46.8998360521
 20
22.3394068672
 30
0.0
 10
-46.8998049187
 20
22.3603399858
 30
0.0
 10
-46.8996518179
 20
22.3768530335
 30
0.0
 10
-46.8993814472
 20
22.3887486506
 30
0.0
 10
-46.8992065415
 20
22.3960145645
 30
0.0
 10
-46.8985540116
 20
22.3991944505
 30
0.0
 10
-46.8983367983
 20
22.4
 30
0.0
  0
SPLINE
  5
75D
100
AcDbEntity
  8
RACCORDO
100
AcDbSpline
 62
250
  6
CONTINUOUS
 70
0
 71
3
 72
25
 73
21
 74
0
 42
0.0000001
 43
0.0000001
 44
0.0000000001
 40
0.0
 40
0.0
 40
0.0
 40
0.0
 40
0.1950097431
 40
0.3824966832
 40
0.4711548505
 40
0.5552737602
 40
0.6340444415
 40
0.7067098951
 40
0.772572057
 40
0.8309982669
 40
0.8814275708
 40
0.9233768701
 40
0.9410436833
 40
0.9564470717
 40
0.9695525104
 40
0.9803285622
 40
0.9887545357
 40
0.9948169775
 40
0.9985235388
 40
1.0
 40
1.0
 40
1.0
 40
1.0
 10
-53.3641320925
 20
21.5609131753
 30
0.0
 10
-53.3658321756
 20
21.5933625763
 30
0.0
 10
-53.3690595387
 20
21.6570152587
 30
0.0
 10
-53.3727615215
 20
21.735435283
 30
0.0
 10
-53.3754112284
 20
21.7954065592
 30
0.0
 10
-53.3771697376
 20
21.8372843637
 30
0.0
 10
-53.3787203095
 20
21.8765036164
 30
0.0
 10
-53.3800483398
 20
21.9126871043
 30
0.0
 10
-53.3811415036
 20
21.9454867731
 30
0.0
 10
-53.3819903598
 20
21.974587313
 30
0.0
 10
-53.3825873966
 20
21.9997082046
 30
0.0
 10
-53.3828894878
 20
22.0180433308
 30
0.0
 10
-53.3829848054
 20
22.03054208
 30
0.0
 10
-53.3829864685
 20
22.0382392385
 30
0.0
 10
-53.382924299
 20
22.044776289
 30
0.0
 10
-53.3827978005
 20
22.0501826445
 30
0.0
 10
-53.3826145326
 20
22.0543260066
 30
0.0
 10
-53.3823702391
 20
22.0574928539
 30
0.0
 10
-53.3821051781
 20
22.0590876353
 30
0.0
 10
-53.3818195487
 20
22.060215067
 30
0.0
 10
-53.3815738674
 20
22.0602279426
 30
0.0
  0
SPLINE
  5
75E
100
AcDbEntity
  8
RACCORDO
100
AcDbSpline
 62
250
  6
CONTINUOUS
 70
0
 71
3
 72
29
 73
25
 74
0
 42
0.0000001
 43
0.0000001
 44
0.0000000001
 40
0.0
 40
0.0
 40
0.0
 40
0.0
 40
0.1960035724
 40
0.3839715203
 40
0.4727194134
 40
0.5568483432
 40
0.6355669362
 40
0.7081330144
 40
0.7738623711
 40
0.8321364209
 40
0.8824067852
 40
0.9043890172
 40
0.9241995598
 40
0.9417897442
 40
0.9571202073
 40
0.9701540103
 40
0.9808596281
 40
0.9892139371
 40
0.9925023886
 40
0.9951953813
 40
0.9972919602
 40
0.9987913575
 40
0.9996931531
 40
1.0
 40
1.0
 40
1.0
 40
1.0
 10
-53.8323737368
 20
21.1361579495
 30
0.0
 10
-53.8641186787
 20
21.1409467104
 30
0.0
 10
-53.926304772
 20
21.1503433735
 30
0.0
 10
-54.0028580195
 20
21.1619515927
 30
0.0
 10
-54.0612900313
 20
21.1708389377
 30
0.0
 10
-54.1020291385
 20
21.1770488841
 30
0.0
 10
-54.1401458999
 20
21.1828734254
 30
0.0
 10
-54.175281229
 20
21.188257655
 30
0.0
 10
-54.2071040439
 20
21.1931507444
 30
0.0
 10
-54.2353146601
 20
21.1975065417
 30
0.0
 10
-54.2564410613
 20
21.2007859353
 30
0.0
 10
-54.2713399066
 20
21.2031121297
 30
0.0
 10
-54.2809489497
 20
21.2046192959
 30
0.0
 10
-54.2894805577
 20
21.2059649846
 30
0.0
 10
-54.2969141753
 20
21.2071461012
 30
0.0
 10
-54.3032333743
 20
21.208159282
 30
0.0
 10
-54.3084204718
 20
21.2090033686
 30
0.0
 10
-54.3120353102
 20
21.2096002722
 30
0.0
 10
-54.314344639
 20
21.209996906
 30
0.0
 10
-54.3156594686
 20
21.2102195941
 30
0.0
 10
-54.3166435804
 20
21.2104157816
 30
0.0
 10
-54.3174339789
 20
21.2105259321
 30
0.0
 10
-54.3177500026
 20
21.2106691765
 30
0.0
 10
-54.3180646491
 20
21.2106677933
 30
0.0
 10
-54.3180571544
 20
21.2107174909
 30
0.0
  0
SPLINE
  5
75F
100
AcDbEntity
  8
RACCORDO
100
AcDbSpline
 62
250
  6
CONTINUOUS
 70
0
 71
3
 72
29
 73
25
 74
0
 42
0.0000001
 43
0.0000001
 44
0.0000000001
 40
0.0
 40
0.0
 40
0.0
 40
0.0
 40
0.1960036077
 40
0.3839715766
 40
0.4727194746
 40
0.5568484056
 40
0.6355669966
 40
0.70813307
 40
0.7738624197
 40
0.832136461
 40
0.8824068163
 40
0.9043890436
 40
0.9241995818
 40
0.941789762
 40
0.9571202211
 40
0.9701540205
 40
0.9808596352
 40
0.9892139416
 40
0.9925023919
 40
0.9951953836
 40
0.9972919617
 40
0.9987913584
 40
0.9996931535
 40
1.0
 40
1.0
 40
1.0
 40
1.0
 10
-53.8323737368
 20
-21.1361579495
 30
0.0
 10
-53.8641186683
 20
-21.1409467089
 30
0.0
 10
-53.9263047394
 20
-21.1503433687
 30
0.0
 10
-54.0028579581
 20
-21.1619515837
 30
0.0
 10
-54.0612899449
 20
-21.170838925
 30
0.0
 10
-54.1020290321
 20
-21.1770488684
 30
0.0
 10
-54.1401457733
 20
-21.1828734067
 30
0.0
 10
-54.1752810825
 20
-21.1882576333
 30
0.0
 10
-54.207103878
 20
-21.1931507198
 30
0.0
 10
-54.235314476
 20
-21.1975065143
 30
0.0
 10
-54.256440863
 20
-21.2007859057
 30
0.0
 10
-54.2713396978
 20
-21.2031120985
 30
0.0
 10
-54.2809487339
 20
-21.2046192637
 30
0.0
 10
-54.2894803356
 20
-21.2059649513
 30
0.0
 10
-54.2969139474
 20
-21.2071460671
 30
0.0
 10
-54.3032331416
 20
-21.2081592472
 30
0.0
 10
-54.3084202349
 20
-21.209003333
 30
0.0
 10
-54.3120350704
 20
-21.2096002362
 30
0.0
 10
-54.3143443973
 20
-21.2099968696
 30
0.0
 10
-54.3156592257
 20
-21.2102195576
 30
0.0
 10
-54.3166433366
 20
-21.2104157448
 30
0.0
 10
-54.3174337346
 20
-21.2105258954
 30
0.0
 10
-54.3177497574
 20
-21.2106691395
 30
0.0
 10
-54.318064404
 20
-21.2106677564
 30
0.0
 10
-54.3180569091
 20
-21.2107174539
 30
0.0
  0
LINE
  5
760
100
AcDbEntity
  8
RACCORDO
100
AcDbLine
 62
7
  6
CONTINUOUS
 10
-46.8983367983
 20
24.5
 30
0.0
 11
-46.8983367983
 21
24.2500042308
 31
0.0
  0
SPLINE
  5
761
100
AcDbEntity
  8
RACCORDO
100
AcDbSpline
 62
7
  6
CONTINUOUS
 70
0
 71
3
 72
21
 73
17
 74
0
 42
0.0000001
 43
0.0000001
 44
0.0000000001
 40
0.0
 40
0.0
 40
0.0
 40
0.0
 40
0.0979377884
 40
0.1949481034
 40
0.2900789877
 40
0.3824261876
 40
0.5552377377
 40
0.7067384049
 40
0.7726383607
 40
0.8311030019
 40
0.8815684396
 40
0.9235489484
 40
0.9566441116
 40
0.9805310921
 40
0.9950218788
 40
1.0
 40
1.0
 40
1.0
 40
1.0
 10
-46.8983367983
 20
-21.8997711479
 30
0.0
 10
-46.8983367983
 20
-21.9161043433
 30
0.0
 10
-46.8977080553
 20
-21.9486125024
 30
0.0
 10
-46.8975558369
 20
-21.9969901031
 30
0.0
 10
-46.8978267214
 20
-22.0444339037
 30
0.0
 10
-46.89813335
 20
-22.1045190323
 30
0.0
 10
-46.8987562767
 20
-22.1740031755
 30
0.0
 10
-46.8993070865
 20
-22.2390768519
 30
0.0
 10
-46.899628109
 20
-22.2850822802
 30
0.0
 10
-46.8997786543
 20
-22.3142381024
 30
0.0
 10
-46.8998360521
 20
-22.3394068672
 30
0.0
 10
-46.8998049187
 20
-22.3603399858
 30
0.0
 10
-46.8996518179
 20
-22.3768530335
 30
0.0
 10
-46.8993814472
 20
-22.3887486506
 30
0.0
 10
-46.8992065415
 20
-22.3960145645
 30
0.0
 10
-46.8985540116
 20
-22.3991944505
 30
0.0
 10
-46.8983367983
 20
-22.4
 30
0.0
  0
SPLINE
  5
762
100
AcDbEntity
  8
RACCORDO
100
AcDbSpline
 62
250
  6
CONTINUOUS
 70
0
 71
3
 72
25
 73
21
 74
0
 42
0.0000001
 43
0.0000001
 44
0.0000000001
 40
0.0
 40
0.0
 40
0.0
 40
0.0
 40
0.1950097432
 40
0.3824966833
 40
0.4711548506
 40
0.5552737603
 40
0.6340444416
 40
0.7067098952
 40
0.7725720571
 40
0.830998267
 40
0.881427571
 40
0.9233768702
 40
0.9410436834
 40
0.9564470718
 40
0.9695525105
 40
0.9803285623
 40
0.9887545358
 40
0.9948169776
 40
0.9985235388
 40
1.0
 40
1.0
 40
1.0
 40
1.0
 10
-53.3641320925
 20
-21.5609131753
 30
0.0
 10
-53.3658321756
 20
-21.5933625763
 30
0.0
 10
-53.3690595386
 20
-21.6570152587
 30
0.0
 10
-53.3727615213
 20
-21.7354352831
 30
0.0
 10
-53.3754112282
 20
-21.7954065592
 30
0.0
 10
-53.3771697373
 20
-21.8372843638
 30
0.0
 10
-53.3787203092
 20
-21.8765036165
 30
0.0
 10
-53.3800483395
 20
-21.9126871043
 30
0.0
 10
-53.3811415033
 20
-21.9454867732
 30
0.0
 10
-53.3819903595
 20
-21.9745873131
 30
0.0
 10
-53.3825873963
 20
-21.9997082046
 30
0.0
 10
-53.3828894876
 20
-22.0180433309
 30
0.0
 10
-53.3829848052
 20
-22.03054208
 30
0.0
 10
-53.3829864683
 20
-22.0382392385
 30
0.0
 10
-53.3829242989
 20
-22.044776289
 30
0.0
 10
-53.3827978003
 20
-22.0501826446
 30
0.0
 10
-53.3826145325
 20
-22.0543260066
 30
0.0
 10
-53.382370239
 20
-22.0574928539
 30
0.0
 10
-53.3821051781
 20
-22.0590876353
 30
0.0
 10
-53.3818195487
 20
-22.060215067
 30
0.0
 10
-53.3815738674
 20
-22.0602279426
 30
0.0
  0
SPLINE
  5
763
100
AcDbEntity
  8
RACCORDO
100
AcDbSpline
 62
250
  6
CONTINUOUS
 70
0
 71
3
 72
26
 73
22
 74
0
 42
0.0000001
 43
0.0000001
 44
0.0000000001
 40
0.0
 40
0.0
 40
0.0
 40
0.0
 40
0.0003335531
 40
0.0012485377
 40
0.002760312
 40
0.0048703484
 40
0.0108838626
 40
0.0192798932
 40
0.0300362305
 40
0.0431281083
 40
0.0585261522
 40
0.0761906048
 40
0.118148324
 40
0.168596747
 40
0.2270523391
 40
0.2929515808
 40
0.3656588731
 40
0.4444754185
 40
0.6173484607
 40
0.804919804
 40
1.0
 40
1.0
 40
1.0
 40
1.0
 10
-46.1468823655
 20
24.495628166
 30
0.0
 10
-46.1468545683
 20
24.4956280043
 30
0.0
 10
-46.1468413306
 20
24.495477879
 30
0.0
 10
-46.1468008854
 20
24.4952943483
 30
0.0
 10
-46.1467759272
 20
24.4948925842
 30
0.0
 10
-46.1467248766
 20
24.4941060198
 30
0.0
 10
-46.1466759048
 20
24.492719004
 30
0.0
 10
-46.1466187528
 20
24.4906278529
 30
0.0
 10
-46.1465670912
 20
24.4879390802
 30
0.0
 10
-46.1465182551
 20
24.4846694877
 30
0.0
 10
-46.1464737891
 20
24.4808230755
 30
0.0
 10
-46.1464167535
 20
24.4745714119
 30
0.0
 10
-46.1463603108
 20
24.46539845
 30
0.0
 10
-46.1463134751
 20
24.4528260562
 30
0.0
 10
-46.1462854924
 20
24.4382583307
 30
0.0
 10
-46.1462767183
 20
24.4218355876
 30
0.0
 10
-46.1462874066
 20
24.403716003
 30
0.0
 10
-46.1463289509
 20
24.3766814763
 30
0.0
 10
-46.1464309353
 20
24.3400745182
 30
0.0
 10
-46.1466201817
 20
24.2937786412
 30
0.0
 10
-46.1467877865
 20
24.2618896962
 30
0.0
 10
-46.1468823655
 20
24.2456323968
 30
0.0
  0
SPLINE
  5
764
100
AcDbEntity
  8
RACCORDO
100
AcDbSpline
 62
250
  6
CONTINUOUS
 70
0
 71
3
 72
26
 73
22
 74
0
 42
0.0000001
 43
0.0000001
 44
0.0000000001
 40
0.0
 40
0.0
 40
0.0
 40
0.0
 40
0.0003335562
 40
0.0012485491
 40
0.002760334
 40
0.0048703807
 40
0.0108839043
 40
0.0192799462
 40
0.0300363018
 40
0.0431281863
 40
0.0585262415
 40
0.0761907094
 40
0.1181484384
 40
0.1685968697
 40
0.2270524715
 40
0.2929517109
 40
0.3656589972
 40
0.4444755363
 40
0.6173485454
 40
0.8049198518
 40
1.0
 40
1.0
 40
1.0
 40
1.0
 10
-49.1497912312
 20
24.4869014213
 30
0.0
 10
-49.1498190286
 20
24.4869012596
 30
0.0
 10
-49.1498322657
 20
24.4867511326
 30
0.0
 10
-49.1498727115
 20
24.4865676007
 30
0.0
 10
-49.1498976695
 20
24.4861658338
 30
0.0
 10
-49.1499487202
 20
24.4853792671
 30
0.0
 10
-49.1499976923
 20
24.4839922486
 30
0.0
 10
-49.1500548443
 20
24.4819010943
 30
0.0
 10
-49.1501065058
 20
24.4792123186
 30
0.0
 10
-49.1501553419
 20
24.475942723
 30
0.0
 10
-49.1501998078
 20
24.472096308
 30
0.0
 10
-49.1502568433
 20
24.4658446414
 30
0.0
 10
-49.150313286
 20
24.4566716767
 30
0.0
 10
-49.1503601217
 20
24.4440992806
 30
0.0
 10
-49.1503881043
 20
24.4295315538
 30
0.0
 10
-49.1503968783
 20
24.4131088105
 30
0.0
 10
-49.1503861901
 20
24.3949892272
 30
0.0
 10
-49.1503446457
 20
24.3679547043
 30
0.0
 10
-49.1502426613
 20
24.3313477526
 30
0.0
 10
-49.1500534149
 20
24.2850518854
 30
0.0
 10
-49.1498858102
 20
24.2531629475
 30
0.0
 10
-49.1497912312
 20
24.2369056521
 30
0.0
  0
SPLINE
  5
765
100
AcDbEntity
  8
SUPERFICI
100
AcDbSpline
 62
7
  6
CONTINUOUS
 70
0
 71
3
 72
10
 73
6
 74
0
 42
0.0000001
 43
0.0000001
 44
0.0000000001
 40
0.0
 40
0.0
 40
0.0
 40
0.0
 40
0.0871592394
 40
0.4713290238
 40
1.0
 40
1.0
 40
1.0
 40
1.0
 10
-48.3983367983
 20
23.1226497308
 30
0.0
 10
-48.39116655
 20
23.1269297228
 30
0.0
 10
-48.3523256569
 20
23.1499613838
 30
0.0
 10
-48.2693096957
 20
23.1977906216
 30
0.0
 10
-48.193654983
 20
23.2416619063
 30
0.0
 10
-48.1497912312
 20
23.2669872981
 30
0.0
  0
SPLINE
  5
766
100
AcDbEntity
  8
SUPERFICI
100
AcDbSpline
 62
7
  6
CONTINUOUS
 70
0
 71
3
 72
18
 73
14
 74
0
 42
0.0000001
 43
0.0000001
 44
0.0000000001
 40
0.0
 40
0.0
 40
0.0
 40
0.0
 40
0.0979378208
 40
0.1949481678
 40
0.3824262608
 40
0.555237868
 40
0.7067385852
 40
0.8311031688
 40
0.9235489232
 40
0.9566440972
 40
0.9805310857
 40
0.9950218771
 40
1.0
 40
1.0
 40
1.0
 40
1.0
 10
-46.8983367983
 20
-21.8997711479
 30
0.0
 10
-46.8983367983
 20
-21.9161043433
 30
0.0
 10
-46.8977018612
 20
-21.9486125244
 30
0.0
 10
-46.8975374062
 20
-22.0123910893
 30
0.0
 10
-46.8980441119
 20
-22.0886542526
 30
0.0
 10
-46.8987434977
 20
-22.1740035597
 30
0.0
 10
-46.8993947868
 20
-22.2488256643
 30
0.0
 10
-46.8997858641
 20
-22.3102520964
 30
0.0
 10
-46.8998785136
 20
-22.3519205799
 30
0.0
 10
-46.8996522953
 20
-22.3768528958
 30
0.0
 10
-46.8993813843
 20
-22.3887486687
 30
0.0
 10
-46.8992065415
 20
-22.3960145645
 30
0.0
 10
-46.8985540149
 20
-22.3991944495
 30
0.0
 10
-46.8983367983
 20
-22.4
 30
0.0
  0
SPLINE
  5
767
100
AcDbEntity
  8
SUPERFICI
100
AcDbSpline
 62
250
  6
CONTINUOUS
 70
0
 71
3
 72
21
 73
17
 74
0
 42
0.0000001
 43
0.0000001
 44
0.0000000001
 40
0.0
 40
0.0
 40
0.0
 40
0.0
 40
0.1950099623
 40
0.3824971131
 40
0.5552742796
 40
0.7067104289
 40
0.7725726648
 40
0.8309989404
 40
0.881428301
 40
0.9233776474
 40
0.9564476508
 40
0.9803285402
 40
0.9887545231
 40
0.9948169717
 40
0.9985235372
 40
1.0
 40
1.0
 40
1.0
 40
1.0
 10
-53.3641320925
 20
-21.5609131753
 30
0.0
 10
-53.3658321756
 20
-21.5933625763
 30
0.0
 10
-53.3690595964
 20
-21.6570152516
 30
0.0
 10
-53.3734222765
 20
-21.7494362206
 30
0.0
 10
-53.3771082683
 20
-21.8346196716
 30
0.0
 10
-53.3796105745
 20
-21.8995692995
 30
0.0
 10
-53.3811415867
 20
-21.9454864679
 30
0.0
 10
-53.3819903466
 20
-21.9745882691
 30
0.0
 10
-53.3825873838
 20
-21.999705374
 30
0.0
 10
-53.3829318164
 20
-22.0206176029
 30
0.0
 10
-53.383019635
 20
-22.0370668247
 30
0.0
 10
-53.3828914123
 20
-22.0480244567
 30
0.0
 10
-53.3826146853
 20
-22.0543269554
 30
0.0
 10
-53.3823702179
 20
-22.0574927231
 30
0.0
 10
-53.3821051798
 20
-22.0590876461
 30
0.0
 10
-53.3818195487
 20
-22.060215067
 30
0.0
 10
-53.3815738674
 20
-22.0602279426
 30
0.0
  0
SPLINE
  5
768
100
AcDbEntity
  8
SUPERFICI
100
AcDbSpline
 62
250
  6
CONTINUOUS
 70
0
 71
3
 72
22
 73
18
 74
0
 42
0.0000001
 43
0.0000001
 44
0.0000000001
 40
0.0
 40
0.0
 40
0.0
 40
0.0
 40
0.1960040634
 40
0.3839724693
 40
0.5568496978
 40
0.7081347104
 40
0.7738642129
 40
0.8321383898
 40
0.8824088619
 40
0.924201722
 40
0.9571224325
 40
0.9701562621
 40
0.9808619017
 40
0.9892162275
 40
0.9951976694
 40
0.998793587
 40
1.0
 40
1.0
 40
1.0
 40
1.0
 10
-53.8323737368
 20
-21.1361579495
 30
0.0
 10
-53.8641186683
 20
-21.1409467089
 30
0.0
 10
-53.9263047458
 20
-21.1503433572
 30
0.0
 10
-54.0164819589
 20
-21.1640175116
 30
0.0
 10
-54.0994099929
 20
-21.1766420942
 30
0.0
 10
-54.1625371242
 20
-21.1862982916
 30
0.0
 10
-54.2071040616
 20
-21.1931506047
 30
0.0
 10
-54.2353139022
 20
-21.1975068415
 30
0.0
 10
-54.2596489945
 20
-21.2012826709
 30
0.0
 10
-54.2798682852
 20
-21.2044492188
 30
0.0
 10
-54.2940794906
 20
-21.2066839111
 30
0.0
 10
-54.3032199154
 20
-21.2081668479
 30
0.0
 10
-54.3084572241
 20
-21.2089820425
 30
0.0
 10
-54.3123774684
 20
-21.2097258076
 30
0.0
 10
-54.3155587588
 20
-21.2100558307
 30
0.0
 10
-54.3167929922
 20
-21.2106635156
 30
0.0
 10
-54.3180863763
 20
-21.2105220613
 30
0.0
 10
-54.3180569091
 20
-21.2107174539
 30
0.0
  0
SPLINE
  5
769
100
AcDbEntity
  8
SUPERFICI
100
AcDbSpline
 62
250
  6
CONTINUOUS
 70
0
 71
3
 72
22
 73
18
 74
0
 42
0.0000001
 43
0.0000001
 44
0.0000000001
 40
0.0
 40
0.0
 40
0.0
 40
0.0
 40
0.1960040281
 40
0.383972413
 40
0.5568496354
 40
0.7081346548
 40
0.7738641643
 40
0.8321383496
 40
0.8824088308
 40
0.9242017
 40
0.9571224187
 40
0.9701562519
 40
0.9808618946
 40
0.9892162231
 40
0.9951976671
 40
0.9987935861
 40
1.0
 40
1.0
 40
1.0
 40
1.0
 10
-53.8323737368
 20
21.1361579495
 30
0.0
 10
-53.8641186787
 20
21.1409467104
 30
0.0
 10
-53.9263047784
 20
21.1503433619
 30
0.0
 10
-54.016482027
 20
21.1640175216
 30
0.0
 10
-54.0994100996
 20
21.1766421099
 30
0.0
 10
-54.1625372639
 20
21.1862983123
 30
0.0
 10
-54.2071042275
 20
21.1931506293
 30
0.0
 10
-54.2353140863
 20
21.1975068688
 30
0.0
 10
-54.2596491952
 20
21.2012827008
 30
0.0
 10
-54.2798685004
 20
21.204449251
 30
0.0
 10
-54.2940797163
 20
21.2066839449
 30
0.0
 10
-54.3032201481
 20
21.2081668828
 30
0.0
 10
-54.3084574609
 20
21.208982078
 30
0.0
 10
-54.3123777089
 20
21.2097258438
 30
0.0
 10
-54.3155590009
 20
21.210055867
 30
0.0
 10
-54.3167932374
 20
21.2106635527
 30
0.0
 10
-54.3180866207
 20
21.210522098
 30
0.0
 10
-54.3180571544
 20
21.2107174909
 30
0.0
  0
SPLINE
  5
76A
100
AcDbEntity
  8
SUPERFICI
100
AcDbSpline
 62
250
  6
CONTINUOUS
 70
0
 71
3
 72
21
 73
17
 74
0
 42
0.0000001
 43
0.0000001
 44
0.0000000001
 40
0.0
 40
0.0
 40
0.0
 40
0.0
 40
0.1950099623
 40
0.382497113
 40
0.5552742795
 40
0.7067104288
 40
0.7725726647
 40
0.8309989402
 40
0.8814283009
 40
0.9233776473
 40
0.9564476507
 40
0.9803285401
 40
0.9887545231
 40
0.9948169717
 40
0.9985235371
 40
1.0
 40
1.0
 40
1.0
 40
1.0
 10
-53.3641320925
 20
21.5609131753
 30
0.0
 10
-53.3658321756
 20
21.5933625763
 30
0.0
 10
-53.3690595966
 20
21.6570152516
 30
0.0
 10
-53.3734222767
 20
21.7494362206
 30
0.0
 10
-53.3771082686
 20
21.8346196715
 30
0.0
 10
-53.3796105749
 20
21.8995692994
 30
0.0
 10
-53.381141587
 20
21.9454864679
 30
0.0
 10
-53.3819903469
 20
21.9745882691
 30
0.0
 10
-53.382587384
 20
21.999705374
 30
0.0
 10
-53.3829318167
 20
22.0206176029
 30
0.0
 10
-53.3830196352
 20
22.0370668247
 30
0.0
 10
-53.3828914125
 20
22.0480244567
 30
0.0
 10
-53.3826146854
 20
22.0543269554
 30
0.0
 10
-53.382370218
 20
22.0574927231
 30
0.0
 10
-53.3821051799
 20
22.0590876462
 30
0.0
 10
-53.3818195487
 20
22.060215067
 30
0.0
 10
-53.3815738674
 20
22.0602279426
 30
0.0
  0
SPLINE
  5
76B
100
AcDbEntity
  8
SUPERFICI
100
AcDbSpline
 62
7
  6
CONTINUOUS
 70
0
 71
3
 72
18
 73
14
 74
0
 42
0.0000001
 43
0.0000001
 44
0.0000000001
 40
0.0
 40
0.0
 40
0.0
 40
0.0
 40
0.0979378208
 40
0.1949481678
 40
0.3824262608
 40
0.555237868
 40
0.7067385852
 40
0.8311031688
 40
0.9235489232
 40
0.9566440972
 40
0.9805310857
 40
0.9950218771
 40
1.0
 40
1.0
 40
1.0
 40
1.0
 10
-46.8983367983
 20
21.8997711479
 30
0.0
 10
-46.8983367983
 20
21.9161043433
 30
0.0
 10
-46.8977018612
 20
21.9486125244
 30
0.0
 10
-46.8975374062
 20
22.0123910893
 30
0.0
 10
-46.8980441119
 20
22.0886542526
 30
0.0
 10
-46.8987434977
 20
22.1740035597
 30
0.0
 10
-46.8993947868
 20
22.2488256643
 30
0.0
 10
-46.8997858641
 20
22.3102520964
 30
0.0
 10
-46.8998785136
 20
22.3519205799
 30
0.0
 10
-46.8996522953
 20
22.3768528958
 30
0.0
 10
-46.8993813843
 20
22.3887486687
 30
0.0
 10
-46.8992065415
 20
22.3960145645
 30
0.0
 10
-46.8985540149
 20
22.3991944495
 30
0.0
 10
-46.8983367983
 20
22.4
 30
0.0
  0
SPLINE
  5
76C
100
AcDbEntity
  8
SUPERFICI
100
AcDbSpline
 62
250
  6
CONTINUOUS
 70
0
 71
3
 72
21
 73
17
 74
0
 42
0.0000001
 43
0.0000001
 44
0.0000000001
 40
0.0
 40
0.0
 40
0.0
 40
0.0
 40
0.1950822179
 40
0.3826555053
 40
0.5555303392
 40
0.70705573
 40
0.7729556547
 40
0.8314118527
 40
0.8818607985
 40
0.9238189525
 40
0.9568817655
 40
0.9807301574
 40
0.989126275
 40
0.9951398515
 40
0.9987613804
 40
1.0
 40
1.0
 40
1.0
 40
1.0
 10
-46.1468823655
 20
-24.2456323968
 30
0.0
 10
-46.1467877865
 20
-24.2618896962
 30
0.0
 10
-46.1466202066
 20
-24.2937786331
 30
0.0
 10
-46.1464308545
 20
-24.3400745443
 30
0.0
 10
-46.1463123306
 20
-24.382740643
 30
0.0
 10
-46.1462731815
 20
-24.4152673812
 30
0.0
 10
-46.1462856477
 20
-24.4382580493
 30
0.0
 10
-46.1463129441
 20
-24.4528269448
 30
0.0
 10
-46.1463618918
 20
-24.4653958182
 30
0.0
 10
-46.1464202432
 20
-24.4758619698
 30
0.0
 10
-46.1465173636
 20
-24.4840748507
 30
0.0
 10
-46.1465692751
 20
-24.4895717745
 30
0.0
 10
-46.1466973277
 20
-24.4926846162
 30
0.0
 10
-46.1466817748
 20
-24.4943092826
 30
0.0
 10
-46.1468668685
 20
-24.4949952231
 30
0.0
 10
-46.1467791444
 20
-24.4956275655
 30
0.0
 10
-46.1468823655
 20
-24.495628166
 30
0.0
  0
LINE
  5
76D
100
AcDbEntity
  8
SUPERFICI
100
AcDbLine
 62
7
  6
CONTINUOUS
 10
-46.8983367983
 20
-24.2500042308
 30
0.0
 11
-46.8983367983
 21
-24.5
 31
0.0
  0
SPLINE
  5
76E
100
AcDbEntity
  8
SUPERFICI
100
AcDbSpline
 62
250
  6
CONTINUOUS
 70
0
 71
3
 72
21
 73
17
 74
0
 42
0.0000001
 43
0.0000001
 44
0.0000000001
 40
0.0
 40
0.0
 40
0.0
 40
0.0
 40
0.1950821701
 40
0.3826554205
 40
0.5555302213
 40
0.7070555998
 40
0.7729555222
 40
0.8314117298
 40
0.881860684
 40
0.9238188479
 40
0.9568816874
 40
0.9807301043
 40
0.9891262332
 40
0.9951398191
 40
0.998761369
 40
1.0
 40
1.0
 40
1.0
 40
1.0
 10
-49.1497912312
 20
-24.2369056521
 30
0.0
 10
-49.1498858102
 20
-24.2531629475
 30
0.0
 10
-49.15005339
 20
-24.2850518774
 30
0.0
 10
-49.1502427421
 20
-24.3313477787
 30
0.0
 10
-49.150361266
 20
-24.3740138705
 30
0.0
 10
-49.1504004152
 20
-24.4065406047
 30
0.0
 10
-49.150387949
 20
-24.4295312724
 30
0.0
 10
-49.1503606527
 20
-24.4441001692
 30
0.0
 10
-49.1503117051
 20
-24.4566690449
 30
0.0
 10
-49.1502533536
 20
-24.4671352002
 30
0.0
 10
-49.1501562332
 20
-24.4753480863
 30
0.0
 10
-49.1501043221
 20
-24.4808450153
 30
0.0
 10
-49.1499762692
 20
-24.4839578608
 30
0.0
 10
-49.1499918224
 20
-24.4855825308
 30
0.0
 10
-49.1498067271
 20
-24.4862684737
 30
0.0
 10
-49.1498944533
 20
-24.4869008208
 30
0.0
 10
-49.1497912312
 20
-24.4869014213
 30
0.0
  0
SPLINE
  5
76F
100
AcDbEntity
  8
SUPERFICI
100
AcDbSpline
 62
250
  6
CONTINUOUS
 70
0
 71
3
 72
21
 73
17
 74
0
 42
0.0000001
 43
0.0000001
 44
0.0000000001
 40
0.0
 40
0.0
 40
0.0
 40
0.0
 40
0.1952389023
 40
0.38287979
 40
0.5557566991
 40
0.7072427174
 40
0.7731145695
 40
0.8315405978
 40
0.8819595776
 40
0.9238899665
 40
0.9569288677
 40
0.9807583616
 40
0.9891470509
 40
0.9951544438
 40
0.9987704654
 40
1.0
 40
1.0
 40
1.0
 40
1.0
 10
-49.1497912312
 20
-23.8443375673
 30
0.0
 10
-49.1579027948
 20
-23.8302874514
 30
0.0
 10
-49.1737968495
 20
-23.8027262719
 30
0.0
 10
-49.1968270312
 20
-23.7626974643
 30
0.0
 10
-49.2180021217
 20
-23.7257960171
 30
0.0
 10
-49.2341030228
 20
-23.6976484891
 30
0.0
 10
-49.2454511844
 20
-23.6777396323
 30
0.0
 10
-49.2526269243
 20
-23.6651173102
 30
0.0
 10
-49.2587974403
 20
-23.6542175024
 30
0.0
 10
-49.2639238048
 20
-23.6451349275
 30
0.0
 10
-49.2679033071
 20
-23.6379843721
 30
0.0
 10
-49.2705859728
 20
-23.6332080714
 30
0.0
 10
-49.2720172845
 20
-23.6304555846
 30
0.0
 10
-49.2728471305
 20
-23.6290629423
 30
0.0
 10
-49.2730184357
 20
-23.6283790328
 30
0.0
 10
-49.2734252795
 20
-23.627882301
 30
0.0
 10
-49.2733367983
 20
-23.6278312164
 30
0.0
  0
SPLINE
  5
770
100
AcDbEntity
  8
SUPERFICI
100
AcDbSpline
 62
250
  6
CONTINUOUS
 70
0
 71
3
 72
21
 73
17
 74
0
 42
0.0000001
 43
0.0000001
 44
0.0000000001
 40
0.0
 40
0.0
 40
0.0
 40
0.0
 40
0.1952388959
 40
0.3828797779
 40
0.5557566816
 40
0.7072426977
 40
0.7731145491
 40
0.8315405786
 40
0.8819595594
 40
0.9238899496
 40
0.9569288549
 40
0.9807583528
 40
0.9891470439
 40
0.9951544383
 40
0.9987704635
 40
1.0
 40
1.0
 40
1.0
 40
1.0
 10
-46.1468823655
 20
-23.8443375673
 30
0.0
 10
-46.1387708021
 20
-23.8302874519
 30
0.0
 10
-46.1228767479
 20
-23.8027262732
 30
0.0
 10
-46.0998465669
 20
-23.7626974669
 30
0.0
 10
-46.078671477
 20
-23.7257960207
 30
0.0
 10
-46.0625705763
 20
-23.6976484932
 30
0.0
 10
-46.0512224147
 20
-23.6777396366
 30
0.0
 10
-46.0440466748
 20
-23.6651173144
 30
0.0
 10
-46.0378761585
 20
-23.6542175063
 30
0.0
 10
-46.0327497938
 20
-23.645134931
 30
0.0
 10
-46.0287702911
 20
-23.6379843749
 30
0.0
 10
-46.026087625
 20
-23.6332080735
 30
0.0
 10
-46.0246563131
 20
-23.6304555862
 30
0.0
 10
-46.0238264667
 20
-23.6290629434
 30
0.0
 10
-46.0236551615
 20
-23.6283790333
 30
0.0
 10
-46.0232483171
 20
-23.627882301
 30
0.0
 10
-46.0233367983
 20
-23.6278312164
 30
0.0
  0
SPLINE
  5
771
100
AcDbEntity
  8
SUPERFICI
100
AcDbSpline
 62
250
  6
CONTINUOUS
 70
0
 71
3
 72
21
 73
17
 74
0
 42
0.0000001
 43
0.0000001
 44
0.0000000001
 40
0.0
 40
0.0
 40
0.0
 40
0.0
 40
0.1952388959
 40
0.3828797779
 40
0.5557566816
 40
0.7072426977
 40
0.7731145491
 40
0.8315405786
 40
0.8819595594
 40
0.9238899496
 40
0.9569288549
 40
0.9807583528
 40
0.9891470439
 40
0.9951544383
 40
0.9987704635
 40
1.0
 40
1.0
 40
1.0
 40
1.0
 10
-49.1497912312
 20
23.8443375673
 30
0.0
 10
-49.1579027945
 20
23.8302874519
 30
0.0
 10
-49.1737968487
 20
23.8027262732
 30
0.0
 10
-49.1968270297
 20
23.7626974669
 30
0.0
 10
-49.2180021197
 20
23.7257960207
 30
0.0
 10
-49.2341030204
 20
23.6976484932
 30
0.0
 10
-49.245451182
 20
23.6777396366
 30
0.0
 10
-49.2526269219
 20
23.6651173144
 30
0.0
 10
-49.2587974381
 20
23.6542175063
 30
0.0
 10
-49.2639238029
 20
23.645134931
 30
0.0
 10
-49.2679033055
 20
23.6379843749
 30
0.0
 10
-49.2705859717
 20
23.6332080735
 30
0.0
 10
-49.2720172836
 20
23.6304555862
 30
0.0
 10
-49.2728471299
 20
23.6290629434
 30
0.0
 10
-49.2730184352
 20
23.6283790333
 30
0.0
 10
-49.2734252796
 20
23.627882301
 30
0.0
 10
-49.2733367983
 20
23.6278312164
 30
0.0
  0
SPLINE
  5
772
100
AcDbEntity
  8
SUPERFICI
100
AcDbSpline
 62
250
  6
CONTINUOUS
 70
0
 71
3
 72
21
 73
17
 74
0
 42
0.0000001
 43
0.0000001
 44
0.0000000001
 40
0.0
 40
0.0
 40
0.0
 40
0.0
 40
0.0012386196
 40
0.0048601485
 40
0.010873725
 40
0.0192698426
 40
0.0431182345
 40
0.0761810475
 40
0.1181392015
 40
0.1685881473
 40
0.2270443453
 40
0.29294427
 40
0.4444696608
 40
0.6173444947
 40
0.8049177821
 40
1.0
 40
1.0
 40
1.0
 40
1.0
 10
-46.1468823655
 20
24.495628166
 30
0.0
 10
-46.1467791444
 20
24.4956275655
 30
0.0
 10
-46.1468668685
 20
24.4949952231
 30
0.0
 10
-46.1466817748
 20
24.4943092826
 30
0.0
 10
-46.1466973277
 20
24.4926846162
 30
0.0
 10
-46.1465692751
 20
24.4895717745
 30
0.0
 10
-46.1465173636
 20
24.4840748507
 30
0.0
 10
-46.1464202432
 20
24.4758619698
 30
0.0
 10
-46.1463618918
 20
24.4653958182
 30
0.0
 10
-46.1463129441
 20
24.4528269448
 30
0.0
 10
-46.1462856477
 20
24.4382580493
 30
0.0
 10
-46.1462731815
 20
24.4152673812
 30
0.0
 10
-46.1463123306
 20
24.382740643
 30
0.0
 10
-46.1464308545
 20
24.3400745443
 30
0.0
 10
-46.1466202066
 20
24.2937786331
 30
0.0
 10
-46.1467877865
 20
24.2618896962
 30
0.0
 10
-46.1468823655
 20
24.2456323968
 30
0.0
  0
LINE
  5
773
100
AcDbEntity
  8
SUPERFICI
100
AcDbLine
 62
7
  6
CONTINUOUS
 10
-46.8983367983
 20
24.5
 30
0.0
 11
-46.8983367983
 21
24.2500042308
 31
0.0
  0
SPLINE
  5
774
100
AcDbEntity
  8
SUPERFICI
100
AcDbSpline
 62
250
  6
CONTINUOUS
 70
0
 71
3
 72
21
 73
17
 74
0
 42
0.0000001
 43
0.0000001
 44
0.0000000001
 40
0.0
 40
0.0
 40
0.0
 40
0.0
 40
0.001238631
 40
0.0048601809
 40
0.0108737668
 40
0.0192698957
 40
0.0431183126
 40
0.0761811521
 40
0.118139316
 40
0.1685882702
 40
0.2270444778
 40
0.2929444002
 40
0.4444697787
 40
0.6173445795
 40
0.8049178299
 40
1.0
 40
1.0
 40
1.0
 40
1.0
 10
-49.1497912312
 20
24.4869014213
 30
0.0
 10
-49.1498944533
 20
24.4869008208
 30
0.0
 10
-49.1498067271
 20
24.4862684737
 30
0.0
 10
-49.1499918224
 20
24.4855825308
 30
0.0
 10
-49.1499762692
 20
24.4839578608
 30
0.0
 10
-49.1501043221
 20
24.4808450153
 30
0.0
 10
-49.1501562332
 20
24.4753480863
 30
0.0
 10
-49.1502533536
 20
24.4671352002
 30
0.0
 10
-49.1503117051
 20
24.4566690449
 30
0.0
 10
-49.1503606527
 20
24.4441001692
 30
0.0
 10
-49.150387949
 20
24.4295312724
 30
0.0
 10
-49.1504004152
 20
24.4065406047
 30
0.0
 10
-49.150361266
 20
24.3740138705
 30
0.0
 10
-49.1502427421
 20
24.3313477787
 30
0.0
 10
-49.15005339
 20
24.2850518774
 30
0.0
 10
-49.1498858102
 20
24.2531629475
 30
0.0
 10
-49.1497912312
 20
24.2369056521
 30
0.0
  0
SPLINE
  5
775
100
AcDbEntity
  8
SUPERFICI
100
AcDbSpline
 62
250
  6
CONTINUOUS
 70
0
 71
3
 72
21
 73
17
 74
0
 42
0.0000001
 43
0.0000001
 44
0.0000000001
 40
0.0
 40
0.0
 40
0.0
 40
0.0
 40
0.1952389023
 40
0.38287979
 40
0.5557566991
 40
0.7072427174
 40
0.7731145695
 40
0.8315405978
 40
0.8819595776
 40
0.9238899665
 40
0.9569288677
 40
0.9807583616
 40
0.9891470509
 40
0.9951544438
 40
0.9987704654
 40
1.0
 40
1.0
 40
1.0
 40
1.0
 10
-46.1468823655
 20
23.8443375673
 30
0.0
 10
-46.1387708019
 20
23.8302874514
 30
0.0
 10
-46.1228767472
 20
23.8027262719
 30
0.0
 10
-46.0998465654
 20
23.7626974643
 30
0.0
 10
-46.0786714749
 20
23.7257960171
 30
0.0
 10
-46.0625705739
 20
23.6976484891
 30
0.0
 10
-46.0512224122
 20
23.6777396323
 30
0.0
 10
-46.0440466724
 20
23.6651173102
 30
0.0
 10
-46.0378761563
 20
23.6542175024
 30
0.0
 10
-46.0327497918
 20
23.6451349275
 30
0.0
 10
-46.0287702896
 20
23.6379843721
 30
0.0
 10
-46.0260876239
 20
23.6332080714
 30
0.0
 10
-46.0246563122
 20
23.6304555846
 30
0.0
 10
-46.0238264662
 20
23.6290629423
 30
0.0
 10
-46.023655161
 20
23.6283790328
 30
0.0
 10
-46.0232483172
 20
23.627882301
 30
0.0
 10
-46.0233367983
 20
23.6278312164
 30
0.0
  0
SPLINE
  5
776
100
AcDbEntity
  8
0
100
AcDbSpline
 62
250
  6
CONTINUOUS
 70
0
 71
3
 72
12
 73
8
 74
0
 42
0.0000001
 43
0.0000001
 44
0.0000000001
 40
0.0
 40
0.0
 40
0.0
 40
0.0
 40
0.1233187792
 40
0.2469727305
 40
0.4951728562
 40
0.7465090872
 40
1.0
 40
1.0
 40
1.0
 40
1.0
 10
-57.0127293701
 20
17.3443930431
 30
0.0
 10
-57.0062680252
 20
17.4030570017
 30
0.0
 10
-56.9821869888
 20
17.519655711
 30
0.0
 10
-56.8911371022
 20
17.7396721997
 30
0.0
 10
-56.7003299107
 20
17.9786191439
 30
0.0
 10
-56.3834758391
 20
18.1653037178
 30
0.0
 10
-56.139654157
 20
18.20858252
 30
0.0
 10
-56.0183367983
 20
18.20858252
 30
0.0
  0
SPLINE
  5
777
100
AcDbEntity
  8
0
100
AcDbSpline
 62
250
  6
CONTINUOUS
 70
0
 71
3
 72
12
 73
8
 74
0
 42
0.0000001
 43
0.0000001
 44
0.0000000001
 40
0.0
 40
0.0
 40
0.0
 40
0.0
 40
0.1233187792
 40
0.2469727305
 40
0.4951728562
 40
0.7465090872
 40
1.0
 40
1.0
 40
1.0
 40
1.0
 10
-57.0127293701
 20
-11.0556069569
 30
0.0
 10
-57.0062680252
 20
-10.9969429983
 30
0.0
 10
-56.9821869888
 20
-10.880344289
 30
0.0
 10
-56.8911371022
 20
-10.6603278003
 30
0.0
 10
-56.7003299106
 20
-10.4213808561
 30
0.0
 10
-56.3834758391
 20
-10.2346962822
 30
0.0
 10
-56.139654157
 20
-10.19141748
 30
0.0
 10
-56.0183367983
 20
-10.19141748
 30
0.0
  0
ELLIPSE
  5
778
100
AcDbEntity
  8
RACCORDO
100
AcDbEllipse
 62
7
  6
CONTINUOUS
 10
3.4982546264
 20
-23.7982512664
 30
0.0
 11
0.0
 21
0.2
 31
0.0
 40
0.0087268678
 41
-3.1357748894
 42
-1.5707963268
  0
ELLIPSE
  5
779
100
AcDbEntity
  8
RACCORDO
100
AcDbEllipse
 62
7
  6
CONTINUOUS
 10
7.5072765181
 20
22.3344902759
 30
0.0
 11
0.25
 21
0.0
 31
0.0
 40
0.0524077793
 41
-3.1357748894
 42
-1.5707963268
  0
ELLIPSE
  5
77A
100
AcDbEntity
  8
RACCORDO
100
AcDbEllipse
 62
7
  6
CONTINUOUS
 10
-1.202625676
 20
22.3842776662
 30
0.0
 11
0.2
 21
0.0
 31
0.0
 40
0.0524077793
 41
-1.5707963268
 42
-0.0087266463
  0
ELLIPSE
  5
77B
100
AcDbEntity
  8
RACCORDO
100
AcDbEllipse
 62
7
  6
CONTINUOUS
 10
9.8927234819
 20
22.3344902759
 30
0.0
 11
0.25
 21
0.0
 31
0.0
 40
0.0524077793
 41
-1.5707963268
 42
-0.0058177642
  0
ELLIPSE
  5
77C
100
AcDbEntity
  8
RACCORDO
100
AcDbEllipse
 62
7
  6
CONTINUOUS
 10
7.5072765181
 20
-22.3344902759
 30
0.0
 11
0.25
 21
0.0
 31
0.0
 40
0.0524077793
 41
1.5707963268
 42
3.1357748894
  0
ELLIPSE
  5
77D
100
AcDbEntity
  8
RACCORDO
100
AcDbEllipse
 62
7
  6
CONTINUOUS
 10
-3.4982546264
 20
23.7982512664
 30
0.0
 11
0.0
 21
0.2
 31
0.0
 40
0.0087268678
 41
0.0058177642
 42
1.5707963268
  0
ELLIPSE
  5
77E
100
AcDbEntity
  8
RACCORDO
100
AcDbEllipse
 62
7
  6
CONTINUOUS
 10
9.8927234819
 20
-22.3344902759
 30
0.0
 11
0.25
 21
-0.0
 31
0.0
 40
0.0524077793
 41
0.0058177642
 42
1.5707963268
  0
ELLIPSE
  5
77F
100
AcDbEntity
  8
RACCORDO
100
AcDbEllipse
 62
7
  6
CONTINUOUS
 10
-7.5072765181
 20
-22.3344902759
 30
0.0
 11
0.25
 21
0.0
 31
0.0
 40
0.0524077793
 41
0.0058177642
 42
1.5707963268
  0
ELLIPSE
  5
780
100
AcDbEntity
  8
RACCORDO
100
AcDbEllipse
 62
7
  6
CONTINUOUS
 10
-9.8927234819
 20
-22.3344902759
 30
0.0
 11
0.25
 21
0.0
 31
0.0
 40
0.0524077793
 41
1.5707963268
 42
3.1357748894
  0
ELLIPSE
  5
781
100
AcDbEntity
  8
RACCORDO
100
AcDbEllipse
 62
7
  6
CONTINUOUS
 10
1.202625676
 20
22.3842776662
 30
0.0
 11
0.2
 21
-0.0
 31
0.0
 40
0.0524077793
 41
-3.1328660073
 42
-1.5707963268
  0
ELLIPSE
  5
782
100
AcDbEntity
  8
RACCORDO
100
AcDbEllipse
 62
7
  6
CONTINUOUS
 10
-9.8927234819
 20
22.3344902759
 30
0.0
 11
0.25
 21
0.0
 31
0.0
 40
0.0524077793
 41
-3.1357748894
 42
-1.5707963268
  0
ELLIPSE
  5
783
100
AcDbEntity
  8
RACCORDO
100
AcDbEllipse
 62
7
  6
CONTINUOUS
 10
-7.5072765181
 20
22.3344902759
 30
0.0
 11
0.25
 21
0.0
 31
0.0
 40
0.0524077793
 41
-1.5707963268
 42
-0.0058177642
  0
ELLIPSE
  5
784
100
AcDbEntity
  8
RACCORDO
100
AcDbEllipse
 62
7
  6
CONTINUOUS
 10
3.4982546264
 20
23.7982512664
 30
0.0
 11
0.0
 21
0.2
 31
0.0
 40
0.0087268678
 41
-1.5707963268
 42
-0.0058177642
  0
ELLIPSE
  5
785
100
AcDbEntity
  8
RACCORDO
100
AcDbEllipse
 62
7
  6
CONTINUOUS
 10
-1.202625676
 20
-22.3842776662
 30
0.0
 11
0.2
 21
-0.0
 31
0.0
 40
0.0524077793
 41
0.0087266463
 42
1.5707963268
  0
ELLIPSE
  5
786
100
AcDbEntity
  8
RACCORDO
100
AcDbEllipse
 62
7
  6
CONTINUOUS
 10
-3.4982546264
 20
-23.7982512664
 30
0.0
 11
0.0
 21
0.2
 31
0.0
 40
0.0087268678
 41
-4.7123889804
 42
-3.1474104178
  0
ELLIPSE
  5
787
100
AcDbEntity
  8
RACCORDO
100
AcDbEllipse
 62
7
  6
CONTINUOUS
 10
1.202625676
 20
-22.3842776662
 30
0.0
 11
0.2
 21
0.0
 31
0.0
 40
0.0524077793
 41
1.5707963268
 42
3.1328660073
  0
ELLIPSE
  5
788
100
AcDbEntity
  8
SUPERFICI
100
AcDbEllipse
 62
7
  6
CONTINUOUS
 10
-1.202625676
 20
-22.3842776662
 30
0.0
 11
0.2
 21
-0.0
 31
0.0
 40
0.0524077793
 41
0.0087266463
 42
1.5707963268
  0
ELLIPSE
  5
789
100
AcDbEntity
  8
SUPERFICI
100
AcDbEllipse
 62
7
  6
CONTINUOUS
 10
3.4982546264
 20
-23.7982512664
 30
0.0
 11
0.0
 21
0.2
 31
0.0
 40
0.0087268678
 41
-3.1357748894
 42
-1.5707963268
  0
ELLIPSE
  5
78A
100
AcDbEntity
  8
SUPERFICI
100
AcDbEllipse
 62
7
  6
CONTINUOUS
 10
-3.4982546264
 20
-23.7982512664
 30
0.0
 11
0.0
 21
0.2
 31
0.0
 40
0.0087268678
 41
-4.7123889804
 42
-3.1474104178
  0
ELLIPSE
  5
78B
100
AcDbEntity
  8
SUPERFICI
100
AcDbEllipse
 62
7
  6
CONTINUOUS
 10
3.4982546264
 20
23.7982512664
 30
0.0
 11
0.0
 21
0.2
 31
0.0
 40
0.0087268678
 41
-1.5707963268
 42
-0.0058177642
  0
ELLIPSE
  5
78C
100
AcDbEntity
  8
SUPERFICI
100
AcDbEllipse
 62
7
  6
CONTINUOUS
 10
-3.4982546264
 20
23.7982512664
 30
0.0
 11
0.0
 21
0.2
 31
0.0
 40
0.0087268678
 41
0.0058177642
 42
1.5707963268
  0
ELLIPSE
  5
78D
100
AcDbEntity
  8
SUPERFICI
100
AcDbEllipse
 62
7
  6
CONTINUOUS
 10
-9.8927234819
 20
-22.3344902759
 30
0.0
 11
0.25
 21
0.0
 31
0.0
 40
0.0524077793
 41
1.5707963268
 42
3.1357748894
  0
ELLIPSE
  5
78E
100
AcDbEntity
  8
SUPERFICI
100
AcDbEllipse
 62
7
  6
CONTINUOUS
 10
9.8927234819
 20
22.3344902759
 30
0.0
 11
0.25
 21
0.0
 31
0.0
 40
0.0524077793
 41
-1.5707963268
 42
-0.0058177642
  0
ELLIPSE
  5
78F
100
AcDbEntity
  8
SUPERFICI
100
AcDbEllipse
 62
7
  6
CONTINUOUS
 10
7.5072765181
 20
22.3344902759
 30
0.0
 11
0.25
 21
0.0
 31
0.0
 40
0.0524077793
 41
-3.1357748894
 42
-1.5707963268
  0
ELLIPSE
  5
790
100
AcDbEntity
  8
SUPERFICI
100
AcDbEllipse
 62
7
  6
CONTINUOUS
 10
-7.5072765181
 20
22.3344902759
 30
0.0
 11
0.25
 21
0.0
 31
0.0
 40
0.0524077793
 41
-1.5707963268
 42
-0.0058177642
  0
ELLIPSE
  5
791
100
AcDbEntity
  8
SUPERFICI
100
AcDbEllipse
 62
7
  6
CONTINUOUS
 10
-7.5072765181
 20
-22.3344902759
 30
0.0
 11
0.25
 21
0.0
 31
0.0
 40
0.0524077793
 41
0.0058177642
 42
1.5707963268
  0
ELLIPSE
  5
792
100
AcDbEntity
  8
SUPERFICI
100
AcDbEllipse
 62
7
  6
CONTINUOUS
 10
9.8927234819
 20
-22.3344902759
 30
0.0
 11
0.25
 21
-0.0
 31
0.0
 40
0.0524077793
 41
0.0058177642
 42
1.5707963268
  0
ELLIPSE
  5
793
100
AcDbEntity
  8
SUPERFICI
100
AcDbEllipse
 62
7
  6
CONTINUOUS
 10
7.5072765181
 20
-22.3344902759
 30
0.0
 11
0.25
 21
0.0
 31
0.0
 40
0.0524077793
 41
1.5707963268
 42
3.1357748894
  0
ELLIPSE
  5
794
100
AcDbEntity
  8
SUPERFICI
100
AcDbEllipse
 62
7
  6
CONTINUOUS
 10
1.202625676
 20
22.3842776662
 30
0.0
 11
0.2
 21
-0.0
 31
0.0
 40
0.0524077793
 41
-3.1328660073
 42
-1.5707963268
  0
ELLIPSE
  5
795
100
AcDbEntity
  8
SUPERFICI
100
AcDbEllipse
 62
7
  6
CONTINUOUS
 10
-9.8927234819
 20
22.3344902759
 30
0.0
 11
0.25
 21
0.0
 31
0.0
 40
0.0524077793
 41
-3.1357748894
 42
-1.5707963268
  0
ELLIPSE
  5
796
100
AcDbEntity
  8
SUPERFICI
100
AcDbEllipse
 62
7
  6
CONTINUOUS
 10
-1.202625676
 20
22.3842776662
 30
0.0
 11
0.2
 21
0.0
 31
0.0
 40
0.0524077793
 41
-1.5707963268
 42
-0.0087266463
  0
ELLIPSE
  5
797
100
AcDbEntity
  8
SUPERFICI
100
AcDbEllipse
 62
7
  6
CONTINUOUS
 10
1.202625676
 20
-22.3842776662
 30
0.0
 11
0.2
 21
0.0
 31
0.0
 40
0.0524077793
 41
1.5707963268
 42
3.1328660073
  0
ELLIPSE
  5
798
100
AcDbEntity
  8
ASSI
100
AcDbEllipse
 62
7
  6
CONTINUOUS
 10
30.4500928777
 20
-23.15
 30
0.0
 11
85.9426996401
 21
-0.0
 31
0.0
 40
0.0058178298
 41
2.5196231925
 42
2.6905658418
  0
ELLIPSE
  5
799
100
AcDbEntity
  8
ASSI
100
AcDbEllipse
 62
7
  6
CONTINUOUS
 10
30.4500928777
 20
-23.15
 30
0.0
 11
85.9426996401
 21
0.0
 31
0.0
 40
0.0058178298
 41
-2.6791261215
 42
-2.5196231925
  0
ELLIPSE
  5
79A
100
AcDbEntity
  8
ASSI
100
AcDbEllipse
 62
7
  6
CONTINUOUS
 10
30.4500928777
 20
23.15
 30
0.0
 11
85.9426996401
 21
-0.0
 31
0.0
 40
0.0058178298
 41
2.5196231925
 42
2.6791261215
  0
ELLIPSE
  5
79B
100
AcDbEntity
  8
ASSI
100
AcDbEllipse
 62
7
  6
CONTINUOUS
 10
30.4500928777
 20
23.15
 30
0.0
 11
85.9426996401
 21
-0.0
 31
0.0
 40
0.0058178298
 41
-2.6905658418
 42
-2.5196231925
  0
ELLIPSE
  5
79C
100
AcDbEntity
  8
RACCORDO
100
AcDbEllipse
 62
7
  6
CONTINUOUS
 10
-35.3983367983
 20
21.9537669705
 30
0.0
 11
-0.3546425507
 21
0.3568377408
 31
0.0
 40
0.9877342685
 41
-3.912622899
 42
-2.8852845239
  0
ELLIPSE
  5
79D
100
AcDbEntity
  8
RACCORDO
100
AcDbEllipse
 62
7
  6
CONTINUOUS
 10
-35.3983367983
 20
-21.9537669705
 30
0.0
 11
0.3546425507
 21
0.3568377408
 31
0.0
 40
0.9877342685
 41
-0.2563081296
 42
0.7710302454
  0
ELLIPSE
  5
79E
100
AcDbEntity
  8
SUPERFICI
100
AcDbEllipse
 62
7
  6
CONTINUOUS
 10
30.4500928777
 20
-23.15
 30
0.0
 11
85.9426996401
 21
-0.0
 31
0.0
 40
0.0058178298
 41
2.5196231925
 42
2.6905658418
  0
ELLIPSE
  5
79F
100
AcDbEntity
  8
SUPERFICI
100
AcDbEllipse
 62
7
  6
CONTINUOUS
 10
30.4500928777
 20
-23.15
 30
0.0
 11
85.9426996401
 21
-0.0
 31
0.0
 40
0.0058178298
 41
-2.6791261215
 42
-2.5196231925
  0
ELLIPSE
  5
7A0
100
AcDbEntity
  8
SUPERFICI
100
AcDbEllipse
 62
7
  6
CONTINUOUS
 10
30.4500928777
 20
23.15
 30
0.0
 11
85.9426996401
 21
-0.0
 31
0.0
 40
0.0058178298
 41
2.5196231925
 42
2.6791261215
  0
ELLIPSE
  5
7A1
100
AcDbEntity
  8
SUPERFICI
100
AcDbEllipse
 62
7
  6
CONTINUOUS
 10
30.4500928777
 20
23.15
 30
0.0
 11
85.9426996401
 21
-0.0
 31
0.0
 40
0.0058178298
 41
-2.6905658418
 42
-2.5196231925
  0
ELLIPSE
  5
7A2
100
AcDbEntity
  8
SUPERFICI
100
AcDbEllipse
 62
7
  6
CONTINUOUS
 10
-35.3983367983
 20
-21.9537669705
 30
0.0
 11
0.3546425507
 21
0.3568377408
 31
0.0
 40
0.9877342685
 41
-0.2563081296
 42
0.7710302454
  0
ELLIPSE
  5
7A3
100
AcDbEntity
  8
SUPERFICI
100
AcDbEllipse
 62
7
  6
CONTINUOUS
 10
-35.3983367983
 20
21.9537669705
 30
0.0
 11
-0.3546425507
 21
0.3568377408
 31
0.0
 40
0.9877342685
 41
-3.912622899
 42
-2.8852845239
  0
ENDSEC
  0
SECTION
  2
OBJECTS
  0
DICTIONARY
  5
C
100
AcDbDictionary
280
0
281
1
  3
ACAD_GROUP
350
D
  3
ACAD_MLINESTYLE
350
17
  3
ACAD_LAYOUT
350
1A
  3
ACAD_PLOTSETTINGS
350
19
  3
ACAD_PLOTSTYLENAME
350
E
  0
DICTIONARY
  5
D
102
{ACAD_REACTORS
330
C
102
}
100
AcDbDictionary
280
0
281
1
  0
ACDBDICTIONARYWDFLT
  5
E
102
{ACAD_REACTORS
330
C
102
}
100
AcDbDictionary
281
1
  3
Normal
350
F
100
AcDbDictionaryWithDefault
340
F
  0
DICTIONARY
  5
17
102
{ACAD_REACTORS
330
C
102
}
100
AcDbDictionary
280
0
281
1
  3
Standard
350
18
  0
DICTIONARY
  5
19
102
{ACAD_REACTORS
330
C
102
}
100
AcDbDictionary
281
1
  0
DICTIONARY
  5
1A
102
{ACAD_REACTORS
330
C
102
}
100
AcDbDictionary
281
1
  3
Model
350
7A4
  3
Layout1
350
7A5
  0
ACDBPLACEHOLDER
  5
F
102
{ACAD_REACTORS
330
E
102
}
  0
MLINESTYLE
  5
18
102
{ACAD_REACTORS
330
17
102
}
100
AcDbMlineStyle
  2
STANDARD
 70
0
  3

 62
256
 51
90.0
 52
90.0
 71
2
 49
0.5
 62
256
  6
BYLAYER
 49
-0.5
 62
256
  6
BYLAYER
  0
LAYOUT
  5
7A4
102
{ACAD_REACTORS
330
1A
102
}
100
AcDbPlotSettings
  1

  2
none_device
  4
ISO_A4_(297.00_x_210.00_MM)
  6

 40
0.0
 41
0.0
 42
0.0
 43
0.0
 44
297.0
 45
210.0
 46
0.0
 47
0.0
 48
0.0
 49
0.0
140
0.0
141
0.0
142
1.0
143
1.0
 70
1024
 72
1
 73
0
 74
0
  7

 75
0
147
1.0
148
0.0
149
0.0
100
AcDbLayout
  1
Model
 70
0
 71
0
 10
0.0
 20
0.0
 11
297.0
 21
210.0
 12
0.0
 22
0.0
 32
0.0
 14
0.0
 24
0.0
 34
0.0
 15
0.0
 25
0.0
 35
0.0
146
0.0
 13
0.0
 23
0.0
 33
0.0
 16
1.0
 26
0.0
 36
0.0
 17
0.0
 27
1.0
 37
0.0
 76
0
330
21C
345
0
346
0
  0
LAYOUT
  5
7A5
102
{ACAD_REACTORS
330
1A
102
}
100
AcDbPlotSettings
  1

  2
none_device
  4
ISO_A4_(297.00_x_210.00_MM)
  6

 40
0.0
 41
0.0
 42
0.0
 43
0.0
 44
297.0
 45
210.0
 46
0.0
 47
0.0
 48
0.0
 49
0.0
140
0.0
141
0.0
142
1.0
143
1.0
 70
0
 72
1
 73
0
 74
0
  7

 75
0
147
1.0
148
0.0
149
0.0
100
AcDbLayout
  1
Layout1
 70
0
 71
1
 10
0.0
 20
0.0
 11
297.0
 21
210.0
 12
0.0
 22
0.0
 32
0.0
 14
0.0
 24
0.0
 34
0.0
 15
0.0
 25
0.0
 35
0.0
146
0.0
 13
0.0
 23
0.0
 33
0.0
 16
1.0
 26
0.0
 36
0.0
 17
0.0
 27
1.0
 37
0.0
 76
0
330
21D
345
0
346
0
  0
ENDSEC
  0
EOF
