  0
SECTION
  2
HEADER
  9
$ACADVER
  1
AC1015
  9
$DWGCODEPAGE
  3
ANSI_1252
  9
$EXTMAX
 10
297.0
 20
210.0
 30
0.0
  9
$EXTMIN
 10
0.0
 20
0.0
 30
0.0
  9
$LIMMIN
 10
0.0
 20
0.0
  9
$LIMMAX
 10
297.0
 20
210.0
  9
$VIEWCTR
 10
148.5
 20
105.0
  9
$VIEWSIZE
 40
210.0
  9
$CLAYER
  8
0
  9
$LTSCALE
 40
16.335
  9
$CELTYPE
  6
BYLAYER
  9
$DIMSCALE
 40
1.0
  9
$DIMASZ
 40
3.0
  9
$DIMEXO
 40
1.85625
  9
$DIMDLI
 40
11.286
  9
$DIMEXE
 40
5.346
  9
$DIMCEN
 40
2.673
  9
$DIMLFAC
 40
1.0
  9
$DIMBLK
  1
_FILLED
  9
$DIMTXT
 40
3.0
  9
$DIMTOL
 70
1
  9
$DIMLIM
 70
0
  9
$DIMTFAC
 40
1.0
  9
$DIMTP
 40
0.01
  9
$DIMTM
 40
0.01
  9
$PDMODE
 70
3
  9
$PDSIZE
 40
3.0
  9
$HANDSEED
  5
640
  9
$TILEMODE
 70
1
  9
$MEASUREMENT
 70
1
  9
$INSUNITS
 70
4
  0
ENDSEC
  0
SECTION
  2
CLASSES
  0
CLASS
  1
ACDBDICTIONARYWDFLT
  2
AcDbDictionaryWithDefault
  3
AutoCAD 2000
 90
0
280
0
281
0
  0
CLASS
  1
ACDBPLACEHOLDER
  2
AcDbPlaceHolder
  3
AutoCAD 2000
 90
0
280
0
281
0
  0
CLASS
  1
LAYOUT
  2
AcDbLayout
  3
AutoCAD 2000
 90
0
280
0
281
0
  0
ENDSEC
  0
SECTION
  2
TABLES
  0
TABLE
  2
VPORT
  5
8
100
AcDbSymbolTable
 70
2
  0
VPORT
  5
1F4
100
AcDbSymbolTableRecord
100
AcDbViewportTableRecord
  2
*ACTIVE
 70
0
 10
0.0
 20
0.0
 11
1.0
 21
1.0
 12
148.5
 22
105.0
 13
0.0
 23
0.0
 14
1.0
 24
1.0
 15
0.0
 25
0.0
 16
0.0
 26
0.0
 36
1.0
 17
0.0
 27
0.0
 37
0.0
 40
210.0
 41
1.4142857143
 42
50.0
 43
0.0
 44
0.0
 50
0.0
 51
0.0
 71
0
 72
100
 73
1
 74
1
 75
0
 76
0
 77
0
 78
0
  0
ENDTAB
  0
TABLE
  2
LTYPE
  5
5
100
AcDbSymbolTable
 70
6
  0
LTYPE
  5
14
100
AcDbSymbolTableRecord
100
AcDbLinetypeTableRecord
  2
BYBLOCK
 70
0
  3

 72
65
 73
0
 40
0.0
  0
LTYPE
  5
15
100
AcDbSymbolTableRecord
100
AcDbLinetypeTableRecord
  2
BYLAYER
 70
0
  3

 72
65
 73
0
 40
0.0
  0
LTYPE
  5
16
100
AcDbSymbolTableRecord
100
AcDbLinetypeTableRecord
  2
CONTINUOUS
 70
64
  3
Solid line
 72
65
 73
0
 40
0.0
  0
LTYPE
  5
1F5
100
AcDbSymbolTableRecord
100
AcDbLinetypeTableRecord
  2
CENTER
 70
64
  3
____ _ ____ _ ____ _ ____ _ ____ _ ____ _ ____
 72
65
 73
4
 40
0.6
 49
0.375
 74
0
 49
-0.075
 74
0
 49
0.075
 74
0
 49
-0.075
 74
0
  0
LTYPE
  5
1F6
100
AcDbSymbolTableRecord
100
AcDbLinetypeTableRecord
  2
HIDDEN
 70
64
  3
- - - - - - - - - - - - - - - - - - - -
 72
65
 73
2
 40
0.2
 49
0.1
 74
0
 49
-0.1
 74
0
  0
LTYPE
  5
1F7
100
AcDbSymbolTableRecord
100
AcDbLinetypeTableRecord
  2
PHANTOM
 70
64
  3
_____ _ _ _____ _ _ _____ _ _ _____
 72
65
 73
6
 40
0.8
 49
0.45
 74
0
 49
-0.05
 74
0
 49
0.1
 74
0
 49
-0.05
 74
0
 49
0.1
 74
0
 49
-0.05
 74
0
  0
LTYPE
  5
1F8
100
AcDbSymbolTableRecord
100
AcDbLinetypeTableRecord
  2
DOT
 70
64
  3
. . . . . . . . . . . . . . . . . . . .
 72
65
 73
2
 40
0.2
 49
0.1
 74
0
 49
-0.1
 74
0
  0
LTYPE
  5
1F9
100
AcDbSymbolTableRecord
100
AcDbLinetypeTableRecord
  2
DASHED
 70
64
  3
- - - - - - - - - - - - - - - - - - - -
 72
65
 73
2
 40
0.2
 49
0.1
 74
0
 49
-0.1
 74
0
  0
ENDTAB
  0
TABLE
  2
LAYER
  5
2
100
AcDbSymbolTable
 70
36
  0
LAYER
  5
10
100
AcDbSymbolTableRecord
100
AcDbLayerTableRecord
  2
0
 70
0
 62
7
  6
CONTINUOUS
370
-3
390
F
  0
LAYER
  5
1FA
100
AcDbSymbolTableRecord
100
AcDbLayerTableRecord
  2
DEFAULT_1
 70
0
 62
7
  6
CENTER
370
-3
390
F
  0
LAYER
  5
1FB
100
AcDbSymbolTableRecord
100
AcDbLayerTableRecord
  2
DEFAULT_2
 70
0
 62
7
  6
HIDDEN
370
-3
390
F
  0
LAYER
  5
1FC
100
AcDbSymbolTableRecord
100
AcDbLayerTableRecord
  2
DEFAULT_3
 70
0
 62
7
  6
PHANTOM
370
-3
390
F
  0
LAYER
  5
1FD
100
AcDbSymbolTableRecord
100
AcDbLayerTableRecord
  2
ASSI
 70
0
 62
7
  6
CONTINUOUS
370
-3
390
F
  0
LAYER
  5
1FE
100
AcDbSymbolTableRecord
100
AcDbLayerTableRecord
  2
CN-MRT4P5_3SQV01-VIMAR_1600000
 70
0
 62
7
  6
CONTINUOUS
370
-3
390
F
  0
LAYER
  5
1FF
100
AcDbSymbolTableRecord
100
AcDbLayerTableRecord
  2
COLOR5
 70
0
 62
7
  6
CONTINUOUS
370
-3
390
F
  0
LAYER
  5
200
100
AcDbSymbolTableRecord
100
AcDbLayerTableRecord
  2
COLORE_MATERIALE
 70
0
 62
7
  6
CONTINUOUS
370
-3
390
F
  0
LAYER
  5
201
100
AcDbSymbolTableRecord
100
AcDbLayerTableRecord
  2
COORDINATE
 70
0
 62
7
  6
CONTINUOUS
370
-3
390
F
  0
LAYER
  5
202
100
AcDbSymbolTableRecord
100
AcDbLayerTableRecord
  2
COORD_ORIGINE
 70
0
 62
7
  6
CONTINUOUS
370
-3
390
F
  0
LAYER
  5
203
100
AcDbSymbolTableRecord
100
AcDbLayerTableRecord
  2
COPY_PUBLISH
 70
0
 62
7
  6
CONTINUOUS
370
-3
390
F
  0
LAYER
  5
204
100
AcDbSymbolTableRecord
100
AcDbLayerTableRecord
  2
COSMETIC
 70
0
 62
7
  6
CONTINUOUS
370
-3
390
F
  0
LAYER
  5
205
100
AcDbSymbolTableRecord
100
AcDbLayerTableRecord
  2
CURVE
 70
0
 62
7
  6
CONTINUOUS
370
-3
390
F
  0
LAYER
  5
206
100
AcDbSymbolTableRecord
100
AcDbLayerTableRecord
  2
DRAFT
 70
0
 62
7
  6
CONTINUOUS
370
-3
390
F
  0
LAYER
  5
207
100
AcDbSymbolTableRecord
100
AcDbLayerTableRecord
  2
IMPORT_IGES
 70
0
 62
7
  6
CONTINUOUS
370
-3
390
F
  0
LAYER
  5
208
100
AcDbSymbolTableRecord
100
AcDbLayerTableRecord
  2
INCISIONI
 70
0
 62
7
  6
CONTINUOUS
370
-3
390
F
  0
LAYER
  5
209
100
AcDbSymbolTableRecord
100
AcDbLayerTableRecord
  2
INTF_1
 70
0
 62
7
  6
CONTINUOUS
370
-3
390
F
  0
LAYER
  5
20A
100
AcDbSymbolTableRecord
100
AcDbLayerTableRecord
  2
INTF_RED
 70
0
 62
7
  6
CONTINUOUS
370
-3
390
F
  0
LAYER
  5
20B
100
AcDbSymbolTableRecord
100
AcDbLayerTableRecord
  2
NOTE
 70
0
 62
7
  6
CONTINUOUS
370
-3
390
F
  0
LAYER
  5
20C
100
AcDbSymbolTableRecord
100
AcDbLayerTableRecord
  2
PIANI
 70
0
 62
7
  6
CONTINUOUS
370
-3
390
F
  0
LAYER
  5
20D
100
AcDbSymbolTableRecord
100
AcDbLayerTableRecord
  2
PIANI_DI_RIFERIMENTO
 70
0
 62
7
  6
CONTINUOUS
370
-3
390
F
  0
LAYER
  5
20E
100
AcDbSymbolTableRecord
100
AcDbLayerTableRecord
  2
PIANI_ORIGINE
 70
0
 62
7
  6
CONTINUOUS
370
-3
390
F
  0
LAYER
  5
20F
100
AcDbSymbolTableRecord
100
AcDbLayerTableRecord
  2
PIANI_RIFERIMENTO
 70
0
 62
7
  6
CONTINUOUS
370
-3
390
F
  0
LAYER
  5
210
100
AcDbSymbolTableRecord
100
AcDbLayerTableRecord
  2
PUBLISHED_GEOMETRY
 70
0
 62
7
  6
CONTINUOUS
370
-3
390
F
  0
LAYER
  5
211
100
AcDbSymbolTableRecord
100
AcDbLayerTableRecord
  2
PUNTI
 70
0
 62
7
  6
CONTINUOUS
370
-3
390
F
  0
LAYER
  5
212
100
AcDbSymbolTableRecord
100
AcDbLayerTableRecord
  2
RACCORDO
 70
0
 62
7
  6
CONTINUOUS
370
-3
390
F
  0
LAYER
  5
213
100
AcDbSymbolTableRecord
100
AcDbLayerTableRecord
  2
SKEL
 70
0
 62
7
  6
CONTINUOUS
370
-3
390
F
  0
LAYER
  5
214
100
AcDbSymbolTableRecord
100
AcDbLayerTableRecord
  2
SMUSSO
 70
0
 62
7
  6
CONTINUOUS
370
-3
390
F
  0
LAYER
  5
215
100
AcDbSymbolTableRecord
100
AcDbLayerTableRecord
  2
SNAPLINE
 70
0
 62
7
  6
CONTINUOUS
370
-3
390
F
  0
LAYER
  5
216
100
AcDbSymbolTableRecord
100
AcDbLayerTableRecord
  2
SUPERFICI
 70
0
 62
7
  6
CONTINUOUS
370
-3
390
F
  0
LAYER
  5
217
100
AcDbSymbolTableRecord
100
AcDbLayerTableRecord
  2
TRASH
 70
0
 62
7
  6
CONTINUOUS
370
-3
390
F
  0
LAYER
  5
218
100
AcDbSymbolTableRecord
100
AcDbLayerTableRecord
  2
XSEC_DATUMS
 70
0
 62
7
  6
CONTINUOUS
370
-3
390
F
  0
LAYER
  5
219
100
AcDbSymbolTableRecord
100
AcDbLayerTableRecord
  2
___SHELL
 70
0
 62
7
  6
CONTINUOUS
370
-3
390
F
  0
ENDTAB
  0
TABLE
  2
STYLE
  5
3
100
AcDbSymbolTable
 70
1
  0
STYLE
  5
11
100
AcDbSymbolTableRecord
100
AcDbTextStyleTableRecord
  2
STANDARD
 70
0
 40
0.0
 41
0.8
 50
0.0
 71
0
 42
0.2
  3
txt
  4

  0
STYLE
  5
21A
100
AcDbSymbolTableRecord
100
AcDbTextStyleTableRecord
  2
TEXTSTYLE_1
 70
0
 40
0.0
 41
0.8
 50
0.0
 71
0
 42
0.2
  3
gdt
  4

  0
ENDTAB
  0
TABLE
  2
VIEW
  5
6
100
AcDbSymbolTable
 70
0
  0
ENDTAB
  0
TABLE
  2
UCS
  5
7
100
AcDbSymbolTable
 70
0
  0
ENDTAB
  0
TABLE
  2
APPID
  5
9
100
AcDbSymbolTable
 70
1
  0
APPID
  5
21B
100
AcDbSymbolTableRecord
100
AcDbRegAppTableRecord
  2
ACAD
 70
0
  0
ENDTAB
  0
TABLE
  2
BLOCK_RECORD
  5
1
100
AcDbSymbolTable
 70
0
  0
BLOCK_RECORD
  5
21C
100
AcDbSymbolTableRecord
100
AcDbBlockTableRecord
  2
*Model_Space
  0
BLOCK_RECORD
  5
21D
100
AcDbSymbolTableRecord
100
AcDbBlockTableRecord
  2
*Paper_Space
  0
BLOCK_RECORD
  5
21E
100
AcDbSymbolTableRecord
100
AcDbBlockTableRecord
  2
_FILLED
  0
BLOCK_RECORD
  5
21F
100
AcDbSymbolTableRecord
100
AcDbBlockTableRecord
  2
*D0
  0
BLOCK_RECORD
  5
220
100
AcDbSymbolTableRecord
100
AcDbBlockTableRecord
  2
*D1
  0
BLOCK_RECORD
  5
221
100
AcDbSymbolTableRecord
100
AcDbBlockTableRecord
  2
*D2
  0
BLOCK_RECORD
  5
222
100
AcDbSymbolTableRecord
100
AcDbBlockTableRecord
  2
*D3
  0
ENDTAB
  0
TABLE
  2
DIMSTYLE
  5
A
100
AcDbSymbolTable
 70
1
100
AcDbDimStyleTable
 71
0
  0
DIMSTYLE
105
223
100
AcDbSymbolTableRecord
100
AcDbDimStyleTableRecord
  2
STANDARD
 70
0
  3

  4

 40
1.0
 41
3.0
 42
0.0625
 43
0.38
 44
0.18
 45
0.0
 46
0.0
 47
0.01
 48
0.01
140
3.0
141
0.09
142
0.0
143
25.4
144
1.0
145
0.0
146
1.0
147
0.09
 71
1.0
 72
0.0
 73
0
 74
0
 75
0
 76
0
 77
1
 78
8
170
0
171
2
172
0
173
0
174
0
175
0
176
0
177
0
178
0
270
2
271
2
272
2
273
2
274
2
275
0
280
0
281
0
282
0
283
1
284
8
285
0
286
0
287
3
288
0
340
11
341
21E
342
21E
343
21E
344
21E
  0
DIMSTYLE
105
224
100
AcDbSymbolTableRecord
100
AcDbDimStyleTableRecord
  2
DIMSTYLE_1
 70
0
  3

  4

 40
1.0
 41
3.0
 42
0.0625
 43
0.38
 44
0.18
 45
0.0
 46
0.0
 47
0.0
 48
0.0
140
3.0
141
0.09
142
0.0
143
25.4
144
1.0
145
0.0
146
1.0
147
0.09
 71
0.0
 72
0.0
 73
0
 74
0
 75
0
 76
0
 77
1
 78
8
170
0
171
2
172
0
173
0
174
0
175
0
176
0
177
0
178
0
270
2
271
2
272
2
273
2
274
2
275
0
280
0
281
0
282
0
283
1
284
8
285
0
286
0
287
3
288
0
340
11
341
21E
342
21E
343
21E
344
21E
  0
DIMSTYLE
105
225
100
AcDbSymbolTableRecord
100
AcDbDimStyleTableRecord
  2
DIMSTYLE_2
 70
0
  3

  4

 40
1.0
 41
3.0
 42
0.0625
 43
0.38
 44
0.18
 45
0.0
 46
0.0
 47
0.0
 48
0.0
140
3.0
141
0.09
142
0.0
143
25.4
144
1.0
145
0.0
146
1.0
147
0.09
 71
0.0
 72
0.0
 73
0
 74
0
 75
0
 76
0
 77
1
 78
8
170
0
171
2
172
0
173
0
174
0
175
0
176
0
177
0
178
0
270
2
271
1
272
1
273
2
274
2
275
0
280
0
281
0
282
0
283
1
284
8
285
0
286
0
287
3
288
0
340
11
341
21E
342
21E
343
21E
344
21E
  0
ENDTAB
  0
ENDSEC
  0
SECTION
  2
BLOCKS
  0
BLOCK
  5
20
100
AcDbEntity
  8
0
100
AcDbBlockBegin
  2
*Model_Space
 70
0
 10
0.0
 20
0.0
 30
0.0
  3
*Model_Space
  1

  0
ENDBLK
  5
21
100
AcDbEntity
  8
0
100
AcDbBlockEnd
  0
BLOCK
  5
1C
100
AcDbEntity
  8
0
100
AcDbBlockBegin
  2
*Paper_Space
 70
0
 10
0.0
 20
0.0
 30
0.0
  3
*Paper_Space
  1

  0
ENDBLK
  5
1D
100
AcDbEntity
  8
0
100
AcDbBlockEnd
  0
BLOCK
  5
226
100
AcDbEntity
  8
0
100
AcDbBlockBegin
  2
_FILLED
 70
64
 10
0.0
 20
0.0
  3
_FILLED
  1

  0
SOLID
  5
227
100
AcDbEntity
  8
0
  6
BYBLOCK
 62
0
100
AcDbTrace
 10
0.0
 20
0.0
 11
-1.0
 21
0.3166666667
 12
-1.0
 22
-0.3166666667
 13
-1.0
 23
-0.3166666667
  0
ENDBLK
  5
228
100
AcDbEntity
  8
0
  6
BYBLOCK
 62
0
100
AcDbBlockEnd
  0
BLOCK
  5
229
100
AcDbEntity
  8
0
100
AcDbBlockBegin
 62
7
  6
CONTINUOUS
  2
*D0
 70
65
 10
0.0
 20
0.0
  3
*D0
  1

  0
MTEXT
  5
22A
100
AcDbEntity
  8
0
100
AcDbMText
 62
7
  6
CONTINUOUS
  7
STANDARD
 71
2
 72
1
 10
0.0
 20
36.9248420466
 30
0.0
 11
1.0
 21
0.0
 31
0.0
 44
0.9
  1
22,3
 40
3.0
 41
8.5714285714
  0
LINE
  5
22B
100
AcDbEntity
  8
0
100
AcDbLine
 62
7
  6
CONTINUOUS
 10
-11.15
 20
22.400016923
 11
-11.15
 21
34.6748420466
  0
LINE
  5
22C
100
AcDbEntity
  8
0
100
AcDbLine
 62
7
  6
CONTINUOUS
 10
11.15
 20
22.400016923
 11
11.15
 21
34.6748420466
  0
LINE
  5
22D
100
AcDbEntity
  8
0
100
AcDbLine
 62
7
  6
CONTINUOUS
 10
-11.15
 20
33.1748420466
 11
0.0
 21
33.1748420466
  0
LINE
  5
22E
100
AcDbEntity
  8
0
100
AcDbLine
 62
7
  6
CONTINUOUS
 10
11.15
 20
33.1748420466
 11
0.0
 21
33.1748420466
  0
INSERT
  5
22F
100
AcDbEntity
  8
0
100
AcDbBlockReference
 62
7
  6
CONTINUOUS
  2
_FILLED
 10
-11.15
 20
33.1748420466
 41
3.0
 42
3.0
 43
3.0
 50
180.0
  0
INSERT
  5
230
100
AcDbEntity
  8
0
100
AcDbBlockReference
 62
7
  6
CONTINUOUS
  2
_FILLED
 10
11.15
 20
33.1748420466
 41
3.0
 42
3.0
 43
3.0
  0
ENDBLK
  5
231
100
AcDbEntity
  8
0
  6
BYBLOCK
 62
0
100
AcDbBlockEnd
  0
BLOCK
  5
232
100
AcDbEntity
  8
0
100
AcDbBlockBegin
 62
7
  6
CONTINUOUS
  2
*D1
 70
65
 10
0.0
 20
0.0
  3
*D1
  1

  0
MTEXT
  5
233
100
AcDbEntity
  8
0
100
AcDbMText
 62
7
  6
CONTINUOUS
  7
STANDARD
 71
2
 72
1
 10
15.4349101299
 20
0.0
 30
0.0
 11
0.0
 21
1.0
 31
0.0
 44
0.9
  1
49
 40
3.0
 41
4.7142857143
  0
LINE
  5
234
100
AcDbEntity
  8
0
100
AcDbLine
 62
7
  6
CONTINUOUS
 10
10.4000042308
 20
-24.5
 11
20.6849101299
 21
-24.5
  0
LINE
  5
235
100
AcDbEntity
  8
0
100
AcDbLine
 62
7
  6
CONTINUOUS
 10
10.4000042308
 20
24.5
 11
20.6849101299
 21
24.5
  0
LINE
  5
236
100
AcDbEntity
  8
0
100
AcDbLine
 62
7
  6
CONTINUOUS
 10
19.1849101299
 20
-24.5
 11
19.1849101299
 21
0.0
  0
LINE
  5
237
100
AcDbEntity
  8
0
100
AcDbLine
 62
7
  6
CONTINUOUS
 10
19.1849101299
 20
24.5
 11
19.1849101299
 21
0.0
  0
INSERT
  5
238
100
AcDbEntity
  8
0
100
AcDbBlockReference
 62
7
  6
CONTINUOUS
  2
_FILLED
 10
19.1849101299
 20
-24.5
 41
3.0
 42
3.0
 43
3.0
 50
270.0
  0
INSERT
  5
239
100
AcDbEntity
  8
0
100
AcDbBlockReference
 62
7
  6
CONTINUOUS
  2
_FILLED
 10
19.1849101299
 20
24.5
 41
3.0
 42
3.0
 43
3.0
 50
90.0
  0
ENDBLK
  5
23A
100
AcDbEntity
  8
0
  6
BYBLOCK
 62
0
100
AcDbBlockEnd
  0
BLOCK
  5
23B
100
AcDbEntity
  8
0
100
AcDbBlockBegin
 62
7
  6
CONTINUOUS
  2
*D2
 70
65
 10
0.0
 20
0.0
  3
*D2
  1

  0
MTEXT
  5
23C
100
AcDbEntity
  8
0
100
AcDbMText
 62
7
  6
CONTINUOUS
  7
STANDARD
 71
2
 72
1
 10
-33.1983367983
 20
36.8189346869
 30
0.0
 11
1.0
 21
0.0
 31
0.0
 44
0.9
  1
23,4
 40
3.0
 41
8.5714285714
  0
LINE
  5
23D
100
AcDbEntity
  8
0
100
AcDbLine
 62
7
  6
CONTINUOUS
 10
-21.4983367983
 20
18.009618074
 11
-21.4983367983
 21
34.5689346869
  0
LINE
  5
23E
100
AcDbEntity
  8
0
100
AcDbLine
 62
7
  6
CONTINUOUS
 10
-44.8983367983
 20
21.35
 11
-44.8983367983
 21
34.5689346869
  0
LINE
  5
23F
100
AcDbEntity
  8
0
100
AcDbLine
 62
7
  6
CONTINUOUS
 10
-21.4983367983
 20
33.0689346869
 11
-33.1983367983
 21
33.0689346869
  0
LINE
  5
240
100
AcDbEntity
  8
0
100
AcDbLine
 62
7
  6
CONTINUOUS
 10
-44.8983367983
 20
33.0689346869
 11
-33.1983367983
 21
33.0689346869
  0
INSERT
  5
241
100
AcDbEntity
  8
0
100
AcDbBlockReference
 62
7
  6
CONTINUOUS
  2
_FILLED
 10
-21.4983367983
 20
33.0689346869
 41
3.0
 42
3.0
 43
3.0
  0
INSERT
  5
242
100
AcDbEntity
  8
0
100
AcDbBlockReference
 62
7
  6
CONTINUOUS
  2
_FILLED
 10
-44.8983367983
 20
33.0689346869
 41
3.0
 42
3.0
 43
3.0
 50
180.0
  0
ENDBLK
  5
243
100
AcDbEntity
  8
0
  6
BYBLOCK
 62
0
100
AcDbBlockEnd
  0
BLOCK
  5
244
100
AcDbEntity
  8
0
100
AcDbBlockBegin
 62
7
  6
CONTINUOUS
  2
*D3
 70
65
 10
0.0
 20
0.0
  3
*D3
  1

  0
MTEXT
  5
245
100
AcDbEntity
  8
0
100
AcDbMText
 62
7
  6
CONTINUOUS
  7
STANDARD
 71
2
 72
1
 10
-39.2583367983
 20
46.8189346869
 30
0.0
 11
1.0
 21
0.0
 31
0.0
 44
0.9
  1
35,5
 40
3.0
 41
8.1428571429
  0
LINE
  5
246
100
AcDbEntity
  8
0
100
AcDbLine
 62
7
  6
CONTINUOUS
 10
-21.4983367983
 20
18.009618074
 11
-21.4983367983
 21
44.5689346869
  0
LINE
  5
247
100
AcDbEntity
  8
0
100
AcDbLine
 62
7
  6
CONTINUOUS
 10
-57.0183367983
 20
17.7426744638
 11
-57.0183367983
 21
44.5689346869
  0
LINE
  5
248
100
AcDbEntity
  8
0
100
AcDbLine
 62
7
  6
CONTINUOUS
 10
-21.4983367983
 20
43.0689346869
 11
-39.2583367983
 21
43.0689346869
  0
LINE
  5
249
100
AcDbEntity
  8
0
100
AcDbLine
 62
7
  6
CONTINUOUS
 10
-57.0183367983
 20
43.0689346869
 11
-39.2583367983
 21
43.0689346869
  0
INSERT
  5
24A
100
AcDbEntity
  8
0
100
AcDbBlockReference
 62
7
  6
CONTINUOUS
  2
_FILLED
 10
-21.4983367983
 20
43.0689346869
 41
3.0
 42
3.0
 43
3.0
  0
INSERT
  5
24B
100
AcDbEntity
  8
0
100
AcDbBlockReference
 62
7
  6
CONTINUOUS
  2
_FILLED
 10
-57.0183367983
 20
43.0689346869
 41
3.0
 42
3.0
 43
3.0
 50
180.0
  0
ENDBLK
  5
24C
100
AcDbEntity
  8
0
  6
BYBLOCK
 62
0
100
AcDbBlockEnd
  0
ENDSEC
  0
SECTION
  2
ENTITIES
  0
DIMENSION
  5
24D
100
AcDbEntity
  8
0
100
AcDbDimension
 62
7
  6
CONTINUOUS
  2
*D0
 10
11.15
 20
33.1748420466
 11
-4.2857142857
 21
35.4248420466
 70
160
 71
2
 42
22.3
  3
DIMSTYLE_1
100
AcDbAlignedDimension
 13
-11.15
 23
22.400016923
 14
11.15
 24
22.400016923
100
AcDbRotatedDimension
  0
DIMENSION
  5
24E
100
AcDbEntity
  8
0
100
AcDbDimension
 62
7
  6
CONTINUOUS
  2
*D1
 10
19.1849101299
 20
24.5
 11
17.9910836536
 21
-2.1072778499
 70
160
 71
2
 42
49.0
  3
DIMSTYLE_1
100
AcDbAlignedDimension
 13
10.4000042308
 23
-24.5
 14
10.4000042308
 24
24.5
 50
90.0
100
AcDbRotatedDimension
  0
DIMENSION
  5
24F
100
AcDbEntity
  8
0
100
AcDbDimension
 62
7
  6
CONTINUOUS
  2
*D2
 10
-44.8983367983
 20
33.0689346869
 11
-37.4840510841
 21
35.3189346869
 70
160
 71
2
 42
23.4
  3
DIMSTYLE_1
100
AcDbAlignedDimension
 13
-21.4983367983
 23
18.009618074
 14
-44.8983367983
 24
21.35
 50
180.0
100
AcDbRotatedDimension
  0
DIMENSION
  5
250
100
AcDbEntity
  8
0
100
AcDbDimension
 62
7
  6
CONTINUOUS
  2
*D3
 10
-57.0183367983
 20
43.0689346869
 11
-43.3297653697
 21
45.3189346869
 70
160
 71
2
 42
35.52
  3
DIMSTYLE_2
100
AcDbAlignedDimension
 13
-21.4983367983
 23
18.009618074
 14
-57.0183367983
 24
17.7426744638
 50
180.0
100
AcDbRotatedDimension
  0
LINE
  5
251
100
AcDbEntity
  8
SUPERFICI
100
AcDbLine
 62
7
  6
CONTINUOUS
 10
-9.9000042308
 20
-24.5
 11
-7.4999957692
 21
-24.5
  0
LINE
  5
252
100
AcDbEntity
  8
SUPERFICI
100
AcDbLine
 62
7
  6
CONTINUOUS
 10
7.4999957692
 20
-24.5
 11
9.9000042308
 21
-24.5
  0
LINE
  5
253
100
AcDbEntity
  8
SUPERFICI
100
AcDbLine
 62
7
  6
CONTINUOUS
 10
-9.8869056521
 20
-24.4869014213
 11
-7.5130943479
 21
-24.4869014213
  0
LINE
  5
254
100
AcDbEntity
  8
SUPERFICI
100
AcDbLine
 62
7
  6
CONTINUOUS
 10
7.5130943479
 20
-24.4869014213
 11
9.8869056521
 21
-24.4869014213
  0
LINE
  5
255
100
AcDbEntity
  8
SUPERFICI
100
AcDbLine
 62
253
  6
CONTINUOUS
 10
7.2630985787
 20
-24.2369056521
 11
10.1369014213
 21
-24.2369056521
  0
LINE
  5
256
100
AcDbEntity
  8
SUPERFICI
100
AcDbLine
 62
253
  6
CONTINUOUS
 10
-7.2630985787
 20
-24.2369056521
 11
-10.1369014213
 21
-24.2369056521
  0
LINE
  5
257
100
AcDbEntity
  8
SUPERFICI
100
AcDbLine
 62
7
  6
CONTINUOUS
 10
4.45
 20
-24.0
 11
3.4982647806
 21
-24.0
  0
LINE
  5
258
100
AcDbEntity
  8
SUPERFICI
100
AcDbLine
 62
7
  6
CONTINUOUS
 10
-3.4982647806
 20
-24.0
 11
-4.45
 21
-24.0
  0
LINE
  5
259
100
AcDbEntity
  8
SUPERFICI
100
AcDbLine
 62
7
  6
CONTINUOUS
 10
-3.4982647806
 20
-23.9982478817
 11
-1.202625676
 21
-23.9982478817
  0
LINE
  5
25A
100
AcDbEntity
  8
SUPERFICI
100
AcDbLine
 62
7
  6
CONTINUOUS
 10
1.202625676
 20
-23.9982478817
 11
3.4982647806
 21
-23.9982478817
  0
LINE
  5
25B
100
AcDbEntity
  8
SUPERFICI
100
AcDbLine
 62
7
  6
CONTINUOUS
 10
4.4412732553
 20
-23.9912732553
 11
3.5087268678
 21
-23.9912732553
  0
LINE
  5
25C
100
AcDbEntity
  8
SUPERFICI
100
AcDbLine
 62
7
  6
CONTINUOUS
 10
-3.5087268678
 20
-23.9912732553
 11
-4.4412732553
 21
-23.9912732553
  0
LINE
  5
25D
100
AcDbEntity
  8
SUPERFICI
100
AcDbLine
 62
253
  6
CONTINUOUS
 10
7.2630985787
 20
-23.8443375673
 11
10.1369014213
 21
-23.8443375673
  0
LINE
  5
25E
100
AcDbEntity
  8
SUPERFICI
100
AcDbLine
 62
253
  6
CONTINUOUS
 10
-7.2630985787
 20
-23.8443375673
 11
-10.1369014213
 21
-23.8443375673
  0
LINE
  5
25F
100
AcDbEntity
  8
SUPERFICI
100
AcDbLine
 62
253
  6
CONTINUOUS
 10
-3.5
 20
-23.7982512664
 11
-1.0026332914
 21
-23.7982512664
  0
LINE
  5
260
100
AcDbEntity
  8
SUPERFICI
100
AcDbLine
 62
253
  6
CONTINUOUS
 10
1.0026332914
 20
-23.7982512664
 11
3.5
 21
-23.7982512664
  0
LINE
  5
261
100
AcDbEntity
  8
SUPERFICI
100
AcDbLine
 62
253
  6
CONTINUOUS
 10
9.8869056521
 20
-23.6278312164
 11
7.5130943479
 21
-23.6278312164
  0
LINE
  5
262
100
AcDbEntity
  8
SUPERFICI
100
AcDbLine
 62
253
  6
CONTINUOUS
 10
-7.5130943479
 20
-23.6278312164
 11
-9.8869056521
 21
-23.6278312164
  0
LINE
  5
263
100
AcDbEntity
  8
SUPERFICI
100
AcDbLine
 62
253
  6
CONTINUOUS
 10
-7.5130943479
 20
24.4869014213
 11
-7.4999957692
 21
24.5
  0
LINE
  5
264
100
AcDbEntity
  8
SUPERFICI
100
AcDbLine
 62
253
  6
CONTINUOUS
 10
-7.2630985787
 20
24.2369056521
 11
-7.25
 21
24.2500042308
  0
LINE
  5
265
100
AcDbEntity
  8
SUPERFICI
100
AcDbLine
 62
7
  6
CONTINUOUS
 10
-3.5087268678
 20
23.9912732553
 11
-3.4982647806
 21
23.9982478817
  0
LINE
  5
266
100
AcDbEntity
  8
SUPERFICI
100
AcDbLine
 62
7
  6
CONTINUOUS
 10
-9.8927234819
 20
-23.1226497308
 11
-7.5072765181
 21
-23.1226497308
  0
LINE
  5
267
100
AcDbEntity
  8
SUPERFICI
100
AcDbLine
 62
7
  6
CONTINUOUS
 10
9.8927234819
 20
-23.1226497308
 11
7.5072765181
 21
-23.1226497308
  0
LINE
  5
268
100
AcDbEntity
  8
SUPERFICI
100
AcDbLine
 62
7
  6
CONTINUOUS
 10
-10.6500063461
 20
-22.4
 11
-10.15
 21
-22.4
  0
LINE
  5
269
100
AcDbEntity
  8
SUPERFICI
100
AcDbLine
 62
7
  6
CONTINUOUS
 10
-7.25
 20
-22.4
 11
-4.45
 21
-22.4
  0
LINE
  5
26A
100
AcDbEntity
  8
SUPERFICI
100
AcDbLine
 62
7
  6
CONTINUOUS
 10
1.0
 20
-22.4
 11
-1.0
 21
-22.4
  0
LINE
  5
26B
100
AcDbEntity
  8
SUPERFICI
100
AcDbLine
 62
7
  6
CONTINUOUS
 10
4.45
 20
-22.4
 11
7.25
 21
-22.4
  0
LINE
  5
26C
100
AcDbEntity
  8
SUPERFICI
100
AcDbLine
 62
7
  6
CONTINUOUS
 10
10.15
 20
-22.4
 11
10.6500063461
 21
-22.4
  0
LINE
  5
26D
100
AcDbEntity
  8
SUPERFICI
100
AcDbLine
 62
7
  6
CONTINUOUS
 10
-3.5
 20
-22.3737961104
 11
-1.202625676
 21
-22.3737961104
  0
LINE
  5
26E
100
AcDbEntity
  8
SUPERFICI
100
AcDbLine
 62
7
  6
CONTINUOUS
 10
1.202625676
 20
-22.3737961104
 11
3.5
 21
-22.3737961104
  0
LINE
  5
26F
100
AcDbEntity
  8
SUPERFICI
100
AcDbLine
 62
7
  6
CONTINUOUS
 10
9.8927234819
 20
-22.3213883311
 11
7.5072765181
 21
-22.3213883311
  0
LINE
  5
270
100
AcDbEntity
  8
SUPERFICI
100
AcDbLine
 62
7
  6
CONTINUOUS
 10
4.4412732553
 20
-22.3213883311
 11
3.5087268678
 21
-22.3213883311
  0
LINE
  5
271
100
AcDbEntity
  8
SUPERFICI
100
AcDbLine
 62
7
  6
CONTINUOUS
 10
-3.5087268678
 20
-22.3213883311
 11
-4.4412732553
 21
-22.3213883311
  0
LINE
  5
272
100
AcDbEntity
  8
SUPERFICI
100
AcDbLine
 62
7
  6
CONTINUOUS
 10
-7.5072765181
 20
-22.3213883311
 11
-9.8927234819
 21
-22.3213883311
  0
LINE
  5
273
100
AcDbEntity
  8
SUPERFICI
100
AcDbLine
 62
253
  6
CONTINUOUS
 10
10.5372152757
 20
-22.0602279426
 11
-10.5372152757
 21
-22.0602279426
  0
LINE
  5
274
100
AcDbEntity
  8
SUPERFICI
100
AcDbLine
 62
253
  6
CONTINUOUS
 10
10.5290420874
 20
-21.2107174911
 11
-10.5290420874
 21
-21.2107174911
  0
LINE
  5
275
100
AcDbEntity
  8
SUPERFICI
100
AcDbLine
 62
7
  6
CONTINUOUS
 10
-3.4982647806
 20
-23.9982478817
 11
-3.5087268678
 21
-23.9912732553
  0
LINE
  5
276
100
AcDbEntity
  8
SUPERFICI
100
AcDbLine
 62
253
  6
CONTINUOUS
 10
-7.5130943479
 20
-24.4869014213
 11
-7.4999957692
 21
-24.5
  0
LINE
  5
277
100
AcDbEntity
  8
SUPERFICI
100
AcDbLine
 62
253
  6
CONTINUOUS
 10
-7.2630985787
 20
-24.2369056521
 11
-7.25
 21
-24.2500042308
  0
LINE
  5
278
100
AcDbEntity
  8
SUPERFICI
100
AcDbLine
 62
7
  6
CONTINUOUS
 10
4.4412732553
 20
23.9912732553
 11
4.45
 21
24.0
  0
LINE
  5
279
100
AcDbEntity
  8
SUPERFICI
100
AcDbLine
 62
7
  6
CONTINUOUS
 10
4.45
 20
-24.0
 11
4.4412732553
 21
-23.9912732553
  0
LINE
  5
27A
100
AcDbEntity
  8
SUPERFICI
100
AcDbLine
 62
7
  6
CONTINUOUS
 10
-11.15
 20
-18.5
 11
-11.1849101299
 21
-18.1473460386
  0
LINE
  5
27B
100
AcDbEntity
  8
SUPERFICI
100
AcDbLine
 62
253
  6
CONTINUOUS
 10
-10.1369014213
 20
-23.8443375673
 11
-10.1427192511
 21
-23.2669872981
  0
LINE
  5
27C
100
AcDbEntity
  8
SUPERFICI
100
AcDbLine
 62
253
  6
CONTINUOUS
 10
-9.8869056521
 20
-23.6278312164
 11
-9.8919962532
 21
-23.1226497308
  0
LINE
  5
27D
100
AcDbEntity
  8
SUPERFICI
100
AcDbLine
 62
7
  6
CONTINUOUS
 10
-11.1849101299
 20
-18.1473460386
 11
-11.1849101299
 21
18.1473460386
  0
LINE
  5
27E
100
AcDbEntity
  8
SUPERFICI
100
AcDbLine
 62
7
  6
CONTINUOUS
 10
-11.15
 20
21.900016923
 11
-11.15
 21
18.5
  0
LINE
  5
27F
100
AcDbEntity
  8
SUPERFICI
100
AcDbLine
 62
7
  6
CONTINUOUS
 10
-11.15
 20
-21.900016923
 11
-11.15
 21
-18.5
  0
LINE
  5
280
100
AcDbEntity
  8
SUPERFICI
100
AcDbLine
 62
253
  6
CONTINUOUS
 10
-10.5118572029
 20
-9.5
 11
-10.5118572029
 21
9.5
  0
LINE
  5
281
100
AcDbEntity
  8
SUPERFICI
100
AcDbLine
 62
7
  6
CONTINUOUS
 10
-10.15
 20
-22.4
 11
-10.15
 21
-24.2500042308
  0
LINE
  5
282
100
AcDbEntity
  8
SUPERFICI
100
AcDbLine
 62
7
  6
CONTINUOUS
 10
-10.15
 20
22.4
 11
-10.15
 21
24.2500042308
  0
LINE
  5
283
100
AcDbEntity
  8
SUPERFICI
100
AcDbLine
 62
7
  6
CONTINUOUS
 10
-10.1427192511
 20
23.2669872981
 11
-10.1427192511
 21
22.3344140523
  0
LINE
  5
284
100
AcDbEntity
  8
SUPERFICI
100
AcDbLine
 62
7
  6
CONTINUOUS
 10
-10.1427192511
 20
-22.3344140523
 11
-10.1427192511
 21
-23.2669872981
  0
LINE
  5
285
100
AcDbEntity
  8
SUPERFICI
100
AcDbLine
 62
7
  6
CONTINUOUS
 10
-10.1369014213
 20
24.2369056521
 11
-10.1369014213
 21
23.8443375673
  0
LINE
  5
286
100
AcDbEntity
  8
SUPERFICI
100
AcDbLine
 62
7
  6
CONTINUOUS
 10
-10.1369014213
 20
-23.8443375673
 11
-10.1369014213
 21
-24.2369056521
  0
LINE
  5
287
100
AcDbEntity
  8
SUPERFICI
100
AcDbLine
 62
253
  6
CONTINUOUS
 10
-9.8927234819
 20
23.1226497308
 11
-9.8927234819
 21
22.3213883311
  0
LINE
  5
288
100
AcDbEntity
  8
SUPERFICI
100
AcDbLine
 62
253
  6
CONTINUOUS
 10
-9.8927234819
 20
-22.3213883311
 11
-9.8927234819
 21
-23.1226497308
  0
LINE
  5
289
100
AcDbEntity
  8
SUPERFICI
100
AcDbLine
 62
253
  6
CONTINUOUS
 10
-9.8869056521
 20
-23.6278312164
 11
-9.8869056521
 21
-24.4869014213
  0
LINE
  5
28A
100
AcDbEntity
  8
SUPERFICI
100
AcDbLine
 62
253
  6
CONTINUOUS
 10
-9.8869056521
 20
23.6278312164
 11
-9.8869056521
 21
24.4869014213
  0
LINE
  5
28B
100
AcDbEntity
  8
SUPERFICI
100
AcDbLine
 62
253
  6
CONTINUOUS
 10
-10.1427192511
 20
23.2669872981
 11
-10.1369014213
 21
23.8443375673
  0
LINE
  5
28C
100
AcDbEntity
  8
SUPERFICI
100
AcDbLine
 62
253
  6
CONTINUOUS
 10
-9.8919962532
 20
23.1226497308
 11
-9.8869056521
 21
23.6278312164
  0
LINE
  5
28D
100
AcDbEntity
  8
SUPERFICI
100
AcDbLine
 62
7
  6
CONTINUOUS
 10
-11.1849101299
 20
18.1473460386
 11
-11.15
 21
18.5
  0
LINE
  5
28E
100
AcDbEntity
  8
SUPERFICI
100
AcDbLine
 62
253
  6
CONTINUOUS
 10
9.8869056521
 20
24.4869014213
 11
9.9000042308
 21
24.5
  0
LINE
  5
28F
100
AcDbEntity
  8
SUPERFICI
100
AcDbLine
 62
253
  6
CONTINUOUS
 10
10.1369014213
 20
24.2369056521
 11
10.15
 21
24.2500042308
  0
LINE
  5
290
100
AcDbEntity
  8
SUPERFICI
100
AcDbLine
 62
253
  6
CONTINUOUS
 10
9.8869056521
 20
-24.4869014213
 11
9.9000042308
 21
-24.5
  0
LINE
  5
291
100
AcDbEntity
  8
SUPERFICI
100
AcDbLine
 62
253
  6
CONTINUOUS
 10
10.1369014213
 20
-24.2369056521
 11
10.15
 21
-24.2500042308
  0
LINE
  5
292
100
AcDbEntity
  8
SUPERFICI
100
AcDbLine
 62
253
  6
CONTINUOUS
 10
-7.5130943479
 20
23.6278312164
 11
-7.5080037468
 21
23.1226497308
  0
LINE
  5
293
100
AcDbEntity
  8
SUPERFICI
100
AcDbLine
 62
253
  6
CONTINUOUS
 10
-7.2630985787
 20
23.8443375673
 11
-7.2572807489
 21
23.2669872981
  0
LINE
  5
294
100
AcDbEntity
  8
SUPERFICI
100
AcDbLine
 62
253
  6
CONTINUOUS
 10
-7.5130943479
 20
-23.6278312164
 11
-7.5130943479
 21
-24.4869014213
  0
LINE
  5
295
100
AcDbEntity
  8
SUPERFICI
100
AcDbLine
 62
253
  6
CONTINUOUS
 10
-7.5130943479
 20
23.6278312164
 11
-7.5130943479
 21
24.4869014213
  0
LINE
  5
296
100
AcDbEntity
  8
SUPERFICI
100
AcDbLine
 62
253
  6
CONTINUOUS
 10
-7.5072765181
 20
-23.1226497308
 11
-7.5072765181
 21
-22.3213883311
  0
LINE
  5
297
100
AcDbEntity
  8
SUPERFICI
100
AcDbLine
 62
253
  6
CONTINUOUS
 10
-7.5072765181
 20
22.3213883311
 11
-7.5072765181
 21
23.1226497308
  0
LINE
  5
298
100
AcDbEntity
  8
SUPERFICI
100
AcDbLine
 62
7
  6
CONTINUOUS
 10
-7.2630985787
 20
-24.2369056521
 11
-7.2630985787
 21
-23.8443375673
  0
LINE
  5
299
100
AcDbEntity
  8
SUPERFICI
100
AcDbLine
 62
7
  6
CONTINUOUS
 10
-7.2630985787
 20
23.8443375673
 11
-7.2630985787
 21
24.2369056521
  0
LINE
  5
29A
100
AcDbEntity
  8
SUPERFICI
100
AcDbLine
 62
7
  6
CONTINUOUS
 10
-7.2572807489
 20
-23.2669872981
 11
-7.2572807489
 21
-22.3344140523
  0
LINE
  5
29B
100
AcDbEntity
  8
SUPERFICI
100
AcDbLine
 62
7
  6
CONTINUOUS
 10
-7.2572807489
 20
22.3344140523
 11
-7.2572807489
 21
23.2669872981
  0
LINE
  5
29C
100
AcDbEntity
  8
SUPERFICI
100
AcDbLine
 62
7
  6
CONTINUOUS
 10
-7.25
 20
-22.4
 11
-7.25
 21
-24.2500042308
  0
LINE
  5
29D
100
AcDbEntity
  8
SUPERFICI
100
AcDbLine
 62
7
  6
CONTINUOUS
 10
-7.25
 20
22.4
 11
-7.25
 21
24.2500042308
  0
LINE
  5
29E
100
AcDbEntity
  8
SUPERFICI
100
AcDbLine
 62
253
  6
CONTINUOUS
 10
-7.5080037468
 20
-23.1226497308
 11
-7.5130943479
 21
-23.6278312164
  0
LINE
  5
29F
100
AcDbEntity
  8
SUPERFICI
100
AcDbLine
 62
253
  6
CONTINUOUS
 10
-7.2572807489
 20
-23.2669872981
 11
-7.2630985787
 21
-23.8443375673
  0
LINE
  5
2A0
100
AcDbEntity
  8
SUPERFICI
100
AcDbLine
 62
7
  6
CONTINUOUS
 10
-3.5
 20
22.3737961104
 11
-3.5087268678
 21
22.3213883311
  0
LINE
  5
2A1
100
AcDbEntity
  8
RACCORDO
100
AcDbLine
 62
253
  6
CONTINUOUS
 10
-4.9593560653
 20
-9.4998828913
 11
-10.5118572029
 21
-9.5
  0
LINE
  5
2A2
100
AcDbEntity
  8
RACCORDO
100
AcDbLine
 62
253
  6
CONTINUOUS
 10
10.5118572029
 20
-9.5
 11
4.9593532291
 21
-9.4998797461
  0
LINE
  5
2A3
100
AcDbEntity
  8
SUPERFICI
100
AcDbLine
 62
7
  6
CONTINUOUS
 10
-3.5
 20
-22.3737961104
 11
-3.5087268678
 21
-22.3213883311
  0
LINE
  5
2A4
100
AcDbEntity
  8
SUPERFICI
100
AcDbLine
 62
7
  6
CONTINUOUS
 10
-4.45
 20
-22.4
 11
-4.45
 21
-24.0
  0
LINE
  5
2A5
100
AcDbEntity
  8
SUPERFICI
100
AcDbLine
 62
7
  6
CONTINUOUS
 10
-4.45
 20
22.4
 11
-4.45
 21
24.0
  0
LINE
  5
2A6
100
AcDbEntity
  8
SUPERFICI
100
AcDbLine
 62
7
  6
CONTINUOUS
 10
-4.4412732553
 20
23.9912732553
 11
-4.4412732553
 21
22.3213883311
  0
LINE
  5
2A7
100
AcDbEntity
  8
SUPERFICI
100
AcDbLine
 62
7
  6
CONTINUOUS
 10
-4.4412732553
 20
-22.3213883311
 11
-4.4412732553
 21
-23.9912732553
  0
LINE
  5
2A8
100
AcDbEntity
  8
SUPERFICI
100
AcDbLine
 62
7
  6
CONTINUOUS
 10
-3.5087268678
 20
-23.9912732553
 11
-3.5087268678
 21
-22.3213883311
  0
LINE
  5
2A9
100
AcDbEntity
  8
SUPERFICI
100
AcDbLine
 62
7
  6
CONTINUOUS
 10
-3.5087268678
 20
22.3213883311
 11
-3.5087268678
 21
23.9912732553
  0
LINE
  5
2AA
100
AcDbEntity
  8
SUPERFICI
100
AcDbLine
 62
7
  6
CONTINUOUS
 10
-3.5
 20
23.7982512664
 11
-3.5
 21
22.3737961104
  0
LINE
  5
2AB
100
AcDbEntity
  8
SUPERFICI
100
AcDbLine
 62
7
  6
CONTINUOUS
 10
-3.5
 20
-23.7982512664
 11
-3.5
 21
-22.3737961104
  0
LINE
  5
2AC
100
AcDbEntity
  8
0
100
AcDbLine
 62
253
  6
CONTINUOUS
 10
0.8153095521
 20
17.2426672258
 11
1.0741350848
 21
18.20858252
  0
LINE
  5
2AD
100
AcDbEntity
  8
0
100
AcDbLine
 62
253
  6
CONTINUOUS
 10
-1.0740629894
 20
10.1913981621
 11
-0.8152548289
 21
11.1573181111
  0
LINE
  5
2AE
100
AcDbEntity
  8
SUPERFICI
100
AcDbLine
 62
253
  6
CONTINUOUS
 10
-11.15
 20
-21.8997711479
 11
-11.0371391233
 21
-21.5609131753
  0
LINE
  5
2AF
100
AcDbEntity
  8
SUPERFICI
100
AcDbLine
 62
253
  6
CONTINUOUS
 10
-10.6503805997
 20
-22.4
 11
-10.5372152757
 21
-22.0602279426
  0
LINE
  5
2B0
100
AcDbEntity
  8
SUPERFICI
100
AcDbLine
 62
253
  6
CONTINUOUS
 10
-11.0371391233
 20
21.5609131753
 11
-11.15
 21
21.8997711479
  0
LINE
  5
2B1
100
AcDbEntity
  8
SUPERFICI
100
AcDbLine
 62
253
  6
CONTINUOUS
 10
-10.5372152757
 20
22.0602279426
 11
-10.6503805997
 21
22.4
  0
LINE
  5
2B2
100
AcDbEntity
  8
SUPERFICI
100
AcDbLine
 62
253
  6
CONTINUOUS
 10
-1.202625676
 20
-22.3737961104
 11
-1.202625676
 21
-23.9982478817
  0
LINE
  5
2B3
100
AcDbEntity
  8
SUPERFICI
100
AcDbLine
 62
253
  6
CONTINUOUS
 10
-1.202625676
 20
22.3737961104
 11
-1.202625676
 21
23.9982478817
  0
LINE
  5
2B4
100
AcDbEntity
  8
SUPERFICI
100
AcDbLine
 62
7
  6
CONTINUOUS
 10
-1.0026332914
 20
-23.7982512664
 11
-1.0026332914
 21
-22.3841861985
  0
LINE
  5
2B5
100
AcDbEntity
  8
SUPERFICI
100
AcDbLine
 62
7
  6
CONTINUOUS
 10
-1.0026332914
 20
22.3841861985
 11
-1.0026332914
 21
23.7982512664
  0
LINE
  5
2B6
100
AcDbEntity
  8
SUPERFICI
100
AcDbLine
 62
7
  6
CONTINUOUS
 10
-4.45
 20
-22.4
 11
-4.4412732553
 21
-22.3213883311
  0
LINE
  5
2B7
100
AcDbEntity
  8
0
100
AcDbLine
 62
253
  6
CONTINUOUS
 10
-4.1499999998
 20
-0.0000373193
 11
-3.150008494
 21
-0.0000283268
  0
LINE
  5
2B8
100
AcDbEntity
  8
0
100
AcDbLine
 62
253
  6
CONTINUOUS
 10
3.150008494
 20
-0.0000283268
 11
4.1499999998
 21
-0.0000373193
  0
LINE
  5
2B9
100
AcDbEntity
  8
SUPERFICI
100
AcDbLine
 62
7
  6
CONTINUOUS
 10
-4.4412732553
 20
22.3213883311
 11
-4.45
 21
22.4
  0
LINE
  5
2BA
100
AcDbEntity
  8
SUPERFICI
100
AcDbLine
 62
7
  6
CONTINUOUS
 10
1.0026332914
 20
23.7982512664
 11
1.0026332914
 21
22.3841861985
  0
LINE
  5
2BB
100
AcDbEntity
  8
SUPERFICI
100
AcDbLine
 62
7
  6
CONTINUOUS
 10
1.0026332914
 20
-22.3841861985
 11
1.0026332914
 21
-23.7982512664
  0
LINE
  5
2BC
100
AcDbEntity
  8
SUPERFICI
100
AcDbLine
 62
253
  6
CONTINUOUS
 10
1.202625676
 20
-22.3737961104
 11
1.202625676
 21
-23.9982478817
  0
LINE
  5
2BD
100
AcDbEntity
  8
SUPERFICI
100
AcDbLine
 62
253
  6
CONTINUOUS
 10
1.202625676
 20
22.3737961104
 11
1.202625676
 21
23.9982478817
  0
LINE
  5
2BE
100
AcDbEntity
  8
SUPERFICI
100
AcDbLine
 62
7
  6
CONTINUOUS
 10
3.5
 20
23.7982512664
 11
3.5
 21
22.3737961104
  0
LINE
  5
2BF
100
AcDbEntity
  8
SUPERFICI
100
AcDbLine
 62
7
  6
CONTINUOUS
 10
3.5
 20
-23.7982512664
 11
3.5
 21
-22.3737961104
  0
LINE
  5
2C0
100
AcDbEntity
  8
SUPERFICI
100
AcDbLine
 62
7
  6
CONTINUOUS
 10
3.5087268678
 20
23.9912732553
 11
3.5087268678
 21
22.3213883311
  0
LINE
  5
2C1
100
AcDbEntity
  8
SUPERFICI
100
AcDbLine
 62
7
  6
CONTINUOUS
 10
3.5087268678
 20
-22.3213883311
 11
3.5087268678
 21
-23.9912732553
  0
LINE
  5
2C2
100
AcDbEntity
  8
SUPERFICI
100
AcDbLine
 62
7
  6
CONTINUOUS
 10
4.45
 20
22.4
 11
4.4412732553
 21
22.3213883311
  0
LINE
  5
2C3
100
AcDbEntity
  8
0
100
AcDbLine
 62
253
  6
CONTINUOUS
 10
-1.0740629894
 20
-18.2086018379
 11
-0.8152548289
 21
-17.2426818889
  0
LINE
  5
2C4
100
AcDbEntity
  8
0
100
AcDbLine
 62
253
  6
CONTINUOUS
 10
0.8153095521
 20
-11.1573327742
 11
1.0741350848
 21
-10.19141748
  0
LINE
  5
2C5
100
AcDbEntity
  8
SUPERFICI
100
AcDbLine
 62
253
  6
CONTINUOUS
 10
10.6503805997
 20
22.4
 11
10.5372152757
 21
22.0602279426
  0
LINE
  5
2C6
100
AcDbEntity
  8
SUPERFICI
100
AcDbLine
 62
253
  6
CONTINUOUS
 10
11.15
 20
21.8997711479
 11
11.0371391233
 21
21.5609131753
  0
LINE
  5
2C7
100
AcDbEntity
  8
SUPERFICI
100
AcDbLine
 62
253
  6
CONTINUOUS
 10
10.5372152757
 20
-22.0602279426
 11
10.6503805997
 21
-22.4
  0
LINE
  5
2C8
100
AcDbEntity
  8
SUPERFICI
100
AcDbLine
 62
253
  6
CONTINUOUS
 10
11.0371391233
 20
-21.5609131753
 11
11.15
 21
-21.8997711479
  0
LINE
  5
2C9
100
AcDbEntity
  8
SUPERFICI
100
AcDbLine
 62
7
  6
CONTINUOUS
 10
4.4412732553
 20
-22.3213883311
 11
4.45
 21
-22.4
  0
LINE
  5
2CA
100
AcDbEntity
  8
SUPERFICI
100
AcDbLine
 62
253
  6
CONTINUOUS
 10
7.2630985787
 20
-23.8443375673
 11
7.2572807489
 21
-23.2669872981
  0
LINE
  5
2CB
100
AcDbEntity
  8
SUPERFICI
100
AcDbLine
 62
253
  6
CONTINUOUS
 10
7.5130943479
 20
-23.6278312164
 11
7.5080037468
 21
-23.1226497308
  0
LINE
  5
2CC
100
AcDbEntity
  8
SUPERFICI
100
AcDbLine
 62
7
  6
CONTINUOUS
 10
4.4412732553
 20
-23.9912732553
 11
4.4412732553
 21
-22.3213883311
  0
LINE
  5
2CD
100
AcDbEntity
  8
SUPERFICI
100
AcDbLine
 62
7
  6
CONTINUOUS
 10
4.4412732553
 20
22.3213883311
 11
4.4412732553
 21
23.9912732553
  0
LINE
  5
2CE
100
AcDbEntity
  8
SUPERFICI
100
AcDbLine
 62
7
  6
CONTINUOUS
 10
4.45
 20
-22.4
 11
4.45
 21
-24.0
  0
LINE
  5
2CF
100
AcDbEntity
  8
SUPERFICI
100
AcDbLine
 62
7
  6
CONTINUOUS
 10
4.45
 20
22.4
 11
4.45
 21
24.0
  0
LINE
  5
2D0
100
AcDbEntity
  8
SUPERFICI
100
AcDbLine
 62
7
  6
CONTINUOUS
 10
7.25
 20
-22.4
 11
7.25
 21
-24.2500042308
  0
LINE
  5
2D1
100
AcDbEntity
  8
SUPERFICI
100
AcDbLine
 62
7
  6
CONTINUOUS
 10
7.25
 20
22.4
 11
7.25
 21
24.2500042308
  0
LINE
  5
2D2
100
AcDbEntity
  8
SUPERFICI
100
AcDbLine
 62
7
  6
CONTINUOUS
 10
7.2572807489
 20
23.2669872981
 11
7.2572807489
 21
22.3344140523
  0
LINE
  5
2D3
100
AcDbEntity
  8
SUPERFICI
100
AcDbLine
 62
7
  6
CONTINUOUS
 10
7.2572807489
 20
-22.3344140523
 11
7.2572807489
 21
-23.2669872981
  0
LINE
  5
2D4
100
AcDbEntity
  8
SUPERFICI
100
AcDbLine
 62
7
  6
CONTINUOUS
 10
7.2630985787
 20
24.2369056521
 11
7.2630985787
 21
23.8443375673
  0
LINE
  5
2D5
100
AcDbEntity
  8
SUPERFICI
100
AcDbLine
 62
7
  6
CONTINUOUS
 10
7.2630985787
 20
-23.8443375673
 11
7.2630985787
 21
-24.2369056521
  0
LINE
  5
2D6
100
AcDbEntity
  8
SUPERFICI
100
AcDbLine
 62
253
  6
CONTINUOUS
 10
7.2572807489
 20
23.2669872981
 11
7.2630985787
 21
23.8443375673
  0
LINE
  5
2D7
100
AcDbEntity
  8
SUPERFICI
100
AcDbLine
 62
253
  6
CONTINUOUS
 10
7.5080037468
 20
23.1226497308
 11
7.5130943479
 21
23.6278312164
  0
LINE
  5
2D8
100
AcDbEntity
  8
SUPERFICI
100
AcDbLine
 62
7
  6
CONTINUOUS
 10
3.5087268678
 20
-22.3213883311
 11
3.5
 21
-22.3737961104
  0
LINE
  5
2D9
100
AcDbEntity
  8
SUPERFICI
100
AcDbLine
 62
7
  6
CONTINUOUS
 10
3.5
 20
22.3737961104
 11
3.5087268678
 21
22.3213883311
  0
LINE
  5
2DA
100
AcDbEntity
  8
SUPERFICI
100
AcDbLine
 62
253
  6
CONTINUOUS
 10
9.8869056521
 20
23.6278312164
 11
9.8919962532
 21
23.1226497308
  0
LINE
  5
2DB
100
AcDbEntity
  8
SUPERFICI
100
AcDbLine
 62
253
  6
CONTINUOUS
 10
10.1369014213
 20
23.8443375673
 11
10.1427192511
 21
23.2669872981
  0
LINE
  5
2DC
100
AcDbEntity
  8
SUPERFICI
100
AcDbLine
 62
253
  6
CONTINUOUS
 10
7.5072765181
 20
23.1226497308
 11
7.5072765181
 21
22.3213883311
  0
LINE
  5
2DD
100
AcDbEntity
  8
SUPERFICI
100
AcDbLine
 62
253
  6
CONTINUOUS
 10
7.5072765181
 20
-22.3213883311
 11
7.5072765181
 21
-23.1226497308
  0
LINE
  5
2DE
100
AcDbEntity
  8
SUPERFICI
100
AcDbLine
 62
253
  6
CONTINUOUS
 10
7.5130943479
 20
-23.6278312164
 11
7.5130943479
 21
-24.4869014213
  0
LINE
  5
2DF
100
AcDbEntity
  8
SUPERFICI
100
AcDbLine
 62
253
  6
CONTINUOUS
 10
7.5130943479
 20
23.6278312164
 11
7.5130943479
 21
24.4869014213
  0
LINE
  5
2E0
100
AcDbEntity
  8
SUPERFICI
100
AcDbLine
 62
253
  6
CONTINUOUS
 10
9.8869056521
 20
-23.6278312164
 11
9.8869056521
 21
-24.4869014213
  0
LINE
  5
2E1
100
AcDbEntity
  8
SUPERFICI
100
AcDbLine
 62
253
  6
CONTINUOUS
 10
9.8869056521
 20
23.6278312164
 11
9.8869056521
 21
24.4869014213
  0
LINE
  5
2E2
100
AcDbEntity
  8
SUPERFICI
100
AcDbLine
 62
253
  6
CONTINUOUS
 10
9.8927234819
 20
-23.1226497308
 11
9.8927234819
 21
-22.3213883311
  0
LINE
  5
2E3
100
AcDbEntity
  8
SUPERFICI
100
AcDbLine
 62
253
  6
CONTINUOUS
 10
9.8927234819
 20
22.3213883311
 11
9.8927234819
 21
23.1226497308
  0
LINE
  5
2E4
100
AcDbEntity
  8
SUPERFICI
100
AcDbLine
 62
7
  6
CONTINUOUS
 10
10.1369014213
 20
-24.2369056521
 11
10.1369014213
 21
-23.8443375673
  0
LINE
  5
2E5
100
AcDbEntity
  8
SUPERFICI
100
AcDbLine
 62
7
  6
CONTINUOUS
 10
10.1369014213
 20
23.8443375673
 11
10.1369014213
 21
24.2369056521
  0
LINE
  5
2E6
100
AcDbEntity
  8
SUPERFICI
100
AcDbLine
 62
7
  6
CONTINUOUS
 10
10.1427192511
 20
-23.2669872981
 11
10.1427192511
 21
-22.3344140523
  0
LINE
  5
2E7
100
AcDbEntity
  8
SUPERFICI
100
AcDbLine
 62
7
  6
CONTINUOUS
 10
10.1427192511
 20
22.3344140523
 11
10.1427192511
 21
23.2669872981
  0
LINE
  5
2E8
100
AcDbEntity
  8
SUPERFICI
100
AcDbLine
 62
7
  6
CONTINUOUS
 10
10.15
 20
-22.4
 11
10.15
 21
-24.2500042308
  0
LINE
  5
2E9
100
AcDbEntity
  8
SUPERFICI
100
AcDbLine
 62
7
  6
CONTINUOUS
 10
10.15
 20
22.4
 11
10.15
 21
24.2500042308
  0
LINE
  5
2EA
100
AcDbEntity
  8
SUPERFICI
100
AcDbLine
 62
253
  6
CONTINUOUS
 10
10.5118572029
 20
9.5
 11
10.5118572029
 21
-9.5
  0
LINE
  5
2EB
100
AcDbEntity
  8
SUPERFICI
100
AcDbLine
 62
253
  6
CONTINUOUS
 10
9.8919962532
 20
-23.1226497308
 11
9.8869056521
 21
-23.6278312164
  0
LINE
  5
2EC
100
AcDbEntity
  8
SUPERFICI
100
AcDbLine
 62
253
  6
CONTINUOUS
 10
10.1427192511
 20
-23.2669872981
 11
10.1369014213
 21
-23.8443375673
  0
LINE
  5
2ED
100
AcDbEntity
  8
SUPERFICI
100
AcDbLine
 62
253
  6
CONTINUOUS
 10
-10.1369014213
 20
-24.2369056521
 11
-10.15
 21
-24.2500042308
  0
LINE
  5
2EE
100
AcDbEntity
  8
SUPERFICI
100
AcDbLine
 62
253
  6
CONTINUOUS
 10
-9.8869056521
 20
-24.4869014213
 11
-9.9000042308
 21
-24.5
  0
LINE
  5
2EF
100
AcDbEntity
  8
RACCORDO
100
AcDbLine
 62
253
  6
CONTINUOUS
 10
-4.9593285552
 20
9.4998765318
 11
-10.5118572029
 21
9.5
  0
LINE
  5
2F0
100
AcDbEntity
  8
RACCORDO
100
AcDbLine
 62
253
  6
CONTINUOUS
 10
10.5118572029
 20
9.5
 11
4.9593320219
 21
9.4998798453
  0
LINE
  5
2F1
100
AcDbEntity
  8
SUPERFICI
100
AcDbLine
 62
253
  6
CONTINUOUS
 10
-10.1369014213
 20
24.2369056521
 11
-10.15
 21
24.2500042308
  0
LINE
  5
2F2
100
AcDbEntity
  8
SUPERFICI
100
AcDbLine
 62
253
  6
CONTINUOUS
 10
-9.8869056521
 20
24.4869014213
 11
-9.9000042308
 21
24.5
  0
LINE
  5
2F3
100
AcDbEntity
  8
SUPERFICI
100
AcDbLine
 62
7
  6
CONTINUOUS
 10
11.1849101299
 20
18.1473460386
 11
11.15
 21
18.5
  0
LINE
  5
2F4
100
AcDbEntity
  8
SUPERFICI
100
AcDbLine
 62
7
  6
CONTINUOUS
 10
11.15
 20
21.900016923
 11
11.15
 21
18.5
  0
LINE
  5
2F5
100
AcDbEntity
  8
SUPERFICI
100
AcDbLine
 62
7
  6
CONTINUOUS
 10
11.15
 20
-21.900016923
 11
11.15
 21
-18.5
  0
LINE
  5
2F6
100
AcDbEntity
  8
SUPERFICI
100
AcDbLine
 62
7
  6
CONTINUOUS
 10
11.1849101299
 20
18.1473460386
 11
11.1849101299
 21
-18.1473460386
  0
LINE
  5
2F7
100
AcDbEntity
  8
SUPERFICI
100
AcDbLine
 62
7
  6
CONTINUOUS
 10
11.15
 20
-18.5
 11
11.1849101299
 21
-18.1473460386
  0
LINE
  5
2F8
100
AcDbEntity
  8
SUPERFICI
100
AcDbLine
 62
7
  6
CONTINUOUS
 10
-4.45
 20
-24.0
 11
-4.4412732553
 21
-23.9912732553
  0
LINE
  5
2F9
100
AcDbEntity
  8
SUPERFICI
100
AcDbLine
 62
7
  6
CONTINUOUS
 10
-4.45
 20
24.0
 11
-4.4412732553
 21
23.9912732553
  0
LINE
  5
2FA
100
AcDbEntity
  8
SUPERFICI
100
AcDbLine
 62
253
  6
CONTINUOUS
 10
7.2630985787
 20
-24.2369056521
 11
7.25
 21
-24.2500042308
  0
LINE
  5
2FB
100
AcDbEntity
  8
SUPERFICI
100
AcDbLine
 62
253
  6
CONTINUOUS
 10
7.5130943479
 20
-24.4869014213
 11
7.4999957692
 21
-24.5
  0
LINE
  5
2FC
100
AcDbEntity
  8
SUPERFICI
100
AcDbLine
 62
7
  6
CONTINUOUS
 10
3.5087268678
 20
-23.9912732553
 11
3.4982647806
 21
-23.9982478817
  0
LINE
  5
2FD
100
AcDbEntity
  8
SUPERFICI
100
AcDbLine
 62
253
  6
CONTINUOUS
 10
-10.5290420874
 20
21.2107174911
 11
10.5290420874
 21
21.2107174911
  0
LINE
  5
2FE
100
AcDbEntity
  8
SUPERFICI
100
AcDbLine
 62
253
  6
CONTINUOUS
 10
-10.5372152757
 20
22.0602279426
 11
10.5372152757
 21
22.0602279426
  0
LINE
  5
2FF
100
AcDbEntity
  8
SUPERFICI
100
AcDbLine
 62
7
  6
CONTINUOUS
 10
9.8927234819
 20
22.3213883311
 11
7.5072765181
 21
22.3213883311
  0
LINE
  5
300
100
AcDbEntity
  8
SUPERFICI
100
AcDbLine
 62
7
  6
CONTINUOUS
 10
4.4412732553
 20
22.3213883311
 11
3.5087268678
 21
22.3213883311
  0
LINE
  5
301
100
AcDbEntity
  8
SUPERFICI
100
AcDbLine
 62
7
  6
CONTINUOUS
 10
-3.5087268678
 20
22.3213883311
 11
-4.4412732553
 21
22.3213883311
  0
LINE
  5
302
100
AcDbEntity
  8
SUPERFICI
100
AcDbLine
 62
7
  6
CONTINUOUS
 10
-7.5072765181
 20
22.3213883311
 11
-9.8927234819
 21
22.3213883311
  0
LINE
  5
303
100
AcDbEntity
  8
SUPERFICI
100
AcDbLine
 62
7
  6
CONTINUOUS
 10
-3.5
 20
22.3737961104
 11
-1.202625676
 21
22.3737961104
  0
LINE
  5
304
100
AcDbEntity
  8
SUPERFICI
100
AcDbLine
 62
7
  6
CONTINUOUS
 10
1.202625676
 20
22.3737961104
 11
3.5
 21
22.3737961104
  0
LINE
  5
305
100
AcDbEntity
  8
SUPERFICI
100
AcDbLine
 62
7
  6
CONTINUOUS
 10
-10.6503805997
 20
22.4
 11
-10.15
 21
22.4
  0
LINE
  5
306
100
AcDbEntity
  8
SUPERFICI
100
AcDbLine
 62
7
  6
CONTINUOUS
 10
-7.25
 20
22.4
 11
-4.45
 21
22.4
  0
LINE
  5
307
100
AcDbEntity
  8
SUPERFICI
100
AcDbLine
 62
7
  6
CONTINUOUS
 10
1.0
 20
22.4
 11
-1.0
 21
22.4
  0
LINE
  5
308
100
AcDbEntity
  8
SUPERFICI
100
AcDbLine
 62
7
  6
CONTINUOUS
 10
4.45
 20
22.4
 11
7.25
 21
22.4
  0
LINE
  5
309
100
AcDbEntity
  8
SUPERFICI
100
AcDbLine
 62
7
  6
CONTINUOUS
 10
10.15
 20
22.4
 11
10.6503805997
 21
22.4
  0
LINE
  5
30A
100
AcDbEntity
  8
SUPERFICI
100
AcDbLine
 62
7
  6
CONTINUOUS
 10
-9.8927234819
 20
23.1226497308
 11
-7.5072765181
 21
23.1226497308
  0
LINE
  5
30B
100
AcDbEntity
  8
SUPERFICI
100
AcDbLine
 62
7
  6
CONTINUOUS
 10
9.8927234819
 20
23.1226497308
 11
7.5072765181
 21
23.1226497308
  0
LINE
  5
30C
100
AcDbEntity
  8
SUPERFICI
100
AcDbLine
 62
253
  6
CONTINUOUS
 10
-9.8869056521
 20
23.6278312164
 11
-7.5130943479
 21
23.6278312164
  0
LINE
  5
30D
100
AcDbEntity
  8
SUPERFICI
100
AcDbLine
 62
253
  6
CONTINUOUS
 10
7.5130943479
 20
23.6278312164
 11
9.8869056521
 21
23.6278312164
  0
LINE
  5
30E
100
AcDbEntity
  8
SUPERFICI
100
AcDbLine
 62
253
  6
CONTINUOUS
 10
3.5
 20
23.7982512664
 11
1.0026332914
 21
23.7982512664
  0
LINE
  5
30F
100
AcDbEntity
  8
SUPERFICI
100
AcDbLine
 62
253
  6
CONTINUOUS
 10
-1.0026332914
 20
23.7982512664
 11
-3.5
 21
23.7982512664
  0
LINE
  5
310
100
AcDbEntity
  8
SUPERFICI
100
AcDbLine
 62
253
  6
CONTINUOUS
 10
7.2630985787
 20
23.8443375673
 11
10.1369014213
 21
23.8443375673
  0
LINE
  5
311
100
AcDbEntity
  8
SUPERFICI
100
AcDbLine
 62
253
  6
CONTINUOUS
 10
-7.2630985787
 20
23.8443375673
 11
-10.1369014213
 21
23.8443375673
  0
LINE
  5
312
100
AcDbEntity
  8
SUPERFICI
100
AcDbLine
 62
7
  6
CONTINUOUS
 10
-4.4412732553
 20
23.9912732553
 11
-3.5087268678
 21
23.9912732553
  0
LINE
  5
313
100
AcDbEntity
  8
SUPERFICI
100
AcDbLine
 62
7
  6
CONTINUOUS
 10
3.5087268678
 20
23.9912732553
 11
4.4412732553
 21
23.9912732553
  0
LINE
  5
314
100
AcDbEntity
  8
SUPERFICI
100
AcDbLine
 62
7
  6
CONTINUOUS
 10
3.4982647806
 20
23.9982478817
 11
1.202625676
 21
23.9982478817
  0
LINE
  5
315
100
AcDbEntity
  8
SUPERFICI
100
AcDbLine
 62
7
  6
CONTINUOUS
 10
-1.202625676
 20
23.9982478817
 11
-3.4982647806
 21
23.9982478817
  0
LINE
  5
316
100
AcDbEntity
  8
SUPERFICI
100
AcDbLine
 62
7
  6
CONTINUOUS
 10
-4.45
 20
24.0
 11
-3.4982647806
 21
24.0
  0
LINE
  5
317
100
AcDbEntity
  8
SUPERFICI
100
AcDbLine
 62
7
  6
CONTINUOUS
 10
3.4982647806
 20
24.0
 11
4.45
 21
24.0
  0
LINE
  5
318
100
AcDbEntity
  8
SUPERFICI
100
AcDbLine
 62
253
  6
CONTINUOUS
 10
7.2630985787
 20
24.2369056521
 11
10.1369014213
 21
24.2369056521
  0
LINE
  5
319
100
AcDbEntity
  8
SUPERFICI
100
AcDbLine
 62
253
  6
CONTINUOUS
 10
-7.2630985787
 20
24.2369056521
 11
-10.1369014213
 21
24.2369056521
  0
LINE
  5
31A
100
AcDbEntity
  8
SUPERFICI
100
AcDbLine
 62
7
  6
CONTINUOUS
 10
3.4982647806
 20
23.9982478817
 11
3.5087268678
 21
23.9912732553
  0
LINE
  5
31B
100
AcDbEntity
  8
SUPERFICI
100
AcDbLine
 62
253
  6
CONTINUOUS
 10
7.2630985787
 20
24.2369056521
 11
7.25
 21
24.2500042308
  0
LINE
  5
31C
100
AcDbEntity
  8
SUPERFICI
100
AcDbLine
 62
253
  6
CONTINUOUS
 10
7.5130943479
 20
24.4869014213
 11
7.4999957692
 21
24.5
  0
LINE
  5
31D
100
AcDbEntity
  8
SUPERFICI
100
AcDbLine
 62
7
  6
CONTINUOUS
 10
9.8869056521
 20
24.4869014213
 11
7.5130943479
 21
24.4869014213
  0
LINE
  5
31E
100
AcDbEntity
  8
SUPERFICI
100
AcDbLine
 62
7
  6
CONTINUOUS
 10
-7.5130943479
 20
24.4869014213
 11
-9.8869056521
 21
24.4869014213
  0
LINE
  5
31F
100
AcDbEntity
  8
SUPERFICI
100
AcDbLine
 62
7
  6
CONTINUOUS
 10
9.9000042308
 20
24.5
 11
7.4999957692
 21
24.5
  0
LINE
  5
320
100
AcDbEntity
  8
SUPERFICI
100
AcDbLine
 62
7
  6
CONTINUOUS
 10
-7.4999957692
 20
24.5
 11
-9.9000042308
 21
24.5
  0
LINE
  5
321
100
AcDbEntity
  8
SUPERFICI
100
AcDbLine
 62
7
  6
CONTINUOUS
 10
-46.8983367983
 20
-24.5
 11
-46.1468823655
 21
-24.495628166
  0
LINE
  5
322
100
AcDbEntity
  8
SUPERFICI
100
AcDbLine
 62
7
  6
CONTINUOUS
 10
-49.1497912312
 20
-24.4869014213
 11
-46.8983367983
 21
-24.5
  0
LINE
  5
323
100
AcDbEntity
  8
SUPERFICI
100
AcDbLine
 62
253
  6
CONTINUOUS
 10
-49.1497912312
 20
-24.2369056521
 11
-46.8983367983
 21
-24.2500042308
  0
LINE
  5
324
100
AcDbEntity
  8
SUPERFICI
100
AcDbLine
 62
253
  6
CONTINUOUS
 10
-46.8983367983
 20
23.4104851482
 11
-46.1468823655
 21
23.8443375673
  0
LINE
  5
325
100
AcDbEntity
  8
SUPERFICI
100
AcDbLine
 62
7
  6
CONTINUOUS
 10
-46.8983367983
 20
23.1226497308
 11
-46.0233367983
 21
23.6278312164
  0
LINE
  5
326
100
AcDbEntity
  8
SUPERFICI
100
AcDbLine
 62
253
  6
CONTINUOUS
 10
-46.8983367983
 20
-24.2500042308
 11
-46.1468823655
 21
-24.2456323968
  0
LINE
  5
327
100
AcDbEntity
  8
SUPERFICI
100
AcDbLine
 62
7
  6
CONTINUOUS
 10
-39.3954279327
 20
-23.9563493531
 11
-45.8983367983
 21
-23.9941821702
  0
LINE
  5
328
100
AcDbEntity
  8
SUPERFICI
100
AcDbLine
 62
7
  6
CONTINUOUS
 10
-35.892519067
 20
-22.3359700255
 11
-46.8983367983
 21
-22.4
  0
LINE
  5
329
100
AcDbEntity
  8
SUPERFICI
100
AcDbLine
 62
253
  6
CONTINUOUS
 10
-46.8983367983
 20
-21.900016923
 11
-45.8983367983
 21
-21.8941990932
  0
LINE
  5
32A
100
AcDbEntity
  8
SUPERFICI
100
AcDbLine
 62
253
  6
CONTINUOUS
 10
-45.8983367983
 20
-24.2456323968
 11
-46.1468823655
 21
-24.2456323968
  0
LINE
  5
32B
100
AcDbEntity
  8
SUPERFICI
100
AcDbLine
 62
253
  6
CONTINUOUS
 10
-49.3983367983
 20
-24.2369056521
 11
-49.1497912312
 21
-24.2369056521
  0
LINE
  5
32C
100
AcDbEntity
  8
SUPERFICI
100
AcDbLine
 62
253
  6
CONTINUOUS
 10
-49.3983367983
 20
-23.8443375673
 11
-49.1497912312
 21
-23.8443375673
  0
LINE
  5
32D
100
AcDbEntity
  8
SUPERFICI
100
AcDbLine
 62
253
  6
CONTINUOUS
 10
-45.8983367983
 20
-23.8443375673
 11
-46.1468823655
 21
-23.8443375673
  0
LINE
  5
32E
100
AcDbEntity
  8
DRAFT
100
AcDbLine
 62
7
  6
CONTINUOUS
 10
-44.8983367983
 20
-20.85
 11
-34.8983367983
 21
-20.85
  0
LINE
  5
32F
100
AcDbEntity
  8
ASSI
100
AcDbLine
 62
7
  6
CONTINUOUS
 10
-44.8983367983
 20
-20.85
 11
-34.8983367983
 21
-20.85
  0
LINE
  5
330
100
AcDbEntity
  8
SUPERFICI
100
AcDbLine
 62
7
  6
CONTINUOUS
 10
-35.3896105951
 20
-21.4537354271
 11
-45.8983367983
 21
-21.4
  0
LINE
  5
331
100
AcDbEntity
  8
SUPERFICI
100
AcDbLine
 62
7
  6
CONTINUOUS
 10
-34.8983367983
 20
-20.9959955457
 11
-45.8983367983
 21
-20.9
  0
LINE
  5
332
100
AcDbEntity
  8
SUPERFICI
100
AcDbLine
 62
7
  6
CONTINUOUS
 10
-53.3815738674
 20
-22.0602279426
 11
-46.8983367983
 21
-22.4
  0
LINE
  5
333
100
AcDbEntity
  8
SUPERFICI
100
AcDbLine
 62
253
  6
CONTINUOUS
 10
-53.3641320925
 20
-21.5609131753
 11
-46.8983367983
 21
-21.8997711479
  0
LINE
  5
334
100
AcDbEntity
  8
SUPERFICI
100
AcDbLine
 62
253
  6
CONTINUOUS
 10
-46.1468823655
 20
-23.8443375673
 11
-46.8983367983
 21
-23.4104851482
  0
LINE
  5
335
100
AcDbEntity
  8
SUPERFICI
100
AcDbLine
 62
7
  6
CONTINUOUS
 10
-46.0233367983
 20
-23.6278312164
 11
-46.8983367983
 21
-23.1226497308
  0
LINE
  5
336
100
AcDbEntity
  8
0
100
AcDbLine
 62
7
  6
CONTINUOUS
 10
-57.0183367983
 20
17.3499494971
 11
-57.0183367983
 21
11.0500101801
  0
LINE
  5
337
100
AcDbEntity
  8
0
100
AcDbLine
 62
7
  6
CONTINUOUS
 10
-57.0183367983
 20
3.1497950897
 11
-57.0183367983
 21
-3.1497950897
  0
LINE
  5
338
100
AcDbEntity
  8
0
100
AcDbLine
 62
7
  6
CONTINUOUS
 10
-57.0183367983
 20
-11.0500505029
 11
-57.0183367983
 21
-17.3499494971
  0
LINE
  5
339
100
AcDbEntity
  8
RACCORDO
100
AcDbLine
 62
7
  6
CONTINUOUS
 10
-22.4808843919
 20
-19.3942317309
 11
-34.8983367983
 21
-19.6109791689
  0
LINE
  5
33A
100
AcDbEntity
  8
ASSI
100
AcDbLine
 62
7
  6
CONTINUOUS
 10
-22.4808843919
 20
-19.3942317309
 11
-34.8983367983
 21
-19.6109791689
  0
LINE
  5
33B
100
AcDbEntity
  8
RACCORDO
100
AcDbLine
 62
253
  6
CONTINUOUS
 10
-22.4808843919
 20
-19.1013831211
 11
-34.8983367983
 21
-19.3181305591
  0
LINE
  5
33C
100
AcDbEntity
  8
ASSI
100
AcDbLine
 62
253
  6
CONTINUOUS
 10
-22.4808843919
 20
-19.1013831211
 11
-34.8983367983
 21
-19.3181305591
  0
LINE
  5
33D
100
AcDbEntity
  8
DRAFT
100
AcDbLine
 62
7
  6
CONTINUOUS
 10
-45.8983367983
 20
-19.5
 11
-44.8983367983
 21
-19.4825449351
  0
LINE
  5
33E
100
AcDbEntity
  8
DRAFT
100
AcDbLine
 62
7
  6
CONTINUOUS
 10
-45.8983367983
 20
-18.5087268678
 11
-44.8983367983
 21
-18.492768546
  0
LINE
  5
33F
100
AcDbEntity
  8
RACCORDO
100
AcDbLine
 62
253
  6
CONTINUOUS
 10
-44.8983367983
 20
-19.0856972195
 11
-22.4808843919
 21
-18.9236182982
  0
LINE
  5
340
100
AcDbEntity
  8
ASSI
100
AcDbLine
 62
253
  6
CONTINUOUS
 10
-44.8983367983
 20
-19.0856972195
 11
-22.4808843919
 21
-18.9236182982
  0
LINE
  5
341
100
AcDbEntity
  8
RACCORDO
100
AcDbLine
 62
253
  6
CONTINUOUS
 10
-44.8983367983
 20
-17.6716990487
 11
-22.4808843919
 21
-17.5096157267
  0
LINE
  5
342
100
AcDbEntity
  8
ASSI
100
AcDbLine
 62
253
  6
CONTINUOUS
 10
-44.8983367983
 20
-17.6716990487
 11
-22.4808843919
 21
-17.5096157267
  0
LINE
  5
343
100
AcDbEntity
  8
0
100
AcDbLine
 62
7
  6
CONTINUOUS
 10
-56.0183367983
 20
-18.35
 11
-54.701911572
 21
-18.35
  0
LINE
  5
344
100
AcDbEntity
  8
RACCORDO
100
AcDbLine
 62
253
  6
CONTINUOUS
 10
-21.4983367983
 20
-17.509618074
 11
-22.4808843919
 21
-17.509618074
  0
LINE
  5
345
100
AcDbEntity
  8
ASSI
100
AcDbLine
 62
253
  6
CONTINUOUS
 10
-21.4983367983
 20
-17.509618074
 11
-22.4808843919
 21
-17.509618074
  0
LINE
  5
346
100
AcDbEntity
  8
DRAFT
100
AcDbLine
 62
7
  6
CONTINUOUS
 10
-44.8983367983
 20
-19.7087268678
 11
-45.8983367983
 21
-19.7
  0
LINE
  5
347
100
AcDbEntity
  8
0
100
AcDbLine
 62
253
  6
CONTINUOUS
 10
-56.0183367983
 20
-18.3499999802
 11
-56.0183367983
 21
-10.0500002806
  0
LINE
  5
348
100
AcDbEntity
  8
0
100
AcDbLine
 62
253
  6
CONTINUOUS
 10
-56.0183367983
 20
-4.1499999998
 11
-56.0183367983
 21
4.1499999998
  0
LINE
  5
349
100
AcDbEntity
  8
0
100
AcDbLine
 62
253
  6
CONTINUOUS
 10
-56.0183367983
 20
10.0500000198
 11
-56.0183367983
 21
18.3499997194
  0
LINE
  5
34A
100
AcDbEntity
  8
INCISIONI
100
AcDbLine
 62
253
  6
CONTINUOUS
 10
-42.3051081653
 20
-15.342748
 11
-40.3097950959
 21
-14.790021
  0
LINE
  5
34B
100
AcDbEntity
  8
SUPERFICI
100
AcDbLine
 62
7
  6
CONTINUOUS
 10
-46.8983367983
 20
-18.5
 11
-44.8983367983
 21
-18.1473460386
  0
LINE
  5
34C
100
AcDbEntity
  8
ASSI
100
AcDbLine
 62
7
  6
CONTINUOUS
 10
-21.4983367983
 20
-17.1
 11
-28.9983367983
 21
-17.1
  0
LINE
  5
34D
100
AcDbEntity
  8
0
100
AcDbLine
 62
253
  6
CONTINUOUS
 10
-36.2983367983
 20
-16.0
 11
-37.7981083411
 21
-16.0
  0
LINE
  5
34E
100
AcDbEntity
  8
0
100
AcDbLine
 62
253
  6
CONTINUOUS
 10
-37.7981083411
 20
-15.1428571045
 11
-36.2983367983
 21
-15.1428571045
  0
LINE
  5
34F
100
AcDbEntity
  8
INCISIONI
100
AcDbLine
 62
253
  6
CONTINUOUS
 10
-40.3097950959
 20
-14.790021
 11
-42.3051081653
 21
-14.22041
  0
LINE
  5
350
100
AcDbEntity
  8
INCISIONI
100
AcDbLine
 62
253
  6
CONTINUOUS
 10
-42.3051081653
 20
-13.615552
 11
-39.4063383604
 21
-14.547617
  0
LINE
  5
351
100
AcDbEntity
  8
SUPERFICI
100
AcDbLine
 62
7
  6
CONTINUOUS
 10
-49.3983367983
 20
-24.2369056521
 11
-49.3983367983
 21
-23.8443375673
  0
LINE
  5
352
100
AcDbEntity
  8
SUPERFICI
100
AcDbLine
 62
7
  6
CONTINUOUS
 10
-49.3983367983
 20
23.8443375673
 11
-49.3983367983
 21
24.2369056521
  0
LINE
  5
353
100
AcDbEntity
  8
INCISIONI
100
AcDbLine
 62
7
  6
CONTINUOUS
 10
-42.2971915773
 20
15.9499404633
 11
-42.2456950406
 21
16.001437
  0
LINE
  5
354
100
AcDbEntity
  8
INCISIONI
100
AcDbLine
 62
7
  6
CONTINUOUS
 10
-42.2971915773
 20
15.7399297493
 11
-42.0356843266
 21
16.001437
  0
LINE
  5
355
100
AcDbEntity
  8
INCISIONI
100
AcDbLine
 62
7
  6
CONTINUOUS
 10
-42.2971915773
 20
15.5299190353
 11
-41.8256736126
 21
16.001437
  0
LINE
  5
356
100
AcDbEntity
  8
INCISIONI
100
AcDbLine
 62
7
  6
CONTINUOUS
 10
-42.1140917931
 20
15.5030081055
 11
-41.6156628986
 21
16.001437
  0
LINE
  5
357
100
AcDbEntity
  8
INCISIONI
100
AcDbLine
 62
7
  6
CONTINUOUS
 10
-41.9040821051
 20
15.5030070795
 11
-41.4056521846
 21
16.001437
  0
LINE
  5
358
100
AcDbEntity
  8
INCISIONI
100
AcDbLine
 62
7
  6
CONTINUOUS
 10
-41.694072417
 20
15.5030060536
 11
-41.1956414706
 21
16.001437
  0
LINE
  5
359
100
AcDbEntity
  8
INCISIONI
100
AcDbLine
 62
7
  6
CONTINUOUS
 10
-41.484062729
 20
15.5030050276
 11
-40.9856307566
 21
16.001437
  0
LINE
  5
35A
100
AcDbEntity
  8
INCISIONI
100
AcDbLine
 62
7
  6
CONTINUOUS
 10
-41.2740530409
 20
15.5030040016
 11
-40.7756200426
 21
16.001437
  0
LINE
  5
35B
100
AcDbEntity
  8
INCISIONI
100
AcDbLine
 62
7
  6
CONTINUOUS
 10
-41.0640433529
 20
15.5030029757
 11
-40.5656093285
 21
16.001437
  0
LINE
  5
35C
100
AcDbEntity
  8
INCISIONI
100
AcDbLine
 62
7
  6
CONTINUOUS
 10
-42.2971915773
 20
14.0598440372
 11
-41.9908722899
 21
14.3661633246
  0
LINE
  5
35D
100
AcDbEntity
  8
INCISIONI
100
AcDbLine
 62
7
  6
CONTINUOUS
 10
-40.8540336648
 20
15.5030019497
 11
-40.3555986145
 21
16.001437
  0
LINE
  5
35E
100
AcDbEntity
  8
INCISIONI
100
AcDbLine
 62
7
  6
CONTINUOUS
 10
-42.2971915773
 20
13.8498333232
 11
-41.3854500139
 21
14.7615748866
  0
LINE
  5
35F
100
AcDbEntity
  8
INCISIONI
100
AcDbLine
 62
7
  6
CONTINUOUS
 10
-40.6440239768
 20
15.5030009238
 11
-40.1455879005
 21
16.001437
  0
LINE
  5
360
100
AcDbEntity
  8
INCISIONI
100
AcDbLine
 62
7
  6
CONTINUOUS
 10
-42.2768041865
 20
13.66021
 11
-40.7800277379
 21
15.1569864486
  0
LINE
  5
361
100
AcDbEntity
  8
INCISIONI
100
AcDbLine
 62
7
  6
CONTINUOUS
 10
-40.4340142887
 20
15.5029998978
 11
-39.9355771865
 21
16.001437
  0
LINE
  5
362
100
AcDbEntity
  8
INCISIONI
100
AcDbLine
 62
7
  6
CONTINUOUS
 10
-42.0667934725
 20
13.66021
 11
-39.7255664725
 21
16.001437
  0
LINE
  5
363
100
AcDbEntity
  8
INCISIONI
100
AcDbLine
 62
7
  6
CONTINUOUS
 10
-41.8567827585
 20
13.66021
 11
-41.35158656
 21
14.1654061985
  0
LINE
  5
364
100
AcDbEntity
  8
INCISIONI
100
AcDbLine
 62
7
  6
CONTINUOUS
 10
-41.2164434391
 20
14.3005493194
 11
-39.5155557585
 21
16.001437
  0
LINE
  5
365
100
AcDbEntity
  8
INCISIONI
100
AcDbLine
 62
7
  6
CONTINUOUS
 10
-41.6467720445
 20
13.66021
 11
-41.1423019196
 21
14.1646801249
  0
LINE
  5
366
100
AcDbEntity
  8
INCISIONI
100
AcDbLine
 62
7
  6
CONTINUOUS
 10
-40.6143514642
 20
14.6926305802
 11
-39.3989806022
 21
15.9080014423
  0
LINE
  5
367
100
AcDbEntity
  8
INCISIONI
100
AcDbLine
 62
7
  6
CONTINUOUS
 10
-41.4367613305
 20
13.66021
 11
-40.9330172792
 21
14.1639540512
  0
LINE
  5
368
100
AcDbEntity
  8
INCISIONI
100
AcDbLine
 62
7
  6
CONTINUOUS
 10
-40.0122594894
 20
15.084711841
 11
-39.3989806022
 21
15.6979907283
  0
LINE
  5
369
100
AcDbEntity
  8
INCISIONI
100
AcDbLine
 62
7
  6
CONTINUOUS
 10
-41.2267506164
 20
13.66021
 11
-40.7237326388
 21
14.1632279776
  0
LINE
  5
36A
100
AcDbEntity
  8
INCISIONI
100
AcDbLine
 62
7
  6
CONTINUOUS
 10
-39.4101675146
 20
15.4767931018
 11
-39.3989806022
 21
15.4879800143
  0
LINE
  5
36B
100
AcDbEntity
  8
INCISIONI
100
AcDbLine
 62
7
  6
CONTINUOUS
 10
-42.1322872815
 20
12.5446626209
 11
-41.8061485757
 21
12.8708013267
  0
LINE
  5
36C
100
AcDbEntity
  8
INCISIONI
100
AcDbLine
 62
7
  6
CONTINUOUS
 10
-41.0167399024
 20
13.66021
 11
-40.5144479984
 21
14.162501904
  0
LINE
  5
36D
100
AcDbEntity
  8
INCISIONI
100
AcDbLine
 62
7
  6
CONTINUOUS
 10
-42.3099114908
 20
12.1570276976
 11
-41.4023148945
 21
13.0646242939
  0
LINE
  5
36E
100
AcDbEntity
  8
INCISIONI
100
AcDbLine
 62
7
  6
CONTINUOUS
 10
-40.8067291884
 20
13.66021
 11
-40.3051633581
 21
14.1617758304
  0
LINE
  5
36F
100
AcDbEntity
  8
INCISIONI
100
AcDbLine
 62
7
  6
CONTINUOUS
 10
-42.3548448104
 20
11.902083664
 11
-41.1283715709
 21
13.1285569035
  0
LINE
  5
370
100
AcDbEntity
  8
INCISIONI
100
AcDbLine
 62
7
  6
CONTINUOUS
 10
-40.5967184744
 20
13.66021
 11
-40.0958787177
 21
14.1610497567
  0
LINE
  5
371
100
AcDbEntity
  8
INCISIONI
100
AcDbLine
 62
7
  6
CONTINUOUS
 10
-42.3600137958
 20
11.6869039646
 11
-40.8976500653
 21
13.1492676951
  0
LINE
  5
372
100
AcDbEntity
  8
INCISIONI
100
AcDbLine
 62
7
  6
CONTINUOUS
 10
-40.3867077604
 20
13.66021
 11
-39.8865940773
 21
14.1603236831
  0
LINE
  5
373
100
AcDbEntity
  8
INCISIONI
100
AcDbLine
 62
7
  6
CONTINUOUS
 10
-42.3403394217
 20
11.4965676247
 11
-41.8780587587
 21
11.9588482877
  0
LINE
  5
374
100
AcDbEntity
  8
INCISIONI
100
AcDbLine
 62
7
  6
CONTINUOUS
 10
-41.2681016407
 20
12.5688054057
 11
-40.693426371
 21
13.1434806754
  0
LINE
  5
375
100
AcDbEntity
  8
INCISIONI
100
AcDbLine
 62
7
  6
CONTINUOUS
 10
-40.1766970464
 20
13.66021
 11
-39.6773094369
 21
14.1595976095
  0
LINE
  5
376
100
AcDbEntity
  8
INCISIONI
100
AcDbLine
 62
7
  6
CONTINUOUS
 10
-42.3010135174
 20
11.3258828149
 11
-41.9015560559
 21
11.7253402765
  0
LINE
  5
377
100
AcDbEntity
  8
INCISIONI
100
AcDbLine
 62
7
  6
CONTINUOUS
 10
-41.0056136382
 20
12.6212826942
 11
-40.5087392543
 21
13.1181570781
  0
LINE
  5
378
100
AcDbEntity
  8
INCISIONI
100
AcDbLine
 62
7
  6
CONTINUOUS
 10
-39.9666863324
 20
13.66021
 11
-39.4680247965
 21
14.1588715358
  0
LINE
  5
379
100
AcDbEntity
  8
INCISIONI
100
AcDbLine
 62
253
  6
CONTINUOUS
 10
-37.9266602038
 20
14.6119047403
 11
-38.1980474191
 21
14.385714221
  0
LINE
  5
37A
100
AcDbEntity
  8
INCISIONI
100
AcDbLine
 62
253
  6
CONTINUOUS
 10
-42.2971915773
 20
14.166101
 11
-40.2502412407
 21
15.502999
  0
LINE
  5
37B
100
AcDbEntity
  8
INCISIONI
100
AcDbLine
 62
253
  6
CONTINUOUS
 10
-39.3989806022
 20
15.484078
 11
-41.4235897457
 21
14.165656
  0
LINE
  5
37C
100
AcDbEntity
  8
0
100
AcDbLine
 62
253
  6
CONTINUOUS
 10
-36.2983367983
 20
-13.428571403
 11
-37.7981083411
 21
-13.428571403
  0
LINE
  5
37D
100
AcDbEntity
  8
INCISIONI
100
AcDbLine
 62
253
  6
CONTINUOUS
 10
-42.3052821123
 20
-13.390935
 11
-39.4063383604
 21
-13.390935
  0
LINE
  5
37E
100
AcDbEntity
  8
ASSI
100
AcDbLine
 62
7
  6
CONTINUOUS
 10
-21.4983367983
 20
-12.9
 11
-28.9983367983
 21
-12.9
  0
LINE
  5
37F
100
AcDbEntity
  8
INCISIONI
100
AcDbLine
 62
253
  6
CONTINUOUS
 10
-39.4063383604
 20
-12.785664
 11
-42.3052821123
 21
-12.785664
  0
LINE
  5
380
100
AcDbEntity
  8
0
100
AcDbLine
 62
253
  6
CONTINUOUS
 10
-37.5838552763
 20
-12.6785715818
 11
-36.5125898854
 21
-12.6785715818
  0
LINE
  5
381
100
AcDbEntity
  8
ASSI
100
AcDbLine
 62
7
  6
CONTINUOUS
 10
-21.4983367983
 20
-12.1
 11
-28.9983367983
 21
-12.1
  0
LINE
  5
382
100
AcDbEntity
  8
0
100
AcDbLine
 62
253
  6
CONTINUOUS
 10
-36.2983367983
 20
-12.0714285374
 11
-37.7981083411
 21
-12.0714285374
  0
LINE
  5
383
100
AcDbEntity
  8
RACCORDO
100
AcDbLine
 62
253
  6
CONTINUOUS
 10
-56.0183367983
 20
-10.19141748
 11
-55.2919262668
 21
-10.19141748
  0
LINE
  5
384
100
AcDbEntity
  8
INCISIONI
100
AcDbLine
 62
253
  6
CONTINUOUS
 10
-41.2991806506
 20
-11.750162
 11
-39.4063383604
 21
-11.880779
  0
LINE
  5
385
100
AcDbEntity
  8
INCISIONI
100
AcDbLine
 62
253
  6
CONTINUOUS
 10
-39.4063383604
 20
-12.459827
 11
-42.3051081653
 21
-12.198005
  0
LINE
  5
386
100
AcDbEntity
  8
0
100
AcDbLine
 62
253
  6
CONTINUOUS
 10
-36.2983367983
 20
-14.7142857015
 11
-37.7981083411
 21
-14.2857142091
  0
LINE
  5
387
100
AcDbEntity
  8
INCISIONI
100
AcDbLine
 62
253
  6
CONTINUOUS
 10
-40.6957025179
 20
-10.994355
 11
-42.3051081653
 21
-10.389084
  0
LINE
  5
388
100
AcDbEntity
  8
INCISIONI
100
AcDbLine
 62
253
  6
CONTINUOUS
 10
-41.2912900547
 20
-10.235548
 11
-39.4063383604
 21
-10.955216
  0
LINE
  5
389
100
AcDbEntity
  8
0
100
AcDbLine
 62
253
  6
CONTINUOUS
 10
-36.9410960373
 20
-15.5714285523
 11
-37.7981083411
 21
-15.1428571045
  0
LINE
  5
38A
100
AcDbEntity
  8
SUPERFICI
100
AcDbLine
 62
253
  6
CONTINUOUS
 10
-49.1497912312
 20
-24.2369056521
 11
-49.1497912312
 21
-23.8443375673
  0
LINE
  5
38B
100
AcDbEntity
  8
SUPERFICI
100
AcDbLine
 62
253
  6
CONTINUOUS
 10
-49.1497912312
 20
23.8443375673
 11
-49.1497912312
 21
24.2369056521
  0
LINE
  5
38C
100
AcDbEntity
  8
SUPERFICI
100
AcDbLine
 62
7
  6
CONTINUOUS
 10
-48.3983367983
 20
-23.1226497308
 11
-48.3983367983
 21
-22.3213883311
  0
LINE
  5
38D
100
AcDbEntity
  8
SUPERFICI
100
AcDbLine
 62
7
  6
CONTINUOUS
 10
-48.3983367983
 20
22.3213883311
 11
-48.3983367983
 21
23.1226497308
  0
LINE
  5
38E
100
AcDbEntity
  8
SUPERFICI
100
AcDbLine
 62
253
  6
CONTINUOUS
 10
-48.1497912312
 20
-23.2669872981
 11
-48.1497912312
 21
-22.3344140523
  0
LINE
  5
38F
100
AcDbEntity
  8
SUPERFICI
100
AcDbLine
 62
253
  6
CONTINUOUS
 10
-48.1497912312
 20
22.3344140523
 11
-48.1497912312
 21
23.2669872981
  0
LINE
  5
390
100
AcDbEntity
  8
SUPERFICI
100
AcDbLine
 62
7
  6
CONTINUOUS
 10
-46.8983367983
 20
21.900016923
 11
-46.8983367983
 21
18.5
  0
LINE
  5
391
100
AcDbEntity
  8
SUPERFICI
100
AcDbLine
 62
7
  6
CONTINUOUS
 10
-46.8983367983
 20
-21.900016923
 11
-46.8983367983
 21
-18.5
  0
LINE
  5
392
100
AcDbEntity
  8
SUPERFICI
100
AcDbLine
 62
7
  6
CONTINUOUS
 10
-46.8983367983
 20
-22.4
 11
-46.8983367983
 21
-24.2500042308
  0
LINE
  5
393
100
AcDbEntity
  8
SUPERFICI
100
AcDbLine
 62
7
  6
CONTINUOUS
 10
-46.8983367983
 20
22.4
 11
-46.8983367983
 21
24.2500042308
  0
LINE
  5
394
100
AcDbEntity
  8
SUPERFICI
100
AcDbLine
 62
253
  6
CONTINUOUS
 10
-46.1468823655
 20
24.2456323968
 11
-46.1468823655
 21
23.8443375673
  0
LINE
  5
395
100
AcDbEntity
  8
SUPERFICI
100
AcDbLine
 62
253
  6
CONTINUOUS
 10
-46.1468823655
 20
-23.8443375673
 11
-46.1468823655
 21
-24.2456323968
  0
LINE
  5
396
100
AcDbEntity
  8
SUPERFICI
100
AcDbLine
 62
7
  6
CONTINUOUS
 10
-45.8983367983
 20
24.2456323968
 11
-45.8983367983
 21
23.8443375673
  0
LINE
  5
397
100
AcDbEntity
  8
SUPERFICI
100
AcDbLine
 62
7
  6
CONTINUOUS
 10
-45.8983367983
 20
22.3941821702
 11
-45.8983367983
 21
21.8941990932
  0
LINE
  5
398
100
AcDbEntity
  8
SUPERFICI
100
AcDbLine
 62
7
  6
CONTINUOUS
 10
-45.8983367983
 20
-21.8941990932
 11
-45.8983367983
 21
-22.3941821702
  0
LINE
  5
399
100
AcDbEntity
  8
DRAFT
100
AcDbLine
 62
7
  6
CONTINUOUS
 10
-45.8983367983
 20
-21.8941990932
 11
-45.8983367983
 21
-18.5087268678
  0
LINE
  5
39A
100
AcDbEntity
  8
SUPERFICI
100
AcDbLine
 62
7
  6
CONTINUOUS
 10
-45.8983367983
 20
-23.8443375673
 11
-45.8983367983
 21
-24.2456323968
  0
LINE
  5
39B
100
AcDbEntity
  8
DRAFT
100
AcDbLine
 62
7
  6
CONTINUOUS
 10
-45.8983367983
 20
18.5087268678
 11
-45.8983367983
 21
21.8941990932
  0
LINE
  5
39C
100
AcDbEntity
  8
INCISIONI
100
AcDbLine
 62
7
  6
CONTINUOUS
 10
-42.2450604235
 20
11.1718251949
 11
-41.8749701898
 21
11.5419154286
  0
LINE
  5
39D
100
AcDbEntity
  8
INCISIONI
100
AcDbLine
 62
7
  6
CONTINUOUS
 10
-40.78870656
 20
12.6281790584
 11
-40.3390570319
 21
13.0778285865
  0
LINE
  5
39E
100
AcDbEntity
  8
INCISIONI
100
AcDbLine
 62
7
  6
CONTINUOUS
 10
-39.7566756184
 20
13.66021
 11
-39.3989806022
 21
14.0179050162
  0
LINE
  5
39F
100
AcDbEntity
  8
INCISIONI
100
AcDbLine
 62
7
  6
CONTINUOUS
 10
-42.173803726
 20
11.0330711783
 11
-41.8200044485
 21
11.3868704558
  0
LINE
  5
3A0
100
AcDbEntity
  8
INCISIONI
100
AcDbLine
 62
7
  6
CONTINUOUS
 10
-40.5978656872
 20
12.6090092172
 11
-40.1821568813
 21
13.024718023
  0
LINE
  5
3A1
100
AcDbEntity
  8
INCISIONI
100
AcDbLine
 62
7
  6
CONTINUOUS
 10
-39.5466649043
 20
13.66021
 11
-39.3989806022
 21
13.8078943022
  0
LINE
  5
3A2
100
AcDbEntity
  8
INCISIONI
100
AcDbLine
 62
253
  6
CONTINUOUS
 10
-37.1124985011
 20
16.014285779
 11
-37.383885773
 21
15.742857337
  0
LINE
  5
3A3
100
AcDbEntity
  8
INCISIONI
100
AcDbLine
 62
7
  6
CONTINUOUS
 10
-42.0887155436
 20
10.9081486468
 11
-41.7424254272
 21
11.2544387631
  0
LINE
  5
3A4
100
AcDbEntity
  8
INCISIONI
100
AcDbLine
 62
7
  6
CONTINUOUS
 10
-40.4280171804
 20
12.5688470099
 11
-40.0379438206
 21
12.9589203697
  0
LINE
  5
3A5
100
AcDbEntity
  8
INCISIONI
100
AcDbLine
 62
7
  6
CONTINUOUS
 10
-41.9914684613
 20
10.7953850151
 11
-41.6424488838
 21
11.1444045925
  0
LINE
  5
3A6
100
AcDbEntity
  8
INCISIONI
100
AcDbLine
 62
7
  6
CONTINUOUS
 10
-40.2761081579
 20
12.5107453184
 11
-39.9056924541
 21
12.8811610222
  0
LINE
  5
3A7
100
AcDbEntity
  8
INCISIONI
100
AcDbLine
 62
7
  6
CONTINUOUS
 10
-42.2971915773
 20
10.279651185
 11
-42.262285989
 21
10.3145567733
  0
LINE
  5
3A8
100
AcDbEntity
  8
INCISIONI
100
AcDbLine
 62
7
  6
CONTINUOUS
 10
-41.8802867089
 20
10.6965560534
 11
-41.5211378327
 21
11.0557049296
  0
LINE
  5
3A9
100
AcDbEntity
  8
INCISIONI
100
AcDbLine
 62
7
  6
CONTINUOUS
 10
-40.1412879981
 20
12.4355547642
 11
-39.7850865445
 21
12.7917562178
  0
LINE
  5
3AA
100
AcDbEntity
  8
INCISIONI
100
AcDbLine
 62
7
  6
CONTINUOUS
 10
-42.2971915773
 20
10.069640471
 11
-42.1596155521
 21
10.2072164962
  0
LINE
  5
3AB
100
AcDbEntity
  8
INCISIONI
100
AcDbLine
 62
7
  6
CONTINUOUS
 10
-41.757302518
 20
10.6095295303
 11
-41.3814874381
 21
10.9853446102
  0
LINE
  5
3AC
100
AcDbEntity
  8
INCISIONI
100
AcDbLine
 62
7
  6
CONTINUOUS
 10
-40.0250668522
 20
12.3417651961
 11
-39.6784125297
 21
12.6884195186
  0
LINE
  5
3AD
100
AcDbEntity
  8
INCISIONI
100
AcDbLine
 62
7
  6
CONTINUOUS
 10
-42.2971915773
 20
9.859629757
 11
-42.0569451152
 21
10.0998762191
  0
LINE
  5
3AE
100
AcDbEntity
  8
INCISIONI
100
AcDbLine
 62
7
  6
CONTINUOUS
 10
-41.621324845
 20
10.5354964893
 11
-41.22491614
 21
10.9319051943
  0
LINE
  5
3AF
100
AcDbEntity
  8
INCISIONI
100
AcDbLine
 62
7
  6
CONTINUOUS
 10
-39.9309221419
 20
12.2258991923
 11
-39.5835392963
 21
12.573282038
  0
LINE
  5
3B0
100
AcDbEntity
  8
INCISIONI
100
AcDbLine
 62
7
  6
CONTINUOUS
 10
-42.2936137291
 20
9.6531968912
 11
-41.9542746783
 21
9.9925359419
  0
LINE
  5
3B1
100
AcDbEntity
  8
INCISIONI
100
AcDbLine
 62
7
  6
CONTINUOUS
 10
-41.4737260057
 20
10.4730846146
 11
-41.0497073403
 21
10.8971032799
  0
LINE
  5
3B2
100
AcDbEntity
  8
INCISIONI
100
AcDbLine
 62
7
  6
CONTINUOUS
 10
-39.8591013941
 20
12.0877092262
 11
-39.5027583393
 21
12.4440522809
  0
LINE
  5
3B3
100
AcDbEntity
  8
INCISIONI
100
AcDbLine
 62
253
  6
CONTINUOUS
 10
-37.1124985011
 20
14.657142663
 11
-37.383885773
 21
14.385714221
  0
LINE
  5
3B4
100
AcDbEntity
  8
INCISIONI
100
AcDbLine
 62
7
  6
CONTINUOUS
 10
-42.189499701
 20
9.5473002052
 11
-41.8516042414
 21
9.8851956648
  0
LINE
  5
3B5
100
AcDbEntity
  8
INCISIONI
100
AcDbLine
 62
7
  6
CONTINUOUS
 10
-41.3140786129
 20
10.4227212934
 11
-40.8533534958
 21
10.8834464104
  0
LINE
  5
3B6
100
AcDbEntity
  8
INCISIONI
100
AcDbLine
 62
7
  6
CONTINUOUS
 10
-39.8106815499
 20
11.9261183563
 11
-39.4351169125
 21
12.3016829937
  0
LINE
  5
3B7
100
AcDbEntity
  8
INCISIONI
100
AcDbLine
 62
7
  6
CONTINUOUS
 10
-42.085385673
 20
9.4414035193
 11
-41.7489338046
 21
9.7778553877
  0
LINE
  5
3B8
100
AcDbEntity
  8
INCISIONI
100
AcDbLine
 62
7
  6
CONTINUOUS
 10
-41.1406084855
 20
10.3861807067
 11
-40.627120314
 21
10.8996688783
  0
LINE
  5
3B9
100
AcDbEntity
  8
INCISIONI
100
AcDbLine
 62
7
  6
CONTINUOUS
 10
-39.7944195399
 20
11.7323696523
 11
-39.3829594718
 21
12.1438297205
  0
LINE
  5
3BA
100
AcDbEntity
  8
INCISIONI
100
AcDbLine
 62
7
  6
CONTINUOUS
 10
-41.981271645
 20
9.3355068333
 11
-41.6462633677
 21
9.6705151106
  0
LINE
  5
3BB
100
AcDbEntity
  8
INCISIONI
100
AcDbLine
 62
7
  6
CONTINUOUS
 10
-40.9513231547
 20
10.3654553235
 11
-40.3434434571
 21
10.9733350212
  0
LINE
  5
3BC
100
AcDbEntity
  8
INCISIONI
100
AcDbLine
 62
7
  6
CONTINUOUS
 10
-39.8407107193
 20
11.476067759
 11
-39.348972569
 21
11.9678059092
  0
LINE
  5
3BD
100
AcDbEntity
  8
INCISIONI
100
AcDbLine
 62
7
  6
CONTINUOUS
 10
-41.8771576169
 20
9.2296101473
 11
-41.5435929308
 21
9.5631748334
  0
LINE
  5
3BE
100
AcDbEntity
  8
INCISIONI
100
AcDbLine
 62
7
  6
CONTINUOUS
 10
-40.7413139999
 20
10.3654537643
 11
-39.3351493808
 21
11.7716183834
  0
LINE
  5
3BF
100
AcDbEntity
  8
INCISIONI
100
AcDbLine
 62
7
  6
CONTINUOUS
 10
-41.7730435889
 20
9.1237134613
 11
-41.4409224939
 21
9.4558345563
  0
LINE
  5
3C0
100
AcDbEntity
  8
INCISIONI
100
AcDbLine
 62
7
  6
CONTINUOUS
 10
-40.5007642819
 20
10.3959927683
 11
-39.3485405732
 21
11.548216477
  0
LINE
  5
3C1
100
AcDbEntity
  8
INCISIONI
100
AcDbLine
 62
7
  6
CONTINUOUS
 10
-41.6689295609
 20
9.0178167753
 11
-41.338252057
 21
9.3484942792
  0
LINE
  5
3C2
100
AcDbEntity
  8
INCISIONI
100
AcDbLine
 62
7
  6
CONTINUOUS
 10
-40.208956686
 20
10.4777896502
 11
-39.4109628611
 21
11.2757834751
  0
LINE
  5
3C3
100
AcDbEntity
  8
INCISIONI
100
AcDbLine
 62
7
  6
CONTINUOUS
 10
-42.2971915773
 20
8.1795440449
 11
-42.1051521419
 21
8.3715834802
  0
LINE
  5
3C4
100
AcDbEntity
  8
INCISIONI
100
AcDbLine
 62
7
  6
CONTINUOUS
 10
-41.5648155328
 20
8.9119200894
 11
-41.2355816201
 21
9.241154002
  0
LINE
  5
3C5
100
AcDbEntity
  8
INCISIONI
100
AcDbLine
 62
253
  6
CONTINUOUS
 10
-37.1124985011
 20
13.3
 11
-37.383885773
 21
13.0285713315
  0
LINE
  5
3C6
100
AcDbEntity
  8
INCISIONI
100
AcDbLine
 62
7
  6
CONTINUOUS
 10
-42.2971915773
 20
7.9695333309
 11
-41.8951430899
 21
8.3715818183
  0
LINE
  5
3C7
100
AcDbEntity
  8
INCISIONI
100
AcDbLine
 62
7
  6
CONTINUOUS
 10
-41.4607015048
 20
8.8060234034
 11
-41.1329111833
 21
9.1338137249
  0
LINE
  5
3C8
100
AcDbEntity
  8
INCISIONI
100
AcDbLine
 62
7
  6
CONTINUOUS
 10
-42.2028761942
 20
7.853838
 11
-41.6851340378
 21
8.3715801563
  0
LINE
  5
3C9
100
AcDbEntity
  8
INCISIONI
100
AcDbLine
 62
7
  6
CONTINUOUS
 10
-41.3565874768
 20
8.7001267174
 11
-40.5305638942
 21
9.5261502999
  0
LINE
  5
3CA
100
AcDbEntity
  8
INCISIONI
100
AcDbLine
 62
7
  6
CONTINUOUS
 10
-41.9928654801
 20
7.853838
 11
-41.4751249858
 21
8.3715784944
  0
LINE
  5
3CB
100
AcDbEntity
  8
INCISIONI
100
AcDbLine
 62
7
  6
CONTINUOUS
 10
-41.2524734487
 20
8.5942300314
 11
-39.7380178262
 21
10.108685654
  0
LINE
  5
3CC
100
AcDbEntity
  8
INCISIONI
100
AcDbLine
 62
253
  6
CONTINUOUS
 10
-38.1980474191
 20
11.535714221
 11
-37.9266602038
 21
11.8071428895
  0
LINE
  5
3CD
100
AcDbEntity
  8
INCISIONI
100
AcDbLine
 62
7
  6
CONTINUOUS
 10
-41.7828547661
 20
7.853838
 11
-41.2651159337
 21
8.3715768324
  0
LINE
  5
3CE
100
AcDbEntity
  8
INCISIONI
100
AcDbLine
 62
7
  6
CONTINUOUS
 10
-41.1483594207
 20
8.4883333454
 11
-39.3989806022
 21
10.2377121639
  0
LINE
  5
3CF
100
AcDbEntity
  8
INCISIONI
100
AcDbLine
 62
7
  6
CONTINUOUS
 10
-42.2971915773
 20
7.1294904748
 11
-42.1885750521
 21
7.238107
  0
LINE
  5
3D0
100
AcDbEntity
  8
INCISIONI
100
AcDbLine
 62
7
  6
CONTINUOUS
 10
-41.5728440521
 20
7.853838
 11
-41.0551068817
 21
8.3715751705
  0
LINE
  5
3D1
100
AcDbEntity
  8
INCISIONI
100
AcDbLine
 62
7
  6
CONTINUOUS
 10
-41.0442453927
 20
8.3824366595
 11
-40.7178466725
 21
8.7088353797
  0
LINE
  5
3D2
100
AcDbEntity
  8
INCISIONI
100
AcDbLine
 62
7
  6
CONTINUOUS
 10
-40.5250903702
 20
8.9015916819
 11
-39.3989806022
 21
10.0277014499
  0
LINE
  5
3D3
100
AcDbEntity
  8
INCISIONI
100
AcDbLine
 62
7
  6
CONTINUOUS
 10
-42.2971915773
 20
6.9194797608
 11
-41.9785643381
 21
7.238107
  0
LINE
  5
3D4
100
AcDbEntity
  8
INCISIONI
100
AcDbLine
 62
7
  6
CONTINUOUS
 10
-41.3628333381
 20
7.853838
 11
-40.6165184042
 21
8.6001529339
  0
LINE
  5
3D5
100
AcDbEntity
  8
INCISIONI
100
AcDbLine
 62
7
  6
CONTINUOUS
 10
-39.7886218068
 20
9.4280495313
 11
-39.3989806022
 21
9.8176907359
  0
LINE
  5
3D6
100
AcDbEntity
  8
INCISIONI
100
AcDbLine
 62
7
  6
CONTINUOUS
 10
-42.2863226241
 20
6.720338
 11
-41.7685536241
 21
7.238107
  0
LINE
  5
3D7
100
AcDbEntity
  8
INCISIONI
100
AcDbLine
 62
7
  6
CONTINUOUS
 10
-41.1528226241
 20
7.853838
 11
-40.5151901359
 21
8.4914704882
  0
LINE
  5
3D8
100
AcDbEntity
  8
INCISIONI
100
AcDbLine
 62
7
  6
CONTINUOUS
 10
-42.0763119101
 20
6.720338
 11
-41.5585429101
 21
7.238107
  0
LINE
  5
3D9
100
AcDbEntity
  8
INCISIONI
100
AcDbLine
 62
7
  6
CONTINUOUS
 10
-40.9428119101
 20
7.853838
 11
-40.4138618676
 21
8.3827880425
  0
LINE
  5
3DA
100
AcDbEntity
  8
INCISIONI
100
AcDbLine
 62
253
  6
CONTINUOUS
 10
-37.9266602038
 20
13.2547618508
 11
-38.1980474191
 21
13.0285713315
  0
LINE
  5
3DB
100
AcDbEntity
  8
INCISIONI
100
AcDbLine
 62
253
  6
CONTINUOUS
 10
-41.1046049338
 20
9.10422
 11
-39.3989806022
 21
10.357884
  0
LINE
  5
3DC
100
AcDbEntity
  8
INCISIONI
100
AcDbLine
 62
253
  6
CONTINUOUS
 10
-39.3989806022
 20
9.706581
 11
-40.7485984016
 21
8.741819
  0
LINE
  5
3DD
100
AcDbEntity
  8
INCISIONI
100
AcDbLine
 62
253
  6
CONTINUOUS
 10
-37.9266602038
 20
11.8071428895
 11
-37.6552729884
 21
11.9428571105
  0
LINE
  5
3DE
100
AcDbEntity
  8
INCISIONI
100
AcDbLine
 62
253
  6
CONTINUOUS
 10
-36.569724042
 20
11.1285714447
 11
-36.8411112857
 21
10.9928571105
  0
LINE
  5
3DF
100
AcDbEntity
  8
INCISIONI
100
AcDbLine
 62
253
  6
CONTINUOUS
 10
-39.4063383604
 20
-7.677235
 11
-39.9850360432
 21
-7.834033
  0
LINE
  5
3E0
100
AcDbEntity
  8
INCISIONI
100
AcDbLine
 62
253
  6
CONTINUOUS
 10
-40.4328296098
 20
-7.954996
 11
-41.5085998449
 21
-8.233126
  0
LINE
  5
3E1
100
AcDbEntity
  8
INCISIONI
100
AcDbLine
 62
253
  6
CONTINUOUS
 10
-42.3051081653
 20
-9.790227
 11
-39.4063383604
 21
-9.519077
  0
LINE
  5
3E2
100
AcDbEntity
  8
INCISIONI
100
AcDbLine
 62
253
  6
CONTINUOUS
 10
-39.4063383604
 20
-10.111193
 11
-41.2912900547
 21
-10.235548
  0
LINE
  5
3E3
100
AcDbEntity
  8
SUPERFICI
100
AcDbLine
 62
253
  6
CONTINUOUS
 10
-54.8168951132
 20
-9.4905
 11
-55.3080786502
 21
-9.5
  0
LINE
  5
3E4
100
AcDbEntity
  8
0
100
AcDbLine
 62
7
  6
CONTINUOUS
 10
-56.0183367983
 20
-10.05
 11
-55.2952299576
 21
-10.05
  0
LINE
  5
3E5
100
AcDbEntity
  8
0
100
AcDbLine
 62
253
  6
CONTINUOUS
 10
-36.2983367983
 20
-9.5357146263
 11
-37.7981083411
 21
-9.5357146263
  0
LINE
  5
3E6
100
AcDbEntity
  8
0
100
AcDbLine
 62
253
  6
CONTINUOUS
 10
-36.2983367983
 20
-8.8571429253
 11
-37.7981083411
 21
-8.8571429253
  0
LINE
  5
3E7
100
AcDbEntity
  8
0
100
AcDbLine
 62
253
  6
CONTINUOUS
 10
-36.2983367983
 20
-8.1071429253
 11
-37.7981083411
 21
-8.1071429253
  0
LINE
  5
3E8
100
AcDbEntity
  8
ASSI
100
AcDbLine
 62
7
  6
CONTINUOUS
 10
-21.4983367983
 20
-7.9
 11
-28.9983367983
 21
-7.9
  0
LINE
  5
3E9
100
AcDbEntity
  8
ASSI
100
AcDbLine
 62
7
  6
CONTINUOUS
 10
-21.4983367983
 20
-7.1
 11
-28.9983367983
 21
-7.1
  0
LINE
  5
3EA
100
AcDbEntity
  8
INCISIONI
100
AcDbLine
 62
253
  6
CONTINUOUS
 10
-42.2712408313
 20
-6.8615673444
 11
-39.4063380083
 21
-6.8615673444
  0
LINE
  5
3EB
100
AcDbEntity
  8
INCISIONI
100
AcDbLine
 62
253
  6
CONTINUOUS
 10
-41.5085998449
 20
-8.233126
 11
-40.4328296098
 21
-8.5345
  0
LINE
  5
3EC
100
AcDbEntity
  8
INCISIONI
100
AcDbLine
 62
253
  6
CONTINUOUS
 10
-39.9850360432
 20
-8.658312
 11
-39.4063383604
 21
-8.825329
  0
LINE
  5
3ED
100
AcDbEntity
  8
INCISIONI
100
AcDbLine
 62
253
  6
CONTINUOUS
 10
-39.4063383604
 20
-9.424033
 11
-42.3051081653
 21
-8.514517
  0
LINE
  5
3EE
100
AcDbEntity
  8
0
100
AcDbLine
 62
253
  6
CONTINUOUS
 10
-36.5125898854
 20
-12.6785715818
 11
-36.2983367983
 21
-12.8928571939
  0
LINE
  5
3EF
100
AcDbEntity
  8
DRAFT
100
AcDbLine
 62
7
  6
CONTINUOUS
 10
-44.8983367983
 20
18.8870650905
 11
-44.8983367983
 21
18.1473460386
  0
LINE
  5
3F0
100
AcDbEntity
  8
SUPERFICI
100
AcDbLine
 62
7
  6
CONTINUOUS
 10
-44.8983367983
 20
18.1473460386
 11
-44.8983367983
 21
-18.1473460386
  0
LINE
  5
3F1
100
AcDbEntity
  8
DRAFT
100
AcDbLine
 62
7
  6
CONTINUOUS
 10
-44.8983367983
 20
-18.1473460386
 11
-44.8983367983
 21
-18.8870650905
  0
LINE
  5
3F2
100
AcDbEntity
  8
RACCORDO
100
AcDbLine
 62
7
  6
CONTINUOUS
 10
-44.8983367983
 20
-20.85
 11
-44.8983367983
 21
-18.8870650905
  0
LINE
  5
3F3
100
AcDbEntity
  8
ASSI
100
AcDbLine
 62
7
  6
CONTINUOUS
 10
-44.8983367983
 20
-20.85
 11
-44.8983367983
 21
-18.8870650905
  0
LINE
  5
3F4
100
AcDbEntity
  8
RACCORDO
100
AcDbLine
 62
7
  6
CONTINUOUS
 10
-44.8983367983
 20
18.8870650905
 11
-44.8983367983
 21
20.85
  0
LINE
  5
3F5
100
AcDbEntity
  8
ASSI
100
AcDbLine
 62
7
  6
CONTINUOUS
 10
-44.8983367983
 20
18.8870650905
 11
-44.8983367983
 21
20.85
  0
LINE
  5
3F6
100
AcDbEntity
  8
INCISIONI
100
AcDbLine
 62
7
  6
CONTINUOUS
 10
-41.8663011961
 20
6.720338
 11
-41.3485321961
 21
7.238107
  0
LINE
  5
3F7
100
AcDbEntity
  8
INCISIONI
100
AcDbLine
 62
7
  6
CONTINUOUS
 10
-40.7328011961
 20
7.853838
 11
-40.2150623209
 21
8.3715768752
  0
LINE
  5
3F8
100
AcDbEntity
  8
INCISIONI
100
AcDbLine
 62
7
  6
CONTINUOUS
 10
-42.2971915773
 20
6.0794369047
 11
-42.2906154821
 21
6.086013
  0
LINE
  5
3F9
100
AcDbEntity
  8
INCISIONI
100
AcDbLine
 62
7
  6
CONTINUOUS
 10
-41.6562904821
 20
6.720338
 11
-41.1385214821
 21
7.238107
  0
LINE
  5
3FA
100
AcDbEntity
  8
INCISIONI
100
AcDbLine
 62
7
  6
CONTINUOUS
 10
-40.5227904821
 20
7.853838
 11
-40.005049516
 21
8.371578966
  0
LINE
  5
3FB
100
AcDbEntity
  8
INCISIONI
100
AcDbLine
 62
253
  6
CONTINUOUS
 10
-37.9266602038
 20
10.45
 11
-38.1980474191
 21
10.1785714447
  0
LINE
  5
3FC
100
AcDbEntity
  8
INCISIONI
100
AcDbLine
 62
7
  6
CONTINUOUS
 10
-42.2971915773
 20
5.8694261907
 11
-42.080604768
 21
6.086013
  0
LINE
  5
3FD
100
AcDbEntity
  8
INCISIONI
100
AcDbLine
 62
7
  6
CONTINUOUS
 10
-41.446279768
 20
6.720338
 11
-40.928510768
 21
7.238107
  0
LINE
  5
3FE
100
AcDbEntity
  8
INCISIONI
100
AcDbLine
 62
7
  6
CONTINUOUS
 10
-40.312779768
 20
7.853838
 11
-39.7950367111
 21
8.3715810569
  0
LINE
  5
3FF
100
AcDbEntity
  8
INCISIONI
100
AcDbLine
 62
7
  6
CONTINUOUS
 10
-42.2971915773
 20
5.6594154767
 11
-41.870594054
 21
6.086013
  0
LINE
  5
400
100
AcDbEntity
  8
INCISIONI
100
AcDbLine
 62
7
  6
CONTINUOUS
 10
-41.236269054
 20
6.720338
 11
-40.718500054
 21
7.238107
  0
LINE
  5
401
100
AcDbEntity
  8
INCISIONI
100
AcDbLine
 62
7
  6
CONTINUOUS
 10
-40.102769054
 20
7.853838
 11
-39.5850239063
 21
8.3715831478
  0
LINE
  5
402
100
AcDbEntity
  8
INCISIONI
100
AcDbLine
 62
7
  6
CONTINUOUS
 10
-42.2971915773
 20
5.4494047627
 11
-41.8372124156
 21
5.9093839244
  0
LINE
  5
403
100
AcDbEntity
  8
INCISIONI
100
AcDbLine
 62
7
  6
CONTINUOUS
 10
-41.02625834
 20
6.720338
 11
-40.50848934
 21
7.238107
  0
LINE
  5
404
100
AcDbEntity
  8
INCISIONI
100
AcDbLine
 62
7
  6
CONTINUOUS
 10
-39.89275834
 20
7.853838
 11
-39.3989806022
 21
8.3476157378
  0
LINE
  5
405
100
AcDbEntity
  8
INCISIONI
100
AcDbLine
 62
253
  6
CONTINUOUS
 10
-36.2983367983
 20
11.4
 11
-36.569724042
 21
11.1285714447
  0
LINE
  5
406
100
AcDbEntity
  8
INCISIONI
100
AcDbLine
 62
7
  6
CONTINUOUS
 10
-42.2971915773
 20
5.2393940487
 11
-41.8372132383
 21
5.6993723877
  0
LINE
  5
407
100
AcDbEntity
  8
INCISIONI
100
AcDbLine
 62
7
  6
CONTINUOUS
 10
-40.816247626
 20
6.720338
 11
-40.298478626
 21
7.238107
  0
LINE
  5
408
100
AcDbEntity
  8
INCISIONI
100
AcDbLine
 62
7
  6
CONTINUOUS
 10
-39.682747626
 20
7.853838
 11
-39.3989806022
 21
8.1376050238
  0
LINE
  5
409
100
AcDbEntity
  8
INCISIONI
100
AcDbLine
 62
7
  6
CONTINUOUS
 10
-42.2971915773
 20
5.0293833347
 11
-41.8372140609
 21
5.489360851
  0
LINE
  5
40A
100
AcDbEntity
  8
INCISIONI
100
AcDbLine
 62
7
  6
CONTINUOUS
 10
-40.606236912
 20
6.720338
 11
-40.088467912
 21
7.238107
  0
LINE
  5
40B
100
AcDbEntity
  8
INCISIONI
100
AcDbLine
 62
7
  6
CONTINUOUS
 10
-39.472736912
 20
7.853838
 11
-39.3989806022
 21
7.9275943098
  0
LINE
  5
40C
100
AcDbEntity
  8
INCISIONI
100
AcDbLine
 62
7
  6
CONTINUOUS
 10
-42.2971915773
 20
4.8193726207
 11
-41.8372148836
 21
5.2793493143
  0
LINE
  5
40D
100
AcDbEntity
  8
INCISIONI
100
AcDbLine
 62
7
  6
CONTINUOUS
 10
-40.396226198
 20
6.720338
 11
-39.878457198
 21
7.238107
  0
LINE
  5
40E
100
AcDbEntity
  8
INCISIONI
100
AcDbLine
 62
7
  6
CONTINUOUS
 10
-42.2971915773
 20
4.6093619067
 11
-41.8372157063
 21
5.0693377776
  0
LINE
  5
40F
100
AcDbEntity
  8
INCISIONI
100
AcDbLine
 62
7
  6
CONTINUOUS
 10
-41.1165586379
 20
5.7899948461
 11
-40.924426484
 21
5.982127
  0
LINE
  5
410
100
AcDbEntity
  8
INCISIONI
100
AcDbLine
 62
7
  6
CONTINUOUS
 10
-40.186215484
 20
6.720338
 11
-39.668446484
 21
7.238107
  0
LINE
  5
411
100
AcDbEntity
  8
INCISIONI
100
AcDbLine
 62
7
  6
CONTINUOUS
 10
-42.2971915773
 20
4.3993511926
 11
-41.837216529
 21
4.8593262409
  0
LINE
  5
412
100
AcDbEntity
  8
INCISIONI
100
AcDbLine
 62
7
  6
CONTINUOUS
 10
-41.1165601088
 20
5.5799826612
 11
-40.71441577
 21
5.982127
  0
LINE
  5
413
100
AcDbEntity
  8
INCISIONI
100
AcDbLine
 62
7
  6
CONTINUOUS
 10
-39.97620477
 20
6.720338
 11
-39.45843577
 21
7.238107
  0
LINE
  5
414
100
AcDbEntity
  8
INCISIONI
100
AcDbLine
 62
7
  6
CONTINUOUS
 10
-42.2971915773
 20
4.1893404786
 11
-41.8372173517
 21
4.6493147042
  0
LINE
  5
415
100
AcDbEntity
  8
INCISIONI
100
AcDbLine
 62
7
  6
CONTINUOUS
 10
-41.1165615798
 20
5.3699704762
 11
-40.6565663758
 21
5.8299656802
  0
LINE
  5
416
100
AcDbEntity
  8
INCISIONI
100
AcDbLine
 62
7
  6
CONTINUOUS
 10
-39.7661940559
 20
6.720338
 11
-39.3989806022
 21
7.0875514538
  0
LINE
  5
417
100
AcDbEntity
  8
INCISIONI
100
AcDbLine
 62
7
  6
CONTINUOUS
 10
-42.2394273419
 20
4.037094
 11
-41.7216893419
 21
4.554832
  0
LINE
  5
418
100
AcDbEntity
  8
INCISIONI
100
AcDbLine
 62
7
  6
CONTINUOUS
 10
-41.1165630507
 20
5.1599582912
 11
-40.6565649048
 21
5.6199564371
  0
LINE
  5
419
100
AcDbEntity
  8
INCISIONI
100
AcDbLine
 62
7
  6
CONTINUOUS
 10
-39.5561833419
 20
6.720338
 11
-39.3989806022
 21
6.8775407397
  0
LINE
  5
41A
100
AcDbEntity
  8
INCISIONI
100
AcDbLine
 62
7
  6
CONTINUOUS
 10
-42.0294166279
 20
4.037094
 11
-41.5116786279
 21
4.554832
  0
LINE
  5
41B
100
AcDbEntity
  8
INCISIONI
100
AcDbLine
 62
7
  6
CONTINUOUS
 10
-41.1165645217
 20
4.9499461063
 11
-40.6565634339
 21
5.409947194
  0
LINE
  5
41C
100
AcDbEntity
  8
INCISIONI
100
AcDbLine
 62
7
  6
CONTINUOUS
 10
-41.8194059139
 20
4.037094
 11
-41.3016679139
 21
4.554832
  0
LINE
  5
41D
100
AcDbEntity
  8
INCISIONI
100
AcDbLine
 62
7
  6
CONTINUOUS
 10
-41.1165659926
 20
4.7399339213
 11
-40.656561963
 21
5.1999379509
  0
LINE
  5
41E
100
AcDbEntity
  8
INCISIONI
100
AcDbLine
 62
7
  6
CONTINUOUS
 10
-39.8589594178
 20
5.9975404961
 11
-39.7588339139
 21
6.097666
  0
LINE
  5
41F
100
AcDbEntity
  8
INCISIONI
100
AcDbLine
 62
7
  6
CONTINUOUS
 10
-41.6093951999
 20
4.037094
 11
-40.656560492
 21
4.9899287079
  0
LINE
  5
420
100
AcDbEntity
  8
INCISIONI
100
AcDbLine
 62
7
  6
CONTINUOUS
 10
-39.8589572406
 20
5.7875319593
 11
-39.5488231999
 21
6.097666
  0
LINE
  5
421
100
AcDbEntity
  8
INCISIONI
100
AcDbLine
 62
7
  6
CONTINUOUS
 10
-41.3993844859
 20
4.037094
 11
-40.6565590211
 21
4.7799194648
  0
LINE
  5
422
100
AcDbEntity
  8
INCISIONI
100
AcDbLine
 62
7
  6
CONTINUOUS
 10
-39.8589550633
 20
5.5775234225
 11
-39.3989806022
 21
6.0374978837
  0
LINE
  5
423
100
AcDbEntity
  8
INCISIONI
100
AcDbLine
 62
7
  6
CONTINUOUS
 10
-41.1893737719
 20
4.037094
 11
-40.6565575502
 21
4.5699102217
  0
LINE
  5
424
100
AcDbEntity
  8
INCISIONI
100
AcDbLine
 62
7
  6
CONTINUOUS
 10
-39.8589528861
 20
5.3675148858
 11
-39.3989806022
 21
5.8274871697
  0
LINE
  5
425
100
AcDbEntity
  8
INCISIONI
100
AcDbLine
 62
7
  6
CONTINUOUS
 10
-40.9793630579
 20
4.037094
 11
-40.4616250579
 21
4.554832
  0
LINE
  5
426
100
AcDbEntity
  8
INCISIONI
100
AcDbLine
 62
7
  6
CONTINUOUS
 10
-39.8589507089
 20
5.157506349
 11
-39.3989806022
 21
5.6174764557
  0
LINE
  5
427
100
AcDbEntity
  8
INCISIONI
100
AcDbLine
 62
7
  6
CONTINUOUS
 10
-40.7693523438
 20
4.037094
 11
-40.2516143438
 21
4.554832
  0
LINE
  5
428
100
AcDbEntity
  8
INCISIONI
100
AcDbLine
 62
7
  6
CONTINUOUS
 10
-39.8589485316
 20
4.9474978122
 11
-39.3989806022
 21
5.4074657417
  0
LINE
  5
429
100
AcDbEntity
  8
INCISIONI
100
AcDbLine
 62
7
  6
CONTINUOUS
 10
-40.5593416298
 20
4.037094
 11
-40.0416036298
 21
4.554832
  0
LINE
  5
42A
100
AcDbEntity
  8
INCISIONI
100
AcDbLine
 62
7
  6
CONTINUOUS
 10
-39.8589463544
 20
4.7374892754
 11
-39.3989806022
 21
5.1974550277
  0
LINE
  5
42B
100
AcDbEntity
  8
INCISIONI
100
AcDbLine
 62
7
  6
CONTINUOUS
 10
-40.3493309158
 20
4.037094
 11
-39.3989806022
 21
4.9874443136
  0
LINE
  5
42C
100
AcDbEntity
  8
INCISIONI
100
AcDbLine
 62
7
  6
CONTINUOUS
 10
-40.1393202018
 20
4.037094
 11
-39.3989806022
 21
4.7774335996
  0
LINE
  5
42D
100
AcDbEntity
  8
INCISIONI
100
AcDbLine
 62
7
  6
CONTINUOUS
 10
-39.9293094878
 20
4.037094
 11
-39.3989806022
 21
4.5674228856
  0
LINE
  5
42E
100
AcDbEntity
  8
INCISIONI
100
AcDbLine
 62
7
  6
CONTINUOUS
 10
-39.7192987738
 20
4.037094
 11
-39.3989806022
 21
4.3574121716
  0
LINE
  5
42F
100
AcDbEntity
  8
INCISIONI
100
AcDbLine
 62
253
  6
CONTINUOUS
 10
-41.0155049818
 20
-6.2788012718
 11
-41.8112738847
 21
-6.2788012718
  0
LINE
  5
430
100
AcDbEntity
  8
INCISIONI
100
AcDbLine
 62
253
  6
CONTINUOUS
 10
-39.4063380083
 20
-6.2587313832
 11
-40.5407564887
 21
-6.2587313832
  0
LINE
  5
431
100
AcDbEntity
  8
0
100
AcDbLine
 62
253
  6
CONTINUOUS
 10
-36.2983367983
 20
-6.2142858505
 11
-37.7981083411
 21
-6.2142858505
  0
LINE
  5
432
100
AcDbEntity
  8
INCISIONI
100
AcDbLine
 62
253
  6
CONTINUOUS
 10
-40.759458164
 20
-5.30544429
 11
-40.7765873679
 21
-5.30544429
  0
LINE
  5
433
100
AcDbEntity
  8
0
100
AcDbLine
 62
253
  6
CONTINUOUS
 10
-36.2983367983
 20
-5.1071429253
 11
-37.7981083411
 21
-5.1071429253
  0
LINE
  5
434
100
AcDbEntity
  8
0
100
AcDbLine
 62
7
  6
CONTINUOUS
 10
-56.0183367983
 20
-4.15
 11
-55.3811072222
 21
-4.15
  0
LINE
  5
435
100
AcDbEntity
  8
0
100
AcDbLine
 62
253
  6
CONTINUOUS
 10
-36.2983367983
 20
-4.2499997616
 11
-37.7981083411
 21
-3.8214292526
  0
LINE
  5
436
100
AcDbEntity
  8
INCISIONI
100
AcDbLine
 62
253
  6
CONTINUOUS
 10
-42.3052821123
 20
-12.785664
 11
-42.3052821123
 21
-13.390935
  0
LINE
  5
437
100
AcDbEntity
  8
INCISIONI
100
AcDbLine
 62
253
  6
CONTINUOUS
 10
-42.3051081653
 20
-16.00026
 11
-42.3051081653
 21
-15.342748
  0
LINE
  5
438
100
AcDbEntity
  8
INCISIONI
100
AcDbLine
 62
253
  6
CONTINUOUS
 10
-42.3051081653
 20
-14.22041
 11
-42.3051081653
 21
-13.615552
  0
LINE
  5
439
100
AcDbEntity
  8
INCISIONI
100
AcDbLine
 62
253
  6
CONTINUOUS
 10
-42.3051081653
 20
-12.198005
 11
-42.3051081653
 21
-11.593234
  0
LINE
  5
43A
100
AcDbEntity
  8
INCISIONI
100
AcDbLine
 62
253
  6
CONTINUOUS
 10
-42.3051081653
 20
-10.389084
 11
-42.3051081653
 21
-9.790227
  0
LINE
  5
43B
100
AcDbEntity
  8
INCISIONI
100
AcDbLine
 62
253
  6
CONTINUOUS
 10
-42.3051081653
 20
-8.514517
 11
-42.3051081653
 21
-7.92899
  0
LINE
  5
43C
100
AcDbEntity
  8
INCISIONI
100
AcDbLine
 62
253
  6
CONTINUOUS
 10
-42.2971915773
 20
4.037094
 11
-42.2971915773
 21
6.086013
  0
LINE
  5
43D
100
AcDbEntity
  8
INCISIONI
100
AcDbLine
 62
253
  6
CONTINUOUS
 10
-42.2971915773
 20
6.720338
 11
-42.2971915773
 21
7.238107
  0
LINE
  5
43E
100
AcDbEntity
  8
INCISIONI
100
AcDbLine
 62
253
  6
CONTINUOUS
 10
-42.2971915773
 20
7.853838
 11
-42.2971915773
 21
8.371585
  0
LINE
  5
43F
100
AcDbEntity
  8
INCISIONI
100
AcDbLine
 62
253
  6
CONTINUOUS
 10
-42.2971915773
 20
9.656836
 11
-42.2971915773
 21
10.35105
  0
LINE
  5
440
100
AcDbEntity
  8
INCISIONI
100
AcDbLine
 62
253
  6
CONTINUOUS
 10
-42.2971915773
 20
13.66021
 11
-42.2971915773
 21
14.166101
  0
LINE
  5
441
100
AcDbEntity
  8
INCISIONI
100
AcDbLine
 62
253
  6
CONTINUOUS
 10
-42.2971915773
 20
15.503009
 11
-42.2971915773
 21
16.001437
  0
LINE
  5
442
100
AcDbEntity
  8
INCISIONI
100
AcDbLine
 62
253
  6
CONTINUOUS
 10
-41.8372117237
 20
6.086013
 11
-41.8372177218
 21
4.554832
  0
LINE
  5
443
100
AcDbEntity
  8
INCISIONI
100
AcDbLine
 62
253
  6
CONTINUOUS
 10
-41.1165672891
 20
4.554832
 11
-41.1165572921
 21
5.982127
  0
LINE
  5
444
100
AcDbEntity
  8
INCISIONI
100
AcDbLine
 62
253
  6
CONTINUOUS
 10
-41.0155049818
 20
-5.9328946758
 11
-41.0155049818
 21
-6.2788012718
  0
LINE
  5
445
100
AcDbEntity
  8
INCISIONI
100
AcDbLine
 62
253
  6
CONTINUOUS
 10
-40.6565674415
 20
5.982127
 11
-40.6565574446
 21
4.554832
  0
LINE
  5
446
100
AcDbEntity
  8
INCISIONI
100
AcDbLine
 62
253
  6
CONTINUOUS
 10
-40.5407564887
 20
-6.2587313832
 11
-40.5407564887
 21
-5.9341993273
  0
LINE
  5
447
100
AcDbEntity
  8
INCISIONI
100
AcDbLine
 62
253
  6
CONTINUOUS
 10
-40.4328296098
 20
-8.5345
 11
-40.4328296098
 21
-7.954996
  0
LINE
  5
448
100
AcDbEntity
  8
INCISIONI
100
AcDbLine
 62
253
  6
CONTINUOUS
 10
-39.9850360432
 20
-7.834033
 11
-39.9850360432
 21
-8.658312
  0
LINE
  5
449
100
AcDbEntity
  8
INCISIONI
100
AcDbLine
 62
253
  6
CONTINUOUS
 10
-39.8589444607
 20
4.554832
 11
-39.8589604558
 21
6.097666
  0
LINE
  5
44A
100
AcDbEntity
  8
INCISIONI
100
AcDbLine
 62
253
  6
CONTINUOUS
 10
-39.4063383604
 20
-7.039304
 11
-39.4063383604
 21
-7.677235
  0
LINE
  5
44B
100
AcDbEntity
  8
INCISIONI
100
AcDbLine
 62
253
  6
CONTINUOUS
 10
-39.4063383604
 20
-8.825329
 11
-39.4063383604
 21
-9.424033
  0
LINE
  5
44C
100
AcDbEntity
  8
INCISIONI
100
AcDbLine
 62
253
  6
CONTINUOUS
 10
-39.4063383604
 20
-9.519077
 11
-39.4063383604
 21
-10.111193
  0
LINE
  5
44D
100
AcDbEntity
  8
INCISIONI
100
AcDbLine
 62
253
  6
CONTINUOUS
 10
-39.4063383604
 20
-10.955216
 11
-39.4063383604
 21
-11.040105
  0
LINE
  5
44E
100
AcDbEntity
  8
INCISIONI
100
AcDbLine
 62
253
  6
CONTINUOUS
 10
-39.4063383604
 20
-11.880779
 11
-39.4063383604
 21
-12.459827
  0
LINE
  5
44F
100
AcDbEntity
  8
INCISIONI
100
AcDbLine
 62
253
  6
CONTINUOUS
 10
-39.4063383604
 20
-14.547617
 11
-39.4063383604
 21
-15.081013
  0
LINE
  5
450
100
AcDbEntity
  8
INCISIONI
100
AcDbLine
 62
253
  6
CONTINUOUS
 10
-39.4063383604
 20
-13.390935
 11
-39.4063383604
 21
-12.785664
  0
LINE
  5
451
100
AcDbEntity
  8
INCISIONI
100
AcDbLine
 62
253
  6
CONTINUOUS
 10
-39.4063380083
 20
-6.8615673444
 11
-39.4063380083
 21
-6.2587313832
  0
LINE
  5
452
100
AcDbEntity
  8
INCISIONI
100
AcDbLine
 62
253
  6
CONTINUOUS
 10
-39.4063380083
 20
-5.3318417383
 11
-39.4063380083
 21
-4.7496410148
  0
LINE
  5
453
100
AcDbEntity
  8
INCISIONI
100
AcDbLine
 62
253
  6
CONTINUOUS
 10
-39.3989806022
 20
16.001437
 11
-39.3989806022
 21
15.484078
  0
LINE
  5
454
100
AcDbEntity
  8
INCISIONI
100
AcDbLine
 62
253
  6
CONTINUOUS
 10
-39.3989806022
 20
14.158632
 11
-39.3989806022
 21
13.66021
  0
LINE
  5
455
100
AcDbEntity
  8
INCISIONI
100
AcDbLine
 62
253
  6
CONTINUOUS
 10
-39.3989806022
 20
10.357884
 11
-39.3989806022
 21
9.706581
  0
LINE
  5
456
100
AcDbEntity
  8
INCISIONI
100
AcDbLine
 62
253
  6
CONTINUOUS
 10
-39.3989806022
 20
8.371585
 11
-39.3989806022
 21
7.853838
  0
LINE
  5
457
100
AcDbEntity
  8
INCISIONI
100
AcDbLine
 62
253
  6
CONTINUOUS
 10
-39.3989806022
 20
7.238107
 11
-39.3989806022
 21
6.720338
  0
LINE
  5
458
100
AcDbEntity
  8
INCISIONI
100
AcDbLine
 62
253
  6
CONTINUOUS
 10
-39.3989806022
 20
6.097666
 11
-39.3989806022
 21
4.037094
  0
LINE
  5
459
100
AcDbEntity
  8
SUPERFICI
100
AcDbLine
 62
7
  6
CONTINUOUS
 10
-39.3983367983
 20
-23.4413184673
 11
-39.3983367983
 21
-22.8586815327
  0
LINE
  5
45A
100
AcDbEntity
  8
SUPERFICI
100
AcDbLine
 62
7
  6
CONTINUOUS
 10
-39.3983367983
 20
22.8586815327
 11
-39.3983367983
 21
23.4413184673
  0
LINE
  5
45B
100
AcDbEntity
  8
SUPERFICI
100
AcDbLine
 62
253
  6
CONTINUOUS
 10
-39.3487438275
 20
23.9538922731
 11
-39.3487438275
 21
22.356077753
  0
LINE
  5
45C
100
AcDbEntity
  8
SUPERFICI
100
AcDbLine
 62
253
  6
CONTINUOUS
 10
-39.3487438275
 20
-22.356077753
 11
-39.3487438275
 21
-23.9538922731
  0
LINE
  5
45D
100
AcDbEntity
  8
SUPERFICI
100
AcDbLine
 62
7
  6
CONTINUOUS
 10
-38.8983367983
 20
23.4563578147
 11
-38.8983367983
 21
22.3534615319
  0
LINE
  5
45E
100
AcDbEntity
  8
SUPERFICI
100
AcDbLine
 62
7
  6
CONTINUOUS
 10
-38.8983367983
 20
-22.3534615319
 11
-38.8983367983
 21
-23.4563578147
  0
LINE
  5
45F
100
AcDbEntity
  8
INCISIONI
100
AcDbLine
 62
7
  6
CONTINUOUS
 10
-39.5092880598
 20
4.037094
 11
-39.3989806022
 21
4.1474014576
  0
LINE
  5
460
100
AcDbEntity
  8
0
100
AcDbLine
 62
253
  6
CONTINUOUS
 10
-37.7981083411
 20
-2.9642853737
 11
-36.2983367983
 21
-2.9642853737
  0
LINE
  5
461
100
AcDbEntity
  8
ASSI
100
AcDbLine
 62
7
  6
CONTINUOUS
 10
-21.4983367983
 20
-2.9
 11
-28.9983367983
 21
-2.9
  0
LINE
  5
462
100
AcDbEntity
  8
ASSI
100
AcDbLine
 62
7
  6
CONTINUOUS
 10
-21.4983367983
 20
-2.1
 11
-28.9983367983
 21
-2.1
  0
LINE
  5
463
100
AcDbEntity
  8
0
100
AcDbLine
 62
253
  6
CONTINUOUS
 10
-37.1553491468
 20
-1.5714292526
 11
-36.2983367983
 21
-1.5714292526
  0
LINE
  5
464
100
AcDbEntity
  8
0
100
AcDbLine
 62
253
  6
CONTINUOUS
 10
-57.0183367983
 20
-0.0000283268
 11
-56.0183367983
 21
-0.0000373193
  0
LINE
  5
465
100
AcDbEntity
  8
RACCORDO
100
AcDbLine
 62
253
  6
CONTINUOUS
 10
-56.0183367983
 20
-0.0000373192
 11
-55.3983337246
 21
-0.0000373192
  0
LINE
  5
466
100
AcDbEntity
  8
0
100
AcDbLine
 62
253
  6
CONTINUOUS
 10
-37.1553491468
 20
-1.5714292526
 11
-37.7981083411
 21
-1.1428565979
  0
LINE
  5
467
100
AcDbEntity
  8
INCISIONI
100
AcDbLine
 62
253
  6
CONTINUOUS
 10
-38.1980474191
 20
14.385714221
 11
-38.1980474191
 21
13.842857337
  0
LINE
  5
468
100
AcDbEntity
  8
INCISIONI
100
AcDbLine
 62
253
  6
CONTINUOUS
 10
-38.1980474191
 20
13.0285713315
 11
-38.1980474191
 21
12.485714221
  0
LINE
  5
469
100
AcDbEntity
  8
INCISIONI
100
AcDbLine
 62
253
  6
CONTINUOUS
 10
-38.1980474191
 20
10.1785714447
 11
-38.1980474191
 21
9.7714285836
  0
LINE
  5
46A
100
AcDbEntity
  8
INCISIONI
100
AcDbLine
 62
253
  6
CONTINUOUS
 10
-38.1980474191
 20
11.4
 11
-38.1980474191
 21
11.535714221
  0
LINE
  5
46B
100
AcDbEntity
  8
INCISIONI
100
AcDbLine
 62
253
  6
CONTINUOUS
 10
-38.1980474191
 20
15.2
 11
-38.1980474191
 21
16.014285779
  0
LINE
  5
46C
100
AcDbEntity
  8
0
100
AcDbLine
 62
253
  6
CONTINUOUS
 10
-37.7981083411
 20
-13.428571403
 11
-37.7981083411
 21
-12.8928571939
  0
LINE
  5
46D
100
AcDbEntity
  8
0
100
AcDbLine
 62
253
  6
CONTINUOUS
 10
-37.7981083411
 20
-12.0714285374
 11
-37.7981083411
 21
-11.4285713434
  0
LINE
  5
46E
100
AcDbEntity
  8
0
100
AcDbLine
 62
253
  6
CONTINUOUS
 10
-37.7981083411
 20
-5.5357141495
 11
-37.7981083411
 21
-4.678571701
  0
LINE
  5
46F
100
AcDbEntity
  8
INCISIONI
100
AcDbLine
 62
253
  6
CONTINUOUS
 10
-37.383885773
 20
15.742857337
 11
-37.383885773
 21
15.2
  0
LINE
  5
470
100
AcDbEntity
  8
INCISIONI
100
AcDbLine
 62
253
  6
CONTINUOUS
 10
-37.383885773
 20
14.385714221
 11
-37.383885773
 21
14.114285779
  0
LINE
  5
471
100
AcDbEntity
  8
INCISIONI
100
AcDbLine
 62
253
  6
CONTINUOUS
 10
-37.383885773
 20
13.0285713315
 11
-37.383885773
 21
12.7571428895
  0
LINE
  5
472
100
AcDbEntity
  8
0
100
AcDbLine
 62
253
  6
CONTINUOUS
 10
-37.1553491468
 20
-11.6428573132
 11
-37.1553491468
 21
-12.0714285374
  0
LINE
  5
473
100
AcDbEntity
  8
0
100
AcDbLine
 62
253
  6
CONTINUOUS
 10
-36.7268429726
 20
-14.5714285672
 11
-36.7268429726
 21
-13.9999999404
  0
LINE
  5
474
100
AcDbEntity
  8
0
100
AcDbLine
 62
253
  6
CONTINUOUS
 10
-36.7268429726
 20
-4.1071431637
 11
-36.7268429726
 21
-3.5357146263
  0
LINE
  5
475
100
AcDbEntity
  8
INCISIONI
100
AcDbLine
 62
253
  6
CONTINUOUS
 10
-36.2983367983
 20
11.535714221
 11
-36.2983367983
 21
11.4
  0
LINE
  5
476
100
AcDbEntity
  8
INCISIONI
100
AcDbLine
 62
253
  6
CONTINUOUS
 10
-36.2983367983
 20
10.45
 11
-36.2983367983
 21
9.5
  0
LINE
  5
477
100
AcDbEntity
  8
0
100
AcDbLine
 62
253
  6
CONTINUOUS
 10
-36.2983367983
 20
-12.8928571939
 11
-36.2983367983
 21
-13.428571403
  0
LINE
  5
478
100
AcDbEntity
  8
0
100
AcDbLine
 62
253
  6
CONTINUOUS
 10
-36.2983367983
 20
-12.0714285374
 11
-36.2983367983
 21
-11.4285713434
  0
LINE
  5
479
100
AcDbEntity
  8
0
100
AcDbLine
 62
253
  6
CONTINUOUS
 10
-36.2983367983
 20
-2.9642853737
 11
-36.2983367983
 21
-2.428571701
  0
LINE
  5
47A
100
AcDbEntity
  8
INCISIONI
100
AcDbLine
 62
253
  6
CONTINUOUS
 10
-36.2983367983
 20
12.485714221
 11
-36.2983367983
 21
13.164285779
  0
LINE
  5
47B
100
AcDbEntity
  8
INCISIONI
100
AcDbLine
 62
253
  6
CONTINUOUS
 10
-36.2983367983
 20
13.842857337
 11
-36.2983367983
 21
14.521428442
  0
LINE
  5
47C
100
AcDbEntity
  8
INCISIONI
100
AcDbLine
 62
253
  6
CONTINUOUS
 10
-36.2983367983
 20
15.2
 11
-36.2983367983
 21
15.742857337
  0
LINE
  5
47D
100
AcDbEntity
  8
SUPERFICI
100
AcDbLine
 62
253
  6
CONTINUOUS
 10
-35.3896105951
 20
-21.4537354271
 11
-35.3896105951
 21
-20.9917082642
  0
LINE
  5
47E
100
AcDbEntity
  8
SUPERFICI
100
AcDbLine
 62
253
  6
CONTINUOUS
 10
-35.3896105951
 20
20.9917082642
 11
-35.3896105951
 21
21.4537354271
  0
LINE
  5
47F
100
AcDbEntity
  8
0
100
AcDbLine
 62
253
  6
CONTINUOUS
 10
-37.7981083411
 20
-2.0000004768
 11
-37.1553491468
 21
-1.5714292526
  0
LINE
  5
480
100
AcDbEntity
  8
ASSI
100
AcDbLine
 62
7
  6
CONTINUOUS
 10
-21.4983367983
 20
2.1
 11
-28.9983367983
 21
2.1
  0
LINE
  5
481
100
AcDbEntity
  8
ASSI
100
AcDbLine
 62
7
  6
CONTINUOUS
 10
-21.4983367983
 20
2.9
 11
-28.9983367983
 21
2.9
  0
LINE
  5
482
100
AcDbEntity
  8
DRAFT
100
AcDbLine
 62
7
  6
CONTINUOUS
 10
-34.8983367983
 20
20.9959955457
 11
-34.8983367983
 21
20.85
  0
LINE
  5
483
100
AcDbEntity
  8
SUPERFICI
100
AcDbLine
 62
7
  6
CONTINUOUS
 10
-34.8983367983
 20
-21.3359869487
 11
-34.8983367983
 21
-20.9959955457
  0
LINE
  5
484
100
AcDbEntity
  8
DRAFT
100
AcDbLine
 62
7
  6
CONTINUOUS
 10
-34.8983367983
 20
-20.85
 11
-34.8983367983
 21
-20.9959955457
  0
LINE
  5
485
100
AcDbEntity
  8
RACCORDO
100
AcDbLine
 62
7
  6
CONTINUOUS
 10
-34.8983367983
 20
-20.85
 11
-34.8983367983
 21
-19.3181305591
  0
LINE
  5
486
100
AcDbEntity
  8
ASSI
100
AcDbLine
 62
7
  6
CONTINUOUS
 10
-34.8983367983
 20
-20.85
 11
-34.8983367983
 21
-19.3181305591
  0
LINE
  5
487
100
AcDbEntity
  8
RACCORDO
100
AcDbLine
 62
7
  6
CONTINUOUS
 10
-34.8983367983
 20
19.3181305591
 11
-34.8983367983
 21
20.85
  0
LINE
  5
488
100
AcDbEntity
  8
ASSI
100
AcDbLine
 62
7
  6
CONTINUOUS
 10
-34.8983367983
 20
19.3181305591
 11
-34.8983367983
 21
20.85
  0
LINE
  5
489
100
AcDbEntity
  8
SUPERFICI
100
AcDbLine
 62
7
  6
CONTINUOUS
 10
-34.8983367983
 20
20.9959955457
 11
-34.8983367983
 21
21.3359869487
  0
LINE
  5
48A
100
AcDbEntity
  8
INCISIONI
100
AcDbLine
 62
253
  6
CONTINUOUS
 10
-42.3051081653
 20
-7.92899
 11
-39.4063383604
 21
-7.039304
  0
LINE
  5
48B
100
AcDbEntity
  8
0
100
AcDbLine
 62
253
  6
CONTINUOUS
 10
-37.7981083411
 20
-3.8214292526
 11
-36.2983367983
 21
-3.3928565979
  0
LINE
  5
48C
100
AcDbEntity
  8
INCISIONI
100
AcDbLine
 62
253
  6
CONTINUOUS
 10
-39.3989806022
 20
4.037094
 11
-42.2971915773
 21
4.037094
  0
LINE
  5
48D
100
AcDbEntity
  8
0
100
AcDbLine
 62
7
  6
CONTINUOUS
 10
-56.0183367983
 20
4.15
 11
-55.3811065876
 21
4.15
  0
LINE
  5
48E
100
AcDbEntity
  8
INCISIONI
100
AcDbLine
 62
253
  6
CONTINUOUS
 10
-41.8372177218
 20
4.554832
 11
-41.1165672891
 21
4.554832
  0
LINE
  5
48F
100
AcDbEntity
  8
INCISIONI
100
AcDbLine
 62
253
  6
CONTINUOUS
 10
-40.6565574446
 20
4.554832
 11
-39.8589444607
 21
4.554832
  0
LINE
  5
490
100
AcDbEntity
  8
INCISIONI
100
AcDbLine
 62
253
  6
CONTINUOUS
 10
-41.1165572921
 20
5.982127
 11
-40.6565674415
 21
5.982127
  0
LINE
  5
491
100
AcDbEntity
  8
INCISIONI
100
AcDbLine
 62
253
  6
CONTINUOUS
 10
-42.2971915773
 20
6.086013
 11
-41.8372117237
 21
6.086013
  0
LINE
  5
492
100
AcDbEntity
  8
INCISIONI
100
AcDbLine
 62
253
  6
CONTINUOUS
 10
-39.8589604558
 20
6.097666
 11
-39.3989806022
 21
6.097666
  0
LINE
  5
493
100
AcDbEntity
  8
INCISIONI
100
AcDbLine
 62
253
  6
CONTINUOUS
 10
-39.3989806022
 20
6.720338
 11
-42.2971915773
 21
6.720338
  0
LINE
  5
494
100
AcDbEntity
  8
ASSI
100
AcDbLine
 62
7
  6
CONTINUOUS
 10
-21.4983367983
 20
7.1
 11
-28.9983367983
 21
7.1
  0
LINE
  5
495
100
AcDbEntity
  8
INCISIONI
100
AcDbLine
 62
253
  6
CONTINUOUS
 10
-42.2971915773
 20
7.238107
 11
-39.3989806022
 21
7.238107
  0
LINE
  5
496
100
AcDbEntity
  8
INCISIONI
100
AcDbLine
 62
253
  6
CONTINUOUS
 10
-41.0335665777
 20
8.371575
 11
-42.2971915773
 21
9.656836
  0
LINE
  5
497
100
AcDbEntity
  8
INCISIONI
100
AcDbLine
 62
253
  6
CONTINUOUS
 10
-42.2971915773
 20
10.35105
 11
-41.1046049338
 21
9.10422
  0
LINE
  5
498
100
AcDbEntity
  8
INCISIONI
100
AcDbLine
 62
253
  6
CONTINUOUS
 10
-40.7485984016
 20
8.741819
 11
-40.4034075741
 21
8.371575
  0
LINE
  5
499
100
AcDbEntity
  8
0
100
AcDbLine
 62
7
  6
CONTINUOUS
 10
-29.2483367983
 20
-16.9292871832
 11
-29.2483367983
 21
-13.0465815459
  0
LINE
  5
49A
100
AcDbEntity
  8
0
100
AcDbLine
 62
7
  6
CONTINUOUS
 10
-29.2483367983
 20
-11.9292871832
 11
-29.2483367983
 21
-8.0465815459
  0
LINE
  5
49B
100
AcDbEntity
  8
0
100
AcDbLine
 62
7
  6
CONTINUOUS
 10
-29.2483367983
 20
-6.9292871832
 11
-29.2483367983
 21
-3.0465815459
  0
LINE
  5
49C
100
AcDbEntity
  8
0
100
AcDbLine
 62
7
  6
CONTINUOUS
 10
-29.2483367983
 20
-1.9292871832
 11
-29.2483367983
 21
1.9534184541
  0
LINE
  5
49D
100
AcDbEntity
  8
0
100
AcDbLine
 62
7
  6
CONTINUOUS
 10
-29.2483367983
 20
3.0707128168
 11
-29.2483367983
 21
6.9534184541
  0
LINE
  5
49E
100
AcDbEntity
  8
0
100
AcDbLine
 62
7
  6
CONTINUOUS
 10
-29.2483367983
 20
8.0707128168
 11
-29.2483367983
 21
11.9534184541
  0
LINE
  5
49F
100
AcDbEntity
  8
0
100
AcDbLine
 62
7
  6
CONTINUOUS
 10
-28.3483367983
 20
11.960717527
 11
-28.3483367983
 21
8.063282473
  0
LINE
  5
4A0
100
AcDbEntity
  8
0
100
AcDbLine
 62
7
  6
CONTINUOUS
 10
-28.3483367983
 20
6.960717527
 11
-28.3483367983
 21
3.063282473
  0
LINE
  5
4A1
100
AcDbEntity
  8
0
100
AcDbLine
 62
7
  6
CONTINUOUS
 10
-28.3483367983
 20
1.960717527
 11
-28.3483367983
 21
-1.936717527
  0
LINE
  5
4A2
100
AcDbEntity
  8
0
100
AcDbLine
 62
7
  6
CONTINUOUS
 10
-28.3483367983
 20
-3.039282473
 11
-28.3483367983
 21
-6.936717527
  0
LINE
  5
4A3
100
AcDbEntity
  8
0
100
AcDbLine
 62
7
  6
CONTINUOUS
 10
-28.3483367983
 20
-8.039282473
 11
-28.3483367983
 21
-11.936717527
  0
LINE
  5
4A4
100
AcDbEntity
  8
0
100
AcDbLine
 62
7
  6
CONTINUOUS
 10
-28.3483367983
 20
-13.039282473
 11
-28.3483367983
 21
-16.936717527
  0
LINE
  5
4A5
100
AcDbEntity
  8
0
100
AcDbLine
 62
253
  6
CONTINUOUS
 10
-37.7981083411
 20
-12.8928571939
 11
-37.5838552763
 21
-12.6785715818
  0
LINE
  5
4A6
100
AcDbEntity
  8
0
100
AcDbLine
 62
253
  6
CONTINUOUS
 10
-37.7981083411
 20
-8.8571429253
 11
-36.2983367983
 21
-8.1071429253
  0
LINE
  5
4A7
100
AcDbEntity
  8
INCISIONI
100
AcDbLine
 62
253
  6
CONTINUOUS
 10
-39.4063383604
 20
-11.040105
 11
-41.2991806506
 21
-11.750162
  0
LINE
  5
4A8
100
AcDbEntity
  8
INCISIONI
100
AcDbLine
 62
253
  6
CONTINUOUS
 10
-42.3051081653
 20
-11.593234
 11
-40.6957025179
 21
-10.994355
  0
LINE
  5
4A9
100
AcDbEntity
  8
INCISIONI
100
AcDbLine
 62
253
  6
CONTINUOUS
 10
-39.3989806022
 20
7.853838
 11
-42.2971915773
 21
7.853838
  0
LINE
  5
4AA
100
AcDbEntity
  8
ASSI
100
AcDbLine
 62
7
  6
CONTINUOUS
 10
-21.4983367983
 20
7.9
 11
-28.9983367983
 21
7.9
  0
LINE
  5
4AB
100
AcDbEntity
  8
INCISIONI
100
AcDbLine
 62
253
  6
CONTINUOUS
 10
-42.2971915773
 20
8.371585
 11
-41.0335665777
 21
8.371575
  0
LINE
  5
4AC
100
AcDbEntity
  8
INCISIONI
100
AcDbLine
 62
253
  6
CONTINUOUS
 10
-40.4034075741
 20
8.371575
 11
-39.3989806022
 21
8.371585
  0
LINE
  5
4AD
100
AcDbEntity
  8
0
100
AcDbLine
 62
7
  6
CONTINUOUS
 10
-56.0183367983
 20
10.05
 11
-55.2952299576
 21
10.05
  0
LINE
  5
4AE
100
AcDbEntity
  8
INCISIONI
100
AcDbLine
 62
253
  6
CONTINUOUS
 10
-37.6552729884
 20
10.45
 11
-37.9266602038
 21
10.45
  0
LINE
  5
4AF
100
AcDbEntity
  8
INCISIONI
100
AcDbLine
 62
253
  6
CONTINUOUS
 10
-36.8411112857
 20
10.9928571105
 11
-37.6552729884
 21
10.9928571105
  0
LINE
  5
4B0
100
AcDbEntity
  8
SUPERFICI
100
AcDbLine
 62
253
  6
CONTINUOUS
 10
-54.8168951132
 20
9.4905
 11
-55.3080786517
 21
9.5
  0
LINE
  5
4B1
100
AcDbEntity
  8
INCISIONI
100
AcDbLine
 62
253
  6
CONTINUOUS
 10
-37.6552729884
 20
10.9928571105
 11
-37.9266602038
 21
11.1285714447
  0
LINE
  5
4B2
100
AcDbEntity
  8
INCISIONI
100
AcDbLine
 62
253
  6
CONTINUOUS
 10
-38.1980474191
 20
9.7714285836
 11
-37.7909665395
 21
9.5
  0
LINE
  5
4B3
100
AcDbEntity
  8
INCISIONI
100
AcDbLine
 62
253
  6
CONTINUOUS
 10
-36.2983367983
 20
9.5
 11
-37.6552729884
 21
10.45
  0
LINE
  5
4B4
100
AcDbEntity
  8
INCISIONI
100
AcDbLine
 62
253
  6
CONTINUOUS
 10
-37.9266602038
 20
11.1285714447
 11
-38.1980474191
 21
11.4
  0
LINE
  5
4B5
100
AcDbEntity
  8
INCISIONI
100
AcDbLine
 62
253
  6
CONTINUOUS
 10
-36.569724042
 20
11.8071428895
 11
-36.2983367983
 21
11.535714221
  0
LINE
  5
4B6
100
AcDbEntity
  8
INCISIONI
100
AcDbLine
 62
253
  6
CONTINUOUS
 10
-37.383885773
 20
13.0285713315
 11
-37.5195793241
 21
13.2547618508
  0
LINE
  5
4B7
100
AcDbEntity
  8
INCISIONI
100
AcDbLine
 62
253
  6
CONTINUOUS
 10
-37.383885773
 20
14.385714221
 11
-37.5195793241
 21
14.6119047403
  0
LINE
  5
4B8
100
AcDbEntity
  8
0
100
AcDbLine
 62
7
  6
CONTINUOUS
 10
-25.9983367983
 20
12.1
 11
-25.9983367983
 21
7.9
  0
LINE
  5
4B9
100
AcDbEntity
  8
0
100
AcDbLine
 62
7
  6
CONTINUOUS
 10
-25.9983367983
 20
7.1
 11
-25.9983367983
 21
2.9
  0
LINE
  5
4BA
100
AcDbEntity
  8
0
100
AcDbLine
 62
7
  6
CONTINUOUS
 10
-25.9983367983
 20
2.1
 11
-25.9983367983
 21
-2.1
  0
LINE
  5
4BB
100
AcDbEntity
  8
0
100
AcDbLine
 62
7
  6
CONTINUOUS
 10
-25.9983367983
 20
-2.9
 11
-25.9983367983
 21
-7.1
  0
LINE
  5
4BC
100
AcDbEntity
  8
0
100
AcDbLine
 62
7
  6
CONTINUOUS
 10
-25.9983367983
 20
-7.9
 11
-25.9983367983
 21
-12.1
  0
LINE
  5
4BD
100
AcDbEntity
  8
0
100
AcDbLine
 62
7
  6
CONTINUOUS
 10
-25.9983367983
 20
-12.9
 11
-25.9983367983
 21
-17.1
  0
LINE
  5
4BE
100
AcDbEntity
  8
INCISIONI
100
AcDbLine
 62
253
  6
CONTINUOUS
 10
-39.4063383604
 20
-15.081013
 11
-42.3051081653
 21
-16.00026
  0
LINE
  5
4BF
100
AcDbEntity
  8
0
100
AcDbLine
 62
253
  6
CONTINUOUS
 10
-37.7981083411
 20
-14.2857142091
 11
-36.2983367983
 21
-13.8571428061
  0
LINE
  5
4C0
100
AcDbEntity
  8
INCISIONI
100
AcDbLine
 62
253
  6
CONTINUOUS
 10
-37.6552729884
 20
11.9428571105
 11
-36.8411112857
 21
11.9428571105
  0
LINE
  5
4C1
100
AcDbEntity
  8
ASSI
100
AcDbLine
 62
7
  6
CONTINUOUS
 10
-21.4983367983
 20
12.1
 11
-28.9983367983
 21
12.1
  0
LINE
  5
4C2
100
AcDbEntity
  8
INCISIONI
100
AcDbLine
 62
253
  6
CONTINUOUS
 10
-37.5195793241
 20
13.2547618508
 11
-37.9266602038
 21
13.2547618508
  0
LINE
  5
4C3
100
AcDbEntity
  8
INCISIONI
100
AcDbLine
 62
253
  6
CONTINUOUS
 10
-36.4340304202
 20
13.3
 11
-37.1124985011
 21
13.3
  0
LINE
  5
4C4
100
AcDbEntity
  8
INCISIONI
100
AcDbLine
 62
253
  6
CONTINUOUS
 10
-39.3989806022
 20
13.66021
 11
-42.2971915773
 21
13.66021
  0
LINE
  5
4C5
100
AcDbEntity
  8
INCISIONI
100
AcDbLine
 62
253
  6
CONTINUOUS
 10
-37.5195793241
 20
14.6119047403
 11
-37.9266602038
 21
14.6119047403
  0
LINE
  5
4C6
100
AcDbEntity
  8
INCISIONI
100
AcDbLine
 62
253
  6
CONTINUOUS
 10
-41.4235897457
 20
14.165656
 11
-39.3989806022
 21
14.158632
  0
LINE
  5
4C7
100
AcDbEntity
  8
INCISIONI
100
AcDbLine
 62
253
  6
CONTINUOUS
 10
-36.8411112857
 20
11.9428571105
 11
-36.569724042
 21
11.8071428895
  0
LINE
  5
4C8
100
AcDbEntity
  8
INCISIONI
100
AcDbLine
 62
253
  6
CONTINUOUS
 10
-36.2983367983
 20
13.164285779
 11
-36.4340304202
 21
13.3
  0
LINE
  5
4C9
100
AcDbEntity
  8
INCISIONI
100
AcDbLine
 62
253
  6
CONTINUOUS
 10
-36.2983367983
 20
14.521428442
 11
-36.4340304202
 21
14.657142663
  0
LINE
  5
4CA
100
AcDbEntity
  8
INCISIONI
100
AcDbLine
 62
253
  6
CONTINUOUS
 10
-36.2983367983
 20
15.742857337
 11
-36.569724042
 21
16.014285779
  0
LINE
  5
4CB
100
AcDbEntity
  8
0
100
AcDbLine
 62
7
  6
CONTINUOUS
 10
-23.8983367983
 20
12.1
 11
-23.8983367983
 21
7.9
  0
LINE
  5
4CC
100
AcDbEntity
  8
0
100
AcDbLine
 62
7
  6
CONTINUOUS
 10
-23.8983367983
 20
7.1
 11
-23.8983367983
 21
2.9
  0
LINE
  5
4CD
100
AcDbEntity
  8
0
100
AcDbLine
 62
7
  6
CONTINUOUS
 10
-23.8983367983
 20
2.1
 11
-23.8983367983
 21
-2.1
  0
LINE
  5
4CE
100
AcDbEntity
  8
0
100
AcDbLine
 62
7
  6
CONTINUOUS
 10
-23.8983367983
 20
-2.9
 11
-23.8983367983
 21
-7.1
  0
LINE
  5
4CF
100
AcDbEntity
  8
0
100
AcDbLine
 62
7
  6
CONTINUOUS
 10
-23.8983367983
 20
-7.9
 11
-23.8983367983
 21
-12.1
  0
LINE
  5
4D0
100
AcDbEntity
  8
0
100
AcDbLine
 62
7
  6
CONTINUOUS
 10
-23.8983367983
 20
-12.9
 11
-23.8983367983
 21
-17.1
  0
LINE
  5
4D1
100
AcDbEntity
  8
0
100
AcDbLine
 62
7
  6
CONTINUOUS
 10
-23.4983367983
 20
12.1
 11
-23.4983367983
 21
7.9
  0
LINE
  5
4D2
100
AcDbEntity
  8
0
100
AcDbLine
 62
7
  6
CONTINUOUS
 10
-23.4983367983
 20
7.1
 11
-23.4983367983
 21
2.9
  0
LINE
  5
4D3
100
AcDbEntity
  8
0
100
AcDbLine
 62
7
  6
CONTINUOUS
 10
-23.4983367983
 20
2.1
 11
-23.4983367983
 21
-2.1
  0
LINE
  5
4D4
100
AcDbEntity
  8
0
100
AcDbLine
 62
7
  6
CONTINUOUS
 10
-23.4983367983
 20
-2.9
 11
-23.4983367983
 21
-7.1
  0
LINE
  5
4D5
100
AcDbEntity
  8
0
100
AcDbLine
 62
7
  6
CONTINUOUS
 10
-23.4983367983
 20
-7.9
 11
-23.4983367983
 21
-12.1
  0
LINE
  5
4D6
100
AcDbEntity
  8
0
100
AcDbLine
 62
7
  6
CONTINUOUS
 10
-23.4983367983
 20
-12.9
 11
-23.4983367983
 21
-17.1
  0
LINE
  5
4D7
100
AcDbEntity
  8
RACCORDO
100
AcDbLine
 62
253
  6
CONTINUOUS
 10
-23.3957188377
 20
-17.1
 11
-23.3957188377
 21
-12.9
  0
LINE
  5
4D8
100
AcDbEntity
  8
ASSI
100
AcDbLine
 62
253
  6
CONTINUOUS
 10
-23.3957188377
 20
-17.1
 11
-23.3957188377
 21
-12.9
  0
LINE
  5
4D9
100
AcDbEntity
  8
RACCORDO
100
AcDbLine
 62
253
  6
CONTINUOUS
 10
-23.3957188377
 20
-12.1
 11
-23.3957188377
 21
-7.9
  0
LINE
  5
4DA
100
AcDbEntity
  8
ASSI
100
AcDbLine
 62
253
  6
CONTINUOUS
 10
-23.3957188377
 20
-12.1
 11
-23.3957188377
 21
-7.9
  0
LINE
  5
4DB
100
AcDbEntity
  8
RACCORDO
100
AcDbLine
 62
253
  6
CONTINUOUS
 10
-23.3957188377
 20
-7.1
 11
-23.3957188377
 21
-2.9
  0
LINE
  5
4DC
100
AcDbEntity
  8
ASSI
100
AcDbLine
 62
253
  6
CONTINUOUS
 10
-23.3957188377
 20
-7.1
 11
-23.3957188377
 21
-2.9
  0
LINE
  5
4DD
100
AcDbEntity
  8
RACCORDO
100
AcDbLine
 62
253
  6
CONTINUOUS
 10
-23.3957188377
 20
-2.1
 11
-23.3957188377
 21
2.1
  0
LINE
  5
4DE
100
AcDbEntity
  8
ASSI
100
AcDbLine
 62
253
  6
CONTINUOUS
 10
-23.3957188377
 20
-2.1
 11
-23.3957188377
 21
2.1
  0
LINE
  5
4DF
100
AcDbEntity
  8
RACCORDO
100
AcDbLine
 62
253
  6
CONTINUOUS
 10
-23.3957188377
 20
2.9
 11
-23.3957188377
 21
7.1
  0
LINE
  5
4E0
100
AcDbEntity
  8
ASSI
100
AcDbLine
 62
253
  6
CONTINUOUS
 10
-23.3957188377
 20
2.9
 11
-23.3957188377
 21
7.1
  0
LINE
  5
4E1
100
AcDbEntity
  8
RACCORDO
100
AcDbLine
 62
253
  6
CONTINUOUS
 10
-23.3957188377
 20
7.9
 11
-23.3957188377
 21
12.1
  0
LINE
  5
4E2
100
AcDbEntity
  8
ASSI
100
AcDbLine
 62
253
  6
CONTINUOUS
 10
-23.3957188377
 20
7.9
 11
-23.3957188377
 21
12.1
  0
LINE
  5
4E3
100
AcDbEntity
  8
ASSI
100
AcDbLine
 62
7
  6
CONTINUOUS
 10
-23.0986031605
 20
12.1
 11
-23.0986031605
 21
7.9
  0
LINE
  5
4E4
100
AcDbEntity
  8
ASSI
100
AcDbLine
 62
7
  6
CONTINUOUS
 10
-23.0986031605
 20
7.1
 11
-23.0986031605
 21
2.9
  0
LINE
  5
4E5
100
AcDbEntity
  8
ASSI
100
AcDbLine
 62
7
  6
CONTINUOUS
 10
-23.0986031605
 20
2.1
 11
-23.0986031605
 21
-2.1
  0
LINE
  5
4E6
100
AcDbEntity
  8
ASSI
100
AcDbLine
 62
7
  6
CONTINUOUS
 10
-23.0986031605
 20
-2.9
 11
-23.0986031605
 21
-7.1
  0
LINE
  5
4E7
100
AcDbEntity
  8
ASSI
100
AcDbLine
 62
7
  6
CONTINUOUS
 10
-23.0986031605
 20
-7.9
 11
-23.0986031605
 21
-12.1
  0
LINE
  5
4E8
100
AcDbEntity
  8
ASSI
100
AcDbLine
 62
7
  6
CONTINUOUS
 10
-23.0986031605
 20
-12.9
 11
-23.0986031605
 21
-17.1
  0
LINE
  5
4E9
100
AcDbEntity
  8
RACCORDO
100
AcDbLine
 62
253
  6
CONTINUOUS
 10
-22.4808843919
 20
19.1013831211
 11
-22.4808843919
 21
18.9236182982
  0
LINE
  5
4EA
100
AcDbEntity
  8
ASSI
100
AcDbLine
 62
253
  6
CONTINUOUS
 10
-22.4808843919
 20
19.1013831211
 11
-22.4808843919
 21
18.9236182982
  0
LINE
  5
4EB
100
AcDbEntity
  8
ASSI
100
AcDbLine
 62
253
  6
CONTINUOUS
 10
-22.4808843919
 20
17.5096157267
 11
-22.4808843919
 21
12.1
  0
LINE
  5
4EC
100
AcDbEntity
  8
ASSI
100
AcDbLine
 62
253
  6
CONTINUOUS
 10
-22.4808843919
 20
7.9
 11
-22.4808843919
 21
7.1
  0
LINE
  5
4ED
100
AcDbEntity
  8
ASSI
100
AcDbLine
 62
253
  6
CONTINUOUS
 10
-22.4808843919
 20
2.9
 11
-22.4808843919
 21
2.1
  0
LINE
  5
4EE
100
AcDbEntity
  8
ASSI
100
AcDbLine
 62
253
  6
CONTINUOUS
 10
-22.4808843919
 20
-2.1
 11
-22.4808843919
 21
-2.9
  0
LINE
  5
4EF
100
AcDbEntity
  8
ASSI
100
AcDbLine
 62
253
  6
CONTINUOUS
 10
-22.4808843919
 20
-7.1
 11
-22.4808843919
 21
-7.9
  0
LINE
  5
4F0
100
AcDbEntity
  8
ASSI
100
AcDbLine
 62
253
  6
CONTINUOUS
 10
-22.4808843919
 20
-12.1
 11
-22.4808843919
 21
-12.9
  0
LINE
  5
4F1
100
AcDbEntity
  8
ASSI
100
AcDbLine
 62
253
  6
CONTINUOUS
 10
-22.4808843919
 20
-17.1
 11
-22.4808843919
 21
-17.5096157267
  0
LINE
  5
4F2
100
AcDbEntity
  8
RACCORDO
100
AcDbLine
 62
253
  6
CONTINUOUS
 10
-22.4808843919
 20
-18.9236182982
 11
-22.4808843919
 21
-19.1013831211
  0
LINE
  5
4F3
100
AcDbEntity
  8
ASSI
100
AcDbLine
 62
253
  6
CONTINUOUS
 10
-22.4808843919
 20
-18.9236182982
 11
-22.4808843919
 21
-19.1013831211
  0
LINE
  5
4F4
100
AcDbEntity
  8
RACCORDO
100
AcDbLine
 62
7
  6
CONTINUOUS
 10
-21.4983367983
 20
18.3943840357
 11
-21.4983367983
 21
17.509618074
  0
LINE
  5
4F5
100
AcDbEntity
  8
RACCORDO
100
AcDbLine
 62
7
  6
CONTINUOUS
 10
-21.4983367983
 20
7.9
 11
-21.4983367983
 21
7.1
  0
LINE
  5
4F6
100
AcDbEntity
  8
RACCORDO
100
AcDbLine
 62
7
  6
CONTINUOUS
 10
-21.4983367983
 20
2.9
 11
-21.4983367983
 21
2.1
  0
LINE
  5
4F7
100
AcDbEntity
  8
RACCORDO
100
AcDbLine
 62
7
  6
CONTINUOUS
 10
-21.4983367983
 20
-2.1
 11
-21.4983367983
 21
-2.9
  0
LINE
  5
4F8
100
AcDbEntity
  8
RACCORDO
100
AcDbLine
 62
7
  6
CONTINUOUS
 10
-21.4983367983
 20
-7.1
 11
-21.4983367983
 21
-7.9
  0
LINE
  5
4F9
100
AcDbEntity
  8
RACCORDO
100
AcDbLine
 62
7
  6
CONTINUOUS
 10
-21.4983367983
 20
-12.1
 11
-21.4983367983
 21
-12.9
  0
LINE
  5
4FA
100
AcDbEntity
  8
RACCORDO
100
AcDbLine
 62
7
  6
CONTINUOUS
 10
-21.4983367983
 20
-17.509618074
 11
-21.4983367983
 21
-18.3943840357
  0
LINE
  5
4FB
100
AcDbEntity
  8
ASSI
100
AcDbLine
 62
7
  6
CONTINUOUS
 10
-21.4983367983
 20
-18.3943840357
 11
-21.4983367983
 21
18.3943840357
  0
LINE
  5
4FC
100
AcDbEntity
  8
SUPERFICI
100
AcDbLine
 62
7
  6
CONTINUOUS
 10
-48.3983367983
 20
-23.1226497308
 11
-49.2733367983
 21
-23.6278312164
  0
LINE
  5
4FD
100
AcDbEntity
  8
SUPERFICI
100
AcDbLine
 62
253
  6
CONTINUOUS
 10
-48.1497912312
 20
-23.2669872981
 11
-49.1497912312
 21
-23.8443375673
  0
LINE
  5
4FE
100
AcDbEntity
  8
0
100
AcDbLine
 62
253
  6
CONTINUOUS
 10
-37.7981083411
 20
-16.0
 11
-36.9410960373
 21
-15.5714285523
  0
LINE
  5
4FF
100
AcDbEntity
  8
INCISIONI
100
AcDbLine
 62
253
  6
CONTINUOUS
 10
-36.4340304202
 20
14.657142663
 11
-37.1124985011
 21
14.657142663
  0
LINE
  5
500
100
AcDbEntity
  8
INCISIONI
100
AcDbLine
 62
253
  6
CONTINUOUS
 10
-37.383885773
 20
15.2
 11
-38.1980474191
 21
15.2
  0
LINE
  5
501
100
AcDbEntity
  8
INCISIONI
100
AcDbLine
 62
253
  6
CONTINUOUS
 10
-40.2502412407
 20
15.502999
 11
-42.2971915773
 21
15.503009
  0
LINE
  5
502
100
AcDbEntity
  8
INCISIONI
100
AcDbLine
 62
253
  6
CONTINUOUS
 10
-42.2971915773
 20
16.001437
 11
-39.3989806022
 21
16.001437
  0
LINE
  5
503
100
AcDbEntity
  8
INCISIONI
100
AcDbLine
 62
253
  6
CONTINUOUS
 10
-36.569724042
 20
16.014285779
 11
-37.1124985011
 21
16.014285779
  0
LINE
  5
504
100
AcDbEntity
  8
RACCORDO
100
AcDbLine
 62
253
  6
CONTINUOUS
 10
-21.4983367983
 20
17.509618074
 11
-22.4808843919
 21
17.509618074
  0
LINE
  5
505
100
AcDbEntity
  8
ASSI
100
AcDbLine
 62
253
  6
CONTINUOUS
 10
-21.4983367983
 20
17.509618074
 11
-22.4808843919
 21
17.509618074
  0
LINE
  5
506
100
AcDbEntity
  8
RACCORDO
100
AcDbLine
 62
253
  6
CONTINUOUS
 10
-22.4808843919
 20
17.5096157267
 11
-44.8983367983
 21
17.6716990487
  0
LINE
  5
507
100
AcDbEntity
  8
ASSI
100
AcDbLine
 62
253
  6
CONTINUOUS
 10
-22.4808843919
 20
17.5096157267
 11
-44.8983367983
 21
17.6716990487
  0
LINE
  5
508
100
AcDbEntity
  8
SUPERFICI
100
AcDbLine
 62
7
  6
CONTINUOUS
 10
-44.8983367983
 20
18.1473460386
 11
-46.8983367983
 21
18.5
  0
LINE
  5
509
100
AcDbEntity
  8
SUPERFICI
100
AcDbLine
 62
7
  6
CONTINUOUS
 10
-49.2733367983
 20
23.6278312164
 11
-48.3983367983
 21
23.1226497308
  0
LINE
  5
50A
100
AcDbEntity
  8
SUPERFICI
100
AcDbLine
 62
253
  6
CONTINUOUS
 10
-49.1497912312
 20
23.8443375673
 11
-48.1497912312
 21
23.2669872981
  0
LINE
  5
50B
100
AcDbEntity
  8
DRAFT
100
AcDbLine
 62
7
  6
CONTINUOUS
 10
-44.8983367983
 20
19.7087268678
 11
-45.8983367983
 21
19.7
  0
LINE
  5
50C
100
AcDbEntity
  8
SUPERFICI
100
AcDbLine
 62
7
  6
CONTINUOUS
 10
-34.8983367983
 20
20.9959955457
 11
-45.8983367983
 21
20.9
  0
LINE
  5
50D
100
AcDbEntity
  8
SUPERFICI
100
AcDbLine
 62
7
  6
CONTINUOUS
 10
-35.3896105951
 20
21.4537354271
 11
-45.8983367983
 21
21.4
  0
LINE
  5
50E
100
AcDbEntity
  8
RACCORDO
100
AcDbLine
 62
253
  6
CONTINUOUS
 10
-56.0183367983
 20
18.20858252
 11
-54.718846851
 21
18.20858252
  0
LINE
  5
50F
100
AcDbEntity
  8
0
100
AcDbLine
 62
7
  6
CONTINUOUS
 10
-56.0183367983
 20
18.35
 11
-54.701911572
 21
18.35
  0
LINE
  5
510
100
AcDbEntity
  8
DRAFT
100
AcDbLine
 62
7
  6
CONTINUOUS
 10
-44.8983367983
 20
20.85
 11
-34.8983367983
 21
20.85
  0
LINE
  5
511
100
AcDbEntity
  8
ASSI
100
AcDbLine
 62
7
  6
CONTINUOUS
 10
-44.8983367983
 20
20.85
 11
-34.8983367983
 21
20.85
  0
LINE
  5
512
100
AcDbEntity
  8
RACCORDO
100
AcDbLine
 62
253
  6
CONTINUOUS
 10
-22.4808843919
 20
18.9236182982
 11
-44.8983367983
 21
19.0856972195
  0
LINE
  5
513
100
AcDbEntity
  8
ASSI
100
AcDbLine
 62
253
  6
CONTINUOUS
 10
-22.4808843919
 20
18.9236182982
 11
-44.8983367983
 21
19.0856972195
  0
LINE
  5
514
100
AcDbEntity
  8
DRAFT
100
AcDbLine
 62
7
  6
CONTINUOUS
 10
-45.8983367983
 20
18.5087268678
 11
-44.8983367983
 21
18.492768546
  0
LINE
  5
515
100
AcDbEntity
  8
DRAFT
100
AcDbLine
 62
7
  6
CONTINUOUS
 10
-45.8983367983
 20
19.5
 11
-44.8983367983
 21
19.4825449351
  0
LINE
  5
516
100
AcDbEntity
  8
RACCORDO
100
AcDbLine
 62
253
  6
CONTINUOUS
 10
-34.8983367983
 20
19.3181305591
 11
-22.4808843919
 21
19.1013831211
  0
LINE
  5
517
100
AcDbEntity
  8
ASSI
100
AcDbLine
 62
253
  6
CONTINUOUS
 10
-34.8983367983
 20
19.3181305591
 11
-22.4808843919
 21
19.1013831211
  0
LINE
  5
518
100
AcDbEntity
  8
RACCORDO
100
AcDbLine
 62
7
  6
CONTINUOUS
 10
-34.8983367983
 20
19.6109791689
 11
-22.4808843919
 21
19.3942317309
  0
LINE
  5
519
100
AcDbEntity
  8
ASSI
100
AcDbLine
 62
7
  6
CONTINUOUS
 10
-34.8983367983
 20
19.6109791689
 11
-22.4808843919
 21
19.3942317309
  0
LINE
  5
51A
100
AcDbEntity
  8
SUPERFICI
100
AcDbLine
 62
253
  6
CONTINUOUS
 10
-46.8983367983
 20
21.8997711479
 11
-53.3641320925
 21
21.5609131753
  0
LINE
  5
51B
100
AcDbEntity
  8
SUPERFICI
100
AcDbLine
 62
7
  6
CONTINUOUS
 10
-46.8983367983
 20
22.4
 11
-53.3815738674
 21
22.0602279426
  0
LINE
  5
51C
100
AcDbEntity
  8
SUPERFICI
100
AcDbLine
 62
253
  6
CONTINUOUS
 10
-49.1497912312
 20
24.2369056521
 11
-46.8983367983
 21
24.2500042308
  0
LINE
  5
51D
100
AcDbEntity
  8
SUPERFICI
100
AcDbLine
 62
7
  6
CONTINUOUS
 10
-49.1497912312
 20
24.4869014213
 11
-46.8983367983
 21
24.5
  0
LINE
  5
51E
100
AcDbEntity
  8
SUPERFICI
100
AcDbLine
 62
253
  6
CONTINUOUS
 10
-49.3983367983
 20
23.8443375673
 11
-49.1497912312
 21
23.8443375673
  0
LINE
  5
51F
100
AcDbEntity
  8
SUPERFICI
100
AcDbLine
 62
253
  6
CONTINUOUS
 10
-45.8983367983
 20
23.8443375673
 11
-46.1468823655
 21
23.8443375673
  0
LINE
  5
520
100
AcDbEntity
  8
SUPERFICI
100
AcDbLine
 62
253
  6
CONTINUOUS
 10
-49.3983367983
 20
24.2369056521
 11
-49.1497912312
 21
24.2369056521
  0
LINE
  5
521
100
AcDbEntity
  8
SUPERFICI
100
AcDbLine
 62
253
  6
CONTINUOUS
 10
-45.8983367983
 20
24.2456323968
 11
-46.1468823655
 21
24.2456323968
  0
LINE
  5
522
100
AcDbEntity
  8
SUPERFICI
100
AcDbLine
 62
253
  6
CONTINUOUS
 10
-45.8983367983
 20
21.8941990932
 11
-46.8983367983
 21
21.900016923
  0
LINE
  5
523
100
AcDbEntity
  8
SUPERFICI
100
AcDbLine
 62
7
  6
CONTINUOUS
 10
-35.892519067
 20
22.3359700255
 11
-46.8983367983
 21
22.4
  0
LINE
  5
524
100
AcDbEntity
  8
SUPERFICI
100
AcDbLine
 62
7
  6
CONTINUOUS
 10
-45.8983367983
 20
23.9941821702
 11
-39.3954279327
 21
23.9563493531
  0
LINE
  5
525
100
AcDbEntity
  8
SUPERFICI
100
AcDbLine
 62
253
  6
CONTINUOUS
 10
-46.8983367983
 20
24.2500042308
 11
-46.1468823655
 21
24.2456323968
  0
LINE
  5
526
100
AcDbEntity
  8
SUPERFICI
100
AcDbLine
 62
7
  6
CONTINUOUS
 10
-46.8983367983
 20
24.5
 11
-46.1468823655
 21
24.495628166
  0
ARC
  5
527
100
AcDbEntity
  8
SUPERFICI
100
AcDbCircle
 62
253
  6
CONTINUOUS
 10
-5119.3060980899
 20
-7.8584746637
 40
5108.7945046092
100
AcDbArc
 50
359.8502527296
 51
359.9815900845
  0
ARC
  5
528
100
AcDbEntity
  8
SUPERFICI
100
AcDbCircle
 62
253
  6
CONTINUOUS
 10
-5063.1995678806
 20
-7.858094024
 40
5052.1880505524
100
AcDbArc
 50
359.8494161557
 51
359.9814872341
  0
ARC
  5
529
100
AcDbEntity
  8
RACCORDO
100
AcDbCircle
 62
253
  6
CONTINUOUS
 10
-0.0005949495
 20
-14.2018701984
 40
6.8344182003
100
AcDbArc
 50
43.4707841963
 51
89.995012276
  0
ARC
  5
52A
100
AcDbEntity
  8
RACCORDO
100
AcDbCircle
 62
253
  6
CONTINUOUS
 10
-0.0000696631
 20
-14.1978238508
 40
6.3377959467
100
AcDbArc
 50
89.999370222
 51
136.4946788368
  0
CIRCLE
  5
52B
100
AcDbEntity
  8
DRAFT
100
AcDbCircle
 62
7
  6
CONTINUOUS
 10
-0.0
 20
-14.2
 40
6.25
  0
CIRCLE
  5
52C
100
AcDbEntity
  8
DRAFT
100
AcDbCircle
 62
7
  6
CONTINUOUS
 10
-0.0
 20
-14.2
 40
4.5122176149
  0
CIRCLE
  5
52D
100
AcDbEntity
  8
DRAFT
100
AcDbCircle
 62
7
  6
CONTINUOUS
 10
-0.0
 20
-14.2
 40
4.5
  0
ARC
  5
52E
100
AcDbEntity
  8
RACCORDO
100
AcDbCircle
 62
7
  6
CONTINUOUS
 10
0.0
 20
-14.2
 40
4.15
100
AcDbArc
 50
258.1537290622
 51
71.8130733289
  0
ARC
  5
52F
100
AcDbEntity
  8
RACCORDO
100
AcDbCircle
 62
7
  6
CONTINUOUS
 10
-0.0
 20
-14.2
 40
4.15
100
AcDbArc
 50
78.1859538085
 51
251.8472178521
  0
CIRCLE
  5
530
100
AcDbEntity
  8
0
100
AcDbCircle
 62
7
  6
CONTINUOUS
 10
-0.0
 20
-14.2
 40
4.15
  0
CIRCLE
  5
531
100
AcDbEntity
  8
0
100
AcDbCircle
 62
253
  6
CONTINUOUS
 10
0.0
 20
-14.2
 40
3.1500083971
  0
CIRCLE
  5
532
100
AcDbEntity
  8
0
100
AcDbCircle
 62
7
  6
CONTINUOUS
 10
-0.0
 20
-14.2
 40
3.0
  0
CIRCLE
  5
533
100
AcDbEntity
  8
0
100
AcDbCircle
 62
7
  6
CONTINUOUS
 10
-0.0
 20
-14.2
 40
1.75
  0
ARC
  5
534
100
AcDbEntity
  8
SUPERFICI
100
AcDbCircle
 62
253
  6
CONTINUOUS
 10
-10.5369995358
 20
-21.5600454808
 40
0.5001623376
100
AcDbArc
 50
180.0994026102
 51
269.9752870377
  0
ARC
  5
535
100
AcDbEntity
  8
SUPERFICI
100
AcDbCircle
 62
7
  6
CONTINUOUS
 10
-4.0
 20
-23.15
 40
0.5
100
AcDbArc
 50
154.1580672368
 51
205.8419327632
  0
ARC
  5
536
100
AcDbEntity
  8
SUPERFICI
100
AcDbCircle
 62
7
  6
CONTINUOUS
 10
-10.6500384553
 20
-21.9000439681
 40
0.4999576362
100
AcDbArc
 50
179.9687347088
 51
269.9607896942
  0
ARC
  5
537
100
AcDbEntity
  8
SUPERFICI
100
AcDbCircle
 62
7
  6
CONTINUOUS
 10
-7.5002828881
 20
-24.2482971872
 40
0.2517029765
100
AcDbArc
 50
270.0653576146
 51
289.0255885442
  0
ARC
  5
538
100
AcDbEntity
  8
SUPERFICI
100
AcDbCircle
 62
7
  6
CONTINUOUS
 10
-9.8982971872
 20
-24.2497171119
 40
0.2517029765
100
AcDbArc
 50
180.0653576146
 51
199.0255885442
  0
ARC
  5
539
100
AcDbEntity
  8
SUPERFICI
100
AcDbCircle
 62
7
  6
CONTINUOUS
 10
-7.5003768759
 20
-24.2499774933
 40
0.2503768773
100
AcDbArc
 50
340.9198302592
 51
359.9938814446
  0
ARC
  5
53A
100
AcDbEntity
  8
SUPERFICI
100
AcDbCircle
 62
7
  6
CONTINUOUS
 10
-9.8999774933
 20
-24.2496231241
 40
0.2503768773
100
AcDbArc
 50
250.9198302592
 51
269.9938814446
  0
ARC
  5
53B
100
AcDbEntity
  8
SUPERFICI
100
AcDbCircle
 62
7
  6
CONTINUOUS
 10
-9.8868948033
 20
-24.2368948033
 40
0.2500066182
100
AcDbArc
 50
180.0024862874
 51
269.9975137126
  0
ARC
  5
53C
100
AcDbEntity
  8
SUPERFICI
100
AcDbCircle
 62
7
  6
CONTINUOUS
 10
-7.5131051962
 20
-24.2368948038
 40
0.2500066177
100
AcDbArc
 50
270.0024861811
 51
359.9975138189
  0
ARC
  5
53D
100
AcDbEntity
  8
SUPERFICI
100
AcDbCircle
 62
7
  6
CONTINUOUS
 10
-7.4999923624
 20
-24.2500076376
 40
0.2499914143
100
AcDbArc
 50
289.0904347558
 51
340.9095652442
  0
ARC
  5
53E
100
AcDbEntity
  8
SUPERFICI
100
AcDbCircle
 62
7
  6
CONTINUOUS
 10
-9.9000076376
 20
-24.2500076376
 40
0.2499914143
100
AcDbArc
 50
199.0904347558
 51
250.9095652442
  0
ARC
  5
53F
100
AcDbEntity
  8
SUPERFICI
100
AcDbCircle
 62
7
  6
CONTINUOUS
 10
-1.2026405561
 20
-23.7982406173
 40
0.200007265
100
AcDbArc
 50
270.0042626759
 51
359.9969493805
  0
ARC
  5
540
100
AcDbEntity
  8
SUPERFICI
100
AcDbCircle
 62
7
  6
CONTINUOUS
 10
-1.1999932435
 20
-23.8000067566
 40
0.1999932435
100
AcDbArc
 50
269.9987915599
 51
359.9999963837
  0
ARC
  5
541
100
AcDbEntity
  8
SUPERFICI
100
AcDbCircle
 62
253
  6
CONTINUOUS
 10
-5147.6278732071
 20
7.8169138937
 40
5137.1162917211
100
AcDbArc
 50
0.0187719582
 51
0.1493852277
  0
ARC
  5
542
100
AcDbEntity
  8
SUPERFICI
100
AcDbCircle
 62
253
  6
CONTINUOUS
 10
-5091.2074372152
 20
7.8167642853
 40
5080.1959318816
100
AcDbArc
 50
0.0188768298
 51
0.1502197803
  0
CIRCLE
  5
543
100
AcDbEntity
  8
DRAFT
100
AcDbCircle
 62
7
  6
CONTINUOUS
 10
-0.0
 20
0.0
 40
6.25
  0
CIRCLE
  5
544
100
AcDbEntity
  8
DRAFT
100
AcDbCircle
 62
7
  6
CONTINUOUS
 10
-0.0
 20
0.0
 40
4.5122176149
  0
CIRCLE
  5
545
100
AcDbEntity
  8
DRAFT
100
AcDbCircle
 62
7
  6
CONTINUOUS
 10
-0.0
 20
0.0
 40
4.5
  0
ARC
  5
546
100
AcDbEntity
  8
RACCORDO
100
AcDbCircle
 62
7
  6
CONTINUOUS
 10
-0.0
 20
-0.0
 40
4.15
100
AcDbArc
 50
183.1537290622
 51
356.8130733289
  0
CIRCLE
  5
547
100
AcDbEntity
  8
0
100
AcDbCircle
 62
7
  6
CONTINUOUS
 10
-0.0
 20
0.0
 40
4.15
  0
ARC
  5
548
100
AcDbEntity
  8
RACCORDO
100
AcDbCircle
 62
7
  6
CONTINUOUS
 10
-0.0
 20
0.0
 40
4.15
100
AcDbArc
 50
3.1859538085
 51
176.8472178521
  0
CIRCLE
  5
549
100
AcDbEntity
  8
0
100
AcDbCircle
 62
253
  6
CONTINUOUS
 10
-0.0
 20
-0.0
 40
3.1500083971
  0
CIRCLE
  5
54A
100
AcDbEntity
  8
0
100
AcDbCircle
 62
7
  6
CONTINUOUS
 10
-0.0
 20
0.0
 40
3.0
  0
CIRCLE
  5
54B
100
AcDbEntity
  8
0
100
AcDbCircle
 62
7
  6
CONTINUOUS
 10
-0.0
 20
-0.0
 40
1.75
  0
ARC
  5
54C
100
AcDbEntity
  8
RACCORDO
100
AcDbCircle
 62
253
  6
CONTINUOUS
 10
-0.0005947159
 20
14.2018697707
 40
6.8344178747
100
AcDbArc
 50
270.0049857661
 51
316.5292184649
  0
ARC
  5
54D
100
AcDbEntity
  8
RACCORDO
100
AcDbCircle
 62
253
  6
CONTINUOUS
 10
-0.0000695064
 20
14.1978242157
 40
6.3377963117
100
AcDbArc
 50
223.5053225805
 51
270.0006283606
  0
CIRCLE
  5
54E
100
AcDbEntity
  8
DRAFT
100
AcDbCircle
 62
7
  6
CONTINUOUS
 10
-0.0
 20
14.2
 40
6.25
  0
CIRCLE
  5
54F
100
AcDbEntity
  8
DRAFT
100
AcDbCircle
 62
7
  6
CONTINUOUS
 10
-0.0
 20
14.2
 40
4.5122176149
  0
CIRCLE
  5
550
100
AcDbEntity
  8
DRAFT
100
AcDbCircle
 62
7
  6
CONTINUOUS
 10
-0.0
 20
14.2
 40
4.5
  0
ARC
  5
551
100
AcDbEntity
  8
RACCORDO
100
AcDbCircle
 62
7
  6
CONTINUOUS
 10
-0.0
 20
14.2
 40
4.15
100
AcDbArc
 50
78.1859538085
 51
251.8472178521
  0
ARC
  5
552
100
AcDbEntity
  8
RACCORDO
100
AcDbCircle
 62
7
  6
CONTINUOUS
 10
0.0
 20
14.2
 40
4.15
100
AcDbArc
 50
258.1537290622
 51
71.8130733289
  0
CIRCLE
  5
553
100
AcDbEntity
  8
0
100
AcDbCircle
 62
7
  6
CONTINUOUS
 10
-0.0
 20
14.2
 40
4.15
  0
CIRCLE
  5
554
100
AcDbEntity
  8
0
100
AcDbCircle
 62
253
  6
CONTINUOUS
 10
-0.0
 20
14.2
 40
3.1500083971
  0
CIRCLE
  5
555
100
AcDbEntity
  8
0
100
AcDbCircle
 62
7
  6
CONTINUOUS
 10
0.0
 20
14.2
 40
3.0
  0
CIRCLE
  5
556
100
AcDbEntity
  8
0
100
AcDbCircle
 62
7
  6
CONTINUOUS
 10
0.0
 20
14.2
 40
1.75
  0
ARC
  5
557
100
AcDbEntity
  8
SUPERFICI
100
AcDbCircle
 62
253
  6
CONTINUOUS
 10
-10.5369995357
 20
21.5600454807
 40
0.5001623377
100
AcDbArc
 50
90.0247129717
 51
179.9005973806
  0
ARC
  5
558
100
AcDbEntity
  8
SUPERFICI
100
AcDbCircle
 62
7
  6
CONTINUOUS
 10
-4.0
 20
23.15
 40
0.5
100
AcDbArc
 50
154.1580672368
 51
205.8419327632
  0
ARC
  5
559
100
AcDbEntity
  8
SUPERFICI
100
AcDbCircle
 62
7
  6
CONTINUOUS
 10
-10.6500384132
 20
21.9000440103
 40
0.4999576362
100
AcDbArc
 50
90.0392151342
 51
180.0312701179
  0
ARC
  5
55A
100
AcDbEntity
  8
SUPERFICI
100
AcDbCircle
 62
7
  6
CONTINUOUS
 10
-9.8997171119
 20
24.2482971872
 40
0.2517029765
100
AcDbArc
 50
90.0653576146
 51
109.0255885442
  0
ARC
  5
55B
100
AcDbEntity
  8
SUPERFICI
100
AcDbCircle
 62
7
  6
CONTINUOUS
 10
-7.5017028128
 20
24.2497171119
 40
0.2517029765
100
AcDbArc
 50
0.0653576146
 51
19.0255885442
  0
ARC
  5
55C
100
AcDbEntity
  8
SUPERFICI
100
AcDbCircle
 62
7
  6
CONTINUOUS
 10
-9.8996231241
 20
24.2499774933
 40
0.2503768773
100
AcDbArc
 50
160.9198302592
 51
179.9938814446
  0
ARC
  5
55D
100
AcDbEntity
  8
SUPERFICI
100
AcDbCircle
 62
7
  6
CONTINUOUS
 10
-7.5000225067
 20
24.2496231241
 40
0.2503768773
100
AcDbArc
 50
70.9198302592
 51
89.9938814446
  0
ARC
  5
55E
100
AcDbEntity
  8
SUPERFICI
100
AcDbCircle
 62
7
  6
CONTINUOUS
 10
-9.8868948033
 20
24.2368948033
 40
0.2500066182
100
AcDbArc
 50
90.0024862874
 51
179.9975137126
  0
ARC
  5
55F
100
AcDbEntity
  8
SUPERFICI
100
AcDbCircle
 62
7
  6
CONTINUOUS
 10
-7.5131051967
 20
24.2368948033
 40
0.2500066182
100
AcDbArc
 50
0.0024862874
 51
89.9975137126
  0
ARC
  5
560
100
AcDbEntity
  8
SUPERFICI
100
AcDbCircle
 62
7
  6
CONTINUOUS
 10
-9.9000076376
 20
24.2500076376
 40
0.2499914143
100
AcDbArc
 50
109.0904347558
 51
160.9095652442
  0
ARC
  5
561
100
AcDbEntity
  8
SUPERFICI
100
AcDbCircle
 62
7
  6
CONTINUOUS
 10
-7.4999923624
 20
24.2500076376
 40
0.2499914143
100
AcDbArc
 50
19.0904347558
 51
70.9095652442
  0
ARC
  5
562
100
AcDbEntity
  8
SUPERFICI
100
AcDbCircle
 62
7
  6
CONTINUOUS
 10
-1.2026405561
 20
23.7982406173
 40
0.200007265
100
AcDbArc
 50
0.0030506195
 51
89.9957373241
  0
ARC
  5
563
100
AcDbEntity
  8
SUPERFICI
100
AcDbCircle
 62
7
  6
CONTINUOUS
 10
-1.1999932435
 20
23.8000067566
 40
0.1999932435
100
AcDbArc
 50
0.0000036163
 51
90.0012084401
  0
ARC
  5
564
100
AcDbEntity
  8
SUPERFICI
100
AcDbCircle
 62
253
  6
CONTINUOUS
 10
5147.6279207689
 20
-7.8169138239
 40
5137.1163392828
100
AcDbArc
 50
180.0187719588
 51
180.1493852271
  0
ARC
  5
565
100
AcDbEntity
  8
SUPERFICI
100
AcDbCircle
 62
253
  6
CONTINUOUS
 10
5091.2074838126
 20
-7.8167642165
 40
5080.195978479
100
AcDbArc
 50
180.0188768305
 51
180.1502197797
  0
ARC
  5
566
100
AcDbEntity
  8
RACCORDO
100
AcDbCircle
 62
253
  6
CONTINUOUS
 10
0.000594896
 20
-14.2018710318
 40
6.8344190112
100
AcDbArc
 50
90.0049872749
 51
136.5292485454
  0
ARC
  5
567
100
AcDbEntity
  8
RACCORDO
100
AcDbCircle
 62
253
  6
CONTINUOUS
 10
0.00006951
 20
-14.1978242073
 40
6.3377963032
100
AcDbArc
 50
43.5053225478
 51
90.0006283935
  0
ARC
  5
568
100
AcDbEntity
  8
SUPERFICI
100
AcDbCircle
 62
253
  6
CONTINUOUS
 10
10.5369995386
 20
-21.560045478
 40
0.5001623376
100
AcDbArc
 50
270.024712634
 51
359.9005970637
  0
ARC
  5
569
100
AcDbEntity
  8
SUPERFICI
100
AcDbCircle
 62
7
  6
CONTINUOUS
 10
4.0
 20
-23.15
 40
0.5
100
AcDbArc
 50
334.1580672368
 51
25.8419327632
  0
ARC
  5
56A
100
AcDbEntity
  8
SUPERFICI
100
AcDbCircle
 62
7
  6
CONTINUOUS
 10
10.6500382294
 20
-21.9000437425
 40
0.4999579139
100
AcDbArc
 50
270.0392361786
 51
0.0312394205
  0
ARC
  5
56B
100
AcDbEntity
  8
SUPERFICI
100
AcDbCircle
 62
7
  6
CONTINUOUS
 10
9.8997171119
 20
-24.2482971872
 40
0.2517029765
100
AcDbArc
 50
270.0653576146
 51
289.0255885442
  0
ARC
  5
56C
100
AcDbEntity
  8
SUPERFICI
100
AcDbCircle
 62
7
  6
CONTINUOUS
 10
7.5017028128
 20
-24.2497171119
 40
0.2517029765
100
AcDbArc
 50
180.0653576146
 51
199.0255885442
  0
ARC
  5
56D
100
AcDbEntity
  8
SUPERFICI
100
AcDbCircle
 62
7
  6
CONTINUOUS
 10
9.8996231241
 20
-24.2499774933
 40
0.2503768773
100
AcDbArc
 50
340.9198302592
 51
359.9938814446
  0
ARC
  5
56E
100
AcDbEntity
  8
SUPERFICI
100
AcDbCircle
 62
7
  6
CONTINUOUS
 10
7.5000225067
 20
-24.2496231241
 40
0.2503768773
100
AcDbArc
 50
250.9198302592
 51
269.9938814446
  0
ARC
  5
56F
100
AcDbEntity
  8
SUPERFICI
100
AcDbCircle
 62
7
  6
CONTINUOUS
 10
9.8868948038
 20
-24.2368948038
 40
0.2500066177
100
AcDbArc
 50
270.0024861811
 51
359.9975138189
  0
ARC
  5
570
100
AcDbEntity
  8
SUPERFICI
100
AcDbCircle
 62
7
  6
CONTINUOUS
 10
7.5131051962
 20
-24.2368948038
 40
0.2500066177
100
AcDbArc
 50
180.0024861811
 51
269.9975138189
  0
ARC
  5
571
100
AcDbEntity
  8
SUPERFICI
100
AcDbCircle
 62
7
  6
CONTINUOUS
 10
9.9000076376
 20
-24.2500076376
 40
0.2499914143
100
AcDbArc
 50
289.0904347558
 51
340.9095652442
  0
ARC
  5
572
100
AcDbEntity
  8
SUPERFICI
100
AcDbCircle
 62
7
  6
CONTINUOUS
 10
7.4999923624
 20
-24.2500076376
 40
0.2499914143
100
AcDbArc
 50
199.0904347558
 51
250.9095652442
  0
ARC
  5
573
100
AcDbEntity
  8
SUPERFICI
100
AcDbCircle
 62
7
  6
CONTINUOUS
 10
1.2026405561
 20
-23.7982406173
 40
0.200007265
100
AcDbArc
 50
180.0030506195
 51
269.9957373241
  0
ARC
  5
574
100
AcDbEntity
  8
SUPERFICI
100
AcDbCircle
 62
7
  6
CONTINUOUS
 10
1.1999932435
 20
-23.8000067566
 40
0.1999932435
100
AcDbArc
 50
180.0000036163
 51
270.0012084401
  0
ARC
  5
575
100
AcDbEntity
  8
SUPERFICI
100
AcDbCircle
 62
253
  6
CONTINUOUS
 10
5119.3061449679
 20
7.8584745949
 40
5108.7945514873
100
AcDbArc
 50
179.8502527302
 51
179.9815900839
  0
ARC
  5
576
100
AcDbEntity
  8
SUPERFICI
100
AcDbCircle
 62
253
  6
CONTINUOUS
 10
5063.1996144794
 20
7.8580939553
 40
5052.1880971512
100
AcDbArc
 50
179.8494161563
 51
179.9814872335
  0
ARC
  5
577
100
AcDbEntity
  8
RACCORDO
100
AcDbCircle
 62
253
  6
CONTINUOUS
 10
0.0005943532
 20
14.2018689507
 40
6.8344169442
100
AcDbArc
 50
223.4708187931
 51
269.9950172743
  0
ARC
  5
578
100
AcDbEntity
  8
RACCORDO
100
AcDbCircle
 62
253
  6
CONTINUOUS
 10
0.0000696599
 20
14.1978238582
 40
6.3377959541
100
AcDbArc
 50
269.999370251
 51
316.4946788079
  0
ARC
  5
579
100
AcDbEntity
  8
SUPERFICI
100
AcDbCircle
 62
253
  6
CONTINUOUS
 10
10.5369995386
 20
21.560045478
 40
0.5001623376
100
AcDbArc
 50
0.0994029349
 51
89.9752873676
  0
ARC
  5
57A
100
AcDbEntity
  8
SUPERFICI
100
AcDbCircle
 62
7
  6
CONTINUOUS
 10
4.0
 20
23.15
 40
0.5
100
AcDbArc
 50
334.1580672368
 51
25.8419327632
  0
ARC
  5
57B
100
AcDbEntity
  8
SUPERFICI
100
AcDbCircle
 62
7
  6
CONTINUOUS
 10
10.6500381873
 20
21.9000437846
 40
0.4999579139
100
AcDbArc
 50
359.9687557531
 51
89.9607589944
  0
ARC
  5
57C
100
AcDbEntity
  8
SUPERFICI
100
AcDbCircle
 62
7
  6
CONTINUOUS
 10
9.8982971872
 20
24.2497171119
 40
0.2517029765
100
AcDbArc
 50
0.0653576146
 51
19.0255885442
  0
ARC
  5
57D
100
AcDbEntity
  8
SUPERFICI
100
AcDbCircle
 62
7
  6
CONTINUOUS
 10
7.5002828881
 20
24.2482971872
 40
0.2517029765
100
AcDbArc
 50
90.0653576146
 51
109.0255885442
  0
ARC
  5
57E
100
AcDbEntity
  8
SUPERFICI
100
AcDbCircle
 62
7
  6
CONTINUOUS
 10
9.8999774933
 20
24.2496231241
 40
0.2503768773
100
AcDbArc
 50
70.9198302592
 51
89.9938814446
  0
ARC
  5
57F
100
AcDbEntity
  8
SUPERFICI
100
AcDbCircle
 62
7
  6
CONTINUOUS
 10
7.5003768759
 20
24.2499774933
 40
0.2503768773
100
AcDbArc
 50
160.9198302592
 51
179.9938814446
  0
ARC
  5
580
100
AcDbEntity
  8
SUPERFICI
100
AcDbCircle
 62
7
  6
CONTINUOUS
 10
9.8868948038
 20
24.2368948038
 40
0.2500066177
100
AcDbArc
 50
0.0024861811
 51
89.9975138189
  0
ARC
  5
581
100
AcDbEntity
  8
SUPERFICI
100
AcDbCircle
 62
7
  6
CONTINUOUS
 10
7.5131051962
 20
24.2368948038
 40
0.2500066177
100
AcDbArc
 50
90.0024861811
 51
179.9975138189
  0
ARC
  5
582
100
AcDbEntity
  8
SUPERFICI
100
AcDbCircle
 62
7
  6
CONTINUOUS
 10
9.9000076376
 20
24.2500076376
 40
0.2499914143
100
AcDbArc
 50
19.0904347558
 51
70.9095652442
  0
ARC
  5
583
100
AcDbEntity
  8
SUPERFICI
100
AcDbCircle
 62
7
  6
CONTINUOUS
 10
7.4999923624
 20
24.2500076376
 40
0.2499914143
100
AcDbArc
 50
109.0904347558
 51
160.9095652442
  0
ARC
  5
584
100
AcDbEntity
  8
SUPERFICI
100
AcDbCircle
 62
7
  6
CONTINUOUS
 10
1.2026405561
 20
23.7982406173
 40
0.200007265
100
AcDbArc
 50
90.0042626759
 51
179.9969493805
  0
ARC
  5
585
100
AcDbEntity
  8
SUPERFICI
100
AcDbCircle
 62
7
  6
CONTINUOUS
 10
1.1999932435
 20
23.8000067566
 40
0.1999932435
100
AcDbArc
 50
89.9987915599
 51
179.9999963837
  0
ARC
  5
586
100
AcDbEntity
  8
ASSI
100
AcDbCircle
 62
253
  6
CONTINUOUS
 10
-208.3319024669
 20
-18.2166167271
 40
185.852362822
100
AcDbArc
 50
359.7820404152
 51
0.2179594088
  0
ARC
  5
587
100
AcDbEntity
  8
ASSI
100
AcDbCircle
 62
7
  6
CONTINUOUS
 10
-28.9983367983
 20
-15.0
 40
2.1
100
AcDbArc
 50
90.0
 51
270.0
  0
CIRCLE
  5
588
100
AcDbEntity
  8
0
100
AcDbCircle
 62
7
  6
CONTINUOUS
 10
-28.7983367983
 20
-14.988
 40
2.0
  0
ARC
  5
589
100
AcDbEntity
  8
RACCORDO
100
AcDbCircle
 62
7
  6
CONTINUOUS
 10
-22.4983367983
 20
-18.3943840357
 40
1.0
100
AcDbArc
 50
271.0
 51
360.0
  0
ARC
  5
58A
100
AcDbEntity
  8
ASSI
100
AcDbCircle
 62
7
  6
CONTINUOUS
 10
-22.4983367983
 20
-18.3943840357
 40
1.0
100
AcDbArc
 50
271.0
 51
360.0
  0
ARC
  5
58B
100
AcDbEntity
  8
SUPERFICI
100
AcDbCircle
 62
7
  6
CONTINUOUS
 10
-35.8983367983
 20
-21.3359869487
 40
1.0
100
AcDbArc
 50
270.3333333333
 51
360.0
  0
ARC
  5
58C
100
AcDbEntity
  8
SUPERFICI
100
AcDbCircle
 62
7
  6
CONTINUOUS
 10
-53.3292379112
 20
-21.0615984079
 40
1.0
100
AcDbArc
 50
188.5758796048
 51
267.0
  0
ARC
  5
58D
100
AcDbEntity
  8
0
100
AcDbCircle
 62
7
  6
CONTINUOUS
 10
-56.0183367983
 20
-17.35
 40
1.0
100
AcDbArc
 50
179.9994167896
 51
270.0
  0
ARC
  5
58E
100
AcDbEntity
  8
SUPERFICI
100
AcDbCircle
 62
253
  6
CONTINUOUS
 10
-53.3379641083
 20
-21.0615984012
 40
0.500000007
100
AcDbArc
 50
188.5758802639
 51
266.9999993409
  0
ARC
  5
58F
100
AcDbEntity
  8
SUPERFICI
100
AcDbCircle
 62
7
  6
CONTINUOUS
 10
-39.3983367983
 20
-23.4563578147
 40
0.5
100
AcDbArc
 50
270.3333333333
 51
360.0
  0
ARC
  5
590
100
AcDbEntity
  8
SUPERFICI
100
AcDbCircle
 62
7
  6
CONTINUOUS
 10
-49.1483367983
 20
-24.2369056521
 40
0.25
100
AcDbArc
 50
180.0
 51
269.6666666667
  0
ARC
  5
591
100
AcDbEntity
  8
SUPERFICI
100
AcDbCircle
 62
7
  6
CONTINUOUS
 10
-46.1483367983
 20
-24.2456323968
 40
0.25
100
AcDbArc
 50
270.3333333333
 51
360.0
  0
ARC
  5
592
100
AcDbEntity
  8
SUPERFICI
100
AcDbCircle
 62
7
  6
CONTINUOUS
 10
-46.1483367983
 20
-23.8443375673
 40
0.25
100
AcDbArc
 50
0.0
 51
60.0
  0
ARC
  5
593
100
AcDbEntity
  8
SUPERFICI
100
AcDbCircle
 62
7
  6
CONTINUOUS
 10
-49.1483367983
 20
-23.8443375673
 40
0.25
100
AcDbArc
 50
120.0
 51
180.0
  0
ARC
  5
594
100
AcDbEntity
  8
SUPERFICI
100
AcDbCircle
 62
7
  6
CONTINUOUS
 10
34.6756748818
 20
-7.79
 40
90.0
100
AcDbArc
 50
181.08868532
 51
188.5758796048
  0
ARC
  5
595
100
AcDbEntity
  8
RACCORDO
100
AcDbCircle
 62
7
  6
CONTINUOUS
 10
34.6756748818
 20
-7.79
 40
90.0
100
AcDbArc
 50
181.0886087502
 51
188.5022264273
  0
ARC
  5
596
100
AcDbEntity
  8
SUPERFICI
100
AcDbCircle
 62
253
  6
CONTINUOUS
 10
34.667049078
 20
-7.7899915123
 40
89.5001005425
100
AcDbArc
 50
181.0886895315
 51
188.5758753933
  0
ARC
  5
597
100
AcDbEntity
  8
ASSI
100
AcDbCircle
 62
7
  6
CONTINUOUS
 10
-28.9983367983
 20
-5.0
 40
2.1
100
AcDbArc
 50
90.0
 51
270.0
  0
ARC
  5
598
100
AcDbEntity
  8
ASSI
100
AcDbCircle
 62
7
  6
CONTINUOUS
 10
-28.9983367983
 20
-10.0
 40
2.1
100
AcDbArc
 50
90.0
 51
270.0
  0
CIRCLE
  5
599
100
AcDbEntity
  8
0
100
AcDbCircle
 62
7
  6
CONTINUOUS
 10
-28.7983367983
 20
-9.988
 40
2.0
  0
CIRCLE
  5
59A
100
AcDbEntity
  8
0
100
AcDbCircle
 62
7
  6
CONTINUOUS
 10
-28.7983367983
 20
-4.988
 40
2.0
  0
ARC
  5
59B
100
AcDbEntity
  8
0
100
AcDbCircle
 62
7
  6
CONTINUOUS
 10
-56.0183367983
 20
-3.15
 40
1.0
100
AcDbArc
 50
180.0013896403
 51
270.0
  0
ARC
  5
59C
100
AcDbEntity
  8
0
100
AcDbCircle
 62
7
  6
CONTINUOUS
 10
-56.0183367983
 20
-11.05
 40
1.0
100
AcDbArc
 50
90.0
 51
180.0005832104
  0
ARC
  5
59D
100
AcDbEntity
  8
0
100
AcDbCircle
 62
253
  6
CONTINUOUS
 10
-56.0883770557
 20
-11.157577451
 40
0.9299597748
100
AcDbArc
 50
173.7048349026
 51
179.9849252068
  0
ARC
  5
59E
100
AcDbEntity
  8
ASSI
100
AcDbCircle
 62
253
  6
CONTINUOUS
 10
-179.1248817613
 20
18.2166167719
 40
156.6455928505
100
AcDbArc
 50
359.7414015116
 51
0.2585986644
  0
ARC
  5
59F
100
AcDbEntity
  8
SUPERFICI
100
AcDbCircle
 62
7
  6
CONTINUOUS
 10
34.6756748818
 20
7.79
 40
90.0
100
AcDbArc
 50
171.4241203952
 51
178.91131468
  0
ARC
  5
5A0
100
AcDbEntity
  8
RACCORDO
100
AcDbCircle
 62
7
  6
CONTINUOUS
 10
34.6756748818
 20
7.79
 40
90.0
100
AcDbArc
 50
171.4977735727
 51
178.9113911863
  0
ARC
  5
5A1
100
AcDbEntity
  8
SUPERFICI
100
AcDbCircle
 62
253
  6
CONTINUOUS
 10
34.667049078
 20
7.7899915123
 40
89.5001005425
100
AcDbArc
 50
171.4241246067
 51
178.9113104685
  0
ARC
  5
5A2
100
AcDbEntity
  8
ASSI
100
AcDbCircle
 62
7
  6
CONTINUOUS
 10
-28.9983367983
 20
10.0
 40
2.1
100
AcDbArc
 50
90.0
 51
270.0
  0
ARC
  5
5A3
100
AcDbEntity
  8
ASSI
100
AcDbCircle
 62
7
  6
CONTINUOUS
 10
-28.9983367983
 20
5.0
 40
2.1
100
AcDbArc
 50
90.0
 51
270.0
  0
ARC
  5
5A4
100
AcDbEntity
  8
ASSI
100
AcDbCircle
 62
7
  6
CONTINUOUS
 10
-28.9983367983
 20
-0.0
 40
2.1
100
AcDbArc
 50
90.0
 51
270.0
  0
CIRCLE
  5
5A5
100
AcDbEntity
  8
0
100
AcDbCircle
 62
7
  6
CONTINUOUS
 10
-28.7983367983
 20
10.012
 40
2.0
  0
CIRCLE
  5
5A6
100
AcDbEntity
  8
0
100
AcDbCircle
 62
7
  6
CONTINUOUS
 10
-28.7983367983
 20
0.012
 40
2.0
  0
CIRCLE
  5
5A7
100
AcDbEntity
  8
0
100
AcDbCircle
 62
7
  6
CONTINUOUS
 10
-28.7983367983
 20
5.012
 40
2.0
  0
ARC
  5
5A8
100
AcDbEntity
  8
0
100
AcDbCircle
 62
7
  6
CONTINUOUS
 10
-56.0183367983
 20
11.05
 40
1.0
100
AcDbArc
 50
179.9994167896
 51
270.0
  0
ARC
  5
5A9
100
AcDbEntity
  8
0
100
AcDbCircle
 62
7
  6
CONTINUOUS
 10
-56.0183367983
 20
3.15
 40
1.0
100
AcDbArc
 50
90.0
 51
179.9986103597
  0
ARC
  5
5AA
100
AcDbEntity
  8
SUPERFICI
100
AcDbCircle
 62
7
  6
CONTINUOUS
 10
-25.7831665185
 20
15.5339267377
 40
44.7858999134
100
AcDbArc
 50
239.6711809666
 51
240.0388810573
  0
ARC
  5
5AB
100
AcDbEntity
  8
RACCORDO
100
AcDbCircle
 62
7
  6
CONTINUOUS
 10
-22.4983367983
 20
18.3943840357
 40
1.0
100
AcDbArc
 50
0.0
 51
89.0
  0
ARC
  5
5AC
100
AcDbEntity
  8
ASSI
100
AcDbCircle
 62
7
  6
CONTINUOUS
 10
-22.4983367983
 20
18.3943840357
 40
1.0
100
AcDbArc
 50
0.0
 51
89.0
  0
ARC
  5
5AD
100
AcDbEntity
  8
SUPERFICI
100
AcDbCircle
 62
7
  6
CONTINUOUS
 10
-35.8983367983
 20
21.3359869487
 40
1.0
100
AcDbArc
 50
0.0
 51
89.6666666667
  0
ARC
  5
5AE
100
AcDbEntity
  8
SUPERFICI
100
AcDbCircle
 62
7
  6
CONTINUOUS
 10
-53.3292379112
 20
21.0615984079
 40
1.0
100
AcDbArc
 50
93.0
 51
171.4241203952
  0
ARC
  5
5AF
100
AcDbEntity
  8
0
100
AcDbCircle
 62
7
  6
CONTINUOUS
 10
-56.0183367983
 20
17.35
 40
1.0
100
AcDbArc
 50
90.0
 51
180.0005832104
  0
ARC
  5
5B0
100
AcDbEntity
  8
0
100
AcDbCircle
 62
253
  6
CONTINUOUS
 10
-56.0883770557
 20
17.242422549
 40
0.9299597748
100
AcDbArc
 50
173.7048349026
 51
179.9849252068
  0
ARC
  5
5B1
100
AcDbEntity
  8
ASSI
100
AcDbCircle
 62
253
  6
CONTINUOUS
 10
-22.0041057396
 20
18.2162840827
 40
0.505769051
100
AcDbArc
 50
0.0377324299
 51
10.9860360064
  0
ARC
  5
5B2
100
AcDbEntity
  8
SUPERFICI
100
AcDbCircle
 62
253
  6
CONTINUOUS
 10
-53.3379641083
 20
21.0615984012
 40
0.500000007
100
AcDbArc
 50
93.0000006591
 51
171.4241197361
  0
ARC
  5
5B3
100
AcDbEntity
  8
SUPERFICI
100
AcDbCircle
 62
7
  6
CONTINUOUS
 10
-39.3983367983
 20
23.4563578147
 40
0.5
100
AcDbArc
 50
0.0
 51
89.6666666667
  0
ARC
  5
5B4
100
AcDbEntity
  8
SUPERFICI
100
AcDbCircle
 62
7
  6
CONTINUOUS
 10
-49.1483367983
 20
24.2369056521
 40
0.25
100
AcDbArc
 50
90.3333333333
 51
180.0
  0
ARC
  5
5B5
100
AcDbEntity
  8
SUPERFICI
100
AcDbCircle
 62
7
  6
CONTINUOUS
 10
-46.1483367983
 20
24.2456323968
 40
0.25
100
AcDbArc
 50
0.0
 51
89.6666666667
  0
ARC
  5
5B6
100
AcDbEntity
  8
SUPERFICI
100
AcDbCircle
 62
7
  6
CONTINUOUS
 10
-49.1483367983
 20
23.8443375673
 40
0.25
100
AcDbArc
 50
180.0
 51
240.0
  0
ARC
  5
5B7
100
AcDbEntity
  8
SUPERFICI
100
AcDbCircle
 62
7
  6
CONTINUOUS
 10
-46.1483367983
 20
23.8443375673
 40
0.25
100
AcDbArc
 50
300.0
 51
360.0
  0
ARC
  5
5B8
100
AcDbEntity
  8
SUPERFICI
100
AcDbCircle
 62
7
  6
CONTINUOUS
 10
444.6016632017
 20
0.0
 40
500.0
100
AcDbArc
 50
178.91131468
 51
181.08868532
  0
ARC
  5
5B9
100
AcDbEntity
  8
SUPERFICI
100
AcDbCircle
 62
253
  6
CONTINUOUS
 10
444.6382309106
 20
0.0
 40
499.5452857366
100
AcDbArc
 50
178.9114133854
 51
181.0885866146
  0
SPLINE
  5
5BA
100
AcDbEntity
  8
RACCORDO
100
AcDbSpline
 62
253
  6
CONTINUOUS
 70
0
 71
3
 72
19
 73
15
 74
13
 42
0.0000001
 43
0.0000001
 44
0.0000000001
 12
0.3580309433
 22
-0.3396997861
 32
0.0
 13
0.4914978903
 23
-0.0448544848
 33
0.0
 40
0.0
 40
0.0
 40
0.0
 40
0.0
 40
0.1934312545
 40
0.3795778462
 40
0.5509815465
 40
0.7015284179
 40
0.7672520333
 40
0.8257386197
 40
0.8764361597
 40
0.9189224598
 40
0.9527852294
 40
0.9776867301
 40
0.9934577498
 40
1.0
 40
1.0
 40
1.0
 40
1.0
 10
-4.9594561136
 20
-9.499999998
 30
0.0
 10
-4.9363713221
 20
-9.5219028499
 30
0.0
 10
-4.8910145534
 20
-9.5648240868
 30
0.0
 10
-4.8250083957
 20
-9.6269492664
 30
0.0
 10
-4.7639640173
 20
-9.6840513837
 30
0.0
 10
-4.717226972
 20
-9.7274490332
 30
0.0
 10
-4.6839803952
 20
-9.7580710827
 30
0.0
 10
-4.6627548513
 20
-9.7775039592
 30
0.0
 10
-4.6442759971
 20
-9.7942572998
 30
0.0
 10
-4.6287308402
 20
-9.8082675363
 30
0.0
 10
-4.6162218555
 20
-9.8191646591
 30
0.0
 10
-4.6069790535
 20
-9.8274642215
 30
0.0
 10
-4.6008612075
 20
-9.8318058425
 30
0.0
 10
-4.598010452
 20
-9.8346488321
 30
0.0
 10
-4.596938618
 20
-9.8347466485
 30
0.0
 11
-4.9594561136
 21
-9.499999998
 31
0.0
 11
-4.8901140512
 21
-9.5656160104
 31
0.0
 11
-4.8232087317
 21
-9.6285757822
 31
0.0
 11
-4.7614203956
 21
-9.6863551532
 31
0.0
 11
-4.7069541504
 21
-9.7368928686
 31
0.0
 11
-4.6830925429
 21
-9.7588655649
 31
0.0
 11
-4.6617945035
 21
-9.778349151
 31
0.0
 11
-4.6432611689
 21
-9.7951592701
 31
0.0
 11
-4.6276476211
 21
-9.8091558301
 31
0.0
 11
-4.6151057436
 21
-9.8202018148
 31
0.0
 11
-4.605761916
 21
-9.8281851994
 31
0.0
 11
-4.599685615
 21
-9.8330497178
 31
0.0
 11
-4.596938618
 21
-9.8347466485
 31
0.0
  0
SPLINE
  5
5BB
100
AcDbEntity
  8
RACCORDO
100
AcDbSpline
 62
253
  6
CONTINUOUS
 70
0
 71
3
 72
19
 73
15
 74
13
 42
0.0000001
 43
0.0000001
 44
0.0000000001
 12
0.3580312014
 22
0.3397000569
 32
0.0
 13
0.491498105
 23
0.0448562441
 33
0.0
 40
0.0
 40
0.0
 40
0.0
 40
0.0
 40
0.1934311932
 40
0.3795777507
 40
0.5509814394
 40
0.7015283168
 40
0.7672519402
 40
0.825738537
 40
0.8764360893
 40
0.918922403
 40
0.9527851868
 40
0.977686702
 40
0.993457736
 40
1.0
 40
1.0
 40
1.0
 40
1.0
 10
-4.9594561136
 20
9.499999996
 30
0.0
 10
-4.9363713127
 20
9.5219028585
 30
0.0
 10
-4.8910145226
 20
9.5648241186
 30
0.0
 10
-4.8250083293
 20
9.6269493349
 30
0.0
 10
-4.7639639106
 20
9.6840514921
 30
0.0
 10
-4.7172268302
 20
9.7274491753
 30
0.0
 10
-4.6839802255
 20
9.758071251
 30
0.0
 10
-4.6627546619
 20
9.7775041457
 30
0.0
 10
-4.6442757893
 20
9.7942575031
 30
0.0
 10
-4.6287306158
 20
9.8082677541
 30
0.0
 10
-4.6162216162
 20
9.819164891
 30
0.0
 10
-4.6069788019
 20
9.8274644614
 30
0.0
 10
-4.6008609457
 20
9.8318060953
 30
0.0
 10
-4.5980101848
 20
9.8346490843
 30
0.0
 10
-4.596938348
 20
9.8347469048
 30
0.0
 11
-4.9594561136
 21
9.499999996
 31
0.0
 11
-4.8901140229
 21
9.5656160397
 31
0.0
 11
-4.8232086667
 21
9.6285758493
 31
0.0
 11
-4.7614202891
 21
9.6863552613
 31
0.0
 11
-4.7069540011
 21
9.7368930177
 31
0.0
 11
-4.6830923729
 21
9.7588657335
 31
0.0
 11
-4.6617943136
 21
9.7783493379
 31
0.0
 11
-4.6432609605
 21
9.7951594739
 31
0.0
 11
-4.6276473959
 21
9.8091560489
 31
0.0
 11
-4.6151055036
 21
9.8202020466
 31
0.0
 11
-4.6057616635
 21
9.8281854418
 31
0.0
 11
-4.5996853525
 21
9.8330499684
 31
0.0
 11
-4.596938348
 21
9.8347469048
 31
0.0
  0
SPLINE
  5
5BC
100
AcDbEntity
  8
SUPERFICI
100
AcDbSpline
 62
253
  6
CONTINUOUS
 70
0
 71
3
 72
16
 73
12
 74
10
 42
0.0000001
 43
0.0000001
 44
0.0000000001
 12
0.139523297
 22
0.8380727803
 32
0.0
 13
0.0011185081
 23
0.8496066645
 33
0.0
 40
0.0
 40
0.0
 40
0.0
 40
0.0
 40
0.009601358
 40
0.0277102069
 40
0.0542061278
 40
0.0888989849
 40
0.1818074634
 40
0.303729011
 40
0.4511062006
 40
0.619636461
 40
1.0
 40
1.0
 40
1.0
 40
1.0
 10
-10.5372152757
 20
-22.0602279426
 30
0.0
 10
-10.536768738
 20
-22.0575457304
 30
0.0
 10
-10.5363319303
 20
-22.0496893845
 30
0.0
 10
-10.5355793354
 20
-22.0343706932
 30
0.0
 10
-10.5349344843
 20
-22.0119146991
 30
0.0
 10
-10.5339076574
 20
-21.9682900797
 30
0.0
 10
-10.5328195065
 20
-21.8976292022
 30
0.0
 10
-10.5316767439
 20
-21.7950589049
 30
0.0
 10
-10.5307015107
 20
-21.6710677772
 30
0.0
 10
-10.529602632
 20
-21.4738853043
 30
0.0
 10
-10.5291839007
 20
-21.3184372904
 30
0.0
 10
-10.5290420874
 20
-21.2107174911
 30
0.0
 11
-10.5372152757
 21
-22.0602279426
 31
0.0
 11
-10.5364722901
 21
-22.0521044644
 31
0.0
 11
-10.5357380686
 21
-22.0367365815
 31
0.0
 11
-10.535017991
 21
-22.0142369708
 31
0.0
 11
-10.5343172961
 21
-21.9847699923
 31
0.0
 11
-10.5329944852
 21
-21.9058453461
 31
0.0
 11
-10.5318082566
 21
-21.8022666894
 31
0.0
 11
-10.5307932627
 21
-21.6770580523
 31
0.0
 11
-10.5299791458
 21
-21.5338758103
 31
0.0
 11
-10.5290420874
 21
-21.2107174911
 31
0.0
  0
SPLINE
  5
5BD
100
AcDbEntity
  8
SUPERFICI
100
AcDbSpline
 62
253
  6
CONTINUOUS
 70
0
 71
3
 72
16
 73
12
 74
10
 42
0.0000001
 43
0.0000001
 44
0.0000000001
 12
0.1342429107
 22
0.4031875107
 32
0.0
 13
0.001118725
 23
0.4249471453
 33
0.0
 40
0.0
 40
0.0
 40
0.0
 40
0.0
 40
0.0097160279
 40
0.0278789507
 40
0.0544042565
 40
0.0891118838
 40
0.1820218654
 40
0.3039209818
 40
0.4512606386
 40
0.6197440616
 40
1.0
 40
1.0
 40
1.0
 40
1.0
 10
-11.0371391233
 20
-21.5609131753
 30
0.0
 10
-11.036704354
 20
-21.5596073816
 30
0.0
 10
-11.0362490311
 20
-21.5556463703
 30
0.0
 10
-11.0355080809
 20
-21.5480011999
 30
0.0
 10
-11.0348568418
 20
-21.5367593636
 30
0.0
 10
-11.0338334113
 20
-21.5149562163
 30
0.0
 10
-11.032742832
 20
-21.479622272
 30
0.0
 10
-11.0316010674
 20
-21.4283390931
 30
0.0
 10
-11.0306254005
 20
-21.366342314
 30
0.0
 10
-11.0295266135
 20
-21.2677493695
 30
0.0
 10
-11.0291077356
 20
-21.1900208414
 30
0.0
 10
-11.028965935
 20
-21.1361579495
 30
0.0
 11
-11.0371391233
 21
-21.5609131753
 31
0.0
 11
-11.0363961728
 21
-21.556851757
 31
0.0
 11
-11.0356619591
 21
-21.5491684489
 31
0.0
 11
-11.0349419156
 21
-21.5379195784
 31
0.0
 11
-11.0342412605
 21
-21.523187272
 31
0.0
 11
-11.0329184836
 21
-21.4837274687
 31
0.0
 11
-11.0317322592
 21
-21.4319401915
 31
0.0
 11
-11.030717238
 21
-21.369336636
 31
0.0
 11
-11.0299030749
 21
-21.2977444675
 31
0.0
 11
-11.028965935
 21
-21.1361579495
 31
0.0
  0
SPLINE
  5
5BE
100
AcDbEntity
  8
SUPERFICI
100
AcDbSpline
 62
253
  6
CONTINUOUS
 70
0
 71
3
 72
14
 73
10
 74
8
 42
0.0000001
 43
0.0000001
 44
0.0000000001
 12
0.0590598454
 22
-0.5104101856
 32
0.0
 13
0.5138140462
 23
-0.0013224449
 33
0.0
 40
0.0
 40
0.0
 40
0.0
 40
0.0
 40
0.0353257676
 40
0.0631908656
 40
0.0987762325
 40
0.1930298895
 40
0.3160943163
 40
0.631302526
 40
1.0
 40
1.0
 40
1.0
 40
1.0
 10
-11.028965935
 20
-21.1361579495
 30
0.0
 10
-11.0282704902
 20
-21.14216816
 30
0.0
 10
-11.0190143858
 20
-21.1506616097
 30
0.0
 10
-11.0044569989
 20
-21.1583562474
 30
0.0
 10
-10.9790689248
 20
-21.1683050914
 30
0.0
 10
-10.9370936628
 20
-21.1789027365
 30
0.0
 10
-10.8471360599
 20
-21.1945681737
 30
0.0
 10
-10.7093270073
 20
-21.2069705679
 30
0.0
 10
-10.5921894011
 20
-21.2105549634
 30
0.0
 10
-10.5290420874
 20
-21.2107174908
 30
0.0
 11
-11.028965935
 21
-21.1361579495
 31
0.0
 11
-11.0179038061
 21
-21.1505484245
 31
0.0
 11
-11.0054282661
 21
-21.1575735549
 31
0.0
 11
-10.98846502
 21
-21.164397389
 31
0.0
 11
-10.9417547843
 21
-21.1771850079
 31
0.0
 11
-10.8795303294
 21
-21.1884303961
 31
0.0
 11
-10.7183883326
 21
-21.2046771116
 31
0.0
 11
-10.5290420874
 21
-21.2107174908
 31
0.0
  0
SPLINE
  5
5BF
100
AcDbEntity
  8
SUPERFICI
100
AcDbSpline
 62
253
  6
CONTINUOUS
 70
0
 71
3
 72
20
 73
16
 74
14
 42
0.0000001
 43
0.0000001
 44
0.0000000001
 12
0.3383396786
 22
-0.3684645928
 32
0.0
 13
0.5002398092
 23
-0.0001658727
 33
0.0
 40
0.0
 40
0.0
 40
0.0
 40
0.0
 40
0.0022237002
 40
0.0066923435
 40
0.0225464213
 40
0.0475617911
 40
0.081526067
 40
0.1241283164
 40
0.1749704824
 40
0.2335757222
 40
0.2993941449
 40
0.4501338365
 40
0.6215283848
 40
0.8071378708
 40
1.0
 40
1.0
 40
1.0
 40
1.0
 10
-11.0117810505
 20
-9.4905
 30
0.0
 10
-11.0115302618
 20
-9.4907731183
 30
0.0
 10
-11.0103683076
 20
-9.4910675803
 30
0.0
 10
-11.0067757922
 20
-9.4918182352
 30
0.0
 10
-10.9991438878
 20
-9.4924855071
 30
0.0
 10
-10.9867522385
 20
-9.4933760163
 30
0.0
 10
-10.9698087987
 20
-9.4941905942
 30
0.0
 10
-10.9485886099
 20
-9.4950126131
 30
0.0
 10
-10.9232433119
 20
-9.495788028
 30
0.0
 10
-10.8940284976
 20
-9.4965220558
 30
0.0
 10
-10.8481551994
 20
-9.4974706819
 30
0.0
 10
-10.7834726776
 20
-9.4984541569
 30
0.0
 10
-10.6988121235
 20
-9.4993117315
 30
0.0
 10
-10.6071251948
 20
-9.4998537495
 30
0.0
 10
-10.5440163078
 20
-9.4999893365
 30
0.0
 10
-10.5118572029
 20
-9.5
 30
0.0
 11
-11.0117810505
 21
-9.4905
 31
0.0
 11
-11.0107686401
 21
-9.4909608926
 31
0.0
 11
-11.0085810936
 21
-9.4914209188
 31
0.0
 11
-11.0007029134
 21
-9.4923333439
 31
0.0
 11
-10.9882212762
 21
-9.4932283497
 31
0.0
 11
-10.9712532491
 21
-9.4940977165
 31
0.0
 11
-10.9499582897
 21
-9.4949331894
 31
0.0
 11
-10.924537401
 21
-9.4957269066
 31
0.0
 11
-10.8952301802
 21
-9.4964714035
 31
0.0
 11
-10.8623123776
 21
-9.4971596626
 31
0.0
 11
-10.7869156506
 21
-9.4983421182
 31
0.0
 11
-10.7011818657
 21
-9.4992298545
 31
0.0
 11
-10.6083342933
 21
-9.4997894833
 31
0.0
 11
-10.5118572029
 21
-9.5
 31
0.0
  0
SPLINE
  5
5C0
100
AcDbEntity
  8
SUPERFICI
100
AcDbSpline
 62
253
  6
CONTINUOUS
 70
0
 71
3
 72
9
 73
5
 74
3
 42
0.0000001
 43
0.0000001
 44
0.0000000001
 12
0.0062961108
 22
18.9809991515
 32
0.0
 13
-0.0062961109
 23
18.9809991515
 33
0.0
 40
0.0
 40
0.0
 40
0.0
 40
0.0
 40
0.2499887187
 40
1.0
 40
1.0
 40
1.0
 40
1.0
 10
-11.0117810505
 20
-9.4905
 30
0.0
 10
-11.0112563983
 20
-7.9088214473
 30
0.0
 10
-11.0096825586
 20
-1.5818215669
 30
0.0
 10
-11.0102069991
 20
4.7451788356
 30
0.0
 10
-11.0117810505
 20
9.4905
 30
0.0
 11
-11.0117810505
 21
-9.4905
 31
0.0
 11
-11.0106006446
 21
-4.7454642276
 31
0.0
 11
-11.0117810505
 21
9.4905
 31
0.0
  0
SPLINE
  5
5C1
100
AcDbEntity
  8
SUPERFICI
100
AcDbSpline
 62
253
  6
CONTINUOUS
 70
0
 71
3
 72
20
 73
16
 74
14
 42
0.0000001
 43
0.0000001
 44
0.0000000001
 12
0.3383397252
 22
0.3684645499
 32
0.0
 13
0.5002398092
 23
0.0001658727
 33
0.0
 40
0.0
 40
0.0
 40
0.0
 40
0.0
 40
0.0022237004
 40
0.0066923438
 40
0.022546422
 40
0.0475617921
 40
0.0815260682
 40
0.1241283178
 40
0.1749704839
 40
0.2335757237
 40
0.2993941464
 40
0.4501338378
 40
0.6215283858
 40
0.8071378713
 40
1.0
 40
1.0
 40
1.0
 40
1.0
 10
-11.0117810505
 20
9.4905
 30
0.0
 10
-11.0115302618
 20
9.4907731183
 30
0.0
 10
-11.0103683076
 20
9.4910675803
 30
0.0
 10
-11.0067757919
 20
9.4918182352
 30
0.0
 10
-10.9991438874
 20
9.4924855071
 30
0.0
 10
-10.986752238
 20
9.4933760163
 30
0.0
 10
-10.9698087981
 20
9.4941905942
 30
0.0
 10
-10.9485886092
 20
9.495012613
 30
0.0
 10
-10.9232433111
 20
9.495788028
 30
0.0
 10
-10.8940284968
 20
9.4965220558
 30
0.0
 10
-10.8481551987
 20
9.4974706818
 30
0.0
 10
-10.7834726769
 20
9.4984541568
 30
0.0
 10
-10.698812123
 20
9.4993117314
 30
0.0
 10
-10.6071251945
 20
9.4998537495
 30
0.0
 10
-10.5440163077
 20
9.4999893364
 30
0.0
 10
-10.5118572029
 20
9.5
 30
0.0
 11
-11.0117810505
 21
9.4905
 31
0.0
 11
-11.01076864
 21
9.4909608926
 31
0.0
 11
-11.0085810934
 21
9.4914209188
 31
0.0
 11
-11.000702913
 21
9.4923333439
 31
0.0
 11
-10.9882212757
 21
9.4932283497
 31
0.0
 11
-10.9712532485
 21
9.4940977165
 31
0.0
 11
-10.949958289
 21
9.4949331894
 31
0.0
 11
-10.9245374002
 21
9.4957269066
 31
0.0
 11
-10.8952301794
 21
9.4964714035
 31
0.0
 11
-10.8623123768
 21
9.4971596626
 31
0.0
 11
-10.7869156499
 21
9.4983421181
 31
0.0
 11
-10.7011818652
 21
9.4992298544
 31
0.0
 11
-10.608334293
 21
9.4997894833
 31
0.0
 11
-10.5118572029
 21
9.5
 31
0.0
  0
SPLINE
  5
5C2
100
AcDbEntity
  8
SUPERFICI
100
AcDbSpline
 62
253
  6
CONTINUOUS
 70
0
 71
3
 72
14
 73
10
 74
8
 42
0.0000001
 43
0.0000001
 44
0.0000000001
 12
0.0590608844
 22
0.5104100422
 32
0.0
 13
0.5138140232
 23
0.0013224434
 33
0.0
 40
0.0
 40
0.0
 40
0.0
 40
0.0
 40
0.0353257947
 40
0.0631909114
 40
0.0987762962
 40
0.1930299817
 40
0.3160944223
 40
0.6313026063
 40
1.0
 40
1.0
 40
1.0
 40
1.0
 10
-11.028965935
 20
21.1361579495
 30
0.0
 10
-11.0282704775
 20
21.142168163
 30
0.0
 10
-11.0190143588
 20
21.1506616031
 30
0.0
 10
-11.0044569596
 20
21.15835624
 30
0.0
 10
-10.9790688731
 20
21.1683050785
 30
0.0
 10
-10.9370936015
 20
21.1789027194
 30
0.0
 10
-10.8471359982
 20
21.1945681469
 30
0.0
 10
-10.7093269674
 20
21.2069705338
 30
0.0
 10
-10.5921893845
 20
21.2105549267
 30
0.0
 10
-10.5290420874
 20
21.2107174539
 30
0.0
 11
-11.028965935
 21
21.1361579495
 31
0.0
 11
-11.0179037788
 21
21.15054842
 31
0.0
 11
-11.005428227
 21
21.1575735479
 31
0.0
 11
-10.9884649708
 21
21.1643973792
 31
0.0
 11
-10.9417547205
 21
21.1771849923
 31
0.0
 11
-10.8795302603
 21
21.1884303744
 31
0.0
 11
-10.7183882829
 21
21.2046770794
 31
0.0
 11
-10.5290420874
 21
21.2107174539
 31
0.0
  0
SPLINE
  5
5C3
100
AcDbEntity
  8
SUPERFICI
100
AcDbSpline
 62
253
  6
CONTINUOUS
 70
0
 71
3
 72
16
 73
12
 74
10
 42
0.0000001
 43
0.0000001
 44
0.0000000001
 12
-0.0011185081
 22
0.8496066645
 32
0.0
 13
-0.1395232964
 23
0.8380727804
 33
0.0
 40
0.0
 40
0.0
 40
0.0
 40
0.0
 40
0.380363539
 40
0.5488937994
 40
0.696270989
 40
0.8181925366
 40
0.9111010151
 40
0.9457938722
 40
0.9722897931
 40
0.990398642
 40
1.0
 40
1.0
 40
1.0
 40
1.0
 10
-10.5290420874
 20
21.2107174911
 30
0.0
 10
-10.5291839007
 20
21.3184372904
 30
0.0
 10
-10.529602632
 20
21.4738853043
 30
0.0
 10
-10.5307015107
 20
21.6710677772
 30
0.0
 10
-10.5316767439
 20
21.7950589049
 30
0.0
 10
-10.5328195065
 20
21.8976292022
 30
0.0
 10
-10.5339076574
 20
21.9682900797
 30
0.0
 10
-10.5349344843
 20
22.0119146991
 30
0.0
 10
-10.5355793354
 20
22.0343706932
 30
0.0
 10
-10.5363319303
 20
22.0496893845
 30
0.0
 10
-10.536768738
 20
22.0575457304
 30
0.0
 10
-10.5372152757
 20
22.0602279426
 30
0.0
 11
-10.5290420874
 21
21.2107174911
 31
0.0
 11
-10.5299791458
 21
21.5338758103
 31
0.0
 11
-10.5307932627
 21
21.6770580523
 31
0.0
 11
-10.5318082566
 21
21.8022666894
 31
0.0
 11
-10.5329944852
 21
21.9058453461
 31
0.0
 11
-10.5343172961
 21
21.9847699923
 31
0.0
 11
-10.535017991
 21
22.0142369708
 31
0.0
 11
-10.5357380686
 21
22.0367365815
 31
0.0
 11
-10.5364722901
 21
22.0521044644
 31
0.0
 11
-10.5372152757
 21
22.0602279426
 31
0.0
  0
SPLINE
  5
5C4
100
AcDbEntity
  8
SUPERFICI
100
AcDbSpline
 62
253
  6
CONTINUOUS
 70
0
 71
3
 72
16
 73
12
 74
10
 42
0.0000001
 43
0.0000001
 44
0.0000000001
 12
-0.001118725
 22
0.4249471453
 32
0.0
 13
-0.134242911
 23
0.4031875106
 33
0.0
 40
0.0
 40
0.0
 40
0.0
 40
0.0
 40
0.3802559384
 40
0.5487393614
 40
0.6960790182
 40
0.8179781346
 40
0.9108881162
 40
0.9455957435
 40
0.9721210493
 40
0.9902839721
 40
1.0
 40
1.0
 40
1.0
 40
1.0
 10
-11.028965935
 20
21.1361579495
 30
0.0
 10
-11.0291077356
 20
21.1900208414
 30
0.0
 10
-11.0295266135
 20
21.2677493695
 30
0.0
 10
-11.0306254005
 20
21.366342314
 30
0.0
 10
-11.0316010674
 20
21.4283390931
 30
0.0
 10
-11.032742832
 20
21.479622272
 30
0.0
 10
-11.0338334113
 20
21.5149562163
 30
0.0
 10
-11.0348568418
 20
21.5367593636
 30
0.0
 10
-11.0355080809
 20
21.5480011999
 30
0.0
 10
-11.0362490311
 20
21.5556463703
 30
0.0
 10
-11.036704354
 20
21.5596073816
 30
0.0
 10
-11.0371391233
 20
21.5609131753
 30
0.0
 11
-11.028965935
 21
21.1361579495
 31
0.0
 11
-11.0299030749
 21
21.2977444675
 31
0.0
 11
-11.030717238
 21
21.369336636
 31
0.0
 11
-11.0317322592
 21
21.4319401915
 31
0.0
 11
-11.0329184836
 21
21.4837274687
 31
0.0
 11
-11.0342412605
 21
21.523187272
 31
0.0
 11
-11.0349419156
 21
21.5379195784
 31
0.0
 11
-11.0356619591
 21
21.5491684489
 31
0.0
 11
-11.0363961728
 21
21.556851757
 31
0.0
 11
-11.0371391233
 21
21.5609131753
 31
0.0
  0
SPLINE
  5
5C5
100
AcDbEntity
  8
RACCORDO
100
AcDbSpline
 62
253
  6
CONTINUOUS
 70
0
 71
3
 72
23
 73
19
 74
17
 42
0.0000001
 43
0.0000001
 44
0.0000000001
 12
10.1475753235
 22
-10.6918966687
 32
0.0
 13
-14.7407577593
 23
-0.0000345746
 33
0.0
 40
0.0
 40
0.0
 40
0.0
 40
0.0
 40
0.062654001
 40
0.1252889183
 40
0.1878962798
 40
0.2504631943
 40
0.3129786722
 40
0.3754379718
 40
0.4378401378
 40
0.5002012365
 40
0.5625373397
 40
0.6248765824
 40
0.6872466484
 40
0.749671722
 40
0.8121675704
 40
0.8747332735
 40
0.9373525288
 40
1.0
 40
1.0
 40
1.0
 40
1.0
 10
4.5969392244
 20
-9.8347460726
 30
0.0
 10
4.8088679559
 20
-10.058042774
 30
0.0
 10
5.2006435377
 20
-10.5362592897
 30
0.0
 10
5.677151547
 20
-11.3306824632
 30
0.0
 10
6.032994291
 20
-12.1857318715
 30
0.0
 10
6.2605472966
 20
-13.0828185353
 30
0.0
 10
6.3552470071
 20
-14.0027319265
 30
0.0
 10
6.315392801
 20
-14.9258255505
 30
0.0
 10
6.1421886781
 20
-15.8326187312
 30
0.0
 10
5.8395740866
 20
-16.7041499368
 30
0.0
 10
5.414064597
 20
-17.5223819385
 30
0.0
 10
4.8745472383
 20
-18.270420978
 30
0.0
 10
4.2321115503
 20
-18.9327861247
 30
0.0
 10
3.4999012141
 20
-19.4955985595
 30
0.0
 10
2.6930192276
 20
-19.9468201249
 30
0.0
 10
1.8282678419
 20
-20.2765759736
 30
0.0
 10
0.9242745926
 20
-20.4774740387
 30
0.0
 10
0.3078237325
 20
-20.5224573501
 30
0.0
 10
-0.0
 20
-20.5224580721
 30
0.0
 11
4.5969392244
 21
-9.8347460726
 31
0.0
 11
5.1821873587
 21
-10.5492119277
 31
0.0
 11
5.6571327278
 21
-11.3409721188
 31
0.0
 11
6.0117050697
 21
-12.1930201537
 31
0.0
 11
6.2384695061
 21
-13.0869917252
 31
0.0
 11
6.3328332308
 21
-14.0036731114
 31
0.0
 11
6.2931215655
 21
-14.9235136937
 31
0.0
 11
6.1205438085
 21
-15.827034878
 31
0.0
 11
5.8190249687
 21
-16.6954280348
 31
0.0
 11
5.3950780747
 21
-17.5106654554
 31
0.0
 11
4.8575407546
 21
-18.2559719034
 31
0.0
 11
4.2174484622
 21
-18.9159303734
 31
0.0
 11
3.4878809649
 21
-19.476721082
 31
0.0
 11
2.6838293347
 21
-19.9263620973
 31
0.0
 11
1.8220980855
 21
-20.2549858885
 31
0.0
 11
0.9210190162
 21
-20.455204638
 31
0.0
 11
-0.0
 21
-20.5224580721
 31
0.0
  0
SPLINE
  5
5C6
100
AcDbEntity
  8
RACCORDO
100
AcDbSpline
 62
253
  6
CONTINUOUS
 70
0
 71
3
 72
23
 73
19
 74
17
 42
0.0000001
 43
0.0000001
 44
0.0000000001
 12
-14.7407577141
 22
0.0000327653
 32
0.0
 13
10.1475699117
 23
10.6919017427
 33
0.0
 40
0.0
 40
0.0
 40
0.0
 40
0.0
 40
0.0626473306
 40
0.1252662989
 40
0.1878322224
 40
0.2503284189
 40
0.3127537208
 40
0.3751239742
 40
0.4374633809
 40
0.4997999563
 40
0.5621615975
 40
0.6245635707
 40
0.6870224353
 40
0.7495374931
 40
0.8121036753
 40
0.874710492
 40
0.9373453494
 40
1.0
 40
1.0
 40
1.0
 40
1.0
 10
-0.0
 20
-20.5224580721
 30
0.0
 10
-0.3078230408
 20
-20.5224573879
 30
0.0
 10
-0.9242717905
 20
-20.4774742623
 30
0.0
 10
-1.8282641472
 20
-20.2765770691
 30
0.0
 10
-2.6930170688
 20
-19.9468212947
 30
0.0
 10
-3.4999026008
 20
-19.4955979366
 30
0.0
 10
-4.2321155038
 20
-18.9327826457
 30
0.0
 10
-4.874552675
 20
-18.270414916
 30
0.0
 10
-5.4140710222
 20
-17.5223715751
 30
0.0
 10
-5.8395816813
 20
-16.7041335725
 30
0.0
 10
-6.1421941631
 20
-15.8325972652
 30
0.0
 10
-6.3153949312
 20
-14.9258039476
 30
0.0
 10
-6.355246473
 20
-14.002715392
 30
0.0
 10
-6.2605451559
 20
-13.0828100864
 30
0.0
 10
-6.0329939385
 20
-12.1857316958
 30
0.0
 10
-5.6771541299
 20
-11.3306882707
 30
0.0
 10
-5.2006474335
 20
-10.5362640525
 30
0.0
 10
-4.8088700401
 20
-10.0580451951
 30
0.0
 10
-4.5969392244
 20
-9.8347460726
 30
0.0
 11
-0.0
 21
-20.5224580721
 31
0.0
 11
-0.9210169572
 21
-20.4552049333
 31
0.0
 11
-1.8220920271
 21
-20.2549876992
 31
0.0
 11
-2.6838265436
 21
-19.9263633667
 31
0.0
 11
-3.4878826973
 21
-19.4767199344
 31
0.0
 11
-4.2174525014
 21
-18.9159267099
 31
0.0
 11
-4.85754607
 21
-18.2559656334
 31
0.0
 11
-5.395083587
 21
-17.51065635
 31
0.0
 11
-5.8190319391
 21
-16.6954118447
 31
0.0
 11
-6.1205501963
 21
-15.827010023
 31
0.0
 11
-6.2931240856
 21
-14.9234909972
 31
0.0
 11
-6.3328328589
 21
-14.0036567108
 31
0.0
 11
-6.2384676583
 21
-13.0869817054
 31
0.0
 11
-6.0117053385
 21
-12.193020737
 31
0.0
 11
-5.6571366521
 21
-11.3409798806
 31
0.0
 11
-5.1821929463
 21
-10.5492197248
 31
0.0
 11
-4.5969392244
 21
-9.8347460726
 31
0.0
  0
SPLINE
  5
5C7
100
AcDbEntity
  8
SUPERFICI
100
AcDbSpline
 62
253
  6
CONTINUOUS
 70
0
 71
3
 72
14
 73
10
 74
8
 42
0.0000001
 43
0.0000001
 44
0.0000000001
 12
-0.0590608844
 22
-0.5104100422
 32
0.0
 13
-0.5138140232
 23
-0.0013224434
 33
0.0
 40
0.0
 40
0.0
 40
0.0
 40
0.0
 40
0.0353257947
 40
0.0631909114
 40
0.0987762962
 40
0.1930299817
 40
0.3160944223
 40
0.6313026063
 40
1.0
 40
1.0
 40
1.0
 40
1.0
 10
11.028965935
 20
-21.1361579495
 30
0.0
 10
11.0282704775
 20
-21.142168163
 30
0.0
 10
11.0190143588
 20
-21.1506616031
 30
0.0
 10
11.0044569596
 20
-21.15835624
 30
0.0
 10
10.9790688731
 20
-21.1683050785
 30
0.0
 10
10.9370936015
 20
-21.1789027194
 30
0.0
 10
10.8471359982
 20
-21.1945681469
 30
0.0
 10
10.7093269674
 20
-21.2069705338
 30
0.0
 10
10.5921893845
 20
-21.2105549267
 30
0.0
 10
10.5290420874
 20
-21.2107174539
 30
0.0
 11
11.028965935
 21
-21.1361579495
 31
0.0
 11
11.0179037788
 21
-21.15054842
 31
0.0
 11
11.005428227
 21
-21.1575735479
 31
0.0
 11
10.9884649708
 21
-21.1643973792
 31
0.0
 11
10.9417547205
 21
-21.1771849923
 31
0.0
 11
10.8795302603
 21
-21.1884303744
 31
0.0
 11
10.7183882829
 21
-21.2046770794
 31
0.0
 11
10.5290420874
 21
-21.2107174539
 31
0.0
  0
SPLINE
  5
5C8
100
AcDbEntity
  8
SUPERFICI
100
AcDbSpline
 62
253
  6
CONTINUOUS
 70
0
 71
3
 72
16
 73
12
 74
10
 42
0.0000001
 43
0.0000001
 44
0.0000000001
 12
0.0011185081
 22
-0.8496066645
 32
0.0
 13
0.1395232964
 23
-0.8380727804
 33
0.0
 40
0.0
 40
0.0
 40
0.0
 40
0.0
 40
0.380363539
 40
0.5488937994
 40
0.696270989
 40
0.8181925366
 40
0.9111010151
 40
0.9457938722
 40
0.9722897931
 40
0.990398642
 40
1.0
 40
1.0
 40
1.0
 40
1.0
 10
10.5290420874
 20
-21.2107174911
 30
0.0
 10
10.5291839007
 20
-21.3184372904
 30
0.0
 10
10.529602632
 20
-21.4738853043
 30
0.0
 10
10.5307015107
 20
-21.6710677772
 30
0.0
 10
10.5316767439
 20
-21.7950589049
 30
0.0
 10
10.5328195065
 20
-21.8976292022
 30
0.0
 10
10.5339076574
 20
-21.9682900797
 30
0.0
 10
10.5349344843
 20
-22.0119146991
 30
0.0
 10
10.5355793354
 20
-22.0343706932
 30
0.0
 10
10.5363319303
 20
-22.0496893845
 30
0.0
 10
10.536768738
 20
-22.0575457304
 30
0.0
 10
10.5372152757
 20
-22.0602279426
 30
0.0
 11
10.5290420874
 21
-21.2107174911
 31
0.0
 11
10.5299791458
 21
-21.5338758103
 31
0.0
 11
10.5307932627
 21
-21.6770580523
 31
0.0
 11
10.5318082566
 21
-21.8022666894
 31
0.0
 11
10.5329944852
 21
-21.9058453461
 31
0.0
 11
10.5343172961
 21
-21.9847699923
 31
0.0
 11
10.535017991
 21
-22.0142369708
 31
0.0
 11
10.5357380686
 21
-22.0367365815
 31
0.0
 11
10.5364722901
 21
-22.0521044644
 31
0.0
 11
10.5372152757
 21
-22.0602279426
 31
0.0
  0
SPLINE
  5
5C9
100
AcDbEntity
  8
SUPERFICI
100
AcDbSpline
 62
253
  6
CONTINUOUS
 70
0
 71
3
 72
16
 73
12
 74
10
 42
0.0000001
 43
0.0000001
 44
0.0000000001
 12
0.001118725
 22
-0.4249471453
 32
0.0
 13
0.134242911
 23
-0.4031875106
 33
0.0
 40
0.0
 40
0.0
 40
0.0
 40
0.0
 40
0.3802559384
 40
0.5487393614
 40
0.6960790182
 40
0.8179781346
 40
0.9108881162
 40
0.9455957435
 40
0.9721210493
 40
0.9902839721
 40
1.0
 40
1.0
 40
1.0
 40
1.0
 10
11.028965935
 20
-21.1361579495
 30
0.0
 10
11.0291077356
 20
-21.1900208414
 30
0.0
 10
11.0295266135
 20
-21.2677493695
 30
0.0
 10
11.0306254005
 20
-21.366342314
 30
0.0
 10
11.0316010674
 20
-21.4283390931
 30
0.0
 10
11.032742832
 20
-21.479622272
 30
0.0
 10
11.0338334113
 20
-21.5149562163
 30
0.0
 10
11.0348568418
 20
-21.5367593636
 30
0.0
 10
11.0355080809
 20
-21.5480011999
 30
0.0
 10
11.0362490311
 20
-21.5556463703
 30
0.0
 10
11.036704354
 20
-21.5596073816
 30
0.0
 10
11.0371391233
 20
-21.5609131753
 30
0.0
 11
11.028965935
 21
-21.1361579495
 31
0.0
 11
11.0299030749
 21
-21.2977444675
 31
0.0
 11
11.030717238
 21
-21.369336636
 31
0.0
 11
11.0317322592
 21
-21.4319401915
 31
0.0
 11
11.0329184836
 21
-21.4837274687
 31
0.0
 11
11.0342412605
 21
-21.523187272
 31
0.0
 11
11.0349419156
 21
-21.5379195784
 31
0.0
 11
11.0356619591
 21
-21.5491684489
 31
0.0
 11
11.0363961728
 21
-21.556851757
 31
0.0
 11
11.0371391233
 21
-21.5609131753
 31
0.0
  0
SPLINE
  5
5CA
100
AcDbEntity
  8
SUPERFICI
100
AcDbSpline
 62
253
  6
CONTINUOUS
 70
0
 71
3
 72
20
 73
16
 74
14
 42
0.0000001
 43
0.0000001
 44
0.0000000001
 12
-0.3383397094
 22
-0.3684645645
 32
0.0
 13
-0.5002398092
 23
-0.0001658727
 33
0.0
 40
0.0
 40
0.0
 40
0.0
 40
0.0
 40
0.0022237003
 40
0.0066923437
 40
0.0225464217
 40
0.0475617918
 40
0.0815260678
 40
0.1241283173
 40
0.1749704834
 40
0.2335757232
 40
0.2993941459
 40
0.4501338374
 40
0.6215283855
 40
0.8071378711
 40
1.0
 40
1.0
 40
1.0
 40
1.0
 10
11.0117810505
 20
-9.4905
 30
0.0
 10
11.0115302618
 20
-9.4907731183
 30
0.0
 10
11.0103683076
 20
-9.4910675803
 30
0.0
 10
11.006775792
 20
-9.4918182352
 30
0.0
 10
10.9991438875
 20
-9.4924855071
 30
0.0
 10
10.9867522382
 20
-9.4933760163
 30
0.0
 10
10.9698087983
 20
-9.4941905942
 30
0.0
 10
10.9485886094
 20
-9.495012613
 30
0.0
 10
10.9232433114
 20
-9.495788028
 30
0.0
 10
10.8940284971
 20
-9.4965220558
 30
0.0
 10
10.8481551989
 20
-9.4974706818
 30
0.0
 10
10.7834726772
 20
-9.4984541568
 30
0.0
 10
10.6988121232
 20
-9.4993117314
 30
0.0
 10
10.6071251946
 20
-9.4998537495
 30
0.0
 10
10.5440163077
 20
-9.4999893364
 30
0.0
 10
10.5118572029
 20
-9.5
 30
0.0
 11
11.0117810505
 21
-9.4905
 31
0.0
 11
11.01076864
 21
-9.4909608926
 31
0.0
 11
11.0085810935
 21
-9.4914209188
 31
0.0
 11
11.0007029131
 21
-9.4923333439
 31
0.0
 11
10.9882212759
 21
-9.4932283497
 31
0.0
 11
10.9712532487
 21
-9.4940977165
 31
0.0
 11
10.9499582892
 21
-9.4949331894
 31
0.0
 11
10.9245374005
 21
-9.4957269066
 31
0.0
 11
10.8952301797
 21
-9.4964714035
 31
0.0
 11
10.8623123771
 21
-9.4971596626
 31
0.0
 11
10.7869156501
 21
-9.4983421181
 31
0.0
 11
10.7011818653
 21
-9.4992298544
 31
0.0
 11
10.6083342931
 21
-9.4997894833
 31
0.0
 11
10.5118572029
 21
-9.5
 31
0.0
  0
SPLINE
  5
5CB
100
AcDbEntity
  8
RACCORDO
100
AcDbSpline
 62
253
  6
CONTINUOUS
 70
0
 71
3
 72
27
 73
23
 74
21
 42
0.0000001
 43
0.0000001
 44
0.0000000001
 12
21.4725654856
 22
-0.0001643779
 32
0.0
 13
-21.4725654856
 23
-0.0001672228
 33
0.0
 40
0.0
 40
0.0
 40
0.0
 40
0.0
 40
0.062475995
 40
0.0937533398
 40
0.1250315722
 40
0.1875135942
 40
0.2499949849
 40
0.2812734011
 40
0.3125518637
 40
0.3750338898
 40
0.4375165276
 40
0.4999996285
 40
0.5624827254
 40
0.6249653551
 40
0.6874473784
 40
0.7187258447
 40
0.7500042612
 40
0.8124856689
 40
0.8749676235
 40
0.9062459486
 40
0.9375235812
 40
1.0
 40
1.0
 40
1.0
 40
1.0
 10
-0.0
 20
6.8468718661
 30
0.0
 10
0.447173298
 20
6.8468684428
 30
0.0
 10
1.1206389112
 20
6.7804435742
 30
0.0
 10
1.9896375475
 20
6.5623553907
 30
0.0
 10
2.8334316221
 20
6.2601622732
 30
0.0
 10
3.8262294834
 20
5.729014609
 30
0.0
 10
4.6960357194
 20
5.0139964835
 30
0.0
 10
5.2974117614
 20
4.3494916333
 30
0.0
 10
5.8309078986
 20
3.6293749541
 30
0.0
 10
6.3613269648
 20
2.635986997
 30
0.0
 10
6.7526924077
 20
1.3438488488
 30
0.0
 10
6.8849168855
 20
0.0000080486
 30
0.0
 10
6.7526954933
 20
-1.3438329943
 30
0.0
 10
6.3613331118
 20
-2.6359719519
 30
0.0
 10
5.830916442
 20
-3.6293611274
 30
0.0
 10
5.297422029
 20
-4.3494790927
 30
0.0
 10
4.6960474898
 20
-5.0139855074
 30
0.0
 10
3.8262432175
 20
-5.7290054452
 30
0.0
 10
2.8334464702
 20
-6.2601558224
 30
0.0
 10
1.9896509499
 20
-6.5623515823
 30
0.0
 10
1.1206471107
 20
-6.7804428261
 30
0.0
 10
0.4471763317
 20
-6.8468683836
 30
0.0
 10
-0.0
 20
-6.8468718661
 30
0.0
 11
-0.0
 21
6.8468718661
 31
0.0
 11
1.3350440733
 21
6.7152172105
 31
0.0
 11
1.9864738054
 21
6.5518392509
 31
0.0
 11
2.6187464429
 21
6.3253222194
 31
0.0
 11
3.8016406016
 21
5.6922469652
 31
0.0
 11
4.8382032309
 21
4.8404697586
 31
0.0
 11
5.288921101
 21
4.3425366726
 31
0.0
 11
5.6886766063
 21
3.8028322802
 31
0.0
 11
6.3204941044
 21
2.6192657399
 31
0.0
 11
6.7095012797
 21
1.3352362378
 31
0.0
 11
6.8408424644
 21
0.0000079698
 31
0.0
 11
6.7095043556
 21
-1.3352205142
 31
0.0
 11
6.3205002382
 21
-2.6192507632
 31
0.0
 11
5.688685593
 21
-3.8028187559
 31
0.0
 11
5.2889313367
 21
-4.3425241724
 31
0.0
 11
4.8382146618
 21
-4.8404583472
 31
0.0
 11
3.8016537824
 21
-5.6922382581
 31
0.0
 11
2.6187624784
 21
-6.3253157799
 31
0.0
 11
1.9864884889
 21
-6.5518349444
 31
0.0
 11
1.3350530574
 21
-6.7152155769
 31
0.0
 11
-0.0
 21
-6.8468718661
 31
0.0
  0
SPLINE
  5
5CC
100
AcDbEntity
  8
RACCORDO
100
AcDbSpline
 62
253
  6
CONTINUOUS
 70
0
 71
3
 72
27
 73
23
 74
21
 42
0.0000001
 43
0.0000001
 44
0.0000000001
 12
-21.4725654897
 22
0.0001646556
 32
0.0
 13
21.4725654897
 23
0.0001669197
 33
0.0
 40
0.0
 40
0.0
 40
0.0
 40
0.0
 40
0.0624760075
 40
0.0937533557
 40
0.1250315883
 40
0.1875136071
 40
0.2499949954
 40
0.2812734103
 40
0.3125518716
 40
0.3750338957
 40
0.4375165297
 40
0.499999649
 40
0.5624827629
 40
0.6249653889
 40
0.6874474102
 40
0.7187258752
 40
0.7500042905
 40
0.8124856956
 40
0.8749676484
 40
0.9062459708
 40
0.9375235976
 40
1.0
 40
1.0
 40
1.0
 40
1.0
 10
-0.0
 20
-6.8468718661
 30
0.0
 10
-0.4471733876
 20
-6.8468684371
 30
0.0
 10
-1.1206391158
 20
-6.780443548
 30
0.0
 10
-1.9896378549
 20
-6.5623552982
 30
0.0
 10
-2.8334319158
 20
-6.2601621337
 30
0.0
 10
-3.826229719
 20
-5.7290144439
 30
0.0
 10
-4.6960358893
 20
-5.0139963165
 30
0.0
 10
-5.2974118865
 20
-4.3494914741
 30
0.0
 10
-5.8309079839
 20
-3.6293748079
 30
0.0
 10
-6.3613270045
 20
-2.6359868844
 30
0.0
 10
-6.7526924579
 20
-1.3438486457
 30
0.0
 10
-6.8849169109
 20
-0.0000076084
 30
0.0
 10
-6.75269538
 20
1.343833655
 30
0.0
 10
-6.3613328291
 20
2.6359726455
 30
0.0
 10
-5.8309160806
 20
3.6293617222
 30
0.0
 10
-5.297421615
 20
4.3494796088
 30
0.0
 10
-4.6960470367
 20
5.0139859392
 30
0.0
 10
-3.8262427312
 20
5.7290057716
 30
0.0
 10
-2.8334459863
 20
6.2601560445
 30
0.0
 10
-1.9896505117
 20
6.5623517125
 30
0.0
 10
-1.1206468329
 20
6.7804428603
 30
0.0
 10
-0.4471762141
 20
6.8468683899
 30
0.0
 10
-0.0
 20
6.8468718661
 30
0.0
 11
-0.0
 21
-6.8468718661
 31
0.0
 11
-1.3350443382
 21
-6.7152171561
 31
0.0
 11
-1.9864741336
 21
-6.5518391502
 31
0.0
 11
-2.618746763
 21
-6.3253220838
 31
0.0
 11
-3.8016408325
 21
-5.6922468072
 31
0.0
 11
-4.8382033915
 21
-4.8404695931
 31
0.0
 11
-5.2889212266
 21
-4.3425365143
 31
0.0
 11
-5.6886767003
 21
-3.8028321341
 31
0.0
 11
-6.3204941519
 21
-2.6192656194
 31
0.0
 11
-6.709501289
 21
-1.3352361871
 31
0.0
 11
-6.8408424659
 21
-0.0000075224
 31
0.0
 11
-6.7095042041
 21
1.3352213124
 31
0.0
 11
-6.3204999659
 21
2.6192514427
 31
0.0
 11
-5.6886852178
 21
3.8028193332
 31
0.0
 11
-5.2889309244
 21
4.3425246878
 31
0.0
 11
-4.8382142194
 21
4.8404588002
 31
0.0
 11
-3.8016533054
 21
5.692238583
 31
0.0
 11
-2.6187619843
 21
6.3253159883
 31
0.0
 11
-1.9864880317
 21
6.5518350842
 31
0.0
 11
-1.3350527099
 21
6.7152156473
 31
0.0
 11
0.0
 21
6.8468718661
 31
0.0
  0
SPLINE
  5
5CD
100
AcDbEntity
  8
SUPERFICI
100
AcDbSpline
 62
253
  6
CONTINUOUS
 70
0
 71
3
 72
20
 73
16
 74
14
 42
0.0000001
 43
0.0000001
 44
0.0000000001
 12
-0.3383396775
 22
0.3684645937
 32
0.0
 13
-0.5002398092
 23
0.0001658727
 33
0.0
 40
0.0
 40
0.0
 40
0.0
 40
0.0
 40
0.0022237002
 40
0.0066923434
 40
0.0225464213
 40
0.0475617911
 40
0.081526067
 40
0.1241283164
 40
0.1749704824
 40
0.2335757222
 40
0.2993941449
 40
0.4501338365
 40
0.6215283848
 40
0.8071378708
 40
1.0
 40
1.0
 40
1.0
 40
1.0
 10
11.0117810505
 20
9.4905
 30
0.0
 10
11.0115302618
 20
9.4907731183
 30
0.0
 10
11.0103683077
 20
9.4910675803
 30
0.0
 10
11.0067757922
 20
9.4918182352
 30
0.0
 10
10.9991438878
 20
9.4924855071
 30
0.0
 10
10.9867522385
 20
9.4933760163
 30
0.0
 10
10.9698087987
 20
9.4941905942
 30
0.0
 10
10.9485886099
 20
9.4950126131
 30
0.0
 10
10.9232433119
 20
9.495788028
 30
0.0
 10
10.8940284976
 20
9.4965220558
 30
0.0
 10
10.8481551994
 20
9.4974706819
 30
0.0
 10
10.7834726776
 20
9.4984541569
 30
0.0
 10
10.6988121235
 20
9.4993117315
 30
0.0
 10
10.6071251948
 20
9.4998537495
 30
0.0
 10
10.5440163078
 20
9.4999893365
 30
0.0
 10
10.5118572029
 20
9.5
 30
0.0
 11
11.0117810505
 21
9.4905
 31
0.0
 11
11.0107686401
 21
9.4909608926
 31
0.0
 11
11.0085810936
 21
9.4914209188
 31
0.0
 11
11.0007029134
 21
9.4923333439
 31
0.0
 11
10.9882212762
 21
9.4932283497
 31
0.0
 11
10.9712532491
 21
9.4940977165
 31
0.0
 11
10.9499582897
 21
9.4949331894
 31
0.0
 11
10.924537401
 21
9.4957269066
 31
0.0
 11
10.8952301802
 21
9.4964714035
 31
0.0
 11
10.8623123776
 21
9.4971596626
 31
0.0
 11
10.7869156506
 21
9.4983421182
 31
0.0
 11
10.7011818657
 21
9.4992298545
 31
0.0
 11
10.6083342933
 21
9.4997894833
 31
0.0
 11
10.5118572029
 21
9.5
 31
0.0
  0
SPLINE
  5
5CE
100
AcDbEntity
  8
SUPERFICI
100
AcDbSpline
 62
253
  6
CONTINUOUS
 70
0
 71
3
 72
9
 73
5
 74
3
 42
0.0000001
 43
0.0000001
 44
0.0000000001
 12
-0.0062961109
 22
-18.9809991515
 32
0.0
 13
0.0062961108
 23
-18.9809991515
 33
0.0
 40
0.0
 40
0.0
 40
0.0
 40
0.0
 40
0.2499887187
 40
1.0
 40
1.0
 40
1.0
 40
1.0
 10
11.0117810505
 20
9.4905
 30
0.0
 10
11.0112563982
 20
7.9088214473
 30
0.0
 10
11.0096825586
 20
1.5818215669
 30
0.0
 10
11.0102069991
 20
-4.7451788356
 30
0.0
 10
11.0117810505
 20
-9.4905
 30
0.0
 11
11.0117810505
 21
9.4905
 31
0.0
 11
11.0106006446
 21
4.7454642276
 31
0.0
 11
11.0117810505
 21
-9.4905
 31
0.0
  0
SPLINE
  5
5CF
100
AcDbEntity
  8
SUPERFICI
100
AcDbSpline
 62
253
  6
CONTINUOUS
 70
0
 71
3
 72
14
 73
10
 74
8
 42
0.0000001
 43
0.0000001
 44
0.0000000001
 12
-0.0590598404
 22
0.5104101863
 32
0.0
 13
-0.5138140463
 23
0.0013224449
 33
0.0
 40
0.0
 40
0.0
 40
0.0
 40
0.0
 40
0.0353257674
 40
0.0631908654
 40
0.0987762322
 40
0.1930298891
 40
0.3160943159
 40
0.6313025258
 40
1.0
 40
1.0
 40
1.0
 40
1.0
 10
11.028965935
 20
21.1361579495
 30
0.0
 10
11.0282704903
 20
21.14216816
 30
0.0
 10
11.0190143859
 20
21.1506616098
 30
0.0
 10
11.004456999
 20
21.1583562474
 30
0.0
 10
10.9790689251
 20
21.1683050914
 30
0.0
 10
10.937093663
 20
21.1789027365
 30
0.0
 10
10.8471360601
 20
21.1945681738
 30
0.0
 10
10.7093270074
 20
21.206970568
 30
0.0
 10
10.5921894011
 20
21.2105549635
 30
0.0
 10
10.5290420874
 20
21.2107174909
 30
0.0
 11
11.028965935
 21
21.1361579495
 31
0.0
 11
11.0179038062
 21
21.1505484245
 31
0.0
 11
11.0054282662
 21
21.1575735549
 31
0.0
 11
10.9884650202
 21
21.164397389
 31
0.0
 11
10.9417547845
 21
21.177185008
 31
0.0
 11
10.8795303297
 21
21.1884303961
 31
0.0
 11
10.7183883327
 21
21.2046771117
 31
0.0
 11
10.5290420874
 21
21.2107174909
 31
0.0
  0
SPLINE
  5
5D0
100
AcDbEntity
  8
SUPERFICI
100
AcDbSpline
 62
253
  6
CONTINUOUS
 70
0
 71
3
 72
16
 73
12
 74
10
 42
0.0000001
 43
0.0000001
 44
0.0000000001
 12
-0.139523297
 22
-0.8380727803
 32
0.0
 13
-0.0011185081
 23
-0.8496066645
 33
0.0
 40
0.0
 40
0.0
 40
0.0
 40
0.0
 40
0.009601358
 40
0.0277102069
 40
0.0542061278
 40
0.0888989849
 40
0.1818074634
 40
0.303729011
 40
0.4511062006
 40
0.619636461
 40
1.0
 40
1.0
 40
1.0
 40
1.0
 10
10.5372152757
 20
22.0602279426
 30
0.0
 10
10.536768738
 20
22.0575457304
 30
0.0
 10
10.5363319303
 20
22.0496893845
 30
0.0
 10
10.5355793354
 20
22.0343706932
 30
0.0
 10
10.5349344843
 20
22.0119146991
 30
0.0
 10
10.5339076574
 20
21.9682900797
 30
0.0
 10
10.5328195065
 20
21.8976292022
 30
0.0
 10
10.5316767439
 20
21.7950589049
 30
0.0
 10
10.5307015107
 20
21.6710677772
 30
0.0
 10
10.529602632
 20
21.4738853043
 30
0.0
 10
10.5291839007
 20
21.3184372904
 30
0.0
 10
10.5290420874
 20
21.2107174911
 30
0.0
 11
10.5372152757
 21
22.0602279426
 31
0.0
 11
10.5364722901
 21
22.0521044644
 31
0.0
 11
10.5357380686
 21
22.0367365815
 31
0.0
 11
10.535017991
 21
22.0142369708
 31
0.0
 11
10.5343172961
 21
21.9847699923
 31
0.0
 11
10.5329944852
 21
21.9058453461
 31
0.0
 11
10.5318082566
 21
21.8022666894
 31
0.0
 11
10.5307932627
 21
21.6770580523
 31
0.0
 11
10.5299791458
 21
21.5338758103
 31
0.0
 11
10.5290420874
 21
21.2107174911
 31
0.0
  0
SPLINE
  5
5D1
100
AcDbEntity
  8
SUPERFICI
100
AcDbSpline
 62
253
  6
CONTINUOUS
 70
0
 71
3
 72
16
 73
12
 74
10
 42
0.0000001
 43
0.0000001
 44
0.0000000001
 12
-0.1342429107
 22
-0.4031875107
 32
0.0
 13
-0.001118725
 23
-0.4249471453
 33
0.0
 40
0.0
 40
0.0
 40
0.0
 40
0.0
 40
0.0097160279
 40
0.0278789507
 40
0.0544042565
 40
0.0891118838
 40
0.1820218654
 40
0.3039209818
 40
0.4512606386
 40
0.6197440616
 40
1.0
 40
1.0
 40
1.0
 40
1.0
 10
11.0371391233
 20
21.5609131753
 30
0.0
 10
11.036704354
 20
21.5596073816
 30
0.0
 10
11.0362490311
 20
21.5556463703
 30
0.0
 10
11.0355080809
 20
21.5480011999
 30
0.0
 10
11.0348568418
 20
21.5367593636
 30
0.0
 10
11.0338334113
 20
21.5149562163
 30
0.0
 10
11.032742832
 20
21.479622272
 30
0.0
 10
11.0316010674
 20
21.4283390931
 30
0.0
 10
11.0306254005
 20
21.366342314
 30
0.0
 10
11.0295266135
 20
21.2677493695
 30
0.0
 10
11.0291077356
 20
21.1900208414
 30
0.0
 10
11.028965935
 20
21.1361579495
 30
0.0
 11
11.0371391233
 21
21.5609131753
 31
0.0
 11
11.0363961728
 21
21.556851757
 31
0.0
 11
11.0356619591
 21
21.5491684489
 31
0.0
 11
11.0349419156
 21
21.5379195784
 31
0.0
 11
11.0342412605
 21
21.523187272
 31
0.0
 11
11.0329184836
 21
21.4837274687
 31
0.0
 11
11.0317322592
 21
21.4319401915
 31
0.0
 11
11.030717238
 21
21.369336636
 31
0.0
 11
11.0299030749
 21
21.2977444675
 31
0.0
 11
11.028965935
 21
21.1361579495
 31
0.0
  0
SPLINE
  5
5D2
100
AcDbEntity
  8
RACCORDO
100
AcDbSpline
 62
253
  6
CONTINUOUS
 70
0
 71
3
 72
19
 73
15
 74
13
 42
0.0000001
 43
0.0000001
 44
0.0000000001
 12
-0.3580310164
 22
0.3396998579
 32
0.0
 13
-0.4914979822
 23
0.0448546052
 33
0.0
 40
0.0
 40
0.0
 40
0.0
 40
0.0
 40
0.1934312411
 40
0.3795778264
 40
0.550981526
 40
0.7015284004
 40
0.7672520182
 40
0.8257386072
 40
0.87643615
 40
0.9189224528
 40
0.9527852249
 40
0.9776867276
 40
0.9934577488
 40
1.0
 40
1.0
 40
1.0
 40
1.0
 10
4.9594561136
 20
9.4999999977
 30
0.0
 10
4.9363713189
 20
9.5219028527
 30
0.0
 10
4.8910145434
 20
9.5648240965
 30
0.0
 10
4.8250083746
 20
9.6269492869
 30
0.0
 10
4.7639639842
 20
9.6840514157
 30
0.0
 10
4.7172269288
 20
9.7274490749
 30
0.0
 10
4.6839803442
 20
9.7580711317
 30
0.0
 10
4.662754795
 20
9.7775040133
 30
0.0
 10
4.6442759361
 20
9.7942573583
 30
0.0
 10
4.6287307751
 20
9.8082675986
 30
0.0
 10
4.6162217869
 20
9.8191647246
 30
0.0
 10
4.6069789823
 20
9.8274642893
 30
0.0
 10
4.6008611344
 20
9.831805912
 30
0.0
 10
4.5980103782
 20
9.8346489022
 30
0.0
 10
4.5969385438
 20
9.8347467189
 30
0.0
 11
4.9594561136
 21
9.4999999977
 31
0.0
 11
4.8901140419
 21
9.5656160194
 31
0.0
 11
4.8232087109
 21
9.6285758023
 31
0.0
 11
4.7614203624
 21
9.6863551853
 31
0.0
 11
4.706954105
 21
9.7368929124
 31
0.0
 11
4.6830924918
 21
9.7588656141
 31
0.0
 11
4.661794447
 21
9.7783492052
 31
0.0
 11
4.6432611077
 21
9.7951593289
 31
0.0
 11
4.6276475557
 21
9.8091558927
 31
0.0
 11
4.6151056748
 21
9.8202018806
 31
0.0
 11
4.6057618445
 21
9.8281852675
 31
0.0
 11
4.5996855418
 21
9.8330497875
 31
0.0
 11
4.5969385438
 21
9.8347467189
 31
0.0
  0
SPLINE
  5
5D3
100
AcDbEntity
  8
RACCORDO
100
AcDbSpline
 62
253
  6
CONTINUOUS
 70
0
 71
3
 72
23
 73
19
 74
17
 42
0.0000001
 43
0.0000001
 44
0.0000000001
 12
-15.9588679038
 22
0.0000716009
 32
0.0
 13
10.9539977087
 23
11.6058346952
 33
0.0
 40
0.0
 40
0.0
 40
0.0
 40
0.0
 40
0.0626248111
 40
0.1252255621
 40
0.1877809855
 40
0.2502762886
 40
0.3127104795
 40
0.3750977579
 40
0.4374592485
 40
0.4998191253
 40
0.5622014161
 40
0.6246182868
 40
0.6870844235
 40
0.7495986187
 40
0.812156569
 40
0.8747492959
 40
0.9373660023
 40
1.0
 40
1.0
 40
1.0
 40
1.0
 10
-0.0
 20
-21.096305841
 30
0.0
 10
-0.3331403625
 20
-21.0963043464
 30
0.0
 10
-1.0003300881
 20
-21.0471880046
 30
0.0
 10
-1.9783996847
 20
-20.8278941239
 30
0.0
 10
-2.9134426868
 20
-20.4681404004
 30
0.0
 10
-3.7851365946
 20
-19.9762571106
 30
0.0
 10
-4.5752662568
 20
-19.3633266063
 30
0.0
 10
-5.2675967103
 20
-18.6427776035
 30
0.0
 10
-5.848145257
 20
-17.8299740459
 30
0.0
 10
-6.3052471465
 20
-16.9419070125
 30
0.0
 10
-6.6296644136
 20
-15.9969556736
 30
0.0
 10
-6.8147085685
 20
-15.0145783917
 30
0.0
 10
-6.8563921256
 20
-14.0150885723
 30
0.0
 10
-6.7535418117
 20
-13.0192642685
 30
0.0
 10
-6.5079549964
 20
-12.0480393633
 30
0.0
 10
-6.124356304
 20
-11.1219328021
 30
0.0
 10
-5.6106589063
 20
-10.260912069
 30
0.0
 10
-5.1880536212
 20
-9.7421894993
 30
0.0
 10
-4.9593560653
 20
-9.4998828913
 30
0.0
 11
-0.0
 21
-21.096305841
 31
0.0
 11
-0.996720802
 21
-21.0228881778
 31
0.0
 11
-1.9715688723
 21
-20.8043786847
 31
0.0
 11
-2.9033073073
 21
-20.4459183514
 31
0.0
 11
-3.771938236
 21
-19.9558205209
 31
0.0
 11
-4.5592418954
 21
-19.3451454276
 31
0.0
 11
-5.2490984586
 21
-18.6272473239
 31
0.0
 11
-5.8275802439
 21
-17.8174206363
 31
0.0
 11
-6.283069103
 21
-16.9325821891
 31
0.0
 11
-6.6063660735
 21
-15.9909876144
 31
0.0
 11
-6.7907728652
 21
-15.0121032932
 31
0.0
 11
-6.8323144553
 21
-14.0160803896
 31
0.0
 11
-6.7298117693
 21
-13.0237043224
 31
0.0
 11
-6.4850387146
 21
-12.055821585
 31
0.0
 11
-6.102759738
 21
-11.132955347
 31
0.0
 11
-5.5906915022
 21
-10.2748352416
 31
0.0
 11
-4.9593560653
 21
-9.4998828913
 31
0.0
  0
SPLINE
  5
5D4
100
AcDbEntity
  8
RACCORDO
100
AcDbSpline
 62
253
  6
CONTINUOUS
 70
0
 71
3
 72
23
 73
19
 74
17
 42
0.0000001
 43
0.0000001
 44
0.0000000001
 12
10.9540123618
 22
-11.6058269477
 32
0.0
 13
-15.9588723272
 23
-0.0000756573
 33
0.0
 40
0.0
 40
0.0
 40
0.0
 40
0.0
 40
0.0626333523
 40
0.1252501178
 40
0.1878433842
 40
0.2504020612
 40
0.3129166733
 40
0.3753832424
 40
0.4378003105
 40
0.5001820668
 40
0.56254147
 40
0.6249027964
 40
0.6872898886
 40
0.7497238516
 40
0.8122188072
 40
0.8747740066
 40
0.9373750459
 40
1.0
 40
1.0
 40
1.0
 40
1.0
 10
4.9593532291
 20
-9.4998797461
 30
0.0
 10
5.1880487342
 20
-9.7421836954
 30
0.0
 10
5.6106522971
 20
-10.2609037865
 30
0.0
 10
6.1243518992
 20
-11.1219232276
 30
0.0
 10
6.5079542183
 20
-12.0480363194
 30
0.0
 10
6.7535435597
 20
-13.0192702385
 30
0.0
 10
6.8563925123
 20
-14.0151034634
 30
0.0
 10
6.814706755
 20
-15.0145990821
 30
0.0
 10
6.6296589877
 20
-15.9969765587
 30
0.0
 10
6.305239976
 20
-16.9419229209
 30
0.0
 10
5.8481393216
 20
-17.8299838174
 30
0.0
 10
5.2675919386
 20
-18.6427831182
 30
0.0
 10
4.5752630483
 20
-19.3633296931
 30
0.0
 10
3.7851360275
 20
-19.9762573877
 30
0.0
 10
2.9134458674
 20
-20.4681391167
 30
0.0
 10
1.9784042741
 20
-20.8278930028
 30
0.0
 10
1.000333441
 20
-21.0471879446
 30
0.0
 10
0.3331412156
 20
-21.0963042617
 30
0.0
 10
-0.0
 20
-21.096305841
 30
0.0
 11
4.9593532291
 21
-9.4998797461
 31
0.0
 11
5.5906831598
 21
-10.2748236536
 31
0.0
 11
6.1027538467
 21
-11.1329437169
 31
0.0
 11
6.4850372917
 21
-12.0558177248
 31
0.0
 11
6.7298131622
 21
-13.0237119955
 31
0.0
 11
6.8323147181
 21
-14.0160951479
 31
0.0
 11
6.7907705293
 21
-15.0121251262
 31
0.0
 11
6.6063597749
 21
-15.9910121869
 31
0.0
 11
6.2830624917
 21
-16.9325979267
 31
0.0
 11
5.8275753109
 21
-17.8174290482
 31
0.0
 11
5.2490938004
 21
-18.6272530517
 31
0.0
 11
4.5592385763
 21
-19.3451487038
 31
0.0
 11
3.7719373014
 21
-19.9558213861
 31
0.0
 11
2.903311125
 21
-20.445916916
 31
0.0
 11
1.9715760427
 21
-20.80437678
 31
0.0
 11
0.9967233523
 21
-21.0228879625
 31
0.0
 11
-0.0
 21
-21.096305841
 31
0.0
  0
SPLINE
  5
5D5
100
AcDbEntity
  8
RACCORDO
100
AcDbSpline
 62
253
  6
CONTINUOUS
 70
0
 71
3
 72
23
 73
19
 74
17
 42
0.0000001
 43
0.0000001
 44
0.0000000001
 12
-10.95401909
 22
11.6058264472
 32
0.0
 13
15.9588765814
 23
0.0000753921
 33
0.0
 40
0.0
 40
0.0
 40
0.0
 40
0.0
 40
0.0626332975
 40
0.1252500135
 40
0.1878432657
 40
0.250401989
 40
0.3129166904
 40
0.375383377
 40
0.4378005149
 40
0.5001822693
 40
0.5625416577
 40
0.6249029538
 40
0.6872900159
 40
0.7497239497
 40
0.8122188747
 40
0.8747740452
 40
0.9373750625
 40
1.0
 40
1.0
 40
1.0
 40
1.0
 10
-4.9593504693
 20
9.4998765323
 30
0.0
 10
-5.1880459148
 20
9.7421802592
 30
0.0
 10
-5.6106494825
 20
10.2608998411
 30
0.0
 10
-6.1243495777
 20
11.121918552
 30
0.0
 10
-6.5079527123
 20
12.0480315015
 30
0.0
 10
-6.7535428945
 20
13.019266157
 30
0.0
 10
-6.8563925595
 20
14.0151009469
 30
0.0
 10
-6.8147069255
 20
15.0145983285
 30
0.0
 10
-6.6296589668
 20
15.9969770625
 30
0.0
 10
-6.305239523
 20
16.9419238552
 30
0.0
 10
-5.8481388219
 20
17.8299847467
 30
0.0
 10
-5.2675912888
 20
18.6427837715
 30
0.0
 10
-4.5752625509
 20
19.3633301951
 30
0.0
 10
-3.7851355783
 20
19.9762576061
 30
0.0
 10
-2.9134456139
 20
20.4681392494
 30
0.0
 10
-1.9784041524
 20
20.8278930175
 30
0.0
 10
-1.000333415
 20
21.0471879414
 30
0.0
 10
-0.3331412164
 20
21.0963042672
 30
0.0
 10
0.0
 20
21.096305841
 30
0.0
 11
-4.9593504693
 21
9.4998765323
 31
0.0
 11
-5.5906803926
 21
10.2748196614
 31
0.0
 11
-6.1027514581
 21
11.1329388903
 31
0.0
 11
-6.4850356501
 21
12.0558126296
 31
0.0
 11
-6.7298124135
 21
13.0237077126
 31
0.0
 11
-6.8323146561
 21
14.0160924932
 31
0.0
 11
-6.7907706028
 21
15.0121246209
 31
0.0
 11
-6.6063595884
 21
15.9910130359
 31
0.0
 11
-6.2830620443
 21
16.9325989352
 31
0.0
 11
-5.827574739
 21
17.8174300241
 31
0.0
 11
-5.249093194
 21
18.627253736
 31
0.0
 11
-4.5592380657
 21
19.3451491798
 31
0.0
 11
-3.7719368709
 21
19.9558216414
 31
0.0
 11
-2.9033108752
 21
20.4459170371
 31
0.0
 11
-1.9715759621
 21
20.8043767973
 31
0.0
 11
-0.9967233543
 21
21.0228879583
 31
0.0
 11
0.0
 21
21.096305841
 31
0.0
  0
SPLINE
  5
5D6
100
AcDbEntity
  8
RACCORDO
100
AcDbSpline
 62
253
  6
CONTINUOUS
 70
0
 71
3
 72
23
 73
19
 74
17
 42
0.0000001
 43
0.0000001
 44
0.0000000001
 12
15.9588719281
 22
-0.0000712721
 32
0.0
 13
-10.9540053558
 23
-11.6058330115
 33
0.0
 40
0.0
 40
0.0
 40
0.0
 40
0.0
 40
0.0626247919
 40
0.1252255176
 40
0.1877809076
 40
0.2502761745
 40
0.3127103313
 40
0.375097575
 40
0.4374590314
 40
0.4998188724
 40
0.5622011311
 40
0.6246180658
 40
0.6870843093
 40
0.7495985913
 40
0.812156627
 40
0.8747493883
 40
0.9373660744
 40
1.0
 40
1.0
 40
1.0
 40
1.0
 10
0.0
 20
21.096305841
 30
0.0
 10
0.3331403445
 20
21.0963043532
 30
0.0
 10
1.0003300029
 20
21.0471880092
 30
0.0
 10
1.9783994352
 20
20.8278941677
 30
0.0
 10
2.9134422402
 20
20.4681406295
 30
0.0
 10
3.785135875
 20
19.9762574856
 30
0.0
 10
4.5752654624
 20
19.3633273845
 30
0.0
 10
5.2675957245
 20
18.6427786181
 30
0.0
 10
5.8481444177
 20
17.8299755427
 30
0.0
 10
6.3052462572
 20
16.9419088161
 30
0.0
 10
6.6296640929
 20
15.9969574351
 30
0.0
 10
6.8147085465
 20
15.0145791798
 30
0.0
 10
6.8563921853
 20
14.0150877297
 30
0.0
 10
6.7535414583
 20
13.0192617032
 30
0.0
 10
6.5079538315
 20
12.0480355951
 30
0.0
 10
6.1243542425
 20
11.1219285435
 30
0.0
 10
5.6106561613
 20
10.2609082941
 30
0.0
 10
5.1880509009
 20
9.7421861396
 30
0.0
 10
4.9593534487
 20
9.4998798458
 30
0.0
 11
0.0
 21
21.096305841
 31
0.0
 11
0.996720748
 21
21.0228881826
 31
0.0
 11
1.971568674
 21
20.804378736
 31
0.0
 11
2.9033068683
 21
20.4459185652
 31
0.0
 11
3.7719375419
 21
19.9558209441
 31
0.0
 11
4.5592410823
 21
19.3451461773
 31
0.0
 11
5.2490975284
 21
18.6272483803
 31
0.0
 11
5.8275793752
 21
17.8174220987
 31
0.0
 11
6.2830682806
 21
16.9325840351
 31
0.0
 11
6.6063655472
 21
15.990989838
 31
0.0
 11
6.7907727616
 21
15.0121043026
 31
0.0
 11
6.8323144271
 21
14.016079445
 31
0.0
 11
6.729811335
 21
13.0237017727
 31
0.0
 11
6.4850374173
 21
12.0558175894
 31
0.0
 11
6.1027575186
 21
11.1329508652
 31
0.0
 11
5.5906886824
 21
10.2748312022
 31
0.0
 11
4.9593534487
 21
9.4998798458
 31
0.0
  0
SPLINE
  5
5D7
100
AcDbEntity
  8
SUPERFICI
100
AcDbSpline
 62
253
  6
CONTINUOUS
 70
0
 71
3
 72
11
 73
7
 74
5
 42
0.0000001
 43
0.0000001
 44
0.0000000001
 12
-0.0012232482
 22
-0.3641907438
 32
0.0
 13
-0.3641916425
 23
-0.0009174695
 33
0.0
 40
0.0
 40
0.0
 40
0.0
 40
0.0
 40
0.2331623084
 40
0.476670585
 40
0.7338116789
 40
1.0
 40
1.0
 40
1.0
 40
1.0
 10
10.1369014213
 20
23.8443375673
 30
0.0
 10
10.1368063495
 20
23.8160323825
 30
0.0
 10
10.1228764917
 20
23.7574892432
 30
0.0
 10
10.0659440676
 20
23.6858281285
 30
0.0
 10
9.9832760274
 20
23.6388299314
 30
0.0
 10
9.9192201727
 20
23.6279126229
 30
0.0
 10
9.8869056521
 20
23.6278312164
 30
0.0
 11
10.1369014213
 21
23.8443375673
 31
0.0
 11
10.1176631919
 21
23.7616295068
 31
0.0
 11
10.0634226257
 21
23.6914667969
 31
0.0
 11
9.9824070779
 21
23.6444922937
 31
0.0
 11
9.8869056521
 21
23.6278312164
 31
0.0
  0
SPLINE
  5
5D8
100
AcDbEntity
  8
RACCORDO
100
AcDbSpline
 62
253
  6
CONTINUOUS
 70
0
 71
3
 72
19
 73
15
 74
13
 42
0.0000001
 43
0.0000001
 44
0.0000000001
 12
-0.3580313086
 22
-0.3397001651
 32
0.0
 13
-0.4914982291
 23
-0.0448565592
 33
0.0
 40
0.0
 40
0.0
 40
0.0
 40
0.0
 40
0.1934311717
 40
0.3795777185
 40
0.5509814049
 40
0.7015282863
 40
0.7672519133
 40
0.8257385142
 40
0.8764360709
 40
0.918922389
 40
0.9527851771
 40
0.9776866961
 40
0.9934577334
 40
1.0
 40
1.0
 40
1.0
 40
1.0
 10
4.9594561136
 20
-9.4999999955
 30
0.0
 10
4.9363713084
 20
-9.5219028625
 30
0.0
 10
4.8910145085
 20
-9.5648241326
 30
0.0
 10
4.8250082994
 20
-9.6269493646
 30
0.0
 10
4.7639638633
 20
-9.6840515388
 30
0.0
 10
4.7172267681
 20
-9.7274492362
 30
0.0
 10
4.6839801518
 20
-9.7580713227
 30
0.0
 10
4.6627545803
 20
-9.7775042248
 30
0.0
 10
4.6442757005
 20
-9.794257589
 30
0.0
 10
4.6287305206
 20
-9.8082678458
 30
0.0
 10
4.6162215157
 20
-9.8191649876
 30
0.0
 10
4.6069786972
 20
-9.8274645614
 30
0.0
 10
4.6008608378
 20
-9.8318061985
 30
0.0
 10
4.5980100754
 20
-9.8346491882
 30
0.0
 10
4.5969382379
 20
-9.8347470094
 30
0.0
 11
4.9594561136
 21
-9.4999999955
 31
0.0
 11
4.8901140098
 21
-9.5656160527
 31
0.0
 11
4.8232086372
 21
-9.6285758786
 31
0.0
 11
4.7614202417
 21
-9.686355308
 31
0.0
 11
4.7069539357
 21
-9.7368930816
 31
0.0
 11
4.683092299
 21
-9.7588658054
 31
0.0
 11
4.6617942317
 21
-9.7783494173
 31
0.0
 11
4.6432608714
 21
-9.79515956
 31
0.0
 11
4.6276473003
 21
-9.8091561409
 31
0.0
 11
4.6151054026
 21
-9.8202021434
 31
0.0
 11
4.6057615583
 21
-9.8281855424
 31
0.0
 11
4.5996852442
 21
-9.8330500716
 31
0.0
 11
4.5969382379
 21
-9.8347470094
 31
0.0
  0
SPLINE
  5
5D9
100
AcDbEntity
  8
SUPERFICI
100
AcDbSpline
 62
7
  6
CONTINUOUS
 70
0
 71
3
 72
13
 73
9
 74
7
 42
0.0000001
 43
0.0000001
 44
0.0000000001
 12
0.3138495495
 22
0.0
 32
0.0
 13
0.003162351
 23
0.3138336171
 33
0.0
 40
0.0
 40
0.0
 40
0.0
 40
0.0
 40
0.3260521389
 40
0.605103046
 40
0.7216768541
 40
0.8239470167
 40
0.9151089552
 40
1.0
 40
1.0
 40
1.0
 40
1.0
 10
9.8927234819
 20
23.1226497308
 30
0.0
 10
9.9268339208
 20
23.1226497308
 30
0.0
 10
9.9903374823
 20
23.1303404936
 30
0.0
 10
10.0618989502
 20
23.1579699312
 30
0.0
 10
10.104100627
 20
23.1890075819
 30
0.0
 10
10.1258945542
 20
23.2134115332
 30
0.0
 10
10.1393988037
 20
23.2396108244
 30
0.0
 10
10.142629766
 20
23.2581067436
 30
0.0
 10
10.1427192511
 20
23.2669872981
 30
0.0
 11
9.8927234819
 21
23.1226497308
 31
0.0
 11
9.9942534457
 21
23.1354311576
 31
0.0
 11
10.0751759211
 21
23.1689245842
 31
0.0
 11
10.1044151803
 21
23.1909165769
 31
0.0
 11
10.1254977136
 21
23.215119319
 31
0.0
 11
10.1382790097
 21
23.2407168857
 31
0.0
 11
10.1427192511
 21
23.2669872981
 31
0.0
  0
SPLINE
  5
5DA
100
AcDbEntity
  8
SUPERFICI
100
AcDbSpline
 62
7
  6
CONTINUOUS
 70
0
 71
3
 72
13
 73
9
 74
7
 42
0.0000001
 43
0.0000001
 44
0.0000000001
 12
0.0031696371
 22
-0.3145566903
 32
0.0
 13
0.3145726594
 23
0.0
 33
0.0
 40
0.0
 40
0.0
 40
0.0
 40
0.0
 40
0.0848440362
 40
0.1759755807
 40
0.278241715
 40
0.3948395492
 40
0.6739816576
 40
1.0
 40
1.0
 40
1.0
 40
1.0
 10
7.2572807489
 20
23.2669872981
 30
0.0
 10
7.2573703905
 20
23.2580912117
 30
0.0
 10
7.2606130596
 20
23.2395605855
 30
0.0
 10
7.2741650471
 20
23.2133182791
 30
0.0
 10
7.2960338861
 20
23.1888806294
 30
0.0
 10
7.338378653
 20
23.1578162275
 30
0.0
 10
7.4101493717
 20
23.130184663
 30
0.0
 10
7.4738182612
 20
23.1226497308
 30
0.0
 10
7.5080037468
 20
23.1226497308
 30
0.0
 11
7.2572807489
 21
23.2669872981
 31
0.0
 11
7.2617358026
 21
23.2406721314
 31
0.0
 11
7.2745605835
 21
23.2150332915
 31
0.0
 11
7.2957149112
 21
23.1907967144
 31
0.0
 11
7.3250527761
 21
23.1687830511
 31
0.0
 11
7.4062311591
 21
23.1353054509
 31
0.0
 11
7.5080037468
 21
23.1226497308
 31
0.0
  0
SPLINE
  5
5DB
100
AcDbEntity
  8
SUPERFICI
100
AcDbSpline
 62
253
  6
CONTINUOUS
 70
0
 71
3
 72
11
 73
7
 74
5
 42
0.0000001
 43
0.0000001
 44
0.0000000001
 12
0.0012232482
 22
-0.3641907438
 32
0.0
 13
0.3641916425
 23
-0.0009174695
 33
0.0
 40
0.0
 40
0.0
 40
0.0
 40
0.0
 40
0.2331623084
 40
0.476670585
 40
0.7338116789
 40
1.0
 40
1.0
 40
1.0
 40
1.0
 10
7.2630985787
 20
23.8443375673
 30
0.0
 10
7.2631936505
 20
23.8160323825
 30
0.0
 10
7.2771235083
 20
23.7574892432
 30
0.0
 10
7.3340559324
 20
23.6858281285
 30
0.0
 10
7.4167239726
 20
23.6388299314
 30
0.0
 10
7.4807798273
 20
23.6279126229
 30
0.0
 10
7.5130943479
 20
23.6278312164
 30
0.0
 11
7.2630985787
 21
23.8443375673
 31
0.0
 11
7.2823368081
 21
23.7616295068
 31
0.0
 11
7.3365773743
 21
23.6914667969
 31
0.0
 11
7.4175929221
 21
23.6444922937
 31
0.0
 11
7.5130943479
 21
23.6278312164
 31
0.0
  0
SPLINE
  5
5DC
100
AcDbEntity
  8
SUPERFICI
100
AcDbSpline
 62
253
  6
CONTINUOUS
 70
0
 71
3
 72
11
 73
7
 74
5
 42
0.0000001
 43
0.0000001
 44
0.0000000001
 12
-0.0012232482
 22
-0.3641907442
 32
0.0
 13
-0.3641916429
 23
-0.0009174695
 33
0.0
 40
0.0
 40
0.0
 40
0.0
 40
0.0
 40
0.2331622206
 40
0.4766705204
 40
0.7338116472
 40
1.0
 40
1.0
 40
1.0
 40
1.0
 10
-7.2630985787
 20
23.8443375673
 30
0.0
 10
-7.2631936505
 20
23.8160323931
 30
0.0
 10
-7.2771234989
 20
23.7574892617
 30
0.0
 10
-7.3340559138
 20
23.6858281428
 30
0.0
 10
-7.4167239605
 20
23.6388299344
 30
0.0
 10
-7.4807798234
 20
23.6279126229
 30
0.0
 10
-7.5130943479
 20
23.6278312164
 30
0.0
 11
-7.2630985787
 21
23.8443375673
 31
0.0
 11
-7.282336793
 21
23.761629536
 31
0.0
 11
-7.336577356
 21
23.6914668129
 31
0.0
 11
-7.417592911
 21
23.644492298
 31
0.0
 11
-7.5130943479
 21
23.6278312164
 31
0.0
  0
SPLINE
  5
5DD
100
AcDbEntity
  8
SUPERFICI
100
AcDbSpline
 62
7
  6
CONTINUOUS
 70
0
 71
3
 72
13
 73
9
 74
7
 42
0.0000001
 43
0.0000001
 44
0.0000000001
 12
-0.0031696371
 22
-0.3145566903
 32
0.0
 13
-0.3145726594
 23
0.0
 33
0.0
 40
0.0
 40
0.0
 40
0.0
 40
0.0
 40
0.0848440362
 40
0.1759755807
 40
0.278241715
 40
0.3948395492
 40
0.6739816576
 40
1.0
 40
1.0
 40
1.0
 40
1.0
 10
-7.2572807489
 20
23.2669872981
 30
0.0
 10
-7.2573703905
 20
23.2580912117
 30
0.0
 10
-7.2606130596
 20
23.2395605855
 30
0.0
 10
-7.2741650471
 20
23.2133182791
 30
0.0
 10
-7.2960338861
 20
23.1888806294
 30
0.0
 10
-7.338378653
 20
23.1578162275
 30
0.0
 10
-7.4101493717
 20
23.130184663
 30
0.0
 10
-7.4738182612
 20
23.1226497308
 30
0.0
 10
-7.5080037468
 20
23.1226497308
 30
0.0
 11
-7.2572807489
 21
23.2669872981
 31
0.0
 11
-7.2617358026
 21
23.2406721314
 31
0.0
 11
-7.2745605835
 21
23.2150332915
 31
0.0
 11
-7.2957149112
 21
23.1907967144
 31
0.0
 11
-7.3250527761
 21
23.1687830511
 31
0.0
 11
-7.4062311591
 21
23.1353054509
 31
0.0
 11
-7.5080037468
 21
23.1226497308
 31
0.0
  0
SPLINE
  5
5DE
100
AcDbEntity
  8
SUPERFICI
100
AcDbSpline
 62
7
  6
CONTINUOUS
 70
0
 71
3
 72
13
 73
9
 74
7
 42
0.0000001
 43
0.0000001
 44
0.0000000001
 12
-0.3138495495
 22
0.0
 32
0.0
 13
-0.003162351
 23
-0.3138336171
 33
0.0
 40
0.0
 40
0.0
 40
0.0
 40
0.0
 40
0.3260521389
 40
0.605103046
 40
0.7216768541
 40
0.8239470167
 40
0.9151089552
 40
1.0
 40
1.0
 40
1.0
 40
1.0
 10
7.5072765181
 20
-23.1226497308
 30
0.0
 10
7.4731660792
 20
-23.1226497308
 30
0.0
 10
7.4096625177
 20
-23.1303404936
 30
0.0
 10
7.3381010498
 20
-23.1579699312
 30
0.0
 10
7.295899373
 20
-23.1890075819
 30
0.0
 10
7.2741054458
 20
-23.2134115332
 30
0.0
 10
7.2606011963
 20
-23.2396108244
 30
0.0
 10
7.257370234
 20
-23.2581067436
 30
0.0
 10
7.2572807489
 20
-23.2669872981
 30
0.0
 11
7.5072765181
 21
-23.1226497308
 31
0.0
 11
7.4057465543
 21
-23.1354311576
 31
0.0
 11
7.3248240789
 21
-23.1689245842
 31
0.0
 11
7.2955848197
 21
-23.1909165769
 31
0.0
 11
7.2745022864
 21
-23.215119319
 31
0.0
 11
7.2617209903
 21
-23.2407168857
 31
0.0
 11
7.2572807489
 21
-23.2669872981
 31
0.0
  0
SPLINE
  5
5DF
100
AcDbEntity
  8
RACCORDO
100
AcDbSpline
 62
253
  6
CONTINUOUS
 70
0
 71
3
 72
27
 73
23
 74
21
 42
0.0000001
 43
0.0000001
 44
0.0000000001
 12
19.8933099281
 22
-0.0000762393
 32
0.0
 13
-19.8933099281
 23
-0.0000775502
 33
0.0
 40
0.0
 40
0.0
 40
0.0
 40
0.0
 40
0.0624763876
 40
0.0937537903
 40
0.1250320525
 40
0.1875141895
 40
0.2499955386
 40
0.2812739027
 40
0.3125523191
 40
0.3750341729
 40
0.4375166573
 40
0.4999996304
 40
0.5624825994
 40
0.6249650755
 40
0.687446926
 40
0.718725346
 40
0.7500037102
 40
0.8124850761
 40
0.8749671453
 40
0.9062455004
 40
0.9375231899
 40
1.0
 40
1.0
 40
1.0
 40
1.0
 10
0.0
 20
6.3401011466
 30
0.0
 10
0.4142873809
 20
6.3400995589
 30
0.0
 10
1.038218123
 20
6.2786543533
 30
0.0
 10
1.8433772887
 20
6.0768952205
 30
0.0
 10
2.6252456436
 20
5.7973055902
 30
0.0
 10
3.5453302916
 20
5.3058184946
 30
0.0
 10
4.3516638178
 20
4.6440013574
 30
0.0
 10
4.9092763425
 20
4.0287916447
 30
0.0
 10
5.404020625
 20
3.3619993438
 30
0.0
 10
5.8960245833
 20
2.4419805939
 30
0.0
 10
6.2591251804
 20
1.2450151179
 30
0.0
 10
6.3818148272
 20
0.0000075409
 30
0.0
 10
6.2591280103
 20
-1.2450002555
 30
0.0
 10
5.8960302333
 20
-2.4419664721
 30
0.0
 10
5.4040284845
 20
-3.3619863401
 30
0.0
 10
4.9092857965
 20
-4.0287798283
 30
0.0
 10
4.3516746525
 20
-4.6439909749
 30
0.0
 10
3.5453429648
 20
-5.3058098262
 30
0.0
 10
2.6252592902
 20
-5.7972993001
 30
0.0
 10
1.8433896488
 20
-6.0768915068
 30
0.0
 10
1.0382256735
 20
-6.2786534382
 30
0.0
 10
0.414290182
 20
-6.3400995316
 30
0.0
 10
-0.0
 20
-6.3401011466
 30
0.0
 11
0.0
 21
6.3401011466
 31
0.0
 11
1.2368805116
 21
6.21831073
 31
0.0
 11
1.8404541395
 21
6.0671635022
 31
0.0
 11
2.4263258469
 21
5.8575871895
 31
0.0
 11
3.5225897598
 21
5.2717578169
 31
0.0
 11
4.483497433
 21
4.4833365478
 31
0.0
 11
4.9014126015
 21
4.0223405362
 31
0.0
 11
5.272128454
 21
3.5225991406
 31
0.0
 11
5.858162206
 21
2.4264508586
 31
0.0
 11
6.2190557467
 21
1.2370124819
 31
0.0
 11
6.3409186428
 21
0.0000074675
 31
0.0
 11
6.2190585694
 21
-1.2369977419
 31
0.0
 11
5.8581678444
 21
-2.4264367995
 31
0.0
 11
5.272136724
 21
-3.5225864163
 31
0.0
 11
4.9014220249
 21
-4.0223287557
 31
0.0
 11
4.4835079587
 21
-4.4833257692
 31
0.0
 11
3.5226019035
 21
-5.2717495381
 31
0.0
 11
2.4263406161
 21
-5.8575809621
 31
0.0
 11
1.840467675
 21
-6.067159309
 31
0.0
 11
1.2368887888
 21
-6.2183090346
 31
0.0
 11
-0.0
 21
-6.3401011466
 31
0.0
  0
SPLINE
  5
5E0
100
AcDbEntity
  8
SUPERFICI
100
AcDbSpline
 62
7
  6
CONTINUOUS
 70
0
 71
3
 72
13
 73
9
 74
7
 42
0.0000001
 43
0.0000001
 44
0.0000000001
 12
0.0031696371
 22
-0.3145566903
 32
0.0
 13
0.3145726594
 23
0.0
 33
0.0
 40
0.0
 40
0.0
 40
0.0
 40
0.0
 40
0.0848440362
 40
0.1759755807
 40
0.278241715
 40
0.3948395492
 40
0.6739816576
 40
1.0
 40
1.0
 40
1.0
 40
1.0
 10
-10.1427192511
 20
23.2669872981
 30
0.0
 10
-10.1426296095
 20
23.2580912117
 30
0.0
 10
-10.1393869404
 20
23.2395605855
 30
0.0
 10
-10.1258349529
 20
23.2133182791
 30
0.0
 10
-10.1039661139
 20
23.1888806294
 30
0.0
 10
-10.061621347
 20
23.1578162275
 30
0.0
 10
-9.9898506283
 20
23.130184663
 30
0.0
 10
-9.9261817388
 20
23.1226497308
 30
0.0
 10
-9.8919962532
 20
23.1226497308
 30
0.0
 11
-10.1427192511
 21
23.2669872981
 31
0.0
 11
-10.1382641974
 21
23.2406721314
 31
0.0
 11
-10.1254394165
 21
23.2150332915
 31
0.0
 11
-10.1042850888
 21
23.1907967144
 31
0.0
 11
-10.0749472239
 21
23.1687830511
 31
0.0
 11
-9.9937688409
 21
23.1353054509
 31
0.0
 11
-9.8919962532
 21
23.1226497308
 31
0.0
  0
SPLINE
  5
5E1
100
AcDbEntity
  8
SUPERFICI
100
AcDbSpline
 62
253
  6
CONTINUOUS
 70
0
 71
3
 72
11
 73
7
 74
5
 42
0.0000001
 43
0.0000001
 44
0.0000000001
 12
0.0012232482
 22
-0.3641907438
 32
0.0
 13
0.3641916425
 23
-0.0009174695
 33
0.0
 40
0.0
 40
0.0
 40
0.0
 40
0.0
 40
0.2331623084
 40
0.476670585
 40
0.7338116789
 40
1.0
 40
1.0
 40
1.0
 40
1.0
 10
-10.1369014213
 20
23.8443375673
 30
0.0
 10
-10.1368063495
 20
23.8160323825
 30
0.0
 10
-10.1228764917
 20
23.7574892432
 30
0.0
 10
-10.0659440676
 20
23.6858281285
 30
0.0
 10
-9.9832760274
 20
23.6388299314
 30
0.0
 10
-9.9192201727
 20
23.6279126229
 30
0.0
 10
-9.8869056521
 20
23.6278312164
 30
0.0
 11
-10.1369014213
 21
23.8443375673
 31
0.0
 11
-10.1176631919
 21
23.7616295068
 31
0.0
 11
-10.0634226257
 21
23.6914667969
 31
0.0
 11
-9.9824070779
 21
23.6444922937
 31
0.0
 11
-9.8869056521
 21
23.6278312164
 31
0.0
  0
SPLINE
  5
5E2
100
AcDbEntity
  8
RACCORDO
100
AcDbSpline
 62
253
  6
CONTINUOUS
 70
0
 71
3
 72
27
 73
23
 74
21
 42
0.0000001
 43
0.0000001
 44
0.0000000001
 12
-19.8933099315
 22
0.0000763681
 32
0.0
 13
19.8933099315
 23
0.0000774097
 33
0.0
 40
0.0
 40
0.0
 40
0.0
 40
0.0
 40
0.0624764001
 40
0.0937538062
 40
0.1250320686
 40
0.1875142024
 40
0.2499955491
 40
0.2812739119
 40
0.312552327
 40
0.3750341787
 40
0.4375166594
 40
0.4999996509
 40
0.5624826369
 40
0.6249651092
 40
0.6874469579
 40
0.7187253765
 40
0.7500037395
 40
0.8124851029
 40
0.8749671702
 40
0.9062455226
 40
0.9375232064
 40
1.0
 40
1.0
 40
1.0
 40
1.0
 10
-0.0
 20
-6.3401011466
 30
0.0
 10
-0.4142874639
 20
-6.3400995562
 30
0.0
 10
-1.0382183126
 20
-6.2786543302
 30
0.0
 10
-1.843377573
 20
-6.0768951341
 30
0.0
 10
-2.6252459154
 20
-5.7973054611
 30
0.0
 10
-3.5453305096
 20
-5.3058183416
 30
0.0
 10
-4.3516639749
 20
-4.6440012026
 30
0.0
 10
-4.909276458
 20
-4.0287914972
 30
0.0
 10
-5.4040207037
 20
-3.3619992085
 30
0.0
 10
-5.8960246193
 20
-2.4419804897
 30
0.0
 10
-6.2591252272
 20
-1.2450149301
 30
0.0
 10
-6.3818148506
 20
-0.0000071332
 30
0.0
 10
-6.2591279052
 20
1.2450008677
 30
0.0
 10
-5.896029971
 20
2.4419671148
 30
0.0
 10
-5.4040281494
 20
3.361986891
 30
0.0
 10
-4.9092854127
 20
4.0287803061
 30
0.0
 10
-4.3516742326
 20
4.6439913746
 30
0.0
 10
-3.5453425143
 20
5.3058101283
 30
0.0
 10
-2.625258842
 20
5.7972995053
 30
0.0
 10
-1.8433892433
 20
6.0768916279
 30
0.0
 10
-1.038225416
 20
6.278653469
 30
0.0
 10
-0.4142900732
 20
6.3400995345
 30
0.0
 10
0.0
 20
6.3401011466
 30
0.0
 11
-0.0
 21
-6.3401011466
 31
0.0
 11
-1.2368807569
 21
-6.2183106804
 31
0.0
 11
-1.8404544432
 21
-6.0671634086
 31
0.0
 11
-2.426326143
 21
-5.8575870637
 31
0.0
 11
-3.5225899734
 21
-5.2717576705
 31
0.0
 11
-4.4834975815
 21
-4.4833363944
 31
0.0
 11
-4.9014127175
 21
-4.0223403895
 31
0.0
 11
-5.2721285407
 21
-3.5225990053
 31
0.0
 11
-5.8581622496
 21
-2.4264507471
 31
0.0
 11
-6.2190557551
 21
-1.2370124354
 31
0.0
 11
-6.3409186441
 21
-0.0000070531
 31
0.0
 11
-6.2190584287
 21
1.2369984817
 31
0.0
 11
-5.8581675919
 21
2.4264374291
 31
0.0
 11
-5.2721363761
 21
3.522586951
 31
0.0
 11
-4.9014216427
 21
4.0223292329
 31
0.0
 11
-4.4835075487
 21
4.4833261885
 31
0.0
 11
-3.5226014616
 21
5.2717498388
 31
0.0
 11
-2.4263401586
 21
5.8575811549
 31
0.0
 11
-1.8404672518
 21
6.0671594387
 31
0.0
 11
-1.236888467
 21
6.2183090992
 31
0.0
 11
0.0
 21
6.3401011466
 31
0.0
  0
SPLINE
  5
5E3
100
AcDbEntity
  8
SUPERFICI
100
AcDbSpline
 62
253
  6
CONTINUOUS
 70
0
 71
3
 72
11
 73
7
 74
5
 42
0.0000001
 43
0.0000001
 44
0.0000000001
 12
0.0012232482
 22
0.3641907442
 32
0.0
 13
0.3641916429
 23
0.0009174695
 33
0.0
 40
0.0
 40
0.0
 40
0.0
 40
0.0
 40
0.2331622206
 40
0.4766705204
 40
0.7338116472
 40
1.0
 40
1.0
 40
1.0
 40
1.0
 10
-10.1369014213
 20
-23.8443375673
 30
0.0
 10
-10.1368063495
 20
-23.8160323931
 30
0.0
 10
-10.1228765011
 20
-23.7574892617
 30
0.0
 10
-10.0659440862
 20
-23.6858281428
 30
0.0
 10
-9.9832760395
 20
-23.6388299344
 30
0.0
 10
-9.9192201766
 20
-23.6279126229
 30
0.0
 10
-9.8869056521
 20
-23.6278312164
 30
0.0
 11
-10.1369014213
 21
-23.8443375673
 31
0.0
 11
-10.117663207
 21
-23.761629536
 31
0.0
 11
-10.063422644
 21
-23.6914668129
 31
0.0
 11
-9.982407089
 21
-23.644492298
 31
0.0
 11
-9.8869056521
 21
-23.6278312164
 31
0.0
  0
SPLINE
  5
5E4
100
AcDbEntity
  8
SUPERFICI
100
AcDbSpline
 62
7
  6
CONTINUOUS
 70
0
 71
3
 72
13
 73
9
 74
7
 42
0.0000001
 43
0.0000001
 44
0.0000000001
 12
0.0031696371
 22
0.3145566903
 32
0.0
 13
0.3145726594
 23
0.0
 33
0.0
 40
0.0
 40
0.0
 40
0.0
 40
0.0
 40
0.0848440362
 40
0.1759755807
 40
0.278241715
 40
0.3948395492
 40
0.6739816576
 40
1.0
 40
1.0
 40
1.0
 40
1.0
 10
-10.1427192511
 20
-23.2669872981
 30
0.0
 10
-10.1426296095
 20
-23.2580912117
 30
0.0
 10
-10.1393869404
 20
-23.2395605855
 30
0.0
 10
-10.1258349529
 20
-23.2133182791
 30
0.0
 10
-10.1039661139
 20
-23.1888806294
 30
0.0
 10
-10.061621347
 20
-23.1578162275
 30
0.0
 10
-9.9898506283
 20
-23.130184663
 30
0.0
 10
-9.9261817388
 20
-23.1226497308
 30
0.0
 10
-9.8919962532
 20
-23.1226497308
 30
0.0
 11
-10.1427192511
 21
-23.2669872981
 31
0.0
 11
-10.1382641974
 21
-23.2406721314
 31
0.0
 11
-10.1254394165
 21
-23.2150332915
 31
0.0
 11
-10.1042850888
 21
-23.1907967144
 31
0.0
 11
-10.0749472239
 21
-23.1687830511
 31
0.0
 11
-9.9937688409
 21
-23.1353054509
 31
0.0
 11
-9.8919962532
 21
-23.1226497308
 31
0.0
  0
SPLINE
  5
5E5
100
AcDbEntity
  8
RACCORDO
100
AcDbSpline
 62
253
  6
CONTINUOUS
 70
0
 71
3
 72
23
 73
19
 74
17
 42
0.0000001
 43
0.0000001
 44
0.0000000001
 12
14.7407577226
 22
-0.000032615
 32
0.0
 13
-10.1475722
 23
-10.6918995826
 33
0.0
 40
0.0
 40
0.0
 40
0.0
 40
0.0
 40
0.0626473115
 40
0.1252662547
 40
0.1878321449
 40
0.2503283055
 40
0.3127535733
 40
0.3751237922
 40
0.4374631645
 40
0.4997997042
 40
0.5621613126
 40
0.6245633494
 40
0.6870223214
 40
0.7495374668
 40
0.812103735
 40
0.8747105865
 40
0.9373454241
 40
1.0
 40
1.0
 40
1.0
 40
1.0
 10
0.0
 20
20.5224580721
 30
0.0
 10
0.3078229469
 20
20.522457391
 30
0.0
 10
0.9242714798
 20
20.4774742895
 30
0.0
 10
1.8282634701
 20
20.2765772371
 30
0.0
 10
2.6930160249
 20
19.9468217985
 30
0.0
 10
3.4999011611
 20
19.4955987923
 30
0.0
 10
4.232113901
 20
18.9327841332
 30
0.0
 10
4.8745508656
 20
18.2704169185
 30
0.0
 10
5.4140693883
 20
17.5223743426
 30
0.0
 10
5.8395801215
 20
16.7041369532
 30
0.0
 10
6.1421932975
 20
15.8326009222
 30
0.0
 10
6.3153946467
 20
14.9258070037
 30
0.0
 10
6.3552465724
 20
14.0027171832
 30
0.0
 10
6.2605452971
 20
13.0828104691
 30
0.0
 10
6.0329937712
 20
12.185731087
 30
0.0
 10
5.6771536379
 20
11.3306872493
 30
0.0
 10
5.2006468846
 20
10.5362634202
 30
0.0
 10
4.8088698354
 20
10.058044884
 30
0.0
 10
4.5969392244
 20
9.8347460726
 30
0.0
 11
0.0
 21
20.5224580721
 31
0.0
 11
0.9210166774
 21
20.4552049718
 31
0.0
 11
1.8220914017
 21
20.2549878844
 31
0.0
 11
2.6838255133
 21
19.9263638654
 31
0.0
 11
3.4878812903
 21
19.4767208411
 31
0.0
 11
4.2174508917
 21
18.9159281775
 31
0.0
 11
4.8575443248
 21
18.255967677
 31
0.0
 11
5.3950819391
 21
17.5106590877
 31
0.0
 11
5.8190304505
 21
16.6954152583
 31
0.0
 11
6.120549161
 21
15.8270141059
 31
0.0
 11
6.2931237248
 21
14.9234942536
 31
0.0
 11
6.3328328961
 21
14.0036583996
 31
0.0
 11
6.2384677274
 21
13.0869820914
 31
0.0
 11
6.0117050582
 21
12.1930199031
 31
0.0
 11
5.657136024
 21
11.3409786351
 31
0.0
 11
5.1821923034
 21
10.5492188299
 31
0.0
 11
4.5969392244
 21
9.8347460726
 31
0.0
  0
SPLINE
  5
5E6
100
AcDbEntity
  8
SUPERFICI
100
AcDbSpline
 62
7
  6
CONTINUOUS
 70
0
 71
3
 72
13
 73
9
 74
7
 42
0.0000001
 43
0.0000001
 44
0.0000000001
 12
-0.0031696371
 22
0.3145566903
 32
0.0
 13
-0.3145726594
 23
0.0
 33
0.0
 40
0.0
 40
0.0
 40
0.0
 40
0.0
 40
0.0848440362
 40
0.1759755807
 40
0.278241715
 40
0.3948395492
 40
0.6739816576
 40
1.0
 40
1.0
 40
1.0
 40
1.0
 10
-7.2572807489
 20
-23.2669872981
 30
0.0
 10
-7.2573703905
 20
-23.2580912117
 30
0.0
 10
-7.2606130596
 20
-23.2395605855
 30
0.0
 10
-7.2741650471
 20
-23.2133182791
 30
0.0
 10
-7.2960338861
 20
-23.1888806294
 30
0.0
 10
-7.338378653
 20
-23.1578162275
 30
0.0
 10
-7.4101493717
 20
-23.130184663
 30
0.0
 10
-7.4738182612
 20
-23.1226497308
 30
0.0
 10
-7.5080037468
 20
-23.1226497308
 30
0.0
 11
-7.2572807489
 21
-23.2669872981
 31
0.0
 11
-7.2617358026
 21
-23.2406721314
 31
0.0
 11
-7.2745605835
 21
-23.2150332915
 31
0.0
 11
-7.2957149112
 21
-23.1907967144
 31
0.0
 11
-7.3250527761
 21
-23.1687830511
 31
0.0
 11
-7.4062311591
 21
-23.1353054509
 31
0.0
 11
-7.5080037468
 21
-23.1226497308
 31
0.0
  0
SPLINE
  5
5E7
100
AcDbEntity
  8
SUPERFICI
100
AcDbSpline
 62
253
  6
CONTINUOUS
 70
0
 71
3
 72
11
 73
7
 74
5
 42
0.0000001
 43
0.0000001
 44
0.0000000001
 12
-0.0012232482
 22
0.3641907438
 32
0.0
 13
-0.3641916425
 23
0.0009174695
 33
0.0
 40
0.0
 40
0.0
 40
0.0
 40
0.0
 40
0.2331623084
 40
0.476670585
 40
0.7338116789
 40
1.0
 40
1.0
 40
1.0
 40
1.0
 10
-7.2630985787
 20
-23.8443375673
 30
0.0
 10
-7.2631936505
 20
-23.8160323825
 30
0.0
 10
-7.2771235083
 20
-23.7574892432
 30
0.0
 10
-7.3340559324
 20
-23.6858281285
 30
0.0
 10
-7.4167239726
 20
-23.6388299314
 30
0.0
 10
-7.4807798273
 20
-23.6279126229
 30
0.0
 10
-7.5130943479
 20
-23.6278312164
 30
0.0
 11
-7.2630985787
 21
-23.8443375673
 31
0.0
 11
-7.2823368081
 21
-23.7616295068
 31
0.0
 11
-7.3365773743
 21
-23.6914667969
 31
0.0
 11
-7.4175929221
 21
-23.6444922937
 31
0.0
 11
-7.5130943479
 21
-23.6278312164
 31
0.0
  0
SPLINE
  5
5E8
100
AcDbEntity
  8
SUPERFICI
100
AcDbSpline
 62
253
  6
CONTINUOUS
 70
0
 71
3
 72
11
 73
7
 74
5
 42
0.0000001
 43
0.0000001
 44
0.0000000001
 12
0.0012232482
 22
0.3641907438
 32
0.0
 13
0.3641916425
 23
0.0009174695
 33
0.0
 40
0.0
 40
0.0
 40
0.0
 40
0.0
 40
0.2331623084
 40
0.476670585
 40
0.7338116789
 40
1.0
 40
1.0
 40
1.0
 40
1.0
 10
7.2630985787
 20
-23.8443375673
 30
0.0
 10
7.2631936505
 20
-23.8160323825
 30
0.0
 10
7.2771235083
 20
-23.7574892432
 30
0.0
 10
7.3340559324
 20
-23.6858281285
 30
0.0
 10
7.4167239726
 20
-23.6388299314
 30
0.0
 10
7.4807798273
 20
-23.6279126229
 30
0.0
 10
7.5130943479
 20
-23.6278312164
 30
0.0
 11
7.2630985787
 21
-23.8443375673
 31
0.0
 11
7.2823368081
 21
-23.7616295068
 31
0.0
 11
7.3365773743
 21
-23.6914667969
 31
0.0
 11
7.4175929221
 21
-23.6444922937
 31
0.0
 11
7.5130943479
 21
-23.6278312164
 31
0.0
  0
SPLINE
  5
5E9
100
AcDbEntity
  8
SUPERFICI
100
AcDbSpline
 62
7
  6
CONTINUOUS
 70
0
 71
3
 72
13
 73
9
 74
7
 42
0.0000001
 43
0.0000001
 44
0.0000000001
 12
-0.0031696371
 22
0.3145566903
 32
0.0
 13
-0.3145726594
 23
0.0
 33
0.0
 40
0.0
 40
0.0
 40
0.0
 40
0.0
 40
0.0848440362
 40
0.1759755807
 40
0.278241715
 40
0.3948395492
 40
0.6739816576
 40
1.0
 40
1.0
 40
1.0
 40
1.0
 10
10.1427192511
 20
-23.2669872981
 30
0.0
 10
10.1426296095
 20
-23.2580912117
 30
0.0
 10
10.1393869404
 20
-23.2395605855
 30
0.0
 10
10.1258349529
 20
-23.2133182791
 30
0.0
 10
10.1039661139
 20
-23.1888806294
 30
0.0
 10
10.061621347
 20
-23.1578162275
 30
0.0
 10
9.9898506283
 20
-23.130184663
 30
0.0
 10
9.9261817388
 20
-23.1226497308
 30
0.0
 10
9.8919962532
 20
-23.1226497308
 30
0.0
 11
10.1427192511
 21
-23.2669872981
 31
0.0
 11
10.1382641974
 21
-23.2406721314
 31
0.0
 11
10.1254394165
 21
-23.2150332915
 31
0.0
 11
10.1042850888
 21
-23.1907967144
 31
0.0
 11
10.0749472239
 21
-23.1687830511
 31
0.0
 11
9.9937688409
 21
-23.1353054509
 31
0.0
 11
9.8919962532
 21
-23.1226497308
 31
0.0
  0
SPLINE
  5
5EA
100
AcDbEntity
  8
SUPERFICI
100
AcDbSpline
 62
253
  6
CONTINUOUS
 70
0
 71
3
 72
11
 73
7
 74
5
 42
0.0000001
 43
0.0000001
 44
0.0000000001
 12
-0.0012232482
 22
0.3641907438
 32
0.0
 13
-0.3641916425
 23
0.0009174695
 33
0.0
 40
0.0
 40
0.0
 40
0.0
 40
0.0
 40
0.2331623162
 40
0.4766706026
 40
0.7338117062
 40
1.0
 40
1.0
 40
1.0
 40
1.0
 10
10.1369014213
 20
-23.8443375673
 30
0.0
 10
10.1368063495
 20
-23.8160323815
 30
0.0
 10
10.1228764906
 20
-23.7574892401
 30
0.0
 10
10.0659440627
 20
-23.685828124
 30
0.0
 10
9.9832760219
 20
-23.6388299294
 30
0.0
 10
9.9192201694
 20
-23.6279126229
 30
0.0
 10
9.8869056521
 20
-23.6278312164
 30
0.0
 11
10.1369014213
 21
-23.8443375673
 31
0.0
 11
10.1176631905
 21
-23.7616295042
 31
0.0
 11
10.0634226207
 21
-23.6914667926
 31
0.0
 11
9.9824070684
 21
-23.6444922901
 31
0.0
 11
9.8869056521
 21
-23.6278312164
 31
0.0
  0
SPLINE
  5
5EB
100
AcDbEntity
  8
RACCORDO
100
AcDbSpline
 62
253
  6
CONTINUOUS
 70
0
 71
3
 72
23
 73
19
 74
17
 42
0.0000001
 43
0.0000001
 44
0.0000000001
 12
-10.1475771111
 22
10.69189498
 32
0.0
 13
14.740757765
 23
0.0000344535
 33
0.0
 40
0.0
 40
0.0
 40
0.0
 40
0.0
 40
0.0626539438
 40
0.1252888119
 40
0.1878961589
 40
0.2504631203
 40
0.3129786884
 40
0.3754381064
 40
0.4378403421
 40
0.5002014384
 40
0.5625375266
 40
0.6248767388
 40
0.6872467748
 40
0.7496718194
 40
0.8121676374
 40
0.8747333119
 40
0.9373525453
 40
1.0
 40
1.0
 40
1.0
 40
1.0
 10
-4.5969392244
 20
9.8347460726
 30
0.0
 10
-4.8088677999
 20
10.0580425351
 30
0.0
 10
-5.2006430193
 20
10.5362586707
 30
0.0
 10
-5.6771508914
 20
11.3306812163
 30
0.0
 10
-6.0329938491
 20
12.1857304493
 30
0.0
 10
-6.2605471702
 20
13.082817662
 30
0.0
 10
-6.3552470893
 20
14.0027323061
 30
0.0
 10
-6.3153926775
 20
14.9258273063
 30
0.0
 10
-6.1421880524
 20
15.8326213361
 30
0.0
 10
-5.8395728837
 20
16.7041526091
 30
0.0
 10
-5.4140632243
 20
17.5223842585
 30
0.0
 10
-4.8745456857
 20
18.2704227054
 30
0.0
 10
-4.232110171
 20
18.9327873999
 30
0.0
 10
-3.4998999779
 20
19.4955992984
 30
0.0
 10
-2.6930183245
 20
19.9468205558
 30
0.0
 10
-1.828267257
 20
20.2765761229
 30
0.0
 10
-0.9242743231
 20
20.4774740612
 30
0.0
 10
-0.3078236515
 20
20.5224573526
 30
0.0
 10
0.0
 20
20.5224580721
 30
0.0
 11
-4.5969392244
 21
9.8347460726
 31
0.0
 11
-5.1821868693
 21
10.54921124
 31
0.0
 11
-5.6571320179
 21
11.3409707167
 31
0.0
 11
-6.011704514
 21
12.1930184576
 31
0.0
 11
-6.2384693038
 21
13.0869906525
 31
0.0
 11
-6.3328332338
 21
14.0036733551
 31
0.0
 11
-6.2931213501
 21
14.9235156737
 31
0.0
 11
-6.1205430524
 21
15.8270378012
 31
0.0
 11
-5.8190237797
 21
16.6954307707
 31
0.0
 11
-5.3950766492
 21
17.5106678197
 31
0.0
 11
-4.8575392558
 21
18.2559736619
 31
0.0
 11
-4.2174470813
 21
18.9159316315
 31
0.0
 11
-3.4878797557
 21
19.4767218622
 31
0.0
 11
-2.6838284423
 21
19.9263625271
 31
0.0
 11
-1.8220975433
 21
20.2549860509
 31
0.0
 11
-0.921018775
 21
20.4552046711
 31
0.0
 11
0.0
 21
20.5224580721
 31
0.0
  0
SPLINE
  5
5EC
100
AcDbEntity
  8
RACCORDO
100
AcDbSpline
 62
253
  6
CONTINUOUS
 70
0
 71
3
 72
9
 73
5
 74
3
 42
0.0000001
 43
0.0000001
 44
0.0000000001
 12
0.0
 22
-0.1355960174
 32
0.0
 13
-0.0357235343
 23
-0.1308056155
 33
0.0
 40
0.0
 40
0.0
 40
0.0
 40
0.0
 40
0.4977725169
 40
1.0
 40
1.0
 40
1.0
 40
1.0
 10
-21.4983367983
 20
-18.2166171594
 30
0.0
 10
-21.4983367983
 20
-18.2391158164
 30
0.0
 10
-21.5014018182
 20
-18.2843658351
 30
0.0
 10
-21.5104963444
 20
-18.3287911682
 30
0.0
 10
-21.5164767913
 20
-18.3506892266
 30
0.0
 11
-21.4983367983
 21
-18.2166171594
 31
0.0
 11
-21.5028821395
 21
-18.2839599093
 31
0.0
 11
-21.5164767913
 21
-18.3506892266
 31
0.0
  0
SPLINE
  5
5ED
100
AcDbEntity
  8
RACCORDO
100
AcDbSpline
 62
253
  6
CONTINUOUS
 70
0
 71
3
 72
16
 73
12
 74
10
 42
0.0000001
 43
0.0000001
 44
0.0000000001
 12
-0.3151956607
 22
-1.1541232735
 32
0.0
 13
-1.1962987992
 23
-0.0147654313
 33
0.0
 40
0.0
 40
0.0
 40
0.0
 40
0.0
 40
0.0516458785
 40
0.1043732496
 40
0.2138823246
 40
0.3300261451
 40
0.4532291246
 40
0.5831014768
 40
0.7185967895
 40
0.8581817655
 40
1.0
 40
1.0
 40
1.0
 40
1.0
 10
-21.5164767913
 20
-18.3506892266
 30
0.0
 10
-21.5219029769
 20
-18.3705577967
 30
0.0
 10
-21.5352412407
 20
-18.410103344
 30
0.0
 10
-21.5714433034
 20
-18.4874943377
 30
0.0
 10
-21.6346492865
 20
-18.5798016329
 30
0.0
 10
-21.7342000986
 20
-18.6780141617
 30
0.0
 10
-21.8554450036
 20
-18.7626713502
 30
0.0
 10
-21.9948708454
 20
-18.8314993823
 30
0.0
 10
-22.1485402446
 20
-18.8826760845
 30
0.0
 10
-22.3120798706
 20
-18.9148069546
 30
0.0
 10
-22.424332064
 20
-18.9229182424
 30
0.0
 10
-22.4808843919
 20
-18.9236162448
 30
0.0
 11
-21.5164767913
 21
-18.3506892266
 31
0.0
 11
-21.5361627548
 21
-18.4092579465
 31
0.0
 11
-21.562822621
 21
-18.4664300791
 31
0.0
 11
-21.6362419834
 21
-18.5749412416
 31
0.0
 11
-21.7346101421
 21
-18.6730825876
 31
0.0
 11
-21.8550803518
 21
-18.7580139454
 31
0.0
 11
-21.9941662422
 21
-18.8272774242
 31
0.0
 11
-22.1478427193
 21
-18.878868554
 31
0.0
 11
-22.3116625064
 21
-18.9112942957
 31
0.0
 11
-22.4808843919
 21
-18.9236162448
 31
0.0
  0
SPLINE
  5
5EE
100
AcDbEntity
  8
RACCORDO
100
AcDbSpline
 62
253
  6
CONTINUOUS
 70
0
 71
3
 72
17
 73
13
 74
11
 42
0.0000001
 43
0.0000001
 44
0.0000000001
 12
0.0
 22
1.3316895916
 32
0.0
 13
-1.3315881686
 23
0.0164352532
 33
0.0
 40
0.0
 40
0.0
 40
0.0
 40
0.0
 40
0.0515908929
 40
0.1036598923
 40
0.156657205
 40
0.2109737202
 40
0.3245653768
 40
0.4461449403
 40
0.5758593351
 40
0.7127219469
 40
0.8548996392
 40
1.0
 40
1.0
 40
1.0
 40
1.0
 10
-21.4983367983
 20
18.3943840357
 30
0.0
 10
-21.4983367983
 20
18.4172850541
 30
0.0
 10
-21.5015157527
 20
18.46336102
 30
0.0
 10
-21.515744478
 20
18.531633381
 30
0.0
 10
-21.5392889979
 20
18.5985695098
 30
0.0
 10
-21.5833804735
 20
18.686409046
 30
0.0
 10
-21.6617032474
 20
18.7898180822
 30
0.0
 10
-21.7850769353
 20
18.8962878868
 30
0.0
 10
-21.9345318096
 20
18.9837295661
 30
0.0
 10
-22.1045486558
 20
19.0491455783
 30
0.0
 10
-22.2888951331
 20
19.090313009
 30
0.0
 10
-22.4164797507
 20
19.1005882007
 30
0.0
 10
-22.4808843919
 20
19.1013831211
 30
0.0
 11
-21.4983367983
 21
18.3943840357
 31
0.0
 11
-21.5030457864
 21
18.4629255211
 31
0.0
 11
-21.5171283314
 21
18.5308201608
 31
0.0
 11
-21.5404517424
 21
18.5974308656
 31
0.0
 11
-21.5727963561
 21
18.6621290182
 31
0.0
 11
-21.6632488395
 21
18.7833750746
 31
0.0
 11
-21.7850864324
 21
18.8900016719
 31
0.0
 11
-21.9337298868
 21
18.9780016293
 31
0.0
 11
-22.1035929753
 21
19.0440674877
 31
0.0
 11
-22.2882919185
 21
19.0857163858
 31
0.0
 11
-22.4808843919
 21
19.1013831211
 31
0.0
  0
SPLINE
  5
5EF
100
AcDbEntity
  8
RACCORDO
100
AcDbSpline
 62
253
  6
CONTINUOUS
 70
0
 71
3
 72
26
 73
22
 74
20
 42
0.0000001
 43
0.0000001
 44
0.0000000001
 12
0.2929002677
 22
-0.0051125932
 32
0.0
 13
-0.002994653
 23
-0.2929295777
 33
0.0
 40
0.0
 40
0.0
 40
0.0
 40
0.0
 40
0.0003971256
 40
0.0012254039
 40
0.0043670231
 40
0.0095380282
 40
0.0167493193
 40
0.0260005682
 40
0.0372878978
 40
0.0506063409
 40
0.0659483835
 40
0.1026655047
 40
0.1473539989
 40
0.1999069527
 40
0.2601981921
 40
0.3280839118
 40
0.4033998165
 40
0.4859654089
 40
0.5755829009
 40
0.7750869405
 40
1.0
 40
1.0
 40
1.0
 40
1.0
 10
-22.4808843919
 20
19.3942317309
 30
0.0
 10
-22.4808456192
 20
19.3942310541
 30
0.0
 10
-22.4807621159
 20
19.3941118959
 30
0.0
 10
-22.4806527123
 20
19.3937236222
 30
0.0
 10
-22.4805113299
 20
19.3928168314
 30
0.0
 10
-22.4803773598
 20
19.3913203983
 30
0.0
 10
-22.4802415593
 20
19.3892061028
 30
0.0
 10
-22.4801174815
 20
19.3865014645
 30
0.0
 10
-22.4800018492
 20
19.3831965239
 30
0.0
 10
-22.4798968957
 20
19.3792973545
 30
0.0
 10
-22.4797628381
 20
19.3729146013
 30
0.0
 10
-22.4796313429
 20
19.3634682462
 30
0.0
 10
-22.4795233236
 20
19.3503877999
 30
0.0
 10
-22.479459267
 20
19.33500511
 30
0.0
 10
-22.4794395203
 20
19.3173571305
 30
0.0
 10
-22.4794645959
 20
19.297486401
 30
0.0
 10
-22.4795345863
 20
19.2754407172
 30
0.0
 10
-22.4796494484
 20
19.2512731275
 30
0.0
 10
-22.4798703518
 20
19.2149791771
 30
0.0
 10
-22.4802637633
 20
19.1647860802
 30
0.0
 10
-22.4806598797
 20
19.1233443503
 30
0.0
 10
-22.4808843919
 20
19.1013831211
 30
0.0
 11
-22.4808843919
 21
19.3942317309
 31
0.0
 11
-22.480797042
 21
19.3941548932
 31
0.0
 11
-22.480712323
 21
19.3939275238
 31
0.0
 11
-22.4805508362
 21
19.3930214812
 31
0.0
 11
-22.4804000477
 21
19.3915141853
 31
0.0
 11
-22.4802600697
 21
19.3894063171
 31
0.0
 11
-22.4801309858
 21
19.386699287
 31
0.0
 11
-22.4800128664
 21
19.383394832
 31
0.0
 11
-22.4799057818
 21
19.379494732
 31
0.0
 11
-22.4798097938
 21
19.3750013843
 31
0.0
 11
-22.479651332
 21
19.3642464588
 31
0.0
 11
-22.4795378747
 21
19.3511556846
 31
0.0
 11
-22.4794696914
 21
19.3357607166
 31
0.0
 11
-22.4794469433
 21
19.3180987211
 31
0.0
 11
-22.4794696914
 21
19.2982119598
 31
0.0
 11
-22.4795378747
 21
19.2761486561
 31
0.0
 11
-22.479651332
 21
19.2519617543
 31
0.0
 11
-22.4798097938
 21
19.2257092467
 31
0.0
 11
-22.4802600697
 21
19.1672672934
 31
0.0
 11
-22.4808843919
 21
19.1013831211
 31
0.0
  0
SPLINE
  5
5F0
100
AcDbEntity
  8
RACCORDO
100
AcDbSpline
 62
253
  6
CONTINUOUS
 70
0
 71
3
 72
26
 73
22
 74
20
 42
0.0000001
 43
0.0000001
 44
0.0000000001
 12
0.002994653
 22
-0.2929295777
 32
0.0
 13
-0.2929002677
 23
-0.0051125932
 33
0.0
 40
0.0
 40
0.0
 40
0.0
 40
0.0
 40
0.2249130595
 40
0.4244170991
 40
0.5140345911
 40
0.5966001835
 40
0.6719160882
 40
0.7398018079
 40
0.8000930473
 40
0.8526460011
 40
0.8973344953
 40
0.9340516165
 40
0.9493936591
 40
0.9627121022
 40
0.9739994318
 40
0.9832506807
 40
0.9904619718
 40
0.9956329769
 40
0.9987745961
 40
0.9996028744
 40
1.0
 40
1.0
 40
1.0
 40
1.0
 10
-22.4808843919
 20
-19.1013831211
 30
0.0
 10
-22.4806598797
 20
-19.1233443503
 30
0.0
 10
-22.4802637633
 20
-19.1647860802
 30
0.0
 10
-22.4798703518
 20
-19.2149791771
 30
0.0
 10
-22.4796494484
 20
-19.2512731275
 30
0.0
 10
-22.4795345863
 20
-19.2754407172
 30
0.0
 10
-22.4794645959
 20
-19.297486401
 30
0.0
 10
-22.4794395203
 20
-19.3173571305
 30
0.0
 10
-22.479459267
 20
-19.33500511
 30
0.0
 10
-22.4795233236
 20
-19.3503877999
 30
0.0
 10
-22.4796313429
 20
-19.3634682462
 30
0.0
 10
-22.4797628381
 20
-19.3729146013
 30
0.0
 10
-22.4798968957
 20
-19.3792973545
 30
0.0
 10
-22.4800018492
 20
-19.3831965239
 30
0.0
 10
-22.4801174815
 20
-19.3865014645
 30
0.0
 10
-22.4802415593
 20
-19.3892061028
 30
0.0
 10
-22.4803773598
 20
-19.3913203983
 30
0.0
 10
-22.4805113299
 20
-19.3928168314
 30
0.0
 10
-22.4806527123
 20
-19.3937236222
 30
0.0
 10
-22.4807621159
 20
-19.3941118959
 30
0.0
 10
-22.4808456192
 20
-19.3942310541
 30
0.0
 10
-22.4808843919
 20
-19.3942317309
 30
0.0
 11
-22.4808843919
 21
-19.1013831211
 31
0.0
 11
-22.4802600697
 21
-19.1672672934
 31
0.0
 11
-22.4798097938
 21
-19.2257092467
 31
0.0
 11
-22.479651332
 21
-19.2519617543
 31
0.0
 11
-22.4795378747
 21
-19.2761486561
 31
0.0
 11
-22.4794696914
 21
-19.2982119598
 31
0.0
 11
-22.4794469433
 21
-19.3180987211
 31
0.0
 11
-22.4794696914
 21
-19.3357607166
 31
0.0
 11
-22.4795378747
 21
-19.3511556846
 31
0.0
 11
-22.479651332
 21
-19.3642464588
 31
0.0
 11
-22.4798097938
 21
-19.3750013843
 31
0.0
 11
-22.4799057818
 21
-19.379494732
 31
0.0
 11
-22.4800128664
 21
-19.383394832
 31
0.0
 11
-22.4801309858
 21
-19.386699287
 31
0.0
 11
-22.4802600697
 21
-19.3894063171
 31
0.0
 11
-22.4804000477
 21
-19.3915141853
 31
0.0
 11
-22.4805508362
 21
-19.3930214812
 31
0.0
 11
-22.480712323
 21
-19.3939275238
 31
0.0
 11
-22.480797042
 21
-19.3941548932
 31
0.0
 11
-22.4808843919
 21
-19.3942317309
 31
0.0
  0
SPLINE
  5
5F1
100
AcDbEntity
  8
RACCORDO
100
AcDbSpline
 62
253
  6
CONTINUOUS
 70
0
 71
3
 72
10
 73
6
 74
4
 42
0.0000001
 43
0.0000001
 44
0.0000000001
 12
0.0051111389
 22
-1.4139967799
 32
0.0
 13
-0.0072275116
 23
-1.4139875461
 33
0.0
 40
0.0
 40
0.0
 40
0.0
 40
0.0
 40
0.541189103
 40
0.785688022
 40
1.0
 40
1.0
 40
1.0
 40
1.0
 10
-22.4808844011
 20
-17.5096157267
 30
0.0
 10
-22.4799623702
 20
-17.7646956097
 30
0.0
 10
-22.4792102389
 20
-18.1350184829
 30
0.0
 10
-22.4796498278
 20
-18.6063538399
 30
0.0
 10
-22.4803680891
 20
-18.822606809
 30
0.0
 10
-22.4808844032
 20
-18.9236182983
 30
0.0
 11
-22.4808844011
 21
-17.5096157267
 31
0.0
 11
-22.4794469433
 21
-18.2748590249
 31
0.0
 11
-22.4798097937
 21
-18.6205817771
 31
0.0
 11
-22.4808844032
 21
-18.9236182983
 31
0.0
  0
SPLINE
  5
5F2
100
AcDbEntity
  8
RACCORDO
100
AcDbSpline
 62
253
  6
CONTINUOUS
 70
0
 71
3
 72
10
 73
6
 74
4
 42
0.0000001
 43
0.0000001
 44
0.0000000001
 12
0.0072275116
 22
-1.413987546
 32
0.0
 13
-0.0051111389
 23
-1.4139967799
 33
0.0
 40
0.0
 40
0.0
 40
0.0
 40
0.0
 40
0.214311978
 40
0.458810897
 40
1.0
 40
1.0
 40
1.0
 40
1.0
 10
-22.4808844032
 20
18.9236182983
 30
0.0
 10
-22.4803680891
 20
18.822606809
 30
0.0
 10
-22.4796498278
 20
18.6063538399
 30
0.0
 10
-22.4792102389
 20
18.1350184829
 30
0.0
 10
-22.4799623702
 20
17.7646956097
 30
0.0
 10
-22.4808844011
 20
17.5096157267
 30
0.0
 11
-22.4808844032
 21
18.9236182983
 31
0.0
 11
-22.4798097937
 21
18.6205817771
 31
0.0
 11
-22.4794469433
 21
18.2748590249
 31
0.0
 11
-22.4808844011
 21
17.5096157267
 31
0.0
  0
SPLINE
  5
5F3
100
AcDbEntity
  8
RACCORDO
100
AcDbSpline
 62
253
  6
CONTINUOUS
 70
0
 71
3
 72
9
 73
5
 74
3
 42
0.0000001
 43
0.0000001
 44
0.0000000001
 12
0.0
 22
0.1355960161
 32
0.0
 13
-0.0357235337
 23
0.1308056143
 33
0.0
 40
0.0
 40
0.0
 40
0.0
 40
0.0
 40
0.497772517
 40
1.0
 40
1.0
 40
1.0
 40
1.0
 10
-21.4983367983
 20
18.2166171594
 30
0.0
 10
-21.4983367983
 20
18.2391158162
 30
0.0
 10
-21.5014018182
 20
18.2843658345
 30
0.0
 10
-21.5104963441
 20
18.3287911672
 30
0.0
 10
-21.5164767909
 20
18.3506892253
 30
0.0
 11
-21.4983367983
 21
18.2166171594
 31
0.0
 11
-21.5028821394
 21
18.2839599087
 31
0.0
 11
-21.5164767909
 21
18.3506892253
 31
0.0
  0
SPLINE
  5
5F4
100
AcDbEntity
  8
RACCORDO
100
AcDbSpline
 62
253
  6
CONTINUOUS
 70
0
 71
3
 72
16
 73
12
 74
10
 42
0.0000001
 43
0.0000001
 44
0.0000000001
 12
-0.3151956582
 22
1.1541232755
 32
0.0
 13
-1.1962988005
 23
0.0147654315
 33
0.0
 40
0.0
 40
0.0
 40
0.0
 40
0.0
 40
0.0516458785
 40
0.1043732496
 40
0.2138823245
 40
0.3300261451
 40
0.4532291245
 40
0.5831014767
 40
0.7185967894
 40
0.8581817655
 40
1.0
 40
1.0
 40
1.0
 40
1.0
 10
-21.5164767909
 20
18.3506892253
 30
0.0
 10
-21.5219029765
 20
18.3705577954
 30
0.0
 10
-21.5352412402
 20
18.4101033428
 30
0.0
 10
-21.5714433028
 20
18.4874943367
 30
0.0
 10
-21.6346492859
 20
18.579801632
 30
0.0
 10
-21.7342000978
 20
18.6780141611
 30
0.0
 10
-21.8554450029
 20
18.7626713498
 30
0.0
 10
-21.9948708449
 20
18.8314993821
 30
0.0
 10
-22.1485402442
 20
18.8826760843
 30
0.0
 10
-22.3120798704
 20
18.9148069545
 30
0.0
 10
-22.4243320639
 20
18.9229182424
 30
0.0
 10
-22.4808843919
 20
18.9236162448
 30
0.0
 11
-21.5164767909
 21
18.3506892253
 31
0.0
 11
-21.5361627544
 21
18.4092579453
 31
0.0
 11
-21.5628226204
 21
18.466430078
 31
0.0
 11
-21.6362419827
 21
18.5749412407
 31
0.0
 11
-21.7346101414
 21
18.6730825869
 31
0.0
 11
-21.8550803511
 21
18.758013945
 31
0.0
 11
-21.9941662416
 21
18.8272774239
 31
0.0
 11
-22.1478427189
 21
18.8788685538
 31
0.0
 11
-22.3116625062
 21
18.9112942956
 31
0.0
 11
-22.4808843919
 21
18.9236162448
 31
0.0
  0
SPLINE
  5
5F5
100
AcDbEntity
  8
RACCORDO
100
AcDbSpline
 62
253
  6
CONTINUOUS
 70
0
 71
3
 72
17
 73
13
 74
11
 42
0.0000001
 43
0.0000001
 44
0.0000000001
 12
0.0
 22
-1.3316895916
 32
0.0
 13
-1.3315881686
 23
-0.0164352532
 33
0.0
 40
0.0
 40
0.0
 40
0.0
 40
0.0
 40
0.0515908929
 40
0.1036598923
 40
0.156657205
 40
0.2109737202
 40
0.3245653768
 40
0.4461449403
 40
0.5758593351
 40
0.7127219469
 40
0.8548996392
 40
1.0
 40
1.0
 40
1.0
 40
1.0
 10
-21.4983367983
 20
-18.3943840357
 30
0.0
 10
-21.4983367983
 20
-18.4172850541
 30
0.0
 10
-21.5015157527
 20
-18.46336102
 30
0.0
 10
-21.515744478
 20
-18.531633381
 30
0.0
 10
-21.5392889979
 20
-18.5985695098
 30
0.0
 10
-21.5833804735
 20
-18.686409046
 30
0.0
 10
-21.6617032474
 20
-18.7898180822
 30
0.0
 10
-21.7850769353
 20
-18.8962878868
 30
0.0
 10
-21.9345318096
 20
-18.9837295661
 30
0.0
 10
-22.1045486558
 20
-19.0491455783
 30
0.0
 10
-22.2888951331
 20
-19.090313009
 30
0.0
 10
-22.4164797507
 20
-19.1005882007
 30
0.0
 10
-22.4808843919
 20
-19.1013831211
 30
0.0
 11
-21.4983367983
 21
-18.3943840357
 31
0.0
 11
-21.5030457864
 21
-18.4629255211
 31
0.0
 11
-21.5171283314
 21
-18.5308201608
 31
0.0
 11
-21.5404517424
 21
-18.5974308656
 31
0.0
 11
-21.5727963561
 21
-18.6621290182
 31
0.0
 11
-21.6632488395
 21
-18.7833750746
 31
0.0
 11
-21.7850864324
 21
-18.8900016719
 31
0.0
 11
-21.9337298868
 21
-18.9780016293
 31
0.0
 11
-22.1035929753
 21
-19.0440674877
 31
0.0
 11
-22.2882919185
 21
-19.0857163858
 31
0.0
 11
-22.4808843919
 21
-19.1013831211
 31
0.0
  0
SPLINE
  5
5F6
100
AcDbEntity
  8
ASSI
100
AcDbSpline
 62
253
  6
CONTINUOUS
 70
0
 71
3
 72
13
 73
9
 74
7
 42
0.0000001
 43
0.0000001
 44
0.0000000001
 12
-0.234793892
 22
1.2109105344
 32
0.0
 13
-1.2333696749
 23
0.0152229822
 33
0.0
 40
0.0
 40
0.0
 40
0.0
 40
0.0
 40
0.1039029621
 40
0.2128014713
 40
0.3284088018
 40
0.4514020118
 40
0.7169662472
 40
1.0
 40
1.0
 40
1.0
 40
1.0
 10
-21.5076055854
 20
18.3126683642
 30
0.0
 10
-21.5157375123
 20
18.3546074279
 30
0.0
 10
-21.5433271221
 20
18.4386878682
 30
0.0
 10
-21.6141577893
 20
18.5548251284
 30
0.0
 10
-21.7124081904
 20
18.6598009015
 30
0.0
 10
-21.8796790758
 20
18.7837988277
 30
0.0
 10
-22.1383630218
 20
18.8917884699
 30
0.0
 10
-22.3645226427
 20
18.9221800389
 30
0.0
 10
-22.4808843919
 20
18.9236162448
 30
0.0
 11
-21.5076055854
 21
18.3126683642
 31
0.0
 11
-21.5470438583
 21
18.4346099173
 31
0.0
 11
-21.6162529588
 21
18.5497298281
 31
0.0
 11
-21.7130670204
 21
18.654424939
 31
0.0
 11
-21.8344561828
 21
18.7454187971
 31
0.0
 11
-22.1351139908
 21
18.8754301049
 31
0.0
 11
-22.4808843919
 21
18.9236162448
 31
0.0
  0
SPLINE
  5
5F7
100
AcDbEntity
  8
ASSI
100
AcDbSpline
 62
253
  6
CONTINUOUS
 70
0
 71
3
 72
13
 73
9
 74
7
 42
0.0000001
 43
0.0000001
 44
0.0000000001
 12
0.0
 22
1.3289526441
 32
0.0
 13
-1.3288514296
 23
0.0164014747
 33
0.0
 40
0.0
 40
0.0
 40
0.0
 40
0.0
 40
0.1036335927
 40
0.2109524544
 40
0.3247780503
 40
0.4466080041
 40
0.7128414666
 40
1.0
 40
1.0
 40
1.0
 40
1.0
 10
-21.4983367983
 20
18.3943840357
 30
0.0
 10
-21.4983367983
 20
18.4402920814
 30
0.0
 10
-21.5114992675
 20
18.5342078845
 30
0.0
 10
-21.5691400544
 20
18.6676538623
 30
0.0
 10
-21.6616935622
 20
18.7897991026
 30
0.0
 10
-21.8310465988
 20
18.9359192251
 30
0.0
 10
-22.1077199105
 20
19.0640792459
 30
0.0
 10
-22.3536873827
 20
19.09981318
 30
0.0
 10
-22.4808843919
 20
19.1013831211
 30
0.0
 11
-21.4983367983
 21
18.3943840357
 31
0.0
 11
-21.5171283314
 21
18.5308201608
 31
0.0
 11
-21.5727963561
 21
18.6621290182
 31
0.0
 11
-21.6632488395
 21
18.7833750746
 31
0.0
 11
-21.7850864324
 21
18.8900016719
 31
0.0
 11
-22.1035929753
 21
19.0440674877
 31
0.0
 11
-22.4808843919
 21
19.1013831211
 31
0.0
  0
SPLINE
  5
5F8
100
AcDbEntity
  8
ASSI
100
AcDbSpline
 62
253
  6
CONTINUOUS
 70
0
 71
3
 72
13
 73
9
 74
7
 42
0.0000001
 43
0.0000001
 44
0.0000000001
 12
0.0
 22
-1.3289526441
 32
0.0
 13
-1.3288514296
 23
-0.0164014747
 33
0.0
 40
0.0
 40
0.0
 40
0.0
 40
0.0
 40
0.1036335927
 40
0.2109524544
 40
0.3247780503
 40
0.4466080041
 40
0.7128414666
 40
1.0
 40
1.0
 40
1.0
 40
1.0
 10
-21.4983367983
 20
-18.3943840357
 30
0.0
 10
-21.4983367983
 20
-18.4402920814
 30
0.0
 10
-21.5114992675
 20
-18.5342078845
 30
0.0
 10
-21.5691400544
 20
-18.6676538623
 30
0.0
 10
-21.6616935622
 20
-18.7897991026
 30
0.0
 10
-21.8310465988
 20
-18.9359192251
 30
0.0
 10
-22.1077199105
 20
-19.0640792459
 30
0.0
 10
-22.3536873827
 20
-19.09981318
 30
0.0
 10
-22.4808843919
 20
-19.1013831211
 30
0.0
 11
-21.4983367983
 21
-18.3943840357
 31
0.0
 11
-21.5171283314
 21
-18.5308201608
 31
0.0
 11
-21.5727963561
 21
-18.6621290182
 31
0.0
 11
-21.6632488395
 21
-18.7833750746
 31
0.0
 11
-21.7850864324
 21
-18.8900016719
 31
0.0
 11
-22.1035929753
 21
-19.0440674877
 31
0.0
 11
-22.4808843919
 21
-19.1013831211
 31
0.0
  0
SPLINE
  5
5F9
100
AcDbEntity
  8
ASSI
100
AcDbSpline
 62
253
  6
CONTINUOUS
 70
0
 71
3
 72
13
 73
9
 74
7
 42
0.0000001
 43
0.0000001
 44
0.0000000001
 12
0.0
 22
-1.3289526441
 32
0.0
 13
-1.3288514296
 23
-0.0164014747
 33
0.0
 40
0.0
 40
0.0
 40
0.0
 40
0.0
 40
0.1036335927
 40
0.2109524543
 40
0.3247780502
 40
0.446608004
 40
0.7128414663
 40
1.0
 40
1.0
 40
1.0
 40
1.0
 10
-21.4983367983
 20
-18.2166171594
 30
0.0
 10
-21.4983367983
 20
-18.2625252051
 30
0.0
 10
-21.5114992675
 20
-18.3564410082
 30
0.0
 10
-21.5691400544
 20
-18.489886986
 30
0.0
 10
-21.6616935621
 20
-18.6120322262
 30
0.0
 10
-21.8310465986
 20
-18.7581523487
 30
0.0
 10
-22.1077199103
 20
-18.8863123696
 30
0.0
 10
-22.3536873826
 20
-18.9220463037
 30
0.0
 10
-22.4808843919
 20
-18.9236162448
 30
0.0
 11
-21.4983367983
 21
-18.2166171594
 31
0.0
 11
-21.5171283314
 21
-18.3530532845
 31
0.0
 11
-21.5727963561
 21
-18.4843621418
 31
0.0
 11
-21.6632488394
 21
-18.6056081982
 31
0.0
 11
-21.7850864323
 21
-18.7122347955
 31
0.0
 11
-22.103592975
 21
-18.8663006113
 31
0.0
 11
-22.4808843919
 21
-18.9236162448
 31
0.0
  0
SPLINE
  5
5FA
100
AcDbEntity
  8
ASSI
100
AcDbSpline
 62
253
  6
CONTINUOUS
 70
0
 71
3
 72
19
 73
15
 74
13
 42
0.0000001
 43
0.0000001
 44
0.0000000001
 12
0.2928756806
 22
-0.005112164
 32
0.0
 13
-0.0029944016
 23
-0.2929049881
 33
0.0
 40
0.0
 40
0.0
 40
0.0
 40
0.0
 40
0.0042857185
 40
0.0166673746
 40
0.0372073161
 40
0.0658700757
 40
0.1025902793
 40
0.1472825251
 40
0.1998398908
 40
0.2601361917
 40
0.4033497703
 40
0.5755472708
 40
0.7750680589
 40
1.0
 40
1.0
 40
1.0
 40
1.0
 10
-22.4808843919
 20
19.3942317309
 30
0.0
 10
-22.4804659977
 20
19.3942244278
 30
0.0
 10
-22.4806998056
 20
19.3917244361
 30
0.0
 10
-22.4800264984
 20
19.3889361802
 30
0.0
 10
-22.4800485897
 20
19.382453366
 30
0.0
 10
-22.4797506365
 20
19.3742742867
 30
0.0
 10
-22.4796423976
 20
19.3634466111
 30
0.0
 10
-22.4795195224
 20
19.3503952548
 30
0.0
 10
-22.479460463
 20
19.3350026905
 30
0.0
 10
-22.4794306651
 20
19.3100044316
 30
0.0
 10
-22.4795263642
 20
19.2733178108
 30
0.0
 10
-22.4798071375
 20
19.2230415781
 30
0.0
 10
-22.4802637714
 20
19.1647859915
 30
0.0
 10
-22.4806598797
 20
19.1233443503
 30
0.0
 10
-22.4808843919
 20
19.1013831211
 30
0.0
 11
-22.4808843919
 21
19.3942317309
 31
0.0
 11
-22.4805508362
 21
19.3930214812
 31
0.0
 11
-22.4802600697
 21
19.3894063171
 31
0.0
 11
-22.4800128664
 21
19.383394832
 31
0.0
 11
-22.4798097938
 21
19.3750013843
 31
0.0
 11
-22.479651332
 21
19.3642464588
 31
0.0
 11
-22.4795378747
 21
19.3511556846
 31
0.0
 11
-22.4794696914
 21
19.3357607166
 31
0.0
 11
-22.4794469433
 21
19.3180987211
 31
0.0
 11
-22.4795378747
 21
19.2761486561
 31
0.0
 11
-22.4798097938
 21
19.2257092467
 31
0.0
 11
-22.4802600697
 21
19.1672672934
 31
0.0
 11
-22.4808843919
 21
19.1013831211
 31
0.0
  0
SPLINE
  5
5FB
100
AcDbEntity
  8
ASSI
100
AcDbSpline
 62
253
  6
CONTINUOUS
 70
0
 71
3
 72
19
 73
15
 74
13
 42
0.0000001
 43
0.0000001
 44
0.0000000001
 12
0.0029944016
 22
-0.2929049881
 32
0.0
 13
-0.2928756806
 23
-0.005112164
 33
0.0
 40
0.0
 40
0.0
 40
0.0
 40
0.0
 40
0.2249319411
 40
0.4244527292
 40
0.5966502297
 40
0.7398638083
 40
0.8001601092
 40
0.8527174749
 40
0.8974097207
 40
0.9341299243
 40
0.9627926839
 40
0.9833326254
 40
0.9957142815
 40
1.0
 40
1.0
 40
1.0
 40
1.0
 10
-22.4808843919
 20
-19.1013831211
 30
0.0
 10
-22.4806598797
 20
-19.1233443503
 30
0.0
 10
-22.4802637714
 20
-19.1647859915
 30
0.0
 10
-22.4798071375
 20
-19.2230415781
 30
0.0
 10
-22.4795263642
 20
-19.2733178108
 30
0.0
 10
-22.4794306651
 20
-19.3100044316
 30
0.0
 10
-22.479460463
 20
-19.3350026905
 30
0.0
 10
-22.4795195224
 20
-19.3503952548
 30
0.0
 10
-22.4796423976
 20
-19.3634466111
 30
0.0
 10
-22.4797506365
 20
-19.3742742867
 30
0.0
 10
-22.4800485897
 20
-19.382453366
 30
0.0
 10
-22.4800264984
 20
-19.3889361802
 30
0.0
 10
-22.4806998056
 20
-19.3917244361
 30
0.0
 10
-22.4804659977
 20
-19.3942244278
 30
0.0
 10
-22.4808843919
 20
-19.3942317309
 30
0.0
 11
-22.4808843919
 21
-19.1013831211
 31
0.0
 11
-22.4802600697
 21
-19.1672672934
 31
0.0
 11
-22.4798097938
 21
-19.2257092467
 31
0.0
 11
-22.4795378747
 21
-19.2761486561
 31
0.0
 11
-22.4794469433
 21
-19.3180987211
 31
0.0
 11
-22.4794696914
 21
-19.3357607166
 31
0.0
 11
-22.4795378747
 21
-19.3511556846
 31
0.0
 11
-22.479651332
 21
-19.3642464588
 31
0.0
 11
-22.4798097938
 21
-19.3750013843
 31
0.0
 11
-22.4800128664
 21
-19.383394832
 31
0.0
 11
-22.4802600697
 21
-19.3894063171
 31
0.0
 11
-22.4805508362
 21
-19.3930214812
 31
0.0
 11
-22.4808843919
 21
-19.3942317309
 31
0.0
  0
SPLINE
  5
5FC
100
AcDbEntity
  8
INCISIONI
100
AcDbSpline
 62
253
  6
CONTINUOUS
 70
0
 71
3
 72
9
 73
5
 74
3
 42
0.0000001
 43
0.0000001
 44
0.0000000001
 12
0.867158247
 22
-0.7385080985
 32
0.0
 13
1.138943158
 23
0.0
 33
0.0
 40
0.0
 40
0.0
 40
0.0
 40
0.0
 40
0.7499778947
 40
1.0
 40
1.0
 40
1.0
 40
1.0
 10
-41.915897655
 20
10.7246185849
 30
0.0
 10
-41.6991144828
 20
10.539997002
 30
0.0
 10
-41.3211892965
 20
10.3922411511
 30
0.0
 10
-40.9432983004
 20
10.3623239211
 30
0.0
 10
-40.8483779783
 20
10.3623239211
 30
0.0
 11
-41.915897655
 21
10.7246185849
 31
0.0
 11
-41.1322626425
 21
10.384650075
 31
0.0
 11
-40.8483779783
 21
10.3623239211
 31
0.0
  0
SPLINE
  5
5FD
100
AcDbEntity
  8
INCISIONI
100
AcDbSpline
 62
253
  6
CONTINUOUS
 70
0
 71
3
 72
9
 73
5
 74
3
 42
0.0000001
 43
0.0000001
 44
0.0000000001
 12
0.0
 22
-1.1518927052
 32
0.0
 13
0.8769043901
 23
-0.7467671714
 33
0.0
 40
0.0
 40
0.0
 40
0.0
 40
0.0
 40
0.5000575813
 40
1.0
 40
1.0
 40
1.0
 40
1.0
 10
-42.3620441331
 20
11.7566003002
 30
0.0
 10
-42.3620441331
 20
11.5645960735
 30
0.0
 10
-42.2958003754
 20
11.174918261
 30
0.0
 10
-42.0620315556
 20
10.8490654469
 30
0.0
 10
-41.915897655
 20
10.7246185849
 30
0.0
 11
-42.3620441331
 21
11.7566003002
 31
0.0
 11
-42.2539018342
 21
11.1908333096
 31
0.0
 11
-41.915897655
 21
10.7246185849
 31
0.0
  0
SPLINE
  5
5FE
100
AcDbEntity
  8
INCISIONI
100
AcDbSpline
 62
253
  6
CONTINUOUS
 70
0
 71
3
 72
9
 73
5
 74
3
 42
0.0000001
 43
0.0000001
 44
0.0000000001
 12
-0.876784082
 22
-0.746694301
 32
0.0
 13
0.0
 23
-1.1517538486
 33
0.0
 40
0.0
 40
0.0
 40
0.0
 40
0.0
 40
0.4999423617
 40
1.0
 40
1.0
 40
1.0
 40
1.0
 10
-41.915897655
 20
12.7884285572
 30
0.0
 10
-42.0620114899
 20
12.6639938531
 30
0.0
 10
-42.295799203
 20
12.3382210796
 30
0.0
 10
-42.3620441331
 20
11.9485814034
 30
0.0
 10
-42.3620441331
 20
11.7566003002
 30
0.0
 11
-41.915897655
 21
12.7884285572
 31
0.0
 11
-42.2538962133
 21
12.3222955888
 31
0.0
 11
-42.3620441331
 21
11.7566003002
 31
0.0
  0
SPLINE
  5
5FF
100
AcDbEntity
  8
INCISIONI
100
AcDbSpline
 62
253
  6
CONTINUOUS
 70
0
 71
3
 72
9
 73
5
 74
3
 42
0.0000001
 43
0.0000001
 44
0.0000000001
 12
-1.1407661403
 22
0.0
 32
0.0
 13
-0.8685518643
 23
-0.7396835099
 33
0.0
 40
0.0
 40
0.0
 40
0.0
 40
0.0
 40
0.750054758
 40
1.0
 40
1.0
 40
1.0
 40
1.0
 10
-40.8483779783
 20
13.1507078752
 30
0.0
 10
-41.1335903354
 20
13.1507078752
 30
0.0
 10
-41.5248912338
 20
13.0616694123
 30
0.0
 10
-41.8435341863
 20
12.8500553485
 30
0.0
 10
-41.915897655
 20
12.7884285572
 30
0.0
 11
-40.8483779783
 21
13.1507078752
 31
0.0
 11
-41.679708474
 21
12.9481815859
 31
0.0
 11
-41.915897655
 21
12.7884285572
 31
0.0
  0
SPLINE
  5
600
100
AcDbEntity
  8
INCISIONI
100
AcDbSpline
 62
253
  6
CONTINUOUS
 70
0
 71
3
 72
9
 73
5
 74
3
 42
0.0000001
 43
0.0000001
 44
0.0000000001
 12
-0.8671868248
 22
0.7384580574
 32
0.0
 13
-1.1389324802
 23
0.0
 33
0.0
 40
0.0
 40
0.0
 40
0.0
 40
0.0
 40
0.7499778839
 40
1.0
 40
1.0
 40
1.0
 40
1.0
 10
-39.7808634154
 20
12.7884285572
 30
0.0
 10
-39.9976537287
 20
12.9730376276
 30
0.0
 10
-40.3755702053
 20
13.1207928882
 30
0.0
 10
-40.7534585421
 20
13.1507078752
 30
0.0
 10
-40.8483779783
 20
13.1507078752
 30
0.0
 11
-39.7808634154
 21
12.7884285572
 31
0.0
 11
-40.5644958998
 21
13.1283827383
 31
0.0
 11
-40.8483779783
 21
13.1507078752
 31
0.0
  0
SPLINE
  5
601
100
AcDbEntity
  8
INCISIONI
100
AcDbSpline
 62
253
  6
CONTINUOUS
 70
0
 71
3
 72
9
 73
5
 74
3
 42
0.0000001
 43
0.0000001
 44
0.0000000001
 12
0.0
 22
1.1517571284
 32
0.0
 13
-0.8768179889
 23
0.746659532
 33
0.0
 40
0.0
 40
0.0
 40
0.0
 40
0.0
 40
0.5000576434
 40
1.0
 40
1.0
 40
1.0
 40
1.0
 10
-39.3347118236
 20
11.7566003002
 30
0.0
 10
-39.3347118236
 20
11.948581952
 30
0.0
 10
-39.4009570751
 20
12.3382212405
 30
0.0
 10
-39.6347439315
 20
12.6639996485
 30
0.0
 10
-39.7808634154
 20
12.7884285572
 30
0.0
 11
-39.3347118236
 21
11.7566003002
 31
0.0
 11
-39.4428597717
 21
12.3222972593
 31
0.0
 11
-39.7808634154
 21
12.7884285572
 31
0.0
  0
SPLINE
  5
602
100
AcDbEntity
  8
INCISIONI
100
AcDbSpline
 62
253
  6
CONTINUOUS
 70
0
 71
3
 72
9
 73
5
 74
3
 42
0.0000001
 43
0.0000001
 44
0.0000000001
 12
0.8768689068
 22
0.7468061142
 32
0.0
 13
0.0
 23
1.1518909321
 33
0.0
 40
0.0
 40
0.0
 40
0.0
 40
0.0
 40
0.4999424868
 40
1.0
 40
1.0
 40
1.0
 40
1.0
 10
-39.7808634154
 20
10.7246185849
 30
0.0
 10
-39.6347354081
 20
10.8490719536
 30
0.0
 10
-39.4009714249
 20
11.174920788
 30
0.0
 10
-39.3347118236
 20
11.5645963952
 30
0.0
 10
-39.3347118236
 20
11.7566003002
 30
0.0
 11
-39.7808634154
 21
10.7246185849
 31
0.0
 11
-39.4428647762
 21
11.1908363293
 31
0.0
 11
-39.3347118236
 21
11.7566003002
 31
0.0
  0
SPLINE
  5
603
100
AcDbEntity
  8
INCISIONI
100
AcDbSpline
 62
253
  6
CONTINUOUS
 70
0
 71
3
 72
9
 73
5
 74
3
 42
0.0000001
 43
0.0000001
 44
0.0000000001
 12
1.1407658859
 22
0.0
 32
0.0
 13
0.8685323249
 23
0.7397060674
 33
0.0
 40
0.0
 40
0.0
 40
0.0
 40
0.0
 40
0.7500547609
 40
1.0
 40
1.0
 40
1.0
 40
1.0
 10
-40.8483779783
 20
10.3623239211
 30
0.0
 10
-40.5631656838
 20
10.3623239211
 30
0.0
 10
-40.1718683163
 20
10.4513763062
 30
0.0
 10
-39.8532252553
 20
10.662989915
 30
0.0
 10
-39.7808634154
 20
10.7246185849
 30
0.0
 11
-40.8483779783
 21
10.3623239211
 31
0.0
 11
-40.0170507925
 21
10.564863008
 31
0.0
 11
-39.7808634154
 21
10.7246185849
 31
0.0
  0
SPLINE
  5
604
100
AcDbEntity
  8
INCISIONI
100
AcDbSpline
 62
253
  6
CONTINUOUS
 70
0
 71
3
 72
8
 73
4
 74
2
 42
0.0000001
 43
0.0000001
 44
0.0000000001
 12
0.0
 22
-0.651743576
 32
0.0
 13
-0.4804800633
 23
-0.4402706656
 33
0.0
 40
0.0
 40
0.0
 40
0.0
 40
0.0
 40
1.0
 40
1.0
 40
1.0
 40
1.0
 10
-39.793571009
 20
11.7579507336
 30
0.0
 10
-39.793571009
 20
11.5407028749
 30
0.0
 10
-39.8810684345
 20
11.3018670207
 30
0.0
 10
-40.0412284556
 20
11.1551101322
 30
0.0
 11
-39.793571009
 21
11.7579507336
 31
0.0
 11
-40.0412284556
 21
11.1551101322
 31
0.0
  0
SPLINE
  5
605
100
AcDbEntity
  8
INCISIONI
100
AcDbSpline
 62
253
  6
CONTINUOUS
 70
0
 71
3
 72
8
 73
4
 74
2
 42
0.0000001
 43
0.0000001
 44
0.0000000001
 12
0.4785009339
 22
-0.4385102618
 32
0.0
 13
0.0
 23
-0.6490948727
 33
0.0
 40
0.0
 40
0.0
 40
0.0
 40
0.0
 40
1.0
 40
1.0
 40
1.0
 40
1.0
 10
-40.0412284556
 20
12.3579267794
 30
0.0
 10
-39.8817281444
 20
12.2117566921
 30
0.0
 10
-39.793571009
 20
11.9743156911
 30
0.0
 10
-39.793571009
 20
11.7579507336
 30
0.0
 11
-40.0412284556
 21
12.3579267794
 31
0.0
 11
-39.793571009
 21
11.7579507336
 31
0.0
  0
SPLINE
  5
606
100
AcDbEntity
  8
INCISIONI
100
AcDbSpline
 62
253
  6
CONTINUOUS
 70
0
 71
3
 72
9
 73
5
 74
3
 42
0.0000001
 43
0.0000001
 44
0.0000000001
 12
0.8631522108
 22
0.0
 32
0.0
 13
0.6363970365
 23
-0.5832102119
 33
0.0
 40
0.0
 40
0.0
 40
0.0
 40
0.0
 40
0.7501681637
 40
1.0
 40
1.0
 40
1.0
 40
1.0
 10
-40.8480967238
 20
12.6297219488
 30
0.0
 10
-40.6322602874
 20
12.6297219488
 30
0.0
 10
-40.333990051
 20
12.5705197887
 30
0.0
 10
-40.0942258691
 20
12.4064949388
 30
0.0
 10
-40.0412284556
 20
12.3579267794
 30
0.0
 11
-40.8480967238
 21
12.6297219488
 31
0.0
 11
-40.2176790315
 21
12.4819095903
 31
0.0
 11
-40.0412284556
 21
12.3579267794
 31
0.0
  0
SPLINE
  5
607
100
AcDbEntity
  8
INCISIONI
100
AcDbSpline
 62
253
  6
CONTINUOUS
 70
0
 71
3
 72
9
 73
5
 74
3
 42
0.0000001
 43
0.0000001
 44
0.0000000001
 12
0.6345080407
 22
0.5814597384
 32
0.0
 13
0.8605770749
 23
0.0
 33
0.0
 40
0.0
 40
0.0
 40
0.0
 40
0.0
 40
0.7499573393
 40
1.0
 40
1.0
 40
1.0
 40
1.0
 10
-41.654980333
 20
12.3579267794
 30
0.0
 10
-41.4963623457
 20
12.5032834455
 30
0.0
 10
-41.2047651385
 20
12.6100652632
 30
0.0
 10
-40.9198237176
 20
12.6297219488
 30
0.0
 10
-40.8480967238
 20
12.6297219488
 30
0.0
 11
-41.654980333
 21
12.3579267794
 31
0.0
 11
-41.0627348683
 21
12.6144447496
 31
0.0
 11
-40.8480967238
 21
12.6297219488
 31
0.0
  0
SPLINE
  5
608
100
AcDbEntity
  8
INCISIONI
100
AcDbSpline
 62
253
  6
CONTINUOUS
 70
0
 71
3
 72
8
 73
4
 74
2
 42
0.0000001
 43
0.0000001
 44
0.0000000001
 12
0.0
 22
0.6490948727
 32
0.0
 13
0.4785082014
 23
0.4385023289
 33
0.0
 40
0.0
 40
0.0
 40
0.0
 40
0.0
 40
1.0
 40
1.0
 40
1.0
 40
1.0
 10
-41.9026377797
 20
11.7579507336
 30
0.0
 10
-41.9026377797
 20
11.9743156911
 30
0.0
 10
-41.8144830668
 20
12.2117593364
 30
0.0
 10
-41.654980333
 20
12.3579267794
 30
0.0
 11
-41.9026377797
 21
11.7579507336
 31
0.0
 11
-41.654980333
 21
12.3579267794
 31
0.0
  0
SPLINE
  5
609
100
AcDbEntity
  8
INCISIONI
100
AcDbSpline
 62
253
  6
CONTINUOUS
 70
0
 71
3
 72
8
 73
4
 74
2
 42
0.0000001
 43
0.0000001
 44
0.0000000001
 12
-0.4804732797
 22
0.4402780709
 32
0.0
 13
0.0
 23
0.651743576
 33
0.0
 40
0.0
 40
0.0
 40
0.0
 40
0.0
 40
1.0
 40
1.0
 40
1.0
 40
1.0
 10
-41.654980333
 20
11.1551101322
 30
0.0
 10
-41.8151380929
 20
11.3018694891
 30
0.0
 10
-41.9026377797
 20
11.5407028749
 30
0.0
 10
-41.9026377797
 20
11.7579507336
 30
0.0
 11
-41.654980333
 21
11.1551101322
 31
0.0
 11
-41.9026377797
 21
11.7579507336
 31
0.0
  0
SPLINE
  5
60A
100
AcDbEntity
  8
INCISIONI
100
AcDbSpline
 62
253
  6
CONTINUOUS
 70
0
 71
3
 72
9
 73
5
 74
3
 42
0.0000001
 43
0.0000001
 44
0.0000000001
 12
-0.8631686094
 22
0.0
 32
0.0
 13
-0.6364162643
 23
0.5832135014
 33
0.0
 40
0.0
 40
0.0
 40
0.0
 40
0.0
 40
0.7501681644
 40
1.0
 40
1.0
 40
1.0
 40
1.0
 10
-40.8480967238
 20
10.8833098474
 30
0.0
 10
-41.0639372609
 20
10.8833098474
 30
0.0
 10
-41.362214068
 20
10.9425121049
 30
0.0
 10
-41.6019813185
 20
11.106541699
 30
0.0
 10
-41.654980333
 20
11.1551101322
 30
0.0
 11
-40.8480967238
 21
10.8833098474
 31
0.0
 11
-41.4785264046
 21
11.0311249672
 31
0.0
 11
-41.654980333
 21
11.1551101322
 31
0.0
  0
SPLINE
  5
60B
100
AcDbEntity
  8
INCISIONI
100
AcDbSpline
 62
253
  6
CONTINUOUS
 70
0
 71
3
 72
9
 73
5
 74
3
 42
0.0000001
 43
0.0000001
 44
0.0000000001
 12
-0.6345237032
 22
-0.5814230277
 32
0.0
 13
-0.8605638273
 23
0.0
 33
0.0
 40
0.0
 40
0.0
 40
0.0
 40
0.0
 40
0.7499573136
 40
1.0
 40
1.0
 40
1.0
 40
1.0
 10
-40.0412284556
 20
11.1551101322
 30
0.0
 10
-40.199850353
 20
11.0097626482
 30
0.0
 10
-40.4914328263
 20
10.9029716844
 30
0.0
 10
-40.7763708267
 20
10.8833098474
 30
0.0
 10
-40.8480967238
 20
10.8833098474
 30
0.0
 11
-40.0412284556
 21
11.1551101322
 31
0.0
 11
-40.6334620792
 21
10.8985898747
 31
0.0
 11
-40.8480967238
 21
10.8833098474
 31
0.0
  0
SPLINE
  5
60C
100
AcDbEntity
  8
INCISIONI
100
AcDbSpline
 62
253
  6
CONTINUOUS
 70
0
 71
3
 72
11
 73
7
 74
5
 42
0.0000001
 43
0.0000001
 44
0.0000000001
 12
0.7373377137
 22
0.0113808125
 32
0.0
 13
0.0164643223
 23
-0.7373539953
 33
0.0
 40
0.0
 40
0.0
 40
0.0
 40
0.0
 40
0.2491315025
 40
0.4973515609
 40
0.7462289133
 40
1.0
 40
1.0
 40
1.0
 40
1.0
 10
-41.4659726111
 20
-5.4627200261
 30
0.0
 10
-41.4047412603
 20
-5.4617749198
 30
0.0
 10
-41.2802871885
 20
-5.4732383197
 30
0.0
 10
-41.1166517856
 20
-5.5749993121
 30
0.0
 10
-41.0313978631
 20
-5.746549742
 30
0.0
 10
-41.0168977048
 20
-5.8705216342
 30
0.0
 10
-41.0155049818
 20
-5.9328946758
 30
0.0
 11
-41.4659726111
 21
-5.4627200261
 31
0.0
 11
-41.28392155
 21
-5.4874007505
 31
0.0
 11
-41.1299022957
 21
-5.5863253894
 31
0.0
 11
-41.042389965
 21
-5.7476704692
 31
0.0
 11
-41.0155049818
 21
-5.9328946758
 31
0.0
  0
SPLINE
  5
60D
100
AcDbEntity
  8
INCISIONI
100
AcDbSpline
 62
253
  6
CONTINUOUS
 70
0
 71
3
 72
9
 73
5
 74
3
 42
0.0000001
 43
0.0000001
 44
0.0000000001
 12
0.0616043735
 22
0.5307774627
 32
0.0
 13
0.5341948855
 23
0.0083576149
 33
0.0
 40
0.0
 40
0.0
 40
0.0
 40
0.0
 40
0.5000882298
 40
1.0
 40
1.0
 40
1.0
 40
1.0
 10
-41.8283378758
 20
-5.804625691
 30
0.0
 10
-41.8180686685
 20
-5.7161471704
 30
0.0
 10
-41.7402170884
 20
-5.5367587789
 30
0.0
 10
-41.5549893814
 20
-5.4641127161
 30
0.0
 10
-41.4659726111
 20
-5.4627200261
 30
0.0
 11
-41.8283378758
 21
-5.804625691
 31
0.0
 11
-41.7133498444
 21
-5.5634221249
 31
0.0
 11
-41.4659726111
 21
-5.4627200261
 31
0.0
  0
SPLINE
  5
60E
100
AcDbEntity
  8
INCISIONI
100
AcDbSpline
 62
253
  6
CONTINUOUS
 70
0
 71
3
 72
9
 73
5
 74
3
 42
0.0000001
 43
0.0000001
 44
0.0000000001
 12
-0.0800078963
 22
0.4690276623
 32
0.0
 13
0.054842989
 23
0.4726325126
 33
0.0
 40
0.0
 40
0.0
 40
0.0
 40
0.0
 40
0.4997637338
 40
1.0
 40
1.0
 40
1.0
 40
1.0
 10
-41.8112738847
 20
-6.2788012718
 30
0.0
 10
-41.824602233
 20
-6.2006669333
 30
0.0
 10
-41.8439848428
 20
-6.0427263562
 30
0.0
 10
-41.8374826932
 20
-5.8834349988
 30
0.0
 10
-41.8283378758
 20
-5.804625691
 30
0.0
 11
-41.8112738847
 21
-6.2788012718
 31
0.0
 11
-41.8375106083
 21
-6.0424636122
 31
0.0
 11
-41.8283378758
 21
-5.804625691
 31
0.0
  0
SPLINE
  5
60F
100
AcDbEntity
  8
INCISIONI
100
AcDbSpline
 62
253
  6
CONTINUOUS
 70
0
 71
3
 72
11
 73
7
 74
5
 42
0.0000001
 43
0.0000001
 44
0.0000000001
 12
-0.5116812263
 22
-1.4167437705
 32
0.0
 13
0.2191822581
 23
-1.4903036133
 33
0.0
 40
0.0
 40
0.0
 40
0.0
 40
0.0
 40
0.249614251
 40
0.499888924
 40
0.7499637517
 40
1.0
 40
1.0
 40
1.0
 40
1.0
 10
-42.2407212853
 20
-5.3678501192
 30
0.0
 10
-42.283295594
 20
-5.485729931
 30
0.0
 10
-42.3307712874
 20
-5.735014474
 30
0.0
 10
-42.3451780486
 20
-6.1116431473
 30
0.0
 10
-42.3220223749
 20
-6.4882750285
 30
0.0
 10
-42.2895086678
 20
-6.7373573696
 30
0.0
 10
-42.2712408313
 20
-6.8615673444
 30
0.0
 11
-42.2407212853
 21
-5.3678501192
 31
0.0
 11
-42.3212653528
 21
-5.7351233729
 31
0.0
 11
-42.338913971
 21
-6.1117086883
 31
0.0
 11
-42.3177502507
 21
-6.487811254
 31
0.0
 11
-42.2712408313
 21
-6.8615673444
 31
0.0
  0
SPLINE
  5
610
100
AcDbEntity
  8
INCISIONI
100
AcDbSpline
 62
253
  6
CONTINUOUS
 70
0
 71
3
 72
18
 73
14
 74
12
 42
0.0000001
 43
0.0000001
 44
0.0000000001
 12
-0.2311001381
 22
1.7915717583
 32
0.0
 13
-0.6128270121
 23
-1.6992591149
 33
0.0
 40
0.0
 40
0.0
 40
0.0
 40
0.0
 40
0.0626155709
 40
0.1255750725
 40
0.1873779143
 40
0.2500548274
 40
0.3131302752
 40
0.3757850613
 40
0.5005898481
 40
0.6254073429
 40
0.7503252015
 40
0.8752611255
 40
1.0
 40
1.0
 40
1.0
 40
1.0
 10
-40.7765873679
 20
-5.30544429
 30
0.0
 10
-40.7814108569
 20
-5.2680508605
 30
0.0
 10
-40.8343832847
 20
-5.205742357
 30
0.0
 10
-40.906404586
 20
-5.1219941374
 30
0.0
 10
-40.9923538559
 20
-5.0470552444
 30
0.0
 10
-41.0887723335
 20
-4.9877497308
 30
0.0
 10
-41.1931515265
 20
-4.9423237958
 30
0.0
 10
-41.3388140968
 20
-4.9015430794
 30
0.0
 10
-41.5282104706
 20
-4.887359708
 30
0.0
 10
-41.7533807615
 20
-4.9207057947
 30
0.0
 10
-41.9619323474
 20
-5.0158512686
 30
0.0
 10
-42.1320206644
 20
-5.1675562972
 30
0.0
 10
-42.2152401681
 20
-5.2971955627
 30
0.0
 10
-42.2407212853
 20
-5.3678501192
 30
0.0
 11
-40.7765873679
 21
-5.30544429
 31
0.0
 11
-40.8330681604
 21
-5.2074502929
 31
0.0
 11
-40.9092060062
 21
-5.1229750287
 31
0.0
 11
-40.9936571421
 21
-5.0499699399
 31
0.0
 11
-41.0898147753
 21
-4.9902217399
 31
0.0
 11
-41.1942515178
 21
-4.9447010075
 31
0.0
 11
-41.3032052315
 21
-4.914117073
 31
0.0
 11
-41.5278714409
 21
-4.8957499389
 31
0.0
 11
-41.7505402426
 21
-4.9309846614
 31
0.0
 11
-41.9555167531
 21
-5.0252799698
 31
0.0
 11
-42.1245611476
 21
-5.1747784359
 31
0.0
 11
-42.2407212853
 21
-5.3678501192
 31
0.0
  0
SPLINE
  5
611
100
AcDbEntity
  8
INCISIONI
100
AcDbSpline
 62
253
  6
CONTINUOUS
 70
0
 71
3
 72
11
 73
7
 74
5
 42
0.0000001
 43
0.0000001
 44
0.0000000001
 12
-0.6648989534
 22
-0.181193689
 32
0.0
 13
-0.2552161048
 23
-0.6402353954
 33
0.0
 40
0.0
 40
0.0
 40
0.0
 40
0.0
 40
0.2450440156
 40
0.5033055314
 40
0.7579591626
 40
1.0
 40
1.0
 40
1.0
 40
1.0
 10
-40.1909120634
 20
-4.9565587397
 30
0.0
 10
-40.2452218999
 20
-4.9713588828
 30
0.0
 10
-40.3571833178
 20
-5.0005213919
 30
0.0
 10
-40.5195912458
 20
-5.0651610171
 30
0.0
 10
-40.6672280294
 20
-5.159157879
 30
0.0
 10
-40.7388672575
 20
-5.2537899196
 30
0.0
 10
-40.759458164
 20
-5.30544429
 30
0.0
 11
-40.1909120634
 21
-4.9565587397
 31
0.0
 11
-40.3532668874
 21
-5.0030172293
 31
0.0
 11
-40.5179308582
 21
-5.0705695192
 31
0.0
 11
-40.6629935734
 21
-5.169347468
 31
0.0
 11
-40.759458164
 21
-5.30544429
 31
0.0
  0
SPLINE
  5
612
100
AcDbEntity
  8
INCISIONI
100
AcDbSpline
 62
253
  6
CONTINUOUS
 70
0
 71
3
 72
8
 73
4
 74
2
 42
0.0000001
 43
0.0000001
 44
0.0000000001
 12
-0.7830184647
 22
-0.212730392
 32
0.0
 13
-0.7828503484
 23
-0.2133484193
 33
0.0
 40
0.0
 40
0.0
 40
0.0
 40
0.0
 40
1.0
 40
1.0
 40
1.0
 40
1.0
 10
-39.4063380083
 20
-4.7496410148
 30
0.0
 10
-39.6673441632
 20
-4.8205511455
 30
0.0
 10
-39.9299619472
 20
-4.8854426
 30
0.0
 10
-40.1909120634
 20
-4.9565587397
 30
0.0
 11
-39.4063380083
 21
-4.7496410148
 31
0.0
 11
-40.1909120634
 21
-4.9565587397
 31
0.0
  0
SPLINE
  5
613
100
AcDbEntity
  8
INCISIONI
100
AcDbSpline
 62
253
  6
CONTINUOUS
 70
0
 71
3
 72
9
 73
5
 74
3
 42
0.0000001
 43
0.0000001
 44
0.0000000001
 12
0.8593546271
 22
0.3229459945
 32
0.0
 13
0.8822654545
 23
0.2537321442
 33
0.0
 40
0.0
 40
0.0
 40
0.0
 40
0.0
 40
0.499968398
 40
1.0
 40
1.0
 40
1.0
 40
1.0
 10
-40.2853400604
 20
-5.5965120355
 30
0.0
 10
-40.1421233416
 20
-5.542691105
 30
0.0
 10
-39.8465026377
 20
-5.4614309255
 30
0.0
 10
-39.5533915445
 20
-5.3741331019
 30
0.0
 10
-39.4063380083
 20
-5.3318417383
 30
0.0
 11
-40.2853400604
 21
-5.5965120355
 31
0.0
 11
-39.8471486455
 21
-5.4599268412
 31
0.0
 11
-39.4063380083
 21
-5.3318417383
 31
0.0
  0
SPLINE
  5
614
100
AcDbEntity
  8
INCISIONI
100
AcDbSpline
 62
253
  6
CONTINUOUS
 70
0
 71
3
 72
11
 73
7
 74
5
 42
0.0000001
 43
0.0000001
 44
0.0000000001
 12
0.0
 22
0.4505958664
 32
0.0
 13
0.421793933
 23
0.1583423737
 33
0.0
 40
0.0
 40
0.0
 40
0.0
 40
0.0
 40
0.2477795725
 40
0.4960551195
 40
0.7486644071
 40
1.0
 40
1.0
 40
1.0
 40
1.0
 10
-40.5407564887
 20
-5.9341993273
 30
0.0
 10
-40.5407564887
 20
-5.8969831769
 30
0.0
 10
-40.5298682674
 20
-5.8216580962
 30
0.0
 10
-40.4741619085
 20
-5.7211454858
 30
0.0
 10
-40.3885019401
 20
-5.6450913069
 30
0.0
 10
-40.3206773364
 20
-5.609777727
 30
0.0
 10
-40.2853400604
 20
-5.5965120355
 30
0.0
 11
-40.5407564887
 21
-5.9341993273
 31
0.0
 11
-40.5233866377
 21
-5.8239107377
 31
0.0
 11
-40.4696272314
 21
-5.7258068357
 31
0.0
 11
-40.3857343652
 21
-5.648891914
 31
0.0
 11
-40.2853400604
 21
-5.5965120355
 31
0.0
  0
SPLINE
  5
615
100
AcDbEntity
  8
SUPERFICI
100
AcDbSpline
 62
7
  6
CONTINUOUS
 70
0
 71
3
 72
18
 73
14
 74
12
 42
0.0000001
 43
0.0000001
 44
0.0000000001
 12
-0.0
 22
-0.5003132172
 32
0.0
 13
0.1309027125
 23
-0.4854543639
 33
0.0
 40
0.0
 40
0.0
 40
0.0
 40
0.0
 40
0.0979378208
 40
0.1949481678
 40
0.3824262608
 40
0.555237868
 40
0.7067385852
 40
0.8311031688
 40
0.9235489232
 40
0.9566440972
 40
0.9805310857
 40
0.9950218771
 40
1.0
 40
1.0
 40
1.0
 40
1.0
 10
-46.8983367983
 20
-21.8997711479
 30
0.0
 10
-46.8983367983
 20
-21.9161043433
 30
0.0
 10
-46.8977018612
 20
-21.9486125244
 30
0.0
 10
-46.8975374062
 20
-22.0123910893
 30
0.0
 10
-46.8980441119
 20
-22.0886542526
 30
0.0
 10
-46.8987434977
 20
-22.1740035597
 30
0.0
 10
-46.8993947868
 20
-22.2488256643
 30
0.0
 10
-46.8997858641
 20
-22.3102520964
 30
0.0
 10
-46.8998785136
 20
-22.3519205799
 30
0.0
 10
-46.8996522953
 20
-22.3768528958
 30
0.0
 10
-46.8993813843
 20
-22.3887486687
 30
0.0
 10
-46.8992065415
 20
-22.3960145645
 30
0.0
 10
-46.8985540149
 20
-22.3991944495
 30
0.0
 10
-46.8983367983
 20
-22.4
 30
0.0
 11
-46.8983367983
 21
-21.8997711479
 31
0.0
 11
-46.8978379304
 21
-21.9487681946
 31
0.0
 11
-46.8976271901
 21
-21.9973032959
 31
0.0
 11
-46.8980855818
 21
-22.0910999437
 31
0.0
 11
-46.8987804499
 21
-22.1775570825
 31
0.0
 11
-46.8994017479
 21
-22.2533523474
 31
0.0
 11
-46.8997704569
 21
-22.3155724999
 31
0.0
 11
-46.8997722203
 21
-22.3618243326
 31
0.0
 11
-46.8995945969
 21
-22.3783813329
 31
0.0
 11
-46.899342166
 21
-22.3903296427
 31
0.0
 11
-46.8988501825
 21
-22.3975628648
 31
0.0
 11
-46.8983367983
 21
-22.4
 31
0.0
  0
SPLINE
  5
616
100
AcDbEntity
  8
SUPERFICI
100
AcDbSpline
 62
253
  6
CONTINUOUS
 70
0
 71
3
 72
21
 73
17
 74
15
 42
0.0000001
 43
0.0000001
 44
0.0000000001
 12
-0.026153788
 22
-0.4991960514
 32
0.0
 13
0.4991956349
 23
-0.0261617347
 33
0.0
 40
0.0
 40
0.0
 40
0.0
 40
0.0
 40
0.1950099623
 40
0.3824971131
 40
0.5552742796
 40
0.7067104289
 40
0.7725726648
 40
0.8309989404
 40
0.881428301
 40
0.9233776474
 40
0.9564476508
 40
0.9803285402
 40
0.9887545231
 40
0.9948169717
 40
0.9985235372
 40
1.0
 40
1.0
 40
1.0
 40
1.0
 10
-53.3641320925
 20
-21.5609131753
 30
0.0
 10
-53.3658321756
 20
-21.5933625763
 30
0.0
 10
-53.3690595964
 20
-21.6570152516
 30
0.0
 10
-53.3734222765
 20
-21.7494362206
 30
0.0
 10
-53.3771082683
 20
-21.8346196716
 30
0.0
 10
-53.3796105745
 20
-21.8995692995
 30
0.0
 10
-53.3811415867
 20
-21.9454864679
 30
0.0
 10
-53.3819903466
 20
-21.9745882691
 30
0.0
 10
-53.3825873838
 20
-21.999705374
 30
0.0
 10
-53.3829318164
 20
-22.0206176029
 30
0.0
 10
-53.383019635
 20
-22.0370668247
 30
0.0
 10
-53.3828914123
 20
-22.0480244567
 30
0.0
 10
-53.3826146853
 20
-22.0543269554
 30
0.0
 10
-53.3823702179
 20
-22.0574927231
 30
0.0
 10
-53.3821051798
 20
-22.0590876461
 30
0.0
 10
-53.3818195487
 20
-22.060215067
 30
0.0
 10
-53.3815738674
 20
-22.0602279426
 30
0.0
 11
-53.3641320925
 21
-21.5609131753
 31
0.0
 11
-53.3690653112
 21
-21.6582699858
 31
0.0
 11
-53.3734740983
 21
-21.7518874393
 31
0.0
 11
-53.3771893963
 21
-21.8381754633
 31
0.0
 11
-53.380068527
 21
-21.9138207008
 31
0.0
 11
-53.3811586269
 21
-21.9467259099
 31
0.0
 11
-53.3820010063
 21
-21.975919927
 31
0.0
 11
-53.3825875522
 21
-22.0011217666
 31
0.0
 11
-53.3829126201
 21
-22.0220889157
 31
0.0
 11
-53.3829730808
 21
-22.0386198617
 31
0.0
 11
-53.3827684092
 21
-22.0505557028
 31
0.0
 11
-53.3825671409
 21
-22.0547628776
 31
0.0
 11
-53.3823004437
 21
-22.0577816206
 31
0.0
 11
-53.3819690155
 21
-22.0596045779
 31
0.0
 11
-53.3815738674
 21
-22.0602279426
 31
0.0
  0
SPLINE
  5
617
100
AcDbEntity
  8
SUPERFICI
100
AcDbSpline
 62
253
  6
CONTINUOUS
 70
0
 71
3
 72
22
 73
18
 74
16
 42
0.0000001
 43
0.0000001
 44
0.0000000001
 12
-0.485881736
 22
-0.0732958179
 32
0.0
 13
0.0732761967
 23
-0.4858846955
 33
0.0
 40
0.0
 40
0.0
 40
0.0
 40
0.0
 40
0.1960040634
 40
0.3839724693
 40
0.5568496978
 40
0.7081347104
 40
0.7738642129
 40
0.8321383898
 40
0.8824088619
 40
0.924201722
 40
0.9571224325
 40
0.9701562621
 40
0.9808619017
 40
0.9892162275
 40
0.9951976694
 40
0.998793587
 40
1.0
 40
1.0
 40
1.0
 40
1.0
 10
-53.8323737368
 20
-21.1361579495
 30
0.0
 10
-53.8641186683
 20
-21.1409467089
 30
0.0
 10
-53.9263047458
 20
-21.1503433572
 30
0.0
 10
-54.0164819589
 20
-21.1640175116
 30
0.0
 10
-54.0994099929
 20
-21.1766420942
 30
0.0
 10
-54.1625371242
 20
-21.1862982916
 30
0.0
 10
-54.2071040616
 20
-21.1931506047
 30
0.0
 10
-54.2353139022
 20
-21.1975068415
 30
0.0
 10
-54.2596489945
 20
-21.2012826709
 30
0.0
 10
-54.2798682852
 20
-21.2044492188
 30
0.0
 10
-54.2940794906
 20
-21.2066839111
 30
0.0
 10
-54.3032199154
 20
-21.2081668479
 30
0.0
 10
-54.3084572241
 20
-21.2089820425
 30
0.0
 10
-54.3123774684
 20
-21.2097258076
 30
0.0
 10
-54.3155587588
 20
-21.2100558307
 30
0.0
 10
-54.3167929922
 20
-21.2106635156
 30
0.0
 10
-54.3180863763
 20
-21.2105220613
 30
0.0
 10
-54.3180569091
 20
-21.2107174539
 30
0.0
 11
-53.8323737368
 21
-21.1361579495
 31
0.0
 11
-53.9276048788
 21
-21.15054842
 31
0.0
 11
-54.0189244553
 21
-21.1643973792
 31
0.0
 11
-54.1029046962
 21
-21.1771849923
 31
0.0
 11
-54.1763874927
 21
-21.1884303744
 31
0.0
 11
-54.2083102794
 21
-21.1933398393
 31
0.0
 11
-54.2366094423
 21
-21.1977106357
 31
0.0
 11
-54.2610186623
 21
-21.201501629
 31
0.0
 11
-54.2813078056
 21
-21.2046770794
 31
0.0
 11
-54.2972852935
 21
-21.2072070065
 31
0.0
 11
-54.3036088631
 21
-21.2082222573
 31
0.0
 11
-54.3088010193
 21
-21.2090676296
 31
0.0
 11
-54.3128505088
 21
-21.2097412856
 31
0.0
 11
-54.3157467866
 21
-21.2102414929
 31
0.0
 11
-54.3174834802
 21
-21.2105671265
 31
0.0
 11
-54.3180569091
 21
-21.2107174539
 31
0.0
  0
SPLINE
  5
618
100
AcDbEntity
  8
SUPERFICI
100
AcDbSpline
 62
253
  6
CONTINUOUS
 70
0
 71
3
 72
22
 73
18
 74
16
 42
0.0000001
 43
0.0000001
 44
0.0000000001
 12
-0.4858819814
 22
0.073295854
 32
0.0
 13
0.073274036
 23
0.4858852722
 33
0.0
 40
0.0
 40
0.0
 40
0.0
 40
0.0
 40
0.1960040281
 40
0.383972413
 40
0.5568496354
 40
0.7081346548
 40
0.7738641643
 40
0.8321383496
 40
0.8824088308
 40
0.9242017
 40
0.9571224187
 40
0.9701562519
 40
0.9808618946
 40
0.9892162231
 40
0.9951976671
 40
0.9987935861
 40
1.0
 40
1.0
 40
1.0
 40
1.0
 10
-53.8323737368
 20
21.1361579495
 30
0.0
 10
-53.8641186787
 20
21.1409467104
 30
0.0
 10
-53.9263047784
 20
21.1503433619
 30
0.0
 10
-54.016482027
 20
21.1640175216
 30
0.0
 10
-54.0994100996
 20
21.1766421099
 30
0.0
 10
-54.1625372639
 20
21.1862983123
 30
0.0
 10
-54.2071042275
 20
21.1931506293
 30
0.0
 10
-54.2353140863
 20
21.1975068688
 30
0.0
 10
-54.2596491952
 20
21.2012827008
 30
0.0
 10
-54.2798685004
 20
21.204449251
 30
0.0
 10
-54.2940797163
 20
21.2066839449
 30
0.0
 10
-54.3032201481
 20
21.2081668828
 30
0.0
 10
-54.3084574609
 20
21.208982078
 30
0.0
 10
-54.3123777089
 20
21.2097258438
 30
0.0
 10
-54.3155590009
 20
21.210055867
 30
0.0
 10
-54.3167932374
 20
21.2106635527
 30
0.0
 10
-54.3180866207
 20
21.210522098
 30
0.0
 10
-54.3180571544
 20
21.2107174909
 30
0.0
 11
-53.8323737368
 21
21.1361579495
 31
0.0
 11
-53.9276049097
 21
21.1505484245
 31
0.0
 11
-54.0189245221
 21
21.164397389
 31
0.0
 11
-54.1029048026
 21
21.177185008
 31
0.0
 11
-54.1763876394
 21
21.1884303961
 31
0.0
 11
-54.2083104456
 21
21.193339864
 31
0.0
 11
-54.236609627
 21
21.1977106632
 31
0.0
 11
-54.2610188637
 21
21.201501659
 31
0.0
 11
-54.2813080216
 21
21.2046771117
 31
0.0
 11
-54.2972855216
 21
21.2072070407
 31
0.0
 11
-54.3036090961
 21
21.2082222922
 31
0.0
 11
-54.3088012565
 21
21.2090676651
 31
0.0
 11
-54.3128507493
 21
21.2097413218
 31
0.0
 11
-54.3157470296
 21
21.2102415294
 31
0.0
 11
-54.3174837248
 21
21.2105671634
 31
0.0
 11
-54.3180571544
 21
21.2107174909
 31
0.0
  0
SPLINE
  5
619
100
AcDbEntity
  8
SUPERFICI
100
AcDbSpline
 62
253
  6
CONTINUOUS
 70
0
 71
3
 72
21
 73
17
 74
15
 42
0.0000001
 43
0.0000001
 44
0.0000000001
 12
-0.0261537887
 22
0.4991960514
 32
0.0
 13
0.499195635
 23
0.0261617347
 33
0.0
 40
0.0
 40
0.0
 40
0.0
 40
0.0
 40
0.1950099623
 40
0.382497113
 40
0.5552742795
 40
0.7067104288
 40
0.7725726647
 40
0.8309989402
 40
0.8814283009
 40
0.9233776473
 40
0.9564476507
 40
0.9803285401
 40
0.9887545231
 40
0.9948169717
 40
0.9985235371
 40
1.0
 40
1.0
 40
1.0
 40
1.0
 10
-53.3641320925
 20
21.5609131753
 30
0.0
 10
-53.3658321756
 20
21.5933625763
 30
0.0
 10
-53.3690595966
 20
21.6570152516
 30
0.0
 10
-53.3734222767
 20
21.7494362206
 30
0.0
 10
-53.3771082686
 20
21.8346196715
 30
0.0
 10
-53.3796105749
 20
21.8995692994
 30
0.0
 10
-53.381141587
 20
21.9454864679
 30
0.0
 10
-53.3819903469
 20
21.9745882691
 30
0.0
 10
-53.382587384
 20
21.999705374
 30
0.0
 10
-53.3829318167
 20
22.0206176029
 30
0.0
 10
-53.3830196352
 20
22.0370668247
 30
0.0
 10
-53.3828914125
 20
22.0480244567
 30
0.0
 10
-53.3826146854
 20
22.0543269554
 30
0.0
 10
-53.382370218
 20
22.0574927231
 30
0.0
 10
-53.3821051799
 20
22.0590876462
 30
0.0
 10
-53.3818195487
 20
22.060215067
 30
0.0
 10
-53.3815738674
 20
22.0602279426
 30
0.0
 11
-53.3641320925
 21
21.5609131753
 31
0.0
 11
-53.3690653113
 21
21.6582699858
 31
0.0
 11
-53.3734740985
 21
21.7518874393
 31
0.0
 11
-53.3771893966
 21
21.8381754632
 31
0.0
 11
-53.3800685273
 21
21.9138207008
 31
0.0
 11
-53.3811586272
 21
21.9467259099
 31
0.0
 11
-53.3820010066
 21
21.975919927
 31
0.0
 11
-53.3825875525
 21
22.0011217666
 31
0.0
 11
-53.3829126204
 21
22.0220889157
 31
0.0
 11
-53.3829730809
 21
22.0386198617
 31
0.0
 11
-53.3827684093
 21
22.0505557028
 31
0.0
 11
-53.382567141
 21
22.0547628776
 31
0.0
 11
-53.3823004438
 21
22.0577816206
 31
0.0
 11
-53.3819690156
 21
22.0596045779
 31
0.0
 11
-53.3815738674
 21
22.0602279426
 31
0.0
  0
SPLINE
  5
61A
100
AcDbEntity
  8
SUPERFICI
100
AcDbSpline
 62
7
  6
CONTINUOUS
 70
0
 71
3
 72
18
 73
14
 74
12
 42
0.0000001
 43
0.0000001
 44
0.0000000001
 12
-0.0
 22
0.5003132172
 32
0.0
 13
0.1309027125
 23
0.4854543639
 33
0.0
 40
0.0
 40
0.0
 40
0.0
 40
0.0
 40
0.0979378208
 40
0.1949481678
 40
0.3824262608
 40
0.555237868
 40
0.7067385852
 40
0.8311031688
 40
0.9235489232
 40
0.9566440972
 40
0.9805310857
 40
0.9950218771
 40
1.0
 40
1.0
 40
1.0
 40
1.0
 10
-46.8983367983
 20
21.8997711479
 30
0.0
 10
-46.8983367983
 20
21.9161043433
 30
0.0
 10
-46.8977018612
 20
21.9486125244
 30
0.0
 10
-46.8975374062
 20
22.0123910893
 30
0.0
 10
-46.8980441119
 20
22.0886542526
 30
0.0
 10
-46.8987434977
 20
22.1740035597
 30
0.0
 10
-46.8993947868
 20
22.2488256643
 30
0.0
 10
-46.8997858641
 20
22.3102520964
 30
0.0
 10
-46.8998785136
 20
22.3519205799
 30
0.0
 10
-46.8996522953
 20
22.3768528958
 30
0.0
 10
-46.8993813843
 20
22.3887486687
 30
0.0
 10
-46.8992065415
 20
22.3960145645
 30
0.0
 10
-46.8985540149
 20
22.3991944495
 30
0.0
 10
-46.8983367983
 20
22.4
 30
0.0
 11
-46.8983367983
 21
21.8997711479
 31
0.0
 11
-46.8978379304
 21
21.9487681946
 31
0.0
 11
-46.8976271901
 21
21.9973032959
 31
0.0
 11
-46.8980855818
 21
22.0910999437
 31
0.0
 11
-46.8987804499
 21
22.1775570825
 31
0.0
 11
-46.8994017479
 21
22.2533523474
 31
0.0
 11
-46.8997704569
 21
22.3155724999
 31
0.0
 11
-46.8997722203
 21
22.3618243326
 31
0.0
 11
-46.8995945969
 21
22.3783813329
 31
0.0
 11
-46.899342166
 21
22.3903296427
 31
0.0
 11
-46.8988501825
 21
22.3975628648
 31
0.0
 11
-46.8983367983
 21
22.4
 31
0.0
  0
SPLINE
  5
61B
100
AcDbEntity
  8
SUPERFICI
100
AcDbSpline
 62
7
  6
CONTINUOUS
 70
0
 71
3
 72
10
 73
6
 74
4
 42
0.0000001
 43
0.0000001
 44
0.0000000001
 12
0.2467982198
 22
0.1473162928
 32
0.0
 13
0.2489095513
 23
0.1437116445
 33
0.0
 40
0.0
 40
0.0
 40
0.0
 40
0.0
 40
0.0871592394
 40
0.4713290238
 40
1.0
 40
1.0
 40
1.0
 40
1.0
 10
-48.3983367983
 20
23.1226497308
 30
0.0
 10
-48.39116655
 20
23.1269297228
 30
0.0
 10
-48.3523256569
 20
23.1499613838
 30
0.0
 10
-48.2693096957
 20
23.1977906216
 30
0.0
 10
-48.193654983
 20
23.2416619063
 30
0.0
 10
-48.1497912312
 20
23.2669872981
 30
0.0
 11
-48.3983367983
 21
23.1226497308
 31
0.0
 11
-48.3767916444
 21
23.1354311576
 31
0.0
 11
-48.2813278539
 21
23.1909165769
 31
0.0
 11
-48.1497912312
 21
23.2669872981
 31
0.0
  0
SPLINE
  5
61C
100
AcDbEntity
  8
SUPERFICI
100
AcDbSpline
 62
253
  6
CONTINUOUS
 70
0
 71
3
 72
21
 73
17
 74
15
 42
0.0000001
 43
0.0000001
 44
0.0000000001
 12
0.0014544483
 22
-0.250006888
 32
0.0
 13
-0.2500068877
 23
-0.0014544975
 33
0.0
 40
0.0
 40
0.0
 40
0.0
 40
0.0
 40
0.1950822179
 40
0.3826555053
 40
0.5555303392
 40
0.70705573
 40
0.7729556547
 40
0.8314118527
 40
0.8818607985
 40
0.9238189525
 40
0.9568817655
 40
0.9807301574
 40
0.989126275
 40
0.9951398515
 40
0.9987613804
 40
1.0
 40
1.0
 40
1.0
 40
1.0
 10
-46.1468823655
 20
-24.2456323968
 30
0.0
 10
-46.1467877865
 20
-24.2618896962
 30
0.0
 10
-46.1466202066
 20
-24.2937786331
 30
0.0
 10
-46.1464308545
 20
-24.3400745443
 30
0.0
 10
-46.1463123306
 20
-24.382740643
 30
0.0
 10
-46.1462731815
 20
-24.4152673812
 30
0.0
 10
-46.1462856477
 20
-24.4382580493
 30
0.0
 10
-46.1463129441
 20
-24.4528269448
 30
0.0
 10
-46.1463618918
 20
-24.4653958182
 30
0.0
 10
-46.1464202432
 20
-24.4758619698
 30
0.0
 10
-46.1465173636
 20
-24.4840748507
 30
0.0
 10
-46.1465692751
 20
-24.4895717745
 30
0.0
 10
-46.1466973277
 20
-24.4926846162
 30
0.0
 10
-46.1466817748
 20
-24.4943092826
 30
0.0
 10
-46.1468668685
 20
-24.4949952231
 30
0.0
 10
-46.1467791444
 20
-24.4956275655
 30
0.0
 10
-46.1468823655
 20
-24.495628166
 30
0.0
 11
-46.1468823655
 21
-24.2456323968
 31
0.0
 11
-46.1466265743
 21
-24.2944044496
 31
0.0
 11
-46.1464365179
 21
-24.3412994718
 31
0.0
 11
-46.1463194749
 21
-24.384519944
 31
0.0
 11
-46.1462799567
 21
-24.4224029558
 31
0.0
 11
-46.1462898593
 21
-24.4388786668
 31
0.0
 11
-46.1463194751
 21
-24.4534933362
 31
0.0
 11
-46.1463685194
 21
-24.4661060382
 31
0.0
 11
-46.1464365181
 21
-24.4765958229
 31
0.0
 11
-46.1465228149
 21
-24.4848614432
 31
0.0
 11
-46.1466265747
 21
-24.4908229035
 31
0.0
 11
-46.146684708
 21
-24.4929212211
 31
0.0
 11
-46.1467468374
 21
-24.4944233978
 31
0.0
 11
-46.1468127868
 21
-24.4953264153
 31
0.0
 11
-46.1468823655
 21
-24.495628166
 31
0.0
  0
LINE
  5
61D
100
AcDbEntity
  8
SUPERFICI
100
AcDbLine
 62
7
  6
CONTINUOUS
 10
-46.8983367983
 20
-24.2500042308
 11
-46.8983367983
 21
-24.5
  0
SPLINE
  5
61E
100
AcDbEntity
  8
SUPERFICI
100
AcDbSpline
 62
253
  6
CONTINUOUS
 70
0
 71
3
 72
21
 73
17
 74
15
 42
0.0000001
 43
0.0000001
 44
0.0000000001
 12
-0.0014544483
 22
-0.2500068879
 32
0.0
 13
0.2500068877
 23
-0.0014544975
 33
0.0
 40
0.0
 40
0.0
 40
0.0
 40
0.0
 40
0.1950821701
 40
0.3826554205
 40
0.5555302213
 40
0.7070555998
 40
0.7729555222
 40
0.8314117298
 40
0.881860684
 40
0.9238188479
 40
0.9568816874
 40
0.9807301043
 40
0.9891262332
 40
0.9951398191
 40
0.998761369
 40
1.0
 40
1.0
 40
1.0
 40
1.0
 10
-49.1497912312
 20
-24.2369056521
 30
0.0
 10
-49.1498858102
 20
-24.2531629475
 30
0.0
 10
-49.15005339
 20
-24.2850518774
 30
0.0
 10
-49.1502427421
 20
-24.3313477787
 30
0.0
 10
-49.150361266
 20
-24.3740138705
 30
0.0
 10
-49.1504004152
 20
-24.4065406047
 30
0.0
 10
-49.150387949
 20
-24.4295312724
 30
0.0
 10
-49.1503606527
 20
-24.4441001692
 30
0.0
 10
-49.1503117051
 20
-24.4566690449
 30
0.0
 10
-49.1502533536
 20
-24.4671352002
 30
0.0
 10
-49.1501562332
 20
-24.4753480863
 30
0.0
 10
-49.1501043221
 20
-24.4808450153
 30
0.0
 10
-49.1499762692
 20
-24.4839578608
 30
0.0
 10
-49.1499918224
 20
-24.4855825308
 30
0.0
 10
-49.1498067271
 20
-24.4862684737
 30
0.0
 10
-49.1498944533
 20
-24.4869008208
 30
0.0
 10
-49.1497912312
 20
-24.4869014213
 30
0.0
 11
-49.1497912312
 21
-24.2369056521
 31
0.0
 11
-49.1500470223
 21
-24.2856776929
 31
0.0
 11
-49.1502370787
 21
-24.3325727059
 31
0.0
 11
-49.1503541217
 21
-24.3757931698
 31
0.0
 11
-49.15039364
 21
-24.4136761785
 31
0.0
 11
-49.1503837375
 21
-24.4301518888
 31
0.0
 11
-49.1503541217
 21
-24.4447665607
 31
0.0
 11
-49.1503050774
 21
-24.4573792648
 31
0.0
 11
-49.1502370787
 21
-24.4678690519
 31
0.0
 11
-49.1501507821
 21
-24.4761346789
 31
0.0
 11
-49.1500470223
 21
-24.4820961454
 31
0.0
 11
-49.149988889
 21
-24.4841944659
 31
0.0
 11
-49.1499267595
 21
-24.4856966449
 31
0.0
 11
-49.1498608099
 21
-24.4865996677
 31
0.0
 11
-49.1497912312
 21
-24.4869014213
 31
0.0
  0
SPLINE
  5
61F
100
AcDbEntity
  8
SUPERFICI
100
AcDbSpline
 62
253
  6
CONTINUOUS
 70
0
 71
3
 72
21
 73
17
 74
15
 42
0.0000001
 43
0.0000001
 44
0.0000000001
 12
-0.1246405845
 22
0.2158911321
 32
0.0
 13
0.2158893054
 23
0.1246437486
 33
0.0
 40
0.0
 40
0.0
 40
0.0
 40
0.0
 40
0.1952389023
 40
0.38287979
 40
0.5557566991
 40
0.7072427174
 40
0.7731145695
 40
0.8315405978
 40
0.8819595776
 40
0.9238899665
 40
0.9569288677
 40
0.9807583616
 40
0.9891470509
 40
0.9951544438
 40
0.9987704654
 40
1.0
 40
1.0
 40
1.0
 40
1.0
 10
-49.1497912312
 20
-23.8443375673
 30
0.0
 10
-49.1579027948
 20
-23.8302874514
 30
0.0
 10
-49.1737968495
 20
-23.8027262719
 30
0.0
 10
-49.1968270312
 20
-23.7626974643
 30
0.0
 10
-49.2180021217
 20
-23.7257960171
 30
0.0
 10
-49.2341030228
 20
-23.6976484891
 30
0.0
 10
-49.2454511844
 20
-23.6777396323
 30
0.0
 10
-49.2526269243
 20
-23.6651173102
 30
0.0
 10
-49.2587974403
 20
-23.6542175024
 30
0.0
 10
-49.2639238048
 20
-23.6451349275
 30
0.0
 10
-49.2679033071
 20
-23.6379843721
 30
0.0
 10
-49.2705859728
 20
-23.6332080714
 30
0.0
 10
-49.2720172845
 20
-23.6304555846
 30
0.0
 10
-49.2728471305
 20
-23.6290629423
 30
0.0
 10
-49.2730184357
 20
-23.6283790328
 30
0.0
 10
-49.2734252795
 20
-23.627882301
 30
0.0
 10
-49.2733367983
 20
-23.6278312164
 30
0.0
 11
-49.1497912312
 21
-23.8443375673
 31
0.0
 11
-49.1741050351
 21
-23.8021751679
 31
0.0
 11
-49.1974308289
 21
-23.7616295042
 31
0.0
 11
-49.2188777829
 21
-23.7242490565
 31
0.0
 11
-49.2376237269
 21
-23.6914667926
 31
0.0
 11
-49.2457548455
 21
-23.6772002194
 31
0.0
 11
-49.2529512173
 21
-23.6645373638
 31
0.0
 11
-49.2591437011
 21
-23.6535998863
 31
0.0
 11
-49.2642731339
 21
-23.6444922901
 31
0.0
 11
-49.2682901894
 21
-23.6373021573
 31
0.0
 11
-49.2711561297
 21
-23.632098824
 31
0.0
 11
-49.272148623
 21
-23.630258157
 31
0.0
 11
-49.2728437241
 21
-23.6289316788
 31
0.0
 11
-49.2732400812
 21
-23.6281220646
 31
0.0
 11
-49.2733367983
 21
-23.6278312164
 31
0.0
  0
SPLINE
  5
620
100
AcDbEntity
  8
SUPERFICI
100
AcDbSpline
 62
253
  6
CONTINUOUS
 70
0
 71
3
 72
21
 73
17
 74
15
 42
0.0000001
 43
0.0000001
 44
0.0000000001
 12
-0.1246405845
 22
-0.2158911321
 32
0.0
 13
0.2158893054
 23
-0.1246437486
 33
0.0
 40
0.0
 40
0.0
 40
0.0
 40
0.0
 40
0.1952388959
 40
0.3828797779
 40
0.5557566816
 40
0.7072426977
 40
0.7731145491
 40
0.8315405786
 40
0.8819595594
 40
0.9238899496
 40
0.9569288549
 40
0.9807583528
 40
0.9891470439
 40
0.9951544383
 40
0.9987704635
 40
1.0
 40
1.0
 40
1.0
 40
1.0
 10
-49.1497912312
 20
23.8443375673
 30
0.0
 10
-49.1579027945
 20
23.8302874519
 30
0.0
 10
-49.1737968487
 20
23.8027262732
 30
0.0
 10
-49.1968270297
 20
23.7626974669
 30
0.0
 10
-49.2180021197
 20
23.7257960207
 30
0.0
 10
-49.2341030204
 20
23.6976484932
 30
0.0
 10
-49.245451182
 20
23.6777396366
 30
0.0
 10
-49.2526269219
 20
23.6651173144
 30
0.0
 10
-49.2587974381
 20
23.6542175063
 30
0.0
 10
-49.2639238029
 20
23.645134931
 30
0.0
 10
-49.2679033055
 20
23.6379843749
 30
0.0
 10
-49.2705859717
 20
23.6332080735
 30
0.0
 10
-49.2720172836
 20
23.6304555862
 30
0.0
 10
-49.2728471299
 20
23.6290629434
 30
0.0
 10
-49.2730184352
 20
23.6283790333
 30
0.0
 10
-49.2734252796
 20
23.627882301
 30
0.0
 10
-49.2733367983
 20
23.6278312164
 30
0.0
 11
-49.1497912312
 21
23.8443375673
 31
0.0
 11
-49.1741050344
 21
23.8021751692
 31
0.0
 11
-49.1974308274
 21
23.7616295068
 31
0.0
 11
-49.2188777807
 21
23.7242490603
 31
0.0
 11
-49.2376237245
 21
23.6914667969
 31
0.0
 11
-49.245754843
 21
23.6772002239
 31
0.0
 11
-49.2529512149
 21
23.6645373679
 31
0.0
 11
-49.2591436989
 21
23.6535998903
 31
0.0
 11
-49.2642731319
 21
23.6444922937
 31
0.0
 11
-49.2682901878
 21
23.6373021601
 31
0.0
 11
-49.2711561287
 21
23.632098826
 31
0.0
 11
-49.2721486222
 21
23.6302581585
 31
0.0
 11
-49.2728437234
 21
23.6289316801
 31
0.0
 11
-49.273240081
 21
23.628122065
 31
0.0
 11
-49.2733367983
 21
23.6278312164
 31
0.0
  0
SPLINE
  5
621
100
AcDbEntity
  8
SUPERFICI
100
AcDbSpline
 62
253
  6
CONTINUOUS
 70
0
 71
3
 72
21
 73
17
 74
15
 42
0.0000001
 43
0.0000001
 44
0.0000000001
 12
0.1246405845
 22
0.2158911321
 32
0.0
 13
-0.2158893054
 23
0.1246437486
 33
0.0
 40
0.0
 40
0.0
 40
0.0
 40
0.0
 40
0.1952388959
 40
0.3828797779
 40
0.5557566816
 40
0.7072426977
 40
0.7731145491
 40
0.8315405786
 40
0.8819595594
 40
0.9238899496
 40
0.9569288549
 40
0.9807583528
 40
0.9891470439
 40
0.9951544383
 40
0.9987704635
 40
1.0
 40
1.0
 40
1.0
 40
1.0
 10
-46.1468823655
 20
-23.8443375673
 30
0.0
 10
-46.1387708021
 20
-23.8302874519
 30
0.0
 10
-46.1228767479
 20
-23.8027262732
 30
0.0
 10
-46.0998465669
 20
-23.7626974669
 30
0.0
 10
-46.078671477
 20
-23.7257960207
 30
0.0
 10
-46.0625705763
 20
-23.6976484932
 30
0.0
 10
-46.0512224147
 20
-23.6777396366
 30
0.0
 10
-46.0440466748
 20
-23.6651173144
 30
0.0
 10
-46.0378761585
 20
-23.6542175063
 30
0.0
 10
-46.0327497938
 20
-23.645134931
 30
0.0
 10
-46.0287702911
 20
-23.6379843749
 30
0.0
 10
-46.026087625
 20
-23.6332080735
 30
0.0
 10
-46.0246563131
 20
-23.6304555862
 30
0.0
 10
-46.0238264667
 20
-23.6290629434
 30
0.0
 10
-46.0236551615
 20
-23.6283790333
 30
0.0
 10
-46.0232483171
 20
-23.627882301
 30
0.0
 10
-46.0233367983
 20
-23.6278312164
 30
0.0
 11
-46.1468823655
 21
-23.8443375673
 31
0.0
 11
-46.1225685623
 21
-23.8021751692
 31
0.0
 11
-46.0992427692
 21
-23.7616295068
 31
0.0
 11
-46.077795816
 21
-23.7242490603
 31
0.0
 11
-46.0590498722
 21
-23.6914667969
 31
0.0
 11
-46.0509187537
 21
-23.6772002239
 31
0.0
 11
-46.0437223818
 21
-23.6645373679
 31
0.0
 11
-46.0375298978
 21
-23.6535998903
 31
0.0
 11
-46.0324004648
 21
-23.6444922937
 31
0.0
 11
-46.0283834088
 21
-23.6373021601
 31
0.0
 11
-46.025517468
 21
-23.632098826
 31
0.0
 11
-46.0245249745
 21
-23.6302581585
 31
0.0
 11
-46.0238298733
 21
-23.6289316801
 31
0.0
 11
-46.0234335157
 21
-23.628122065
 31
0.0
 11
-46.0233367983
 21
-23.6278312164
 31
0.0
  0
SPLINE
  5
622
100
AcDbEntity
  8
SUPERFICI
100
AcDbSpline
 62
253
  6
CONTINUOUS
 70
0
 71
3
 72
21
 73
17
 74
15
 42
0.0000001
 43
0.0000001
 44
0.0000000001
 12
0.2500068877
 22
-0.0014544975
 32
0.0
 13
-0.0014544483
 23
-0.250006888
 33
0.0
 40
0.0
 40
0.0
 40
0.0
 40
0.0
 40
0.0012386196
 40
0.0048601485
 40
0.010873725
 40
0.0192698426
 40
0.0431182345
 40
0.0761810475
 40
0.1181392015
 40
0.1685881473
 40
0.2270443453
 40
0.29294427
 40
0.4444696608
 40
0.6173444947
 40
0.8049177821
 40
1.0
 40
1.0
 40
1.0
 40
1.0
 10
-46.1468823655
 20
24.495628166
 30
0.0
 10
-46.1467791444
 20
24.4956275655
 30
0.0
 10
-46.1468668685
 20
24.4949952231
 30
0.0
 10
-46.1466817748
 20
24.4943092826
 30
0.0
 10
-46.1466973277
 20
24.4926846162
 30
0.0
 10
-46.1465692751
 20
24.4895717745
 30
0.0
 10
-46.1465173636
 20
24.4840748507
 30
0.0
 10
-46.1464202432
 20
24.4758619698
 30
0.0
 10
-46.1463618918
 20
24.4653958182
 30
0.0
 10
-46.1463129441
 20
24.4528269448
 30
0.0
 10
-46.1462856477
 20
24.4382580493
 30
0.0
 10
-46.1462731815
 20
24.4152673812
 30
0.0
 10
-46.1463123306
 20
24.382740643
 30
0.0
 10
-46.1464308545
 20
24.3400745443
 30
0.0
 10
-46.1466202066
 20
24.2937786331
 30
0.0
 10
-46.1467877865
 20
24.2618896962
 30
0.0
 10
-46.1468823655
 20
24.2456323968
 30
0.0
 11
-46.1468823655
 21
24.495628166
 31
0.0
 11
-46.1468127868
 21
24.4953264153
 31
0.0
 11
-46.1467468374
 21
24.4944233978
 31
0.0
 11
-46.146684708
 21
24.4929212211
 31
0.0
 11
-46.1466265747
 21
24.4908229035
 31
0.0
 11
-46.1465228149
 21
24.4848614432
 31
0.0
 11
-46.1464365181
 21
24.4765958229
 31
0.0
 11
-46.1463685194
 21
24.4661060382
 31
0.0
 11
-46.1463194751
 21
24.4534933362
 31
0.0
 11
-46.1462898593
 21
24.4388786668
 31
0.0
 11
-46.1462799567
 21
24.4224029558
 31
0.0
 11
-46.1463194749
 21
24.384519944
 31
0.0
 11
-46.1464365179
 21
24.3412994718
 31
0.0
 11
-46.1466265743
 21
24.2944044496
 31
0.0
 11
-46.1468823655
 21
24.2456323968
 31
0.0
  0
LINE
  5
623
100
AcDbEntity
  8
SUPERFICI
100
AcDbLine
 62
7
  6
CONTINUOUS
 10
-46.8983367983
 20
24.5
 11
-46.8983367983
 21
24.2500042308
  0
SPLINE
  5
624
100
AcDbEntity
  8
SUPERFICI
100
AcDbSpline
 62
253
  6
CONTINUOUS
 70
0
 71
3
 72
21
 73
17
 74
15
 42
0.0000001
 43
0.0000001
 44
0.0000000001
 12
-0.2500068877
 22
-0.0014544975
 32
0.0
 13
0.0014544483
 23
-0.2500068879
 33
0.0
 40
0.0
 40
0.0
 40
0.0
 40
0.0
 40
0.001238631
 40
0.0048601809
 40
0.0108737668
 40
0.0192698957
 40
0.0431183126
 40
0.0761811521
 40
0.118139316
 40
0.1685882702
 40
0.2270444778
 40
0.2929444002
 40
0.4444697787
 40
0.6173445795
 40
0.8049178299
 40
1.0
 40
1.0
 40
1.0
 40
1.0
 10
-49.1497912312
 20
24.4869014213
 30
0.0
 10
-49.1498944533
 20
24.4869008208
 30
0.0
 10
-49.1498067271
 20
24.4862684737
 30
0.0
 10
-49.1499918224
 20
24.4855825308
 30
0.0
 10
-49.1499762692
 20
24.4839578608
 30
0.0
 10
-49.1501043221
 20
24.4808450153
 30
0.0
 10
-49.1501562332
 20
24.4753480863
 30
0.0
 10
-49.1502533536
 20
24.4671352002
 30
0.0
 10
-49.1503117051
 20
24.4566690449
 30
0.0
 10
-49.1503606527
 20
24.4441001692
 30
0.0
 10
-49.150387949
 20
24.4295312724
 30
0.0
 10
-49.1504004152
 20
24.4065406047
 30
0.0
 10
-49.150361266
 20
24.3740138705
 30
0.0
 10
-49.1502427421
 20
24.3313477787
 30
0.0
 10
-49.15005339
 20
24.2850518774
 30
0.0
 10
-49.1498858102
 20
24.2531629475
 30
0.0
 10
-49.1497912312
 20
24.2369056521
 30
0.0
 11
-49.1497912312
 21
24.4869014213
 31
0.0
 11
-49.1498608099
 21
24.4865996677
 31
0.0
 11
-49.1499267595
 21
24.4856966449
 31
0.0
 11
-49.149988889
 21
24.4841944659
 31
0.0
 11
-49.1500470223
 21
24.4820961454
 31
0.0
 11
-49.1501507821
 21
24.4761346789
 31
0.0
 11
-49.1502370787
 21
24.4678690519
 31
0.0
 11
-49.1503050774
 21
24.4573792648
 31
0.0
 11
-49.1503541217
 21
24.4447665607
 31
0.0
 11
-49.1503837375
 21
24.4301518888
 31
0.0
 11
-49.15039364
 21
24.4136761785
 31
0.0
 11
-49.1503541217
 21
24.3757931698
 31
0.0
 11
-49.1502370787
 21
24.3325727059
 31
0.0
 11
-49.1500470223
 21
24.2856776929
 31
0.0
 11
-49.1497912312
 21
24.2369056521
 31
0.0
  0
SPLINE
  5
625
100
AcDbEntity
  8
SUPERFICI
100
AcDbSpline
 62
253
  6
CONTINUOUS
 70
0
 71
3
 72
21
 73
17
 74
15
 42
0.0000001
 43
0.0000001
 44
0.0000000001
 12
0.1246405845
 22
-0.2158911321
 32
0.0
 13
-0.2158893054
 23
-0.1246437486
 33
0.0
 40
0.0
 40
0.0
 40
0.0
 40
0.0
 40
0.1952389023
 40
0.38287979
 40
0.5557566991
 40
0.7072427174
 40
0.7731145695
 40
0.8315405978
 40
0.8819595776
 40
0.9238899665
 40
0.9569288677
 40
0.9807583616
 40
0.9891470509
 40
0.9951544438
 40
0.9987704654
 40
1.0
 40
1.0
 40
1.0
 40
1.0
 10
-46.1468823655
 20
23.8443375673
 30
0.0
 10
-46.1387708019
 20
23.8302874514
 30
0.0
 10
-46.1228767472
 20
23.8027262719
 30
0.0
 10
-46.0998465654
 20
23.7626974643
 30
0.0
 10
-46.0786714749
 20
23.7257960171
 30
0.0
 10
-46.0625705739
 20
23.6976484891
 30
0.0
 10
-46.0512224122
 20
23.6777396323
 30
0.0
 10
-46.0440466724
 20
23.6651173102
 30
0.0
 10
-46.0378761563
 20
23.6542175024
 30
0.0
 10
-46.0327497918
 20
23.6451349275
 30
0.0
 10
-46.0287702896
 20
23.6379843721
 30
0.0
 10
-46.0260876239
 20
23.6332080714
 30
0.0
 10
-46.0246563122
 20
23.6304555846
 30
0.0
 10
-46.0238264662
 20
23.6290629423
 30
0.0
 10
-46.023655161
 20
23.6283790328
 30
0.0
 10
-46.0232483172
 20
23.627882301
 30
0.0
 10
-46.0233367983
 20
23.6278312164
 30
0.0
 11
-46.1468823655
 21
23.8443375673
 31
0.0
 11
-46.1225685615
 21
23.8021751679
 31
0.0
 11
-46.0992427677
 21
23.7616295042
 31
0.0
 11
-46.0777958138
 21
23.7242490565
 31
0.0
 11
-46.0590498697
 21
23.6914667926
 31
0.0
 11
-46.0509187512
 21
23.6772002194
 31
0.0
 11
-46.0437223794
 21
23.6645373638
 31
0.0
 11
-46.0375298956
 21
23.6535998863
 31
0.0
 11
-46.0324004627
 21
23.6444922901
 31
0.0
 11
-46.0283834073
 21
23.6373021573
 31
0.0
 11
-46.0255174669
 21
23.632098824
 31
0.0
 11
-46.0245249737
 21
23.630258157
 31
0.0
 11
-46.0238298726
 21
23.6289316788
 31
0.0
 11
-46.0234335154
 21
23.6281220646
 31
0.0
 11
-46.0233367983
 21
23.6278312164
 31
0.0
  0
SPLINE
  5
626
100
AcDbEntity
  8
0
100
AcDbSpline
 62
253
  6
CONTINUOUS
 70
0
 71
3
 72
12
 73
8
 74
6
 42
0.0000001
 43
0.0000001
 44
0.0000000001
 12
0.1571863964
 22
1.4271295651
 32
0.0
 13
1.4357598542
 23
0.0
 33
0.0
 40
0.0
 40
0.0
 40
0.0
 40
0.0
 40
0.1233187792
 40
0.2469727305
 40
0.4951728562
 40
0.7465090872
 40
1.0
 40
1.0
 40
1.0
 40
1.0
 10
-57.0127293701
 20
17.3443930431
 30
0.0
 10
-57.0062680252
 20
17.4030570017
 30
0.0
 10
-56.9821869888
 20
17.519655711
 30
0.0
 10
-56.8911371022
 20
17.7396721997
 30
0.0
 10
-56.7003299106
 20
17.9786191439
 30
0.0
 10
-56.3834758391
 20
18.1653037178
 30
0.0
 10
-56.139654157
 20
18.20858252
 30
0.0
 10
-56.0183367983
 20
18.20858252
 30
0.0
 11
-57.0127293701
 21
17.3443930431
 31
0.0
 11
-56.9769013685
 21
17.51778634
 31
0.0
 11
-56.909009033
 21
17.68182948
 31
0.0
 11
-56.6871580713
 21
17.9607050616
 31
0.0
 11
-56.3765984234
 21
18.1444754095
 31
0.0
 11
-56.0183367983
 21
18.20858252
 31
0.0
  0
SPLINE
  5
627
100
AcDbEntity
  8
0
100
AcDbSpline
 62
253
  6
CONTINUOUS
 70
0
 71
3
 72
12
 73
8
 74
6
 42
0.0000001
 43
0.0000001
 44
0.0000000001
 12
0.1571863964
 22
1.4271295651
 32
0.0
 13
1.4357598542
 23
-0.0
 33
0.0
 40
0.0
 40
0.0
 40
0.0
 40
0.0
 40
0.1233187792
 40
0.2469727305
 40
0.4951728562
 40
0.7465090872
 40
1.0
 40
1.0
 40
1.0
 40
1.0
 10
-57.0127293701
 20
-11.0556069569
 30
0.0
 10
-57.0062680252
 20
-10.9969429983
 30
0.0
 10
-56.9821869888
 20
-10.880344289
 30
0.0
 10
-56.8911371022
 20
-10.6603278003
 30
0.0
 10
-56.7003299106
 20
-10.4213808561
 30
0.0
 10
-56.3834758391
 20
-10.2346962822
 30
0.0
 10
-56.139654157
 20
-10.19141748
 30
0.0
 10
-56.0183367983
 20
-10.19141748
 30
0.0
 11
-57.0127293701
 21
-11.0556069569
 31
0.0
 11
-56.9769013685
 21
-10.88221366
 31
0.0
 11
-56.909009033
 21
-10.71817052
 31
0.0
 11
-56.6871580713
 21
-10.4392949384
 31
0.0
 11
-56.3765984234
 21
-10.2555245905
 31
0.0
 11
-56.0183367983
 21
-10.19141748
 31
0.0
  0
ELLIPSE
  5
628
100
AcDbEntity
  8
SUPERFICI
100
AcDbEllipse
 62
7
  6
CONTINUOUS
 10
-1.202625676
 20
-22.3842776662
 30
0.0
 11
0.2
 21
0.0
 31
0.0
 40
0.0524077793
 41
0.0087266463
 42
1.5707963268
  0
ELLIPSE
  5
629
100
AcDbEntity
  8
SUPERFICI
100
AcDbEllipse
 62
7
  6
CONTINUOUS
 10
3.4982546264
 20
-23.7982512664
 30
0.0
 11
-0.0
 21
0.2
 31
0.0
 40
0.0087268678
 41
-3.1357748894
 42
-1.5707963268
  0
ELLIPSE
  5
62A
100
AcDbEntity
  8
SUPERFICI
100
AcDbEllipse
 62
7
  6
CONTINUOUS
 10
-3.4982546264
 20
-23.7982512664
 30
0.0
 11
0.0
 21
0.2
 31
0.0
 40
0.0087268678
 41
-4.7123889804
 42
-3.1474104178
  0
ELLIPSE
  5
62B
100
AcDbEntity
  8
SUPERFICI
100
AcDbEllipse
 62
7
  6
CONTINUOUS
 10
3.4982546264
 20
23.7982512664
 30
0.0
 11
0.0
 21
0.2
 31
0.0
 40
0.0087268678
 41
-1.5707963268
 42
-0.0058177642
  0
ELLIPSE
  5
62C
100
AcDbEntity
  8
SUPERFICI
100
AcDbEllipse
 62
7
  6
CONTINUOUS
 10
-3.4982546264
 20
23.7982512664
 30
0.0
 11
0.0
 21
0.2
 31
0.0
 40
0.0087268678
 41
0.0058177642
 42
1.5707963268
  0
ELLIPSE
  5
62D
100
AcDbEntity
  8
SUPERFICI
100
AcDbEllipse
 62
7
  6
CONTINUOUS
 10
-9.8927234819
 20
-22.3344902759
 30
0.0
 11
0.25
 21
0.0
 31
0.0
 40
0.0524077793
 41
1.5707963268
 42
3.1357748894
  0
ELLIPSE
  5
62E
100
AcDbEntity
  8
SUPERFICI
100
AcDbEllipse
 62
7
  6
CONTINUOUS
 10
9.8927234819
 20
22.3344902759
 30
0.0
 11
0.25
 21
-0.0
 31
0.0
 40
0.0524077793
 41
-1.5707963268
 42
-0.0058177642
  0
ELLIPSE
  5
62F
100
AcDbEntity
  8
SUPERFICI
100
AcDbEllipse
 62
7
  6
CONTINUOUS
 10
7.5072765181
 20
22.3344902759
 30
0.0
 11
0.25
 21
-0.0
 31
0.0
 40
0.0524077793
 41
-3.1357748894
 42
-1.5707963268
  0
ELLIPSE
  5
630
100
AcDbEntity
  8
SUPERFICI
100
AcDbEllipse
 62
7
  6
CONTINUOUS
 10
-7.5072765181
 20
22.3344902759
 30
0.0
 11
0.25
 21
0.0
 31
0.0
 40
0.0524077793
 41
-1.5707963268
 42
-0.0058177642
  0
ELLIPSE
  5
631
100
AcDbEntity
  8
SUPERFICI
100
AcDbEllipse
 62
7
  6
CONTINUOUS
 10
-7.5072765181
 20
-22.3344902759
 30
0.0
 11
0.25
 21
-0.0
 31
0.0
 40
0.0524077793
 41
0.0058177642
 42
1.5707963268
  0
ELLIPSE
  5
632
100
AcDbEntity
  8
SUPERFICI
100
AcDbEllipse
 62
7
  6
CONTINUOUS
 10
9.8927234819
 20
-22.3344902759
 30
0.0
 11
0.25
 21
0.0
 31
0.0
 40
0.0524077793
 41
0.0058177642
 42
1.5707963268
  0
ELLIPSE
  5
633
100
AcDbEntity
  8
SUPERFICI
100
AcDbEllipse
 62
7
  6
CONTINUOUS
 10
7.5072765181
 20
-22.3344902759
 30
0.0
 11
0.25
 21
0.0
 31
0.0
 40
0.0524077793
 41
1.5707963268
 42
3.1357748894
  0
ELLIPSE
  5
634
100
AcDbEntity
  8
SUPERFICI
100
AcDbEllipse
 62
7
  6
CONTINUOUS
 10
1.202625676
 20
22.3842776662
 30
0.0
 11
0.2
 21
0.0
 31
0.0
 40
0.0524077793
 41
-3.1328660073
 42
-1.5707963268
  0
ELLIPSE
  5
635
100
AcDbEntity
  8
SUPERFICI
100
AcDbEllipse
 62
7
  6
CONTINUOUS
 10
-9.8927234819
 20
22.3344902759
 30
0.0
 11
0.25
 21
0.0
 31
0.0
 40
0.0524077793
 41
-3.1357748894
 42
-1.5707963268
  0
ELLIPSE
  5
636
100
AcDbEntity
  8
SUPERFICI
100
AcDbEllipse
 62
7
  6
CONTINUOUS
 10
-1.202625676
 20
22.3842776662
 30
0.0
 11
0.2
 21
0.0
 31
0.0
 40
0.0524077793
 41
-1.5707963268
 42
-0.0087266463
  0
ELLIPSE
  5
637
100
AcDbEntity
  8
SUPERFICI
100
AcDbEllipse
 62
7
  6
CONTINUOUS
 10
1.202625676
 20
-22.3842776662
 30
0.0
 11
0.2
 21
0.0
 31
0.0
 40
0.0524077793
 41
1.5707963268
 42
3.1328660073
  0
ELLIPSE
  5
638
100
AcDbEntity
  8
SUPERFICI
100
AcDbEllipse
 62
7
  6
CONTINUOUS
 10
30.4500928777
 20
-23.15
 30
0.0
 11
85.9426996401
 21
0.0
 31
0.0
 40
0.0058178298
 41
2.5196231925
 42
2.6905658418
  0
ELLIPSE
  5
639
100
AcDbEntity
  8
SUPERFICI
100
AcDbEllipse
 62
7
  6
CONTINUOUS
 10
30.4500928777
 20
-23.15
 30
0.0
 11
85.9426996401
 21
-0.0
 31
0.0
 40
0.0058178298
 41
-2.6791261215
 42
-2.5196231925
  0
ELLIPSE
  5
63A
100
AcDbEntity
  8
SUPERFICI
100
AcDbEllipse
 62
7
  6
CONTINUOUS
 10
30.4500928777
 20
23.15
 30
0.0
 11
85.9426996401
 21
-0.0
 31
0.0
 40
0.0058178298
 41
2.5196231925
 42
2.6791261215
  0
ELLIPSE
  5
63B
100
AcDbEntity
  8
SUPERFICI
100
AcDbEllipse
 62
7
  6
CONTINUOUS
 10
30.4500928777
 20
23.15
 30
0.0
 11
85.9426996401
 21
0.0
 31
0.0
 40
0.0058178298
 41
-2.6905658418
 42
-2.5196231925
  0
ELLIPSE
  5
63C
100
AcDbEntity
  8
SUPERFICI
100
AcDbEllipse
 62
7
  6
CONTINUOUS
 10
-35.3983367983
 20
-21.9537669705
 30
0.0
 11
0.3546425507
 21
0.3568377408
 31
0.0
 40
0.9877342685
 41
-0.2563081296
 42
0.7710302454
  0
ELLIPSE
  5
63D
100
AcDbEntity
  8
SUPERFICI
100
AcDbEllipse
 62
7
  6
CONTINUOUS
 10
-35.3983367983
 20
21.9537669705
 30
0.0
 11
-0.3546425507
 21
0.3568377408
 31
0.0
 40
0.9877342685
 41
-3.912622899
 42
-2.8852845239
  0
ENDSEC
  0
SECTION
  2
OBJECTS
  0
DICTIONARY
  5
C
100
AcDbDictionary
280
0
281
1
  3
ACAD_GROUP
350
D
  3
ACAD_MLINESTYLE
350
17
  3
ACAD_LAYOUT
350
1A
  3
ACAD_PLOTSETTINGS
350
19
  3
ACAD_PLOTSTYLENAME
350
E
  0
DICTIONARY
  5
D
102
{ACAD_REACTORS
330
C
102
}
100
AcDbDictionary
280
0
281
1
  0
ACDBDICTIONARYWDFLT
  5
E
102
{ACAD_REACTORS
330
C
102
}
100
AcDbDictionary
281
1
  3
Normal
350
F
100
AcDbDictionaryWithDefault
340
F
  0
DICTIONARY
  5
17
102
{ACAD_REACTORS
330
C
102
}
100
AcDbDictionary
280
0
281
1
  3
Standard
350
18
  0
DICTIONARY
  5
19
102
{ACAD_REACTORS
330
C
102
}
100
AcDbDictionary
281
1
  0
DICTIONARY
  5
1A
102
{ACAD_REACTORS
330
C
102
}
100
AcDbDictionary
281
1
  3
Model
350
63E
  3
Layout1
350
63F
  0
ACDBPLACEHOLDER
  5
F
102
{ACAD_REACTORS
330
E
102
}
  0
MLINESTYLE
  5
18
102
{ACAD_REACTORS
330
17
102
}
100
AcDbMlineStyle
  2
STANDARD
 70
0
  3

 62
256
 51
90.0
 52
90.0
 71
2
 49
0.5
 62
256
  6
BYLAYER
 49
-0.5
 62
256
  6
BYLAYER
  0
LAYOUT
  5
63E
102
{ACAD_REACTORS
330
1A
102
}
100
AcDbPlotSettings
  1

  2
none_device
  4
ISO_A4_(297.00_x_210.00_MM)
  6

 40
0.0
 41
0.0
 42
0.0
 43
0.0
 44
297.0
 45
210.0
 46
0.0
 47
0.0
 48
0.0
 49
0.0
140
0.0
141
0.0
142
1.0
143
1.0
 70
1024
 72
1
 73
0
 74
0
  7

 75
0
147
1.0
148
0.0
149
0.0
100
AcDbLayout
  1
Model
 70
0
 71
0
 10
0.0
 20
0.0
 11
297.0
 21
210.0
 12
0.0
 22
0.0
 32
0.0
 14
0.0
 24
0.0
 34
0.0
 15
0.0
 25
0.0
 35
0.0
146
0.0
 13
0.0
 23
0.0
 33
0.0
 16
1.0
 26
0.0
 36
0.0
 17
0.0
 27
1.0
 37
0.0
 76
0
330
21C
345
0
346
0
  0
LAYOUT
  5
63F
102
{ACAD_REACTORS
330
1A
102
}
100
AcDbPlotSettings
  1

  2
none_device
  4
ISO_A4_(297.00_x_210.00_MM)
  6

 40
0.0
 41
0.0
 42
0.0
 43
0.0
 44
297.0
 45
210.0
 46
0.0
 47
0.0
 48
0.0
 49
0.0
140
0.0
141
0.0
142
1.0
143
1.0
 70
0
 72
1
 73
0
 74
0
  7

 75
0
147
1.0
148
0.0
149
0.0
100
AcDbLayout
  1
Layout1
 70
0
 71
1
 10
0.0
 20
0.0
 11
297.0
 21
210.0
 12
0.0
 22
0.0
 32
0.0
 14
0.0
 24
0.0
 34
0.0
 15
0.0
 25
0.0
 35
0.0
146
0.0
 13
0.0
 23
0.0
 33
0.0
 16
1.0
 26
0.0
 36
0.0
 17
0.0
 27
1.0
 37
0.0
 76
0
330
21D
345
0
346
0
  0
ENDSEC
  0
EOF
