  0
SECTION
  2
HEADER
  9
$ACADVER
  1
AC1024
  9
$DWGCODEPAGE
  3
ANSI_1252
  9
$EXTMAX
 10
558.8
 20
431.8
 30
0.0
  9
$EXTMIN
 10
0.0
 20
0.0
 30
0.0
  9
$LIMMIN
 10
0.0
 20
0.0
  9
$LIMMAX
 10
558.8
 20
431.8
  9
$VIEWCTR
 10
279.4
 20
215.9
  9
$VIEWSIZE
 40
431.8
  9
$CLAYER
  8
0
  9
$LTSCALE
 40
30.734
  9
$CELTYPE
  6
BYLAYER
  9
$DIMSCALE
 40
1.0
  9
$DIMASZ
 40
3.0
  9
$DIMEXO
 40
0.5
  9
$DIMDLI
 40
21.2344
  9
$DIMEXE
 40
1.5
  9
$DIMCEN
 40
5.0292
  9
$DIMLFAC
 40
1.0
  9
$DIMBLK
  1
_FILLED
  9
$DIMALT
 70
0
  9
$DIMALTF
 40
0.0393700787
  9
$DIMTXT
 40
3.0
  9
$DIMTOL
 70
1
  9
$DIMLIM
 70
0
  9
$DIMTFAC
 40
1.0
  9
$DIMTP
 40
0.01
  9
$DIMTM
 40
0.01
  9
$DIMGAP
 40
0.625
  9
$DIMDSEP
 70
44
  9
$AUNITS
 70
0
  9
$PDMODE
 70
3
  9
$PDSIZE
 40
3.0
  9
$HANDSEED
  5
5AF
  9
$TILEMODE
 70
1
  9
$MEASUREMENT
 70
1
  9
$INSUNITS
 70
4
  0
ENDSEC
  0
SECTION
  2
CLASSES
  0
CLASS
  1
ACDBDICTIONARYWDFLT
  2
AcDbDictionaryWithDefault
  3
AutoCAD 2000
 90
0
 91
1
280
0
281
0
  0
CLASS
  1
ACDBPLACEHOLDER
  2
AcDbPlaceHolder
  3
AutoCAD 2000
 90
0
 91
1
280
0
281
0
  0
CLASS
  1
LAYOUT
  2
AcDbLayout
  3
AutoCAD 2000
 90
0
 91
0
280
0
281
0
  0
ENDSEC
  0
SECTION
  2
TABLES
  0
TABLE
  2
VPORT
  5
8
100
AcDbSymbolTable
 70
2
  0
VPORT
  5
1F4
100
AcDbSymbolTableRecord
100
AcDbViewportTableRecord
  2
*ACTIVE
 70
0
 10
0.0
 20
0.0
 11
1.0
 21
1.0
 12
279.4
 22
215.9
 13
0.0
 23
0.0
 14
1.0
 24
1.0
 15
0.0
 25
0.0
 16
0.0
 26
0.0
 36
1.0
 17
0.0
 27
0.0
 37
0.0
 40
431.8
 41
1.2941176471
 42
50.0
 43
0.0
 44
0.0
 50
0.0
 51
0.0
 71
0
 72
100
 73
1
 74
1
 75
0
 76
0
 77
0
 78
0
  0
ENDTAB
  0
TABLE
  2
LTYPE
  5
5
100
AcDbSymbolTable
 70
6
  0
LTYPE
  5
14
100
AcDbSymbolTableRecord
100
AcDbLinetypeTableRecord
  2
BYBLOCK
 70
0
  3

 72
65
 73
0
 40
0.0
  0
LTYPE
  5
15
100
AcDbSymbolTableRecord
100
AcDbLinetypeTableRecord
  2
BYLAYER
 70
0
  3

 72
65
 73
0
 40
0.0
  0
LTYPE
  5
16
100
AcDbSymbolTableRecord
100
AcDbLinetypeTableRecord
  2
CONTINUOUS
 70
64
  3
Solid line
 72
65
 73
0
 40
0.0
  0
LTYPE
  5
1F5
100
AcDbSymbolTableRecord
100
AcDbLinetypeTableRecord
  2
CENTER
 70
64
  3
____ _ ____ _ ____ _ ____ _ ____ _ ____ _ ____
 72
65
 73
4
 40
0.6
 49
0.375
 74
0
 49
-0.075
 74
0
 49
0.075
 74
0
 49
-0.075
 74
0
  0
LTYPE
  5
1F6
100
AcDbSymbolTableRecord
100
AcDbLinetypeTableRecord
  2
HIDDEN
 70
64
  3
- - - - - - - - - - - - - - - - - - - -
 72
65
 73
2
 40
0.2
 49
0.1
 74
0
 49
-0.1
 74
0
  0
LTYPE
  5
1F7
100
AcDbSymbolTableRecord
100
AcDbLinetypeTableRecord
  2
PHANTOM
 70
64
  3
_____ _ _ _____ _ _ _____ _ _ _____
 72
65
 73
6
 40
0.8
 49
0.45
 74
0
 49
-0.05
 74
0
 49
0.1
 74
0
 49
-0.05
 74
0
 49
0.1
 74
0
 49
-0.05
 74
0
  0
LTYPE
  5
1F8
100
AcDbSymbolTableRecord
100
AcDbLinetypeTableRecord
  2
DOT
 70
64
  3
. . . . . . . . . . . . . . . . . . . .
 72
65
 73
2
 40
0.2
 49
0.1
 74
0
 49
-0.1
 74
0
  0
LTYPE
  5
1F9
100
AcDbSymbolTableRecord
100
AcDbLinetypeTableRecord
  2
DASHED
 70
64
  3
- - - - - - - - - - - - - - - - - - - -
 72
65
 73
2
 40
0.2
 49
0.1
 74
0
 49
-0.1
 74
0
  0
ENDTAB
  0
TABLE
  2
LAYER
  5
2
100
AcDbSymbolTable
 70
36
  0
LAYER
  5
10
100
AcDbSymbolTableRecord
100
AcDbLayerTableRecord
  2
0
 70
0
 62
7
  6
CONTINUOUS
370
-3
390
F
  0
LAYER
  5
1FA
100
AcDbSymbolTableRecord
100
AcDbLayerTableRecord
  2
DEFAULT_1
 70
0
 62
7
  6
CENTER
370
-3
390
F
  0
LAYER
  5
1FB
100
AcDbSymbolTableRecord
100
AcDbLayerTableRecord
  2
DEFAULT_2
 70
0
 62
7
  6
HIDDEN
370
-3
390
F
  0
LAYER
  5
1FC
100
AcDbSymbolTableRecord
100
AcDbLayerTableRecord
  2
DEFAULT_3
 70
0
 62
7
  6
PHANTOM
370
-3
390
F
  0
LAYER
  5
1FD
100
AcDbSymbolTableRecord
100
AcDbLayerTableRecord
  2
ASSI
 70
0
 62
7
  6
CONTINUOUS
370
-3
390
F
  0
LAYER
  5
1FE
100
AcDbSymbolTableRecord
100
AcDbLayerTableRecord
  2
COORDINATE
 70
0
 62
7
  6
CONTINUOUS
370
-3
390
F
  0
LAYER
  5
1FF
100
AcDbSymbolTableRecord
100
AcDbLayerTableRecord
  2
COORD_ORIGINE
 70
0
 62
7
  6
CONTINUOUS
370
-3
390
F
  0
LAYER
  5
200
100
AcDbSymbolTableRecord
100
AcDbLayerTableRecord
  2
COPY_PUBLISH
 70
0
 62
7
  6
CONTINUOUS
370
-3
390
F
  0
LAYER
  5
201
100
AcDbSymbolTableRecord
100
AcDbLayerTableRecord
  2
COSMETIC
 70
0
 62
7
  6
CONTINUOUS
370
-3
390
F
  0
LAYER
  5
202
100
AcDbSymbolTableRecord
100
AcDbLayerTableRecord
  2
CURVE
 70
0
 62
7
  6
CONTINUOUS
370
-3
390
F
  0
LAYER
  5
203
100
AcDbSymbolTableRecord
100
AcDbLayerTableRecord
  2
DRAFT
 70
0
 62
7
  6
CONTINUOUS
370
-3
390
F
  0
LAYER
  5
204
100
AcDbSymbolTableRecord
100
AcDbLayerTableRecord
  2
IMPORT_IGES
 70
0
 62
7
  6
CONTINUOUS
370
-3
390
F
  0
LAYER
  5
205
100
AcDbSymbolTableRecord
100
AcDbLayerTableRecord
  2
INTF_1
 70
0
 62
7
  6
CONTINUOUS
370
-3
390
F
  0
LAYER
  5
206
100
AcDbSymbolTableRecord
100
AcDbLayerTableRecord
  2
INTF_11
 70
0
 62
7
  6
CONTINUOUS
370
-3
390
F
  0
LAYER
  5
207
100
AcDbSymbolTableRecord
100
AcDbLayerTableRecord
  2
NOTE
 70
0
 62
7
  6
CONTINUOUS
370
-3
390
F
  0
LAYER
  5
208
100
AcDbSymbolTableRecord
100
AcDbLayerTableRecord
  2
PIANI
 70
0
 62
7
  6
CONTINUOUS
370
-3
390
F
  0
LAYER
  5
209
100
AcDbSymbolTableRecord
100
AcDbLayerTableRecord
  2
PIANI_ORIGINE
 70
0
 62
7
  6
CONTINUOUS
370
-3
390
F
  0
LAYER
  5
20A
100
AcDbSymbolTableRecord
100
AcDbLayerTableRecord
  2
PIANI_SFORMI
 70
0
 62
7
  6
CONTINUOUS
370
-3
390
F
  0
LAYER
  5
20B
100
AcDbSymbolTableRecord
100
AcDbLayerTableRecord
  2
PUNTI
 70
0
 62
7
  6
CONTINUOUS
370
-3
390
F
  0
LAYER
  5
20C
100
AcDbSymbolTableRecord
100
AcDbLayerTableRecord
  2
RACCORDO
 70
0
 62
7
  6
CONTINUOUS
370
-3
390
F
  0
LAYER
  5
20D
100
AcDbSymbolTableRecord
100
AcDbLayerTableRecord
  2
SKEL
 70
0
 62
7
  6
CONTINUOUS
370
-3
390
F
  0
LAYER
  5
20E
100
AcDbSymbolTableRecord
100
AcDbLayerTableRecord
  2
SMUSSO
 70
0
 62
7
  6
CONTINUOUS
370
-3
390
F
  0
LAYER
  5
20F
100
AcDbSymbolTableRecord
100
AcDbLayerTableRecord
  2
SNAPLINE
 70
0
 62
7
  6
CONTINUOUS
370
-3
390
F
  0
LAYER
  5
210
100
AcDbSymbolTableRecord
100
AcDbLayerTableRecord
  2
SUPERFICI
 70
0
 62
7
  6
CONTINUOUS
370
-3
390
F
  0
LAYER
  5
211
100
AcDbSymbolTableRecord
100
AcDbLayerTableRecord
  2
TRASH
 70
0
 62
7
  6
CONTINUOUS
370
-3
390
F
  0
LAYER
  5
212
100
AcDbSymbolTableRecord
100
AcDbLayerTableRecord
  2
XSEC_DATUMS
 70
0
 62
7
  6
CONTINUOUS
370
-3
390
F
  0
ENDTAB
  0
TABLE
  2
STYLE
  5
3
100
AcDbSymbolTable
 70
1
  0
STYLE
  5
11
100
AcDbSymbolTableRecord
100
AcDbTextStyleTableRecord
  2
STANDARD
 70
0
 40
0.0
 41
0.8
 50
0.0
 71
0
 42
0.2
  3
txt
  4

  0
STYLE
  5
213
100
AcDbSymbolTableRecord
100
AcDbTextStyleTableRecord
  2
TEXTSTYLE_1
 70
0
 40
0.0
 41
0.8
 50
0.0
 71
0
 42
0.2
  3
gdt
  4

  0
ENDTAB
  0
TABLE
  2
VIEW
  5
6
100
AcDbSymbolTable
 70
0
  0
ENDTAB
  0
TABLE
  2
UCS
  5
7
100
AcDbSymbolTable
 70
0
  0
ENDTAB
  0
TABLE
  2
APPID
  5
9
100
AcDbSymbolTable
 70
1
  0
APPID
  5
214
100
AcDbSymbolTableRecord
100
AcDbRegAppTableRecord
  2
ACAD
 70
0
  0
ENDTAB
  0
TABLE
  2
BLOCK_RECORD
  5
1
100
AcDbSymbolTable
 70
0
  0
BLOCK_RECORD
  5
215
100
AcDbSymbolTableRecord
100
AcDbBlockTableRecord
  2
*Model_Space
  0
BLOCK_RECORD
  5
216
100
AcDbSymbolTableRecord
100
AcDbBlockTableRecord
  2
*Paper_Space
  0
BLOCK_RECORD
  5
217
100
AcDbSymbolTableRecord
100
AcDbBlockTableRecord
  2
_FILLED
  0
BLOCK_RECORD
  5
218
100
AcDbSymbolTableRecord
100
AcDbBlockTableRecord
  2
*D0
  0
BLOCK_RECORD
  5
219
100
AcDbSymbolTableRecord
100
AcDbBlockTableRecord
  2
*D1
  0
BLOCK_RECORD
  5
21A
100
AcDbSymbolTableRecord
100
AcDbBlockTableRecord
  2
*D2
  0
BLOCK_RECORD
  5
21B
100
AcDbSymbolTableRecord
100
AcDbBlockTableRecord
  2
*D3
  0
ENDTAB
  0
TABLE
  2
DIMSTYLE
  5
A
100
AcDbSymbolTable
 70
1
100
AcDbDimStyleTable
 71
0
  0
DIMSTYLE
105
21C
100
AcDbSymbolTableRecord
100
AcDbDimStyleTableRecord
  2
STANDARD
 70
0
  3

  4

 40
1.0
 41
3.0
 42
0.5
 43
0.38
 44
1.5
 45
0.0
 46
0.0
 47
0.01
 48
0.01
140
3.0
141
0.0
142
0.0
143
25.4
144
1.0
145
0.0
146
1.0
147
0.625
 71
1
 72
0
 73
0
 74
0
 75
0
 76
0
 77
1
 78
8
 79
2
170
0
171
1
172
0
173
0
174
0
175
0
176
0
177
0
178
0
270
2
179
1
271
2
272
2
273
2
274
2
275
0
280
0
281
0
282
0
283
1
284
8
285
0
286
0
287
3
288
0
340
11
278
44
341
217
342
217
343
217
344
217
  0
DIMSTYLE
105
21D
100
AcDbSymbolTableRecord
100
AcDbDimStyleTableRecord
  2
DIMSTYLE_1
 70
0
  3

  4

 40
1.0
 41
3.0
 42
0.5
 43
0.38
 44
1.5
 45
0.0
 46
0.0
 47
0.0
 48
0.0
140
3.0
141
0.0
142
0.0
143
25.4
144
1.0
145
0.0
146
1.0
147
0.75
 71
0
 72
0
 73
0
 74
0
 75
0
 76
0
 77
1
 78
8
 79
2
170
0
171
1
172
0
173
0
174
0
175
0
176
0
177
0
178
0
270
2
179
2
271
2
272
2
273
2
274
2
275
0
280
0
281
0
282
0
283
1
284
8
285
0
286
0
287
3
288
0
340
11
278
44
341
217
342
217
343
217
344
217
  0
ENDTAB
  0
ENDSEC
  0
SECTION
  2
BLOCKS
  0
BLOCK
  5
20
100
AcDbEntity
  8
0
100
AcDbBlockBegin
  2
*Model_Space
 70
0
 10
0.0
 20
0.0
 30
0.0
  3
*Model_Space
  1

  0
ENDBLK
  5
21
100
AcDbEntity
  8
0
100
AcDbBlockEnd
  0
BLOCK
  5
1C
100
AcDbEntity
  8
0
100
AcDbBlockBegin
  2
*Paper_Space
 70
0
 10
0.0
 20
0.0
 30
0.0
  3
*Paper_Space
  1

  0
ENDBLK
  5
1D
100
AcDbEntity
  8
0
100
AcDbBlockEnd
  0
BLOCK
  5
21E
100
AcDbEntity
  8
0
100
AcDbBlockBegin
  2
_FILLED
 70
64
 10
0.0
 20
0.0
 30
0.0
  3
_FILLED
  1

  0
SOLID
  5
21F
100
AcDbEntity
  8
0
  6
BYBLOCK
 62
0
100
AcDbTrace
 10
0.0
 20
0.0
 30
0.0
 11
-1.0
 21
0.3166666667
 31
0.0
 12
-1.0
 22
-0.3166666667
 32
0.0
 13
-1.0
 23
-0.3166666667
 33
0.0
  0
ENDBLK
  5
220
100
AcDbEntity
  8
0
  6
BYBLOCK
 62
0
100
AcDbBlockEnd
  0
BLOCK
  5
221
100
AcDbEntity
  8
0
100
AcDbBlockBegin
 62
7
  6
CONTINUOUS
  2
*D0
 70
65
 10
0.0
 20
0.0
 30
0.0
  3
*D0
  1

  0
MTEXT
  5
222
100
AcDbEntity
  8
0
100
AcDbMText
 62
7
  6
CONTINUOUS
  7
STANDARD
 71
2
 72
1
 10
0.0
 20
42.7964061645
 30
0.0
 11
1.0
 21
0.0
 31
0.0
 73
2
 44
0.9
  1
{\ftxt;\W0.0001;\H0.0001;\~}{\ftxt;\W3.5714285714;\H3.0; }{\ftxt;\W0.0001;\H0.0001;\~}
 40
3.0
 41
16.0714285714
  0
LINE
  5
223
100
AcDbEntity
  8
0
100
AcDbLine
 62
7
  6
CONTINUOUS
 10
11.1665823117
 20
28.0330333432
 30
0.0
 11
11.1665823117
 21
40.5464061645
 31
0.0
  0
LINE
  5
224
100
AcDbEntity
  8
0
100
AcDbLine
 62
7
  6
CONTINUOUS
 10
-11.1665823117
 20
28.0330333432
 30
0.0
 11
-11.1665823117
 21
40.5464061645
 31
0.0
  0
LINE
  5
225
100
AcDbEntity
  8
0
100
AcDbLine
 62
7
  6
CONTINUOUS
 10
11.1665823117
 20
39.0464061645
 30
0.0
 11
0.0
 21
39.0464061645
 31
0.0
  0
LINE
  5
226
100
AcDbEntity
  8
0
100
AcDbLine
 62
7
  6
CONTINUOUS
 10
-11.1665823117
 20
39.0464061645
 30
0.0
 11
0.0
 21
39.0464061645
 31
0.0
  0
INSERT
  5
227
100
AcDbEntity
  8
0
100
AcDbBlockReference
 62
7
  6
CONTINUOUS
  2
_FILLED
 10
11.1665823117
 20
39.0464061645
 30
0.0
 41
3.0
 42
3.0
 43
3.0
  0
INSERT
  5
228
100
AcDbEntity
  8
0
100
AcDbBlockReference
 62
7
  6
CONTINUOUS
  2
_FILLED
 10
-11.1665823117
 20
39.0464061645
 30
0.0
 41
3.0
 42
3.0
 43
3.0
 50
180.0
  0
ENDBLK
  5
229
100
AcDbEntity
  8
0
  6
BYBLOCK
 62
0
100
AcDbBlockEnd
  0
BLOCK
  5
22A
100
AcDbEntity
  8
0
100
AcDbBlockBegin
 62
7
  6
CONTINUOUS
  2
*D1
 70
65
 10
0.0
 20
0.0
 30
0.0
  3
*D1
  1

  0
MTEXT
  5
22B
100
AcDbEntity
  8
0
100
AcDbMText
 62
7
  6
CONTINUOUS
  7
STANDARD
 71
2
 72
1
 10
15.5290922738
 20
6.5103836124
 30
0.0
 11
0.0
 21
1.0
 31
0.0
 73
2
 44
0.9
  1
{\ftxt;\W0.0001;\H0.0001;\~}{\ftxt;\W1.5714285714;\H3.0; }{\ftxt;\W0.0001;\H0.0001;\~}
 40
3.0
 41
7.0714285714
  0
LINE
  5
22C
100
AcDbEntity
  8
0
100
AcDbLine
 62
7
  6
CONTINUOUS
 10
10.4000042308
 20
31.0103836124
 30
0.0
 11
20.7790922738
 21
31.0103836124
 31
0.0
  0
LINE
  5
22D
100
AcDbEntity
  8
0
100
AcDbLine
 62
7
  6
CONTINUOUS
 10
10.4000042308
 20
-17.9896163876
 30
0.0
 11
20.7790922738
 21
-17.9896163876
 31
0.0
  0
LINE
  5
22E
100
AcDbEntity
  8
0
100
AcDbLine
 62
7
  6
CONTINUOUS
 10
19.2790922738
 20
31.0103836124
 30
0.0
 11
19.2790922738
 21
6.5103836124
 31
0.0
  0
LINE
  5
22F
100
AcDbEntity
  8
0
100
AcDbLine
 62
7
  6
CONTINUOUS
 10
19.2790922738
 20
-17.9896163876
 30
0.0
 11
19.2790922738
 21
6.5103836124
 31
0.0
  0
INSERT
  5
230
100
AcDbEntity
  8
0
100
AcDbBlockReference
 62
7
  6
CONTINUOUS
  2
_FILLED
 10
19.2790922738
 20
31.0103836124
 30
0.0
 41
3.0
 42
3.0
 43
3.0
 50
90.0
  0
INSERT
  5
231
100
AcDbEntity
  8
0
100
AcDbBlockReference
 62
7
  6
CONTINUOUS
  2
_FILLED
 10
19.2790922738
 20
-17.9896163876
 30
0.0
 41
3.0
 42
3.0
 43
3.0
 50
270.0
  0
ENDBLK
  5
232
100
AcDbEntity
  8
0
  6
BYBLOCK
 62
0
100
AcDbBlockEnd
  0
BLOCK
  5
233
100
AcDbEntity
  8
0
100
AcDbBlockBegin
 62
7
  6
CONTINUOUS
  2
*D2
 70
65
 10
0.0
 20
0.0
 30
0.0
  3
*D2
  1

  0
MTEXT
  5
234
100
AcDbEntity
  8
0
100
AcDbMText
 62
7
  6
CONTINUOUS
  7
STANDARD
 71
2
 72
1
 10
-35.0224923388
 20
42.6637422821
 30
0.0
 11
1.0
 21
0.0
 31
0.0
 73
2
 44
0.9
  1
{\ftxt;\W0.0001;\H0.0001;\~}{\ftxt;\W2.7142857143;\H3.0; }{\ftxt;\W0.0001;\H0.0001;\~}
 40
3.0
 41
12.2142857143
  0
LINE
  5
235
100
AcDbEntity
  8
0
100
AcDbLine
 62
7
  6
CONTINUOUS
 10
-22.9724923388
 20
8.1103836124
 30
0.0
 11
-22.9724923388
 21
40.4137422821
 31
0.0
  0
LINE
  5
236
100
AcDbEntity
  8
0
100
AcDbLine
 62
7
  6
CONTINUOUS
 10
-47.0724923388
 20
31.2560160092
 30
0.0
 11
-47.0724923388
 21
40.4137422821
 31
0.0
  0
LINE
  5
237
100
AcDbEntity
  8
0
100
AcDbLine
 62
7
  6
CONTINUOUS
 10
-22.9724923388
 20
38.9137422821
 30
0.0
 11
-35.0224923388
 21
38.9137422821
 31
0.0
  0
LINE
  5
238
100
AcDbEntity
  8
0
100
AcDbLine
 62
7
  6
CONTINUOUS
 10
-47.0724923388
 20
38.9137422821
 30
0.0
 11
-35.0224923388
 21
38.9137422821
 31
0.0
  0
INSERT
  5
239
100
AcDbEntity
  8
0
100
AcDbBlockReference
 62
7
  6
CONTINUOUS
  2
_FILLED
 10
-22.9724923388
 20
38.9137422821
 30
0.0
 41
3.0
 42
3.0
 43
3.0
  0
INSERT
  5
23A
100
AcDbEntity
  8
0
100
AcDbBlockReference
 62
7
  6
CONTINUOUS
  2
_FILLED
 10
-47.0724923388
 20
38.9137422821
 30
0.0
 41
3.0
 42
3.0
 43
3.0
 50
180.0
  0
ENDBLK
  5
23B
100
AcDbEntity
  8
0
  6
BYBLOCK
 62
0
100
AcDbBlockEnd
  0
BLOCK
  5
23C
100
AcDbEntity
  8
0
100
AcDbBlockBegin
 62
7
  6
CONTINUOUS
  2
*D3
 70
65
 10
0.0
 20
0.0
 30
0.0
  3
*D3
  1

  0
MTEXT
  5
23D
100
AcDbEntity
  8
0
100
AcDbMText
 62
7
  6
CONTINUOUS
  7
STANDARD
 71
2
 72
1
 10
-39.7724923388
 20
52.7422809073
 30
0.0
 11
1.0
 21
0.0
 31
0.0
 73
2
 44
0.9
  1
{\ftxt;\W0.0001;\H0.0001;\~}{\ftxt;\W2.7857142857;\H3.0; }{\ftxt;\W0.0001;\H0.0001;\~}
 40
3.0
 41
12.5357142857
  0
LINE
  5
23E
100
AcDbEntity
  8
0
100
AcDbLine
 62
7
  6
CONTINUOUS
 10
-22.9724923388
 20
8.1103836124
 30
0.0
 11
-22.9724923388
 21
50.4922809073
 31
0.0
  0
LINE
  5
23F
100
AcDbEntity
  8
0
100
AcDbLine
 62
7
  6
CONTINUOUS
 10
-56.5724923388
 20
7.0103836124
 30
0.0
 11
-56.5724923388
 21
50.4922809073
 31
0.0
  0
LINE
  5
240
100
AcDbEntity
  8
0
100
AcDbLine
 62
7
  6
CONTINUOUS
 10
-22.9724923388
 20
48.9922809073
 30
0.0
 11
-39.7724923388
 21
48.9922809073
 31
0.0
  0
LINE
  5
241
100
AcDbEntity
  8
0
100
AcDbLine
 62
7
  6
CONTINUOUS
 10
-56.5724923388
 20
48.9922809073
 30
0.0
 11
-39.7724923388
 21
48.9922809073
 31
0.0
  0
INSERT
  5
242
100
AcDbEntity
  8
0
100
AcDbBlockReference
 62
7
  6
CONTINUOUS
  2
_FILLED
 10
-22.9724923388
 20
48.9922809073
 30
0.0
 41
3.0
 42
3.0
 43
3.0
  0
INSERT
  5
243
100
AcDbEntity
  8
0
100
AcDbBlockReference
 62
7
  6
CONTINUOUS
  2
_FILLED
 10
-56.5724923388
 20
48.9922809073
 30
0.0
 41
3.0
 42
3.0
 43
3.0
 50
180.0
  0
ENDBLK
  5
244
100
AcDbEntity
  8
0
  6
BYBLOCK
 62
0
100
AcDbBlockEnd
  0
ENDSEC
  0
SECTION
  2
ENTITIES
  0
DIMENSION
  5
245
100
AcDbEntity
  8
0
100
AcDbDimension
 62
7
  6
CONTINUOUS
  2
*D0
 10
-11.1665823117
 20
39.0464061645
 30
0.0
 11
-0.4285714664
 21
39.0464061645
 31
0.0
 70
160
 71
2
 72
2
 41
0.9
 42
22.3331646234
  1
{\ftxt;\W0.0001;\H0.0001;\~}{\ftxt;\W3.5714285714;\H3.0; }{\ftxt;\W0.0001;\H0.0001;\~}
  3
DIMSTYLE_1
100
AcDbAlignedDimension
 13
11.1665823117
 23
27.5330333432
 33
0.0
 14
-11.1665823117
 24
27.5330333432
 34
0.0
 50
180.0
100
AcDbRotatedDimension
  0
DIMENSION
  5
246
100
AcDbEntity
  8
0
100
AcDbDimension
 62
7
  6
CONTINUOUS
  2
*D1
 10
19.2790922738
 20
-17.9896163876
 30
0.0
 11
19.2790922738
 21
6.0818114934
 31
0.0
 70
160
 71
2
 72
2
 41
0.9
 42
49.0
  1
{\ftxt;\W0.0001;\H0.0001;\~}{\ftxt;\W1.5714285714;\H3.0; }{\ftxt;\W0.0001;\H0.0001;\~}
  3
DIMSTYLE_1
100
AcDbAlignedDimension
 13
9.9000042308
 23
31.0103836124
 33
0.0
 14
9.9000042308
 24
-17.9896163876
 34
0.0
 50
270.0
100
AcDbRotatedDimension
  0
DIMENSION
  5
247
100
AcDbEntity
  8
0
100
AcDbDimension
 62
7
  6
CONTINUOUS
  2
*D2
 10
-47.0724923388
 20
38.9137422821
 30
0.0
 11
-35.4510631416
 21
38.9137422821
 31
0.0
 70
160
 71
2
 72
2
 41
0.9
 42
24.1
  1
{\ftxt;\W0.0001;\H0.0001;\~}{\ftxt;\W2.7142857143;\H3.0; }{\ftxt;\W0.0001;\H0.0001;\~}
  3
DIMSTYLE_1
100
AcDbAlignedDimension
 13
-22.9724923388
 23
7.6103836124
 33
0.0
 14
-47.0724923388
 24
30.7560160092
 34
0.0
 50
180.0
100
AcDbRotatedDimension
  0
DIMENSION
  5
248
100
AcDbEntity
  8
0
100
AcDbDimension
 62
7
  6
CONTINUOUS
  2
*D3
 10
-56.5724923388
 20
48.9922809073
 30
0.0
 11
-40.2010624512
 21
48.9922809073
 31
0.0
 70
160
 71
2
 72
2
 41
0.9
 42
33.6
  1
{\ftxt;\W0.0001;\H0.0001;\~}{\ftxt;\W2.7857142857;\H3.0; }{\ftxt;\W0.0001;\H0.0001;\~}
  3
DIMSTYLE_1
100
AcDbAlignedDimension
 13
-22.9724923388
 23
7.6103836124
 33
0.0
 14
-56.5724923388
 24
6.5103836124
 34
0.0
 50
180.0
100
AcDbRotatedDimension
  0
LWPOLYLINE
  5
249
100
AcDbEntity
  8
0
100
AcDbPolyline
 62
7
  6
CONTINUOUS
 90
10
 70
0
 43
0.3500000087
 10
-36.8796361176
 20
52.7422775696
 10
-37.522491452
 20
52.0994222351
 10
-37.9510645172
 20
51.242280368
 10
-37.9510645172
 20
50.1708519684
 10
-37.522491452
 20
49.7422789032
 10
-36.8796361176
 20
49.7422789032
 10
-36.4510630524
 20
50.1708519684
 10
-36.4510630524
 20
51.0279938354
 10
-36.8796361176
 20
51.4565669006
 10
-37.8082054077
 20
51.4565669006
  0
LWPOLYLINE
  5
24A
100
AcDbEntity
  8
0
100
AcDbPolyline
 62
7
  6
CONTINUOUS
 90
5
 70
0
 43
0.3500000087
 10
-43.0939199829
 20
51.4565669006
 10
-42.7367786041
 20
51.6708534332
 10
-42.7367786041
 20
52.313713031
 10
-43.0939199829
 20
52.7422775696
 10
-43.95106185
 20
52.7422775696
  0
LWPOLYLINE
  5
24B
100
AcDbEntity
  8
0
100
AcDbPolyline
 62
7
  6
CONTINUOUS
 90
5
 70
0
 43
0.3500000087
 10
-40.9510631836
 20
51.4565669006
 10
-40.5939218048
 20
51.6708534332
 10
-40.5939218048
 20
52.313713031
 10
-40.9510631836
 20
52.7422775696
 10
-41.8082050507
 20
52.7422775696
  0
LINE
  5
24C
100
AcDbEntity
  8
0
100
AcDbLine
 62
250
  6
CONTINUOUS
 10
-48.0724923388
 20
29.9208687606
 30
0.0
 11
-47.321037906
 21
30.3547211797
 31
0.0
  0
LINE
  5
24D
100
AcDbEntity
  8
0
100
AcDbLine
 62
7
  6
CONTINUOUS
 10
-48.0724923388
 20
29.6330333432
 30
0.0
 11
-47.1974923388
 21
30.1382148287
 31
0.0
  0
LINE
  5
24E
100
AcDbEntity
  8
0
100
AcDbLine
 62
7
  6
CONTINUOUS
 10
-48.0724923388
 20
-17.9896163876
 30
0.0
 11
-47.321037906
 21
-17.9852445536
 31
0.0
  0
LINE
  5
24F
100
AcDbEntity
  8
0
100
AcDbLine
 62
250
  6
CONTINUOUS
 10
-48.0724923388
 20
-17.7396206184
 30
0.0
 11
-47.321037906
 21
-17.7352487844
 31
0.0
  0
LINE
  5
250
100
AcDbEntity
  8
0
100
AcDbLine
 62
7
  6
CONTINUOUS
 10
-40.5695834731
 20
-17.4459657408
 30
0.0
 11
-47.0724923388
 21
-17.4837985578
 31
0.0
  0
LINE
  5
251
100
AcDbEntity
  8
0
100
AcDbLine
 62
250
  6
CONTINUOUS
 10
-47.0724923388
 20
-17.7352487844
 30
0.0
 11
-47.321037906
 21
-17.7352487844
 31
0.0
  0
LINE
  5
252
100
AcDbEntity
  8
0
100
AcDbLine
 62
250
  6
CONTINUOUS
 10
-50.5724923388
 20
-17.7265220397
 30
0.0
 11
-50.3239467716
 21
-17.7265220397
 31
0.0
  0
LINE
  5
253
100
AcDbEntity
  8
0
100
AcDbLine
 62
250
  6
CONTINUOUS
 10
-50.5724923388
 20
-17.3339539549
 30
0.0
 11
-50.3239467716
 21
-17.3339539549
 31
0.0
  0
LINE
  5
254
100
AcDbEntity
  8
0
100
AcDbLine
 62
250
  6
CONTINUOUS
 10
-47.0724923388
 20
-17.3339539549
 30
0.0
 11
-47.321037906
 21
-17.3339539549
 31
0.0
  0
LINE
  5
255
100
AcDbEntity
  8
0
100
AcDbLine
 62
7
  6
CONTINUOUS
 10
-50.3239467716
 20
-17.9765178089
 30
0.0
 11
-48.0724923388
 21
-17.9896163876
 31
0.0
  0
LINE
  5
256
100
AcDbEntity
  8
0
100
AcDbLine
 62
250
  6
CONTINUOUS
 10
-50.3239467716
 20
-17.7265220397
 30
0.0
 11
-48.0724923388
 21
-17.7396206184
 31
0.0
  0
LINE
  5
257
100
AcDbEntity
  8
0
100
AcDbLine
 62
250
  6
CONTINUOUS
 10
-47.321037906
 20
-17.3339539549
 30
0.0
 11
-48.0724923388
 21
-16.9001015358
 31
0.0
  0
LINE
  5
258
100
AcDbEntity
  8
0
100
AcDbLine
 62
7
  6
CONTINUOUS
 10
-47.1974923388
 20
-17.117447604
 30
0.0
 11
-48.0724923388
 21
-16.6122661184
 31
0.0
  0
LINE
  5
259
100
AcDbEntity
  8
0
100
AcDbLine
 62
7
  6
CONTINUOUS
 10
-48.0724923388
 20
-15.8896163876
 30
0.0
 11
-47.0724923388
 21
-15.8837985578
 31
0.0
  0
LINE
  5
25A
100
AcDbEntity
  8
DRAFT
100
AcDbLine
 62
7
  6
CONTINUOUS
 10
-37.0666746074
 20
-15.8255864131
 30
0.0
 11
-47.0724923388
 21
-15.8837985578
 31
0.0
  0
LINE
  5
25B
100
AcDbEntity
  8
0
100
AcDbLine
 62
250
  6
CONTINUOUS
 10
-48.0724923388
 20
-15.3896333107
 30
0.0
 11
-47.0724923388
 21
-15.3838154808
 31
0.0
  0
LINE
  5
25C
100
AcDbEntity
  8
RACCORDO
100
AcDbLine
 62
250
  6
CONTINUOUS
 10
-48.0724923388
 20
-16.0898298779
 30
0.0
 11
-49.3239467716
 21
-16.0242439302
 31
0.0
  0
LINE
  5
25D
100
AcDbEntity
  8
0
100
AcDbLine
 62
7
  6
CONTINUOUS
 10
-54.5557294079
 20
-15.5498443303
 30
0.0
 11
-48.0724923388
 21
-15.8896163876
 31
0.0
  0
LINE
  5
25E
100
AcDbEntity
  8
0
100
AcDbLine
 62
250
  6
CONTINUOUS
 10
-54.5383830824
 20
-15.0505245606
 30
0.0
 11
-48.0724694954
 21
-15.3893887327
 31
0.0
  0
LINE
  5
25F
100
AcDbEntity
  8
RACCORDO
100
AcDbLine
 62
250
  6
CONTINUOUS
 10
-49.3239467716
 20
-16.0242439302
 30
0.0
 11
-49.5724923427
 21
-16.0007976306
 31
0.0
  0
LWPOLYLINE
  5
260
100
AcDbEntity
  8
0
100
AcDbPolyline
 62
7
  6
CONTINUOUS
 90
3
 70
0
 43
0.3500000087
 10
-32.665349942
 20
41.8066001099
 10
-31.8082059433
 20
42.6637419769
 10
-31.8082059433
 20
39.6637433105
  0
LINE
  5
261
100
AcDbEntity
  8
0
100
AcDbLine
 62
7
  6
CONTINUOUS
 10
-36.0724923388
 20
-14.3896163876
 30
0.0
 11
-47.0724923388
 21
-14.3896163876
 31
0.0
  0
LINE
  5
262
100
AcDbEntity
  8
DRAFT
100
AcDbLine
 62
7
  6
CONTINUOUS
 10
-36.5637661356
 20
-14.9433518148
 30
0.0
 11
-47.0724923388
 21
-14.8896163876
 31
0.0
  0
LINE
  5
263
100
AcDbEntity
  8
RACCORDO
100
AcDbLine
 62
250
  6
CONTINUOUS
 10
-47.0724923388
 20
-11.655590198
 30
0.0
 11
-36.0724923388
 21
-13.4978545586
 31
0.0
  0
LINE
  5
264
100
AcDbEntity
  8
RACCORDO
100
AcDbLine
 62
7
  6
CONTINUOUS
 10
-36.0724923388
 20
-13.1896163876
 30
0.0
 11
-47.0724923388
 21
-11.2500195998
 31
0.0
  0
LWPOLYLINE
  5
265
100
AcDbEntity
  8
0
100
AcDbPolyline
 62
7
  6
CONTINUOUS
 90
3
 70
0
 43
0.3500000087
 10
-38.9510654938
 20
50.0279971222
 10
-39.0224929169
 20
49.8137105896
 10
-39.1653477631
 20
49.5279966339
  0
LINE
  5
266
100
AcDbEntity
  8
RACCORDO
100
AcDbLine
 62
7
  6
CONTINUOUS
 10
-45.4724923388
 20
18.0103836124
 30
0.0
 11
-45.6846243732
 21
17.798251578
 31
0.0
  0
LINE
  5
267
100
AcDbEntity
  8
0
100
AcDbLine
 62
7
  6
CONTINUOUS
 10
-50.5724923388
 20
-17.7265220397
 30
0.0
 11
-50.5724923388
 21
-17.3339539549
 31
0.0
  0
LINE
  5
268
100
AcDbEntity
  8
0
100
AcDbLine
 62
7
  6
CONTINUOUS
 10
-50.5724923388
 20
30.3547211797
 30
0.0
 11
-50.5724923388
 21
30.7472892645
 31
0.0
  0
LINE
  5
269
100
AcDbEntity
  8
0
100
AcDbLine
 62
250
  6
CONTINUOUS
 10
-50.3239467716
 20
-17.7265220397
 30
0.0
 11
-50.3239467716
 21
-17.3339539549
 31
0.0
  0
LINE
  5
26A
100
AcDbEntity
  8
0
100
AcDbLine
 62
250
  6
CONTINUOUS
 10
-50.3239467716
 20
30.3547211797
 30
0.0
 11
-50.3239467716
 21
30.7472892645
 31
0.0
  0
LINE
  5
26B
100
AcDbEntity
  8
RACCORDO
100
AcDbLine
 62
7
  6
CONTINUOUS
 10
-49.5724923388
 20
-16.6122661184
 30
0.0
 11
-49.5724923388
 21
-16.000797632
 31
0.0
  0
LINE
  5
26C
100
AcDbEntity
  8
RACCORDO
100
AcDbLine
 62
7
  6
CONTINUOUS
 10
-49.5724923388
 20
29.0215648568
 30
0.0
 11
-49.5724923388
 21
29.6330333432
 31
0.0
  0
LINE
  5
26D
100
AcDbEntity
  8
RACCORDO
100
AcDbLine
 62
7
  6
CONTINUOUS
 10
-47.0724923388
 20
-4.3206741321
 30
0.0
 11
-44.6724923388
 21
-4.2997296494
 31
0.0
  0
LINE
  5
26E
100
AcDbEntity
  8
RACCORDO
100
AcDbLine
 62
250
  6
CONTINUOUS
 10
-47.0724923388
 20
-3.8206931705
 30
0.0
 11
-44.6724923388
 21
-3.7997486878
 31
0.0
  0
LINE
  5
26F
100
AcDbEntity
  8
RACCORDO
100
AcDbLine
 62
250
  6
CONTINUOUS
 10
-49.3239467716
 20
-16.7566036857
 30
0.0
 11
-49.3239467716
 21
-16.0242439302
 31
0.0
  0
LINE
  5
270
100
AcDbEntity
  8
RACCORDO
100
AcDbLine
 62
250
  6
CONTINUOUS
 10
-49.3239467716
 20
29.045011155
 30
0.0
 11
-49.3239467716
 21
29.7773709105
 31
0.0
  0
LINE
  5
271
100
AcDbEntity
  8
0
100
AcDbLine
 62
7
  6
CONTINUOUS
 10
-48.0724923388
 20
31.0103836124
 30
0.0
 11
-48.0724923388
 21
29.9208687606
 31
0.0
  0
LINE
  5
272
100
AcDbEntity
  8
0
100
AcDbLine
 62
7
  6
CONTINUOUS
 10
-48.0724923388
 20
28.9103836124
 30
0.0
 11
-48.0724923388
 21
28.1103836124
 31
0.0
  0
LINE
  5
273
100
AcDbEntity
  8
0
100
AcDbLine
 62
7
  6
CONTINUOUS
 10
-48.0724923388
 20
-16.9001015358
 30
0.0
 11
-48.0724923388
 21
-17.9896163876
 31
0.0
  0
LINE
  5
274
100
AcDbEntity
  8
RACCORDO
100
AcDbLine
 62
7
  6
CONTINUOUS
 10
-48.0724923388
 20
-16.9001015358
 30
0.0
 11
-48.0724923388
 21
-15.8896163876
 31
0.0
  0
LINE
  5
275
100
AcDbEntity
  8
0
100
AcDbLine
 62
7
  6
CONTINUOUS
 10
-48.0724923385
 20
-15.8896163876
 30
0.0
 11
-48.0724923388
 21
-15.0896163876
 31
0.0
  0
LINE
  5
276
100
AcDbEntity
  8
RACCORDO
100
AcDbLine
 62
7
  6
CONTINUOUS
 10
-48.0724923388
 20
28.9103836124
 30
0.0
 11
-48.0724923388
 21
29.9208687606
 31
0.0
  0
LINE
  5
277
100
AcDbEntity
  8
0
100
AcDbLine
 62
250
  6
CONTINUOUS
 10
-55.9910506536
 20
-2.9801163876
 30
0.0
 11
-56.4822341906
 21
-2.9896163876
 31
0.0
  0
LINE
  5
278
100
AcDbEntity
  8
RACCORDO
100
AcDbLine
 62
7
  6
CONTINUOUS
 10
-47.0724923388
 20
-2.3206741321
 30
0.0
 11
-44.7716196852
 21
-2.3005947206
 31
0.0
  0
LINE
  5
279
100
AcDbEntity
  8
RACCORDO
100
AcDbLine
 62
250
  6
CONTINUOUS
 10
-47.0724923388
 20
-2.2209688007
 30
0.0
 11
-44.6724923387
 21
-2.2005985283
 31
0.0
  0
LINE
  5
27A
100
AcDbEntity
  8
0
100
AcDbLine
 62
7
  6
CONTINUOUS
 10
-41.8724923388
 20
-2.0896163876
 30
0.0
 11
-44.8724923388
 21
-2.0896163876
 31
0.0
  0
LINE
  5
27B
100
AcDbEntity
  8
RACCORDO
100
AcDbLine
 62
250
  6
CONTINUOUS
 10
-44.8698862958
 20
-1.5774858263
 30
0.0
 11
-47.0724923388
 21
-1.5582639745
 31
0.0
  0
LINE
  5
27C
100
AcDbEntity
  8
RACCORDO
100
AcDbLine
 62
7
  6
CONTINUOUS
 10
-44.8724923388
 20
-1.4777577523
 30
0.0
 11
-47.0724923388
 21
-1.4585586432
 31
0.0
  0
LINE
  5
27D
100
AcDbEntity
  8
0
100
AcDbLine
 62
250
  6
CONTINUOUS
 10
-47.321037906
 20
30.7560160092
 30
0.0
 11
-47.321037906
 21
30.3547211797
 31
0.0
  0
LINE
  5
27E
100
AcDbEntity
  8
0
100
AcDbLine
 62
250
  6
CONTINUOUS
 10
-47.321037906
 20
-17.3339539549
 30
0.0
 11
-47.321037906
 21
-17.7352487844
 31
0.0
  0
LINE
  5
27F
100
AcDbEntity
  8
0
100
AcDbLine
 62
7
  6
CONTINUOUS
 10
-47.0724923388
 20
30.7560160092
 30
0.0
 11
-47.0724923388
 21
30.3547211797
 31
0.0
  0
LINE
  5
280
100
AcDbEntity
  8
0
100
AcDbLine
 62
7
  6
CONTINUOUS
 10
-47.0724923388
 20
-17.3339539549
 30
0.0
 11
-47.0724923388
 21
-17.7352487844
 31
0.0
  0
LINE
  5
281
100
AcDbEntity
  8
0
100
AcDbLine
 62
7
  6
CONTINUOUS
 10
-47.0724923388
 20
-15.8837985578
 30
0.0
 11
-47.0724923388
 21
28.9045657826
 31
0.0
  0
LINE
  5
282
100
AcDbEntity
  8
DRAFT
100
AcDbLine
 62
7
  6
CONTINUOUS
 10
-46.3724923388
 20
16.0103836124
 30
0.0
 11
-46.3724923388
 21
17.7103836124
 31
0.0
  0
LINE
  5
283
100
AcDbEntity
  8
0
100
AcDbLine
 62
7
  6
CONTINUOUS
 10
-46.3724923388
 20
17.7103836124
 30
0.0
 11
-46.3724923388
 21
18.0103836124
 31
0.0
  0
LINE
  5
284
100
AcDbEntity
  8
RACCORDO
100
AcDbLine
 62
250
  6
CONTINUOUS
 10
-45.7698743781
 20
24.3060392177
 30
0.0
 11
-45.7698743781
 21
24.5004735166
 31
0.0
  0
LINE
  5
285
100
AcDbEntity
  8
RACCORDO
100
AcDbLine
 62
7
  6
CONTINUOUS
 10
-45.6724923388
 20
-4.3084565172
 30
0.0
 11
-45.6724923388
 21
-4.3896164037
 31
0.0
  0
LINE
  5
286
100
AcDbEntity
  8
RACCORDO
100
AcDbLine
 62
7
  6
CONTINUOUS
 10
-45.4724923388
 20
24.3060392177
 30
0.0
 11
-45.4724923388
 21
24.5529099937
 31
0.0
  0
LINE
  5
287
100
AcDbEntity
  8
RACCORDO
100
AcDbLine
 62
7
  6
CONTINUOUS
 10
-32.6435113967
 20
-1.0896163876
 30
0.0
 11
-39.5917815073
 21
-1.0896163876
 31
0.0
  0
LINE
  5
288
100
AcDbEntity
  8
0
100
AcDbLine
 62
7
  6
CONTINUOUS
 10
-41.8724923388
 20
-0.6396163876
 30
0.0
 11
-44.8724923388
 21
-0.6396163876
 31
0.0
  0
LINE
  5
289
100
AcDbEntity
  8
RACCORDO
100
AcDbLine
 62
250
  6
CONTINUOUS
 10
-44.6724923388
 20
0.223103511
 30
0.0
 11
-44.7716196852
 21
0.223103511
 31
0.0
  0
LINE
  5
28A
100
AcDbEntity
  8
RACCORDO
100
AcDbLine
 62
250
  6
CONTINUOUS
 10
-47.0724923388
 20
0.4414451645
 30
0.0
 11
-44.9698743781
 21
0.4230958956
 31
0.0
  0
LINE
  5
28B
100
AcDbEntity
  8
RACCORDO
100
AcDbLine
 62
7
  6
CONTINUOUS
 10
-47.0724923388
 20
0.5414413568
 30
0.0
 11
-44.9698743781
 21
0.5230920879
 31
0.0
  0
LINE
  5
28C
100
AcDbEntity
  8
0
100
AcDbLine
 62
7
  6
CONTINUOUS
 10
-44.8724923388
 20
13.7982568587
 30
0.0
 11
-44.8724923388
 21
6.922510366
 31
0.0
  0
LINE
  5
28D
100
AcDbEntity
  8
0
100
AcDbLine
 62
7
  6
CONTINUOUS
 10
-44.8724923388
 20
6.0985249771
 30
0.0
 11
-44.8724923388
 21
0.5052789434
 31
0.0
  0
LINE
  5
28E
100
AcDbEntity
  8
0
100
AcDbLine
 62
7
  6
CONTINUOUS
 10
-44.8724923388
 20
-2.0896163876
 30
0.0
 11
-44.8724923388
 21
-0.6396163876
 31
0.0
  0
LINE
  5
28F
100
AcDbEntity
  8
RACCORDO
100
AcDbLine
 62
250
  6
CONTINUOUS
 10
-44.8698862958
 20
18.8225141737
 30
0.0
 11
-44.8698862958
 21
18.0103836124
 31
0.0
  0
LINE
  5
290
100
AcDbEntity
  8
RACCORDO
100
AcDbLine
 62
250
  6
CONTINUOUS
 10
-44.8698862958
 20
14.5225141737
 30
0.0
 11
-44.8698862958
 21
13.898253051
 31
0.0
  0
LINE
  5
291
100
AcDbEntity
  8
RACCORDO
100
AcDbLine
 62
250
  6
CONTINUOUS
 10
-44.8698862958
 20
6.8225141737
 30
0.0
 11
-44.8698862958
 21
6.198253051
 31
0.0
  0
LINE
  5
292
100
AcDbEntity
  8
RACCORDO
100
AcDbLine
 62
250
  6
CONTINUOUS
 10
-44.8698862958
 20
-2.0896163876
 30
0.0
 11
-44.8698862958
 21
-2.201746949
 31
0.0
  0
LINE
  5
293
100
AcDbEntity
  8
RACCORDO
100
AcDbLine
 62
250
  6
CONTINUOUS
 10
-44.7716196852
 20
0.223103511
 30
0.0
 11
-44.7716196852
 21
-0.6396163876
 31
0.0
  0
LINE
  5
294
100
AcDbEntity
  8
RACCORDO
100
AcDbLine
 62
7
  6
CONTINUOUS
 10
-44.6724923388
 20
20.4204968741
 30
0.0
 11
-44.6724923388
 21
18.0103836124
 31
0.0
  0
LINE
  5
295
100
AcDbEntity
  8
RACCORDO
100
AcDbLine
 62
7
  6
CONTINUOUS
 10
-44.6724923388
 20
14.5213657531
 30
0.0
 11
-44.6724923388
 21
14.1103836124
 31
0.0
  0
LINE
  5
296
100
AcDbEntity
  8
RACCORDO
100
AcDbLine
 62
7
  6
CONTINUOUS
 10
-44.6724923388
 20
6.8213657531
 30
0.0
 11
-44.6724923388
 21
6.1994014717
 31
0.0
  0
LINE
  5
297
100
AcDbEntity
  8
RACCORDO
100
AcDbLine
 62
7
  6
CONTINUOUS
 10
-44.6724923388
 20
0.223103511
 30
0.0
 11
-44.6724923388
 21
-0.6396163876
 31
0.0
  0
LINE
  5
298
100
AcDbEntity
  8
RACCORDO
100
AcDbLine
 62
7
  6
CONTINUOUS
 10
-44.6724923388
 20
-2.0896163876
 30
0.0
 11
-44.6724923388
 21
-4.2997296494
 31
0.0
  0
LINE
  5
299
100
AcDbEntity
  8
0
100
AcDbLine
 62
7
  6
CONTINUOUS
 10
-44.0724923388
 20
14.1103836124
 30
0.0
 11
-44.0724923388
 21
8.0103836124
 31
0.0
  0
LWPOLYLINE
  5
29A
100
AcDbEntity
  8
0
100
AcDbPolyline
 62
7
  6
CONTINUOUS
 90
3
 70
0
 43
0.3500000087
 10
-33.6653487869
 20
39.9494572662
 10
-33.7367783417
 20
39.7351707336
 10
-33.8796353195
 20
39.449456778
  0
LINE
  5
29B
100
AcDbEntity
  8
0
100
AcDbLine
 62
7
  6
CONTINUOUS
 10
-40.8724923388
 20
1.4103836124
 30
0.0
 11
-41.8724923388
 21
1.4103836124
 31
0.0
  0
LINE
  5
29C
100
AcDbEntity
  8
RACCORDO
100
AcDbLine
 62
7
  6
CONTINUOUS
 10
-23.1724923388
 20
1.5103836124
 30
0.0
 11
-28.140179297
 21
1.5103836124
 31
0.0
  0
LINE
  5
29D
100
AcDbEntity
  8
0
100
AcDbLine
 62
7
  6
CONTINUOUS
 10
-34.0235113967
 20
1.6630588748
 30
0.0
 11
-36.6724923388
 21
1.6630588748
 31
0.0
  0
LINE
  5
29E
100
AcDbEntity
  8
RACCORDO
100
AcDbLine
 62
250
  6
CONTINUOUS
 10
-26.4724923388
 20
1.7103836124
 30
0.0
 11
-22.9724923388
 21
1.7103836124
 31
0.0
  0
LINE
  5
29F
100
AcDbEntity
  8
0
100
AcDbLine
 62
7
  6
CONTINUOUS
 10
-41.8724923388
 20
1.9103836124
 30
0.0
 11
-40.3724923388
 21
1.9103836124
 31
0.0
  0
LINE
  5
2A0
100
AcDbEntity
  8
0
100
AcDbLine
 62
7
  6
CONTINUOUS
 10
-41.8724923388
 20
-2.0896163876
 30
0.0
 11
-41.8724923388
 21
1.4103836124
 31
0.0
  0
LINE
  5
2A1
100
AcDbEntity
  8
0
100
AcDbLine
 62
7
  6
CONTINUOUS
 10
-41.8724923388
 20
1.9103836124
 30
0.0
 11
-41.8724923388
 21
8.0103836124
 31
0.0
  0
LINE
  5
2A2
100
AcDbEntity
  8
0
100
AcDbLine
 62
7
  6
CONTINUOUS
 10
-34.0235113967
 20
3.9103836124
 30
0.0
 11
-32.6435113967
 21
3.9103836124
 31
0.0
  0
LINE
  5
2A3
100
AcDbEntity
  8
0
100
AcDbLine
 62
7
  6
CONTINUOUS
 10
-26.4724923388
 20
4.3103836124
 30
0.0
 11
-29.9724923388
 21
4.3103836124
 31
0.0
  0
LINE
  5
2A4
100
AcDbEntity
  8
0
100
AcDbLine
 62
7
  6
CONTINUOUS
 10
-41.8724923388
 20
4.6103836124
 30
0.0
 11
-38.6724923388
 21
4.6103836124
 31
0.0
  0
LINE
  5
2A5
100
AcDbEntity
  8
0
100
AcDbLine
 62
7
  6
CONTINUOUS
 10
-41.4724923388
 20
15.4409778412
 30
0.0
 11
-41.4724923388
 21
14.1103836124
 31
0.0
  0
LINE
  5
2A6
100
AcDbEntity
  8
0
100
AcDbLine
 62
7
  6
CONTINUOUS
 10
-41.1724923388
 20
9.4103836124
 30
0.0
 11
-41.1724923388
 21
12.5103836124
 31
0.0
  0
LINE
  5
2A7
100
AcDbEntity
  8
0
100
AcDbLine
 62
7
  6
CONTINUOUS
 10
-40.5724923388
 20
-16.9309348549
 30
0.0
 11
-40.5724923388
 21
-16.3482979203
 31
0.0
  0
LINE
  5
2A8
100
AcDbEntity
  8
0
100
AcDbLine
 62
7
  6
CONTINUOUS
 10
-40.5724923388
 20
29.3690651451
 30
0.0
 11
-40.5724923388
 21
29.9517020797
 31
0.0
  0
LINE
  5
2A9
100
AcDbEntity
  8
0
100
AcDbLine
 62
250
  6
CONTINUOUS
 10
-40.5228993679
 20
30.4642758854
 30
0.0
 11
-40.5228993679
 21
28.8664613653
 31
0.0
  0
LINE
  5
2AA
100
AcDbEntity
  8
0
100
AcDbLine
 62
250
  6
CONTINUOUS
 10
-40.5228993679
 20
-15.8456941406
 30
0.0
 11
-40.5228993679
 21
-17.4435086607
 31
0.0
  0
LINE
  5
2AB
100
AcDbEntity
  8
0
100
AcDbLine
 62
7
  6
CONTINUOUS
 10
-40.0724923388
 20
29.9667414271
 30
0.0
 11
-40.0724923388
 21
28.8638409739
 31
0.0
  0
LINE
  5
2AC
100
AcDbEntity
  8
0
100
AcDbLine
 62
7
  6
CONTINUOUS
 10
-40.0724923388
 20
-15.8430737491
 30
0.0
 11
-40.0724923388
 21
-16.9459742023
 31
0.0
  0
LINE
  5
2AD
100
AcDbEntity
  8
0
100
AcDbLine
 62
7
  6
CONTINUOUS
 10
-39.8724923388
 20
14.1103836124
 30
0.0
 11
-39.8724923388
 21
7.8103836124
 31
0.0
  0
LINE
  5
2AE
100
AcDbEntity
  8
RACCORDO
100
AcDbLine
 62
7
  6
CONTINUOUS
 10
-44.7718146743
 20
6.0994035777
 30
0.0
 11
-47.0724923388
 21
6.0793258679
 31
0.0
  0
LINE
  5
2AF
100
AcDbEntity
  8
RACCORDO
100
AcDbLine
 62
250
  6
CONTINUOUS
 10
-44.6724923388
 20
6.1994014717
 30
0.0
 11
-47.0724923388
 21
6.1790311993
 31
0.0
  0
LINE
  5
2B0
100
AcDbEntity
  8
0
100
AcDbLine
 62
7
  6
CONTINUOUS
 10
-36.6724923388
 20
5.1103836124
 30
0.0
 11
-38.6724923388
 21
5.1103836124
 31
0.0
  0
LINE
  5
2B1
100
AcDbEntity
  8
0
100
AcDbLine
 62
7
  6
CONTINUOUS
 10
-38.6724923388
 20
4.6103836124
 30
0.0
 11
-36.6724923388
 21
2.6103836124
 31
0.0
  0
LINE
  5
2B2
100
AcDbEntity
  8
RACCORDO
100
AcDbLine
 62
7
  6
CONTINUOUS
 10
-39.8872238332
 20
-0.8417108409
 30
0.0
 11
-40.3724923388
 21
1.9103836124
 31
0.0
  0
LINE
  5
2B3
100
AcDbEntity
  8
0
100
AcDbLine
 62
7
  6
CONTINUOUS
 10
-38.6724923388
 20
5.1103836124
 30
0.0
 11
-38.6724923388
 21
7.8103836124
 31
0.0
  0
LINE
  5
2B4
100
AcDbEntity
  8
0
100
AcDbLine
 62
7
  6
CONTINUOUS
 10
-38.6724923388
 20
7.8103836124
 30
0.0
 11
-41.8724923388
 21
7.8103836124
 31
0.0
  0
LINE
  5
2B5
100
AcDbEntity
  8
0
100
AcDbLine
 62
7
  6
CONTINUOUS
 10
-28.9724923388
 20
7.9103836124
 30
0.0
 11
-26.4724923388
 21
7.9103836124
 31
0.0
  0
LINE
  5
2B6
100
AcDbEntity
  8
0
100
AcDbLine
 62
7
  6
CONTINUOUS
 10
-44.8724923388
 20
8.0103836124
 30
0.0
 11
-39.8724923388
 21
8.0103836124
 31
0.0
  0
LINE
  5
2B7
100
AcDbEntity
  8
0
100
AcDbLine
 62
7
  6
CONTINUOUS
 10
-31.1113812277
 20
8.4103836124
 30
0.0
 11
-32.6435113967
 21
8.4103836124
 31
0.0
  0
LINE
  5
2B8
100
AcDbEntity
  8
RACCORDO
100
AcDbLine
 62
250
  6
CONTINUOUS
 10
-47.0724923388
 20
6.8417360255
 30
0.0
 11
-44.6724923387
 21
6.8213657531
 31
0.0
  0
LINE
  5
2B9
100
AcDbEntity
  8
RACCORDO
100
AcDbLine
 62
7
  6
CONTINUOUS
 10
-47.0724923388
 20
6.9414413568
 30
0.0
 11
-44.7716196852
 21
6.9213619454
 31
0.0
  0
LINE
  5
2BA
100
AcDbEntity
  8
DRAFT
100
AcDbLine
 62
7
  6
CONTINUOUS
 10
-37.0724923388
 20
16.0103836124
 30
0.0
 11
-37.0724923388
 21
14.1103836124
 31
0.0
  0
LINE
  5
2BB
100
AcDbEntity
  8
0
100
AcDbLine
 62
7
  6
CONTINUOUS
 10
-36.6724923388
 20
1.6630588748
 30
0.0
 11
-36.6724923388
 21
5.1103836124
 31
0.0
  0
LINE
  5
2BC
100
AcDbEntity
  8
DRAFT
100
AcDbLine
 62
250
  6
CONTINUOUS
 10
-36.5637661356
 20
-14.9433518148
 30
0.0
 11
-36.5637661356
 21
-14.3896163876
 31
0.0
  0
LINE
  5
2BD
100
AcDbEntity
  8
DRAFT
100
AcDbLine
 62
250
  6
CONTINUOUS
 10
-36.5637661356
 20
27.4103836124
 30
0.0
 11
-36.5637661356
 21
27.9641190395
 31
0.0
  0
LINE
  5
2BE
100
AcDbEntity
  8
0
100
AcDbLine
 62
7
  6
CONTINUOUS
 10
-36.0724923388
 20
-14.8256033363
 30
0.0
 11
-36.0724923388
 21
-14.3896163876
 31
0.0
  0
LINE
  5
2BF
100
AcDbEntity
  8
RACCORDO
100
AcDbLine
 62
7
  6
CONTINUOUS
 10
-36.0724923388
 20
-14.3896163876
 30
0.0
 11
-36.0724923388
 21
-13.1896755296
 31
0.0
  0
LINE
  5
2C0
100
AcDbEntity
  8
RACCORDO
100
AcDbLine
 62
7
  6
CONTINUOUS
 10
-36.0724923388
 20
26.2104434071
 30
0.0
 11
-36.0724923388
 21
27.4103836124
 31
0.0
  0
LINE
  5
2C1
100
AcDbEntity
  8
0
100
AcDbLine
 62
7
  6
CONTINUOUS
 10
-36.0724923388
 20
27.4103836124
 30
0.0
 11
-36.0724923388
 21
27.846370561
 31
0.0
  0
LWPOLYLINE
  5
2C2
100
AcDbEntity
  8
0
100
AcDbPolyline
 62
7
  6
CONTINUOUS
 90
2
 70
0
 43
0.3500000087
 10
-35.7367781631
 20
39.6637433105
 10
-35.7367781631
 20
41.1637405121
  0
LINE
  5
2C3
100
AcDbEntity
  8
0
100
AcDbLine
 62
7
  6
CONTINUOUS
 10
-40.3724923388
 20
1.9103836124
 30
0.0
 11
-40.8724923388
 21
1.4103836124
 31
0.0
  0
LINE
  5
2C4
100
AcDbEntity
  8
0
100
AcDbLine
 62
7
  6
CONTINUOUS
 10
-32.6435113967
 20
8.4103836124
 30
0.0
 11
-34.0235113967
 21
7.0303836124
 31
0.0
  0
LINE
  5
2C5
100
AcDbEntity
  8
0
100
AcDbLine
 62
7
  6
CONTINUOUS
 10
-44.0724923388
 20
9.4103836124
 30
0.0
 11
-41.1724923388
 21
9.4103836124
 31
0.0
  0
LINE
  5
2C6
100
AcDbEntity
  8
0
100
AcDbLine
 62
7
  6
CONTINUOUS
 10
-35.4724923388
 20
17.0103836124
 30
0.0
 11
-35.4724923388
 21
12.3103836124
 31
0.0
  0
LINE
  5
2C7
100
AcDbEntity
  8
0
100
AcDbLine
 62
7
  6
CONTINUOUS
 10
-34.0235113967
 20
7.0303836124
 30
0.0
 11
-34.0235113967
 21
1.6630588748
 31
0.0
  0
LINE
  5
2C8
100
AcDbEntity
  8
0
100
AcDbLine
 62
7
  6
CONTINUOUS
 10
-26.2724923388
 20
11.4103836124
 30
0.0
 11
-24.4724923388
 21
11.4103836124
 31
0.0
  0
LINE
  5
2C9
100
AcDbEntity
  8
RACCORDO
100
AcDbLine
 62
7
  6
CONTINUOUS
 10
-27.6553350513
 20
12.2103836124
 30
0.0
 11
-28.7475902716
 21
12.2103836124
 31
0.0
  0
LINE
  5
2CA
100
AcDbEntity
  8
0
100
AcDbLine
 62
7
  6
CONTINUOUS
 10
-39.8724923388
 20
12.3103836124
 30
0.0
 11
-26.7724923388
 21
12.3103836124
 31
0.0
  0
LINE
  5
2CB
100
AcDbEntity
  8
0
100
AcDbLine
 62
7
  6
CONTINUOUS
 10
-44.0724923388
 20
12.5103836124
 30
0.0
 11
-41.1724923388
 21
12.5103836124
 31
0.0
  0
LINE
  5
2CC
100
AcDbEntity
  8
0
100
AcDbLine
 62
7
  6
CONTINUOUS
 10
-32.6435113967
 20
-1.0896163876
 30
0.0
 11
-32.6435113967
 21
3.9103836124
 31
0.0
  0
LINE
  5
2CD
100
AcDbEntity
  8
RACCORDO
100
AcDbLine
 62
7
  6
CONTINUOUS
 10
-28.9273037748
 20
12.0981506721
 30
0.0
 11
-30.9724923388
 21
7.9103836124
 31
0.0
  0
LINE
  5
2CE
100
AcDbEntity
  8
RACCORDO
100
AcDbLine
 62
250
  6
CONTINUOUS
 10
-47.0724923388
 20
-4.4418043553
 30
0.0
 11
-46.7223885897
 21
-4.3176188229
 31
0.0
  0
LINE
  5
2CF
100
AcDbEntity
  8
RACCORDO
100
AcDbLine
 62
7
  6
CONTINUOUS
 10
-44.7716196852
 20
13.7994052794
 30
0.0
 11
-47.0724923388
 21
13.7793258679
 31
0.0
  0
LINE
  5
2D0
100
AcDbEntity
  8
RACCORDO
100
AcDbLine
 62
250
  6
CONTINUOUS
 10
-44.6724923388
 20
13.8994014717
 30
0.0
 11
-47.0724923388
 21
13.8790311993
 31
0.0
  0
LINE
  5
2D1
100
AcDbEntity
  8
0
100
AcDbLine
 62
7
  6
CONTINUOUS
 10
-44.6724923388
 20
14.1103836124
 30
0.0
 11
-39.8724923388
 21
14.1103836124
 31
0.0
  0
LINE
  5
2D2
100
AcDbEntity
  8
DRAFT
100
AcDbLine
 62
7
  6
CONTINUOUS
 10
-37.0724923388
 20
14.1103836124
 30
0.0
 11
-39.8724923388
 21
14.1103836124
 31
0.0
  0
LINE
  5
2D3
100
AcDbEntity
  8
RACCORDO
100
AcDbLine
 62
250
  6
CONTINUOUS
 10
-47.0724923388
 20
14.5417360255
 30
0.0
 11
-44.6724923387
 21
14.5213657531
 31
0.0
  0
LINE
  5
2D4
100
AcDbEntity
  8
RACCORDO
100
AcDbLine
 62
7
  6
CONTINUOUS
 10
-47.0724923388
 20
14.6414413568
 30
0.0
 11
-44.7716196852
 21
14.6213619454
 31
0.0
  0
LINE
  5
2D5
100
AcDbEntity
  8
RACCORDO
100
AcDbLine
 62
7
  6
CONTINUOUS
 10
-28.140179297
 20
1.5103836124
 30
0.0
 11
-29.9724923388
 21
4.3103836124
 31
0.0
  0
LINE
  5
2D6
100
AcDbEntity
  8
RACCORDO
100
AcDbLine
 62
250
  6
CONTINUOUS
 10
-28.2498648927
 20
1.6779967118
 30
0.0
 11
-32.6435113967
 21
-0.8586762799
 31
0.0
  0
LINE
  5
2D7
100
AcDbEntity
  8
RACCORDO
100
AcDbLine
 62
7
  6
CONTINUOUS
 10
-28.140179297
 20
1.5103836124
 30
0.0
 11
-32.6435113967
 21
-1.0896163876
 31
0.0
  0
LINE
  5
2D8
100
AcDbEntity
  8
RACCORDO
100
AcDbLine
 62
7
  6
CONTINUOUS
 10
-47.0724923388
 20
-4.8991747156
 30
0.0
 11
-45.6724923388
 21
-4.3896163876
 31
0.0
  0
LINE
  5
2D9
100
AcDbEntity
  8
DRAFT
100
AcDbLine
 62
7
  6
CONTINUOUS
 10
-47.0724923388
 20
16.0103836124
 30
0.0
 11
-37.0724923388
 21
16.0103836124
 31
0.0
  0
LINE
  5
2DA
100
AcDbEntity
  8
0
100
AcDbLine
 62
250
  6
CONTINUOUS
 10
-55.9910506536
 20
16.0008836124
 30
0.0
 11
-56.4822341921
 21
16.0103836124
 31
0.0
  0
LINE
  5
2DB
100
AcDbEntity
  8
ASSI
100
AcDbLine
 62
7
  6
CONTINUOUS
 10
-46.0936220348
 20
15.6831609864
 30
0.0
 11
-37.0724923388
 21
15.2103836124
 31
0.0
  0
LINE
  5
2DC
100
AcDbEntity
  8
0
100
AcDbLine
 62
7
  6
CONTINUOUS
 10
-31.1113812277
 20
8.4103836124
 30
0.0
 11
-29.9724923388
 21
4.3103836124
 31
0.0
  0
LINE
  5
2DD
100
AcDbEntity
  8
0
100
AcDbLine
 62
7
  6
CONTINUOUS
 10
-28.9724923388
 20
4.3103836124
 30
0.0
 11
-28.9724923388
 21
7.9103836124
 31
0.0
  0
LINE
  5
2DE
100
AcDbEntity
  8
DRAFT
100
AcDbLine
 62
7
  6
CONTINUOUS
 10
-35.4724923388
 20
17.0103836124
 30
0.0
 11
-46.3724923388
 21
17.0103836124
 31
0.0
  0
LINE
  5
2DF
100
AcDbEntity
  8
RACCORDO
100
AcDbLine
 62
7
  6
CONTINUOUS
 10
-45.8967564075
 20
17.7103836124
 30
0.0
 11
-46.3724923388
 21
17.7103836124
 31
0.0
  0
LINE
  5
2E0
100
AcDbEntity
  8
RACCORDO
100
AcDbLine
 62
7
  6
CONTINUOUS
 10
-44.6724923388
 20
18.0103836124
 30
0.0
 11
-47.0724923388
 21
18.0103836124
 31
0.0
  0
LINE
  5
2E1
100
AcDbEntity
  8
0
100
AcDbLine
 62
7
  6
CONTINUOUS
 10
-26.7724923388
 20
12.3103836124
 30
0.0
 11
-26.7724923388
 21
12.2103836124
 31
0.0
  0
LINE
  5
2E2
100
AcDbEntity
  8
RACCORDO
100
AcDbLine
 62
7
  6
CONTINUOUS
 10
-26.4724923388
 20
7.9103836124
 30
0.0
 11
-26.4724923388
 21
1.7103836124
 31
0.0
  0
LINE
  5
2E3
100
AcDbEntity
  8
RACCORDO
100
AcDbLine
 62
250
  6
CONTINUOUS
 10
-47.0724923388
 20
18.8417360255
 30
0.0
 11
-44.6724923387
 21
18.8213657531
 31
0.0
  0
LINE
  5
2E4
100
AcDbEntity
  8
RACCORDO
100
AcDbLine
 62
7
  6
CONTINUOUS
 10
-47.0724923388
 20
18.9414413568
 30
0.0
 11
-44.7716196852
 21
18.9213619454
 31
0.0
  0
LINE
  5
2E5
100
AcDbEntity
  8
RACCORDO
100
AcDbLine
 62
250
  6
CONTINUOUS
 10
-47.0724923388
 20
19.9414603953
 30
0.0
 11
-44.6724923388
 21
19.9205159126
 31
0.0
  0
LINE
  5
2E6
100
AcDbEntity
  8
RACCORDO
100
AcDbLine
 62
7
  6
CONTINUOUS
 10
-47.0724923388
 20
20.4414413568
 30
0.0
 11
-44.6724923388
 21
20.4204968741
 31
0.0
  0
LINE
  5
2E7
100
AcDbEntity
  8
RACCORDO
100
AcDbLine
 62
7
  6
CONTINUOUS
 10
-22.9724923388
 20
7.6103836124
 30
0.0
 11
-27.513913695
 21
12.1518049686
 31
0.0
  0
LINE
  5
2E8
100
AcDbEntity
  8
0
100
AcDbLine
 62
7
  6
CONTINUOUS
 10
-26.7724923388
 20
12.2103836124
 30
0.0
 11
-26.2724923388
 21
11.4103836124
 31
0.0
  0
LINE
  5
2E9
100
AcDbEntity
  8
0
100
AcDbLine
 62
7
  6
CONTINUOUS
 10
-24.4724923388
 20
11.4103836124
 30
0.0
 11
-24.4724923388
 21
9.1103836124
 31
0.0
  0
LINE
  5
2EA
100
AcDbEntity
  8
0
100
AcDbLine
 62
7
  6
CONTINUOUS
 10
-47.0724923388
 20
-14.5122661184
 30
0.0
 11
-48.0724923388
 21
-15.0896163876
 31
0.0
  0
LINE
  5
2EB
100
AcDbEntity
  8
0
100
AcDbLine
 62
7
  6
CONTINUOUS
 10
-49.5724923388
 20
-16.6122661184
 30
0.0
 11
-50.4474923388
 21
-17.117447604
 31
0.0
  0
LINE
  5
2EC
100
AcDbEntity
  8
0
100
AcDbLine
 62
250
  6
CONTINUOUS
 10
-49.3239467716
 20
-16.7566036857
 30
0.0
 11
-50.3239467716
 21
-17.3339539549
 31
0.0
  0
LINE
  5
2ED
100
AcDbEntity
  8
0
100
AcDbLine
 62
7
  6
CONTINUOUS
 10
-47.0724923388
 20
27.5330333432
 30
0.0
 11
-48.0724923388
 21
28.1103836124
 31
0.0
  0
LINE
  5
2EE
100
AcDbEntity
  8
0
100
AcDbLine
 62
7
  6
CONTINUOUS
 10
-50.4474923388
 20
30.1382148287
 30
0.0
 11
-49.5724923388
 21
29.6330333432
 31
0.0
  0
LINE
  5
2EF
100
AcDbEntity
  8
0
100
AcDbLine
 62
250
  6
CONTINUOUS
 10
-50.3239467716
 20
30.3547211797
 30
0.0
 11
-49.3239467716
 21
29.7773709105
 31
0.0
  0
LINE
  5
2F0
100
AcDbEntity
  8
RACCORDO
100
AcDbLine
 62
7
  6
CONTINUOUS
 10
-22.9724923388
 20
1.7103836124
 30
0.0
 11
-22.9724923388
 21
7.6103836124
 31
0.0
  0
LINE
  5
2F1
100
AcDbEntity
  8
RACCORDO
100
AcDbLine
 62
7
  6
CONTINUOUS
 10
-47.0724923388
 20
23.7964206239
 30
0.0
 11
-45.968129071
 21
23.8060582561
 31
0.0
  0
LINE
  5
2F2
100
AcDbEntity
  8
RACCORDO
100
AcDbLine
 62
250
  6
CONTINUOUS
 10
-47.0724923388
 20
24.0964092008
 30
0.0
 11
-45.968129071
 21
24.1060468331
 31
0.0
  0
LINE
  5
2F3
100
AcDbEntity
  8
RACCORDO
100
AcDbLine
 62
250
  6
CONTINUOUS
 10
-45.7698743781
 20
24.3060392177
 30
0.0
 11
-45.4724923388
 21
24.3060392177
 31
0.0
  0
LINE
  5
2F4
100
AcDbEntity
  8
RACCORDO
100
AcDbLine
 62
7
  6
CONTINUOUS
 10
-47.0724923388
 20
24.2707868246
 30
0.0
 11
-36.0724923388
 21
26.2103836124
 31
0.0
  0
LINE
  5
2F5
100
AcDbEntity
  8
RACCORDO
100
AcDbLine
 62
250
  6
CONTINUOUS
 10
-36.0724923388
 20
26.5186217833
 30
0.0
 11
-47.0724923388
 21
24.6763574228
 31
0.0
  0
LINE
  5
2F6
100
AcDbEntity
  8
DRAFT
100
AcDbLine
 62
7
  6
CONTINUOUS
 10
-36.5637661356
 20
27.9641190395
 30
0.0
 11
-47.0724923388
 21
27.9103836124
 31
0.0
  0
LINE
  5
2F7
100
AcDbEntity
  8
0
100
AcDbLine
 62
7
  6
CONTINUOUS
 10
-36.0724923388
 20
27.4103836124
 30
0.0
 11
-47.0724923388
 21
27.4103836124
 31
0.0
  0
LINE
  5
2F8
100
AcDbEntity
  8
0
100
AcDbLine
 62
250
  6
CONTINUOUS
 10
-47.0724923388
 20
28.4045827056
 30
0.0
 11
-48.0724923388
 21
28.4104005354
 31
0.0
  0
LWPOLYLINE
  5
2F9
100
AcDbEntity
  8
0
100
AcDbPolyline
 62
7
  6
CONTINUOUS
 90
10
 70
0
 43
0.3500000087
 10
-39.0224929169
 20
50.2422793915
 10
-38.9510654938
 20
50.0994245453
 10
-38.9510654938
 20
50.0279971222
 10
-39.09392034
 20
49.8851380127
 10
-39.1653477631
 20
49.8851380127
 10
-39.2367794495
 20
49.9565654358
 10
-39.2367794495
 20
50.0279971222
 10
-39.1653477631
 20
50.1708519684
 10
-39.09392034
 20
50.2422793915
 10
-39.0224929169
 20
50.2422793915
  0
LWPOLYLINE
  5
2FA
100
AcDbEntity
  8
0
100
AcDbPolyline
 62
7
  6
CONTINUOUS
 90
10
 70
0
 43
0.3500000087
 10
-33.7367783417
 20
40.1637437988
 10
-33.6653487869
 20
40.0208846893
 10
-33.6653487869
 20
39.9494572662
 10
-33.8082057648
 20
39.8065981567
 10
-33.8796353195
 20
39.8065981567
 10
-33.9510627426
 20
39.8780298431
 10
-33.9510627426
 20
39.9494572662
 10
-33.8796353195
 20
40.0923121124
 10
-33.8082057648
 20
40.1637437988
 10
-33.7367783417
 20
40.1637437988
  0
LINE
  5
2FB
100
AcDbEntity
  8
RACCORDO
100
AcDbLine
 62
250
  6
CONTINUOUS
 10
-49.5724923388
 20
29.0215648568
 30
0.0
 11
-49.3239467716
 21
29.045011155
 31
0.0
  0
LINE
  5
2FC
100
AcDbEntity
  8
0
100
AcDbLine
 62
250
  6
CONTINUOUS
 10
-48.0724694954
 20
28.4101559575
 30
0.0
 11
-54.538287633
 21
28.0712967876
 31
0.0
  0
LINE
  5
2FD
100
AcDbEntity
  8
0
100
AcDbLine
 62
7
  6
CONTINUOUS
 10
-48.0724923388
 20
28.9103836124
 30
0.0
 11
-54.5557294079
 21
28.570611555
 31
0.0
  0
LINE
  5
2FE
100
AcDbEntity
  8
RACCORDO
100
AcDbLine
 62
250
  6
CONTINUOUS
 10
-49.3239467716
 20
29.045011155
 30
0.0
 11
-48.0724923388
 21
29.1105971027
 31
0.0
  0
LINE
  5
2FF
100
AcDbEntity
  8
0
100
AcDbLine
 62
250
  6
CONTINUOUS
 10
-50.5724923388
 20
30.3547211797
 30
0.0
 11
-50.3239467716
 21
30.3547211797
 31
0.0
  0
LINE
  5
300
100
AcDbEntity
  8
0
100
AcDbLine
 62
250
  6
CONTINUOUS
 10
-47.0724923388
 20
30.3547211797
 30
0.0
 11
-47.321037906
 21
30.3547211797
 31
0.0
  0
LINE
  5
301
100
AcDbEntity
  8
DRAFT
100
AcDbLine
 62
7
  6
CONTINUOUS
 10
-37.0666746074
 20
28.8463536379
 30
0.0
 11
-47.0724923388
 21
28.9045657826
 31
0.0
  0
LINE
  5
302
100
AcDbEntity
  8
0
100
AcDbLine
 62
7
  6
CONTINUOUS
 10
-47.0724923388
 20
28.9045657826
 30
0.0
 11
-48.0724923388
 21
28.9103836124
 31
0.0
  0
LINE
  5
303
100
AcDbEntity
  8
0
100
AcDbLine
 62
7
  6
CONTINUOUS
 10
-47.0724923388
 20
30.5045657826
 30
0.0
 11
-40.5695834731
 21
30.4667329655
 31
0.0
  0
LINE
  5
304
100
AcDbEntity
  8
0
100
AcDbLine
 62
250
  6
CONTINUOUS
 10
-50.3239467716
 20
30.7472892645
 30
0.0
 11
-48.0724923388
 21
30.7603878432
 31
0.0
  0
LINE
  5
305
100
AcDbEntity
  8
0
100
AcDbLine
 62
7
  6
CONTINUOUS
 10
-50.3239467716
 20
30.9972850337
 30
0.0
 11
-48.0724923388
 21
31.0103836124
 31
0.0
  0
LINE
  5
306
100
AcDbEntity
  8
0
100
AcDbLine
 62
250
  6
CONTINUOUS
 10
-50.5724923388
 20
30.7472892645
 30
0.0
 11
-50.3239467716
 21
30.7472892645
 31
0.0
  0
LINE
  5
307
100
AcDbEntity
  8
0
100
AcDbLine
 62
250
  6
CONTINUOUS
 10
-47.0724923388
 20
30.7560160092
 30
0.0
 11
-47.321037906
 21
30.7560160092
 31
0.0
  0
LINE
  5
308
100
AcDbEntity
  8
0
100
AcDbLine
 62
250
  6
CONTINUOUS
 10
-48.0724923388
 20
30.7603878432
 30
0.0
 11
-47.321037906
 21
30.7560160092
 31
0.0
  0
LINE
  5
309
100
AcDbEntity
  8
0
100
AcDbLine
 62
7
  6
CONTINUOUS
 10
-48.0724923388
 20
31.0103836124
 30
0.0
 11
-47.321037906
 21
31.0060117784
 31
0.0
  0
LWPOLYLINE
  5
30A
100
AcDbEntity
  8
0
100
AcDbPolyline
 62
7
  6
CONTINUOUS
 90
7
 70
0
 43
0.3500000087
 10
-37.5939188751
 20
39.6637433105
 10
-39.09392034
 20
39.6637433105
 10
-37.5939188751
 20
41.8066001099
 10
-37.5939188751
 20
42.2351689117
 10
-38.0224919403
 20
42.6637419769
 10
-38.6653515381
 20
42.6637419769
 10
-39.09392034
 20
42.0208866425
  0
LWPOLYLINE
  5
30B
100
AcDbEntity
  8
0
100
AcDbPolyline
 62
7
  6
CONTINUOUS
 90
3
 70
0
 43
0.3500000087
 10
-35.2367776749
 20
40.306598645
 10
-36.7367770081
 20
40.306598645
 10
-36.0939216736
 20
42.6637419769
  0
LWPOLYLINE
  5
30C
100
AcDbEntity
  8
0
100
AcDbPolyline
 62
7
  6
CONTINUOUS
 90
6
 70
0
 43
0.3500000087
 10
-43.95106185
 20
49.7422789032
 10
-42.8796334503
 20
49.7422789032
 10
-42.665351181
 20
49.9565654358
 10
-42.665351181
 20
51.0279938354
 10
-43.0939199829
 20
51.4565669006
 10
-43.5224930481
 20
51.4565669006
  0
LWPOLYLINE
  5
30D
100
AcDbEntity
  8
0
100
AcDbPolyline
 62
7
  6
CONTINUOUS
 90
6
 70
0
 43
0.3500000087
 10
-41.8082050507
 20
49.7422789032
 10
-40.736776651
 20
49.7422789032
 10
-40.5224943817
 20
49.9565654358
 10
-40.5224943817
 20
51.0279938354
 10
-40.9510631836
 20
51.4565669006
 10
-41.3796362488
 20
51.4565669006
  0
LWPOLYLINE
  5
30E
100
AcDbEntity
  8
0
100
AcDbPolyline
 62
7
  6
CONTINUOUS
 90
5
 70
0
 43
0.3500000087
 10
1.9285714658
 20
41.5106925903
 10
2.2857143101
 20
41.7249791229
 10
2.2857143101
 20
42.3678344574
 10
1.9285714658
 20
42.7964075226
 10
1.0714285995
 20
42.7964075226
  0
LWPOLYLINE
  5
30F
100
AcDbEntity
  8
0
100
AcDbPolyline
 62
7
  6
CONTINUOUS
 90
5
 70
0
 43
0.3500000087
 10
4.0714286648
 20
41.5106925903
 10
4.4285713758
 20
41.7249791229
 10
4.4285713758
 20
42.3678344574
 10
4.0714286648
 20
42.7964075226
 10
3.2142857319
 20
42.7964075226
  0
LINE
  5
310
100
AcDbEntity
  8
0
100
AcDbLine
 62
7
  6
CONTINUOUS
 10
-9.9000042308
 20
-17.9896163876
 30
0.0
 11
-7.4999957692
 21
-17.9896163876
 31
0.0
  0
LINE
  5
311
100
AcDbEntity
  8
0
100
AcDbLine
 62
7
  6
CONTINUOUS
 10
7.4999957692
 20
-17.9896163876
 30
0.0
 11
9.9000042308
 21
-17.9896163876
 31
0.0
  0
LINE
  5
312
100
AcDbEntity
  8
0
100
AcDbLine
 62
7
  6
CONTINUOUS
 10
-9.8869056521
 20
-17.9765178089
 30
0.0
 11
-7.5130943479
 21
-17.9765178089
 31
0.0
  0
LINE
  5
313
100
AcDbEntity
  8
0
100
AcDbLine
 62
7
  6
CONTINUOUS
 10
7.5130943479
 20
-17.9765178089
 30
0.0
 11
9.8869056521
 21
-17.9765178089
 31
0.0
  0
LINE
  5
314
100
AcDbEntity
  8
0
100
AcDbLine
 62
250
  6
CONTINUOUS
 10
7.2630985787
 20
-17.7265220397
 30
0.0
 11
10.1369014213
 21
-17.7265220397
 31
0.0
  0
LINE
  5
315
100
AcDbEntity
  8
0
100
AcDbLine
 62
250
  6
CONTINUOUS
 10
-7.2630985787
 20
-17.7265220397
 30
0.0
 11
-10.1369014213
 21
-17.7265220397
 31
0.0
  0
LINE
  5
316
100
AcDbEntity
  8
0
100
AcDbLine
 62
7
  6
CONTINUOUS
 10
4.45
 20
-17.4896163876
 30
0.0
 11
3.5
 21
-17.4896163876
 31
0.0
  0
LINE
  5
317
100
AcDbEntity
  8
0
100
AcDbLine
 62
7
  6
CONTINUOUS
 10
-3.5
 20
-17.4896163876
 30
0.0
 11
-4.45
 21
-17.4896163876
 31
0.0
  0
LINE
  5
318
100
AcDbEntity
  8
0
100
AcDbLine
 62
7
  6
CONTINUOUS
 10
-3.5
 20
-17.4878642694
 30
0.0
 11
-1.2
 21
-17.4878642694
 31
0.0
  0
LINE
  5
319
100
AcDbEntity
  8
0
100
AcDbLine
 62
7
  6
CONTINUOUS
 10
1.2
 20
-17.4878642694
 30
0.0
 11
3.5
 21
-17.4878642694
 31
0.0
  0
LINE
  5
31A
100
AcDbEntity
  8
0
100
AcDbLine
 62
7
  6
CONTINUOUS
 10
4.4412732553
 20
-17.4808896429
 30
0.0
 11
3.5
 21
-17.4808896429
 31
0.0
  0
LINE
  5
31B
100
AcDbEntity
  8
0
100
AcDbLine
 62
7
  6
CONTINUOUS
 10
-3.5
 20
-17.4808896429
 30
0.0
 11
-4.4412732553
 21
-17.4808896429
 31
0.0
  0
LINE
  5
31C
100
AcDbEntity
  8
0
100
AcDbLine
 62
250
  6
CONTINUOUS
 10
7.2630985787
 20
-17.3339539549
 30
0.0
 11
10.1369014213
 21
-17.3339539549
 31
0.0
  0
LINE
  5
31D
100
AcDbEntity
  8
0
100
AcDbLine
 62
250
  6
CONTINUOUS
 10
-7.2630985787
 20
-17.3339539549
 30
0.0
 11
-10.1369014213
 21
-17.3339539549
 31
0.0
  0
LINE
  5
31E
100
AcDbEntity
  8
0
100
AcDbLine
 62
250
  6
CONTINUOUS
 10
-3.5
 20
-17.287867654
 30
0.0
 11
-1.0
 21
-17.287867654
 31
0.0
  0
LINE
  5
31F
100
AcDbEntity
  8
0
100
AcDbLine
 62
250
  6
CONTINUOUS
 10
1.0
 20
-17.287867654
 30
0.0
 11
3.5
 21
-17.287867654
 31
0.0
  0
LINE
  5
320
100
AcDbEntity
  8
0
100
AcDbLine
 62
250
  6
CONTINUOUS
 10
9.8869056521
 20
-17.117447604
 30
0.0
 11
7.5130943479
 21
-17.117447604
 31
0.0
  0
LINE
  5
321
100
AcDbEntity
  8
0
100
AcDbLine
 62
250
  6
CONTINUOUS
 10
-7.5130943479
 20
-17.117447604
 30
0.0
 11
-9.8869056521
 21
-17.117447604
 31
0.0
  0
LINE
  5
322
100
AcDbEntity
  8
0
100
AcDbLine
 62
7
  6
CONTINUOUS
 10
-9.8927234819
 20
-16.6122661184
 30
0.0
 11
-7.5072765181
 21
-16.6122661184
 31
0.0
  0
LINE
  5
323
100
AcDbEntity
  8
0
100
AcDbLine
 62
7
  6
CONTINUOUS
 10
9.8927234819
 20
-16.6122661184
 30
0.0
 11
7.5072765181
 21
-16.6122661184
 31
0.0
  0
LINE
  5
324
100
AcDbEntity
  8
0
100
AcDbLine
 62
250
  6
CONTINUOUS
 10
-7.5130943479
 20
30.9972850337
 30
0.0
 11
-7.5003794152
 21
31.0099999664
 31
0.0
  0
LINE
  5
325
100
AcDbEntity
  8
0
100
AcDbLine
 62
250
  6
CONTINUOUS
 10
-7.2630985787
 20
30.7472892645
 30
0.0
 11
-7.25
 21
30.7603878432
 31
0.0
  0
LINE
  5
326
100
AcDbEntity
  8
RACCORDO
100
AcDbLine
 62
250
  6
CONTINUOUS
 10
9.8927234819
 20
-16.000797632
 30
0.0
 11
7.5072765181
 21
-16.000797632
 31
0.0
  0
LINE
  5
327
100
AcDbEntity
  8
RACCORDO
100
AcDbLine
 62
250
  6
CONTINUOUS
 10
-7.5072765181
 20
-16.000797632
 30
0.0
 11
-9.8927234819
 21
-16.000797632
 31
0.0
  0
LINE
  5
328
100
AcDbEntity
  8
RACCORDO
100
AcDbLine
 62
7
  6
CONTINUOUS
 10
-10.6504426895
 20
-15.8896163876
 30
0.0
 11
-10.3499424881
 21
-15.8896163876
 31
0.0
  0
LINE
  5
329
100
AcDbEntity
  8
RACCORDO
100
AcDbLine
 62
7
  6
CONTINUOUS
 10
-7.0500575119
 20
-15.8896163876
 30
0.0
 11
-4.45
 21
-15.8896163876
 31
0.0
  0
LINE
  5
32A
100
AcDbEntity
  8
0
100
AcDbLine
 62
7
  6
CONTINUOUS
 10
1.0
 20
-15.8896163876
 30
0.0
 11
-1.0
 21
-15.8896163876
 31
0.0
  0
LINE
  5
32B
100
AcDbEntity
  8
RACCORDO
100
AcDbLine
 62
7
  6
CONTINUOUS
 10
4.45
 20
-15.8896163876
 30
0.0
 11
7.0500575119
 21
-15.8896163876
 31
0.0
  0
LINE
  5
32C
100
AcDbEntity
  8
RACCORDO
100
AcDbLine
 62
7
  6
CONTINUOUS
 10
10.3499424881
 20
-15.8896163876
 30
0.0
 11
10.6504426895
 21
-15.8896163876
 31
0.0
  0
LINE
  5
32D
100
AcDbEntity
  8
0
100
AcDbLine
 62
7
  6
CONTINUOUS
 10
-3.5
 20
-15.863412498
 30
0.0
 11
-1.2
 21
-15.863412498
 31
0.0
  0
LINE
  5
32E
100
AcDbEntity
  8
0
100
AcDbLine
 62
7
  6
CONTINUOUS
 10
1.2
 20
-15.863412498
 30
0.0
 11
3.5
 21
-15.863412498
 31
0.0
  0
LINE
  5
32F
100
AcDbEntity
  8
0
100
AcDbLine
 62
7
  6
CONTINUOUS
 10
4.4412732553
 20
-15.8110047187
 30
0.0
 11
3.5
 21
-15.8110047187
 31
0.0
  0
LINE
  5
330
100
AcDbEntity
  8
0
100
AcDbLine
 62
7
  6
CONTINUOUS
 10
-3.5
 20
-15.8110047187
 30
0.0
 11
-4.4412732553
 21
-15.8110047187
 31
0.0
  0
LINE
  5
331
100
AcDbEntity
  8
RACCORDO
100
AcDbLine
 62
250
  6
CONTINUOUS
 10
9.8927234819
 20
-15.8010717251
 30
0.0
 11
7.5072765181
 21
-15.8010717251
 31
0.0
  0
LINE
  5
332
100
AcDbEntity
  8
RACCORDO
100
AcDbLine
 62
250
  6
CONTINUOUS
 10
-7.5072765181
 20
-15.8010717251
 30
0.0
 11
-9.8927234819
 21
-15.8010717251
 31
0.0
  0
LINE
  5
333
100
AcDbEntity
  8
0
100
AcDbLine
 62
250
  6
CONTINUOUS
 10
10.5363425225
 20
-15.5498443303
 30
0.0
 11
-10.5363425225
 21
-15.5498443303
 31
0.0
  0
LINE
  5
334
100
AcDbEntity
  8
0
100
AcDbLine
 62
250
  6
CONTINUOUS
 10
-7.5130943479
 20
-17.9765178089
 30
0.0
 11
-7.4999957692
 21
-17.9896163876
 31
0.0
  0
LINE
  5
335
100
AcDbEntity
  8
0
100
AcDbLine
 62
250
  6
CONTINUOUS
 10
-7.2630985787
 20
-17.7265220397
 30
0.0
 11
-7.25
 21
-17.7396206184
 31
0.0
  0
LINE
  5
336
100
AcDbEntity
  8
RACCORDO
100
AcDbLine
 62
7
  6
CONTINUOUS
 10
-9.45
 20
26.9992908851
 30
0.0
 11
-9.4662387706
 21
26.9830521146
 31
0.0
  0
LINE
  5
337
100
AcDbEntity
  8
0
100
AcDbLine
 62
250
  6
CONTINUOUS
 10
10.5281693342
 20
-14.7003338787
 30
0.0
 11
-10.5281693342
 21
-14.7003338787
 31
0.0
  0
LINE
  5
338
100
AcDbEntity
  8
RACCORDO
100
AcDbLine
 62
250
  6
CONTINUOUS
 10
-9.5
 20
22.5103264992
 30
0.0
 11
-9.5166549137
 21
22.5019996765
 31
0.0
  0
LINE
  5
339
100
AcDbEntity
  8
RACCORDO
100
AcDbLine
 62
250
  6
CONTINUOUS
 10
-9.45
 20
22.5083449927
 30
0.0
 11
-9.4356108832
 21
22.5155390031
 31
0.0
  0
LINE
  5
33A
100
AcDbEntity
  8
RACCORDO
100
AcDbLine
 62
250
  6
CONTINUOUS
 10
-8.9499999971
 20
22.0084021059
 30
0.0
 11
-8.9350015187
 21
22.015900774
 31
0.0
  0
LINE
  5
33B
100
AcDbEntity
  8
RACCORDO
100
AcDbLine
 62
250
  6
CONTINUOUS
 10
-9.6925731361
 20
28.570611555
 30
0.0
 11
-9.6579556043
 21
28.6745486056
 31
0.0
  0
LINE
  5
33C
100
AcDbEntity
  8
RACCORDO
100
AcDbLine
 62
250
  6
CONTINUOUS
 10
-9.4926035971
 20
28.3708856481
 30
0.0
 11
-9.4581078442
 21
28.4744570648
 31
0.0
  0
LWPOLYLINE
  5
33D
100
AcDbEntity
  8
RACCORDO
100
AcDbPolyline
 62
7
  6
CONTINUOUS
 90
17
 70
0
 10
-9.4333218687
 20
28.5009893133
 10
-9.4335603348
 20
28.5002795659
 10
-9.4354548451
 20
28.4939498715
 10
-9.4367000328
 20
28.488849156
 10
-9.4375369585
 20
28.4847654305
 10
-9.4381951565
 20
28.4810224421
 10
-9.438731964
 20
28.477509429
 10
-9.4391615255
 20
28.474327042
 10
-9.4395483124
 20
28.4711263763
 10
-9.43990852
 20
28.467820457
 10
-9.4402397963
 20
28.4644734987
 10
-9.4405572646
 20
28.4609672344
 10
-9.4408652063
 20
28.4572683508
 10
-9.4411636095
 20
28.4533891654
 10
-9.4414566206
 20
28.4492848553
 10
-9.4417453908
 20
28.4449425572
 10
-9.4423129231
 20
28.4355088116
  0
LINE
  5
33E
100
AcDbEntity
  8
RACCORDO
100
AcDbLine
 62
7
  6
CONTINUOUS
 10
-9.4335315119
 20
28.500366743
 30
0.0
 11
-9.3990053328
 21
28.6040295124
 31
0.0
  0
LINE
  5
33F
100
AcDbEntity
  8
RACCORDO
100
AcDbLine
 62
250
  6
CONTINUOUS
 10
-9.3386554756
 20
28.5686300485
 30
0.0
 11
-9.3040379438
 21
28.6725670991
 31
0.0
  0
LINE
  5
340
100
AcDbEntity
  8
0
100
AcDbLine
 62
7
  6
CONTINUOUS
 10
4.4412732553
 20
30.5016568677
 30
0.0
 11
4.45
 21
30.5103836124
 31
0.0
  0
LINE
  5
341
100
AcDbEntity
  8
0
100
AcDbLine
 62
7
  6
CONTINUOUS
 10
4.45
 20
-17.4896163876
 30
0.0
 11
4.4412732553
 21
-17.4808896429
 31
0.0
  0
LINE
  5
342
100
AcDbEntity
  8
0
100
AcDbLine
 62
7
  6
CONTINUOUS
 10
-11.1665823117
 20
-14.5122661184
 30
0.0
 11
-11.15
 21
-15.0607488742
 31
0.0
  0
LINE
  5
343
100
AcDbEntity
  8
0
100
AcDbLine
 62
7
  6
CONTINUOUS
 10
-11.15
 20
28.0815160989
 30
0.0
 11
-11.1504363434
 21
28.1103836124
 31
0.0
  0
LINE
  5
344
100
AcDbEntity
  8
0
100
AcDbLine
 62
7
  6
CONTINUOUS
 10
-11.1665823117
 20
-14.5122661184
 30
0.0
 11
-11.1665823117
 21
27.5330333432
 31
0.0
  0
LINE
  5
345
100
AcDbEntity
  8
0
100
AcDbLine
 62
7
  6
CONTINUOUS
 10
-11.1504363434
 20
28.4104005354
 30
0.0
 11
-11.1504363434
 21
28.1103836124
 31
0.0
  0
LINE
  5
346
100
AcDbEntity
  8
0
100
AcDbLine
 62
7
  6
CONTINUOUS
 10
-11.1504363434
 20
-15.3896333107
 30
0.0
 11
-11.1504363434
 21
-15.0896163876
 31
0.0
  0
LINE
  5
347
100
AcDbEntity
  8
0
100
AcDbLine
 62
7
  6
CONTINUOUS
 10
-11.1504363434
 20
-15.0896163876
 30
0.0
 11
-11.15
 21
-15.0607488742
 31
0.0
  0
LINE
  5
348
100
AcDbEntity
  8
0
100
AcDbLine
 62
7
  6
CONTINUOUS
 10
-11.1665823117
 20
27.5330333432
 30
0.0
 11
-11.15
 21
28.0815160989
 31
0.0
  0
LINE
  5
349
100
AcDbEntity
  8
RACCORDO
100
AcDbLine
 62
7
  6
CONTINUOUS
 10
-9.4423129231
 20
28.4355088116
 30
0.0
 11
-9.4428726936
 21
28.4249761246
 31
0.0
  0
LINE
  5
34A
100
AcDbEntity
  8
DRAFT
100
AcDbLine
 62
7
  6
CONTINUOUS
 10
-9.5
 20
22.9103836124
 30
0.0
 11
-9.4820686967
 21
23.1287394987
 31
0.0
  0
LWPOLYLINE
  5
34B
100
AcDbEntity
  8
0
100
AcDbPolyline
 62
7
  6
CONTINUOUS
 90
3
 70
0
 43
0.3500000087
 10
0.0714285722
 20
40.0821185486
 10
-0.0
 20
39.8678362793
 10
-0.1428571444
 20
39.5821223236
  0
LINE
  5
34C
100
AcDbEntity
  8
SMUSSO
100
AcDbLine
 62
7
  6
CONTINUOUS
 10
-9.4581078442
 20
28.2295841838
 30
0.0
 11
-9.4511268816
 21
27.8226032212
 31
0.0
  0
LINE
  5
34D
100
AcDbEntity
  8
0
100
AcDbLine
 62
250
  6
CONTINUOUS
 10
-10.1369014213
 20
-17.3339539549
 30
0.0
 11
-10.1427192511
 21
-16.7566036857
 31
0.0
  0
LINE
  5
34E
100
AcDbEntity
  8
0
100
AcDbLine
 62
250
  6
CONTINUOUS
 10
-9.8869056521
 20
-17.117447604
 30
0.0
 11
-9.8919962532
 21
-16.6122661184
 31
0.0
  0
LINE
  5
34F
100
AcDbEntity
  8
0
100
AcDbLine
 62
250
  6
CONTINUOUS
 10
-10.1368971412
 20
-17.7279764728
 30
0.0
 11
-10.1369014213
 21
-17.7265220397
 31
0.0
  0
LINE
  5
350
100
AcDbEntity
  8
0
100
AcDbLine
 62
250
  6
CONTINUOUS
 10
-10.5109844497
 20
-2.9896163876
 30
0.0
 11
-10.5109844497
 21
16.0103836124
 31
0.0
  0
LINE
  5
351
100
AcDbEntity
  8
RACCORDO
100
AcDbLine
 62
7
  6
CONTINUOUS
 10
-10.15
 20
29.9208687606
 30
0.0
 11
-10.15
 21
29.1105971027
 31
0.0
  0
LINE
  5
352
100
AcDbEntity
  8
RACCORDO
100
AcDbLine
 62
7
  6
CONTINUOUS
 10
-10.15
 20
-16.0898298779
 30
0.0
 11
-10.15
 21
-16.9001015358
 31
0.0
  0
LINE
  5
353
100
AcDbEntity
  8
0
100
AcDbLine
 62
7
  6
CONTINUOUS
 10
-10.15
 20
-17.7396206184
 30
0.0
 11
-10.15
 21
-16.9001015358
 31
0.0
  0
LINE
  5
354
100
AcDbEntity
  8
0
100
AcDbLine
 62
7
  6
CONTINUOUS
 10
-10.15
 20
29.9208687606
 30
0.0
 11
-10.15
 21
30.7603878432
 31
0.0
  0
LINE
  5
355
100
AcDbEntity
  8
RACCORDO
100
AcDbLine
 62
7
  6
CONTINUOUS
 10
-10.1427192511
 20
29.7773709105
 30
0.0
 11
-10.1427192511
 21
29.045011155
 31
0.0
  0
LINE
  5
356
100
AcDbEntity
  8
RACCORDO
100
AcDbLine
 62
7
  6
CONTINUOUS
 10
-10.1427192511
 20
-16.0242439302
 30
0.0
 11
-10.1427192511
 21
-16.7566036857
 31
0.0
  0
LINE
  5
357
100
AcDbEntity
  8
0
100
AcDbLine
 62
7
  6
CONTINUOUS
 10
-10.1369014213
 20
30.7472892645
 30
0.0
 11
-10.1369014213
 21
30.3547211797
 31
0.0
  0
LINE
  5
358
100
AcDbEntity
  8
0
100
AcDbLine
 62
7
  6
CONTINUOUS
 10
-10.1369014213
 20
-17.3339539549
 30
0.0
 11
-10.1369014213
 21
-17.7265220397
 31
0.0
  0
LINE
  5
359
100
AcDbEntity
  8
RACCORDO
100
AcDbLine
 62
250
  6
CONTINUOUS
 10
-9.8927234819
 20
-15.8010717251
 30
0.0
 11
-9.8927234819
 21
-16.6122661184
 31
0.0
  0
LINE
  5
35A
100
AcDbEntity
  8
RACCORDO
100
AcDbLine
 62
250
  6
CONTINUOUS
 10
-9.8927234819
 20
28.8218389498
 30
0.0
 11
-9.8927234819
 21
29.6330333432
 31
0.0
  0
LINE
  5
35B
100
AcDbEntity
  8
0
100
AcDbLine
 62
250
  6
CONTINUOUS
 10
-9.8869056521
 20
-17.9765178089
 30
0.0
 11
-9.8869056521
 21
-17.117447604
 31
0.0
  0
LINE
  5
35C
100
AcDbEntity
  8
0
100
AcDbLine
 62
250
  6
CONTINUOUS
 10
-9.8869056521
 20
30.1382148287
 30
0.0
 11
-9.8869056521
 21
30.9972850337
 31
0.0
  0
LINE
  5
35D
100
AcDbEntity
  8
RACCORDO
100
AcDbLine
 62
7
  6
CONTINUOUS
 10
-9.5
 20
22.5103264992
 30
0.0
 11
-9.5
 21
22.9103836124
 31
0.0
  0
LINE
  5
35E
100
AcDbEntity
  8
SMUSSO
100
AcDbLine
 62
7
  6
CONTINUOUS
 10
-9.4581078442
 20
28.2295841838
 30
0.0
 11
-9.4581078442
 21
28.4744570648
 31
0.0
  0
LINE
  5
35F
100
AcDbEntity
  8
RACCORDO
100
AcDbLine
 62
7
  6
CONTINUOUS
 10
-9.45
 20
22.3524832149
 30
0.0
 11
-9.45
 21
28.1424943071
 31
0.0
  0
LINE
  5
360
100
AcDbEntity
  8
RACCORDO
100
AcDbLine
 62
250
  6
CONTINUOUS
 10
-9.15
 20
22.0335989172
 30
0.0
 11
-9.15
 21
22.0503270023
 31
0.0
  0
LINE
  5
361
100
AcDbEntity
  8
RACCORDO
100
AcDbLine
 62
250
  6
CONTINUOUS
 10
-9.0176975542
 20
21.8182494918
 30
0.0
 11
-9.0176975542
 21
22.0015355077
 31
0.0
  0
LINE
  5
362
100
AcDbEntity
  8
RACCORDO
100
AcDbLine
 62
250
  6
CONTINUOUS
 10
-8.9350015187
 20
22.015900774
 30
0.0
 11
-8.9350015187
 21
22.1245927337
 31
0.0
  0
LINE
  5
363
100
AcDbEntity
  8
RACCORDO
100
AcDbLine
 62
7
  6
CONTINUOUS
 10
-9.4820686967
 20
23.1287394987
 30
0.0
 11
-9.4747489329
 21
26.5440629387
 31
0.0
  0
LINE
  5
364
100
AcDbEntity
  8
0
100
AcDbLine
 62
250
  6
CONTINUOUS
 10
-10.1427192511
 20
29.7773709105
 30
0.0
 11
-10.1369014213
 21
30.3547211797
 31
0.0
  0
LINE
  5
365
100
AcDbEntity
  8
0
100
AcDbLine
 62
250
  6
CONTINUOUS
 10
-9.8919962532
 20
29.6330333432
 30
0.0
 11
-9.8869056521
 21
30.1382148287
 31
0.0
  0
LINE
  5
366
100
AcDbEntity
  8
RACCORDO
100
AcDbLine
 62
7
  6
CONTINUOUS
 10
-9.4485026076
 20
28.2315331208
 30
0.0
 11
-9.4499867985
 21
28.1409796312
 31
0.0
  0
LINE
  5
367
100
AcDbEntity
  8
RACCORDO
100
AcDbLine
 62
7
  6
CONTINUOUS
 10
-9.4472264866
 20
28.2925612982
 30
0.0
 11
-9.4485026076
 21
28.2315331208
 31
0.0
  0
LINE
  5
368
100
AcDbEntity
  8
RACCORDO
100
AcDbLine
 62
7
  6
CONTINUOUS
 10
-9.4461649643
 20
28.3343873124
 30
0.0
 11
-9.4472264866
 21
28.2925612982
 31
0.0
  0
LINE
  5
369
100
AcDbEntity
  8
RACCORDO
100
AcDbLine
 62
7
  6
CONTINUOUS
 10
-9.4450802553
 20
28.3701853841
 30
0.0
 11
-9.4461649643
 21
28.3343873124
 31
0.0
  0
LINE
  5
36A
100
AcDbEntity
  8
RACCORDO
100
AcDbLine
 62
7
  6
CONTINUOUS
 10
-9.4442571243
 20
28.393250378
 30
0.0
 11
-9.4450802553
 21
28.3701853841
 31
0.0
  0
LINE
  5
36B
100
AcDbEntity
  8
RACCORDO
100
AcDbLine
 62
7
  6
CONTINUOUS
 10
-9.4434283965
 20
28.4132473242
 30
0.0
 11
-9.4442571243
 21
28.393250378
 31
0.0
  0
LINE
  5
36C
100
AcDbEntity
  8
RACCORDO
100
AcDbLine
 62
7
  6
CONTINUOUS
 10
-9.4428726936
 20
28.4249761246
 30
0.0
 11
-9.4434283965
 21
28.4132473242
 31
0.0
  0
LINE
  5
36D
100
AcDbEntity
  8
RACCORDO
100
AcDbLine
 62
250
  6
CONTINUOUS
 10
-7.0572841335
 20
28.8452852481
 30
0.0
 11
-7.0500575117
 21
28.9103836124
 31
0.0
  0
LINE
  5
36E
100
AcDbEntity
  8
DRAFT
100
AcDbLine
 62
7
  6
CONTINUOUS
 10
-3.0
 20
28.7321971628
 30
0.0
 11
-3.0192005714
 21
28.6745486056
 31
0.0
  0
LINE
  5
36F
100
AcDbEntity
  8
0
100
AcDbLine
 62
250
  6
CONTINUOUS
 10
9.8869056521
 20
30.9972850337
 30
0.0
 11
9.9000042308
 21
31.0103836124
 31
0.0
  0
LINE
  5
370
100
AcDbEntity
  8
0
100
AcDbLine
 62
250
  6
CONTINUOUS
 10
10.1369014213
 20
30.7472892645
 30
0.0
 11
10.15
 21
30.7603878432
 31
0.0
  0
LINE
  5
371
100
AcDbEntity
  8
0
100
AcDbLine
 62
250
  6
CONTINUOUS
 10
10.5109844497
 20
-2.9896163876
 30
0.0
 11
-10.5109844497
 21
-2.9896163876
 31
0.0
  0
LINE
  5
372
100
AcDbEntity
  8
0
100
AcDbLine
 62
250
  6
CONTINUOUS
 10
9.8869056521
 20
-17.9765178089
 30
0.0
 11
9.9000042308
 21
-17.9896163876
 31
0.0
  0
LINE
  5
373
100
AcDbEntity
  8
0
100
AcDbLine
 62
250
  6
CONTINUOUS
 10
10.1369014213
 20
-17.7265220397
 30
0.0
 11
10.15
 21
-17.7396206184
 31
0.0
  0
LINE
  5
374
100
AcDbEntity
  8
RACCORDO
100
AcDbLine
 62
250
  6
CONTINUOUS
 10
-7.0500575117
 20
-15.8896163876
 30
0.0
 11
-7.0572841335
 21
-15.8245180233
 31
0.0
  0
LINE
  5
375
100
AcDbEntity
  8
0
100
AcDbLine
 62
250
  6
CONTINUOUS
 10
-7.5130943479
 20
30.1382148287
 30
0.0
 11
-7.5080037468
 21
29.6330333432
 31
0.0
  0
LINE
  5
376
100
AcDbEntity
  8
0
100
AcDbLine
 62
250
  6
CONTINUOUS
 10
-7.2630985787
 20
30.3547211797
 30
0.0
 11
-7.2572807489
 21
29.7773709105
 31
0.0
  0
LINE
  5
377
100
AcDbEntity
  8
0
100
AcDbLine
 62
250
  6
CONTINUOUS
 10
-7.2631028588
 20
30.7487436976
 30
0.0
 11
-7.2630985787
 21
30.7472892645
 31
0.0
  0
LINE
  5
378
100
AcDbEntity
  8
0
100
AcDbLine
 62
250
  6
CONTINUOUS
 10
-7.5130943479
 20
-17.9765178089
 30
0.0
 11
-7.5130943479
 21
-17.117447604
 31
0.0
  0
LINE
  5
379
100
AcDbEntity
  8
0
100
AcDbLine
 62
250
  6
CONTINUOUS
 10
-7.5130943479
 20
30.1382148287
 30
0.0
 11
-7.5130943479
 21
30.9972850337
 31
0.0
  0
LINE
  5
37A
100
AcDbEntity
  8
RACCORDO
100
AcDbLine
 62
250
  6
CONTINUOUS
 10
-7.5072765181
 20
-16.6122661184
 30
0.0
 11
-7.5072765181
 21
-15.8010717251
 31
0.0
  0
LINE
  5
37B
100
AcDbEntity
  8
RACCORDO
100
AcDbLine
 62
250
  6
CONTINUOUS
 10
-7.5072765181
 20
28.8218389498
 30
0.0
 11
-7.5072765181
 21
29.6330333432
 31
0.0
  0
LINE
  5
37C
100
AcDbEntity
  8
0
100
AcDbLine
 62
7
  6
CONTINUOUS
 10
-7.2630985787
 20
-17.7265220397
 30
0.0
 11
-7.2630985787
 21
-17.3339539549
 31
0.0
  0
LINE
  5
37D
100
AcDbEntity
  8
0
100
AcDbLine
 62
7
  6
CONTINUOUS
 10
-7.2630985787
 20
30.3547211797
 30
0.0
 11
-7.2630985787
 21
30.7472892645
 31
0.0
  0
LINE
  5
37E
100
AcDbEntity
  8
RACCORDO
100
AcDbLine
 62
7
  6
CONTINUOUS
 10
-7.2572807489
 20
-16.7566036857
 30
0.0
 11
-7.2572807489
 21
-16.0242439302
 31
0.0
  0
LINE
  5
37F
100
AcDbEntity
  8
RACCORDO
100
AcDbLine
 62
7
  6
CONTINUOUS
 10
-7.2572807489
 20
29.045011155
 30
0.0
 11
-7.2572807489
 21
29.7773709105
 31
0.0
  0
LINE
  5
380
100
AcDbEntity
  8
0
100
AcDbLine
 62
7
  6
CONTINUOUS
 10
-7.25
 20
30.7603878432
 30
0.0
 11
-7.25
 21
29.9208687606
 31
0.0
  0
LINE
  5
381
100
AcDbEntity
  8
0
100
AcDbLine
 62
7
  6
CONTINUOUS
 10
-7.25
 20
-16.9001015358
 30
0.0
 11
-7.25
 21
-17.7396206184
 31
0.0
  0
LINE
  5
382
100
AcDbEntity
  8
RACCORDO
100
AcDbLine
 62
7
  6
CONTINUOUS
 10
-7.25
 20
-16.9001015358
 30
0.0
 11
-7.25
 21
-16.0898298779
 31
0.0
  0
LINE
  5
383
100
AcDbEntity
  8
RACCORDO
100
AcDbLine
 62
7
  6
CONTINUOUS
 10
-7.25
 20
29.1105971027
 30
0.0
 11
-7.25
 21
29.9208687606
 31
0.0
  0
LINE
  5
384
100
AcDbEntity
  8
RACCORDO
100
AcDbLine
 62
250
  6
CONTINUOUS
 10
-6.95
 20
1.5053786074
 30
0.0
 11
-6.95
 21
10.4142875163
 31
0.0
  0
LINE
  5
385
100
AcDbEntity
  8
0
100
AcDbLine
 62
250
  6
CONTINUOUS
 10
-7.5080037468
 20
-16.6122661184
 30
0.0
 11
-7.5130943479
 21
-17.117447604
 31
0.0
  0
LINE
  5
386
100
AcDbEntity
  8
0
100
AcDbLine
 62
250
  6
CONTINUOUS
 10
-7.2572807489
 20
-16.7566036857
 30
0.0
 11
-7.2630985787
 21
-17.3339539549
 31
0.0
  0
LINE
  5
387
100
AcDbEntity
  8
RACCORDO
100
AcDbLine
 62
250
  6
CONTINUOUS
 10
-10.3427158665
 20
-15.8245180233
 30
0.0
 11
-10.3499424883
 21
-15.8896163876
 31
0.0
  0
LINE
  5
388
100
AcDbEntity
  8
SMUSSO
100
AcDbLine
 62
7
  6
CONTINUOUS
 10
9.4511268816
 20
27.8226032212
 30
0.0
 11
9.45
 21
27.8214763396
 31
0.0
  0
LINE
  5
389
100
AcDbEntity
  8
RACCORDO
100
AcDbLine
 62
250
  6
CONTINUOUS
 10
3.0
 20
-1.4475743456
 30
0.0
 11
-3.0
 21
-1.4475743456
 31
0.0
  0
LINE
  5
38A
100
AcDbEntity
  8
RACCORDO
100
AcDbLine
 62
7
  6
CONTINUOUS
 10
2.5
 20
-0.9396163876
 30
0.0
 11
-2.5
 21
-0.9396163876
 31
0.0
  0
LINE
  5
38B
100
AcDbEntity
  8
RACCORDO
100
AcDbLine
 62
250
  6
CONTINUOUS
 10
-1.4
 20
-0.8417108409
 30
0.0
 11
1.4
 21
-0.8417108409
 31
0.0
  0
LINE
  5
38C
100
AcDbEntity
  8
RACCORDO
100
AcDbLine
 62
250
  6
CONTINUOUS
 10
-10.3499424883
 20
28.9103836124
 30
0.0
 11
-10.3427158665
 21
28.8452852481
 31
0.0
  0
LINE
  5
38D
100
AcDbEntity
  8
RACCORDO
100
AcDbLine
 62
7
  6
CONTINUOUS
 10
-6.45
 20
2.0103836124
 30
0.0
 11
-6.45
 21
9.9103836124
 31
0.0
  0
LINE
  5
38E
100
AcDbEntity
  8
0
100
AcDbLine
 62
7
  6
CONTINUOUS
 10
-6.0
 20
8.7103836124
 30
0.0
 11
-6.0
 21
2.0103836124
 31
0.0
  0
LINE
  5
38F
100
AcDbEntity
  8
RACCORDO
100
AcDbLine
 62
250
  6
CONTINUOUS
 10
4.15
 20
-0.0962229942
 30
0.0
 11
3.0
 21
-0.0962229942
 31
0.0
  0
LINE
  5
390
100
AcDbEntity
  8
RACCORDO
100
AcDbLine
 62
250
  6
CONTINUOUS
 10
-3.0
 20
-0.0962229942
 30
0.0
 11
-4.15
 21
-0.0962229942
 31
0.0
  0
LINE
  5
391
100
AcDbEntity
  8
0
100
AcDbLine
 62
7
  6
CONTINUOUS
 10
-2.5
 20
0.1103836124
 30
0.0
 11
-2.05
 21
0.1103836124
 31
0.0
  0
LINE
  5
392
100
AcDbEntity
  8
0
100
AcDbLine
 62
7
  6
CONTINUOUS
 10
2.05
 20
0.1103836124
 30
0.0
 11
2.5
 21
0.1103836124
 31
0.0
  0
LINE
  5
393
100
AcDbEntity
  8
RACCORDO
100
AcDbLine
 62
7
  6
CONTINUOUS
 10
3.65
 20
0.4103836124
 30
0.0
 11
2.5
 21
0.4103836124
 31
0.0
  0
LINE
  5
394
100
AcDbEntity
  8
RACCORDO
100
AcDbLine
 62
7
  6
CONTINUOUS
 10
-2.5
 20
0.4103836124
 30
0.0
 11
-3.65
 21
0.4103836124
 31
0.0
  0
LINE
  5
395
100
AcDbEntity
  8
0
100
AcDbLine
 62
7
  6
CONTINUOUS
 10
-4.45
 20
-17.4896163876
 30
0.0
 11
-4.45
 21
-15.8896163876
 31
0.0
  0
LINE
  5
396
100
AcDbEntity
  8
0
100
AcDbLine
 62
7
  6
CONTINUOUS
 10
-4.45
 20
28.9103836124
 30
0.0
 11
-4.45
 21
30.5103836124
 31
0.0
  0
LINE
  5
397
100
AcDbEntity
  8
0
100
AcDbLine
 62
7
  6
CONTINUOUS
 10
-4.4412732553
 20
30.5016568677
 30
0.0
 11
-4.4412732553
 21
28.8317719435
 31
0.0
  0
LINE
  5
398
100
AcDbEntity
  8
0
100
AcDbLine
 62
7
  6
CONTINUOUS
 10
-4.4412732553
 20
-15.8110047187
 30
0.0
 11
-4.4412732553
 21
-17.4808896429
 31
0.0
  0
LINE
  5
399
100
AcDbEntity
  8
RACCORDO
100
AcDbLine
 62
250
  6
CONTINUOUS
 10
-4.15
 20
-0.0962229942
 30
0.0
 11
-4.15
 21
1.5053786074
 31
0.0
  0
LINE
  5
39A
100
AcDbEntity
  8
RACCORDO
100
AcDbLine
 62
7
  6
CONTINUOUS
 10
-3.65
 20
0.4103432187
 30
0.0
 11
-3.65
 21
2.0103836124
 31
0.0
  0
LINE
  5
39B
100
AcDbEntity
  8
0
100
AcDbLine
 62
7
  6
CONTINUOUS
 10
-3.6
 20
8.7103836124
 30
0.0
 11
-3.6
 21
5.7603836124
 31
0.0
  0
LINE
  5
39C
100
AcDbEntity
  8
0
100
AcDbLine
 62
7
  6
CONTINUOUS
 10
-3.5
 20
-17.4808896429
 30
0.0
 11
-3.5
 21
-15.8110047187
 31
0.0
  0
LINE
  5
39D
100
AcDbEntity
  8
0
100
AcDbLine
 62
7
  6
CONTINUOUS
 10
-3.5
 20
28.8317719435
 30
0.0
 11
-3.5
 21
30.5016568677
 31
0.0
  0
LINE
  5
39E
100
AcDbEntity
  8
0
100
AcDbLine
 62
250
  6
CONTINUOUS
 10
-11.1491276455
 20
-15.3893887327
 30
0.0
 11
-11.0362666478
 21
-15.0505303966
 31
0.0
  0
LINE
  5
39F
100
AcDbEntity
  8
RACCORDO
100
AcDbLine
 62
250
  6
CONTINUOUS
 10
6.95
 20
1.5053786074
 30
0.0
 11
4.15
 21
1.5053786074
 31
0.0
  0
LINE
  5
3A0
100
AcDbEntity
  8
RACCORDO
100
AcDbLine
 62
250
  6
CONTINUOUS
 10
-4.15
 20
1.5053786074
 30
0.0
 11
-6.95
 21
1.5053786074
 31
0.0
  0
LINE
  5
3A1
100
AcDbEntity
  8
0
100
AcDbLine
 62
7
  6
CONTINUOUS
 10
3.65
 20
1.8103836124
 30
0.0
 11
-3.65
 21
1.8103836124
 31
0.0
  0
LINE
  5
3A2
100
AcDbEntity
  8
RACCORDO
100
AcDbLine
 62
7
  6
CONTINUOUS
 10
6.45
 20
2.0103836124
 30
0.0
 11
3.65
 21
2.0103836124
 31
0.0
  0
LINE
  5
3A3
100
AcDbEntity
  8
RACCORDO
100
AcDbLine
 62
7
  6
CONTINUOUS
 10
-3.65
 20
2.0103836124
 30
0.0
 11
-6.45
 21
2.0103836124
 31
0.0
  0
LINE
  5
3A4
100
AcDbEntity
  8
0
100
AcDbLine
 62
7
  6
CONTINUOUS
 10
-6.0
 20
2.9103836124
 30
0.0
 11
-3.15
 21
2.9103836124
 31
0.0
  0
LINE
  5
3A5
100
AcDbEntity
  8
0
100
AcDbLine
 62
7
  6
CONTINUOUS
 10
3.15
 20
2.9103836124
 30
0.0
 11
6.0
 21
2.9103836124
 31
0.0
  0
LINE
  5
3A6
100
AcDbEntity
  8
0
100
AcDbLine
 62
250
  6
CONTINUOUS
 10
-11.0362663701
 20
28.0712967876
 30
0.0
 11
-11.1491276455
 21
28.4101559575
 31
0.0
  0
LINE
  5
3A7
100
AcDbEntity
  8
0
100
AcDbLine
 62
7
  6
CONTINUOUS
 10
-3.15
 20
0.4103836124
 30
0.0
 11
-3.15
 21
3.9603836124
 31
0.0
  0
LINE
  5
3A8
100
AcDbEntity
  8
0
100
AcDbLine
 62
7
  6
CONTINUOUS
 10
-3.05
 20
8.7103836124
 30
0.0
 11
-3.05
 21
5.7603836124
 31
0.0
  0
LINE
  5
3A9
100
AcDbEntity
  8
RACCORDO
100
AcDbLine
 62
250
  6
CONTINUOUS
 10
-3.0
 20
-1.4475743456
 30
0.0
 11
-3.0
 21
-0.0962229942
 31
0.0
  0
LINE
  5
3AA
100
AcDbEntity
  8
DRAFT
100
AcDbLine
 62
7
  6
CONTINUOUS
 10
-3.0
 20
28.6725670991
 30
0.0
 11
-3.0
 21
28.7321971628
 31
0.0
  0
LINE
  5
3AB
100
AcDbEntity
  8
0
100
AcDbLine
 62
7
  6
CONTINUOUS
 10
-2.65
 20
8.7103836124
 30
0.0
 11
-2.65
 21
5.7603836124
 31
0.0
  0
LINE
  5
3AC
100
AcDbEntity
  8
RACCORDO
100
AcDbLine
 62
7
  6
CONTINUOUS
 10
-2.5
 20
-0.9396757844
 30
0.0
 11
-2.5
 21
0.4103432212
 31
0.0
  0
LINE
  5
3AD
100
AcDbEntity
  8
RACCORDO
100
AcDbLine
 62
7
  6
CONTINUOUS
 10
-2.2
 20
0.1103836124
 30
0.0
 11
-2.2
 21
1.8103836124
 31
0.0
  0
LINE
  5
3AE
100
AcDbEntity
  8
0
100
AcDbLine
 62
7
  6
CONTINUOUS
 10
-2.1
 20
8.7103836124
 30
0.0
 11
-2.1
 21
5.7603836124
 31
0.0
  0
LINE
  5
3AF
100
AcDbEntity
  8
0
100
AcDbLine
 62
7
  6
CONTINUOUS
 10
-2.05
 20
0.1103836124
 30
0.0
 11
-2.05
 21
-0.9396163876
 31
0.0
  0
LINE
  5
3B0
100
AcDbEntity
  8
0
100
AcDbLine
 62
7
  6
CONTINUOUS
 10
-1.7
 20
8.7103836124
 30
0.0
 11
-1.7
 21
5.7603836124
 31
0.0
  0
LINE
  5
3B1
100
AcDbEntity
  8
0
100
AcDbLine
 62
250
  6
CONTINUOUS
 10
-10.6495078465
 20
-15.8896163876
 30
0.0
 11
-10.5363425225
 21
-15.5498443303
 31
0.0
  0
LINE
  5
3B2
100
AcDbEntity
  8
0
100
AcDbLine
 62
7
  6
CONTINUOUS
 10
-3.15
 20
3.9603836124
 30
0.0
 11
3.15
 21
3.9603836124
 31
0.0
  0
LINE
  5
3B3
100
AcDbEntity
  8
0
100
AcDbLine
 62
250
  6
CONTINUOUS
 10
-10.5363425225
 20
28.570611555
 30
0.0
 11
-10.6495078465
 21
28.9103836124
 31
0.0
  0
LINE
  5
3B4
100
AcDbEntity
  8
RACCORDO
100
AcDbLine
 62
7
  6
CONTINUOUS
 10
-1.4
 20
-0.9396163876
 30
0.0
 11
-1.4
 21
1.8103836124
 31
0.0
  0
LINE
  5
3B5
100
AcDbEntity
  8
0
100
AcDbLine
 62
250
  6
CONTINUOUS
 10
-1.2
 20
-17.4878642694
 30
0.0
 11
-1.2
 21
-15.863412498
 31
0.0
  0
LINE
  5
3B6
100
AcDbEntity
  8
0
100
AcDbLine
 62
250
  6
CONTINUOUS
 10
-1.2
 20
28.8841797227
 30
0.0
 11
-1.2
 21
30.5086314941
 31
0.0
  0
LINE
  5
3B7
100
AcDbEntity
  8
0
100
AcDbLine
 62
7
  6
CONTINUOUS
 10
-1.15
 20
8.7103836124
 30
0.0
 11
-1.15
 21
5.7603836124
 31
0.0
  0
LINE
  5
3B8
100
AcDbEntity
  8
0
100
AcDbLine
 62
7
  6
CONTINUOUS
 10
-1.0
 20
-17.287867654
 30
0.0
 11
-1.0
 21
-15.8738940538
 31
0.0
  0
LINE
  5
3B9
100
AcDbEntity
  8
0
100
AcDbLine
 62
7
  6
CONTINUOUS
 10
-1.0
 20
28.8946612786
 30
0.0
 11
-1.0
 21
30.3086348788
 31
0.0
  0
LINE
  5
3BA
100
AcDbEntity
  8
0
100
AcDbLine
 62
7
  6
CONTINUOUS
 10
-0.75
 20
8.7103836124
 30
0.0
 11
-0.75
 21
5.7603836124
 31
0.0
  0
LINE
  5
3BB
100
AcDbEntity
  8
0
100
AcDbLine
 62
7
  6
CONTINUOUS
 10
-0.2
 20
8.7103836124
 30
0.0
 11
-0.2
 21
5.7603836124
 31
0.0
  0
LINE
  5
3BC
100
AcDbEntity
  8
0
100
AcDbLine
 62
7
  6
CONTINUOUS
 10
0.2
 20
8.7103836124
 30
0.0
 11
0.2
 21
5.7603836124
 31
0.0
  0
LWPOLYLINE
  5
3BD
100
AcDbEntity
  8
0
100
AcDbPolyline
 62
7
  6
CONTINUOUS
 90
2
 70
0
 43
0.3500000087
 10
18.5290916794
 20
5.1532410721
 10
17.0290923462
 20
5.1532410721
  0
LINE
  5
3BE
100
AcDbEntity
  8
0
100
AcDbLine
 62
7
  6
CONTINUOUS
 10
-3.6
 20
5.7603836124
 30
0.0
 11
-3.05
 21
5.7603836124
 31
0.0
  0
LINE
  5
3BF
100
AcDbEntity
  8
0
100
AcDbLine
 62
7
  6
CONTINUOUS
 10
-2.65
 20
5.7603836124
 30
0.0
 11
-2.1
 21
5.7603836124
 31
0.0
  0
LINE
  5
3C0
100
AcDbEntity
  8
0
100
AcDbLine
 62
7
  6
CONTINUOUS
 10
-1.7
 20
5.7603836124
 30
0.0
 11
-1.15
 21
5.7603836124
 31
0.0
  0
LINE
  5
3C1
100
AcDbEntity
  8
0
100
AcDbLine
 62
7
  6
CONTINUOUS
 10
-0.75
 20
5.7603836124
 30
0.0
 11
-0.2
 21
5.7603836124
 31
0.0
  0
LINE
  5
3C2
100
AcDbEntity
  8
0
100
AcDbLine
 62
7
  6
CONTINUOUS
 10
0.2
 20
5.7603836124
 30
0.0
 11
0.75
 21
5.7603836124
 31
0.0
  0
LINE
  5
3C3
100
AcDbEntity
  8
0
100
AcDbLine
 62
7
  6
CONTINUOUS
 10
1.15
 20
5.7603836124
 30
0.0
 11
1.7
 21
5.7603836124
 31
0.0
  0
LINE
  5
3C4
100
AcDbEntity
  8
0
100
AcDbLine
 62
7
  6
CONTINUOUS
 10
2.1
 20
5.7603836124
 30
0.0
 11
2.65
 21
5.7603836124
 31
0.0
  0
LINE
  5
3C5
100
AcDbEntity
  8
0
100
AcDbLine
 62
7
  6
CONTINUOUS
 10
3.05
 20
5.7603836124
 30
0.0
 11
3.6
 21
5.7603836124
 31
0.0
  0
LINE
  5
3C6
100
AcDbEntity
  8
0
100
AcDbLine
 62
7
  6
CONTINUOUS
 10
0.75
 20
8.7103836124
 30
0.0
 11
0.75
 21
5.7603836124
 31
0.0
  0
LINE
  5
3C7
100
AcDbEntity
  8
0
100
AcDbLine
 62
7
  6
CONTINUOUS
 10
1.0
 20
30.3086348788
 30
0.0
 11
1.0
 21
28.8946612786
 31
0.0
  0
LINE
  5
3C8
100
AcDbEntity
  8
0
100
AcDbLine
 62
7
  6
CONTINUOUS
 10
1.0
 20
-15.8738940538
 30
0.0
 11
1.0
 21
-17.287867654
 31
0.0
  0
LINE
  5
3C9
100
AcDbEntity
  8
0
100
AcDbLine
 62
7
  6
CONTINUOUS
 10
1.15
 20
8.7103836124
 30
0.0
 11
1.15
 21
5.7603836124
 31
0.0
  0
LINE
  5
3CA
100
AcDbEntity
  8
0
100
AcDbLine
 62
250
  6
CONTINUOUS
 10
1.2
 20
-15.863412498
 30
0.0
 11
1.2
 21
-17.4878642694
 31
0.0
  0
LINE
  5
3CB
100
AcDbEntity
  8
0
100
AcDbLine
 62
250
  6
CONTINUOUS
 10
1.2
 20
28.8841797227
 30
0.0
 11
1.2
 21
30.5086314941
 31
0.0
  0
LINE
  5
3CC
100
AcDbEntity
  8
RACCORDO
100
AcDbLine
 62
7
  6
CONTINUOUS
 10
1.4
 20
-0.9396163876
 30
0.0
 11
1.4
 21
1.8103836124
 31
0.0
  0
LINE
  5
3CD
100
AcDbEntity
  8
0
100
AcDbLine
 62
7
  6
CONTINUOUS
 10
1.7
 20
8.7103836124
 30
0.0
 11
1.7
 21
5.7603836124
 31
0.0
  0
LINE
  5
3CE
100
AcDbEntity
  8
0
100
AcDbLine
 62
7
  6
CONTINUOUS
 10
2.05
 20
-0.9396163876
 30
0.0
 11
2.05
 21
0.1103836124
 31
0.0
  0
LINE
  5
3CF
100
AcDbEntity
  8
0
100
AcDbLine
 62
7
  6
CONTINUOUS
 10
2.1
 20
8.7103836124
 30
0.0
 11
2.1
 21
5.7603836124
 31
0.0
  0
LINE
  5
3D0
100
AcDbEntity
  8
RACCORDO
100
AcDbLine
 62
7
  6
CONTINUOUS
 10
2.2
 20
0.1103836124
 30
0.0
 11
2.2
 21
1.8103836124
 31
0.0
  0
LINE
  5
3D1
100
AcDbEntity
  8
RACCORDO
100
AcDbLine
 62
7
  6
CONTINUOUS
 10
2.5
 20
0.4103432187
 30
0.0
 11
2.5
 21
-0.9396757988
 31
0.0
  0
LINE
  5
3D2
100
AcDbEntity
  8
0
100
AcDbLine
 62
7
  6
CONTINUOUS
 10
2.65
 20
8.7103836124
 30
0.0
 11
2.65
 21
5.7603836124
 31
0.0
  0
LINE
  5
3D3
100
AcDbEntity
  8
RACCORDO
100
AcDbLine
 62
250
  6
CONTINUOUS
 10
3.0
 20
-0.0962229942
 30
0.0
 11
3.0
 21
-1.4475743456
 31
0.0
  0
LINE
  5
3D4
100
AcDbEntity
  8
DRAFT
100
AcDbLine
 62
7
  6
CONTINUOUS
 10
3.0
 20
28.6725670991
 30
0.0
 11
3.0
 21
28.7321971628
 31
0.0
  0
LINE
  5
3D5
100
AcDbEntity
  8
0
100
AcDbLine
 62
7
  6
CONTINUOUS
 10
3.05
 20
8.7103836124
 30
0.0
 11
3.05
 21
5.7603836124
 31
0.0
  0
LINE
  5
3D6
100
AcDbEntity
  8
0
100
AcDbLine
 62
7
  6
CONTINUOUS
 10
3.15
 20
0.4103836124
 30
0.0
 11
3.15
 21
3.9603836124
 31
0.0
  0
LINE
  5
3D7
100
AcDbEntity
  8
0
100
AcDbLine
 62
7
  6
CONTINUOUS
 10
3.5
 20
30.5016568677
 30
0.0
 11
3.5
 21
28.8317719435
 31
0.0
  0
LINE
  5
3D8
100
AcDbEntity
  8
0
100
AcDbLine
 62
7
  6
CONTINUOUS
 10
3.5
 20
-15.8110047187
 30
0.0
 11
3.5
 21
-17.4808896429
 31
0.0
  0
LINE
  5
3D9
100
AcDbEntity
  8
0
100
AcDbLine
 62
7
  6
CONTINUOUS
 10
3.6
 20
8.7103836124
 30
0.0
 11
3.6
 21
5.7603836124
 31
0.0
  0
LINE
  5
3DA
100
AcDbEntity
  8
RACCORDO
100
AcDbLine
 62
7
  6
CONTINUOUS
 10
3.65
 20
2.0103836124
 30
0.0
 11
3.65
 21
0.4103432073
 31
0.0
  0
LINE
  5
3DB
100
AcDbEntity
  8
0
100
AcDbLine
 62
250
  6
CONTINUOUS
 10
10.6495078465
 20
28.9103836124
 30
0.0
 11
10.5363425225
 21
28.570611555
 31
0.0
  0
LINE
  5
3DC
100
AcDbEntity
  8
0
100
AcDbLine
 62
250
  6
CONTINUOUS
 10
11.1491276455
 20
28.4101559575
 30
0.0
 11
11.0362663701
 21
28.0712967876
 31
0.0
  0
LINE
  5
3DD
100
AcDbEntity
  8
0
100
AcDbLine
 62
7
  6
CONTINUOUS
 10
6.0
 20
8.7103836124
 30
0.0
 11
-6.0
 21
8.7103836124
 31
0.0
  0
LINE
  5
3DE
100
AcDbEntity
  8
RACCORDO
100
AcDbLine
 62
7
  6
CONTINUOUS
 10
-6.45
 20
9.9103836124
 30
0.0
 11
6.45
 21
9.9103836124
 31
0.0
  0
LINE
  5
3DF
100
AcDbEntity
  8
0
100
AcDbLine
 62
250
  6
CONTINUOUS
 10
10.5363425225
 20
-15.5498443303
 30
0.0
 11
10.6495078465
 21
-15.8896163876
 31
0.0
  0
LINE
  5
3E0
100
AcDbEntity
  8
0
100
AcDbLine
 62
250
  6
CONTINUOUS
 10
11.036264704
 20
-15.0505245606
 30
0.0
 11
11.1491276455
 21
-15.3893887327
 31
0.0
  0
LINE
  5
3E1
100
AcDbEntity
  8
RACCORDO
100
AcDbLine
 62
250
  6
CONTINUOUS
 10
4.15
 20
1.5053786074
 30
0.0
 11
4.15
 21
-0.0962229942
 31
0.0
  0
LINE
  5
3E2
100
AcDbEntity
  8
0
100
AcDbLine
 62
7
  6
CONTINUOUS
 10
4.4412732553
 20
-17.4808896429
 30
0.0
 11
4.4412732553
 21
-15.8110047187
 31
0.0
  0
LINE
  5
3E3
100
AcDbEntity
  8
0
100
AcDbLine
 62
7
  6
CONTINUOUS
 10
4.4412732553
 20
28.8317719435
 30
0.0
 11
4.4412732553
 21
30.5016568677
 31
0.0
  0
LINE
  5
3E4
100
AcDbEntity
  8
0
100
AcDbLine
 62
7
  6
CONTINUOUS
 10
4.45
 20
-15.8896163876
 30
0.0
 11
4.45
 21
-17.4896163876
 31
0.0
  0
LINE
  5
3E5
100
AcDbEntity
  8
0
100
AcDbLine
 62
7
  6
CONTINUOUS
 10
4.45
 20
28.9103836124
 30
0.0
 11
4.45
 21
30.5103836124
 31
0.0
  0
LINE
  5
3E6
100
AcDbEntity
  8
RACCORDO
100
AcDbLine
 62
250
  6
CONTINUOUS
 10
-6.95
 20
10.4142875163
 30
0.0
 11
6.95
 21
10.4142875163
 31
0.0
  0
LINE
  5
3E7
100
AcDbEntity
  8
0
100
AcDbLine
 62
250
  6
CONTINUOUS
 10
7.2630985787
 20
-17.3339539549
 30
0.0
 11
7.2572807489
 21
-16.7566036857
 31
0.0
  0
LINE
  5
3E8
100
AcDbEntity
  8
0
100
AcDbLine
 62
250
  6
CONTINUOUS
 10
7.5130943479
 20
-17.117447604
 30
0.0
 11
7.5080037468
 21
-16.6122661184
 31
0.0
  0
LINE
  5
3E9
100
AcDbEntity
  8
0
100
AcDbLine
 62
7
  6
CONTINUOUS
 10
6.0
 20
2.0103836124
 30
0.0
 11
6.0
 21
8.7103836124
 31
0.0
  0
LINE
  5
3EA
100
AcDbEntity
  8
RACCORDO
100
AcDbLine
 62
7
  6
CONTINUOUS
 10
6.45
 20
9.9103836124
 30
0.0
 11
6.45
 21
2.0103836124
 31
0.0
  0
LINE
  5
3EB
100
AcDbEntity
  8
RACCORDO
100
AcDbLine
 62
250
  6
CONTINUOUS
 10
6.95
 20
10.4142875163
 30
0.0
 11
6.95
 21
1.5053786074
 31
0.0
  0
LINE
  5
3EC
100
AcDbEntity
  8
RACCORDO
100
AcDbLine
 62
7
  6
CONTINUOUS
 10
7.25
 20
29.9208687606
 30
0.0
 11
7.25
 21
29.1105971027
 31
0.0
  0
LINE
  5
3ED
100
AcDbEntity
  8
RACCORDO
100
AcDbLine
 62
7
  6
CONTINUOUS
 10
7.25
 20
-16.0898298779
 30
0.0
 11
7.25
 21
-16.9001015358
 31
0.0
  0
LINE
  5
3EE
100
AcDbEntity
  8
0
100
AcDbLine
 62
7
  6
CONTINUOUS
 10
7.25
 20
-17.7396206184
 30
0.0
 11
7.25
 21
-16.9001015358
 31
0.0
  0
LINE
  5
3EF
100
AcDbEntity
  8
0
100
AcDbLine
 62
7
  6
CONTINUOUS
 10
7.25
 20
29.9208687606
 30
0.0
 11
7.25
 21
30.7603878432
 31
0.0
  0
LINE
  5
3F0
100
AcDbEntity
  8
RACCORDO
100
AcDbLine
 62
7
  6
CONTINUOUS
 10
7.2572807489
 20
29.7773709105
 30
0.0
 11
7.2572807489
 21
29.045011155
 31
0.0
  0
LINE
  5
3F1
100
AcDbEntity
  8
RACCORDO
100
AcDbLine
 62
7
  6
CONTINUOUS
 10
7.2572807489
 20
-16.0242439302
 30
0.0
 11
7.2572807489
 21
-16.7566036857
 31
0.0
  0
LINE
  5
3F2
100
AcDbEntity
  8
0
100
AcDbLine
 62
7
  6
CONTINUOUS
 10
7.2630985787
 20
30.7472892645
 30
0.0
 11
7.2630985787
 21
30.3547211797
 31
0.0
  0
LINE
  5
3F3
100
AcDbEntity
  8
0
100
AcDbLine
 62
7
  6
CONTINUOUS
 10
7.2630985787
 20
-17.3339539549
 30
0.0
 11
7.2630985787
 21
-17.7265220397
 31
0.0
  0
LINE
  5
3F4
100
AcDbEntity
  8
0
100
AcDbLine
 62
250
  6
CONTINUOUS
 10
7.2572807489
 20
29.7773709105
 30
0.0
 11
7.2630985787
 21
30.3547211797
 31
0.0
  0
LINE
  5
3F5
100
AcDbEntity
  8
0
100
AcDbLine
 62
250
  6
CONTINUOUS
 10
7.5080037468
 20
29.6330333432
 30
0.0
 11
7.5130943479
 21
30.1382148287
 31
0.0
  0
LINE
  5
3F6
100
AcDbEntity
  8
RACCORDO
100
AcDbLine
 62
250
  6
CONTINUOUS
 10
7.5072765181
 20
-15.8010717251
 30
0.0
 11
7.5072765181
 21
-16.6122661184
 31
0.0
  0
LINE
  5
3F7
100
AcDbEntity
  8
RACCORDO
100
AcDbLine
 62
250
  6
CONTINUOUS
 10
7.5072765181
 20
28.8218389498
 30
0.0
 11
7.5072765181
 21
29.6330333432
 31
0.0
  0
LINE
  5
3F8
100
AcDbEntity
  8
0
100
AcDbLine
 62
250
  6
CONTINUOUS
 10
7.5130943479
 20
-17.9765178089
 30
0.0
 11
7.5130943479
 21
-17.117447604
 31
0.0
  0
LINE
  5
3F9
100
AcDbEntity
  8
0
100
AcDbLine
 62
250
  6
CONTINUOUS
 10
7.5130943479
 20
30.1382148287
 30
0.0
 11
7.5130943479
 21
30.9972850337
 31
0.0
  0
LINE
  5
3FA
100
AcDbEntity
  8
RACCORDO
100
AcDbLine
 62
250
  6
CONTINUOUS
 10
8.9350015187
 20
22.015900774
 30
0.0
 11
8.9350015187
 21
22.1245927337
 31
0.0
  0
LINE
  5
3FB
100
AcDbEntity
  8
RACCORDO
100
AcDbLine
 62
250
  6
CONTINUOUS
 10
9.0176975542
 20
21.8182494918
 30
0.0
 11
9.0176975542
 21
22.0015355077
 31
0.0
  0
LINE
  5
3FC
100
AcDbEntity
  8
RACCORDO
100
AcDbLine
 62
250
  6
CONTINUOUS
 10
9.15
 20
22.0335989172
 30
0.0
 11
9.15
 21
22.0503270023
 31
0.0
  0
LINE
  5
3FD
100
AcDbEntity
  8
SMUSSO
100
AcDbLine
 62
7
  6
CONTINUOUS
 10
9.4581078442
 20
28.2295841838
 30
0.0
 11
9.4511268816
 21
27.8226032212
 31
0.0
  0
LINE
  5
3FE
100
AcDbEntity
  8
RACCORDO
100
AcDbLine
 62
250
  6
CONTINUOUS
 10
10.3427158665
 20
28.8452852481
 30
0.0
 11
10.3499424883
 21
28.9103836124
 31
0.0
  0
LINE
  5
3FF
100
AcDbEntity
  8
SMUSSO
100
AcDbLine
 62
7
  6
CONTINUOUS
 10
-9.4511268816
 20
27.8226032212
 30
0.0
 11
-9.45
 21
27.8214763396
 31
0.0
  0
LINE
  5
400
100
AcDbEntity
  8
RACCORDO
100
AcDbLine
 62
250
  6
CONTINUOUS
 10
10.3499424883
 20
-15.8896163876
 30
0.0
 11
10.3427158665
 21
-15.8245180233
 31
0.0
  0
LINE
  5
401
100
AcDbEntity
  8
DRAFT
100
AcDbLine
 62
7
  6
CONTINUOUS
 10
9.5
 20
22.7103836124
 30
0.0
 11
9.482508826
 21
22.9233798871
 31
0.0
  0
LWPOLYLINE
  5
402
100
AcDbEntity
  8
RACCORDO
100
AcDbPolyline
 62
7
  6
CONTINUOUS
 90
15
 70
0
 10
9.4420413906
 20
28.4401743759
 10
9.4417121463
 20
28.4454578938
 10
9.441379795
 20
28.4503899814
 10
9.4410432209
 20
28.454990022
 10
9.4406984884
 20
28.4593083363
 10
9.4403452702
 20
28.4633420457
 10
9.4399788894
 20
28.4671349724
 10
9.4395834078
 20
28.4708186767
 10
9.4391605612
 20
28.4743346294
 10
9.4386917472
 20
28.4777893702
 10
9.4381046769
 20
28.4815706053
 10
9.4373722297
 20
28.485622236
 10
9.4364320532
 20
28.4900319129
 10
9.4350531715
 20
28.495411857
 10
9.4334076915
 20
28.5007360676
  0
LINE
  5
403
100
AcDbEntity
  8
RACCORDO
100
AcDbLine
 62
7
  6
CONTINUOUS
 10
9.4426933993
 20
28.4284865785
 30
0.0
 11
9.4420413906
 21
28.4401743759
 31
0.0
  0
LINE
  5
404
100
AcDbEntity
  8
RACCORDO
100
AcDbLine
 62
7
  6
CONTINUOUS
 10
9.4433416369
 20
28.415164798
 30
0.0
 11
9.4426933993
 21
28.4284865785
 31
0.0
  0
LINE
  5
405
100
AcDbEntity
  8
RACCORDO
100
AcDbLine
 62
7
  6
CONTINUOUS
 10
9.4439878053
 20
28.4000903714
 30
0.0
 11
9.4433416369
 21
28.415164798
 31
0.0
  0
LINE
  5
406
100
AcDbEntity
  8
RACCORDO
100
AcDbLine
 62
7
  6
CONTINUOUS
 10
9.44495266
 20
28.3739813897
 30
0.0
 11
9.4439878053
 21
28.4000903714
 31
0.0
  0
LINE
  5
407
100
AcDbEntity
  8
RACCORDO
100
AcDbLine
 62
7
  6
CONTINUOUS
 10
9.4459077581
 20
28.343470388
 30
0.0
 11
9.44495266
 21
28.3739813897
 31
0.0
  0
LINE
  5
408
100
AcDbEntity
  8
RACCORDO
100
AcDbLine
 62
7
  6
CONTINUOUS
 10
9.4471530275
 20
28.2956958451
 30
0.0
 11
9.4459077581
 21
28.343470388
 31
0.0
  0
LINE
  5
409
100
AcDbEntity
  8
RACCORDO
100
AcDbLine
 62
7
  6
CONTINUOUS
 10
9.448633597
 20
28.224488158
 30
0.0
 11
9.4471530275
 21
28.2956958451
 31
0.0
  0
LINE
  5
40A
100
AcDbEntity
  8
0
100
AcDbLine
 62
7
  6
CONTINUOUS
 10
11.1504363434
 20
-15.0896163876
 30
0.0
 11
11.15
 21
-15.0607488742
 31
0.0
  0
LINE
  5
40B
100
AcDbEntity
  8
RACCORDO
100
AcDbLine
 62
7
  6
CONTINUOUS
 10
9.4499867987
 20
28.1409799011
 30
0.0
 11
9.448633597
 21
28.224488158
 31
0.0
  0
LINE
  5
40C
100
AcDbEntity
  8
0
100
AcDbLine
 62
250
  6
CONTINUOUS
 10
9.8869056521
 20
30.1382148287
 30
0.0
 11
9.8919962532
 21
29.6330333432
 31
0.0
  0
LINE
  5
40D
100
AcDbEntity
  8
0
100
AcDbLine
 62
250
  6
CONTINUOUS
 10
10.1369014213
 20
30.3547211797
 30
0.0
 11
10.1427192511
 21
29.7773709105
 31
0.0
  0
LINE
  5
40E
100
AcDbEntity
  8
RACCORDO
100
AcDbLine
 62
7
  6
CONTINUOUS
 10
9.482508826
 20
22.9233798871
 30
0.0
 11
9.4747489329
 21
26.5440629387
 31
0.0
  0
LINE
  5
40F
100
AcDbEntity
  8
RACCORDO
100
AcDbLine
 62
7
  6
CONTINUOUS
 10
9.45
 20
22.3524832149
 30
0.0
 11
9.45
 21
28.1429766054
 31
0.0
  0
LINE
  5
410
100
AcDbEntity
  8
SMUSSO
100
AcDbLine
 62
7
  6
CONTINUOUS
 10
9.4581078442
 20
28.2295841838
 30
0.0
 11
9.4581078442
 21
28.4744570648
 31
0.0
  0
LINE
  5
411
100
AcDbEntity
  8
RACCORDO
100
AcDbLine
 62
7
  6
CONTINUOUS
 10
9.5
 20
22.5103264992
 30
0.0
 11
9.5
 21
22.7103836124
 31
0.0
  0
LINE
  5
412
100
AcDbEntity
  8
0
100
AcDbLine
 62
250
  6
CONTINUOUS
 10
9.8869056521
 20
-17.9765178089
 30
0.0
 11
9.8869056521
 21
-17.117447604
 31
0.0
  0
LINE
  5
413
100
AcDbEntity
  8
0
100
AcDbLine
 62
250
  6
CONTINUOUS
 10
9.8869056521
 20
30.1382148287
 30
0.0
 11
9.8869056521
 21
30.9972850337
 31
0.0
  0
LINE
  5
414
100
AcDbEntity
  8
RACCORDO
100
AcDbLine
 62
250
  6
CONTINUOUS
 10
9.8927234819
 20
-16.6122661184
 30
0.0
 11
9.8927234819
 21
-15.8010717251
 31
0.0
  0
LINE
  5
415
100
AcDbEntity
  8
RACCORDO
100
AcDbLine
 62
250
  6
CONTINUOUS
 10
9.8927234819
 20
28.8218389498
 30
0.0
 11
9.8927234819
 21
29.6330333432
 31
0.0
  0
LINE
  5
416
100
AcDbEntity
  8
0
100
AcDbLine
 62
7
  6
CONTINUOUS
 10
10.1369014213
 20
-17.7265220397
 30
0.0
 11
10.1369014213
 21
-17.3339539549
 31
0.0
  0
LINE
  5
417
100
AcDbEntity
  8
0
100
AcDbLine
 62
7
  6
CONTINUOUS
 10
10.1369014213
 20
30.3547211797
 30
0.0
 11
10.1369014213
 21
30.7472892645
 31
0.0
  0
LINE
  5
418
100
AcDbEntity
  8
RACCORDO
100
AcDbLine
 62
7
  6
CONTINUOUS
 10
10.1427192511
 20
-16.7566036857
 30
0.0
 11
10.1427192511
 21
-16.0242439302
 31
0.0
  0
LINE
  5
419
100
AcDbEntity
  8
RACCORDO
100
AcDbLine
 62
7
  6
CONTINUOUS
 10
10.1427192511
 20
29.045011155
 30
0.0
 11
10.1427192511
 21
29.7773709105
 31
0.0
  0
LINE
  5
41A
100
AcDbEntity
  8
0
100
AcDbLine
 62
7
  6
CONTINUOUS
 10
10.15
 20
30.7603878432
 30
0.0
 11
10.15
 21
29.9208687606
 31
0.0
  0
LINE
  5
41B
100
AcDbEntity
  8
0
100
AcDbLine
 62
7
  6
CONTINUOUS
 10
10.15
 20
-16.9001015358
 30
0.0
 11
10.15
 21
-17.7396206184
 31
0.0
  0
LINE
  5
41C
100
AcDbEntity
  8
RACCORDO
100
AcDbLine
 62
7
  6
CONTINUOUS
 10
10.15
 20
-16.9001015358
 30
0.0
 11
10.15
 21
-16.0898298779
 31
0.0
  0
LINE
  5
41D
100
AcDbEntity
  8
RACCORDO
100
AcDbLine
 62
7
  6
CONTINUOUS
 10
10.15
 20
29.1105971027
 30
0.0
 11
10.15
 21
29.9208687606
 31
0.0
  0
LINE
  5
41E
100
AcDbEntity
  8
0
100
AcDbLine
 62
250
  6
CONTINUOUS
 10
10.5109844497
 20
16.0103836124
 30
0.0
 11
10.5109844497
 21
-2.9896163876
 31
0.0
  0
LINE
  5
41F
100
AcDbEntity
  8
0
100
AcDbLine
 62
250
  6
CONTINUOUS
 10
9.8919962532
 20
-16.6122661184
 30
0.0
 11
9.8869056521
 21
-17.117447604
 31
0.0
  0
LINE
  5
420
100
AcDbEntity
  8
0
100
AcDbLine
 62
250
  6
CONTINUOUS
 10
10.1427192511
 20
-16.7566036857
 30
0.0
 11
10.1369014213
 21
-17.3339539549
 31
0.0
  0
LINE
  5
421
100
AcDbEntity
  8
0
100
AcDbLine
 62
7
  6
CONTINUOUS
 10
11.15
 20
28.0815160989
 30
0.0
 11
11.1504363434
 21
28.1103836124
 31
0.0
  0
LINE
  5
422
100
AcDbEntity
  8
RACCORDO
100
AcDbLine
 62
250
  6
CONTINUOUS
 10
7.0572841335
 20
-15.8245180233
 30
0.0
 11
7.0500575117
 21
-15.8896163876
 31
0.0
  0
LINE
  5
423
100
AcDbEntity
  8
0
100
AcDbLine
 62
250
  6
CONTINUOUS
 10
-10.1369014213
 20
-17.7265220397
 30
0.0
 11
-10.15
 21
-17.7396206184
 31
0.0
  0
LINE
  5
424
100
AcDbEntity
  8
0
100
AcDbLine
 62
250
  6
CONTINUOUS
 10
-9.8869056521
 20
-17.9765178089
 30
0.0
 11
-9.8996205848
 21
-17.9892327416
 31
0.0
  0
LINE
  5
425
100
AcDbEntity
  8
0
100
AcDbLine
 62
250
  6
CONTINUOUS
 10
10.5109844497
 20
16.0103836124
 30
0.0
 11
-10.5109844497
 21
16.0103836124
 31
0.0
  0
LINE
  5
426
100
AcDbEntity
  8
0
100
AcDbLine
 62
250
  6
CONTINUOUS
 10
-10.1369014213
 20
30.7472892645
 30
0.0
 11
-10.15
 21
30.7603878432
 31
0.0
  0
LINE
  5
427
100
AcDbEntity
  8
0
100
AcDbLine
 62
250
  6
CONTINUOUS
 10
-9.8869056521
 20
30.9972850337
 30
0.0
 11
-9.8996205848
 21
31.0099999664
 31
0.0
  0
LINE
  5
428
100
AcDbEntity
  8
DRAFT
100
AcDbLine
 62
7
  6
CONTINUOUS
 10
3.0
 20
28.7321971628
 30
0.0
 11
3.0192005714
 21
28.6745486056
 31
0.0
  0
LINE
  5
429
100
AcDbEntity
  8
RACCORDO
100
AcDbLine
 62
250
  6
CONTINUOUS
 10
7.0500575117
 20
28.9103836124
 30
0.0
 11
7.0572841335
 21
28.8452852481
 31
0.0
  0
LINE
  5
42A
100
AcDbEntity
  8
0
100
AcDbLine
 62
7
  6
CONTINUOUS
 10
11.1665823117
 20
27.5330333432
 30
0.0
 11
11.15
 21
28.0815160989
 31
0.0
  0
LINE
  5
42B
100
AcDbEntity
  8
0
100
AcDbLine
 62
7
  6
CONTINUOUS
 10
11.1504363434
 20
28.4104005354
 30
0.0
 11
11.1504363434
 21
28.1103836124
 31
0.0
  0
LINE
  5
42C
100
AcDbEntity
  8
0
100
AcDbLine
 62
7
  6
CONTINUOUS
 10
11.1504363434
 20
-15.3896333107
 30
0.0
 11
11.1504363434
 21
-15.0896163876
 31
0.0
  0
LINE
  5
42D
100
AcDbEntity
  8
0
100
AcDbLine
 62
7
  6
CONTINUOUS
 10
11.1665823117
 20
-14.5122661184
 30
0.0
 11
11.1665823117
 21
27.5330333432
 31
0.0
  0
LINE
  5
42E
100
AcDbEntity
  8
0
100
AcDbLine
 62
7
  6
CONTINUOUS
 10
11.1665823117
 20
-14.5122661184
 30
0.0
 11
11.15
 21
-15.0607488742
 31
0.0
  0
LINE
  5
42F
100
AcDbEntity
  8
0
100
AcDbLine
 62
7
  6
CONTINUOUS
 10
-4.45
 20
-17.4896163876
 30
0.0
 11
-4.4412732553
 21
-17.4808896429
 31
0.0
  0
LWPOLYLINE
  5
430
100
AcDbEntity
  8
0
100
AcDbPolyline
 62
7
  6
CONTINUOUS
 90
10
 70
0
 43
0.3500000087
 10
18.5290916794
 20
6.938954361
 10
17.6719498123
 20
7.7960983597
 10
16.8148068794
 20
8.0103827606
 10
15.9576639465
 20
8.0103827606
 10
15.5290919472
 20
7.5818118271
 10
15.5290919472
 20
6.938954361
 10
15.9576639465
 20
6.5103834274
 10
16.8148068794
 20
6.5103834274
 10
17.243377813
 20
6.938954361
 10
17.243377813
 20
7.8675257828
  0
LINE
  5
431
100
AcDbEntity
  8
0
100
AcDbLine
 62
7
  6
CONTINUOUS
 10
-4.45
 20
30.5103836124
 30
0.0
 11
-4.4412732553
 21
30.5016568677
 31
0.0
  0
LINE
  5
432
100
AcDbEntity
  8
RACCORDO
100
AcDbLine
 62
250
  6
CONTINUOUS
 10
9.0176975542
 20
21.8182494918
 30
0.0
 11
-9.0176975542
 21
21.8182494918
 31
0.0
  0
LINE
  5
433
100
AcDbEntity
  8
RACCORDO
100
AcDbLine
 62
7
  6
CONTINUOUS
 10
9.0176975542
 20
22.0015355077
 30
0.0
 11
-9.0176975542
 21
22.0015355077
 31
0.0
  0
LINE
  5
434
100
AcDbEntity
  8
RACCORDO
100
AcDbLine
 62
7
  6
CONTINUOUS
 10
-8.9499999971
 20
22.0084021059
 30
0.0
 11
-3.35
 21
22.0084021059
 31
0.0
  0
LINE
  5
435
100
AcDbEntity
  8
RACCORDO
100
AcDbLine
 62
7
  6
CONTINUOUS
 10
3.35
 20
22.0084021059
 30
0.0
 11
8.9499999971
 21
22.0084021059
 31
0.0
  0
LINE
  5
436
100
AcDbEntity
  8
DRAFT
100
AcDbLine
 62
7
  6
CONTINUOUS
 10
-3.5496310858
 20
22.0084765463
 30
0.0
 11
3.5496310858
 21
22.0084765463
 31
0.0
  0
LINE
  5
437
100
AcDbEntity
  8
RACCORDO
100
AcDbLine
 62
7
  6
CONTINUOUS
 10
8.9350015187
 20
22.015900774
 30
0.0
 11
-8.9350015187
 21
22.015900774
 31
0.0
  0
LINE
  5
438
100
AcDbEntity
  8
RACCORDO
100
AcDbLine
 62
7
  6
CONTINUOUS
 10
9.0841620403
 20
22.0181585664
 30
0.0
 11
9.0465875841
 21
22.0181585664
 31
0.0
  0
LINE
  5
439
100
AcDbEntity
  8
RACCORDO
100
AcDbLine
 62
7
  6
CONTINUOUS
 10
-9.0465875841
 20
22.0181585664
 30
0.0
 11
-9.0841620403
 21
22.0181585664
 31
0.0
  0
LINE
  5
43A
100
AcDbEntity
  8
RACCORDO
100
AcDbLine
 62
250
  6
CONTINUOUS
 10
8.9350015187
 20
22.1245927337
 30
0.0
 11
-8.9350015187
 21
22.1245927337
 31
0.0
  0
LWPOLYLINE
  5
43B
100
AcDbEntity
  8
0
100
AcDbPolyline
 62
7
  6
CONTINUOUS
 90
10
 70
0
 43
0.3500000087
 10
-0.0
 20
40.2964050812
 10
0.0714285722
 20
40.153550235
 10
0.0714285722
 20
40.0821185486
 10
-0.0714285722
 20
39.9392637024
 10
-0.1428571444
 20
39.9392637024
 10
-0.2142857166
 20
40.0106911255
 10
-0.2142857166
 20
40.0821185486
 10
-0.1428571444
 20
40.2249776581
 10
-0.0714285722
 20
40.2964050812
 10
-0.0
 20
40.2964050812
  0
LINE
  5
43C
100
AcDbEntity
  8
RACCORDO
100
AcDbLine
 62
250
  6
CONTINUOUS
 10
9.3040379438
 20
28.6725670991
 30
0.0
 11
9.3386554756
 21
28.5686300485
 31
0.0
  0
LINE
  5
43D
100
AcDbEntity
  8
RACCORDO
100
AcDbLine
 62
7
  6
CONTINUOUS
 10
9.3990053328
 20
28.6040295124
 30
0.0
 11
9.4335315119
 21
28.500366743
 31
0.0
  0
LINE
  5
43E
100
AcDbEntity
  8
RACCORDO
100
AcDbLine
 62
250
  6
CONTINUOUS
 10
9.4581078442
 20
28.4744570648
 30
0.0
 11
9.4926035971
 21
28.3708856481
 31
0.0
  0
LINE
  5
43F
100
AcDbEntity
  8
RACCORDO
100
AcDbLine
 62
250
  6
CONTINUOUS
 10
9.6579556043
 20
28.6745486056
 30
0.0
 11
9.6925731361
 21
28.570611555
 31
0.0
  0
LWPOLYLINE
  5
440
100
AcDbEntity
  8
0
100
AcDbPolyline
 62
7
  6
CONTINUOUS
 90
3
 70
0
 43
0.3500000087
 10
17.8862342133
 20
5.6532415604
 10
17.8862342133
 20
4.1532400955
 10
15.5290919472
 20
4.7960975616
  0
LINE
  5
441
100
AcDbEntity
  8
DRAFT
100
AcDbLine
 62
7
  6
CONTINUOUS
 10
9.482508826
 20
22.9233798871
 30
0.0
 11
9.45
 21
22.9233798871
 31
0.0
  0
LINE
  5
442
100
AcDbEntity
  8
DRAFT
100
AcDbLine
 62
7
  6
CONTINUOUS
 10
-9.4820686967
 20
23.1287394987
 30
0.0
 11
-9.45
 21
23.1287394987
 31
0.0
  0
LINE
  5
443
100
AcDbEntity
  8
RACCORDO
100
AcDbLine
 62
250
  6
CONTINUOUS
 10
8.9350015187
 20
22.015900774
 30
0.0
 11
8.9499999971
 21
22.0084021059
 31
0.0
  0
LINE
  5
444
100
AcDbEntity
  8
RACCORDO
100
AcDbLine
 62
250
  6
CONTINUOUS
 10
9.4356108832
 20
22.5155390031
 30
0.0
 11
9.45
 21
22.5083449927
 31
0.0
  0
LINE
  5
445
100
AcDbEntity
  8
RACCORDO
100
AcDbLine
 62
250
  6
CONTINUOUS
 10
9.5166549137
 20
22.5019996765
 30
0.0
 11
9.5
 21
22.5103264992
 31
0.0
  0
LINE
  5
446
100
AcDbEntity
  8
RACCORDO
100
AcDbLine
 62
250
  6
CONTINUOUS
 10
-9.4747489329
 20
26.5440629387
 30
0.0
 11
-9.45
 21
26.5440629387
 31
0.0
  0
LINE
  5
447
100
AcDbEntity
  8
RACCORDO
100
AcDbLine
 62
250
  6
CONTINUOUS
 10
9.45
 20
26.5440629387
 30
0.0
 11
9.4747489329
 21
26.5440629387
 31
0.0
  0
LINE
  5
448
100
AcDbEntity
  8
RACCORDO
100
AcDbLine
 62
250
  6
CONTINUOUS
 10
-9.4662387706
 20
26.9830521146
 30
0.0
 11
-9.45
 21
26.9830521146
 31
0.0
  0
LINE
  5
449
100
AcDbEntity
  8
RACCORDO
100
AcDbLine
 62
250
  6
CONTINUOUS
 10
9.45
 20
26.9830521146
 30
0.0
 11
9.4662387706
 21
26.9830521146
 31
0.0
  0
LINE
  5
44A
100
AcDbEntity
  8
RACCORDO
100
AcDbLine
 62
250
  6
CONTINUOUS
 10
-9.3466023198
 20
27.719119597
 30
0.0
 11
9.3466023198
 21
27.719119597
 31
0.0
  0
LINE
  5
44B
100
AcDbEntity
  8
RACCORDO
100
AcDbLine
 62
250
  6
CONTINUOUS
 10
-10.5281693342
 20
27.7211011035
 30
0.0
 11
-9.7056502374
 21
27.7211011035
 31
0.0
  0
LINE
  5
44C
100
AcDbEntity
  8
RACCORDO
100
AcDbLine
 62
250
  6
CONTINUOUS
 10
9.7056502374
 20
27.7211011035
 30
0.0
 11
10.5281693342
 21
27.7211011035
 31
0.0
  0
LINE
  5
44D
100
AcDbEntity
  8
SMUSSO
100
AcDbLine
 62
7
  6
CONTINUOUS
 10
-9.4581078442
 20
28.2295841838
 30
0.0
 11
-9.4485384793
 21
28.2295841838
 31
0.0
  0
LINE
  5
44E
100
AcDbEntity
  8
SMUSSO
100
AcDbLine
 62
7
  6
CONTINUOUS
 10
9.4485375611
 20
28.2295841838
 30
0.0
 11
9.4581078442
 21
28.2295841838
 31
0.0
  0
LINE
  5
44F
100
AcDbEntity
  8
RACCORDO
100
AcDbLine
 62
7
  6
CONTINUOUS
 10
9.4662387706
 20
26.9830521146
 30
0.0
 11
9.45
 21
26.9992908851
 31
0.0
  0
LINE
  5
450
100
AcDbEntity
  8
0
100
AcDbLine
 62
250
  6
CONTINUOUS
 10
7.2630985787
 20
-17.7265220397
 30
0.0
 11
7.25
 21
-17.7396206184
 31
0.0
  0
LINE
  5
451
100
AcDbEntity
  8
0
100
AcDbLine
 62
250
  6
CONTINUOUS
 10
7.5130943479
 20
-17.9765178089
 30
0.0
 11
7.4999957692
 21
-17.9896163876
 31
0.0
  0
LINE
  5
452
100
AcDbEntity
  8
RACCORDO
100
AcDbLine
 62
250
  6
CONTINUOUS
 10
-9.3386554756
 20
28.5686300485
 30
0.0
 11
9.3386554756
 21
28.5686300485
 31
0.0
  0
LINE
  5
453
100
AcDbEntity
  8
RACCORDO
100
AcDbLine
 62
250
  6
CONTINUOUS
 10
-10.5363425225
 20
28.570611555
 30
0.0
 11
-9.6925731361
 21
28.570611555
 31
0.0
  0
LINE
  5
454
100
AcDbEntity
  8
RACCORDO
100
AcDbLine
 62
250
  6
CONTINUOUS
 10
9.6925731361
 20
28.570611555
 30
0.0
 11
10.5363425225
 21
28.570611555
 31
0.0
  0
LINE
  5
455
100
AcDbEntity
  8
RACCORDO
100
AcDbLine
 62
7
  6
CONTINUOUS
 10
-9.3040379438
 20
28.6725670991
 30
0.0
 11
9.3040379438
 21
28.6725670991
 31
0.0
  0
LINE
  5
456
100
AcDbEntity
  8
RACCORDO
100
AcDbLine
 62
7
  6
CONTINUOUS
 10
-9.6579556043
 20
28.6745486056
 30
0.0
 11
-3.0192005714
 21
28.6745486056
 31
0.0
  0
LINE
  5
457
100
AcDbEntity
  8
RACCORDO
100
AcDbLine
 62
7
  6
CONTINUOUS
 10
3.0192005714
 20
28.6745486056
 30
0.0
 11
9.6579556043
 21
28.6745486056
 31
0.0
  0
LINE
  5
458
100
AcDbEntity
  8
DRAFT
100
AcDbLine
 62
7
  6
CONTINUOUS
 10
-3.0
 20
28.7321971628
 30
0.0
 11
3.0
 21
28.7321971628
 31
0.0
  0
LINE
  5
459
100
AcDbEntity
  8
RACCORDO
100
AcDbLine
 62
250
  6
CONTINUOUS
 10
-9.8927234819
 20
28.8218389498
 30
0.0
 11
-7.5072765181
 21
28.8218389498
 31
0.0
  0
LINE
  5
45A
100
AcDbEntity
  8
RACCORDO
100
AcDbLine
 62
250
  6
CONTINUOUS
 10
7.5072765181
 20
28.8218389498
 30
0.0
 11
9.8927234819
 21
28.8218389498
 31
0.0
  0
LINE
  5
45B
100
AcDbEntity
  8
0
100
AcDbLine
 62
7
  6
CONTINUOUS
 10
4.4412732553
 20
28.8317719435
 30
0.0
 11
3.5
 21
28.8317719435
 31
0.0
  0
LINE
  5
45C
100
AcDbEntity
  8
0
100
AcDbLine
 62
7
  6
CONTINUOUS
 10
-3.5
 20
28.8317719435
 30
0.0
 11
-4.4412732553
 21
28.8317719435
 31
0.0
  0
LINE
  5
45D
100
AcDbEntity
  8
0
100
AcDbLine
 62
7
  6
CONTINUOUS
 10
-3.5
 20
28.8841797227
 30
0.0
 11
-1.2
 21
28.8841797227
 31
0.0
  0
LINE
  5
45E
100
AcDbEntity
  8
0
100
AcDbLine
 62
7
  6
CONTINUOUS
 10
1.2
 20
28.8841797227
 30
0.0
 11
3.5
 21
28.8841797227
 31
0.0
  0
LINE
  5
45F
100
AcDbEntity
  8
RACCORDO
100
AcDbLine
 62
7
  6
CONTINUOUS
 10
-10.6495078465
 20
28.9103836124
 30
0.0
 11
-10.3499424883
 21
28.9103836124
 31
0.0
  0
LINE
  5
460
100
AcDbEntity
  8
RACCORDO
100
AcDbLine
 62
7
  6
CONTINUOUS
 10
-7.0500575117
 20
28.9103836124
 30
0.0
 11
-4.45
 21
28.9103836124
 31
0.0
  0
LINE
  5
461
100
AcDbEntity
  8
0
100
AcDbLine
 62
7
  6
CONTINUOUS
 10
1.0
 20
28.9103836124
 30
0.0
 11
-1.0
 21
28.9103836124
 31
0.0
  0
LINE
  5
462
100
AcDbEntity
  8
RACCORDO
100
AcDbLine
 62
7
  6
CONTINUOUS
 10
4.45
 20
28.9103836124
 30
0.0
 11
7.0500575117
 21
28.9103836124
 31
0.0
  0
LINE
  5
463
100
AcDbEntity
  8
RACCORDO
100
AcDbLine
 62
7
  6
CONTINUOUS
 10
10.3499424883
 20
28.9103836124
 30
0.0
 11
10.6495078465
 21
28.9103836124
 31
0.0
  0
LINE
  5
464
100
AcDbEntity
  8
RACCORDO
100
AcDbLine
 62
250
  6
CONTINUOUS
 10
-9.8927234819
 20
29.0215648568
 30
0.0
 11
-7.5072765181
 21
29.0215648568
 31
0.0
  0
LINE
  5
465
100
AcDbEntity
  8
RACCORDO
100
AcDbLine
 62
250
  6
CONTINUOUS
 10
7.5072765181
 20
29.0215648568
 30
0.0
 11
9.8927234819
 21
29.0215648568
 31
0.0
  0
LINE
  5
466
100
AcDbEntity
  8
0
100
AcDbLine
 62
7
  6
CONTINUOUS
 10
-9.8927234819
 20
29.6330333432
 30
0.0
 11
-7.5072765181
 21
29.6330333432
 31
0.0
  0
LINE
  5
467
100
AcDbEntity
  8
0
100
AcDbLine
 62
7
  6
CONTINUOUS
 10
9.8927234819
 20
29.6330333432
 30
0.0
 11
7.5072765181
 21
29.6330333432
 31
0.0
  0
LINE
  5
468
100
AcDbEntity
  8
0
100
AcDbLine
 62
250
  6
CONTINUOUS
 10
7.2630985787
 20
30.7472892645
 30
0.0
 11
7.25
 21
30.7603878432
 31
0.0
  0
LINE
  5
469
100
AcDbEntity
  8
0
100
AcDbLine
 62
250
  6
CONTINUOUS
 10
7.5130943479
 20
30.9972850337
 30
0.0
 11
7.4999957692
 21
31.0103836124
 31
0.0
  0
LINE
  5
46A
100
AcDbEntity
  8
0
100
AcDbLine
 62
250
  6
CONTINUOUS
 10
-9.8869056521
 20
30.1382148287
 30
0.0
 11
-7.5130943479
 21
30.1382148287
 31
0.0
  0
LINE
  5
46B
100
AcDbEntity
  8
0
100
AcDbLine
 62
250
  6
CONTINUOUS
 10
7.5130943479
 20
30.1382148287
 30
0.0
 11
9.8869056521
 21
30.1382148287
 31
0.0
  0
LINE
  5
46C
100
AcDbEntity
  8
0
100
AcDbLine
 62
250
  6
CONTINUOUS
 10
3.5
 20
30.3086348788
 30
0.0
 11
1.0
 21
30.3086348788
 31
0.0
  0
LINE
  5
46D
100
AcDbEntity
  8
0
100
AcDbLine
 62
250
  6
CONTINUOUS
 10
-1.0
 20
30.3086348788
 30
0.0
 11
-3.5
 21
30.3086348788
 31
0.0
  0
LINE
  5
46E
100
AcDbEntity
  8
0
100
AcDbLine
 62
250
  6
CONTINUOUS
 10
7.2630985787
 20
30.3547211797
 30
0.0
 11
10.1369014213
 21
30.3547211797
 31
0.0
  0
LINE
  5
46F
100
AcDbEntity
  8
0
100
AcDbLine
 62
250
  6
CONTINUOUS
 10
-7.2630985787
 20
30.3547211797
 30
0.0
 11
-10.1369014213
 21
30.3547211797
 31
0.0
  0
LINE
  5
470
100
AcDbEntity
  8
0
100
AcDbLine
 62
7
  6
CONTINUOUS
 10
-4.4412732553
 20
30.5016568677
 30
0.0
 11
-3.5
 21
30.5016568677
 31
0.0
  0
LINE
  5
471
100
AcDbEntity
  8
0
100
AcDbLine
 62
7
  6
CONTINUOUS
 10
3.5
 20
30.5016568677
 30
0.0
 11
4.4412732553
 21
30.5016568677
 31
0.0
  0
LINE
  5
472
100
AcDbEntity
  8
0
100
AcDbLine
 62
7
  6
CONTINUOUS
 10
3.5
 20
30.5086314941
 30
0.0
 11
1.2
 21
30.5086314941
 31
0.0
  0
LINE
  5
473
100
AcDbEntity
  8
0
100
AcDbLine
 62
7
  6
CONTINUOUS
 10
-1.2
 20
30.5086314941
 30
0.0
 11
-3.5
 21
30.5086314941
 31
0.0
  0
LINE
  5
474
100
AcDbEntity
  8
0
100
AcDbLine
 62
7
  6
CONTINUOUS
 10
-4.45
 20
30.5103836124
 30
0.0
 11
-3.5
 21
30.5103836124
 31
0.0
  0
LINE
  5
475
100
AcDbEntity
  8
0
100
AcDbLine
 62
7
  6
CONTINUOUS
 10
3.5
 20
30.5103836124
 30
0.0
 11
4.45
 21
30.5103836124
 31
0.0
  0
LINE
  5
476
100
AcDbEntity
  8
0
100
AcDbLine
 62
250
  6
CONTINUOUS
 10
7.2630985787
 20
30.7472892645
 30
0.0
 11
10.1369014213
 21
30.7472892645
 31
0.0
  0
LINE
  5
477
100
AcDbEntity
  8
0
100
AcDbLine
 62
250
  6
CONTINUOUS
 10
-7.2630985787
 20
30.7472892645
 30
0.0
 11
-10.1369014213
 21
30.7472892645
 31
0.0
  0
LINE
  5
478
100
AcDbEntity
  8
0
100
AcDbLine
 62
7
  6
CONTINUOUS
 10
9.8869056521
 20
30.9972850337
 30
0.0
 11
7.5130943479
 21
30.9972850337
 31
0.0
  0
LINE
  5
479
100
AcDbEntity
  8
0
100
AcDbLine
 62
7
  6
CONTINUOUS
 10
-7.5130943479
 20
30.9972850337
 30
0.0
 11
-9.8869056521
 21
30.9972850337
 31
0.0
  0
LINE
  5
47A
100
AcDbEntity
  8
0
100
AcDbLine
 62
7
  6
CONTINUOUS
 10
9.9000042308
 20
31.0103836124
 30
0.0
 11
7.4999957692
 21
31.0103836124
 31
0.0
  0
LINE
  5
47B
100
AcDbEntity
  8
0
100
AcDbLine
 62
7
  6
CONTINUOUS
 10
-7.4999957692
 20
31.0103836124
 30
0.0
 11
-9.9000042308
 21
31.0103836124
 31
0.0
  0
LWPOLYLINE
  5
47C
100
AcDbEntity
  8
0
100
AcDbPolyline
 62
7
  6
CONTINUOUS
 90
6
 70
0
 43
0.3500000087
 10
1.0714285995
 20
39.7964045929
 10
2.142857199
 20
39.7964045929
 10
2.357142799
 20
40.0106911255
 10
2.357142799
 20
41.0821195251
 10
1.9285714658
 20
41.5106925903
 10
1.4999999993
 20
41.5106925903
  0
LWPOLYLINE
  5
47D
100
AcDbEntity
  8
0
100
AcDbPolyline
 62
7
  6
CONTINUOUS
 90
7
 70
0
 43
0.3500000087
 10
-1.4999999993
 20
39.7964045929
 10
-2.9999999987
 20
39.7964045929
 10
-1.4999999993
 20
41.9392613922
 10
-1.4999999993
 20
42.3678344574
 10
-1.9285714658
 20
42.7964075226
 10
-2.5714285322
 20
42.7964075226
 10
-2.9999999987
 20
42.1535479248
  0
LWPOLYLINE
  5
47E
100
AcDbEntity
  8
0
100
AcDbPolyline
 62
7
  6
CONTINUOUS
 90
6
 70
0
 43
0.3500000087
 10
3.2142857319
 20
39.7964045929
 10
4.285714398
 20
39.7964045929
 10
4.5000001312
 20
40.0106911255
 10
4.5000001312
 20
41.0821195251
 10
4.0714286648
 20
41.5106925903
 10
3.6428571983
 20
41.5106925903
  0
LWPOLYLINE
  5
47F
100
AcDbEntity
  8
0
100
AcDbPolyline
 62
7
  6
CONTINUOUS
 90
7
 70
0
 43
0.3500000087
 10
-3.8571429316
 20
39.7964045929
 10
-5.3571430641
 20
39.7964045929
 10
-3.8571429316
 20
41.9392613922
 10
-3.8571429316
 20
42.3678344574
 10
-4.285714398
 20
42.7964075226
 10
-4.9285715977
 20
42.7964075226
 10
-5.3571430641
 20
42.1535479248
  0
ARC
  5
480
100
AcDbEntity
  8
0
100
AcDbCircle
 62
7
  6
CONTINUOUS
 10
-54.5033934516
 20
-14.5512147955
 30
0.0
 40
1.0
100
AcDbArc
 50
188.5758796048
 51
267.0
  0
ARC
  5
481
100
AcDbEntity
  8
DRAFT
100
AcDbCircle
 62
7
  6
CONTINUOUS
 10
-37.0724923388
 20
-14.8256033363
 30
0.0
 40
1.0
100
AcDbArc
 50
270.3333333333
 51
360.0
  0
ARC
  5
482
100
AcDbEntity
  8
0
100
AcDbCircle
 62
250
  6
CONTINUOUS
 10
-54.5121196343
 20
-14.5512147837
 30
0.0
 40
0.500000022
100
AcDbArc
 50
188.5758805958
 51
266.9890450147
  0
ARC
  5
483
100
AcDbEntity
  8
0
100
AcDbCircle
 62
7
  6
CONTINUOUS
 10
-40.5724923388
 20
-16.9459742023
 30
0.0
 40
0.5
100
AcDbArc
 50
270.3333333333
 51
360.0
  0
ARC
  5
484
100
AcDbEntity
  8
0
100
AcDbCircle
 62
7
  6
CONTINUOUS
 10
-50.3224923388
 20
-17.7265220397
 30
0.0
 40
0.25
100
AcDbArc
 50
180.0
 51
269.6666666667
  0
ARC
  5
485
100
AcDbEntity
  8
0
100
AcDbCircle
 62
7
  6
CONTINUOUS
 10
-47.3224923388
 20
-17.7352487844
 30
0.0
 40
0.25
100
AcDbArc
 50
270.3333333333
 51
360.0
  0
ARC
  5
486
100
AcDbEntity
  8
0
100
AcDbCircle
 62
7
  6
CONTINUOUS
 10
-50.3224923388
 20
-17.3339539549
 30
0.0
 40
0.25
100
AcDbArc
 50
120.0
 51
180.0
  0
ARC
  5
487
100
AcDbEntity
  8
0
100
AcDbCircle
 62
7
  6
CONTINUOUS
 10
-47.3224923388
 20
-17.3339539549
 30
0.0
 40
0.25
100
AcDbArc
 50
0.0
 51
60.0
  0
ARC
  5
488
100
AcDbEntity
  8
RACCORDO
100
AcDbCircle
 62
7
  6
CONTINUOUS
 10
-49.7724923388
 20
-16.000797632
 30
0.0
 40
0.2
100
AcDbArc
 50
0.0
 51
87.0
  0
ARC
  5
489
100
AcDbEntity
  8
RACCORDO
100
AcDbCircle
 62
7
  6
CONTINUOUS
 10
-39.5917815073
 20
-0.7896163876
 30
0.0
 40
0.3
100
AcDbArc
 50
190.0
 51
270.0
  0
ARC
  5
48A
100
AcDbEntity
  8
RACCORDO
100
AcDbCircle
 62
7
  6
CONTINUOUS
 10
-44.9724923388
 20
0.223103511
 30
0.0
 40
0.3
100
AcDbArc
 50
0.0
 51
89.5
  0
ARC
  5
48B
100
AcDbEntity
  8
RACCORDO
100
AcDbCircle
 62
250
  6
CONTINUOUS
 10
-44.9716535652
 20
0.2230695162
 30
0.0
 40
0.200035368
100
AcDbArc
 50
0.0097371452
 51
89.4903811189
  0
ARC
  5
48C
100
AcDbEntity
  8
RACCORDO
100
AcDbCircle
 62
7
  6
CONTINUOUS
 10
-23.1724923388
 20
1.7103836124
 30
0.0
 40
0.2
100
AcDbArc
 50
270.0
 51
360.0
  0
ARC
  5
48D
100
AcDbEntity
  8
RACCORDO
100
AcDbCircle
 62
7
  6
CONTINUOUS
 10
-26.2724923388
 20
1.7103836124
 30
0.0
 40
0.2
100
AcDbArc
 50
180.0
 51
270.0
  0
ARC
  5
48E
100
AcDbEntity
  8
RACCORDO
100
AcDbCircle
 62
7
  6
CONTINUOUS
 10
-28.0320411347
 20
1.7103836124
 30
0.0
 40
0.2
100
AcDbArc
 50
213.2006359034
 51
270.0
  0
ARC
  5
48F
100
AcDbEntity
  8
RACCORDO
100
AcDbCircle
 62
7
  6
CONTINUOUS
 10
-44.7724923388
 20
-2.2005985283
 30
0.0
 40
0.1
100
AcDbArc
 50
270.5
 51
360.0
  0
ARC
  5
490
100
AcDbEntity
  8
RACCORDO
100
AcDbCircle
 62
7
  6
CONTINUOUS
 10
-44.7724924461
 20
6.1994014707
 30
0.0
 40
0.1
100
AcDbArc
 50
270.5000614912
 51
0.0000005366
  0
ARC
  5
491
100
AcDbEntity
  8
0
100
AcDbCircle
 62
7
  6
CONTINUOUS
 10
33.5015193414
 20
-1.2796163876
 30
0.0
 40
90.0
100
AcDbArc
 50
181.08868532
 51
188.5758796048
  0
ARC
  5
492
100
AcDbEntity
  8
0
100
AcDbCircle
 62
250
  6
CONTINUOUS
 10
33.4927613646
 20
-1.2796190737
 30
0.0
 40
89.4999681812
100
AcDbArc
 50
181.0886839872
 51
188.5758809376
  0
ARC
  5
493
100
AcDbEntity
  8
RACCORDO
100
AcDbCircle
 62
7
  6
CONTINUOUS
 10
-45.8967564075
 20
18.0103836124
 30
0.0
 40
0.3
100
AcDbArc
 50
270.0
 51
315.0
  0
ARC
  5
494
100
AcDbEntity
  8
RACCORDO
100
AcDbCircle
 62
7
  6
CONTINUOUS
 10
-27.6553350513
 20
12.0103836124
 30
0.0
 40
0.2
100
AcDbArc
 50
45.0
 51
90.0
  0
ARC
  5
495
100
AcDbEntity
  8
RACCORDO
100
AcDbCircle
 62
7
  6
CONTINUOUS
 10
-28.7475902716
 20
12.0103836124
 30
0.0
 40
0.2
100
AcDbArc
 50
90.0
 51
153.9704078085
  0
ARC
  5
496
100
AcDbEntity
  8
RACCORDO
100
AcDbCircle
 62
7
  6
CONTINUOUS
 10
-44.7724926073
 20
6.8213657554
 30
0.0
 40
0.1
100
AcDbArc
 50
359.9999986573
 51
89.4998461376
  0
ARC
  5
497
100
AcDbEntity
  8
RACCORDO
100
AcDbCircle
 62
7
  6
CONTINUOUS
 10
-44.7724924461
 20
14.521365754
 30
0.0
 40
0.1
100
AcDbArc
 50
359.9999994634
 51
89.4999385088
  0
ARC
  5
498
100
AcDbEntity
  8
ASSI
100
AcDbCircle
 62
7
  6
CONTINUOUS
 10
-45.7272703411
 20
22.6735677297
 30
0.0
 40
7.0
100
AcDbArc
 50
258.9198456185
 51
267.0
  0
ARC
  5
499
100
AcDbEntity
  8
RACCORDO
100
AcDbCircle
 62
7
  6
CONTINUOUS
 10
-45.9724923388
 20
24.3060392177
 30
0.0
 40
0.5
100
AcDbArc
 50
270.5
 51
360.0
  0
ARC
  5
49A
100
AcDbEntity
  8
RACCORDO
100
AcDbCircle
 62
250
  6
CONTINUOUS
 10
-45.9699012794
 20
24.3060655917
 30
0.0
 40
0.200028027
100
AcDbArc
 50
270.5076393935
 51
359.9924454248
  0
ARC
  5
49B
100
AcDbEntity
  8
RACCORDO
100
AcDbCircle
 62
7
  6
CONTINUOUS
 10
-44.7724923388
 20
18.8213657531
 30
0.0
 40
0.1
100
AcDbArc
 50
0.0
 51
89.5
  0
ARC
  5
49C
100
AcDbEntity
  8
0
100
AcDbCircle
 62
7
  6
CONTINUOUS
 10
-54.5033934516
 20
27.5719820203
 30
0.0
 40
1.0
100
AcDbArc
 50
93.0
 51
171.4241203952
  0
ARC
  5
49D
100
AcDbEntity
  8
RACCORDO
100
AcDbCircle
 62
7
  6
CONTINUOUS
 10
-54.5033934516
 20
27.5719820203
 30
0.0
 40
1.0
100
AcDbArc
 50
93.0
 51
171.4241203952
  0
ARC
  5
49E
100
AcDbEntity
  8
0
100
AcDbCircle
 62
250
  6
CONTINUOUS
 10
-54.5121196487
 20
27.5719820135
 30
0.0
 40
0.500000007
100
AcDbArc
 50
93.0000006591
 51
171.4241197361
  0
ARC
  5
49F
100
AcDbEntity
  8
RACCORDO
100
AcDbCircle
 62
7
  6
CONTINUOUS
 10
-49.7724931523
 20
29.0215648142
 30
0.0
 40
0.2000003615
100
AcDbArc
 50
273.0002333637
 51
0.0000122133
  0
ARC
  5
4A0
100
AcDbEntity
  8
0
100
AcDbCircle
 62
7
  6
CONTINUOUS
 10
-50.3224923388
 20
30.7472892645
 30
0.0
 40
0.25
100
AcDbArc
 50
90.3333333333
 51
180.0
  0
ARC
  5
4A1
100
AcDbEntity
  8
0
100
AcDbCircle
 62
7
  6
CONTINUOUS
 10
-47.3224923388
 20
30.7560160092
 30
0.0
 40
0.25
100
AcDbArc
 50
0.0
 51
89.6666666667
  0
ARC
  5
4A2
100
AcDbEntity
  8
0
100
AcDbCircle
 62
7
  6
CONTINUOUS
 10
-50.3224923388
 20
30.3547211797
 30
0.0
 40
0.25
100
AcDbArc
 50
180.0
 51
240.0
  0
ARC
  5
4A3
100
AcDbEntity
  8
0
100
AcDbCircle
 62
7
  6
CONTINUOUS
 10
-47.3224923388
 20
30.3547211797
 30
0.0
 40
0.25
100
AcDbArc
 50
300.0
 51
360.0
  0
ARC
  5
4A4
100
AcDbEntity
  8
0
100
AcDbCircle
 62
7
  6
CONTINUOUS
 10
-26.9573220591
 20
22.0443103499
 30
0.0
 40
44.7858999132
100
AcDbArc
 50
239.6711809666
 51
240.0388810573
  0
ARC
  5
4A5
100
AcDbEntity
  8
DRAFT
100
AcDbCircle
 62
7
  6
CONTINUOUS
 10
-37.0724923388
 20
27.846370561
 30
0.0
 40
1.0
100
AcDbArc
 50
0.0
 51
89.6666666667
  0
ARC
  5
4A6
100
AcDbEntity
  8
0
100
AcDbCircle
 62
7
  6
CONTINUOUS
 10
-40.5724923388
 20
29.9667414271
 30
0.0
 40
0.5
100
AcDbArc
 50
0.0
 51
89.6666666667
  0
ARC
  5
4A7
100
AcDbEntity
  8
0
100
AcDbCircle
 62
7
  6
CONTINUOUS
 10
33.5015193414
 20
14.3003836124
 30
0.0
 40
90.0
100
AcDbArc
 50
171.4241203952
 51
178.91131468
  0
ARC
  5
4A8
100
AcDbEntity
  8
RACCORDO
100
AcDbCircle
 62
7
  6
CONTINUOUS
 10
33.5015193414
 20
14.3003836124
 30
0.0
 40
90.0
100
AcDbArc
 50
171.4241203952
 51
175.2083945865
  0
ARC
  5
4A9
100
AcDbEntity
  8
0
100
AcDbCircle
 62
250
  6
CONTINUOUS
 10
33.4927613651
 20
14.3003862985
 30
0.0
 40
89.4999681816
100
AcDbArc
 50
171.4241190624
 51
178.9113160128
  0
ARC
  5
4AA
100
AcDbEntity
  8
0
100
AcDbCircle
 62
7
  6
CONTINUOUS
 10
443.4275076612
 20
6.5103836124
 30
0.0
 40
500.0
100
AcDbArc
 50
178.91131468
 51
181.08868532
  0
ARC
  5
4AB
100
AcDbEntity
  8
0
100
AcDbCircle
 62
250
  6
CONTINUOUS
 10
443.4640753701
 20
6.5103836124
 30
0.0
 40
499.5452857366
100
AcDbArc
 50
178.9114133854
 51
181.0885866146
  0
ARC
  5
4AC
100
AcDbEntity
  8
0
100
AcDbCircle
 62
250
  6
CONTINUOUS
 10
-5119.3052253436
 20
-1.3480910513
 30
0.0
 40
5108.7945046162
100
AcDbArc
 50
359.8502527296
 51
359.9815900845
  0
ARC
  5
4AD
100
AcDbEntity
  8
0
100
AcDbCircle
 62
250
  6
CONTINUOUS
 10
-5063.1986951223
 20
-1.3477104117
 30
0.0
 40
5052.1880505473
100
AcDbArc
 50
359.8494161557
 51
359.9814872341
  0
ARC
  5
4AE
100
AcDbEntity
  8
0
100
AcDbCircle
 62
250
  6
CONTINUOUS
 10
-10.5361266562
 20
-15.0496617682
 30
0.0
 40
0.5001624386
100
AcDbArc
 50
180.0994054398
 51
269.9752725723
  0
ARC
  5
4AF
100
AcDbEntity
  8
0
100
AcDbCircle
 62
7
  6
CONTINUOUS
 10
-4.0
 20
-16.6396163876
 30
0.0
 40
0.5
100
AcDbArc
 50
154.1580672368
 51
205.8419327632
  0
ARC
  5
4B0
100
AcDbEntity
  8
0
100
AcDbCircle
 62
7
  6
CONTINUOUS
 10
-10.6492730098
 20
-15.3898043595
 30
0.0
 40
0.4998306865
100
AcDbArc
 50
179.9522215796
 51
269.9730795759
  0
ARC
  5
4B1
100
AcDbEntity
  8
0
100
AcDbCircle
 62
7
  6
CONTINUOUS
 10
-9.8999774933
 20
-17.7392395117
 30
0.0
 40
0.2503768773
100
AcDbArc
 50
261.8245330495
 51
269.9938814446
  0
ARC
  5
4B2
100
AcDbEntity
  8
0
100
AcDbCircle
 62
7
  6
CONTINUOUS
 10
-7.5003768759
 20
-17.7395938809
 30
0.0
 40
0.2503768773
100
AcDbArc
 50
351.8245330495
 51
359.9938814446
  0
ARC
  5
4B3
100
AcDbEntity
  8
0
100
AcDbCircle
 62
250
  6
CONTINUOUS
 10
-9.8868777923
 20
-17.7262331008
 30
0.0
 40
0.2502847096
100
AcDbArc
 50
263.8274154081
 51
269.9936222729
  0
ARC
  5
4B4
100
AcDbEntity
  8
0
100
AcDbCircle
 62
7
  6
CONTINUOUS
 10
-7.5131051962
 20
-17.7265111914
 30
0.0
 40
0.2500066177
100
AcDbArc
 50
270.0024861811
 51
359.9975138189
  0
ARC
  5
4B5
100
AcDbEntity
  8
0
100
AcDbCircle
 62
7
  6
CONTINUOUS
 10
-9.8869113085
 20
-17.7265769904
 30
0.0
 40
0.2499392099
100
AcDbArc
 50
259.1004972862
 51
263.8274154081
  0
ARC
  5
4B6
100
AcDbEntity
  8
0
100
AcDbCircle
 62
7
  6
CONTINUOUS
 10
-1.2000016924
 20
-17.2896146953
 30
0.0
 40
0.2000016924
100
AcDbArc
 50
270.0004848234
 51
0.0004848094
  0
ARC
  5
4B7
100
AcDbEntity
  8
0
100
AcDbCircle
 62
7
  6
CONTINUOUS
 10
-1.1999988155
 20
-17.2878654538
 30
0.0
 40
0.1999988155
100
AcDbArc
 50
269.9996606734
 51
359.9993696938
  0
ARC
  5
4B8
100
AcDbEntity
  8
RACCORDO
100
AcDbCircle
 62
250
  6
CONTINUOUS
 10
-7.0573557858
 20
-16.0244618684
 30
0.0
 40
0.1999348843
100
AcDbArc
 50
89.9794673708
 51
179.9375419075
  0
ARC
  5
4B9
100
AcDbEntity
  8
RACCORDO
100
AcDbCircle
 62
250
  6
CONTINUOUS
 10
-10.3426442131
 20
-16.0244618694
 30
0.0
 40
0.1999348842
100
AcDbArc
 50
0.0624583903
 51
90.0205329285
  0
ARC
  5
4BA
100
AcDbEntity
  8
0
100
AcDbCircle
 62
250
  6
CONTINUOUS
 10
-5147.6270004529
 20
14.3272975061
 30
0.0
 40
5137.1162917201
100
AcDbArc
 50
0.0187719582
 51
0.1493852277
  0
ARC
  5
4BB
100
AcDbEntity
  8
0
100
AcDbCircle
 62
250
  6
CONTINUOUS
 10
-5091.2065644643
 20
14.3271478976
 30
0.0
 40
5080.195931884
100
AcDbArc
 50
0.0188768298
 51
0.1502197803
  0
ARC
  5
4BC
100
AcDbEntity
  8
RACCORDO
100
AcDbCircle
 62
250
  6
CONTINUOUS
 10
-59.6186015504
 20
27.6106643209
 30
0.0
 40
50.2721162195
100
AcDbArc
 50
0.1236079735
 51
0.6760049572
  0
ARC
  5
4BD
100
AcDbEntity
  8
RACCORDO
100
AcDbCircle
 62
250
  6
CONTINUOUS
 10
-50.0736674344
 20
27.6070037357
 30
0.0
 40
40.6271966296
100
AcDbArc
 50
0.1370850571
 51
0.7552142577
  0
ARC
  5
4BE
100
AcDbEntity
  8
RACCORDO
100
AcDbCircle
 62
250
  6
CONTINUOUS
 10
-8.9346568514
 20
22.5187967339
 30
0.0
 40
0.502896078
100
AcDbArc
 50
254.2964278257
 51
269.9607314828
  0
ARC
  5
4BF
100
AcDbEntity
  8
RACCORDO
100
AcDbCircle
 62
250
  6
CONTINUOUS
 10
-9.0171114954
 20
22.5043981338
 30
0.0
 40
0.5028629676
100
AcDbArc
 50
250.133698736
 51
269.933224944
  0
ARC
  5
4C0
100
AcDbEntity
  8
RACCORDO
100
AcDbCircle
 62
7
  6
CONTINUOUS
 10
-8.9479065996
 20
22.5086949045
 30
0.0
 40
0.5020935223
100
AcDbArc
 50
180.0399297607
 51
191.9889218638
  0
ARC
  5
4C1
100
AcDbEntity
  8
RACCORDO
100
AcDbCircle
 62
250
  6
CONTINUOUS
 10
-8.9348081059
 20
22.5170871656
 30
0.0
 40
0.5012094812
100
AcDbArc
 50
252.6351191363
 51
254.2601781112
  0
ARC
  5
4C2
100
AcDbEntity
  8
RACCORDO
100
AcDbCircle
 62
7
  6
CONTINUOUS
 10
-8.9351445404
 20
22.5164331469
 30
0.0
 40
0.5004773174
100
AcDbArc
 50
180.102365745
 51
252.6495328411
  0
ARC
  5
4C3
100
AcDbEntity
  8
0
100
AcDbCircle
 62
250
  6
CONTINUOUS
 10
-10.5361267826
 20
28.0704290933
 30
0.0
 40
0.5001623375
100
AcDbArc
 50
90.0247129512
 51
179.9005974011
  0
ARC
  5
4C4
100
AcDbEntity
  8
0
100
AcDbCircle
 62
7
  6
CONTINUOUS
 10
-4.0
 20
29.6603836124
 30
0.0
 40
0.5
100
AcDbArc
 50
154.1580672368
 51
205.8419327632
  0
ARC
  5
4C5
100
AcDbEntity
  8
0
100
AcDbCircle
 62
7
  6
CONTINUOUS
 10
-10.6492730071
 20
28.4105715866
 30
0.0
 40
0.4998306865
100
AcDbArc
 50
90.026920736
 51
180.0477786903
  0
ARC
  5
4C6
100
AcDbEntity
  8
RACCORDO
100
AcDbCircle
 62
7
  6
CONTINUOUS
 10
-8.9501750444
 20
22.5082324835
 30
0.0
 40
0.4997785024
100
AcDbArc
 50
191.9910854573
 51
240.0096516047
  0
ARC
  5
4C7
100
AcDbEntity
  8
RACCORDO
100
AcDbCircle
 62
7
  6
CONTINUOUS
 10
-8.9498886782
 20
22.5067074444
 30
0.0
 40
0.4983053509
100
AcDbArc
 50
263.9672915864
 51
269.9872004099
  0
ARC
  5
4C8
100
AcDbEntity
  8
RACCORDO
100
AcDbCircle
 62
250
  6
CONTINUOUS
 10
-8.9348391703
 20
22.5253727479
 30
0.0
 40
0.400784914
100
AcDbArc
 50
180.099132377
 51
269.9767905703
  0
ARC
  5
4C9
100
AcDbEntity
  8
RACCORDO
100
AcDbCircle
 62
7
  6
CONTINUOUS
 10
-9.1498807912
 20
22.3577945341
 30
0.0
 40
0.3030779387
100
AcDbArc
 50
256.0570587168
 51
268.0639311067
  0
ARC
  5
4CA
100
AcDbEntity
  8
RACCORDO
100
AcDbCircle
 62
7
  6
CONTINUOUS
 10
-9.1529088292
 20
22.352686598
 30
0.0
 40
0.2970912404
100
AcDbArc
 50
180.0392236285
 51
195.8078026029
  0
ARC
  5
4CB
100
AcDbEntity
  8
RACCORDO
100
AcDbCircle
 62
7
  6
CONTINUOUS
 10
-9.1545881753
 20
22.3159460455
 30
0.0
 40
0.2954118256
100
AcDbArc
 50
180.0045838015
 51
184.6666466962
  0
ARC
  5
4CC
100
AcDbEntity
  8
0
100
AcDbCircle
 62
7
  6
CONTINUOUS
 10
-9.8996231241
 20
30.7603611057
 30
0.0
 40
0.2503768773
100
AcDbArc
 50
171.8245330495
 51
179.9938814446
  0
ARC
  5
4CD
100
AcDbEntity
  8
0
100
AcDbCircle
 62
7
  6
CONTINUOUS
 10
-7.5000225067
 20
30.7600067365
 30
0.0
 40
0.2503768773
100
AcDbArc
 50
81.8245330495
 51
89.9938814446
  0
ARC
  5
4CE
100
AcDbEntity
  8
0
100
AcDbCircle
 62
250
  6
CONTINUOUS
 10
-9.8868777923
 20
30.7470003256
 30
0.0
 40
0.2502847096
100
AcDbArc
 50
90.0063777272
 51
96.171748034
  0
ARC
  5
4CF
100
AcDbEntity
  8
0
100
AcDbCircle
 62
250
  6
CONTINUOUS
 10
-7.5131222077
 20
30.7470003256
 30
0.0
 40
0.2502847096
100
AcDbArc
 50
83.8274154081
 51
89.9936222728
  0
ARC
  5
4D0
100
AcDbEntity
  8
0
100
AcDbCircle
 62
7
  6
CONTINUOUS
 10
-7.5130886915
 20
30.7473442152
 30
0.0
 40
0.2499392099
100
AcDbArc
 50
79.1004972863
 51
83.8274154081
  0
ARC
  5
4D1
100
AcDbEntity
  8
RACCORDO
100
AcDbCircle
 62
250
  6
CONTINUOUS
 10
-9.6926592097
 20
28.3705387908
 30
0.0
 40
0.2000647089
100
AcDbArc
 50
0.0993395755
 51
89.9753506984
  0
ARC
  5
4D2
100
AcDbEntity
  8
0
100
AcDbCircle
 62
7
  6
CONTINUOUS
 10
-1.2000016924
 20
30.31038192
 30
0.0
 40
0.2000016924
100
AcDbArc
 50
359.9995151906
 51
89.9995151766
  0
ARC
  5
4D3
100
AcDbEntity
  8
0
100
AcDbCircle
 62
250
  6
CONTINUOUS
 10
-1.1999988151
 20
30.308632679
 30
0.0
 40
0.1999988151
100
AcDbArc
 50
0.0006301927
 51
90.0003394401
  0
ARC
  5
4D4
100
AcDbEntity
  8
RACCORDO
100
AcDbCircle
 62
250
  6
CONTINUOUS
 10
-10.3426442649
 20
29.0452291464
 30
0.0
 40
0.1999348843
100
AcDbArc
 50
269.9794819183
 51
359.937526673
  0
ARC
  5
4D5
100
AcDbEntity
  8
RACCORDO
100
AcDbCircle
 62
250
  6
CONTINUOUS
 10
-7.0573557337
 20
29.045229145
 30
0.0
 40
0.1999348842
100
AcDbArc
 50
180.0624729367
 51
270.0205177
  0
ARC
  5
4D6
100
AcDbEntity
  8
RACCORDO
100
AcDbCircle
 62
250
  6
CONTINUOUS
 10
-9.3386383329
 20
28.4696734411
 30
0.0
 40
0.098956609
100
AcDbArc
 50
90.0099256363
 51
100.1171939914
  0
ARC
  5
4D7
100
AcDbEntity
  8
0
100
AcDbCircle
 62
250
  6
CONTINUOUS
 10
5147.6270480299
 20
-1.3065302115
 30
0.0
 40
5137.1163392972
100
AcDbArc
 50
180.0187719588
 51
180.1493852271
  0
ARC
  5
4D8
100
AcDbEntity
  8
0
100
AcDbCircle
 62
250
  6
CONTINUOUS
 10
5091.2066110573
 20
-1.3063806041
 30
0.0
 40
5080.195978477
100
AcDbArc
 50
180.0188768305
 51
180.1502197797
  0
ARC
  5
4D9
100
AcDbEntity
  8
0
100
AcDbCircle
 62
250
  6
CONTINUOUS
 10
10.5361169253
 20
-15.0496540241
 30
0.0
 40
0.500170229
100
AcDbArc
 50
270.0258416987
 51
359.9003775691
  0
ARC
  5
4DA
100
AcDbEntity
  8
0
100
AcDbCircle
 62
7
  6
CONTINUOUS
 10
4.0
 20
-16.6396163876
 30
0.0
 40
0.5
100
AcDbArc
 50
334.1580672368
 51
25.8419327632
  0
ARC
  5
4DB
100
AcDbEntity
  8
0
100
AcDbCircle
 62
7
  6
CONTINUOUS
 10
10.6492655294
 20
-15.3897968893
 30
0.0
 40
0.4998398178
100
AcDbArc
 50
270.0277775207
 51
0.0469214495
  0
ARC
  5
4DC
100
AcDbEntity
  8
0
100
AcDbCircle
 62
7
  6
CONTINUOUS
 10
7.5000225067
 20
-17.7392395117
 30
0.0
 40
0.2503768773
100
AcDbArc
 50
261.8245330495
 51
269.9938814446
  0
ARC
  5
4DD
100
AcDbEntity
  8
0
100
AcDbCircle
 62
7
  6
CONTINUOUS
 10
9.8996231241
 20
-17.7395938809
 30
0.0
 40
0.2503768773
100
AcDbArc
 50
351.8245330495
 51
359.9938814446
  0
ARC
  5
4DE
100
AcDbEntity
  8
0
100
AcDbCircle
 62
7
  6
CONTINUOUS
 10
7.5131051962
 20
-17.7265111914
 30
0.0
 40
0.2500066177
100
AcDbArc
 50
180.0024861811
 51
269.9975138189
  0
ARC
  5
4DF
100
AcDbEntity
  8
0
100
AcDbCircle
 62
7
  6
CONTINUOUS
 10
9.8868948038
 20
-17.7265111914
 30
0.0
 40
0.2500066177
100
AcDbArc
 50
270.0024861811
 51
359.9975138189
  0
ARC
  5
4E0
100
AcDbEntity
  8
0
100
AcDbCircle
 62
7
  6
CONTINUOUS
 10
1.2000016924
 20
-17.2896146953
 30
0.0
 40
0.2000016924
100
AcDbArc
 50
179.9995151906
 51
269.9995151766
  0
ARC
  5
4E1
100
AcDbEntity
  8
0
100
AcDbCircle
 62
250
  6
CONTINUOUS
 10
1.1999988151
 20
-17.2878654542
 30
0.0
 40
0.1999988151
100
AcDbArc
 50
180.0006301927
 51
270.0003394401
  0
ARC
  5
4E2
100
AcDbEntity
  8
RACCORDO
100
AcDbCircle
 62
250
  6
CONTINUOUS
 10
10.3426442142
 20
-16.0244618684
 30
0.0
 40
0.1999348843
100
AcDbArc
 50
89.9794673708
 51
179.9375419075
  0
ARC
  5
4E3
100
AcDbEntity
  8
RACCORDO
100
AcDbCircle
 62
250
  6
CONTINUOUS
 10
7.0573557869
 20
-16.0244618694
 30
0.0
 40
0.1999348842
100
AcDbArc
 50
0.0624583903
 51
90.0205329285
  0
ARC
  5
4E4
100
AcDbEntity
  8
0
100
AcDbCircle
 62
250
  6
CONTINUOUS
 10
5119.3052722317
 20
14.3688582072
 30
0.0
 40
5108.7945515043
100
AcDbArc
 50
179.8502527302
 51
179.9815900839
  0
ARC
  5
4E5
100
AcDbEntity
  8
0
100
AcDbCircle
 62
250
  6
CONTINUOUS
 10
5063.1987417255
 20
14.3684775677
 30
0.0
 40
5052.1880971506
100
AcDbArc
 50
179.8494161563
 51
179.9814872335
  0
ARC
  5
4E6
100
AcDbEntity
  8
RACCORDO
100
AcDbCircle
 62
250
  6
CONTINUOUS
 10
53.8719145429
 20
27.6507700981
 30
0.0
 40
44.5253646837
100
AcDbArc
 50
179.2883528882
 51
179.9120470009
  0
ARC
  5
4E7
100
AcDbEntity
  8
RACCORDO
100
AcDbCircle
 62
250
  6
CONTINUOUS
 10
45.6880131153
 20
27.6417058952
 30
0.0
 40
36.2414799211
100
AcDbArc
 50
179.2074934031
 51
179.901188065
  0
ARC
  5
4E8
100
AcDbEntity
  8
RACCORDO
100
AcDbCircle
 62
250
  6
CONTINUOUS
 10
8.9345846355
 20
22.5187833553
 30
0.0
 40
0.5028950993
100
AcDbArc
 50
272.0664864385
 51
287.3310920244
  0
ARC
  5
4E9
100
AcDbEntity
  8
RACCORDO
100
AcDbCircle
 62
250
  6
CONTINUOUS
 10
9.0171115187
 20
22.5043980009
 30
0.0
 40
0.5028628346
100
AcDbArc
 50
270.0667724136
 51
289.8663039091
  0
ARC
  5
4EA
100
AcDbEntity
  8
RACCORDO
100
AcDbCircle
 62
7
  6
CONTINUOUS
 10
8.9479065996
 20
22.5086949045
 30
0.0
 40
0.5020935223
100
AcDbArc
 50
348.0110781362
 51
359.9600702393
  0
ARC
  5
4EB
100
AcDbEntity
  8
RACCORDO
100
AcDbCircle
 62
7
  6
CONTINUOUS
 10
8.9351439392
 20
22.5164336977
 30
0.0
 40
0.5004778031
100
AcDbArc
 50
287.3500998331
 51
359.8975713168
  0
ARC
  5
4EC
100
AcDbEntity
  8
0
100
AcDbCircle
 62
250
  6
CONTINUOUS
 10
10.5361267853
 20
28.0704290903
 30
0.0
 40
0.5001623376
100
AcDbArc
 50
0.0994029394
 51
89.9752873632
  0
ARC
  5
4ED
100
AcDbEntity
  8
RACCORDO
100
AcDbCircle
 62
250
  6
CONTINUOUS
 10
8.9349835335
 20
22.5160521398
 30
0.0
 40
0.5001513661
100
AcDbArc
 50
270.0020603221
 51
272.0321018189
  0
ARC
  5
4EE
100
AcDbEntity
  8
0
100
AcDbCircle
 62
7
  6
CONTINUOUS
 10
4.0
 20
29.6603836124
 30
0.0
 40
0.5
100
AcDbArc
 50
334.1580672368
 51
25.8419327632
  0
ARC
  5
4EF
100
AcDbEntity
  8
0
100
AcDbCircle
 62
7
  6
CONTINUOUS
 10
10.6492655268
 20
28.4105641165
 30
0.0
 40
0.4998398178
100
AcDbArc
 50
359.9530782656
 51
89.9722221811
  0
ARC
  5
4F0
100
AcDbEntity
  8
RACCORDO
100
AcDbCircle
 62
7
  6
CONTINUOUS
 10
8.9501750444
 20
22.5082324835
 30
0.0
 40
0.4997785024
100
AcDbArc
 50
299.9903483953
 51
348.0089145427
  0
ARC
  5
4F1
100
AcDbEntity
  8
RACCORDO
100
AcDbCircle
 62
7
  6
CONTINUOUS
 10
8.9498886782
 20
22.5067074444
 30
0.0
 40
0.4983053509
100
AcDbArc
 50
270.0127995901
 51
276.0327084136
  0
ARC
  5
4F2
100
AcDbEntity
  8
RACCORDO
100
AcDbCircle
 62
250
  6
CONTINUOUS
 10
8.9348389803
 20
22.52537303
 30
0.0
 40
0.4007851795
100
AcDbArc
 50
270.0232365776
 51
359.9008273488
  0
ARC
  5
4F3
100
AcDbEntity
  8
RACCORDO
100
AcDbCircle
 62
7
  6
CONTINUOUS
 10
9.1498807912
 20
22.3577945341
 30
0.0
 40
0.3030779387
100
AcDbArc
 50
271.9360688933
 51
283.9429412832
  0
ARC
  5
4F4
100
AcDbEntity
  8
RACCORDO
100
AcDbCircle
 62
7
  6
CONTINUOUS
 10
9.1529088292
 20
22.352686598
 30
0.0
 40
0.2970912404
100
AcDbArc
 50
344.1921973971
 51
359.9607763715
  0
ARC
  5
4F5
100
AcDbEntity
  8
RACCORDO
100
AcDbCircle
 62
7
  6
CONTINUOUS
 10
9.1545881753
 20
22.3159460455
 30
0.0
 40
0.2954118256
100
AcDbArc
 50
355.3333533038
 51
359.9954161985
  0
ARC
  5
4F6
100
AcDbEntity
  8
0
100
AcDbCircle
 62
7
  6
CONTINUOUS
 10
9.8999774933
 20
30.7600067365
 30
0.0
 40
0.2503768773
100
AcDbArc
 50
81.8245330495
 51
89.9938814446
  0
ARC
  5
4F7
100
AcDbEntity
  8
0
100
AcDbCircle
 62
7
  6
CONTINUOUS
 10
7.5003768759
 20
30.7603611057
 30
0.0
 40
0.2503768773
100
AcDbArc
 50
171.8245330495
 51
179.9938814446
  0
ARC
  5
4F8
100
AcDbEntity
  8
0
100
AcDbCircle
 62
7
  6
CONTINUOUS
 10
9.8868948038
 20
30.7472784162
 30
0.0
 40
0.2500066177
100
AcDbArc
 50
0.0024861811
 51
89.9975138189
  0
ARC
  5
4F9
100
AcDbEntity
  8
0
100
AcDbCircle
 62
7
  6
CONTINUOUS
 10
7.5131051962
 20
30.7472784162
 30
0.0
 40
0.2500066177
100
AcDbArc
 50
90.0024861811
 51
179.9975138189
  0
ARC
  5
4FA
100
AcDbEntity
  8
RACCORDO
100
AcDbCircle
 62
250
  6
CONTINUOUS
 10
9.6926592094
 20
28.3705387915
 30
0.0
 40
0.2000647084
100
AcDbArc
 50
90.0246492322
 51
179.9006606456
  0
ARC
  5
4FB
100
AcDbEntity
  8
0
100
AcDbCircle
 62
7
  6
CONTINUOUS
 10
1.2000016924
 20
30.31038192
 30
0.0
 40
0.2000016924
100
AcDbArc
 50
90.0004848234
 51
180.0004848094
  0
ARC
  5
4FC
100
AcDbEntity
  8
0
100
AcDbCircle
 62
7
  6
CONTINUOUS
 10
1.1999988155
 20
30.3086326786
 30
0.0
 40
0.1999988155
100
AcDbArc
 50
89.9996606734
 51
179.9993696938
  0
ARC
  5
4FD
100
AcDbEntity
  8
RACCORDO
100
AcDbCircle
 62
250
  6
CONTINUOUS
 10
7.0573557351
 20
29.0452291464
 30
0.0
 40
0.1999348843
100
AcDbArc
 50
269.9794819183
 51
359.937526673
  0
ARC
  5
4FE
100
AcDbEntity
  8
RACCORDO
100
AcDbCircle
 62
250
  6
CONTINUOUS
 10
10.3426442663
 20
29.045229145
 30
0.0
 40
0.1999348842
100
AcDbArc
 50
180.0624729367
 51
270.0205177
  0
ARC
  5
4FF
100
AcDbEntity
  8
RACCORDO
100
AcDbCircle
 62
250
  6
CONTINUOUS
 10
9.3386383206
 20
28.4696734827
 30
0.0
 40
0.0989565674
100
AcDbArc
 50
79.8823949931
 51
89.9900672643
  0
SPLINE
  5
500
100
AcDbEntity
  8
RACCORDO
100
AcDbSpline
 62
250
  6
CONTINUOUS
 70
0
 71
3
 72
17
 73
13
 74
0
 42
0.0000001
 43
0.0000001
 44
0.0000000001
 40
0.0
 40
0.0
 40
0.0
 40
0.0
 40
0.004880697
 40
0.0193135482
 40
0.043134469
 40
0.0761644045
 40
0.1181627108
 40
0.1686485607
 40
0.2929189297
 40
0.4443739113
 40
0.6173187392
 40
1.0
 40
1.0
 40
1.0
 40
1.0
 10
-49.3146431267
 20
-15.8245180233
 30
0.0
 10
-49.3143182701
 20
-15.8245350483
 30
0.0
 10
-49.314948609
 20
-15.8265616876
 30
0.0
 10
-49.3143888355
 20
-15.8287300687
 30
0.0
 10
-49.314880731
 20
-15.833876871
 30
0.0
 10
-49.31497137
 20
-15.8402872462
 30
0.0
 10
-49.3153667682
 20
-15.8487122077
 30
0.0
 10
-49.3159591663
 20
-15.8631153115
 30
0.0
 10
-49.3169672163
 20
-15.8848541126
 30
0.0
 10
-49.3183872145
 20
-15.9147165106
 30
0.0
 10
-49.3207139978
 20
-15.9617899883
 30
0.0
 10
-49.3226119352
 20
-15.9987728734
 30
0.0
 10
-49.3239467716
 20
-16.0242439302
 30
0.0
  0
SPLINE
  5
501
100
AcDbEntity
  8
RACCORDO
100
AcDbSpline
 62
250
  6
CONTINUOUS
 70
0
 71
3
 72
18
 73
14
 74
0
 42
0.0000001
 43
0.0000001
 44
0.0000000001
 40
0.0
 40
0.0
 40
0.0
 40
0.0
 40
0.1946620035
 40
0.3826325103
 40
0.5555640559
 40
0.7070119444
 40
0.8312806901
 40
0.8817677751
 40
0.9237688071
 40
0.9568033653
 40
0.9806318202
 40
0.9950781992
 40
1.0
 40
1.0
 40
1.0
 40
1.0
 10
-45.968129071
 20
24.1060468331
 30
0.0
 10
-45.9679592141
 20
24.0865799452
 30
0.0
 10
-45.9676580081
 20
24.0483147626
 30
0.0
 10
-45.9673171599
 20
23.9927565173
 30
0.0
 10
-45.9671008974
 20
23.9415142484
 30
0.0
 10
-45.96702947
 20
23.8966580702
 30
0.0
 10
-45.9670550467
 20
23.8640060916
 30
0.0
 10
-45.9672075241
 20
23.8423755057
 30
0.0
 10
-45.9672535184
 20
23.8297221857
 30
0.0
 10
-45.9675835537
 20
23.8201001151
 30
0.0
 10
-45.9673323609
 20
23.8123651193
 30
0.0
 10
-45.9682594152
 20
23.8091243923
 30
0.0
 10
-45.9676368727
 20
23.8060625515
 30
0.0
 10
-45.9681290702
 20
23.8060582562
 30
0.0
  0
SPLINE
  5
502
100
AcDbEntity
  8
0
100
AcDbSpline
 62
250
  6
CONTINUOUS
 70
0
 71
3
 72
21
 73
17
 74
0
 42
0.0000001
 43
0.0000001
 44
0.0000000001
 40
0.0
 40
0.0
 40
0.0
 40
0.0
 40
0.1960040787
 40
0.3839724967
 40
0.5568497317
 40
0.7081347447
 40
0.7738642455
 40
0.8321384196
 40
0.8824088885
 40
0.9242017452
 40
0.9571224524
 40
0.9808619046
 40
0.9892162293
 40
0.9951976704
 40
0.9987935873
 40
1.0
 40
1.0
 40
1.0
 40
1.0
 10
-55.0065292773
 20
-14.6257743371
 30
0.0
 10
-55.0382742067
 20
-14.6305630962
 30
0.0
 10
-55.1004602567
 20
-14.6399597575
 30
0.0
 10
-55.1906375601
 20
-14.653633853
 30
0.0
 10
-55.2735652709
 20
-14.6662586202
 30
0.0
 10
-55.3366932247
 20
-14.675914325
 30
0.0
 10
-55.3812587233
 20
-14.6827674841
 30
0.0
 10
-55.4094720523
 20
-14.6871216533
 30
0.0
 10
-55.4337966347
 20
-14.6909036961
 30
0.0
 10
-55.4540456367
 20
-14.6940526651
 30
0.0
 10
-55.469913125
 20
-14.6966058763
 30
0.0
 10
-55.4805542893
 20
-14.698221928
 30
0.0
 10
-55.4865348289
 20
-14.6993410733
 30
0.0
 10
-55.4897139826
 20
-14.6996723603
 30
0.0
 10
-55.4909484876
 20
-14.7002798834
 30
0.0
 10
-55.4922418546
 20
-14.7001384397
 30
0.0
 10
-55.4922123871
 20
-14.7003338321
 30
0.0
  0
SPLINE
  5
503
100
AcDbEntity
  8
RACCORDO
100
AcDbSpline
 62
250
  6
CONTINUOUS
 70
0
 71
3
 72
10
 73
6
 74
0
 42
0.0000001
 43
0.0000001
 44
0.0000000001
 40
0.0
 40
0.0
 40
0.0
 40
0.0
 40
0.3564341094
 40
0.6474399343
 40
1.0
 40
1.0
 40
1.0
 40
1.0
 10
-44.8723940361
 20
-1.5378486545
 30
0.0
 10
-44.8735475232
 20
-1.5295479265
 30
0.0
 10
-44.8766250156
 20
-1.5142896971
 30
0.0
 10
-44.8836783536
 20
-1.4930683322
 30
0.0
 10
-44.8949265686
 20
-1.4775619717
 30
0.0
 10
-44.9032156566
 20
-1.477489634
 30
0.0
  0
SPLINE
  5
504
100
AcDbEntity
  8
RACCORDO
100
AcDbSpline
 62
250
  6
CONTINUOUS
 70
0
 71
3
 72
11
 73
7
 74
0
 42
0.0000001
 43
0.0000001
 44
0.0000000001
 40
0.0
 40
0.0
 40
0.0
 40
0.0
 40
0.1362598894
 40
0.3552076447
 40
0.6551272453
 40
1.0
 40
1.0
 40
1.0
 40
1.0
 10
-44.9032156566
 20
13.7982568587
 30
0.0
 10
-44.8981824846
 20
13.7983007826
 30
0.0
 10
-44.8864956215
 20
13.8077856543
 30
0.0
 10
-44.8777090148
 20
13.8302122226
 30
0.0
 10
-44.871037549
 20
13.8616589177
 30
0.0
 10
-44.8697881286
 20
13.8855140237
 30
0.0
 10
-44.8698862958
 20
13.898253051
 30
0.0
  0
SPLINE
  5
505
100
AcDbEntity
  8
0
100
AcDbSpline
 62
250
  6
CONTINUOUS
 70
0
 71
3
 72
18
 73
14
 74
0
 42
0.0000001
 43
0.0000001
 44
0.0000000001
 40
0.0
 40
0.0
 40
0.0
 40
0.0
 40
0.1950220847
 40
0.382520891
 40
0.5553089099
 40
0.7067548749
 40
0.8310516349
 40
0.8814847718
 40
0.9234376129
 40
0.9565109274
 40
0.9803951882
 40
0.9948849429
 40
1.0
 40
1.0
 40
1.0
 40
1.0
 10
-54.5384004372
 20
-15.0505236511
 30
0.0
 10
-54.5401012352
 20
-15.0829730139
 30
0.0
 10
-54.5433304729
 20
-15.1466260304
 30
0.0
 10
-54.5476935448
 20
-15.2390451593
 30
0.0
 10
-54.5513789369
 20
-15.3242346596
 30
0.0
 10
-54.5542300786
 20
-15.3988957793
 30
0.0
 10
-54.555979825
 20
-15.4532571228
 30
0.0
 10
-54.5567937245
 20
-15.4892838699
 30
0.0
 10
-54.5571915963
 20
-15.5103294228
 30
0.0
 10
-54.557095696
 20
-15.5264302746
 30
0.0
 10
-54.5573371205
 20
-15.5392064047
 30
0.0
 10
-54.5562650522
 20
-15.5448892987
 30
0.0
 10
-54.556580493
 20
-15.5497997268
 30
0.0
 10
-54.5557294079
 20
-15.5498443303
 30
0.0
  0
SPLINE
  5
506
100
AcDbEntity
  8
0
100
AcDbSpline
 62
250
  6
CONTINUOUS
 70
0
 71
3
 72
21
 73
17
 74
0
 42
0.0000001
 43
0.0000001
 44
0.0000000001
 40
0.0
 40
0.0
 40
0.0
 40
0.0
 40
0.1960040309
 40
0.3839724185
 40
0.5568496434
 40
0.708134665
 40
0.7738641754
 40
0.8321383615
 40
0.8824088435
 40
0.9242017133
 40
0.9571224324
 40
0.9808618944
 40
0.9892162229
 40
0.995197667
 40
0.9987935861
 40
1.0
 40
1.0
 40
1.0
 40
1.0
 10
-55.0065292773
 20
27.6465415619
 30
0.0
 10
-55.0382742191
 20
27.6513303228
 30
0.0
 10
-55.1004602958
 20
27.660726988
 30
0.0
 10
-55.1906376421
 20
27.6744010898
 30
0.0
 10
-55.2735654002
 20
27.6870258641
 30
0.0
 10
-55.3366933954
 20
27.6966815751
 30
0.0
 10
-55.3812589271
 20
27.7035347391
 30
0.0
 10
-55.4094722796
 20
27.7078889119
 30
0.0
 10
-55.4337968836
 20
27.711670958
 30
0.0
 10
-55.4540459044
 20
27.7148199299
 30
0.0
 10
-55.4699134088
 20
27.7173731436
 30
0.0
 10
-55.4805545833
 20
27.7189891968
 30
0.0
 10
-55.4865351302
 20
27.7201083434
 30
0.0
 10
-55.489714286
 20
27.7204396305
 30
0.0
 10
-55.4909487953
 20
27.7210471548
 30
0.0
 10
-55.4922421611
 20
27.7209057103
 30
0.0
 10
-55.4922126949
 20
27.7211011033
 30
0.0
  0
SPLINE
  5
507
100
AcDbEntity
  8
0
100
AcDbSpline
 62
250
  6
CONTINUOUS
 70
0
 71
3
 72
18
 73
14
 74
0
 42
0.0000001
 43
0.0000001
 44
0.0000000001
 40
0.0
 40
0.0
 40
0.0
 40
0.0
 40
0.195025774
 40
0.3825281264
 40
0.5553193019
 40
0.7067677299
 40
0.8310660366
 40
0.8814994861
 40
0.9234522339
 40
0.9565249186
 40
0.9804077443
 40
0.9948944853
 40
1.0
 40
1.0
 40
1.0
 40
1.0
 10
-54.538287633
 20
28.0712967876
 30
0.0
 10
-54.5399877161
 20
28.1037461887
 30
0.0
 10
-54.5432154332
 20
28.1673992862
 30
0.0
 10
-54.5475768566
 20
28.2598184634
 30
0.0
 10
-54.5512669025
 20
28.3450076945
 30
0.0
 10
-54.5541316686
 20
28.419667965
 30
0.0
 10
-54.5558972937
 20
28.4740287015
 30
0.0
 10
-54.5567257124
 20
28.5100543466
 30
0.0
 10
-54.5571368137
 20
28.5310999862
 30
0.0
 10
-54.5570487779
 20
28.5471981352
 30
0.0
 10
-54.5573126418
 20
28.5599777425
 30
0.0
 10
-54.55623498
 20
28.565651251
 30
0.0
 10
-54.5565788892
 20
28.5705670356
 30
0.0
 10
-54.5557294079
 20
28.570611555
 30
0.0
  0
SPLINE
  5
508
100
AcDbEntity
  8
0
100
AcDbSpline
 62
250
  6
CONTINUOUS
 70
0
 71
3
 72
18
 73
14
 74
0
 42
0.0000001
 43
0.0000001
 44
0.0000000001
 40
0.0
 40
0.0
 40
0.0
 40
0.0
 40
0.0048493077
 40
0.0192588381
 40
0.0431074984
 40
0.0761706834
 40
0.1181293095
 40
0.1685788231
 40
0.2929363137
 40
0.4444634096
 40
0.6173401888
 40
0.8049155869
 40
1.0
 40
1.0
 40
1.0
 40
1.0
 10
-47.321037906
 20
31.0060117784
 30
0.0
 10
-47.3206337904
 20
31.0060094273
 30
0.0
 10
-47.3212968621
 20
31.0034499068
 30
0.0
 10
-47.3204745955
 20
31.0007760575
 30
0.0
 10
-47.3207893038
 20
30.9943148869
 30
0.0
 10
-47.3205301831
 20
30.986301833
 30
0.0
 10
-47.3205333977
 20
30.9757597172
 30
0.0
 10
-47.3204351823
 20
30.9577350952
 30
0.0
 10
-47.3204295564
 20
30.9305147189
 30
0.0
 10
-47.3204656299
 20
30.8931268921
 30
0.0
 10
-47.3205870908
 20
30.850457338
 30
0.0
 10
-47.3207755326
 20
30.8041624979
 30
0.0
 10
-47.320943327
 20
30.7722733086
 30
0.0
 10
-47.321037906
 20
30.7560160092
 30
0.0
  0
SPLINE
  5
509
100
AcDbEntity
  8
0
100
AcDbSpline
 62
250
  6
CONTINUOUS
 70
0
 71
3
 72
18
 73
14
 74
0
 42
0.0000001
 43
0.0000001
 44
0.0000000001
 40
0.0
 40
0.0
 40
0.0
 40
0.0
 40
0.0048493403
 40
0.0192588914
 40
0.0431075766
 40
0.0761707882
 40
0.1181294242
 40
0.1685789461
 40
0.2929364439
 40
0.4444635275
 40
0.6173402736
 40
0.8049156347
 40
1.0
 40
1.0
 40
1.0
 40
1.0
 10
-50.3239467716
 20
30.9972850337
 30
0.0
 10
-50.3243508899
 20
30.9972826826
 30
0.0
 10
-50.3236878141
 20
30.9947231541
 30
0.0
 10
-50.3245100832
 20
30.9920492991
 30
0.0
 10
-50.3241953737
 20
30.9855881225
 30
0.0
 10
-50.3244544947
 20
30.9775750634
 30
0.0
 10
-50.32445128
 20
30.967032944
 30
0.0
 10
-50.3245494954
 20
30.9490083198
 30
0.0
 10
-50.3245551212
 20
30.9217879433
 30
0.0
 10
-50.3245190476
 20
30.8844001197
 30
0.0
 10
-50.3243975867
 20
30.8417305724
 30
0.0
 10
-50.3242091449
 20
30.7954357421
 30
0.0
 10
-50.3240413506
 20
30.7635465599
 30
0.0
 10
-50.3239467716
 20
30.7472892645
 30
0.0
  0
SPLINE
  5
50A
100
AcDbEntity
  8
RACCORDO
100
AcDbSpline
 62
250
  6
CONTINUOUS
 70
0
 71
3
 72
15
 73
11
 74
0
 42
0.0000001
 43
0.0000001
 44
0.0000000001
 40
0.0
 40
0.0
 40
0.0
 40
0.0
 40
0.0194951351
 40
0.043392307
 40
0.0763825317
 40
0.1685791009
 40
0.2928795751
 40
0.4443819043
 40
0.6178559461
 40
1.0
 40
1.0
 40
1.0
 40
1.0
 10
-44.9698743781
 20
0.5230920879
 30
0.0
 10
-44.969224534
 20
0.5230864168
 30
0.0
 10
-44.9700202407
 20
0.5206401274
 30
0.0
 10
-44.9695241089
 20
0.5186026571
 30
0.0
 10
-44.9696917429
 20
0.5133519371
 30
0.0
 10
-44.9694651352
 20
0.5052388662
 30
0.0
 10
-44.969527121
 20
0.4928780812
 30
0.0
 10
-44.9695249748
 20
0.4779352112
 30
0.0
 10
-44.9696366968
 20
0.4543493615
 30
0.0
 10
-44.9697632346
 20
0.4358341537
 30
0.0
 10
-44.9698743781
 20
0.4230958956
 30
0.0
  0
SPLINE
  5
50B
100
AcDbEntity
  8
RACCORDO
100
AcDbSpline
 62
250
  6
CONTINUOUS
 70
0
 71
3
 72
17
 73
13
 74
0
 42
0.0000001
 43
0.0000001
 44
0.0000000001
 40
0.0
 40
0.0
 40
0.0
 40
0.0
 40
0.0048806944
 40
0.0193135399
 40
0.0431344547
 40
0.0761643866
 40
0.1181626884
 40
0.1686485296
 40
0.2929188855
 40
0.4443738653
 40
0.6173187067
 40
1.0
 40
1.0
 40
1.0
 40
1.0
 10
-49.3146431267
 20
28.8452852481
 30
0.0
 10
-49.3143182703
 20
28.8453022731
 30
0.0
 10
-49.3149486089
 20
28.8473289115
 30
0.0
 10
-49.3143888356
 20
28.8494972918
 30
0.0
 10
-49.3148807311
 20
28.8546440931
 30
0.0
 10
-49.3149713701
 20
28.8610544673
 30
0.0
 10
-49.3153667682
 20
28.8694794277
 30
0.0
 10
-49.3159591662
 20
28.8838825297
 30
0.0
 10
-49.3169672161
 20
28.9056213293
 30
0.0
 10
-49.3183872143
 20
28.9354837272
 30
0.0
 10
-49.3207139976
 20
28.9825572079
 30
0.0
 10
-49.3226119352
 20
29.019540096
 30
0.0
 10
-49.3239467716
 20
29.045011155
 30
0.0
  0
SPLINE
  5
50C
100
AcDbEntity
  8
RACCORDO
100
AcDbSpline
 62
250
  6
CONTINUOUS
 70
0
 71
3
 72
11
 73
7
 74
0
 42
0.0000001
 43
0.0000001
 44
0.0000000001
 40
0.0
 40
0.0
 40
0.0
 40
0.0
 40
0.3448727575
 40
0.6447923605
 40
0.8637401133
 40
1.0
 40
1.0
 40
1.0
 40
1.0
 10
-44.8698862958
 20
-2.201746949
 30
0.0
 10
-44.8697881286
 20
-2.2144859764
 30
0.0
 10
-44.8710375492
 20
-2.2383410826
 30
0.0
 10
-44.877709015
 20
-2.2697877778
 30
0.0
 10
-44.8864956216
 20
-2.2922143461
 30
0.0
 10
-44.8981824847
 20
-2.3016992174
 30
0.0
 10
-44.9032156566
 20
-2.3017431413
 30
0.0
  0
SPLINE
  5
50D
100
AcDbEntity
  8
0
100
AcDbSpline
 62
250
  6
CONTINUOUS
 70
0
 71
3
 72
18
 73
14
 74
0
 42
0.0000001
 43
0.0000001
 44
0.0000000001
 40
0.0
 40
0.0
 40
0.0
 40
0.0
 40
0.1952405613
 40
0.3828830438
 40
0.5557614221
 40
0.7072487303
 40
0.8315476478
 40
0.8819670588
 40
0.9238978066
 40
0.9569369937
 40
0.9807666948
 40
0.9951626579
 40
1.0
 40
1.0
 40
1.0
 40
1.0
 10
-50.3239467716
 20
30.3547211797
 30
0.0
 10
-50.332058335
 20
30.3406710643
 30
0.0
 10
-50.3479527057
 20
30.3131097745
 30
0.0
 10
-50.370981544
 20
30.2730814393
 30
0.0
 10
-50.3921609637
 20
30.236178474
 30
0.0
 10
-50.4106593205
 20
30.2038213165
 30
0.0
 10
-50.4241046882
 20
30.1802561093
 30
0.0
 10
-50.432928921
 20
30.1646100878
 30
0.0
 10
-50.4381480187
 20
30.1554929703
 30
0.0
 10
-50.4418835668
 20
30.148433252
 30
0.0
 10
-50.445372404
 20
30.1430090508
 30
0.0
 10
-50.4459657473
 20
30.1402862784
 30
0.0
 10
-50.447840446
 20
30.1384158085
 30
0.0
 10
-50.4474923388
 20
30.1382148287
 30
0.0
  0
SPLINE
  5
50E
100
AcDbEntity
  8
0
100
AcDbSpline
 62
7
  6
CONTINUOUS
 70
0
 71
3
 72
9
 73
5
 74
0
 42
0.0000001
 43
0.0000001
 44
0.0000000001
 40
0.0
 40
0.0
 40
0.0
 40
0.0
 40
0.0871592849
 40
1.0
 40
1.0
 40
1.0
 40
1.0
 10
-49.5724923388
 20
29.6330333432
 30
0.0
 10
-49.5653174746
 20
29.6373054921
 30
0.0
 10
-49.4829167495
 20
29.686181707
 30
0.0
 10
-49.3996849896
 20
29.7336423199
 30
0.0
 10
-49.3239467716
 20
29.7773709105
 30
0.0
  0
SPLINE
  5
50F
100
AcDbEntity
  8
RACCORDO
100
AcDbSpline
 62
250
  6
CONTINUOUS
 70
0
 71
3
 72
11
 73
7
 74
0
 42
0.0000001
 43
0.0000001
 44
0.0000000001
 40
0.0
 40
0.0
 40
0.0
 40
0.0
 40
0.1362598802
 40
0.3552076262
 40
0.6551272354
 40
1.0
 40
1.0
 40
1.0
 40
1.0
 10
-44.9032156566
 20
18.922510366
 30
0.0
 10
-44.8981824849
 20
18.9224664422
 30
0.0
 10
-44.8864956219
 20
18.912981572
 30
0.0
 10
-44.8777090155
 20
18.8905550034
 30
0.0
 10
-44.8710375494
 20
18.8591083082
 30
0.0
 10
-44.8697881286
 20
18.8352532014
 30
0.0
 10
-44.8698862958
 20
18.8225141737
 30
0.0
  0
SPLINE
  5
510
100
AcDbEntity
  8
0
100
AcDbSpline
 62
250
  6
CONTINUOUS
 70
0
 71
3
 72
18
 73
14
 74
0
 42
0.0000001
 43
0.0000001
 44
0.0000000001
 40
0.0
 40
0.0
 40
0.0
 40
0.0
 40
0.1952405676
 40
0.3828830559
 40
0.5557614396
 40
0.7072487501
 40
0.8315476671
 40
0.8819670769
 40
0.9238978235
 40
0.9569370065
 40
0.9807667037
 40
0.9951626634
 40
1.0
 40
1.0
 40
1.0
 40
1.0
 10
-47.321037906
 20
30.3547211797
 30
0.0
 10
-47.3129263423
 20
30.3406710638
 30
0.0
 10
-47.2970319711
 20
30.3131097732
 30
0.0
 10
-47.2740031321
 20
30.2730814367
 30
0.0
 10
-47.2528237118
 20
30.2361784704
 30
0.0
 10
-47.2343253548
 20
30.2038213125
 30
0.0
 10
-47.220879987
 20
30.1802561052
 30
0.0
 10
-47.2120557544
 20
30.1646100839
 30
0.0
 10
-47.206836657
 20
30.1554929668
 30
0.0
 10
-47.2031011092
 20
30.1484332493
 30
0.0
 10
-47.1996122726
 20
30.1430090488
 30
0.0
 10
-47.1990189295
 20
30.1402862774
 30
0.0
 10
-47.197144232
 20
30.1384158083
 30
0.0
 10
-47.1974923388
 20
30.1382148287
 30
0.0
  0
SPLINE
  5
511
100
AcDbEntity
  8
RACCORDO
100
AcDbSpline
 62
250
  6
CONTINUOUS
 70
0
 71
3
 72
11
 73
7
 74
0
 42
0.0000001
 43
0.0000001
 44
0.0000000001
 40
0.0
 40
0.0
 40
0.0
 40
0.0
 40
0.1362598894
 40
0.3552076447
 40
0.6551272453
 40
1.0
 40
1.0
 40
1.0
 40
1.0
 10
-44.9032156566
 20
6.0982568587
 30
0.0
 10
-44.8981824846
 20
6.0983007826
 30
0.0
 10
-44.8864956215
 20
6.1077856543
 30
0.0
 10
-44.8777090148
 20
6.1302122226
 30
0.0
 10
-44.871037549
 20
6.1616589177
 30
0.0
 10
-44.8697881286
 20
6.1855140237
 30
0.0
 10
-44.8698862958
 20
6.198253051
 30
0.0
  0
SPLINE
  5
512
100
AcDbEntity
  8
RACCORDO
100
AcDbSpline
 62
250
  6
CONTINUOUS
 70
0
 71
3
 72
11
 73
7
 74
0
 42
0.0000001
 43
0.0000001
 44
0.0000000001
 40
0.0
 40
0.0
 40
0.0
 40
0.0
 40
0.1362598802
 40
0.3552076262
 40
0.6551272354
 40
1.0
 40
1.0
 40
1.0
 40
1.0
 10
-44.9032156566
 20
6.922510366
 30
0.0
 10
-44.8981824849
 20
6.9224664422
 30
0.0
 10
-44.8864956219
 20
6.912981572
 30
0.0
 10
-44.8777090155
 20
6.8905550034
 30
0.0
 10
-44.8710375494
 20
6.8591083082
 30
0.0
 10
-44.8697881286
 20
6.8352532014
 30
0.0
 10
-44.8698862958
 20
6.8225141737
 30
0.0
  0
SPLINE
  5
513
100
AcDbEntity
  8
0
100
AcDbSpline
 62
250
  6
CONTINUOUS
 70
0
 71
3
 72
18
 73
14
 74
0
 42
0.0000001
 43
0.0000001
 44
0.0000000001
 40
0.0
 40
0.0
 40
0.0
 40
0.0
 40
0.1950844131
 40
0.3826598112
 40
0.5555365904
 40
0.7070636863
 40
0.8314211769
 40
0.8818706905
 40
0.9238293166
 40
0.9568925016
 40
0.9807411619
 40
0.9951506923
 40
1.0
 40
1.0
 40
1.0
 40
1.0
 10
-47.321037906
 20
-17.7352487844
 30
0.0
 10
-47.320943327
 20
-17.7515060838
 30
0.0
 10
-47.3207755326
 20
-17.7833952731
 30
0.0
 10
-47.3205870908
 20
-17.8296901133
 30
0.0
 10
-47.3204656299
 20
-17.8723596674
 30
0.0
 10
-47.3204295564
 20
-17.9097474942
 30
0.0
 10
-47.3204351823
 20
-17.9369678705
 30
0.0
 10
-47.3205333977
 20
-17.9549924925
 30
0.0
 10
-47.3205301831
 20
-17.9655346083
 30
0.0
 10
-47.3207893038
 20
-17.9735476622
 30
0.0
 10
-47.3204745955
 20
-17.9800088327
 30
0.0
 10
-47.3212968621
 20
-17.982682682
 30
0.0
 10
-47.3206337904
 20
-17.9852422025
 30
0.0
 10
-47.321037906
 20
-17.9852445536
 30
0.0
  0
SPLINE
  5
514
100
AcDbEntity
  8
0
100
AcDbSpline
 62
250
  6
CONTINUOUS
 70
0
 71
3
 72
18
 73
14
 74
0
 42
0.0000001
 43
0.0000001
 44
0.0000000001
 40
0.0
 40
0.0
 40
0.0
 40
0.0
 40
0.1950843653
 40
0.3826597264
 40
0.5555364725
 40
0.7070635561
 40
0.8314210539
 40
0.8818705758
 40
0.9238292118
 40
0.9568924234
 40
0.9807411086
 40
0.9951506597
 40
1.0
 40
1.0
 40
1.0
 40
1.0
 10
-50.3239467716
 20
-17.7265220397
 30
0.0
 10
-50.3240413506
 20
-17.7427793351
 30
0.0
 10
-50.3242091449
 20
-17.7746685174
 30
0.0
 10
-50.3243975867
 20
-17.8209633477
 30
0.0
 10
-50.3245190476
 20
-17.8636328949
 30
0.0
 10
-50.3245551212
 20
-17.9010207185
 30
0.0
 10
-50.3245494954
 20
-17.928241095
 30
0.0
 10
-50.32445128
 20
-17.9462657192
 30
0.0
 10
-50.3244544947
 20
-17.9568078386
 30
0.0
 10
-50.3241953737
 20
-17.9648208978
 30
0.0
 10
-50.3245100832
 20
-17.9712820743
 30
0.0
 10
-50.3236878141
 20
-17.9739559293
 30
0.0
 10
-50.3243508899
 20
-17.9765154578
 30
0.0
 10
-50.3239467716
 20
-17.9765178089
 30
0.0
  0
SPLINE
  5
515
100
AcDbEntity
  8
0
100
AcDbSpline
 62
250
  6
CONTINUOUS
 70
0
 71
3
 72
18
 73
14
 74
0
 42
0.0000001
 43
0.0000001
 44
0.0000000001
 40
0.0
 40
0.0
 40
0.0
 40
0.0
 40
0.1952405676
 40
0.3828830559
 40
0.5557614396
 40
0.7072487501
 40
0.8315476671
 40
0.8819670769
 40
0.9238978235
 40
0.9569370065
 40
0.9807667037
 40
0.9951626634
 40
1.0
 40
1.0
 40
1.0
 40
1.0
 10
-50.3239467716
 20
-17.3339539549
 30
0.0
 10
-50.3320583353
 20
-17.319903839
 30
0.0
 10
-50.3479527065
 20
-17.2923425484
 30
0.0
 10
-50.3709815455
 20
-17.252314212
 30
0.0
 10
-50.3921609658
 20
-17.2154112457
 30
0.0
 10
-50.4106593228
 20
-17.1830540877
 30
0.0
 10
-50.4241046906
 20
-17.1594888804
 30
0.0
 10
-50.4329289232
 20
-17.1438428591
 30
0.0
 10
-50.4381480206
 20
-17.134725742
 30
0.0
 10
-50.4418835684
 20
-17.1276660245
 30
0.0
 10
-50.445372405
 20
-17.122241824
 30
0.0
 10
-50.4459657481
 20
-17.1195190526
 30
0.0
 10
-50.4478404456
 20
-17.1176485835
 30
0.0
 10
-50.4474923388
 20
-17.117447604
 30
0.0
  0
SPLINE
  5
516
100
AcDbEntity
  8
0
100
AcDbSpline
 62
250
  6
CONTINUOUS
 70
0
 71
3
 72
18
 73
14
 74
0
 42
0.0000001
 43
0.0000001
 44
0.0000000001
 40
0.0
 40
0.0
 40
0.0
 40
0.0
 40
0.1952405613
 40
0.3828830438
 40
0.5557614221
 40
0.7072487303
 40
0.8315476478
 40
0.8819670588
 40
0.9238978066
 40
0.9569369937
 40
0.9807666948
 40
0.9951626579
 40
1.0
 40
1.0
 40
1.0
 40
1.0
 10
-47.321037906
 20
-17.3339539549
 30
0.0
 10
-47.3129263426
 20
-17.3199038395
 30
0.0
 10
-47.2970319718
 20
-17.2923425497
 30
0.0
 10
-47.2740031335
 20
-17.2523142146
 30
0.0
 10
-47.2528237139
 20
-17.2154112492
 30
0.0
 10
-47.2343253571
 20
-17.1830540918
 30
0.0
 10
-47.2208799894
 20
-17.1594888845
 30
0.0
 10
-47.2120557566
 20
-17.143842863
 30
0.0
 10
-47.2068366589
 20
-17.1347257455
 30
0.0
 10
-47.2031011108
 20
-17.1276660273
 30
0.0
 10
-47.1996122736
 20
-17.122241826
 30
0.0
 10
-47.1990189303
 20
-17.1195190536
 30
0.0
 10
-47.1971442316
 20
-17.1176485837
 30
0.0
 10
-47.1974923388
 20
-17.117447604
 30
0.0
  0
SPLINE
  5
517
100
AcDbEntity
  8
RACCORDO
100
AcDbSpline
 62
250
  6
CONTINUOUS
 70
0
 71
3
 72
11
 73
7
 74
0
 42
0.0000001
 43
0.0000001
 44
0.0000000001
 40
0.0
 40
0.0
 40
0.0
 40
0.0
 40
0.1362598802
 40
0.3552076262
 40
0.6551272354
 40
1.0
 40
1.0
 40
1.0
 40
1.0
 10
-44.9032156566
 20
14.622510366
 30
0.0
 10
-44.8981824849
 20
14.6224664422
 30
0.0
 10
-44.8864956219
 20
14.612981572
 30
0.0
 10
-44.8777090155
 20
14.5905550034
 30
0.0
 10
-44.8710375494
 20
14.5591083082
 30
0.0
 10
-44.8697881286
 20
14.5352532014
 30
0.0
 10
-44.8698862958
 20
14.5225141737
 30
0.0
  0
SPLINE
  5
518
100
AcDbEntity
  8
RACCORDO
100
AcDbSpline
 62
7
  6
CONTINUOUS
 70
0
 71
3
 72
8
 73
4
 74
0
 42
0.0000001
 43
0.0000001
 44
0.0000000001
 40
0.0
 40
0.0
 40
0.0
 40
0.0
 40
1.0
 40
1.0
 40
1.0
 40
1.0
 10
9.1999913824
 20
22.0753695159
 30
0.0
 10
9.1399720741
 20
22.0407284753
 30
0.0
 10
9.0711747631
 20
22.0184343216
 30
0.0
 10
9.0022586712
 20
22.011161678
 30
0.0
  0
SPLINE
  5
519
100
AcDbEntity
  8
RACCORDO
100
AcDbSpline
 62
7
  6
CONTINUOUS
 70
0
 71
3
 72
8
 73
4
 74
0
 42
0.0000001
 43
0.0000001
 44
0.0000000001
 40
0.0
 40
0.0
 40
0.0
 40
0.0
 40
1.0
 40
1.0
 40
1.0
 40
1.0
 10
-9.1999913824
 20
22.0753695159
 30
0.0
 10
-9.1399720741
 20
22.0407284753
 30
0.0
 10
-9.0711747631
 20
22.0184343216
 30
0.0
 10
-9.0022586712
 20
22.011161678
 30
0.0
  0
SPLINE
  5
51A
100
AcDbEntity
  8
RACCORDO
100
AcDbSpline
 62
250
  6
CONTINUOUS
 70
0
 71
3
 72
12
 73
8
 74
0
 42
0.0000001
 43
0.0000001
 44
0.0000000001
 40
0.0
 40
0.0
 40
0.0
 40
0.0
 40
0.0353363376
 40
0.0986954919
 40
0.3156912957
 40
0.6315954153
 40
1.0
 40
1.0
 40
1.0
 40
1.0
 10
9.4465870893
 20
27.7042076887
 30
0.0
 10
9.4464480244
 20
27.7054095218
 30
0.0
 10
9.4435598563
 20
27.7079760369
 30
0.0
 10
9.433735069
 20
27.7117818626
 30
0.0
 10
9.4132843937
 20
27.7155850954
 30
0.0
 10
9.3826965475
 20
27.7183684875
 30
0.0
 10
9.3592157816
 20
27.7190871323
 30
0.0
 10
9.3466023198
 20
27.7191195966
 30
0.0
  0
SPLINE
  5
51B
100
AcDbEntity
  8
RACCORDO
100
AcDbSpline
 62
250
  6
CONTINUOUS
 70
0
 71
3
 72
9
 73
5
 74
0
 42
0.0000001
 43
0.0000001
 44
0.0000000001
 40
0.0
 40
0.0
 40
0.0
 40
0.0
 40
0.2493125232
 40
1.0
 40
1.0
 40
1.0
 40
1.0
 10
9.3466023198
 20
27.719119597
 30
0.0
 10
9.3454672675
 20
27.2874404433
 30
0.0
 10
9.3411392161
 20
25.555961841
 30
0.0
 10
9.337706283
 20
23.8244810046
 30
0.0
 10
9.3356261137
 20
22.5246793111
 30
0.0
  0
SPLINE
  5
51C
100
AcDbEntity
  8
RACCORDO
100
AcDbSpline
 62
250
  6
CONTINUOUS
 70
0
 71
3
 72
9
 73
5
 74
0
 42
0.0000001
 43
0.0000001
 44
0.0000000001
 40
0.0
 40
0.0
 40
0.0
 40
0.0
 40
0.499621216
 40
1.0
 40
1.0
 40
1.0
 40
1.0
 10
9.4333628971
 20
28.5007210084
 30
0.0
 10
9.4277523985
 20
28.5174091453
 30
0.0
 10
9.4071349111
 20
28.5484055793
 30
0.0
 10
9.3733827389
 20
28.5640065423
 30
0.0
 10
9.3560219438
 20
28.5670912012
 30
0.0
  0
SPLINE
  5
51D
100
AcDbEntity
  8
RACCORDO
100
AcDbSpline
 62
250
  6
CONTINUOUS
 70
0
 71
3
 72
9
 73
5
 74
0
 42
0.0000001
 43
0.0000001
 44
0.0000000001
 40
0.0
 40
0.0
 40
0.0
 40
0.0
 40
0.2493125233
 40
1.0
 40
1.0
 40
1.0
 40
1.0
 10
9.4465870893
 20
27.7042076887
 30
0.0
 10
9.4454520371
 20
27.2730081795
 30
0.0
 10
9.4411239856
 20
25.5434534455
 30
0.0
 10
9.4376910525
 20
23.8138964751
 30
0.0
 10
9.4356108832
 20
22.5155390031
 30
0.0
  0
SPLINE
  5
51E
100
AcDbEntity
  8
RACCORDO
100
AcDbSpline
 62
250
  6
CONTINUOUS
 70
0
 71
3
 72
13
 73
9
 74
0
 42
0.0000001
 43
0.0000001
 44
0.0000000001
 40
0.0
 40
0.0
 40
0.0
 40
0.0
 40
0.0280864763
 40
0.0886941475
 40
0.1822069744
 40
0.3059930244
 40
0.6258935846
 40
1.0
 40
1.0
 40
1.0
 40
1.0
 10
9.4356107457
 20
22.5155390031
 30
0.0
 10
9.4354339531
 20
22.516468949
 30
0.0
 10
9.4320787472
 20
22.5178858376
 30
0.0
 10
9.426600544
 20
22.519312179
 30
0.0
 10
9.4170951633
 20
22.5208073431
 30
0.0
 10
9.3992198314
 20
22.5226922952
 30
0.0
 10
9.3715964572
 20
22.5242208051
 30
0.0
 10
9.3482346502
 20
22.5246592777
 30
0.0
 10
9.3356261137
 20
22.5246793109
 30
0.0
  0
SPLINE
  5
51F
100
AcDbEntity
  8
RACCORDO
100
AcDbSpline
 62
250
  6
CONTINUOUS
 70
0
 71
3
 72
9
 73
5
 74
0
 42
0.0000001
 43
0.0000001
 44
0.0000000001
 40
0.0
 40
0.0
 40
0.0
 40
0.0
 40
0.4996162022
 40
1.0
 40
1.0
 40
1.0
 40
1.0
 10
-9.4332773858
 20
28.5009742294
 30
0.0
 10
-9.4276370089
 20
28.5176069015
 30
0.0
 10
-9.4070106493
 20
28.5484770178
 30
0.0
 10
-9.373340036
 20
28.5640142598
 30
0.0
 10
-9.3560212645
 20
28.5670913252
 30
0.0
  0
SPLINE
  5
520
100
AcDbEntity
  8
RACCORDO
100
AcDbSpline
 62
250
  6
CONTINUOUS
 70
0
 71
3
 72
13
 73
9
 74
0
 42
0.0000001
 43
0.0000001
 44
0.0000000001
 40
0.0
 40
0.0
 40
0.0
 40
0.0
 40
0.0299753926
 40
0.0890063817
 40
0.1765766048
 40
0.2917756667
 40
0.5998435026
 40
1.0
 40
1.0
 40
1.0
 40
1.0
 10
9.3386554756
 20
28.5686300485
 30
0.0
 10
9.3397031053
 20
28.5651352952
 30
0.0
 10
9.3405580411
 20
28.5542293458
 30
0.0
 10
9.3422580152
 20
28.5328807181
 30
0.0
 10
9.343603981
 20
28.5010023185
 30
0.0
 10
9.3458065983
 20
28.4388878667
 30
0.0
 10
9.3480220514
 20
28.3386715601
 30
0.0
 10
9.3493574026
 20
28.2524872567
 30
0.0
 10
9.3499842999
 20
28.203786965
 30
0.0
  0
SPLINE
  5
521
100
AcDbEntity
  8
RACCORDO
100
AcDbSpline
 62
250
  6
CONTINUOUS
 70
0
 71
3
 72
13
 73
9
 74
0
 42
0.0000001
 43
0.0000001
 44
0.0000000001
 40
0.0
 40
0.0
 40
0.0
 40
0.0
 40
0.0280864836
 40
0.0886941844
 40
0.18220705
 40
0.3059931362
 40
0.62589371
 40
1.0
 40
1.0
 40
1.0
 40
1.0
 10
-9.4356108832
 20
22.5155390031
 30
0.0
 10
-9.4354340899
 20
22.5164689504
 30
0.0
 10
-9.4320788766
 20
22.5178858389
 30
0.0
 10
-9.426600664
 20
22.5193121819
 30
0.0
 10
-9.4170952663
 20
22.5208073464
 30
0.0
 10
-9.3992199072
 20
22.5226922988
 30
0.0
 10
-9.3715964979
 20
22.5242208077
 30
0.0
 10
-9.3482346631
 20
22.5246592787
 30
0.0
 10
-9.3356261137
 20
22.5246793108
 30
0.0
  0
SPLINE
  5
522
100
AcDbEntity
  8
RACCORDO
100
AcDbSpline
 62
250
  6
CONTINUOUS
 70
0
 71
3
 72
11
 73
7
 74
0
 42
0.0000001
 43
0.0000001
 44
0.0000000001
 40
0.0
 40
0.0
 40
0.0
 40
0.0
 40
0.202451901
 40
0.434225943
 40
0.7047106755
 40
1.0
 40
1.0
 40
1.0
 40
1.0
 10
9.4499740161
 20
28.139751069
 30
0.0
 10
9.4496683177
 20
28.1484945357
 30
0.0
 10
9.443373624
 20
28.1673210505
 30
0.0
 10
9.4199088992
 20
28.1882795921
 30
0.0
 10
9.3872566084
 20
28.2006567962
 30
0.0
 10
9.3627455723
 20
28.2037866539
 30
0.0
 10
9.3499848625
 20
28.2037866577
 30
0.0
  0
SPLINE
  5
523
100
AcDbEntity
  8
RACCORDO
100
AcDbSpline
 62
250
  6
CONTINUOUS
 70
0
 71
3
 72
9
 73
5
 74
0
 42
0.0000001
 43
0.0000001
 44
0.0000000001
 40
0.0
 40
0.0
 40
0.0
 40
0.0
 40
0.2506338713
 40
1.0
 40
1.0
 40
1.0
 40
1.0
 10
-9.3356261137
 20
22.5246793111
 30
0.0
 10
-9.3363206249
 20
22.9586472943
 30
0.0
 10
-9.3393127893
 20
24.6901287193
 30
0.0
 10
-9.3431906592
 20
26.4216086175
 30
0.0
 10
-9.3466023198
 20
27.719119597
 30
0.0
  0
SPLINE
  5
524
100
AcDbEntity
  8
RACCORDO
100
AcDbSpline
 62
250
  6
CONTINUOUS
 70
0
 71
3
 72
9
 73
5
 74
0
 42
0.0000001
 43
0.0000001
 44
0.0000000001
 40
0.0
 40
0.0
 40
0.0
 40
0.0
 40
0.2506338712
 40
1.0
 40
1.0
 40
1.0
 40
1.0
 10
-9.4356108832
 20
22.5155390031
 30
0.0
 10
-9.4363053945
 20
22.9490248005
 30
0.0
 10
-9.4392975589
 20
24.6785823601
 30
0.0
 10
-9.4431754287
 20
26.4081383913
 30
0.0
 10
-9.4465870893
 20
27.7042076887
 30
0.0
  0
SPLINE
  5
525
100
AcDbEntity
  8
RACCORDO
100
AcDbSpline
 62
250
  6
CONTINUOUS
 70
0
 71
3
 72
10
 73
6
 74
0
 42
0.0000001
 43
0.0000001
 44
0.0000000001
 40
0.0
 40
0.0
 40
0.0
 40
0.0
 40
0.4156665952
 40
0.6953738712
 40
1.0
 40
1.0
 40
1.0
 40
1.0
 10
-9.4500000098
 20
28.1425315243
 30
0.0
 10
-9.4500000098
 20
28.1599172643
 30
0.0
 10
-9.4258390674
 20
28.1858553814
 30
0.0
 10
-9.3875068962
 20
28.2007275068
 30
0.0
 10
-9.3627261148
 20
28.2037863004
 30
0.0
 10
-9.3499847717
 20
28.2037863038
 30
0.0
  0
SPLINE
  5
526
100
AcDbEntity
  8
RACCORDO
100
AcDbSpline
 62
250
  6
CONTINUOUS
 70
0
 71
3
 72
12
 73
8
 74
0
 42
0.0000001
 43
0.0000001
 44
0.0000000001
 40
0.0
 40
0.0
 40
0.0
 40
0.0
 40
0.0353363457
 40
0.098695342
 40
0.3156909008
 40
0.6315952649
 40
1.0
 40
1.0
 40
1.0
 40
1.0
 10
-9.4465870893
 20
27.7042076887
 30
0.0
 10
-9.4464480154
 20
27.705409521
 30
0.0
 10
-9.4435598637
 20
27.7079760307
 30
0.0
 10
-9.4337350787
 20
27.7117818571
 30
0.0
 10
-9.4132844173
 20
27.7155850763
 30
0.0
 10
-9.3826965633
 20
27.7183684694
 30
0.0
 10
-9.3592157861
 20
27.7190871126
 30
0.0
 10
-9.3466023198
 20
27.7191195737
 30
0.0
  0
SPLINE
  5
527
100
AcDbEntity
  8
RACCORDO
100
AcDbSpline
 62
250
  6
CONTINUOUS
 70
0
 71
3
 72
13
 73
9
 74
0
 42
0.0000001
 43
0.0000001
 44
0.0000000001
 40
0.0
 40
0.0
 40
0.0
 40
0.0
 40
0.4001508225
 40
0.7082207829
 40
0.8234214711
 40
0.9109929089
 40
0.9700244949
 40
1.0
 40
1.0
 40
1.0
 40
1.0
 10
-9.3499843526
 20
28.2037867395
 30
0.0
 10
-9.3493574608
 20
28.2524863707
 30
0.0
 10
-9.3480220461
 20
28.3386702945
 30
0.0
 10
-9.3458066376
 20
28.4388864293
 30
0.0
 10
-9.3436040132
 20
28.5010015245
 30
0.0
 10
-9.3422580342
 20
28.5328803615
 30
0.0
 10
-9.3405580579
 20
28.5542292389
 30
0.0
 10
-9.3397031007
 20
28.5651352772
 30
0.0
 10
-9.3386554756
 20
28.5686300485
 30
0.0
  0
SPLINE
  5
528
100
AcDbEntity
  8
0
100
AcDbSpline
 62
7
  6
CONTINUOUS
 70
0
 71
3
 72
9
 73
5
 74
0
 42
0.0000001
 43
0.0000001
 44
0.0000000001
 40
0.0
 40
0.0
 40
0.0
 40
0.0
 40
0.4999975349
 40
1.0
 40
1.0
 40
1.0
 40
1.0
 10
-9.934171544
 20
-17.9720073854
 30
0.0
 10
-9.9893172555
 20
-17.961387288
 30
0.0
 10
-10.0954581984
 20
-17.8997733654
 30
0.0
 10
-10.1365675114
 20
-17.7841350831
 30
0.0
 10
-10.1368971279
 20
-17.7279764727
 30
0.0
  0
SPLINE
  5
529
100
AcDbEntity
  8
0
100
AcDbSpline
 62
7
  6
CONTINUOUS
 70
0
 71
3
 72
9
 73
5
 74
0
 42
0.0000001
 43
0.0000001
 44
0.0000000001
 40
0.0
 40
0.0
 40
0.0
 40
0.0
 40
0.4999975349
 40
1.0
 40
1.0
 40
1.0
 40
1.0
 10
-7.465828456
 20
30.9927746102
 30
0.0
 10
-7.4106827445
 20
30.9821545128
 30
0.0
 10
-7.3045418016
 20
30.9205405902
 30
0.0
 10
-7.2634324886
 20
30.8049023078
 30
0.0
 10
-7.2631028721
 20
30.7487436975
 30
0.0
  0
SPLINE
  5
52A
100
AcDbEntity
  8
0
100
AcDbSpline
 62
7
  6
CONTINUOUS
 70
0
 71
3
 72
8
 73
4
 74
0
 42
0.0000001
 43
0.0000001
 44
0.0000000001
 40
0.0
 40
0.0
 40
0.0
 40
0.0
 40
1.0
 40
1.0
 40
1.0
 40
1.0
 10
-10.1474554741
 20
30.7959659785
 30
0.0
 10
-10.1429677928
 20
30.8271864691
 30
0.0
 10
-10.1322773759
 20
30.858070003
 30
0.0
 10
-10.1165072345
 20
30.8853859499
 30
0.0
  0
SPLINE
  5
52B
100
AcDbEntity
  8
0
100
AcDbSpline
 62
7
  6
CONTINUOUS
 70
0
 71
3
 72
8
 73
4
 74
0
 42
0.0000001
 43
0.0000001
 44
0.0000000001
 40
0.0
 40
0.0
 40
0.0
 40
0.0
 40
1.0
 40
1.0
 40
1.0
 40
1.0
 10
-10.1165072345
 20
30.8853859499
 30
0.0
 10
-10.0987943538
 20
30.9160669752
 30
0.0
 10
-10.0738739261
 20
30.9434786053
 30
0.0
 10
-10.0450162711
 20
30.9640287197
 30
0.0
  0
SPLINE
  5
52C
100
AcDbEntity
  8
0
100
AcDbSpline
 62
7
  6
CONTINUOUS
 70
0
 71
3
 72
8
 73
4
 74
0
 42
0.0000001
 43
0.0000001
 44
0.0000000001
 40
0.0
 40
0.0
 40
0.0
 40
0.0
 40
1.0
 40
1.0
 40
1.0
 40
1.0
 10
-10.0450162711
 20
30.9640287197
 30
0.0
 10
-10.003679488
 20
30.9934654714
 30
0.0
 10
-9.9507511715
 20
31.0103836124
 30
0.0
 10
-9.9000042308
 20
31.0103836124
 30
0.0
  0
SPLINE
  5
52D
100
AcDbEntity
  8
0
100
AcDbSpline
 62
7
  6
CONTINUOUS
 70
0
 71
3
 72
9
 73
5
 74
0
 42
0.0000001
 43
0.0000001
 44
0.0000000001
 40
0.0
 40
0.0
 40
0.0
 40
0.0
 40
0.4999964004
 40
1.0
 40
1.0
 40
1.0
 40
1.0
 10
-10.1369014213
 20
30.7472892645
 30
0.0
 10
-10.1368994038
 20
30.806898089
 30
0.0
 10
-10.0909007249
 20
30.9304096574
 30
0.0
 10
-9.9730498729
 20
30.9894257928
 30
0.0
 10
-9.9137856854
 20
30.9958344092
 30
0.0
  0
SPLINE
  5
52E
100
AcDbEntity
  8
0
100
AcDbSpline
 62
7
  6
CONTINUOUS
 70
0
 71
3
 72
8
 73
4
 74
0
 42
0.0000001
 43
0.0000001
 44
0.0000000001
 40
0.0
 40
0.0
 40
0.0
 40
0.0
 40
1.0
 40
1.0
 40
1.0
 40
1.0
 10
-7.4644176339
 20
31.0078390865
 30
0.0
 10
-7.4255248416
 20
31.0022485768
 30
0.0
 10
-7.3869901289
 20
30.9868211186
 30
0.0
 10
-7.3549837289
 20
30.9640287197
 30
0.0
  0
SPLINE
  5
52F
100
AcDbEntity
  8
0
100
AcDbSpline
 62
7
  6
CONTINUOUS
 70
0
 71
3
 72
8
 73
4
 74
0
 42
0.0000001
 43
0.0000001
 44
0.0000000001
 40
0.0
 40
0.0
 40
0.0
 40
0.0
 40
1.0
 40
1.0
 40
1.0
 40
1.0
 10
-7.3549837289
 20
30.9640287197
 30
0.0
 10
-7.3261260739
 20
30.9434786053
 30
0.0
 10
-7.3012056462
 20
30.9160669752
 30
0.0
 10
-7.2834927655
 20
30.8853859499
 30
0.0
  0
SPLINE
  5
530
100
AcDbEntity
  8
0
100
AcDbSpline
 62
7
  6
CONTINUOUS
 70
0
 71
3
 72
8
 73
4
 74
0
 42
0.0000001
 43
0.0000001
 44
0.0000000001
 40
0.0
 40
0.0
 40
0.0
 40
0.0
 40
1.0
 40
1.0
 40
1.0
 40
1.0
 10
-7.2834927655
 20
30.8853859499
 30
0.0
 10
-7.2619256013
 20
30.8480288015
 30
0.0
 10
-7.25
 20
30.8035236649
 30
0.0
 10
-7.25
 20
30.7603878432
 30
0.0
  0
SPLINE
  5
531
100
AcDbEntity
  8
0
100
AcDbSpline
 62
7
  6
CONTINUOUS
 70
0
 71
3
 72
8
 73
4
 74
0
 42
0.0000001
 43
0.0000001
 44
0.0000000001
 40
0.0
 40
0.0
 40
0.0
 40
0.0
 40
1.0
 40
1.0
 40
1.0
 40
1.0
 10
9.9355823661
 20
31.0078390865
 30
0.0
 10
9.9668028567
 20
31.0033514052
 30
0.0
 10
9.9976863906
 20
30.9926609882
 30
0.0
 10
10.0250023375
 20
30.9768908468
 30
0.0
  0
SPLINE
  5
532
100
AcDbEntity
  8
0
100
AcDbSpline
 62
7
  6
CONTINUOUS
 70
0
 71
3
 72
8
 73
4
 74
0
 42
0.0000001
 43
0.0000001
 44
0.0000000001
 40
0.0
 40
0.0
 40
0.0
 40
0.0
 40
1.0
 40
1.0
 40
1.0
 40
1.0
 10
10.0250023375
 20
30.9768908468
 30
0.0
 10
10.0623594863
 20
30.9553236824
 30
0.0
 10
10.09494007
 20
30.9227430987
 30
0.0
 10
10.1165072345
 20
30.8853859499
 30
0.0
  0
SPLINE
  5
533
100
AcDbEntity
  8
0
100
AcDbSpline
 62
7
  6
CONTINUOUS
 70
0
 71
3
 72
8
 73
4
 74
0
 42
0.0000001
 43
0.0000001
 44
0.0000000001
 40
0.0
 40
0.0
 40
0.0
 40
0.0
 40
1.0
 40
1.0
 40
1.0
 40
1.0
 10
10.1165072345
 20
30.8853859499
 30
0.0
 10
10.1380743987
 20
30.8480288015
 30
0.0
 10
10.15
 20
30.8035236649
 30
0.0
 10
10.15
 20
30.7603878432
 30
0.0
  0
SPLINE
  5
534
100
AcDbEntity
  8
0
100
AcDbSpline
 62
7
  6
CONTINUOUS
 70
0
 71
3
 72
8
 73
4
 74
0
 42
0.0000001
 43
0.0000001
 44
0.0000000001
 40
0.0
 40
0.0
 40
0.0
 40
0.0
 40
1.0
 40
1.0
 40
1.0
 40
1.0
 10
7.2525445259
 20
30.7959659785
 30
0.0
 10
7.2570322072
 20
30.8271864691
 30
0.0
 10
7.2677226241
 20
30.858070003
 30
0.0
 10
7.2834927655
 20
30.8853859499
 30
0.0
  0
SPLINE
  5
535
100
AcDbEntity
  8
0
100
AcDbSpline
 62
7
  6
CONTINUOUS
 70
0
 71
3
 72
8
 73
4
 74
0
 42
0.0000001
 43
0.0000001
 44
0.0000000001
 40
0.0
 40
0.0
 40
0.0
 40
0.0
 40
1.0
 40
1.0
 40
1.0
 40
1.0
 10
7.2834927655
 20
30.8853859499
 30
0.0
 10
7.30505993
 20
30.9227430987
 30
0.0
 10
7.3376405137
 20
30.9553236824
 30
0.0
 10
7.3749976625
 20
30.9768908468
 30
0.0
  0
SPLINE
  5
536
100
AcDbEntity
  8
0
100
AcDbSpline
 62
7
  6
CONTINUOUS
 70
0
 71
3
 72
8
 73
4
 74
0
 42
0.0000001
 43
0.0000001
 44
0.0000000001
 40
0.0
 40
0.0
 40
0.0
 40
0.0
 40
1.0
 40
1.0
 40
1.0
 40
1.0
 10
7.3749976625
 20
30.9768908468
 30
0.0
 10
7.4123548109
 20
30.9984580111
 30
0.0
 10
7.4568599475
 20
31.0103836124
 30
0.0
 10
7.4999957692
 20
31.0103836124
 30
0.0
  0
SPLINE
  5
537
100
AcDbEntity
  8
0
100
AcDbSpline
 62
7
  6
CONTINUOUS
 70
0
 71
3
 72
8
 73
4
 74
0
 42
0.0000001
 43
0.0000001
 44
0.0000000001
 40
0.0
 40
0.0
 40
0.0
 40
0.0
 40
1.0
 40
1.0
 40
1.0
 40
1.0
 10
-9.9355823661
 20
-17.9870718618
 30
0.0
 10
-9.9744751584
 20
-17.981481352
 30
0.0
 10
-10.0130098711
 20
-17.9660538938
 30
0.0
 10
-10.0450162711
 20
-17.9432614949
 30
0.0
  0
SPLINE
  5
538
100
AcDbEntity
  8
0
100
AcDbSpline
 62
7
  6
CONTINUOUS
 70
0
 71
3
 72
8
 73
4
 74
0
 42
0.0000001
 43
0.0000001
 44
0.0000000001
 40
0.0
 40
0.0
 40
0.0
 40
0.0
 40
1.0
 40
1.0
 40
1.0
 40
1.0
 10
-10.0450162711
 20
-17.9432614949
 30
0.0
 10
-10.0738739261
 20
-17.9227113805
 30
0.0
 10
-10.0987943538
 20
-17.8952997504
 30
0.0
 10
-10.1165072345
 20
-17.8646187251
 30
0.0
  0
SPLINE
  5
539
100
AcDbEntity
  8
0
100
AcDbSpline
 62
7
  6
CONTINUOUS
 70
0
 71
3
 72
8
 73
4
 74
0
 42
0.0000001
 43
0.0000001
 44
0.0000000001
 40
0.0
 40
0.0
 40
0.0
 40
0.0
 40
1.0
 40
1.0
 40
1.0
 40
1.0
 10
-10.1165072345
 20
-17.8646187251
 30
0.0
 10
-10.1380743987
 20
-17.8272615767
 30
0.0
 10
-10.15
 20
-17.7827564401
 30
0.0
 10
-10.15
 20
-17.7396206184
 30
0.0
  0
SPLINE
  5
53A
100
AcDbEntity
  8
0
100
AcDbSpline
 62
7
  6
CONTINUOUS
 70
0
 71
3
 72
8
 73
4
 74
0
 42
0.0000001
 43
0.0000001
 44
0.0000000001
 40
0.0
 40
0.0
 40
0.0
 40
0.0
 40
1.0
 40
1.0
 40
1.0
 40
1.0
 10
-7.2525445259
 20
-17.7751987538
 30
0.0
 10
-7.2570322072
 20
-17.8064192443
 30
0.0
 10
-7.2677226241
 20
-17.8373027783
 30
0.0
 10
-7.2834927655
 20
-17.8646187251
 30
0.0
  0
SPLINE
  5
53B
100
AcDbEntity
  8
0
100
AcDbSpline
 62
7
  6
CONTINUOUS
 70
0
 71
3
 72
8
 73
4
 74
0
 42
0.0000001
 43
0.0000001
 44
0.0000000001
 40
0.0
 40
0.0
 40
0.0
 40
0.0
 40
1.0
 40
1.0
 40
1.0
 40
1.0
 10
-7.2834927655
 20
-17.8646187251
 30
0.0
 10
-7.30505993
 20
-17.9019758739
 30
0.0
 10
-7.3376405137
 20
-17.9345564576
 30
0.0
 10
-7.3749976625
 20
-17.9561236221
 30
0.0
  0
SPLINE
  5
53C
100
AcDbEntity
  8
0
100
AcDbSpline
 62
7
  6
CONTINUOUS
 70
0
 71
3
 72
8
 73
4
 74
0
 42
0.0000001
 43
0.0000001
 44
0.0000000001
 40
0.0
 40
0.0
 40
0.0
 40
0.0
 40
1.0
 40
1.0
 40
1.0
 40
1.0
 10
-7.3749976625
 20
-17.9561236221
 30
0.0
 10
-7.4123548109
 20
-17.9776907863
 30
0.0
 10
-7.4568599475
 20
-17.9896163876
 30
0.0
 10
-7.4999957692
 20
-17.9896163876
 30
0.0
  0
SPLINE
  5
53D
100
AcDbEntity
  8
0
100
AcDbSpline
 62
7
  6
CONTINUOUS
 70
0
 71
3
 72
8
 73
4
 74
0
 42
0.0000001
 43
0.0000001
 44
0.0000000001
 40
0.0
 40
0.0
 40
0.0
 40
0.0
 40
1.0
 40
1.0
 40
1.0
 40
1.0
 10
7.4644176339
 20
-17.9870718618
 30
0.0
 10
7.4331971433
 20
-17.9825841804
 30
0.0
 10
7.4023136094
 20
-17.9718937635
 30
0.0
 10
7.3749976625
 20
-17.9561236221
 30
0.0
  0
SPLINE
  5
53E
100
AcDbEntity
  8
0
100
AcDbSpline
 62
7
  6
CONTINUOUS
 70
0
 71
3
 72
8
 73
4
 74
0
 42
0.0000001
 43
0.0000001
 44
0.0000000001
 40
0.0
 40
0.0
 40
0.0
 40
0.0
 40
1.0
 40
1.0
 40
1.0
 40
1.0
 10
7.3749976625
 20
-17.9561236221
 30
0.0
 10
7.3376405137
 20
-17.9345564576
 30
0.0
 10
7.30505993
 20
-17.9019758739
 30
0.0
 10
7.2834927655
 20
-17.8646187251
 30
0.0
  0
SPLINE
  5
53F
100
AcDbEntity
  8
0
100
AcDbSpline
 62
7
  6
CONTINUOUS
 70
0
 71
3
 72
8
 73
4
 74
0
 42
0.0000001
 43
0.0000001
 44
0.0000000001
 40
0.0
 40
0.0
 40
0.0
 40
0.0
 40
1.0
 40
1.0
 40
1.0
 40
1.0
 10
7.2834927655
 20
-17.8646187251
 30
0.0
 10
7.2619256013
 20
-17.8272615767
 30
0.0
 10
7.25
 20
-17.7827564401
 30
0.0
 10
7.25
 20
-17.7396206184
 30
0.0
  0
SPLINE
  5
540
100
AcDbEntity
  8
0
100
AcDbSpline
 62
7
  6
CONTINUOUS
 70
0
 71
3
 72
8
 73
4
 74
0
 42
0.0000001
 43
0.0000001
 44
0.0000000001
 40
0.0
 40
0.0
 40
0.0
 40
0.0
 40
1.0
 40
1.0
 40
1.0
 40
1.0
 10
10.1474554741
 20
-17.7751987538
 30
0.0
 10
10.1429677928
 20
-17.8064192443
 30
0.0
 10
10.1322773759
 20
-17.8373027783
 30
0.0
 10
10.1165072345
 20
-17.8646187251
 30
0.0
  0
SPLINE
  5
541
100
AcDbEntity
  8
0
100
AcDbSpline
 62
7
  6
CONTINUOUS
 70
0
 71
3
 72
8
 73
4
 74
0
 42
0.0000001
 43
0.0000001
 44
0.0000000001
 40
0.0
 40
0.0
 40
0.0
 40
0.0
 40
1.0
 40
1.0
 40
1.0
 40
1.0
 10
10.1165072345
 20
-17.8646187251
 30
0.0
 10
10.09494007
 20
-17.9019758739
 30
0.0
 10
10.0623594863
 20
-17.9345564576
 30
0.0
 10
10.0250023375
 20
-17.9561236221
 30
0.0
  0
SPLINE
  5
542
100
AcDbEntity
  8
0
100
AcDbSpline
 62
7
  6
CONTINUOUS
 70
0
 71
3
 72
8
 73
4
 74
0
 42
0.0000001
 43
0.0000001
 44
0.0000000001
 40
0.0
 40
0.0
 40
0.0
 40
0.0
 40
1.0
 40
1.0
 40
1.0
 40
1.0
 10
10.0250023375
 20
-17.9561236221
 30
0.0
 10
9.9876451891
 20
-17.9776907863
 30
0.0
 10
9.9431400525
 20
-17.9896163876
 30
0.0
 10
9.9000042308
 20
-17.9896163876
 30
0.0
  0
SPLINE
  5
543
100
AcDbEntity
  8
RACCORDO
100
AcDbSpline
 62
7
  6
CONTINUOUS
 70
0
 71
3
 72
21
 73
17
 74
0
 42
0.0000001
 43
0.0000001
 44
0.0000000001
 40
0.0
 40
0.0
 40
0.0
 40
0.0
 40
0.0023211247
 40
0.0081526043
 40
0.0173601707
 40
0.0297924377
 40
0.0636892776
 40
0.1082095168
 40
0.161442771
 40
0.2216933182
 40
0.2876179855
 40
0.3580037655
 40
0.5087394652
 40
0.668354102
 40
0.8330689647
 40
1.0
 40
1.0
 40
1.0
 40
1.0
 10
2.5
 20
-0.9396758004
 30
0.0
 10
2.5
 20
-0.9402272798
 30
0.0
 10
2.5017012823
 20
-0.9416691355
 30
0.0
 10
2.5039768905
 20
-0.9448509567
 30
0.0
 10
2.5086050398
 20
-0.949634806
 30
0.0
 10
2.5174805757
 20
-0.9593006231
 30
0.0
 10
2.5324803157
 20
-0.9748956035
 30
0.0
 10
2.554176638
 20
-0.9973939562
 30
0.0
 10
2.5803840523
 20
-1.0242842491
 30
0.0
 10
2.6101982105
 20
-1.054744961
 30
0.0
 10
2.6429327716
 20
-1.0880545991
 30
0.0
 10
2.690805417
 20
-1.1366279518
 30
0.0
 10
2.7544219486
 20
-1.2009391322
 30
0.0
 10
2.8339394359
 20
-1.281044848
 30
0.0
 10
2.9162905534
 20
-1.3637594305
 30
0.0
 10
2.9719604031
 20
-1.4195242718
 30
0.0
 10
3.0
 20
-1.4475743456
 30
0.0
  0
SPLINE
  5
544
100
AcDbEntity
  8
RACCORDO
100
AcDbSpline
 62
250
  6
CONTINUOUS
 70
0
 71
3
 72
14
 73
10
 74
0
 42
0.0000001
 43
0.0000001
 44
0.0000000001
 40
0.0
 40
0.0
 40
0.0
 40
0.0
 40
0.0268559783
 40
0.0860904154
 40
0.1788054457
 40
0.3022591428
 40
0.4519871215
 40
0.6225599334
 40
1.0
 40
1.0
 40
1.0
 40
1.0
 10
-10.1427192511
 20
29.045011155
 30
0.0
 10
-10.1425785127
 20
29.0427492801
 30
0.0
 10
-10.134472401
 20
29.0386691813
 30
0.0
 10
-10.1210915573
 20
29.0353235751
 30
0.0
 10
-10.097494104
 20
29.0313275992
 30
0.0
 10
-10.067057559
 20
29.0280722682
 30
0.0
 10
-10.0296160287
 20
29.0252338872
 30
0.0
 10
-9.9708434351
 20
29.0223629446
 30
0.0
 10
-9.9245738673
 20
29.0215635589
 30
0.0
 10
-9.8927234819
 20
29.0215648568
 30
0.0
  0
SPLINE
  5
545
100
AcDbEntity
  8
RACCORDO
100
AcDbSpline
 62
250
  6
CONTINUOUS
 70
0
 71
3
 72
17
 73
13
 74
0
 42
0.0000001
 43
0.0000001
 44
0.0000000001
 40
0.0
 40
0.0
 40
0.0
 40
0.0
 40
0.0073730559
 40
0.0229991925
 40
0.0475747803
 40
0.0810925475
 40
0.173741872
 40
0.2977617577
 40
0.4484198443
 40
0.620103416
 40
0.8065405215
 40
1.0
 40
1.0
 40
1.0
 40
1.0
 10
-10.3427158665
 20
28.8452852481
 30
0.0
 10
-10.3425912404
 20
28.8441811834
 30
0.0
 10
-10.3389247508
 20
28.8421374975
 30
0.0
 10
-10.3325031983
 20
28.8403204403
 30
0.0
 10
-10.3213440824
 20
28.8381045273
 30
0.0
 10
-10.2989780742
 20
28.8350476692
 30
0.0
 10
-10.2613094381
 20
28.8316534458
 30
0.0
 10
-10.2061030162
 20
28.8283011626
 30
0.0
 10
-10.1388758517
 20
28.8255062456
 30
0.0
 10
-10.0622381735
 20
28.8234193163
 30
0.0
 10
-9.9791249224
 20
28.8221266518
 30
0.0
 10
-9.9218766888
 20
28.8218344523
 30
0.0
 10
-9.8927234819
 20
28.8218389498
 30
0.0
  0
SPLINE
  5
546
100
AcDbEntity
  8
RACCORDO
100
AcDbSpline
 62
250
  6
CONTINUOUS
 70
0
 71
3
 72
9
 73
5
 74
0
 42
0.0000001
 43
0.0000001
 44
0.0000000001
 40
0.0
 40
0.0
 40
0.0
 40
0.0
 40
0.2951116972
 40
1.0
 40
1.0
 40
1.0
 40
1.0
 10
-9.5056806983
 20
27.6912772869
 30
0.0
 10
-9.5055384909
 20
27.7452203805
 30
0.0
 10
-9.5046523278
 20
27.9280049219
 30
0.0
 10
-9.5029712087
 20
28.1108051982
 30
0.0
 10
-9.4995661405
 20
28.2396062852
 30
0.0
  0
SPLINE
  5
547
100
AcDbEntity
  8
RACCORDO
100
AcDbSpline
 62
250
  6
CONTINUOUS
 70
0
 71
3
 72
11
 73
7
 74
0
 42
0.0000001
 43
0.0000001
 44
0.0000000001
 40
0.0
 40
0.0
 40
0.0
 40
0.0
 40
0.3991678581
 40
0.7020587457
 40
0.9033337367
 40
1.0
 40
1.0
 40
1.0
 40
1.0
 10
-9.4995661405
 20
28.2396062852
 30
0.0
 10
-9.4991036183
 20
28.2571017856
 30
0.0
 10
-9.4981159325
 20
28.2878428133
 30
0.0
 10
-9.4967464981
 20
28.3275082352
 30
0.0
 10
-9.4946655863
 20
28.3536271875
 30
0.0
 10
-9.4939385371
 20
28.3668630124
 30
0.0
 10
-9.4926035971
 20
28.3708856481
 30
0.0
  0
SPLINE
  5
548
100
AcDbEntity
  8
RACCORDO
100
AcDbSpline
 62
250
  6
CONTINUOUS
 70
0
 71
3
 72
9
 73
5
 74
0
 42
0.0000001
 43
0.0000001
 44
0.0000000001
 40
0.0
 40
0.0
 40
0.0
 40
0.0
 40
0.2506344189
 40
1.0
 40
1.0
 40
1.0
 40
1.0
 10
-9.5166549137
 20
22.5019996765
 30
0.0
 10
-9.5159608637
 20
22.935537294
 30
0.0
 10
-9.5129702525
 20
24.6652978299
 30
0.0
 10
-9.5090927566
 20
26.3950568362
 30
0.0
 10
-9.5056806983
 20
27.6912772869
 30
0.0
  0
SPLINE
  5
549
100
AcDbEntity
  8
RACCORDO
100
AcDbSpline
 62
250
  6
CONTINUOUS
 70
0
 71
3
 72
14
 73
10
 74
0
 42
0.0000001
 43
0.0000001
 44
0.0000000001
 40
0.0
 40
0.0
 40
0.0
 40
0.0
 40
0.3774400674
 40
0.5480128796
 40
0.6977408587
 40
0.821194556
 40
0.9139095863
 40
0.9731440264
 40
1.0
 40
1.0
 40
1.0
 40
1.0
 10
-7.5072765181
 20
29.0215648568
 30
0.0
 10
-7.4754261327
 20
29.0215635605
 30
0.0
 10
-7.429156565
 20
29.0223629462
 30
0.0
 10
-7.3703839713
 20
29.0252338863
 30
0.0
 10
-7.3329424408
 20
29.0280722674
 30
0.0
 10
-7.3025058964
 20
29.0313275999
 30
0.0
 10
-7.2789084416
 20
29.0353235739
 30
0.0
 10
-7.2655276006
 20
29.0386691836
 30
0.0
 10
-7.2574214869
 20
29.0427492804
 30
0.0
 10
-7.2572807489
 20
29.045011155
 30
0.0
  0
SPLINE
  5
54A
100
AcDbEntity
  8
RACCORDO
100
AcDbSpline
 62
250
  6
CONTINUOUS
 70
0
 71
3
 72
11
 73
7
 74
0
 42
0.0000001
 43
0.0000001
 44
0.0000000001
 40
0.0
 40
0.0
 40
0.0
 40
0.0
 40
0.0966662537
 40
0.2979412461
 40
0.6008321389
 40
1.0
 40
1.0
 40
1.0
 40
1.0
 10
9.4926035971
 20
28.3708856481
 30
0.0
 10
9.4939385375
 20
28.366863013
 30
0.0
 10
9.494665586
 20
28.3536271881
 30
0.0
 10
9.4967464983
 20
28.3275082362
 30
0.0
 10
9.4981159324
 20
28.2878428137
 30
0.0
 10
9.4991036183
 20
28.2571017856
 30
0.0
 10
9.4995661405
 20
28.2396062851
 30
0.0
  0
SPLINE
  5
54B
100
AcDbEntity
  8
RACCORDO
100
AcDbSpline
 62
250
  6
CONTINUOUS
 70
0
 71
3
 72
9
 73
5
 74
0
 42
0.0000001
 43
0.0000001
 44
0.0000000001
 40
0.0
 40
0.0
 40
0.0
 40
0.0
 40
0.1937176909
 40
1.0
 40
1.0
 40
1.0
 40
1.0
 10
9.4995661405
 20
28.2396062851
 30
0.0
 10
9.5005019256
 20
28.2042090103
 30
0.0
 10
9.5041479975
 20
28.0214527377
 30
0.0
 10
9.5052921684
 20
27.8386570575
 30
0.0
 10
9.5056806983
 20
27.6912772869
 30
0.0
  0
SPLINE
  5
54C
100
AcDbEntity
  8
RACCORDO
100
AcDbSpline
 62
250
  6
CONTINUOUS
 70
0
 71
3
 72
17
 73
13
 74
0
 42
0.0000001
 43
0.0000001
 44
0.0000000001
 40
0.0
 40
0.0
 40
0.0
 40
0.0
 40
0.1934594766
 40
0.3798965822
 40
0.5515801588
 40
0.7022382487
 40
0.8262581259
 40
0.9189074338
 40
0.9524252009
 40
0.9770007969
 40
0.9926269424
 40
1.0
 40
1.0
 40
1.0
 40
1.0
 10
-7.5072765181
 20
28.8218389498
 30
0.0
 10
-7.4781233116
 20
28.8218344616
 30
0.0
 10
-7.4208750783
 20
28.8221266595
 30
0.0
 10
-7.3377618266
 20
28.8234193122
 30
0.0
 10
-7.2611241474
 20
28.8255062454
 30
0.0
 10
-7.193896983
 20
28.8283011632
 30
0.0
 10
-7.1386905645
 20
28.8316534451
 30
0.0
 10
-7.1010219321
 20
28.8350476695
 30
0.0
 10
-7.0786559256
 20
28.8381045278
 30
0.0
 10
-7.0674968062
 20
28.8403204407
 30
0.0
 10
-7.0610752526
 20
28.8421374971
 30
0.0
 10
-7.0574087586
 20
28.8441811831
 30
0.0
 10
-7.0572841335
 20
28.8452852481
 30
0.0
  0
SPLINE
  5
54D
100
AcDbEntity
  8
RACCORDO
100
AcDbSpline
 62
250
  6
CONTINUOUS
 70
0
 71
3
 72
9
 73
5
 74
0
 42
0.0000001
 43
0.0000001
 44
0.0000000001
 40
0.0
 40
0.0
 40
0.0
 40
0.0
 40
0.2493118447
 40
1.0
 40
1.0
 40
1.0
 40
1.0
 10
9.5056806983
 20
27.6912772869
 30
0.0
 10
9.5068158806
 20
27.2600283479
 30
0.0
 10
9.5111441641
 20
25.5302706407
 30
0.0
 10
9.5145761287
 20
23.8005106942
 30
0.0
 10
9.5166549137
 20
22.5019996765
 30
0.0
  0
SPLINE
  5
54E
100
AcDbEntity
  8
RACCORDO
100
AcDbSpline
 62
7
  6
CONTINUOUS
 70
0
 71
3
 72
21
 73
17
 74
0
 42
0.0000001
 43
0.0000001
 44
0.0000000001
 40
0.0
 40
0.0
 40
0.0
 40
0.0
 40
0.0022310482
 40
0.0079853564
 40
0.0171233647
 40
0.0294930083
 40
0.0632854881
 40
0.1077280743
 40
0.1609082393
 40
0.221128236
 40
0.2870428086
 40
0.3574369739
 40
0.5082381789
 40
0.667974114
 40
0.8328579881
 40
1.0
 40
1.0
 40
1.0
 40
1.0
 10
2.5
 20
0.4103432072
 30
0.0
 10
2.5
 20
0.4098138485
 30
0.0
 10
2.5017395815
 20
0.4084555498
 30
0.0
 10
2.5039702608
 20
0.4053261963
 30
0.0
 10
2.5086182149
 20
0.4006328719
 30
0.0
 10
2.5174852895
 20
0.3910656176
 30
0.0
 10
2.5324953612
 20
0.3755979599
 30
0.0
 10
2.5541842735
 20
0.3532310055
 30
0.0
 10
2.5803912013
 20
0.3264642971
 30
0.0
 10
2.6102035941
 20
0.2961142471
 30
0.0
 10
2.6429374033
 20
0.2629034657
 30
0.0
 10
2.6908144088
 20
0.2144431994
 30
0.0
 10
2.7544344185
 20
0.1502430479
 30
0.0
 10
2.8339501922
 20
0.0702325378
 30
0.0
 10
2.9163004075
 20
-0.0124272573
 30
0.0
 10
2.9719636142
 20
-0.0681750285
 30
0.0
 10
3.0
 20
-0.0962229942
 30
0.0
  0
SPLINE
  5
54F
100
AcDbEntity
  8
RACCORDO
100
AcDbSpline
 62
7
  6
CONTINUOUS
 70
0
 71
3
 72
21
 73
17
 74
0
 42
0.0000001
 43
0.0000001
 44
0.0000000001
 40
0.0
 40
0.0
 40
0.0
 40
0.0
 40
0.0022310482
 40
0.0079853564
 40
0.0171233647
 40
0.0294930083
 40
0.0632854881
 40
0.1077280743
 40
0.1609082393
 40
0.221128236
 40
0.2870428086
 40
0.3574369739
 40
0.5082381789
 40
0.667974114
 40
0.8328579881
 40
1.0
 40
1.0
 40
1.0
 40
1.0
 10
3.65
 20
0.4103432072
 30
0.0
 10
3.65
 20
0.4098138485
 30
0.0
 10
3.6517395815
 20
0.4084555498
 30
0.0
 10
3.6539702608
 20
0.4053261963
 30
0.0
 10
3.6586182149
 20
0.4006328719
 30
0.0
 10
3.6674852895
 20
0.3910656176
 30
0.0
 10
3.6824953612
 20
0.3755979599
 30
0.0
 10
3.7041842735
 20
0.3532310055
 30
0.0
 10
3.7303912013
 20
0.3264642971
 30
0.0
 10
3.7602035941
 20
0.2961142471
 30
0.0
 10
3.7929374033
 20
0.2629034657
 30
0.0
 10
3.8408144088
 20
0.2144431994
 30
0.0
 10
3.9044344185
 20
0.1502430479
 30
0.0
 10
3.9839501922
 20
0.0702325378
 30
0.0
 10
4.0663004075
 20
-0.0124272573
 30
0.0
 10
4.1219636142
 20
-0.0681750285
 30
0.0
 10
4.15
 20
-0.0962229942
 30
0.0
  0
SPLINE
  5
550
100
AcDbEntity
  8
RACCORDO
100
AcDbSpline
 62
250
  6
CONTINUOUS
 70
0
 71
3
 72
14
 73
10
 74
0
 42
0.0000001
 43
0.0000001
 44
0.0000000001
 40
0.0
 40
0.0
 40
0.0
 40
0.0
 40
0.0268559783
 40
0.0860904154
 40
0.1788054457
 40
0.3022591428
 40
0.4519871215
 40
0.6225599334
 40
1.0
 40
1.0
 40
1.0
 40
1.0
 10
7.2572807489
 20
29.045011155
 30
0.0
 10
7.2574214873
 20
29.0427492801
 30
0.0
 10
7.265527599
 20
29.0386691813
 30
0.0
 10
7.2789084427
 20
29.0353235751
 30
0.0
 10
7.302505896
 20
29.0313275992
 30
0.0
 10
7.332942441
 20
29.0280722682
 30
0.0
 10
7.3703839713
 20
29.0252338872
 30
0.0
 10
7.4291565649
 20
29.0223629446
 30
0.0
 10
7.4754261327
 20
29.0215635589
 30
0.0
 10
7.5072765181
 20
29.0215648568
 30
0.0
  0
SPLINE
  5
551
100
AcDbEntity
  8
RACCORDO
100
AcDbSpline
 62
250
  6
CONTINUOUS
 70
0
 71
3
 72
17
 73
13
 74
0
 42
0.0000001
 43
0.0000001
 44
0.0000000001
 40
0.0
 40
0.0
 40
0.0
 40
0.0
 40
0.0073730559
 40
0.0229991925
 40
0.0475747803
 40
0.0810925475
 40
0.173741872
 40
0.2977617577
 40
0.4484198443
 40
0.620103416
 40
0.8065405215
 40
1.0
 40
1.0
 40
1.0
 40
1.0
 10
7.0572841335
 20
28.8452852481
 30
0.0
 10
7.0574087596
 20
28.8441811834
 30
0.0
 10
7.0610752492
 20
28.8421374975
 30
0.0
 10
7.0674968017
 20
28.8403204403
 30
0.0
 10
7.0786559176
 20
28.8381045273
 30
0.0
 10
7.1010219258
 20
28.8350476692
 30
0.0
 10
7.1386905619
 20
28.8316534458
 30
0.0
 10
7.1938969838
 20
28.8283011626
 30
0.0
 10
7.2611241483
 20
28.8255062456
 30
0.0
 10
7.3377618265
 20
28.8234193163
 30
0.0
 10
7.4208750776
 20
28.8221266518
 30
0.0
 10
7.4781233112
 20
28.8218344523
 30
0.0
 10
7.5072765181
 20
28.8218389498
 30
0.0
  0
SPLINE
  5
552
100
AcDbEntity
  8
RACCORDO
100
AcDbSpline
 62
7
  6
CONTINUOUS
 70
0
 71
3
 72
10
 73
6
 74
0
 42
0.0000001
 43
0.0000001
 44
0.0000000001
 40
0.0
 40
0.0
 40
0.0
 40
0.0
 40
0.6460798965
 40
0.8957520456
 40
1.0
 40
1.0
 40
1.0
 40
1.0
 10
4.15
 20
1.5053786074
 30
0.0
 10
4.0418023814
 20
1.6136249418
 30
0.0
 10
3.8922961948
 20
1.7641963432
 30
0.0
 10
3.7250685155
 20
1.931995474
 30
0.0
 10
3.6669754768
 20
1.992445673
 30
0.0
 10
3.65
 20
2.0103836124
 30
0.0
  0
SPLINE
  5
553
100
AcDbEntity
  8
RACCORDO
100
AcDbSpline
 62
250
  6
CONTINUOUS
 70
0
 71
3
 72
14
 73
10
 74
0
 42
0.0000001
 43
0.0000001
 44
0.0000000001
 40
0.0
 40
0.0
 40
0.0
 40
0.0
 40
0.3774400674
 40
0.5480128796
 40
0.6977408587
 40
0.821194556
 40
0.9139095863
 40
0.9731440264
 40
1.0
 40
1.0
 40
1.0
 40
1.0
 10
9.8927234819
 20
29.0215648568
 30
0.0
 10
9.9245738673
 20
29.0215635605
 30
0.0
 10
9.970843435
 20
29.0223629462
 30
0.0
 10
10.0296160287
 20
29.0252338863
 30
0.0
 10
10.0670575592
 20
29.0280722674
 30
0.0
 10
10.0974941036
 20
29.0313275999
 30
0.0
 10
10.1210915584
 20
29.0353235739
 30
0.0
 10
10.1344723994
 20
29.0386691836
 30
0.0
 10
10.1425785131
 20
29.0427492804
 30
0.0
 10
10.1427192511
 20
29.045011155
 30
0.0
  0
SPLINE
  5
554
100
AcDbEntity
  8
RACCORDO
100
AcDbSpline
 62
250
  6
CONTINUOUS
 70
0
 71
3
 72
17
 73
13
 74
0
 42
0.0000001
 43
0.0000001
 44
0.0000000001
 40
0.0
 40
0.0
 40
0.0
 40
0.0
 40
0.1934594766
 40
0.3798965822
 40
0.5515801588
 40
0.7022382487
 40
0.8262581259
 40
0.9189074338
 40
0.9524252009
 40
0.9770007969
 40
0.9926269424
 40
1.0
 40
1.0
 40
1.0
 40
1.0
 10
9.8927234819
 20
28.8218389498
 30
0.0
 10
9.9218766884
 20
28.8218344616
 30
0.0
 10
9.9791249217
 20
28.8221266595
 30
0.0
 10
10.0622381734
 20
28.8234193122
 30
0.0
 10
10.1388758526
 20
28.8255062454
 30
0.0
 10
10.206103017
 20
28.8283011632
 30
0.0
 10
10.2613094355
 20
28.8316534451
 30
0.0
 10
10.2989780679
 20
28.8350476695
 30
0.0
 10
10.3213440744
 20
28.8381045278
 30
0.0
 10
10.3325031938
 20
28.8403204407
 30
0.0
 10
10.3389247474
 20
28.8421374971
 30
0.0
 10
10.3425912414
 20
28.8441811831
 30
0.0
 10
10.3427158665
 20
28.8452852481
 30
0.0
  0
SPLINE
  5
555
100
AcDbEntity
  8
0
100
AcDbSpline
 62
250
  6
CONTINUOUS
 70
0
 71
3
 72
14
 73
10
 74
0
 42
0.0000001
 43
0.0000001
 44
0.0000000001
 40
0.0
 40
0.0
 40
0.0
 40
0.0
 40
0.0277044595
 40
0.0888931109
 40
0.181802187
 40
0.3037245207
 40
0.4511026606
 40
0.6196340084
 40
1.0
 40
1.0
 40
1.0
 40
1.0
 10
-10.5363423382
 20
-15.5498443303
 30
0.0
 10
-10.5350532509
 20
-15.5421050328
 30
0.0
 10
-10.534872305
 20
-15.5168042792
 30
0.0
 10
-10.5329203304
 20
-15.4654473139
 30
0.0
 10
-10.5320432774
 20
-15.3872297492
 30
0.0
 10
-10.5307687536
 20
-15.2846810757
 30
0.0
 10
-10.5298403238
 20
-15.1606822642
 30
0.0
 10
-10.5287215693
 20
-14.9635030562
 30
0.0
 10
-10.5283111452
 20
-14.8080536778
 30
0.0
 10
-10.5281693342
 20
-14.7003338787
 30
0.0
  0
SPLINE
  5
556
100
AcDbEntity
  8
0
100
AcDbSpline
 62
250
  6
CONTINUOUS
 70
0
 71
3
 72
14
 73
10
 74
0
 42
0.0000001
 43
0.0000001
 44
0.0000000001
 40
0.0
 40
0.0
 40
0.0
 40
0.0
 40
0.0278513415
 40
0.08908011
 40
0.1819903827
 40
0.3038922233
 40
0.4512368142
 40
0.6197269862
 40
1.0
 40
1.0
 40
1.0
 40
1.0
 10
-11.0362666478
 20
-15.0505303966
 30
0.0
 10
-11.0350201455
 20
-15.0467874622
 30
0.0
 10
-11.0347537807
 20
-15.0339401307
 30
0.0
 10
-11.0328690568
 20
-15.008402313
 30
0.0
 10
-11.031957258
 20
-14.9692145984
 30
0.0
 10
-11.0306966259
 20
-14.9179712394
 30
0.0
 10
-11.0297631467
 20
-14.8559597332
 30
0.0
 10
-11.0286463835
 20
-14.7573710052
 30
0.0
 10
-11.02823497
 20
-14.6796383978
 30
0.0
 10
-11.0280931818
 20
-14.6257743371
 30
0.0
  0
SPLINE
  5
557
100
AcDbEntity
  8
0
100
AcDbSpline
 62
250
  6
CONTINUOUS
 70
0
 71
3
 72
13
 73
9
 74
0
 42
0.0000001
 43
0.0000001
 44
0.0000000001
 40
0.0
 40
0.0
 40
0.0
 40
0.0
 40
0.0353304595
 40
0.0986565326
 40
0.1929227082
 40
0.3160034804
 40
0.6312535559
 40
1.0
 40
1.0
 40
1.0
 40
1.0
 10
-11.0280931818
 20
-14.6257743371
 30
0.0
 10
-11.027397737
 20
-14.6317845477
 30
0.0
 10
-11.01311903
 20
-14.6447566899
 30
0.0
 10
-10.9830650139
 20
-14.6562359996
 30
0.0
 10
-10.9361128065
 20
-14.6687318165
 30
0.0
 10
-10.8463531922
 20
-14.6840077118
 30
0.0
 10
-10.7084133499
 20
-14.6966674343
 30
0.0
 10
-10.5913166478
 20
-14.700171351
 30
0.0
 10
-10.5281693342
 20
-14.7003338784
 30
0.0
  0
SPLINE
  5
558
100
AcDbEntity
  8
0
100
AcDbSpline
 62
250
  6
CONTINUOUS
 70
0
 71
3
 72
18
 73
14
 74
0
 42
0.0000001
 43
0.0000001
 44
0.0000000001
 40
0.0
 40
0.0
 40
0.0
 40
0.0
 40
0.0066567222
 40
0.0225113735
 40
0.0475276483
 40
0.0814931529
 40
0.1240969435
 40
0.1749409488
 40
0.2993687996
 40
0.4501139444
 40
0.6215146931
 40
0.8071308937
 40
1.0
 40
1.0
 40
1.0
 40
1.0
 10
-11.0109082972
 20
-2.9801163876
 30
0.0
 10
-11.01015758
 20
-2.9809339468
 30
0.0
 10
-11.0059080932
 20
-2.9810338204
 30
0.0
 10
-10.9984802936
 20
-2.9823141458
 30
0.0
 10
-10.9857874616
 20
-2.9828990254
 30
0.0
 10
-10.9689714113
 20
-2.9838428372
 30
0.0
 10
-10.9477035329
 20
-2.9846166666
 30
0.0
 10
-10.9114090448
 20
-2.9857487277
 30
0.0
 10
-10.8570502189
 20
-2.986932102
 30
0.0
 10
-10.7826010228
 20
-2.9880726741
 30
0.0
 10
-10.6979390304
 20
-2.9889274602
 30
0.0
 10
-10.6062525461
 20
-2.9894703399
 30
0.0
 10
-10.5431435546
 20
-2.9896057241
 30
0.0
 10
-10.5109844497
 20
-2.9896163876
 30
0.0
  0
SPLINE
  5
559
100
AcDbEntity
  8
0
100
AcDbSpline
 62
250
  6
CONTINUOUS
 70
0
 71
3
 72
8
 73
4
 74
0
 42
0.0000001
 43
0.0000001
 44
0.0000000001
 40
0.0
 40
0.0
 40
0.0
 40
0.0
 40
1.0
 40
1.0
 40
1.0
 40
1.0
 10
-11.0109082972
 20
-2.9801163876
 30
0.0
 10
-11.0088095936
 20
3.3468832643
 30
0.0
 10
-11.0088095936
 20
9.6738839605
 30
0.0
 10
-11.0109082972
 20
16.0008836124
 30
0.0
  0
SPLINE
  5
55A
100
AcDbEntity
  8
0
100
AcDbSpline
 62
250
  6
CONTINUOUS
 70
0
 71
3
 72
18
 73
14
 74
0
 42
0.0000001
 43
0.0000001
 44
0.0000000001
 40
0.0
 40
0.0
 40
0.0
 40
0.0
 40
0.0066567225
 40
0.0225113742
 40
0.0475276493
 40
0.0814931541
 40
0.1240969449
 40
0.1749409503
 40
0.2993688012
 40
0.4501139457
 40
0.6215146941
 40
0.8071308943
 40
1.0
 40
1.0
 40
1.0
 40
1.0
 10
-11.0109082972
 20
16.0008836124
 30
0.0
 10
-11.0101575798
 20
16.0017011716
 30
0.0
 10
-11.0059080931
 20
16.0018010452
 30
0.0
 10
-10.9984802932
 20
16.0030813705
 30
0.0
 10
-10.9857874611
 20
16.0036662501
 30
0.0
 10
-10.9689714107
 20
16.0046100619
 30
0.0
 10
-10.9477035322
 20
16.0053838914
 30
0.0
 10
-10.9114090441
 20
16.0065159524
 30
0.0
 10
-10.8570502182
 20
16.0076993267
 30
0.0
 10
-10.7826010221
 20
16.0088398988
 30
0.0
 10
-10.6979390299
 20
16.0096946849
 30
0.0
 10
-10.6062525459
 20
16.0102375647
 30
0.0
 10
-10.5431435545
 20
16.0103729488
 30
0.0
 10
-10.5109844497
 20
16.0103836123
 30
0.0
  0
SPLINE
  5
55B
100
AcDbEntity
  8
0
100
AcDbSpline
 62
250
  6
CONTINUOUS
 70
0
 71
3
 72
13
 73
9
 74
0
 42
0.0000001
 43
0.0000001
 44
0.0000000001
 40
0.0
 40
0.0
 40
0.0
 40
0.0
 40
0.0353304866
 40
0.0986565966
 40
0.1929228008
 40
0.3160035866
 40
0.6312536363
 40
1.0
 40
1.0
 40
1.0
 40
1.0
 10
-11.0280931818
 20
27.6465415619
 30
0.0
 10
-11.0273977242
 20
27.6525517753
 30
0.0
 10
-11.0131189967
 20
27.6655239031
 30
0.0
 10
-10.9830649663
 20
27.6770032143
 30
0.0
 10
-10.9361127448
 20
27.689499023
 30
0.0
 10
-10.8463531308
 20
27.7047749109
 30
0.0
 10
-10.7084133098
 20
27.7174346245
 30
0.0
 10
-10.5913166313
 20
27.7209385391
 30
0.0
 10
-10.5281693342
 20
27.7211010663
 30
0.0
  0
SPLINE
  5
55C
100
AcDbEntity
  8
0
100
AcDbSpline
 62
250
  6
CONTINUOUS
 70
0
 71
3
 72
14
 73
10
 74
0
 42
0.0000001
 43
0.0000001
 44
0.0000000001
 40
0.0
 40
0.0
 40
0.0
 40
0.0
 40
0.3803659866
 40
0.5488973315
 40
0.6962754694
 40
0.8181978015
 40
0.9111068778
 40
0.9722955422
 40
1.0
 40
1.0
 40
1.0
 40
1.0
 10
-10.5281693342
 20
27.7211011035
 30
0.0
 10
-10.5283111474
 20
27.8288209027
 30
0.0
 10
-10.5287215821
 20
27.9842702789
 30
0.0
 10
-10.5298403113
 20
28.1814494926
 30
0.0
 10
-10.5307688257
 20
28.3054482907
 30
0.0
 10
-10.5320430583
 20
28.4079970029
 30
0.0
 10
-10.5329207636
 20
28.4862144784
 30
0.0
 10
-10.5348714246
 20
28.5375716353
 30
0.0
 10
-10.5350540584
 20
28.5628721542
 30
0.0
 10
-10.5363425225
 20
28.570611555
 30
0.0
  0
SPLINE
  5
55D
100
AcDbEntity
  8
0
100
AcDbSpline
 62
250
  6
CONTINUOUS
 70
0
 71
3
 72
14
 73
10
 74
0
 42
0.0000001
 43
0.0000001
 44
0.0000000001
 40
0.0
 40
0.0
 40
0.0
 40
0.0
 40
0.3802655362
 40
0.5487532117
 40
0.6960965874
 40
0.8179987805
 40
0.9109111072
 40
0.972143564
 40
1.0
 40
1.0
 40
1.0
 40
1.0
 10
-11.0280931818
 20
27.6465415619
 30
0.0
 10
-11.0282349824
 20
27.7004044537
 30
0.0
 10
-11.0286463633
 20
27.7781354891
 30
0.0
 10
-11.0297630876
 20
27.8767224349
 30
0.0
 10
-11.0306965363
 20
27.9387333328
 30
0.0
 10
-11.0319571204
 20
27.9899767752
 30
0.0
 10
-11.0328689033
 20
28.0291652329
 30
0.0
 10
-11.034753611
 20
28.0547046077
 30
0.0
 10
-11.0350198919
 20
28.0675530931
 30
0.0
 10
-11.0362663701
 20
28.0712967876
 30
0.0
  0
SPLINE
  5
55E
100
AcDbEntity
  8
0
100
AcDbSpline
 62
250
  6
CONTINUOUS
 70
0
 71
3
 72
13
 73
9
 74
0
 42
0.0000001
 43
0.0000001
 44
0.0000000001
 40
0.0
 40
0.0
 40
0.0
 40
0.0
 40
0.0353304866
 40
0.0986566013
 40
0.1929228123
 40
0.3160036041
 40
0.6312536537
 40
1.0
 40
1.0
 40
1.0
 40
1.0
 10
11.0280931818
 20
-14.6257743371
 30
0.0
 10
11.0273977243
 20
-14.6317845505
 30
0.0
 10
11.0131189943
 20
-14.6447566776
 30
0.0
 10
10.9830649621
 20
-14.6562359872
 30
0.0
 10
10.9361127371
 20
-14.6687317946
 30
0.0
 10
10.8463531212
 20
-14.68400768
 30
0.0
 10
10.7084133028
 20
-14.6966673912
 30
0.0
 10
10.5913166279
 20
-14.700171305
 30
0.0
 10
10.5281693342
 20
-14.7003338321
 30
0.0
  0
SPLINE
  5
55F
100
AcDbEntity
  8
RACCORDO
100
AcDbSpline
 62
7
  6
CONTINUOUS
 70
0
 71
3
 72
10
 73
6
 74
0
 42
0.0000001
 43
0.0000001
 44
0.0000000001
 40
0.0
 40
0.0
 40
0.0
 40
0.0
 40
0.6460740036
 40
0.8957455062
 40
1.0
 40
1.0
 40
1.0
 40
1.0
 10
6.95
 20
1.5053786074
 30
0.0
 10
6.8418033674
 20
1.6136239554
 30
0.0
 10
6.6922987929
 20
1.7641947702
 30
0.0
 10
6.525070105
 20
1.9319929159
 30
0.0
 10
6.4669763682
 20
1.9924443802
 30
0.0
 10
6.45
 20
2.0103836124
 30
0.0
  0
SPLINE
  5
560
100
AcDbEntity
  8
RACCORDO
100
AcDbSpline
 62
7
  6
CONTINUOUS
 70
0
 71
3
 72
10
 73
6
 74
0
 42
0.0000001
 43
0.0000001
 44
0.0000000001
 40
0.0
 40
0.0
 40
0.0
 40
0.0
 40
0.645875597
 40
0.8954605307
 40
1.0
 40
1.0
 40
1.0
 40
1.0
 10
6.95
 20
10.4142875163
 30
0.0
 10
6.8419573908
 20
10.3061941402
 30
0.0
 10
6.6925517168
 20
10.1559481665
 30
0.0
 10
6.5254566855
 20
9.988393773
 30
0.0
 10
6.4671176804
 20
9.9282426423
 30
0.0
 10
6.45
 20
9.9103836124
 30
0.0
  0
SPLINE
  5
561
100
AcDbEntity
  8
RACCORDO
100
AcDbSpline
 62
7
  6
CONTINUOUS
 70
0
 71
3
 72
10
 73
6
 74
0
 42
0.0000001
 43
0.0000001
 44
0.0000000001
 40
0.0
 40
0.0
 40
0.0
 40
0.0
 40
0.6458800535
 40
0.8954656014
 40
1.0
 40
1.0
 40
1.0
 40
1.0
 10
-6.95
 20
10.4142875163
 30
0.0
 10
-6.8419566457
 20
10.3061933948
 30
0.0
 10
-6.6925498152
 20
10.1559468771
 30
0.0
 10
-6.5254553845
 20
9.9883918938
 30
0.0
 10
-6.4671169536
 20
9.9282416753
 30
0.0
 10
-6.45
 20
9.9103836124
 30
0.0
  0
SPLINE
  5
562
100
AcDbEntity
  8
0
100
AcDbSpline
 62
250
  6
CONTINUOUS
 70
0
 71
3
 72
14
 73
10
 74
0
 42
0.0000001
 43
0.0000001
 44
0.0000000001
 40
0.0
 40
0.0
 40
0.0
 40
0.0
 40
0.3803659916
 40
0.5488973394
 40
0.6962754793
 40
0.818197813
 40
0.9111068891
 40
0.9722955405
 40
1.0
 40
1.0
 40
1.0
 40
1.0
 10
10.5281693342
 20
-14.7003338787
 30
0.0
 10
10.5283111452
 20
-14.8080536778
 30
0.0
 10
10.5287215693
 20
-14.9635030562
 30
0.0
 10
10.5298403238
 20
-15.1606822642
 30
0.0
 10
10.5307687536
 20
-15.2846810757
 30
0.0
 10
10.5320432774
 20
-15.3872297492
 30
0.0
 10
10.5329203304
 20
-15.4654473139
 30
0.0
 10
10.534872305
 20
-15.5168042792
 30
0.0
 10
10.5350532509
 20
-15.5421050328
 30
0.0
 10
10.5363423382
 20
-15.5498443303
 30
0.0
  0
SPLINE
  5
563
100
AcDbEntity
  8
RACCORDO
100
AcDbSpline
 62
7
  6
CONTINUOUS
 70
0
 71
3
 72
10
 73
6
 74
0
 42
0.0000001
 43
0.0000001
 44
0.0000000001
 40
0.0
 40
0.0
 40
0.0
 40
0.0
 40
0.6460798965
 40
0.8957520456
 40
1.0
 40
1.0
 40
1.0
 40
1.0
 10
-6.95
 20
1.5053786074
 30
0.0
 10
-6.8418023814
 20
1.6136249418
 30
0.0
 10
-6.6922961948
 20
1.7641963432
 30
0.0
 10
-6.5250685155
 20
1.931995474
 30
0.0
 10
-6.4669754768
 20
1.992445673
 30
0.0
 10
-6.45
 20
2.0103836124
 30
0.0
  0
SPLINE
  5
564
100
AcDbEntity
  8
RACCORDO
100
AcDbSpline
 62
7
  6
CONTINUOUS
 70
0
 71
3
 72
10
 73
6
 74
0
 42
0.0000001
 43
0.0000001
 44
0.0000000001
 40
0.0
 40
0.0
 40
0.0
 40
0.0
 40
0.6460740036
 40
0.8957455062
 40
1.0
 40
1.0
 40
1.0
 40
1.0
 10
-4.15
 20
1.5053786074
 30
0.0
 10
-4.0418033674
 20
1.6136239554
 30
0.0
 10
-3.8922987929
 20
1.7641947702
 30
0.0
 10
-3.725070105
 20
1.9319929159
 30
0.0
 10
-3.6669763682
 20
1.9924443802
 30
0.0
 10
-3.65
 20
2.0103836124
 30
0.0
  0
SPLINE
  5
565
100
AcDbEntity
  8
RACCORDO
100
AcDbSpline
 62
7
  6
CONTINUOUS
 70
0
 71
3
 72
21
 73
17
 74
0
 42
0.0000001
 43
0.0000001
 44
0.0000000001
 40
0.0
 40
0.0
 40
0.0
 40
0.0
 40
0.0022310482
 40
0.0079853564
 40
0.0171233647
 40
0.0294930083
 40
0.0632854881
 40
0.1077280743
 40
0.1609082393
 40
0.221128236
 40
0.2870428086
 40
0.3574369739
 40
0.5082381789
 40
0.667974114
 40
0.8328579881
 40
1.0
 40
1.0
 40
1.0
 40
1.0
 10
-3.65
 20
0.4103432072
 30
0.0
 10
-3.65
 20
0.4098138485
 30
0.0
 10
-3.6517395815
 20
0.4084555498
 30
0.0
 10
-3.6539702608
 20
0.4053261963
 30
0.0
 10
-3.6586182149
 20
0.4006328719
 30
0.0
 10
-3.6674852895
 20
0.3910656176
 30
0.0
 10
-3.6824953612
 20
0.3755979599
 30
0.0
 10
-3.7041842735
 20
0.3532310055
 30
0.0
 10
-3.7303912013
 20
0.3264642971
 30
0.0
 10
-3.7602035941
 20
0.2961142471
 30
0.0
 10
-3.7929374033
 20
0.2629034657
 30
0.0
 10
-3.8408144088
 20
0.2144431994
 30
0.0
 10
-3.9044344185
 20
0.1502430479
 30
0.0
 10
-3.9839501922
 20
0.0702325378
 30
0.0
 10
-4.0663004075
 20
-0.0124272573
 30
0.0
 10
-4.1219636142
 20
-0.0681750285
 30
0.0
 10
-4.15
 20
-0.0962229942
 30
0.0
  0
SPLINE
  5
566
100
AcDbEntity
  8
0
100
AcDbSpline
 62
250
  6
CONTINUOUS
 70
0
 71
3
 72
14
 73
10
 74
0
 42
0.0000001
 43
0.0000001
 44
0.0000000001
 40
0.0
 40
0.0
 40
0.0
 40
0.0
 40
0.3802205958
 40
0.548693429
 40
0.6960295155
 40
0.8179333285
 40
0.9108571403
 40
0.9721114689
 40
1.0
 40
1.0
 40
1.0
 40
1.0
 10
11.0280931818
 20
-14.6257743371
 30
0.0
 10
11.0282349484
 20
-14.6796302056
 30
0.0
 10
11.0286463415
 20
-14.7573517958
 30
0.0
 10
11.0297626488
 20
-14.855928105
 30
0.0
 10
11.0306962529
 20
-14.9179351885
 30
0.0
 10
11.0319555912
 20
-14.9691792635
 30
0.0
 10
11.0328696539
 20
-15.0083711543
 30
0.0
 10
11.0347495362
 20
-15.0339215316
 30
0.0
 10
11.0350213299
 20
-15.0467750949
 30
0.0
 10
11.036264704
 20
-15.0505245606
 30
0.0
  0
SPLINE
  5
567
100
AcDbEntity
  8
0
100
AcDbSpline
 62
250
  6
CONTINUOUS
 70
0
 71
3
 72
18
 73
14
 74
0
 42
0.0000001
 43
0.0000001
 44
0.0000000001
 40
0.0
 40
0.0
 40
0.0
 40
0.0
 40
0.0066567224
 40
0.022511374
 40
0.047527649
 40
0.0814931537
 40
0.1240969444
 40
0.1749409498
 40
0.2993688006
 40
0.4501139453
 40
0.6215146938
 40
0.8071308941
 40
1.0
 40
1.0
 40
1.0
 40
1.0
 10
11.0109082972
 20
-2.9801163876
 30
0.0
 10
11.0101575799
 20
-2.9809339468
 30
0.0
 10
11.0059080932
 20
-2.9810338204
 30
0.0
 10
10.9984802934
 20
-2.9823141458
 30
0.0
 10
10.9857874613
 20
-2.9828990254
 30
0.0
 10
10.9689714109
 20
-2.9838428371
 30
0.0
 10
10.9477035325
 20
-2.9846166666
 30
0.0
 10
10.9114090443
 20
-2.9857487277
 30
0.0
 10
10.8570502185
 20
-2.9869321019
 30
0.0
 10
10.7826010223
 20
-2.988072674
 30
0.0
 10
10.6979390301
 20
-2.9889274601
 30
0.0
 10
10.606252546
 20
-2.9894703399
 30
0.0
 10
10.5431435545
 20
-2.9896057241
 30
0.0
 10
10.5109844497
 20
-2.9896163876
 30
0.0
  0
SPLINE
  5
568
100
AcDbEntity
  8
0
100
AcDbSpline
 62
250
  6
CONTINUOUS
 70
0
 71
3
 72
18
 73
14
 74
0
 42
0.0000001
 43
0.0000001
 44
0.0000000001
 40
0.0
 40
0.0
 40
0.0
 40
0.0
 40
0.0066567222
 40
0.0225113735
 40
0.0475276483
 40
0.0814931529
 40
0.1240969435
 40
0.1749409488
 40
0.2993687996
 40
0.4501139444
 40
0.6215146931
 40
0.8071308937
 40
1.0
 40
1.0
 40
1.0
 40
1.0
 10
11.0109082972
 20
16.0008836124
 30
0.0
 10
11.01015758
 20
16.0017011716
 30
0.0
 10
11.0059080932
 20
16.0018010452
 30
0.0
 10
10.9984802937
 20
16.0030813706
 30
0.0
 10
10.9857874616
 20
16.0036662501
 30
0.0
 10
10.9689714113
 20
16.0046100619
 30
0.0
 10
10.9477035329
 20
16.0053838914
 30
0.0
 10
10.9114090448
 20
16.0065159524
 30
0.0
 10
10.857050219
 20
16.0076993267
 30
0.0
 10
10.7826010228
 20
16.0088398988
 30
0.0
 10
10.6979390304
 20
16.0096946849
 30
0.0
 10
10.6062525461
 20
16.0102375647
 30
0.0
 10
10.5431435546
 20
16.0103729489
 30
0.0
 10
10.5109844497
 20
16.0103836124
 30
0.0
  0
SPLINE
  5
569
100
AcDbEntity
  8
0
100
AcDbSpline
 62
250
  6
CONTINUOUS
 70
0
 71
3
 72
8
 73
4
 74
0
 42
0.0000001
 43
0.0000001
 44
0.0000000001
 40
0.0
 40
0.0
 40
0.0
 40
0.0
 40
1.0
 40
1.0
 40
1.0
 40
1.0
 10
11.0109082972
 20
16.0008836124
 30
0.0
 10
11.0088095936
 20
9.6738839605
 30
0.0
 10
11.0088095936
 20
3.3468832643
 30
0.0
 10
11.0109082972
 20
-2.9801163876
 30
0.0
  0
SPLINE
  5
56A
100
AcDbEntity
  8
0
100
AcDbSpline
 62
250
  6
CONTINUOUS
 70
0
 71
3
 72
13
 73
9
 74
0
 42
0.0000001
 43
0.0000001
 44
0.0000000001
 40
0.0
 40
0.0
 40
0.0
 40
0.0
 40
0.0353304594
 40
0.0986565323
 40
0.1929227079
 40
0.31600348
 40
0.6312535556
 40
1.0
 40
1.0
 40
1.0
 40
1.0
 10
11.0280931818
 20
27.6465415619
 30
0.0
 10
11.027397737
 20
27.6525517724
 30
0.0
 10
11.0131190301
 20
27.6655239147
 30
0.0
 10
10.9830650141
 20
27.6770032244
 30
0.0
 10
10.9361128067
 20
27.6894990413
 30
0.0
 10
10.8463531924
 20
27.7047749367
 30
0.0
 10
10.70841335
 20
27.7174346592
 30
0.0
 10
10.5913166479
 20
27.7209385759
 30
0.0
 10
10.5281693342
 20
27.7211011033
 30
0.0
  0
SPLINE
  5
56B
100
AcDbEntity
  8
0
100
AcDbSpline
 62
250
  6
CONTINUOUS
 70
0
 71
3
 72
14
 73
10
 74
0
 42
0.0000001
 43
0.0000001
 44
0.0000000001
 40
0.0
 40
0.0
 40
0.0
 40
0.0
 40
0.0277044578
 40
0.0888931222
 40
0.1818021985
 40
0.3037245306
 40
0.4511026685
 40
0.6196340134
 40
1.0
 40
1.0
 40
1.0
 40
1.0
 10
10.5363425225
 20
28.570611555
 30
0.0
 10
10.5350540584
 20
28.5628721542
 30
0.0
 10
10.5348714246
 20
28.5375716353
 30
0.0
 10
10.5329207636
 20
28.4862144784
 30
0.0
 10
10.5320430583
 20
28.4079970029
 30
0.0
 10
10.5307688257
 20
28.3054482907
 30
0.0
 10
10.5298403113
 20
28.1814494926
 30
0.0
 10
10.5287215821
 20
27.9842702789
 30
0.0
 10
10.5283111474
 20
27.8288209027
 30
0.0
 10
10.5281693342
 20
27.7211011035
 30
0.0
  0
SPLINE
  5
56C
100
AcDbEntity
  8
0
100
AcDbSpline
 62
250
  6
CONTINUOUS
 70
0
 71
3
 72
14
 73
10
 74
0
 42
0.0000001
 43
0.0000001
 44
0.0000000001
 40
0.0
 40
0.0
 40
0.0
 40
0.0
 40
0.027856436
 40
0.0890888928
 40
0.1820012195
 40
0.3039034126
 40
0.4512467883
 40
0.6197344638
 40
1.0
 40
1.0
 40
1.0
 40
1.0
 10
11.0362663701
 20
28.0712967876
 30
0.0
 10
11.0350198919
 20
28.0675530931
 30
0.0
 10
11.034753611
 20
28.0547046077
 30
0.0
 10
11.0328689033
 20
28.0291652329
 30
0.0
 10
11.0319571204
 20
27.9899767752
 30
0.0
 10
11.0306965363
 20
27.9387333328
 30
0.0
 10
11.0297630876
 20
27.8767224349
 30
0.0
 10
11.0286463633
 20
27.7781354891
 30
0.0
 10
11.0282349824
 20
27.7004044537
 30
0.0
 10
11.0280931818
 20
27.6465415619
 30
0.0
  0
SPLINE
  5
56D
100
AcDbEntity
  8
RACCORDO
100
AcDbSpline
 62
250
  6
CONTINUOUS
 70
0
 71
3
 72
12
 73
8
 74
0
 42
0.0000001
 43
0.0000001
 44
0.0000000001
 40
0.0
 40
0.0
 40
0.0
 40
0.0
 40
0.3688361402
 40
0.6841628995
 40
0.9013540108
 40
0.9646780229
 40
1.0
 40
1.0
 40
1.0
 40
1.0
 10
9.7056502374
 20
27.7211011029
 30
0.0
 10
9.6803913121
 20
27.7210360909
 30
0.0
 10
9.6334383461
 20
27.7196221956
 30
0.0
 10
9.5722401675
 20
27.7140121675
 30
0.0
 10
9.5313949548
 20
27.7064260911
 30
0.0
 10
9.5116857767
 20
27.698847617
 30
0.0
 10
9.5059587421
 20
27.6936802093
 30
0.0
 10
9.5056806983
 20
27.6912772869
 30
0.0
  0
SPLINE
  5
56E
100
AcDbEntity
  8
RACCORDO
100
AcDbSpline
 62
250
  6
CONTINUOUS
 70
0
 71
3
 72
14
 73
10
 74
0
 42
0.0000001
 43
0.0000001
 44
0.0000000001
 40
0.0
 40
0.0
 40
0.0
 40
0.0
 40
0.3745443699
 40
0.5444026274
 40
0.6938928867
 40
0.8176474159
 40
0.9114159098
 40
0.971993636
 40
1.0
 40
1.0
 40
1.0
 40
1.0
 10
9.7166244508
 20
22.5202648138
 30
0.0
 10
9.6913739434
 20
22.5202250332
 30
0.0
 10
9.6546544214
 20
22.5195626465
 30
0.0
 10
9.6079563285
 20
22.5172954047
 30
0.0
 10
9.578088702
 20
22.5151037172
 30
0.0
 10
9.5536776915
 20
22.512520117
 30
0.0
 10
9.5346524984
 20
22.5095457746
 30
0.0
 10
9.523662009
 20
22.506721399
 30
0.0
 10
9.5169887334
 20
22.5038544784
 30
0.0
 10
9.5166357409
 20
22.5019996729
 30
0.0
  0
SPLINE
  5
56F
100
AcDbEntity
  8
RACCORDO
100
AcDbSpline
 62
250
  6
CONTINUOUS
 70
0
 71
3
 72
14
 73
10
 74
0
 42
0.0000001
 43
0.0000001
 44
0.0000000001
 40
0.0
 40
0.0
 40
0.0
 40
0.0
 40
0.3745588262
 40
0.5444177813
 40
0.6939056629
 40
0.817656001
 40
0.9114199958
 40
0.9719944166
 40
1.0
 40
1.0
 40
1.0
 40
1.0
 10
-9.7166244527
 20
22.5202660814
 30
0.0
 10
-9.6913753276
 20
22.5202259973
 30
0.0
 10
-9.6546582185
 20
22.5195632458
 30
0.0
 10
-9.6079636482
 20
22.5172955838
 30
0.0
 10
-9.5780992457
 20
22.5151036842
 30
0.0
 10
-9.553691264
 20
22.5125200114
 30
0.0
 10
-9.534668806
 20
22.5095455571
 30
0.0
 10
-9.5236798015
 20
22.5067213641
 30
0.0
 10
-9.5170077701
 20
22.503854275
 30
0.0
 10
-9.5166549137
 20
22.5019996765
 30
0.0
  0
SPLINE
  5
570
100
AcDbEntity
  8
RACCORDO
100
AcDbSpline
 62
250
  6
CONTINUOUS
 70
0
 71
3
 72
12
 73
8
 74
0
 42
0.0000001
 43
0.0000001
 44
0.0000000001
 40
0.0
 40
0.0
 40
0.0
 40
0.0
 40
0.3688188423
 40
0.6841385001
 40
0.9013376772
 40
0.9646705796
 40
1.0
 40
1.0
 40
1.0
 40
1.0
 10
-9.7056502373
 20
27.7210981088
 30
0.0
 10
-9.6803927627
 20
27.7210331082
 30
0.0
 10
-9.633441959
 20
27.7196194849
 30
0.0
 10
-9.5722455364
 20
27.7140096868
 30
0.0
 10
-9.5313998818
 20
27.7064250419
 30
0.0
 10
-9.5116891575
 20
27.6988464313
 30
0.0
 10
-9.5059601548
 20
27.6936805331
 30
0.0
 10
-9.5056806991
 20
27.6912772869
 30
0.0
  0
SPLINE
  5
571
100
AcDbEntity
  8
RACCORDO
100
AcDbSpline
 62
250
  6
CONTINUOUS
 70
0
 71
3
 72
9
 73
5
 74
0
 42
0.0000001
 43
0.0000001
 44
0.0000000001
 40
0.0
 40
0.0
 40
0.0
 40
0.0
 40
0.5008806662
 40
1.0
 40
1.0
 40
1.0
 40
1.0
 10
-9.1879976362
 20
22.0314614667
 30
0.0
 10
-9.2824756113
 20
22.0657471805
 30
0.0
 10
-9.4540240587
 20
22.1960283974
 30
0.0
 10
-9.5168951462
 20
22.4018466875
 30
0.0
 10
-9.5166549137
 20
22.5019996765
 30
0.0
  0
SPLINE
  5
572
100
AcDbEntity
  8
RACCORDO
100
AcDbSpline
 62
250
  6
CONTINUOUS
 70
0
 71
3
 72
9
 73
5
 74
0
 42
0.0000001
 43
0.0000001
 44
0.0000000001
 40
0.0
 40
0.0
 40
0.0
 40
0.0
 40
0.4991193337
 40
1.0
 40
1.0
 40
1.0
 40
1.0
 10
9.5166549137
 20
22.5019996765
 30
0.0
 10
9.516895153
 20
22.4018466876
 30
0.0
 10
9.4540240554
 20
22.1960283976
 30
0.0
 10
9.2824756116
 20
22.0657471798
 30
0.0
 10
9.1879976361
 20
22.0314614667
 30
0.0
  0
SPLINE
  5
573
100
AcDbEntity
  8
RACCORDO
100
AcDbSpline
 62
7
  6
CONTINUOUS
 70
0
 71
3
 72
21
 73
17
 74
0
 42
0.0000001
 43
0.0000001
 44
0.0000000001
 40
0.0
 40
0.0
 40
0.0
 40
0.0
 40
0.0022310482
 40
0.0079853564
 40
0.0171233647
 40
0.0294930083
 40
0.0632854881
 40
0.1077280743
 40
0.1609082393
 40
0.221128236
 40
0.2870428086
 40
0.3574369739
 40
0.5082381789
 40
0.667974114
 40
0.8328579881
 40
1.0
 40
1.0
 40
1.0
 40
1.0
 10
-2.5
 20
0.4103432072
 30
0.0
 10
-2.5
 20
0.4098138485
 30
0.0
 10
-2.5017395815
 20
0.4084555498
 30
0.0
 10
-2.5039702608
 20
0.4053261963
 30
0.0
 10
-2.5086182149
 20
0.4006328719
 30
0.0
 10
-2.5174852895
 20
0.3910656176
 30
0.0
 10
-2.5324953612
 20
0.3755979599
 30
0.0
 10
-2.5541842735
 20
0.3532310055
 30
0.0
 10
-2.5803912013
 20
0.3264642971
 30
0.0
 10
-2.6102035941
 20
0.2961142471
 30
0.0
 10
-2.6429374033
 20
0.2629034657
 30
0.0
 10
-2.6908144088
 20
0.2144431994
 30
0.0
 10
-2.7544344185
 20
0.1502430479
 30
0.0
 10
-2.8339501922
 20
0.0702325378
 30
0.0
 10
-2.9163004075
 20
-0.0124272573
 30
0.0
 10
-2.9719636142
 20
-0.0681750285
 30
0.0
 10
-3.0
 20
-0.0962229942
 30
0.0
  0
SPLINE
  5
574
100
AcDbEntity
  8
RACCORDO
100
AcDbSpline
 62
250
  6
CONTINUOUS
 70
0
 71
3
 72
14
 73
10
 74
0
 42
0.0000001
 43
0.0000001
 44
0.0000000001
 40
0.0
 40
0.0
 40
0.0
 40
0.0
 40
0.0268559783
 40
0.0860904154
 40
0.1788054457
 40
0.3022591428
 40
0.4519871215
 40
0.6225599334
 40
1.0
 40
1.0
 40
1.0
 40
1.0
 10
-7.2572807489
 20
-16.0242439302
 30
0.0
 10
-7.2574214873
 20
-16.0219820553
 30
0.0
 10
-7.265527599
 20
-16.0179019565
 30
0.0
 10
-7.2789084427
 20
-16.0145563503
 30
0.0
 10
-7.302505896
 20
-16.0105603744
 30
0.0
 10
-7.332942441
 20
-16.0073050435
 30
0.0
 10
-7.3703839713
 20
-16.0044666625
 30
0.0
 10
-7.4291565649
 20
-16.0015957199
 30
0.0
 10
-7.4754261327
 20
-16.0007963341
 30
0.0
 10
-7.5072765181
 20
-16.000797632
 30
0.0
  0
SPLINE
  5
575
100
AcDbEntity
  8
RACCORDO
100
AcDbSpline
 62
250
  6
CONTINUOUS
 70
0
 71
3
 72
17
 73
13
 74
0
 42
0.0000001
 43
0.0000001
 44
0.0000000001
 40
0.0
 40
0.0
 40
0.0
 40
0.0
 40
0.0073730559
 40
0.0229991925
 40
0.0475747803
 40
0.0810925475
 40
0.173741872
 40
0.2977617577
 40
0.4484198443
 40
0.620103416
 40
0.8065405215
 40
1.0
 40
1.0
 40
1.0
 40
1.0
 10
-7.0572841335
 20
-15.8245180233
 30
0.0
 10
-7.0574087596
 20
-15.8234139587
 30
0.0
 10
-7.0610752492
 20
-15.8213702728
 30
0.0
 10
-7.0674968017
 20
-15.8195532155
 30
0.0
 10
-7.0786559176
 20
-15.8173373026
 30
0.0
 10
-7.1010219258
 20
-15.8142804444
 30
0.0
 10
-7.1386905619
 20
-15.810886221
 30
0.0
 10
-7.1938969838
 20
-15.8075339379
 30
0.0
 10
-7.2611241483
 20
-15.8047390208
 30
0.0
 10
-7.3377618265
 20
-15.8026520916
 30
0.0
 10
-7.4208750776
 20
-15.8013594271
 30
0.0
 10
-7.4781233112
 20
-15.8010672276
 30
0.0
 10
-7.5072765181
 20
-15.8010717251
 30
0.0
  0
SPLINE
  5
576
100
AcDbEntity
  8
RACCORDO
100
AcDbSpline
 62
250
  6
CONTINUOUS
 70
0
 71
3
 72
14
 73
10
 74
0
 42
0.0000001
 43
0.0000001
 44
0.0000000001
 40
0.0
 40
0.0
 40
0.0
 40
0.0
 40
0.3774400674
 40
0.5480128796
 40
0.6977408587
 40
0.821194556
 40
0.9139095863
 40
0.9731440264
 40
1.0
 40
1.0
 40
1.0
 40
1.0
 10
-9.8927234819
 20
-16.000797632
 30
0.0
 10
-9.9245738673
 20
-16.0007963357
 30
0.0
 10
-9.970843435
 20
-16.0015957215
 30
0.0
 10
-10.0296160287
 20
-16.0044666615
 30
0.0
 10
-10.0670575592
 20
-16.0073050426
 30
0.0
 10
-10.0974941036
 20
-16.0105603752
 30
0.0
 10
-10.1210915584
 20
-16.0145563492
 30
0.0
 10
-10.1344723994
 20
-16.0179019588
 30
0.0
 10
-10.1425785131
 20
-16.0219820557
 30
0.0
 10
-10.1427192511
 20
-16.0242439302
 30
0.0
  0
SPLINE
  5
577
100
AcDbEntity
  8
RACCORDO
100
AcDbSpline
 62
250
  6
CONTINUOUS
 70
0
 71
3
 72
17
 73
13
 74
0
 42
0.0000001
 43
0.0000001
 44
0.0000000001
 40
0.0
 40
0.0
 40
0.0
 40
0.0
 40
0.1934594766
 40
0.3798965822
 40
0.5515801588
 40
0.7022382487
 40
0.8262581259
 40
0.9189074338
 40
0.9524252009
 40
0.9770007969
 40
0.9926269424
 40
1.0
 40
1.0
 40
1.0
 40
1.0
 10
-9.8927234819
 20
-15.8010717251
 30
0.0
 10
-9.9218766884
 20
-15.8010672369
 30
0.0
 10
-9.9791249217
 20
-15.8013594348
 30
0.0
 10
-10.0622381734
 20
-15.8026520875
 30
0.0
 10
-10.1388758526
 20
-15.8047390206
 30
0.0
 10
-10.206103017
 20
-15.8075339384
 30
0.0
 10
-10.2613094355
 20
-15.8108862203
 30
0.0
 10
-10.2989780679
 20
-15.8142804447
 30
0.0
 10
-10.3213440744
 20
-15.817337303
 30
0.0
 10
-10.3325031938
 20
-15.8195532159
 30
0.0
 10
-10.3389247474
 20
-15.8213702723
 30
0.0
 10
-10.3425912414
 20
-15.8234139583
 30
0.0
 10
-10.3427158665
 20
-15.8245180233
 30
0.0
  0
SPLINE
  5
578
100
AcDbEntity
  8
RACCORDO
100
AcDbSpline
 62
7
  6
CONTINUOUS
 70
0
 71
3
 72
21
 73
17
 74
0
 42
0.0000001
 43
0.0000001
 44
0.0000000001
 40
0.0
 40
0.0
 40
0.0
 40
0.0
 40
0.0023211247
 40
0.0081526043
 40
0.0173601707
 40
0.0297924377
 40
0.0636892776
 40
0.1082095168
 40
0.161442771
 40
0.2216933182
 40
0.2876179855
 40
0.3580037655
 40
0.5087394652
 40
0.668354102
 40
0.8330689647
 40
1.0
 40
1.0
 40
1.0
 40
1.0
 10
-2.5
 20
-0.9396758004
 30
0.0
 10
-2.5
 20
-0.9402272798
 30
0.0
 10
-2.5017012823
 20
-0.9416691355
 30
0.0
 10
-2.5039768905
 20
-0.9448509567
 30
0.0
 10
-2.5086050398
 20
-0.949634806
 30
0.0
 10
-2.5174805757
 20
-0.9593006231
 30
0.0
 10
-2.5324803157
 20
-0.9748956035
 30
0.0
 10
-2.554176638
 20
-0.9973939562
 30
0.0
 10
-2.5803840523
 20
-1.0242842491
 30
0.0
 10
-2.6101982105
 20
-1.054744961
 30
0.0
 10
-2.6429327716
 20
-1.0880545991
 30
0.0
 10
-2.690805417
 20
-1.1366279518
 30
0.0
 10
-2.7544219486
 20
-1.2009391322
 30
0.0
 10
-2.8339394359
 20
-1.281044848
 30
0.0
 10
-2.9162905534
 20
-1.3637594305
 30
0.0
 10
-2.9719604031
 20
-1.4195242718
 30
0.0
 10
-3.0
 20
-1.4475743456
 30
0.0
  0
SPLINE
  5
579
100
AcDbEntity
  8
RACCORDO
100
AcDbSpline
 62
250
  6
CONTINUOUS
 70
0
 71
3
 72
14
 73
10
 74
0
 42
0.0000001
 43
0.0000001
 44
0.0000000001
 40
0.0
 40
0.0
 40
0.0
 40
0.0
 40
0.0268559783
 40
0.0860904154
 40
0.1788054457
 40
0.3022591428
 40
0.4519871215
 40
0.6225599334
 40
1.0
 40
1.0
 40
1.0
 40
1.0
 10
10.1427192511
 20
-16.0242439302
 30
0.0
 10
10.1425785127
 20
-16.0219820553
 30
0.0
 10
10.134472401
 20
-16.0179019565
 30
0.0
 10
10.1210915573
 20
-16.0145563503
 30
0.0
 10
10.097494104
 20
-16.0105603744
 30
0.0
 10
10.067057559
 20
-16.0073050435
 30
0.0
 10
10.0296160287
 20
-16.0044666625
 30
0.0
 10
9.9708434351
 20
-16.0015957199
 30
0.0
 10
9.9245738673
 20
-16.0007963341
 30
0.0
 10
9.8927234819
 20
-16.000797632
 30
0.0
  0
SPLINE
  5
57A
100
AcDbEntity
  8
0
100
AcDbSpline
 62
7
  6
CONTINUOUS
 70
0
 71
3
 72
11
 73
7
 74
0
 42
0.0000001
 43
0.0000001
 44
0.0000000001
 40
0.0
 40
0.0
 40
0.0
 40
0.0
 40
0.327069379
 40
0.6069908884
 40
0.8253215288
 40
1.0
 40
1.0
 40
1.0
 40
1.0
 10
7.5072765181
 20
-16.6122661184
 30
0.0
 10
7.4731660792
 20
-16.6122661184
 30
0.0
 10
7.4095405563
 20
-16.6199538233
 30
0.0
 10
7.3284058969
 20
-16.6514643043
 30
0.0
 10
7.2728342786
 20
-16.6973756884
 30
0.0
 10
7.2574643078
 20
-16.7383871933
 30
0.0
 10
7.2572807489
 20
-16.7566036857
 30
0.0
  0
SPLINE
  5
57B
100
AcDbEntity
  8
RACCORDO
100
AcDbSpline
 62
250
  6
CONTINUOUS
 70
0
 71
3
 72
15
 73
11
 74
0
 42
0.0000001
 43
0.0000001
 44
0.0000000001
 40
0.0
 40
0.0
 40
0.0
 40
0.0
 40
0.0096671809
 40
0.0278015868
 40
0.0890151648
 40
0.1819188058
 40
0.3038280151
 40
0.4511984618
 40
0.6196748374
 40
1.0
 40
1.0
 40
1.0
 40
1.0
 10
9.6925731361
 20
28.570611555
 30
0.0
 10
9.6932770814
 20
28.5679653344
 30
0.0
 10
9.6939924691
 20
28.5600723903
 30
0.0
 10
9.6959182944
 20
28.5349822099
 30
0.0
 10
9.6975582211
 20
28.4861592772
 30
0.0
 10
9.6996568462
 20
28.408032672
 30
0.0
 10
9.7014162127
 20
28.3054447415
 30
0.0
 10
9.7030008656
 20
28.1814638208
 30
0.0
 10
9.7047492982
 20
27.9842768713
 30
0.0
 10
9.7054228907
 20
27.8288288609
 30
0.0
 10
9.7056502374
 20
27.7211011035
 30
0.0
  0
SPLINE
  5
57C
100
AcDbEntity
  8
RACCORDO
100
AcDbSpline
 62
250
  6
CONTINUOUS
 70
0
 71
3
 72
15
 73
11
 74
0
 42
0.0000001
 43
0.0000001
 44
0.0000000001
 40
0.0
 40
0.0
 40
0.0
 40
0.0
 40
0.3803251626
 40
0.5488015382
 40
0.6961719849
 40
0.8180811942
 40
0.9109848354
 40
0.9721984129
 40
0.9903328186
 40
1.0
 40
1.0
 40
1.0
 40
1.0
 10
-9.7056502374
 20
27.7211011035
 30
0.0
 10
-9.7054228907
 20
27.8288288609
 30
0.0
 10
-9.7047492982
 20
27.9842768713
 30
0.0
 10
-9.7030008656
 20
28.1814638208
 30
0.0
 10
-9.7014162128
 20
28.3054447415
 30
0.0
 10
-9.6996568462
 20
28.4080326721
 30
0.0
 10
-9.6975582211
 20
28.4861592772
 30
0.0
 10
-9.6959182943
 20
28.5349822097
 30
0.0
 10
-9.6939924691
 20
28.5600723901
 30
0.0
 10
-9.6932770812
 20
28.5679653342
 30
0.0
 10
-9.6925731361
 20
28.570611555
 30
0.0
  0
SPLINE
  5
57D
100
AcDbEntity
  8
RACCORDO
100
AcDbSpline
 62
250
  6
CONTINUOUS
 70
0
 71
3
 72
9
 73
5
 74
0
 42
0.0000001
 43
0.0000001
 44
0.0000000001
 40
0.0
 40
0.0
 40
0.0
 40
0.0
 40
0.2493118446
 40
1.0
 40
1.0
 40
1.0
 40
1.0
 10
9.7056502374
 20
27.7211011035
 30
0.0
 10
9.7067854197
 20
27.2888916972
 30
0.0
 10
9.7111137031
 20
25.5552815163
 30
0.0
 10
9.7145456677
 20
23.821669101
 30
0.0
 10
9.7166244527
 20
22.520266082
 30
0.0
  0
SPLINE
  5
57E
100
AcDbEntity
  8
RACCORDO
100
AcDbSpline
 62
250
  6
CONTINUOUS
 70
0
 71
3
 72
11
 73
7
 74
0
 42
0.0000001
 43
0.0000001
 44
0.0000000001
 40
0.0
 40
0.0
 40
0.0
 40
0.0
 40
0.2497604927
 40
0.4996808534
 40
0.7498105489
 40
1.0
 40
1.0
 40
1.0
 40
1.0
 10
9.7166244527
 20
22.520266082
 30
0.0
 10
9.7167860059
 20
22.4292249225
 30
0.0
 10
9.6808337255
 20
22.2450456607
 30
0.0
 10
9.5258454625
 20
22.0116191188
 30
0.0
 10
9.2932865415
 20
21.8549236417
 30
0.0
 10
9.1088952185
 20
21.8182482269
 30
0.0
 10
9.0176975542
 20
21.8182494918
 30
0.0
  0
SPLINE
  5
57F
100
AcDbEntity
  8
RACCORDO
100
AcDbSpline
 62
250
  6
CONTINUOUS
 70
0
 71
3
 72
11
 73
7
 74
0
 42
0.0000001
 43
0.0000001
 44
0.0000000001
 40
0.0
 40
0.0
 40
0.0
 40
0.0
 40
0.250189451
 40
0.5003191473
 40
0.7502395167
 40
1.0
 40
1.0
 40
1.0
 40
1.0
 10
-9.0176975542
 20
21.8182494918
 30
0.0
 10
-9.1088952194
 20
21.8182482444
 30
0.0
 10
-9.2932865478
 20
21.8549236275
 30
0.0
 10
-9.5258454643
 20
22.0116191238
 30
0.0
 10
-9.6808337629
 20
22.2450456536
 30
0.0
 10
-9.7167859915
 20
22.429224925
 30
0.0
 10
-9.7166244527
 20
22.520266082
 30
0.0
  0
SPLINE
  5
580
100
AcDbEntity
  8
RACCORDO
100
AcDbSpline
 62
250
  6
CONTINUOUS
 70
0
 71
3
 72
9
 73
5
 74
0
 42
0.0000001
 43
0.0000001
 44
0.0000000001
 40
0.0
 40
0.0
 40
0.0
 40
0.0
 40
0.250634419
 40
1.0
 40
1.0
 40
1.0
 40
1.0
 10
-9.7166244527
 20
22.520266082
 30
0.0
 10
-9.7159304028
 20
22.9547692604
 30
0.0
 10
-9.7129397916
 20
24.6883822637
 30
0.0
 10
-9.7090622957
 20
26.4219937408
 30
0.0
 10
-9.7056502374
 20
27.7211011035
 30
0.0
  0
SPLINE
  5
581
100
AcDbEntity
  8
RACCORDO
100
AcDbSpline
 62
250
  6
CONTINUOUS
 70
0
 71
3
 72
17
 73
13
 74
0
 42
0.0000001
 43
0.0000001
 44
0.0000000001
 40
0.0
 40
0.0
 40
0.0
 40
0.0
 40
0.0073730559
 40
0.0229991925
 40
0.0475747803
 40
0.0810925475
 40
0.173741872
 40
0.2977617577
 40
0.4484198443
 40
0.620103416
 40
0.8065405215
 40
1.0
 40
1.0
 40
1.0
 40
1.0
 10
10.3427158665
 20
-15.8245180233
 30
0.0
 10
10.3425912404
 20
-15.8234139587
 30
0.0
 10
10.3389247508
 20
-15.8213702728
 30
0.0
 10
10.3325031983
 20
-15.8195532155
 30
0.0
 10
10.3213440824
 20
-15.8173373026
 30
0.0
 10
10.2989780742
 20
-15.8142804444
 30
0.0
 10
10.2613094381
 20
-15.810886221
 30
0.0
 10
10.2061030162
 20
-15.8075339379
 30
0.0
 10
10.1388758517
 20
-15.8047390208
 30
0.0
 10
10.0622381735
 20
-15.8026520916
 30
0.0
 10
9.9791249224
 20
-15.8013594271
 30
0.0
 10
9.9218766888
 20
-15.8010672276
 30
0.0
 10
9.8927234819
 20
-15.8010717251
 30
0.0
  0
SPLINE
  5
582
100
AcDbEntity
  8
0
100
AcDbSpline
 62
250
  6
CONTINUOUS
 70
0
 71
3
 72
11
 73
7
 74
0
 42
0.0000001
 43
0.0000001
 44
0.0000000001
 40
0.0
 40
0.0
 40
0.0
 40
0.0
 40
0.2331623084
 40
0.476670585
 40
0.7338116789
 40
1.0
 40
1.0
 40
1.0
 40
1.0
 10
10.1369014213
 20
30.3547211797
 30
0.0
 10
10.1368063495
 20
30.3264159948
 30
0.0
 10
10.1228764917
 20
30.2678728556
 30
0.0
 10
10.0659440676
 20
30.1962117409
 30
0.0
 10
9.9832760274
 20
30.1492135438
 30
0.0
 10
9.9192201727
 20
30.1382962353
 30
0.0
 10
9.8869056521
 20
30.1382148287
 30
0.0
  0
SPLINE
  5
583
100
AcDbEntity
  8
0
100
AcDbSpline
 62
7
  6
CONTINUOUS
 70
0
 71
3
 72
11
 73
7
 74
0
 42
0.0000001
 43
0.0000001
 44
0.0000000001
 40
0.0
 40
0.0
 40
0.0
 40
0.0
 40
0.327069379
 40
0.6069908884
 40
0.8253215288
 40
1.0
 40
1.0
 40
1.0
 40
1.0
 10
9.8927234819
 20
29.6330333432
 30
0.0
 10
9.9268339208
 20
29.6330333432
 30
0.0
 10
9.9904594437
 20
29.6407210481
 30
0.0
 10
10.0715941031
 20
29.6722315291
 30
0.0
 10
10.1271657214
 20
29.7181429131
 30
0.0
 10
10.1425356922
 20
29.7591544181
 30
0.0
 10
10.1427192511
 20
29.7773709105
 30
0.0
  0
SPLINE
  5
584
100
AcDbEntity
  8
0
100
AcDbSpline
 62
7
  6
CONTINUOUS
 70
0
 71
3
 72
11
 73
7
 74
0
 42
0.0000001
 43
0.0000001
 44
0.0000000001
 40
0.0
 40
0.0
 40
0.0
 40
0.0
 40
0.1745970712
 40
0.3929474236
 40
0.672962312
 40
1.0
 40
1.0
 40
1.0
 40
1.0
 10
7.2572807489
 20
29.7773709105
 30
0.0
 10
7.2574646437
 20
29.7591210791
 30
0.0
 10
7.2728980961
 20
29.7180238942
 30
0.0
 10
7.3286579321
 20
29.6720771278
 30
0.0
 10
7.4100267022
 20
29.6405653432
 30
0.0
 10
7.4738182612
 20
29.6330333432
 30
0.0
 10
7.5080037468
 20
29.6330333432
 30
0.0
  0
SPLINE
  5
585
100
AcDbEntity
  8
0
100
AcDbSpline
 62
250
  6
CONTINUOUS
 70
0
 71
3
 72
11
 73
7
 74
0
 42
0.0000001
 43
0.0000001
 44
0.0000000001
 40
0.0
 40
0.0
 40
0.0
 40
0.0
 40
0.2331623084
 40
0.476670585
 40
0.7338116789
 40
1.0
 40
1.0
 40
1.0
 40
1.0
 10
7.2630985787
 20
30.3547211797
 30
0.0
 10
7.2631936505
 20
30.3264159948
 30
0.0
 10
7.2771235083
 20
30.2678728556
 30
0.0
 10
7.3340559324
 20
30.1962117409
 30
0.0
 10
7.4167239726
 20
30.1492135438
 30
0.0
 10
7.4807798273
 20
30.1382962353
 30
0.0
 10
7.5130943479
 20
30.1382148287
 30
0.0
  0
SPLINE
  5
586
100
AcDbEntity
  8
0
100
AcDbSpline
 62
250
  6
CONTINUOUS
 70
0
 71
3
 72
11
 73
7
 74
0
 42
0.0000001
 43
0.0000001
 44
0.0000000001
 40
0.0
 40
0.0
 40
0.0
 40
0.0
 40
0.2331622206
 40
0.4766705204
 40
0.7338116472
 40
1.0
 40
1.0
 40
1.0
 40
1.0
 10
-7.2630985787
 20
30.3547211797
 30
0.0
 10
-7.2631936505
 20
30.3264160055
 30
0.0
 10
-7.2771234989
 20
30.2678728741
 30
0.0
 10
-7.3340559138
 20
30.1962117552
 30
0.0
 10
-7.4167239605
 20
30.1492135468
 30
0.0
 10
-7.4807798234
 20
30.1382962353
 30
0.0
 10
-7.5130943479
 20
30.1382148287
 30
0.0
  0
SPLINE
  5
587
100
AcDbEntity
  8
0
100
AcDbSpline
 62
7
  6
CONTINUOUS
 70
0
 71
3
 72
11
 73
7
 74
0
 42
0.0000001
 43
0.0000001
 44
0.0000000001
 40
0.0
 40
0.0
 40
0.0
 40
0.0
 40
0.1745970712
 40
0.3929474236
 40
0.672962312
 40
1.0
 40
1.0
 40
1.0
 40
1.0
 10
-7.2572807489
 20
29.7773709105
 30
0.0
 10
-7.2574646437
 20
29.7591210791
 30
0.0
 10
-7.2728980961
 20
29.7180238942
 30
0.0
 10
-7.3286579321
 20
29.6720771278
 30
0.0
 10
-7.4100267022
 20
29.6405653432
 30
0.0
 10
-7.4738182612
 20
29.6330333432
 30
0.0
 10
-7.5080037468
 20
29.6330333432
 30
0.0
  0
SPLINE
  5
588
100
AcDbEntity
  8
0
100
AcDbSpline
 62
7
  6
CONTINUOUS
 70
0
 71
3
 72
11
 73
7
 74
0
 42
0.0000001
 43
0.0000001
 44
0.0000000001
 40
0.0
 40
0.0
 40
0.0
 40
0.0
 40
0.1745970712
 40
0.3929474236
 40
0.672962312
 40
1.0
 40
1.0
 40
1.0
 40
1.0
 10
-10.1427192511
 20
29.7773709105
 30
0.0
 10
-10.1425353563
 20
29.7591210791
 30
0.0
 10
-10.1271019039
 20
29.7180238942
 30
0.0
 10
-10.0713420679
 20
29.6720771278
 30
0.0
 10
-9.9899732978
 20
29.6405653432
 30
0.0
 10
-9.9261817388
 20
29.6330333432
 30
0.0
 10
-9.8919962532
 20
29.6330333432
 30
0.0
  0
SPLINE
  5
589
100
AcDbEntity
  8
RACCORDO
100
AcDbSpline
 62
250
  6
CONTINUOUS
 70
0
 71
3
 72
14
 73
10
 74
0
 42
0.0000001
 43
0.0000001
 44
0.0000000001
 40
0.0
 40
0.0
 40
0.0
 40
0.0
 40
0.3774400674
 40
0.5480128796
 40
0.6977408587
 40
0.821194556
 40
0.9139095863
 40
0.9731440264
 40
1.0
 40
1.0
 40
1.0
 40
1.0
 10
7.5072765181
 20
-16.000797632
 30
0.0
 10
7.4754261327
 20
-16.0007963357
 30
0.0
 10
7.429156565
 20
-16.0015957215
 30
0.0
 10
7.3703839713
 20
-16.0044666615
 30
0.0
 10
7.3329424408
 20
-16.0073050426
 30
0.0
 10
7.3025058964
 20
-16.0105603752
 30
0.0
 10
7.2789084416
 20
-16.0145563492
 30
0.0
 10
7.2655276006
 20
-16.0179019588
 30
0.0
 10
7.2574214869
 20
-16.0219820557
 30
0.0
 10
7.2572807489
 20
-16.0242439302
 30
0.0
  0
SPLINE
  5
58A
100
AcDbEntity
  8
0
100
AcDbSpline
 62
250
  6
CONTINUOUS
 70
0
 71
3
 72
11
 73
7
 74
0
 42
0.0000001
 43
0.0000001
 44
0.0000000001
 40
0.0
 40
0.0
 40
0.0
 40
0.0
 40
0.2331623084
 40
0.476670585
 40
0.7338116789
 40
1.0
 40
1.0
 40
1.0
 40
1.0
 10
-10.1369014213
 20
30.3547211797
 30
0.0
 10
-10.1368063495
 20
30.3264159948
 30
0.0
 10
-10.1228764917
 20
30.2678728556
 30
0.0
 10
-10.0659440676
 20
30.1962117409
 30
0.0
 10
-9.9832760274
 20
30.1492135438
 30
0.0
 10
-9.9192201727
 20
30.1382962353
 30
0.0
 10
-9.8869056521
 20
30.1382148287
 30
0.0
  0
SPLINE
  5
58B
100
AcDbEntity
  8
RACCORDO
100
AcDbSpline
 62
250
  6
CONTINUOUS
 70
0
 71
3
 72
17
 73
13
 74
0
 42
0.0000001
 43
0.0000001
 44
0.0000000001
 40
0.0
 40
0.0
 40
0.0
 40
0.0
 40
0.1934594766
 40
0.3798965822
 40
0.5515801588
 40
0.7022382487
 40
0.8262581259
 40
0.9189074338
 40
0.9524252009
 40
0.9770007969
 40
0.9926269424
 40
1.0
 40
1.0
 40
1.0
 40
1.0
 10
7.5072765181
 20
-15.8010717251
 30
0.0
 10
7.4781233116
 20
-15.8010672369
 30
0.0
 10
7.4208750783
 20
-15.8013594348
 30
0.0
 10
7.3377618266
 20
-15.8026520875
 30
0.0
 10
7.2611241474
 20
-15.8047390206
 30
0.0
 10
7.193896983
 20
-15.8075339384
 30
0.0
 10
7.1386905645
 20
-15.8108862203
 30
0.0
 10
7.1010219321
 20
-15.8142804447
 30
0.0
 10
7.0786559256
 20
-15.817337303
 30
0.0
 10
7.0674968062
 20
-15.8195532159
 30
0.0
 10
7.0610752526
 20
-15.8213702723
 30
0.0
 10
7.0574087586
 20
-15.8234139583
 30
0.0
 10
7.0572841335
 20
-15.8245180233
 30
0.0
  0
SPLINE
  5
58C
100
AcDbEntity
  8
0
100
AcDbSpline
 62
250
  6
CONTINUOUS
 70
0
 71
3
 72
11
 73
7
 74
0
 42
0.0000001
 43
0.0000001
 44
0.0000000001
 40
0.0
 40
0.0
 40
0.0
 40
0.0
 40
0.2331623162
 40
0.4766706026
 40
0.7338117062
 40
1.0
 40
1.0
 40
1.0
 40
1.0
 10
10.1369014213
 20
-17.3339539549
 30
0.0
 10
10.1368063495
 20
-17.3056487691
 30
0.0
 10
10.1228764906
 20
-17.2471056277
 30
0.0
 10
10.0659440627
 20
-17.1754445116
 30
0.0
 10
9.9832760219
 20
-17.128446317
 30
0.0
 10
9.9192201694
 20
-17.1175290105
 30
0.0
 10
9.8869056521
 20
-17.117447604
 30
0.0
  0
SPLINE
  5
58D
100
AcDbEntity
  8
0
100
AcDbSpline
 62
7
  6
CONTINUOUS
 70
0
 71
3
 72
11
 73
7
 74
0
 42
0.0000001
 43
0.0000001
 44
0.0000000001
 40
0.0
 40
0.0
 40
0.0
 40
0.0
 40
0.1745970712
 40
0.3929474236
 40
0.672962312
 40
1.0
 40
1.0
 40
1.0
 40
1.0
 10
10.1427192511
 20
-16.7566036857
 30
0.0
 10
10.1425353563
 20
-16.7383538543
 30
0.0
 10
10.1271019039
 20
-16.6972566694
 30
0.0
 10
10.0713420679
 20
-16.651309903
 30
0.0
 10
9.9899732978
 20
-16.6197981184
 30
0.0
 10
9.9261817388
 20
-16.6122661184
 30
0.0
 10
9.8919962532
 20
-16.6122661184
 30
0.0
  0
SPLINE
  5
58E
100
AcDbEntity
  8
0
100
AcDbSpline
 62
250
  6
CONTINUOUS
 70
0
 71
3
 72
11
 73
7
 74
0
 42
0.0000001
 43
0.0000001
 44
0.0000000001
 40
0.0
 40
0.0
 40
0.0
 40
0.0
 40
0.2331623084
 40
0.476670585
 40
0.7338116789
 40
1.0
 40
1.0
 40
1.0
 40
1.0
 10
7.2630985787
 20
-17.3339539549
 30
0.0
 10
7.2631936505
 20
-17.3056487701
 30
0.0
 10
7.2771235083
 20
-17.2471056308
 30
0.0
 10
7.3340559324
 20
-17.1754445162
 30
0.0
 10
7.4167239726
 20
-17.128446319
 30
0.0
 10
7.4807798273
 20
-17.1175290105
 30
0.0
 10
7.5130943479
 20
-17.117447604
 30
0.0
  0
SPLINE
  5
58F
100
AcDbEntity
  8
0
100
AcDbSpline
 62
250
  6
CONTINUOUS
 70
0
 71
3
 72
11
 73
7
 74
0
 42
0.0000001
 43
0.0000001
 44
0.0000000001
 40
0.0
 40
0.0
 40
0.0
 40
0.0
 40
0.2331622206
 40
0.4766705204
 40
0.7338116472
 40
1.0
 40
1.0
 40
1.0
 40
1.0
 10
-10.1369014213
 20
-17.3339539549
 30
0.0
 10
-10.1368063495
 20
-17.3056487807
 30
0.0
 10
-10.1228765011
 20
-17.2471056493
 30
0.0
 10
-10.0659440862
 20
-17.1754445305
 30
0.0
 10
-9.9832760395
 20
-17.128446322
 30
0.0
 10
-9.9192201766
 20
-17.1175290105
 30
0.0
 10
-9.8869056521
 20
-17.117447604
 30
0.0
  0
SPLINE
  5
590
100
AcDbEntity
  8
0
100
AcDbSpline
 62
7
  6
CONTINUOUS
 70
0
 71
3
 72
11
 73
7
 74
0
 42
0.0000001
 43
0.0000001
 44
0.0000000001
 40
0.0
 40
0.0
 40
0.0
 40
0.0
 40
0.1745970712
 40
0.3929474236
 40
0.672962312
 40
1.0
 40
1.0
 40
1.0
 40
1.0
 10
-10.1427192511
 20
-16.7566036857
 30
0.0
 10
-10.1425353563
 20
-16.7383538543
 30
0.0
 10
-10.1271019039
 20
-16.6972566694
 30
0.0
 10
-10.0713420679
 20
-16.651309903
 30
0.0
 10
-9.9899732978
 20
-16.6197981184
 30
0.0
 10
-9.9261817388
 20
-16.6122661184
 30
0.0
 10
-9.8919962532
 20
-16.6122661184
 30
0.0
  0
SPLINE
  5
591
100
AcDbEntity
  8
0
100
AcDbSpline
 62
7
  6
CONTINUOUS
 70
0
 71
3
 72
11
 73
7
 74
0
 42
0.0000001
 43
0.0000001
 44
0.0000000001
 40
0.0
 40
0.0
 40
0.0
 40
0.0
 40
0.1745970712
 40
0.3929474236
 40
0.672962312
 40
1.0
 40
1.0
 40
1.0
 40
1.0
 10
-7.2572807489
 20
-16.7566036857
 30
0.0
 10
-7.2574646437
 20
-16.7383538543
 30
0.0
 10
-7.2728980961
 20
-16.6972566694
 30
0.0
 10
-7.3286579321
 20
-16.651309903
 30
0.0
 10
-7.4100267022
 20
-16.6197981184
 30
0.0
 10
-7.4738182612
 20
-16.6122661184
 30
0.0
 10
-7.5080037468
 20
-16.6122661184
 30
0.0
  0
SPLINE
  5
592
100
AcDbEntity
  8
0
100
AcDbSpline
 62
250
  6
CONTINUOUS
 70
0
 71
3
 72
11
 73
7
 74
0
 42
0.0000001
 43
0.0000001
 44
0.0000000001
 40
0.0
 40
0.0
 40
0.0
 40
0.0
 40
0.2331623084
 40
0.476670585
 40
0.7338116789
 40
1.0
 40
1.0
 40
1.0
 40
1.0
 10
-7.2630985787
 20
-17.3339539549
 30
0.0
 10
-7.2631936505
 20
-17.3056487701
 30
0.0
 10
-7.2771235083
 20
-17.2471056308
 30
0.0
 10
-7.3340559324
 20
-17.1754445162
 30
0.0
 10
-7.4167239726
 20
-17.128446319
 30
0.0
 10
-7.4807798273
 20
-17.1175290105
 30
0.0
 10
-7.5130943479
 20
-17.117447604
 30
0.0
  0
ELLIPSE
  5
593
100
AcDbEntity
  8
0
100
AcDbEllipse
 62
7
  6
CONTINUOUS
 10
29.2759373373
 20
-16.6396163876
 30
0.0
 11
85.9426996401
 21
-0.0
 31
0.0
 40
0.0058178298
 41
2.5196231925
 42
2.6905658418
  0
ELLIPSE
  5
594
100
AcDbEntity
  8
0
100
AcDbEllipse
 62
7
  6
CONTINUOUS
 10
29.2759373373
 20
-16.6396163876
 30
0.0
 11
85.9426996401
 21
-0.0
 31
0.0
 40
0.0058178298
 41
-2.6791261215
 42
-2.5196231925
  0
ELLIPSE
  5
595
100
AcDbEntity
  8
0
100
AcDbEllipse
 62
7
  6
CONTINUOUS
 10
29.2759373373
 20
29.6603836124
 30
0.0
 11
85.9426996401
 21
-0.0
 31
0.0
 40
0.0058178298
 41
2.5196231925
 42
2.6791261215
  0
ELLIPSE
  5
596
100
AcDbEntity
  8
0
100
AcDbEllipse
 62
7
  6
CONTINUOUS
 10
29.2759373373
 20
29.6603836124
 30
0.0
 11
85.9426996401
 21
-0.0
 31
0.0
 40
0.0058178298
 41
-2.6905658418
 42
-2.5196231925
  0
ELLIPSE
  5
597
100
AcDbEntity
  8
DRAFT
100
AcDbEllipse
 62
7
  6
CONTINUOUS
 10
-36.5724923388
 20
-15.4433833581
 30
0.0
 11
0.3546425507
 21
0.3568377408
 31
0.0
 40
0.9877342685
 41
-0.2563081296
 42
0.7710302454
  0
ELLIPSE
  5
598
100
AcDbEntity
  8
DRAFT
100
AcDbEllipse
 62
7
  6
CONTINUOUS
 10
-36.5724923388
 20
28.4641505829
 30
0.0
 11
-0.3546425507
 21
0.3568377408
 31
0.0
 40
0.9877342685
 41
-3.912622899
 42
-2.8852845239
  0
ELLIPSE
  5
599
100
AcDbEntity
  8
RACCORDO
100
AcDbEllipse
 62
7
  6
CONTINUOUS
 10
-9.3041292966
 20
28.5724298645
 30
0.0
 11
0.0316478205
 21
0.0950206715
 31
0.0
 40
0.9984778551
 41
0.3210503505
 42
1.5707963525
  0
ELLIPSE
  5
59A
100
AcDbEntity
  8
RACCORDO
100
AcDbEllipse
 62
7
  6
CONTINUOUS
 10
9.3041292966
 20
28.5724298645
 30
0.0
 11
-0.0316478205
 21
0.0950206715
 31
0.0
 40
0.9984778551
 41
-1.5707963525
 42
-0.3210503505
  0
ELLIPSE
  5
59B
100
AcDbEntity
  8
RACCORDO
100
AcDbEllipse
 62
7
  6
CONTINUOUS
 10
-8.999923836
 20
22.5104026516
 30
0.0
 11
-0.4473055582
 21
-0.2236357461
 31
0.0
 40
0.9998096356
 41
5.8196443071
 42
7.3902883349
  0
ELLIPSE
  5
59C
100
AcDbEntity
  8
RACCORDO
100
AcDbEllipse
 62
7
  6
CONTINUOUS
 10
8.999923836
 20
22.5104026516
 30
0.0
 11
-0.4473055582
 21
0.2236357461
 31
0.0
 40
0.9998096356
 41
8.3176749331
 42
9.8883189608
  0
ELLIPSE
  5
59D
100
AcDbEntity
  8
RACCORDO
100
AcDbEllipse
 62
7
  6
CONTINUOUS
 10
-7.0499966153
 20
-16.0898908568
 30
0.0
 11
0.0220972656
 21
-0.1990550872
 31
0.0
 40
0.9986126811
 41
9.3143719601
 42
10.8848638081
  0
ELLIPSE
  5
59E
100
AcDbEntity
  8
RACCORDO
100
AcDbEllipse
 62
7
  6
CONTINUOUS
 10
-10.3500033847
 20
-16.0898908568
 30
0.0
 11
0.0220972656
 21
0.1990550872
 31
0.0
 40
0.9986126811
 41
4.8230994598
 42
6.3935913078
  0
ELLIPSE
  5
59F
100
AcDbEntity
  8
RACCORDO
100
AcDbEllipse
 62
7
  6
CONTINUOUS
 10
10.3500033847
 20
-16.0898908568
 30
0.0
 11
0.0220972656
 21
-0.1990550872
 31
0.0
 40
0.9986126811
 41
9.3143719601
 42
10.8848638081
  0
ELLIPSE
  5
5A0
100
AcDbEntity
  8
RACCORDO
100
AcDbEllipse
 62
7
  6
CONTINUOUS
 10
7.0499966153
 20
-16.0898908568
 30
0.0
 11
0.0220972656
 21
0.1990550872
 31
0.0
 40
0.9986126811
 41
4.8230994598
 42
6.3935913078
  0
ELLIPSE
  5
5A1
100
AcDbEntity
  8
RACCORDO
100
AcDbEllipse
 62
7
  6
CONTINUOUS
 10
-10.3500033847
 20
29.1106580816
 30
0.0
 11
-0.0220972656
 21
0.1990550872
 31
0.0
 40
0.9986126811
 41
9.3143719601
 42
10.8848638081
  0
ELLIPSE
  5
5A2
100
AcDbEntity
  8
RACCORDO
100
AcDbEllipse
 62
7
  6
CONTINUOUS
 10
-7.0499966153
 20
29.1106580816
 30
0.0
 11
-0.0220972656
 21
-0.1990550872
 31
0.0
 40
0.9986126811
 41
4.8230994598
 42
6.3935913078
  0
ELLIPSE
  5
5A3
100
AcDbEntity
  8
RACCORDO
100
AcDbEllipse
 62
7
  6
CONTINUOUS
 10
7.0499966153
 20
29.1106580816
 30
0.0
 11
-0.0220972656
 21
0.1990550872
 31
0.0
 40
0.9986126811
 41
9.3143719601
 42
10.8848638081
  0
ELLIPSE
  5
5A4
100
AcDbEntity
  8
RACCORDO
100
AcDbEllipse
 62
7
  6
CONTINUOUS
 10
10.3500033847
 20
29.1106580816
 30
0.0
 11
-0.0220972656
 21
-0.1990550872
 31
0.0
 40
0.9986126811
 41
4.8230994598
 42
6.3935913078
  0
ELLIPSE
  5
5A5
100
AcDbEntity
  8
0
100
AcDbEllipse
 62
7
  6
CONTINUOUS
 10
-1.2
 20
-15.8738940538
 30
0.0
 11
0.2
 21
-0.0
 31
0.0
 40
0.0524077793
 41
-0.0
 42
1.5707963268
  0
ELLIPSE
  5
5A6
100
AcDbEntity
  8
RACCORDO
100
AcDbEllipse
 62
7
  6
CONTINUOUS
 10
9.4660864541
 20
26.483128267
 30
0.0
 11
-0.0
 21
0.5
 31
0.0
 40
0.0174550649
 41
-1.4486232792
 42
-0.0174532925
  0
ELLIPSE
  5
5A7
100
AcDbEntity
  8
RACCORDO
100
AcDbEllipse
 62
7
  6
CONTINUOUS
 10
-9.4660864541
 20
26.483128267
 30
0.0
 11
-0.0
 21
0.5
 31
0.0
 40
0.0174550649
 41
0.0174532925
 42
1.4486232792
  0
ELLIPSE
  5
5A8
100
AcDbEntity
  8
0
100
AcDbEllipse
 62
7
  6
CONTINUOUS
 10
1.2
 20
-15.8738940538
 30
0.0
 11
0.2
 21
0.0
 31
0.0
 40
0.0524077793
 41
1.5707963268
 42
3.1415926536
  0
ELLIPSE
  5
5A9
100
AcDbEntity
  8
0
100
AcDbEllipse
 62
7
  6
CONTINUOUS
 10
-1.2
 20
28.8946612786
 30
0.0
 11
0.2
 21
-0.0
 31
0.0
 40
0.0524077793
 41
-1.5707963268
 42
0.0
  0
ELLIPSE
  5
5AA
100
AcDbEntity
  8
0
100
AcDbEllipse
 62
7
  6
CONTINUOUS
 10
1.2
 20
28.8946612786
 30
0.0
 11
0.2
 21
0.0
 31
0.0
 40
0.0524077793
 41
-3.1415926536
 42
-1.5707963268
  0
ELLIPSE
  5
5AB
100
AcDbEntity
  8
RACCORDO
100
AcDbEllipse
 62
7
  6
CONTINUOUS
 10
9.6581383098
 20
28.4742741364
 30
0.0
 11
-0.0632956409
 21
0.1900413429
 31
0.0
 40
0.9984778551
 41
-0.3210503505
 42
1.2488325878
  0
ELLIPSE
  5
5AC
100
AcDbEntity
  8
RACCORDO
100
AcDbEllipse
 62
7
  6
CONTINUOUS
 10
-9.6581383098
 20
28.4742741364
 30
0.0
 11
0.0632956409
 21
0.1900413429
 31
0.0
 40
0.9984778551
 41
-1.2488325878
 42
0.3210503505
  0
ENDSEC
  0
SECTION
  2
OBJECTS
  0
DICTIONARY
  5
C
100
AcDbDictionary
280
0
281
1
  3
ACAD_GROUP
350
D
  3
ACAD_MLINESTYLE
350
17
  3
ACAD_LAYOUT
350
1A
  3
ACAD_PLOTSETTINGS
350
19
  3
ACAD_PLOTSTYLENAME
350
E
  0
DICTIONARY
  5
D
102
{ACAD_REACTORS
330
C
102
}
100
AcDbDictionary
280
0
281
1
  0
ACDBDICTIONARYWDFLT
  5
E
102
{ACAD_REACTORS
330
C
102
}
100
AcDbDictionary
281
1
  3
Normal
350
F
100
AcDbDictionaryWithDefault
340
F
  0
DICTIONARY
  5
17
102
{ACAD_REACTORS
330
C
102
}
100
AcDbDictionary
280
0
281
1
  3
Standard
350
18
  0
DICTIONARY
  5
19
102
{ACAD_REACTORS
330
C
102
}
100
AcDbDictionary
281
1
  0
DICTIONARY
  5
1A
102
{ACAD_REACTORS
330
C
102
}
100
AcDbDictionary
281
1
  3
Model
350
5AD
  3
Layout1
350
5AE
  0
ACDBPLACEHOLDER
  5
F
102
{ACAD_REACTORS
330
E
102
}
  0
MLINESTYLE
  5
18
102
{ACAD_REACTORS
330
17
102
}
100
AcDbMlineStyle
  2
STANDARD
 70
0
  3

 62
256
 51
90.0
 52
90.0
 71
2
 49
0.5
 62
256
  6
BYLAYER
 49
-0.5
 62
256
  6
BYLAYER
  0
LAYOUT
  5
5AD
102
{ACAD_REACTORS
330
1A
102
}
100
AcDbPlotSettings
  1

  2
none_device
  4
ANSI_C_(22.00_x_17.00_Inches)
  6

 40
0.0
 41
0.0
 42
0.0
 43
0.0
 44
558.8
 45
431.8
 46
0.0
 47
0.0
 48
0.0
 49
0.0
140
0.0
141
0.0
142
1.0
143
1.0
 70
1024
 72
1
 73
0
 74
0
  7

 75
0
147
1.0
148
0.0
149
0.0
100
AcDbLayout
  1
Model
 70
0
 71
0
 10
0.0
 20
0.0
 11
558.8
 21
431.8
 12
0.0
 22
0.0
 32
0.0
 14
0.0
 24
0.0
 34
0.0
 15
0.0
 25
0.0
 35
0.0
146
0.0
 13
0.0
 23
0.0
 33
0.0
 16
1.0
 26
0.0
 36
0.0
 17
0.0
 27
1.0
 37
0.0
 76
0
330
215
345
0
346
0
  0
LAYOUT
  5
5AE
102
{ACAD_REACTORS
330
1A
102
}
100
AcDbPlotSettings
  1

  2
none_device
  4
ANSI_C_(22.00_x_17.00_Inches)
  6

 40
0.0
 41
0.0
 42
0.0
 43
0.0
 44
558.8
 45
431.8
 46
0.0
 47
0.0
 48
0.0
 49
0.0
140
0.0
141
0.0
142
1.0
143
1.0
 70
0
 72
1
 73
0
 74
0
  7

 75
0
147
1.0
148
0.0
149
0.0
100
AcDbLayout
  1
Layout1
 70
0
 71
1
 10
0.0
 20
0.0
 11
558.8
 21
431.8
 12
0.0
 22
0.0
 32
0.0
 14
0.0
 24
0.0
 34
0.0
 15
0.0
 25
0.0
 35
0.0
146
0.0
 13
0.0
 23
0.0
 33
0.0
 16
1.0
 26
0.0
 36
0.0
 17
0.0
 27
1.0
 37
0.0
 76
0
330
216
345
0
346
0
  0
ENDSEC
  0
EOF
