  0
SECTION
  2
HEADER
  9
$ACADVER
  1
AC1024
  9
$DWGCODEPAGE
  3
ANSI_1252
  9
$EXTMAX
 10
558.8
 20
431.8
 30
0.0
  9
$EXTMIN
 10
0.0
 20
0.0
 30
0.0
  9
$LIMMIN
 10
0.0
 20
0.0
  9
$LIMMAX
 10
558.8
 20
431.8
  9
$VIEWCTR
 10
279.4
 20
215.9
  9
$VIEWSIZE
 40
431.8
  9
$CLAYER
  8
0
  9
$LTSCALE
 40
30.734
  9
$CELTYPE
  6
BYLAYER
  9
$DIMSCALE
 40
1.0
  9
$DIMASZ
 40
3.0
  9
$DIMEXO
 40
0.5
  9
$DIMDLI
 40
21.2344
  9
$DIMEXE
 40
1.5
  9
$DIMCEN
 40
5.0292
  9
$DIMLFAC
 40
1.0
  9
$DIMBLK
  1
_FILLED
  9
$DIMALT
 70
0
  9
$DIMALTF
 40
0.0393700787
  9
$DIMTXT
 40
3.0
  9
$DIMTOL
 70
1
  9
$DIMLIM
 70
0
  9
$DIMTFAC
 40
1.0
  9
$DIMTP
 40
0.01
  9
$DIMTM
 40
0.01
  9
$DIMGAP
 40
0.625
  9
$DIMDSEP
 70
44
  9
$AUNITS
 70
0
  9
$PDMODE
 70
3
  9
$PDSIZE
 40
3.0
  9
$HANDSEED
  5
5D1
  9
$TILEMODE
 70
1
  9
$MEASUREMENT
 70
1
  9
$INSUNITS
 70
4
  0
ENDSEC
  0
SECTION
  2
CLASSES
  0
CLASS
  1
ACDBDICTIONARYWDFLT
  2
AcDbDictionaryWithDefault
  3
AutoCAD 2000
 90
0
 91
1
280
0
281
0
  0
CLASS
  1
ACDBPLACEHOLDER
  2
AcDbPlaceHolder
  3
AutoCAD 2000
 90
0
 91
1
280
0
281
0
  0
CLASS
  1
LAYOUT
  2
AcDbLayout
  3
AutoCAD 2000
 90
0
 91
0
280
0
281
0
  0
ENDSEC
  0
SECTION
  2
TABLES
  0
TABLE
  2
VPORT
  5
8
100
AcDbSymbolTable
 70
2
  0
VPORT
  5
1F4
100
AcDbSymbolTableRecord
100
AcDbViewportTableRecord
  2
*ACTIVE
 70
0
 10
0.0
 20
0.0
 11
1.0
 21
1.0
 12
279.4
 22
215.9
 13
0.0
 23
0.0
 14
1.0
 24
1.0
 15
0.0
 25
0.0
 16
0.0
 26
0.0
 36
1.0
 17
0.0
 27
0.0
 37
0.0
 40
431.8
 41
1.2941176471
 42
50.0
 43
0.0
 44
0.0
 50
0.0
 51
0.0
 71
0
 72
100
 73
1
 74
1
 75
0
 76
0
 77
0
 78
0
  0
ENDTAB
  0
TABLE
  2
LTYPE
  5
5
100
AcDbSymbolTable
 70
6
  0
LTYPE
  5
14
100
AcDbSymbolTableRecord
100
AcDbLinetypeTableRecord
  2
BYBLOCK
 70
0
  3

 72
65
 73
0
 40
0.0
  0
LTYPE
  5
15
100
AcDbSymbolTableRecord
100
AcDbLinetypeTableRecord
  2
BYLAYER
 70
0
  3

 72
65
 73
0
 40
0.0
  0
LTYPE
  5
16
100
AcDbSymbolTableRecord
100
AcDbLinetypeTableRecord
  2
CONTINUOUS
 70
64
  3
Solid line
 72
65
 73
0
 40
0.0
  0
LTYPE
  5
1F5
100
AcDbSymbolTableRecord
100
AcDbLinetypeTableRecord
  2
CENTER
 70
64
  3
____ _ ____ _ ____ _ ____ _ ____ _ ____ _ ____
 72
65
 73
4
 40
0.6
 49
0.375
 74
0
 49
-0.075
 74
0
 49
0.075
 74
0
 49
-0.075
 74
0
  0
LTYPE
  5
1F6
100
AcDbSymbolTableRecord
100
AcDbLinetypeTableRecord
  2
HIDDEN
 70
64
  3
- - - - - - - - - - - - - - - - - - - -
 72
65
 73
2
 40
0.2
 49
0.1
 74
0
 49
-0.1
 74
0
  0
LTYPE
  5
1F7
100
AcDbSymbolTableRecord
100
AcDbLinetypeTableRecord
  2
PHANTOM
 70
64
  3
_____ _ _ _____ _ _ _____ _ _ _____
 72
65
 73
6
 40
0.8
 49
0.45
 74
0
 49
-0.05
 74
0
 49
0.1
 74
0
 49
-0.05
 74
0
 49
0.1
 74
0
 49
-0.05
 74
0
  0
LTYPE
  5
1F8
100
AcDbSymbolTableRecord
100
AcDbLinetypeTableRecord
  2
DOT
 70
64
  3
. . . . . . . . . . . . . . . . . . . .
 72
65
 73
2
 40
0.2
 49
0.1
 74
0
 49
-0.1
 74
0
  0
LTYPE
  5
1F9
100
AcDbSymbolTableRecord
100
AcDbLinetypeTableRecord
  2
DASHED
 70
64
  3
- - - - - - - - - - - - - - - - - - - -
 72
65
 73
2
 40
0.2
 49
0.1
 74
0
 49
-0.1
 74
0
  0
ENDTAB
  0
TABLE
  2
LAYER
  5
2
100
AcDbSymbolTable
 70
36
  0
LAYER
  5
10
100
AcDbSymbolTableRecord
100
AcDbLayerTableRecord
  2
0
 70
0
 62
7
  6
CONTINUOUS
370
-3
390
F
  0
LAYER
  5
1FA
100
AcDbSymbolTableRecord
100
AcDbLayerTableRecord
  2
DEFAULT_1
 70
0
 62
7
  6
CENTER
370
-3
390
F
  0
LAYER
  5
1FB
100
AcDbSymbolTableRecord
100
AcDbLayerTableRecord
  2
DEFAULT_2
 70
0
 62
7
  6
HIDDEN
370
-3
390
F
  0
LAYER
  5
1FC
100
AcDbSymbolTableRecord
100
AcDbLayerTableRecord
  2
DEFAULT_3
 70
0
 62
7
  6
PHANTOM
370
-3
390
F
  0
LAYER
  5
1FD
100
AcDbSymbolTableRecord
100
AcDbLayerTableRecord
  2
ASSI
 70
0
 62
7
  6
CONTINUOUS
370
-3
390
F
  0
LAYER
  5
1FE
100
AcDbSymbolTableRecord
100
AcDbLayerTableRecord
  2
COORDINATE
 70
0
 62
7
  6
CONTINUOUS
370
-3
390
F
  0
LAYER
  5
1FF
100
AcDbSymbolTableRecord
100
AcDbLayerTableRecord
  2
COORD_ORIGINE
 70
0
 62
7
  6
CONTINUOUS
370
-3
390
F
  0
LAYER
  5
200
100
AcDbSymbolTableRecord
100
AcDbLayerTableRecord
  2
CURVE
 70
0
 62
7
  6
CONTINUOUS
370
-3
390
F
  0
LAYER
  5
201
100
AcDbSymbolTableRecord
100
AcDbLayerTableRecord
  2
DRAFT
 70
0
 62
7
  6
CONTINUOUS
370
-3
390
F
  0
LAYER
  5
202
100
AcDbSymbolTableRecord
100
AcDbLayerTableRecord
  2
IMPORT
 70
0
 62
7
  6
CONTINUOUS
370
-3
390
F
  0
LAYER
  5
203
100
AcDbSymbolTableRecord
100
AcDbLayerTableRecord
  2
INCISIONI_LASER
 70
0
 62
7
  6
CONTINUOUS
370
-3
390
F
  0
LAYER
  5
204
100
AcDbSymbolTableRecord
100
AcDbLayerTableRecord
  2
INTF_1
 70
0
 62
7
  6
CONTINUOUS
370
-3
390
F
  0
LAYER
  5
205
100
AcDbSymbolTableRecord
100
AcDbLayerTableRecord
  2
INTF_11
 70
0
 62
7
  6
CONTINUOUS
370
-3
390
F
  0
LAYER
  5
206
100
AcDbSymbolTableRecord
100
AcDbLayerTableRecord
  2
INTF_12
 70
0
 62
7
  6
CONTINUOUS
370
-3
390
F
  0
LAYER
  5
207
100
AcDbSymbolTableRecord
100
AcDbLayerTableRecord
  2
NOTE
 70
0
 62
7
  6
CONTINUOUS
370
-3
390
F
  0
LAYER
  5
208
100
AcDbSymbolTableRecord
100
AcDbLayerTableRecord
  2
PIANI
 70
0
 62
7
  6
CONTINUOUS
370
-3
390
F
  0
LAYER
  5
209
100
AcDbSymbolTableRecord
100
AcDbLayerTableRecord
  2
PIANI_ORIGINE
 70
0
 62
7
  6
CONTINUOUS
370
-3
390
F
  0
LAYER
  5
20A
100
AcDbSymbolTableRecord
100
AcDbLayerTableRecord
  2
PIANI_SFORMI
 70
0
 62
7
  6
CONTINUOUS
370
-3
390
F
  0
LAYER
  5
20B
100
AcDbSymbolTableRecord
100
AcDbLayerTableRecord
  2
PUNTI
 70
0
 62
7
  6
CONTINUOUS
370
-3
390
F
  0
LAYER
  5
20C
100
AcDbSymbolTableRecord
100
AcDbLayerTableRecord
  2
RACCORDO
 70
0
 62
7
  6
CONTINUOUS
370
-3
390
F
  0
LAYER
  5
20D
100
AcDbSymbolTableRecord
100
AcDbLayerTableRecord
  2
SMUSSO
 70
0
 62
7
  6
CONTINUOUS
370
-3
390
F
  0
LAYER
  5
20E
100
AcDbSymbolTableRecord
100
AcDbLayerTableRecord
  2
SNAPLINE
 70
0
 62
7
  6
CONTINUOUS
370
-3
390
F
  0
LAYER
  5
20F
100
AcDbSymbolTableRecord
100
AcDbLayerTableRecord
  2
SUPERFICI
 70
0
 62
7
  6
CONTINUOUS
370
-3
390
F
  0
LAYER
  5
210
100
AcDbSymbolTableRecord
100
AcDbLayerTableRecord
  2
TRASH
 70
0
 62
7
  6
CONTINUOUS
370
-3
390
F
  0
LAYER
  5
211
100
AcDbSymbolTableRecord
100
AcDbLayerTableRecord
  2
XSEC_DATUMS
 70
0
 62
7
  6
CONTINUOUS
370
-3
390
F
  0
LAYER
  5
212
100
AcDbSymbolTableRecord
100
AcDbLayerTableRecord
  2
Z030100_COP
 70
0
 62
7
  6
CONTINUOUS
370
-3
390
F
  0
ENDTAB
  0
TABLE
  2
STYLE
  5
3
100
AcDbSymbolTable
 70
1
  0
STYLE
  5
11
100
AcDbSymbolTableRecord
100
AcDbTextStyleTableRecord
  2
STANDARD
 70
0
 40
0.0
 41
0.8
 50
0.0
 71
0
 42
0.2
  3
txt
  4

  0
STYLE
  5
213
100
AcDbSymbolTableRecord
100
AcDbTextStyleTableRecord
  2
TEXTSTYLE_1
 70
0
 40
0.0
 41
0.8
 50
0.0
 71
0
 42
0.2
  3
gdt
  4

  0
ENDTAB
  0
TABLE
  2
VIEW
  5
6
100
AcDbSymbolTable
 70
0
  0
ENDTAB
  0
TABLE
  2
UCS
  5
7
100
AcDbSymbolTable
 70
0
  0
ENDTAB
  0
TABLE
  2
APPID
  5
9
100
AcDbSymbolTable
 70
1
  0
APPID
  5
214
100
AcDbSymbolTableRecord
100
AcDbRegAppTableRecord
  2
ACAD
 70
0
  0
ENDTAB
  0
TABLE
  2
BLOCK_RECORD
  5
1
100
AcDbSymbolTable
 70
0
  0
BLOCK_RECORD
  5
215
100
AcDbSymbolTableRecord
100
AcDbBlockTableRecord
  2
*Model_Space
  0
BLOCK_RECORD
  5
216
100
AcDbSymbolTableRecord
100
AcDbBlockTableRecord
  2
*Paper_Space
  0
BLOCK_RECORD
  5
217
100
AcDbSymbolTableRecord
100
AcDbBlockTableRecord
  2
_FILLED
  0
BLOCK_RECORD
  5
218
100
AcDbSymbolTableRecord
100
AcDbBlockTableRecord
  2
*D0
  0
BLOCK_RECORD
  5
219
100
AcDbSymbolTableRecord
100
AcDbBlockTableRecord
  2
*D1
  0
BLOCK_RECORD
  5
21A
100
AcDbSymbolTableRecord
100
AcDbBlockTableRecord
  2
*D2
  0
BLOCK_RECORD
  5
21B
100
AcDbSymbolTableRecord
100
AcDbBlockTableRecord
  2
*D3
  0
ENDTAB
  0
TABLE
  2
DIMSTYLE
  5
A
100
AcDbSymbolTable
 70
1
100
AcDbDimStyleTable
 71
0
  0
DIMSTYLE
105
21C
100
AcDbSymbolTableRecord
100
AcDbDimStyleTableRecord
  2
STANDARD
 70
0
  3

  4

 40
1.0
 41
3.0
 42
0.5
 43
0.38
 44
1.5
 45
0.0
 46
0.0
 47
0.01
 48
0.01
140
3.0
141
0.0
142
0.0
143
25.4
144
1.0
145
0.0
146
1.0
147
0.625
 71
1
 72
0
 73
0
 74
0
 75
0
 76
0
 77
1
 78
8
 79
2
170
0
171
1
172
0
173
0
174
0
175
0
176
0
177
0
178
0
270
2
179
1
271
2
272
2
273
2
274
2
275
0
280
0
281
0
282
0
283
1
284
8
285
0
286
0
287
3
288
0
340
11
278
44
341
217
342
217
343
217
344
217
  0
DIMSTYLE
105
21D
100
AcDbSymbolTableRecord
100
AcDbDimStyleTableRecord
  2
DIMSTYLE_1
 70
0
  3

  4

 40
1.0
 41
3.0
 42
0.5
 43
0.38
 44
1.5
 45
0.0
 46
0.0
 47
0.0
 48
0.0
140
3.0
141
0.0
142
0.0
143
25.4
144
1.0
145
0.0
146
1.0
147
0.75
 71
0
 72
0
 73
0
 74
0
 75
0
 76
0
 77
1
 78
8
 79
2
170
0
171
1
172
0
173
0
174
0
175
0
176
0
177
0
178
0
270
2
179
2
271
2
272
2
273
2
274
2
275
0
280
0
281
0
282
0
283
1
284
8
285
0
286
0
287
3
288
0
340
11
278
44
341
217
342
217
343
217
344
217
  0
DIMSTYLE
105
21E
100
AcDbSymbolTableRecord
100
AcDbDimStyleTableRecord
  2
DIMSTYLE_2
 70
0
  3

  4

 40
1.0
 41
3.0
 42
0.5
 43
0.38
 44
1.5
 45
0.0
 46
0.0
 47
0.0
 48
0.0
140
3.0
141
0.0
142
0.0
143
25.4
144
1.0
145
0.0
146
1.0
147
0.75
 71
0
 72
0
 73
0
 74
0
 75
0
 76
0
 77
1
 78
8
 79
2
170
0
171
1
172
0
173
0
174
0
175
0
176
0
177
0
178
0
270
2
179
1
271
1
272
1
273
2
274
2
275
0
280
0
281
0
282
0
283
1
284
8
285
0
286
0
287
3
288
0
340
11
278
44
341
217
342
217
343
217
344
217
  0
ENDTAB
  0
ENDSEC
  0
SECTION
  2
BLOCKS
  0
BLOCK
  5
20
100
AcDbEntity
  8
0
100
AcDbBlockBegin
  2
*Model_Space
 70
0
 10
0.0
 20
0.0
 30
0.0
  3
*Model_Space
  1

  0
ENDBLK
  5
21
100
AcDbEntity
  8
0
100
AcDbBlockEnd
  0
BLOCK
  5
1C
100
AcDbEntity
  8
0
100
AcDbBlockBegin
  2
*Paper_Space
 70
0
 10
0.0
 20
0.0
 30
0.0
  3
*Paper_Space
  1

  0
ENDBLK
  5
1D
100
AcDbEntity
  8
0
100
AcDbBlockEnd
  0
BLOCK
  5
21F
100
AcDbEntity
  8
0
100
AcDbBlockBegin
  2
_FILLED
 70
64
 10
0.0
 20
0.0
 30
0.0
  3
_FILLED
  1

  0
SOLID
  5
220
100
AcDbEntity
  8
0
  6
BYBLOCK
 62
0
100
AcDbTrace
 10
0.0
 20
0.0
 30
0.0
 11
-1.0
 21
0.1333333333
 31
0.0
 12
-1.0
 22
-0.1333333333
 32
0.0
 13
-1.0
 23
-0.1333333333
 33
0.0
  0
ENDBLK
  5
221
100
AcDbEntity
  8
0
  6
BYBLOCK
 62
0
100
AcDbBlockEnd
  0
BLOCK
  5
222
100
AcDbEntity
  8
0
100
AcDbBlockBegin
 62
7
  6
CONTINUOUS
  2
*D0
 70
65
 10
0.0
 20
0.0
 30
0.0
  3
*D0
  1

  0
MTEXT
  5
223
100
AcDbEntity
  8
0
100
AcDbMText
 62
7
  6
CONTINUOUS
  7
STANDARD
 71
2
 72
1
 10
-38.9515552706
 20
36.25
 30
0.0
 11
1.0
 21
0.0
 31
0.0
 73
2
 44
0.9
  1
{\ftxt;\W0.0001;\H0.0001;\~}{\ftxt;\W2.8571428571;\H3.0; }{\ftxt;\W0.0001;\H0.0001;\~}
 40
3.0
 41
12.8571428571
  0
LINE
  5
224
100
AcDbEntity
  8
0
100
AcDbLine
 62
7
  6
CONTINUOUS
 10
-26.8015552706
 20
2.25
 30
0.0
 11
-26.8015552706
 21
34.0
 31
0.0
  0
LINE
  5
225
100
AcDbEntity
  8
0
100
AcDbLine
 62
7
  6
CONTINUOUS
 10
-51.1015552706
 20
21.5226497308
 30
0.0
 11
-51.1015552706
 21
34.0
 31
0.0
  0
LINE
  5
226
100
AcDbEntity
  8
0
100
AcDbLine
 62
7
  6
CONTINUOUS
 10
-26.8015552706
 20
32.5
 30
0.0
 11
-38.9515552706
 21
32.5
 31
0.0
  0
LINE
  5
227
100
AcDbEntity
  8
0
100
AcDbLine
 62
7
  6
CONTINUOUS
 10
-51.1015552706
 20
32.5
 30
0.0
 11
-38.9515552706
 21
32.5
 31
0.0
  0
INSERT
  5
228
100
AcDbEntity
  8
0
100
AcDbBlockReference
 62
7
  6
CONTINUOUS
  2
_FILLED
 10
-26.8015552706
 20
32.5
 30
0.0
 41
3.0
 42
3.0
 43
3.0
  0
INSERT
  5
229
100
AcDbEntity
  8
0
100
AcDbBlockReference
 62
7
  6
CONTINUOUS
  2
_FILLED
 10
-51.1015552706
 20
32.5
 30
0.0
 41
3.0
 42
3.0
 43
3.0
 50
180.0
  0
ENDBLK
  5
22A
100
AcDbEntity
  8
0
  6
BYBLOCK
 62
0
100
AcDbBlockEnd
  0
BLOCK
  5
22B
100
AcDbEntity
  8
0
100
AcDbBlockBegin
 62
7
  6
CONTINUOUS
  2
*D1
 70
65
 10
0.0
 20
0.0
 30
0.0
  3
*D1
  1

  0
MTEXT
  5
22C
100
AcDbEntity
  8
0
100
AcDbMText
 62
7
  6
CONTINUOUS
  7
STANDARD
 71
2
 72
1
 10
-43.7015552706
 20
46.25
 30
0.0
 11
1.0
 21
0.0
 31
0.0
 73
2
 44
0.9
  1
{\ftxt;\W0.0001;\H0.0001;\~}{\ftxt;\W2.7857142857;\H3.0; }{\ftxt;\W0.0001;\H0.0001;\~}
 40
3.0
 41
12.5357142857
  0
LINE
  5
22D
100
AcDbEntity
  8
0
100
AcDbLine
 62
7
  6
CONTINUOUS
 10
-26.8015552706
 20
2.25
 30
0.0
 11
-26.8015552706
 21
44.0
 31
0.0
  0
LINE
  5
22E
100
AcDbEntity
  8
0
100
AcDbLine
 62
7
  6
CONTINUOUS
 10
-60.6015552706
 20
0.5
 30
0.0
 11
-60.6015552706
 21
44.0
 31
0.0
  0
LINE
  5
22F
100
AcDbEntity
  8
0
100
AcDbLine
 62
7
  6
CONTINUOUS
 10
-26.8015552706
 20
42.5
 30
0.0
 11
-43.7015552706
 21
42.5
 31
0.0
  0
LINE
  5
230
100
AcDbEntity
  8
0
100
AcDbLine
 62
7
  6
CONTINUOUS
 10
-60.6015552706
 20
42.5
 30
0.0
 11
-43.7015552706
 21
42.5
 31
0.0
  0
INSERT
  5
231
100
AcDbEntity
  8
0
100
AcDbBlockReference
 62
7
  6
CONTINUOUS
  2
_FILLED
 10
-26.8015552706
 20
42.5
 30
0.0
 41
3.0
 42
3.0
 43
3.0
  0
INSERT
  5
232
100
AcDbEntity
  8
0
100
AcDbBlockReference
 62
7
  6
CONTINUOUS
  2
_FILLED
 10
-60.6015552706
 20
42.5
 30
0.0
 41
3.0
 42
3.0
 43
3.0
 50
180.0
  0
ENDBLK
  5
233
100
AcDbEntity
  8
0
  6
BYBLOCK
 62
0
100
AcDbBlockEnd
  0
BLOCK
  5
234
100
AcDbEntity
  8
0
100
AcDbBlockBegin
 62
7
  6
CONTINUOUS
  2
*D2
 70
65
 10
0.0
 20
0.0
 30
0.0
  3
*D2
  1

  0
MTEXT
  5
235
100
AcDbEntity
  8
0
100
AcDbMText
 62
7
  6
CONTINUOUS
  7
STANDARD
 71
2
 72
1
 10
-1.9167088442
 20
36.25
 30
0.0
 11
1.0
 21
0.0
 31
0.0
 73
2
 44
0.9
  1
{\ftxt;\W0.0001;\H0.0001;\~}{\ftxt;\W2.8571428571;\H3.0; }{\ftxt;\W0.0001;\H0.0001;\~}
 40
3.0
 41
12.8571428571
  0
LINE
  5
236
100
AcDbEntity
  8
0
100
AcDbLine
 62
7
  6
CONTINUOUS
 10
-13.0832911558
 20
21.5226497308
 30
0.0
 11
-13.0832911558
 21
34.0
 31
0.0
  0
LINE
  5
237
100
AcDbEntity
  8
0
100
AcDbLine
 62
7
  6
CONTINUOUS
 10
9.2498734675
 20
21.5226497308
 30
0.0
 11
9.2498734675
 21
34.0
 31
0.0
  0
LINE
  5
238
100
AcDbEntity
  8
0
100
AcDbLine
 62
7
  6
CONTINUOUS
 10
-13.0832911558
 20
32.5
 30
0.0
 11
-1.9167088442
 21
32.5
 31
0.0
  0
LINE
  5
239
100
AcDbEntity
  8
0
100
AcDbLine
 62
7
  6
CONTINUOUS
 10
9.2498734675
 20
32.5
 30
0.0
 11
-1.9167088442
 21
32.5
 31
0.0
  0
INSERT
  5
23A
100
AcDbEntity
  8
0
100
AcDbBlockReference
 62
7
  6
CONTINUOUS
  2
_FILLED
 10
-13.0832911558
 20
32.5
 30
0.0
 41
3.0
 42
3.0
 43
3.0
 50
180.0
  0
INSERT
  5
23B
100
AcDbEntity
  8
0
100
AcDbBlockReference
 62
7
  6
CONTINUOUS
  2
_FILLED
 10
9.2498734675
 20
32.5
 30
0.0
 41
3.0
 42
3.0
 43
3.0
  0
ENDBLK
  5
23C
100
AcDbEntity
  8
0
  6
BYBLOCK
 62
0
100
AcDbBlockEnd
  0
BLOCK
  5
23D
100
AcDbEntity
  8
0
100
AcDbBlockBegin
 62
7
  6
CONTINUOUS
  2
*D3
 70
65
 10
0.0
 20
0.0
 30
0.0
  3
*D3
  1

  0
MTEXT
  5
23E
100
AcDbEntity
  8
0
100
AcDbMText
 62
7
  6
CONTINUOUS
  7
STANDARD
 71
2
 72
1
 10
17.3332911558
 20
0.0
 30
0.0
 11
0.0
 21
1.0
 31
0.0
 73
2
 44
0.9
  1
{\ftxt;\W0.0001;\H0.0001;\~}{\ftxt;\W1.5714285714;\H3.0; }{\ftxt;\W0.0001;\H0.0001;\~}
 40
3.0
 41
7.0714285714
  0
LINE
  5
23F
100
AcDbEntity
  8
0
100
AcDbLine
 62
7
  6
CONTINUOUS
 10
8.4832953866
 20
24.5
 30
0.0
 11
22.5832911558
 21
24.5
 31
0.0
  0
LINE
  5
240
100
AcDbEntity
  8
0
100
AcDbLine
 62
7
  6
CONTINUOUS
 10
8.4832953866
 20
-24.5
 30
0.0
 11
22.5832911558
 21
-24.5
 31
0.0
  0
LINE
  5
241
100
AcDbEntity
  8
0
100
AcDbLine
 62
7
  6
CONTINUOUS
 10
21.0832911558
 20
24.5
 30
0.0
 11
21.0832911558
 21
0.0
 31
0.0
  0
LINE
  5
242
100
AcDbEntity
  8
0
100
AcDbLine
 62
7
  6
CONTINUOUS
 10
21.0832911558
 20
-24.5
 30
0.0
 11
21.0832911558
 21
0.0
 31
0.0
  0
INSERT
  5
243
100
AcDbEntity
  8
0
100
AcDbBlockReference
 62
7
  6
CONTINUOUS
  2
_FILLED
 10
21.0832911558
 20
24.5
 30
0.0
 41
3.0
 42
3.0
 43
3.0
 50
90.0
  0
INSERT
  5
244
100
AcDbEntity
  8
0
100
AcDbBlockReference
 62
7
  6
CONTINUOUS
  2
_FILLED
 10
21.0832911558
 20
-24.5
 30
0.0
 41
3.0
 42
3.0
 43
3.0
 50
270.0
  0
ENDBLK
  5
245
100
AcDbEntity
  8
0
  6
BYBLOCK
 62
0
100
AcDbBlockEnd
  0
ENDSEC
  0
SECTION
  2
ENTITIES
  0
DIMENSION
  5
246
100
AcDbEntity
  8
0
100
AcDbDimension
 62
7
  6
CONTINUOUS
  2
*D0
 10
-51.1015552706
 20
32.5
 30
0.0
 11
-39.3801267075
 21
32.5
 31
0.0
 70
160
 71
2
 72
2
 41
0.9
 42
24.3
  1
{\ftxt;\W0.0001;\H0.0001;\~}{\ftxt;\W2.8571428571;\H3.0; }{\ftxt;\W0.0001;\H0.0001;\~}
  3
DIMSTYLE_1
100
AcDbAlignedDimension
 13
-26.8015552706
 23
1.75
 33
0.0
 14
-51.1015552706
 24
21.0226497308
 34
0.0
 50
180.0
100
AcDbRotatedDimension
  0
DIMENSION
  5
247
100
AcDbEntity
  8
0
100
AcDbDimension
 62
7
  6
CONTINUOUS
  2
*D1
 10
-60.6015552706
 20
42.5
 30
0.0
 11
-44.1301270828
 21
42.5
 31
0.0
 70
160
 71
2
 72
2
 41
0.9
 42
33.8
  1
{\ftxt;\W0.0001;\H0.0001;\~}{\ftxt;\W2.7857142857;\H3.0; }{\ftxt;\W0.0001;\H0.0001;\~}
  3
DIMSTYLE_1
100
AcDbAlignedDimension
 13
-26.8015552706
 23
1.75
 33
0.0
 14
-60.6015552706
 24
0.0
 34
0.0
 50
180.0
100
AcDbRotatedDimension
  0
DIMENSION
  5
248
100
AcDbEntity
  8
0
100
AcDbDimension
 62
7
  6
CONTINUOUS
  2
*D2
 10
9.2498734675
 20
32.5
 30
0.0
 11
-2.3452803508
 21
32.5
 31
0.0
 70
160
 71
2
 72
2
 41
0.9
 42
22.3331646234
  1
{\ftxt;\W0.0001;\H0.0001;\~}{\ftxt;\W2.8571428571;\H3.0; }{\ftxt;\W0.0001;\H0.0001;\~}
  3
DIMSTYLE_2
100
AcDbAlignedDimension
 13
-13.0832911558
 23
21.0226497308
 33
0.0
 14
9.2498734675
 24
21.0226497308
 34
0.0
100
AcDbRotatedDimension
  0
DIMENSION
  5
249
100
AcDbEntity
  8
0
100
AcDbDimension
 62
7
  6
CONTINUOUS
  2
*D3
 10
21.0832911558
 20
-24.5
 30
0.0
 11
21.0832911558
 21
-0.4285720188
 31
0.0
 70
160
 71
2
 72
2
 41
0.9
 42
49.0
  1
{\ftxt;\W0.0001;\H0.0001;\~}{\ftxt;\W1.5714285714;\H3.0; }{\ftxt;\W0.0001;\H0.0001;\~}
  3
DIMSTYLE_1
100
AcDbAlignedDimension
 13
7.9832953866
 23
24.5
 33
0.0
 14
7.9832953866
 24
-24.5
 34
0.0
 50
270.0
100
AcDbRotatedDimension
  0
LWPOLYLINE
  5
24A
100
AcDbEntity
  8
0
100
AcDbPolyline
 62
7
  6
CONTINUOUS
 90
5
 70
0
 43
0.3500000087
 10
1.0832911809
 20
34.9642844238
 10
1.4404340252
 20
35.1785709564
 10
1.4404340252
 20
35.8214305542
 10
1.0832911809
 20
36.2499993561
 10
0.226148298
 20
36.2499993561
  0
LINE
  5
24B
100
AcDbEntity
  8
0
100
AcDbLine
 62
250
  6
CONTINUOUS
 10
-9.4298031921
 20
24.4869014213
 30
0.0
 11
-9.4170882594
 21
24.499616354
 31
0.0
  0
LINE
  5
24C
100
AcDbEntity
  8
0
100
AcDbLine
 62
7
  6
CONTINUOUS
 10
-11.8167130749
 20
-24.5
 30
0.0
 11
-9.4167046134
 21
-24.5
 31
0.0
  0
LINE
  5
24D
100
AcDbEntity
  8
0
100
AcDbLine
 62
7
  6
CONTINUOUS
 10
5.5832869251
 20
-24.5
 30
0.0
 11
7.9832953866
 21
-24.5
 31
0.0
  0
LINE
  5
24E
100
AcDbEntity
  8
0
100
AcDbLine
 62
7
  6
CONTINUOUS
 10
-11.8036144962
 20
-24.4869014213
 30
0.0
 11
-9.4298031921
 21
-24.4869014213
 31
0.0
  0
LINE
  5
24F
100
AcDbEntity
  8
0
100
AcDbLine
 62
7
  6
CONTINUOUS
 10
5.5963855038
 20
-24.4869014213
 30
0.0
 11
7.9701968079
 21
-24.4869014213
 31
0.0
  0
LINE
  5
250
100
AcDbEntity
  8
0
100
AcDbLine
 62
250
  6
CONTINUOUS
 10
5.3463897346
 20
-24.2369056521
 30
0.0
 11
8.2201925771
 21
-24.2369056521
 31
0.0
  0
LINE
  5
251
100
AcDbEntity
  8
0
100
AcDbLine
 62
250
  6
CONTINUOUS
 10
-9.1798074229
 20
-24.2369056521
 30
0.0
 11
-12.0536102654
 21
-24.2369056521
 31
0.0
  0
LINE
  5
252
100
AcDbEntity
  8
0
100
AcDbLine
 62
7
  6
CONTINUOUS
 10
2.5332911558
 20
-24.0
 30
0.0
 11
1.5832911558
 21
-24.0
 31
0.0
  0
LINE
  5
253
100
AcDbEntity
  8
0
100
AcDbLine
 62
7
  6
CONTINUOUS
 10
-5.4167088442
 20
-24.0
 30
0.0
 11
-6.3667088442
 21
-24.0
 31
0.0
  0
LINE
  5
254
100
AcDbEntity
  8
0
100
AcDbLine
 62
7
  6
CONTINUOUS
 10
-5.4167088442
 20
-23.9982478817
 30
0.0
 11
-3.1167088442
 21
-23.9982478817
 31
0.0
  0
LINE
  5
255
100
AcDbEntity
  8
0
100
AcDbLine
 62
7
  6
CONTINUOUS
 10
-0.7167088442
 20
-23.9982478817
 30
0.0
 11
1.5832911558
 21
-23.9982478817
 31
0.0
  0
LINE
  5
256
100
AcDbEntity
  8
0
100
AcDbLine
 62
7
  6
CONTINUOUS
 10
2.5245644111
 20
-23.9912732553
 30
0.0
 11
1.5832911558
 21
-23.9912732553
 31
0.0
  0
LINE
  5
257
100
AcDbEntity
  8
0
100
AcDbLine
 62
7
  6
CONTINUOUS
 10
-5.4167088442
 20
-23.9912732553
 30
0.0
 11
-6.3579820994
 21
-23.9912732553
 31
0.0
  0
LINE
  5
258
100
AcDbEntity
  8
0
100
AcDbLine
 62
250
  6
CONTINUOUS
 10
5.3463897346
 20
-23.8443375673
 30
0.0
 11
8.2201925771
 21
-23.8443375673
 31
0.0
  0
LINE
  5
259
100
AcDbEntity
  8
0
100
AcDbLine
 62
250
  6
CONTINUOUS
 10
-9.1798074229
 20
-23.8443375673
 30
0.0
 11
-12.0536102654
 21
-23.8443375673
 31
0.0
  0
LINE
  5
25A
100
AcDbEntity
  8
0
100
AcDbLine
 62
250
  6
CONTINUOUS
 10
-9.4298031921
 20
-24.4869014213
 30
0.0
 11
-9.4167046134
 21
-24.5
 31
0.0
  0
LINE
  5
25B
100
AcDbEntity
  8
0
100
AcDbLine
 62
250
  6
CONTINUOUS
 10
-9.1798074229
 20
24.2369056521
 30
0.0
 11
-9.1667088442
 21
24.2500042308
 31
0.0
  0
LINE
  5
25C
100
AcDbEntity
  8
RACCORDO
100
AcDbLine
 62
7
  6
CONTINUOUS
 10
-11.3667088442
 20
20.4889072728
 30
0.0
 11
-11.3829476147
 21
20.4726685022
 31
0.0
  0
LINE
  5
25D
100
AcDbEntity
  8
0
100
AcDbLine
 62
250
  6
CONTINUOUS
 10
-5.4167088442
 20
-23.7982512664
 30
0.0
 11
-2.9167088442
 21
-23.7982512664
 31
0.0
  0
LINE
  5
25E
100
AcDbEntity
  8
0
100
AcDbLine
 62
250
  6
CONTINUOUS
 10
1.5832911558
 20
-23.7982512664
 30
0.0
 11
-0.9167088442
 21
-23.7982512664
 31
0.0
  0
LINE
  5
25F
100
AcDbEntity
  8
0
100
AcDbLine
 62
250
  6
CONTINUOUS
 10
7.9701968079
 20
-23.6278312164
 30
0.0
 11
5.5963855038
 21
-23.6278312164
 31
0.0
  0
LINE
  5
260
100
AcDbEntity
  8
0
100
AcDbLine
 62
250
  6
CONTINUOUS
 10
-9.4298031921
 20
-23.6278312164
 30
0.0
 11
-11.8036144962
 21
-23.6278312164
 31
0.0
  0
LINE
  5
261
100
AcDbEntity
  8
0
100
AcDbLine
 62
7
  6
CONTINUOUS
 10
-11.809432326
 20
-23.1226497308
 30
0.0
 11
-9.4239853623
 21
-23.1226497308
 31
0.0
  0
LINE
  5
262
100
AcDbEntity
  8
0
100
AcDbLine
 62
7
  6
CONTINUOUS
 10
7.9760146377
 20
-23.1226497308
 30
0.0
 11
5.590567674
 21
-23.1226497308
 31
0.0
  0
LINE
  5
263
100
AcDbEntity
  8
RACCORDO
100
AcDbLine
 62
250
  6
CONTINUOUS
 10
7.9760146377
 20
-22.5111812444
 30
0.0
 11
5.590567674
 21
-22.5111812444
 31
0.0
  0
LINE
  5
264
100
AcDbEntity
  8
RACCORDO
100
AcDbLine
 62
250
  6
CONTINUOUS
 10
-9.4239853623
 20
-22.5111812444
 30
0.0
 11
-11.809432326
 21
-22.5111812444
 31
0.0
  0
LINE
  5
265
100
AcDbEntity
  8
RACCORDO
100
AcDbLine
 62
7
  6
CONTINUOUS
 10
-12.5671515336
 20
-22.4
 30
0.0
 11
-12.2666513323
 21
-22.4
 31
0.0
  0
LINE
  5
266
100
AcDbEntity
  8
RACCORDO
100
AcDbLine
 62
7
  6
CONTINUOUS
 10
-8.966766356
 20
-22.4
 30
0.0
 11
-6.3667088442
 21
-22.4
 31
0.0
  0
LINE
  5
267
100
AcDbEntity
  8
RACCORDO
100
AcDbLine
 62
7
  6
CONTINUOUS
 10
2.5332911558
 20
-22.4
 30
0.0
 11
5.1333486677
 21
-22.4
 31
0.0
  0
LINE
  5
268
100
AcDbEntity
  8
0
100
AcDbLine
 62
7
  6
CONTINUOUS
 10
-0.9167088442
 20
-22.4
 30
0.0
 11
-2.9167088442
 21
-22.4
 31
0.0
  0
LINE
  5
269
100
AcDbEntity
  8
RACCORDO
100
AcDbLine
 62
7
  6
CONTINUOUS
 10
8.433233644
 20
-22.4
 30
0.0
 11
8.7337338453
 21
-22.4
 31
0.0
  0
LINE
  5
26A
100
AcDbEntity
  8
0
100
AcDbLine
 62
7
  6
CONTINUOUS
 10
-5.4167088442
 20
-22.3737961104
 30
0.0
 11
-3.1167088442
 21
-22.3737961104
 31
0.0
  0
LINE
  5
26B
100
AcDbEntity
  8
0
100
AcDbLine
 62
7
  6
CONTINUOUS
 10
-0.7167088442
 20
-22.3737961104
 30
0.0
 11
1.5832911558
 21
-22.3737961104
 31
0.0
  0
LINE
  5
26C
100
AcDbEntity
  8
0
100
AcDbLine
 62
7
  6
CONTINUOUS
 10
2.5245644111
 20
-22.3213883311
 30
0.0
 11
1.5832911558
 21
-22.3213883311
 31
0.0
  0
LINE
  5
26D
100
AcDbEntity
  8
0
100
AcDbLine
 62
7
  6
CONTINUOUS
 10
-5.4167088442
 20
-22.3213883311
 30
0.0
 11
-6.3579820994
 21
-22.3213883311
 31
0.0
  0
LINE
  5
26E
100
AcDbEntity
  8
RACCORDO
100
AcDbLine
 62
250
  6
CONTINUOUS
 10
7.9760146377
 20
-22.3114553375
 30
0.0
 11
5.590567674
 21
-22.3114553375
 31
0.0
  0
LINE
  5
26F
100
AcDbEntity
  8
RACCORDO
100
AcDbLine
 62
250
  6
CONTINUOUS
 10
-9.4239853623
 20
-22.3114553375
 30
0.0
 11
-11.809432326
 21
-22.3114553375
 31
0.0
  0
LINE
  5
270
100
AcDbEntity
  8
0
100
AcDbLine
 62
250
  6
CONTINUOUS
 10
8.6196336783
 20
-22.0602279426
 30
0.0
 11
-12.4530513667
 21
-22.0602279426
 31
0.0
  0
LINE
  5
271
100
AcDbEntity
  8
0
100
AcDbLine
 62
250
  6
CONTINUOUS
 10
-9.1798074229
 20
-24.2369056521
 30
0.0
 11
-9.1667088442
 21
-24.2500042308
 31
0.0
  0
LINE
  5
272
100
AcDbEntity
  8
0
100
AcDbLine
 62
250
  6
CONTINUOUS
 10
8.61146049
 20
-21.2107174911
 30
0.0
 11
-12.4448781784
 21
-21.2107174911
 31
0.0
  0
LINE
  5
273
100
AcDbEntity
  8
RACCORDO
100
AcDbLine
 62
250
  6
CONTINUOUS
 10
-11.4167088442
 20
15.9999428868
 30
0.0
 11
-11.4333637578
 21
15.9916160641
 31
0.0
  0
LINE
  5
274
100
AcDbEntity
  8
RACCORDO
100
AcDbLine
 62
250
  6
CONTINUOUS
 10
-11.3667088442
 20
15.9999428868
 30
0.0
 11
-11.3523197274
 21
16.0071368972
 31
0.0
  0
LINE
  5
275
100
AcDbEntity
  8
RACCORDO
100
AcDbLine
 62
250
  6
CONTINUOUS
 10
-10.8667088413
 20
15.5
 30
0.0
 11
-10.8517103628
 21
15.5074986681
 31
0.0
  0
LWPOLYLINE
  5
276
100
AcDbEntity
  8
RACCORDO
100
AcDbPolyline
 62
7
  6
CONTINUOUS
 90
16
 70
0
 10
-11.350269179
 20
21.99187746
 10
-11.3521636893
 20
21.9855477656
 10
-11.353408877
 20
21.9804470501
 10
-11.3542458026
 20
21.9763633246
 10
-11.3549040007
 20
21.9726203362
 10
-11.3554408082
 20
21.9691073231
 10
-11.3558703697
 20
21.9659249361
 10
-11.3562571566
 20
21.9627242704
 10
-11.3566173641
 20
21.9594183511
 10
-11.3569486405
 20
21.9560713928
 10
-11.3572661087
 20
21.9525651285
 10
-11.3575740504
 20
21.9488662449
 10
-11.3578724536
 20
21.9449870595
 10
-11.3581654647
 20
21.9408827494
 10
-11.358454235
 20
21.9365404513
 10
-11.3590217673
 20
21.9271067057
  0
LINE
  5
277
100
AcDbEntity
  8
RACCORDO
100
AcDbLine
 62
250
  6
CONTINUOUS
 10
-11.6092819802
 20
22.0602279426
 30
0.0
 11
-11.5746644484
 21
22.1641649932
 31
0.0
  0
LINE
  5
278
100
AcDbEntity
  8
RACCORDO
100
AcDbLine
 62
250
  6
CONTINUOUS
 10
-11.4093124412
 20
21.8605020357
 30
0.0
 11
-11.3748166883
 21
21.9640734524
 31
0.0
  0
LINE
  5
279
100
AcDbEntity
  8
RACCORDO
100
AcDbLine
 62
7
  6
CONTINUOUS
 10
-11.350240356
 20
21.9919646371
 30
0.0
 11
-11.315714177
 21
22.0956274065
 31
0.0
  0
LINE
  5
27A
100
AcDbEntity
  8
RACCORDO
100
AcDbLine
 62
250
  6
CONTINUOUS
 10
-11.2553643198
 20
22.0602279426
 30
0.0
 11
-11.220746788
 21
22.1641649932
 31
0.0
  0
LINE
  5
27B
100
AcDbEntity
  8
0
100
AcDbLine
 62
7
  6
CONTINUOUS
 10
2.5245644111
 20
23.9912732553
 30
0.0
 11
2.5332911558
 21
24.0
 31
0.0
  0
LINE
  5
27C
100
AcDbEntity
  8
0
100
AcDbLine
 62
7
  6
CONTINUOUS
 10
2.5332911558
 20
-24.0
 30
0.0
 11
2.5245644111
 21
-23.9912732553
 31
0.0
  0
LINE
  5
27D
100
AcDbEntity
  8
0
100
AcDbLine
 62
7
  6
CONTINUOUS
 10
-13.0832911558
 20
-21.0226497308
 30
0.0
 11
-13.0667088442
 21
-21.5711324865
 31
0.0
  0
LINE
  5
27E
100
AcDbEntity
  8
0
100
AcDbLine
 62
7
  6
CONTINUOUS
 10
-13.0667088442
 20
21.5711324865
 30
0.0
 11
-13.0671451875
 21
21.6
 31
0.0
  0
LINE
  5
27F
100
AcDbEntity
  8
0
100
AcDbLine
 62
7
  6
CONTINUOUS
 10
-13.0832911558
 20
-21.0226497308
 30
0.0
 11
-13.0832911558
 21
21.0226497308
 31
0.0
  0
LINE
  5
280
100
AcDbEntity
  8
0
100
AcDbLine
 62
7
  6
CONTINUOUS
 10
-13.0671451875
 20
21.900016923
 30
0.0
 11
-13.0671451875
 21
21.6
 31
0.0
  0
LINE
  5
281
100
AcDbEntity
  8
0
100
AcDbLine
 62
7
  6
CONTINUOUS
 10
-13.0671451875
 20
-21.900016923
 30
0.0
 11
-13.0671451875
 21
-21.6
 31
0.0
  0
LINE
  5
282
100
AcDbEntity
  8
0
100
AcDbLine
 62
7
  6
CONTINUOUS
 10
-13.0671451875
 20
-21.6
 30
0.0
 11
-13.0667088442
 21
-21.5711324865
 31
0.0
  0
LINE
  5
283
100
AcDbEntity
  8
0
100
AcDbLine
 62
7
  6
CONTINUOUS
 10
-13.0832911558
 20
21.0226497308
 30
0.0
 11
-13.0667088442
 21
21.5711324865
 31
0.0
  0
LINE
  5
284
100
AcDbEntity
  8
DRAFT
100
AcDbLine
 62
7
  6
CONTINUOUS
 10
-11.4167088442
 20
16.4
 30
0.0
 11
-11.3987775409
 21
16.6183558863
 31
0.0
  0
LINE
  5
285
100
AcDbEntity
  8
SMUSSO
100
AcDbLine
 62
7
  6
CONTINUOUS
 10
-11.3748166883
 20
21.7192005714
 30
0.0
 11
-11.3678357258
 21
21.3122196088
 31
0.0
  0
LINE
  5
286
100
AcDbEntity
  8
0
100
AcDbLine
 62
250
  6
CONTINUOUS
 10
-12.0536102654
 20
-23.8443375673
 30
0.0
 11
-12.0594280953
 21
-23.2669872981
 31
0.0
  0
LINE
  5
287
100
AcDbEntity
  8
0
100
AcDbLine
 62
250
  6
CONTINUOUS
 10
-11.8036144962
 20
-23.6278312164
 30
0.0
 11
-11.8087050973
 21
-23.1226497308
 31
0.0
  0
LINE
  5
288
100
AcDbEntity
  8
0
100
AcDbLine
 62
250
  6
CONTINUOUS
 10
-12.0536059854
 20
-24.2383600852
 30
0.0
 11
-12.0536102654
 21
-24.2369056521
 31
0.0
  0
LINE
  5
289
100
AcDbEntity
  8
0
100
AcDbLine
 62
250
  6
CONTINUOUS
 10
-12.4276932938
 20
-9.5
 30
0.0
 11
-12.4276932938
 21
9.5
 31
0.0
  0
LINE
  5
28A
100
AcDbEntity
  8
RACCORDO
100
AcDbLine
 62
7
  6
CONTINUOUS
 10
-12.0667088442
 20
23.4104851482
 30
0.0
 11
-12.0667088442
 21
22.6002134903
 31
0.0
  0
LINE
  5
28B
100
AcDbEntity
  8
0
100
AcDbLine
 62
7
  6
CONTINUOUS
 10
-12.0667088442
 20
-24.2500042308
 30
0.0
 11
-12.0667088442
 21
-23.4104851482
 31
0.0
  0
LINE
  5
28C
100
AcDbEntity
  8
RACCORDO
100
AcDbLine
 62
7
  6
CONTINUOUS
 10
-12.0667088442
 20
-22.6002134903
 30
0.0
 11
-12.0667088442
 21
-23.4104851482
 31
0.0
  0
LINE
  5
28D
100
AcDbEntity
  8
0
100
AcDbLine
 62
7
  6
CONTINUOUS
 10
-12.0667088442
 20
23.4104851482
 30
0.0
 11
-12.0667088442
 21
24.2500042308
 31
0.0
  0
LINE
  5
28E
100
AcDbEntity
  8
RACCORDO
100
AcDbLine
 62
7
  6
CONTINUOUS
 10
-12.0594280953
 20
23.2669872981
 30
0.0
 11
-12.0594280953
 21
22.5346275426
 31
0.0
  0
LINE
  5
28F
100
AcDbEntity
  8
RACCORDO
100
AcDbLine
 62
7
  6
CONTINUOUS
 10
-12.0594280953
 20
-22.5346275426
 30
0.0
 11
-12.0594280953
 21
-23.2669872981
 31
0.0
  0
LINE
  5
290
100
AcDbEntity
  8
0
100
AcDbLine
 62
7
  6
CONTINUOUS
 10
-12.0536102654
 20
24.2369056521
 30
0.0
 11
-12.0536102654
 21
23.8443375673
 31
0.0
  0
LINE
  5
291
100
AcDbEntity
  8
0
100
AcDbLine
 62
7
  6
CONTINUOUS
 10
-12.0536102654
 20
-23.8443375673
 30
0.0
 11
-12.0536102654
 21
-24.2369056521
 31
0.0
  0
LINE
  5
292
100
AcDbEntity
  8
RACCORDO
100
AcDbLine
 62
250
  6
CONTINUOUS
 10
-11.809432326
 20
-22.3114553375
 30
0.0
 11
-11.809432326
 21
-23.1226497308
 31
0.0
  0
LINE
  5
293
100
AcDbEntity
  8
RACCORDO
100
AcDbLine
 62
250
  6
CONTINUOUS
 10
-11.809432326
 20
22.3114553375
 30
0.0
 11
-11.809432326
 21
23.1226497308
 31
0.0
  0
LINE
  5
294
100
AcDbEntity
  8
0
100
AcDbLine
 62
250
  6
CONTINUOUS
 10
-11.8036144962
 20
-23.6278312164
 30
0.0
 11
-11.8036144962
 21
-24.4869014213
 31
0.0
  0
LINE
  5
295
100
AcDbEntity
  8
0
100
AcDbLine
 62
250
  6
CONTINUOUS
 10
-11.8036144962
 20
23.6278312164
 30
0.0
 11
-11.8036144962
 21
24.4869014213
 31
0.0
  0
LINE
  5
296
100
AcDbEntity
  8
RACCORDO
100
AcDbLine
 62
7
  6
CONTINUOUS
 10
-11.4167088442
 20
15.9999428868
 30
0.0
 11
-11.4167088442
 21
16.4
 31
0.0
  0
LINE
  5
297
100
AcDbEntity
  8
SMUSSO
100
AcDbLine
 62
7
  6
CONTINUOUS
 10
-11.3748166883
 20
21.7192005714
 30
0.0
 11
-11.3748166883
 21
21.9640734524
 31
0.0
  0
LINE
  5
298
100
AcDbEntity
  8
RACCORDO
100
AcDbLine
 62
7
  6
CONTINUOUS
 10
-11.3667088442
 20
15.8420996025
 30
0.0
 11
-11.3667088442
 21
21.6340922012
 31
0.0
  0
LINE
  5
299
100
AcDbEntity
  8
RACCORDO
100
AcDbLine
 62
250
  6
CONTINUOUS
 10
-11.0667088442
 20
15.5419248964
 30
0.0
 11
-11.0667088442
 21
15.5232153048
 31
0.0
  0
LINE
  5
29A
100
AcDbEntity
  8
RACCORDO
100
AcDbLine
 62
250
  6
CONTINUOUS
 10
-10.9344063983
 20
15.3078658794
 30
0.0
 11
-10.9344063984
 21
15.4911518954
 31
0.0
  0
LINE
  5
29B
100
AcDbEntity
  8
RACCORDO
100
AcDbLine
 62
7
  6
CONTINUOUS
 10
-11.3987775409
 20
16.6183558863
 30
0.0
 11
-11.391457777
 21
20.0336793263
 31
0.0
  0
LINE
  5
29C
100
AcDbEntity
  8
0
100
AcDbLine
 62
250
  6
CONTINUOUS
 10
-12.0594280953
 20
23.2669872981
 30
0.0
 11
-12.0536102654
 21
23.8443375673
 31
0.0
  0
LINE
  5
29D
100
AcDbEntity
  8
0
100
AcDbLine
 62
250
  6
CONTINUOUS
 10
-11.8087050973
 20
23.1226497308
 30
0.0
 11
-11.8036144962
 21
23.6278312164
 31
0.0
  0
LINE
  5
29E
100
AcDbEntity
  8
RACCORDO
100
AcDbLine
 62
7
  6
CONTINUOUS
 10
-11.3652114518
 20
21.7231310149
 30
0.0
 11
-11.3666956426
 21
21.6325775253
 31
0.0
  0
LINE
  5
29F
100
AcDbEntity
  8
RACCORDO
100
AcDbLine
 62
7
  6
CONTINUOUS
 10
-11.3639353308
 20
21.7841591923
 30
0.0
 11
-11.3652114518
 21
21.7231310149
 31
0.0
  0
LINE
  5
2A0
100
AcDbEntity
  8
RACCORDO
100
AcDbLine
 62
7
  6
CONTINUOUS
 10
-11.3628738085
 20
21.8259852065
 30
0.0
 11
-11.3639353308
 21
21.7841591923
 31
0.0
  0
LINE
  5
2A1
100
AcDbEntity
  8
RACCORDO
100
AcDbLine
 62
7
  6
CONTINUOUS
 10
-11.3617890995
 20
21.8617832782
 30
0.0
 11
-11.3628738085
 21
21.8259852065
 31
0.0
  0
LINE
  5
2A2
100
AcDbEntity
  8
RACCORDO
100
AcDbLine
 62
7
  6
CONTINUOUS
 10
-11.3609659684
 20
21.8848482721
 30
0.0
 11
-11.3617890995
 21
21.8617832782
 31
0.0
  0
LINE
  5
2A3
100
AcDbEntity
  8
RACCORDO
100
AcDbLine
 62
7
  6
CONTINUOUS
 10
-11.3601372407
 20
21.9048452183
 30
0.0
 11
-11.3609659684
 21
21.8848482721
 31
0.0
  0
LINE
  5
2A4
100
AcDbEntity
  8
RACCORDO
100
AcDbLine
 62
7
  6
CONTINUOUS
 10
-11.3595815378
 20
21.9165740187
 30
0.0
 11
-11.3601372407
 21
21.9048452183
 31
0.0
  0
LINE
  5
2A5
100
AcDbEntity
  8
RACCORDO
100
AcDbLine
 62
7
  6
CONTINUOUS
 10
-11.3590217673
 20
21.9271067057
 30
0.0
 11
-11.3595815378
 21
21.9165740187
 31
0.0
  0
LINE
  5
2A6
100
AcDbEntity
  8
RACCORDO
100
AcDbLine
 62
250
  6
CONTINUOUS
 10
-8.9739929777
 20
22.3349016357
 30
0.0
 11
-8.9667663558
 21
22.4
 31
0.0
  0
LINE
  5
2A7
100
AcDbEntity
  8
DRAFT
100
AcDbLine
 62
7
  6
CONTINUOUS
 10
-4.9167088442
 20
22.2218135504
 30
0.0
 11
-4.9359094156
 21
22.1641649932
 31
0.0
  0
LWPOLYLINE
  5
2A8
100
AcDbEntity
  8
0
100
AcDbPolyline
 62
7
  6
CONTINUOUS
 90
3
 70
0
 43
0.3500000087
 10
-0.7738517293
 20
33.5357146454
 10
-0.8452802849
 20
33.3214281128
 10
-0.988137396
 20
33.0357141571
  0
LINE
  5
2A9
100
AcDbEntity
  8
0
100
AcDbLine
 62
250
  6
CONTINUOUS
 10
7.9701968079
 20
24.4869014213
 30
0.0
 11
7.9832953866
 21
24.5
 31
0.0
  0
LINE
  5
2AA
100
AcDbEntity
  8
0
100
AcDbLine
 62
250
  6
CONTINUOUS
 10
8.2201925771
 20
24.2369056521
 30
0.0
 11
8.2332911558
 21
24.2500042308
 31
0.0
  0
LINE
  5
2AB
100
AcDbEntity
  8
0
100
AcDbLine
 62
250
  6
CONTINUOUS
 10
7.9701968079
 20
-24.4869014213
 30
0.0
 11
7.9832953866
 21
-24.5
 31
0.0
  0
LINE
  5
2AC
100
AcDbEntity
  8
0
100
AcDbLine
 62
250
  6
CONTINUOUS
 10
8.2201925771
 20
-24.2369056521
 30
0.0
 11
8.2332911558
 21
-24.2500042308
 31
0.0
  0
LINE
  5
2AD
100
AcDbEntity
  8
RACCORDO
100
AcDbLine
 62
250
  6
CONTINUOUS
 10
-8.9667663558
 20
-22.4
 30
0.0
 11
-8.9739929777
 21
-22.3349016357
 31
0.0
  0
LINE
  5
2AE
100
AcDbEntity
  8
0
100
AcDbLine
 62
250
  6
CONTINUOUS
 10
-9.4298031921
 20
23.6278312164
 30
0.0
 11
-9.424712591
 21
23.1226497308
 31
0.0
  0
LINE
  5
2AF
100
AcDbEntity
  8
0
100
AcDbLine
 62
250
  6
CONTINUOUS
 10
-9.179811703
 20
24.2383600852
 30
0.0
 11
-9.1798074229
 21
24.2369056521
 31
0.0
  0
LINE
  5
2B0
100
AcDbEntity
  8
RACCORDO
100
AcDbLine
 62
250
  6
CONTINUOUS
 10
-10.8517103628
 20
15.5074986681
 30
0.0
 11
-10.8517103628
 21
15.6161906278
 31
0.0
  0
LINE
  5
2B1
100
AcDbEntity
  8
0
100
AcDbLine
 62
250
  6
CONTINUOUS
 10
-9.4298031921
 20
-23.6278312164
 30
0.0
 11
-9.4298031921
 21
-24.4869014213
 31
0.0
  0
LINE
  5
2B2
100
AcDbEntity
  8
0
100
AcDbLine
 62
250
  6
CONTINUOUS
 10
-9.4298031921
 20
23.6278312164
 30
0.0
 11
-9.4298031921
 21
24.4869014213
 31
0.0
  0
LINE
  5
2B3
100
AcDbEntity
  8
RACCORDO
100
AcDbLine
 62
250
  6
CONTINUOUS
 10
-9.4239853623
 20
-22.3114553375
 30
0.0
 11
-9.4239853623
 21
-23.1226497308
 31
0.0
  0
LINE
  5
2B4
100
AcDbEntity
  8
RACCORDO
100
AcDbLine
 62
250
  6
CONTINUOUS
 10
-9.4239853623
 20
22.3114553375
 30
0.0
 11
-9.4239853623
 21
23.1226497308
 31
0.0
  0
LINE
  5
2B5
100
AcDbEntity
  8
0
100
AcDbLine
 62
7
  6
CONTINUOUS
 10
-9.1798074229
 20
-24.2369056521
 30
0.0
 11
-9.1798074229
 21
-23.8443375673
 31
0.0
  0
LINE
  5
2B6
100
AcDbEntity
  8
0
100
AcDbLine
 62
7
  6
CONTINUOUS
 10
-9.1798074229
 20
23.8443375673
 30
0.0
 11
-9.1798074229
 21
24.2369056521
 31
0.0
  0
LINE
  5
2B7
100
AcDbEntity
  8
RACCORDO
100
AcDbLine
 62
7
  6
CONTINUOUS
 10
-9.1739895931
 20
-23.2669872981
 30
0.0
 11
-9.1739895931
 21
-22.5346275426
 31
0.0
  0
LINE
  5
2B8
100
AcDbEntity
  8
RACCORDO
100
AcDbLine
 62
7
  6
CONTINUOUS
 10
-9.1739895931
 20
22.5346275426
 30
0.0
 11
-9.1739895931
 21
23.2669872981
 31
0.0
  0
LINE
  5
2B9
100
AcDbEntity
  8
0
100
AcDbLine
 62
7
  6
CONTINUOUS
 10
-9.1667088442
 20
24.2500042308
 30
0.0
 11
-9.1667088442
 21
23.4104851482
 31
0.0
  0
LINE
  5
2BA
100
AcDbEntity
  8
RACCORDO
100
AcDbLine
 62
7
  6
CONTINUOUS
 10
-9.1667088442
 20
-23.4104851482
 30
0.0
 11
-9.1667088442
 21
-22.6002134903
 31
0.0
  0
LINE
  5
2BB
100
AcDbEntity
  8
0
100
AcDbLine
 62
7
  6
CONTINUOUS
 10
-9.1667088442
 20
-23.4104851482
 30
0.0
 11
-9.1667088442
 21
-24.2500042308
 31
0.0
  0
LINE
  5
2BC
100
AcDbEntity
  8
RACCORDO
100
AcDbLine
 62
7
  6
CONTINUOUS
 10
-9.1667088442
 20
22.6002134903
 30
0.0
 11
-9.1667088442
 21
23.4104851482
 31
0.0
  0
LINE
  5
2BD
100
AcDbEntity
  8
0
100
AcDbLine
 62
250
  6
CONTINUOUS
 10
-9.424712591
 20
-23.1226497308
 30
0.0
 11
-9.4298031921
 21
-23.6278312164
 31
0.0
  0
LINE
  5
2BE
100
AcDbEntity
  8
RACCORDO
100
AcDbLine
 62
250
  6
CONTINUOUS
 10
-12.2594247106
 20
-22.3349016357
 30
0.0
 11
-12.2666513325
 21
-22.4
 31
0.0
  0
LINE
  5
2BF
100
AcDbEntity
  8
SMUSSO
100
AcDbLine
 62
7
  6
CONTINUOUS
 10
7.5344180374
 20
21.3122196088
 30
0.0
 11
7.5332911558
 21
21.3110927272
 31
0.0
  0
LINE
  5
2C0
100
AcDbEntity
  8
0
100
AcDbLine
 62
250
  6
CONTINUOUS
 10
8.5942756055
 20
-9.5
 30
0.0
 11
-12.4276932938
 21
-9.5
 31
0.0
  0
LINE
  5
2C1
100
AcDbEntity
  8
RACCORDO
100
AcDbLine
 62
250
  6
CONTINUOUS
 10
-12.2666513325
 20
22.4
 30
0.0
 11
-12.2594247106
 21
22.3349016357
 31
0.0
  0
LINE
  5
2C2
100
AcDbEntity
  8
0
100
AcDbLine
 62
250
  6
CONTINUOUS
 10
-9.1798074229
 20
23.8443375673
 30
0.0
 11
-9.1739895931
 21
23.2669872981
 31
0.0
  0
LINE
  5
2C3
100
AcDbEntity
  8
RACCORDO
100
AcDbLine
 62
250
  6
CONTINUOUS
 10
-8.8667088442
 20
-5.005005005
 30
0.0
 11
-8.8667088442
 21
3.9039039039
 31
0.0
  0
LINE
  5
2C4
100
AcDbEntity
  8
RACCORDO
100
AcDbLine
 62
7
  6
CONTINUOUS
 10
-8.3667088442
 20
-4.5
 30
0.0
 11
-8.3667088442
 21
3.4
 31
0.0
  0
LINE
  5
2C5
100
AcDbEntity
  8
0
100
AcDbLine
 62
7
  6
CONTINUOUS
 10
-7.9167088442
 20
3.0
 30
0.0
 11
-7.9167088442
 21
-4.0
 31
0.0
  0
LINE
  5
2C6
100
AcDbEntity
  8
0
100
AcDbLine
 62
250
  6
CONTINUOUS
 10
-9.1739895931
 20
-23.2669872981
 30
0.0
 11
-9.1798074229
 21
-23.8443375673
 31
0.0
  0
LINE
  5
2C7
100
AcDbEntity
  8
RACCORDO
100
AcDbLine
 62
250
  6
CONTINUOUS
 10
1.0832911558
 20
-7.957957958
 30
0.0
 11
-4.9167088442
 21
-7.957957958
 31
0.0
  0
LINE
  5
2C8
100
AcDbEntity
  8
RACCORDO
100
AcDbLine
 62
7
  6
CONTINUOUS
 10
0.5832911558
 20
-7.45
 30
0.0
 11
-4.4167088442
 21
-7.45
 31
0.0
  0
LINE
  5
2C9
100
AcDbEntity
  8
0
100
AcDbLine
 62
7
  6
CONTINUOUS
 10
-6.3667088442
 20
-22.4
 30
0.0
 11
-6.3667088442
 21
-24.0
 31
0.0
  0
LINE
  5
2CA
100
AcDbEntity
  8
0
100
AcDbLine
 62
7
  6
CONTINUOUS
 10
-6.3667088442
 20
22.4
 30
0.0
 11
-6.3667088442
 21
24.0
 31
0.0
  0
LINE
  5
2CB
100
AcDbEntity
  8
0
100
AcDbLine
 62
7
  6
CONTINUOUS
 10
-6.3579820994
 20
23.9912732553
 30
0.0
 11
-6.3579820994
 21
22.3213883311
 31
0.0
  0
LINE
  5
2CC
100
AcDbEntity
  8
0
100
AcDbLine
 62
7
  6
CONTINUOUS
 10
-6.3579820994
 20
-22.3213883311
 30
0.0
 11
-6.3579820994
 21
-23.9912732553
 31
0.0
  0
LINE
  5
2CD
100
AcDbEntity
  8
RACCORDO
100
AcDbLine
 62
250
  6
CONTINUOUS
 10
-6.0667088442
 20
-6.6066066066
 30
0.0
 11
-6.0667088442
 21
-5.005005005
 31
0.0
  0
LINE
  5
2CE
100
AcDbEntity
  8
0
100
AcDbLine
 62
7
  6
CONTINUOUS
 10
-5.6167088442
 20
3.0
 30
0.0
 11
-5.6167088442
 21
0.0
 31
0.0
  0
LINE
  5
2CF
100
AcDbEntity
  8
RACCORDO
100
AcDbLine
 62
7
  6
CONTINUOUS
 10
-5.5667088442
 20
-6.1000403937
 30
0.0
 11
-5.5667088442
 21
-4.5
 31
0.0
  0
LINE
  5
2D0
100
AcDbEntity
  8
0
100
AcDbLine
 62
7
  6
CONTINUOUS
 10
-5.4167088442
 20
-23.9912732553
 30
0.0
 11
-5.4167088442
 21
-22.3213883311
 31
0.0
  0
LINE
  5
2D1
100
AcDbEntity
  8
0
100
AcDbLine
 62
7
  6
CONTINUOUS
 10
-5.4167088442
 20
22.3213883311
 30
0.0
 11
-5.4167088442
 21
23.9912732553
 31
0.0
  0
LINE
  5
2D2
100
AcDbEntity
  8
0
100
AcDbLine
 62
250
  6
CONTINUOUS
 10
-13.0658364896
 20
-21.8997723451
 30
0.0
 11
-12.9529754919
 21
-21.560914009
 31
0.0
  0
LINE
  5
2D3
100
AcDbEntity
  8
SMUSSO
100
AcDbLine
 62
7
  6
CONTINUOUS
 10
0.1332911558
 20
-7.0
 30
0.0
 11
-3.9667088442
 21
-7.0
 31
0.0
  0
LINE
  5
2D4
100
AcDbEntity
  8
RACCORDO
100
AcDbLine
 62
250
  6
CONTINUOUS
 10
2.2332911558
 20
-6.6066066066
 30
0.0
 11
1.0832911558
 21
-6.6066066066
 31
0.0
  0
LINE
  5
2D5
100
AcDbEntity
  8
RACCORDO
100
AcDbLine
 62
250
  6
CONTINUOUS
 10
-4.9167088442
 20
-6.6066066066
 30
0.0
 11
-6.0667088442
 21
-6.6066066066
 31
0.0
  0
LINE
  5
2D6
100
AcDbEntity
  8
RACCORDO
100
AcDbLine
 62
7
  6
CONTINUOUS
 10
1.7332911558
 20
-6.1
 30
0.0
 11
0.5832911558
 21
-6.1
 31
0.0
  0
LINE
  5
2D7
100
AcDbEntity
  8
RACCORDO
100
AcDbLine
 62
7
  6
CONTINUOUS
 10
-4.4167088442
 20
-6.1
 30
0.0
 11
-5.5667088442
 21
-6.1
 31
0.0
  0
LINE
  5
2D8
100
AcDbEntity
  8
0
100
AcDbLine
 62
7
  6
CONTINUOUS
 10
-5.2667088442
 20
-5.6
 30
0.0
 11
-3.9667088442
 21
-5.6
 31
0.0
  0
LINE
  5
2D9
100
AcDbEntity
  8
0
100
AcDbLine
 62
7
  6
CONTINUOUS
 10
0.1332911558
 20
-5.6
 30
0.0
 11
1.4332911558
 21
-5.6
 31
0.0
  0
LINE
  5
2DA
100
AcDbEntity
  8
0
100
AcDbLine
 62
250
  6
CONTINUOUS
 10
-12.9529752142
 20
21.5609131753
 30
0.0
 11
-13.0658364896
 21
21.8997723451
 31
0.0
  0
LINE
  5
2DB
100
AcDbEntity
  8
0
100
AcDbLine
 62
7
  6
CONTINUOUS
 10
-5.2667088442
 20
-5.6
 30
0.0
 11
-5.2667088442
 21
-3.3
 31
0.0
  0
LINE
  5
2DC
100
AcDbEntity
  8
0
100
AcDbLine
 62
7
  6
CONTINUOUS
 10
-5.2167088442
 20
3.0
 30
0.0
 11
-5.2167088442
 21
0.0
 31
0.0
  0
LINE
  5
2DD
100
AcDbEntity
  8
RACCORDO
100
AcDbLine
 62
250
  6
CONTINUOUS
 10
-4.9167088442
 20
-7.957957958
 30
0.0
 11
-4.9167088442
 21
-6.6066066066
 31
0.0
  0
LINE
  5
2DE
100
AcDbEntity
  8
DRAFT
100
AcDbLine
 62
7
  6
CONTINUOUS
 10
-4.9167088442
 20
22.1641649932
 30
0.0
 11
-4.9167088442
 21
22.2218135504
 31
0.0
  0
LINE
  5
2DF
100
AcDbEntity
  8
0
100
AcDbLine
 62
7
  6
CONTINUOUS
 10
-4.7667088442
 20
-4.35
 30
0.0
 11
-4.7667088442
 21
-3.3
 31
0.0
  0
LINE
  5
2E0
100
AcDbEntity
  8
0
100
AcDbLine
 62
7
  6
CONTINUOUS
 10
-4.6167088442
 20
3.0
 30
0.0
 11
-4.6167088442
 21
0.0
 31
0.0
  0
LINE
  5
2E1
100
AcDbEntity
  8
RACCORDO
100
AcDbLine
 62
7
  6
CONTINUOUS
 10
-4.4167088442
 20
-7.4500593968
 30
0.0
 11
-4.4167088442
 21
-6.1000403912
 31
0.0
  0
LINE
  5
2E2
100
AcDbEntity
  8
0
100
AcDbLine
 62
7
  6
CONTINUOUS
 10
-4.2167088442
 20
3.0
 30
0.0
 11
-4.2167088442
 21
0.0
 31
0.0
  0
LINE
  5
2E3
100
AcDbEntity
  8
SMUSSO
100
AcDbLine
 62
7
  6
CONTINUOUS
 10
-3.9667088442
 20
-7.45
 30
0.0
 11
-3.9667088442
 21
-5.6
 31
0.0
  0
LINE
  5
2E4
100
AcDbEntity
  8
0
100
AcDbLine
 62
7
  6
CONTINUOUS
 10
-3.6167088442
 20
3.0
 30
0.0
 11
-3.6167088442
 21
0.0
 31
0.0
  0
LINE
  5
2E5
100
AcDbEntity
  8
0
100
AcDbLine
 62
250
  6
CONTINUOUS
 10
-12.5662166906
 20
-22.4
 30
0.0
 11
-12.4530513667
 21
-22.0602279426
 31
0.0
  0
LINE
  5
2E6
100
AcDbEntity
  8
RACCORDO
100
AcDbLine
 62
250
  6
CONTINUOUS
 10
5.0332911558
 20
-5.005005005
 30
0.0
 11
2.2332911558
 21
-5.005005005
 31
0.0
  0
LINE
  5
2E7
100
AcDbEntity
  8
RACCORDO
100
AcDbLine
 62
250
  6
CONTINUOUS
 10
-6.0667088442
 20
-5.005005005
 30
0.0
 11
-8.8667088442
 21
-5.005005005
 31
0.0
  0
LINE
  5
2E8
100
AcDbEntity
  8
RACCORDO
100
AcDbLine
 62
7
  6
CONTINUOUS
 10
4.5332911558
 20
-4.5
 30
0.0
 11
1.7332911558
 21
-4.5
 31
0.0
  0
LINE
  5
2E9
100
AcDbEntity
  8
RACCORDO
100
AcDbLine
 62
7
  6
CONTINUOUS
 10
-5.5667088442
 20
-4.5
 30
0.0
 11
-8.3667088442
 21
-4.5
 31
0.0
  0
LINE
  5
2EA
100
AcDbEntity
  8
0
100
AcDbLine
 62
7
  6
CONTINUOUS
 10
-5.2667088442
 20
-4.35
 30
0.0
 11
-4.7667088442
 21
-4.35
 31
0.0
  0
LINE
  5
2EB
100
AcDbEntity
  8
0
100
AcDbLine
 62
7
  6
CONTINUOUS
 10
0.9332911558
 20
-4.35
 30
0.0
 11
1.4332911558
 21
-4.35
 31
0.0
  0
LINE
  5
2EC
100
AcDbEntity
  8
0
100
AcDbLine
 62
7
  6
CONTINUOUS
 10
-7.9167088442
 20
-4.0
 30
0.0
 11
-5.2667088442
 21
-4.0
 31
0.0
  0
LINE
  5
2ED
100
AcDbEntity
  8
0
100
AcDbLine
 62
7
  6
CONTINUOUS
 10
1.4332911558
 20
-4.0
 30
0.0
 11
4.0832911558
 21
-4.0
 31
0.0
  0
LINE
  5
2EE
100
AcDbEntity
  8
0
100
AcDbLine
 62
250
  6
CONTINUOUS
 10
-12.4530513667
 20
22.0602279426
 30
0.0
 11
-12.5662166906
 21
22.4
 31
0.0
  0
LINE
  5
2EF
100
AcDbEntity
  8
0
100
AcDbLine
 62
7
  6
CONTINUOUS
 10
-3.2167088442
 20
3.0
 30
0.0
 11
-3.2167088442
 21
0.0
 31
0.0
  0
LINE
  5
2F0
100
AcDbEntity
  8
0
100
AcDbLine
 62
250
  6
CONTINUOUS
 10
-3.1167088442
 20
-22.3737961104
 30
0.0
 11
-3.1167088442
 21
-23.9982478817
 31
0.0
  0
LINE
  5
2F1
100
AcDbEntity
  8
0
100
AcDbLine
 62
250
  6
CONTINUOUS
 10
-3.1167088442
 20
22.3737961104
 30
0.0
 11
-3.1167088442
 21
23.9982478817
 31
0.0
  0
LINE
  5
2F2
100
AcDbEntity
  8
0
100
AcDbLine
 62
7
  6
CONTINUOUS
 10
-2.9167088442
 20
-23.7982512664
 30
0.0
 11
-2.9167088442
 21
-22.3842776662
 31
0.0
  0
LINE
  5
2F3
100
AcDbEntity
  8
0
100
AcDbLine
 62
7
  6
CONTINUOUS
 10
-2.9167088442
 20
22.3842776662
 30
0.0
 11
-2.9167088442
 21
23.7982512664
 31
0.0
  0
LINE
  5
2F4
100
AcDbEntity
  8
0
100
AcDbLine
 62
7
  6
CONTINUOUS
 10
-2.6167088442
 20
3.0
 30
0.0
 11
-2.6167088442
 21
0.0
 31
0.0
  0
LINE
  5
2F5
100
AcDbEntity
  8
0
100
AcDbLine
 62
7
  6
CONTINUOUS
 10
-2.2167088442
 20
3.0
 30
0.0
 11
-2.2167088442
 21
0.0
 31
0.0
  0
LINE
  5
2F6
100
AcDbEntity
  8
0
100
AcDbLine
 62
7
  6
CONTINUOUS
 10
-1.6167088442
 20
3.0
 30
0.0
 11
-1.6167088442
 21
0.0
 31
0.0
  0
LINE
  5
2F7
100
AcDbEntity
  8
0
100
AcDbLine
 62
7
  6
CONTINUOUS
 10
-5.2667088442
 20
-3.3
 30
0.0
 11
1.4332911558
 21
-3.3
 31
0.0
  0
LINE
  5
2F8
100
AcDbEntity
  8
0
100
AcDbLine
 62
7
  6
CONTINUOUS
 10
-1.2167088442
 20
3.0
 30
0.0
 11
-1.2167088442
 21
0.0
 31
0.0
  0
LINE
  5
2F9
100
AcDbEntity
  8
0
100
AcDbLine
 62
7
  6
CONTINUOUS
 10
-0.9167088442
 20
23.7982512664
 30
0.0
 11
-0.9167088442
 21
22.3842776662
 31
0.0
  0
LINE
  5
2FA
100
AcDbEntity
  8
0
100
AcDbLine
 62
7
  6
CONTINUOUS
 10
-0.9167088442
 20
-22.3842776662
 30
0.0
 11
-0.9167088442
 21
-23.7982512664
 31
0.0
  0
LINE
  5
2FB
100
AcDbEntity
  8
0
100
AcDbLine
 62
250
  6
CONTINUOUS
 10
-0.7167088442
 20
-22.3737961104
 30
0.0
 11
-0.7167088442
 21
-23.9982478817
 31
0.0
  0
LINE
  5
2FC
100
AcDbEntity
  8
0
100
AcDbLine
 62
250
  6
CONTINUOUS
 10
-0.7167088442
 20
22.3737961104
 30
0.0
 11
-0.7167088442
 21
23.9982478817
 31
0.0
  0
LINE
  5
2FD
100
AcDbEntity
  8
0
100
AcDbLine
 62
7
  6
CONTINUOUS
 10
-0.6167088442
 20
3.0
 30
0.0
 11
-0.6167088442
 21
0.0
 31
0.0
  0
LINE
  5
2FE
100
AcDbEntity
  8
0
100
AcDbLine
 62
7
  6
CONTINUOUS
 10
-0.2167088442
 20
3.0
 30
0.0
 11
-0.2167088442
 21
0.0
 31
0.0
  0
LINE
  5
2FF
100
AcDbEntity
  8
SMUSSO
100
AcDbLine
 62
7
  6
CONTINUOUS
 10
0.1332911558
 20
-5.6
 30
0.0
 11
0.1332911558
 21
-7.45
 31
0.0
  0
LWPOLYLINE
  5
300
100
AcDbEntity
  8
0
100
AcDbPolyline
 62
7
  6
CONTINUOUS
 90
2
 70
0
 43
0.3500000087
 10
20.3332906616
 20
-1.3571421616
 10
18.8332913284
 20
-1.3571421616
  0
LINE
  5
301
100
AcDbEntity
  8
0
100
AcDbLine
 62
7
  6
CONTINUOUS
 10
1.7832911558
 20
0.0
 30
0.0
 11
1.3832911558
 21
0.0
 31
0.0
  0
LINE
  5
302
100
AcDbEntity
  8
0
100
AcDbLine
 62
7
  6
CONTINUOUS
 10
0.7832911558
 20
0.0
 30
0.0
 11
0.3832911558
 21
0.0
 31
0.0
  0
LINE
  5
303
100
AcDbEntity
  8
0
100
AcDbLine
 62
7
  6
CONTINUOUS
 10
-0.2167088442
 20
0.0
 30
0.0
 11
-0.6167088442
 21
0.0
 31
0.0
  0
LINE
  5
304
100
AcDbEntity
  8
0
100
AcDbLine
 62
7
  6
CONTINUOUS
 10
-1.2167088442
 20
0.0
 30
0.0
 11
-1.6167088442
 21
0.0
 31
0.0
  0
LINE
  5
305
100
AcDbEntity
  8
0
100
AcDbLine
 62
7
  6
CONTINUOUS
 10
-2.2167088442
 20
0.0
 30
0.0
 11
-2.6167088442
 21
0.0
 31
0.0
  0
LINE
  5
306
100
AcDbEntity
  8
0
100
AcDbLine
 62
7
  6
CONTINUOUS
 10
-3.2167088442
 20
0.0
 30
0.0
 11
-3.6167088442
 21
0.0
 31
0.0
  0
LINE
  5
307
100
AcDbEntity
  8
0
100
AcDbLine
 62
7
  6
CONTINUOUS
 10
-4.2167088442
 20
0.0
 30
0.0
 11
-4.6167088442
 21
0.0
 31
0.0
  0
LINE
  5
308
100
AcDbEntity
  8
0
100
AcDbLine
 62
7
  6
CONTINUOUS
 10
-5.2167088442
 20
0.0
 30
0.0
 11
-5.6167088442
 21
0.0
 31
0.0
  0
LINE
  5
309
100
AcDbEntity
  8
0
100
AcDbLine
 62
7
  6
CONTINUOUS
 10
0.3832911558
 20
3.0
 30
0.0
 11
0.3832911558
 21
0.0
 31
0.0
  0
LINE
  5
30A
100
AcDbEntity
  8
RACCORDO
100
AcDbLine
 62
7
  6
CONTINUOUS
 10
0.5832911558
 20
-6.1000403937
 30
0.0
 11
0.5832911558
 21
-7.4500594112
 31
0.0
  0
LINE
  5
30B
100
AcDbEntity
  8
0
100
AcDbLine
 62
7
  6
CONTINUOUS
 10
0.7832911558
 20
3.0
 30
0.0
 11
0.7832911558
 21
0.0
 31
0.0
  0
LINE
  5
30C
100
AcDbEntity
  8
0
100
AcDbLine
 62
7
  6
CONTINUOUS
 10
0.9332911558
 20
-3.3
 30
0.0
 11
0.9332911558
 21
-4.35
 31
0.0
  0
LINE
  5
30D
100
AcDbEntity
  8
RACCORDO
100
AcDbLine
 62
250
  6
CONTINUOUS
 10
1.0832911558
 20
-6.6066066066
 30
0.0
 11
1.0832911558
 21
-7.957957958
 31
0.0
  0
LINE
  5
30E
100
AcDbEntity
  8
DRAFT
100
AcDbLine
 62
7
  6
CONTINUOUS
 10
1.0832911558
 20
22.1641649932
 30
0.0
 11
1.0832911558
 21
22.2218135504
 31
0.0
  0
LINE
  5
30F
100
AcDbEntity
  8
0
100
AcDbLine
 62
7
  6
CONTINUOUS
 10
1.3832911558
 20
3.0
 30
0.0
 11
1.3832911558
 21
0.0
 31
0.0
  0
LINE
  5
310
100
AcDbEntity
  8
0
100
AcDbLine
 62
7
  6
CONTINUOUS
 10
1.4332911558
 20
-5.6
 30
0.0
 11
1.4332911558
 21
-3.3
 31
0.0
  0
LINE
  5
311
100
AcDbEntity
  8
0
100
AcDbLine
 62
7
  6
CONTINUOUS
 10
1.5832911558
 20
23.9912732553
 30
0.0
 11
1.5832911558
 21
22.3213883311
 31
0.0
  0
LINE
  5
312
100
AcDbEntity
  8
0
100
AcDbLine
 62
7
  6
CONTINUOUS
 10
1.5832911558
 20
-22.3213883311
 30
0.0
 11
1.5832911558
 21
-23.9912732553
 31
0.0
  0
LINE
  5
313
100
AcDbEntity
  8
RACCORDO
100
AcDbLine
 62
7
  6
CONTINUOUS
 10
1.7332911558
 20
-4.5
 30
0.0
 11
1.7332911558
 21
-6.1000404051
 31
0.0
  0
LINE
  5
314
100
AcDbEntity
  8
0
100
AcDbLine
 62
7
  6
CONTINUOUS
 10
1.7832911558
 20
3.0
 30
0.0
 11
1.7832911558
 21
0.0
 31
0.0
  0
LINE
  5
315
100
AcDbEntity
  8
0
100
AcDbLine
 62
250
  6
CONTINUOUS
 10
8.7327990023
 20
22.4
 30
0.0
 11
8.6196336783
 21
22.0602279426
 31
0.0
  0
LINE
  5
316
100
AcDbEntity
  8
0
100
AcDbLine
 62
250
  6
CONTINUOUS
 10
9.2324188013
 20
21.8997723451
 30
0.0
 11
9.1195575259
 21
21.5609131753
 31
0.0
  0
LINE
  5
317
100
AcDbEntity
  8
0
100
AcDbLine
 62
250
  6
CONTINUOUS
 10
8.6196336783
 20
-22.0602279426
 30
0.0
 11
8.7327990023
 21
-22.4
 31
0.0
  0
LINE
  5
318
100
AcDbEntity
  8
0
100
AcDbLine
 62
250
  6
CONTINUOUS
 10
9.1195558598
 20
-21.560908173
 30
0.0
 11
9.2324188013
 21
-21.8997723451
 31
0.0
  0
LINE
  5
319
100
AcDbEntity
  8
RACCORDO
100
AcDbLine
 62
250
  6
CONTINUOUS
 10
2.2332911558
 20
-5.005005005
 30
0.0
 11
2.2332911558
 21
-6.6066066066
 31
0.0
  0
LINE
  5
31A
100
AcDbEntity
  8
0
100
AcDbLine
 62
7
  6
CONTINUOUS
 10
2.5245644111
 20
-23.9912732553
 30
0.0
 11
2.5245644111
 21
-22.3213883311
 31
0.0
  0
LINE
  5
31B
100
AcDbEntity
  8
0
100
AcDbLine
 62
7
  6
CONTINUOUS
 10
2.5245644111
 20
22.3213883311
 30
0.0
 11
2.5245644111
 21
23.9912732553
 31
0.0
  0
LINE
  5
31C
100
AcDbEntity
  8
0
100
AcDbLine
 62
7
  6
CONTINUOUS
 10
2.5332911558
 20
-22.4
 30
0.0
 11
2.5332911558
 21
-24.0
 31
0.0
  0
LINE
  5
31D
100
AcDbEntity
  8
0
100
AcDbLine
 62
7
  6
CONTINUOUS
 10
2.5332911558
 20
22.4
 30
0.0
 11
2.5332911558
 21
24.0
 31
0.0
  0
LINE
  5
31E
100
AcDbEntity
  8
0
100
AcDbLine
 62
7
  6
CONTINUOUS
 10
4.0832911558
 20
3.0
 30
0.0
 11
-7.9167088442
 21
3.0
 31
0.0
  0
LINE
  5
31F
100
AcDbEntity
  8
RACCORDO
100
AcDbLine
 62
7
  6
CONTINUOUS
 10
-8.3667088442
 20
3.4
 30
0.0
 11
4.5332911558
 21
3.4
 31
0.0
  0
LINE
  5
320
100
AcDbEntity
  8
RACCORDO
100
AcDbLine
 62
250
  6
CONTINUOUS
 10
-8.8667088442
 20
3.9039039039
 30
0.0
 11
5.0332911558
 21
3.9039039039
 31
0.0
  0
LINE
  5
321
100
AcDbEntity
  8
0
100
AcDbLine
 62
250
  6
CONTINUOUS
 10
5.3463897346
 20
-23.8443375673
 30
0.0
 11
5.3405719047
 21
-23.2669872981
 31
0.0
  0
LINE
  5
322
100
AcDbEntity
  8
0
100
AcDbLine
 62
250
  6
CONTINUOUS
 10
5.5963855038
 20
-23.6278312164
 30
0.0
 11
5.5912949027
 21
-23.1226497308
 31
0.0
  0
LINE
  5
323
100
AcDbEntity
  8
0
100
AcDbLine
 62
7
  6
CONTINUOUS
 10
4.0832911558
 20
-4.0
 30
0.0
 11
4.0832911558
 21
3.0
 31
0.0
  0
LINE
  5
324
100
AcDbEntity
  8
RACCORDO
100
AcDbLine
 62
7
  6
CONTINUOUS
 10
4.5332911558
 20
3.4
 30
0.0
 11
4.5332911558
 21
-4.5
 31
0.0
  0
LINE
  5
325
100
AcDbEntity
  8
RACCORDO
100
AcDbLine
 62
250
  6
CONTINUOUS
 10
5.0332911558
 20
3.9039039039
 30
0.0
 11
5.0332911558
 21
-5.005005005
 31
0.0
  0
LINE
  5
326
100
AcDbEntity
  8
RACCORDO
100
AcDbLine
 62
7
  6
CONTINUOUS
 10
5.3332911558
 20
23.4104851482
 30
0.0
 11
5.3332911558
 21
22.6002134903
 31
0.0
  0
LINE
  5
327
100
AcDbEntity
  8
0
100
AcDbLine
 62
7
  6
CONTINUOUS
 10
5.3332911558
 20
-24.2500042308
 30
0.0
 11
5.3332911558
 21
-23.4104851482
 31
0.0
  0
LINE
  5
328
100
AcDbEntity
  8
RACCORDO
100
AcDbLine
 62
7
  6
CONTINUOUS
 10
5.3332911558
 20
-22.6002134903
 30
0.0
 11
5.3332911558
 21
-23.4104851482
 31
0.0
  0
LINE
  5
329
100
AcDbEntity
  8
0
100
AcDbLine
 62
7
  6
CONTINUOUS
 10
5.3332911558
 20
23.4104851482
 30
0.0
 11
5.3332911558
 21
24.2500042308
 31
0.0
  0
LINE
  5
32A
100
AcDbEntity
  8
RACCORDO
100
AcDbLine
 62
7
  6
CONTINUOUS
 10
5.3405719047
 20
23.2669872981
 30
0.0
 11
5.3405719047
 21
22.5346275426
 31
0.0
  0
LINE
  5
32B
100
AcDbEntity
  8
RACCORDO
100
AcDbLine
 62
7
  6
CONTINUOUS
 10
5.3405719047
 20
-22.5346275426
 30
0.0
 11
5.3405719047
 21
-23.2669872981
 31
0.0
  0
LINE
  5
32C
100
AcDbEntity
  8
0
100
AcDbLine
 62
7
  6
CONTINUOUS
 10
5.3463897346
 20
24.2369056521
 30
0.0
 11
5.3463897346
 21
23.8443375673
 31
0.0
  0
LINE
  5
32D
100
AcDbEntity
  8
0
100
AcDbLine
 62
7
  6
CONTINUOUS
 10
5.3463897346
 20
-23.8443375673
 30
0.0
 11
5.3463897346
 21
-24.2369056521
 31
0.0
  0
LINE
  5
32E
100
AcDbEntity
  8
RACCORDO
100
AcDbLine
 62
250
  6
CONTINUOUS
 10
5.590567674
 20
-22.3114553375
 30
0.0
 11
5.590567674
 21
-23.1226497308
 31
0.0
  0
LINE
  5
32F
100
AcDbEntity
  8
RACCORDO
100
AcDbLine
 62
250
  6
CONTINUOUS
 10
5.590567674
 20
22.3114553375
 30
0.0
 11
5.590567674
 21
23.1226497308
 31
0.0
  0
LINE
  5
330
100
AcDbEntity
  8
0
100
AcDbLine
 62
250
  6
CONTINUOUS
 10
5.5963855038
 20
-23.6278312164
 30
0.0
 11
5.5963855038
 21
-24.4869014213
 31
0.0
  0
LINE
  5
331
100
AcDbEntity
  8
0
100
AcDbLine
 62
250
  6
CONTINUOUS
 10
5.5963855038
 20
23.6278312164
 30
0.0
 11
5.5963855038
 21
24.4869014213
 31
0.0
  0
LINE
  5
332
100
AcDbEntity
  8
0
100
AcDbLine
 62
250
  6
CONTINUOUS
 10
5.3405719047
 20
23.2669872981
 30
0.0
 11
5.3463897346
 21
23.8443375673
 31
0.0
  0
LINE
  5
333
100
AcDbEntity
  8
0
100
AcDbLine
 62
250
  6
CONTINUOUS
 10
5.5912949027
 20
23.1226497308
 30
0.0
 11
5.5963855038
 21
23.6278312164
 31
0.0
  0
LINE
  5
334
100
AcDbEntity
  8
RACCORDO
100
AcDbLine
 62
7
  6
CONTINUOUS
 10
7.5657999818
 20
16.4129962748
 30
0.0
 11
7.5580400887
 21
20.0336793263
 31
0.0
  0
LINE
  5
335
100
AcDbEntity
  8
RACCORDO
100
AcDbLine
 62
250
  6
CONTINUOUS
 10
7.0182926745
 20
15.5074986681
 30
0.0
 11
7.0182926745
 21
15.6161906278
 31
0.0
  0
LINE
  5
336
100
AcDbEntity
  8
RACCORDO
100
AcDbLine
 62
250
  6
CONTINUOUS
 10
7.10098871
 20
15.3078658794
 30
0.0
 11
7.10098871
 21
15.4911518954
 31
0.0
  0
LINE
  5
337
100
AcDbEntity
  8
RACCORDO
100
AcDbLine
 62
250
  6
CONTINUOUS
 10
7.2332911558
 20
15.5419248964
 30
0.0
 11
7.2332911558
 21
15.5232153048
 31
0.0
  0
LINE
  5
338
100
AcDbEntity
  8
RACCORDO
100
AcDbLine
 62
7
  6
CONTINUOUS
 10
7.5332911558
 20
15.8420996025
 30
0.0
 11
7.5332911558
 21
21.6345744995
 31
0.0
  0
LINE
  5
339
100
AcDbEntity
  8
SMUSSO
100
AcDbLine
 62
7
  6
CONTINUOUS
 10
7.541399
 20
21.7192005714
 30
0.0
 11
7.541399
 21
21.9640734524
 31
0.0
  0
LINE
  5
33A
100
AcDbEntity
  8
RACCORDO
100
AcDbLine
 62
7
  6
CONTINUOUS
 10
7.5832911558
 20
15.9999428868
 30
0.0
 11
7.5832911558
 21
16.2
 31
0.0
  0
LINE
  5
33B
100
AcDbEntity
  8
SMUSSO
100
AcDbLine
 62
7
  6
CONTINUOUS
 10
7.541399
 20
21.7192005714
 30
0.0
 11
7.5344180374
 21
21.3122196088
 31
0.0
  0
LINE
  5
33C
100
AcDbEntity
  8
RACCORDO
100
AcDbLine
 62
250
  6
CONTINUOUS
 10
8.4260070223
 20
22.3349016357
 30
0.0
 11
8.4332336442
 21
22.4
 31
0.0
  0
LINE
  5
33D
100
AcDbEntity
  8
RACCORDO
100
AcDbLine
 62
250
  6
CONTINUOUS
 10
5.1405752894
 20
-22.3349016357
 30
0.0
 11
5.1333486675
 21
-22.4
 31
0.0
  0
LINE
  5
33E
100
AcDbEntity
  8
SMUSSO
100
AcDbLine
 62
7
  6
CONTINUOUS
 10
-11.3678357258
 20
21.3122196088
 30
0.0
 11
-11.3667088442
 21
21.3110927272
 31
0.0
  0
LINE
  5
33F
100
AcDbEntity
  8
RACCORDO
100
AcDbLine
 62
250
  6
CONTINUOUS
 10
8.4332336442
 20
-22.4
 30
0.0
 11
8.4260070223
 21
-22.3349016357
 31
0.0
  0
LINE
  5
340
100
AcDbEntity
  8
RACCORDO
100
AcDbLine
 62
250
  6
CONTINUOUS
 10
5.1333486675
 20
22.4
 30
0.0
 11
5.1405752894
 21
22.3349016357
 31
0.0
  0
LINE
  5
341
100
AcDbEntity
  8
DRAFT
100
AcDbLine
 62
7
  6
CONTINUOUS
 10
7.5832911558
 20
16.2
 30
0.0
 11
7.5657999818
 21
16.4129962748
 31
0.0
  0
LWPOLYLINE
  5
342
100
AcDbEntity
  8
RACCORDO
100
AcDbPolyline
 62
7
  6
CONTINUOUS
 90
15
 70
0
 10
7.5253325464
 20
21.93177227
 10
7.5250033022
 20
21.9370557879
 10
7.5246709508
 20
21.9419878755
 10
7.5243343767
 20
21.9465879161
 10
7.5239896443
 20
21.9509062304
 10
7.523636426
 20
21.9549399398
 10
7.5232700453
 20
21.9587328665
 10
7.5228745637
 20
21.9624165708
 10
7.522451717
 20
21.9659325235
 10
7.5219829031
 20
21.9693872643
 10
7.5213958328
 20
21.9731684994
 10
7.5206633856
 20
21.9772201301
 10
7.5197232091
 20
21.981629807
 10
7.5183443273
 20
21.9870097511
 10
7.5166988473
 20
21.9923339617
  0
LINE
  5
343
100
AcDbEntity
  8
RACCORDO
100
AcDbLine
 62
7
  6
CONTINUOUS
 10
7.5259845551
 20
21.9200844726
 30
0.0
 11
7.5253325464
 21
21.93177227
 31
0.0
  0
LINE
  5
344
100
AcDbEntity
  8
RACCORDO
100
AcDbLine
 62
7
  6
CONTINUOUS
 10
7.5266327928
 20
21.9067626921
 30
0.0
 11
7.5259845551
 21
21.9200844726
 31
0.0
  0
LINE
  5
345
100
AcDbEntity
  8
RACCORDO
100
AcDbLine
 62
7
  6
CONTINUOUS
 10
7.5272789612
 20
21.8916882655
 30
0.0
 11
7.5266327928
 21
21.9067626921
 31
0.0
  0
LINE
  5
346
100
AcDbEntity
  8
RACCORDO
100
AcDbLine
 62
7
  6
CONTINUOUS
 10
7.5282438158
 20
21.8655792838
 30
0.0
 11
7.5272789612
 21
21.8916882655
 31
0.0
  0
LINE
  5
347
100
AcDbEntity
  8
RACCORDO
100
AcDbLine
 62
7
  6
CONTINUOUS
 10
7.5291989139
 20
21.8350682821
 30
0.0
 11
7.5282438158
 21
21.8655792838
 31
0.0
  0
LINE
  5
348
100
AcDbEntity
  8
RACCORDO
100
AcDbLine
 62
7
  6
CONTINUOUS
 10
7.5304441833
 20
21.7872937392
 30
0.0
 11
7.5291989139
 21
21.8350682821
 31
0.0
  0
LINE
  5
349
100
AcDbEntity
  8
RACCORDO
100
AcDbLine
 62
7
  6
CONTINUOUS
 10
7.5319247528
 20
21.7160860521
 30
0.0
 11
7.5304441833
 21
21.7872937392
 31
0.0
  0
LINE
  5
34A
100
AcDbEntity
  8
0
100
AcDbLine
 62
7
  6
CONTINUOUS
 10
9.2337274992
 20
-21.6
 30
0.0
 11
9.2332911558
 21
-21.5711324865
 31
0.0
  0
LINE
  5
34B
100
AcDbEntity
  8
RACCORDO
100
AcDbLine
 62
7
  6
CONTINUOUS
 10
7.5332779545
 20
21.6325777952
 30
0.0
 11
7.5319247528
 21
21.7160860521
 31
0.0
  0
LINE
  5
34C
100
AcDbEntity
  8
0
100
AcDbLine
 62
250
  6
CONTINUOUS
 10
7.9701968079
 20
23.6278312164
 30
0.0
 11
7.975287409
 21
23.1226497308
 31
0.0
  0
LINE
  5
34D
100
AcDbEntity
  8
0
100
AcDbLine
 62
250
  6
CONTINUOUS
 10
8.2201925771
 20
23.8443375673
 30
0.0
 11
8.2260104069
 21
23.2669872981
 31
0.0
  0
LINE
  5
34E
100
AcDbEntity
  8
0
100
AcDbLine
 62
250
  6
CONTINUOUS
 10
7.9701968079
 20
-23.6278312164
 30
0.0
 11
7.9701968079
 21
-24.4869014213
 31
0.0
  0
LINE
  5
34F
100
AcDbEntity
  8
0
100
AcDbLine
 62
250
  6
CONTINUOUS
 10
7.9701968079
 20
23.6278312164
 30
0.0
 11
7.9701968079
 21
24.4869014213
 31
0.0
  0
LINE
  5
350
100
AcDbEntity
  8
RACCORDO
100
AcDbLine
 62
250
  6
CONTINUOUS
 10
7.9760146377
 20
-22.3114553375
 30
0.0
 11
7.9760146377
 21
-23.1226497308
 31
0.0
  0
LINE
  5
351
100
AcDbEntity
  8
RACCORDO
100
AcDbLine
 62
250
  6
CONTINUOUS
 10
7.9760146377
 20
22.3114553375
 30
0.0
 11
7.9760146377
 21
23.1226497308
 31
0.0
  0
LINE
  5
352
100
AcDbEntity
  8
0
100
AcDbLine
 62
7
  6
CONTINUOUS
 10
8.2201925771
 20
-24.2369056521
 30
0.0
 11
8.2201925771
 21
-23.8443375673
 31
0.0
  0
LINE
  5
353
100
AcDbEntity
  8
0
100
AcDbLine
 62
7
  6
CONTINUOUS
 10
8.2201925771
 20
23.8443375673
 30
0.0
 11
8.2201925771
 21
24.2369056521
 31
0.0
  0
LINE
  5
354
100
AcDbEntity
  8
RACCORDO
100
AcDbLine
 62
7
  6
CONTINUOUS
 10
8.2260104069
 20
-23.2669872981
 30
0.0
 11
8.2260104069
 21
-22.5346275426
 31
0.0
  0
LINE
  5
355
100
AcDbEntity
  8
RACCORDO
100
AcDbLine
 62
7
  6
CONTINUOUS
 10
8.2260104069
 20
22.5346275426
 30
0.0
 11
8.2260104069
 21
23.2669872981
 31
0.0
  0
LINE
  5
356
100
AcDbEntity
  8
0
100
AcDbLine
 62
7
  6
CONTINUOUS
 10
8.2332911558
 20
24.2500042308
 30
0.0
 11
8.2332911558
 21
23.4104851482
 31
0.0
  0
LINE
  5
357
100
AcDbEntity
  8
RACCORDO
100
AcDbLine
 62
7
  6
CONTINUOUS
 10
8.2332911558
 20
-23.4104851482
 30
0.0
 11
8.2332911558
 21
-22.6002134903
 31
0.0
  0
LINE
  5
358
100
AcDbEntity
  8
0
100
AcDbLine
 62
7
  6
CONTINUOUS
 10
8.2332911558
 20
-23.4104851482
 30
0.0
 11
8.2332911558
 21
-24.2500042308
 31
0.0
  0
LINE
  5
359
100
AcDbEntity
  8
RACCORDO
100
AcDbLine
 62
7
  6
CONTINUOUS
 10
8.2332911558
 20
22.6002134903
 30
0.0
 11
8.2332911558
 21
23.4104851482
 31
0.0
  0
LINE
  5
35A
100
AcDbEntity
  8
0
100
AcDbLine
 62
250
  6
CONTINUOUS
 10
8.5942756055
 20
9.5
 30
0.0
 11
8.5942756055
 21
-9.5
 31
0.0
  0
LINE
  5
35B
100
AcDbEntity
  8
0
100
AcDbLine
 62
7
  6
CONTINUOUS
 10
9.2337274992
 20
21.900016923
 30
0.0
 11
9.2337274992
 21
21.6
 31
0.0
  0
LINE
  5
35C
100
AcDbEntity
  8
0
100
AcDbLine
 62
7
  6
CONTINUOUS
 10
9.2337274992
 20
-21.900016923
 30
0.0
 11
9.2337274992
 21
-21.6
 31
0.0
  0
LINE
  5
35D
100
AcDbEntity
  8
0
100
AcDbLine
 62
7
  6
CONTINUOUS
 10
9.2498734675
 20
-21.0226497308
 30
0.0
 11
9.2498734675
 21
21.0226497308
 31
0.0
  0
LINE
  5
35E
100
AcDbEntity
  8
0
100
AcDbLine
 62
250
  6
CONTINUOUS
 10
7.975287409
 20
-23.1226497308
 30
0.0
 11
7.9701968079
 21
-23.6278312164
 31
0.0
  0
LINE
  5
35F
100
AcDbEntity
  8
0
100
AcDbLine
 62
250
  6
CONTINUOUS
 10
8.2260104069
 20
-23.2669872981
 30
0.0
 11
8.2201925771
 21
-23.8443375673
 31
0.0
  0
LINE
  5
360
100
AcDbEntity
  8
0
100
AcDbLine
 62
7
  6
CONTINUOUS
 10
9.2332911558
 20
21.5711324865
 30
0.0
 11
9.2337274992
 21
21.6
 31
0.0
  0
LINE
  5
361
100
AcDbEntity
  8
0
100
AcDbLine
 62
250
  6
CONTINUOUS
 10
-12.0536102654
 20
-24.2369056521
 30
0.0
 11
-12.0667088442
 21
-24.2500042308
 31
0.0
  0
LINE
  5
362
100
AcDbEntity
  8
0
100
AcDbLine
 62
250
  6
CONTINUOUS
 10
-11.8036144962
 20
-24.4869014213
 30
0.0
 11
-11.8163294289
 21
-24.499616354
 31
0.0
  0
LINE
  5
363
100
AcDbEntity
  8
0
100
AcDbLine
 62
250
  6
CONTINUOUS
 10
8.5942756055
 20
9.5
 30
0.0
 11
-12.4276932938
 21
9.5
 31
0.0
  0
LINE
  5
364
100
AcDbEntity
  8
0
100
AcDbLine
 62
250
  6
CONTINUOUS
 10
-12.0536102654
 20
24.2369056521
 30
0.0
 11
-12.0667088442
 21
24.2500042308
 31
0.0
  0
LINE
  5
365
100
AcDbEntity
  8
0
100
AcDbLine
 62
250
  6
CONTINUOUS
 10
-11.8036144962
 20
24.4869014213
 30
0.0
 11
-11.8163294289
 21
24.499616354
 31
0.0
  0
LINE
  5
366
100
AcDbEntity
  8
DRAFT
100
AcDbLine
 62
7
  6
CONTINUOUS
 10
1.0832911558
 20
22.2218135504
 30
0.0
 11
1.1024917273
 21
22.1641649932
 31
0.0
  0
LINE
  5
367
100
AcDbEntity
  8
0
100
AcDbLine
 62
7
  6
CONTINUOUS
 10
9.2498734675
 20
21.0226497308
 30
0.0
 11
9.2332911558
 21
21.5711324865
 31
0.0
  0
LINE
  5
368
100
AcDbEntity
  8
0
100
AcDbLine
 62
7
  6
CONTINUOUS
 10
9.2498734675
 20
-21.0226497308
 30
0.0
 11
9.2332911558
 21
-21.5711324865
 31
0.0
  0
LINE
  5
369
100
AcDbEntity
  8
0
100
AcDbLine
 62
7
  6
CONTINUOUS
 10
-6.3667088442
 20
-24.0
 30
0.0
 11
-6.3579820994
 21
-23.9912732553
 31
0.0
  0
LINE
  5
36A
100
AcDbEntity
  8
0
100
AcDbLine
 62
7
  6
CONTINUOUS
 10
-6.3667088442
 20
24.0
 30
0.0
 11
-6.3579820994
 21
23.9912732553
 31
0.0
  0
LWPOLYLINE
  5
36B
100
AcDbEntity
  8
0
100
AcDbPolyline
 62
7
  6
CONTINUOUS
 90
10
 70
0
 43
0.3500000087
 10
20.3332906616
 20
0.4285711273
 10
19.4761487946
 20
1.285715126
 10
18.6190047958
 20
1.499999527
 10
17.7618629288
 20
1.499999527
 10
17.3332909294
 20
1.0714285934
 10
17.3332909294
 20
0.4285711273
 10
17.7618629288
 20
0.0000001938
 10
18.6190047958
 20
0.0000001938
 10
19.047577861
 20
0.4285711273
 10
19.047577861
 20
1.3571425491
  0
LWPOLYLINE
  5
36C
100
AcDbEntity
  8
0
100
AcDbPolyline
 62
7
  6
CONTINUOUS
 90
10
 70
0
 43
0.3500000087
 10
-0.8452802849
 20
33.750001178
 10
-0.7738517293
 20
33.6071420685
 10
-0.7738517293
 20
33.5357146454
 10
-0.9167088404
 20
33.3928555359
 10
-0.988137396
 20
33.3928555359
 10
-1.0595660181
 20
33.4642872223
 10
-1.0595660181
 20
33.5357146454
 10
-0.988137396
 20
33.6785694916
 10
-0.9167088404
 20
33.750001178
 10
-0.8452802849
 20
33.750001178
  0
LINE
  5
36D
100
AcDbEntity
  8
RACCORDO
100
AcDbLine
 62
250
  6
CONTINUOUS
 10
7.3873290997
 20
22.1641649932
 30
0.0
 11
7.4219466315
 21
22.0602279426
 31
0.0
  0
LINE
  5
36E
100
AcDbEntity
  8
RACCORDO
100
AcDbLine
 62
7
  6
CONTINUOUS
 10
7.4822964886
 20
22.0956274065
 30
0.0
 11
7.5168226677
 21
21.9919646371
 31
0.0
  0
LINE
  5
36F
100
AcDbEntity
  8
RACCORDO
100
AcDbLine
 62
250
  6
CONTINUOUS
 10
7.541399
 20
21.9640734524
 30
0.0
 11
7.5758947529
 21
21.8605020357
 31
0.0
  0
LINE
  5
370
100
AcDbEntity
  8
RACCORDO
100
AcDbLine
 62
250
  6
CONTINUOUS
 10
7.7412467601
 20
22.1641649932
 30
0.0
 11
7.7758642919
 21
22.0602279426
 31
0.0
  0
LINE
  5
371
100
AcDbEntity
  8
DRAFT
100
AcDbLine
 62
7
  6
CONTINUOUS
 10
1.6714546462
 20
15.5
 30
0.0
 11
1.6329222416
 21
15.4980929339
 31
0.0
  0
LINE
  5
372
100
AcDbEntity
  8
RACCORDO
100
AcDbLine
 62
250
  6
CONTINUOUS
 10
7.10098871
 20
15.3078658794
 30
0.0
 11
-10.9344063983
 21
15.3078658794
 31
0.0
  0
LINE
  5
373
100
AcDbEntity
  8
RACCORDO
100
AcDbLine
 62
7
  6
CONTINUOUS
 10
7.10098871
 20
15.4911518954
 30
0.0
 11
-10.9344063983
 21
15.4911518954
 31
0.0
  0
LINE
  5
374
100
AcDbEntity
  8
DRAFT
100
AcDbLine
 62
7
  6
CONTINUOUS
 10
-5.4663399299
 20
15.4980929339
 30
0.0
 11
1.6329222416
 21
15.4980929339
 31
0.0
  0
LINE
  5
375
100
AcDbEntity
  8
RACCORDO
100
AcDbLine
 62
7
  6
CONTINUOUS
 10
-10.9167088413
 20
15.5
 30
0.0
 11
-5.2667088442
 21
15.5
 31
0.0
  0
LINE
  5
376
100
AcDbEntity
  8
DRAFT
100
AcDbLine
 62
7
  6
CONTINUOUS
 10
-5.2667088442
 20
15.5
 30
0.0
 11
1.4332911558
 21
15.5
 31
0.0
  0
LINE
  5
377
100
AcDbEntity
  8
RACCORDO
100
AcDbLine
 62
7
  6
CONTINUOUS
 10
1.4332911558
 20
15.5
 30
0.0
 11
7.0832911529
 21
15.5
 31
0.0
  0
LINE
  5
378
100
AcDbEntity
  8
RACCORDO
100
AcDbLine
 62
7
  6
CONTINUOUS
 10
7.0182926745
 20
15.5074986681
 30
0.0
 11
-10.8517103628
 21
15.5074986681
 31
0.0
  0
LINE
  5
379
100
AcDbEntity
  8
RACCORDO
100
AcDbLine
 62
7
  6
CONTINUOUS
 10
-11.0008708845
 20
15.507774954
 30
0.0
 11
-10.9507820154
 21
15.507774954
 31
0.0
  0
LINE
  5
37A
100
AcDbEntity
  8
RACCORDO
100
AcDbLine
 62
7
  6
CONTINUOUS
 10
7.1173643271
 20
15.507774954
 30
0.0
 11
7.1674531962
 21
15.507774954
 31
0.0
  0
LINE
  5
37B
100
AcDbEntity
  8
RACCORDO
100
AcDbLine
 62
250
  6
CONTINUOUS
 10
7.0182926745
 20
15.6161906278
 30
0.0
 11
-10.8517103628
 21
15.6161906278
 31
0.0
  0
LINE
  5
37C
100
AcDbEntity
  8
DRAFT
100
AcDbLine
 62
7
  6
CONTINUOUS
 10
7.5657999818
 20
16.4129962748
 30
0.0
 11
7.5332911558
 21
16.4129962748
 31
0.0
  0
LINE
  5
37D
100
AcDbEntity
  8
DRAFT
100
AcDbLine
 62
7
  6
CONTINUOUS
 10
-11.3987775409
 20
16.6183558863
 30
0.0
 11
-11.3667088442
 21
16.6183558863
 31
0.0
  0
LINE
  5
37E
100
AcDbEntity
  8
DRAFT
100
AcDbLine
 62
7
  6
CONTINUOUS
 10
-5.5048723345
 20
15.5
 30
0.0
 11
-5.4663399299
 21
15.4980929339
 31
0.0
  0
LINE
  5
37F
100
AcDbEntity
  8
RACCORDO
100
AcDbLine
 62
250
  6
CONTINUOUS
 10
7.0182926745
 20
15.5074986681
 30
0.0
 11
7.0332911529
 21
15.5
 31
0.0
  0
LINE
  5
380
100
AcDbEntity
  8
RACCORDO
100
AcDbLine
 62
250
  6
CONTINUOUS
 10
7.5189020391
 20
16.0071368972
 30
0.0
 11
7.5332911558
 21
15.9999428868
 31
0.0
  0
LINE
  5
381
100
AcDbEntity
  8
RACCORDO
100
AcDbLine
 62
250
  6
CONTINUOUS
 10
7.5999460695
 20
15.9916160641
 30
0.0
 11
7.5832911558
 21
15.9999428868
 31
0.0
  0
LWPOLYLINE
  5
382
100
AcDbEntity
  8
0
100
AcDbPolyline
 62
7
  6
CONTINUOUS
 90
3
 70
0
 43
0.3500000087
 10
19.6904331955
 20
-0.8571438049
 10
19.6904331955
 20
-2.3571431381
 10
17.3332909294
 20
-1.714285672
  0
LINE
  5
383
100
AcDbEntity
  8
RACCORDO
100
AcDbLine
 62
250
  6
CONTINUOUS
 10
-11.391457777
 20
20.0336793263
 30
0.0
 11
-11.3667088442
 21
20.0336793263
 31
0.0
  0
LINE
  5
384
100
AcDbEntity
  8
RACCORDO
100
AcDbLine
 62
250
  6
CONTINUOUS
 10
7.5332911558
 20
20.0336793263
 30
0.0
 11
7.5580400887
 21
20.0336793263
 31
0.0
  0
LINE
  5
385
100
AcDbEntity
  8
RACCORDO
100
AcDbLine
 62
250
  6
CONTINUOUS
 10
-11.3829476147
 20
20.4726685022
 30
0.0
 11
-11.3667088442
 21
20.4726685022
 31
0.0
  0
LINE
  5
386
100
AcDbEntity
  8
RACCORDO
100
AcDbLine
 62
250
  6
CONTINUOUS
 10
7.5332911558
 20
20.4726685022
 30
0.0
 11
7.5495299264
 21
20.4726685022
 31
0.0
  0
LINE
  5
387
100
AcDbEntity
  8
RACCORDO
100
AcDbLine
 62
7
  6
CONTINUOUS
 10
7.5495299264
 20
20.4726685022
 30
0.0
 11
7.5332911558
 21
20.4889072728
 31
0.0
  0
LINE
  5
388
100
AcDbEntity
  8
0
100
AcDbLine
 62
250
  6
CONTINUOUS
 10
5.3463897346
 20
-24.2369056521
 30
0.0
 11
5.3332911558
 21
-24.2500042308
 31
0.0
  0
LINE
  5
389
100
AcDbEntity
  8
0
100
AcDbLine
 62
250
  6
CONTINUOUS
 10
5.5963855038
 20
-24.4869014213
 30
0.0
 11
5.5832869251
 21
-24.5
 31
0.0
  0
LINE
  5
38A
100
AcDbEntity
  8
RACCORDO
100
AcDbLine
 62
250
  6
CONTINUOUS
 10
-12.4448781784
 20
21.2107174911
 30
0.0
 11
-11.6223590815
 21
21.2107174911
 31
0.0
  0
LINE
  5
38B
100
AcDbEntity
  8
RACCORDO
100
AcDbLine
 62
250
  6
CONTINUOUS
 10
-11.263311164
 20
21.2107174911
 30
0.0
 11
7.4298934757
 21
21.2107174911
 31
0.0
  0
LINE
  5
38C
100
AcDbEntity
  8
RACCORDO
100
AcDbLine
 62
250
  6
CONTINUOUS
 10
7.7889413932
 20
21.2107174911
 30
0.0
 11
8.61146049
 21
21.2107174911
 31
0.0
  0
LINE
  5
38D
100
AcDbEntity
  8
SMUSSO
100
AcDbLine
 62
7
  6
CONTINUOUS
 10
-11.3748166883
 20
21.7192005714
 30
0.0
 11
-11.3652837947
 21
21.7192005714
 31
0.0
  0
LINE
  5
38E
100
AcDbEntity
  8
SMUSSO
100
AcDbLine
 62
7
  6
CONTINUOUS
 10
7.5318660589
 20
21.7192005714
 30
0.0
 11
7.541399
 21
21.7192005714
 31
0.0
  0
LINE
  5
38F
100
AcDbEntity
  8
RACCORDO
100
AcDbLine
 62
250
  6
CONTINUOUS
 10
-12.4530513667
 20
22.0602279426
 30
0.0
 11
-11.6092819802
 21
22.0602279426
 31
0.0
  0
LINE
  5
390
100
AcDbEntity
  8
RACCORDO
100
AcDbLine
 62
250
  6
CONTINUOUS
 10
-11.2553643198
 20
22.0602279426
 30
0.0
 11
7.4219466315
 21
22.0602279426
 31
0.0
  0
LINE
  5
391
100
AcDbEntity
  8
RACCORDO
100
AcDbLine
 62
250
  6
CONTINUOUS
 10
7.7758642919
 20
22.0602279426
 30
0.0
 11
8.6196336783
 21
22.0602279426
 31
0.0
  0
LINE
  5
392
100
AcDbEntity
  8
RACCORDO
100
AcDbLine
 62
7
  6
CONTINUOUS
 10
-11.5746644484
 20
22.1641649932
 30
0.0
 11
7.7412467601
 21
22.1641649932
 31
0.0
  0
LINE
  5
393
100
AcDbEntity
  8
DRAFT
100
AcDbLine
 62
7
  6
CONTINUOUS
 10
-4.9167088442
 20
22.2218135504
 30
0.0
 11
1.0832911558
 21
22.2218135504
 31
0.0
  0
LINE
  5
394
100
AcDbEntity
  8
RACCORDO
100
AcDbLine
 62
250
  6
CONTINUOUS
 10
-11.809432326
 20
22.3114553375
 30
0.0
 11
-9.4239853623
 21
22.3114553375
 31
0.0
  0
LINE
  5
395
100
AcDbEntity
  8
RACCORDO
100
AcDbLine
 62
250
  6
CONTINUOUS
 10
5.590567674
 20
22.3114553375
 30
0.0
 11
7.9760146377
 21
22.3114553375
 31
0.0
  0
LINE
  5
396
100
AcDbEntity
  8
0
100
AcDbLine
 62
7
  6
CONTINUOUS
 10
2.5245644111
 20
22.3213883311
 30
0.0
 11
1.5832911558
 21
22.3213883311
 31
0.0
  0
LINE
  5
397
100
AcDbEntity
  8
0
100
AcDbLine
 62
7
  6
CONTINUOUS
 10
-5.4167088442
 20
22.3213883311
 30
0.0
 11
-6.3579820994
 21
22.3213883311
 31
0.0
  0
LINE
  5
398
100
AcDbEntity
  8
0
100
AcDbLine
 62
7
  6
CONTINUOUS
 10
-5.4167088442
 20
22.3737961104
 30
0.0
 11
-3.1167088442
 21
22.3737961104
 31
0.0
  0
LINE
  5
399
100
AcDbEntity
  8
0
100
AcDbLine
 62
7
  6
CONTINUOUS
 10
-0.7167088442
 20
22.3737961104
 30
0.0
 11
1.5832911558
 21
22.3737961104
 31
0.0
  0
LINE
  5
39A
100
AcDbEntity
  8
RACCORDO
100
AcDbLine
 62
7
  6
CONTINUOUS
 10
-12.5662166906
 20
22.4
 30
0.0
 11
-12.2666513325
 21
22.4
 31
0.0
  0
LINE
  5
39B
100
AcDbEntity
  8
RACCORDO
100
AcDbLine
 62
7
  6
CONTINUOUS
 10
-8.9667663558
 20
22.4
 30
0.0
 11
-6.3667088442
 21
22.4
 31
0.0
  0
LINE
  5
39C
100
AcDbEntity
  8
RACCORDO
100
AcDbLine
 62
7
  6
CONTINUOUS
 10
2.5332911558
 20
22.4
 30
0.0
 11
5.1333486675
 21
22.4
 31
0.0
  0
LINE
  5
39D
100
AcDbEntity
  8
0
100
AcDbLine
 62
7
  6
CONTINUOUS
 10
-0.9167088442
 20
22.4
 30
0.0
 11
-2.9167088442
 21
22.4
 31
0.0
  0
LINE
  5
39E
100
AcDbEntity
  8
RACCORDO
100
AcDbLine
 62
7
  6
CONTINUOUS
 10
8.4332336442
 20
22.4
 30
0.0
 11
8.7327990023
 21
22.4
 31
0.0
  0
LINE
  5
39F
100
AcDbEntity
  8
0
100
AcDbLine
 62
250
  6
CONTINUOUS
 10
5.3463897346
 20
24.2369056521
 30
0.0
 11
5.3332911558
 21
24.2500042308
 31
0.0
  0
LINE
  5
3A0
100
AcDbEntity
  8
0
100
AcDbLine
 62
250
  6
CONTINUOUS
 10
5.5963855038
 20
24.4869014213
 30
0.0
 11
5.5832869251
 21
24.5
 31
0.0
  0
LINE
  5
3A1
100
AcDbEntity
  8
RACCORDO
100
AcDbLine
 62
250
  6
CONTINUOUS
 10
-11.809432326
 20
22.5111812444
 30
0.0
 11
-9.4239853623
 21
22.5111812444
 31
0.0
  0
LINE
  5
3A2
100
AcDbEntity
  8
RACCORDO
100
AcDbLine
 62
250
  6
CONTINUOUS
 10
5.590567674
 20
22.5111812444
 30
0.0
 11
7.9760146377
 21
22.5111812444
 31
0.0
  0
LINE
  5
3A3
100
AcDbEntity
  8
0
100
AcDbLine
 62
7
  6
CONTINUOUS
 10
-11.809432326
 20
23.1226497308
 30
0.0
 11
-9.4239853623
 21
23.1226497308
 31
0.0
  0
LINE
  5
3A4
100
AcDbEntity
  8
0
100
AcDbLine
 62
7
  6
CONTINUOUS
 10
7.9760146377
 20
23.1226497308
 30
0.0
 11
5.590567674
 21
23.1226497308
 31
0.0
  0
LINE
  5
3A5
100
AcDbEntity
  8
0
100
AcDbLine
 62
250
  6
CONTINUOUS
 10
-11.8036144962
 20
23.6278312164
 30
0.0
 11
-9.4298031921
 21
23.6278312164
 31
0.0
  0
LINE
  5
3A6
100
AcDbEntity
  8
0
100
AcDbLine
 62
250
  6
CONTINUOUS
 10
5.5963855038
 20
23.6278312164
 30
0.0
 11
7.9701968079
 21
23.6278312164
 31
0.0
  0
LINE
  5
3A7
100
AcDbEntity
  8
0
100
AcDbLine
 62
250
  6
CONTINUOUS
 10
1.5832911558
 20
23.7982512664
 30
0.0
 11
-0.9167088442
 21
23.7982512664
 31
0.0
  0
LINE
  5
3A8
100
AcDbEntity
  8
0
100
AcDbLine
 62
250
  6
CONTINUOUS
 10
-2.9167088442
 20
23.7982512664
 30
0.0
 11
-5.4167088442
 21
23.7982512664
 31
0.0
  0
LINE
  5
3A9
100
AcDbEntity
  8
0
100
AcDbLine
 62
250
  6
CONTINUOUS
 10
5.3463897346
 20
23.8443375673
 30
0.0
 11
8.2201925771
 21
23.8443375673
 31
0.0
  0
LINE
  5
3AA
100
AcDbEntity
  8
0
100
AcDbLine
 62
250
  6
CONTINUOUS
 10
-9.1798074229
 20
23.8443375673
 30
0.0
 11
-12.0536102654
 21
23.8443375673
 31
0.0
  0
LINE
  5
3AB
100
AcDbEntity
  8
0
100
AcDbLine
 62
7
  6
CONTINUOUS
 10
-6.3579820994
 20
23.9912732553
 30
0.0
 11
-5.4167088442
 21
23.9912732553
 31
0.0
  0
LINE
  5
3AC
100
AcDbEntity
  8
0
100
AcDbLine
 62
7
  6
CONTINUOUS
 10
1.5832911558
 20
23.9912732553
 30
0.0
 11
2.5245644111
 21
23.9912732553
 31
0.0
  0
LINE
  5
3AD
100
AcDbEntity
  8
0
100
AcDbLine
 62
7
  6
CONTINUOUS
 10
1.5832911558
 20
23.9982478817
 30
0.0
 11
-0.7167088442
 21
23.9982478817
 31
0.0
  0
LINE
  5
3AE
100
AcDbEntity
  8
0
100
AcDbLine
 62
7
  6
CONTINUOUS
 10
-3.1167088442
 20
23.9982478817
 30
0.0
 11
-5.4167088442
 21
23.9982478817
 31
0.0
  0
LINE
  5
3AF
100
AcDbEntity
  8
0
100
AcDbLine
 62
7
  6
CONTINUOUS
 10
-6.3667088442
 20
24.0
 30
0.0
 11
-5.4167088442
 21
24.0
 31
0.0
  0
LINE
  5
3B0
100
AcDbEntity
  8
0
100
AcDbLine
 62
7
  6
CONTINUOUS
 10
1.5832911558
 20
24.0
 30
0.0
 11
2.5332911558
 21
24.0
 31
0.0
  0
LINE
  5
3B1
100
AcDbEntity
  8
0
100
AcDbLine
 62
250
  6
CONTINUOUS
 10
5.3463897346
 20
24.2369056521
 30
0.0
 11
8.2201925771
 21
24.2369056521
 31
0.0
  0
LINE
  5
3B2
100
AcDbEntity
  8
0
100
AcDbLine
 62
250
  6
CONTINUOUS
 10
-9.1798074229
 20
24.2369056521
 30
0.0
 11
-12.0536102654
 21
24.2369056521
 31
0.0
  0
LINE
  5
3B3
100
AcDbEntity
  8
0
100
AcDbLine
 62
7
  6
CONTINUOUS
 10
7.9701968079
 20
24.4869014213
 30
0.0
 11
5.5963855038
 21
24.4869014213
 31
0.0
  0
LINE
  5
3B4
100
AcDbEntity
  8
0
100
AcDbLine
 62
7
  6
CONTINUOUS
 10
-9.4298031921
 20
24.4869014213
 30
0.0
 11
-11.8036144962
 21
24.4869014213
 31
0.0
  0
LINE
  5
3B5
100
AcDbEntity
  8
0
100
AcDbLine
 62
7
  6
CONTINUOUS
 10
7.9832953866
 20
24.5
 30
0.0
 11
5.5832869251
 21
24.5
 31
0.0
  0
LINE
  5
3B6
100
AcDbEntity
  8
0
100
AcDbLine
 62
7
  6
CONTINUOUS
 10
-9.4167046134
 20
24.5
 30
0.0
 11
-11.8167130749
 21
24.5
 31
0.0
  0
LWPOLYLINE
  5
3B7
100
AcDbEntity
  8
0
100
AcDbPolyline
 62
7
  6
CONTINUOUS
 90
6
 70
0
 43
0.3500000087
 10
0.226148298
 20
33.2500006897
 10
1.2975769141
 20
33.2500006897
 10
1.5118626473
 20
33.4642872223
 10
1.5118626473
 20
34.5357156219
 10
1.0832911809
 20
34.9642844238
 10
0.6547197145
 20
34.9642844238
  0
LWPOLYLINE
  5
3B8
100
AcDbEntity
  8
0
100
AcDbPolyline
 62
7
  6
CONTINUOUS
 90
7
 70
0
 43
0.3500000087
 10
-2.345280151
 20
33.2500006897
 10
-3.8452802835
 20
33.2500006897
 10
-2.345280151
 20
35.392857489
 10
-2.345280151
 20
35.8214305542
 10
-2.7738516174
 20
36.2499993561
 10
-3.4167088171
 20
36.2499993561
 10
-3.8452802835
 20
35.6071440216
  0
LWPOLYLINE
  5
3B9
100
AcDbEntity
  8
0
100
AcDbPolyline
 62
7
  6
CONTINUOUS
 90
7
 70
0
 43
0.3500000087
 10
-4.70242295
 20
33.2500006897
 10
-6.202423349
 20
33.2500006897
 10
-4.70242295
 20
35.392857489
 10
-4.70242295
 20
35.8214305542
 10
-5.1309944164
 20
36.2499993561
 10
-5.7738518826
 20
36.2499993561
 10
-6.202423349
 20
35.6071440216
  0
LWPOLYLINE
  5
3BA
100
AcDbEntity
  8
0
100
AcDbPolyline
 62
7
  6
CONTINUOUS
 90
5
 70
0
 43
0.3500000087
 10
-47.0229824829
 20
44.9642856628
 10
-46.6658411041
 20
45.1785721954
 10
-46.6658411041
 20
45.8214275299
 10
-47.0229824829
 20
46.2500005951
 10
-47.8801286133
 20
46.2500005951
  0
LWPOLYLINE
  5
3BB
100
AcDbEntity
  8
0
100
AcDbPolyline
 62
7
  6
CONTINUOUS
 90
5
 70
0
 43
0.3500000087
 10
-44.8801256836
 20
44.9642856628
 10
-44.5229843048
 20
45.1785721954
 10
-44.5229843048
 20
45.8214275299
 10
-44.8801256836
 20
46.2500005951
 10
-45.7372675507
 20
46.2500005951
  0
LWPOLYLINE
  5
3BC
100
AcDbEntity
  8
0
100
AcDbPolyline
 62
7
  6
CONTINUOUS
 90
5
 70
0
 43
0.3500000087
 10
-35.9515571075
 20
34.9642844238
 10
-35.5944114655
 20
35.1785709564
 10
-35.5944114655
 20
35.8214305542
 10
-35.9515571075
 20
36.2499993561
 10
-36.8086989746
 20
36.2499993561
  0
LINE
  5
3BD
100
AcDbEntity
  8
0
100
AcDbLine
 62
250
  6
CONTINUOUS
 10
-52.1015552706
 20
23.4104851482
 30
0.0
 11
-51.3501008378
 21
23.8443375673
 31
0.0
  0
LINE
  5
3BE
100
AcDbEntity
  8
0
100
AcDbLine
 62
7
  6
CONTINUOUS
 10
-52.1015552706
 20
23.1226497308
 30
0.0
 11
-51.2265552706
 21
23.6278312164
 31
0.0
  0
LINE
  5
3BF
100
AcDbEntity
  8
0
100
AcDbLine
 62
7
  6
CONTINUOUS
 10
-52.1015552706
 20
-24.5
 30
0.0
 11
-51.3501008378
 21
-24.495628166
 31
0.0
  0
LINE
  5
3C0
100
AcDbEntity
  8
0
100
AcDbLine
 62
250
  6
CONTINUOUS
 10
-52.1015552706
 20
-24.2500042308
 30
0.0
 11
-51.3501008378
 21
-24.2456323968
 31
0.0
  0
LINE
  5
3C1
100
AcDbEntity
  8
0
100
AcDbLine
 62
7
  6
CONTINUOUS
 10
-44.598646405
 20
-23.9563493531
 30
0.0
 11
-51.1015552706
 21
-23.9941821702
 31
0.0
  0
LINE
  5
3C2
100
AcDbEntity
  8
0
100
AcDbLine
 62
250
  6
CONTINUOUS
 10
-51.1015552706
 20
-24.2456323968
 30
0.0
 11
-51.3501008378
 21
-24.2456323968
 31
0.0
  0
LINE
  5
3C3
100
AcDbEntity
  8
0
100
AcDbLine
 62
250
  6
CONTINUOUS
 10
-54.6015552706
 20
-24.2369056521
 30
0.0
 11
-54.3530097035
 21
-24.2369056521
 31
0.0
  0
LINE
  5
3C4
100
AcDbEntity
  8
0
100
AcDbLine
 62
250
  6
CONTINUOUS
 10
-54.6015552706
 20
-23.8443375673
 30
0.0
 11
-54.3530097035
 21
-23.8443375673
 31
0.0
  0
LINE
  5
3C5
100
AcDbEntity
  8
0
100
AcDbLine
 62
250
  6
CONTINUOUS
 10
-51.1015552706
 20
-23.8443375673
 30
0.0
 11
-51.3501008378
 21
-23.8443375673
 31
0.0
  0
LINE
  5
3C6
100
AcDbEntity
  8
0
100
AcDbLine
 62
7
  6
CONTINUOUS
 10
-54.3530097035
 20
-24.4869014213
 30
0.0
 11
-52.1015552706
 21
-24.5
 31
0.0
  0
LINE
  5
3C7
100
AcDbEntity
  8
0
100
AcDbLine
 62
250
  6
CONTINUOUS
 10
-54.3530097035
 20
-24.2369056521
 30
0.0
 11
-52.1015552706
 21
-24.2500042308
 31
0.0
  0
LINE
  5
3C8
100
AcDbEntity
  8
0
100
AcDbLine
 62
250
  6
CONTINUOUS
 10
-51.3501008378
 20
-23.8443375673
 30
0.0
 11
-52.1015552706
 21
-23.4104851482
 31
0.0
  0
LINE
  5
3C9
100
AcDbEntity
  8
0
100
AcDbLine
 62
7
  6
CONTINUOUS
 10
-51.2265552706
 20
-23.6278312164
 30
0.0
 11
-52.1015552706
 21
-23.1226497308
 31
0.0
  0
LINE
  5
3CA
100
AcDbEntity
  8
0
100
AcDbLine
 62
7
  6
CONTINUOUS
 10
-52.1015552706
 20
-22.4
 30
0.0
 11
-51.1015552706
 21
-22.3941821702
 31
0.0
  0
LINE
  5
3CB
100
AcDbEntity
  8
DRAFT
100
AcDbLine
 62
7
  6
CONTINUOUS
 10
-41.0957375393
 20
-22.3359700255
 30
0.0
 11
-51.1015552706
 21
-22.3941821702
 31
0.0
  0
LINE
  5
3CC
100
AcDbEntity
  8
0
100
AcDbLine
 62
250
  6
CONTINUOUS
 10
-52.1015552706
 20
-21.900016923
 30
0.0
 11
-51.1015552706
 21
-21.8941990932
 31
0.0
  0
LINE
  5
3CD
100
AcDbEntity
  8
RACCORDO
100
AcDbLine
 62
250
  6
CONTINUOUS
 10
-52.1015552706
 20
-22.6002134903
 30
0.0
 11
-53.3530097035
 21
-22.5346275426
 31
0.0
  0
LINE
  5
3CE
100
AcDbEntity
  8
0
100
AcDbLine
 62
7
  6
CONTINUOUS
 10
-58.5847923397
 20
-22.0602279426
 30
0.0
 11
-52.1015552706
 21
-22.4
 31
0.0
  0
LINE
  5
3CF
100
AcDbEntity
  8
0
100
AcDbLine
 62
250
  6
CONTINUOUS
 10
-58.5674460142
 20
-21.560908173
 30
0.0
 11
-52.1015324272
 21
-21.8997723451
 31
0.0
  0
LINE
  5
3D0
100
AcDbEntity
  8
RACCORDO
100
AcDbLine
 62
250
  6
CONTINUOUS
 10
-53.3530097035
 20
-22.5346275426
 30
0.0
 11
-53.6015552745
 21
-22.511181243
 31
0.0
  0
LINE
  5
3D1
100
AcDbEntity
  8
0
100
AcDbLine
 62
7
  6
CONTINUOUS
 10
-40.1015552706
 20
-20.9
 30
0.0
 11
-51.1015552706
 21
-20.9
 31
0.0
  0
LINE
  5
3D2
100
AcDbEntity
  8
DRAFT
100
AcDbLine
 62
7
  6
CONTINUOUS
 10
-40.5928290674
 20
-21.4537354271
 30
0.0
 11
-51.1015552706
 21
-21.4
 31
0.0
  0
LINE
  5
3D3
100
AcDbEntity
  8
RACCORDO
100
AcDbLine
 62
250
  6
CONTINUOUS
 10
-51.1015552706
 20
-18.1659738104
 30
0.0
 11
-40.1015552706
 21
-20.0082381709
 31
0.0
  0
LINE
  5
3D4
100
AcDbEntity
  8
RACCORDO
100
AcDbLine
 62
7
  6
CONTINUOUS
 10
-40.1015552706
 20
-19.7
 30
0.0
 11
-51.1015552706
 21
-17.7604032122
 31
0.0
  0
LWPOLYLINE
  5
3D5
100
AcDbEntity
  8
0
100
AcDbPolyline
 62
7
  6
CONTINUOUS
 90
3
 70
0
 43
0.3500000087
 10
-42.8801279938
 20
43.5357158844
 10
-42.9515554169
 20
43.3214293518
 10
-43.0944145264
 20
43.0357153961
  0
LINE
  5
3D6
100
AcDbEntity
  8
RACCORDO
100
AcDbLine
 62
7
  6
CONTINUOUS
 10
-49.5015552706
 20
11.5
 30
0.0
 11
-49.713687305
 21
11.2878679656
 31
0.0
  0
LINE
  5
3D7
100
AcDbEntity
  8
Z030100_COP
100
AcDbLine
 62
7
  6
CONTINUOUS
 10
-32.6015552706
 20
-11.65
 30
0.0
 11
-39.4015552706
 21
-11.65
 31
0.0
  0
LINE
  5
3D8
100
AcDbEntity
  8
Z030100_COP
100
AcDbLine
 62
7
  6
CONTINUOUS
 10
-40.2015552706
 20
-11.65
 30
0.0
 11
-47.0015552706
 21
-11.65
 31
0.0
  0
LINE
  5
3D9
100
AcDbEntity
  8
0
100
AcDbLine
 62
7
  6
CONTINUOUS
 10
-54.6015552706
 20
-24.2369056521
 30
0.0
 11
-54.6015552706
 21
-23.8443375673
 31
0.0
  0
LINE
  5
3DA
100
AcDbEntity
  8
0
100
AcDbLine
 62
7
  6
CONTINUOUS
 10
-54.6015552706
 20
23.8443375673
 30
0.0
 11
-54.6015552706
 21
24.2369056521
 31
0.0
  0
LINE
  5
3DB
100
AcDbEntity
  8
0
100
AcDbLine
 62
250
  6
CONTINUOUS
 10
-54.3530097035
 20
-24.2369056521
 30
0.0
 11
-54.3530097035
 21
-23.8443375673
 31
0.0
  0
LINE
  5
3DC
100
AcDbEntity
  8
0
100
AcDbLine
 62
250
  6
CONTINUOUS
 10
-54.3530097035
 20
23.8443375673
 30
0.0
 11
-54.3530097035
 21
24.2369056521
 31
0.0
  0
LINE
  5
3DD
100
AcDbEntity
  8
RACCORDO
100
AcDbLine
 62
7
  6
CONTINUOUS
 10
-53.6015552706
 20
-23.1226497308
 30
0.0
 11
-53.6015552706
 21
-22.5111812444
 31
0.0
  0
LINE
  5
3DE
100
AcDbEntity
  8
RACCORDO
100
AcDbLine
 62
7
  6
CONTINUOUS
 10
-53.6015552706
 20
22.5111812444
 30
0.0
 11
-53.6015552706
 21
23.1226497308
 31
0.0
  0
LINE
  5
3DF
100
AcDbEntity
  8
RACCORDO
100
AcDbLine
 62
7
  6
CONTINUOUS
 10
-51.1015552706
 20
-10.8310577445
 30
0.0
 11
-48.7015552706
 21
-10.8101132618
 31
0.0
  0
LINE
  5
3E0
100
AcDbEntity
  8
RACCORDO
100
AcDbLine
 62
250
  6
CONTINUOUS
 10
-51.1015552706
 20
-10.3310767829
 30
0.0
 11
-48.7015552706
 21
-10.3101323002
 31
0.0
  0
LINE
  5
3E1
100
AcDbEntity
  8
Z030100_COP
100
AcDbLine
 62
250
  6
CONTINUOUS
 10
-32.3015552706
 20
-11.35
 30
0.0
 11
-39.7015552706
 21
-11.35
 31
0.0
  0
LINE
  5
3E2
100
AcDbEntity
  8
Z030100_COP
100
AcDbLine
 62
250
  6
CONTINUOUS
 10
-39.9015552706
 20
-11.35
 30
0.0
 11
-47.3015552706
 21
-11.35
 31
0.0
  0
LINE
  5
3E3
100
AcDbEntity
  8
0
100
AcDbLine
 62
7
  6
CONTINUOUS
 10
-32.2015552706
 20
-9.95
 30
0.0
 11
-32.3015552706
 21
-9.95
 31
0.0
  0
LINE
  5
3E4
100
AcDbEntity
  8
0
100
AcDbLine
 62
7
  6
CONTINUOUS
 10
-39.7015552706
 20
-9.95
 30
0.0
 11
-39.9015552706
 21
-9.95
 31
0.0
  0
LINE
  5
3E5
100
AcDbEntity
  8
0
100
AcDbLine
 62
7
  6
CONTINUOUS
 10
-47.3015552706
 20
-9.95
 30
0.0
 11
-47.4015552706
 21
-9.95
 31
0.0
  0
LINE
  5
3E6
100
AcDbEntity
  8
RACCORDO
100
AcDbLine
 62
250
  6
CONTINUOUS
 10
-53.3530097035
 20
-23.2669872981
 30
0.0
 11
-53.3530097035
 21
-22.5346275426
 31
0.0
  0
LINE
  5
3E7
100
AcDbEntity
  8
RACCORDO
100
AcDbLine
 62
250
  6
CONTINUOUS
 10
-53.3530097035
 20
22.5346275426
 30
0.0
 11
-53.3530097035
 21
23.2669872981
 31
0.0
  0
LINE
  5
3E8
100
AcDbEntity
  8
0
100
AcDbLine
 62
7
  6
CONTINUOUS
 10
-52.1015552706
 20
24.5
 30
0.0
 11
-52.1015552706
 21
23.4104851482
 31
0.0
  0
LINE
  5
3E9
100
AcDbEntity
  8
0
100
AcDbLine
 62
7
  6
CONTINUOUS
 10
-52.1015552706
 20
22.4
 30
0.0
 11
-52.1015552706
 21
21.6
 31
0.0
  0
LINE
  5
3EA
100
AcDbEntity
  8
0
100
AcDbLine
 62
7
  6
CONTINUOUS
 10
-52.1015552706
 20
-21.6
 30
0.0
 11
-52.1015552704
 21
-22.4
 31
0.0
  0
LINE
  5
3EB
100
AcDbEntity
  8
RACCORDO
100
AcDbLine
 62
7
  6
CONTINUOUS
 10
-52.1015552706
 20
-22.4
 30
0.0
 11
-52.1015552706
 21
-23.4104851482
 31
0.0
  0
LINE
  5
3EC
100
AcDbEntity
  8
0
100
AcDbLine
 62
7
  6
CONTINUOUS
 10
-52.1015552706
 20
-23.4104851482
 30
0.0
 11
-52.1015552706
 21
-24.5
 31
0.0
  0
LINE
  5
3ED
100
AcDbEntity
  8
RACCORDO
100
AcDbLine
 62
7
  6
CONTINUOUS
 10
-52.1015552706
 20
22.4
 30
0.0
 11
-52.1015552706
 21
23.4104851482
 31
0.0
  0
LINE
  5
3EE
100
AcDbEntity
  8
0
100
AcDbLine
 62
250
  6
CONTINUOUS
 10
-60.0201135855
 20
-9.4905
 30
0.0
 11
-60.5112971225
 21
-9.5
 31
0.0
  0
LINE
  5
3EF
100
AcDbEntity
  8
RACCORDO
100
AcDbLine
 62
7
  6
CONTINUOUS
 10
-51.1015552706
 20
-8.8310577445
 30
0.0
 11
-48.8006826171
 21
-8.810978333
 31
0.0
  0
LINE
  5
3F0
100
AcDbEntity
  8
RACCORDO
100
AcDbLine
 62
250
  6
CONTINUOUS
 10
-51.1015552706
 20
-8.7313524131
 30
0.0
 11
-48.7015552706
 21
-8.7109821407
 31
0.0
  0
LINE
  5
3F1
100
AcDbEntity
  8
0
100
AcDbLine
 62
7
  6
CONTINUOUS
 10
-32.2015552706
 20
-9.25
 30
0.0
 11
-32.3015552706
 21
-9.25
 31
0.0
  0
LINE
  5
3F2
100
AcDbEntity
  8
0
100
AcDbLine
 62
7
  6
CONTINUOUS
 10
-39.7015552706
 20
-9.25
 30
0.0
 11
-39.9015552706
 21
-9.25
 31
0.0
  0
LINE
  5
3F3
100
AcDbEntity
  8
0
100
AcDbLine
 62
7
  6
CONTINUOUS
 10
-47.3015552706
 20
-9.25
 30
0.0
 11
-47.4015552706
 21
-9.25
 31
0.0
  0
LINE
  5
3F4
100
AcDbEntity
  8
0
100
AcDbLine
 62
7
  6
CONTINUOUS
 10
-49.0015552706
 20
-8.05
 30
0.0
 11
-47.6015552706
 21
-8.05
 31
0.0
  0
LINE
  5
3F5
100
AcDbEntity
  8
RACCORDO
100
AcDbLine
 62
250
  6
CONTINUOUS
 10
-48.7015552706
 20
-8.0890178593
 30
0.0
 11
-51.1015552706
 21
-8.0686475869
 31
0.0
  0
LINE
  5
3F6
100
AcDbEntity
  8
RACCORDO
100
AcDbLine
 62
7
  6
CONTINUOUS
 10
-49.0015552706
 20
-7.9872686779
 30
0.0
 11
-51.1015552706
 21
-7.9689422555
 31
0.0
  0
LINE
  5
3F7
100
AcDbEntity
  8
0
100
AcDbLine
 62
250
  6
CONTINUOUS
 10
-51.3501008378
 20
24.2456323968
 30
0.0
 11
-51.3501008378
 21
23.8443375673
 31
0.0
  0
LINE
  5
3F8
100
AcDbEntity
  8
0
100
AcDbLine
 62
250
  6
CONTINUOUS
 10
-51.3501008378
 20
-23.8443375673
 30
0.0
 11
-51.3501008378
 21
-24.2456323968
 31
0.0
  0
LINE
  5
3F9
100
AcDbEntity
  8
0
100
AcDbLine
 62
7
  6
CONTINUOUS
 10
-51.1015552706
 20
24.2456323968
 30
0.0
 11
-51.1015552706
 21
23.8443375673
 31
0.0
  0
LINE
  5
3FA
100
AcDbEntity
  8
0
100
AcDbLine
 62
7
  6
CONTINUOUS
 10
-51.1015552706
 20
-23.8443375673
 30
0.0
 11
-51.1015552706
 21
-24.2456323968
 31
0.0
  0
LINE
  5
3FB
100
AcDbEntity
  8
0
100
AcDbLine
 62
7
  6
CONTINUOUS
 10
-51.1015552706
 20
-22.3941821702
 30
0.0
 11
-51.1015552706
 21
22.3941821702
 31
0.0
  0
LINE
  5
3FC
100
AcDbEntity
  8
0
100
AcDbLine
 62
7
  6
CONTINUOUS
 10
-50.4015552706
 20
11.2
 30
0.0
 11
-50.4015552706
 21
11.5
 31
0.0
  0
LINE
  5
3FD
100
AcDbEntity
  8
RACCORDO
100
AcDbLine
 62
250
  6
CONTINUOUS
 10
-49.79893731
 20
17.7956556053
 30
0.0
 11
-49.79893731
 21
17.9900899042
 31
0.0
  0
LINE
  5
3FE
100
AcDbEntity
  8
RACCORDO
100
AcDbLine
 62
7
  6
CONTINUOUS
 10
-49.7015552706
 20
-10.8188401295
 30
0.0
 11
-49.7015552706
 21
-10.9000000161
 31
0.0
  0
LINE
  5
3FF
100
AcDbEntity
  8
RACCORDO
100
AcDbLine
 62
7
  6
CONTINUOUS
 10
-49.5015552706
 20
17.7956556053
 30
0.0
 11
-49.5015552706
 21
18.0425263813
 31
0.0
  0
LINE
  5
400
100
AcDbEntity
  8
0
100
AcDbLine
 62
7
  6
CONTINUOUS
 10
-49.0015552706
 20
-6.55
 30
0.0
 11
-48.6015552706
 21
-6.55
 31
0.0
  0
LINE
  5
401
100
AcDbEntity
  8
RACCORDO
100
AcDbLine
 62
250
  6
CONTINUOUS
 10
-48.7015552706
 20
-6.2872801014
 30
0.0
 11
-48.8006826171
 21
-6.2872801014
 31
0.0
  0
LINE
  5
402
100
AcDbEntity
  8
RACCORDO
100
AcDbLine
 62
250
  6
CONTINUOUS
 10
-51.1015552706
 20
-6.0689384479
 30
0.0
 11
-48.99893731
 21
-6.0872877168
 31
0.0
  0
LINE
  5
403
100
AcDbEntity
  8
RACCORDO
100
AcDbLine
 62
7
  6
CONTINUOUS
 10
-51.1015552706
 20
-5.9689422555
 30
0.0
 11
-48.99893731
 21
-5.9872915245
 31
0.0
  0
LINE
  5
404
100
AcDbEntity
  8
0
100
AcDbLine
 62
7
  6
CONTINUOUS
 10
-49.0015552706
 20
-8.05
 30
0.0
 11
-49.0015552706
 21
-6.55
 31
0.0
  0
LINE
  5
405
100
AcDbEntity
  8
0
100
AcDbLine
 62
7
  6
CONTINUOUS
 10
-49.0015552706
 20
6.55
 30
0.0
 11
-49.0015552706
 21
8.05
 31
0.0
  0
LINE
  5
406
100
AcDbEntity
  8
RACCORDO
100
AcDbLine
 62
250
  6
CONTINUOUS
 10
-48.8989492276
 20
12.3121305613
 30
0.0
 11
-48.8989492276
 21
11.5
 31
0.0
  0
LINE
  5
407
100
AcDbEntity
  8
RACCORDO
100
AcDbLine
 62
250
  6
CONTINUOUS
 10
-48.8989492276
 20
0.3121305613
 30
0.0
 11
-48.8989492276
 21
-0.3121305613
 31
0.0
  0
LINE
  5
408
100
AcDbEntity
  8
RACCORDO
100
AcDbLine
 62
250
  6
CONTINUOUS
 10
-48.8989492276
 20
-8.0878694387
 30
0.0
 11
-48.8989492276
 21
-8.7121305613
 31
0.0
  0
LINE
  5
409
100
AcDbEntity
  8
RACCORDO
100
AcDbLine
 62
250
  6
CONTINUOUS
 10
-48.8006826171
 20
-6.2872801014
 30
0.0
 11
-48.8006826171
 21
-6.55
 31
0.0
  0
LINE
  5
40A
100
AcDbEntity
  8
RACCORDO
100
AcDbLine
 62
7
  6
CONTINUOUS
 10
-48.7015552706
 20
13.9101132618
 30
0.0
 11
-48.7015552706
 21
11.5
 31
0.0
  0
LINE
  5
40B
100
AcDbEntity
  8
RACCORDO
100
AcDbLine
 62
7
  6
CONTINUOUS
 10
-48.7015552706
 20
0.3109821407
 30
0.0
 11
-48.7015552706
 21
-0.3109821407
 31
0.0
  0
LINE
  5
40C
100
AcDbEntity
  8
RACCORDO
100
AcDbLine
 62
7
  6
CONTINUOUS
 10
-48.7015552706
 20
-6.2872801014
 30
0.0
 11
-48.7015552706
 21
-6.55
 31
0.0
  0
LINE
  5
40D
100
AcDbEntity
  8
RACCORDO
100
AcDbLine
 62
7
  6
CONTINUOUS
 10
-48.7015552706
 20
-8.05
 30
0.0
 11
-48.7015552706
 21
-10.8101132618
 31
0.0
  0
LINE
  5
40E
100
AcDbEntity
  8
0
100
AcDbLine
 62
7
  6
CONTINUOUS
 10
-48.6015552706
 20
-6.55
 30
0.0
 11
-48.6015552706
 21
6.55
 31
0.0
  0
LINE
  5
40F
100
AcDbEntity
  8
0
100
AcDbLine
 62
7
  6
CONTINUOUS
 10
-47.6015552706
 20
6.65
 30
0.0
 11
-47.6015552706
 21
-8.05
 31
0.0
  0
LWPOLYLINE
  5
410
100
AcDbEntity
  8
0
100
AcDbPolyline
 62
7
  6
CONTINUOUS
 90
3
 70
0
 43
0.3500000087
 10
-37.8086999512
 20
33.5357146454
 10
-37.8801273743
 20
33.3214281128
 10
-38.0229822205
 20
33.0357141571
  0
LINE
  5
411
100
AcDbEntity
  8
0
100
AcDbLine
 62
7
  6
CONTINUOUS
 10
-45.5515552706
 20
-4.45
 30
0.0
 11
-44.8515552706
 21
-4.45
 31
0.0
  0
LINE
  5
412
100
AcDbEntity
  8
0
100
AcDbLine
 62
7
  6
CONTINUOUS
 10
-41.9515552706
 20
-4.45
 30
0.0
 11
-41.2515552706
 21
-4.45
 31
0.0
  0
LINE
  5
413
100
AcDbEntity
  8
0
100
AcDbLine
 62
7
  6
CONTINUOUS
 10
-38.3515552706
 20
-4.45
 30
0.0
 11
-37.6515552706
 21
-4.45
 31
0.0
  0
LINE
  5
414
100
AcDbEntity
  8
0
100
AcDbLine
 62
7
  6
CONTINUOUS
 10
-34.7515552706
 20
-4.45
 30
0.0
 11
-34.0515552706
 21
-4.45
 31
0.0
  0
LINE
  5
415
100
AcDbEntity
  8
Z030100_COP
100
AcDbLine
 62
7
  6
CONTINUOUS
 10
-32.3187125582
 20
-4.45
 30
0.0
 11
-33.3265552706
 21
-4.45
 31
0.0
  0
LINE
  5
416
100
AcDbEntity
  8
Z030100_COP
100
AcDbLine
 62
7
  6
CONTINUOUS
 10
-34.8265552706
 20
-4.45
 30
0.0
 11
-37.1765552706
 21
-4.45
 31
0.0
  0
LINE
  5
417
100
AcDbEntity
  8
Z030100_COP
100
AcDbLine
 62
7
  6
CONTINUOUS
 10
-38.6765552706
 20
-4.45
 30
0.0
 11
-39.6843979831
 21
-4.45
 31
0.0
  0
LINE
  5
418
100
AcDbEntity
  8
Z030100_COP
100
AcDbLine
 62
7
  6
CONTINUOUS
 10
-39.9187125582
 20
-4.45
 30
0.0
 11
-40.9265552706
 21
-4.45
 31
0.0
  0
LINE
  5
419
100
AcDbEntity
  8
Z030100_COP
100
AcDbLine
 62
7
  6
CONTINUOUS
 10
-42.4265552706
 20
-4.45
 30
0.0
 11
-44.7765552706
 21
-4.45
 31
0.0
  0
LINE
  5
41A
100
AcDbEntity
  8
Z030100_COP
100
AcDbLine
 62
7
  6
CONTINUOUS
 10
-46.2765552706
 20
-4.45
 30
0.0
 11
-47.2843979831
 21
-4.45
 31
0.0
  0
LINE
  5
41B
100
AcDbEntity
  8
0
100
AcDbLine
 62
7
  6
CONTINUOUS
 10
-32.2015552706
 20
-4.35
 30
0.0
 11
-47.4015552706
 21
-4.35
 31
0.0
  0
LINE
  5
41C
100
AcDbEntity
  8
0
100
AcDbLine
 62
7
  6
CONTINUOUS
 10
-47.4015552706
 20
-9.95
 30
0.0
 11
-47.4015552706
 21
6.65
 31
0.0
  0
LINE
  5
41D
100
AcDbEntity
  8
Z030100_COP
100
AcDbLine
 62
7
  6
CONTINUOUS
 10
-47.3015552706
 20
-11.35
 30
0.0
 11
-47.3015552706
 21
-4.75
 31
0.0
  0
LINE
  5
41E
100
AcDbEntity
  8
Z030100_COP
100
AcDbLine
 62
250
  6
CONTINUOUS
 10
-47.0015552706
 20
-11.65
 30
0.0
 11
-47.0015552706
 21
-4.45
 31
0.0
  0
LINE
  5
41F
100
AcDbEntity
  8
0
100
AcDbLine
 62
7
  6
CONTINUOUS
 10
-45.5515552706
 20
-6.2491921419
 30
0.0
 11
-45.5515552706
 21
-4.45
 31
0.0
  0
LINE
  5
420
100
AcDbEntity
  8
Z030100_COP
100
AcDbLine
 62
7
  6
CONTINUOUS
 10
-46.2765552706
 20
-4.45
 30
0.0
 11
-46.0181482386
 21
-5.8413036354
 31
0.0
  0
LINE
  5
421
100
AcDbEntity
  8
SMUSSO
100
AcDbLine
 62
7
  6
CONTINUOUS
 10
-45.3415552706
 20
-4.45
 30
0.0
 11
-45.3415552706
 21
-6.2144997541
 31
0.0
  0
LINE
  5
422
100
AcDbEntity
  8
SMUSSO
100
AcDbLine
 62
7
  6
CONTINUOUS
 10
-45.2715552706
 20
-4.45
 30
0.0
 11
-45.2715552706
 21
-6.1798056331
 31
0.0
  0
LINE
  5
423
100
AcDbEntity
  8
0
100
AcDbLine
 62
7
  6
CONTINUOUS
 10
-44.8515552706
 20
-4.8538116604
 30
0.0
 11
-44.8515552706
 21
-4.45
 31
0.0
  0
LINE
  5
424
100
AcDbEntity
  8
0
100
AcDbLine
 62
7
  6
CONTINUOUS
 10
-44.6015552706
 20
-23.4413184673
 30
0.0
 11
-44.6015552706
 21
-22.8586815327
 31
0.0
  0
LINE
  5
425
100
AcDbEntity
  8
0
100
AcDbLine
 62
7
  6
CONTINUOUS
 10
-44.6015552706
 20
22.8586815327
 30
0.0
 11
-44.6015552706
 21
23.4413184673
 31
0.0
  0
LINE
  5
426
100
AcDbEntity
  8
0
100
AcDbLine
 62
250
  6
CONTINUOUS
 10
-44.5519622998
 20
23.9538922731
 30
0.0
 11
-44.5519622998
 21
22.356077753
 31
0.0
  0
LINE
  5
427
100
AcDbEntity
  8
0
100
AcDbLine
 62
250
  6
CONTINUOUS
 10
-44.5519622998
 20
-22.356077753
 30
0.0
 11
-44.5519622998
 21
-23.9538922731
 31
0.0
  0
LINE
  5
428
100
AcDbEntity
  8
0
100
AcDbLine
 62
7
  6
CONTINUOUS
 10
-44.1015552706
 20
23.4563578147
 30
0.0
 11
-44.1015552706
 21
22.3534573615
 31
0.0
  0
LINE
  5
429
100
AcDbEntity
  8
0
100
AcDbLine
 62
7
  6
CONTINUOUS
 10
-44.1015552706
 20
-22.3534573615
 30
0.0
 11
-44.1015552706
 21
-23.4563578147
 31
0.0
  0
LINE
  5
42A
100
AcDbEntity
  8
Z030100_COP
100
AcDbLine
 62
7
  6
CONTINUOUS
 10
-45.0349623027
 20
-5.8413036354
 30
0.0
 11
-44.7765552706
 21
-4.45
 31
0.0
  0
LINE
  5
42B
100
AcDbEntity
  8
RACCORDO
100
AcDbLine
 62
7
  6
CONTINUOUS
 10
-48.8006826171
 20
-0.410978333
 30
0.0
 11
-51.1015552706
 21
-0.4310577445
 31
0.0
  0
LINE
  5
42C
100
AcDbEntity
  8
RACCORDO
100
AcDbLine
 62
250
  6
CONTINUOUS
 10
-48.7015552706
 20
-0.3109821407
 30
0.0
 11
-51.1015552706
 21
-0.3313524131
 31
0.0
  0
LINE
  5
42D
100
AcDbEntity
  8
0
100
AcDbLine
 62
7
  6
CONTINUOUS
 10
-32.2015552706
 20
-0.75
 30
0.0
 11
-47.4015552706
 21
-0.75
 31
0.0
  0
LINE
  5
42E
100
AcDbEntity
  8
0
100
AcDbLine
 62
7
  6
CONTINUOUS
 10
-26.8015552706
 20
-0.65
 30
0.0
 11
-32.2015552706
 21
-0.65
 31
0.0
  0
LINE
  5
42F
100
AcDbEntity
  8
0
100
AcDbLine
 62
7
  6
CONTINUOUS
 10
-47.4015552706
 20
-0.65
 30
0.0
 11
-47.6015552706
 21
-0.65
 31
0.0
  0
LINE
  5
430
100
AcDbEntity
  8
0
100
AcDbLine
 62
7
  6
CONTINUOUS
 10
-32.2015552706
 20
-0.25
 30
0.0
 11
-47.4015552706
 21
-0.25
 31
0.0
  0
LINE
  5
431
100
AcDbEntity
  8
0
100
AcDbLine
 62
7
  6
CONTINUOUS
 10
-32.2015552706
 20
0.25
 30
0.0
 11
-47.4015552706
 21
0.25
 31
0.0
  0
LINE
  5
432
100
AcDbEntity
  8
RACCORDO
100
AcDbLine
 62
7
  6
CONTINUOUS
 10
-43.1157504237
 20
9.95
 30
0.0
 11
-43.1157504237
 21
8.05
 31
0.0
  0
LINE
  5
433
100
AcDbEntity
  8
0
100
AcDbLine
 62
7
  6
CONTINUOUS
 10
-41.9515552706
 20
-6.1670400881
 30
0.0
 11
-41.9515552706
 21
-4.45
 31
0.0
  0
LWPOLYLINE
  5
434
100
AcDbEntity
  8
0
100
AcDbPolyline
 62
7
  6
CONTINUOUS
 90
4
 70
0
 43
0.3500000087
 10
-41.8801270172
 20
43.6785707306
 10
-41.8801270172
 20
44.5357125977
 10
-41.451553952
 20
44.9642856628
 10
-40.8086986176
 20
44.9642856628
  0
LINE
  5
435
100
AcDbEntity
  8
SMUSSO
100
AcDbLine
 62
7
  6
CONTINUOUS
 10
-41.7415552706
 20
-4.45
 30
0.0
 11
-41.7415552706
 21
-6.2456690218
 31
0.0
  0
LINE
  5
436
100
AcDbEntity
  8
SMUSSO
100
AcDbLine
 62
7
  6
CONTINUOUS
 10
-41.6715552706
 20
-4.45
 30
0.0
 11
-41.6715552706
 21
-6.2495169217
 31
0.0
  0
LINE
  5
437
100
AcDbEntity
  8
0
100
AcDbLine
 62
7
  6
CONTINUOUS
 10
-26.8015552706
 20
1.75
 30
0.0
 11
-30.5015552706
 21
1.75
 31
0.0
  0
LINE
  5
438
100
AcDbEntity
  8
RACCORDO
100
AcDbLine
 62
250
  6
CONTINUOUS
 10
-51.1015552706
 20
0.3313524131
 30
0.0
 11
-48.7015552705
 21
0.3109821407
 31
0.0
  0
LINE
  5
439
100
AcDbEntity
  8
RACCORDO
100
AcDbLine
 62
7
  6
CONTINUOUS
 10
-51.1015552706
 20
0.4310577445
 30
0.0
 11
-48.8006826171
 21
0.410978333
 31
0.0
  0
LINE
  5
43A
100
AcDbEntity
  8
Z030100_COP
100
AcDbLine
 62
7
  6
CONTINUOUS
 10
-42.4265552706
 20
-4.45
 30
0.0
 11
-42.1681482386
 21
-5.8413036354
 31
0.0
  0
LINE
  5
43B
100
AcDbEntity
  8
RACCORDO
100
AcDbLine
 62
7
  6
CONTINUOUS
 10
-41.1753183267
 20
11.1777350098
 30
0.0
 11
-41.0015552706
 21
8.05
 31
0.0
  0
LINE
  5
43C
100
AcDbEntity
  8
0
100
AcDbLine
 62
7
  6
CONTINUOUS
 10
-41.2515552706
 20
-6.0125086705
 30
0.0
 11
-41.2515552706
 21
-4.45
 31
0.0
  0
LINE
  5
43D
100
AcDbEntity
  8
DRAFT
100
AcDbLine
 62
250
  6
CONTINUOUS
 10
-40.5928290674
 20
-21.4537354271
 30
0.0
 11
-40.5928290674
 21
-20.9
 31
0.0
  0
LINE
  5
43E
100
AcDbEntity
  8
DRAFT
100
AcDbLine
 62
250
  6
CONTINUOUS
 10
-40.5928290674
 20
20.9
 30
0.0
 11
-40.5928290674
 21
21.4537354271
 31
0.0
  0
LINE
  5
43F
100
AcDbEntity
  8
Z030100_COP
100
AcDbLine
 62
250
  6
CONTINUOUS
 10
-40.2015552706
 20
-11.65
 30
0.0
 11
-40.2015552706
 21
-4.45
 31
0.0
  0
LINE
  5
440
100
AcDbEntity
  8
0
100
AcDbLine
 62
7
  6
CONTINUOUS
 10
-40.1015552706
 20
-21.3359869487
 30
0.0
 11
-40.1015552706
 21
-20.9
 31
0.0
  0
LINE
  5
441
100
AcDbEntity
  8
RACCORDO
100
AcDbLine
 62
7
  6
CONTINUOUS
 10
-40.1015552706
 20
-20.9
 30
0.0
 11
-40.1015552706
 21
-19.700059142
 31
0.0
  0
LINE
  5
442
100
AcDbEntity
  8
RACCORDO
100
AcDbLine
 62
7
  6
CONTINUOUS
 10
-40.1015552706
 20
19.7000597947
 30
0.0
 11
-40.1015552706
 21
20.9
 31
0.0
  0
LINE
  5
443
100
AcDbEntity
  8
0
100
AcDbLine
 62
7
  6
CONTINUOUS
 10
-40.1015552706
 20
20.9
 30
0.0
 11
-40.1015552706
 21
21.3359869487
 31
0.0
  0
LINE
  5
444
100
AcDbEntity
  8
Z030100_COP
100
AcDbLine
 62
7
  6
CONTINUOUS
 10
-39.9015552706
 20
-11.35
 30
0.0
 11
-39.9015552706
 21
-4.75
 31
0.0
  0
LWPOLYLINE
  5
445
100
AcDbEntity
  8
0
100
AcDbPolyline
 62
7
  6
CONTINUOUS
 90
2
 70
0
 43
0.3500000087
 10
-39.8801250641
 20
33.2500006897
 10
-39.8801250641
 20
34.7499978912
  0
LINE
  5
446
100
AcDbEntity
  8
Z030100_COP
100
AcDbLine
 62
7
  6
CONTINUOUS
 10
-39.7015552706
 20
-11.35
 30
0.0
 11
-39.7015552706
 21
-4.75
 31
0.0
  0
LINE
  5
447
100
AcDbEntity
  8
Z030100_COP
100
AcDbLine
 62
7
  6
CONTINUOUS
 10
-41.1849623027
 20
-5.8413036354
 30
0.0
 11
-40.9265552706
 21
-4.45
 31
0.0
  0
LINE
  5
448
100
AcDbEntity
  8
Z030100_COP
100
AcDbLine
 62
7
  6
CONTINUOUS
 10
-38.6765552706
 20
-4.45
 30
0.0
 11
-38.4181482386
 21
-5.8413036354
 31
0.0
  0
LINE
  5
449
100
AcDbEntity
  8
Z030100_COP
100
AcDbLine
 62
250
  6
CONTINUOUS
 10
-39.4015552706
 20
-11.65
 30
0.0
 11
-39.4015552706
 21
-4.45
 31
0.0
  0
LINE
  5
44A
100
AcDbEntity
  8
0
100
AcDbLine
 62
7
  6
CONTINUOUS
 10
-38.3515552706
 20
-6.0125086705
 30
0.0
 11
-38.3515552706
 21
-4.45
 31
0.0
  0
LINE
  5
44B
100
AcDbEntity
  8
SMUSSO
100
AcDbLine
 62
7
  6
CONTINUOUS
 10
-38.1415552706
 20
-4.45
 30
0.0
 11
-38.1415552706
 21
-6.2010615646
 31
0.0
  0
LINE
  5
44C
100
AcDbEntity
  8
SMUSSO
100
AcDbLine
 62
7
  6
CONTINUOUS
 10
-38.0715552706
 20
-4.45
 30
0.0
 11
-38.0715552706
 21
-6.2284701534
 31
0.0
  0
LINE
  5
44D
100
AcDbEntity
  8
0
100
AcDbLine
 62
7
  6
CONTINUOUS
 10
-37.6515552706
 20
-6.1670400881
 30
0.0
 11
-37.6515552706
 21
-4.45
 31
0.0
  0
LINE
  5
44E
100
AcDbEntity
  8
RACCORDO
100
AcDbLine
 62
7
  6
CONTINUOUS
 10
-37.3015552706
 20
10.1
 30
0.0
 11
-37.3015552706
 21
9.85
 31
0.0
  0
LINE
  5
44F
100
AcDbEntity
  8
0
100
AcDbLine
 62
7
  6
CONTINUOUS
 10
-37.3015552706
 20
8.05
 30
0.0
 11
-37.3015552706
 21
9.85
 31
0.0
  0
LINE
  5
450
100
AcDbEntity
  8
Z030100_COP
100
AcDbLine
 62
7
  6
CONTINUOUS
 10
-37.4349623027
 20
-5.8413036354
 30
0.0
 11
-37.1765552706
 21
-4.45
 31
0.0
  0
LINE
  5
451
100
AcDbEntity
  8
RACCORDO
100
AcDbLine
 62
7
  6
CONTINUOUS
 10
-51.1015552706
 20
-11.409558328
 30
0.0
 11
-49.7015552706
 21
-10.9
 31
0.0
  0
LINE
  5
452
100
AcDbEntity
  8
RACCORDO
100
AcDbLine
 62
250
  6
CONTINUOUS
 10
-51.1015552706
 20
-10.9521879677
 30
0.0
 11
-50.7514515216
 21
-10.8280024353
 31
0.0
  0
LINE
  5
453
100
AcDbEntity
  8
RACCORDO
100
AcDbLine
 62
7
  6
CONTINUOUS
 10
-49.0015552706
 20
7.2872686779
 30
0.0
 11
-51.1015552706
 21
7.2689422555
 31
0.0
  0
LINE
  5
454
100
AcDbEntity
  8
RACCORDO
100
AcDbLine
 62
250
  6
CONTINUOUS
 10
-49.0015552706
 20
7.3869740093
 30
0.0
 11
-51.1015552706
 21
7.3686475869
 31
0.0
  0
LINE
  5
455
100
AcDbEntity
  8
0
100
AcDbLine
 62
7
  6
CONTINUOUS
 10
-48.6015552706
 20
6.55
 30
0.0
 11
-49.0015552706
 21
6.55
 31
0.0
  0
LINE
  5
456
100
AcDbEntity
  8
0
100
AcDbLine
 62
7
  6
CONTINUOUS
 10
-47.6015552706
 20
6.65
 30
0.0
 11
-32.0015552706
 21
6.65
 31
0.0
  0
LINE
  5
457
100
AcDbEntity
  8
0
100
AcDbLine
 62
7
  6
CONTINUOUS
 10
-49.0015552706
 20
8.05
 30
0.0
 11
-32.0015552706
 21
8.05
 31
0.0
  0
LINE
  5
458
100
AcDbEntity
  8
RACCORDO
100
AcDbLine
 62
250
  6
CONTINUOUS
 10
-51.1015552706
 20
8.0313524131
 30
0.0
 11
-49.0018779134
 21
8.0130288064
 31
0.0
  0
LINE
  5
459
100
AcDbEntity
  8
RACCORDO
100
AcDbLine
 62
7
  6
CONTINUOUS
 10
-51.1015552706
 20
8.1310577445
 30
0.0
 11
-48.8006826171
 21
8.110978333
 31
0.0
  0
LINE
  5
45A
100
AcDbEntity
  8
Z030100_COP
100
AcDbLine
 62
7
  6
CONTINUOUS
 10
-34.8265552706
 20
-4.45
 30
0.0
 11
-34.5681482386
 21
-5.8413036354
 31
0.0
  0
LINE
  5
45B
100
AcDbEntity
  8
0
100
AcDbLine
 62
7
  6
CONTINUOUS
 10
-34.7515552706
 20
-4.8538116604
 30
0.0
 11
-34.7515552706
 21
-4.45
 31
0.0
  0
LINE
  5
45C
100
AcDbEntity
  8
SMUSSO
100
AcDbLine
 62
7
  6
CONTINUOUS
 10
-34.5415552706
 20
-4.45
 30
0.0
 11
-34.5415552706
 21
-5.9328107456
 31
0.0
  0
LINE
  5
45D
100
AcDbEntity
  8
SMUSSO
100
AcDbLine
 62
7
  6
CONTINUOUS
 10
-34.4715552706
 20
-4.45
 30
0.0
 11
-34.4715552706
 21
-6.0558816641
 31
0.0
  0
LINE
  5
45E
100
AcDbEntity
  8
0
100
AcDbLine
 62
7
  6
CONTINUOUS
 10
-34.0515552706
 20
-6.2491921419
 30
0.0
 11
-34.0515552706
 21
-4.45
 31
0.0
  0
LINE
  5
45F
100
AcDbEntity
  8
RACCORDO
100
AcDbLine
 62
7
  6
CONTINUOUS
 10
-50.6959104041
 20
8.1275177353
 30
0.0
 11
-43.1253612335
 21
10.0475625038
 31
0.0
  0
LINE
  5
460
100
AcDbEntity
  8
0
100
AcDbLine
 62
7
  6
CONTINUOUS
 10
-37.3015552706
 20
9.85
 30
0.0
 11
-30.5015552706
 21
9.85
 31
0.0
  0
LINE
  5
461
100
AcDbEntity
  8
0
100
AcDbLine
 62
250
  6
CONTINUOUS
 10
-60.0201135855
 20
9.4905
 30
0.0
 11
-60.511297124
 21
9.5
 31
0.0
  0
LINE
  5
462
100
AcDbEntity
  8
Z030100_COP
100
AcDbLine
 62
250
  6
CONTINUOUS
 10
-32.6015552706
 20
-11.65
 30
0.0
 11
-32.6015552706
 21
-4.45
 31
0.0
  0
LINE
  5
463
100
AcDbEntity
  8
Z030100_COP
100
AcDbLine
 62
7
  6
CONTINUOUS
 10
-32.3015552706
 20
-11.35
 30
0.0
 11
-32.3015552706
 21
-4.75
 31
0.0
  0
LINE
  5
464
100
AcDbEntity
  8
0
100
AcDbLine
 62
7
  6
CONTINUOUS
 10
-32.2015552706
 20
-9.95
 30
0.0
 11
-32.2015552706
 21
6.65
 31
0.0
  0
LINE
  5
465
100
AcDbEntity
  8
0
100
AcDbLine
 62
7
  6
CONTINUOUS
 10
-32.0015552706
 20
6.65
 30
0.0
 11
-32.0015552706
 21
-0.65
 31
0.0
  0
LINE
  5
466
100
AcDbEntity
  8
0
100
AcDbLine
 62
7
  6
CONTINUOUS
 10
-32.0015552706
 20
8.05
 30
0.0
 11
-32.0015552706
 21
9.85
 31
0.0
  0
LINE
  5
467
100
AcDbEntity
  8
Z030100_COP
100
AcDbLine
 62
7
  6
CONTINUOUS
 10
-33.5849623027
 20
-5.8413036354
 30
0.0
 11
-33.3265552706
 21
-4.45
 31
0.0
  0
LINE
  5
468
100
AcDbEntity
  8
RACCORDO
100
AcDbLine
 62
7
  6
CONTINUOUS
 10
-43.6157504237
 20
10.45
 30
0.0
 11
-51.1015552706
 21
10.45
 31
0.0
  0
LINE
  5
469
100
AcDbEntity
  8
RACCORDO
100
AcDbLine
 62
7
  6
CONTINUOUS
 10
-31.5015552706
 20
10.9
 30
0.0
 11
-36.5015552706
 21
10.9
 31
0.0
  0
LINE
  5
46A
100
AcDbEntity
  8
RACCORDO
100
AcDbLine
 62
7
  6
CONTINUOUS
 10
-49.9258193394
 20
11.2
 30
0.0
 11
-50.4015552706
 21
11.2
 31
0.0
  0
LINE
  5
46B
100
AcDbEntity
  8
RACCORDO
100
AcDbLine
 62
7
  6
CONTINUOUS
 10
-48.7015552706
 20
11.5
 30
0.0
 11
-51.1015552706
 21
11.5
 31
0.0
  0
LINE
  5
46C
100
AcDbEntity
  8
RACCORDO
100
AcDbLine
 62
7
  6
CONTINUOUS
 10
-48.7015552706
 20
11.65
 30
0.0
 11
-41.6745485033
 21
11.65
 31
0.0
  0
LINE
  5
46D
100
AcDbEntity
  8
0
100
AcDbLine
 62
7
  6
CONTINUOUS
 10
-30.5015552706
 20
9.85
 30
0.0
 11
-30.5015552706
 21
-0.65
 31
0.0
  0
LINE
  5
46E
100
AcDbEntity
  8
RACCORDO
100
AcDbLine
 62
7
  6
CONTINUOUS
 10
-30.5015552706
 20
9.9
 30
0.0
 11
-30.5015552706
 21
9.85
 31
0.0
  0
LINE
  5
46F
100
AcDbEntity
  8
RACCORDO
100
AcDbLine
 62
250
  6
CONTINUOUS
 10
-51.1015552706
 20
12.3313524131
 30
0.0
 11
-48.7015552705
 21
12.3109821407
 31
0.0
  0
LINE
  5
470
100
AcDbEntity
  8
RACCORDO
100
AcDbLine
 62
7
  6
CONTINUOUS
 10
-51.1015552706
 20
12.4310577445
 30
0.0
 11
-48.8006826171
 21
12.410978333
 31
0.0
  0
LINE
  5
471
100
AcDbEntity
  8
RACCORDO
100
AcDbLine
 62
250
  6
CONTINUOUS
 10
-51.1015552706
 20
13.4310767829
 30
0.0
 11
-48.7015552706
 21
13.4101323002
 31
0.0
  0
LINE
  5
472
100
AcDbEntity
  8
RACCORDO
100
AcDbLine
 62
7
  6
CONTINUOUS
 10
-51.1015552706
 20
13.9310577445
 30
0.0
 11
-48.7015552706
 21
13.9101132618
 31
0.0
  0
LINE
  5
473
100
AcDbEntity
  8
0
100
AcDbLine
 62
7
  6
CONTINUOUS
 10
-51.1015552706
 20
-21.0226497308
 30
0.0
 11
-52.1015552706
 21
-21.6
 31
0.0
  0
LINE
  5
474
100
AcDbEntity
  8
0
100
AcDbLine
 62
7
  6
CONTINUOUS
 10
-53.6015552706
 20
-23.1226497308
 30
0.0
 11
-54.4765552706
 21
-23.6278312164
 31
0.0
  0
LINE
  5
475
100
AcDbEntity
  8
0
100
AcDbLine
 62
250
  6
CONTINUOUS
 10
-53.3530097035
 20
-23.2669872981
 30
0.0
 11
-54.3530097035
 21
-23.8443375673
 31
0.0
  0
LINE
  5
476
100
AcDbEntity
  8
0
100
AcDbLine
 62
7
  6
CONTINUOUS
 10
-51.1015552706
 20
21.0226497308
 30
0.0
 11
-52.1015552706
 21
21.6
 31
0.0
  0
LINE
  5
477
100
AcDbEntity
  8
0
100
AcDbLine
 62
7
  6
CONTINUOUS
 10
-54.4765552706
 20
23.6278312164
 30
0.0
 11
-53.6015552706
 21
23.1226497308
 31
0.0
  0
LINE
  5
478
100
AcDbEntity
  8
0
100
AcDbLine
 62
250
  6
CONTINUOUS
 10
-54.3530097035
 20
23.8443375673
 30
0.0
 11
-53.3530097035
 21
23.2669872981
 31
0.0
  0
LINE
  5
479
100
AcDbEntity
  8
0
100
AcDbLine
 62
7
  6
CONTINUOUS
 10
-26.8015552706
 20
-0.65
 30
0.0
 11
-26.8015552706
 21
1.75
 31
0.0
  0
LINE
  5
47A
100
AcDbEntity
  8
RACCORDO
100
AcDbLine
 62
7
  6
CONTINUOUS
 10
-51.1015552706
 20
17.2860370115
 30
0.0
 11
-49.9971920029
 21
17.2956746438
 31
0.0
  0
LINE
  5
47B
100
AcDbEntity
  8
RACCORDO
100
AcDbLine
 62
250
  6
CONTINUOUS
 10
-51.1015552706
 20
17.5860255885
 30
0.0
 11
-49.9971920029
 21
17.5956632207
 31
0.0
  0
LINE
  5
47C
100
AcDbEntity
  8
RACCORDO
100
AcDbLine
 62
250
  6
CONTINUOUS
 10
-49.79893731
 20
17.7956556053
 30
0.0
 11
-49.5015552706
 21
17.7956556053
 31
0.0
  0
LINE
  5
47D
100
AcDbEntity
  8
RACCORDO
100
AcDbLine
 62
7
  6
CONTINUOUS
 10
-51.1015552706
 20
17.7604032122
 30
0.0
 11
-40.1015552706
 21
19.7
 31
0.0
  0
LINE
  5
47E
100
AcDbEntity
  8
RACCORDO
100
AcDbLine
 62
250
  6
CONTINUOUS
 10
-40.1015552706
 20
20.0082381709
 30
0.0
 11
-51.1015552706
 21
18.1659738104
 31
0.0
  0
LINE
  5
47F
100
AcDbEntity
  8
DRAFT
100
AcDbLine
 62
7
  6
CONTINUOUS
 10
-40.5928290674
 20
21.4537354271
 30
0.0
 11
-51.1015552706
 21
21.4
 31
0.0
  0
LINE
  5
480
100
AcDbEntity
  8
0
100
AcDbLine
 62
7
  6
CONTINUOUS
 10
-40.1015552706
 20
20.9
 30
0.0
 11
-51.1015552706
 21
20.9
 31
0.0
  0
LINE
  5
481
100
AcDbEntity
  8
0
100
AcDbLine
 62
250
  6
CONTINUOUS
 10
-51.1015552706
 20
21.8941990932
 30
0.0
 11
-52.1015552706
 21
21.900016923
 31
0.0
  0
LWPOLYLINE
  5
482
100
AcDbEntity
  8
0
100
AcDbPolyline
 62
7
  6
CONTINUOUS
 90
10
 70
0
 43
0.3500000087
 10
-42.9515554169
 20
43.7499981537
 10
-42.8801279938
 20
43.6071433075
 10
-42.8801279938
 20
43.5357158844
 10
-43.02298284
 20
43.3928567749
 10
-43.0944145264
 20
43.3928567749
 10
-43.1658419495
 20
43.464284198
 10
-43.1658419495
 20
43.5357158844
 10
-43.0944145264
 20
43.6785707306
 10
-43.02298284
 20
43.7499981537
 10
-42.9515554169
 20
43.7499981537
  0
LWPOLYLINE
  5
483
100
AcDbEntity
  8
0
100
AcDbPolyline
 62
7
  6
CONTINUOUS
 90
10
 70
0
 43
0.3500000087
 10
-37.8801273743
 20
33.750001178
 10
-37.8086999512
 20
33.6071420685
 10
-37.8086999512
 20
33.5357146454
 10
-37.9515547974
 20
33.3928555359
 10
-38.0229822205
 20
33.3928555359
 10
-38.0944139069
 20
33.4642872223
 10
-38.0944139069
 20
33.5357146454
 10
-38.0229822205
 20
33.6785694916
 10
-37.9515547974
 20
33.750001178
 10
-37.8801273743
 20
33.750001178
  0
LINE
  5
484
100
AcDbEntity
  8
RACCORDO
100
AcDbLine
 62
250
  6
CONTINUOUS
 10
-53.6015552706
 20
22.5111812444
 30
0.0
 11
-53.3530097035
 21
22.5346275426
 31
0.0
  0
LINE
  5
485
100
AcDbEntity
  8
0
100
AcDbLine
 62
250
  6
CONTINUOUS
 10
-52.1015324272
 20
21.8997723451
 30
0.0
 11
-58.5673505648
 21
21.5609131753
 31
0.0
  0
LINE
  5
486
100
AcDbEntity
  8
0
100
AcDbLine
 62
7
  6
CONTINUOUS
 10
-52.1015552706
 20
22.4
 30
0.0
 11
-58.5847923397
 21
22.0602279426
 31
0.0
  0
LINE
  5
487
100
AcDbEntity
  8
RACCORDO
100
AcDbLine
 62
250
  6
CONTINUOUS
 10
-53.3530097035
 20
22.5346275426
 30
0.0
 11
-52.1015552706
 21
22.6002134903
 31
0.0
  0
LINE
  5
488
100
AcDbEntity
  8
0
100
AcDbLine
 62
250
  6
CONTINUOUS
 10
-54.6015552706
 20
23.8443375673
 30
0.0
 11
-54.3530097035
 21
23.8443375673
 31
0.0
  0
LINE
  5
489
100
AcDbEntity
  8
0
100
AcDbLine
 62
250
  6
CONTINUOUS
 10
-51.1015552706
 20
23.8443375673
 30
0.0
 11
-51.3501008378
 21
23.8443375673
 31
0.0
  0
LINE
  5
48A
100
AcDbEntity
  8
DRAFT
100
AcDbLine
 62
7
  6
CONTINUOUS
 10
-41.0957375393
 20
22.3359700255
 30
0.0
 11
-51.1015552706
 21
22.3941821702
 31
0.0
  0
LINE
  5
48B
100
AcDbEntity
  8
0
100
AcDbLine
 62
7
  6
CONTINUOUS
 10
-51.1015552706
 20
22.3941821702
 30
0.0
 11
-52.1015552706
 21
22.4
 31
0.0
  0
LINE
  5
48C
100
AcDbEntity
  8
0
100
AcDbLine
 62
7
  6
CONTINUOUS
 10
-51.1015552706
 20
23.9941821702
 30
0.0
 11
-44.598646405
 21
23.9563493531
 31
0.0
  0
LINE
  5
48D
100
AcDbEntity
  8
0
100
AcDbLine
 62
250
  6
CONTINUOUS
 10
-54.3530097035
 20
24.2369056521
 30
0.0
 11
-52.1015552706
 21
24.2500042308
 31
0.0
  0
LINE
  5
48E
100
AcDbEntity
  8
0
100
AcDbLine
 62
7
  6
CONTINUOUS
 10
-54.3530097035
 20
24.4869014213
 30
0.0
 11
-52.1015552706
 21
24.5
 31
0.0
  0
LINE
  5
48F
100
AcDbEntity
  8
0
100
AcDbLine
 62
250
  6
CONTINUOUS
 10
-54.6015552706
 20
24.2369056521
 30
0.0
 11
-54.3530097035
 21
24.2369056521
 31
0.0
  0
LINE
  5
490
100
AcDbEntity
  8
0
100
AcDbLine
 62
250
  6
CONTINUOUS
 10
-51.1015552706
 20
24.2456323968
 30
0.0
 11
-51.3501008378
 21
24.2456323968
 31
0.0
  0
LINE
  5
491
100
AcDbEntity
  8
0
100
AcDbLine
 62
250
  6
CONTINUOUS
 10
-52.1015552706
 20
24.2500042308
 30
0.0
 11
-51.3501008378
 21
24.2456323968
 31
0.0
  0
LINE
  5
492
100
AcDbEntity
  8
0
100
AcDbLine
 62
7
  6
CONTINUOUS
 10
-52.1015552706
 20
24.5
 30
0.0
 11
-51.3501008378
 21
24.495628166
 31
0.0
  0
LWPOLYLINE
  5
493
100
AcDbEntity
  8
0
100
AcDbPolyline
 62
7
  6
CONTINUOUS
 90
6
 70
0
 43
0.3500000087
 10
-36.8086989746
 20
33.2500006897
 10
-35.737270575
 20
33.2500006897
 10
-35.5229840424
 20
33.4642872223
 10
-35.5229840424
 20
34.5357156219
 10
-35.9515571075
 20
34.9642844238
 10
-36.3801259094
 20
34.9642844238
  0
LWPOLYLINE
  5
494
100
AcDbEntity
  8
0
100
AcDbPolyline
 62
7
  6
CONTINUOUS
 90
7
 70
0
 43
0.3500000087
 10
-41.7372679077
 20
33.2500006897
 10
-43.2372693726
 20
33.2500006897
 10
-41.7372679077
 20
35.392857489
 10
-41.7372679077
 20
35.8214305542
 10
-42.1658409729
 20
36.2499993561
 10
-42.8086963074
 20
36.2499993561
 10
-43.2372693726
 20
35.6071440216
  0
LWPOLYLINE
  5
495
100
AcDbEntity
  8
0
100
AcDbPolyline
 62
7
  6
CONTINUOUS
 90
3
 70
0
 43
0.3500000087
 10
-39.3801245758
 20
33.8928560242
 10
-40.8801260406
 20
33.8928560242
 10
-40.2372707062
 20
36.2499993561
  0
LWPOLYLINE
  5
496
100
AcDbEntity
  8
0
100
AcDbPolyline
 62
7
  6
CONTINUOUS
 90
6
 70
0
 43
0.3500000087
 10
-47.8801286133
 20
43.2500019287
 10
-46.8087002136
 20
43.2500019287
 10
-46.594413681
 20
43.464284198
 10
-46.594413681
 20
44.5357125977
 10
-47.0229824829
 20
44.9642856628
 10
-47.4515555481
 20
44.9642856628
  0
LWPOLYLINE
  5
497
100
AcDbEntity
  8
0
100
AcDbPolyline
 62
7
  6
CONTINUOUS
 90
6
 70
0
 43
0.3500000087
 10
-45.7372675507
 20
43.2500019287
 10
-44.665839151
 20
43.2500019287
 10
-44.4515568817
 20
43.464284198
 10
-44.4515568817
 20
44.5357125977
 10
-44.8801256836
 20
44.9642856628
 10
-45.3086987488
 20
44.9642856628
  0
LWPOLYLINE
  5
498
100
AcDbEntity
  8
0
100
AcDbPolyline
 62
7
  6
CONTINUOUS
 90
13
 70
0
 43
0.3500000087
 10
-41.451553952
 20
44.9642856628
 10
-41.7372679077
 20
45.1785721954
 10
-41.7372679077
 20
45.8214275299
 10
-41.451553952
 20
46.2500005951
 10
-40.8086986176
 20
46.2500005951
 10
-40.5229846619
 20
45.8214275299
 10
-40.5229846619
 20
45.1785721954
 10
-40.8086986176
 20
44.9642856628
 10
-40.3801255524
 20
44.5357125977
 10
-40.3801255524
 20
43.6785707306
 10
-40.8086986176
 20
43.2500019287
 10
-41.451553952
 20
43.2500019287
 10
-41.8801270172
 20
43.6785707306
  0
ARC
  5
499
100
AcDbEntity
  8
0
100
AcDbCircle
 62
250
  6
CONTINUOUS
 10
-5121.2219341848
 20
-7.8584746637
 30
0.0
 40
5108.7945046132
100
AcDbArc
 50
359.8502527296
 51
359.9815900845
  0
ARC
  5
49A
100
AcDbEntity
  8
0
100
AcDbCircle
 62
250
  6
CONTINUOUS
 10
-5065.1154039714
 20
-7.858094024
 30
0.0
 40
5052.1880505523
100
AcDbArc
 50
359.8494161557
 51
359.9814872341
  0
ARC
  5
49B
100
AcDbEntity
  8
0
100
AcDbCircle
 62
250
  6
CONTINUOUS
 10
-12.4528355004
 20
-21.5600453806
 30
0.0
 40
0.5001624385
100
AcDbArc
 50
180.0994054303
 51
269.9752725818
  0
ARC
  5
49C
100
AcDbEntity
  8
0
100
AcDbCircle
 62
7
  6
CONTINUOUS
 10
-5.9167088442
 20
-23.15
 30
0.0
 40
0.5
100
AcDbArc
 50
154.1580672368
 51
205.8419327632
  0
ARC
  5
49D
100
AcDbEntity
  8
0
100
AcDbCircle
 62
7
  6
CONTINUOUS
 10
-12.5659818539
 20
-21.9001879719
 30
0.0
 40
0.4998306865
100
AcDbArc
 50
179.9522215796
 51
269.9730795759
  0
ARC
  5
49E
100
AcDbEntity
  8
0
100
AcDbCircle
 62
7
  6
CONTINUOUS
 10
-11.8166863375
 20
-24.2496231241
 30
0.0
 40
0.2503768773
100
AcDbArc
 50
261.8245330495
 51
269.9938814446
  0
ARC
  5
49F
100
AcDbEntity
  8
0
100
AcDbCircle
 62
7
  6
CONTINUOUS
 10
-9.41708572
 20
-24.2499774933
 30
0.0
 40
0.2503768773
100
AcDbArc
 50
351.8245330495
 51
359.9938814446
  0
ARC
  5
4A0
100
AcDbEntity
  8
0
100
AcDbCircle
 62
250
  6
CONTINUOUS
 10
-11.8035866365
 20
-24.2366167132
 30
0.0
 40
0.2502847096
100
AcDbArc
 50
263.8274154081
 51
269.9936222729
  0
ARC
  5
4A1
100
AcDbEntity
  8
0
100
AcDbCircle
 62
7
  6
CONTINUOUS
 10
-9.4298140404
 20
-24.2368948038
 30
0.0
 40
0.2500066177
100
AcDbArc
 50
270.0024861811
 51
359.9975138189
  0
ARC
  5
4A2
100
AcDbEntity
  8
0
100
AcDbCircle
 62
7
  6
CONTINUOUS
 10
-11.8036201527
 20
-24.2369606028
 30
0.0
 40
0.2499392099
100
AcDbArc
 50
259.1004972862
 51
263.8274154081
  0
ARC
  5
4A3
100
AcDbEntity
  8
0
100
AcDbCircle
 62
7
  6
CONTINUOUS
 10
-3.1167105365
 20
-23.7999983076
 30
0.0
 40
0.2000016924
100
AcDbArc
 50
270.0004848234
 51
0.0004848094
  0
ARC
  5
4A4
100
AcDbEntity
  8
0
100
AcDbCircle
 62
7
  6
CONTINUOUS
 10
-3.1167076597
 20
-23.7982490662
 30
0.0
 40
0.1999988155
100
AcDbArc
 50
269.9996606734
 51
359.9993696938
  0
ARC
  5
4A5
100
AcDbEntity
  8
RACCORDO
100
AcDbCircle
 62
250
  6
CONTINUOUS
 10
-8.97406463
 20
-22.5348454808
 30
0.0
 40
0.1999348843
100
AcDbArc
 50
89.9794673708
 51
179.9375419075
  0
ARC
  5
4A6
100
AcDbEntity
  8
RACCORDO
100
AcDbCircle
 62
250
  6
CONTINUOUS
 10
-12.2593530573
 20
-22.5348454818
 30
0.0
 40
0.1999348842
100
AcDbArc
 50
0.0624583903
 51
90.0205329285
  0
ARC
  5
4A7
100
AcDbEntity
  8
0
100
AcDbCircle
 62
250
  6
CONTINUOUS
 10
-5149.5437092981
 20
7.8169138937
 30
0.0
 40
5137.1162917211
100
AcDbArc
 50
0.0187719582
 51
0.1493852277
  0
ARC
  5
4A8
100
AcDbEntity
  8
0
100
AcDbCircle
 62
250
  6
CONTINUOUS
 10
-5093.1232733095
 20
7.8167642853
 30
0.0
 40
5080.195931885
100
AcDbArc
 50
0.0188768298
 51
0.1502197803
  0
ARC
  5
4A9
100
AcDbEntity
  8
RACCORDO
100
AcDbCircle
 62
250
  6
CONTINUOUS
 10
-61.5353103946
 20
21.102262215
 30
0.0
 40
50.2721162195
100
AcDbArc
 50
0.1236079735
 51
0.6760049572
  0
ARC
  5
4AA
100
AcDbEntity
  8
RACCORDO
100
AcDbCircle
 62
250
  6
CONTINUOUS
 10
-51.9903762788
 20
21.0986016298
 30
0.0
 40
40.6271966297
100
AcDbArc
 50
0.1370850571
 51
0.7552142577
  0
ARC
  5
4AB
100
AcDbEntity
  8
RACCORDO
100
AcDbCircle
 62
250
  6
CONTINUOUS
 10
-10.8513656955
 20
16.010394628
 30
0.0
 40
0.502896078
100
AcDbArc
 50
254.2964278257
 51
269.9607314828
  0
ARC
  5
4AC
100
AcDbEntity
  8
RACCORDO
100
AcDbCircle
 62
250
  6
CONTINUOUS
 10
-10.9338203396
 20
15.9940145214
 30
0.0
 40
0.5028629676
100
AcDbArc
 50
250.133698736
 51
269.933224944
  0
ARC
  5
4AD
100
AcDbEntity
  8
RACCORDO
100
AcDbCircle
 62
7
  6
CONTINUOUS
 10
-10.8646154438
 20
16.0002927986
 30
0.0
 40
0.5020935223
100
AcDbArc
 50
180.0399297607
 51
191.9889218639
  0
ARC
  5
4AE
100
AcDbEntity
  8
RACCORDO
100
AcDbCircle
 62
250
  6
CONTINUOUS
 10
-10.85151695
 20
16.0086850597
 30
0.0
 40
0.5012094813
100
AcDbArc
 50
252.6351191364
 51
254.2601781112
  0
ARC
  5
4AF
100
AcDbEntity
  8
RACCORDO
100
AcDbCircle
 62
7
  6
CONTINUOUS
 10
-10.8518533845
 20
16.008031041
 30
0.0
 40
0.5004773174
100
AcDbArc
 50
180.102365745
 51
252.6495328411
  0
ARC
  5
4B0
100
AcDbEntity
  8
0
100
AcDbCircle
 62
250
  6
CONTINUOUS
 10
-12.4528356267
 20
21.5600454808
 30
0.0
 40
0.5001623376
100
AcDbArc
 50
90.0247129601
 51
179.9005973922
  0
ARC
  5
4B1
100
AcDbEntity
  8
0
100
AcDbCircle
 62
7
  6
CONTINUOUS
 10
-5.9167088442
 20
23.15
 30
0.0
 40
0.5
100
AcDbArc
 50
154.1580672368
 51
205.8419327632
  0
ARC
  5
4B2
100
AcDbEntity
  8
0
100
AcDbCircle
 62
7
  6
CONTINUOUS
 10
-12.5659818512
 20
21.9001879742
 30
0.0
 40
0.4998306865
100
AcDbArc
 50
90.026920736
 51
180.0477786903
  0
ARC
  5
4B3
100
AcDbEntity
  8
RACCORDO
100
AcDbCircle
 62
7
  6
CONTINUOUS
 10
-10.8668838886
 20
15.9998303776
 30
0.0
 40
0.4997785024
100
AcDbArc
 50
191.9910854573
 51
240.0096516047
  0
ARC
  5
4B4
100
AcDbEntity
  8
RACCORDO
100
AcDbCircle
 62
7
  6
CONTINUOUS
 10
-10.8665975223
 20
15.9983053385
 30
0.0
 40
0.4983053509
100
AcDbArc
 50
263.9672915864
 51
269.98720041
  0
ARC
  5
4B5
100
AcDbEntity
  8
RACCORDO
100
AcDbCircle
 62
250
  6
CONTINUOUS
 10
-10.8515480145
 20
16.016970642
 30
0.0
 40
0.4007849139
100
AcDbArc
 50
180.0991323701
 51
269.9767905787
  0
ARC
  5
4B6
100
AcDbEntity
  8
RACCORDO
100
AcDbCircle
 62
7
  6
CONTINUOUS
 10
-11.0665838848
 20
15.8474843369
 30
0.0
 40
0.3031505766
100
AcDbArc
 50
256.0593472575
 51
268.8509375599
  0
ARC
  5
4B7
100
AcDbEntity
  8
RACCORDO
100
AcDbCircle
 62
7
  6
CONTINUOUS
 10
-11.0696176734
 20
15.8423029857
 30
0.0
 40
0.2970912404
100
AcDbArc
 50
180.0392236285
 51
195.8078026029
  0
ARC
  5
4B8
100
AcDbEntity
  8
RACCORDO
100
AcDbCircle
 62
7
  6
CONTINUOUS
 10
-11.0712970195
 20
15.8055624332
 30
0.0
 40
0.2954118256
100
AcDbArc
 50
180.0045838015
 51
184.6666466962
  0
ARC
  5
4B9
100
AcDbEntity
  8
0
100
AcDbCircle
 62
7
  6
CONTINUOUS
 10
-11.8163319683
 20
24.2499774933
 30
0.0
 40
0.2503768773
100
AcDbArc
 50
171.8245330495
 51
179.9938814446
  0
ARC
  5
4BA
100
AcDbEntity
  8
0
100
AcDbCircle
 62
7
  6
CONTINUOUS
 10
-9.4167313509
 20
24.2496231241
 30
0.0
 40
0.2503768773
100
AcDbArc
 50
81.8245330494
 51
89.9938814447
  0
ARC
  5
4BB
100
AcDbEntity
  8
0
100
AcDbCircle
 62
250
  6
CONTINUOUS
 10
-11.8035866365
 20
24.2366167132
 30
0.0
 40
0.2502847096
100
AcDbArc
 50
90.0063777272
 51
96.171748034
  0
ARC
  5
4BC
100
AcDbEntity
  8
0
100
AcDbCircle
 62
250
  6
CONTINUOUS
 10
-9.4298310519
 20
24.2366167132
 30
0.0
 40
0.2502847096
100
AcDbArc
 50
83.827415408
 51
89.9936222728
  0
ARC
  5
4BD
100
AcDbEntity
  8
0
100
AcDbCircle
 62
7
  6
CONTINUOUS
 10
-9.4297975356
 20
24.2369606028
 30
0.0
 40
0.2499392099
100
AcDbArc
 50
79.1004972862
 51
83.827415408
  0
ARC
  5
4BE
100
AcDbEntity
  8
RACCORDO
100
AcDbCircle
 62
250
  6
CONTINUOUS
 10
-11.6093680538
 20
21.8601551784
 30
0.0
 40
0.2000647089
100
AcDbArc
 50
0.0993395694
 51
89.9753507045
  0
ARC
  5
4BF
100
AcDbEntity
  8
0
100
AcDbCircle
 62
7
  6
CONTINUOUS
 10
-3.1167105365
 20
23.7999983076
 30
0.0
 40
0.2000016924
100
AcDbArc
 50
359.9995151906
 51
89.9995151766
  0
ARC
  5
4C0
100
AcDbEntity
  8
0
100
AcDbCircle
 62
250
  6
CONTINUOUS
 10
-3.1167076593
 20
23.7982490666
 30
0.0
 40
0.1999988151
100
AcDbArc
 50
0.0006301927
 51
90.0003394401
  0
ARC
  5
4C1
100
AcDbEntity
  8
RACCORDO
100
AcDbCircle
 62
250
  6
CONTINUOUS
 10
-12.2593531091
 20
22.534845534
 30
0.0
 40
0.1999348843
100
AcDbArc
 50
269.9794819183
 51
359.937526673
  0
ARC
  5
4C2
100
AcDbEntity
  8
RACCORDO
100
AcDbCircle
 62
250
  6
CONTINUOUS
 10
-8.9740645779
 20
22.5348455326
 30
0.0
 40
0.1999348842
100
AcDbArc
 50
180.0624729367
 51
270.0205177
  0
ARC
  5
4C3
100
AcDbEntity
  8
RACCORDO
100
AcDbCircle
 62
250
  6
CONTINUOUS
 10
-11.255347177
 20
21.9612713352
 30
0.0
 40
0.098956609
100
AcDbArc
 50
90.0099256363
 51
100.1171939914
  0
ARC
  5
4C4
100
AcDbEntity
  8
0
100
AcDbCircle
 62
250
  6
CONTINUOUS
 10
5145.7103391868
 20
-7.8169138239
 30
0.0
 40
5137.1163392982
100
AcDbArc
 50
180.0187719588
 51
180.1493852271
  0
ARC
  5
4C5
100
AcDbEntity
  8
0
100
AcDbCircle
 62
250
  6
CONTINUOUS
 10
5089.2899022142
 20
-7.8167642165
 30
0.0
 40
5080.195978478
100
AcDbArc
 50
180.0188768305
 51
180.1502197797
  0
ARC
  5
4C6
100
AcDbEntity
  8
0
100
AcDbCircle
 62
250
  6
CONTINUOUS
 10
8.6194080811
 20
-21.5600376364
 30
0.0
 40
0.500170229
100
AcDbArc
 50
270.0258416985
 51
359.9003775693
  0
ARC
  5
4C7
100
AcDbEntity
  8
0
100
AcDbCircle
 62
7
  6
CONTINUOUS
 10
2.0832911558
 20
-23.15
 30
0.0
 40
0.5
100
AcDbArc
 50
334.1580672368
 51
25.8419327632
  0
ARC
  5
4C8
100
AcDbEntity
  8
0
100
AcDbCircle
 62
7
  6
CONTINUOUS
 10
8.7325566852
 20
-21.9001805017
 30
0.0
 40
0.4998398177
100
AcDbArc
 50
270.0277775191
 51
0.0469214511
  0
ARC
  5
4C9
100
AcDbEntity
  8
0
100
AcDbCircle
 62
7
  6
CONTINUOUS
 10
5.5833136625
 20
-24.2496231241
 30
0.0
 40
0.2503768773
100
AcDbArc
 50
261.8245330495
 51
269.9938814446
  0
ARC
  5
4CA
100
AcDbEntity
  8
0
100
AcDbCircle
 62
7
  6
CONTINUOUS
 10
7.98291428
 20
-24.2499774933
 30
0.0
 40
0.2503768773
100
AcDbArc
 50
351.8245330495
 51
359.9938814446
  0
ARC
  5
4CB
100
AcDbEntity
  8
0
100
AcDbCircle
 62
7
  6
CONTINUOUS
 10
5.5963963521
 20
-24.2368948038
 30
0.0
 40
0.2500066177
100
AcDbArc
 50
180.0024861811
 51
269.9975138189
  0
ARC
  5
4CC
100
AcDbEntity
  8
0
100
AcDbCircle
 62
7
  6
CONTINUOUS
 10
7.9701859596
 20
-24.2368948038
 30
0.0
 40
0.2500066177
100
AcDbArc
 50
270.0024861811
 51
359.9975138189
  0
ARC
  5
4CD
100
AcDbEntity
  8
0
100
AcDbCircle
 62
7
  6
CONTINUOUS
 10
-0.7167071518
 20
-23.7999983076
 30
0.0
 40
0.2000016924
100
AcDbArc
 50
179.9995151906
 51
269.9995151766
  0
ARC
  5
4CE
100
AcDbEntity
  8
0
100
AcDbCircle
 62
250
  6
CONTINUOUS
 10
-0.716710029
 20
-23.7982490666
 30
0.0
 40
0.1999988151
100
AcDbArc
 50
180.0006301927
 51
270.0003394401
  0
ARC
  5
4CF
100
AcDbEntity
  8
RACCORDO
100
AcDbCircle
 62
250
  6
CONTINUOUS
 10
8.42593537
 20
-22.5348454808
 30
0.0
 40
0.1999348843
100
AcDbArc
 50
89.9794673708
 51
179.9375419075
  0
ARC
  5
4D0
100
AcDbEntity
  8
RACCORDO
100
AcDbCircle
 62
250
  6
CONTINUOUS
 10
5.1406469427
 20
-22.5348454818
 30
0.0
 40
0.1999348842
100
AcDbArc
 50
0.0624583903
 51
90.0205329285
  0
ARC
  5
4D1
100
AcDbEntity
  8
0
100
AcDbCircle
 62
250
  6
CONTINUOUS
 10
5117.3885633885
 20
7.8584745948
 30
0.0
 40
5108.7945515053
100
AcDbArc
 50
179.8502527302
 51
179.9815900839
  0
ARC
  5
4D2
100
AcDbEntity
  8
0
100
AcDbCircle
 62
250
  6
CONTINUOUS
 10
5061.2820328783
 20
7.8580939553
 30
0.0
 40
5052.1880971476
100
AcDbArc
 50
179.8494161563
 51
179.9814872335
  0
ARC
  5
4D3
100
AcDbEntity
  8
RACCORDO
100
AcDbCircle
 62
250
  6
CONTINUOUS
 10
51.9552056988
 20
21.1423679922
 30
0.0
 40
44.5253646838
100
AcDbArc
 50
179.2883528882
 51
179.9120470009
  0
ARC
  5
4D4
100
AcDbEntity
  8
RACCORDO
100
AcDbCircle
 62
250
  6
CONTINUOUS
 10
43.7713042713
 20
21.1333037893
 30
0.0
 40
36.2414799212
100
AcDbArc
 50
179.2074934031
 51
179.901188065
  0
ARC
  5
4D5
100
AcDbEntity
  8
RACCORDO
100
AcDbCircle
 62
250
  6
CONTINUOUS
 10
7.0178757913
 20
16.0103812494
 30
0.0
 40
0.5028950993
100
AcDbArc
 50
272.0664864385
 51
287.3310920244
  0
ARC
  5
4D6
100
AcDbEntity
  8
RACCORDO
100
AcDbCircle
 62
250
  6
CONTINUOUS
 10
7.1004026746
 20
15.9940143885
 30
0.0
 40
0.5028628346
100
AcDbArc
 50
270.0667724137
 51
289.8663039091
  0
ARC
  5
4D7
100
AcDbEntity
  8
RACCORDO
100
AcDbCircle
 62
7
  6
CONTINUOUS
 10
7.0311977555
 20
16.0002927986
 30
0.0
 40
0.5020935223
100
AcDbArc
 50
348.0110781361
 51
359.9600702393
  0
ARC
  5
4D8
100
AcDbEntity
  8
RACCORDO
100
AcDbCircle
 62
7
  6
CONTINUOUS
 10
7.018435095
 20
16.0080315918
 30
0.0
 40
0.5004778031
100
AcDbArc
 50
287.3500998331
 51
359.8975713168
  0
ARC
  5
4D9
100
AcDbEntity
  8
0
100
AcDbCircle
 62
250
  6
CONTINUOUS
 10
8.6194179412
 20
21.560045478
 30
0.0
 40
0.5001623376
100
AcDbArc
 50
0.0994029345
 51
89.975287368
  0
ARC
  5
4DA
100
AcDbEntity
  8
RACCORDO
100
AcDbCircle
 62
250
  6
CONTINUOUS
 10
7.0182746894
 20
16.0076500339
 30
0.0
 40
0.5001513661
100
AcDbArc
 50
270.0020603221
 51
272.0321018189
  0
ARC
  5
4DB
100
AcDbEntity
  8
0
100
AcDbCircle
 62
7
  6
CONTINUOUS
 10
2.0832911558
 20
23.15
 30
0.0
 40
0.5
100
AcDbArc
 50
334.1580672368
 51
25.8419327632
  0
ARC
  5
4DC
100
AcDbEntity
  8
0
100
AcDbCircle
 62
7
  6
CONTINUOUS
 10
8.7325566827
 20
21.9001805042
 30
0.0
 40
0.4998398177
100
AcDbArc
 50
359.9530782571
 51
89.9722221896
  0
ARC
  5
4DD
100
AcDbEntity
  8
RACCORDO
100
AcDbCircle
 62
7
  6
CONTINUOUS
 10
7.0334662003
 20
15.9998303776
 30
0.0
 40
0.4997785024
100
AcDbArc
 50
299.9903483953
 51
348.0089145427
  0
ARC
  5
4DE
100
AcDbEntity
  8
RACCORDO
100
AcDbCircle
 62
7
  6
CONTINUOUS
 10
7.033179834
 20
15.9983053385
 30
0.0
 40
0.4983053509
100
AcDbArc
 50
270.01279959
 51
276.0327084136
  0
ARC
  5
4DF
100
AcDbEntity
  8
RACCORDO
100
AcDbCircle
 62
250
  6
CONTINUOUS
 10
7.0181301361
 20
16.0169709241
 30
0.0
 40
0.4007851794
100
AcDbArc
 50
270.0232365744
 51
359.9008273521
  0
ARC
  5
4E0
100
AcDbEntity
  8
RACCORDO
100
AcDbCircle
 62
7
  6
CONTINUOUS
 10
7.2331661965
 20
15.8474843369
 30
0.0
 40
0.3031505766
100
AcDbArc
 50
271.1490624401
 51
283.9406527425
  0
ARC
  5
4E1
100
AcDbEntity
  8
RACCORDO
100
AcDbCircle
 62
7
  6
CONTINUOUS
 10
7.2361999851
 20
15.8423029857
 30
0.0
 40
0.2970912404
100
AcDbArc
 50
344.1921973971
 51
359.9607763715
  0
ARC
  5
4E2
100
AcDbEntity
  8
RACCORDO
100
AcDbCircle
 62
7
  6
CONTINUOUS
 10
7.2378793311
 20
15.8055624332
 30
0.0
 40
0.2954118256
100
AcDbArc
 50
355.3333533038
 51
359.9954161985
  0
ARC
  5
4E3
100
AcDbEntity
  8
0
100
AcDbCircle
 62
7
  6
CONTINUOUS
 10
7.9832686491
 20
24.2496231241
 30
0.0
 40
0.2503768773
100
AcDbArc
 50
81.8245330494
 51
89.9938814447
  0
ARC
  5
4E4
100
AcDbEntity
  8
0
100
AcDbCircle
 62
7
  6
CONTINUOUS
 10
5.5836680317
 20
24.2499774933
 30
0.0
 40
0.2503768773
100
AcDbArc
 50
171.8245330495
 51
179.9938814446
  0
ARC
  5
4E5
100
AcDbEntity
  8
0
100
AcDbCircle
 62
7
  6
CONTINUOUS
 10
7.9701859596
 20
24.2368948038
 30
0.0
 40
0.2500066177
100
AcDbArc
 50
0.0024861811
 51
89.9975138189
  0
ARC
  5
4E6
100
AcDbEntity
  8
0
100
AcDbCircle
 62
7
  6
CONTINUOUS
 10
5.5963963521
 20
24.2368948038
 30
0.0
 40
0.2500066177
100
AcDbArc
 50
90.0024861811
 51
179.9975138189
  0
ARC
  5
4E7
100
AcDbEntity
  8
RACCORDO
100
AcDbCircle
 62
250
  6
CONTINUOUS
 10
7.7759503652
 20
21.8601551792
 30
0.0
 40
0.2000647084
100
AcDbArc
 50
90.0246492206
 51
179.9006606572
  0
ARC
  5
4E8
100
AcDbEntity
  8
0
100
AcDbCircle
 62
7
  6
CONTINUOUS
 10
-0.7167071518
 20
23.7999983076
 30
0.0
 40
0.2000016924
100
AcDbArc
 50
90.0004848234
 51
180.0004848094
  0
ARC
  5
4E9
100
AcDbEntity
  8
0
100
AcDbCircle
 62
7
  6
CONTINUOUS
 10
-0.7167100286
 20
23.7982490662
 30
0.0
 40
0.1999988155
100
AcDbArc
 50
89.9996606734
 51
179.9993696938
  0
ARC
  5
4EA
100
AcDbEntity
  8
RACCORDO
100
AcDbCircle
 62
250
  6
CONTINUOUS
 10
5.1406468909
 20
22.534845534
 30
0.0
 40
0.1999348843
100
AcDbArc
 50
269.9794819183
 51
359.937526673
  0
ARC
  5
4EB
100
AcDbEntity
  8
RACCORDO
100
AcDbCircle
 62
250
  6
CONTINUOUS
 10
8.4259354221
 20
22.5348455326
 30
0.0
 40
0.1999348842
100
AcDbArc
 50
180.0624729367
 51
270.0205177
  0
ARC
  5
4EC
100
AcDbEntity
  8
RACCORDO
100
AcDbCircle
 62
250
  6
CONTINUOUS
 10
7.4219294764
 20
21.9612713768
 30
0.0
 40
0.0989565674
100
AcDbArc
 50
79.8823949931
 51
89.9900672643
  0
ARC
  5
4ED
100
AcDbEntity
  8
0
100
AcDbCircle
 62
7
  6
CONTINUOUS
 10
-58.5324563835
 20
-21.0615984079
 30
0.0
 40
1.0
100
AcDbArc
 50
188.5758796048
 51
267.0
  0
ARC
  5
4EE
100
AcDbEntity
  8
DRAFT
100
AcDbCircle
 62
7
  6
CONTINUOUS
 10
-41.1015552706
 20
-21.3359869487
 30
0.0
 40
1.0
100
AcDbArc
 50
270.3333333333
 51
360.0
  0
ARC
  5
4EF
100
AcDbEntity
  8
0
100
AcDbCircle
 62
250
  6
CONTINUOUS
 10
-58.5411825662
 20
-21.0615983961
 30
0.0
 40
0.500000022
100
AcDbArc
 50
188.5758805958
 51
266.9890450147
  0
ARC
  5
4F0
100
AcDbEntity
  8
0
100
AcDbCircle
 62
7
  6
CONTINUOUS
 10
-44.6015552706
 20
-23.4563578147
 30
0.0
 40
0.5
100
AcDbArc
 50
270.3333333333
 51
360.0
  0
ARC
  5
4F1
100
AcDbEntity
  8
0
100
AcDbCircle
 62
7
  6
CONTINUOUS
 10
-54.3515552706
 20
-24.2369056521
 30
0.0
 40
0.25
100
AcDbArc
 50
180.0
 51
269.6666666667
  0
ARC
  5
4F2
100
AcDbEntity
  8
0
100
AcDbCircle
 62
7
  6
CONTINUOUS
 10
-51.3515552706
 20
-24.2456323968
 30
0.0
 40
0.25
100
AcDbArc
 50
270.3333333333
 51
360.0
  0
ARC
  5
4F3
100
AcDbEntity
  8
0
100
AcDbCircle
 62
7
  6
CONTINUOUS
 10
-54.3515552706
 20
-23.8443375673
 30
0.0
 40
0.25
100
AcDbArc
 50
120.0
 51
180.0
  0
ARC
  5
4F4
100
AcDbEntity
  8
0
100
AcDbCircle
 62
7
  6
CONTINUOUS
 10
-51.3515552706
 20
-23.8443375673
 30
0.0
 40
0.25
100
AcDbArc
 50
0.0
 51
60.0
  0
ARC
  5
4F5
100
AcDbEntity
  8
RACCORDO
100
AcDbCircle
 62
7
  6
CONTINUOUS
 10
-53.8015552706
 20
-22.5111812444
 30
0.0
 40
0.2
100
AcDbArc
 50
0.0
 51
87.0
  0
ARC
  5
4F6
100
AcDbEntity
  8
Z030100_COP
100
AcDbCircle
 62
7
  6
CONTINUOUS
 10
-45.5265552706
 20
-5.75
 30
0.0
 40
0.5
100
AcDbArc
 50
190.5216629287
 51
349.4783370713
  0
ARC
  5
4F7
100
AcDbEntity
  8
Z030100_COP
100
AcDbCircle
 62
7
  6
CONTINUOUS
 10
-41.6765552706
 20
-5.75
 30
0.0
 40
0.5
100
AcDbArc
 50
190.5216629287
 51
349.4783370713
  0
ARC
  5
4F8
100
AcDbEntity
  8
Z030100_COP
100
AcDbCircle
 62
7
  6
CONTINUOUS
 10
-37.9265552706
 20
-5.75
 30
0.0
 40
0.5
100
AcDbArc
 50
190.5216629287
 51
349.4783370713
  0
ARC
  5
4F9
100
AcDbEntity
  8
Z030100_COP
100
AcDbCircle
 62
7
  6
CONTINUOUS
 10
-34.0765552706
 20
-5.75
 30
0.0
 40
0.5
100
AcDbArc
 50
190.5216629287
 51
349.4783370713
  0
ARC
  5
4FA
100
AcDbEntity
  8
Z030100_COP
100
AcDbCircle
 62
7
  6
CONTINUOUS
 10
-40.2015552706
 20
-11.35
 30
0.0
 40
0.3
100
AcDbArc
 50
270.0
 51
360.0
  0
ARC
  5
4FB
100
AcDbEntity
  8
Z030100_COP
100
AcDbCircle
 62
7
  6
CONTINUOUS
 10
-47.0015552706
 20
-11.35
 30
0.0
 40
0.3
100
AcDbArc
 50
180.0
 51
270.0
  0
ARC
  5
4FC
100
AcDbEntity
  8
Z030100_COP
100
AcDbCircle
 62
7
  6
CONTINUOUS
 10
-32.6015552706
 20
-11.35
 30
0.0
 40
0.3
100
AcDbArc
 50
270.0
 51
360.0
  0
ARC
  5
4FD
100
AcDbEntity
  8
Z030100_COP
100
AcDbCircle
 62
7
  6
CONTINUOUS
 10
-39.4015552706
 20
-11.35
 30
0.0
 40
0.3
100
AcDbArc
 50
180.0
 51
270.0
  0
ARC
  5
4FE
100
AcDbEntity
  8
RACCORDO
100
AcDbCircle
 62
7
  6
CONTINUOUS
 10
-49.0015552706
 20
-6.2872801014
 30
0.0
 40
0.3
100
AcDbArc
 50
0.0
 51
89.5
  0
ARC
  5
4FF
100
AcDbEntity
  8
RACCORDO
100
AcDbCircle
 62
250
  6
CONTINUOUS
 10
-49.000716497
 20
-6.2873140962
 30
0.0
 40
0.200035368
100
AcDbArc
 50
0.00973715
 51
89.4903811136
  0
ARC
  5
500
100
AcDbEntity
  8
RACCORDO
100
AcDbCircle
 62
7
  6
CONTINUOUS
 10
-48.8015555532
 20
-8.0890178568
 30
0.0
 40
0.1
100
AcDbArc
 50
359.9999985869
 51
23.0489999027
  0
ARC
  5
501
100
AcDbEntity
  8
RACCORDO
100
AcDbCircle
 62
7
  6
CONTINUOUS
 10
-48.8015552706
 20
-8.7109821407
 30
0.0
 40
0.1
100
AcDbArc
 50
270.5
 51
360.0
  0
ARC
  5
502
100
AcDbEntity
  8
RACCORDO
100
AcDbCircle
 62
7
  6
CONTINUOUS
 10
-48.801555378
 20
-0.3109821416
 30
0.0
 40
0.1
100
AcDbArc
 50
270.5000614912
 51
0.0000005366
  0
ARC
  5
503
100
AcDbEntity
  8
0
100
AcDbCircle
 62
7
  6
CONTINUOUS
 10
29.4724564095
 20
-7.79
 30
0.0
 40
90.0
100
AcDbArc
 50
181.08868532
 51
188.5758796048
  0
ARC
  5
504
100
AcDbEntity
  8
0
100
AcDbCircle
 62
250
  6
CONTINUOUS
 10
29.4636984328
 20
-7.7900026861
 30
0.0
 40
89.4999681812
100
AcDbArc
 50
181.0886839872
 51
188.5758809376
  0
ARC
  5
505
100
AcDbEntity
  8
RACCORDO
100
AcDbCircle
 62
7
  6
CONTINUOUS
 10
-31.5015552706
 20
9.9
 30
0.0
 40
1.0
100
AcDbArc
 50
0.0
 51
90.0
  0
ARC
  5
506
100
AcDbEntity
  8
RACCORDO
100
AcDbCircle
 62
7
  6
CONTINUOUS
 10
-36.5015552706
 20
10.1
 30
0.0
 40
0.8
100
AcDbArc
 50
90.0
 51
180.0
  0
ARC
  5
507
100
AcDbEntity
  8
RACCORDO
100
AcDbCircle
 62
7
  6
CONTINUOUS
 10
-43.6157504237
 20
9.95
 30
0.0
 40
0.5
100
AcDbArc
 50
0.0
 51
90.0
  0
ARC
  5
508
100
AcDbEntity
  8
RACCORDO
100
AcDbCircle
 62
7
  6
CONTINUOUS
 10
-41.6745485033
 20
11.15
 30
0.0
 40
0.5
100
AcDbArc
 50
3.1798301199
 51
90.0
  0
ARC
  5
509
100
AcDbEntity
  8
RACCORDO
100
AcDbCircle
 62
7
  6
CONTINUOUS
 10
-49.9258193394
 20
11.5
 30
0.0
 40
0.3
100
AcDbArc
 50
270.0
 51
315.0
  0
ARC
  5
50A
100
AcDbEntity
  8
RACCORDO
100
AcDbCircle
 62
7
  6
CONTINUOUS
 10
-48.8015555392
 20
0.310982143
 30
0.0
 40
0.1
100
AcDbArc
 50
359.9999986573
 51
89.4998461376
  0
ARC
  5
50B
100
AcDbEntity
  8
RACCORDO
100
AcDbCircle
 62
7
  6
CONTINUOUS
 10
-48.8015555419
 20
8.0109821431
 30
0.0
 40
0.1
100
AcDbArc
 50
23.0490023917
 51
89.4998445972
  0
ARC
  5
50C
100
AcDbEntity
  8
RACCORDO
100
AcDbCircle
 62
7
  6
CONTINUOUS
 10
-50.0015552706
 20
17.7956556053
 30
0.0
 40
0.5
100
AcDbArc
 50
270.5
 51
360.0
  0
ARC
  5
50D
100
AcDbEntity
  8
RACCORDO
100
AcDbCircle
 62
250
  6
CONTINUOUS
 10
-49.9989642112
 20
17.7956819793
 30
0.0
 40
0.200028027
100
AcDbArc
 50
270.5076393927
 51
359.9924454238
  0
ARC
  5
50E
100
AcDbEntity
  8
RACCORDO
100
AcDbCircle
 62
7
  6
CONTINUOUS
 10
-48.8015552706
 20
12.3109821407
 30
0.0
 40
0.1
100
AcDbArc
 50
0.0
 51
89.5
  0
ARC
  5
50F
100
AcDbEntity
  8
0
100
AcDbCircle
 62
7
  6
CONTINUOUS
 10
-58.5324563835
 20
21.0615984079
 30
0.0
 40
1.0
100
AcDbArc
 50
93.0
 51
171.4241203952
  0
ARC
  5
510
100
AcDbEntity
  8
RACCORDO
100
AcDbCircle
 62
7
  6
CONTINUOUS
 10
-58.5324563835
 20
21.0615984079
 30
0.0
 40
1.0
100
AcDbArc
 50
93.0
 51
171.4241203952
  0
ARC
  5
511
100
AcDbEntity
  8
0
100
AcDbCircle
 62
250
  6
CONTINUOUS
 10
-58.5411825806
 20
21.0615984012
 30
0.0
 40
0.500000007
100
AcDbArc
 50
93.0000006591
 51
171.4241197361
  0
ARC
  5
512
100
AcDbEntity
  8
RACCORDO
100
AcDbCircle
 62
7
  6
CONTINUOUS
 10
-53.8015560841
 20
22.5111812018
 30
0.0
 40
0.2000003615
100
AcDbArc
 50
273.0002333637
 51
0.0000122133
  0
ARC
  5
513
100
AcDbEntity
  8
0
100
AcDbCircle
 62
7
  6
CONTINUOUS
 10
-54.3515552706
 20
24.2369056521
 30
0.0
 40
0.25
100
AcDbArc
 50
90.3333333333
 51
180.0
  0
ARC
  5
514
100
AcDbEntity
  8
0
100
AcDbCircle
 62
7
  6
CONTINUOUS
 10
-51.3515552706
 20
24.2456323968
 30
0.0
 40
0.25
100
AcDbArc
 50
0.0
 51
89.6666666667
  0
ARC
  5
515
100
AcDbEntity
  8
0
100
AcDbCircle
 62
7
  6
CONTINUOUS
 10
-54.3515552706
 20
23.8443375673
 30
0.0
 40
0.25
100
AcDbArc
 50
180.0
 51
240.0
  0
ARC
  5
516
100
AcDbEntity
  8
0
100
AcDbCircle
 62
7
  6
CONTINUOUS
 10
-51.3515552706
 20
23.8443375673
 30
0.0
 40
0.25
100
AcDbArc
 50
300.0
 51
360.0
  0
ARC
  5
517
100
AcDbEntity
  8
0
100
AcDbCircle
 62
7
  6
CONTINUOUS
 10
-30.9863849913
 20
15.5339267369
 30
0.0
 40
44.7858999124
100
AcDbArc
 50
239.6711809666
 51
240.0388810573
  0
ARC
  5
518
100
AcDbEntity
  8
DRAFT
100
AcDbCircle
 62
7
  6
CONTINUOUS
 10
-41.1015552706
 20
21.3359869487
 30
0.0
 40
1.0
100
AcDbArc
 50
0.0
 51
89.6666666667
  0
ARC
  5
519
100
AcDbEntity
  8
0
100
AcDbCircle
 62
7
  6
CONTINUOUS
 10
-44.6015552706
 20
23.4563578147
 30
0.0
 40
0.5
100
AcDbArc
 50
0.0
 51
89.6666666667
  0
ARC
  5
51A
100
AcDbEntity
  8
0
100
AcDbCircle
 62
7
  6
CONTINUOUS
 10
29.4724564095
 20
7.79
 30
0.0
 40
90.0
100
AcDbArc
 50
171.4241203952
 51
178.91131468
  0
ARC
  5
51B
100
AcDbEntity
  8
RACCORDO
100
AcDbCircle
 62
7
  6
CONTINUOUS
 10
29.4724564095
 20
7.79
 30
0.0
 40
90.0
100
AcDbArc
 50
171.4241203952
 51
175.2083945865
  0
ARC
  5
51C
100
AcDbEntity
  8
0
100
AcDbCircle
 62
250
  6
CONTINUOUS
 10
29.4636984332
 20
7.7900026861
 30
0.0
 40
89.4999681816
100
AcDbArc
 50
171.4241190624
 51
178.9113160128
  0
ARC
  5
51D
100
AcDbEntity
  8
0
100
AcDbCircle
 62
7
  6
CONTINUOUS
 10
439.3984447294
 20
0.0
 30
0.0
 40
500.0
100
AcDbArc
 50
178.91131468
 51
181.08868532
  0
ARC
  5
51E
100
AcDbEntity
  8
0
100
AcDbCircle
 62
250
  6
CONTINUOUS
 10
439.4350124383
 20
-0.0
 30
0.0
 40
499.5452857366
100
AcDbArc
 50
178.9114133854
 51
181.0885866146
  0
SPLINE
  5
51F
100
AcDbEntity
  8
RACCORDO
100
AcDbSpline
 62
7
  6
CONTINUOUS
 70
0
 71
3
 72
8
 73
4
 74
0
 42
0.0000001
 43
0.0000001
 44
0.0000000001
 40
0.0
 40
0.0
 40
0.0
 40
0.0
 40
1.0
 40
1.0
 40
1.0
 40
1.0
 10
7.2832825383
 20
15.56696741
 30
0.0
 10
7.22326323
 20
15.5323263694
 30
0.0
 10
7.1544659189
 20
15.5100322157
 30
0.0
 10
7.0855498271
 20
15.5027595721
 30
0.0
  0
SPLINE
  5
520
100
AcDbEntity
  8
RACCORDO
100
AcDbSpline
 62
7
  6
CONTINUOUS
 70
0
 71
3
 72
8
 73
4
 74
0
 42
0.0000001
 43
0.0000001
 44
0.0000000001
 40
0.0
 40
0.0
 40
0.0
 40
0.0
 40
1.0
 40
1.0
 40
1.0
 40
1.0
 10
-11.1167002266
 20
15.56696741
 30
0.0
 10
-11.0566809183
 20
15.5323263694
 30
0.0
 10
-10.9878836072
 20
15.5100322157
 30
0.0
 10
-10.9189675154
 20
15.5027595721
 30
0.0
  0
SPLINE
  5
521
100
AcDbEntity
  8
RACCORDO
100
AcDbSpline
 62
250
  6
CONTINUOUS
 70
0
 71
3
 72
12
 73
8
 74
0
 42
0.0000001
 43
0.0000001
 44
0.0000000001
 40
0.0
 40
0.0
 40
0.0
 40
0.0
 40
0.0353363376
 40
0.0986954919
 40
0.3156912957
 40
0.6315954153
 40
1.0
 40
1.0
 40
1.0
 40
1.0
 10
7.5298782452
 20
21.1958055828
 30
0.0
 10
7.5297391802
 20
21.1970074159
 30
0.0
 10
7.5268510122
 20
21.199573931
 30
0.0
 10
7.5170262249
 20
21.2033797567
 30
0.0
 10
7.4965755496
 20
21.2071829895
 30
0.0
 10
7.4659877033
 20
21.2099663815
 30
0.0
 10
7.4425069374
 20
21.2106850264
 30
0.0
 10
7.4298934757
 20
21.2107174907
 30
0.0
  0
SPLINE
  5
522
100
AcDbEntity
  8
RACCORDO
100
AcDbSpline
 62
250
  6
CONTINUOUS
 70
0
 71
3
 72
9
 73
5
 74
0
 42
0.0000001
 43
0.0000001
 44
0.0000000001
 40
0.0
 40
0.0
 40
0.0
 40
0.0
 40
0.2493125232
 40
1.0
 40
1.0
 40
1.0
 40
1.0
 10
7.4298934757
 20
21.2107174911
 30
0.0
 10
7.4287584234
 20
20.7790383374
 30
0.0
 10
7.424430372
 20
19.0475597351
 30
0.0
 10
7.4209974389
 20
17.3160788987
 30
0.0
 10
7.4189172696
 20
16.0162772052
 30
0.0
  0
SPLINE
  5
523
100
AcDbEntity
  8
RACCORDO
100
AcDbSpline
 62
250
  6
CONTINUOUS
 70
0
 71
3
 72
9
 73
5
 74
0
 42
0.0000001
 43
0.0000001
 44
0.0000000001
 40
0.0
 40
0.0
 40
0.0
 40
0.0
 40
0.499621216
 40
1.0
 40
1.0
 40
1.0
 40
1.0
 10
7.5166540529
 20
21.9923189025
 30
0.0
 10
7.5110435544
 20
22.0090070394
 30
0.0
 10
7.490426067
 20
22.0400034734
 30
0.0
 10
7.4566738948
 20
22.0556044364
 30
0.0
 10
7.4393130996
 20
22.0586890953
 30
0.0
  0
SPLINE
  5
524
100
AcDbEntity
  8
RACCORDO
100
AcDbSpline
 62
250
  6
CONTINUOUS
 70
0
 71
3
 72
9
 73
5
 74
0
 42
0.0000001
 43
0.0000001
 44
0.0000000001
 40
0.0
 40
0.0
 40
0.0
 40
0.0
 40
0.2493125233
 40
1.0
 40
1.0
 40
1.0
 40
1.0
 10
7.5298782452
 20
21.1958055828
 30
0.0
 10
7.5287431929
 20
20.7646060736
 30
0.0
 10
7.5244151415
 20
19.0350513396
 30
0.0
 10
7.5209822084
 20
17.3054943692
 30
0.0
 10
7.5189020391
 20
16.0071368972
 30
0.0
  0
SPLINE
  5
525
100
AcDbEntity
  8
RACCORDO
100
AcDbSpline
 62
250
  6
CONTINUOUS
 70
0
 71
3
 72
13
 73
9
 74
0
 42
0.0000001
 43
0.0000001
 44
0.0000000001
 40
0.0
 40
0.0
 40
0.0
 40
0.0
 40
0.0280864763
 40
0.0886941475
 40
0.1822069744
 40
0.3059930244
 40
0.6258935846
 40
1.0
 40
1.0
 40
1.0
 40
1.0
 10
7.5189019016
 20
16.0071368972
 30
0.0
 10
7.518725109
 20
16.0080668431
 30
0.0
 10
7.515369903
 20
16.0094837317
 30
0.0
 10
7.5098916998
 20
16.0109100731
 30
0.0
 10
7.5003863191
 20
16.0124052372
 30
0.0
 10
7.4825109873
 20
16.0142901893
 30
0.0
 10
7.454887613
 20
16.0158186992
 30
0.0
 10
7.4315258061
 20
16.0162571718
 30
0.0
 10
7.4189172696
 20
16.016277205
 30
0.0
  0
SPLINE
  5
526
100
AcDbEntity
  8
RACCORDO
100
AcDbSpline
 62
250
  6
CONTINUOUS
 70
0
 71
3
 72
9
 73
5
 74
0
 42
0.0000001
 43
0.0000001
 44
0.0000000001
 40
0.0
 40
0.0
 40
0.0
 40
0.0
 40
0.4996162022
 40
1.0
 40
1.0
 40
1.0
 40
1.0
 10
-11.34998623
 20
21.9925721235
 30
0.0
 10
-11.344345853
 20
22.0092047956
 30
0.0
 10
-11.3237194934
 20
22.0400749119
 30
0.0
 10
-11.2900488802
 20
22.0556121539
 30
0.0
 10
-11.2727301087
 20
22.0586892193
 30
0.0
  0
SPLINE
  5
527
100
AcDbEntity
  8
RACCORDO
100
AcDbSpline
 62
250
  6
CONTINUOUS
 70
0
 71
3
 72
13
 73
9
 74
0
 42
0.0000001
 43
0.0000001
 44
0.0000000001
 40
0.0
 40
0.0
 40
0.0
 40
0.0
 40
0.0299753926
 40
0.0890063817
 40
0.1765766048
 40
0.2917756667
 40
0.5998435026
 40
1.0
 40
1.0
 40
1.0
 40
1.0
 10
7.4219466315
 20
22.0602279426
 30
0.0
 10
7.4229942612
 20
22.0567331893
 30
0.0
 10
7.4238491969
 20
22.0458272398
 30
0.0
 10
7.425549171
 20
22.0244786122
 30
0.0
 10
7.4268951369
 20
21.9926002126
 30
0.0
 10
7.4290977542
 20
21.9304857608
 30
0.0
 10
7.4313132072
 20
21.8302694542
 30
0.0
 10
7.4326485584
 20
21.7440851508
 30
0.0
 10
7.4332754558
 20
21.6953848591
 30
0.0
  0
SPLINE
  5
528
100
AcDbEntity
  8
RACCORDO
100
AcDbSpline
 62
250
  6
CONTINUOUS
 70
0
 71
3
 72
13
 73
9
 74
0
 42
0.0000001
 43
0.0000001
 44
0.0000000001
 40
0.0
 40
0.0
 40
0.0
 40
0.0
 40
0.0280864836
 40
0.0886941844
 40
0.18220705
 40
0.3059931362
 40
0.62589371
 40
1.0
 40
1.0
 40
1.0
 40
1.0
 10
-11.3523197274
 20
16.0071368972
 30
0.0
 10
-11.3521429341
 20
16.0080668445
 30
0.0
 10
-11.3487877207
 20
16.009483733
 30
0.0
 10
-11.3433095081
 20
16.010910076
 30
0.0
 10
-11.3338041104
 20
16.0124052405
 30
0.0
 10
-11.3159287514
 20
16.0142901929
 30
0.0
 10
-11.2883053421
 20
16.0158187018
 30
0.0
 10
-11.2649435072
 20
16.0162571728
 30
0.0
 10
-11.2523349579
 20
16.0162772049
 30
0.0
  0
SPLINE
  5
529
100
AcDbEntity
  8
RACCORDO
100
AcDbSpline
 62
250
  6
CONTINUOUS
 70
0
 71
3
 72
11
 73
7
 74
0
 42
0.0000001
 43
0.0000001
 44
0.0000000001
 40
0.0
 40
0.0
 40
0.0
 40
0.0
 40
0.202451901
 40
0.434225943
 40
0.7047106755
 40
1.0
 40
1.0
 40
1.0
 40
1.0
 10
7.533265172
 20
21.6313489631
 30
0.0
 10
7.5329594735
 20
21.6400924298
 30
0.0
 10
7.5266647798
 20
21.6589189446
 30
0.0
 10
7.503200055
 20
21.6798774862
 30
0.0
 10
7.4705477643
 20
21.6922546903
 30
0.0
 10
7.4460367281
 20
21.695384548
 30
0.0
 10
7.4332760183
 20
21.6953845518
 30
0.0
  0
SPLINE
  5
52A
100
AcDbEntity
  8
RACCORDO
100
AcDbSpline
 62
250
  6
CONTINUOUS
 70
0
 71
3
 72
9
 73
5
 74
0
 42
0.0000001
 43
0.0000001
 44
0.0000000001
 40
0.0
 40
0.0
 40
0.0
 40
0.0
 40
0.2506338713
 40
1.0
 40
1.0
 40
1.0
 40
1.0
 10
-11.2523349579
 20
16.0162772052
 30
0.0
 10
-11.2530294691
 20
16.4502451884
 30
0.0
 10
-11.2560216335
 20
18.1817266134
 30
0.0
 10
-11.2598995033
 20
19.9132065116
 30
0.0
 10
-11.263311164
 20
21.2107174911
 30
0.0
  0
SPLINE
  5
52B
100
AcDbEntity
  8
RACCORDO
100
AcDbSpline
 62
250
  6
CONTINUOUS
 70
0
 71
3
 72
9
 73
5
 74
0
 42
0.0000001
 43
0.0000001
 44
0.0000000001
 40
0.0
 40
0.0
 40
0.0
 40
0.0
 40
0.2506338712
 40
1.0
 40
1.0
 40
1.0
 40
1.0
 10
-11.3523197274
 20
16.0071368972
 30
0.0
 10
-11.3530142386
 20
16.4406226946
 30
0.0
 10
-11.356006403
 20
18.1701802542
 30
0.0
 10
-11.3598842729
 20
19.8997362854
 30
0.0
 10
-11.3632959335
 20
21.1958055828
 30
0.0
  0
SPLINE
  5
52C
100
AcDbEntity
  8
RACCORDO
100
AcDbSpline
 62
250
  6
CONTINUOUS
 70
0
 71
3
 72
10
 73
6
 74
0
 42
0.0000001
 43
0.0000001
 44
0.0000000001
 40
0.0
 40
0.0
 40
0.0
 40
0.0
 40
0.4156665952
 40
0.6953738712
 40
1.0
 40
1.0
 40
1.0
 40
1.0
 10
-11.366708854
 20
21.6341294184
 30
0.0
 10
-11.366708854
 20
21.6515151584
 30
0.0
 10
-11.3425479116
 20
21.6774532755
 30
0.0
 10
-11.3042157403
 20
21.6923254009
 30
0.0
 10
-11.2794349589
 20
21.6953841945
 30
0.0
 10
-11.2666936159
 20
21.6953841979
 30
0.0
  0
SPLINE
  5
52D
100
AcDbEntity
  8
RACCORDO
100
AcDbSpline
 62
250
  6
CONTINUOUS
 70
0
 71
3
 72
12
 73
8
 74
0
 42
0.0000001
 43
0.0000001
 44
0.0000000001
 40
0.0
 40
0.0
 40
0.0
 40
0.0
 40
0.0353363457
 40
0.098695342
 40
0.3156909008
 40
0.6315952649
 40
1.0
 40
1.0
 40
1.0
 40
1.0
 10
-11.3632959335
 20
21.1958055828
 30
0.0
 10
-11.3631568596
 20
21.1970074151
 30
0.0
 10
-11.3602687079
 20
21.1995739248
 30
0.0
 10
-11.3504439229
 20
21.2033797512
 30
0.0
 10
-11.3299932614
 20
21.2071829704
 30
0.0
 10
-11.2994054075
 20
21.2099663635
 30
0.0
 10
-11.2759246303
 20
21.2106850067
 30
0.0
 10
-11.263311164
 20
21.2107174678
 30
0.0
  0
SPLINE
  5
52E
100
AcDbEntity
  8
RACCORDO
100
AcDbSpline
 62
250
  6
CONTINUOUS
 70
0
 71
3
 72
13
 73
9
 74
0
 42
0.0000001
 43
0.0000001
 44
0.0000000001
 40
0.0
 40
0.0
 40
0.0
 40
0.0
 40
0.4001508225
 40
0.7082207829
 40
0.8234214711
 40
0.9109929089
 40
0.9700244949
 40
1.0
 40
1.0
 40
1.0
 40
1.0
 10
-11.2666931967
 20
21.6953846336
 30
0.0
 10
-11.2660663049
 20
21.7440842648
 30
0.0
 10
-11.2647308903
 20
21.8302681886
 30
0.0
 10
-11.2625154818
 20
21.9304843234
 30
0.0
 10
-11.2603128573
 20
21.9925994186
 30
0.0
 10
-11.2589668784
 20
22.0244782556
 30
0.0
 10
-11.257266902
 20
22.045827133
 30
0.0
 10
-11.2564119448
 20
22.0567331713
 30
0.0
 10
-11.2553643198
 20
22.0602279426
 30
0.0
  0
SPLINE
  5
52F
100
AcDbEntity
  8
0
100
AcDbSpline
 62
7
  6
CONTINUOUS
 70
0
 71
3
 72
9
 73
5
 74
0
 42
0.0000001
 43
0.0000001
 44
0.0000000001
 40
0.0
 40
0.0
 40
0.0
 40
0.0
 40
0.4999975349
 40
1.0
 40
1.0
 40
1.0
 40
1.0
 10
-11.8508803882
 20
-24.4823909978
 30
0.0
 10
-11.9060260996
 20
-24.4717709004
 30
0.0
 10
-12.0121670426
 20
-24.4101569778
 30
0.0
 10
-12.0532763556
 20
-24.2945186954
 30
0.0
 10
-12.053605972
 20
-24.2383600851
 30
0.0
  0
SPLINE
  5
530
100
AcDbEntity
  8
0
100
AcDbSpline
 62
7
  6
CONTINUOUS
 70
0
 71
3
 72
9
 73
5
 74
0
 42
0.0000001
 43
0.0000001
 44
0.0000000001
 40
0.0
 40
0.0
 40
0.0
 40
0.0
 40
0.4999975349
 40
1.0
 40
1.0
 40
1.0
 40
1.0
 10
-9.3825373002
 20
24.4823909978
 30
0.0
 10
-9.3273915887
 20
24.4717709004
 30
0.0
 10
-9.2212506457
 20
24.4101569778
 30
0.0
 10
-9.1801413327
 20
24.2945186954
 30
0.0
 10
-9.1798117163
 20
24.2383600851
 30
0.0
  0
SPLINE
  5
531
100
AcDbEntity
  8
0
100
AcDbSpline
 62
7
  6
CONTINUOUS
 70
0
 71
3
 72
8
 73
4
 74
0
 42
0.0000001
 43
0.0000001
 44
0.0000000001
 40
0.0
 40
0.0
 40
0.0
 40
0.0
 40
1.0
 40
1.0
 40
1.0
 40
1.0
 10
-12.0641643183
 20
24.2855823661
 30
0.0
 10
-12.059676637
 20
24.3168028567
 30
0.0
 10
-12.04898622
 20
24.3476863906
 30
0.0
 10
-12.0332160786
 20
24.3750023375
 30
0.0
  0
SPLINE
  5
532
100
AcDbEntity
  8
0
100
AcDbSpline
 62
7
  6
CONTINUOUS
 70
0
 71
3
 72
8
 73
4
 74
0
 42
0.0000001
 43
0.0000001
 44
0.0000000001
 40
0.0
 40
0.0
 40
0.0
 40
0.0
 40
1.0
 40
1.0
 40
1.0
 40
1.0
 10
-12.0332160786
 20
24.3750023375
 30
0.0
 10
-12.015503198
 20
24.4056833628
 30
0.0
 10
-11.9905827703
 20
24.4330949929
 30
0.0
 10
-11.9617251153
 20
24.4536451073
 30
0.0
  0
SPLINE
  5
533
100
AcDbEntity
  8
0
100
AcDbSpline
 62
7
  6
CONTINUOUS
 70
0
 71
3
 72
8
 73
4
 74
0
 42
0.0000001
 43
0.0000001
 44
0.0000000001
 40
0.0
 40
0.0
 40
0.0
 40
0.0
 40
1.0
 40
1.0
 40
1.0
 40
1.0
 10
-11.9617251153
 20
24.4536451073
 30
0.0
 10
-11.9203883321
 20
24.483081859
 30
0.0
 10
-11.8674600156
 20
24.5
 30
0.0
 10
-11.8167130749
 20
24.5
 30
0.0
  0
SPLINE
  5
534
100
AcDbEntity
  8
0
100
AcDbSpline
 62
7
  6
CONTINUOUS
 70
0
 71
3
 72
9
 73
5
 74
0
 42
0.0000001
 43
0.0000001
 44
0.0000000001
 40
0.0
 40
0.0
 40
0.0
 40
0.0
 40
0.4999964004
 40
1.0
 40
1.0
 40
1.0
 40
1.0
 10
-12.0536102654
 20
24.2369056521
 30
0.0
 10
-12.0536082479
 20
24.2965144766
 30
0.0
 10
-12.0076095691
 20
24.420026045
 30
0.0
 10
-11.8897587171
 20
24.4790421804
 30
0.0
 10
-11.8304945296
 20
24.4854507968
 30
0.0
  0
SPLINE
  5
535
100
AcDbEntity
  8
0
100
AcDbSpline
 62
7
  6
CONTINUOUS
 70
0
 71
3
 72
8
 73
4
 74
0
 42
0.0000001
 43
0.0000001
 44
0.0000000001
 40
0.0
 40
0.0
 40
0.0
 40
0.0
 40
1.0
 40
1.0
 40
1.0
 40
1.0
 10
-9.381126478
 20
24.4974554741
 30
0.0
 10
-9.3422336858
 20
24.4918649644
 30
0.0
 10
-9.3036989731
 20
24.4764375062
 30
0.0
 10
-9.271692573
 20
24.4536451073
 30
0.0
  0
SPLINE
  5
536
100
AcDbEntity
  8
0
100
AcDbSpline
 62
7
  6
CONTINUOUS
 70
0
 71
3
 72
8
 73
4
 74
0
 42
0.0000001
 43
0.0000001
 44
0.0000000001
 40
0.0
 40
0.0
 40
0.0
 40
0.0
 40
1.0
 40
1.0
 40
1.0
 40
1.0
 10
-9.271692573
 20
24.4536451073
 30
0.0
 10
-9.2428349181
 20
24.4330949929
 30
0.0
 10
-9.2179144904
 20
24.4056833628
 30
0.0
 10
-9.2002016097
 20
24.3750023375
 30
0.0
  0
SPLINE
  5
537
100
AcDbEntity
  8
0
100
AcDbSpline
 62
7
  6
CONTINUOUS
 70
0
 71
3
 72
8
 73
4
 74
0
 42
0.0000001
 43
0.0000001
 44
0.0000000001
 40
0.0
 40
0.0
 40
0.0
 40
0.0
 40
1.0
 40
1.0
 40
1.0
 40
1.0
 10
-9.2002016097
 20
24.3750023375
 30
0.0
 10
-9.1786344454
 20
24.3376451891
 30
0.0
 10
-9.1667088442
 20
24.2931400525
 30
0.0
 10
-9.1667088442
 20
24.2500042308
 30
0.0
  0
SPLINE
  5
538
100
AcDbEntity
  8
0
100
AcDbSpline
 62
7
  6
CONTINUOUS
 70
0
 71
3
 72
8
 73
4
 74
0
 42
0.0000001
 43
0.0000001
 44
0.0000000001
 40
0.0
 40
0.0
 40
0.0
 40
0.0
 40
1.0
 40
1.0
 40
1.0
 40
1.0
 10
8.018873522
 20
24.4974554741
 30
0.0
 10
8.0500940125
 20
24.4929677928
 30
0.0
 10
8.0809775465
 20
24.4822773759
 30
0.0
 10
8.1082934934
 20
24.4665072345
 30
0.0
  0
SPLINE
  5
539
100
AcDbEntity
  8
0
100
AcDbSpline
 62
7
  6
CONTINUOUS
 70
0
 71
3
 72
8
 73
4
 74
0
 42
0.0000001
 43
0.0000001
 44
0.0000000001
 40
0.0
 40
0.0
 40
0.0
 40
0.0
 40
1.0
 40
1.0
 40
1.0
 40
1.0
 10
8.1082934934
 20
24.4665072345
 30
0.0
 10
8.1456506421
 20
24.44494007
 30
0.0
 10
8.1782312258
 20
24.4123594863
 30
0.0
 10
8.1997983903
 20
24.3750023375
 30
0.0
  0
SPLINE
  5
53A
100
AcDbEntity
  8
0
100
AcDbSpline
 62
7
  6
CONTINUOUS
 70
0
 71
3
 72
8
 73
4
 74
0
 42
0.0000001
 43
0.0000001
 44
0.0000000001
 40
0.0
 40
0.0
 40
0.0
 40
0.0
 40
1.0
 40
1.0
 40
1.0
 40
1.0
 10
8.1997983903
 20
24.3750023375
 30
0.0
 10
8.2213655546
 20
24.3376451891
 30
0.0
 10
8.2332911558
 20
24.2931400525
 30
0.0
 10
8.2332911558
 20
24.2500042308
 30
0.0
  0
SPLINE
  5
53B
100
AcDbEntity
  8
0
100
AcDbSpline
 62
7
  6
CONTINUOUS
 70
0
 71
3
 72
8
 73
4
 74
0
 42
0.0000001
 43
0.0000001
 44
0.0000000001
 40
0.0
 40
0.0
 40
0.0
 40
0.0
 40
1.0
 40
1.0
 40
1.0
 40
1.0
 10
5.3358356817
 20
24.2855823661
 30
0.0
 10
5.340323363
 20
24.3168028567
 30
0.0
 10
5.35101378
 20
24.3476863906
 30
0.0
 10
5.3667839214
 20
24.3750023375
 30
0.0
  0
SPLINE
  5
53C
100
AcDbEntity
  8
0
100
AcDbSpline
 62
7
  6
CONTINUOUS
 70
0
 71
3
 72
8
 73
4
 74
0
 42
0.0000001
 43
0.0000001
 44
0.0000000001
 40
0.0
 40
0.0
 40
0.0
 40
0.0
 40
1.0
 40
1.0
 40
1.0
 40
1.0
 10
5.3667839214
 20
24.3750023375
 30
0.0
 10
5.3883510858
 20
24.4123594863
 30
0.0
 10
5.4209316695
 20
24.44494007
 30
0.0
 10
5.4582888183
 20
24.4665072345
 30
0.0
  0
SPLINE
  5
53D
100
AcDbEntity
  8
0
100
AcDbSpline
 62
7
  6
CONTINUOUS
 70
0
 71
3
 72
8
 73
4
 74
0
 42
0.0000001
 43
0.0000001
 44
0.0000000001
 40
0.0
 40
0.0
 40
0.0
 40
0.0
 40
1.0
 40
1.0
 40
1.0
 40
1.0
 10
5.4582888183
 20
24.4665072345
 30
0.0
 10
5.4956459668
 20
24.4880743987
 30
0.0
 10
5.5401511033
 20
24.5
 30
0.0
 10
5.5832869251
 20
24.5
 30
0.0
  0
SPLINE
  5
53E
100
AcDbEntity
  8
0
100
AcDbSpline
 62
7
  6
CONTINUOUS
 70
0
 71
3
 72
8
 73
4
 74
0
 42
0.0000001
 43
0.0000001
 44
0.0000000001
 40
0.0
 40
0.0
 40
0.0
 40
0.0
 40
1.0
 40
1.0
 40
1.0
 40
1.0
 10
-11.8522912103
 20
-24.4974554741
 30
0.0
 10
-11.8911840026
 20
-24.4918649644
 30
0.0
 10
-11.9297187152
 20
-24.4764375062
 30
0.0
 10
-11.9617251153
 20
-24.4536451073
 30
0.0
  0
SPLINE
  5
53F
100
AcDbEntity
  8
0
100
AcDbSpline
 62
7
  6
CONTINUOUS
 70
0
 71
3
 72
8
 73
4
 74
0
 42
0.0000001
 43
0.0000001
 44
0.0000000001
 40
0.0
 40
0.0
 40
0.0
 40
0.0
 40
1.0
 40
1.0
 40
1.0
 40
1.0
 10
-11.9617251153
 20
-24.4536451073
 30
0.0
 10
-11.9905827703
 20
-24.4330949929
 30
0.0
 10
-12.015503198
 20
-24.4056833628
 30
0.0
 10
-12.0332160786
 20
-24.3750023375
 30
0.0
  0
SPLINE
  5
540
100
AcDbEntity
  8
0
100
AcDbSpline
 62
7
  6
CONTINUOUS
 70
0
 71
3
 72
8
 73
4
 74
0
 42
0.0000001
 43
0.0000001
 44
0.0000000001
 40
0.0
 40
0.0
 40
0.0
 40
0.0
 40
1.0
 40
1.0
 40
1.0
 40
1.0
 10
-12.0332160786
 20
-24.3750023375
 30
0.0
 10
-12.0547832429
 20
-24.3376451891
 30
0.0
 10
-12.0667088442
 20
-24.2931400525
 30
0.0
 10
-12.0667088442
 20
-24.2500042308
 30
0.0
  0
SPLINE
  5
541
100
AcDbEntity
  8
0
100
AcDbSpline
 62
7
  6
CONTINUOUS
 70
0
 71
3
 72
8
 73
4
 74
0
 42
0.0000001
 43
0.0000001
 44
0.0000000001
 40
0.0
 40
0.0
 40
0.0
 40
0.0
 40
1.0
 40
1.0
 40
1.0
 40
1.0
 10
-9.16925337
 20
-24.2855823661
 30
0.0
 10
-9.1737410513
 20
-24.3168028567
 30
0.0
 10
-9.1844314683
 20
-24.3476863906
 30
0.0
 10
-9.2002016097
 20
-24.3750023375
 30
0.0
  0
SPLINE
  5
542
100
AcDbEntity
  8
0
100
AcDbSpline
 62
7
  6
CONTINUOUS
 70
0
 71
3
 72
8
 73
4
 74
0
 42
0.0000001
 43
0.0000001
 44
0.0000000001
 40
0.0
 40
0.0
 40
0.0
 40
0.0
 40
1.0
 40
1.0
 40
1.0
 40
1.0
 10
-9.2002016097
 20
-24.3750023375
 30
0.0
 10
-9.2217687742
 20
-24.4123594863
 30
0.0
 10
-9.2543493579
 20
-24.44494007
 30
0.0
 10
-9.2917065066
 20
-24.4665072345
 30
0.0
  0
SPLINE
  5
543
100
AcDbEntity
  8
0
100
AcDbSpline
 62
7
  6
CONTINUOUS
 70
0
 71
3
 72
8
 73
4
 74
0
 42
0.0000001
 43
0.0000001
 44
0.0000000001
 40
0.0
 40
0.0
 40
0.0
 40
0.0
 40
1.0
 40
1.0
 40
1.0
 40
1.0
 10
-9.2917065066
 20
-24.4665072345
 30
0.0
 10
-9.3290636551
 20
-24.4880743987
 30
0.0
 10
-9.3735687917
 20
-24.5
 30
0.0
 10
-9.4167046134
 20
-24.5
 30
0.0
  0
SPLINE
  5
544
100
AcDbEntity
  8
0
100
AcDbSpline
 62
7
  6
CONTINUOUS
 70
0
 71
3
 72
8
 73
4
 74
0
 42
0.0000001
 43
0.0000001
 44
0.0000000001
 40
0.0
 40
0.0
 40
0.0
 40
0.0
 40
1.0
 40
1.0
 40
1.0
 40
1.0
 10
5.5477087897
 20
-24.4974554741
 30
0.0
 10
5.5164882992
 20
-24.4929677928
 30
0.0
 10
5.4856047652
 20
-24.4822773759
 30
0.0
 10
5.4582888183
 20
-24.4665072345
 30
0.0
  0
SPLINE
  5
545
100
AcDbEntity
  8
0
100
AcDbSpline
 62
7
  6
CONTINUOUS
 70
0
 71
3
 72
8
 73
4
 74
0
 42
0.0000001
 43
0.0000001
 44
0.0000000001
 40
0.0
 40
0.0
 40
0.0
 40
0.0
 40
1.0
 40
1.0
 40
1.0
 40
1.0
 10
5.4582888183
 20
-24.4665072345
 30
0.0
 10
5.4209316695
 20
-24.44494007
 30
0.0
 10
5.3883510858
 20
-24.4123594863
 30
0.0
 10
5.3667839214
 20
-24.3750023375
 30
0.0
  0
SPLINE
  5
546
100
AcDbEntity
  8
0
100
AcDbSpline
 62
7
  6
CONTINUOUS
 70
0
 71
3
 72
8
 73
4
 74
0
 42
0.0000001
 43
0.0000001
 44
0.0000000001
 40
0.0
 40
0.0
 40
0.0
 40
0.0
 40
1.0
 40
1.0
 40
1.0
 40
1.0
 10
5.3667839214
 20
-24.3750023375
 30
0.0
 10
5.3452167571
 20
-24.3376451891
 30
0.0
 10
5.3332911558
 20
-24.2931400525
 30
0.0
 10
5.3332911558
 20
-24.2500042308
 30
0.0
  0
SPLINE
  5
547
100
AcDbEntity
  8
0
100
AcDbSpline
 62
7
  6
CONTINUOUS
 70
0
 71
3
 72
8
 73
4
 74
0
 42
0.0000001
 43
0.0000001
 44
0.0000000001
 40
0.0
 40
0.0
 40
0.0
 40
0.0
 40
1.0
 40
1.0
 40
1.0
 40
1.0
 10
8.23074663
 20
-24.2855823661
 30
0.0
 10
8.2262589487
 20
-24.3168028567
 30
0.0
 10
8.2155685317
 20
-24.3476863906
 30
0.0
 10
8.1997983903
 20
-24.3750023375
 30
0.0
  0
SPLINE
  5
548
100
AcDbEntity
  8
0
100
AcDbSpline
 62
7
  6
CONTINUOUS
 70
0
 71
3
 72
8
 73
4
 74
0
 42
0.0000001
 43
0.0000001
 44
0.0000000001
 40
0.0
 40
0.0
 40
0.0
 40
0.0
 40
1.0
 40
1.0
 40
1.0
 40
1.0
 10
8.1997983903
 20
-24.3750023375
 30
0.0
 10
8.1782312258
 20
-24.4123594863
 30
0.0
 10
8.1456506421
 20
-24.44494007
 30
0.0
 10
8.1082934934
 20
-24.4665072345
 30
0.0
  0
SPLINE
  5
549
100
AcDbEntity
  8
0
100
AcDbSpline
 62
7
  6
CONTINUOUS
 70
0
 71
3
 72
8
 73
4
 74
0
 42
0.0000001
 43
0.0000001
 44
0.0000000001
 40
0.0
 40
0.0
 40
0.0
 40
0.0
 40
1.0
 40
1.0
 40
1.0
 40
1.0
 10
8.1082934934
 20
-24.4665072345
 30
0.0
 10
8.0709363449
 20
-24.4880743987
 30
0.0
 10
8.0264312083
 20
-24.5
 30
0.0
 10
7.9832953866
 20
-24.5
 30
0.0
  0
SPLINE
  5
54A
100
AcDbEntity
  8
RACCORDO
100
AcDbSpline
 62
7
  6
CONTINUOUS
 70
0
 71
3
 72
21
 73
17
 74
0
 42
0.0000001
 43
0.0000001
 44
0.0000000001
 40
0.0
 40
0.0
 40
0.0
 40
0.0
 40
0.0023211247
 40
0.0081526043
 40
0.0173601707
 40
0.0297924377
 40
0.0636892776
 40
0.1082095168
 40
0.161442771
 40
0.2216933182
 40
0.2876179855
 40
0.3580037655
 40
0.5087394652
 40
0.668354102
 40
0.8330689647
 40
1.0
 40
1.0
 40
1.0
 40
1.0
 10
0.5832911558
 20
-7.4500594128
 30
0.0
 10
0.5832911558
 20
-7.4506108922
 30
0.0
 10
0.5849924381
 20
-7.4520527479
 30
0.0
 10
0.5872680464
 20
-7.455234569
 30
0.0
 10
0.5918961956
 20
-7.4600184184
 30
0.0
 10
0.6007717316
 20
-7.4696842355
 30
0.0
 10
0.6157714716
 20
-7.4852792159
 30
0.0
 10
0.6374677939
 20
-7.5077775686
 30
0.0
 10
0.6636752081
 20
-7.5346678615
 30
0.0
 10
0.6934893663
 20
-7.5651285734
 30
0.0
 10
0.7262239274
 20
-7.5984382115
 30
0.0
 10
0.7740965728
 20
-7.6470115641
 30
0.0
 10
0.8377131045
 20
-7.7113227446
 30
0.0
 10
0.9172305918
 20
-7.7914284604
 30
0.0
 10
0.9995817093
 20
-7.8741430429
 30
0.0
 10
1.0552515589
 20
-7.9299078841
 30
0.0
 10
1.0832911558
 20
-7.957957958
 30
0.0
  0
SPLINE
  5
54B
100
AcDbEntity
  8
RACCORDO
100
AcDbSpline
 62
250
  6
CONTINUOUS
 70
0
 71
3
 72
14
 73
10
 74
0
 42
0.0000001
 43
0.0000001
 44
0.0000000001
 40
0.0
 40
0.0
 40
0.0
 40
0.0
 40
0.0268559783
 40
0.0860904154
 40
0.1788054457
 40
0.3022591428
 40
0.4519871215
 40
0.6225599334
 40
1.0
 40
1.0
 40
1.0
 40
1.0
 10
-12.0594280953
 20
22.5346275426
 30
0.0
 10
-12.0592873569
 20
22.5323656677
 30
0.0
 10
-12.0511812451
 20
22.5282855689
 30
0.0
 10
-12.0378004015
 20
22.5249399627
 30
0.0
 10
-12.0142029481
 20
22.5209439868
 30
0.0
 10
-11.9837664032
 20
22.5176886558
 30
0.0
 10
-11.9463248729
 20
22.5148502749
 30
0.0
 10
-11.8875522792
 20
22.5119793323
 30
0.0
 10
-11.8412827114
 20
22.5111799465
 30
0.0
 10
-11.809432326
 20
22.5111812444
 30
0.0
  0
SPLINE
  5
54C
100
AcDbEntity
  8
RACCORDO
100
AcDbSpline
 62
250
  6
CONTINUOUS
 70
0
 71
3
 72
17
 73
13
 74
0
 42
0.0000001
 43
0.0000001
 44
0.0000000001
 40
0.0
 40
0.0
 40
0.0
 40
0.0
 40
0.0073730559
 40
0.0229991925
 40
0.0475747803
 40
0.0810925475
 40
0.173741872
 40
0.2977617577
 40
0.4484198443
 40
0.620103416
 40
0.8065405215
 40
1.0
 40
1.0
 40
1.0
 40
1.0
 10
-12.2594247106
 20
22.3349016357
 30
0.0
 10
-12.2593000846
 20
22.333797571
 30
0.0
 10
-12.2556335949
 20
22.3317538852
 30
0.0
 10
-12.2492120425
 20
22.3299368279
 30
0.0
 10
-12.2380529266
 20
22.3277209149
 30
0.0
 10
-12.2156869183
 20
22.3246640568
 30
0.0
 10
-12.1780182823
 20
22.3212698334
 30
0.0
 10
-12.1228118604
 20
22.3179175502
 30
0.0
 10
-12.0555846959
 20
22.3151226332
 30
0.0
 10
-11.9789470177
 20
22.313035704
 30
0.0
 10
-11.8958337666
 20
22.3117430394
 30
0.0
 10
-11.8385855329
 20
22.31145084
 30
0.0
 10
-11.809432326
 20
22.3114553375
 30
0.0
  0
SPLINE
  5
54D
100
AcDbEntity
  8
RACCORDO
100
AcDbSpline
 62
250
  6
CONTINUOUS
 70
0
 71
3
 72
9
 73
5
 74
0
 42
0.0000001
 43
0.0000001
 44
0.0000000001
 40
0.0
 40
0.0
 40
0.0
 40
0.0
 40
0.5806406065
 40
1.0
 40
1.0
 40
1.0
 40
1.0
 10
-11.4223895425
 20
21.1808936745
 30
0.0
 10
-11.4220935934
 20
21.2931550664
 30
0.0
 10
-11.4208022509
 20
21.4864894677
 30
0.0
 10
-11.4179097932
 20
21.6798246071
 30
0.0
 10
-11.4153649283
 20
21.7608641294
 30
0.0
  0
SPLINE
  5
54E
100
AcDbEntity
  8
RACCORDO
100
AcDbSpline
 62
250
  6
CONTINUOUS
 70
0
 71
3
 72
11
 73
7
 74
0
 42
0.0000001
 43
0.0000001
 44
0.0000000001
 40
0.0
 40
0.0
 40
0.0
 40
0.0
 40
0.3965158929
 40
0.6976776256
 40
0.8994608778
 40
1.0
 40
1.0
 40
1.0
 40
1.0
 10
-11.4153649283
 20
21.7608641294
 30
0.0
 10
-11.4149505528
 20
21.7740596416
 30
0.0
 10
-11.4140933161
 20
21.7972568782
 30
0.0
 10
-11.4128288804
 20
21.8272313987
 30
0.0
 10
-11.4111398036
 20
21.8471600069
 30
0.0
 10
-11.4103667774
 20
21.8573249566
 30
0.0
 10
-11.4093124412
 20
21.8605020357
 30
0.0
  0
SPLINE
  5
54F
100
AcDbEntity
  8
RACCORDO
100
AcDbSpline
 62
250
  6
CONTINUOUS
 70
0
 71
3
 72
9
 73
5
 74
0
 42
0.0000001
 43
0.0000001
 44
0.0000000001
 40
0.0
 40
0.0
 40
0.0
 40
0.0
 40
0.2506344189
 40
1.0
 40
1.0
 40
1.0
 40
1.0
 10
-11.4333637578
 20
15.9916160641
 30
0.0
 10
-11.4326697079
 20
16.4251536816
 30
0.0
 10
-11.4296790967
 20
18.1549142175
 30
0.0
 10
-11.4258016008
 20
19.8846732238
 30
0.0
 10
-11.4223895425
 20
21.1808936745
 30
0.0
  0
SPLINE
  5
550
100
AcDbEntity
  8
RACCORDO
100
AcDbSpline
 62
250
  6
CONTINUOUS
 70
0
 71
3
 72
14
 73
10
 74
0
 42
0.0000001
 43
0.0000001
 44
0.0000000001
 40
0.0
 40
0.0
 40
0.0
 40
0.0
 40
0.3774400674
 40
0.5480128796
 40
0.6977408587
 40
0.821194556
 40
0.9139095863
 40
0.9731440264
 40
1.0
 40
1.0
 40
1.0
 40
1.0
 10
-9.4239853623
 20
22.5111812444
 30
0.0
 10
-9.3921349769
 20
22.5111799481
 30
0.0
 10
-9.3458654091
 20
22.5119793339
 30
0.0
 10
-9.2870928154
 20
22.5148502739
 30
0.0
 10
-9.249651285
 20
22.517688655
 30
0.0
 10
-9.2192147406
 20
22.5209439875
 30
0.0
 10
-9.1956172858
 20
22.5249399616
 30
0.0
 10
-9.1822364447
 20
22.5282855712
 30
0.0
 10
-9.1741303311
 20
22.5323656681
 30
0.0
 10
-9.1739895931
 20
22.5346275426
 30
0.0
  0
SPLINE
  5
551
100
AcDbEntity
  8
RACCORDO
100
AcDbSpline
 62
250
  6
CONTINUOUS
 70
0
 71
3
 72
11
 73
7
 74
0
 42
0.0000001
 43
0.0000001
 44
0.0000000001
 40
0.0
 40
0.0
 40
0.0
 40
0.0
 40
0.1005391102
 40
0.3023223628
 40
0.6034841012
 40
1.0
 40
1.0
 40
1.0
 40
1.0
 10
7.5758947529
 20
21.8605020357
 30
0.0
 10
7.5769490893
 20
21.8573249571
 30
0.0
 10
7.5777221151
 20
21.8471600076
 30
0.0
 10
7.5794111922
 20
21.8272313998
 30
0.0
 10
7.5806756277
 20
21.7972568789
 30
0.0
 10
7.5815328645
 20
21.7740596419
 30
0.0
 10
7.58194724
 20
21.7608641295
 30
0.0
  0
SPLINE
  5
552
100
AcDbEntity
  8
RACCORDO
100
AcDbSpline
 62
250
  6
CONTINUOUS
 70
0
 71
3
 72
9
 73
5
 74
0
 42
0.0000001
 43
0.0000001
 44
0.0000000001
 40
0.0
 40
0.0
 40
0.0
 40
0.0
 40
0.4193593935
 40
1.0
 40
1.0
 40
1.0
 40
1.0
 10
7.58194724
 20
21.7608641295
 30
0.0
 10
7.5844921048
 20
21.6798246072
 30
0.0
 10
7.5873845626
 20
21.4864894677
 30
0.0
 10
7.5886759051
 20
21.2931550664
 30
0.0
 10
7.5889718542
 20
21.1808936745
 30
0.0
  0
SPLINE
  5
553
100
AcDbEntity
  8
RACCORDO
100
AcDbSpline
 62
250
  6
CONTINUOUS
 70
0
 71
3
 72
17
 73
13
 74
0
 42
0.0000001
 43
0.0000001
 44
0.0000000001
 40
0.0
 40
0.0
 40
0.0
 40
0.0
 40
0.1934594766
 40
0.3798965822
 40
0.5515801588
 40
0.7022382487
 40
0.8262581259
 40
0.9189074338
 40
0.9524252009
 40
0.9770007969
 40
0.9926269424
 40
1.0
 40
1.0
 40
1.0
 40
1.0
 10
-9.4239853623
 20
22.3114553375
 30
0.0
 10
-9.3948321557
 20
22.3114508493
 30
0.0
 10
-9.3375839225
 20
22.3117430471
 30
0.0
 10
-9.2544706708
 20
22.3130356999
 30
0.0
 10
-9.1778329915
 20
22.315122633
 30
0.0
 10
-9.1106058272
 20
22.3179175508
 30
0.0
 10
-9.0553994087
 20
22.3212698327
 30
0.0
 10
-9.0177307762
 20
22.3246640571
 30
0.0
 10
-8.9953647698
 20
22.3277209154
 30
0.0
 10
-8.9842056504
 20
22.3299368283
 30
0.0
 10
-8.9777840967
 20
22.3317538847
 30
0.0
 10
-8.9741176028
 20
22.3337975707
 30
0.0
 10
-8.9739929777
 20
22.3349016357
 30
0.0
  0
SPLINE
  5
554
100
AcDbEntity
  8
RACCORDO
100
AcDbSpline
 62
250
  6
CONTINUOUS
 70
0
 71
3
 72
9
 73
5
 74
0
 42
0.0000001
 43
0.0000001
 44
0.0000000001
 40
0.0
 40
0.0
 40
0.0
 40
0.0
 40
0.2493118447
 40
1.0
 40
1.0
 40
1.0
 40
1.0
 10
7.5889718542
 20
21.1808936745
 30
0.0
 10
7.5901070365
 20
20.7496447355
 30
0.0
 10
7.5944353199
 20
19.0198870283
 30
0.0
 10
7.5978672845
 20
17.2901270818
 30
0.0
 10
7.5999460695
 20
15.9916160641
 30
0.0
  0
SPLINE
  5
555
100
AcDbEntity
  8
RACCORDO
100
AcDbSpline
 62
7
  6
CONTINUOUS
 70
0
 71
3
 72
21
 73
17
 74
0
 42
0.0000001
 43
0.0000001
 44
0.0000000001
 40
0.0
 40
0.0
 40
0.0
 40
0.0
 40
0.0022310482
 40
0.0079853564
 40
0.0171233647
 40
0.0294930083
 40
0.0632854881
 40
0.1077280743
 40
0.1609082393
 40
0.221128236
 40
0.2870428086
 40
0.3574369739
 40
0.5082381789
 40
0.667974114
 40
0.8328579881
 40
1.0
 40
1.0
 40
1.0
 40
1.0
 10
0.5832911558
 20
-6.1000404052
 30
0.0
 10
0.5832911558
 20
-6.1005697638
 30
0.0
 10
0.5850307373
 20
-6.1019280626
 30
0.0
 10
0.5872614167
 20
-6.1050574161
 30
0.0
 10
0.5919093707
 20
-6.1097507404
 30
0.0
 10
0.6007764453
 20
-6.1193179948
 30
0.0
 10
0.6157865171
 20
-6.1347856525
 30
0.0
 10
0.6374754293
 20
-6.1571526069
 30
0.0
 10
0.6636823571
 20
-6.1839193153
 30
0.0
 10
0.6934947499
 20
-6.2142693653
 30
0.0
 10
0.7262285591
 20
-6.2474801467
 30
0.0
 10
0.7741055647
 20
-6.295940413
 30
0.0
 10
0.8377255743
 20
-6.3601405645
 30
0.0
 10
0.917241348
 20
-6.4401510746
 30
0.0
 10
0.9995915633
 20
-6.5228108697
 30
0.0
 10
1.0552547701
 20
-6.5785586409
 30
0.0
 10
1.0832911558
 20
-6.6066066066
 30
0.0
  0
SPLINE
  5
556
100
AcDbEntity
  8
RACCORDO
100
AcDbSpline
 62
7
  6
CONTINUOUS
 70
0
 71
3
 72
21
 73
17
 74
0
 42
0.0000001
 43
0.0000001
 44
0.0000000001
 40
0.0
 40
0.0
 40
0.0
 40
0.0
 40
0.0022310482
 40
0.0079853564
 40
0.0171233647
 40
0.0294930083
 40
0.0632854881
 40
0.1077280743
 40
0.1609082393
 40
0.221128236
 40
0.2870428086
 40
0.3574369739
 40
0.5082381789
 40
0.667974114
 40
0.8328579881
 40
1.0
 40
1.0
 40
1.0
 40
1.0
 10
1.7332911558
 20
-6.1000404052
 30
0.0
 10
1.7332911558
 20
-6.1005697638
 30
0.0
 10
1.7350307373
 20
-6.1019280626
 30
0.0
 10
1.7372614167
 20
-6.1050574161
 30
0.0
 10
1.7419093707
 20
-6.1097507404
 30
0.0
 10
1.7507764453
 20
-6.1193179948
 30
0.0
 10
1.7657865171
 20
-6.1347856525
 30
0.0
 10
1.7874754293
 20
-6.1571526069
 30
0.0
 10
1.8136823571
 20
-6.1839193153
 30
0.0
 10
1.8434947499
 20
-6.2142693653
 30
0.0
 10
1.8762285591
 20
-6.2474801467
 30
0.0
 10
1.9241055647
 20
-6.295940413
 30
0.0
 10
1.9877255743
 20
-6.3601405645
 30
0.0
 10
2.067241348
 20
-6.4401510746
 30
0.0
 10
2.1495915633
 20
-6.5228108697
 30
0.0
 10
2.2052547701
 20
-6.5785586409
 30
0.0
 10
2.2332911558
 20
-6.6066066066
 30
0.0
  0
SPLINE
  5
557
100
AcDbEntity
  8
RACCORDO
100
AcDbSpline
 62
250
  6
CONTINUOUS
 70
0
 71
3
 72
14
 73
10
 74
0
 42
0.0000001
 43
0.0000001
 44
0.0000000001
 40
0.0
 40
0.0
 40
0.0
 40
0.0
 40
0.0268559783
 40
0.0860904154
 40
0.1788054457
 40
0.3022591428
 40
0.4519871215
 40
0.6225599334
 40
1.0
 40
1.0
 40
1.0
 40
1.0
 10
5.3405719047
 20
22.5346275426
 30
0.0
 10
5.3407126431
 20
22.5323656677
 30
0.0
 10
5.3488187549
 20
22.5282855689
 30
0.0
 10
5.3621995985
 20
22.5249399627
 30
0.0
 10
5.3857970519
 20
22.5209439868
 30
0.0
 10
5.4162335968
 20
22.5176886558
 30
0.0
 10
5.4536751271
 20
22.5148502749
 30
0.0
 10
5.5124477208
 20
22.5119793323
 30
0.0
 10
5.5587172886
 20
22.5111799465
 30
0.0
 10
5.590567674
 20
22.5111812444
 30
0.0
  0
SPLINE
  5
558
100
AcDbEntity
  8
RACCORDO
100
AcDbSpline
 62
250
  6
CONTINUOUS
 70
0
 71
3
 72
17
 73
13
 74
0
 42
0.0000001
 43
0.0000001
 44
0.0000000001
 40
0.0
 40
0.0
 40
0.0
 40
0.0
 40
0.0073730559
 40
0.0229991925
 40
0.0475747803
 40
0.0810925475
 40
0.173741872
 40
0.2977617577
 40
0.4484198443
 40
0.620103416
 40
0.8065405215
 40
1.0
 40
1.0
 40
1.0
 40
1.0
 10
5.1405752894
 20
22.3349016357
 30
0.0
 10
5.1406999154
 20
22.333797571
 30
0.0
 10
5.1443664051
 20
22.3317538852
 30
0.0
 10
5.1507879575
 20
22.3299368279
 30
0.0
 10
5.1619470734
 20
22.3277209149
 30
0.0
 10
5.1843130817
 20
22.3246640568
 30
0.0
 10
5.2219817177
 20
22.3212698334
 30
0.0
 10
5.2771881396
 20
22.3179175502
 30
0.0
 10
5.3444153041
 20
22.3151226332
 30
0.0
 10
5.4210529823
 20
22.313035704
 30
0.0
 10
5.5041662334
 20
22.3117430394
 30
0.0
 10
5.5614144671
 20
22.31145084
 30
0.0
 10
5.590567674
 20
22.3114553375
 30
0.0
  0
SPLINE
  5
559
100
AcDbEntity
  8
RACCORDO
100
AcDbSpline
 62
7
  6
CONTINUOUS
 70
0
 71
3
 72
10
 73
6
 74
0
 42
0.0000001
 43
0.0000001
 44
0.0000000001
 40
0.0
 40
0.0
 40
0.0
 40
0.0
 40
0.6460798965
 40
0.8957520456
 40
1.0
 40
1.0
 40
1.0
 40
1.0
 10
2.2332911558
 20
-5.005005005
 30
0.0
 10
2.1250935373
 20
-4.8967586706
 30
0.0
 10
1.9755873506
 20
-4.7461872692
 30
0.0
 10
1.8083596714
 20
-4.5783881384
 30
0.0
 10
1.7502666326
 20
-4.5179379394
 30
0.0
 10
1.7332911558
 20
-4.5
 30
0.0
  0
SPLINE
  5
55A
100
AcDbEntity
  8
RACCORDO
100
AcDbSpline
 62
250
  6
CONTINUOUS
 70
0
 71
3
 72
14
 73
10
 74
0
 42
0.0000001
 43
0.0000001
 44
0.0000000001
 40
0.0
 40
0.0
 40
0.0
 40
0.0
 40
0.3774400674
 40
0.5480128796
 40
0.6977408587
 40
0.821194556
 40
0.9139095863
 40
0.9731440264
 40
1.0
 40
1.0
 40
1.0
 40
1.0
 10
7.9760146377
 20
22.5111812444
 30
0.0
 10
8.0078650231
 20
22.5111799481
 30
0.0
 10
8.0541345909
 20
22.5119793339
 30
0.0
 10
8.1129071846
 20
22.5148502739
 30
0.0
 10
8.150348715
 20
22.517688655
 30
0.0
 10
8.1807852594
 20
22.5209439875
 30
0.0
 10
8.2043827142
 20
22.5249399616
 30
0.0
 10
8.2177635553
 20
22.5282855712
 30
0.0
 10
8.2258696689
 20
22.5323656681
 30
0.0
 10
8.2260104069
 20
22.5346275426
 30
0.0
  0
SPLINE
  5
55B
100
AcDbEntity
  8
RACCORDO
100
AcDbSpline
 62
250
  6
CONTINUOUS
 70
0
 71
3
 72
17
 73
13
 74
0
 42
0.0000001
 43
0.0000001
 44
0.0000000001
 40
0.0
 40
0.0
 40
0.0
 40
0.0
 40
0.1934594766
 40
0.3798965822
 40
0.5515801588
 40
0.7022382487
 40
0.8262581259
 40
0.9189074338
 40
0.9524252009
 40
0.9770007969
 40
0.9926269424
 40
1.0
 40
1.0
 40
1.0
 40
1.0
 10
7.9760146377
 20
22.3114553375
 30
0.0
 10
8.0051678443
 20
22.3114508493
 30
0.0
 10
8.0624160775
 20
22.3117430471
 30
0.0
 10
8.1455293292
 20
22.3130356999
 30
0.0
 10
8.2221670085
 20
22.315122633
 30
0.0
 10
8.2893941728
 20
22.3179175508
 30
0.0
 10
8.3446005913
 20
22.3212698327
 30
0.0
 10
8.3822692238
 20
22.3246640571
 30
0.0
 10
8.4046352302
 20
22.3277209154
 30
0.0
 10
8.4157943496
 20
22.3299368283
 30
0.0
 10
8.4222159033
 20
22.3317538847
 30
0.0
 10
8.4258823972
 20
22.3337975707
 30
0.0
 10
8.4260070223
 20
22.3349016357
 30
0.0
  0
SPLINE
  5
55C
100
AcDbEntity
  8
0
100
AcDbSpline
 62
250
  6
CONTINUOUS
 70
0
 71
3
 72
14
 73
10
 74
0
 42
0.0000001
 43
0.0000001
 44
0.0000000001
 40
0.0
 40
0.0
 40
0.0
 40
0.0
 40
0.0277044595
 40
0.0888931109
 40
0.181802187
 40
0.3037245207
 40
0.4511026606
 40
0.6196340084
 40
1.0
 40
1.0
 40
1.0
 40
1.0
 10
-12.4530511824
 20
-22.0602279426
 30
0.0
 10
-12.4517620951
 20
-22.0524886452
 30
0.0
 10
-12.4515811492
 20
-22.0271878916
 30
0.0
 10
-12.4496291745
 20
-21.9758309262
 30
0.0
 10
-12.4487521216
 20
-21.8976133616
 30
0.0
 10
-12.4474775977
 20
-21.7950646881
 30
0.0
 10
-12.4465491679
 20
-21.6710658766
 30
0.0
 10
-12.4454304135
 20
-21.4738866686
 30
0.0
 10
-12.4450199894
 20
-21.3184372902
 30
0.0
 10
-12.4448781784
 20
-21.2107174911
 30
0.0
  0
SPLINE
  5
55D
100
AcDbEntity
  8
0
100
AcDbSpline
 62
250
  6
CONTINUOUS
 70
0
 71
3
 72
14
 73
10
 74
0
 42
0.0000001
 43
0.0000001
 44
0.0000000001
 40
0.0
 40
0.0
 40
0.0
 40
0.0
 40
0.0278513415
 40
0.08908011
 40
0.1819903827
 40
0.3038922233
 40
0.4512368142
 40
0.6197269862
 40
1.0
 40
1.0
 40
1.0
 40
1.0
 10
-12.9529754919
 20
-21.560914009
 30
0.0
 10
-12.9517289897
 20
-21.5571710746
 30
0.0
 10
-12.9514626249
 20
-21.544323743
 30
0.0
 10
-12.949577901
 20
-21.5187859254
 30
0.0
 10
-12.9486661022
 20
-21.4795982108
 30
0.0
 10
-12.9474054701
 20
-21.4283548518
 30
0.0
 10
-12.9464719909
 20
-21.3663433456
 30
0.0
 10
-12.9453552277
 20
-21.2677546176
 30
0.0
 10
-12.9449438141
 20
-21.1900220101
 30
0.0
 10
-12.9448020259
 20
-21.1361579495
 30
0.0
  0
SPLINE
  5
55E
100
AcDbEntity
  8
0
100
AcDbSpline
 62
250
  6
CONTINUOUS
 70
0
 71
3
 72
13
 73
9
 74
0
 42
0.0000001
 43
0.0000001
 44
0.0000000001
 40
0.0
 40
0.0
 40
0.0
 40
0.0
 40
0.0353304595
 40
0.0986565326
 40
0.1929227082
 40
0.3160034804
 40
0.6312535559
 40
1.0
 40
1.0
 40
1.0
 40
1.0
 10
-12.9448020259
 20
-21.1361579495
 30
0.0
 10
-12.9441065811
 20
-21.14216816
 30
0.0
 10
-12.9298278741
 20
-21.1551403022
 30
0.0
 10
-12.899773858
 20
-21.166619612
 30
0.0
 10
-12.8528216507
 20
-21.1791154289
 30
0.0
 10
-12.7630620363
 20
-21.1943913242
 30
0.0
 10
-12.6251221941
 20
-21.2070510467
 30
0.0
 10
-12.508025492
 20
-21.2105549634
 30
0.0
 10
-12.4448781784
 20
-21.2107174908
 30
0.0
  0
SPLINE
  5
55F
100
AcDbEntity
  8
0
100
AcDbSpline
 62
250
  6
CONTINUOUS
 70
0
 71
3
 72
18
 73
14
 74
0
 42
0.0000001
 43
0.0000001
 44
0.0000000001
 40
0.0
 40
0.0
 40
0.0
 40
0.0
 40
0.0066567222
 40
0.0225113735
 40
0.0475276483
 40
0.0814931529
 40
0.1240969435
 40
0.1749409488
 40
0.2993687996
 40
0.4501139444
 40
0.6215146931
 40
0.8071308937
 40
1.0
 40
1.0
 40
1.0
 40
1.0
 10
-12.9276171414
 20
-9.4905
 30
0.0
 10
-12.9268664241
 20
-9.4913175592
 30
0.0
 10
-12.9226169374
 20
-9.4914174328
 30
0.0
 10
-12.9151891378
 20
-9.4926977582
 30
0.0
 10
-12.9024963057
 20
-9.4932826377
 30
0.0
 10
-12.8856802554
 20
-9.4942264495
 30
0.0
 10
-12.8644123771
 20
-9.495000279
 30
0.0
 10
-12.828117889
 20
-9.4961323401
 30
0.0
 10
-12.7737590631
 20
-9.4973157143
 30
0.0
 10
-12.6993098669
 20
-9.4984562865
 30
0.0
 10
-12.6146478745
 20
-9.4993110725
 30
0.0
 10
-12.5229613903
 20
-9.4998539523
 30
0.0
 10
-12.4598523987
 20
-9.4999893365
 30
0.0
 10
-12.4276932938
 20
-9.5
 30
0.0
  0
SPLINE
  5
560
100
AcDbEntity
  8
0
100
AcDbSpline
 62
250
  6
CONTINUOUS
 70
0
 71
3
 72
8
 73
4
 74
0
 42
0.0000001
 43
0.0000001
 44
0.0000000001
 40
0.0
 40
0.0
 40
0.0
 40
0.0
 40
1.0
 40
1.0
 40
1.0
 40
1.0
 10
-12.9276171414
 20
-9.4905
 30
0.0
 10
-12.9255184378
 20
-3.1635003481
 30
0.0
 10
-12.9255184378
 20
3.1635003481
 30
0.0
 10
-12.9276171414
 20
9.4905
 30
0.0
  0
SPLINE
  5
561
100
AcDbEntity
  8
0
100
AcDbSpline
 62
250
  6
CONTINUOUS
 70
0
 71
3
 72
18
 73
14
 74
0
 42
0.0000001
 43
0.0000001
 44
0.0000000001
 40
0.0
 40
0.0
 40
0.0
 40
0.0
 40
0.0066567225
 40
0.0225113742
 40
0.0475276493
 40
0.0814931541
 40
0.1240969449
 40
0.1749409503
 40
0.2993688012
 40
0.4501139457
 40
0.6215146941
 40
0.8071308943
 40
1.0
 40
1.0
 40
1.0
 40
1.0
 10
-12.9276171414
 20
9.4905
 30
0.0
 10
-12.926866424
 20
9.4913175592
 30
0.0
 10
-12.9226169373
 20
9.4914174328
 30
0.0
 10
-12.9151891374
 20
9.4926977582
 30
0.0
 10
-12.9024963053
 20
9.4932826377
 30
0.0
 10
-12.8856802548
 20
9.4942264495
 30
0.0
 10
-12.8644123764
 20
9.495000279
 30
0.0
 10
-12.8281178882
 20
9.49613234
 30
0.0
 10
-12.7737590624
 20
9.4973157143
 30
0.0
 10
-12.6993098663
 20
9.4984562864
 30
0.0
 10
-12.6146478741
 20
9.4993110725
 30
0.0
 10
-12.52296139
 20
9.4998539523
 30
0.0
 10
-12.4598523986
 20
9.4999893364
 30
0.0
 10
-12.4276932938
 20
9.5
 30
0.0
  0
SPLINE
  5
562
100
AcDbEntity
  8
0
100
AcDbSpline
 62
250
  6
CONTINUOUS
 70
0
 71
3
 72
13
 73
9
 74
0
 42
0.0000001
 43
0.0000001
 44
0.0000000001
 40
0.0
 40
0.0
 40
0.0
 40
0.0
 40
0.0353304866
 40
0.0986565966
 40
0.1929228008
 40
0.3160035866
 40
0.6312536363
 40
1.0
 40
1.0
 40
1.0
 40
1.0
 10
-12.9448020259
 20
21.1361579495
 30
0.0
 10
-12.9441065684
 20
21.142168163
 30
0.0
 10
-12.9298278409
 20
21.1551402907
 30
0.0
 10
-12.8997738105
 20
21.1666196019
 30
0.0
 10
-12.852821589
 20
21.1791154106
 30
0.0
 10
-12.763061975
 20
21.1943912985
 30
0.0
 10
-12.625122154
 20
21.2070510121
 30
0.0
 10
-12.5080254754
 20
21.2105549267
 30
0.0
 10
-12.4448781784
 20
21.2107174539
 30
0.0
  0
SPLINE
  5
563
100
AcDbEntity
  8
0
100
AcDbSpline
 62
250
  6
CONTINUOUS
 70
0
 71
3
 72
14
 73
10
 74
0
 42
0.0000001
 43
0.0000001
 44
0.0000000001
 40
0.0
 40
0.0
 40
0.0
 40
0.0
 40
0.3803659866
 40
0.5488973315
 40
0.6962754694
 40
0.8181978015
 40
0.9111068778
 40
0.9722955422
 40
1.0
 40
1.0
 40
1.0
 40
1.0
 10
-12.4448781784
 20
21.2107174911
 30
0.0
 10
-12.4450199916
 20
21.3184372904
 30
0.0
 10
-12.4454304263
 20
21.4738866665
 30
0.0
 10
-12.4465491554
 20
21.6710658803
 30
0.0
 10
-12.4474776699
 20
21.7950646784
 30
0.0
 10
-12.4487519025
 20
21.8976133906
 30
0.0
 10
-12.4496296078
 20
21.975830866
 30
0.0
 10
-12.4515802688
 20
22.0271880229
 30
0.0
 10
-12.4517629025
 20
22.0524885418
 30
0.0
 10
-12.4530513667
 20
22.0602279426
 30
0.0
  0
SPLINE
  5
564
100
AcDbEntity
  8
0
100
AcDbSpline
 62
250
  6
CONTINUOUS
 70
0
 71
3
 72
14
 73
10
 74
0
 42
0.0000001
 43
0.0000001
 44
0.0000000001
 40
0.0
 40
0.0
 40
0.0
 40
0.0
 40
0.3802655362
 40
0.5487532117
 40
0.6960965874
 40
0.8179987805
 40
0.9109111072
 40
0.972143564
 40
1.0
 40
1.0
 40
1.0
 40
1.0
 10
-12.9448020259
 20
21.1361579495
 30
0.0
 10
-12.9449438265
 20
21.1900208414
 30
0.0
 10
-12.9453552074
 20
21.2677518768
 30
0.0
 10
-12.9464719318
 20
21.3663388225
 30
0.0
 10
-12.9474053805
 20
21.4283497204
 30
0.0
 10
-12.9486659646
 20
21.4795931628
 30
0.0
 10
-12.9495777474
 20
21.5187816205
 30
0.0
 10
-12.9514624552
 20
21.5443209953
 30
0.0
 10
-12.951728736
 20
21.5571694807
 30
0.0
 10
-12.9529752142
 20
21.5609131753
 30
0.0
  0
SPLINE
  5
565
100
AcDbEntity
  8
0
100
AcDbSpline
 62
250
  6
CONTINUOUS
 70
0
 71
3
 72
13
 73
9
 74
0
 42
0.0000001
 43
0.0000001
 44
0.0000000001
 40
0.0
 40
0.0
 40
0.0
 40
0.0
 40
0.0353304866
 40
0.0986566013
 40
0.1929228123
 40
0.3160036041
 40
0.6312536537
 40
1.0
 40
1.0
 40
1.0
 40
1.0
 10
9.1113843376
 20
-21.1361579495
 30
0.0
 10
9.1106888801
 20
-21.1421681629
 30
0.0
 10
9.0964101501
 20
-21.15514029
 30
0.0
 10
9.066356118
 20
-21.1666195996
 30
0.0
 10
9.019403893
 20
-21.179115407
 30
0.0
 10
8.929644277
 20
-21.1943912923
 30
0.0
 10
8.7917044586
 20
-21.2070510035
 30
0.0
 10
8.6746077837
 20
-21.2105549174
 30
0.0
 10
8.61146049
 20
-21.2107174445
 30
0.0
  0
SPLINE
  5
566
100
AcDbEntity
  8
RACCORDO
100
AcDbSpline
 62
7
  6
CONTINUOUS
 70
0
 71
3
 72
10
 73
6
 74
0
 42
0.0000001
 43
0.0000001
 44
0.0000000001
 40
0.0
 40
0.0
 40
0.0
 40
0.0
 40
0.6460740036
 40
0.8957455062
 40
1.0
 40
1.0
 40
1.0
 40
1.0
 10
5.0332911558
 20
-5.005005005
 30
0.0
 10
4.9250945232
 20
-4.896759657
 30
0.0
 10
4.7755899487
 20
-4.7461888422
 30
0.0
 10
4.6083612608
 20
-4.5783906965
 30
0.0
 10
4.5502675241
 20
-4.5179392322
 30
0.0
 10
4.5332911558
 20
-4.5
 30
0.0
  0
SPLINE
  5
567
100
AcDbEntity
  8
RACCORDO
100
AcDbSpline
 62
7
  6
CONTINUOUS
 70
0
 71
3
 72
10
 73
6
 74
0
 42
0.0000001
 43
0.0000001
 44
0.0000000001
 40
0.0
 40
0.0
 40
0.0
 40
0.0
 40
0.645875597
 40
0.8954605307
 40
1.0
 40
1.0
 40
1.0
 40
1.0
 10
5.0332911558
 20
3.9039039039
 30
0.0
 10
4.9252485466
 20
3.7958105278
 30
0.0
 10
4.7758428726
 20
3.6455645541
 30
0.0
 10
4.6087478413
 20
3.4780101606
 30
0.0
 10
4.5504088362
 20
3.41785903
 30
0.0
 10
4.5332911558
 20
3.4
 30
0.0
  0
SPLINE
  5
568
100
AcDbEntity
  8
RACCORDO
100
AcDbSpline
 62
7
  6
CONTINUOUS
 70
0
 71
3
 72
10
 73
6
 74
0
 42
0.0000001
 43
0.0000001
 44
0.0000000001
 40
0.0
 40
0.0
 40
0.0
 40
0.0
 40
0.6458800535
 40
0.8954656014
 40
1.0
 40
1.0
 40
1.0
 40
1.0
 10
-8.8667088442
 20
3.9039039039
 30
0.0
 10
-8.7586654899
 20
3.7958097824
 30
0.0
 10
-8.6092586594
 20
3.6455632647
 30
0.0
 10
-8.4421642286
 20
3.4780082815
 30
0.0
 10
-8.3838257978
 20
3.4178580629
 30
0.0
 10
-8.3667088442
 20
3.4
 30
0.0
  0
SPLINE
  5
569
100
AcDbEntity
  8
0
100
AcDbSpline
 62
250
  6
CONTINUOUS
 70
0
 71
3
 72
14
 73
10
 74
0
 42
0.0000001
 43
0.0000001
 44
0.0000000001
 40
0.0
 40
0.0
 40
0.0
 40
0.0
 40
0.3803659916
 40
0.5488973394
 40
0.6962754793
 40
0.818197813
 40
0.9111068891
 40
0.9722955405
 40
1.0
 40
1.0
 40
1.0
 40
1.0
 10
8.61146049
 20
-21.2107174911
 30
0.0
 10
8.611602301
 20
-21.3184372902
 30
0.0
 10
8.6120127251
 20
-21.4738866686
 30
0.0
 10
8.6131314796
 20
-21.6710658766
 30
0.0
 10
8.6140599094
 20
-21.7950646881
 30
0.0
 10
8.6153344333
 20
-21.8976133616
 30
0.0
 10
8.6162114862
 20
-21.9758309262
 30
0.0
 10
8.6181634608
 20
-22.0271878916
 30
0.0
 10
8.6183444067
 20
-22.0524886452
 30
0.0
 10
8.619633494
 20
-22.0602279426
 30
0.0
  0
SPLINE
  5
56A
100
AcDbEntity
  8
RACCORDO
100
AcDbSpline
 62
7
  6
CONTINUOUS
 70
0
 71
3
 72
10
 73
6
 74
0
 42
0.0000001
 43
0.0000001
 44
0.0000000001
 40
0.0
 40
0.0
 40
0.0
 40
0.0
 40
0.6460798965
 40
0.8957520456
 40
1.0
 40
1.0
 40
1.0
 40
1.0
 10
-8.8667088442
 20
-5.005005005
 30
0.0
 10
-8.7585112256
 20
-4.8967586706
 30
0.0
 10
-8.6090050389
 20
-4.7461872692
 30
0.0
 10
-8.4417773597
 20
-4.5783881384
 30
0.0
 10
-8.3836843209
 20
-4.5179379394
 30
0.0
 10
-8.3667088442
 20
-4.5
 30
0.0
  0
SPLINE
  5
56B
100
AcDbEntity
  8
RACCORDO
100
AcDbSpline
 62
7
  6
CONTINUOUS
 70
0
 71
3
 72
10
 73
6
 74
0
 42
0.0000001
 43
0.0000001
 44
0.0000000001
 40
0.0
 40
0.0
 40
0.0
 40
0.0
 40
0.6460740036
 40
0.8957455062
 40
1.0
 40
1.0
 40
1.0
 40
1.0
 10
-6.0667088442
 20
-5.005005005
 30
0.0
 10
-5.9585122116
 20
-4.896759657
 30
0.0
 10
-5.809007637
 20
-4.7461888422
 30
0.0
 10
-5.6417789492
 20
-4.5783906965
 30
0.0
 10
-5.5836852124
 20
-4.5179392322
 30
0.0
 10
-5.5667088442
 20
-4.5
 30
0.0
  0
SPLINE
  5
56C
100
AcDbEntity
  8
RACCORDO
100
AcDbSpline
 62
7
  6
CONTINUOUS
 70
0
 71
3
 72
21
 73
17
 74
0
 42
0.0000001
 43
0.0000001
 44
0.0000000001
 40
0.0
 40
0.0
 40
0.0
 40
0.0
 40
0.0022310482
 40
0.0079853564
 40
0.0171233647
 40
0.0294930083
 40
0.0632854881
 40
0.1077280743
 40
0.1609082393
 40
0.221128236
 40
0.2870428086
 40
0.3574369739
 40
0.5082381789
 40
0.667974114
 40
0.8328579881
 40
1.0
 40
1.0
 40
1.0
 40
1.0
 10
-5.5667088442
 20
-6.1000404052
 30
0.0
 10
-5.5667088442
 20
-6.1005697638
 30
0.0
 10
-5.5684484256
 20
-6.1019280626
 30
0.0
 10
-5.570679105
 20
-6.1050574161
 30
0.0
 10
-5.575327059
 20
-6.1097507404
 30
0.0
 10
-5.5841941336
 20
-6.1193179948
 30
0.0
 10
-5.5992042054
 20
-6.1347856525
 30
0.0
 10
-5.6208931176
 20
-6.1571526069
 30
0.0
 10
-5.6471000454
 20
-6.1839193153
 30
0.0
 10
-5.6769124382
 20
-6.2142693653
 30
0.0
 10
-5.7096462474
 20
-6.2474801467
 30
0.0
 10
-5.757523253
 20
-6.295940413
 30
0.0
 10
-5.8211432627
 20
-6.3601405645
 30
0.0
 10
-5.9006590363
 20
-6.4401510746
 30
0.0
 10
-5.9830092516
 20
-6.5228108697
 30
0.0
 10
-6.0386724584
 20
-6.5785586409
 30
0.0
 10
-6.0667088442
 20
-6.6066066066
 30
0.0
  0
SPLINE
  5
56D
100
AcDbEntity
  8
0
100
AcDbSpline
 62
250
  6
CONTINUOUS
 70
0
 71
3
 72
14
 73
10
 74
0
 42
0.0000001
 43
0.0000001
 44
0.0000000001
 40
0.0
 40
0.0
 40
0.0
 40
0.0
 40
0.3802205958
 40
0.548693429
 40
0.6960295155
 40
0.8179333285
 40
0.9108571403
 40
0.9721114689
 40
1.0
 40
1.0
 40
1.0
 40
1.0
 10
9.1113843376
 20
-21.1361579495
 30
0.0
 10
9.1115261042
 20
-21.190013818
 30
0.0
 10
9.1119374973
 20
-21.2677354082
 30
0.0
 10
9.1130538046
 20
-21.3663117174
 30
0.0
 10
9.1139874088
 20
-21.4283188009
 30
0.0
 10
9.115246747
 20
-21.4795628759
 30
0.0
 10
9.1161608097
 20
-21.5187547667
 30
0.0
 10
9.118040692
 20
-21.5443051439
 30
0.0
 10
9.1183124857
 20
-21.5571587073
 30
0.0
 10
9.1195558598
 20
-21.560908173
 30
0.0
  0
SPLINE
  5
56E
100
AcDbEntity
  8
0
100
AcDbSpline
 62
250
  6
CONTINUOUS
 70
0
 71
3
 72
18
 73
14
 74
0
 42
0.0000001
 43
0.0000001
 44
0.0000000001
 40
0.0
 40
0.0
 40
0.0
 40
0.0
 40
0.0066567224
 40
0.022511374
 40
0.047527649
 40
0.0814931537
 40
0.1240969444
 40
0.1749409498
 40
0.2993688006
 40
0.4501139453
 40
0.6215146938
 40
0.8071308941
 40
1.0
 40
1.0
 40
1.0
 40
1.0
 10
9.0941994531
 20
-9.4905
 30
0.0
 10
9.0934487357
 20
-9.4913175592
 30
0.0
 10
9.089199249
 20
-9.4914174328
 30
0.0
 10
9.0817714492
 20
-9.4926977582
 30
0.0
 10
9.0690786171
 20
-9.4932826377
 30
0.0
 10
9.0522625667
 20
-9.4942264495
 30
0.0
 10
9.0309946883
 20
-9.495000279
 30
0.0
 10
8.9947002002
 20
-9.49613234
 30
0.0
 10
8.9403413743
 20
-9.4973157143
 30
0.0
 10
8.8658921782
 20
-9.4984562864
 30
0.0
 10
8.7812301859
 20
-9.4993110725
 30
0.0
 10
8.6895437018
 20
-9.4998539523
 30
0.0
 10
8.6264347103
 20
-9.4999893364
 30
0.0
 10
8.5942756055
 20
-9.5
 30
0.0
  0
SPLINE
  5
56F
100
AcDbEntity
  8
0
100
AcDbSpline
 62
250
  6
CONTINUOUS
 70
0
 71
3
 72
18
 73
14
 74
0
 42
0.0000001
 43
0.0000001
 44
0.0000000001
 40
0.0
 40
0.0
 40
0.0
 40
0.0
 40
0.0066567222
 40
0.0225113735
 40
0.0475276483
 40
0.0814931529
 40
0.1240969435
 40
0.1749409488
 40
0.2993687996
 40
0.4501139444
 40
0.6215146931
 40
0.8071308937
 40
1.0
 40
1.0
 40
1.0
 40
1.0
 10
9.0941994531
 20
9.4905
 30
0.0
 10
9.0934487358
 20
9.4913175592
 30
0.0
 10
9.0891992491
 20
9.4914174328
 30
0.0
 10
9.0817714495
 20
9.4926977582
 30
0.0
 10
9.0690786174
 20
9.4932826377
 30
0.0
 10
9.0522625671
 20
9.4942264495
 30
0.0
 10
9.0309946888
 20
9.495000279
 30
0.0
 10
8.9947002007
 20
9.4961323401
 30
0.0
 10
8.9403413748
 20
9.4973157143
 30
0.0
 10
8.8658921786
 20
9.4984562865
 30
0.0
 10
8.7812301862
 20
9.4993110725
 30
0.0
 10
8.689543702
 20
9.4998539523
 30
0.0
 10
8.6264347104
 20
9.4999893365
 30
0.0
 10
8.5942756055
 20
9.5
 30
0.0
  0
SPLINE
  5
570
100
AcDbEntity
  8
0
100
AcDbSpline
 62
250
  6
CONTINUOUS
 70
0
 71
3
 72
8
 73
4
 74
0
 42
0.0000001
 43
0.0000001
 44
0.0000000001
 40
0.0
 40
0.0
 40
0.0
 40
0.0
 40
1.0
 40
1.0
 40
1.0
 40
1.0
 10
9.0941994531
 20
9.4905
 30
0.0
 10
9.0921007495
 20
3.1635003481
 30
0.0
 10
9.0921007495
 20
-3.1635003481
 30
0.0
 10
9.0941994531
 20
-9.4905
 30
0.0
  0
SPLINE
  5
571
100
AcDbEntity
  8
0
100
AcDbSpline
 62
250
  6
CONTINUOUS
 70
0
 71
3
 72
13
 73
9
 74
0
 42
0.0000001
 43
0.0000001
 44
0.0000000001
 40
0.0
 40
0.0
 40
0.0
 40
0.0
 40
0.0353304594
 40
0.0986565323
 40
0.1929227079
 40
0.31600348
 40
0.6312535556
 40
1.0
 40
1.0
 40
1.0
 40
1.0
 10
9.1113843376
 20
21.1361579495
 30
0.0
 10
9.1106888929
 20
21.14216816
 30
0.0
 10
9.096410186
 20
21.1551403023
 30
0.0
 10
9.0663561699
 20
21.166619612
 30
0.0
 10
9.0194039626
 20
21.1791154289
 30
0.0
 10
8.9296443482
 20
21.1943913243
 30
0.0
 10
8.7917045059
 20
21.2070510468
 30
0.0
 10
8.6746078037
 20
21.2105549635
 30
0.0
 10
8.61146049
 20
21.2107174909
 30
0.0
  0
SPLINE
  5
572
100
AcDbEntity
  8
0
100
AcDbSpline
 62
250
  6
CONTINUOUS
 70
0
 71
3
 72
14
 73
10
 74
0
 42
0.0000001
 43
0.0000001
 44
0.0000000001
 40
0.0
 40
0.0
 40
0.0
 40
0.0
 40
0.0277044578
 40
0.0888931222
 40
0.1818021985
 40
0.3037245306
 40
0.4511026685
 40
0.6196340134
 40
1.0
 40
1.0
 40
1.0
 40
1.0
 10
8.6196336783
 20
22.0602279426
 30
0.0
 10
8.6183452142
 20
22.0524885418
 30
0.0
 10
8.6181625805
 20
22.0271880229
 30
0.0
 10
8.6162119194
 20
21.975830866
 30
0.0
 10
8.6153342142
 20
21.8976133906
 30
0.0
 10
8.6140599816
 20
21.7950646784
 30
0.0
 10
8.6131314671
 20
21.6710658803
 30
0.0
 10
8.612012738
 20
21.4738866665
 30
0.0
 10
8.6116023033
 20
21.3184372904
 30
0.0
 10
8.61146049
 20
21.2107174911
 30
0.0
  0
SPLINE
  5
573
100
AcDbEntity
  8
0
100
AcDbSpline
 62
250
  6
CONTINUOUS
 70
0
 71
3
 72
14
 73
10
 74
0
 42
0.0000001
 43
0.0000001
 44
0.0000000001
 40
0.0
 40
0.0
 40
0.0
 40
0.0
 40
0.027856436
 40
0.0890888928
 40
0.1820012195
 40
0.3039034126
 40
0.4512467883
 40
0.6197344638
 40
1.0
 40
1.0
 40
1.0
 40
1.0
 10
9.1195575259
 20
21.5609131753
 30
0.0
 10
9.1183110477
 20
21.5571694807
 30
0.0
 10
9.1180447669
 20
21.5443209953
 30
0.0
 10
9.1161600591
 20
21.5187816205
 30
0.0
 10
9.1152482763
 20
21.4795931628
 30
0.0
 10
9.1139876922
 20
21.4283497204
 30
0.0
 10
9.1130542434
 20
21.3663388225
 30
0.0
 10
9.1119375191
 20
21.2677518768
 30
0.0
 10
9.1115261382
 20
21.1900208414
 30
0.0
 10
9.1113843376
 20
21.1361579495
 30
0.0
  0
SPLINE
  5
574
100
AcDbEntity
  8
RACCORDO
100
AcDbSpline
 62
250
  6
CONTINUOUS
 70
0
 71
3
 72
12
 73
8
 74
0
 42
0.0000001
 43
0.0000001
 44
0.0000000001
 40
0.0
 40
0.0
 40
0.0
 40
0.0
 40
0.3688361402
 40
0.6841628995
 40
0.9013540108
 40
0.9646780229
 40
1.0
 40
1.0
 40
1.0
 40
1.0
 10
7.7889413932
 20
21.2107174905
 30
0.0
 10
7.763682468
 20
21.2106524785
 30
0.0
 10
7.7167295019
 20
21.2092385832
 30
0.0
 10
7.6555313234
 20
21.2036285551
 30
0.0
 10
7.6146861106
 20
21.1960424787
 30
0.0
 10
7.5949769325
 20
21.1884640047
 30
0.0
 10
7.5892498979
 20
21.1832965969
 30
0.0
 10
7.5889718542
 20
21.1808936745
 30
0.0
  0
SPLINE
  5
575
100
AcDbEntity
  8
RACCORDO
100
AcDbSpline
 62
250
  6
CONTINUOUS
 70
0
 71
3
 72
14
 73
10
 74
0
 42
0.0000001
 43
0.0000001
 44
0.0000000001
 40
0.0
 40
0.0
 40
0.0
 40
0.0
 40
0.3745443699
 40
0.5444026274
 40
0.6938928867
 40
0.8176474159
 40
0.9114159098
 40
0.971993636
 40
1.0
 40
1.0
 40
1.0
 40
1.0
 10
7.7999156067
 20
16.0098812014
 30
0.0
 10
7.7746650993
 20
16.0098414208
 30
0.0
 10
7.7379455772
 20
16.0091790341
 30
0.0
 10
7.6912474843
 20
16.0069117923
 30
0.0
 10
7.6613798579
 20
16.0047201048
 30
0.0
 10
7.6369688474
 20
16.0021365046
 30
0.0
 10
7.6179436542
 20
15.9991621622
 30
0.0
 10
7.6069531648
 20
15.9963377866
 30
0.0
 10
7.6002798893
 20
15.993470866
 30
0.0
 10
7.5999268967
 20
15.9916160605
 30
0.0
  0
SPLINE
  5
576
100
AcDbEntity
  8
RACCORDO
100
AcDbSpline
 62
250
  6
CONTINUOUS
 70
0
 71
3
 72
14
 73
10
 74
0
 42
0.0000001
 43
0.0000001
 44
0.0000000001
 40
0.0
 40
0.0
 40
0.0
 40
0.0
 40
0.3745588262
 40
0.5444177813
 40
0.6939056629
 40
0.817656001
 40
0.9114199958
 40
0.9719944166
 40
1.0
 40
1.0
 40
1.0
 40
1.0
 10
-11.6333332969
 20
16.009882469
 30
0.0
 10
-11.6080841718
 20
16.0098423849
 30
0.0
 10
-11.5713670627
 20
16.0091796334
 30
0.0
 10
-11.5246724923
 20
16.0069119714
 30
0.0
 10
-11.4948080898
 20
16.0047200718
 30
0.0
 10
-11.4704001082
 20
16.002136399
 30
0.0
 10
-11.4513776502
 20
15.9991619447
 30
0.0
 10
-11.4403886456
 20
15.9963377517
 30
0.0
 10
-11.4337166143
 20
15.9934706626
 30
0.0
 10
-11.4333637578
 20
15.9916160641
 30
0.0
  0
SPLINE
  5
577
100
AcDbEntity
  8
RACCORDO
100
AcDbSpline
 62
250
  6
CONTINUOUS
 70
0
 71
3
 72
12
 73
8
 74
0
 42
0.0000001
 43
0.0000001
 44
0.0000000001
 40
0.0
 40
0.0
 40
0.0
 40
0.0
 40
0.3688188423
 40
0.6841385001
 40
0.9013376772
 40
0.9646705796
 40
1.0
 40
1.0
 40
1.0
 40
1.0
 10
-11.6223590815
 20
21.2107144964
 30
0.0
 10
-11.5971016068
 20
21.2106494958
 30
0.0
 10
-11.5501508032
 20
21.2092358725
 30
0.0
 10
-11.4889543806
 20
21.2036260744
 30
0.0
 10
-11.448108726
 20
21.1960414295
 30
0.0
 10
-11.4283980017
 20
21.1884628189
 30
0.0
 10
-11.4226689989
 20
21.1832969207
 30
0.0
 10
-11.4223895432
 20
21.1808936745
 30
0.0
  0
SPLINE
  5
578
100
AcDbEntity
  8
RACCORDO
100
AcDbSpline
 62
250
  6
CONTINUOUS
 70
0
 71
3
 72
9
 73
5
 74
0
 42
0.0000001
 43
0.0000001
 44
0.0000000001
 40
0.0
 40
0.0
 40
0.0
 40
0.0
 40
0.5008806662
 40
1.0
 40
1.0
 40
1.0
 40
1.0
 10
-11.1047064803
 20
15.5210778544
 30
0.0
 10
-11.1991844555
 20
15.5553635681
 30
0.0
 10
-11.3707329029
 20
15.685644785
 30
0.0
 10
-11.4336039904
 20
15.8914630751
 30
0.0
 10
-11.4333637578
 20
15.9916160641
 30
0.0
  0
SPLINE
  5
579
100
AcDbEntity
  8
RACCORDO
100
AcDbSpline
 62
250
  6
CONTINUOUS
 70
0
 71
3
 72
9
 73
5
 74
0
 42
0.0000001
 43
0.0000001
 44
0.0000000001
 40
0.0
 40
0.0
 40
0.0
 40
0.0
 40
0.4991193337
 40
1.0
 40
1.0
 40
1.0
 40
1.0
 10
7.5999460695
 20
15.9916160641
 30
0.0
 10
7.6001863089
 20
15.8914630752
 30
0.0
 10
7.5373152112
 20
15.6856447853
 30
0.0
 10
7.3657667674
 20
15.5553635674
 30
0.0
 10
7.271288792
 20
15.5210778544
 30
0.0
  0
SPLINE
  5
57A
100
AcDbEntity
  8
RACCORDO
100
AcDbSpline
 62
7
  6
CONTINUOUS
 70
0
 71
3
 72
21
 73
17
 74
0
 42
0.0000001
 43
0.0000001
 44
0.0000000001
 40
0.0
 40
0.0
 40
0.0
 40
0.0
 40
0.0022310482
 40
0.0079853564
 40
0.0171233647
 40
0.0294930083
 40
0.0632854881
 40
0.1077280743
 40
0.1609082393
 40
0.221128236
 40
0.2870428086
 40
0.3574369739
 40
0.5082381789
 40
0.667974114
 40
0.8328579881
 40
1.0
 40
1.0
 40
1.0
 40
1.0
 10
-4.4167088442
 20
-6.1000404052
 30
0.0
 10
-4.4167088442
 20
-6.1005697638
 30
0.0
 10
-4.4184484256
 20
-6.1019280626
 30
0.0
 10
-4.420679105
 20
-6.1050574161
 30
0.0
 10
-4.425327059
 20
-6.1097507404
 30
0.0
 10
-4.4341941336
 20
-6.1193179948
 30
0.0
 10
-4.4492042054
 20
-6.1347856525
 30
0.0
 10
-4.4708931176
 20
-6.1571526069
 30
0.0
 10
-4.4971000454
 20
-6.1839193153
 30
0.0
 10
-4.5269124382
 20
-6.2142693653
 30
0.0
 10
-4.5596462474
 20
-6.2474801467
 30
0.0
 10
-4.607523253
 20
-6.295940413
 30
0.0
 10
-4.6711432627
 20
-6.3601405645
 30
0.0
 10
-4.7506590363
 20
-6.4401510746
 30
0.0
 10
-4.8330092516
 20
-6.5228108697
 30
0.0
 10
-4.8886724584
 20
-6.5785586409
 30
0.0
 10
-4.9167088442
 20
-6.6066066066
 30
0.0
  0
SPLINE
  5
57B
100
AcDbEntity
  8
RACCORDO
100
AcDbSpline
 62
250
  6
CONTINUOUS
 70
0
 71
3
 72
14
 73
10
 74
0
 42
0.0000001
 43
0.0000001
 44
0.0000000001
 40
0.0
 40
0.0
 40
0.0
 40
0.0
 40
0.0268559783
 40
0.0860904154
 40
0.1788054457
 40
0.3022591428
 40
0.4519871215
 40
0.6225599334
 40
1.0
 40
1.0
 40
1.0
 40
1.0
 10
-9.1739895931
 20
-22.5346275426
 30
0.0
 10
-9.1741303314
 20
-22.5323656677
 30
0.0
 10
-9.1822364432
 20
-22.5282855689
 30
0.0
 10
-9.1956172868
 20
-22.5249399627
 30
0.0
 10
-9.2192147402
 20
-22.5209439868
 30
0.0
 10
-9.2496512852
 20
-22.5176886558
 30
0.0
 10
-9.2870928155
 20
-22.5148502749
 30
0.0
 10
-9.3458654091
 20
-22.5119793323
 30
0.0
 10
-9.3921349769
 20
-22.5111799465
 30
0.0
 10
-9.4239853623
 20
-22.5111812444
 30
0.0
  0
SPLINE
  5
57C
100
AcDbEntity
  8
RACCORDO
100
AcDbSpline
 62
250
  6
CONTINUOUS
 70
0
 71
3
 72
17
 73
13
 74
0
 42
0.0000001
 43
0.0000001
 44
0.0000000001
 40
0.0
 40
0.0
 40
0.0
 40
0.0
 40
0.0073730559
 40
0.0229991925
 40
0.0475747803
 40
0.0810925475
 40
0.173741872
 40
0.2977617577
 40
0.4484198443
 40
0.620103416
 40
0.8065405215
 40
1.0
 40
1.0
 40
1.0
 40
1.0
 10
-8.9739929777
 20
-22.3349016357
 30
0.0
 10
-8.9741176037
 20
-22.333797571
 30
0.0
 10
-8.9777840934
 20
-22.3317538852
 30
0.0
 10
-8.9842056459
 20
-22.3299368279
 30
0.0
 10
-8.9953647617
 20
-22.3277209149
 30
0.0
 10
-9.01773077
 20
-22.3246640568
 30
0.0
 10
-9.0553994061
 20
-22.3212698334
 30
0.0
 10
-9.110605828
 20
-22.3179175502
 30
0.0
 10
-9.1778329925
 20
-22.3151226332
 30
0.0
 10
-9.2544706707
 20
-22.313035704
 30
0.0
 10
-9.3375839218
 20
-22.3117430394
 30
0.0
 10
-9.3948321554
 20
-22.31145084
 30
0.0
 10
-9.4239853623
 20
-22.3114553375
 30
0.0
  0
SPLINE
  5
57D
100
AcDbEntity
  8
RACCORDO
100
AcDbSpline
 62
250
  6
CONTINUOUS
 70
0
 71
3
 72
14
 73
10
 74
0
 42
0.0000001
 43
0.0000001
 44
0.0000000001
 40
0.0
 40
0.0
 40
0.0
 40
0.0
 40
0.3774400674
 40
0.5480128796
 40
0.6977408587
 40
0.821194556
 40
0.9139095863
 40
0.9731440264
 40
1.0
 40
1.0
 40
1.0
 40
1.0
 10
-11.809432326
 20
-22.5111812444
 30
0.0
 10
-11.8412827114
 20
-22.5111799481
 30
0.0
 10
-11.8875522792
 20
-22.5119793339
 30
0.0
 10
-11.9463248729
 20
-22.5148502739
 30
0.0
 10
-11.9837664034
 20
-22.517688655
 30
0.0
 10
-12.0142029477
 20
-22.5209439875
 30
0.0
 10
-12.0378004025
 20
-22.5249399616
 30
0.0
 10
-12.0511812436
 20
-22.5282855712
 30
0.0
 10
-12.0592873573
 20
-22.5323656681
 30
0.0
 10
-12.0594280953
 20
-22.5346275426
 30
0.0
  0
SPLINE
  5
57E
100
AcDbEntity
  8
RACCORDO
100
AcDbSpline
 62
250
  6
CONTINUOUS
 70
0
 71
3
 72
17
 73
13
 74
0
 42
0.0000001
 43
0.0000001
 44
0.0000000001
 40
0.0
 40
0.0
 40
0.0
 40
0.0
 40
0.1934594766
 40
0.3798965822
 40
0.5515801588
 40
0.7022382487
 40
0.8262581259
 40
0.9189074338
 40
0.9524252009
 40
0.9770007969
 40
0.9926269424
 40
1.0
 40
1.0
 40
1.0
 40
1.0
 10
-11.809432326
 20
-22.3114553375
 30
0.0
 10
-11.8385855326
 20
-22.3114508493
 30
0.0
 10
-11.8958337658
 20
-22.3117430471
 30
0.0
 10
-11.9789470175
 20
-22.3130356999
 30
0.0
 10
-12.0555846968
 20
-22.315122633
 30
0.0
 10
-12.1228118612
 20
-22.3179175508
 30
0.0
 10
-12.1780182796
 20
-22.3212698327
 30
0.0
 10
-12.2156869121
 20
-22.3246640571
 30
0.0
 10
-12.2380529185
 20
-22.3277209154
 30
0.0
 10
-12.2492120379
 20
-22.3299368283
 30
0.0
 10
-12.2556335916
 20
-22.3317538847
 30
0.0
 10
-12.2593000855
 20
-22.3337975707
 30
0.0
 10
-12.2594247106
 20
-22.3349016357
 30
0.0
  0
SPLINE
  5
57F
100
AcDbEntity
  8
RACCORDO
100
AcDbSpline
 62
7
  6
CONTINUOUS
 70
0
 71
3
 72
21
 73
17
 74
0
 42
0.0000001
 43
0.0000001
 44
0.0000000001
 40
0.0
 40
0.0
 40
0.0
 40
0.0
 40
0.0023211247
 40
0.0081526043
 40
0.0173601707
 40
0.0297924377
 40
0.0636892776
 40
0.1082095168
 40
0.161442771
 40
0.2216933182
 40
0.2876179855
 40
0.3580037655
 40
0.5087394652
 40
0.668354102
 40
0.8330689647
 40
1.0
 40
1.0
 40
1.0
 40
1.0
 10
-4.4167088442
 20
-7.4500594128
 30
0.0
 10
-4.4167088442
 20
-7.4506108922
 30
0.0
 10
-4.4184101264
 20
-7.4520527479
 30
0.0
 10
-4.4206857347
 20
-7.455234569
 30
0.0
 10
-4.4253138839
 20
-7.4600184184
 30
0.0
 10
-4.4341894199
 20
-7.4696842355
 30
0.0
 10
-4.4491891599
 20
-7.4852792159
 30
0.0
 10
-4.4708854822
 20
-7.5077775686
 30
0.0
 10
-4.4970928964
 20
-7.5346678615
 30
0.0
 10
-4.5269070546
 20
-7.5651285734
 30
0.0
 10
-4.5596416157
 20
-7.5984382115
 30
0.0
 10
-4.6075142611
 20
-7.6470115641
 30
0.0
 10
-4.6711307928
 20
-7.7113227446
 30
0.0
 10
-4.7506482801
 20
-7.7914284604
 30
0.0
 10
-4.8329993976
 20
-7.8741430429
 30
0.0
 10
-4.8886692472
 20
-7.9299078841
 30
0.0
 10
-4.9167088442
 20
-7.957957958
 30
0.0
  0
SPLINE
  5
580
100
AcDbEntity
  8
RACCORDO
100
AcDbSpline
 62
250
  6
CONTINUOUS
 70
0
 71
3
 72
14
 73
10
 74
0
 42
0.0000001
 43
0.0000001
 44
0.0000000001
 40
0.0
 40
0.0
 40
0.0
 40
0.0
 40
0.0268559783
 40
0.0860904154
 40
0.1788054457
 40
0.3022591428
 40
0.4519871215
 40
0.6225599334
 40
1.0
 40
1.0
 40
1.0
 40
1.0
 10
8.2260104069
 20
-22.5346275426
 30
0.0
 10
8.2258696686
 20
-22.5323656677
 30
0.0
 10
8.2177635568
 20
-22.5282855689
 30
0.0
 10
8.2043827132
 20
-22.5249399627
 30
0.0
 10
8.1807852598
 20
-22.5209439868
 30
0.0
 10
8.1503487148
 20
-22.5176886558
 30
0.0
 10
8.1129071845
 20
-22.5148502749
 30
0.0
 10
8.0541345909
 20
-22.5119793323
 30
0.0
 10
8.0078650231
 20
-22.5111799465
 30
0.0
 10
7.9760146377
 20
-22.5111812444
 30
0.0
  0
SPLINE
  5
581
100
AcDbEntity
  8
0
100
AcDbSpline
 62
7
  6
CONTINUOUS
 70
0
 71
3
 72
11
 73
7
 74
0
 42
0.0000001
 43
0.0000001
 44
0.0000000001
 40
0.0
 40
0.0
 40
0.0
 40
0.0
 40
0.327069379
 40
0.6069908884
 40
0.8253215288
 40
1.0
 40
1.0
 40
1.0
 40
1.0
 10
5.590567674
 20
-23.1226497308
 30
0.0
 10
5.556457235
 20
-23.1226497308
 30
0.0
 10
5.4928317121
 20
-23.1303374357
 30
0.0
 10
5.4116970527
 20
-23.1618479167
 30
0.0
 10
5.3561254344
 20
-23.2077593007
 30
0.0
 10
5.3407554636
 20
-23.2487708057
 30
0.0
 10
5.3405719047
 20
-23.2669872981
 30
0.0
  0
SPLINE
  5
582
100
AcDbEntity
  8
RACCORDO
100
AcDbSpline
 62
250
  6
CONTINUOUS
 70
0
 71
3
 72
15
 73
11
 74
0
 42
0.0000001
 43
0.0000001
 44
0.0000000001
 40
0.0
 40
0.0
 40
0.0
 40
0.0
 40
0.0096671809
 40
0.0278015868
 40
0.0890151648
 40
0.1819188058
 40
0.3038280151
 40
0.4511984618
 40
0.6196748374
 40
1.0
 40
1.0
 40
1.0
 40
1.0
 10
7.7758642919
 20
22.0602279426
 30
0.0
 10
7.7765682372
 20
22.057581722
 30
0.0
 10
7.7772836249
 20
22.0496887779
 30
0.0
 10
7.7792094502
 20
22.0245985976
 30
0.0
 10
7.7808493769
 20
21.9757756649
 30
0.0
 10
7.7829480021
 20
21.8976490597
 30
0.0
 10
7.7847073686
 20
21.7950611291
 30
0.0
 10
7.7862920215
 20
21.6710802084
 30
0.0
 10
7.788040454
 20
21.4738932589
 30
0.0
 10
7.7887140466
 20
21.3184452485
 30
0.0
 10
7.7889413932
 20
21.2107174911
 30
0.0
  0
SPLINE
  5
583
100
AcDbEntity
  8
RACCORDO
100
AcDbSpline
 62
250
  6
CONTINUOUS
 70
0
 71
3
 72
15
 73
11
 74
0
 42
0.0000001
 43
0.0000001
 44
0.0000000001
 40
0.0
 40
0.0
 40
0.0
 40
0.0
 40
0.3803251626
 40
0.5488015382
 40
0.6961719849
 40
0.8180811942
 40
0.9109848354
 40
0.9721984129
 40
0.9903328186
 40
1.0
 40
1.0
 40
1.0
 40
1.0
 10
-11.6223590815
 20
21.2107174911
 30
0.0
 10
-11.6221317349
 20
21.3184452485
 30
0.0
 10
-11.6214581423
 20
21.4738932589
 30
0.0
 10
-11.6197097098
 20
21.6710802084
 30
0.0
 10
-11.6181250569
 20
21.7950611291
 30
0.0
 10
-11.6163656903
 20
21.8976490597
 30
0.0
 10
-11.6142670653
 20
21.9757756648
 30
0.0
 10
-11.6126271385
 20
22.0245985973
 30
0.0
 10
-11.6107013133
 20
22.0496887777
 30
0.0
 10
-11.6099859253
 20
22.0575817218
 30
0.0
 10
-11.6092819802
 20
22.0602279426
 30
0.0
  0
SPLINE
  5
584
100
AcDbEntity
  8
RACCORDO
100
AcDbSpline
 62
250
  6
CONTINUOUS
 70
0
 71
3
 72
9
 73
5
 74
0
 42
0.0000001
 43
0.0000001
 44
0.0000000001
 40
0.0
 40
0.0
 40
0.0
 40
0.0
 40
0.2493118446
 40
1.0
 40
1.0
 40
1.0
 40
1.0
 10
7.7889413932
 20
21.2107174911
 30
0.0
 10
7.7900765755
 20
20.7785080848
 30
0.0
 10
7.794404859
 20
19.0448979039
 30
0.0
 10
7.7978368236
 20
17.3112854886
 30
0.0
 10
7.7999156085
 20
16.0098824696
 30
0.0
  0
SPLINE
  5
585
100
AcDbEntity
  8
RACCORDO
100
AcDbSpline
 62
250
  6
CONTINUOUS
 70
0
 71
3
 72
11
 73
7
 74
0
 42
0.0000001
 43
0.0000001
 44
0.0000000001
 40
0.0
 40
0.0
 40
0.0
 40
0.0
 40
0.2497604927
 40
0.4996808534
 40
0.7498105489
 40
1.0
 40
1.0
 40
1.0
 40
1.0
 10
7.7999156085
 20
16.0098824696
 30
0.0
 10
7.8000771618
 20
15.9188413102
 30
0.0
 10
7.7641248813
 20
15.7346620483
 30
0.0
 10
7.6091366184
 20
15.5012355064
 30
0.0
 10
7.3765776974
 20
15.3445400294
 30
0.0
 10
7.1921863744
 20
15.3078646145
 30
0.0
 10
7.10098871
 20
15.3078658794
 30
0.0
  0
SPLINE
  5
586
100
AcDbEntity
  8
RACCORDO
100
AcDbSpline
 62
250
  6
CONTINUOUS
 70
0
 71
3
 72
11
 73
7
 74
0
 42
0.0000001
 43
0.0000001
 44
0.0000000001
 40
0.0
 40
0.0
 40
0.0
 40
0.0
 40
0.250189451
 40
0.5003191473
 40
0.7502395167
 40
1.0
 40
1.0
 40
1.0
 40
1.0
 10
-10.9344063983
 20
15.3078658794
 30
0.0
 10
-11.0256040636
 20
15.307864632
 30
0.0
 10
-11.209995392
 20
15.3445400151
 30
0.0
 10
-11.4425543085
 20
15.5012355114
 30
0.0
 10
-11.597542607
 20
15.7346620412
 30
0.0
 10
-11.6334948357
 20
15.9188413126
 30
0.0
 10
-11.6333332969
 20
16.0098824696
 30
0.0
  0
SPLINE
  5
587
100
AcDbEntity
  8
RACCORDO
100
AcDbSpline
 62
250
  6
CONTINUOUS
 70
0
 71
3
 72
9
 73
5
 74
0
 42
0.0000001
 43
0.0000001
 44
0.0000000001
 40
0.0
 40
0.0
 40
0.0
 40
0.0
 40
0.250634419
 40
1.0
 40
1.0
 40
1.0
 40
1.0
 10
-11.6333332969
 20
16.0098824696
 30
0.0
 10
-11.6326392469
 20
16.444385648
 30
0.0
 10
-11.6296486357
 20
18.1779986513
 30
0.0
 10
-11.6257711398
 20
19.9116101285
 30
0.0
 10
-11.6223590815
 20
21.2107174911
 30
0.0
  0
SPLINE
  5
588
100
AcDbEntity
  8
RACCORDO
100
AcDbSpline
 62
250
  6
CONTINUOUS
 70
0
 71
3
 72
17
 73
13
 74
0
 42
0.0000001
 43
0.0000001
 44
0.0000000001
 40
0.0
 40
0.0
 40
0.0
 40
0.0
 40
0.0073730559
 40
0.0229991925
 40
0.0475747803
 40
0.0810925475
 40
0.173741872
 40
0.2977617577
 40
0.4484198443
 40
0.620103416
 40
0.8065405215
 40
1.0
 40
1.0
 40
1.0
 40
1.0
 10
8.4260070223
 20
-22.3349016357
 30
0.0
 10
8.4258823963
 20
-22.333797571
 30
0.0
 10
8.4222159066
 20
-22.3317538852
 30
0.0
 10
8.4157943541
 20
-22.3299368279
 30
0.0
 10
8.4046352383
 20
-22.3277209149
 30
0.0
 10
8.38226923
 20
-22.3246640568
 30
0.0
 10
8.3446005939
 20
-22.3212698334
 30
0.0
 10
8.289394172
 20
-22.3179175502
 30
0.0
 10
8.2221670075
 20
-22.3151226332
 30
0.0
 10
8.1455293293
 20
-22.313035704
 30
0.0
 10
8.0624160782
 20
-22.3117430394
 30
0.0
 10
8.0051678446
 20
-22.31145084
 30
0.0
 10
7.9760146377
 20
-22.3114553375
 30
0.0
  0
SPLINE
  5
589
100
AcDbEntity
  8
0
100
AcDbSpline
 62
250
  6
CONTINUOUS
 70
0
 71
3
 72
11
 73
7
 74
0
 42
0.0000001
 43
0.0000001
 44
0.0000000001
 40
0.0
 40
0.0
 40
0.0
 40
0.0
 40
0.2331623084
 40
0.476670585
 40
0.7338116789
 40
1.0
 40
1.0
 40
1.0
 40
1.0
 10
8.2201925771
 20
23.8443375673
 30
0.0
 10
8.2200975053
 20
23.8160323825
 30
0.0
 10
8.2061676476
 20
23.7574892432
 30
0.0
 10
8.1492352235
 20
23.6858281285
 30
0.0
 10
8.0665671833
 20
23.6388299314
 30
0.0
 10
8.0025113285
 20
23.6279126229
 30
0.0
 10
7.9701968079
 20
23.6278312164
 30
0.0
  0
SPLINE
  5
58A
100
AcDbEntity
  8
0
100
AcDbSpline
 62
7
  6
CONTINUOUS
 70
0
 71
3
 72
11
 73
7
 74
0
 42
0.0000001
 43
0.0000001
 44
0.0000000001
 40
0.0
 40
0.0
 40
0.0
 40
0.0
 40
0.327069379
 40
0.6069908884
 40
0.8253215288
 40
1.0
 40
1.0
 40
1.0
 40
1.0
 10
7.9760146377
 20
23.1226497308
 30
0.0
 10
8.0101250767
 20
23.1226497308
 30
0.0
 10
8.0737505995
 20
23.1303374357
 30
0.0
 10
8.1548852589
 20
23.1618479167
 30
0.0
 10
8.2104568773
 20
23.2077593007
 30
0.0
 10
8.2258268481
 20
23.2487708057
 30
0.0
 10
8.2260104069
 20
23.2669872981
 30
0.0
  0
SPLINE
  5
58B
100
AcDbEntity
  8
0
100
AcDbSpline
 62
7
  6
CONTINUOUS
 70
0
 71
3
 72
11
 73
7
 74
0
 42
0.0000001
 43
0.0000001
 44
0.0000000001
 40
0.0
 40
0.0
 40
0.0
 40
0.0
 40
0.1745970712
 40
0.3929474236
 40
0.672962312
 40
1.0
 40
1.0
 40
1.0
 40
1.0
 10
5.3405719047
 20
23.2669872981
 30
0.0
 10
5.3407557996
 20
23.2487374667
 30
0.0
 10
5.356189252
 20
23.2076402818
 30
0.0
 10
5.411949088
 20
23.1616935154
 30
0.0
 10
5.4933178581
 20
23.1301817308
 30
0.0
 10
5.557109417
 20
23.1226497308
 30
0.0
 10
5.5912949027
 20
23.1226497308
 30
0.0
  0
SPLINE
  5
58C
100
AcDbEntity
  8
0
100
AcDbSpline
 62
250
  6
CONTINUOUS
 70
0
 71
3
 72
11
 73
7
 74
0
 42
0.0000001
 43
0.0000001
 44
0.0000000001
 40
0.0
 40
0.0
 40
0.0
 40
0.0
 40
0.2331623084
 40
0.476670585
 40
0.7338116789
 40
1.0
 40
1.0
 40
1.0
 40
1.0
 10
5.3463897346
 20
23.8443375673
 30
0.0
 10
5.3464848064
 20
23.8160323825
 30
0.0
 10
5.3604146641
 20
23.7574892432
 30
0.0
 10
5.4173470882
 20
23.6858281285
 30
0.0
 10
5.5000151284
 20
23.6388299314
 30
0.0
 10
5.5640709831
 20
23.6279126229
 30
0.0
 10
5.5963855038
 20
23.6278312164
 30
0.0
  0
SPLINE
  5
58D
100
AcDbEntity
  8
0
100
AcDbSpline
 62
250
  6
CONTINUOUS
 70
0
 71
3
 72
11
 73
7
 74
0
 42
0.0000001
 43
0.0000001
 44
0.0000000001
 40
0.0
 40
0.0
 40
0.0
 40
0.0
 40
0.2331622206
 40
0.4766705204
 40
0.7338116472
 40
1.0
 40
1.0
 40
1.0
 40
1.0
 10
-9.1798074229
 20
23.8443375673
 30
0.0
 10
-9.1799024946
 20
23.8160323931
 30
0.0
 10
-9.1938323431
 20
23.7574892617
 30
0.0
 10
-9.250764758
 20
23.6858281428
 30
0.0
 10
-9.3334328047
 20
23.6388299344
 30
0.0
 10
-9.3974886676
 20
23.6279126229
 30
0.0
 10
-9.4298031921
 20
23.6278312164
 30
0.0
  0
SPLINE
  5
58E
100
AcDbEntity
  8
0
100
AcDbSpline
 62
7
  6
CONTINUOUS
 70
0
 71
3
 72
11
 73
7
 74
0
 42
0.0000001
 43
0.0000001
 44
0.0000000001
 40
0.0
 40
0.0
 40
0.0
 40
0.0
 40
0.1745970712
 40
0.3929474236
 40
0.672962312
 40
1.0
 40
1.0
 40
1.0
 40
1.0
 10
-9.1739895931
 20
23.2669872981
 30
0.0
 10
-9.1741734879
 20
23.2487374667
 30
0.0
 10
-9.1896069403
 20
23.2076402818
 30
0.0
 10
-9.2453667763
 20
23.1616935154
 30
0.0
 10
-9.3267355464
 20
23.1301817308
 30
0.0
 10
-9.3905271053
 20
23.1226497308
 30
0.0
 10
-9.424712591
 20
23.1226497308
 30
0.0
  0
SPLINE
  5
58F
100
AcDbEntity
  8
0
100
AcDbSpline
 62
7
  6
CONTINUOUS
 70
0
 71
3
 72
11
 73
7
 74
0
 42
0.0000001
 43
0.0000001
 44
0.0000000001
 40
0.0
 40
0.0
 40
0.0
 40
0.0
 40
0.1745970712
 40
0.3929474236
 40
0.672962312
 40
1.0
 40
1.0
 40
1.0
 40
1.0
 10
-12.0594280953
 20
23.2669872981
 30
0.0
 10
-12.0592442004
 20
23.2487374667
 30
0.0
 10
-12.043810748
 20
23.2076402818
 30
0.0
 10
-11.988050912
 20
23.1616935154
 30
0.0
 10
-11.9066821419
 20
23.1301817308
 30
0.0
 10
-11.842890583
 20
23.1226497308
 30
0.0
 10
-11.8087050973
 20
23.1226497308
 30
0.0
  0
SPLINE
  5
590
100
AcDbEntity
  8
RACCORDO
100
AcDbSpline
 62
250
  6
CONTINUOUS
 70
0
 71
3
 72
14
 73
10
 74
0
 42
0.0000001
 43
0.0000001
 44
0.0000000001
 40
0.0
 40
0.0
 40
0.0
 40
0.0
 40
0.3774400674
 40
0.5480128796
 40
0.6977408587
 40
0.821194556
 40
0.9139095863
 40
0.9731440264
 40
1.0
 40
1.0
 40
1.0
 40
1.0
 10
5.590567674
 20
-22.5111812444
 30
0.0
 10
5.5587172886
 20
-22.5111799481
 30
0.0
 10
5.5124477208
 20
-22.5119793339
 30
0.0
 10
5.4536751271
 20
-22.5148502739
 30
0.0
 10
5.4162335966
 20
-22.517688655
 30
0.0
 10
5.3857970523
 20
-22.5209439875
 30
0.0
 10
5.3621995975
 20
-22.5249399616
 30
0.0
 10
5.3488187564
 20
-22.5282855712
 30
0.0
 10
5.3407126427
 20
-22.5323656681
 30
0.0
 10
5.3405719047
 20
-22.5346275426
 30
0.0
  0
SPLINE
  5
591
100
AcDbEntity
  8
0
100
AcDbSpline
 62
250
  6
CONTINUOUS
 70
0
 71
3
 72
11
 73
7
 74
0
 42
0.0000001
 43
0.0000001
 44
0.0000000001
 40
0.0
 40
0.0
 40
0.0
 40
0.0
 40
0.2331623084
 40
0.476670585
 40
0.7338116789
 40
1.0
 40
1.0
 40
1.0
 40
1.0
 10
-12.0536102654
 20
23.8443375673
 30
0.0
 10
-12.0535151936
 20
23.8160323825
 30
0.0
 10
-12.0395853359
 20
23.7574892432
 30
0.0
 10
-11.9826529118
 20
23.6858281285
 30
0.0
 10
-11.8999848716
 20
23.6388299314
 30
0.0
 10
-11.8359290169
 20
23.6279126229
 30
0.0
 10
-11.8036144962
 20
23.6278312164
 30
0.0
  0
SPLINE
  5
592
100
AcDbEntity
  8
RACCORDO
100
AcDbSpline
 62
250
  6
CONTINUOUS
 70
0
 71
3
 72
17
 73
13
 74
0
 42
0.0000001
 43
0.0000001
 44
0.0000000001
 40
0.0
 40
0.0
 40
0.0
 40
0.0
 40
0.1934594766
 40
0.3798965822
 40
0.5515801588
 40
0.7022382487
 40
0.8262581259
 40
0.9189074338
 40
0.9524252009
 40
0.9770007969
 40
0.9926269424
 40
1.0
 40
1.0
 40
1.0
 40
1.0
 10
5.590567674
 20
-22.3114553375
 30
0.0
 10
5.5614144674
 20
-22.3114508493
 30
0.0
 10
5.5041662342
 20
-22.3117430471
 30
0.0
 10
5.4210529825
 20
-22.3130356999
 30
0.0
 10
5.3444153032
 20
-22.315122633
 30
0.0
 10
5.2771881388
 20
-22.3179175508
 30
0.0
 10
5.2219817204
 20
-22.3212698327
 30
0.0
 10
5.1843130879
 20
-22.3246640571
 30
0.0
 10
5.1619470815
 20
-22.3277209154
 30
0.0
 10
5.1507879621
 20
-22.3299368283
 30
0.0
 10
5.1443664084
 20
-22.3317538847
 30
0.0
 10
5.1406999145
 20
-22.3337975707
 30
0.0
 10
5.1405752894
 20
-22.3349016357
 30
0.0
  0
SPLINE
  5
593
100
AcDbEntity
  8
0
100
AcDbSpline
 62
250
  6
CONTINUOUS
 70
0
 71
3
 72
11
 73
7
 74
0
 42
0.0000001
 43
0.0000001
 44
0.0000000001
 40
0.0
 40
0.0
 40
0.0
 40
0.0
 40
0.2331623162
 40
0.4766706026
 40
0.7338117062
 40
1.0
 40
1.0
 40
1.0
 40
1.0
 10
8.2201925771
 20
-23.8443375673
 30
0.0
 10
8.2200975053
 20
-23.8160323815
 30
0.0
 10
8.2061676464
 20
-23.7574892401
 30
0.0
 10
8.1492352185
 20
-23.685828124
 30
0.0
 10
8.0665671778
 20
-23.6388299294
 30
0.0
 10
8.0025113252
 20
-23.6279126229
 30
0.0
 10
7.9701968079
 20
-23.6278312164
 30
0.0
  0
SPLINE
  5
594
100
AcDbEntity
  8
0
100
AcDbSpline
 62
7
  6
CONTINUOUS
 70
0
 71
3
 72
11
 73
7
 74
0
 42
0.0000001
 43
0.0000001
 44
0.0000000001
 40
0.0
 40
0.0
 40
0.0
 40
0.0
 40
0.1745970712
 40
0.3929474236
 40
0.672962312
 40
1.0
 40
1.0
 40
1.0
 40
1.0
 10
8.2260104069
 20
-23.2669872981
 30
0.0
 10
8.2258265121
 20
-23.2487374667
 30
0.0
 10
8.2103930597
 20
-23.2076402818
 30
0.0
 10
8.1546332237
 20
-23.1616935154
 30
0.0
 10
8.0732644536
 20
-23.1301817308
 30
0.0
 10
8.0094728947
 20
-23.1226497308
 30
0.0
 10
7.975287409
 20
-23.1226497308
 30
0.0
  0
SPLINE
  5
595
100
AcDbEntity
  8
0
100
AcDbSpline
 62
250
  6
CONTINUOUS
 70
0
 71
3
 72
11
 73
7
 74
0
 42
0.0000001
 43
0.0000001
 44
0.0000000001
 40
0.0
 40
0.0
 40
0.0
 40
0.0
 40
0.2331623084
 40
0.476670585
 40
0.7338116789
 40
1.0
 40
1.0
 40
1.0
 40
1.0
 10
5.3463897346
 20
-23.8443375673
 30
0.0
 10
5.3464848064
 20
-23.8160323825
 30
0.0
 10
5.3604146641
 20
-23.7574892432
 30
0.0
 10
5.4173470882
 20
-23.6858281285
 30
0.0
 10
5.5000151284
 20
-23.6388299314
 30
0.0
 10
5.5640709831
 20
-23.6279126229
 30
0.0
 10
5.5963855038
 20
-23.6278312164
 30
0.0
  0
SPLINE
  5
596
100
AcDbEntity
  8
0
100
AcDbSpline
 62
250
  6
CONTINUOUS
 70
0
 71
3
 72
11
 73
7
 74
0
 42
0.0000001
 43
0.0000001
 44
0.0000000001
 40
0.0
 40
0.0
 40
0.0
 40
0.0
 40
0.2331622206
 40
0.4766705204
 40
0.7338116472
 40
1.0
 40
1.0
 40
1.0
 40
1.0
 10
-12.0536102654
 20
-23.8443375673
 30
0.0
 10
-12.0535151937
 20
-23.8160323931
 30
0.0
 10
-12.0395853453
 20
-23.7574892617
 30
0.0
 10
-11.9826529303
 20
-23.6858281428
 30
0.0
 10
-11.8999848836
 20
-23.6388299344
 30
0.0
 10
-11.8359290207
 20
-23.6279126229
 30
0.0
 10
-11.8036144962
 20
-23.6278312164
 30
0.0
  0
SPLINE
  5
597
100
AcDbEntity
  8
0
100
AcDbSpline
 62
7
  6
CONTINUOUS
 70
0
 71
3
 72
11
 73
7
 74
0
 42
0.0000001
 43
0.0000001
 44
0.0000000001
 40
0.0
 40
0.0
 40
0.0
 40
0.0
 40
0.1745970712
 40
0.3929474236
 40
0.672962312
 40
1.0
 40
1.0
 40
1.0
 40
1.0
 10
-12.0594280953
 20
-23.2669872981
 30
0.0
 10
-12.0592442004
 20
-23.2487374667
 30
0.0
 10
-12.043810748
 20
-23.2076402818
 30
0.0
 10
-11.988050912
 20
-23.1616935154
 30
0.0
 10
-11.9066821419
 20
-23.1301817308
 30
0.0
 10
-11.842890583
 20
-23.1226497308
 30
0.0
 10
-11.8087050973
 20
-23.1226497308
 30
0.0
  0
SPLINE
  5
598
100
AcDbEntity
  8
0
100
AcDbSpline
 62
7
  6
CONTINUOUS
 70
0
 71
3
 72
11
 73
7
 74
0
 42
0.0000001
 43
0.0000001
 44
0.0000000001
 40
0.0
 40
0.0
 40
0.0
 40
0.0
 40
0.1745970712
 40
0.3929474236
 40
0.672962312
 40
1.0
 40
1.0
 40
1.0
 40
1.0
 10
-9.1739895931
 20
-23.2669872981
 30
0.0
 10
-9.1741734879
 20
-23.2487374667
 30
0.0
 10
-9.1896069403
 20
-23.2076402818
 30
0.0
 10
-9.2453667763
 20
-23.1616935154
 30
0.0
 10
-9.3267355464
 20
-23.1301817308
 30
0.0
 10
-9.3905271053
 20
-23.1226497308
 30
0.0
 10
-9.424712591
 20
-23.1226497308
 30
0.0
  0
SPLINE
  5
599
100
AcDbEntity
  8
0
100
AcDbSpline
 62
250
  6
CONTINUOUS
 70
0
 71
3
 72
11
 73
7
 74
0
 42
0.0000001
 43
0.0000001
 44
0.0000000001
 40
0.0
 40
0.0
 40
0.0
 40
0.0
 40
0.2331623084
 40
0.476670585
 40
0.7338116789
 40
1.0
 40
1.0
 40
1.0
 40
1.0
 10
-9.1798074229
 20
-23.8443375673
 30
0.0
 10
-9.1799024947
 20
-23.8160323825
 30
0.0
 10
-9.1938323524
 20
-23.7574892432
 30
0.0
 10
-9.2507647765
 20
-23.6858281285
 30
0.0
 10
-9.3334328167
 20
-23.6388299314
 30
0.0
 10
-9.3974886715
 20
-23.6279126229
 30
0.0
 10
-9.4298031921
 20
-23.6278312164
 30
0.0
  0
SPLINE
  5
59A
100
AcDbEntity
  8
RACCORDO
100
AcDbSpline
 62
250
  6
CONTINUOUS
 70
0
 71
3
 72
17
 73
13
 74
0
 42
0.0000001
 43
0.0000001
 44
0.0000000001
 40
0.0
 40
0.0
 40
0.0
 40
0.0
 40
0.004880697
 40
0.0193135482
 40
0.043134469
 40
0.0761644045
 40
0.1181627108
 40
0.1686485607
 40
0.2929189297
 40
0.4443739113
 40
0.6173187392
 40
1.0
 40
1.0
 40
1.0
 40
1.0
 10
-53.3437060585
 20
-22.3349016357
 30
0.0
 10
-53.343381202
 20
-22.3349186607
 30
0.0
 10
-53.3440115408
 20
-22.3369453
 30
0.0
 10
-53.3434517673
 20
-22.3391136811
 30
0.0
 10
-53.3439436629
 20
-22.3442604834
 30
0.0
 10
-53.3440343018
 20
-22.3506708586
 30
0.0
 10
-53.3444297
 20
-22.3590958201
 30
0.0
 10
-53.3450220981
 20
-22.3734989239
 30
0.0
 10
-53.3460301482
 20
-22.395237725
 30
0.0
 10
-53.3474501464
 20
-22.425100123
 30
0.0
 10
-53.3497769296
 20
-22.4721736007
 30
0.0
 10
-53.351674867
 20
-22.5091564857
 30
0.0
 10
-53.3530097035
 20
-22.5346275426
 30
0.0
  0
SPLINE
  5
59B
100
AcDbEntity
  8
RACCORDO
100
AcDbSpline
 62
250
  6
CONTINUOUS
 70
0
 71
3
 72
18
 73
14
 74
0
 42
0.0000001
 43
0.0000001
 44
0.0000000001
 40
0.0
 40
0.0
 40
0.0
 40
0.0
 40
0.1946620035
 40
0.3826325103
 40
0.5555640559
 40
0.7070119444
 40
0.8312806901
 40
0.8817677751
 40
0.9237688071
 40
0.9568033653
 40
0.9806318202
 40
0.9950781992
 40
1.0
 40
1.0
 40
1.0
 40
1.0
 10
-49.9971920029
 20
17.5956632207
 30
0.0
 10
-49.9970221459
 20
17.5761963328
 30
0.0
 10
-49.9967209399
 20
17.5379311502
 30
0.0
 10
-49.9963800917
 20
17.482372905
 30
0.0
 10
-49.9961638292
 20
17.431130636
 30
0.0
 10
-49.9960924019
 20
17.3862744578
 30
0.0
 10
-49.9961179785
 20
17.3536224792
 30
0.0
 10
-49.9962704559
 20
17.3319918934
 30
0.0
 10
-49.9963164502
 20
17.3193385733
 30
0.0
 10
-49.9966464855
 20
17.3097165027
 30
0.0
 10
-49.9963952928
 20
17.3019815069
 30
0.0
 10
-49.997322347
 20
17.2987407799
 30
0.0
 10
-49.9966998046
 20
17.2956789391
 30
0.0
 10
-49.997192002
 20
17.2956746438
 30
0.0
  0
SPLINE
  5
59C
100
AcDbEntity
  8
0
100
AcDbSpline
 62
250
  6
CONTINUOUS
 70
0
 71
3
 72
21
 73
17
 74
0
 42
0.0000001
 43
0.0000001
 44
0.0000000001
 40
0.0
 40
0.0
 40
0.0
 40
0.0
 40
0.1960040787
 40
0.3839724967
 40
0.5568497317
 40
0.7081347447
 40
0.7738642455
 40
0.8321384196
 40
0.8824088885
 40
0.9242017452
 40
0.9571224524
 40
0.9808619046
 40
0.9892162293
 40
0.9951976704
 40
0.9987935873
 40
1.0
 40
1.0
 40
1.0
 40
1.0
 10
-59.0355922091
 20
-21.1361579495
 30
0.0
 10
-59.0673371386
 20
-21.1409467086
 30
0.0
 10
-59.1295231885
 20
-21.1503433699
 30
0.0
 10
-59.219700492
 20
-21.1640174654
 30
0.0
 10
-59.3026282027
 20
-21.1766422326
 30
0.0
 10
-59.3657561565
 20
-21.1862979374
 30
0.0
 10
-59.4103216551
 20
-21.1931510965
 30
0.0
 10
-59.4385349842
 20
-21.1975052657
 30
0.0
 10
-59.4628595666
 20
-21.2012873085
 30
0.0
 10
-59.4831085685
 20
-21.2044362775
 30
0.0
 10
-59.4989760569
 20
-21.2069894887
 30
0.0
 10
-59.5096172211
 20
-21.2086055404
 30
0.0
 10
-59.5155977607
 20
-21.2097246856
 30
0.0
 10
-59.5187769145
 20
-21.2100559726
 30
0.0
 10
-59.5200114194
 20
-21.2106634957
 30
0.0
 10
-59.5213047864
 20
-21.2105220521
 30
0.0
 10
-59.521275319
 20
-21.2107174445
 30
0.0
  0
SPLINE
  5
59D
100
AcDbEntity
  8
RACCORDO
100
AcDbSpline
 62
250
  6
CONTINUOUS
 70
0
 71
3
 72
8
 73
4
 74
0
 42
0.0000001
 43
0.0000001
 44
0.0000000001
 40
0.0
 40
0.0
 40
0.0
 40
0.0
 40
1.0
 40
1.0
 40
1.0
 40
1.0
 10
-48.8989492276
 20
-8.0878694387
 30
0.0
 10
-48.8988515495
 20
-8.0751938676
 30
0.0
 10
-48.8995741648
 20
-8.0624773944
 30
0.0
 10
-48.9012298975
 20
-8.0499100482
 30
0.0
  0
SPLINE
  5
59E
100
AcDbEntity
  8
0
100
AcDbSpline
 62
250
  6
CONTINUOUS
 70
0
 71
3
 72
18
 73
14
 74
0
 42
0.0000001
 43
0.0000001
 44
0.0000000001
 40
0.0
 40
0.0
 40
0.0
 40
0.0
 40
0.1950220847
 40
0.382520891
 40
0.5553089099
 40
0.7067548749
 40
0.8310516349
 40
0.8814847718
 40
0.9234376129
 40
0.9565109274
 40
0.9803951882
 40
0.9948849429
 40
1.0
 40
1.0
 40
1.0
 40
1.0
 10
-58.567463369
 20
-21.5609072635
 30
0.0
 10
-58.569164167
 20
-21.5933566263
 30
0.0
 10
-58.5723934048
 20
-21.6570096428
 30
0.0
 10
-58.5767564766
 20
-21.7494287717
 30
0.0
 10
-58.5804418688
 20
-21.834618272
 30
0.0
 10
-58.5832930104
 20
-21.9092793916
 30
0.0
 10
-58.5850427569
 20
-21.9636407352
 30
0.0
 10
-58.5858566563
 20
-21.9996674823
 30
0.0
 10
-58.5862545282
 20
-22.0207130352
 30
0.0
 10
-58.5861586278
 20
-22.036813887
 30
0.0
 10
-58.5864000524
 20
-22.0495900171
 30
0.0
 10
-58.5853279841
 20
-22.0552729111
 30
0.0
 10
-58.5856434248
 20
-22.0601833392
 30
0.0
 10
-58.5847923397
 20
-22.0602279426
 30
0.0
  0
SPLINE
  5
59F
100
AcDbEntity
  8
0
100
AcDbSpline
 62
250
  6
CONTINUOUS
 70
0
 71
3
 72
21
 73
17
 74
0
 42
0.0000001
 43
0.0000001
 44
0.0000000001
 40
0.0
 40
0.0
 40
0.0
 40
0.0
 40
0.1960040309
 40
0.3839724185
 40
0.5568496434
 40
0.708134665
 40
0.7738641754
 40
0.8321383615
 40
0.8824088435
 40
0.9242017133
 40
0.9571224324
 40
0.9808618944
 40
0.9892162229
 40
0.995197667
 40
0.9987935861
 40
1.0
 40
1.0
 40
1.0
 40
1.0
 10
-59.0355922091
 20
21.1361579495
 30
0.0
 10
-59.067337151
 20
21.1409467104
 30
0.0
 10
-59.1295232276
 20
21.1503433756
 30
0.0
 10
-59.2197005739
 20
21.1640174774
 30
0.0
 10
-59.3026283321
 20
21.1766422517
 30
0.0
 10
-59.3657563272
 20
21.1862979627
 30
0.0
 10
-59.4103218589
 20
21.1931511267
 30
0.0
 10
-59.4385352114
 20
21.1975052995
 30
0.0
 10
-59.4628598155
 20
21.2012873456
 30
0.0
 10
-59.4831088363
 20
21.2044363175
 30
0.0
 10
-59.4989763407
 20
21.2069895312
 30
0.0
 10
-59.5096175151
 20
21.2086055845
 30
0.0
 10
-59.5155980621
 20
21.209724731
 30
0.0
 10
-59.5187772178
 20
21.2100560181
 30
0.0
 10
-59.5200117271
 20
21.2106635424
 30
0.0
 10
-59.521305093
 20
21.210522098
 30
0.0
 10
-59.5212756267
 20
21.2107174909
 30
0.0
  0
SPLINE
  5
5A0
100
AcDbEntity
  8
0
100
AcDbSpline
 62
250
  6
CONTINUOUS
 70
0
 71
3
 72
18
 73
14
 74
0
 42
0.0000001
 43
0.0000001
 44
0.0000000001
 40
0.0
 40
0.0
 40
0.0
 40
0.0
 40
0.195025774
 40
0.3825281264
 40
0.5553193019
 40
0.7067677299
 40
0.8310660366
 40
0.8814994861
 40
0.9234522339
 40
0.9565249186
 40
0.9804077443
 40
0.9948944853
 40
1.0
 40
1.0
 40
1.0
 40
1.0
 10
-58.5673505648
 20
21.5609131753
 30
0.0
 10
-58.5690506479
 20
21.5933625763
 30
0.0
 10
-58.5722783651
 20
21.6570156738
 30
0.0
 10
-58.5766397884
 20
21.7494348511
 30
0.0
 10
-58.5803298343
 20
21.8346240821
 30
0.0
 10
-58.5831946004
 20
21.9092843526
 30
0.0
 10
-58.5849602255
 20
21.9636450891
 30
0.0
 10
-58.5857886443
 20
21.9996707342
 30
0.0
 10
-58.5861997456
 20
22.0207163738
 30
0.0
 10
-58.5861117098
 20
22.0368145228
 30
0.0
 10
-58.5863755737
 20
22.0495941301
 30
0.0
 10
-58.5852979119
 20
22.0552676386
 30
0.0
 10
-58.585641821
 20
22.0601834232
 30
0.0
 10
-58.5847923397
 20
22.0602279426
 30
0.0
  0
SPLINE
  5
5A1
100
AcDbEntity
  8
0
100
AcDbSpline
 62
250
  6
CONTINUOUS
 70
0
 71
3
 72
18
 73
14
 74
0
 42
0.0000001
 43
0.0000001
 44
0.0000000001
 40
0.0
 40
0.0
 40
0.0
 40
0.0
 40
0.0048493077
 40
0.0192588381
 40
0.0431074984
 40
0.0761706834
 40
0.1181293095
 40
0.1685788231
 40
0.2929363137
 40
0.4444634096
 40
0.6173401888
 40
0.8049155869
 40
1.0
 40
1.0
 40
1.0
 40
1.0
 10
-51.3501008378
 20
24.495628166
 30
0.0
 10
-51.3496967222
 20
24.4956258149
 30
0.0
 10
-51.3503597939
 20
24.4930662944
 30
0.0
 10
-51.3495375273
 20
24.4903924451
 30
0.0
 10
-51.3498522356
 20
24.4839312745
 30
0.0
 10
-51.3495931149
 20
24.4759182206
 30
0.0
 10
-51.3495963295
 20
24.4653761048
 30
0.0
 10
-51.3494981141
 20
24.4473514829
 30
0.0
 10
-51.3494924882
 20
24.4201311065
 30
0.0
 10
-51.3495285618
 20
24.3827432798
 30
0.0
 10
-51.3496500226
 20
24.3400737257
 30
0.0
 10
-51.3498384644
 20
24.2937788855
 30
0.0
 10
-51.3500062588
 20
24.2618896962
 30
0.0
 10
-51.3501008378
 20
24.2456323968
 30
0.0
  0
SPLINE
  5
5A2
100
AcDbEntity
  8
0
100
AcDbSpline
 62
250
  6
CONTINUOUS
 70
0
 71
3
 72
18
 73
14
 74
0
 42
0.0000001
 43
0.0000001
 44
0.0000000001
 40
0.0
 40
0.0
 40
0.0
 40
0.0
 40
0.0048493403
 40
0.0192588914
 40
0.0431075766
 40
0.0761707882
 40
0.1181294242
 40
0.1685789461
 40
0.2929364439
 40
0.4444635275
 40
0.6173402736
 40
0.8049156347
 40
1.0
 40
1.0
 40
1.0
 40
1.0
 10
-54.3530097035
 20
24.4869014213
 30
0.0
 10
-54.3534138218
 20
24.4868990702
 30
0.0
 10
-54.3527507459
 20
24.4843395417
 30
0.0
 10
-54.3535730151
 20
24.4816656867
 30
0.0
 10
-54.3532583056
 20
24.4752045101
 30
0.0
 10
-54.3535174266
 20
24.467191451
 30
0.0
 10
-54.3535142119
 20
24.4566493316
 30
0.0
 10
-54.3536124272
 20
24.4386247074
 30
0.0
 10
-54.3536180531
 20
24.4114043309
 30
0.0
 10
-54.3535819794
 20
24.3740165073
 30
0.0
 10
-54.3534605186
 20
24.3313469601
 30
0.0
 10
-54.3532720768
 20
24.2850521297
 30
0.0
 10
-54.3531042825
 20
24.2531629475
 30
0.0
 10
-54.3530097035
 20
24.2369056521
 30
0.0
  0
SPLINE
  5
5A3
100
AcDbEntity
  8
RACCORDO
100
AcDbSpline
 62
250
  6
CONTINUOUS
 70
0
 71
3
 72
15
 73
11
 74
0
 42
0.0000001
 43
0.0000001
 44
0.0000000001
 40
0.0
 40
0.0
 40
0.0
 40
0.0
 40
0.0194951351
 40
0.043392307
 40
0.0763825317
 40
0.1685791009
 40
0.2928795751
 40
0.4443819043
 40
0.6178559461
 40
1.0
 40
1.0
 40
1.0
 40
1.0
 10
-48.99893731
 20
-5.9872915245
 30
0.0
 10
-48.9982874659
 20
-5.9872971956
 30
0.0
 10
-48.9990831726
 20
-5.989743485
 30
0.0
 10
-48.9985870407
 20
-5.9917809553
 30
0.0
 10
-48.9987546748
 20
-5.9970316753
 30
0.0
 10
-48.9985280671
 20
-6.0051447462
 30
0.0
 10
-48.9985900528
 20
-6.0175055312
 30
0.0
 10
-48.9985879066
 20
-6.0324484012
 30
0.0
 10
-48.9986996287
 20
-6.0560342508
 30
0.0
 10
-48.9988261664
 20
-6.0745494587
 30
0.0
 10
-48.99893731
 20
-6.0872877168
 30
0.0
  0
SPLINE
  5
5A4
100
AcDbEntity
  8
RACCORDO
100
AcDbSpline
 62
250
  6
CONTINUOUS
 70
0
 71
3
 72
17
 73
13
 74
0
 42
0.0000001
 43
0.0000001
 44
0.0000000001
 40
0.0
 40
0.0
 40
0.0
 40
0.0
 40
0.0048806944
 40
0.0193135399
 40
0.0431344547
 40
0.0761643866
 40
0.1181626884
 40
0.1686485296
 40
0.2929188855
 40
0.4443738653
 40
0.6173187067
 40
1.0
 40
1.0
 40
1.0
 40
1.0
 10
-53.3437060585
 20
22.3349016357
 30
0.0
 10
-53.3433812022
 20
22.3349186607
 30
0.0
 10
-53.3440115408
 20
22.3369452991
 30
0.0
 10
-53.3434517675
 20
22.3391136795
 30
0.0
 10
-53.3439436629
 20
22.3442604807
 30
0.0
 10
-53.3440343019
 20
22.350670855
 30
0.0
 10
-53.3444297
 20
22.3590958153
 30
0.0
 10
-53.345022098
 20
22.3734989174
 30
0.0
 10
-53.3460301479
 20
22.3952377169
 30
0.0
 10
-53.3474501461
 20
22.4251001148
 30
0.0
 10
-53.3497769295
 20
22.4721735955
 30
0.0
 10
-53.351674867
 20
22.5091564836
 30
0.0
 10
-53.3530097035
 20
22.5346275426
 30
0.0
  0
SPLINE
  5
5A5
100
AcDbEntity
  8
RACCORDO
100
AcDbSpline
 62
250
  6
CONTINUOUS
 70
0
 71
3
 72
11
 73
7
 74
0
 42
0.0000001
 43
0.0000001
 44
0.0000000001
 40
0.0
 40
0.0
 40
0.0
 40
0.0
 40
0.3448727575
 40
0.6447923605
 40
0.8637401133
 40
1.0
 40
1.0
 40
1.0
 40
1.0
 10
-48.8989492276
 20
-8.7121305613
 30
0.0
 10
-48.8988510605
 20
-8.7248695887
 30
0.0
 10
-48.900100481
 20
-8.748724695
 30
0.0
 10
-48.9067719469
 20
-8.7801713902
 30
0.0
 10
-48.9155585535
 20
-8.8025979585
 30
0.0
 10
-48.9272454165
 20
-8.8120828298
 30
0.0
 10
-48.9322785884
 20
-8.8121267536
 30
0.0
  0
SPLINE
  5
5A6
100
AcDbEntity
  8
0
100
AcDbSpline
 62
250
  6
CONTINUOUS
 70
0
 71
3
 72
18
 73
14
 74
0
 42
0.0000001
 43
0.0000001
 44
0.0000000001
 40
0.0
 40
0.0
 40
0.0
 40
0.0
 40
0.1952405613
 40
0.3828830438
 40
0.5557614221
 40
0.7072487303
 40
0.8315476478
 40
0.8819670588
 40
0.9238978066
 40
0.9569369937
 40
0.9807666948
 40
0.9951626579
 40
1.0
 40
1.0
 40
1.0
 40
1.0
 10
-54.3530097035
 20
23.8443375673
 30
0.0
 10
-54.3611212668
 20
23.8302874519
 30
0.0
 10
-54.3770156376
 20
23.8027261621
 30
0.0
 10
-54.4000444759
 20
23.7626978269
 30
0.0
 10
-54.4212238956
 20
23.7257948616
 30
0.0
 10
-54.4397222523
 20
23.6934377042
 30
0.0
 10
-54.4531676201
 20
23.6698724969
 30
0.0
 10
-54.4619918528
 20
23.6542264754
 30
0.0
 10
-54.4672109505
 20
23.6451093579
 30
0.0
 10
-54.4709464987
 20
23.6380496396
 30
0.0
 10
-54.4744353359
 20
23.6326254384
 30
0.0
 10
-54.4750286791
 20
23.629902666
 30
0.0
 10
-54.4769033778
 20
23.6280321961
 30
0.0
 10
-54.4765552706
 20
23.6278312164
 30
0.0
  0
SPLINE
  5
5A7
100
AcDbEntity
  8
0
100
AcDbSpline
 62
7
  6
CONTINUOUS
 70
0
 71
3
 72
9
 73
5
 74
0
 42
0.0000001
 43
0.0000001
 44
0.0000000001
 40
0.0
 40
0.0
 40
0.0
 40
0.0
 40
0.0871592849
 40
1.0
 40
1.0
 40
1.0
 40
1.0
 10
-53.6015552706
 20
23.1226497308
 30
0.0
 10
-53.5943804065
 20
23.1269218797
 30
0.0
 10
-53.5119796814
 20
23.1757980947
 30
0.0
 10
-53.4287479215
 20
23.2232587075
 30
0.0
 10
-53.3530097035
 20
23.2669872981
 30
0.0
  0
SPLINE
  5
5A8
100
AcDbEntity
  8
RACCORDO
100
AcDbSpline
 62
250
  6
CONTINUOUS
 70
0
 71
3
 72
11
 73
7
 74
0
 42
0.0000001
 43
0.0000001
 44
0.0000000001
 40
0.0
 40
0.0
 40
0.0
 40
0.0
 40
0.1362598802
 40
0.3552076262
 40
0.6551272354
 40
1.0
 40
1.0
 40
1.0
 40
1.0
 10
-48.9322785884
 20
12.4121267536
 30
0.0
 10
-48.9272454168
 20
12.4120828298
 30
0.0
 10
-48.9155585537
 20
12.4025979596
 30
0.0
 10
-48.9067719474
 20
12.3801713911
 30
0.0
 10
-48.9001004813
 20
12.3487246959
 30
0.0
 10
-48.8988510605
 20
12.324869589
 30
0.0
 10
-48.8989492276
 20
12.3121305613
 30
0.0
  0
SPLINE
  5
5A9
100
AcDbEntity
  8
0
100
AcDbSpline
 62
250
  6
CONTINUOUS
 70
0
 71
3
 72
18
 73
14
 74
0
 42
0.0000001
 43
0.0000001
 44
0.0000000001
 40
0.0
 40
0.0
 40
0.0
 40
0.0
 40
0.1952405676
 40
0.3828830559
 40
0.5557614396
 40
0.7072487501
 40
0.8315476671
 40
0.8819670769
 40
0.9238978235
 40
0.9569370065
 40
0.9807667037
 40
0.9951626634
 40
1.0
 40
1.0
 40
1.0
 40
1.0
 10
-51.3501008378
 20
23.8443375673
 30
0.0
 10
-51.3419892742
 20
23.8302874514
 30
0.0
 10
-51.3260949029
 20
23.8027261608
 30
0.0
 10
-51.3030660639
 20
23.7626978243
 30
0.0
 10
-51.2818866437
 20
23.725794858
 30
0.0
 10
-51.2633882866
 20
23.6934377001
 30
0.0
 10
-51.2499429189
 20
23.6698724928
 30
0.0
 10
-51.2411186862
 20
23.6542264715
 30
0.0
 10
-51.2358995888
 20
23.6451093544
 30
0.0
 10
-51.232164041
 20
23.6380496369
 30
0.0
 10
-51.2286752044
 20
23.6326254364
 30
0.0
 10
-51.2280818613
 20
23.629902665
 30
0.0
 10
-51.2262071639
 20
23.6280321959
 30
0.0
 10
-51.2265552706
 20
23.6278312164
 30
0.0
  0
SPLINE
  5
5AA
100
AcDbEntity
  8
RACCORDO
100
AcDbSpline
 62
250
  6
CONTINUOUS
 70
0
 71
3
 72
11
 73
7
 74
0
 42
0.0000001
 43
0.0000001
 44
0.0000000001
 40
0.0
 40
0.0
 40
0.0
 40
0.0
 40
0.1362598894
 40
0.3552076447
 40
0.6551272453
 40
1.0
 40
1.0
 40
1.0
 40
1.0
 10
-48.9322785884
 20
-0.4121267536
 30
0.0
 10
-48.9272454164
 20
-0.4120828298
 30
0.0
 10
-48.9155585534
 20
-0.4025979581
 30
0.0
 10
-48.9067719466
 20
-0.3801713898
 30
0.0
 10
-48.9001004808
 20
-0.3487246947
 30
0.0
 10
-48.8988510605
 20
-0.3248695886
 30
0.0
 10
-48.8989492276
 20
-0.3121305613
 30
0.0
  0
SPLINE
  5
5AB
100
AcDbEntity
  8
RACCORDO
100
AcDbSpline
 62
250
  6
CONTINUOUS
 70
0
 71
3
 72
11
 73
7
 74
0
 42
0.0000001
 43
0.0000001
 44
0.0000000001
 40
0.0
 40
0.0
 40
0.0
 40
0.0
 40
0.1362598802
 40
0.3552076262
 40
0.6551272354
 40
1.0
 40
1.0
 40
1.0
 40
1.0
 10
-48.9322785884
 20
0.4121267536
 30
0.0
 10
-48.9272454168
 20
0.4120828298
 30
0.0
 10
-48.9155585537
 20
0.4025979596
 30
0.0
 10
-48.9067719474
 20
0.3801713911
 30
0.0
 10
-48.9001004813
 20
0.3487246959
 30
0.0
 10
-48.8988510605
 20
0.324869589
 30
0.0
 10
-48.8989492276
 20
0.3121305613
 30
0.0
  0
SPLINE
  5
5AC
100
AcDbEntity
  8
0
100
AcDbSpline
 62
250
  6
CONTINUOUS
 70
0
 71
3
 72
18
 73
14
 74
0
 42
0.0000001
 43
0.0000001
 44
0.0000000001
 40
0.0
 40
0.0
 40
0.0
 40
0.0
 40
0.1950844131
 40
0.3826598112
 40
0.5555365904
 40
0.7070636863
 40
0.8314211769
 40
0.8818706905
 40
0.9238293166
 40
0.9568925016
 40
0.9807411619
 40
0.9951506923
 40
1.0
 40
1.0
 40
1.0
 40
1.0
 10
-51.3501008378
 20
-24.2456323968
 30
0.0
 10
-51.3500062588
 20
-24.2618896962
 30
0.0
 10
-51.3498384644
 20
-24.2937788855
 30
0.0
 10
-51.3496500226
 20
-24.3400737257
 30
0.0
 10
-51.3495285618
 20
-24.3827432798
 30
0.0
 10
-51.3494924882
 20
-24.4201311065
 30
0.0
 10
-51.3494981141
 20
-24.4473514829
 30
0.0
 10
-51.3495963295
 20
-24.4653761048
 30
0.0
 10
-51.3495931149
 20
-24.4759182206
 30
0.0
 10
-51.3498522356
 20
-24.4839312745
 30
0.0
 10
-51.3495375273
 20
-24.4903924451
 30
0.0
 10
-51.3503597939
 20
-24.4930662944
 30
0.0
 10
-51.3496967222
 20
-24.4956258149
 30
0.0
 10
-51.3501008378
 20
-24.495628166
 30
0.0
  0
SPLINE
  5
5AD
100
AcDbEntity
  8
0
100
AcDbSpline
 62
250
  6
CONTINUOUS
 70
0
 71
3
 72
18
 73
14
 74
0
 42
0.0000001
 43
0.0000001
 44
0.0000000001
 40
0.0
 40
0.0
 40
0.0
 40
0.0
 40
0.1950843653
 40
0.3826597264
 40
0.5555364725
 40
0.7070635561
 40
0.8314210539
 40
0.8818705758
 40
0.9238292118
 40
0.9568924234
 40
0.9807411086
 40
0.9951506597
 40
1.0
 40
1.0
 40
1.0
 40
1.0
 10
-54.3530097035
 20
-24.2369056521
 30
0.0
 10
-54.3531042825
 20
-24.2531629475
 30
0.0
 10
-54.3532720768
 20
-24.2850521297
 30
0.0
 10
-54.3534605186
 20
-24.3313469601
 30
0.0
 10
-54.3535819794
 20
-24.3740165073
 30
0.0
 10
-54.3536180531
 20
-24.4114043309
 30
0.0
 10
-54.3536124272
 20
-24.4386247074
 30
0.0
 10
-54.3535142119
 20
-24.4566493316
 30
0.0
 10
-54.3535174266
 20
-24.467191451
 30
0.0
 10
-54.3532583056
 20
-24.4752045101
 30
0.0
 10
-54.3535730151
 20
-24.4816656867
 30
0.0
 10
-54.3527507459
 20
-24.4843395417
 30
0.0
 10
-54.3534138218
 20
-24.4868990702
 30
0.0
 10
-54.3530097035
 20
-24.4869014213
 30
0.0
  0
SPLINE
  5
5AE
100
AcDbEntity
  8
0
100
AcDbSpline
 62
250
  6
CONTINUOUS
 70
0
 71
3
 72
18
 73
14
 74
0
 42
0.0000001
 43
0.0000001
 44
0.0000000001
 40
0.0
 40
0.0
 40
0.0
 40
0.0
 40
0.1952405676
 40
0.3828830559
 40
0.5557614396
 40
0.7072487501
 40
0.8315476671
 40
0.8819670769
 40
0.9238978235
 40
0.9569370065
 40
0.9807667037
 40
0.9951626634
 40
1.0
 40
1.0
 40
1.0
 40
1.0
 10
-54.3530097035
 20
-23.8443375673
 30
0.0
 10
-54.3611212671
 20
-23.8302874514
 30
0.0
 10
-54.3770156384
 20
-23.8027261608
 30
0.0
 10
-54.4000444774
 20
-23.7626978243
 30
0.0
 10
-54.4212238976
 20
-23.725794858
 30
0.0
 10
-54.4397222547
 20
-23.6934377001
 30
0.0
 10
-54.4531676224
 20
-23.6698724928
 30
0.0
 10
-54.461991855
 20
-23.6542264715
 30
0.0
 10
-54.4672109524
 20
-23.6451093544
 30
0.0
 10
-54.4709465003
 20
-23.6380496369
 30
0.0
 10
-54.4744353369
 20
-23.6326254364
 30
0.0
 10
-54.47502868
 20
-23.629902665
 30
0.0
 10
-54.4769033774
 20
-23.6280321959
 30
0.0
 10
-54.4765552706
 20
-23.6278312164
 30
0.0
  0
SPLINE
  5
5AF
100
AcDbEntity
  8
0
100
AcDbSpline
 62
250
  6
CONTINUOUS
 70
0
 71
3
 72
18
 73
14
 74
0
 42
0.0000001
 43
0.0000001
 44
0.0000000001
 40
0.0
 40
0.0
 40
0.0
 40
0.0
 40
0.1952405613
 40
0.3828830438
 40
0.5557614221
 40
0.7072487303
 40
0.8315476478
 40
0.8819670588
 40
0.9238978066
 40
0.9569369937
 40
0.9807666948
 40
0.9951626579
 40
1.0
 40
1.0
 40
1.0
 40
1.0
 10
-51.3501008378
 20
-23.8443375673
 30
0.0
 10
-51.3419892744
 20
-23.8302874519
 30
0.0
 10
-51.3260949037
 20
-23.8027261621
 30
0.0
 10
-51.3030660654
 20
-23.7626978269
 30
0.0
 10
-51.2818866457
 20
-23.7257948616
 30
0.0
 10
-51.2633882889
 20
-23.6934377042
 30
0.0
 10
-51.2499429212
 20
-23.6698724969
 30
0.0
 10
-51.2411186885
 20
-23.6542264754
 30
0.0
 10
-51.2358995908
 20
-23.6451093579
 30
0.0
 10
-51.2321640426
 20
-23.6380496396
 30
0.0
 10
-51.2286752054
 20
-23.6326254384
 30
0.0
 10
-51.2280818622
 20
-23.629902666
 30
0.0
 10
-51.2262071635
 20
-23.6280321961
 30
0.0
 10
-51.2265552706
 20
-23.6278312164
 30
0.0
  0
SPLINE
  5
5B0
100
AcDbEntity
  8
RACCORDO
100
AcDbSpline
 62
250
  6
CONTINUOUS
 70
0
 71
3
 72
10
 73
6
 74
0
 42
0.0000001
 43
0.0000001
 44
0.0000000001
 40
0.0
 40
0.0
 40
0.0
 40
0.0
 40
0.3517459956
 40
0.6433244343
 40
1.0
 40
1.0
 40
1.0
 40
1.0
 10
-48.9322785884
 20
8.1121267536
 30
0.0
 10
-48.9238147518
 20
8.1120528909
 30
0.0
 10
-48.9124447789
 20
8.0960005371
 30
0.0
 10
-48.9053940745
 20
8.0742655609
 30
0.0
 10
-48.9023509806
 20
8.0585991979
 30
0.0
 10
-48.9012298976
 20
8.0500899504
 30
0.0
  0
ELLIPSE
  5
5B1
100
AcDbEntity
  8
RACCORDO
100
AcDbEllipse
 62
7
  6
CONTINUOUS
 10
-11.2208381407
 20
22.0640277586
 30
0.0
 11
0.0316478205
 21
0.0950206715
 31
0.0
 40
0.9984778551
 41
0.3210503505
 42
1.5707963525
  0
ELLIPSE
  5
5B2
100
AcDbEntity
  8
RACCORDO
100
AcDbEllipse
 62
7
  6
CONTINUOUS
 10
7.3874204524
 20
22.0640277586
 30
0.0
 11
-0.0316478205
 21
0.0950206715
 31
0.0
 40
0.9984778551
 41
-1.5707963525
 42
-0.3210503505
  0
ELLIPSE
  5
5B3
100
AcDbEntity
  8
RACCORDO
100
AcDbEllipse
 62
7
  6
CONTINUOUS
 10
-10.9166326801
 20
16.0000190392
 30
0.0
 11
-0.4473055582
 21
-0.2236357461
 31
0.0
 40
0.9998096356
 41
5.8196443071
 42
7.3902883349
  0
ELLIPSE
  5
5B4
100
AcDbEntity
  8
RACCORDO
100
AcDbEllipse
 62
7
  6
CONTINUOUS
 10
7.0832149918
 20
16.0000190392
 30
0.0
 11
-0.4473055582
 21
0.2236357461
 31
0.0
 40
0.9998096356
 41
8.3176749331
 42
9.8883189608
  0
ELLIPSE
  5
5B5
100
AcDbEntity
  8
RACCORDO
100
AcDbEllipse
 62
7
  6
CONTINUOUS
 10
-8.9667054595
 20
-22.6002744692
 30
0.0
 11
0.0220972656
 21
-0.1990550872
 31
0.0
 40
0.9986126811
 41
9.3143719601
 42
10.8848638081
  0
ELLIPSE
  5
5B6
100
AcDbEntity
  8
RACCORDO
100
AcDbEllipse
 62
7
  6
CONTINUOUS
 10
-12.2667122288
 20
-22.6002744692
 30
0.0
 11
0.0220972656
 21
0.1990550872
 31
0.0
 40
0.9986126811
 41
4.8230994598
 42
6.3935913078
  0
ELLIPSE
  5
5B7
100
AcDbEntity
  8
RACCORDO
100
AcDbEllipse
 62
7
  6
CONTINUOUS
 10
8.4332945405
 20
-22.6002744692
 30
0.0
 11
0.0220972656
 21
-0.1990550872
 31
0.0
 40
0.9986126811
 41
9.3143719601
 42
10.8848638081
  0
ELLIPSE
  5
5B8
100
AcDbEntity
  8
RACCORDO
100
AcDbEllipse
 62
7
  6
CONTINUOUS
 10
5.1332877712
 20
-22.6002744692
 30
0.0
 11
0.0220972656
 21
0.1990550872
 31
0.0
 40
0.9986126811
 41
4.8230994598
 42
6.3935913078
  0
ELLIPSE
  5
5B9
100
AcDbEntity
  8
RACCORDO
100
AcDbEllipse
 62
7
  6
CONTINUOUS
 10
-12.2667122288
 20
22.6002744692
 30
0.0
 11
-0.0220972656
 21
0.1990550872
 31
0.0
 40
0.9986126811
 41
9.3143719601
 42
10.8848638081
  0
ELLIPSE
  5
5BA
100
AcDbEntity
  8
RACCORDO
100
AcDbEllipse
 62
7
  6
CONTINUOUS
 10
-8.9667054595
 20
22.6002744692
 30
0.0
 11
-0.0220972656
 21
-0.1990550872
 31
0.0
 40
0.9986126811
 41
4.8230994598
 42
6.3935913078
  0
ELLIPSE
  5
5BB
100
AcDbEntity
  8
RACCORDO
100
AcDbEllipse
 62
7
  6
CONTINUOUS
 10
5.1332877712
 20
22.6002744692
 30
0.0
 11
-0.0220972656
 21
0.1990550872
 31
0.0
 40
0.9986126811
 41
9.3143719601
 42
10.8848638081
  0
ELLIPSE
  5
5BC
100
AcDbEntity
  8
RACCORDO
100
AcDbEllipse
 62
7
  6
CONTINUOUS
 10
8.4332945405
 20
22.6002744692
 30
0.0
 11
-0.0220972656
 21
-0.1990550872
 31
0.0
 40
0.9986126811
 41
4.8230994598
 42
6.3935913078
  0
ELLIPSE
  5
5BD
100
AcDbEntity
  8
0
100
AcDbEllipse
 62
7
  6
CONTINUOUS
 10
-3.1167088442
 20
-22.3842776662
 30
0.0
 11
0.2
 21
0.0
 31
0.0
 40
0.0524077793
 41
-0.0
 42
1.5707963268
  0
ELLIPSE
  5
5BE
100
AcDbEntity
  8
RACCORDO
100
AcDbEllipse
 62
7
  6
CONTINUOUS
 10
7.54937761
 20
19.9727446546
 30
0.0
 11
-0.0
 21
0.5
 31
0.0
 40
0.0174550649
 41
-1.4486232792
 42
-0.0174532925
  0
ELLIPSE
  5
5BF
100
AcDbEntity
  8
RACCORDO
100
AcDbEllipse
 62
7
  6
CONTINUOUS
 10
-11.3827952983
 20
19.9727446546
 30
0.0
 11
-0.0
 21
0.5
 31
0.0
 40
0.0174550649
 41
0.0174532925
 42
1.4486232792
  0
ELLIPSE
  5
5C0
100
AcDbEntity
  8
0
100
AcDbEllipse
 62
7
  6
CONTINUOUS
 10
-0.7167088442
 20
-22.3842776662
 30
0.0
 11
0.2
 21
0.0
 31
0.0
 40
0.0524077793
 41
1.5707963268
 42
3.1415926536
  0
ELLIPSE
  5
5C1
100
AcDbEntity
  8
0
100
AcDbEllipse
 62
7
  6
CONTINUOUS
 10
-3.1167088442
 20
22.3842776662
 30
0.0
 11
0.2
 21
0.0
 31
0.0
 40
0.0524077793
 41
-1.5707963268
 42
0.0
  0
ELLIPSE
  5
5C2
100
AcDbEntity
  8
0
100
AcDbEllipse
 62
7
  6
CONTINUOUS
 10
-0.7167088442
 20
22.3842776662
 30
0.0
 11
0.2
 21
0.0
 31
0.0
 40
0.0524077793
 41
-3.1415926536
 42
-1.5707963268
  0
ELLIPSE
  5
5C3
100
AcDbEntity
  8
RACCORDO
100
AcDbEllipse
 62
7
  6
CONTINUOUS
 10
7.7414294656
 20
21.963890524
 30
0.0
 11
-0.0632956409
 21
0.1900413429
 31
0.0
 40
0.9984778551
 41
-0.3210503505
 42
1.2488325878
  0
ELLIPSE
  5
5C4
100
AcDbEntity
  8
RACCORDO
100
AcDbEllipse
 62
7
  6
CONTINUOUS
 10
-11.5748471539
 20
21.963890524
 30
0.0
 11
0.0632956409
 21
0.1900413429
 31
0.0
 40
0.9984778551
 41
-1.2488325878
 42
0.3210503505
  0
ELLIPSE
  5
5C5
100
AcDbEntity
  8
Z030100_COP
100
AcDbEllipse
 62
7
  6
CONTINUOUS
 10
-47.0015552706
 20
-4.75
 30
0.0
 11
0.0
 21
0.9
 31
0.0
 40
0.3333333333
 41
1.2309594173
 42
1.5707963268
  0
ELLIPSE
  5
5C6
100
AcDbEntity
  8
Z030100_COP
100
AcDbEllipse
 62
7
  6
CONTINUOUS
 10
-40.2015552706
 20
-4.75
 30
0.0
 11
0.0
 21
0.9
 31
0.0
 40
0.3333333333
 41
-1.5707963268
 42
-1.2309594173
  0
ELLIPSE
  5
5C7
100
AcDbEntity
  8
Z030100_COP
100
AcDbEllipse
 62
7
  6
CONTINUOUS
 10
-39.4015552706
 20
-4.75
 30
0.0
 11
-0.0
 21
0.9
 31
0.0
 40
0.3333333333
 41
1.2309594173
 42
1.5707963268
  0
ELLIPSE
  5
5C8
100
AcDbEntity
  8
Z030100_COP
100
AcDbEllipse
 62
7
  6
CONTINUOUS
 10
-32.6015552706
 20
-4.75
 30
0.0
 11
-0.0
 21
0.9
 31
0.0
 40
0.3333333333
 41
-1.5707963268
 42
-1.2309594173
  0
ELLIPSE
  5
5C9
100
AcDbEntity
  8
0
100
AcDbEllipse
 62
7
  6
CONTINUOUS
 10
25.2468744054
 20
-23.15
 30
0.0
 11
85.9426996401
 21
-0.0
 31
0.0
 40
0.0058178298
 41
2.5196231925
 42
2.6905658418
  0
ELLIPSE
  5
5CA
100
AcDbEntity
  8
0
100
AcDbEllipse
 62
7
  6
CONTINUOUS
 10
25.2468744054
 20
-23.15
 30
0.0
 11
85.9426996401
 21
0.0
 31
0.0
 40
0.0058178298
 41
-2.6791261215
 42
-2.5196231925
  0
ELLIPSE
  5
5CB
100
AcDbEntity
  8
0
100
AcDbEllipse
 62
7
  6
CONTINUOUS
 10
25.2468744054
 20
23.15
 30
0.0
 11
85.9426996401
 21
-0.0
 31
0.0
 40
0.0058178298
 41
2.5196231925
 42
2.6791261215
  0
ELLIPSE
  5
5CC
100
AcDbEntity
  8
0
100
AcDbEllipse
 62
7
  6
CONTINUOUS
 10
25.2468744054
 20
23.15
 30
0.0
 11
85.9426996401
 21
-0.0
 31
0.0
 40
0.0058178298
 41
-2.6905658418
 42
-2.5196231925
  0
ELLIPSE
  5
5CD
100
AcDbEntity
  8
DRAFT
100
AcDbEllipse
 62
7
  6
CONTINUOUS
 10
-40.6015552706
 20
-21.9537669705
 30
0.0
 11
0.3546425507
 21
0.3568377408
 31
0.0
 40
0.9877342685
 41
-0.2563081296
 42
0.7710302454
  0
ELLIPSE
  5
5CE
100
AcDbEntity
  8
DRAFT
100
AcDbEllipse
 62
7
  6
CONTINUOUS
 10
-40.6015552706
 20
21.9537669705
 30
0.0
 11
-0.3546425507
 21
0.3568377408
 31
0.0
 40
0.9877342685
 41
-3.912622899
 42
-2.8852845239
  0
ENDSEC
  0
SECTION
  2
OBJECTS
  0
DICTIONARY
  5
C
100
AcDbDictionary
280
0
281
1
  3
ACAD_GROUP
350
D
  3
ACAD_MLINESTYLE
350
17
  3
ACAD_LAYOUT
350
1A
  3
ACAD_PLOTSETTINGS
350
19
  3
ACAD_PLOTSTYLENAME
350
E
  0
DICTIONARY
  5
D
102
{ACAD_REACTORS
330
C
102
}
100
AcDbDictionary
280
0
281
1
  0
ACDBDICTIONARYWDFLT
  5
E
102
{ACAD_REACTORS
330
C
102
}
100
AcDbDictionary
281
1
  3
Normal
350
F
100
AcDbDictionaryWithDefault
340
F
  0
DICTIONARY
  5
17
102
{ACAD_REACTORS
330
C
102
}
100
AcDbDictionary
280
0
281
1
  3
Standard
350
18
  0
DICTIONARY
  5
19
102
{ACAD_REACTORS
330
C
102
}
100
AcDbDictionary
281
1
  0
DICTIONARY
  5
1A
102
{ACAD_REACTORS
330
C
102
}
100
AcDbDictionary
281
1
  3
Model
350
5CF
  3
Layout1
350
5D0
  0
ACDBPLACEHOLDER
  5
F
102
{ACAD_REACTORS
330
E
102
}
  0
MLINESTYLE
  5
18
102
{ACAD_REACTORS
330
17
102
}
100
AcDbMlineStyle
  2
STANDARD
 70
0
  3

 62
256
 51
90.0
 52
90.0
 71
2
 49
0.5
 62
256
  6
BYLAYER
 49
-0.5
 62
256
  6
BYLAYER
  0
LAYOUT
  5
5CF
102
{ACAD_REACTORS
330
1A
102
}
100
AcDbPlotSettings
  1

  2
none_device
  4
ANSI_C_(22.00_x_17.00_Inches)
  6

 40
0.0
 41
0.0
 42
0.0
 43
0.0
 44
558.8
 45
431.8
 46
0.0
 47
0.0
 48
0.0
 49
0.0
140
0.0
141
0.0
142
1.0
143
1.0
 70
1024
 72
1
 73
0
 74
0
  7

 75
0
147
1.0
148
0.0
149
0.0
100
AcDbLayout
  1
Model
 70
0
 71
0
 10
0.0
 20
0.0
 11
558.8
 21
431.8
 12
0.0
 22
0.0
 32
0.0
 14
0.0
 24
0.0
 34
0.0
 15
0.0
 25
0.0
 35
0.0
146
0.0
 13
0.0
 23
0.0
 33
0.0
 16
1.0
 26
0.0
 36
0.0
 17
0.0
 27
1.0
 37
0.0
 76
0
330
215
345
0
346
0
  0
LAYOUT
  5
5D0
102
{ACAD_REACTORS
330
1A
102
}
100
AcDbPlotSettings
  1

  2
none_device
  4
ANSI_C_(22.00_x_17.00_Inches)
  6

 40
0.0
 41
0.0
 42
0.0
 43
0.0
 44
558.8
 45
431.8
 46
0.0
 47
0.0
 48
0.0
 49
0.0
140
0.0
141
0.0
142
1.0
143
1.0
 70
0
 72
1
 73
0
 74
0
  7

 75
0
147
1.0
148
0.0
149
0.0
100
AcDbLayout
  1
Layout1
 70
0
 71
1
 10
0.0
 20
0.0
 11
558.8
 21
431.8
 12
0.0
 22
0.0
 32
0.0
 14
0.0
 24
0.0
 34
0.0
 15
0.0
 25
0.0
 35
0.0
146
0.0
 13
0.0
 23
0.0
 33
0.0
 16
1.0
 26
0.0
 36
0.0
 17
0.0
 27
1.0
 37
0.0
 76
0
330
216
345
0
346
0
  0
ENDSEC
  0
EOF
