  0
SECTION
  2
HEADER
  9
$ACADVER
  1
AC1024
  9
$DWGCODEPAGE
  3
ANSI_1252
  9
$EXTMAX
 10
297.0
 20
210.0
 30
0.0
  9
$EXTMIN
 10
0.0
 20
0.0
 30
0.0
  9
$LIMMIN
 10
0.0
 20
0.0
  9
$LIMMAX
 10
297.0
 20
210.0
  9
$VIEWCTR
 10
148.5
 20
105.0
  9
$VIEWSIZE
 40
210.0
  9
$CLAYER
  8
0
  9
$LTSCALE
 40
16.335
  9
$CELTYPE
  6
BYLAYER
  9
$DIMSCALE
 40
1.0
  9
$DIMASZ
 40
3.0
  9
$DIMEXO
 40
0.5
  9
$DIMDLI
 40
11.286
  9
$DIMEXE
 40
1.5
  9
$DIMCEN
 40
2.673
  9
$DIMLFAC
 40
1.0
  9
$DIMBLK
  1
_FILLED
  9
$DIMALT
 70
0
  9
$DIMALTF
 40
0.0393700787
  9
$DIMTXT
 40
3.0
  9
$DIMTOL
 70
1
  9
$DIMLIM
 70
0
  9
$DIMTFAC
 40
1.0
  9
$DIMTP
 40
0.01
  9
$DIMTM
 40
0.01
  9
$DIMGAP
 40
0.625
  9
$DIMDSEP
 70
44
  9
$AUNITS
 70
0
  9
$PDMODE
 70
3
  9
$PDSIZE
 40
3.0
  9
$HANDSEED
  5
5D8
  9
$TILEMODE
 70
1
  9
$MEASUREMENT
 70
1
  9
$INSUNITS
 70
4
  0
ENDSEC
  0
SECTION
  2
CLASSES
  0
CLASS
  1
ACDBDICTIONARYWDFLT
  2
AcDbDictionaryWithDefault
  3
AutoCAD 2000
 90
0
 91
1
280
0
281
0
  0
CLASS
  1
ACDBPLACEHOLDER
  2
AcDbPlaceHolder
  3
AutoCAD 2000
 90
0
 91
1
280
0
281
0
  0
CLASS
  1
LAYOUT
  2
AcDbLayout
  3
AutoCAD 2000
 90
0
 91
0
280
0
281
0
  0
ENDSEC
  0
SECTION
  2
TABLES
  0
TABLE
  2
VPORT
  5
8
100
AcDbSymbolTable
 70
2
  0
VPORT
  5
1F4
100
AcDbSymbolTableRecord
100
AcDbViewportTableRecord
  2
*ACTIVE
 70
0
 10
0.0
 20
0.0
 11
1.0
 21
1.0
 12
148.5
 22
105.0
 13
0.0
 23
0.0
 14
1.0
 24
1.0
 15
0.0
 25
0.0
 16
0.0
 26
0.0
 36
1.0
 17
0.0
 27
0.0
 37
0.0
 40
210.0
 41
1.4142857143
 42
50.0
 43
0.0
 44
0.0
 50
0.0
 51
0.0
 71
0
 72
100
 73
1
 74
1
 75
0
 76
0
 77
0
 78
0
  0
ENDTAB
  0
TABLE
  2
LTYPE
  5
5
100
AcDbSymbolTable
 70
6
  0
LTYPE
  5
14
100
AcDbSymbolTableRecord
100
AcDbLinetypeTableRecord
  2
BYBLOCK
 70
0
  3

 72
65
 73
0
 40
0.0
  0
LTYPE
  5
15
100
AcDbSymbolTableRecord
100
AcDbLinetypeTableRecord
  2
BYLAYER
 70
0
  3

 72
65
 73
0
 40
0.0
  0
LTYPE
  5
16
100
AcDbSymbolTableRecord
100
AcDbLinetypeTableRecord
  2
CONTINUOUS
 70
64
  3
Solid line
 72
65
 73
0
 40
0.0
  0
LTYPE
  5
1F5
100
AcDbSymbolTableRecord
100
AcDbLinetypeTableRecord
  2
CENTER
 70
64
  3
____ _ ____ _ ____ _ ____ _ ____ _ ____ _ ____
 72
65
 73
4
 40
0.6
 49
0.375
 74
0
 49
-0.075
 74
0
 49
0.075
 74
0
 49
-0.075
 74
0
  0
LTYPE
  5
1F6
100
AcDbSymbolTableRecord
100
AcDbLinetypeTableRecord
  2
HIDDEN
 70
64
  3
- - - - - - - - - - - - - - - - - - - -
 72
65
 73
2
 40
0.2
 49
0.1
 74
0
 49
-0.1
 74
0
  0
LTYPE
  5
1F7
100
AcDbSymbolTableRecord
100
AcDbLinetypeTableRecord
  2
PHANTOM
 70
64
  3
_____ _ _ _____ _ _ _____ _ _ _____
 72
65
 73
6
 40
0.8
 49
0.45
 74
0
 49
-0.05
 74
0
 49
0.1
 74
0
 49
-0.05
 74
0
 49
0.1
 74
0
 49
-0.05
 74
0
  0
LTYPE
  5
1F8
100
AcDbSymbolTableRecord
100
AcDbLinetypeTableRecord
  2
DOT
 70
64
  3
. . . . . . . . . . . . . . . . . . . .
 72
65
 73
2
 40
0.2
 49
0.1
 74
0
 49
-0.1
 74
0
  0
LTYPE
  5
1F9
100
AcDbSymbolTableRecord
100
AcDbLinetypeTableRecord
  2
DASHED
 70
64
  3
- - - - - - - - - - - - - - - - - - - -
 72
65
 73
2
 40
0.2
 49
0.1
 74
0
 49
-0.1
 74
0
  0
ENDTAB
  0
TABLE
  2
LAYER
  5
2
100
AcDbSymbolTable
 70
36
  0
LAYER
  5
10
100
AcDbSymbolTableRecord
100
AcDbLayerTableRecord
  2
0
 70
0
 62
7
  6
CONTINUOUS
370
-3
390
F
  0
LAYER
  5
1FA
100
AcDbSymbolTableRecord
100
AcDbLayerTableRecord
  2
DEFAULT_1
 70
0
 62
7
  6
CENTER
370
-3
390
F
  0
LAYER
  5
1FB
100
AcDbSymbolTableRecord
100
AcDbLayerTableRecord
  2
DEFAULT_2
 70
0
 62
7
  6
HIDDEN
370
-3
390
F
  0
LAYER
  5
1FC
100
AcDbSymbolTableRecord
100
AcDbLayerTableRecord
  2
DEFAULT_3
 70
0
 62
7
  6
PHANTOM
370
-3
390
F
  0
LAYER
  5
1FD
100
AcDbSymbolTableRecord
100
AcDbLayerTableRecord
  2
ASSI
 70
0
 62
7
  6
CONTINUOUS
370
-3
390
F
  0
LAYER
  5
1FE
100
AcDbSymbolTableRecord
100
AcDbLayerTableRecord
  2
COORDINATE
 70
0
 62
7
  6
CONTINUOUS
370
-3
390
F
  0
LAYER
  5
1FF
100
AcDbSymbolTableRecord
100
AcDbLayerTableRecord
  2
COORD_ORIGINE
 70
0
 62
7
  6
CONTINUOUS
370
-3
390
F
  0
LAYER
  5
200
100
AcDbSymbolTableRecord
100
AcDbLayerTableRecord
  2
CURVE
 70
0
 62
7
  6
CONTINUOUS
370
-3
390
F
  0
LAYER
  5
201
100
AcDbSymbolTableRecord
100
AcDbLayerTableRecord
  2
DRAFT
 70
0
 62
7
  6
CONTINUOUS
370
-3
390
F
  0
LAYER
  5
202
100
AcDbSymbolTableRecord
100
AcDbLayerTableRecord
  2
IMPORT
 70
0
 62
7
  6
CONTINUOUS
370
-3
390
F
  0
LAYER
  5
203
100
AcDbSymbolTableRecord
100
AcDbLayerTableRecord
  2
INCISIONI_LASER
 70
0
 62
7
  6
CONTINUOUS
370
-3
390
F
  0
LAYER
  5
204
100
AcDbSymbolTableRecord
100
AcDbLayerTableRecord
  2
INTF_1
 70
0
 62
7
  6
CONTINUOUS
370
-3
390
F
  0
LAYER
  5
205
100
AcDbSymbolTableRecord
100
AcDbLayerTableRecord
  2
INTF_11
 70
0
 62
7
  6
CONTINUOUS
370
-3
390
F
  0
LAYER
  5
206
100
AcDbSymbolTableRecord
100
AcDbLayerTableRecord
  2
INTF_12
 70
0
 62
7
  6
CONTINUOUS
370
-3
390
F
  0
LAYER
  5
207
100
AcDbSymbolTableRecord
100
AcDbLayerTableRecord
  2
NOTE
 70
0
 62
7
  6
CONTINUOUS
370
-3
390
F
  0
LAYER
  5
208
100
AcDbSymbolTableRecord
100
AcDbLayerTableRecord
  2
PIANI
 70
0
 62
7
  6
CONTINUOUS
370
-3
390
F
  0
LAYER
  5
209
100
AcDbSymbolTableRecord
100
AcDbLayerTableRecord
  2
PIANI_ORIGINE
 70
0
 62
7
  6
CONTINUOUS
370
-3
390
F
  0
LAYER
  5
20A
100
AcDbSymbolTableRecord
100
AcDbLayerTableRecord
  2
PIANI_SFORMI
 70
0
 62
7
  6
CONTINUOUS
370
-3
390
F
  0
LAYER
  5
20B
100
AcDbSymbolTableRecord
100
AcDbLayerTableRecord
  2
PUNTI
 70
0
 62
7
  6
CONTINUOUS
370
-3
390
F
  0
LAYER
  5
20C
100
AcDbSymbolTableRecord
100
AcDbLayerTableRecord
  2
RACCORDO
 70
0
 62
7
  6
CONTINUOUS
370
-3
390
F
  0
LAYER
  5
20D
100
AcDbSymbolTableRecord
100
AcDbLayerTableRecord
  2
SMUSSO
 70
0
 62
7
  6
CONTINUOUS
370
-3
390
F
  0
LAYER
  5
20E
100
AcDbSymbolTableRecord
100
AcDbLayerTableRecord
  2
SNAPLINE
 70
0
 62
7
  6
CONTINUOUS
370
-3
390
F
  0
LAYER
  5
20F
100
AcDbSymbolTableRecord
100
AcDbLayerTableRecord
  2
SUPERFICI
 70
0
 62
7
  6
CONTINUOUS
370
-3
390
F
  0
LAYER
  5
210
100
AcDbSymbolTableRecord
100
AcDbLayerTableRecord
  2
TRASH
 70
0
 62
7
  6
CONTINUOUS
370
-3
390
F
  0
LAYER
  5
211
100
AcDbSymbolTableRecord
100
AcDbLayerTableRecord
  2
XSEC_DATUMS
 70
0
 62
7
  6
CONTINUOUS
370
-3
390
F
  0
LAYER
  5
212
100
AcDbSymbolTableRecord
100
AcDbLayerTableRecord
  2
Z030100_COP
 70
0
 62
7
  6
CONTINUOUS
370
-3
390
F
  0
ENDTAB
  0
TABLE
  2
STYLE
  5
3
100
AcDbSymbolTable
 70
1
  0
STYLE
  5
11
100
AcDbSymbolTableRecord
100
AcDbTextStyleTableRecord
  2
STANDARD
 70
0
 40
0.0
 41
0.8
 50
0.0
 71
0
 42
0.2
  3
txt
  4

  0
STYLE
  5
213
100
AcDbSymbolTableRecord
100
AcDbTextStyleTableRecord
  2
TEXTSTYLE_1
 70
0
 40
0.0
 41
0.8
 50
0.0
 71
0
 42
0.2
  3
gdt
  4

  0
ENDTAB
  0
TABLE
  2
VIEW
  5
6
100
AcDbSymbolTable
 70
0
  0
ENDTAB
  0
TABLE
  2
UCS
  5
7
100
AcDbSymbolTable
 70
0
  0
ENDTAB
  0
TABLE
  2
APPID
  5
9
100
AcDbSymbolTable
 70
1
  0
APPID
  5
214
100
AcDbSymbolTableRecord
100
AcDbRegAppTableRecord
  2
ACAD
 70
0
  0
ENDTAB
  0
TABLE
  2
BLOCK_RECORD
  5
1
100
AcDbSymbolTable
 70
0
  0
BLOCK_RECORD
  5
215
100
AcDbSymbolTableRecord
100
AcDbBlockTableRecord
  2
*Model_Space
  0
BLOCK_RECORD
  5
216
100
AcDbSymbolTableRecord
100
AcDbBlockTableRecord
  2
*Paper_Space
  0
BLOCK_RECORD
  5
217
100
AcDbSymbolTableRecord
100
AcDbBlockTableRecord
  2
_FILLED
  0
BLOCK_RECORD
  5
218
100
AcDbSymbolTableRecord
100
AcDbBlockTableRecord
  2
*D0
  0
BLOCK_RECORD
  5
219
100
AcDbSymbolTableRecord
100
AcDbBlockTableRecord
  2
*D1
  0
BLOCK_RECORD
  5
21A
100
AcDbSymbolTableRecord
100
AcDbBlockTableRecord
  2
*D2
  0
BLOCK_RECORD
  5
21B
100
AcDbSymbolTableRecord
100
AcDbBlockTableRecord
  2
*D3
  0
ENDTAB
  0
TABLE
  2
DIMSTYLE
  5
A
100
AcDbSymbolTable
 70
1
100
AcDbDimStyleTable
 71
0
  0
DIMSTYLE
105
21C
100
AcDbSymbolTableRecord
100
AcDbDimStyleTableRecord
  2
STANDARD
 70
0
  3

  4

 40
1.0
 41
3.0
 42
0.5
 43
0.38
 44
1.5
 45
0.0
 46
0.0
 47
0.01
 48
0.01
140
3.0
141
0.0
142
0.0
143
25.4
144
1.0
145
0.0
146
1.0
147
0.625
 71
1
 72
0
 73
0
 74
0
 75
0
 76
0
 77
1
 78
8
 79
2
170
0
171
1
172
0
173
0
174
0
175
0
176
0
177
0
178
0
270
2
179
1
271
2
272
2
273
2
274
2
275
0
280
0
281
0
282
0
283
1
284
8
285
0
286
0
287
3
288
0
340
11
278
44
341
217
342
217
343
217
344
217
  0
DIMSTYLE
105
21D
100
AcDbSymbolTableRecord
100
AcDbDimStyleTableRecord
  2
DIMSTYLE_1
 70
0
  3

  4

 40
1.0
 41
3.0
 42
0.5
 43
0.38
 44
1.5
 45
0.0
 46
0.0
 47
0.0
 48
0.0
140
3.0
141
0.0
142
0.0
143
25.4
144
1.0
145
0.0
146
1.0
147
0.75
 71
0
 72
0
 73
0
 74
0
 75
0
 76
0
 77
1
 78
8
 79
2
170
0
171
1
172
0
173
0
174
0
175
0
176
0
177
0
178
0
270
2
179
2
271
2
272
2
273
2
274
2
275
0
280
0
281
0
282
0
283
1
284
8
285
0
286
0
287
3
288
0
340
11
278
44
341
217
342
217
343
217
344
217
  0
DIMSTYLE
105
21E
100
AcDbSymbolTableRecord
100
AcDbDimStyleTableRecord
  2
DIMSTYLE_2
 70
0
  3

  4

 40
1.0
 41
3.0
 42
0.5
 43
0.38
 44
1.5
 45
0.0
 46
0.0
 47
0.0
 48
0.0
140
3.0
141
0.0
142
0.0
143
25.4
144
1.0
145
0.0
146
1.0
147
0.75
 71
0
 72
0
 73
0
 74
0
 75
0
 76
0
 77
1
 78
8
 79
2
170
0
171
1
172
0
173
0
174
0
175
0
176
0
177
0
178
0
270
2
179
1
271
1
272
2
273
2
274
2
275
0
280
0
281
0
282
0
283
1
284
8
285
0
286
0
287
3
288
0
340
11
278
44
341
217
342
217
343
217
344
217
  0
ENDTAB
  0
ENDSEC
  0
SECTION
  2
BLOCKS
  0
BLOCK
  5
20
100
AcDbEntity
  8
0
100
AcDbBlockBegin
  2
*Model_Space
 70
0
 10
0.0
 20
0.0
 30
0.0
  3
*Model_Space
  1

  0
ENDBLK
  5
21
100
AcDbEntity
  8
0
100
AcDbBlockEnd
  0
BLOCK
  5
1C
100
AcDbEntity
  8
0
100
AcDbBlockBegin
  2
*Paper_Space
 70
0
 10
0.0
 20
0.0
 30
0.0
  3
*Paper_Space
  1

  0
ENDBLK
  5
1D
100
AcDbEntity
  8
0
100
AcDbBlockEnd
  0
BLOCK
  5
21F
100
AcDbEntity
  8
0
100
AcDbBlockBegin
  2
_FILLED
 70
64
 10
0.0
 20
0.0
 30
0.0
  3
_FILLED
  1

  0
SOLID
  5
220
100
AcDbEntity
  8
0
  6
BYBLOCK
 62
0
100
AcDbTrace
 10
0.0
 20
0.0
 30
0.0
 11
-1.0
 21
0.3166666667
 31
0.0
 12
-1.0
 22
-0.3166666667
 32
0.0
 13
-1.0
 23
-0.3166666667
 33
0.0
  0
ENDBLK
  5
221
100
AcDbEntity
  8
0
  6
BYBLOCK
 62
0
100
AcDbBlockEnd
  0
BLOCK
  5
222
100
AcDbEntity
  8
0
100
AcDbBlockBegin
 62
7
  6
CONTINUOUS
  2
*D0
 70
65
 10
0.0
 20
0.0
 30
0.0
  3
*D0
  1

  0
MTEXT
  5
223
100
AcDbEntity
  8
0
100
AcDbMText
 62
7
  6
CONTINUOUS
  7
STANDARD
 71
2
 72
1
 10
14.7023704282
 20
-7.7200753789
 30
0.0
 11
0.0
 21
1.0
 31
0.0
 73
2
 44
0.9
  1
{\ftxt;\W0.0001;\H0.0001;\~}{\ftxt;\W1.5714285714;\H3.0; }{\ftxt;\W0.0001;\H0.0001;\~}
 40
3.0
 41
7.0714285714
  0
LINE
  5
224
100
AcDbEntity
  8
0
100
AcDbLine
 62
7
  6
CONTINUOUS
 10
5.852374659
 20
-32.2200753789
 30
0.0
 11
19.9523704282
 21
-32.2200753789
 31
0.0
  0
LINE
  5
225
100
AcDbEntity
  8
0
100
AcDbLine
 62
7
  6
CONTINUOUS
 10
5.852374659
 20
16.7799246211
 30
0.0
 11
19.9523704282
 21
16.7799246211
 31
0.0
  0
LINE
  5
226
100
AcDbEntity
  8
0
100
AcDbLine
 62
7
  6
CONTINUOUS
 10
18.4523704282
 20
-32.2200753789
 30
0.0
 11
18.4523704282
 21
-7.7200753789
 31
0.0
  0
LINE
  5
227
100
AcDbEntity
  8
0
100
AcDbLine
 62
7
  6
CONTINUOUS
 10
18.4523704282
 20
16.7799246211
 30
0.0
 11
18.4523704282
 21
-7.7200753789
 31
0.0
  0
INSERT
  5
228
100
AcDbEntity
  8
0
100
AcDbBlockReference
 62
7
  6
CONTINUOUS
  2
_FILLED
 10
18.4523704282
 20
-32.2200753789
 30
0.0
 41
3.0
 42
3.0
 43
3.0
 50
270.0
  0
INSERT
  5
229
100
AcDbEntity
  8
0
100
AcDbBlockReference
 62
7
  6
CONTINUOUS
  2
_FILLED
 10
18.4523704282
 20
16.7799246211
 30
0.0
 41
3.0
 42
3.0
 43
3.0
 50
90.0
  0
ENDBLK
  5
22A
100
AcDbEntity
  8
0
  6
BYBLOCK
 62
0
100
AcDbBlockEnd
  0
BLOCK
  5
22B
100
AcDbEntity
  8
0
100
AcDbBlockBegin
 62
7
  6
CONTINUOUS
  2
*D1
 70
65
 10
0.0
 20
0.0
 30
0.0
  3
*D1
  1

  0
MTEXT
  5
22C
100
AcDbEntity
  8
0
100
AcDbMText
 62
7
  6
CONTINUOUS
  7
STANDARD
 71
2
 72
1
 10
-4.5476295718
 20
28.5299246211
 30
0.0
 11
1.0
 21
0.0
 31
0.0
 73
2
 44
0.9
  1
{\ftxt;\W0.0001;\H0.0001;\~}{\ftxt;\W2.8571428571;\H3.0; }{\ftxt;\W0.0001;\H0.0001;\~}
 40
3.0
 41
12.8571428571
  0
LINE
  5
22D
100
AcDbEntity
  8
0
100
AcDbLine
 62
7
  6
CONTINUOUS
 10
6.6189527399
 20
13.8025743519
 30
0.0
 11
6.6189527399
 21
26.2799246211
 31
0.0
  0
LINE
  5
22E
100
AcDbEntity
  8
0
100
AcDbLine
 62
7
  6
CONTINUOUS
 10
-15.7142118834
 20
13.8025743519
 30
0.0
 11
-15.7142118834
 21
26.2799246211
 31
0.0
  0
LINE
  5
22F
100
AcDbEntity
  8
0
100
AcDbLine
 62
7
  6
CONTINUOUS
 10
6.6189527399
 20
24.7799246211
 30
0.0
 11
-4.5476295718
 21
24.7799246211
 31
0.0
  0
LINE
  5
230
100
AcDbEntity
  8
0
100
AcDbLine
 62
7
  6
CONTINUOUS
 10
-15.7142118834
 20
24.7799246211
 30
0.0
 11
-4.5476295718
 21
24.7799246211
 31
0.0
  0
INSERT
  5
231
100
AcDbEntity
  8
0
100
AcDbBlockReference
 62
7
  6
CONTINUOUS
  2
_FILLED
 10
6.6189527399
 20
24.7799246211
 30
0.0
 41
3.0
 42
3.0
 43
3.0
  0
INSERT
  5
232
100
AcDbEntity
  8
0
100
AcDbBlockReference
 62
7
  6
CONTINUOUS
  2
_FILLED
 10
-15.7142118834
 20
24.7799246211
 30
0.0
 41
3.0
 42
3.0
 43
3.0
 50
180.0
  0
ENDBLK
  5
233
100
AcDbEntity
  8
0
  6
BYBLOCK
 62
0
100
AcDbBlockEnd
  0
BLOCK
  5
234
100
AcDbEntity
  8
0
100
AcDbBlockBegin
 62
7
  6
CONTINUOUS
  2
*D2
 70
65
 10
0.0
 20
0.0
 30
0.0
  3
*D2
  1

  0
MTEXT
  5
235
100
AcDbEntity
  8
0
100
AcDbMText
 62
7
  6
CONTINUOUS
  7
STANDARD
 71
2
 72
1
 10
-45.2522037422
 20
28.5299246211
 30
0.0
 11
1.0
 21
0.0
 31
0.0
 73
2
 44
0.9
  1
{\ftxt;\W0.0001;\H0.0001;\~}{\ftxt;\W2.8571428571;\H3.0; }{\ftxt;\W0.0001;\H0.0001;\~}
 40
3.0
 41
12.8571428571
  0
LINE
  5
236
100
AcDbEntity
  8
0
100
AcDbLine
 62
7
  6
CONTINUOUS
 10
-57.4022037422
 20
13.8025743519
 30
0.0
 11
-57.4022037422
 21
26.2799246211
 31
0.0
  0
LINE
  5
237
100
AcDbEntity
  8
0
100
AcDbLine
 62
7
  6
CONTINUOUS
 10
-33.1022037422
 20
-5.4700753789
 30
0.0
 11
-33.1022037422
 21
26.2799246211
 31
0.0
  0
LINE
  5
238
100
AcDbEntity
  8
0
100
AcDbLine
 62
7
  6
CONTINUOUS
 10
-57.4022037422
 20
24.7799246211
 30
0.0
 11
-45.2522037422
 21
24.7799246211
 31
0.0
  0
LINE
  5
239
100
AcDbEntity
  8
0
100
AcDbLine
 62
7
  6
CONTINUOUS
 10
-33.1022037422
 20
24.7799246211
 30
0.0
 11
-45.2522037422
 21
24.7799246211
 31
0.0
  0
INSERT
  5
23A
100
AcDbEntity
  8
0
100
AcDbBlockReference
 62
7
  6
CONTINUOUS
  2
_FILLED
 10
-57.4022037422
 20
24.7799246211
 30
0.0
 41
3.0
 42
3.0
 43
3.0
 50
180.0
  0
INSERT
  5
23B
100
AcDbEntity
  8
0
100
AcDbBlockReference
 62
7
  6
CONTINUOUS
  2
_FILLED
 10
-33.1022037422
 20
24.7799246211
 30
0.0
 41
3.0
 42
3.0
 43
3.0
  0
ENDBLK
  5
23C
100
AcDbEntity
  8
0
  6
BYBLOCK
 62
0
100
AcDbBlockEnd
  0
BLOCK
  5
23D
100
AcDbEntity
  8
0
100
AcDbBlockBegin
 62
7
  6
CONTINUOUS
  2
*D3
 70
65
 10
0.0
 20
0.0
 30
0.0
  3
*D3
  1

  0
MTEXT
  5
23E
100
AcDbEntity
  8
0
100
AcDbMText
 62
7
  6
CONTINUOUS
  7
STANDARD
 71
2
 72
1
 10
-50.0022037422
 20
38.5299246211
 30
0.0
 11
1.0
 21
0.0
 31
0.0
 73
2
 44
0.9
  1
{\ftxt;\W0.0001;\H0.0001;\~}{\ftxt;\W2.7857142857;\H3.0; }{\ftxt;\W0.0001;\H0.0001;\~}
 40
3.0
 41
12.5357142857
  0
LINE
  5
23F
100
AcDbEntity
  8
0
100
AcDbLine
 62
7
  6
CONTINUOUS
 10
-66.9022037422
 20
-7.2200753789
 30
0.0
 11
-66.9022037422
 21
36.2799246211
 31
0.0
  0
LINE
  5
240
100
AcDbEntity
  8
0
100
AcDbLine
 62
7
  6
CONTINUOUS
 10
-33.1022037422
 20
-7.8700753789
 30
0.0
 11
-33.1022037422
 21
36.2799246211
 31
0.0
  0
LINE
  5
241
100
AcDbEntity
  8
0
100
AcDbLine
 62
7
  6
CONTINUOUS
 10
-66.9022037422
 20
34.7799246211
 30
0.0
 11
-50.0022037422
 21
34.7799246211
 31
0.0
  0
LINE
  5
242
100
AcDbEntity
  8
0
100
AcDbLine
 62
7
  6
CONTINUOUS
 10
-33.1022037422
 20
34.7799246211
 30
0.0
 11
-50.0022037422
 21
34.7799246211
 31
0.0
  0
INSERT
  5
243
100
AcDbEntity
  8
0
100
AcDbBlockReference
 62
7
  6
CONTINUOUS
  2
_FILLED
 10
-66.9022037422
 20
34.7799246211
 30
0.0
 41
3.0
 42
3.0
 43
3.0
 50
180.0
  0
INSERT
  5
244
100
AcDbEntity
  8
0
100
AcDbBlockReference
 62
7
  6
CONTINUOUS
  2
_FILLED
 10
-33.1022037422
 20
34.7799246211
 30
0.0
 41
3.0
 42
3.0
 43
3.0
  0
ENDBLK
  5
245
100
AcDbEntity
  8
0
  6
BYBLOCK
 62
0
100
AcDbBlockEnd
  0
ENDSEC
  0
SECTION
  2
ENTITIES
  0
DIMENSION
  5
246
100
AcDbEntity
  8
0
100
AcDbDimension
 62
7
  6
CONTINUOUS
  2
*D0
 10
18.4523704282
 20
16.7799246211
 30
0.0
 11
18.4523704282
 21
-8.1486476376
 31
0.0
 70
160
 71
2
 72
2
 41
0.9
 42
49.0
  1
{\ftxt;\W0.0001;\H0.0001;\~}{\ftxt;\W1.5714285714;\H3.0; }{\ftxt;\W0.0001;\H0.0001;\~}
  3
DIMSTYLE_1
100
AcDbAlignedDimension
 13
5.352374659
 23
-32.2200753789
 33
0.0
 14
5.352374659
 24
16.7799246211
 34
0.0
 50
90.0
100
AcDbRotatedDimension
  0
DIMENSION
  5
247
100
AcDbEntity
  8
0
100
AcDbDimension
 62
7
  6
CONTINUOUS
  2
*D1
 10
-15.7142118834
 20
24.7799246211
 30
0.0
 11
-4.976200868
 21
24.7799246211
 31
0.0
 70
160
 71
2
 72
2
 41
0.9
 42
22.3331646234
  1
{\ftxt;\W0.0001;\H0.0001;\~}{\ftxt;\W2.8571428571;\H3.0; }{\ftxt;\W0.0001;\H0.0001;\~}
  3
DIMSTYLE_2
100
AcDbAlignedDimension
 13
6.6189527399
 23
13.3025743519
 33
0.0
 14
-15.7142118834
 24
13.3025743519
 34
0.0
 50
180.0
100
AcDbRotatedDimension
  0
DIMENSION
  5
248
100
AcDbEntity
  8
0
100
AcDbDimension
 62
7
  6
CONTINUOUS
  2
*D2
 10
-33.1022037422
 20
24.7799246211
 30
0.0
 11
-45.6807761993
 21
24.7799246211
 31
0.0
 70
160
 71
2
 72
2
 41
0.9
 42
24.3
  1
{\ftxt;\W0.0001;\H0.0001;\~}{\ftxt;\W2.8571428571;\H3.0; }{\ftxt;\W0.0001;\H0.0001;\~}
  3
DIMSTYLE_1
100
AcDbAlignedDimension
 13
-57.4022037422
 23
13.3025743519
 33
0.0
 14
-33.1022037422
 24
-5.9700753789
 34
0.0
100
AcDbRotatedDimension
  0
DIMENSION
  5
249
100
AcDbEntity
  8
0
100
AcDbDimension
 62
7
  6
CONTINUOUS
  2
*D3
 10
-33.1022037422
 20
34.7799246211
 30
0.0
 11
-50.430775383
 21
34.7799246211
 31
0.0
 70
160
 71
2
 72
2
 41
0.9
 42
33.8
  1
{\ftxt;\W0.0001;\H0.0001;\~}{\ftxt;\W2.7857142857;\H3.0; }{\ftxt;\W0.0001;\H0.0001;\~}
  3
DIMSTYLE_1
100
AcDbAlignedDimension
 13
-66.9022037422
 23
-7.7200753789
 33
0.0
 14
-33.1022037422
 24
-8.3700753789
 34
0.0
100
AcDbRotatedDimension
  0
LWPOLYLINE
  5
24A
100
AcDbEntity
  8
0
100
AcDbPolyline
 62
7
  6
CONTINUOUS
 90
5
 70
0
 43
0.3500000006
 10
-1.547629602
 20
27.2442117462
 10
-1.1904867167
 20
27.4584962311
 10
-1.1904867167
 20
28.1013542175
 10
-1.547629602
 20
28.5299231873
 10
-2.4047724981
 20
28.5299231873
  0
LINE
  5
24B
100
AcDbEntity
  8
0
100
AcDbLine
 62
250
  6
CONTINUOUS
 10
-12.0607239197
 20
16.7668260423
 30
0.0
 11
-12.047625341
 21
16.7799246211
 31
0.0
  0
LINE
  5
24C
100
AcDbEntity
  8
0
100
AcDbLine
 62
7
  6
CONTINUOUS
 10
-14.4476338025
 20
-32.2200753789
 30
0.0
 11
-12.047625341
 21
-32.2200753789
 31
0.0
  0
LINE
  5
24D
100
AcDbEntity
  8
0
100
AcDbLine
 62
7
  6
CONTINUOUS
 10
2.9523661975
 20
-32.2200753789
 30
0.0
 11
5.352374659
 21
-32.2200753789
 31
0.0
  0
LINE
  5
24E
100
AcDbEntity
  8
0
100
AcDbLine
 62
7
  6
CONTINUOUS
 10
-14.4345352238
 20
-32.2069768002
 30
0.0
 11
-12.0607239197
 21
-32.2069768002
 31
0.0
  0
LINE
  5
24F
100
AcDbEntity
  8
0
100
AcDbLine
 62
7
  6
CONTINUOUS
 10
2.9654647762
 20
-32.2069768002
 30
0.0
 11
5.3392760803
 21
-32.2069768002
 31
0.0
  0
LINE
  5
250
100
AcDbEntity
  8
0
100
AcDbLine
 62
250
  6
CONTINUOUS
 10
2.715469007
 20
-31.956981031
 30
0.0
 11
5.5892718495
 21
-31.956981031
 31
0.0
  0
LINE
  5
251
100
AcDbEntity
  8
0
100
AcDbLine
 62
250
  6
CONTINUOUS
 10
-11.8107281505
 20
-31.956981031
 30
0.0
 11
-14.684530993
 21
-31.956981031
 31
0.0
  0
LINE
  5
252
100
AcDbEntity
  8
0
100
AcDbLine
 62
7
  6
CONTINUOUS
 10
-0.0976295718
 20
-31.7200753789
 30
0.0
 11
-1.0476295718
 21
-31.7200753789
 31
0.0
  0
LINE
  5
253
100
AcDbEntity
  8
0
100
AcDbLine
 62
7
  6
CONTINUOUS
 10
-8.0476295718
 20
-31.7200753789
 30
0.0
 11
-8.9976295718
 21
-31.7200753789
 31
0.0
  0
LINE
  5
254
100
AcDbEntity
  8
0
100
AcDbLine
 62
7
  6
CONTINUOUS
 10
-8.0476295718
 20
-31.7183232607
 30
0.0
 11
-5.7476295718
 21
-31.7183232607
 31
0.0
  0
LINE
  5
255
100
AcDbEntity
  8
0
100
AcDbLine
 62
7
  6
CONTINUOUS
 10
-3.3476295718
 20
-31.7183232607
 30
0.0
 11
-1.0476295718
 21
-31.7183232607
 31
0.0
  0
LINE
  5
256
100
AcDbEntity
  8
0
100
AcDbLine
 62
7
  6
CONTINUOUS
 10
-0.1063563165
 20
-31.7113486342
 30
0.0
 11
-1.0476295718
 21
-31.7113486342
 31
0.0
  0
LINE
  5
257
100
AcDbEntity
  8
0
100
AcDbLine
 62
7
  6
CONTINUOUS
 10
-8.0476295718
 20
-31.7113486342
 30
0.0
 11
-8.988902827
 21
-31.7113486342
 31
0.0
  0
LINE
  5
258
100
AcDbEntity
  8
0
100
AcDbLine
 62
250
  6
CONTINUOUS
 10
2.715469007
 20
-31.5644129462
 30
0.0
 11
5.5892718495
 21
-31.5644129462
 31
0.0
  0
LINE
  5
259
100
AcDbEntity
  8
0
100
AcDbLine
 62
250
  6
CONTINUOUS
 10
-11.8107281505
 20
-31.5644129462
 30
0.0
 11
-14.684530993
 21
-31.5644129462
 31
0.0
  0
LINE
  5
25A
100
AcDbEntity
  8
0
100
AcDbLine
 62
250
  6
CONTINUOUS
 10
-12.0607239197
 20
-32.2069768002
 30
0.0
 11
-12.047625341
 21
-32.2200753789
 31
0.0
  0
LINE
  5
25B
100
AcDbEntity
  8
0
100
AcDbLine
 62
250
  6
CONTINUOUS
 10
-11.8107281505
 20
16.5168302731
 30
0.0
 11
-11.7976295718
 21
16.5299288519
 31
0.0
  0
LINE
  5
25C
100
AcDbEntity
  8
RACCORDO
100
AcDbLine
 62
7
  6
CONTINUOUS
 10
-13.9976295718
 20
12.7688318938
 30
0.0
 11
-14.0138683423
 21
12.7525931232
 31
0.0
  0
LINE
  5
25D
100
AcDbEntity
  8
0
100
AcDbLine
 62
250
  6
CONTINUOUS
 10
-8.0476295718
 20
-31.5183266453
 30
0.0
 11
-5.5476295718
 21
-31.5183266453
 31
0.0
  0
LINE
  5
25E
100
AcDbEntity
  8
0
100
AcDbLine
 62
250
  6
CONTINUOUS
 10
-1.0476295718
 20
-31.5183266453
 30
0.0
 11
-3.5476295718
 21
-31.5183266453
 31
0.0
  0
LINE
  5
25F
100
AcDbEntity
  8
0
100
AcDbLine
 62
250
  6
CONTINUOUS
 10
5.3392760803
 20
-31.3479065953
 30
0.0
 11
2.9654647762
 21
-31.3479065953
 31
0.0
  0
LINE
  5
260
100
AcDbEntity
  8
0
100
AcDbLine
 62
250
  6
CONTINUOUS
 10
-12.0607239197
 20
-31.3479065953
 30
0.0
 11
-14.4345352238
 21
-31.3479065953
 31
0.0
  0
LINE
  5
261
100
AcDbEntity
  8
0
100
AcDbLine
 62
7
  6
CONTINUOUS
 10
-14.4403530536
 20
-30.8427251097
 30
0.0
 11
-12.0549060899
 21
-30.8427251097
 31
0.0
  0
LINE
  5
262
100
AcDbEntity
  8
0
100
AcDbLine
 62
7
  6
CONTINUOUS
 10
5.3450939101
 20
-30.8427251097
 30
0.0
 11
2.9596469464
 21
-30.8427251097
 31
0.0
  0
LINE
  5
263
100
AcDbEntity
  8
RACCORDO
100
AcDbLine
 62
250
  6
CONTINUOUS
 10
5.3450939101
 20
-30.2312566234
 30
0.0
 11
2.9596469464
 21
-30.2312566234
 31
0.0
  0
LINE
  5
264
100
AcDbEntity
  8
RACCORDO
100
AcDbLine
 62
250
  6
CONTINUOUS
 10
-12.0549060899
 20
-30.2312566234
 30
0.0
 11
-14.4403530536
 21
-30.2312566234
 31
0.0
  0
LINE
  5
265
100
AcDbEntity
  8
RACCORDO
100
AcDbLine
 62
7
  6
CONTINUOUS
 10
-15.1980722612
 20
-30.1200753789
 30
0.0
 11
-14.8975720599
 21
-30.1200753789
 31
0.0
  0
LINE
  5
266
100
AcDbEntity
  8
RACCORDO
100
AcDbLine
 62
7
  6
CONTINUOUS
 10
-11.5976870836
 20
-30.1200753789
 30
0.0
 11
-8.9976295718
 21
-30.1200753789
 31
0.0
  0
LINE
  5
267
100
AcDbEntity
  8
RACCORDO
100
AcDbLine
 62
7
  6
CONTINUOUS
 10
-0.0976295718
 20
-30.1200753789
 30
0.0
 11
2.5024279401
 21
-30.1200753789
 31
0.0
  0
LINE
  5
268
100
AcDbEntity
  8
0
100
AcDbLine
 62
7
  6
CONTINUOUS
 10
-3.5476295718
 20
-30.1200753789
 30
0.0
 11
-5.5476295718
 21
-30.1200753789
 31
0.0
  0
LINE
  5
269
100
AcDbEntity
  8
RACCORDO
100
AcDbLine
 62
7
  6
CONTINUOUS
 10
5.8023129164
 20
-30.1200753789
 30
0.0
 11
6.1028131177
 21
-30.1200753789
 31
0.0
  0
LINE
  5
26A
100
AcDbEntity
  8
0
100
AcDbLine
 62
7
  6
CONTINUOUS
 10
-8.0476295718
 20
-30.0938714893
 30
0.0
 11
-5.7476295718
 21
-30.0938714893
 31
0.0
  0
LINE
  5
26B
100
AcDbEntity
  8
0
100
AcDbLine
 62
7
  6
CONTINUOUS
 10
-3.3476295718
 20
-30.0938714893
 30
0.0
 11
-1.0476295718
 21
-30.0938714893
 31
0.0
  0
LINE
  5
26C
100
AcDbEntity
  8
0
100
AcDbLine
 62
7
  6
CONTINUOUS
 10
-0.1063563165
 20
-30.04146371
 30
0.0
 11
-1.0476295718
 21
-30.04146371
 31
0.0
  0
LINE
  5
26D
100
AcDbEntity
  8
0
100
AcDbLine
 62
7
  6
CONTINUOUS
 10
-8.0476295718
 20
-30.04146371
 30
0.0
 11
-8.988902827
 21
-30.04146371
 31
0.0
  0
LINE
  5
26E
100
AcDbEntity
  8
RACCORDO
100
AcDbLine
 62
250
  6
CONTINUOUS
 10
5.3450939101
 20
-30.0315307164
 30
0.0
 11
2.9596469464
 21
-30.0315307164
 31
0.0
  0
LINE
  5
26F
100
AcDbEntity
  8
RACCORDO
100
AcDbLine
 62
250
  6
CONTINUOUS
 10
-12.0549060899
 20
-30.0315307164
 30
0.0
 11
-14.4403530536
 21
-30.0315307164
 31
0.0
  0
LINE
  5
270
100
AcDbEntity
  8
0
100
AcDbLine
 62
250
  6
CONTINUOUS
 10
5.9887129507
 20
-29.7803033216
 30
0.0
 11
-15.0839720943
 21
-29.7803033216
 31
0.0
  0
LINE
  5
271
100
AcDbEntity
  8
0
100
AcDbLine
 62
250
  6
CONTINUOUS
 10
-11.8107281505
 20
-31.956981031
 30
0.0
 11
-11.7976295718
 21
-31.9700796097
 31
0.0
  0
LINE
  5
272
100
AcDbEntity
  8
0
100
AcDbLine
 62
250
  6
CONTINUOUS
 10
5.9805397624
 20
-28.9307928701
 30
0.0
 11
-15.075798906
 21
-28.9307928701
 31
0.0
  0
LINE
  5
273
100
AcDbEntity
  8
RACCORDO
100
AcDbLine
 62
250
  6
CONTINUOUS
 10
-14.0476295718
 20
8.2798675078
 30
0.0
 11
-14.0642844854
 21
8.2715406852
 31
0.0
  0
LINE
  5
274
100
AcDbEntity
  8
RACCORDO
100
AcDbLine
 62
250
  6
CONTINUOUS
 10
-13.9976295718
 20
8.2798675078
 30
0.0
 11
-13.983240455
 21
8.2870615183
 31
0.0
  0
LINE
  5
275
100
AcDbEntity
  8
RACCORDO
100
AcDbLine
 62
250
  6
CONTINUOUS
 10
-13.5476295689
 20
7.7799246211
 30
0.0
 11
-13.5653271259
 21
7.7710765164
 31
0.0
  0
LINE
  5
276
100
AcDbEntity
  8
RACCORDO
100
AcDbLine
 62
250
  6
CONTINUOUS
 10
-13.4976295689
 20
7.7799246211
 30
0.0
 11
-13.4826310904
 21
7.7874232892
 31
0.0
  0
LWPOLYLINE
  5
277
100
AcDbEntity
  8
RACCORDO
100
AcDbPolyline
 62
7
  6
CONTINUOUS
 90
16
 70
0
 10
-13.9811899066
 20
14.271802081
 10
-13.9830844169
 20
14.2654723866
 10
-13.9843296046
 20
14.2603716711
 10
-13.9851665302
 20
14.2562879457
 10
-13.9858247283
 20
14.2525449572
 10
-13.9863615358
 20
14.2490319441
 10
-13.9867910973
 20
14.2458495571
 10
-13.9871778842
 20
14.2426488915
 10
-13.9875380917
 20
14.2393429722
 10
-13.9878693681
 20
14.2359960139
 10
-13.9881868363
 20
14.2324897495
 10
-13.988494778
 20
14.228790866
 10
-13.9887931812
 20
14.2249116805
 10
-13.9890861923
 20
14.2208073705
 10
-13.9893749626
 20
14.2164650723
 10
-13.9899424949
 20
14.2070313268
  0
LINE
  5
278
100
AcDbEntity
  8
RACCORDO
100
AcDbLine
 62
250
  6
CONTINUOUS
 10
-14.2402027078
 20
14.3401525637
 30
0.0
 11
-14.205585176
 21
14.4440896143
 31
0.0
  0
LINE
  5
279
100
AcDbEntity
  8
RACCORDO
100
AcDbLine
 62
250
  6
CONTINUOUS
 10
-14.0402331688
 20
14.1404266568
 30
0.0
 11
-14.0057374159
 21
14.2439980735
 31
0.0
  0
LINE
  5
27A
100
AcDbEntity
  8
RACCORDO
100
AcDbLine
 62
7
  6
CONTINUOUS
 10
-13.9811610836
 20
14.2718892581
 30
0.0
 11
-13.9466348161
 21
14.3755522931
 31
0.0
  0
LINE
  5
27B
100
AcDbEntity
  8
RACCORDO
100
AcDbLine
 62
250
  6
CONTINUOUS
 10
-13.8862850474
 20
14.3401525637
 30
0.0
 11
-13.8516675156
 21
14.4440896143
 31
0.0
  0
LINE
  5
27C
100
AcDbEntity
  8
0
100
AcDbLine
 62
7
  6
CONTINUOUS
 10
-0.1063563165
 20
16.2711978763
 30
0.0
 11
-0.0976295718
 21
16.2799246211
 31
0.0
  0
LINE
  5
27D
100
AcDbEntity
  8
0
100
AcDbLine
 62
7
  6
CONTINUOUS
 10
-0.0976295718
 20
-31.7200753789
 30
0.0
 11
-0.1063563165
 21
-31.7113486342
 31
0.0
  0
LINE
  5
27E
100
AcDbEntity
  8
0
100
AcDbLine
 62
7
  6
CONTINUOUS
 10
-15.7142118834
 20
-28.7427251097
 30
0.0
 11
-15.6976295718
 21
-29.2912078655
 31
0.0
  0
LINE
  5
27F
100
AcDbEntity
  8
0
100
AcDbLine
 62
7
  6
CONTINUOUS
 10
-15.6976295718
 20
13.8510571076
 30
0.0
 11
-15.6980659151
 21
13.8799246211
 31
0.0
  0
LINE
  5
280
100
AcDbEntity
  8
0
100
AcDbLine
 62
7
  6
CONTINUOUS
 10
-15.7142118834
 20
-28.7427251097
 30
0.0
 11
-15.7142118834
 21
13.3025743519
 31
0.0
  0
LINE
  5
281
100
AcDbEntity
  8
0
100
AcDbLine
 62
7
  6
CONTINUOUS
 10
-15.6980659151
 20
14.1799415441
 30
0.0
 11
-15.6980659151
 21
13.8799246211
 31
0.0
  0
LINE
  5
282
100
AcDbEntity
  8
0
100
AcDbLine
 62
7
  6
CONTINUOUS
 10
-15.6980659151
 20
-29.620092302
 30
0.0
 11
-15.6980659151
 21
-29.3200753789
 31
0.0
  0
LINE
  5
283
100
AcDbEntity
  8
0
100
AcDbLine
 62
7
  6
CONTINUOUS
 10
-15.6980659151
 20
-29.3200753789
 30
0.0
 11
-15.6976295718
 21
-29.2912078655
 31
0.0
  0
LINE
  5
284
100
AcDbEntity
  8
0
100
AcDbLine
 62
7
  6
CONTINUOUS
 10
-15.7142118834
 20
13.3025743519
 30
0.0
 11
-15.6976295718
 21
13.8510571076
 31
0.0
  0
LINE
  5
285
100
AcDbEntity
  8
DRAFT
100
AcDbLine
 62
7
  6
CONTINUOUS
 10
-14.0476295718
 20
8.6799246211
 30
0.0
 11
-14.0296982685
 21
8.8982805073
 31
0.0
  0
LINE
  5
286
100
AcDbEntity
  8
SMUSSO
100
AcDbLine
 62
7
  6
CONTINUOUS
 10
-14.0057374159
 20
13.9991251925
 30
0.0
 11
-13.9987564534
 21
13.5921442299
 31
0.0
  0
LINE
  5
287
100
AcDbEntity
  8
0
100
AcDbLine
 62
250
  6
CONTINUOUS
 10
-14.684530993
 20
-31.5644129462
 30
0.0
 11
-14.6903488229
 21
-30.987062677
 31
0.0
  0
LINE
  5
288
100
AcDbEntity
  8
0
100
AcDbLine
 62
250
  6
CONTINUOUS
 10
-14.4345352238
 20
-31.3479065953
 30
0.0
 11
-14.4396258249
 21
-30.8427251097
 31
0.0
  0
LINE
  5
289
100
AcDbEntity
  8
0
100
AcDbLine
 62
250
  6
CONTINUOUS
 10
-15.0586140214
 20
-17.2200753789
 30
0.0
 11
-15.0586140214
 21
1.7799246211
 31
0.0
  0
LINE
  5
28A
100
AcDbEntity
  8
RACCORDO
100
AcDbLine
 62
7
  6
CONTINUOUS
 10
-14.6976295718
 20
15.6904097693
 30
0.0
 11
-14.6976295718
 21
14.8801381114
 31
0.0
  0
LINE
  5
28B
100
AcDbEntity
  8
0
100
AcDbLine
 62
7
  6
CONTINUOUS
 10
-14.6976295718
 20
-31.9700796097
 30
0.0
 11
-14.6976295718
 21
-31.1305605271
 31
0.0
  0
LINE
  5
28C
100
AcDbEntity
  8
RACCORDO
100
AcDbLine
 62
7
  6
CONTINUOUS
 10
-14.6976295718
 20
-30.3202888693
 30
0.0
 11
-14.6976295718
 21
-31.1305605271
 31
0.0
  0
LINE
  5
28D
100
AcDbEntity
  8
0
100
AcDbLine
 62
7
  6
CONTINUOUS
 10
-14.6976295718
 20
15.6904097693
 30
0.0
 11
-14.6976295718
 21
16.5299288519
 31
0.0
  0
LINE
  5
28E
100
AcDbEntity
  8
RACCORDO
100
AcDbLine
 62
7
  6
CONTINUOUS
 10
-14.6903488229
 20
15.5469119192
 30
0.0
 11
-14.6903488229
 21
14.8145521637
 31
0.0
  0
LINE
  5
28F
100
AcDbEntity
  8
RACCORDO
100
AcDbLine
 62
7
  6
CONTINUOUS
 10
-14.6903488229
 20
-30.2547029216
 30
0.0
 11
-14.6903488229
 21
-30.987062677
 31
0.0
  0
LINE
  5
290
100
AcDbEntity
  8
0
100
AcDbLine
 62
7
  6
CONTINUOUS
 10
-14.684530993
 20
16.5168302731
 30
0.0
 11
-14.684530993
 21
16.1242621884
 31
0.0
  0
LINE
  5
291
100
AcDbEntity
  8
0
100
AcDbLine
 62
7
  6
CONTINUOUS
 10
-14.684530993
 20
-31.5644129462
 30
0.0
 11
-14.684530993
 21
-31.956981031
 31
0.0
  0
LINE
  5
292
100
AcDbEntity
  8
RACCORDO
100
AcDbLine
 62
250
  6
CONTINUOUS
 10
-14.4403530536
 20
-30.0315307164
 30
0.0
 11
-14.4403530536
 21
-30.8427251097
 31
0.0
  0
LINE
  5
293
100
AcDbEntity
  8
RACCORDO
100
AcDbLine
 62
250
  6
CONTINUOUS
 10
-14.4403530536
 20
14.5913799585
 30
0.0
 11
-14.4403530536
 21
15.4025743519
 31
0.0
  0
LINE
  5
294
100
AcDbEntity
  8
0
100
AcDbLine
 62
250
  6
CONTINUOUS
 10
-14.4345352238
 20
-31.3479065953
 30
0.0
 11
-14.4345352238
 21
-32.2069768002
 31
0.0
  0
LINE
  5
295
100
AcDbEntity
  8
0
100
AcDbLine
 62
250
  6
CONTINUOUS
 10
-14.4345352238
 20
15.9077558374
 30
0.0
 11
-14.4345352238
 21
16.7668260423
 31
0.0
  0
LINE
  5
296
100
AcDbEntity
  8
RACCORDO
100
AcDbLine
 62
7
  6
CONTINUOUS
 10
-14.0476295718
 20
8.2798675078
 30
0.0
 11
-14.0476295718
 21
8.6799246211
 31
0.0
  0
LINE
  5
297
100
AcDbEntity
  8
SMUSSO
100
AcDbLine
 62
7
  6
CONTINUOUS
 10
-14.0057374159
 20
13.9991251925
 30
0.0
 11
-14.0057374159
 21
14.2439980735
 31
0.0
  0
LINE
  5
298
100
AcDbEntity
  8
RACCORDO
100
AcDbLine
 62
7
  6
CONTINUOUS
 10
-13.9976295718
 20
8.1220242236
 30
0.0
 11
-13.9976295718
 21
13.9140168223
 31
0.0
  0
LINE
  5
299
100
AcDbEntity
  8
RACCORDO
100
AcDbLine
 62
250
  6
CONTINUOUS
 10
-13.6976295718
 20
7.8218495175
 30
0.0
 11
-13.6976295718
 21
7.8031399259
 31
0.0
  0
LINE
  5
29A
100
AcDbEntity
  8
RACCORDO
100
AcDbLine
 62
250
  6
CONTINUOUS
 10
-13.5653271259
 20
7.5877905004
 30
0.0
 11
-13.565327126
 21
7.7710765164
 31
0.0
  0
LINE
  5
29B
100
AcDbEntity
  8
RACCORDO
100
AcDbLine
 62
7
  6
CONTINUOUS
 10
-14.0296982685
 20
8.8982805073
 30
0.0
 11
-14.0223785046
 21
12.3136039474
 31
0.0
  0
LINE
  5
29C
100
AcDbEntity
  8
0
100
AcDbLine
 62
250
  6
CONTINUOUS
 10
-14.6903488229
 20
15.5469119192
 30
0.0
 11
-14.684530993
 21
16.1242621884
 31
0.0
  0
LINE
  5
29D
100
AcDbEntity
  8
0
100
AcDbLine
 62
250
  6
CONTINUOUS
 10
-14.4396258249
 20
15.4025743519
 30
0.0
 11
-14.4345352238
 21
15.9077558374
 31
0.0
  0
LINE
  5
29E
100
AcDbEntity
  8
RACCORDO
100
AcDbLine
 62
7
  6
CONTINUOUS
 10
-13.9961321794
 20
14.0030556359
 30
0.0
 11
-13.9976163702
 21
13.9125021463
 31
0.0
  0
LINE
  5
29F
100
AcDbEntity
  8
RACCORDO
100
AcDbLine
 62
7
  6
CONTINUOUS
 10
-13.9948560584
 20
14.0640838134
 30
0.0
 11
-13.9961321794
 21
14.0030556359
 31
0.0
  0
LINE
  5
2A0
100
AcDbEntity
  8
RACCORDO
100
AcDbLine
 62
7
  6
CONTINUOUS
 10
-13.9937945361
 20
14.1059098276
 30
0.0
 11
-13.9948560584
 21
14.0640838134
 31
0.0
  0
LINE
  5
2A1
100
AcDbEntity
  8
RACCORDO
100
AcDbLine
 62
7
  6
CONTINUOUS
 10
-13.9927098271
 20
14.1417078993
 30
0.0
 11
-13.9937945361
 21
14.1059098276
 31
0.0
  0
LINE
  5
2A2
100
AcDbEntity
  8
RACCORDO
100
AcDbLine
 62
7
  6
CONTINUOUS
 10
-13.991886696
 20
14.1647728932
 30
0.0
 11
-13.9927098271
 21
14.1417078993
 31
0.0
  0
LINE
  5
2A3
100
AcDbEntity
  8
RACCORDO
100
AcDbLine
 62
7
  6
CONTINUOUS
 10
-13.9910579683
 20
14.1847698394
 30
0.0
 11
-13.991886696
 21
14.1647728932
 31
0.0
  0
LINE
  5
2A4
100
AcDbEntity
  8
RACCORDO
100
AcDbLine
 62
7
  6
CONTINUOUS
 10
-13.9905022654
 20
14.1964986398
 30
0.0
 11
-13.9910579683
 21
14.1847698394
 31
0.0
  0
LINE
  5
2A5
100
AcDbEntity
  8
RACCORDO
100
AcDbLine
 62
7
  6
CONTINUOUS
 10
-13.9899424949
 20
14.2070313268
 30
0.0
 11
-13.9905022654
 21
14.1964986398
 31
0.0
  0
LINE
  5
2A6
100
AcDbEntity
  8
RACCORDO
100
AcDbLine
 62
250
  6
CONTINUOUS
 10
-11.6049137053
 20
14.6148262567
 30
0.0
 11
-11.5976870834
 21
14.6799246211
 31
0.0
  0
LINE
  5
2A7
100
AcDbEntity
  8
DRAFT
100
AcDbLine
 62
7
  6
CONTINUOUS
 10
-7.5476295718
 20
14.5017381715
 30
0.0
 11
-7.5668301432
 21
14.4440896143
 31
0.0
  0
LWPOLYLINE
  5
2A8
100
AcDbEntity
  8
0
100
AcDbPolyline
 62
7
  6
CONTINUOUS
 90
3
 70
0
 43
0.3500000006
 10
-3.4047725201
 20
25.8156379395
 10
-3.4762008705
 20
25.6013534546
 10
-3.6190581379
 20
25.3156377869
  0
LINE
  5
2A9
100
AcDbEntity
  8
0
100
AcDbLine
 62
250
  6
CONTINUOUS
 10
5.3392760803
 20
16.7668260423
 30
0.0
 11
5.352374659
 21
16.7799246211
 31
0.0
  0
LINE
  5
2AA
100
AcDbEntity
  8
0
100
AcDbLine
 62
250
  6
CONTINUOUS
 10
5.5892718495
 20
16.5168302731
 30
0.0
 11
5.6023704282
 21
16.5299288519
 31
0.0
  0
LINE
  5
2AB
100
AcDbEntity
  8
0
100
AcDbLine
 62
250
  6
CONTINUOUS
 10
5.3392760803
 20
-32.2069768002
 30
0.0
 11
5.352374659
 21
-32.2200753789
 31
0.0
  0
LINE
  5
2AC
100
AcDbEntity
  8
0
100
AcDbLine
 62
250
  6
CONTINUOUS
 10
5.5892718495
 20
-31.956981031
 30
0.0
 11
5.6023704282
 21
-31.9700796097
 31
0.0
  0
LINE
  5
2AD
100
AcDbEntity
  8
RACCORDO
100
AcDbLine
 62
250
  6
CONTINUOUS
 10
-11.5976870834
 20
-30.1200753789
 30
0.0
 11
-11.6049137053
 21
-30.0549770146
 31
0.0
  0
LINE
  5
2AE
100
AcDbEntity
  8
0
100
AcDbLine
 62
250
  6
CONTINUOUS
 10
-12.0607239197
 20
15.9077558374
 30
0.0
 11
-12.0556333186
 21
15.4025743519
 31
0.0
  0
LINE
  5
2AF
100
AcDbEntity
  8
RACCORDO
100
AcDbLine
 62
250
  6
CONTINUOUS
 10
-13.4826310904
 20
7.7874232892
 30
0.0
 11
-13.4826310904
 21
7.8961152488
 31
0.0
  0
LINE
  5
2B0
100
AcDbEntity
  8
0
100
AcDbLine
 62
250
  6
CONTINUOUS
 10
-12.0607239197
 20
-31.3479065953
 30
0.0
 11
-12.0607239197
 21
-32.2069768002
 31
0.0
  0
LINE
  5
2B1
100
AcDbEntity
  8
0
100
AcDbLine
 62
250
  6
CONTINUOUS
 10
-12.0607239197
 20
15.9077558374
 30
0.0
 11
-12.0607239197
 21
16.7668260423
 31
0.0
  0
LINE
  5
2B2
100
AcDbEntity
  8
RACCORDO
100
AcDbLine
 62
250
  6
CONTINUOUS
 10
-12.0549060899
 20
-30.0315307164
 30
0.0
 11
-12.0549060899
 21
-30.8427251097
 31
0.0
  0
LINE
  5
2B3
100
AcDbEntity
  8
RACCORDO
100
AcDbLine
 62
250
  6
CONTINUOUS
 10
-12.0549060899
 20
14.5913799585
 30
0.0
 11
-12.0549060899
 21
15.4025743519
 31
0.0
  0
LINE
  5
2B4
100
AcDbEntity
  8
0
100
AcDbLine
 62
7
  6
CONTINUOUS
 10
-11.8107281505
 20
-31.956981031
 30
0.0
 11
-11.8107281505
 21
-31.5644129462
 31
0.0
  0
LINE
  5
2B5
100
AcDbEntity
  8
0
100
AcDbLine
 62
7
  6
CONTINUOUS
 10
-11.8107281505
 20
16.1242621884
 30
0.0
 11
-11.8107281505
 21
16.5168302731
 31
0.0
  0
LINE
  5
2B6
100
AcDbEntity
  8
RACCORDO
100
AcDbLine
 62
7
  6
CONTINUOUS
 10
-11.8049103207
 20
-30.987062677
 30
0.0
 11
-11.8049103207
 21
-30.2547029216
 31
0.0
  0
LINE
  5
2B7
100
AcDbEntity
  8
RACCORDO
100
AcDbLine
 62
7
  6
CONTINUOUS
 10
-11.8049103207
 20
14.8145521637
 30
0.0
 11
-11.8049103207
 21
15.5469119192
 31
0.0
  0
LINE
  5
2B8
100
AcDbEntity
  8
0
100
AcDbLine
 62
7
  6
CONTINUOUS
 10
-11.7976295718
 20
16.5299288519
 30
0.0
 11
-11.7976295718
 21
15.6904097693
 31
0.0
  0
LINE
  5
2B9
100
AcDbEntity
  8
RACCORDO
100
AcDbLine
 62
7
  6
CONTINUOUS
 10
-11.7976295718
 20
-31.1305605271
 30
0.0
 11
-11.7976295718
 21
-30.3202888693
 31
0.0
  0
LINE
  5
2BA
100
AcDbEntity
  8
0
100
AcDbLine
 62
7
  6
CONTINUOUS
 10
-11.7976295718
 20
-31.1305605271
 30
0.0
 11
-11.7976295718
 21
-31.9700796097
 31
0.0
  0
LINE
  5
2BB
100
AcDbEntity
  8
RACCORDO
100
AcDbLine
 62
7
  6
CONTINUOUS
 10
-11.7976295718
 20
14.8801381114
 30
0.0
 11
-11.7976295718
 21
15.6904097693
 31
0.0
  0
LINE
  5
2BC
100
AcDbEntity
  8
0
100
AcDbLine
 62
250
  6
CONTINUOUS
 10
-12.0556333186
 20
-30.8427251097
 30
0.0
 11
-12.0607239197
 21
-31.3479065953
 31
0.0
  0
LINE
  5
2BD
100
AcDbEntity
  8
RACCORDO
100
AcDbLine
 62
250
  6
CONTINUOUS
 10
-14.8903454382
 20
-30.0549770146
 30
0.0
 11
-14.8975720601
 21
-30.1200753789
 31
0.0
  0
LINE
  5
2BE
100
AcDbEntity
  8
SMUSSO
100
AcDbLine
 62
7
  6
CONTINUOUS
 10
4.9034973098
 20
13.5921442299
 30
0.0
 11
4.9023704282
 21
13.5910173483
 31
0.0
  0
LINE
  5
2BF
100
AcDbEntity
  8
0
100
AcDbLine
 62
250
  6
CONTINUOUS
 10
5.9633548779
 20
-17.2200753789
 30
0.0
 11
-15.0586140214
 21
-17.2200753789
 31
0.0
  0
LINE
  5
2C0
100
AcDbEntity
  8
RACCORDO
100
AcDbLine
 62
250
  6
CONTINUOUS
 10
-14.8975720601
 20
14.6799246211
 30
0.0
 11
-14.8903454382
 21
14.6148262567
 31
0.0
  0
LINE
  5
2C1
100
AcDbEntity
  8
0
100
AcDbLine
 62
250
  6
CONTINUOUS
 10
-11.8107281505
 20
16.1242621884
 30
0.0
 11
-11.8049103207
 21
15.5469119192
 31
0.0
  0
LINE
  5
2C2
100
AcDbEntity
  8
RACCORDO
100
AcDbLine
 62
250
  6
CONTINUOUS
 10
-11.4976295718
 20
-12.7250803839
 30
0.0
 11
-11.4976295718
 21
-3.816171475
 31
0.0
  0
LINE
  5
2C3
100
AcDbEntity
  8
RACCORDO
100
AcDbLine
 62
7
  6
CONTINUOUS
 10
-10.9976295718
 20
-12.2200753789
 30
0.0
 11
-10.9976295718
 21
-4.3200753789
 31
0.0
  0
LINE
  5
2C4
100
AcDbEntity
  8
0
100
AcDbLine
 62
7
  6
CONTINUOUS
 10
-10.5476295718
 20
-4.7200753789
 30
0.0
 11
-10.5476295718
 21
-11.7200753789
 31
0.0
  0
LINE
  5
2C5
100
AcDbEntity
  8
0
100
AcDbLine
 62
250
  6
CONTINUOUS
 10
-11.8049103207
 20
-30.987062677
 30
0.0
 11
-11.8107281505
 21
-31.5644129462
 31
0.0
  0
LINE
  5
2C6
100
AcDbEntity
  8
RACCORDO
100
AcDbLine
 62
250
  6
CONTINUOUS
 10
-1.5476295718
 20
-15.6780333369
 30
0.0
 11
-7.5476295718
 21
-15.6780333369
 31
0.0
  0
LINE
  5
2C7
100
AcDbEntity
  8
RACCORDO
100
AcDbLine
 62
7
  6
CONTINUOUS
 10
-2.0476295718
 20
-15.1700753789
 30
0.0
 11
-7.0476295718
 21
-15.1700753789
 31
0.0
  0
LINE
  5
2C8
100
AcDbEntity
  8
0
100
AcDbLine
 62
7
  6
CONTINUOUS
 10
-8.9976295718
 20
-30.1200753789
 30
0.0
 11
-8.9976295718
 21
-31.7200753789
 31
0.0
  0
LINE
  5
2C9
100
AcDbEntity
  8
0
100
AcDbLine
 62
7
  6
CONTINUOUS
 10
-8.9976295718
 20
14.6799246211
 30
0.0
 11
-8.9976295718
 21
16.2799246211
 31
0.0
  0
LINE
  5
2CA
100
AcDbEntity
  8
0
100
AcDbLine
 62
7
  6
CONTINUOUS
 10
-8.988902827
 20
16.2711978763
 30
0.0
 11
-8.988902827
 21
14.6013129521
 31
0.0
  0
LINE
  5
2CB
100
AcDbEntity
  8
0
100
AcDbLine
 62
7
  6
CONTINUOUS
 10
-8.988902827
 20
-30.04146371
 30
0.0
 11
-8.988902827
 21
-31.7113486342
 31
0.0
  0
LINE
  5
2CC
100
AcDbEntity
  8
RACCORDO
100
AcDbLine
 62
250
  6
CONTINUOUS
 10
-8.6976295718
 20
-14.3266819855
 30
0.0
 11
-8.6976295718
 21
-12.7250803839
 31
0.0
  0
LINE
  5
2CD
100
AcDbEntity
  8
0
100
AcDbLine
 62
7
  6
CONTINUOUS
 10
-8.2476295718
 20
-7.7200753789
 30
0.0
 11
-8.2476295718
 21
-4.7200753789
 31
0.0
  0
LINE
  5
2CE
100
AcDbEntity
  8
RACCORDO
100
AcDbLine
 62
7
  6
CONTINUOUS
 10
-8.1976295718
 20
-13.8201157726
 30
0.0
 11
-8.1976295718
 21
-12.2200753789
 31
0.0
  0
LINE
  5
2CF
100
AcDbEntity
  8
0
100
AcDbLine
 62
7
  6
CONTINUOUS
 10
-8.0476295718
 20
-31.7113486342
 30
0.0
 11
-8.0476295718
 21
-30.04146371
 31
0.0
  0
LINE
  5
2D0
100
AcDbEntity
  8
0
100
AcDbLine
 62
7
  6
CONTINUOUS
 10
-8.0476295718
 20
14.6013129521
 30
0.0
 11
-8.0476295718
 21
16.2711978763
 31
0.0
  0
LINE
  5
2D1
100
AcDbEntity
  8
0
100
AcDbLine
 62
250
  6
CONTINUOUS
 10
-15.6967572172
 20
-29.619847724
 30
0.0
 11
-15.5838962195
 21
-29.280989388
 31
0.0
  0
LINE
  5
2D2
100
AcDbEntity
  8
SMUSSO
100
AcDbLine
 62
7
  6
CONTINUOUS
 10
-2.4976295718
 20
-14.7200753789
 30
0.0
 11
-6.5976295718
 21
-14.7200753789
 31
0.0
  0
LINE
  5
2D3
100
AcDbEntity
  8
RACCORDO
100
AcDbLine
 62
250
  6
CONTINUOUS
 10
-0.3976295718
 20
-14.3266819855
 30
0.0
 11
-1.5476295718
 21
-14.3266819855
 31
0.0
  0
LINE
  5
2D4
100
AcDbEntity
  8
RACCORDO
100
AcDbLine
 62
250
  6
CONTINUOUS
 10
-7.5476295718
 20
-14.3266819855
 30
0.0
 11
-8.6976295718
 21
-14.3266819855
 31
0.0
  0
LINE
  5
2D5
100
AcDbEntity
  8
RACCORDO
100
AcDbLine
 62
7
  6
CONTINUOUS
 10
-0.8976295718
 20
-13.8200753789
 30
0.0
 11
-2.0476295718
 21
-13.8200753789
 31
0.0
  0
LINE
  5
2D6
100
AcDbEntity
  8
RACCORDO
100
AcDbLine
 62
7
  6
CONTINUOUS
 10
-7.0476295718
 20
-13.8200753789
 30
0.0
 11
-8.1976295718
 21
-13.8200753789
 31
0.0
  0
LINE
  5
2D7
100
AcDbEntity
  8
0
100
AcDbLine
 62
7
  6
CONTINUOUS
 10
-7.8976295718
 20
-13.3200753789
 30
0.0
 11
-6.5976295718
 21
-13.3200753789
 31
0.0
  0
LINE
  5
2D8
100
AcDbEntity
  8
0
100
AcDbLine
 62
7
  6
CONTINUOUS
 10
-2.4976295718
 20
-13.3200753789
 30
0.0
 11
-1.1976295718
 21
-13.3200753789
 31
0.0
  0
LINE
  5
2D9
100
AcDbEntity
  8
0
100
AcDbLine
 62
250
  6
CONTINUOUS
 10
-15.5838959418
 20
13.8408377963
 30
0.0
 11
-15.6967572172
 21
14.1796969662
 31
0.0
  0
LINE
  5
2DA
100
AcDbEntity
  8
0
100
AcDbLine
 62
7
  6
CONTINUOUS
 10
-7.8976295718
 20
-13.3200753789
 30
0.0
 11
-7.8976295718
 21
-11.0200753789
 31
0.0
  0
LINE
  5
2DB
100
AcDbEntity
  8
0
100
AcDbLine
 62
7
  6
CONTINUOUS
 10
-7.8476295718
 20
-7.7200753789
 30
0.0
 11
-7.8476295718
 21
-4.7200753789
 31
0.0
  0
LINE
  5
2DC
100
AcDbEntity
  8
RACCORDO
100
AcDbLine
 62
250
  6
CONTINUOUS
 10
-7.5476295718
 20
-15.6780333369
 30
0.0
 11
-7.5476295718
 21
-14.3266819855
 31
0.0
  0
LINE
  5
2DD
100
AcDbEntity
  8
DRAFT
100
AcDbLine
 62
7
  6
CONTINUOUS
 10
-7.5476295718
 20
14.4440896143
 30
0.0
 11
-7.5476295718
 21
14.5017381715
 31
0.0
  0
LINE
  5
2DE
100
AcDbEntity
  8
0
100
AcDbLine
 62
7
  6
CONTINUOUS
 10
-7.3976295718
 20
-12.0700753789
 30
0.0
 11
-7.3976295718
 21
-11.0200753789
 31
0.0
  0
LINE
  5
2DF
100
AcDbEntity
  8
0
100
AcDbLine
 62
7
  6
CONTINUOUS
 10
-7.2476295718
 20
-7.7200753789
 30
0.0
 11
-7.2476295718
 21
-4.7200753789
 31
0.0
  0
LINE
  5
2E0
100
AcDbEntity
  8
RACCORDO
100
AcDbLine
 62
7
  6
CONTINUOUS
 10
-7.0476295718
 20
-15.1701347757
 30
0.0
 11
-7.0476295718
 21
-13.8201157701
 31
0.0
  0
LINE
  5
2E1
100
AcDbEntity
  8
0
100
AcDbLine
 62
7
  6
CONTINUOUS
 10
-6.8476295718
 20
-7.7200753789
 30
0.0
 11
-6.8476295718
 21
-4.7200753789
 31
0.0
  0
LINE
  5
2E2
100
AcDbEntity
  8
SMUSSO
100
AcDbLine
 62
7
  6
CONTINUOUS
 10
-6.5976295718
 20
-15.1700753789
 30
0.0
 11
-6.5976295718
 21
-13.3200753789
 31
0.0
  0
LINE
  5
2E3
100
AcDbEntity
  8
0
100
AcDbLine
 62
7
  6
CONTINUOUS
 10
-6.2476295718
 20
-7.7200753789
 30
0.0
 11
-6.2476295718
 21
-4.7200753789
 31
0.0
  0
LINE
  5
2E4
100
AcDbEntity
  8
0
100
AcDbLine
 62
7
  6
CONTINUOUS
 10
-8.9976295718
 20
-30.1200753789
 30
0.0
 11
-8.988902827
 21
-30.04146371
 31
0.0
  0
LINE
  5
2E5
100
AcDbEntity
  8
0
100
AcDbLine
 62
250
  6
CONTINUOUS
 10
-15.1971374182
 20
-30.1200753789
 30
0.0
 11
-15.0839720943
 21
-29.7803033216
 31
0.0
  0
LINE
  5
2E6
100
AcDbEntity
  8
RACCORDO
100
AcDbLine
 62
250
  6
CONTINUOUS
 10
2.4023704282
 20
-12.7250803839
 30
0.0
 11
-0.3976295718
 21
-12.7250803839
 31
0.0
  0
LINE
  5
2E7
100
AcDbEntity
  8
RACCORDO
100
AcDbLine
 62
250
  6
CONTINUOUS
 10
-8.6976295718
 20
-12.7250803839
 30
0.0
 11
-11.4976295718
 21
-12.7250803839
 31
0.0
  0
LINE
  5
2E8
100
AcDbEntity
  8
RACCORDO
100
AcDbLine
 62
7
  6
CONTINUOUS
 10
1.9023704282
 20
-12.2200753789
 30
0.0
 11
-0.8976295718
 21
-12.2200753789
 31
0.0
  0
LINE
  5
2E9
100
AcDbEntity
  8
RACCORDO
100
AcDbLine
 62
7
  6
CONTINUOUS
 10
-8.1976295718
 20
-12.2200753789
 30
0.0
 11
-10.9976295718
 21
-12.2200753789
 31
0.0
  0
LINE
  5
2EA
100
AcDbEntity
  8
0
100
AcDbLine
 62
7
  6
CONTINUOUS
 10
-7.8976295718
 20
-12.0700753789
 30
0.0
 11
-7.3976295718
 21
-12.0700753789
 31
0.0
  0
LINE
  5
2EB
100
AcDbEntity
  8
0
100
AcDbLine
 62
7
  6
CONTINUOUS
 10
-1.6976295718
 20
-12.0700753789
 30
0.0
 11
-1.1976295718
 21
-12.0700753789
 31
0.0
  0
LINE
  5
2EC
100
AcDbEntity
  8
0
100
AcDbLine
 62
7
  6
CONTINUOUS
 10
-10.5476295718
 20
-11.7200753789
 30
0.0
 11
-7.8976295718
 21
-11.7200753789
 31
0.0
  0
LINE
  5
2ED
100
AcDbEntity
  8
0
100
AcDbLine
 62
7
  6
CONTINUOUS
 10
-1.1976295718
 20
-11.7200753789
 30
0.0
 11
1.4523704282
 21
-11.7200753789
 31
0.0
  0
LINE
  5
2EE
100
AcDbEntity
  8
0
100
AcDbLine
 62
250
  6
CONTINUOUS
 10
-15.0839720943
 20
14.3401525637
 30
0.0
 11
-15.1971374182
 21
14.6799246211
 31
0.0
  0
LINE
  5
2EF
100
AcDbEntity
  8
0
100
AcDbLine
 62
7
  6
CONTINUOUS
 10
-8.988902827
 20
14.6013129521
 30
0.0
 11
-8.9976295718
 21
14.6799246211
 31
0.0
  0
LINE
  5
2F0
100
AcDbEntity
  8
0
100
AcDbLine
 62
7
  6
CONTINUOUS
 10
-5.8476295718
 20
-7.7200753789
 30
0.0
 11
-5.8476295718
 21
-4.7200753789
 31
0.0
  0
LINE
  5
2F1
100
AcDbEntity
  8
0
100
AcDbLine
 62
250
  6
CONTINUOUS
 10
-5.7476295718
 20
-30.0938714893
 30
0.0
 11
-5.7476295718
 21
-31.7183232607
 31
0.0
  0
LINE
  5
2F2
100
AcDbEntity
  8
0
100
AcDbLine
 62
250
  6
CONTINUOUS
 10
-5.7476295718
 20
14.6537207314
 30
0.0
 11
-5.7476295718
 21
16.2781725028
 31
0.0
  0
LINE
  5
2F3
100
AcDbEntity
  8
0
100
AcDbLine
 62
7
  6
CONTINUOUS
 10
-5.5476295718
 20
-31.5183266453
 30
0.0
 11
-5.5476295718
 21
-30.1043530451
 31
0.0
  0
LINE
  5
2F4
100
AcDbEntity
  8
0
100
AcDbLine
 62
7
  6
CONTINUOUS
 10
-5.5476295718
 20
14.6642022873
 30
0.0
 11
-5.5476295718
 21
16.0781758874
 31
0.0
  0
LINE
  5
2F5
100
AcDbEntity
  8
0
100
AcDbLine
 62
7
  6
CONTINUOUS
 10
-5.2476295718
 20
-7.7200753789
 30
0.0
 11
-5.2476295718
 21
-4.7200753789
 31
0.0
  0
LINE
  5
2F6
100
AcDbEntity
  8
0
100
AcDbLine
 62
7
  6
CONTINUOUS
 10
-4.8476295718
 20
-7.7200753789
 30
0.0
 11
-4.8476295718
 21
-4.7200753789
 31
0.0
  0
LINE
  5
2F7
100
AcDbEntity
  8
0
100
AcDbLine
 62
7
  6
CONTINUOUS
 10
-4.2476295718
 20
-7.7200753789
 30
0.0
 11
-4.2476295718
 21
-4.7200753789
 31
0.0
  0
LINE
  5
2F8
100
AcDbEntity
  8
0
100
AcDbLine
 62
7
  6
CONTINUOUS
 10
-7.8976295718
 20
-11.0200753789
 30
0.0
 11
-1.1976295718
 21
-11.0200753789
 31
0.0
  0
LINE
  5
2F9
100
AcDbEntity
  8
0
100
AcDbLine
 62
7
  6
CONTINUOUS
 10
-3.8476295718
 20
-7.7200753789
 30
0.0
 11
-3.8476295718
 21
-4.7200753789
 31
0.0
  0
LINE
  5
2FA
100
AcDbEntity
  8
0
100
AcDbLine
 62
7
  6
CONTINUOUS
 10
-3.5476295718
 20
16.0781758874
 30
0.0
 11
-3.5476295718
 21
14.6642022873
 31
0.0
  0
LINE
  5
2FB
100
AcDbEntity
  8
0
100
AcDbLine
 62
7
  6
CONTINUOUS
 10
-3.5476295718
 20
-30.1043530451
 30
0.0
 11
-3.5476295718
 21
-31.5183266453
 31
0.0
  0
LINE
  5
2FC
100
AcDbEntity
  8
0
100
AcDbLine
 62
250
  6
CONTINUOUS
 10
-3.3476295718
 20
-30.0938714893
 30
0.0
 11
-3.3476295718
 21
-31.7183232607
 31
0.0
  0
LINE
  5
2FD
100
AcDbEntity
  8
0
100
AcDbLine
 62
250
  6
CONTINUOUS
 10
-3.3476295718
 20
14.6537207314
 30
0.0
 11
-3.3476295718
 21
16.2781725028
 31
0.0
  0
LINE
  5
2FE
100
AcDbEntity
  8
0
100
AcDbLine
 62
7
  6
CONTINUOUS
 10
-3.2476295718
 20
-7.7200753789
 30
0.0
 11
-3.2476295718
 21
-4.7200753789
 31
0.0
  0
LINE
  5
2FF
100
AcDbEntity
  8
0
100
AcDbLine
 62
7
  6
CONTINUOUS
 10
-2.8476295718
 20
-7.7200753789
 30
0.0
 11
-2.8476295718
 21
-4.7200753789
 31
0.0
  0
LINE
  5
300
100
AcDbEntity
  8
SMUSSO
100
AcDbLine
 62
7
  6
CONTINUOUS
 10
-2.4976295718
 20
-13.3200753789
 30
0.0
 11
-2.4976295718
 21
-15.1700753789
 31
0.0
  0
LINE
  5
301
100
AcDbEntity
  8
0
100
AcDbLine
 62
7
  6
CONTINUOUS
 10
-0.0976295718
 20
14.6799246211
 30
0.0
 11
-0.1063563165
 21
14.6013129521
 31
0.0
  0
LWPOLYLINE
  5
302
100
AcDbEntity
  8
0
100
AcDbPolyline
 62
7
  6
CONTINUOUS
 90
2
 70
0
 43
0.3500000006
 10
17.7023698997
 20
-9.0772180367
 10
16.202370575
 20
-9.0772180367
  0
LINE
  5
303
100
AcDbEntity
  8
0
100
AcDbLine
 62
7
  6
CONTINUOUS
 10
-0.8476295718
 20
-7.7200753789
 30
0.0
 11
-1.2476295718
 21
-7.7200753789
 31
0.0
  0
LINE
  5
304
100
AcDbEntity
  8
0
100
AcDbLine
 62
7
  6
CONTINUOUS
 10
-1.8476295718
 20
-7.7200753789
 30
0.0
 11
-2.2476295718
 21
-7.7200753789
 31
0.0
  0
LINE
  5
305
100
AcDbEntity
  8
0
100
AcDbLine
 62
7
  6
CONTINUOUS
 10
-2.8476295718
 20
-7.7200753789
 30
0.0
 11
-3.2476295718
 21
-7.7200753789
 31
0.0
  0
LINE
  5
306
100
AcDbEntity
  8
0
100
AcDbLine
 62
7
  6
CONTINUOUS
 10
-3.8476295718
 20
-7.7200753789
 30
0.0
 11
-4.2476295718
 21
-7.7200753789
 31
0.0
  0
LINE
  5
307
100
AcDbEntity
  8
0
100
AcDbLine
 62
7
  6
CONTINUOUS
 10
-4.8476295718
 20
-7.7200753789
 30
0.0
 11
-5.2476295718
 21
-7.7200753789
 31
0.0
  0
LINE
  5
308
100
AcDbEntity
  8
0
100
AcDbLine
 62
7
  6
CONTINUOUS
 10
-5.8476295718
 20
-7.7200753789
 30
0.0
 11
-6.2476295718
 21
-7.7200753789
 31
0.0
  0
LINE
  5
309
100
AcDbEntity
  8
0
100
AcDbLine
 62
7
  6
CONTINUOUS
 10
-6.8476295718
 20
-7.7200753789
 30
0.0
 11
-7.2476295718
 21
-7.7200753789
 31
0.0
  0
LINE
  5
30A
100
AcDbEntity
  8
0
100
AcDbLine
 62
7
  6
CONTINUOUS
 10
-7.8476295718
 20
-7.7200753789
 30
0.0
 11
-8.2476295718
 21
-7.7200753789
 31
0.0
  0
LINE
  5
30B
100
AcDbEntity
  8
0
100
AcDbLine
 62
7
  6
CONTINUOUS
 10
-0.1063563165
 20
-30.04146371
 30
0.0
 11
-0.0976295718
 21
-30.1200753789
 31
0.0
  0
LINE
  5
30C
100
AcDbEntity
  8
0
100
AcDbLine
 62
7
  6
CONTINUOUS
 10
-2.2476295718
 20
-7.7200753789
 30
0.0
 11
-2.2476295718
 21
-4.7200753789
 31
0.0
  0
LINE
  5
30D
100
AcDbEntity
  8
RACCORDO
100
AcDbLine
 62
7
  6
CONTINUOUS
 10
-2.0476295718
 20
-13.8201157726
 30
0.0
 11
-2.0476295718
 21
-15.1701347902
 31
0.0
  0
LINE
  5
30E
100
AcDbEntity
  8
0
100
AcDbLine
 62
7
  6
CONTINUOUS
 10
-1.8476295718
 20
-7.7200753789
 30
0.0
 11
-1.8476295718
 21
-4.7200753789
 31
0.0
  0
LINE
  5
30F
100
AcDbEntity
  8
0
100
AcDbLine
 62
7
  6
CONTINUOUS
 10
-1.6976295718
 20
-11.0200753789
 30
0.0
 11
-1.6976295718
 21
-12.0700753789
 31
0.0
  0
LINE
  5
310
100
AcDbEntity
  8
RACCORDO
100
AcDbLine
 62
250
  6
CONTINUOUS
 10
-1.5476295718
 20
-14.3266819855
 30
0.0
 11
-1.5476295718
 21
-15.6780333369
 31
0.0
  0
LINE
  5
311
100
AcDbEntity
  8
DRAFT
100
AcDbLine
 62
7
  6
CONTINUOUS
 10
-1.5476295718
 20
14.4440896143
 30
0.0
 11
-1.5476295718
 21
14.5017381715
 31
0.0
  0
LINE
  5
312
100
AcDbEntity
  8
0
100
AcDbLine
 62
7
  6
CONTINUOUS
 10
-1.2476295718
 20
-7.7200753789
 30
0.0
 11
-1.2476295718
 21
-4.7200753789
 31
0.0
  0
LINE
  5
313
100
AcDbEntity
  8
0
100
AcDbLine
 62
7
  6
CONTINUOUS
 10
-1.1976295718
 20
-13.3200753789
 30
0.0
 11
-1.1976295718
 21
-11.0200753789
 31
0.0
  0
LINE
  5
314
100
AcDbEntity
  8
0
100
AcDbLine
 62
7
  6
CONTINUOUS
 10
-1.0476295718
 20
16.2711978763
 30
0.0
 11
-1.0476295718
 21
14.6013129521
 31
0.0
  0
LINE
  5
315
100
AcDbEntity
  8
0
100
AcDbLine
 62
7
  6
CONTINUOUS
 10
-1.0476295718
 20
-30.04146371
 30
0.0
 11
-1.0476295718
 21
-31.7113486342
 31
0.0
  0
LINE
  5
316
100
AcDbEntity
  8
RACCORDO
100
AcDbLine
 62
7
  6
CONTINUOUS
 10
-0.8976295718
 20
-12.2200753789
 30
0.0
 11
-0.8976295718
 21
-13.820115784
 31
0.0
  0
LINE
  5
317
100
AcDbEntity
  8
0
100
AcDbLine
 62
7
  6
CONTINUOUS
 10
-0.8476295718
 20
-7.7200753789
 30
0.0
 11
-0.8476295718
 21
-4.7200753789
 31
0.0
  0
LINE
  5
318
100
AcDbEntity
  8
0
100
AcDbLine
 62
250
  6
CONTINUOUS
 10
6.1018782747
 20
14.6799246211
 30
0.0
 11
5.9887129507
 21
14.3401525637
 31
0.0
  0
LINE
  5
319
100
AcDbEntity
  8
0
100
AcDbLine
 62
250
  6
CONTINUOUS
 10
6.6014980737
 20
14.1796969662
 30
0.0
 11
6.4886367983
 21
13.8408377963
 31
0.0
  0
LINE
  5
31A
100
AcDbEntity
  8
0
100
AcDbLine
 62
250
  6
CONTINUOUS
 10
5.9887129507
 20
-29.7803033216
 30
0.0
 11
6.1018782747
 21
-30.1200753789
 31
0.0
  0
LINE
  5
31B
100
AcDbEntity
  8
0
100
AcDbLine
 62
250
  6
CONTINUOUS
 10
6.4886351322
 20
-29.2809835519
 30
0.0
 11
6.6014980737
 21
-29.619847724
 31
0.0
  0
LINE
  5
31C
100
AcDbEntity
  8
RACCORDO
100
AcDbLine
 62
250
  6
CONTINUOUS
 10
-0.3976295718
 20
-12.7250803839
 30
0.0
 11
-0.3976295718
 21
-14.3266819855
 31
0.0
  0
LINE
  5
31D
100
AcDbEntity
  8
0
100
AcDbLine
 62
7
  6
CONTINUOUS
 10
-0.1063563165
 20
-31.7113486342
 30
0.0
 11
-0.1063563165
 21
-30.04146371
 31
0.0
  0
LINE
  5
31E
100
AcDbEntity
  8
0
100
AcDbLine
 62
7
  6
CONTINUOUS
 10
-0.1063563165
 20
14.6013129521
 30
0.0
 11
-0.1063563165
 21
16.2711978763
 31
0.0
  0
LINE
  5
31F
100
AcDbEntity
  8
0
100
AcDbLine
 62
7
  6
CONTINUOUS
 10
-0.0976295718
 20
-30.1200753789
 30
0.0
 11
-0.0976295718
 21
-31.7200753789
 31
0.0
  0
LINE
  5
320
100
AcDbEntity
  8
0
100
AcDbLine
 62
7
  6
CONTINUOUS
 10
-0.0976295718
 20
14.6799246211
 30
0.0
 11
-0.0976295718
 21
16.2799246211
 31
0.0
  0
LINE
  5
321
100
AcDbEntity
  8
0
100
AcDbLine
 62
7
  6
CONTINUOUS
 10
1.4523704282
 20
-4.7200753789
 30
0.0
 11
-10.5476295718
 21
-4.7200753789
 31
0.0
  0
LINE
  5
322
100
AcDbEntity
  8
RACCORDO
100
AcDbLine
 62
7
  6
CONTINUOUS
 10
-10.9976295718
 20
-4.3200753789
 30
0.0
 11
1.9023704282
 21
-4.3200753789
 31
0.0
  0
LINE
  5
323
100
AcDbEntity
  8
RACCORDO
100
AcDbLine
 62
250
  6
CONTINUOUS
 10
-11.4976295718
 20
-3.816171475
 30
0.0
 11
2.4023704282
 21
-3.816171475
 31
0.0
  0
LINE
  5
324
100
AcDbEntity
  8
0
100
AcDbLine
 62
250
  6
CONTINUOUS
 10
2.715469007
 20
-31.5644129462
 30
0.0
 11
2.7096511771
 21
-30.987062677
 31
0.0
  0
LINE
  5
325
100
AcDbEntity
  8
0
100
AcDbLine
 62
250
  6
CONTINUOUS
 10
2.9654647762
 20
-31.3479065953
 30
0.0
 11
2.9603741751
 21
-30.8427251097
 31
0.0
  0
LINE
  5
326
100
AcDbEntity
  8
0
100
AcDbLine
 62
7
  6
CONTINUOUS
 10
1.4523704282
 20
-11.7200753789
 30
0.0
 11
1.4523704282
 21
-4.7200753789
 31
0.0
  0
LINE
  5
327
100
AcDbEntity
  8
RACCORDO
100
AcDbLine
 62
7
  6
CONTINUOUS
 10
1.9023704282
 20
-4.3200753789
 30
0.0
 11
1.9023704282
 21
-12.2200753789
 31
0.0
  0
LINE
  5
328
100
AcDbEntity
  8
RACCORDO
100
AcDbLine
 62
250
  6
CONTINUOUS
 10
2.4023704282
 20
-3.816171475
 30
0.0
 11
2.4023704282
 21
-12.7250803839
 31
0.0
  0
LINE
  5
329
100
AcDbEntity
  8
RACCORDO
100
AcDbLine
 62
7
  6
CONTINUOUS
 10
2.7023704282
 20
15.6904097693
 30
0.0
 11
2.7023704282
 21
14.8801381114
 31
0.0
  0
LINE
  5
32A
100
AcDbEntity
  8
0
100
AcDbLine
 62
7
  6
CONTINUOUS
 10
2.7023704282
 20
-31.9700796097
 30
0.0
 11
2.7023704282
 21
-31.1305605271
 31
0.0
  0
LINE
  5
32B
100
AcDbEntity
  8
RACCORDO
100
AcDbLine
 62
7
  6
CONTINUOUS
 10
2.7023704282
 20
-30.3202888693
 30
0.0
 11
2.7023704282
 21
-31.1305605271
 31
0.0
  0
LINE
  5
32C
100
AcDbEntity
  8
0
100
AcDbLine
 62
7
  6
CONTINUOUS
 10
2.7023704282
 20
15.6904097693
 30
0.0
 11
2.7023704282
 21
16.5299288519
 31
0.0
  0
LINE
  5
32D
100
AcDbEntity
  8
RACCORDO
100
AcDbLine
 62
7
  6
CONTINUOUS
 10
2.7096511771
 20
15.5469119192
 30
0.0
 11
2.7096511771
 21
14.8145521637
 31
0.0
  0
LINE
  5
32E
100
AcDbEntity
  8
RACCORDO
100
AcDbLine
 62
7
  6
CONTINUOUS
 10
2.7096511771
 20
-30.2547029216
 30
0.0
 11
2.7096511771
 21
-30.987062677
 31
0.0
  0
LINE
  5
32F
100
AcDbEntity
  8
0
100
AcDbLine
 62
7
  6
CONTINUOUS
 10
2.715469007
 20
16.5168302731
 30
0.0
 11
2.715469007
 21
16.1242621884
 31
0.0
  0
LINE
  5
330
100
AcDbEntity
  8
0
100
AcDbLine
 62
7
  6
CONTINUOUS
 10
2.715469007
 20
-31.5644129462
 30
0.0
 11
2.715469007
 21
-31.956981031
 31
0.0
  0
LINE
  5
331
100
AcDbEntity
  8
RACCORDO
100
AcDbLine
 62
250
  6
CONTINUOUS
 10
2.9596469464
 20
-30.0315307164
 30
0.0
 11
2.9596469464
 21
-30.8427251097
 31
0.0
  0
LINE
  5
332
100
AcDbEntity
  8
RACCORDO
100
AcDbLine
 62
250
  6
CONTINUOUS
 10
2.9596469464
 20
14.5913799585
 30
0.0
 11
2.9596469464
 21
15.4025743519
 31
0.0
  0
LINE
  5
333
100
AcDbEntity
  8
0
100
AcDbLine
 62
250
  6
CONTINUOUS
 10
2.9654647762
 20
-31.3479065953
 30
0.0
 11
2.9654647762
 21
-32.2069768002
 31
0.0
  0
LINE
  5
334
100
AcDbEntity
  8
0
100
AcDbLine
 62
250
  6
CONTINUOUS
 10
2.9654647762
 20
15.9077558374
 30
0.0
 11
2.9654647762
 21
16.7668260423
 31
0.0
  0
LINE
  5
335
100
AcDbEntity
  8
0
100
AcDbLine
 62
250
  6
CONTINUOUS
 10
2.7096511771
 20
15.5469119192
 30
0.0
 11
2.715469007
 21
16.1242621884
 31
0.0
  0
LINE
  5
336
100
AcDbEntity
  8
0
100
AcDbLine
 62
250
  6
CONTINUOUS
 10
2.9603741751
 20
15.4025743519
 30
0.0
 11
2.9654647762
 21
15.9077558374
 31
0.0
  0
LINE
  5
337
100
AcDbEntity
  8
RACCORDO
100
AcDbLine
 62
7
  6
CONTINUOUS
 10
4.9348792542
 20
8.6929208958
 30
0.0
 11
4.9271193611
 21
12.3136039474
 31
0.0
  0
LINE
  5
338
100
AcDbEntity
  8
RACCORDO
100
AcDbLine
 62
250
  6
CONTINUOUS
 10
4.3873719469
 20
7.7874232892
 30
0.0
 11
4.3873719469
 21
7.8961152488
 31
0.0
  0
LINE
  5
339
100
AcDbEntity
  8
RACCORDO
100
AcDbLine
 62
250
  6
CONTINUOUS
 10
4.4700679824
 20
7.5877905004
 30
0.0
 11
4.4700679824
 21
7.7710765164
 31
0.0
  0
LINE
  5
33A
100
AcDbEntity
  8
RACCORDO
100
AcDbLine
 62
250
  6
CONTINUOUS
 10
4.6023704282
 20
7.8218495175
 30
0.0
 11
4.6023704282
 21
7.8031399259
 31
0.0
  0
LINE
  5
33B
100
AcDbEntity
  8
RACCORDO
100
AcDbLine
 62
7
  6
CONTINUOUS
 10
4.9023704282
 20
8.1220242236
 30
0.0
 11
4.9023704282
 21
13.9144991206
 31
0.0
  0
LINE
  5
33C
100
AcDbEntity
  8
SMUSSO
100
AcDbLine
 62
7
  6
CONTINUOUS
 10
4.9104782724
 20
13.9991251925
 30
0.0
 11
4.9104782724
 21
14.2439980735
 31
0.0
  0
LINE
  5
33D
100
AcDbEntity
  8
RACCORDO
100
AcDbLine
 62
7
  6
CONTINUOUS
 10
4.9523704282
 20
8.2798675078
 30
0.0
 11
4.9523704282
 21
8.4799246211
 31
0.0
  0
LINE
  5
33E
100
AcDbEntity
  8
SMUSSO
100
AcDbLine
 62
7
  6
CONTINUOUS
 10
4.9104782724
 20
13.9991251925
 30
0.0
 11
4.9034973098
 21
13.5921442299
 31
0.0
  0
LINE
  5
33F
100
AcDbEntity
  8
RACCORDO
100
AcDbLine
 62
250
  6
CONTINUOUS
 10
5.7950862947
 20
14.6148262567
 30
0.0
 11
5.8023129166
 21
14.6799246211
 31
0.0
  0
LINE
  5
340
100
AcDbEntity
  8
RACCORDO
100
AcDbLine
 62
250
  6
CONTINUOUS
 10
2.5096545618
 20
-30.0549770146
 30
0.0
 11
2.5024279399
 21
-30.1200753789
 31
0.0
  0
LINE
  5
341
100
AcDbEntity
  8
SMUSSO
100
AcDbLine
 62
7
  6
CONTINUOUS
 10
-13.9987564534
 20
13.5921442299
 30
0.0
 11
-13.9976295718
 21
13.5910173483
 31
0.0
  0
LINE
  5
342
100
AcDbEntity
  8
RACCORDO
100
AcDbLine
 62
250
  6
CONTINUOUS
 10
5.8023129166
 20
-30.1200753789
 30
0.0
 11
5.7950862947
 21
-30.0549770146
 31
0.0
  0
LINE
  5
343
100
AcDbEntity
  8
RACCORDO
100
AcDbLine
 62
250
  6
CONTINUOUS
 10
2.5024279399
 20
14.6799246211
 30
0.0
 11
2.5096545618
 21
14.6148262567
 31
0.0
  0
LINE
  5
344
100
AcDbEntity
  8
DRAFT
100
AcDbLine
 62
7
  6
CONTINUOUS
 10
4.9523704282
 20
8.4799246211
 30
0.0
 11
4.9348792542
 21
8.6929208958
 31
0.0
  0
LWPOLYLINE
  5
345
100
AcDbEntity
  8
RACCORDO
100
AcDbPolyline
 62
7
  6
CONTINUOUS
 90
15
 70
0
 10
4.8944118188
 20
14.2116968911
 10
4.8940825746
 20
14.216980409
 10
4.8937502232
 20
14.2219124966
 10
4.8934136491
 20
14.2265125371
 10
4.8930689167
 20
14.2308308514
 10
4.8927156984
 20
14.2348645609
 10
4.8923493177
 20
14.2386574876
 10
4.8919538361
 20
14.2423411919
 10
4.8915309894
 20
14.2458571446
 10
4.8910621755
 20
14.2493118854
 10
4.8904751052
 20
14.2530931205
 10
4.889742658
 20
14.2571447512
 10
4.8888024815
 20
14.2615544281
 10
4.8874235997
 20
14.2669343721
 10
4.8857781197
 20
14.2722585828
  0
LINE
  5
346
100
AcDbEntity
  8
RACCORDO
100
AcDbLine
 62
7
  6
CONTINUOUS
 10
4.8950638275
 20
14.2000090937
 30
0.0
 11
4.8944118188
 21
14.2116968911
 31
0.0
  0
LINE
  5
347
100
AcDbEntity
  8
RACCORDO
100
AcDbLine
 62
7
  6
CONTINUOUS
 10
4.8957120652
 20
14.1866873131
 30
0.0
 11
4.8950638275
 21
14.2000090937
 31
0.0
  0
LINE
  5
348
100
AcDbEntity
  8
RACCORDO
100
AcDbLine
 62
7
  6
CONTINUOUS
 10
4.8963582336
 20
14.1716128866
 30
0.0
 11
4.8957120652
 21
14.1866873131
 31
0.0
  0
LINE
  5
349
100
AcDbEntity
  8
RACCORDO
100
AcDbLine
 62
7
  6
CONTINUOUS
 10
4.8973230882
 20
14.1455039048
 30
0.0
 11
4.8963582336
 21
14.1716128866
 31
0.0
  0
LINE
  5
34A
100
AcDbEntity
  8
RACCORDO
100
AcDbLine
 62
7
  6
CONTINUOUS
 10
4.8982781863
 20
14.1149929032
 30
0.0
 11
4.8973230882
 21
14.1455039048
 31
0.0
  0
LINE
  5
34B
100
AcDbEntity
  8
RACCORDO
100
AcDbLine
 62
7
  6
CONTINUOUS
 10
4.8995234557
 20
14.0672183602
 30
0.0
 11
4.8982781863
 21
14.1149929032
 31
0.0
  0
LINE
  5
34C
100
AcDbEntity
  8
RACCORDO
100
AcDbLine
 62
7
  6
CONTINUOUS
 10
4.9010040252
 20
13.9960106732
 30
0.0
 11
4.8995234557
 21
14.0672183602
 31
0.0
  0
LINE
  5
34D
100
AcDbEntity
  8
0
100
AcDbLine
 62
7
  6
CONTINUOUS
 10
6.6028067716
 20
-29.3200753789
 30
0.0
 11
6.6023704282
 21
-29.2912078655
 31
0.0
  0
LINE
  5
34E
100
AcDbEntity
  8
RACCORDO
100
AcDbLine
 62
7
  6
CONTINUOUS
 10
4.9023572269
 20
13.9125024163
 30
0.0
 11
4.9010040252
 21
13.9960106732
 31
0.0
  0
LINE
  5
34F
100
AcDbEntity
  8
0
100
AcDbLine
 62
250
  6
CONTINUOUS
 10
5.3392760803
 20
15.9077558374
 30
0.0
 11
5.3443666814
 21
15.4025743519
 31
0.0
  0
LINE
  5
350
100
AcDbEntity
  8
0
100
AcDbLine
 62
250
  6
CONTINUOUS
 10
5.5892718495
 20
16.1242621884
 30
0.0
 11
5.5950896793
 21
15.5469119192
 31
0.0
  0
LINE
  5
351
100
AcDbEntity
  8
0
100
AcDbLine
 62
250
  6
CONTINUOUS
 10
5.3392760803
 20
-31.3479065953
 30
0.0
 11
5.3392760803
 21
-32.2069768002
 31
0.0
  0
LINE
  5
352
100
AcDbEntity
  8
0
100
AcDbLine
 62
250
  6
CONTINUOUS
 10
5.3392760803
 20
15.9077558374
 30
0.0
 11
5.3392760803
 21
16.7668260423
 31
0.0
  0
LINE
  5
353
100
AcDbEntity
  8
RACCORDO
100
AcDbLine
 62
250
  6
CONTINUOUS
 10
5.3450939101
 20
-30.0315307164
 30
0.0
 11
5.3450939101
 21
-30.8427251097
 31
0.0
  0
LINE
  5
354
100
AcDbEntity
  8
RACCORDO
100
AcDbLine
 62
250
  6
CONTINUOUS
 10
5.3450939101
 20
14.5913799585
 30
0.0
 11
5.3450939101
 21
15.4025743519
 31
0.0
  0
LINE
  5
355
100
AcDbEntity
  8
0
100
AcDbLine
 62
7
  6
CONTINUOUS
 10
5.5892718495
 20
-31.956981031
 30
0.0
 11
5.5892718495
 21
-31.5644129462
 31
0.0
  0
LINE
  5
356
100
AcDbEntity
  8
0
100
AcDbLine
 62
7
  6
CONTINUOUS
 10
5.5892718495
 20
16.1242621884
 30
0.0
 11
5.5892718495
 21
16.5168302731
 31
0.0
  0
LINE
  5
357
100
AcDbEntity
  8
RACCORDO
100
AcDbLine
 62
7
  6
CONTINUOUS
 10
5.5950896793
 20
-30.987062677
 30
0.0
 11
5.5950896793
 21
-30.2547029216
 31
0.0
  0
LINE
  5
358
100
AcDbEntity
  8
RACCORDO
100
AcDbLine
 62
7
  6
CONTINUOUS
 10
5.5950896793
 20
14.8145521637
 30
0.0
 11
5.5950896793
 21
15.5469119192
 31
0.0
  0
LINE
  5
359
100
AcDbEntity
  8
0
100
AcDbLine
 62
7
  6
CONTINUOUS
 10
5.6023704282
 20
16.5299288519
 30
0.0
 11
5.6023704282
 21
15.6904097693
 31
0.0
  0
LINE
  5
35A
100
AcDbEntity
  8
RACCORDO
100
AcDbLine
 62
7
  6
CONTINUOUS
 10
5.6023704282
 20
-31.1305605271
 30
0.0
 11
5.6023704282
 21
-30.3202888693
 31
0.0
  0
LINE
  5
35B
100
AcDbEntity
  8
0
100
AcDbLine
 62
7
  6
CONTINUOUS
 10
5.6023704282
 20
-31.1305605271
 30
0.0
 11
5.6023704282
 21
-31.9700796097
 31
0.0
  0
LINE
  5
35C
100
AcDbEntity
  8
RACCORDO
100
AcDbLine
 62
7
  6
CONTINUOUS
 10
5.6023704282
 20
14.8801381114
 30
0.0
 11
5.6023704282
 21
15.6904097693
 31
0.0
  0
LINE
  5
35D
100
AcDbEntity
  8
0
100
AcDbLine
 62
250
  6
CONTINUOUS
 10
5.9633548779
 20
1.7799246211
 30
0.0
 11
5.9633548779
 21
-17.2200753789
 31
0.0
  0
LINE
  5
35E
100
AcDbEntity
  8
0
100
AcDbLine
 62
7
  6
CONTINUOUS
 10
6.6028067716
 20
14.1799415441
 30
0.0
 11
6.6028067716
 21
13.8799246211
 31
0.0
  0
LINE
  5
35F
100
AcDbEntity
  8
0
100
AcDbLine
 62
7
  6
CONTINUOUS
 10
6.6028067716
 20
-29.620092302
 30
0.0
 11
6.6028067716
 21
-29.3200753789
 31
0.0
  0
LINE
  5
360
100
AcDbEntity
  8
0
100
AcDbLine
 62
7
  6
CONTINUOUS
 10
6.6189527399
 20
-28.7427251097
 30
0.0
 11
6.6189527399
 21
13.3025743519
 31
0.0
  0
LINE
  5
361
100
AcDbEntity
  8
0
100
AcDbLine
 62
250
  6
CONTINUOUS
 10
5.3443666814
 20
-30.8427251097
 30
0.0
 11
5.3392760803
 21
-31.3479065953
 31
0.0
  0
LINE
  5
362
100
AcDbEntity
  8
0
100
AcDbLine
 62
250
  6
CONTINUOUS
 10
5.5950896793
 20
-30.987062677
 30
0.0
 11
5.5892718495
 21
-31.5644129462
 31
0.0
  0
LINE
  5
363
100
AcDbEntity
  8
0
100
AcDbLine
 62
7
  6
CONTINUOUS
 10
6.6023704282
 20
13.8510571076
 30
0.0
 11
6.6028067716
 21
13.8799246211
 31
0.0
  0
LINE
  5
364
100
AcDbEntity
  8
0
100
AcDbLine
 62
250
  6
CONTINUOUS
 10
-14.684530993
 20
-31.956981031
 30
0.0
 11
-14.6976295718
 21
-31.9700796097
 31
0.0
  0
LINE
  5
365
100
AcDbEntity
  8
0
100
AcDbLine
 62
250
  6
CONTINUOUS
 10
-14.4345352238
 20
-32.2069768002
 30
0.0
 11
-14.4476338025
 21
-32.2200753789
 31
0.0
  0
LINE
  5
366
100
AcDbEntity
  8
0
100
AcDbLine
 62
250
  6
CONTINUOUS
 10
5.9633548779
 20
1.7799246211
 30
0.0
 11
-15.0586140214
 21
1.7799246211
 31
0.0
  0
LINE
  5
367
100
AcDbEntity
  8
0
100
AcDbLine
 62
250
  6
CONTINUOUS
 10
-14.684530993
 20
16.5168302731
 30
0.0
 11
-14.6976295718
 21
16.5299288519
 31
0.0
  0
LINE
  5
368
100
AcDbEntity
  8
0
100
AcDbLine
 62
250
  6
CONTINUOUS
 10
-14.4345352238
 20
16.7668260423
 30
0.0
 11
-14.4476338025
 21
16.7799246211
 31
0.0
  0
LINE
  5
369
100
AcDbEntity
  8
DRAFT
100
AcDbLine
 62
7
  6
CONTINUOUS
 10
-1.5476295718
 20
14.5017381715
 30
0.0
 11
-1.5284290003
 21
14.4440896143
 31
0.0
  0
LINE
  5
36A
100
AcDbEntity
  8
0
100
AcDbLine
 62
7
  6
CONTINUOUS
 10
6.6189527399
 20
13.3025743519
 30
0.0
 11
6.6023704282
 21
13.8510571076
 31
0.0
  0
LINE
  5
36B
100
AcDbEntity
  8
0
100
AcDbLine
 62
7
  6
CONTINUOUS
 10
6.6189527399
 20
-28.7427251097
 30
0.0
 11
6.6023704282
 21
-29.2912078655
 31
0.0
  0
LINE
  5
36C
100
AcDbEntity
  8
0
100
AcDbLine
 62
7
  6
CONTINUOUS
 10
-8.9976295718
 20
-31.7200753789
 30
0.0
 11
-8.988902827
 21
-31.7113486342
 31
0.0
  0
LINE
  5
36D
100
AcDbEntity
  8
0
100
AcDbLine
 62
7
  6
CONTINUOUS
 10
-8.9976295718
 20
16.2799246211
 30
0.0
 11
-8.988902827
 21
16.2711978763
 31
0.0
  0
LWPOLYLINE
  5
36E
100
AcDbEntity
  8
0
100
AcDbPolyline
 62
7
  6
CONTINUOUS
 90
10
 70
0
 43
0.3500000006
 10
17.7023698997
 20
-7.2915041771
 10
16.8452274284
 20
-6.4343605728
 10
15.9880849571
 20
-6.220074955
 10
15.1309413528
 20
-6.220074955
 10
14.7023701172
 20
-6.6486473236
 10
14.7023701172
 20
-7.2915041771
 10
15.1309413528
 20
-7.7200754128
 10
15.9880849571
 20
-7.7200754128
 10
16.4166561928
 20
-7.2915041771
 10
16.4166561928
 20
-6.3629327888
  0
LWPOLYLINE
  5
36F
100
AcDbEntity
  8
0
100
AcDbPolyline
 62
7
  6
CONTINUOUS
 90
10
 70
0
 43
0.3500000006
 10
-3.4762008705
 20
26.0299224243
 10
-3.4047725201
 20
25.8870691223
 10
-3.4047725201
 20
25.8156379395
 10
-3.5476295042
 20
25.6727801056
 10
-3.6190581379
 20
25.6727801056
 10
-3.6904867716
 20
25.7442112885
 10
-3.6904867716
 20
25.8156379395
 10
-3.6190581379
 20
25.9584957733
 10
-3.5476295042
 20
26.0299224243
 10
-3.4762008705
 20
26.0299224243
  0
LINE
  5
370
100
AcDbEntity
  8
RACCORDO
100
AcDbLine
 62
250
  6
CONTINUOUS
 10
4.7564083721
 20
14.4440896143
 30
0.0
 11
4.7910259039
 21
14.3401525637
 31
0.0
  0
LINE
  5
371
100
AcDbEntity
  8
RACCORDO
100
AcDbLine
 62
7
  6
CONTINUOUS
 10
4.8513756726
 20
14.3755522931
 30
0.0
 11
4.8859019401
 21
14.2718892581
 31
0.0
  0
LINE
  5
372
100
AcDbEntity
  8
RACCORDO
100
AcDbLine
 62
250
  6
CONTINUOUS
 10
4.9104782724
 20
14.2439980735
 30
0.0
 11
4.9449740253
 21
14.1404266568
 31
0.0
  0
LINE
  5
373
100
AcDbEntity
  8
RACCORDO
100
AcDbLine
 62
250
  6
CONTINUOUS
 10
5.1103260325
 20
14.4440896143
 30
0.0
 11
5.1449435643
 21
14.3401525637
 31
0.0
  0
LINE
  5
374
100
AcDbEntity
  8
DRAFT
100
AcDbLine
 62
7
  6
CONTINUOUS
 10
-0.9594660814
 20
7.7799246211
 30
0.0
 11
-0.997998486
 21
7.778017555
 31
0.0
  0
LINE
  5
375
100
AcDbEntity
  8
RACCORDO
100
AcDbLine
 62
250
  6
CONTINUOUS
 10
4.4700679824
 20
7.5877905004
 30
0.0
 11
-13.5653271259
 21
7.5877905004
 31
0.0
  0
LINE
  5
376
100
AcDbEntity
  8
RACCORDO
100
AcDbLine
 62
7
  6
CONTINUOUS
 10
4.4700679824
 20
7.7710765164
 30
0.0
 11
-13.5653271259
 21
7.7710765164
 31
0.0
  0
LINE
  5
377
100
AcDbEntity
  8
DRAFT
100
AcDbLine
 62
7
  6
CONTINUOUS
 10
-8.0972606575
 20
7.778017555
 30
0.0
 11
-0.997998486
 21
7.778017555
 31
0.0
  0
LINE
  5
378
100
AcDbEntity
  8
RACCORDO
100
AcDbLine
 62
7
  6
CONTINUOUS
 10
-13.5476295689
 20
7.7799246211
 30
0.0
 11
-7.8976295718
 21
7.7799246211
 31
0.0
  0
LINE
  5
379
100
AcDbEntity
  8
DRAFT
100
AcDbLine
 62
7
  6
CONTINUOUS
 10
-7.8976295718
 20
7.7799246211
 30
0.0
 11
-1.1976295718
 21
7.7799246211
 31
0.0
  0
LINE
  5
37A
100
AcDbEntity
  8
RACCORDO
100
AcDbLine
 62
7
  6
CONTINUOUS
 10
-1.1976295718
 20
7.7799246211
 30
0.0
 11
4.4523704253
 21
7.7799246211
 31
0.0
  0
LINE
  5
37B
100
AcDbEntity
  8
RACCORDO
100
AcDbLine
 62
7
  6
CONTINUOUS
 10
4.3873719469
 20
7.7874232892
 30
0.0
 11
-13.4826310904
 21
7.7874232892
 31
0.0
  0
LINE
  5
37C
100
AcDbEntity
  8
RACCORDO
100
AcDbLine
 62
7
  6
CONTINUOUS
 10
-13.6317916121
 20
7.7876995751
 30
0.0
 11
-13.581702743
 21
7.7876995751
 31
0.0
  0
LINE
  5
37D
100
AcDbEntity
  8
RACCORDO
100
AcDbLine
 62
7
  6
CONTINUOUS
 10
4.4864435995
 20
7.7876995751
 30
0.0
 11
4.5365324686
 21
7.7876995751
 31
0.0
  0
LINE
  5
37E
100
AcDbEntity
  8
RACCORDO
100
AcDbLine
 62
250
  6
CONTINUOUS
 10
4.3873719469
 20
7.8961152488
 30
0.0
 11
-13.4826310904
 21
7.8961152488
 31
0.0
  0
LINE
  5
37F
100
AcDbEntity
  8
DRAFT
100
AcDbLine
 62
7
  6
CONTINUOUS
 10
4.9348792542
 20
8.6929208958
 30
0.0
 11
4.9023704282
 21
8.6929208958
 31
0.0
  0
LINE
  5
380
100
AcDbEntity
  8
DRAFT
100
AcDbLine
 62
7
  6
CONTINUOUS
 10
-14.0296982685
 20
8.8982805073
 30
0.0
 11
-13.9976295718
 21
8.8982805073
 31
0.0
  0
LINE
  5
381
100
AcDbEntity
  8
DRAFT
100
AcDbLine
 62
7
  6
CONTINUOUS
 10
-8.1357930621
 20
7.7799246211
 30
0.0
 11
-8.0972606575
 21
7.778017555
 31
0.0
  0
LINE
  5
382
100
AcDbEntity
  8
RACCORDO
100
AcDbLine
 62
250
  6
CONTINUOUS
 10
4.3873719469
 20
7.7874232892
 30
0.0
 11
4.4023704253
 21
7.7799246211
 31
0.0
  0
LINE
  5
383
100
AcDbEntity
  8
RACCORDO
100
AcDbLine
 62
250
  6
CONTINUOUS
 10
4.4700679824
 20
7.7710765164
 30
0.0
 11
4.4523704253
 21
7.7799246211
 31
0.0
  0
LINE
  5
384
100
AcDbEntity
  8
RACCORDO
100
AcDbLine
 62
250
  6
CONTINUOUS
 10
4.8879813115
 20
8.2870615183
 30
0.0
 11
4.9023704282
 21
8.2798675078
 31
0.0
  0
LINE
  5
385
100
AcDbEntity
  8
RACCORDO
100
AcDbLine
 62
250
  6
CONTINUOUS
 10
4.9690253419
 20
8.2715406852
 30
0.0
 11
4.9523704282
 21
8.2798675078
 31
0.0
  0
LWPOLYLINE
  5
386
100
AcDbEntity
  8
0
100
AcDbPolyline
 62
7
  6
CONTINUOUS
 90
3
 70
0
 43
0.3500000006
 10
17.0595130463
 20
-8.5772178841
 10
17.0595130463
 20
-10.0772183418
 10
14.7023701172
 20
-9.4343614883
  0
LINE
  5
387
100
AcDbEntity
  8
RACCORDO
100
AcDbLine
 62
250
  6
CONTINUOUS
 10
-14.0223785046
 20
12.3136039474
 30
0.0
 11
-13.9976295718
 21
12.3136039474
 31
0.0
  0
LINE
  5
388
100
AcDbEntity
  8
RACCORDO
100
AcDbLine
 62
250
  6
CONTINUOUS
 10
4.9023704282
 20
12.3136039474
 30
0.0
 11
4.9271193611
 21
12.3136039474
 31
0.0
  0
LINE
  5
389
100
AcDbEntity
  8
RACCORDO
100
AcDbLine
 62
250
  6
CONTINUOUS
 10
-14.0138683423
 20
12.7525931232
 30
0.0
 11
-13.9976295718
 21
12.7525931232
 31
0.0
  0
LINE
  5
38A
100
AcDbEntity
  8
RACCORDO
100
AcDbLine
 62
250
  6
CONTINUOUS
 10
4.9023704282
 20
12.7525931232
 30
0.0
 11
4.9186091988
 21
12.7525931232
 31
0.0
  0
LINE
  5
38B
100
AcDbEntity
  8
RACCORDO
100
AcDbLine
 62
7
  6
CONTINUOUS
 10
4.9186091988
 20
12.7525931232
 30
0.0
 11
4.9023704282
 21
12.7688318938
 31
0.0
  0
LINE
  5
38C
100
AcDbEntity
  8
0
100
AcDbLine
 62
250
  6
CONTINUOUS
 10
2.715469007
 20
-31.956981031
 30
0.0
 11
2.7023704282
 21
-31.9700796097
 31
0.0
  0
LINE
  5
38D
100
AcDbEntity
  8
0
100
AcDbLine
 62
250
  6
CONTINUOUS
 10
2.9654647762
 20
-32.2069768002
 30
0.0
 11
2.9523661975
 21
-32.2200753789
 31
0.0
  0
LINE
  5
38E
100
AcDbEntity
  8
RACCORDO
100
AcDbLine
 62
250
  6
CONTINUOUS
 10
-15.075798906
 20
13.4906421122
 30
0.0
 11
-14.2532798091
 21
13.4906421122
 31
0.0
  0
LINE
  5
38F
100
AcDbEntity
  8
RACCORDO
100
AcDbLine
 62
250
  6
CONTINUOUS
 10
-13.8942318916
 20
13.4906421122
 30
0.0
 11
4.7989727481
 21
13.4906421122
 31
0.0
  0
LINE
  5
390
100
AcDbEntity
  8
RACCORDO
100
AcDbLine
 62
250
  6
CONTINUOUS
 10
5.1580206656
 20
13.4906421122
 30
0.0
 11
5.9805397624
 21
13.4906421122
 31
0.0
  0
LINE
  5
391
100
AcDbEntity
  8
SMUSSO
100
AcDbLine
 62
7
  6
CONTINUOUS
 10
-14.0057374159
 20
13.9991251925
 30
0.0
 11
-13.9962045223
 21
13.9991251925
 31
0.0
  0
LINE
  5
392
100
AcDbEntity
  8
SMUSSO
100
AcDbLine
 62
7
  6
CONTINUOUS
 10
4.9009453313
 20
13.9991251925
 30
0.0
 11
4.9104782724
 21
13.9991251925
 31
0.0
  0
LINE
  5
393
100
AcDbEntity
  8
RACCORDO
100
AcDbLine
 62
250
  6
CONTINUOUS
 10
-15.0839720943
 20
14.3401525637
 30
0.0
 11
-14.2402027078
 21
14.3401525637
 31
0.0
  0
LINE
  5
394
100
AcDbEntity
  8
RACCORDO
100
AcDbLine
 62
250
  6
CONTINUOUS
 10
-13.8862850474
 20
14.3401525637
 30
0.0
 11
4.7910259039
 21
14.3401525637
 31
0.0
  0
LINE
  5
395
100
AcDbEntity
  8
RACCORDO
100
AcDbLine
 62
250
  6
CONTINUOUS
 10
5.1449435643
 20
14.3401525637
 30
0.0
 11
5.9887129507
 21
14.3401525637
 31
0.0
  0
LINE
  5
396
100
AcDbEntity
  8
RACCORDO
100
AcDbLine
 62
7
  6
CONTINUOUS
 10
-14.205585176
 20
14.4440896143
 30
0.0
 11
5.1103260325
 21
14.4440896143
 31
0.0
  0
LINE
  5
397
100
AcDbEntity
  8
DRAFT
100
AcDbLine
 62
7
  6
CONTINUOUS
 10
-7.5476295718
 20
14.5017381715
 30
0.0
 11
-1.5476295718
 21
14.5017381715
 31
0.0
  0
LINE
  5
398
100
AcDbEntity
  8
RACCORDO
100
AcDbLine
 62
250
  6
CONTINUOUS
 10
-14.4403530536
 20
14.5913799585
 30
0.0
 11
-12.0549060899
 21
14.5913799585
 31
0.0
  0
LINE
  5
399
100
AcDbEntity
  8
RACCORDO
100
AcDbLine
 62
250
  6
CONTINUOUS
 10
2.9596469464
 20
14.5913799585
 30
0.0
 11
5.3450939101
 21
14.5913799585
 31
0.0
  0
LINE
  5
39A
100
AcDbEntity
  8
0
100
AcDbLine
 62
7
  6
CONTINUOUS
 10
-0.1063563165
 20
14.6013129521
 30
0.0
 11
-1.0476295718
 21
14.6013129521
 31
0.0
  0
LINE
  5
39B
100
AcDbEntity
  8
0
100
AcDbLine
 62
7
  6
CONTINUOUS
 10
-8.0476295718
 20
14.6013129521
 30
0.0
 11
-8.988902827
 21
14.6013129521
 31
0.0
  0
LINE
  5
39C
100
AcDbEntity
  8
0
100
AcDbLine
 62
7
  6
CONTINUOUS
 10
-8.0476295718
 20
14.6537207314
 30
0.0
 11
-5.7476295718
 21
14.6537207314
 31
0.0
  0
LINE
  5
39D
100
AcDbEntity
  8
0
100
AcDbLine
 62
7
  6
CONTINUOUS
 10
-3.3476295718
 20
14.6537207314
 30
0.0
 11
-1.0476295718
 21
14.6537207314
 31
0.0
  0
LINE
  5
39E
100
AcDbEntity
  8
RACCORDO
100
AcDbLine
 62
7
  6
CONTINUOUS
 10
-15.1971374182
 20
14.6799246211
 30
0.0
 11
-14.8975720601
 21
14.6799246211
 31
0.0
  0
LINE
  5
39F
100
AcDbEntity
  8
RACCORDO
100
AcDbLine
 62
7
  6
CONTINUOUS
 10
-11.5976870834
 20
14.6799246211
 30
0.0
 11
-8.9976295718
 21
14.6799246211
 31
0.0
  0
LINE
  5
3A0
100
AcDbEntity
  8
RACCORDO
100
AcDbLine
 62
7
  6
CONTINUOUS
 10
-0.0976295718
 20
14.6799246211
 30
0.0
 11
2.5024279399
 21
14.6799246211
 31
0.0
  0
LINE
  5
3A1
100
AcDbEntity
  8
0
100
AcDbLine
 62
7
  6
CONTINUOUS
 10
-3.5476295718
 20
14.6799246211
 30
0.0
 11
-5.5476295718
 21
14.6799246211
 31
0.0
  0
LINE
  5
3A2
100
AcDbEntity
  8
RACCORDO
100
AcDbLine
 62
7
  6
CONTINUOUS
 10
5.8023129166
 20
14.6799246211
 30
0.0
 11
6.1018782747
 21
14.6799246211
 31
0.0
  0
LINE
  5
3A3
100
AcDbEntity
  8
0
100
AcDbLine
 62
250
  6
CONTINUOUS
 10
2.715469007
 20
16.5168302731
 30
0.0
 11
2.7023704282
 21
16.5299288519
 31
0.0
  0
LINE
  5
3A4
100
AcDbEntity
  8
0
100
AcDbLine
 62
250
  6
CONTINUOUS
 10
2.9654647762
 20
16.7668260423
 30
0.0
 11
2.9523661975
 21
16.7799246211
 31
0.0
  0
LINE
  5
3A5
100
AcDbEntity
  8
RACCORDO
100
AcDbLine
 62
250
  6
CONTINUOUS
 10
-14.4403530536
 20
14.7911058655
 30
0.0
 11
-12.0549060899
 21
14.7911058655
 31
0.0
  0
LINE
  5
3A6
100
AcDbEntity
  8
RACCORDO
100
AcDbLine
 62
250
  6
CONTINUOUS
 10
2.9596469464
 20
14.7911058655
 30
0.0
 11
5.3450939101
 21
14.7911058655
 31
0.0
  0
LINE
  5
3A7
100
AcDbEntity
  8
0
100
AcDbLine
 62
7
  6
CONTINUOUS
 10
-14.4403530536
 20
15.4025743519
 30
0.0
 11
-12.0549060899
 21
15.4025743519
 31
0.0
  0
LINE
  5
3A8
100
AcDbEntity
  8
0
100
AcDbLine
 62
7
  6
CONTINUOUS
 10
5.3450939101
 20
15.4025743519
 30
0.0
 11
2.9596469464
 21
15.4025743519
 31
0.0
  0
LINE
  5
3A9
100
AcDbEntity
  8
0
100
AcDbLine
 62
250
  6
CONTINUOUS
 10
-14.4345352238
 20
15.9077558374
 30
0.0
 11
-12.0607239197
 21
15.9077558374
 31
0.0
  0
LINE
  5
3AA
100
AcDbEntity
  8
0
100
AcDbLine
 62
250
  6
CONTINUOUS
 10
2.9654647762
 20
15.9077558374
 30
0.0
 11
5.3392760803
 21
15.9077558374
 31
0.0
  0
LINE
  5
3AB
100
AcDbEntity
  8
0
100
AcDbLine
 62
250
  6
CONTINUOUS
 10
-1.0476295718
 20
16.0781758874
 30
0.0
 11
-3.5476295718
 21
16.0781758874
 31
0.0
  0
LINE
  5
3AC
100
AcDbEntity
  8
0
100
AcDbLine
 62
250
  6
CONTINUOUS
 10
-5.5476295718
 20
16.0781758874
 30
0.0
 11
-8.0476295718
 21
16.0781758874
 31
0.0
  0
LINE
  5
3AD
100
AcDbEntity
  8
0
100
AcDbLine
 62
250
  6
CONTINUOUS
 10
2.715469007
 20
16.1242621884
 30
0.0
 11
5.5892718495
 21
16.1242621884
 31
0.0
  0
LINE
  5
3AE
100
AcDbEntity
  8
0
100
AcDbLine
 62
250
  6
CONTINUOUS
 10
-11.8107281505
 20
16.1242621884
 30
0.0
 11
-14.684530993
 21
16.1242621884
 31
0.0
  0
LINE
  5
3AF
100
AcDbEntity
  8
0
100
AcDbLine
 62
7
  6
CONTINUOUS
 10
-8.988902827
 20
16.2711978763
 30
0.0
 11
-8.0476295718
 21
16.2711978763
 31
0.0
  0
LINE
  5
3B0
100
AcDbEntity
  8
0
100
AcDbLine
 62
7
  6
CONTINUOUS
 10
-1.0476295718
 20
16.2711978763
 30
0.0
 11
-0.1063563165
 21
16.2711978763
 31
0.0
  0
LINE
  5
3B1
100
AcDbEntity
  8
0
100
AcDbLine
 62
7
  6
CONTINUOUS
 10
-1.0476295718
 20
16.2781725028
 30
0.0
 11
-3.3476295718
 21
16.2781725028
 31
0.0
  0
LINE
  5
3B2
100
AcDbEntity
  8
0
100
AcDbLine
 62
7
  6
CONTINUOUS
 10
-5.7476295718
 20
16.2781725028
 30
0.0
 11
-8.0476295718
 21
16.2781725028
 31
0.0
  0
LINE
  5
3B3
100
AcDbEntity
  8
0
100
AcDbLine
 62
7
  6
CONTINUOUS
 10
-8.9976295718
 20
16.2799246211
 30
0.0
 11
-8.0476295718
 21
16.2799246211
 31
0.0
  0
LINE
  5
3B4
100
AcDbEntity
  8
0
100
AcDbLine
 62
7
  6
CONTINUOUS
 10
-1.0476295718
 20
16.2799246211
 30
0.0
 11
-0.0976295718
 21
16.2799246211
 31
0.0
  0
LINE
  5
3B5
100
AcDbEntity
  8
0
100
AcDbLine
 62
250
  6
CONTINUOUS
 10
2.715469007
 20
16.5168302731
 30
0.0
 11
5.5892718495
 21
16.5168302731
 31
0.0
  0
LINE
  5
3B6
100
AcDbEntity
  8
0
100
AcDbLine
 62
250
  6
CONTINUOUS
 10
-11.8107281505
 20
16.5168302731
 30
0.0
 11
-14.684530993
 21
16.5168302731
 31
0.0
  0
LINE
  5
3B7
100
AcDbEntity
  8
0
100
AcDbLine
 62
7
  6
CONTINUOUS
 10
5.3392760803
 20
16.7668260423
 30
0.0
 11
2.9654647762
 21
16.7668260423
 31
0.0
  0
LINE
  5
3B8
100
AcDbEntity
  8
0
100
AcDbLine
 62
7
  6
CONTINUOUS
 10
-12.0607239197
 20
16.7668260423
 30
0.0
 11
-14.4345352238
 21
16.7668260423
 31
0.0
  0
LINE
  5
3B9
100
AcDbEntity
  8
0
100
AcDbLine
 62
7
  6
CONTINUOUS
 10
5.352374659
 20
16.7799246211
 30
0.0
 11
2.9523661975
 21
16.7799246211
 31
0.0
  0
LINE
  5
3BA
100
AcDbEntity
  8
0
100
AcDbLine
 62
7
  6
CONTINUOUS
 10
-12.047625341
 20
16.7799246211
 30
0.0
 11
-14.4476338025
 21
16.7799246211
 31
0.0
  0
LWPOLYLINE
  5
3BB
100
AcDbEntity
  8
0
100
AcDbPolyline
 62
7
  6
CONTINUOUS
 90
6
 70
0
 43
0.3500000006
 10
-2.4047724981
 20
25.5299268036
 10
-1.3333438425
 20
25.5299268036
 10
-1.1190581539
 20
25.7442112885
 10
-1.1190581539
 20
26.8156382446
 10
-1.547629602
 20
27.2442117462
 10
-1.9762009792
 20
27.2442117462
  0
LWPOLYLINE
  5
3BC
100
AcDbEntity
  8
0
100
AcDbPolyline
 62
7
  6
CONTINUOUS
 90
7
 70
0
 43
0.3500000006
 10
-4.9762007618
 20
25.5299268036
 10
-6.4762012196
 20
25.5299268036
 10
-4.9762007618
 20
27.6727807159
 10
-4.9762007618
 20
28.1013542175
 10
-5.4047725639
 20
28.5299231873
 10
-6.0476294174
 20
28.5299231873
 10
-6.4762012196
 20
27.8870697327
  0
LWPOLYLINE
  5
3BD
100
AcDbEntity
  8
0
100
AcDbPolyline
 62
7
  6
CONTINUOUS
 90
7
 70
0
 43
0.3500000006
 10
-7.3333436909
 20
25.5299268036
 10
-8.8333435822
 20
25.5299268036
 10
-7.3333436909
 20
27.6727807159
 10
-7.3333436909
 20
28.1013542175
 10
-7.761915493
 20
28.5299231873
 10
-8.4047723465
 20
28.5299231873
 10
-8.8333435822
 20
27.8870697327
  0
LWPOLYLINE
  5
3BE
100
AcDbEntity
  8
0
100
AcDbPolyline
 62
7
  6
CONTINUOUS
 90
5
 70
0
 43
0.3500000006
 10
-53.3236317902
 20
37.2442102661
 10
-52.9664894714
 20
37.458494751
 10
-52.9664894714
 20
38.1013527374
 10
-53.3236317902
 20
38.529926239
 10
-54.1807742615
 20
38.529926239
  0
LWPOLYLINE
  5
3BF
100
AcDbEntity
  8
0
100
AcDbPolyline
 62
7
  6
CONTINUOUS
 90
5
 70
0
 43
0.3500000006
 10
-51.1807733459
 20
37.2442102661
 10
-50.8236310272
 20
37.458494751
 10
-50.8236310272
 20
38.1013527374
 10
-51.1807733459
 20
38.529926239
 10
-52.0379158173
 20
38.529926239
  0
LWPOLYLINE
  5
3C0
100
AcDbEntity
  8
0
100
AcDbPolyline
 62
7
  6
CONTINUOUS
 90
5
 70
0
 43
0.3500000006
 10
-42.2522017822
 20
27.2442117462
 10
-41.8950594635
 20
27.4584962311
 10
-41.8950594635
 20
28.1013542175
 10
-42.2522017822
 20
28.5299231873
 10
-43.1093487854
 20
28.5299231873
  0
LINE
  5
3C1
100
AcDbEntity
  8
0
100
AcDbLine
 62
250
  6
CONTINUOUS
 10
-58.4022037422
 20
15.6904097693
 30
0.0
 11
-57.6507493094
 21
16.1242621884
 31
0.0
  0
LINE
  5
3C2
100
AcDbEntity
  8
0
100
AcDbLine
 62
7
  6
CONTINUOUS
 10
-58.4022037422
 20
15.4025743519
 30
0.0
 11
-57.5272037422
 21
15.9077558374
 31
0.0
  0
LINE
  5
3C3
100
AcDbEntity
  8
0
100
AcDbLine
 62
7
  6
CONTINUOUS
 10
-58.4022037422
 20
-32.2200753789
 30
0.0
 11
-57.6507493094
 21
-32.2157035449
 31
0.0
  0
LINE
  5
3C4
100
AcDbEntity
  8
0
100
AcDbLine
 62
250
  6
CONTINUOUS
 10
-58.4022037422
 20
-31.9700796097
 30
0.0
 11
-57.6507493094
 21
-31.9657077757
 31
0.0
  0
LINE
  5
3C5
100
AcDbEntity
  8
0
100
AcDbLine
 62
7
  6
CONTINUOUS
 10
-50.8992948765
 20
-31.6764247321
 30
0.0
 11
-57.4022037422
 21
-31.7142575491
 31
0.0
  0
LINE
  5
3C6
100
AcDbEntity
  8
0
100
AcDbLine
 62
250
  6
CONTINUOUS
 10
-57.4022037422
 20
-31.9657077757
 30
0.0
 11
-57.6507493094
 21
-31.9657077757
 31
0.0
  0
LINE
  5
3C7
100
AcDbEntity
  8
0
100
AcDbLine
 62
250
  6
CONTINUOUS
 10
-60.9022037422
 20
-31.956981031
 30
0.0
 11
-60.653658175
 21
-31.956981031
 31
0.0
  0
LINE
  5
3C8
100
AcDbEntity
  8
0
100
AcDbLine
 62
250
  6
CONTINUOUS
 10
-60.9022037422
 20
-31.5644129462
 30
0.0
 11
-60.653658175
 21
-31.5644129462
 31
0.0
  0
LINE
  5
3C9
100
AcDbEntity
  8
0
100
AcDbLine
 62
250
  6
CONTINUOUS
 10
-57.4022037422
 20
-31.5644129462
 30
0.0
 11
-57.6507493094
 21
-31.5644129462
 31
0.0
  0
LINE
  5
3CA
100
AcDbEntity
  8
0
100
AcDbLine
 62
7
  6
CONTINUOUS
 10
-60.653658175
 20
-32.2069768002
 30
0.0
 11
-58.4022037422
 21
-32.2200753789
 31
0.0
  0
LINE
  5
3CB
100
AcDbEntity
  8
0
100
AcDbLine
 62
250
  6
CONTINUOUS
 10
-60.653658175
 20
-31.956981031
 30
0.0
 11
-58.4022037422
 21
-31.9700796097
 31
0.0
  0
LINE
  5
3CC
100
AcDbEntity
  8
0
100
AcDbLine
 62
250
  6
CONTINUOUS
 10
-57.6507493094
 20
-31.5644129462
 30
0.0
 11
-58.4022037422
 21
-31.1305605271
 31
0.0
  0
LINE
  5
3CD
100
AcDbEntity
  8
0
100
AcDbLine
 62
7
  6
CONTINUOUS
 10
-57.5272037422
 20
-31.3479065953
 30
0.0
 11
-58.4022037422
 21
-30.8427251097
 31
0.0
  0
LINE
  5
3CE
100
AcDbEntity
  8
0
100
AcDbLine
 62
7
  6
CONTINUOUS
 10
-58.4022035669
 20
-30.1200753779
 30
0.0
 11
-57.4022037422
 21
-30.1142575491
 31
0.0
  0
LINE
  5
3CF
100
AcDbEntity
  8
DRAFT
100
AcDbLine
 62
7
  6
CONTINUOUS
 10
-47.3963860108
 20
-30.0560454044
 30
0.0
 11
-57.4022037422
 21
-30.1142575491
 31
0.0
  0
LINE
  5
3D0
100
AcDbEntity
  8
0
100
AcDbLine
 62
250
  6
CONTINUOUS
 10
-58.4022037422
 20
-29.620092302
 30
0.0
 11
-57.4022037422
 21
-29.6142744722
 31
0.0
  0
LINE
  5
3D1
100
AcDbEntity
  8
RACCORDO
100
AcDbLine
 62
250
  6
CONTINUOUS
 10
-58.4022037422
 20
-30.3202888693
 30
0.0
 11
-59.653658175
 21
-30.2547029216
 31
0.0
  0
LINE
  5
3D2
100
AcDbEntity
  8
0
100
AcDbLine
 62
7
  6
CONTINUOUS
 10
-64.8854408113
 20
-29.7803033216
 30
0.0
 11
-58.4022037422
 21
-30.1200753789
 31
0.0
  0
LINE
  5
3D3
100
AcDbEntity
  8
0
100
AcDbLine
 62
250
  6
CONTINUOUS
 10
-64.8680944858
 20
-29.2809835519
 30
0.0
 11
-58.4021808988
 21
-29.619847724
 31
0.0
  0
LINE
  5
3D4
100
AcDbEntity
  8
0
100
AcDbLine
 62
7
  6
CONTINUOUS
 10
-46.4022037422
 20
-28.6200753789
 30
0.0
 11
-57.4022037422
 21
-28.6200753789
 31
0.0
  0
LINE
  5
3D5
100
AcDbEntity
  8
DRAFT
100
AcDbLine
 62
7
  6
CONTINUOUS
 10
-46.893477539
 20
-29.1738108061
 30
0.0
 11
-57.4022037422
 21
-29.1200753789
 31
0.0
  0
LINE
  5
3D6
100
AcDbEntity
  8
RACCORDO
100
AcDbLine
 62
7
  6
CONTINUOUS
 10
-46.4022037422
 20
-27.4200753789
 30
0.0
 11
-57.4022037422
 21
-25.4804785911
 31
0.0
  0
LWPOLYLINE
  5
3D7
100
AcDbEntity
  8
0
100
AcDbPolyline
 62
7
  6
CONTINUOUS
 90
3
 70
0
 43
0.3500000006
 10
-49.1807772675
 20
35.8156409912
 10
-49.2522039185
 20
35.6013519745
 10
-49.3950617523
 20
35.3156408386
  0
LINE
  5
3D8
100
AcDbEntity
  8
RACCORDO
100
AcDbLine
 62
7
  6
CONTINUOUS
 10
-55.8022037422
 20
3.7799246211
 30
0.0
 11
-56.0143357766
 21
3.5677925867
 31
0.0
  0
LINE
  5
3D9
100
AcDbEntity
  8
Z030100_COP
100
AcDbLine
 62
7
  6
CONTINUOUS
 10
-38.9022037422
 20
-19.3700753789
 30
0.0
 11
-45.7022037422
 21
-19.3700753789
 31
0.0
  0
LINE
  5
3DA
100
AcDbEntity
  8
Z030100_COP
100
AcDbLine
 62
7
  6
CONTINUOUS
 10
-46.5022037422
 20
-19.3700753789
 30
0.0
 11
-53.3022037422
 21
-19.3700753789
 31
0.0
  0
LINE
  5
3DB
100
AcDbEntity
  8
0
100
AcDbLine
 62
7
  6
CONTINUOUS
 10
-60.9022037422
 20
-31.956981031
 30
0.0
 11
-60.9022037422
 21
-31.5644129462
 31
0.0
  0
LINE
  5
3DC
100
AcDbEntity
  8
0
100
AcDbLine
 62
7
  6
CONTINUOUS
 10
-60.9022037422
 20
16.1242621884
 30
0.0
 11
-60.9022037422
 21
16.5168302731
 31
0.0
  0
LINE
  5
3DD
100
AcDbEntity
  8
0
100
AcDbLine
 62
250
  6
CONTINUOUS
 10
-60.653658175
 20
-31.956981031
 30
0.0
 11
-60.653658175
 21
-31.5644129462
 31
0.0
  0
LINE
  5
3DE
100
AcDbEntity
  8
0
100
AcDbLine
 62
250
  6
CONTINUOUS
 10
-60.653658175
 20
16.1242621884
 30
0.0
 11
-60.653658175
 21
16.5168302731
 31
0.0
  0
LINE
  5
3DF
100
AcDbEntity
  8
0
100
AcDbLine
 62
7
  6
CONTINUOUS
 10
-59.9022037422
 20
-30.8427251097
 30
0.0
 11
-59.9022037422
 21
-30.2312566234
 31
0.0
  0
LINE
  5
3E0
100
AcDbEntity
  8
RACCORDO
100
AcDbLine
 62
7
  6
CONTINUOUS
 10
-59.9022037422
 20
-30.8427251097
 30
0.0
 11
-59.9022037422
 21
-30.2312566234
 31
0.0
  0
LINE
  5
3E1
100
AcDbEntity
  8
0
100
AcDbLine
 62
7
  6
CONTINUOUS
 10
-59.9022037422
 20
14.7911058655
 30
0.0
 11
-59.9022037422
 21
15.4025743519
 31
0.0
  0
LINE
  5
3E2
100
AcDbEntity
  8
RACCORDO
100
AcDbLine
 62
7
  6
CONTINUOUS
 10
-59.9022037422
 20
14.7911058655
 30
0.0
 11
-59.9022037422
 21
15.4025743519
 31
0.0
  0
LINE
  5
3E3
100
AcDbEntity
  8
RACCORDO
100
AcDbLine
 62
7
  6
CONTINUOUS
 10
-57.4022037422
 20
-18.5511331234
 30
0.0
 11
-55.0022037422
 21
-18.5301886407
 31
0.0
  0
LINE
  5
3E4
100
AcDbEntity
  8
RACCORDO
100
AcDbLine
 62
250
  6
CONTINUOUS
 10
-57.4022037422
 20
-18.0511521619
 30
0.0
 11
-55.0022037422
 21
-18.0302076792
 31
0.0
  0
LINE
  5
3E5
100
AcDbEntity
  8
Z030100_COP
100
AcDbLine
 62
250
  6
CONTINUOUS
 10
-38.6022037422
 20
-19.0700753789
 30
0.0
 11
-46.0022037422
 21
-19.0700753789
 31
0.0
  0
LINE
  5
3E6
100
AcDbEntity
  8
Z030100_COP
100
AcDbLine
 62
250
  6
CONTINUOUS
 10
-46.2022037422
 20
-19.0700753789
 30
0.0
 11
-53.6022037422
 21
-19.0700753789
 31
0.0
  0
LINE
  5
3E7
100
AcDbEntity
  8
0
100
AcDbLine
 62
7
  6
CONTINUOUS
 10
-38.5022037422
 20
-17.6700753789
 30
0.0
 11
-38.6022037422
 21
-17.6700753789
 31
0.0
  0
LINE
  5
3E8
100
AcDbEntity
  8
0
100
AcDbLine
 62
7
  6
CONTINUOUS
 10
-46.0022037422
 20
-17.6700753789
 30
0.0
 11
-46.2022037422
 21
-17.6700753789
 31
0.0
  0
LINE
  5
3E9
100
AcDbEntity
  8
0
100
AcDbLine
 62
7
  6
CONTINUOUS
 10
-53.6022037422
 20
-17.6700753789
 30
0.0
 11
-53.7022037422
 21
-17.6700753789
 31
0.0
  0
LINE
  5
3EA
100
AcDbEntity
  8
RACCORDO
100
AcDbLine
 62
250
  6
CONTINUOUS
 10
-59.653658175
 20
-30.987062677
 30
0.0
 11
-59.653658175
 21
-30.2547029216
 31
0.0
  0
LINE
  5
3EB
100
AcDbEntity
  8
RACCORDO
100
AcDbLine
 62
250
  6
CONTINUOUS
 10
-59.653658175
 20
14.8145521637
 30
0.0
 11
-59.653658175
 21
15.5469119192
 31
0.0
  0
LINE
  5
3EC
100
AcDbEntity
  8
0
100
AcDbLine
 62
7
  6
CONTINUOUS
 10
-58.4022037422
 20
16.5299288519
 30
0.0
 11
-58.4022037422
 21
15.6904097693
 31
0.0
  0
LINE
  5
3ED
100
AcDbEntity
  8
0
100
AcDbLine
 62
7
  6
CONTINUOUS
 10
-58.4022037422
 20
14.1799415441
 30
0.0
 11
-58.4022037422
 21
13.8799246211
 31
0.0
  0
LINE
  5
3EE
100
AcDbEntity
  8
0
100
AcDbLine
 62
7
  6
CONTINUOUS
 10
-58.4022037422
 20
-29.620092302
 30
0.0
 11
-58.4022037422
 21
-29.3200753789
 31
0.0
  0
LINE
  5
3EF
100
AcDbEntity
  8
RACCORDO
100
AcDbLine
 62
7
  6
CONTINUOUS
 10
-58.4022037422
 20
-30.1200753789
 30
0.0
 11
-58.4022037422
 21
-31.1305605271
 31
0.0
  0
LINE
  5
3F0
100
AcDbEntity
  8
0
100
AcDbLine
 62
7
  6
CONTINUOUS
 10
-58.4022037422
 20
-31.1305605271
 30
0.0
 11
-58.4022037422
 21
-31.9700796097
 31
0.0
  0
LINE
  5
3F1
100
AcDbEntity
  8
RACCORDO
100
AcDbLine
 62
7
  6
CONTINUOUS
 10
-58.4022037422
 20
14.6799246211
 30
0.0
 11
-58.4022037422
 21
15.6904097693
 31
0.0
  0
LINE
  5
3F2
100
AcDbEntity
  8
0
100
AcDbLine
 62
250
  6
CONTINUOUS
 10
-66.320762057
 20
-17.2105753789
 30
0.0
 11
-66.811945594
 21
-17.2200753789
 31
0.0
  0
LINE
  5
3F3
100
AcDbEntity
  8
RACCORDO
100
AcDbLine
 62
7
  6
CONTINUOUS
 10
-57.4022037422
 20
-16.5511331234
 30
0.0
 11
-55.1013310887
 21
-16.5310537119
 31
0.0
  0
LINE
  5
3F4
100
AcDbEntity
  8
RACCORDO
100
AcDbLine
 62
250
  6
CONTINUOUS
 10
-57.4022037422
 20
-16.451427792
 30
0.0
 11
-55.1995976992
 21
-16.4322059403
 31
0.0
  0
LINE
  5
3F5
100
AcDbEntity
  8
0
100
AcDbLine
 62
7
  6
CONTINUOUS
 10
-38.5022037422
 20
-16.9700753789
 30
0.0
 11
-38.6022037422
 21
-16.9700753789
 31
0.0
  0
LINE
  5
3F6
100
AcDbEntity
  8
0
100
AcDbLine
 62
7
  6
CONTINUOUS
 10
-46.0022037422
 20
-16.9700753789
 30
0.0
 11
-46.2022037422
 21
-16.9700753789
 31
0.0
  0
LINE
  5
3F7
100
AcDbEntity
  8
0
100
AcDbLine
 62
7
  6
CONTINUOUS
 10
-53.6022037422
 20
-16.9700753789
 30
0.0
 11
-53.7022037422
 21
-16.9700753789
 31
0.0
  0
LINE
  5
3F8
100
AcDbEntity
  8
0
100
AcDbLine
 62
7
  6
CONTINUOUS
 10
-55.3022037422
 20
-15.7700753789
 30
0.0
 11
-53.9022037422
 21
-15.7700753789
 31
0.0
  0
LINE
  5
3F9
100
AcDbEntity
  8
RACCORDO
100
AcDbLine
 62
250
  6
CONTINUOUS
 10
-55.1995976992
 20
-15.8079448176
 30
0.0
 11
-57.4022037422
 21
-15.7887229659
 31
0.0
  0
LINE
  5
3FA
100
AcDbEntity
  8
RACCORDO
100
AcDbLine
 62
7
  6
CONTINUOUS
 10
-55.3022037422
 20
-15.7073440568
 30
0.0
 11
-57.4022037422
 21
-15.6890176345
 31
0.0
  0
LINE
  5
3FB
100
AcDbEntity
  8
0
100
AcDbLine
 62
250
  6
CONTINUOUS
 10
-57.6507493094
 20
16.5255570179
 30
0.0
 11
-57.6507493094
 21
16.1242621884
 31
0.0
  0
LINE
  5
3FC
100
AcDbEntity
  8
0
100
AcDbLine
 62
250
  6
CONTINUOUS
 10
-57.6507493094
 20
-31.5644129462
 30
0.0
 11
-57.6507493094
 21
-31.9657077757
 31
0.0
  0
LINE
  5
3FD
100
AcDbEntity
  8
0
100
AcDbLine
 62
7
  6
CONTINUOUS
 10
-57.4022037422
 20
16.5255570179
 30
0.0
 11
-57.4022037422
 21
16.1242621884
 31
0.0
  0
LINE
  5
3FE
100
AcDbEntity
  8
0
100
AcDbLine
 62
7
  6
CONTINUOUS
 10
-57.4022037422
 20
-31.5644129462
 30
0.0
 11
-57.4022037422
 21
-31.9657077757
 31
0.0
  0
LINE
  5
3FF
100
AcDbEntity
  8
0
100
AcDbLine
 62
7
  6
CONTINUOUS
 10
-57.4022037422
 20
-30.1142575491
 30
0.0
 11
-57.4022037422
 21
14.6741067913
 31
0.0
  0
LINE
  5
400
100
AcDbEntity
  8
0
100
AcDbLine
 62
7
  6
CONTINUOUS
 10
-56.7022037422
 20
3.4799246211
 30
0.0
 11
-56.7022037422
 21
3.7799246211
 31
0.0
  0
LINE
  5
401
100
AcDbEntity
  8
RACCORDO
100
AcDbLine
 62
250
  6
CONTINUOUS
 10
-56.0995857816
 20
10.0755802264
 30
0.0
 11
-56.0995857816
 21
10.2700145253
 31
0.0
  0
LINE
  5
402
100
AcDbEntity
  8
RACCORDO
100
AcDbLine
 62
7
  6
CONTINUOUS
 10
-56.0022037422
 20
-18.5389155085
 30
0.0
 11
-56.0022037422
 21
-18.620075395
 31
0.0
  0
LINE
  5
403
100
AcDbEntity
  8
RACCORDO
100
AcDbLine
 62
7
  6
CONTINUOUS
 10
-55.8022037422
 20
10.0755802264
 30
0.0
 11
-55.8022037422
 21
10.3224510024
 31
0.0
  0
LINE
  5
404
100
AcDbEntity
  8
0
100
AcDbLine
 62
7
  6
CONTINUOUS
 10
-55.3022037422
 20
-14.2700753789
 30
0.0
 11
-54.9022037422
 21
-14.2700753789
 31
0.0
  0
LINE
  5
405
100
AcDbEntity
  8
RACCORDO
100
AcDbLine
 62
250
  6
CONTINUOUS
 10
-55.0022037422
 20
-14.0073554804
 30
0.0
 11
-55.1013310887
 21
-14.0073554804
 31
0.0
  0
LINE
  5
406
100
AcDbEntity
  8
RACCORDO
100
AcDbLine
 62
250
  6
CONTINUOUS
 10
-57.4022037422
 20
-13.7890138268
 30
0.0
 11
-55.2995857816
 21
-13.8073630957
 31
0.0
  0
LINE
  5
407
100
AcDbEntity
  8
RACCORDO
100
AcDbLine
 62
7
  6
CONTINUOUS
 10
-57.4022037422
 20
-13.6890176345
 30
0.0
 11
-55.2995857816
 21
-13.7073669034
 31
0.0
  0
LINE
  5
408
100
AcDbEntity
  8
0
100
AcDbLine
 62
7
  6
CONTINUOUS
 10
-55.3022037422
 20
-15.7700753789
 30
0.0
 11
-55.3022037422
 21
-14.2700753789
 31
0.0
  0
LINE
  5
409
100
AcDbEntity
  8
0
100
AcDbLine
 62
7
  6
CONTINUOUS
 10
-55.3022037422
 20
-1.1700753789
 30
0.0
 11
-55.3022037422
 21
0.3299246211
 31
0.0
  0
LINE
  5
40A
100
AcDbEntity
  8
RACCORDO
100
AcDbLine
 62
250
  6
CONTINUOUS
 10
-55.1995976992
 20
4.5920551824
 30
0.0
 11
-55.1995976992
 21
3.7799246211
 31
0.0
  0
LINE
  5
40B
100
AcDbEntity
  8
RACCORDO
100
AcDbLine
 62
250
  6
CONTINUOUS
 10
-55.1995976992
 20
-7.4079448176
 30
0.0
 11
-55.1995976992
 21
-8.0322059403
 31
0.0
  0
LINE
  5
40C
100
AcDbEntity
  8
RACCORDO
100
AcDbLine
 62
250
  6
CONTINUOUS
 10
-55.1995976992
 20
-15.8079448176
 30
0.0
 11
-55.1995976992
 21
-16.4322059403
 31
0.0
  0
LINE
  5
40D
100
AcDbEntity
  8
RACCORDO
100
AcDbLine
 62
250
  6
CONTINUOUS
 10
-55.1013310887
 20
-14.0073554804
 30
0.0
 11
-55.1013310887
 21
-14.2700753789
 31
0.0
  0
LINE
  5
40E
100
AcDbEntity
  8
RACCORDO
100
AcDbLine
 62
7
  6
CONTINUOUS
 10
-55.0022037422
 20
6.1900378828
 30
0.0
 11
-55.0022037422
 21
3.7799246211
 31
0.0
  0
LINE
  5
40F
100
AcDbEntity
  8
RACCORDO
100
AcDbLine
 62
7
  6
CONTINUOUS
 10
-55.0022037422
 20
-7.4090932382
 30
0.0
 11
-55.0022037422
 21
-8.0310575196
 31
0.0
  0
LINE
  5
410
100
AcDbEntity
  8
RACCORDO
100
AcDbLine
 62
7
  6
CONTINUOUS
 10
-55.0022037422
 20
-14.0073554804
 30
0.0
 11
-55.0022037422
 21
-14.2700753789
 31
0.0
  0
LINE
  5
411
100
AcDbEntity
  8
RACCORDO
100
AcDbLine
 62
7
  6
CONTINUOUS
 10
-55.0022037422
 20
-15.7700753789
 30
0.0
 11
-55.0022037422
 21
-18.5301886407
 31
0.0
  0
LINE
  5
412
100
AcDbEntity
  8
0
100
AcDbLine
 62
7
  6
CONTINUOUS
 10
-54.9022037422
 20
-1.1700753789
 30
0.0
 11
-54.9022037422
 21
-14.2700753789
 31
0.0
  0
LINE
  5
413
100
AcDbEntity
  8
0
100
AcDbLine
 62
7
  6
CONTINUOUS
 10
-53.9022037422
 20
-1.0700753789
 30
0.0
 11
-53.9022037422
 21
-15.7700753789
 31
0.0
  0
LWPOLYLINE
  5
414
100
AcDbEntity
  8
0
100
AcDbPolyline
 62
7
  6
CONTINUOUS
 90
3
 70
0
 43
0.3500000006
 10
-44.1093445587
 20
25.8156379395
 10
-44.1807757416
 20
25.6013534546
 10
-44.3236335754
 20
25.3156377869
  0
LINE
  5
415
100
AcDbEntity
  8
0
100
AcDbLine
 62
7
  6
CONTINUOUS
 10
-51.8522037422
 20
-12.1700753789
 30
0.0
 11
-51.1522037422
 21
-12.1700753789
 31
0.0
  0
LINE
  5
416
100
AcDbEntity
  8
0
100
AcDbLine
 62
7
  6
CONTINUOUS
 10
-48.2522037422
 20
-12.1700753789
 30
0.0
 11
-47.5522037422
 21
-12.1700753789
 31
0.0
  0
LINE
  5
417
100
AcDbEntity
  8
0
100
AcDbLine
 62
7
  6
CONTINUOUS
 10
-44.6522037422
 20
-12.1700753789
 30
0.0
 11
-43.9522037422
 21
-12.1700753789
 31
0.0
  0
LINE
  5
418
100
AcDbEntity
  8
0
100
AcDbLine
 62
7
  6
CONTINUOUS
 10
-41.0522037422
 20
-12.1700753789
 30
0.0
 11
-40.3522037422
 21
-12.1700753789
 31
0.0
  0
LINE
  5
419
100
AcDbEntity
  8
Z030100_COP
100
AcDbLine
 62
7
  6
CONTINUOUS
 10
-38.6193610297
 20
-12.1700753789
 30
0.0
 11
-39.6272037422
 21
-12.1700753789
 31
0.0
  0
LINE
  5
41A
100
AcDbEntity
  8
Z030100_COP
100
AcDbLine
 62
7
  6
CONTINUOUS
 10
-41.1272037422
 20
-12.1700753789
 30
0.0
 11
-43.4772037422
 21
-12.1700753789
 31
0.0
  0
LINE
  5
41B
100
AcDbEntity
  8
Z030100_COP
100
AcDbLine
 62
7
  6
CONTINUOUS
 10
-44.9772037422
 20
-12.1700753789
 30
0.0
 11
-45.9850464547
 21
-12.1700753789
 31
0.0
  0
LINE
  5
41C
100
AcDbEntity
  8
Z030100_COP
100
AcDbLine
 62
7
  6
CONTINUOUS
 10
-46.2193610297
 20
-12.1700753789
 30
0.0
 11
-47.2272037422
 21
-12.1700753789
 31
0.0
  0
LINE
  5
41D
100
AcDbEntity
  8
Z030100_COP
100
AcDbLine
 62
7
  6
CONTINUOUS
 10
-48.7272037422
 20
-12.1700753789
 30
0.0
 11
-51.0772037422
 21
-12.1700753789
 31
0.0
  0
LINE
  5
41E
100
AcDbEntity
  8
Z030100_COP
100
AcDbLine
 62
7
  6
CONTINUOUS
 10
-52.5772037422
 20
-12.1700753789
 30
0.0
 11
-53.5850464547
 21
-12.1700753789
 31
0.0
  0
LINE
  5
41F
100
AcDbEntity
  8
0
100
AcDbLine
 62
7
  6
CONTINUOUS
 10
-38.5022037422
 20
-12.0700753789
 30
0.0
 11
-53.7022037422
 21
-12.0700753789
 31
0.0
  0
LINE
  5
420
100
AcDbEntity
  8
0
100
AcDbLine
 62
7
  6
CONTINUOUS
 10
-53.7022037422
 20
-17.6700753789
 30
0.0
 11
-53.7022037422
 21
-1.0700753789
 31
0.0
  0
LINE
  5
421
100
AcDbEntity
  8
Z030100_COP
100
AcDbLine
 62
7
  6
CONTINUOUS
 10
-53.6022037422
 20
-19.0700753789
 30
0.0
 11
-53.6022037422
 21
-12.4700753789
 31
0.0
  0
LINE
  5
422
100
AcDbEntity
  8
Z030100_COP
100
AcDbLine
 62
250
  6
CONTINUOUS
 10
-53.3022037422
 20
-19.3700753789
 30
0.0
 11
-53.3022037422
 21
-12.1700753789
 31
0.0
  0
LINE
  5
423
100
AcDbEntity
  8
0
100
AcDbLine
 62
7
  6
CONTINUOUS
 10
-51.8522037422
 20
-13.9692675208
 30
0.0
 11
-51.8522037422
 21
-12.1700753789
 31
0.0
  0
LINE
  5
424
100
AcDbEntity
  8
Z030100_COP
100
AcDbLine
 62
7
  6
CONTINUOUS
 10
-52.5772037422
 20
-12.1700753789
 30
0.0
 11
-52.3187967102
 21
-13.5613790143
 31
0.0
  0
LINE
  5
425
100
AcDbEntity
  8
SMUSSO
100
AcDbLine
 62
7
  6
CONTINUOUS
 10
-51.6822037422
 20
-12.1700753789
 30
0.0
 11
-51.6822037422
 21
-13.9485455324
 31
0.0
  0
LINE
  5
426
100
AcDbEntity
  8
SMUSSO
100
AcDbLine
 62
7
  6
CONTINUOUS
 10
-51.5422037422
 20
-12.1700753789
 30
0.0
 11
-51.5422037422
 21
-13.8804531207
 31
0.0
  0
LINE
  5
427
100
AcDbEntity
  8
0
100
AcDbLine
 62
7
  6
CONTINUOUS
 10
-51.1522037422
 20
-12.5738870393
 30
0.0
 11
-51.1522037422
 21
-12.1700753789
 31
0.0
  0
LINE
  5
428
100
AcDbEntity
  8
0
100
AcDbLine
 62
7
  6
CONTINUOUS
 10
-50.9022037422
 20
-31.1613938462
 30
0.0
 11
-50.9022037422
 21
-30.5787569116
 31
0.0
  0
LINE
  5
429
100
AcDbEntity
  8
0
100
AcDbLine
 62
7
  6
CONTINUOUS
 10
-50.9022037422
 20
15.1386061538
 30
0.0
 11
-50.9022037422
 21
15.7212430884
 31
0.0
  0
LINE
  5
42A
100
AcDbEntity
  8
0
100
AcDbLine
 62
250
  6
CONTINUOUS
 10
-50.8526107714
 20
16.2338168941
 30
0.0
 11
-50.8526107714
 21
14.636002374
 31
0.0
  0
LINE
  5
42B
100
AcDbEntity
  8
0
100
AcDbLine
 62
250
  6
CONTINUOUS
 10
-50.8526107714
 20
-30.0761531319
 30
0.0
 11
-50.8526107714
 21
-31.673967652
 31
0.0
  0
LINE
  5
42C
100
AcDbEntity
  8
0
100
AcDbLine
 62
7
  6
CONTINUOUS
 10
-50.4022037422
 20
15.7362824358
 30
0.0
 11
-50.4022037422
 21
14.6333871532
 31
0.0
  0
LINE
  5
42D
100
AcDbEntity
  8
0
100
AcDbLine
 62
7
  6
CONTINUOUS
 10
-50.4022037422
 20
-30.0735379111
 30
0.0
 11
-50.4022037422
 21
-31.1764331936
 31
0.0
  0
LINE
  5
42E
100
AcDbEntity
  8
Z030100_COP
100
AcDbLine
 62
7
  6
CONTINUOUS
 10
-51.3356107742
 20
-13.5613790143
 30
0.0
 11
-51.0772037422
 21
-12.1700753789
 31
0.0
  0
LINE
  5
42F
100
AcDbEntity
  8
RACCORDO
100
AcDbLine
 62
7
  6
CONTINUOUS
 10
-55.1015260777
 20
-8.1310554136
 30
0.0
 11
-57.4022037422
 21
-8.1511331234
 31
0.0
  0
LINE
  5
430
100
AcDbEntity
  8
RACCORDO
100
AcDbLine
 62
250
  6
CONTINUOUS
 10
-55.1995976992
 20
-8.0322059403
 30
0.0
 11
-57.4022037422
 21
-8.051427792
 31
0.0
  0
LINE
  5
431
100
AcDbEntity
  8
0
100
AcDbLine
 62
7
  6
CONTINUOUS
 10
-38.5022037422
 20
-8.4700753789
 30
0.0
 11
-53.7022037422
 21
-8.4700753789
 31
0.0
  0
LINE
  5
432
100
AcDbEntity
  8
RACCORDO
100
AcDbLine
 62
7
  6
CONTINUOUS
 10
-33.1022037422
 20
-8.3700753789
 30
0.0
 11
-38.3022037422
 21
-8.3700753789
 31
0.0
  0
LINE
  5
433
100
AcDbEntity
  8
0
100
AcDbLine
 62
7
  6
CONTINUOUS
 10
-38.3022037422
 20
-8.3700753789
 30
0.0
 11
-38.5022037422
 21
-8.3700753789
 31
0.0
  0
LINE
  5
434
100
AcDbEntity
  8
0
100
AcDbLine
 62
7
  6
CONTINUOUS
 10
-53.7022037422
 20
-8.3700753789
 30
0.0
 11
-53.9022037422
 21
-8.3700753789
 31
0.0
  0
LINE
  5
435
100
AcDbEntity
  8
0
100
AcDbLine
 62
7
  6
CONTINUOUS
 10
-38.5022037422
 20
-7.9700753789
 30
0.0
 11
-53.7022037422
 21
-7.9700753789
 31
0.0
  0
LINE
  5
436
100
AcDbEntity
  8
0
100
AcDbLine
 62
7
  6
CONTINUOUS
 10
-38.5022037422
 20
-7.4700753789
 30
0.0
 11
-53.7022037422
 21
-7.4700753789
 31
0.0
  0
LINE
  5
437
100
AcDbEntity
  8
RACCORDO
100
AcDbLine
 62
7
  6
CONTINUOUS
 10
-49.4163988952
 20
2.2299246211
 30
0.0
 11
-49.4163988952
 21
0.3299246211
 31
0.0
  0
LINE
  5
438
100
AcDbEntity
  8
0
100
AcDbLine
 62
7
  6
CONTINUOUS
 10
-48.2522037422
 20
-13.8871154671
 30
0.0
 11
-48.2522037422
 21
-12.1700753789
 31
0.0
  0
LWPOLYLINE
  5
439
100
AcDbEntity
  8
0
100
AcDbPolyline
 62
7
  6
CONTINUOUS
 90
4
 70
0
 43
0.3500000006
 10
-48.1807769623
 20
35.9584942932
 10
-48.1807769623
 20
36.8156367645
 10
-47.7522034607
 20
37.2442102661
 10
-47.1093454742
 20
37.2442102661
  0
LINE
  5
43A
100
AcDbEntity
  8
SMUSSO
100
AcDbLine
 62
7
  6
CONTINUOUS
 10
-48.0822037422
 20
-12.1700753789
 30
0.0
 11
-48.0822037422
 21
-13.9588534546
 31
0.0
  0
LINE
  5
43B
100
AcDbEntity
  8
SMUSSO
100
AcDbLine
 62
7
  6
CONTINUOUS
 10
-47.9422037422
 20
-12.1700753789
 30
0.0
 11
-47.9422037422
 21
-13.9684327688
 31
0.0
  0
LINE
  5
43C
100
AcDbEntity
  8
RACCORDO
100
AcDbLine
 62
7
  6
CONTINUOUS
 10
-33.1022037422
 20
-5.9700753789
 30
0.0
 11
-36.8022037422
 21
-5.9700753789
 31
0.0
  0
LINE
  5
43D
100
AcDbEntity
  8
RACCORDO
100
AcDbLine
 62
250
  6
CONTINUOUS
 10
-57.4022037422
 20
-7.3887229659
 30
0.0
 11
-55.1995976992
 21
-7.4079448176
 31
0.0
  0
LINE
  5
43E
100
AcDbEntity
  8
RACCORDO
100
AcDbLine
 62
7
  6
CONTINUOUS
 10
-57.4022037422
 20
-7.2890176345
 30
0.0
 11
-55.1013310887
 21
-7.3090970459
 31
0.0
  0
LINE
  5
43F
100
AcDbEntity
  8
Z030100_COP
100
AcDbLine
 62
7
  6
CONTINUOUS
 10
-48.7272037422
 20
-12.1700753789
 30
0.0
 11
-48.4687967102
 21
-13.5613790143
 31
0.0
  0
LINE
  5
440
100
AcDbEntity
  8
RACCORDO
100
AcDbLine
 62
7
  6
CONTINUOUS
 10
-47.4759667983
 20
3.4576596309
 30
0.0
 11
-47.3022037422
 21
0.3299246211
 31
0.0
  0
LINE
  5
441
100
AcDbEntity
  8
0
100
AcDbLine
 62
7
  6
CONTINUOUS
 10
-47.5522037422
 20
-13.7325840495
 30
0.0
 11
-47.5522037422
 21
-12.1700753789
 31
0.0
  0
LINE
  5
442
100
AcDbEntity
  8
DRAFT
100
AcDbLine
 62
250
  6
CONTINUOUS
 10
-46.893477539
 20
-29.1738108061
 30
0.0
 11
-46.893477539
 21
-28.6200753789
 31
0.0
  0
LINE
  5
443
100
AcDbEntity
  8
DRAFT
100
AcDbLine
 62
250
  6
CONTINUOUS
 10
-46.893477539
 20
13.1799246211
 30
0.0
 11
-46.893477539
 21
13.7336600482
 31
0.0
  0
LINE
  5
444
100
AcDbEntity
  8
Z030100_COP
100
AcDbLine
 62
250
  6
CONTINUOUS
 10
-46.5022037422
 20
-19.3700753789
 30
0.0
 11
-46.5022037422
 21
-12.1700753789
 31
0.0
  0
LINE
  5
445
100
AcDbEntity
  8
0
100
AcDbLine
 62
7
  6
CONTINUOUS
 10
-46.4022037422
 20
-29.0560623276
 30
0.0
 11
-46.4022037422
 21
-28.6200753789
 31
0.0
  0
LINE
  5
446
100
AcDbEntity
  8
RACCORDO
100
AcDbLine
 62
7
  6
CONTINUOUS
 10
-46.4022037422
 20
-27.4201345209
 30
0.0
 11
-46.4022037422
 21
-28.6200753789
 31
0.0
  0
LINE
  5
447
100
AcDbEntity
  8
RACCORDO
100
AcDbLine
 62
7
  6
CONTINUOUS
 10
-46.4022037422
 20
11.9799844158
 30
0.0
 11
-46.4022037422
 21
13.1799246211
 31
0.0
  0
LINE
  5
448
100
AcDbEntity
  8
0
100
AcDbLine
 62
7
  6
CONTINUOUS
 10
-46.4022037422
 20
13.1799246211
 30
0.0
 11
-46.4022037422
 21
13.6159115697
 31
0.0
  0
LINE
  5
449
100
AcDbEntity
  8
Z030100_COP
100
AcDbLine
 62
7
  6
CONTINUOUS
 10
-46.2022037422
 20
-19.0700753789
 30
0.0
 11
-46.2022037422
 21
-12.4700753789
 31
0.0
  0
LWPOLYLINE
  5
44A
100
AcDbEntity
  8
0
100
AcDbPolyline
 62
7
  6
CONTINUOUS
 90
2
 70
0
 43
0.3500000006
 10
-46.1807763519
 20
25.5299268036
 10
-46.1807763519
 20
27.0299227295
  0
LINE
  5
44B
100
AcDbEntity
  8
Z030100_COP
100
AcDbLine
 62
7
  6
CONTINUOUS
 10
-46.0022037422
 20
-19.0700753789
 30
0.0
 11
-46.0022037422
 21
-12.4700753789
 31
0.0
  0
LINE
  5
44C
100
AcDbEntity
  8
Z030100_COP
100
AcDbLine
 62
7
  6
CONTINUOUS
 10
-47.4856107742
 20
-13.5613790143
 30
0.0
 11
-47.2272037422
 21
-12.1700753789
 31
0.0
  0
LINE
  5
44D
100
AcDbEntity
  8
Z030100_COP
100
AcDbLine
 62
7
  6
CONTINUOUS
 10
-44.9772037422
 20
-12.1700753789
 30
0.0
 11
-44.7187967102
 21
-13.5613790143
 31
0.0
  0
LINE
  5
44E
100
AcDbEntity
  8
Z030100_COP
100
AcDbLine
 62
250
  6
CONTINUOUS
 10
-45.7022037422
 20
-19.3700753789
 30
0.0
 11
-45.7022037422
 21
-12.1700753789
 31
0.0
  0
LINE
  5
44F
100
AcDbEntity
  8
0
100
AcDbLine
 62
7
  6
CONTINUOUS
 10
-44.6522037422
 20
-13.7325840495
 30
0.0
 11
-44.6522037422
 21
-12.1700753789
 31
0.0
  0
LINE
  5
450
100
AcDbEntity
  8
SMUSSO
100
AcDbLine
 62
7
  6
CONTINUOUS
 10
-44.4822037422
 20
-12.1700753789
 30
0.0
 11
-44.4822037422
 21
-13.8998810121
 31
0.0
  0
LINE
  5
451
100
AcDbEntity
  8
SMUSSO
100
AcDbLine
 62
7
  6
CONTINUOUS
 10
-44.3422037422
 20
-12.1700753789
 30
0.0
 11
-44.3422037422
 21
-13.9562764741
 31
0.0
  0
LINE
  5
452
100
AcDbEntity
  8
0
100
AcDbLine
 62
7
  6
CONTINUOUS
 10
-43.9522037422
 20
-13.8871154671
 30
0.0
 11
-43.9522037422
 21
-12.1700753789
 31
0.0
  0
LINE
  5
453
100
AcDbEntity
  8
RACCORDO
100
AcDbLine
 62
7
  6
CONTINUOUS
 10
-43.6022037422
 20
2.3799246211
 30
0.0
 11
-43.6022037422
 21
2.1299246211
 31
0.0
  0
LINE
  5
454
100
AcDbEntity
  8
0
100
AcDbLine
 62
7
  6
CONTINUOUS
 10
-43.6022037422
 20
0.3299246211
 30
0.0
 11
-43.6022037422
 21
2.1299246211
 31
0.0
  0
LINE
  5
455
100
AcDbEntity
  8
Z030100_COP
100
AcDbLine
 62
7
  6
CONTINUOUS
 10
-43.7356107742
 20
-13.5613790143
 30
0.0
 11
-43.4772037422
 21
-12.1700753789
 31
0.0
  0
LINE
  5
456
100
AcDbEntity
  8
RACCORDO
100
AcDbLine
 62
7
  6
CONTINUOUS
 10
-57.4022037422
 20
-19.1296337069
 30
0.0
 11
-56.0022037422
 21
-18.6200753789
 31
0.0
  0
LINE
  5
457
100
AcDbEntity
  8
RACCORDO
100
AcDbLine
 62
7
  6
CONTINUOUS
 10
-55.3022037422
 20
-0.432806701
 30
0.0
 11
-57.4022037422
 21
-0.4511331234
 31
0.0
  0
LINE
  5
458
100
AcDbEntity
  8
RACCORDO
100
AcDbLine
 62
250
  6
CONTINUOUS
 10
-55.3022037422
 20
-0.3331013696
 30
0.0
 11
-57.4022037422
 21
-0.351427792
 31
0.0
  0
LINE
  5
459
100
AcDbEntity
  8
0
100
AcDbLine
 62
7
  6
CONTINUOUS
 10
-54.9022037422
 20
-1.1700753789
 30
0.0
 11
-55.3022037422
 21
-1.1700753789
 31
0.0
  0
LINE
  5
45A
100
AcDbEntity
  8
0
100
AcDbLine
 62
7
  6
CONTINUOUS
 10
-38.3022037422
 20
-1.0700753789
 30
0.0
 11
-53.9022037422
 21
-1.0700753789
 31
0.0
  0
LINE
  5
45B
100
AcDbEntity
  8
0
100
AcDbLine
 62
7
  6
CONTINUOUS
 10
-55.3022037422
 20
0.3299246211
 30
0.0
 11
-38.3022037422
 21
0.3299246211
 31
0.0
  0
LINE
  5
45C
100
AcDbEntity
  8
RACCORDO
100
AcDbLine
 62
250
  6
CONTINUOUS
 10
-57.4022037422
 20
0.3112770341
 30
0.0
 11
-55.3025263849
 21
0.2929534274
 31
0.0
  0
LINE
  5
45D
100
AcDbEntity
  8
RACCORDO
100
AcDbLine
 62
7
  6
CONTINUOUS
 10
-57.4022037422
 20
0.4109823655
 30
0.0
 11
-55.1013310887
 21
0.3909029541
 31
0.0
  0
LINE
  5
45E
100
AcDbEntity
  8
Z030100_COP
100
AcDbLine
 62
7
  6
CONTINUOUS
 10
-41.1272037422
 20
-12.1700753789
 30
0.0
 11
-40.8687967102
 21
-13.5613790143
 31
0.0
  0
LINE
  5
45F
100
AcDbEntity
  8
0
100
AcDbLine
 62
7
  6
CONTINUOUS
 10
-41.0522037422
 20
-12.5738870393
 30
0.0
 11
-41.0522037422
 21
-12.1700753789
 31
0.0
  0
LINE
  5
460
100
AcDbEntity
  8
SMUSSO
100
AcDbLine
 62
7
  6
CONTINUOUS
 10
-40.8822037422
 20
-12.1700753789
 30
0.0
 11
-40.8822037422
 21
-13.4891934695
 31
0.0
  0
LINE
  5
461
100
AcDbEntity
  8
SMUSSO
100
AcDbLine
 62
7
  6
CONTINUOUS
 10
-40.7422037422
 20
-12.1700753789
 30
0.0
 11
-40.7422037422
 21
-13.811286858
 31
0.0
  0
LINE
  5
462
100
AcDbEntity
  8
0
100
AcDbLine
 62
7
  6
CONTINUOUS
 10
-40.3522037422
 20
-13.9692675208
 30
0.0
 11
-40.3522037422
 21
-12.1700753789
 31
0.0
  0
LINE
  5
463
100
AcDbEntity
  8
RACCORDO
100
AcDbLine
 62
7
  6
CONTINUOUS
 10
-56.9965588757
 20
0.4074423564
 30
0.0
 11
-49.426009705
 21
2.3274871248
 31
0.0
  0
LINE
  5
464
100
AcDbEntity
  8
0
100
AcDbLine
 62
7
  6
CONTINUOUS
 10
-43.6022037422
 20
2.1299246211
 30
0.0
 11
-38.3022037422
 21
2.1299246211
 31
0.0
  0
LINE
  5
465
100
AcDbEntity
  8
RACCORDO
100
AcDbLine
 62
7
  6
CONTINUOUS
 10
-38.3022037422
 20
2.1299246211
 30
0.0
 11
-36.8022037422
 21
2.1299246211
 31
0.0
  0
LINE
  5
466
100
AcDbEntity
  8
0
100
AcDbLine
 62
250
  6
CONTINUOUS
 10
-66.320762057
 20
1.7704246211
 30
0.0
 11
-66.8119455956
 21
1.7799246211
 31
0.0
  0
LINE
  5
467
100
AcDbEntity
  8
Z030100_COP
100
AcDbLine
 62
250
  6
CONTINUOUS
 10
-38.9022037422
 20
-19.3700753789
 30
0.0
 11
-38.9022037422
 21
-12.1700753789
 31
0.0
  0
LINE
  5
468
100
AcDbEntity
  8
Z030100_COP
100
AcDbLine
 62
7
  6
CONTINUOUS
 10
-38.6022037422
 20
-19.0700753789
 30
0.0
 11
-38.6022037422
 21
-12.4700753789
 31
0.0
  0
LINE
  5
469
100
AcDbEntity
  8
0
100
AcDbLine
 62
7
  6
CONTINUOUS
 10
-38.5022037422
 20
-17.6700753789
 30
0.0
 11
-38.5022037422
 21
-1.0700753789
 31
0.0
  0
LINE
  5
46A
100
AcDbEntity
  8
0
100
AcDbLine
 62
7
  6
CONTINUOUS
 10
-38.3022037422
 20
-8.3700753789
 30
0.0
 11
-38.3022037422
 21
-1.0700753789
 31
0.0
  0
LINE
  5
46B
100
AcDbEntity
  8
0
100
AcDbLine
 62
7
  6
CONTINUOUS
 10
-38.3022037422
 20
0.3299246211
 30
0.0
 11
-38.3022037422
 21
2.1299246211
 31
0.0
  0
LINE
  5
46C
100
AcDbEntity
  8
Z030100_COP
100
AcDbLine
 62
7
  6
CONTINUOUS
 10
-39.8856107742
 20
-13.5613790143
 30
0.0
 11
-39.6272037422
 21
-12.1700753789
 31
0.0
  0
LINE
  5
46D
100
AcDbEntity
  8
RACCORDO
100
AcDbLine
 62
7
  6
CONTINUOUS
 10
-49.9163988952
 20
2.7299246211
 30
0.0
 11
-57.4022037422
 21
2.7299246211
 31
0.0
  0
LINE
  5
46E
100
AcDbEntity
  8
RACCORDO
100
AcDbLine
 62
7
  6
CONTINUOUS
 10
-37.8022037422
 20
3.1799246211
 30
0.0
 11
-42.8022037422
 21
3.1799246211
 31
0.0
  0
LINE
  5
46F
100
AcDbEntity
  8
RACCORDO
100
AcDbLine
 62
7
  6
CONTINUOUS
 10
-56.2264678109
 20
3.4799246211
 30
0.0
 11
-56.7022037422
 21
3.4799246211
 31
0.0
  0
LINE
  5
470
100
AcDbEntity
  8
RACCORDO
100
AcDbLine
 62
7
  6
CONTINUOUS
 10
-55.0022037422
 20
3.7799246211
 30
0.0
 11
-57.4022037422
 21
3.7799246211
 31
0.0
  0
LINE
  5
471
100
AcDbEntity
  8
RACCORDO
100
AcDbLine
 62
7
  6
CONTINUOUS
 10
-55.0022037422
 20
3.9299246211
 30
0.0
 11
-47.9751969749
 21
3.9299246211
 31
0.0
  0
LINE
  5
472
100
AcDbEntity
  8
RACCORDO
100
AcDbLine
 62
250
  6
CONTINUOUS
 10
-37.6022037422
 20
-8.3700753789
 30
0.0
 11
-37.6022037422
 21
2.1299246211
 31
0.0
  0
LINE
  5
473
100
AcDbEntity
  8
RACCORDO
100
AcDbLine
 62
7
  6
CONTINUOUS
 10
-36.8022037422
 20
-8.3700753789
 30
0.0
 11
-36.8022037422
 21
2.1799246211
 31
0.0
  0
LINE
  5
474
100
AcDbEntity
  8
RACCORDO
100
AcDbLine
 62
250
  6
CONTINUOUS
 10
-57.4022037422
 20
4.6112770341
 30
0.0
 11
-55.1995976992
 21
4.5920551824
 31
0.0
  0
LINE
  5
475
100
AcDbEntity
  8
RACCORDO
100
AcDbLine
 62
7
  6
CONTINUOUS
 10
-57.4022037422
 20
4.7109823655
 30
0.0
 11
-55.1013310887
 21
4.6909029541
 31
0.0
  0
LINE
  5
476
100
AcDbEntity
  8
RACCORDO
100
AcDbLine
 62
250
  6
CONTINUOUS
 10
-57.4022037422
 20
5.711001404
 30
0.0
 11
-55.0022037422
 21
5.6900569213
 31
0.0
  0
LINE
  5
477
100
AcDbEntity
  8
RACCORDO
100
AcDbLine
 62
7
  6
CONTINUOUS
 10
-57.4022037422
 20
6.2109823655
 30
0.0
 11
-55.0022037422
 21
6.1900378828
 31
0.0
  0
LINE
  5
478
100
AcDbEntity
  8
0
100
AcDbLine
 62
7
  6
CONTINUOUS
 10
-57.4022037422
 20
-28.7427251097
 30
0.0
 11
-58.4022037422
 21
-29.3200753789
 31
0.0
  0
LINE
  5
479
100
AcDbEntity
  8
0
100
AcDbLine
 62
7
  6
CONTINUOUS
 10
-59.9022037422
 20
-30.8427251097
 30
0.0
 11
-60.7772037422
 21
-31.3479065953
 31
0.0
  0
LINE
  5
47A
100
AcDbEntity
  8
0
100
AcDbLine
 62
250
  6
CONTINUOUS
 10
-59.653658175
 20
-30.987062677
 30
0.0
 11
-60.653658175
 21
-31.5644129462
 31
0.0
  0
LINE
  5
47B
100
AcDbEntity
  8
0
100
AcDbLine
 62
7
  6
CONTINUOUS
 10
-57.4022037422
 20
13.3025743519
 30
0.0
 11
-58.4022037422
 21
13.8799246211
 31
0.0
  0
LINE
  5
47C
100
AcDbEntity
  8
0
100
AcDbLine
 62
7
  6
CONTINUOUS
 10
-60.7772037422
 20
15.9077558374
 30
0.0
 11
-59.9022037422
 21
15.4025743519
 31
0.0
  0
LINE
  5
47D
100
AcDbEntity
  8
0
100
AcDbLine
 62
250
  6
CONTINUOUS
 10
-60.653658175
 20
16.1242621884
 30
0.0
 11
-59.653658175
 21
15.5469119192
 31
0.0
  0
LINE
  5
47E
100
AcDbEntity
  8
RACCORDO
100
AcDbLine
 62
250
  6
CONTINUOUS
 10
-33.6022037422
 20
-8.3700753789
 30
0.0
 11
-33.6022037422
 21
-5.9700753789
 31
0.0
  0
LINE
  5
47F
100
AcDbEntity
  8
RACCORDO
100
AcDbLine
 62
7
  6
CONTINUOUS
 10
-33.1022037422
 20
-8.3700753789
 30
0.0
 11
-33.1022037422
 21
-5.9700753789
 31
0.0
  0
LINE
  5
480
100
AcDbEntity
  8
RACCORDO
100
AcDbLine
 62
7
  6
CONTINUOUS
 10
-57.4022037422
 20
9.5659616326
 30
0.0
 11
-56.2978404736
 21
9.5755992648
 31
0.0
  0
LINE
  5
481
100
AcDbEntity
  8
RACCORDO
100
AcDbLine
 62
250
  6
CONTINUOUS
 10
-57.4022037422
 20
9.8659502095
 30
0.0
 11
-56.2978404745
 21
9.8755878418
 31
0.0
  0
LINE
  5
482
100
AcDbEntity
  8
RACCORDO
100
AcDbLine
 62
250
  6
CONTINUOUS
 10
-56.0995857816
 20
10.0755802264
 30
0.0
 11
-55.8022037422
 21
10.0755802264
 31
0.0
  0
LINE
  5
483
100
AcDbEntity
  8
RACCORDO
100
AcDbLine
 62
7
  6
CONTINUOUS
 10
-57.4022037422
 20
10.0403278333
 30
0.0
 11
-46.4022037422
 21
11.9799246211
 31
0.0
  0
LINE
  5
484
100
AcDbEntity
  8
DRAFT
100
AcDbLine
 62
7
  6
CONTINUOUS
 10
-46.893477539
 20
13.7336600482
 30
0.0
 11
-57.4022037422
 21
13.6799246211
 31
0.0
  0
LINE
  5
485
100
AcDbEntity
  8
0
100
AcDbLine
 62
7
  6
CONTINUOUS
 10
-46.4022037422
 20
13.1799246211
 30
0.0
 11
-57.4022037422
 21
13.1799246211
 31
0.0
  0
LINE
  5
486
100
AcDbEntity
  8
0
100
AcDbLine
 62
250
  6
CONTINUOUS
 10
-57.4022037422
 20
14.1741237143
 30
0.0
 11
-58.4022037422
 21
14.1799415441
 31
0.0
  0
LWPOLYLINE
  5
487
100
AcDbEntity
  8
0
100
AcDbPolyline
 62
7
  6
CONTINUOUS
 90
10
 70
0
 43
0.3500000006
 10
-49.2522039185
 20
36.0299254761
 10
-49.1807772675
 20
35.8870676422
 10
-49.1807772675
 20
35.8156409912
 10
-49.3236305695
 20
35.6727831573
 10
-49.3950617523
 20
35.6727831573
 10
-49.4664884033
 20
35.7442098083
 10
-49.4664884033
 20
35.8156409912
 10
-49.3950617523
 20
35.9584942932
 10
-49.3236305695
 20
36.0299254761
 10
-49.2522039185
 20
36.0299254761
  0
LWPOLYLINE
  5
488
100
AcDbEntity
  8
0
100
AcDbPolyline
 62
7
  6
CONTINUOUS
 90
10
 70
0
 43
0.3500000006
 10
-44.1807757416
 20
26.0299224243
 10
-44.1093445587
 20
25.8870691223
 10
-44.1093445587
 20
25.8156379395
 10
-44.2522023926
 20
25.6727801056
 10
-44.3236335754
 20
25.6727801056
 10
-44.3950602264
 20
25.7442112885
 10
-44.3950602264
 20
25.8156379395
 10
-44.3236335754
 20
25.9584957733
 10
-44.2522023926
 20
26.0299224243
 10
-44.1807757416
 20
26.0299224243
  0
LINE
  5
489
100
AcDbEntity
  8
0
100
AcDbLine
 62
250
  6
CONTINUOUS
 10
-58.4021808988
 20
14.1796969662
 30
0.0
 11
-64.8679990364
 21
13.8408377963
 31
0.0
  0
LINE
  5
48A
100
AcDbEntity
  8
0
100
AcDbLine
 62
7
  6
CONTINUOUS
 10
-58.4022037422
 20
14.6799246211
 30
0.0
 11
-64.8854408113
 21
14.3401525637
 31
0.0
  0
LINE
  5
48B
100
AcDbEntity
  8
RACCORDO
100
AcDbLine
 62
250
  6
CONTINUOUS
 10
-59.653658175
 20
14.8145521637
 30
0.0
 11
-58.4022037422
 21
14.8801381114
 31
0.0
  0
LINE
  5
48C
100
AcDbEntity
  8
0
100
AcDbLine
 62
250
  6
CONTINUOUS
 10
-60.9022037422
 20
16.1242621884
 30
0.0
 11
-60.653658175
 21
16.1242621884
 31
0.0
  0
LINE
  5
48D
100
AcDbEntity
  8
0
100
AcDbLine
 62
250
  6
CONTINUOUS
 10
-57.4022037422
 20
16.1242621884
 30
0.0
 11
-57.6507493094
 21
16.1242621884
 31
0.0
  0
LINE
  5
48E
100
AcDbEntity
  8
DRAFT
100
AcDbLine
 62
7
  6
CONTINUOUS
 10
-47.3963860108
 20
14.6158946466
 30
0.0
 11
-57.4022037422
 21
14.6741067913
 31
0.0
  0
LINE
  5
48F
100
AcDbEntity
  8
0
100
AcDbLine
 62
7
  6
CONTINUOUS
 10
-57.4022037422
 20
14.6741067913
 30
0.0
 11
-58.4022035669
 21
14.67992462
 31
0.0
  0
LINE
  5
490
100
AcDbEntity
  8
0
100
AcDbLine
 62
7
  6
CONTINUOUS
 10
-57.4022037422
 20
16.2741067913
 30
0.0
 11
-50.8992948765
 21
16.2362739742
 31
0.0
  0
LINE
  5
491
100
AcDbEntity
  8
0
100
AcDbLine
 62
250
  6
CONTINUOUS
 10
-60.653658175
 20
16.5168302731
 30
0.0
 11
-58.4022037422
 21
16.5299288519
 31
0.0
  0
LINE
  5
492
100
AcDbEntity
  8
0
100
AcDbLine
 62
7
  6
CONTINUOUS
 10
-60.653658175
 20
16.7668260423
 30
0.0
 11
-58.4022037422
 21
16.7799246211
 31
0.0
  0
LINE
  5
493
100
AcDbEntity
  8
0
100
AcDbLine
 62
250
  6
CONTINUOUS
 10
-60.9022037422
 20
16.5168302731
 30
0.0
 11
-60.653658175
 21
16.5168302731
 31
0.0
  0
LINE
  5
494
100
AcDbEntity
  8
0
100
AcDbLine
 62
250
  6
CONTINUOUS
 10
-57.4022037422
 20
16.5255570179
 30
0.0
 11
-57.6507493094
 21
16.5255570179
 31
0.0
  0
LINE
  5
495
100
AcDbEntity
  8
0
100
AcDbLine
 62
250
  6
CONTINUOUS
 10
-58.4022037422
 20
16.5299288519
 30
0.0
 11
-57.6507493094
 21
16.5255570179
 31
0.0
  0
LINE
  5
496
100
AcDbEntity
  8
0
100
AcDbLine
 62
7
  6
CONTINUOUS
 10
-58.4022037422
 20
16.7799246211
 30
0.0
 11
-57.6507493094
 21
16.7755527871
 31
0.0
  0
LWPOLYLINE
  5
497
100
AcDbEntity
  8
0
100
AcDbPolyline
 62
7
  6
CONTINUOUS
 90
6
 70
0
 43
0.3500000006
 10
-43.1093487854
 20
25.5299268036
 10
-42.0379172974
 20
25.5299268036
 10
-41.8236328125
 20
25.7442112885
 10
-41.8236328125
 20
26.8156382446
 10
-42.2522017822
 20
27.2442117462
 10
-42.6807752838
 20
27.2442117462
  0
LWPOLYLINE
  5
498
100
AcDbEntity
  8
0
100
AcDbPolyline
 62
7
  6
CONTINUOUS
 90
7
 70
0
 43
0.3500000006
 10
-48.0379191284
 20
25.5299268036
 10
-49.5379195862
 20
25.5299268036
 10
-48.0379191284
 20
27.6727807159
 10
-48.0379191284
 20
28.1013542175
 10
-48.4664880981
 20
28.5299231873
 10
-49.1093460846
 20
28.5299231873
 10
-49.5379195862
 20
27.8870697327
  0
LWPOLYLINE
  5
499
100
AcDbEntity
  8
0
100
AcDbPolyline
 62
7
  6
CONTINUOUS
 90
3
 70
0
 43
0.3500000006
 10
-45.6807761993
 20
26.1727802582
 10
-47.1807766571
 20
26.1727802582
 10
-46.5379186707
 20
28.5299231873
  0
LWPOLYLINE
  5
49A
100
AcDbEntity
  8
0
100
AcDbPolyline
 62
7
  6
CONTINUOUS
 90
6
 70
0
 43
0.3500000006
 10
-54.1807742615
 20
35.5299253235
 10
-53.1093473053
 20
35.5299253235
 10
-52.8950628204
 20
35.7442098083
 10
-52.8950628204
 20
36.8156367645
 10
-53.3236317902
 20
37.2442102661
 10
-53.7522052917
 20
37.2442102661
  0
LWPOLYLINE
  5
49B
100
AcDbEntity
  8
0
100
AcDbPolyline
 62
7
  6
CONTINUOUS
 90
6
 70
0
 43
0.3500000006
 10
-52.0379158173
 20
35.5299253235
 10
-50.9664888611
 20
35.5299253235
 10
-50.7522043762
 20
35.7442098083
 10
-50.7522043762
 20
36.8156367645
 10
-51.1807733459
 20
37.2442102661
 10
-51.6093468475
 20
37.2442102661
  0
LWPOLYLINE
  5
49C
100
AcDbEntity
  8
0
100
AcDbPolyline
 62
7
  6
CONTINUOUS
 90
13
 70
0
 43
0.3500000006
 10
-47.7522034607
 20
37.2442102661
 10
-48.0379191284
 20
37.458494751
 10
-48.0379191284
 20
38.1013527374
 10
-47.7522034607
 20
38.529926239
 10
-47.1093454742
 20
38.529926239
 10
-46.8236343384
 20
38.1013527374
 10
-46.8236343384
 20
37.458494751
 10
-47.1093454742
 20
37.2442102661
 10
-46.6807765045
 20
36.8156367645
 10
-46.6807765045
 20
35.9584942932
 10
-47.1093454742
 20
35.5299253235
 10
-47.7522034607
 20
35.5299253235
 10
-48.1807769623
 20
35.9584942932
  0
ARC
  5
49D
100
AcDbEntity
  8
0
100
AcDbCircle
 62
250
  6
CONTINUOUS
 10
-5123.8528549095
 20
-15.5785500426
 30
0.0
 40
5108.7945046103
100
AcDbArc
 50
359.8502527296
 51
359.9815900845
  0
ARC
  5
49E
100
AcDbEntity
  8
0
100
AcDbCircle
 62
250
  6
CONTINUOUS
 10
-5067.7463247001
 20
-15.578169403
 30
0.0
 40
5052.1880505534
100
AcDbArc
 50
359.8494161557
 51
359.9814872341
  0
ARC
  5
49F
100
AcDbEntity
  8
0
100
AcDbCircle
 62
250
  6
CONTINUOUS
 10
-15.0837562279
 20
-29.2801207595
 30
0.0
 40
0.5001624386
100
AcDbArc
 50
180.0994054416
 51
269.9752725705
  0
ARC
  5
4A0
100
AcDbEntity
  8
0
100
AcDbCircle
 62
7
  6
CONTINUOUS
 10
-8.5476295718
 20
-30.8700753789
 30
0.0
 40
0.5
100
AcDbArc
 50
154.1580672368
 51
205.8419327632
  0
ARC
  5
4A1
100
AcDbEntity
  8
0
100
AcDbCircle
 62
7
  6
CONTINUOUS
 10
-15.1969025815
 20
-29.6202633508
 30
0.0
 40
0.4998306865
100
AcDbArc
 50
179.9522215796
 51
269.9730795759
  0
ARC
  5
4A2
100
AcDbEntity
  8
0
100
AcDbCircle
 62
7
  6
CONTINUOUS
 10
-14.4476070651
 20
-31.969698503
 30
0.0
 40
0.2503768773
100
AcDbArc
 50
261.8245330495
 51
269.9938814446
  0
ARC
  5
4A3
100
AcDbEntity
  8
0
100
AcDbCircle
 62
7
  6
CONTINUOUS
 10
-12.0480064476
 20
-31.9700528722
 30
0.0
 40
0.2503768773
100
AcDbArc
 50
351.8245330495
 51
359.9938814446
  0
ARC
  5
4A4
100
AcDbEntity
  8
0
100
AcDbCircle
 62
7
  6
CONTINUOUS
 10
-14.4345243751
 20
-31.9569701822
 30
0.0
 40
0.2500066182
100
AcDbArc
 50
180.0024862874
 51
269.9975137126
  0
ARC
  5
4A5
100
AcDbEntity
  8
0
100
AcDbCircle
 62
7
  6
CONTINUOUS
 10
-12.060734768
 20
-31.9569701827
 30
0.0
 40
0.2500066177
100
AcDbArc
 50
270.0024861811
 51
359.9975138189
  0
ARC
  5
4A6
100
AcDbEntity
  8
0
100
AcDbCircle
 62
7
  6
CONTINUOUS
 10
-5.7476312641
 20
-31.5200736866
 30
0.0
 40
0.2000016924
100
AcDbArc
 50
270.0004848234
 51
0.0004848094
  0
ARC
  5
4A7
100
AcDbEntity
  8
0
100
AcDbCircle
 62
7
  6
CONTINUOUS
 10
-5.7476283873
 20
-31.5183244451
 30
0.0
 40
0.1999988155
100
AcDbArc
 50
269.9996606734
 51
359.9993696938
  0
ARC
  5
4A8
100
AcDbEntity
  8
RACCORDO
100
AcDbCircle
 62
250
  6
CONTINUOUS
 10
-11.6049853576
 20
-30.2549208597
 30
0.0
 40
0.1999348843
100
AcDbArc
 50
89.9794673708
 51
179.9375419075
  0
ARC
  5
4A9
100
AcDbEntity
  8
RACCORDO
100
AcDbCircle
 62
250
  6
CONTINUOUS
 10
-14.8902737849
 20
-30.2549208608
 30
0.0
 40
0.1999348842
100
AcDbArc
 50
0.0624583903
 51
90.0205329285
  0
ARC
  5
4AA
100
AcDbEntity
  8
0
100
AcDbCircle
 62
250
  6
CONTINUOUS
 10
-5152.1746300224
 20
0.0968385148
 30
0.0
 40
5137.1162917178
100
AcDbArc
 50
0.0187719582
 51
0.1493852277
  0
ARC
  5
4AB
100
AcDbEntity
  8
0
100
AcDbCircle
 62
250
  6
CONTINUOUS
 10
-5095.7541940348
 20
0.0966889063
 30
0.0
 40
5080.1959318826
100
AcDbArc
 50
0.0188768298
 51
0.1502197803
  0
ARC
  5
4AC
100
AcDbEntity
  8
RACCORDO
100
AcDbCircle
 62
250
  6
CONTINUOUS
 10
-64.1662311225
 20
13.382186836
 30
0.0
 40
50.2721162199
100
AcDbArc
 50
0.1236079735
 51
0.6760049572
  0
ARC
  5
4AD
100
AcDbEntity
  8
RACCORDO
100
AcDbCircle
 62
250
  6
CONTINUOUS
 10
-54.6212970065
 20
13.3785262509
 30
0.0
 40
40.6271966298
100
AcDbArc
 50
0.1370850571
 51
0.7552142577
  0
ARC
  5
4AE
100
AcDbEntity
  8
RACCORDO
100
AcDbCircle
 62
7
  6
CONTINUOUS
 10
-13.4822864231
 20
8.2903192491
 30
0.0
 40
0.502896078
100
AcDbArc
 50
254.2964278257
 51
269.9607314828
  0
ARC
  5
4AF
100
AcDbEntity
  8
RACCORDO
100
AcDbCircle
 62
7
  6
CONTINUOUS
 10
-13.4955361714
 20
8.2802174197
 30
0.0
 40
0.5020935223
100
AcDbArc
 50
180.0399297607
 51
191.9889218639
  0
ARC
  5
4B0
100
AcDbEntity
  8
RACCORDO
100
AcDbCircle
 62
7
  6
CONTINUOUS
 10
-13.4827601205
 20
8.2879630395
 30
0.0
 40
0.5004918418
100
AcDbArc
 50
180.1032074581
 51
254.2756254652
  0
ARC
  5
4B1
100
AcDbEntity
  8
0
100
AcDbCircle
 62
250
  6
CONTINUOUS
 10
-15.0837563543
 20
13.8399701019
 30
0.0
 40
0.5001623376
100
AcDbArc
 50
90.0247129592
 51
179.9005973931
  0
ARC
  5
4B2
100
AcDbEntity
  8
0
100
AcDbCircle
 62
7
  6
CONTINUOUS
 10
-8.5476295718
 20
15.4299246211
 30
0.0
 40
0.5
100
AcDbArc
 50
154.1580672368
 51
205.8419327632
  0
ARC
  5
4B3
100
AcDbEntity
  8
RACCORDO
100
AcDbCircle
 62
7
  6
CONTINUOUS
 10
-13.4977348
 20
8.2798187488
 30
0.0
 40
0.4998639534
100
AcDbArc
 50
191.9965706695
 51
264.011115011
  0
ARC
  5
4B4
100
AcDbEntity
  8
0
100
AcDbCircle
 62
7
  6
CONTINUOUS
 10
-15.1969025788
 20
14.1801125953
 30
0.0
 40
0.4998306865
100
AcDbArc
 50
90.026920736
 51
180.0477786903
  0
ARC
  5
4B5
100
AcDbEntity
  8
RACCORDO
100
AcDbCircle
 62
250
  6
CONTINUOUS
 10
-13.5653743193
 20
8.2699636524
 30
0.0
 40
0.4988973601
100
AcDbArc
 50
179.8188911929
 51
270.0054200282
  0
ARC
  5
4B6
100
AcDbEntity
  8
RACCORDO
100
AcDbCircle
 62
7
  6
CONTINUOUS
 10
-13.4975182499
 20
8.2782299596
 30
0.0
 40
0.4983053509
100
AcDbArc
 50
263.9672915864
 51
269.98720041
  0
ARC
  5
4B7
100
AcDbEntity
  8
RACCORDO
100
AcDbCircle
 62
250
  6
CONTINUOUS
 10
-13.4824687421
 20
8.2968952631
 30
0.0
 40
0.4007849139
100
AcDbArc
 50
180.0991323711
 51
269.9767905748
  0
ARC
  5
4B8
100
AcDbEntity
  8
RACCORDO
100
AcDbCircle
 62
7
  6
CONTINUOUS
 10
-13.6975046124
 20
8.1274089579
 30
0.0
 40
0.3031505766
100
AcDbArc
 50
256.0593472575
 51
268.8509375599
  0
ARC
  5
4B9
100
AcDbEntity
  8
RACCORDO
100
AcDbCircle
 62
7
  6
CONTINUOUS
 10
-13.7016345621
 20
8.1220794222
 30
0.0
 40
0.295996209
100
AcDbArc
 50
180.0101348367
 51
195.838004507
  0
ARC
  5
4BA
100
AcDbEntity
  8
RACCORDO
100
AcDbCircle
 62
7
  6
CONTINUOUS
 10
-13.7022177471
 20
8.0854870542
 30
0.0
 40
0.2954118256
100
AcDbArc
 50
180.0045838015
 51
184.6666466962
  0
ARC
  5
4BB
100
AcDbEntity
  8
0
100
AcDbCircle
 62
7
  6
CONTINUOUS
 10
-14.4472526959
 20
16.5299021144
 30
0.0
 40
0.2503768773
100
AcDbArc
 50
171.8245330495
 51
179.9938814446
  0
ARC
  5
4BC
100
AcDbEntity
  8
0
100
AcDbCircle
 62
7
  6
CONTINUOUS
 10
-12.0476520785
 20
16.5295477452
 30
0.0
 40
0.2503768773
100
AcDbArc
 50
81.8245330495
 51
89.9938814446
  0
ARC
  5
4BD
100
AcDbEntity
  8
0
100
AcDbCircle
 62
7
  6
CONTINUOUS
 10
-14.4345243751
 20
16.5168194244
 30
0.0
 40
0.2500066182
100
AcDbArc
 50
90.0024862874
 51
179.9975137126
  0
ARC
  5
4BE
100
AcDbEntity
  8
0
100
AcDbCircle
 62
7
  6
CONTINUOUS
 10
-12.0607347685
 20
16.5168194244
 30
0.0
 40
0.2500066182
100
AcDbArc
 50
0.0024862874
 51
89.9975137126
  0
ARC
  5
4BF
100
AcDbEntity
  8
RACCORDO
100
AcDbCircle
 62
250
  6
CONTINUOUS
 10
-14.2402887815
 20
14.1400797994
 30
0.0
 40
0.2000647089
100
AcDbArc
 50
0.0993395805
 51
89.9753506934
  0
ARC
  5
4C0
100
AcDbEntity
  8
0
100
AcDbCircle
 62
7
  6
CONTINUOUS
 10
-5.7476312641
 20
16.0799229287
 30
0.0
 40
0.2000016924
100
AcDbArc
 50
359.9995151906
 51
89.9995151766
  0
ARC
  5
4C1
100
AcDbEntity
  8
0
100
AcDbCircle
 62
250
  6
CONTINUOUS
 10
-5.7476283869
 20
16.0781736877
 30
0.0
 40
0.1999988151
100
AcDbArc
 50
0.0006301927
 51
90.0003394401
  0
ARC
  5
4C2
100
AcDbEntity
  8
RACCORDO
100
AcDbCircle
 62
250
  6
CONTINUOUS
 10
-14.8902738367
 20
14.8147701551
 30
0.0
 40
0.1999348843
100
AcDbArc
 50
269.9794819183
 51
359.937526673
  0
ARC
  5
4C3
100
AcDbEntity
  8
RACCORDO
100
AcDbCircle
 62
250
  6
CONTINUOUS
 10
-11.6049853055
 20
14.8147701537
 30
0.0
 40
0.1999348842
100
AcDbArc
 50
180.0624729367
 51
270.0205177
  0
ARC
  5
4C4
100
AcDbEntity
  8
RACCORDO
100
AcDbCircle
 62
250
  6
CONTINUOUS
 10
-13.8862679046
 20
14.2411959562
 30
0.0
 40
0.098956609
100
AcDbArc
 50
90.0099256363
 51
100.1171939914
  0
ARC
  5
4C5
100
AcDbEntity
  8
0
100
AcDbCircle
 62
250
  6
CONTINUOUS
 10
5143.0794184579
 20
-15.5369892028
 30
0.0
 40
5137.1163392969
100
AcDbArc
 50
180.0187719588
 51
180.1493852271
  0
ARC
  5
4C6
100
AcDbEntity
  8
0
100
AcDbCircle
 62
250
  6
CONTINUOUS
 10
5086.6589814907
 20
-15.5368395954
 30
0.0
 40
5080.1959784821
100
AcDbArc
 50
180.0188768305
 51
180.1502197797
  0
ARC
  5
4C7
100
AcDbEntity
  8
0
100
AcDbCircle
 62
250
  6
CONTINUOUS
 10
5.9884873536
 20
-29.2801130155
 30
0.0
 40
0.5001702289
100
AcDbArc
 50
270.0258416892
 51
359.9003775786
  0
ARC
  5
4C8
100
AcDbEntity
  8
0
100
AcDbCircle
 62
7
  6
CONTINUOUS
 10
-0.5476295718
 20
-30.8700753789
 30
0.0
 40
0.5
100
AcDbArc
 50
334.1580672368
 51
25.8419327632
  0
ARC
  5
4C9
100
AcDbEntity
  8
0
100
AcDbCircle
 62
7
  6
CONTINUOUS
 10
6.1016359577
 20
-29.6202558806
 30
0.0
 40
0.4998398177
100
AcDbArc
 50
270.0277775168
 51
0.0469214534
  0
ARC
  5
4CA
100
AcDbEntity
  8
0
100
AcDbCircle
 62
7
  6
CONTINUOUS
 10
2.9523929349
 20
-31.969698503
 30
0.0
 40
0.2503768773
100
AcDbArc
 50
261.8245330495
 51
269.9938814446
  0
ARC
  5
4CB
100
AcDbEntity
  8
0
100
AcDbCircle
 62
7
  6
CONTINUOUS
 10
5.3519935524
 20
-31.9700528722
 30
0.0
 40
0.2503768773
100
AcDbArc
 50
351.8245330495
 51
359.9938814446
  0
ARC
  5
4CC
100
AcDbEntity
  8
0
100
AcDbCircle
 62
7
  6
CONTINUOUS
 10
2.9654756245
 20
-31.9569701827
 30
0.0
 40
0.2500066177
100
AcDbArc
 50
180.0024861811
 51
269.9975138189
  0
ARC
  5
4CD
100
AcDbEntity
  8
0
100
AcDbCircle
 62
7
  6
CONTINUOUS
 10
5.339265232
 20
-31.9569701827
 30
0.0
 40
0.2500066177
100
AcDbArc
 50
270.0024861811
 51
359.9975138189
  0
ARC
  5
4CE
100
AcDbEntity
  8
0
100
AcDbCircle
 62
7
  6
CONTINUOUS
 10
-3.3476278794
 20
-31.5200736866
 30
0.0
 40
0.2000016924
100
AcDbArc
 50
179.9995151906
 51
269.9995151766
  0
ARC
  5
4CF
100
AcDbEntity
  8
0
100
AcDbCircle
 62
250
  6
CONTINUOUS
 10
-3.3476307566
 20
-31.5183244455
 30
0.0
 40
0.1999988151
100
AcDbArc
 50
180.0006301927
 51
270.0003394401
  0
ARC
  5
4D0
100
AcDbEntity
  8
RACCORDO
100
AcDbCircle
 62
250
  6
CONTINUOUS
 10
5.7950146424
 20
-30.2549208597
 30
0.0
 40
0.1999348843
100
AcDbArc
 50
89.9794673708
 51
179.9375419075
  0
ARC
  5
4D1
100
AcDbEntity
  8
RACCORDO
100
AcDbCircle
 62
250
  6
CONTINUOUS
 10
2.5097262151
 20
-30.2549208608
 30
0.0
 40
0.1999348842
100
AcDbArc
 50
0.0624583903
 51
90.0205329285
  0
ARC
  5
4D2
100
AcDbEntity
  8
0
100
AcDbCircle
 62
250
  6
CONTINUOUS
 10
5114.7576426547
 20
0.1383992159
 30
0.0
 40
5108.7945514991
100
AcDbArc
 50
179.8502527302
 51
179.9815900839
  0
ARC
  5
4D3
100
AcDbEntity
  8
0
100
AcDbCircle
 62
250
  6
CONTINUOUS
 10
5058.6511121554
 20
0.1380185763
 30
0.0
 40
5052.1880971523
100
AcDbArc
 50
179.8494161563
 51
179.9814872335
  0
ARC
  5
4D4
100
AcDbEntity
  8
RACCORDO
100
AcDbCircle
 62
250
  6
CONTINUOUS
 10
49.3242849712
 20
13.4222926133
 30
0.0
 40
44.5253646837
100
AcDbArc
 50
179.2883528882
 51
179.9120470009
  0
ARC
  5
4D5
100
AcDbEntity
  8
RACCORDO
100
AcDbCircle
 62
250
  6
CONTINUOUS
 10
41.1403835436
 20
13.4132284103
 30
0.0
 40
36.2414799211
100
AcDbArc
 50
179.2074934031
 51
179.901188065
  0
ARC
  5
4D6
100
AcDbEntity
  8
RACCORDO
100
AcDbCircle
 62
7
  6
CONTINUOUS
 10
4.4002770279
 20
8.2802174197
 30
0.0
 40
0.5020935223
100
AcDbArc
 50
348.0110781361
 51
359.9600702393
  0
ARC
  5
4D7
100
AcDbEntity
  8
0
100
AcDbCircle
 62
250
  6
CONTINUOUS
 10
5.9884972136
 20
13.839970099
 30
0.0
 40
0.5001623376
100
AcDbArc
 50
0.0994029389
 51
89.9752873636
  0
ARC
  5
4D8
100
AcDbEntity
  8
RACCORDO
100
AcDbCircle
 62
7
  6
CONTINUOUS
 10
4.3873539618
 20
8.287574655
 30
0.0
 40
0.5001513661
100
AcDbArc
 50
270.0020603221
 51
359.8926882006
  0
ARC
  5
4D9
100
AcDbEntity
  8
0
100
AcDbCircle
 62
7
  6
CONTINUOUS
 10
-0.5476295718
 20
15.4299246211
 30
0.0
 40
0.5
100
AcDbArc
 50
334.1580672368
 51
25.8419327632
  0
ARC
  5
4DA
100
AcDbEntity
  8
RACCORDO
100
AcDbCircle
 62
7
  6
CONTINUOUS
 10
4.4024756564
 20
8.2798187488
 30
0.0
 40
0.4998639534
100
AcDbArc
 50
275.9888849952
 51
348.0034293242
  0
ARC
  5
4DB
100
AcDbEntity
  8
0
100
AcDbCircle
 62
7
  6
CONTINUOUS
 10
6.1016359551
 20
14.1801051253
 30
0.0
 40
0.4998398177
100
AcDbArc
 50
359.9530782527
 51
89.9722221939
  0
ARC
  5
4DC
100
AcDbEntity
  8
RACCORDO
100
AcDbCircle
 62
250
  6
CONTINUOUS
 10
4.4701151771
 20
8.2699636539
 30
0.0
 40
0.4988973603
100
AcDbArc
 50
269.9945798292
 51
0.1811086317
  0
ARC
  5
4DD
100
AcDbEntity
  8
RACCORDO
100
AcDbCircle
 62
7
  6
CONTINUOUS
 10
4.4022591064
 20
8.2782299596
 30
0.0
 40
0.4983053509
100
AcDbArc
 50
270.01279959
 51
276.0327084136
  0
ARC
  5
4DE
100
AcDbEntity
  8
RACCORDO
100
AcDbCircle
 62
250
  6
CONTINUOUS
 10
4.3872094085
 20
8.2968955451
 30
0.0
 40
0.4007851795
100
AcDbArc
 50
270.023236576
 51
359.9008273505
  0
ARC
  5
4DF
100
AcDbEntity
  8
RACCORDO
100
AcDbCircle
 62
7
  6
CONTINUOUS
 10
4.6022454689
 20
8.1274089579
 30
0.0
 40
0.3031505766
100
AcDbArc
 50
271.1490624401
 51
283.9406527425
  0
ARC
  5
4E0
100
AcDbEntity
  8
RACCORDO
100
AcDbCircle
 62
7
  6
CONTINUOUS
 10
4.6056838549
 20
8.1221967772
 30
0.0
 40
0.2966935571
100
AcDbArc
 50
344.1766413864
 51
356.1763995064
  0
ARC
  5
4E1
100
AcDbEntity
  8
RACCORDO
100
AcDbCircle
 62
7
  6
CONTINUOUS
 10
4.6069586035
 20
8.0854870542
 30
0.0
 40
0.2954118256
100
AcDbArc
 50
355.3333533038
 51
359.9954161985
  0
ARC
  5
4E2
100
AcDbEntity
  8
RACCORDO
100
AcDbCircle
 62
7
  6
CONTINUOUS
 10
4.6072196148
 20
8.1220407212
 30
0.0
 40
0.2951508139
100
AcDbArc
 50
356.1867456654
 51
359.9967974288
  0
ARC
  5
4E3
100
AcDbEntity
  8
0
100
AcDbCircle
 62
7
  6
CONTINUOUS
 10
5.3523479215
 20
16.5295477452
 30
0.0
 40
0.2503768773
100
AcDbArc
 50
81.8245330495
 51
89.9938814446
  0
ARC
  5
4E4
100
AcDbEntity
  8
0
100
AcDbCircle
 62
7
  6
CONTINUOUS
 10
2.9527473041
 20
16.5299021144
 30
0.0
 40
0.2503768773
100
AcDbArc
 50
171.8245330495
 51
179.9938814446
  0
ARC
  5
4E5
100
AcDbEntity
  8
0
100
AcDbCircle
 62
7
  6
CONTINUOUS
 10
5.339265232
 20
16.5168194248
 30
0.0
 40
0.2500066177
100
AcDbArc
 50
0.0024861811
 51
89.9975138189
  0
ARC
  5
4E6
100
AcDbEntity
  8
0
100
AcDbCircle
 62
7
  6
CONTINUOUS
 10
2.9654756245
 20
16.5168194248
 30
0.0
 40
0.2500066177
100
AcDbArc
 50
90.0024861811
 51
179.9975138189
  0
ARC
  5
4E7
100
AcDbEntity
  8
RACCORDO
100
AcDbCircle
 62
250
  6
CONTINUOUS
 10
5.1450296376
 20
14.1400798003
 30
0.0
 40
0.2000647084
100
AcDbArc
 50
90.0246492203
 51
179.9006606575
  0
ARC
  5
4E8
100
AcDbEntity
  8
0
100
AcDbCircle
 62
7
  6
CONTINUOUS
 10
-3.3476278794
 20
16.0799229287
 30
0.0
 40
0.2000016924
100
AcDbArc
 50
90.0004848234
 51
180.0004848094
  0
ARC
  5
4E9
100
AcDbEntity
  8
0
100
AcDbCircle
 62
7
  6
CONTINUOUS
 10
-3.3476307562
 20
16.0781736873
 30
0.0
 40
0.1999988155
100
AcDbArc
 50
89.9996606734
 51
179.9993696938
  0
ARC
  5
4EA
100
AcDbEntity
  8
RACCORDO
100
AcDbCircle
 62
250
  6
CONTINUOUS
 10
2.5097261633
 20
14.8147701551
 30
0.0
 40
0.1999348843
100
AcDbArc
 50
269.9794819183
 51
359.937526673
  0
ARC
  5
4EB
100
AcDbEntity
  8
RACCORDO
100
AcDbCircle
 62
250
  6
CONTINUOUS
 10
5.7950146945
 20
14.8147701537
 30
0.0
 40
0.1999348842
100
AcDbArc
 50
180.0624729367
 51
270.0205177
  0
ARC
  5
4EC
100
AcDbEntity
  8
RACCORDO
100
AcDbCircle
 62
250
  6
CONTINUOUS
 10
4.7910087488
 20
14.2411959979
 30
0.0
 40
0.0989565674
100
AcDbArc
 50
79.882394993
 51
89.9900672644
  0
ARC
  5
4ED
100
AcDbEntity
  8
0
100
AcDbCircle
 62
7
  6
CONTINUOUS
 10
-64.833104855
 20
-28.7816737868
 30
0.0
 40
1.0
100
AcDbArc
 50
188.5758796048
 51
267.0
  0
ARC
  5
4EE
100
AcDbEntity
  8
DRAFT
100
AcDbCircle
 62
7
  6
CONTINUOUS
 10
-47.4022037422
 20
-29.0560623276
 30
0.0
 40
1.0
100
AcDbArc
 50
270.3333333333
 51
360.0
  0
ARC
  5
4EF
100
AcDbEntity
  8
0
100
AcDbCircle
 62
250
  6
CONTINUOUS
 10
-64.8418310377
 20
-28.781673775
 30
0.0
 40
0.500000022
100
AcDbArc
 50
188.5758805958
 51
266.9890450147
  0
ARC
  5
4F0
100
AcDbEntity
  8
0
100
AcDbCircle
 62
7
  6
CONTINUOUS
 10
-50.9022037422
 20
-31.1764331936
 30
0.0
 40
0.5
100
AcDbArc
 50
270.3333333333
 51
360.0
  0
ARC
  5
4F1
100
AcDbEntity
  8
0
100
AcDbCircle
 62
7
  6
CONTINUOUS
 10
-60.6522037422
 20
-31.956981031
 30
0.0
 40
0.25
100
AcDbArc
 50
180.0
 51
269.6666666667
  0
ARC
  5
4F2
100
AcDbEntity
  8
0
100
AcDbCircle
 62
7
  6
CONTINUOUS
 10
-57.6522037422
 20
-31.9657077757
 30
0.0
 40
0.25
100
AcDbArc
 50
270.3333333333
 51
360.0
  0
ARC
  5
4F3
100
AcDbEntity
  8
0
100
AcDbCircle
 62
7
  6
CONTINUOUS
 10
-60.6522037422
 20
-31.5644129462
 30
0.0
 40
0.25
100
AcDbArc
 50
120.0
 51
180.0
  0
ARC
  5
4F4
100
AcDbEntity
  8
0
100
AcDbCircle
 62
7
  6
CONTINUOUS
 10
-57.6522037422
 20
-31.5644129462
 30
0.0
 40
0.25
100
AcDbArc
 50
0.0
 51
60.0
  0
ARC
  5
4F5
100
AcDbEntity
  8
RACCORDO
100
AcDbCircle
 62
7
  6
CONTINUOUS
 10
-60.1022037422
 20
-30.2312566234
 30
0.0
 40
0.2
100
AcDbArc
 50
0.0
 51
87.0
  0
ARC
  5
4F6
100
AcDbEntity
  8
Z030100_COP
100
AcDbCircle
 62
7
  6
CONTINUOUS
 10
-51.8272037422
 20
-13.4700753789
 30
0.0
 40
0.5
100
AcDbArc
 50
190.5216629287
 51
349.4783370713
  0
ARC
  5
4F7
100
AcDbEntity
  8
Z030100_COP
100
AcDbCircle
 62
7
  6
CONTINUOUS
 10
-47.9772037422
 20
-13.4700753789
 30
0.0
 40
0.5
100
AcDbArc
 50
190.5216629287
 51
349.4783370713
  0
ARC
  5
4F8
100
AcDbEntity
  8
Z030100_COP
100
AcDbCircle
 62
7
  6
CONTINUOUS
 10
-44.2272037422
 20
-13.4700753789
 30
0.0
 40
0.5
100
AcDbArc
 50
190.5216629287
 51
349.4783370713
  0
ARC
  5
4F9
100
AcDbEntity
  8
Z030100_COP
100
AcDbCircle
 62
7
  6
CONTINUOUS
 10
-40.3772037422
 20
-13.4700753789
 30
0.0
 40
0.5
100
AcDbArc
 50
190.5216629287
 51
349.4783370713
  0
ARC
  5
4FA
100
AcDbEntity
  8
Z030100_COP
100
AcDbCircle
 62
7
  6
CONTINUOUS
 10
-53.3022037422
 20
-19.0700753789
 30
0.0
 40
0.3
100
AcDbArc
 50
180.0
 51
270.0
  0
ARC
  5
4FB
100
AcDbEntity
  8
Z030100_COP
100
AcDbCircle
 62
7
  6
CONTINUOUS
 10
-46.5022037422
 20
-19.0700753789
 30
0.0
 40
0.3
100
AcDbArc
 50
270.0
 51
360.0
  0
ARC
  5
4FC
100
AcDbEntity
  8
Z030100_COP
100
AcDbCircle
 62
7
  6
CONTINUOUS
 10
-45.7022037422
 20
-19.0700753789
 30
0.0
 40
0.3
100
AcDbArc
 50
180.0
 51
270.0
  0
ARC
  5
4FD
100
AcDbEntity
  8
Z030100_COP
100
AcDbCircle
 62
7
  6
CONTINUOUS
 10
-38.9022037422
 20
-19.0700753789
 30
0.0
 40
0.3
100
AcDbArc
 50
270.0
 51
360.0
  0
ARC
  5
4FE
100
AcDbEntity
  8
RACCORDO
100
AcDbCircle
 62
7
  6
CONTINUOUS
 10
-55.3022037422
 20
-14.0073554804
 30
0.0
 40
0.3
100
AcDbArc
 50
0.0
 51
89.5
  0
ARC
  5
4FF
100
AcDbEntity
  8
RACCORDO
100
AcDbCircle
 62
250
  6
CONTINUOUS
 10
-55.3013649686
 20
-14.0073894752
 30
0.0
 40
0.200035368
100
AcDbArc
 50
0.0097371502
 51
89.4903811137
  0
ARC
  5
500
100
AcDbEntity
  8
RACCORDO
100
AcDbCircle
 62
7
  6
CONTINUOUS
 10
-55.1022040248
 20
-15.8090932358
 30
0.0
 40
0.1
100
AcDbArc
 50
359.9999985869
 51
23.0489999027
  0
ARC
  5
501
100
AcDbEntity
  8
RACCORDO
100
AcDbCircle
 62
7
  6
CONTINUOUS
 10
-55.1022037422
 20
-16.4310575196
 30
0.0
 40
0.1
100
AcDbArc
 50
270.5
 51
360.0
  0
ARC
  5
502
100
AcDbEntity
  8
RACCORDO
100
AcDbCircle
 62
7
  6
CONTINUOUS
 10
-55.1022038495
 20
-8.0310575206
 30
0.0
 40
0.1
100
AcDbArc
 50
270.5000614912
 51
0.0000005366
  0
ARC
  5
503
100
AcDbEntity
  8
0
100
AcDbCircle
 62
7
  6
CONTINUOUS
 10
23.171807938
 20
-15.5100753789
 30
0.0
 40
90.0
100
AcDbArc
 50
181.08868532
 51
188.5758796048
  0
ARC
  5
504
100
AcDbEntity
  8
0
100
AcDbCircle
 62
250
  6
CONTINUOUS
 10
23.1631821341
 20
-15.5100668912
 30
0.0
 40
89.5001005425
100
AcDbArc
 50
181.0886895315
 51
188.5758753933
  0
ARC
  5
505
100
AcDbEntity
  8
RACCORDO
100
AcDbCircle
 62
7
  6
CONTINUOUS
 10
-37.8022037422
 20
2.1799246211
 30
0.0
 40
1.0
100
AcDbArc
 50
0.0
 51
90.0
  0
ARC
  5
506
100
AcDbEntity
  8
RACCORDO
100
AcDbCircle
 62
7
  6
CONTINUOUS
 10
-42.8022037422
 20
2.3799246211
 30
0.0
 40
0.8
100
AcDbArc
 50
90.0
 51
180.0
  0
ARC
  5
507
100
AcDbEntity
  8
RACCORDO
100
AcDbCircle
 62
7
  6
CONTINUOUS
 10
-49.9163988952
 20
2.2299246211
 30
0.0
 40
0.5
100
AcDbArc
 50
0.0
 51
90.0
  0
ARC
  5
508
100
AcDbEntity
  8
RACCORDO
100
AcDbCircle
 62
7
  6
CONTINUOUS
 10
-47.9751969749
 20
3.4299246211
 30
0.0
 40
0.5
100
AcDbArc
 50
3.1798301199
 51
90.0
  0
ARC
  5
509
100
AcDbEntity
  8
RACCORDO
100
AcDbCircle
 62
7
  6
CONTINUOUS
 10
-56.2264678109
 20
3.7799246211
 30
0.0
 40
0.3
100
AcDbArc
 50
270.0
 51
315.0
  0
ARC
  5
50A
100
AcDbEntity
  8
RACCORDO
100
AcDbCircle
 62
7
  6
CONTINUOUS
 10
-55.1022040107
 20
-7.4090932359
 30
0.0
 40
0.1
100
AcDbArc
 50
359.9999986573
 51
89.4998461376
  0
ARC
  5
50B
100
AcDbEntity
  8
RACCORDO
100
AcDbCircle
 62
7
  6
CONTINUOUS
 10
-55.1022040134
 20
0.2909067641
 30
0.0
 40
0.1
100
AcDbArc
 50
23.0490023917
 51
89.4998445972
  0
ARC
  5
50C
100
AcDbEntity
  8
RACCORDO
100
AcDbCircle
 62
7
  6
CONTINUOUS
 10
-56.3022037422
 20
10.0755802264
 30
0.0
 40
0.5
100
AcDbArc
 50
270.5
 51
360.0
  0
ARC
  5
50D
100
AcDbEntity
  8
RACCORDO
100
AcDbCircle
 62
250
  6
CONTINUOUS
 10
-56.2996126828
 20
10.0756066004
 30
0.0
 40
0.200028027
100
AcDbArc
 50
270.5076393922
 51
359.9924454225
  0
ARC
  5
50E
100
AcDbEntity
  8
RACCORDO
100
AcDbCircle
 62
7
  6
CONTINUOUS
 10
-55.1022037422
 20
4.5909067618
 30
0.0
 40
0.1
100
AcDbArc
 50
0.0
 51
89.5
  0
ARC
  5
50F
100
AcDbEntity
  8
0
100
AcDbCircle
 62
7
  6
CONTINUOUS
 10
-64.833104855
 20
13.341523029
 30
0.0
 40
1.0
100
AcDbArc
 50
93.0
 51
171.4241203952
  0
ARC
  5
510
100
AcDbEntity
  8
RACCORDO
100
AcDbCircle
 62
7
  6
CONTINUOUS
 10
-64.833104855
 20
13.341523029
 30
0.0
 40
1.0
100
AcDbArc
 50
93.0
 51
171.4241203952
  0
ARC
  5
511
100
AcDbEntity
  8
0
100
AcDbCircle
 62
250
  6
CONTINUOUS
 10
-64.8418310521
 20
13.3415230222
 30
0.0
 40
0.500000007
100
AcDbArc
 50
93.0000006591
 51
171.4241197361
  0
ARC
  5
512
100
AcDbEntity
  8
RACCORDO
100
AcDbCircle
 62
7
  6
CONTINUOUS
 10
-60.1022037422
 20
14.7911058655
 30
0.0
 40
0.2
100
AcDbArc
 50
273.0002333637
 51
360.0
  0
ARC
  5
513
100
AcDbEntity
  8
0
100
AcDbCircle
 62
7
  6
CONTINUOUS
 10
-60.6522037422
 20
16.5168302731
 30
0.0
 40
0.25
100
AcDbArc
 50
90.3333333333
 51
180.0
  0
ARC
  5
514
100
AcDbEntity
  8
0
100
AcDbCircle
 62
7
  6
CONTINUOUS
 10
-57.6522037422
 20
16.5255570179
 30
0.0
 40
0.25
100
AcDbArc
 50
0.0
 51
89.6666666667
  0
ARC
  5
515
100
AcDbEntity
  8
0
100
AcDbCircle
 62
7
  6
CONTINUOUS
 10
-60.6522037422
 20
16.1242621884
 30
0.0
 40
0.25
100
AcDbArc
 50
180.0
 51
240.0
  0
ARC
  5
516
100
AcDbEntity
  8
0
100
AcDbCircle
 62
7
  6
CONTINUOUS
 10
-57.6522037422
 20
16.1242621884
 30
0.0
 40
0.25
100
AcDbArc
 50
300.0
 51
360.0
  0
ARC
  5
517
100
AcDbEntity
  8
0
100
AcDbCircle
 62
7
  6
CONTINUOUS
 10
-37.2870334619
 20
7.8138513596
 30
0.0
 40
44.7858999143
100
AcDbArc
 50
239.6711809666
 51
240.0388810573
  0
ARC
  5
518
100
AcDbEntity
  8
DRAFT
100
AcDbCircle
 62
7
  6
CONTINUOUS
 10
-47.4022037422
 20
13.6159115697
 30
0.0
 40
1.0
100
AcDbArc
 50
0.0
 51
89.6666666667
  0
ARC
  5
519
100
AcDbEntity
  8
0
100
AcDbCircle
 62
7
  6
CONTINUOUS
 10
-50.9022037422
 20
15.7362824358
 30
0.0
 40
0.5
100
AcDbArc
 50
0.0
 51
89.6666666667
  0
ARC
  5
51A
100
AcDbEntity
  8
0
100
AcDbCircle
 62
7
  6
CONTINUOUS
 10
23.171807938
 20
0.0699246211
 30
0.0
 40
90.0
100
AcDbArc
 50
171.4241203952
 51
178.91131468
  0
ARC
  5
51B
100
AcDbEntity
  8
RACCORDO
100
AcDbCircle
 62
7
  6
CONTINUOUS
 10
23.171807938
 20
0.0699246211
 30
0.0
 40
90.0
100
AcDbArc
 50
171.4241203952
 51
175.2083945865
  0
ARC
  5
51C
100
AcDbEntity
  8
0
100
AcDbCircle
 62
250
  6
CONTINUOUS
 10
23.1631821341
 20
0.0699161333
 30
0.0
 40
89.5001005425
100
AcDbArc
 50
171.4241246067
 51
178.9113104685
  0
ARC
  5
51D
100
AcDbEntity
  8
0
100
AcDbCircle
 62
7
  6
CONTINUOUS
 10
433.0977962578
 20
-7.7200753789
 30
0.0
 40
500.0
100
AcDbArc
 50
178.91131468
 51
181.08868532
  0
ARC
  5
51E
100
AcDbEntity
  8
0
100
AcDbCircle
 62
250
  6
CONTINUOUS
 10
433.1343639667
 20
-7.7200753789
 30
0.0
 40
499.5452857366
100
AcDbArc
 50
178.9114133854
 51
181.0885866146
  0
SPLINE
  5
51F
100
AcDbEntity
  8
RACCORDO
100
AcDbSpline
 62
250
  6
CONTINUOUS
 70
0
 71
3
 72
9
 73
5
 74
0
 42
0.0000001
 43
0.0000001
 44
0.0000000001
 40
0.0
 40
0.0
 40
0.0
 40
0.0
 40
0.2493125233
 40
1.0
 40
1.0
 40
1.0
 40
1.0
 10
4.8989575176
 20
13.4757302039
 30
0.0
 10
4.8978224653
 20
13.0445306946
 30
0.0
 10
4.8934944139
 20
11.3149759607
 30
0.0
 10
4.8900614808
 20
9.5854189903
 30
0.0
 10
4.8879813115
 20
8.2870615183
 30
0.0
  0
SPLINE
  5
520
100
AcDbEntity
  8
RACCORDO
100
AcDbSpline
 62
250
  6
CONTINUOUS
 70
0
 71
3
 72
14
 73
10
 74
0
 42
0.0000001
 43
0.0000001
 44
0.0000000001
 40
0.0
 40
0.0
 40
0.0
 40
0.0
 40
0.0280857326
 40
0.0886917992
 40
0.1822021503
 40
0.3059849229
 40
0.4555273848
 40
0.6259034895
 40
1.0
 40
1.0
 40
1.0
 40
1.0
 10
4.887981174
 20
8.2870615183
 30
0.0
 10
4.8878043814
 20
8.2879914642
 30
0.0
 10
4.8844491514
 20
8.2894083491
 30
0.0
 10
4.8789712099
 20
8.290834731
 30
0.0
 10
4.8694640076
 20
8.2923296124
 30
0.0
 10
4.8572674417
 20
8.2936184047
 30
0.0
 10
4.8423150546
 20
8.2947192794
 30
0.0
 10
4.818964627
 20
8.2958421858
 30
0.0
 10
4.8006050785
 20
8.2961817928
 30
0.0
 10
4.787996542
 20
8.2962018261
 30
0.0
  0
SPLINE
  5
521
100
AcDbEntity
  8
RACCORDO
100
AcDbSpline
 62
250
  6
CONTINUOUS
 70
0
 71
3
 72
11
 73
7
 74
0
 42
0.0000001
 43
0.0000001
 44
0.0000000001
 40
0.0
 40
0.0
 40
0.0
 40
0.0
 40
0.202451901
 40
0.434225943
 40
0.7047106755
 40
1.0
 40
1.0
 40
1.0
 40
1.0
 10
4.9023444444
 20
13.9112735841
 30
0.0
 10
4.9020387459
 20
13.9200170509
 30
0.0
 10
4.8957440522
 20
13.9388435656
 30
0.0
 10
4.8722793274
 20
13.9598021072
 30
0.0
 10
4.8396270367
 20
13.9721793114
 30
0.0
 10
4.8151160005
 20
13.975309169
 30
0.0
 10
4.8023552907
 20
13.9753091729
 30
0.0
  0
SPLINE
  5
522
100
AcDbEntity
  8
RACCORDO
100
AcDbSpline
 62
250
  6
CONTINUOUS
 70
0
 71
3
 72
14
 73
10
 74
0
 42
0.0000001
 43
0.0000001
 44
0.0000000001
 40
0.0
 40
0.0
 40
0.0
 40
0.0
 40
0.0299753566
 40
0.0890062747
 40
0.1765763925
 40
0.2917753159
 40
0.4333780119
 40
0.5998439838
 40
1.0
 40
1.0
 40
1.0
 40
1.0
 10
4.7910259039
 20
14.3401525637
 30
0.0
 10
4.7920735336
 20
14.3366578104
 30
0.0
 10
4.7929284451
 20
14.3257518554
 30
0.0
 10
4.7946286563
 20
14.3044032822
 30
0.0
 10
4.7959730507
 20
14.2725245217
 30
0.0
 10
4.7974667015
 20
14.23065314
 30
0.0
 10
4.7988308335
 20
14.1791471449
 30
0.0
 10
4.8006882492
 20
14.0929694215
 30
0.0
 10
4.8017278308
 20
14.0240097719
 30
0.0
 10
4.8023547282
 20
13.9753094801
 30
0.0
  0
SPLINE
  5
523
100
AcDbEntity
  8
RACCORDO
100
AcDbSpline
 62
250
  6
CONTINUOUS
 70
0
 71
3
 72
14
 73
10
 74
0
 42
0.0000001
 43
0.0000001
 44
0.0000000001
 40
0.0
 40
0.0
 40
0.0
 40
0.0
 40
0.02808574
 40
0.0886918361
 40
0.1822022259
 40
0.3059850347
 40
0.4555275173
 40
0.6259036148
 40
1.0
 40
1.0
 40
1.0
 40
1.0
 10
-13.983240455
 20
8.2870615183
 30
0.0
 10
-13.9830636617
 20
8.2879914656
 30
0.0
 10
-13.9797084244
 20
8.2894083504
 30
0.0
 10
-13.9742304735
 20
8.290834734
 30
0.0
 10
-13.9647232541
 20
8.2923296157
 30
0.0
 10
-13.9525266685
 20
8.2936184084
 30
0.0
 10
-13.9375742593
 20
8.2947192828
 30
0.0
 10
-13.9142238038
 20
8.2958421881
 30
0.0
 10
-13.8958642348
 20
8.2961817939
 30
0.0
 10
-13.8832556855
 20
8.296201826
 30
0.0
  0
SPLINE
  5
524
100
AcDbEntity
  8
RACCORDO
100
AcDbSpline
 62
250
  6
CONTINUOUS
 70
0
 71
3
 72
9
 73
5
 74
0
 42
0.0000001
 43
0.0000001
 44
0.0000000001
 40
0.0
 40
0.0
 40
0.0
 40
0.0
 40
0.2506338713
 40
1.0
 40
1.0
 40
1.0
 40
1.0
 10
-13.8832556855
 20
8.2962018263
 30
0.0
 10
-13.8839501967
 20
8.7301698095
 30
0.0
 10
-13.8869423611
 20
10.4616512344
 30
0.0
 10
-13.8908202309
 20
12.1931311326
 30
0.0
 10
-13.8942318916
 20
13.4906421122
 30
0.0
  0
SPLINE
  5
525
100
AcDbEntity
  8
RACCORDO
100
AcDbSpline
 62
250
  6
CONTINUOUS
 70
0
 71
3
 72
9
 73
5
 74
0
 42
0.0000001
 43
0.0000001
 44
0.0000000001
 40
0.0
 40
0.0
 40
0.0
 40
0.0
 40
0.4996162022
 40
1.0
 40
1.0
 40
1.0
 40
1.0
 10
-13.9809069576
 20
14.2724967445
 30
0.0
 10
-13.9752665806
 20
14.2891294167
 30
0.0
 10
-13.954640221
 20
14.3199995329
 30
0.0
 10
-13.9209696078
 20
14.3355367749
 30
0.0
 10
-13.9036508363
 20
14.3386138403
 30
0.0
  0
SPLINE
  5
526
100
AcDbEntity
  8
RACCORDO
100
AcDbSpline
 62
250
  6
CONTINUOUS
 70
0
 71
3
 72
9
 73
5
 74
0
 42
0.0000001
 43
0.0000001
 44
0.0000000001
 40
0.0
 40
0.0
 40
0.0
 40
0.0
 40
0.499621216
 40
1.0
 40
1.0
 40
1.0
 40
1.0
 10
4.8857333253
 20
14.2722435236
 30
0.0
 10
4.8801228268
 20
14.2889316604
 30
0.0
 10
4.8595053394
 20
14.3199280945
 30
0.0
 10
4.8257531672
 20
14.3355290575
 30
0.0
 10
4.808392372
 20
14.3386137163
 30
0.0
  0
SPLINE
  5
527
100
AcDbEntity
  8
RACCORDO
100
AcDbSpline
 62
250
  6
CONTINUOUS
 70
0
 71
3
 72
9
 73
5
 74
0
 42
0.0000001
 43
0.0000001
 44
0.0000000001
 40
0.0
 40
0.0
 40
0.0
 40
0.0
 40
0.2506338712
 40
1.0
 40
1.0
 40
1.0
 40
1.0
 10
-13.983240455
 20
8.2870615183
 30
0.0
 10
-13.9839349662
 20
8.7205473156
 30
0.0
 10
-13.9869271306
 20
10.4501048753
 30
0.0
 10
-13.9908050005
 20
12.1796609065
 30
0.0
 10
-13.9942166611
 20
13.4757302039
 30
0.0
  0
SPLINE
  5
528
100
AcDbEntity
  8
RACCORDO
100
AcDbSpline
 62
250
  6
CONTINUOUS
 70
0
 71
3
 72
11
 73
7
 74
0
 42
0.0000001
 43
0.0000001
 44
0.0000000001
 40
0.0
 40
0.0
 40
0.0
 40
0.0
 40
0.1914496094
 40
0.4233007471
 40
0.6993537261
 40
1.0
 40
1.0
 40
1.0
 40
1.0
 10
-13.9976295816
 20
13.9140540395
 30
0.0
 10
-13.9976295816
 20
13.9221676446
 30
0.0
 10
-13.9903960577
 20
13.9400388925
 30
0.0
 10
-13.9670411926
 20
13.9592670815
 30
0.0
 10
-13.9349681781
 20
13.9725184037
 30
0.0
 10
-13.9103556865
 20
13.9753088155
 30
0.0
 10
-13.8976143435
 20
13.9753088189
 30
0.0
  0
SPLINE
  5
529
100
AcDbEntity
  8
RACCORDO
100
AcDbSpline
 62
250
  6
CONTINUOUS
 70
0
 71
3
 72
12
 73
8
 74
0
 42
0.0000001
 43
0.0000001
 44
0.0000000001
 40
0.0
 40
0.0
 40
0.0
 40
0.0
 40
0.0353363457
 40
0.098695342
 40
0.3156909008
 40
0.6315952649
 40
1.0
 40
1.0
 40
1.0
 40
1.0
 10
-13.9942166611
 20
13.4757302039
 30
0.0
 10
-13.9940775872
 20
13.4769320361
 30
0.0
 10
-13.9911894355
 20
13.4794985459
 30
0.0
 10
-13.9813646505
 20
13.4833043723
 30
0.0
 10
-13.960913989
 20
13.4871075914
 30
0.0
 10
-13.9303261351
 20
13.4898909846
 30
0.0
 10
-13.9068453579
 20
13.4906096278
 30
0.0
 10
-13.8942318916
 20
13.4906420889
 30
0.0
  0
SPLINE
  5
52A
100
AcDbEntity
  8
RACCORDO
100
AcDbSpline
 62
250
  6
CONTINUOUS
 70
0
 71
3
 72
14
 73
10
 74
0
 42
0.0000001
 43
0.0000001
 44
0.0000000001
 40
0.0
 40
0.0
 40
0.0
 40
0.0
 40
0.4001503413
 40
0.5666170872
 40
0.7082211337
 40
0.8234216834
 40
0.9109930159
 40
0.9700245309
 40
1.0
 40
1.0
 40
1.0
 40
1.0
 10
-13.8976139243
 20
13.9753092546
 30
0.0
 10
-13.8969870325
 20
14.0240088859
 30
0.0
 10
-13.8959473919
 20
14.0929679805
 30
0.0
 10
-13.8940900268
 20
14.1791453263
 30
0.0
 10
-13.8927258827
 20
14.2306518096
 30
0.0
 10
-13.8912322268
 20
14.2725237278
 30
0.0
 10
-13.8898878188
 20
14.3044029255
 30
0.0
 10
-13.8881876054
 20
14.3257517485
 30
0.0
 10
-13.8873326724
 20
14.3366577923
 30
0.0
 10
-13.8862850474
 20
14.3401525637
 30
0.0
  0
SPLINE
  5
52B
100
AcDbEntity
  8
RACCORDO
100
AcDbSpline
 62
250
  6
CONTINUOUS
 70
0
 71
3
 72
12
 73
8
 74
0
 42
0.0000001
 43
0.0000001
 44
0.0000000001
 40
0.0
 40
0.0
 40
0.0
 40
0.0
 40
0.0353363376
 40
0.0986954919
 40
0.3156912957
 40
0.6315954153
 40
1.0
 40
1.0
 40
1.0
 40
1.0
 10
4.8989575176
 20
13.4757302039
 30
0.0
 10
4.8988184526
 20
13.476932037
 30
0.0
 10
4.8959302846
 20
13.4794985521
 30
0.0
 10
4.8861054973
 20
13.4833043778
 30
0.0
 10
4.865654822
 20
13.4871076105
 30
0.0
 10
4.8350669757
 20
13.4898910026
 30
0.0
 10
4.8115862098
 20
13.4906096475
 30
0.0
 10
4.7989727481
 20
13.4906421117
 30
0.0
  0
SPLINE
  5
52C
100
AcDbEntity
  8
RACCORDO
100
AcDbSpline
 62
250
  6
CONTINUOUS
 70
0
 71
3
 72
9
 73
5
 74
0
 42
0.0000001
 43
0.0000001
 44
0.0000000001
 40
0.0
 40
0.0
 40
0.0
 40
0.0
 40
0.2493125232
 40
1.0
 40
1.0
 40
1.0
 40
1.0
 10
4.7989727481
 20
13.4906421122
 30
0.0
 10
4.7978376958
 20
13.0589629585
 30
0.0
 10
4.7935096444
 20
11.3274843561
 30
0.0
 10
4.7900767113
 20
9.5960035197
 30
0.0
 10
4.787996542
 20
8.2962018263
 30
0.0
  0
SPLINE
  5
52D
100
AcDbEntity
  8
0
100
AcDbSpline
 62
7
  6
CONTINUOUS
 70
0
 71
3
 72
8
 73
4
 74
0
 42
0.0000001
 43
0.0000001
 44
0.0000000001
 40
0.0
 40
0.0
 40
0.0
 40
0.0
 40
1.0
 40
1.0
 40
1.0
 40
1.0
 10
-14.6950850459
 20
16.5655069872
 30
0.0
 10
-14.6905973646
 20
16.5967274777
 30
0.0
 10
-14.6799069476
 20
16.6276110117
 30
0.0
 10
-14.6641368062
 20
16.6549269586
 30
0.0
  0
SPLINE
  5
52E
100
AcDbEntity
  8
0
100
AcDbSpline
 62
7
  6
CONTINUOUS
 70
0
 71
3
 72
8
 73
4
 74
0
 42
0.0000001
 43
0.0000001
 44
0.0000000001
 40
0.0
 40
0.0
 40
0.0
 40
0.0
 40
1.0
 40
1.0
 40
1.0
 40
1.0
 10
-14.6641368062
 20
16.6549269586
 30
0.0
 10
-14.6425696418
 20
16.6922841074
 30
0.0
 10
-14.6099890581
 20
16.7248646911
 30
0.0
 10
-14.5726319093
 20
16.7464318555
 30
0.0
  0
SPLINE
  5
52F
100
AcDbEntity
  8
0
100
AcDbSpline
 62
7
  6
CONTINUOUS
 70
0
 71
3
 72
8
 73
4
 74
0
 42
0.0000001
 43
0.0000001
 44
0.0000000001
 40
0.0
 40
0.0
 40
0.0
 40
0.0
 40
1.0
 40
1.0
 40
1.0
 40
1.0
 10
-14.5726319093
 20
16.7464318555
 30
0.0
 10
-14.5352747608
 20
16.7679990198
 30
0.0
 10
-14.4907696243
 20
16.7799246211
 30
0.0
 10
-14.4476338025
 20
16.7799246211
 30
0.0
  0
SPLINE
  5
530
100
AcDbEntity
  8
0
100
AcDbSpline
 62
7
  6
CONTINUOUS
 70
0
 71
3
 72
8
 73
4
 74
0
 42
0.0000001
 43
0.0000001
 44
0.0000000001
 40
0.0
 40
0.0
 40
0.0
 40
0.0
 40
1.0
 40
1.0
 40
1.0
 40
1.0
 10
-12.0120472056
 20
16.7773800952
 30
0.0
 10
-11.9808267151
 20
16.7728924139
 30
0.0
 10
-11.9499431811
 20
16.7622019969
 30
0.0
 10
-11.9226272342
 20
16.7464318555
 30
0.0
  0
SPLINE
  5
531
100
AcDbEntity
  8
0
100
AcDbSpline
 62
7
  6
CONTINUOUS
 70
0
 71
3
 72
8
 73
4
 74
0
 42
0.0000001
 43
0.0000001
 44
0.0000000001
 40
0.0
 40
0.0
 40
0.0
 40
0.0
 40
1.0
 40
1.0
 40
1.0
 40
1.0
 10
-11.9226272342
 20
16.7464318555
 30
0.0
 10
-11.8852700855
 20
16.7248646911
 30
0.0
 10
-11.8526895018
 20
16.6922841074
 30
0.0
 10
-11.8311223373
 20
16.6549269586
 30
0.0
  0
SPLINE
  5
532
100
AcDbEntity
  8
0
100
AcDbSpline
 62
7
  6
CONTINUOUS
 70
0
 71
3
 72
8
 73
4
 74
0
 42
0.0000001
 43
0.0000001
 44
0.0000000001
 40
0.0
 40
0.0
 40
0.0
 40
0.0
 40
1.0
 40
1.0
 40
1.0
 40
1.0
 10
-11.8311223373
 20
16.6549269586
 30
0.0
 10
-11.809555173
 20
16.6175698101
 30
0.0
 10
-11.7976295718
 20
16.5730646736
 30
0.0
 10
-11.7976295718
 20
16.5299288519
 30
0.0
  0
SPLINE
  5
533
100
AcDbEntity
  8
0
100
AcDbSpline
 62
7
  6
CONTINUOUS
 70
0
 71
3
 72
8
 73
4
 74
0
 42
0.0000001
 43
0.0000001
 44
0.0000000001
 40
0.0
 40
0.0
 40
0.0
 40
0.0
 40
1.0
 40
1.0
 40
1.0
 40
1.0
 10
5.3879527944
 20
16.7773800952
 30
0.0
 10
5.4191732849
 20
16.7728924139
 30
0.0
 10
5.4500568189
 20
16.7622019969
 30
0.0
 10
5.4773727658
 20
16.7464318555
 30
0.0
  0
SPLINE
  5
534
100
AcDbEntity
  8
0
100
AcDbSpline
 62
7
  6
CONTINUOUS
 70
0
 71
3
 72
8
 73
4
 74
0
 42
0.0000001
 43
0.0000001
 44
0.0000000001
 40
0.0
 40
0.0
 40
0.0
 40
0.0
 40
1.0
 40
1.0
 40
1.0
 40
1.0
 10
5.4773727658
 20
16.7464318555
 30
0.0
 10
5.5147299145
 20
16.7248646911
 30
0.0
 10
5.5473104982
 20
16.6922841074
 30
0.0
 10
5.5688776627
 20
16.6549269586
 30
0.0
  0
SPLINE
  5
535
100
AcDbEntity
  8
0
100
AcDbSpline
 62
7
  6
CONTINUOUS
 70
0
 71
3
 72
8
 73
4
 74
0
 42
0.0000001
 43
0.0000001
 44
0.0000000001
 40
0.0
 40
0.0
 40
0.0
 40
0.0
 40
1.0
 40
1.0
 40
1.0
 40
1.0
 10
5.5688776627
 20
16.6549269586
 30
0.0
 10
5.590444827
 20
16.6175698101
 30
0.0
 10
5.6023704282
 20
16.5730646736
 30
0.0
 10
5.6023704282
 20
16.5299288519
 30
0.0
  0
SPLINE
  5
536
100
AcDbEntity
  8
0
100
AcDbSpline
 62
7
  6
CONTINUOUS
 70
0
 71
3
 72
8
 73
4
 74
0
 42
0.0000001
 43
0.0000001
 44
0.0000000001
 40
0.0
 40
0.0
 40
0.0
 40
0.0
 40
1.0
 40
1.0
 40
1.0
 40
1.0
 10
2.7049149541
 20
16.5655069872
 30
0.0
 10
2.7094026354
 20
16.5967274777
 30
0.0
 10
2.7200930524
 20
16.6276110117
 30
0.0
 10
2.7358631938
 20
16.6549269586
 30
0.0
  0
SPLINE
  5
537
100
AcDbEntity
  8
0
100
AcDbSpline
 62
7
  6
CONTINUOUS
 70
0
 71
3
 72
8
 73
4
 74
0
 42
0.0000001
 43
0.0000001
 44
0.0000000001
 40
0.0
 40
0.0
 40
0.0
 40
0.0
 40
1.0
 40
1.0
 40
1.0
 40
1.0
 10
2.7358631938
 20
16.6549269586
 30
0.0
 10
2.7574303582
 20
16.6922841074
 30
0.0
 10
2.7900109419
 20
16.7248646911
 30
0.0
 10
2.8273680907
 20
16.7464318555
 30
0.0
  0
SPLINE
  5
538
100
AcDbEntity
  8
0
100
AcDbSpline
 62
7
  6
CONTINUOUS
 70
0
 71
3
 72
8
 73
4
 74
0
 42
0.0000001
 43
0.0000001
 44
0.0000000001
 40
0.0
 40
0.0
 40
0.0
 40
0.0
 40
1.0
 40
1.0
 40
1.0
 40
1.0
 10
2.8273680907
 20
16.7464318555
 30
0.0
 10
2.8647252392
 20
16.7679990198
 30
0.0
 10
2.9092303757
 20
16.7799246211
 30
0.0
 10
2.9523661975
 20
16.7799246211
 30
0.0
  0
SPLINE
  5
539
100
AcDbEntity
  8
0
100
AcDbSpline
 62
7
  6
CONTINUOUS
 70
0
 71
3
 72
8
 73
4
 74
0
 42
0.0000001
 43
0.0000001
 44
0.0000000001
 40
0.0
 40
0.0
 40
0.0
 40
0.0
 40
1.0
 40
1.0
 40
1.0
 40
1.0
 10
-14.4832119379
 20
-32.2175308531
 30
0.0
 10
-14.5144324284
 20
-32.2130431718
 30
0.0
 10
-14.5453159624
 20
-32.2023527548
 30
0.0
 10
-14.5726319093
 20
-32.1865826134
 30
0.0
  0
SPLINE
  5
53A
100
AcDbEntity
  8
0
100
AcDbSpline
 62
7
  6
CONTINUOUS
 70
0
 71
3
 72
8
 73
4
 74
0
 42
0.0000001
 43
0.0000001
 44
0.0000000001
 40
0.0
 40
0.0
 40
0.0
 40
0.0
 40
1.0
 40
1.0
 40
1.0
 40
1.0
 10
-14.5726319093
 20
-32.1865826134
 30
0.0
 10
-14.6099890581
 20
-32.1650154489
 30
0.0
 10
-14.6425696418
 20
-32.1324348652
 30
0.0
 10
-14.6641368062
 20
-32.0950777165
 30
0.0
  0
SPLINE
  5
53B
100
AcDbEntity
  8
0
100
AcDbSpline
 62
7
  6
CONTINUOUS
 70
0
 71
3
 72
8
 73
4
 74
0
 42
0.0000001
 43
0.0000001
 44
0.0000000001
 40
0.0
 40
0.0
 40
0.0
 40
0.0
 40
1.0
 40
1.0
 40
1.0
 40
1.0
 10
-14.6641368062
 20
-32.0950777165
 30
0.0
 10
-14.6857039705
 20
-32.057720568
 30
0.0
 10
-14.6976295718
 20
-32.0132154314
 30
0.0
 10
-14.6976295718
 20
-31.9700796097
 30
0.0
  0
SPLINE
  5
53C
100
AcDbEntity
  8
0
100
AcDbSpline
 62
7
  6
CONTINUOUS
 70
0
 71
3
 72
8
 73
4
 74
0
 42
0.0000001
 43
0.0000001
 44
0.0000000001
 40
0.0
 40
0.0
 40
0.0
 40
0.0
 40
1.0
 40
1.0
 40
1.0
 40
1.0
 10
-11.8001740976
 20
-32.0056577451
 30
0.0
 10
-11.8046617789
 20
-32.0368782356
 30
0.0
 10
-11.8153521959
 20
-32.0677617696
 30
0.0
 10
-11.8311223373
 20
-32.0950777165
 30
0.0
  0
SPLINE
  5
53D
100
AcDbEntity
  8
0
100
AcDbSpline
 62
7
  6
CONTINUOUS
 70
0
 71
3
 72
8
 73
4
 74
0
 42
0.0000001
 43
0.0000001
 44
0.0000000001
 40
0.0
 40
0.0
 40
0.0
 40
0.0
 40
1.0
 40
1.0
 40
1.0
 40
1.0
 10
-11.8311223373
 20
-32.0950777165
 30
0.0
 10
-11.8526895018
 20
-32.1324348652
 30
0.0
 10
-11.8852700855
 20
-32.1650154489
 30
0.0
 10
-11.9226272342
 20
-32.1865826134
 30
0.0
  0
SPLINE
  5
53E
100
AcDbEntity
  8
0
100
AcDbSpline
 62
7
  6
CONTINUOUS
 70
0
 71
3
 72
8
 73
4
 74
0
 42
0.0000001
 43
0.0000001
 44
0.0000000001
 40
0.0
 40
0.0
 40
0.0
 40
0.0
 40
1.0
 40
1.0
 40
1.0
 40
1.0
 10
-11.9226272342
 20
-32.1865826134
 30
0.0
 10
-11.9599843827
 20
-32.2081497777
 30
0.0
 10
-12.0044895193
 20
-32.2200753789
 30
0.0
 10
-12.047625341
 20
-32.2200753789
 30
0.0
  0
SPLINE
  5
53F
100
AcDbEntity
  8
0
100
AcDbSpline
 62
7
  6
CONTINUOUS
 70
0
 71
3
 72
8
 73
4
 74
0
 42
0.0000001
 43
0.0000001
 44
0.0000000001
 40
0.0
 40
0.0
 40
0.0
 40
0.0
 40
1.0
 40
1.0
 40
1.0
 40
1.0
 10
2.9167880621
 20
-32.2175308531
 30
0.0
 10
2.8855675716
 20
-32.2130431718
 30
0.0
 10
2.8546840376
 20
-32.2023527548
 30
0.0
 10
2.8273680907
 20
-32.1865826134
 30
0.0
  0
SPLINE
  5
540
100
AcDbEntity
  8
0
100
AcDbSpline
 62
7
  6
CONTINUOUS
 70
0
 71
3
 72
8
 73
4
 74
0
 42
0.0000001
 43
0.0000001
 44
0.0000000001
 40
0.0
 40
0.0
 40
0.0
 40
0.0
 40
1.0
 40
1.0
 40
1.0
 40
1.0
 10
2.8273680907
 20
-32.1865826134
 30
0.0
 10
2.7900109419
 20
-32.1650154489
 30
0.0
 10
2.7574303582
 20
-32.1324348652
 30
0.0
 10
2.7358631938
 20
-32.0950777165
 30
0.0
  0
SPLINE
  5
541
100
AcDbEntity
  8
0
100
AcDbSpline
 62
7
  6
CONTINUOUS
 70
0
 71
3
 72
8
 73
4
 74
0
 42
0.0000001
 43
0.0000001
 44
0.0000000001
 40
0.0
 40
0.0
 40
0.0
 40
0.0
 40
1.0
 40
1.0
 40
1.0
 40
1.0
 10
2.7358631938
 20
-32.0950777165
 30
0.0
 10
2.7142960295
 20
-32.057720568
 30
0.0
 10
2.7023704282
 20
-32.0132154314
 30
0.0
 10
2.7023704282
 20
-31.9700796097
 30
0.0
  0
SPLINE
  5
542
100
AcDbEntity
  8
0
100
AcDbSpline
 62
7
  6
CONTINUOUS
 70
0
 71
3
 72
8
 73
4
 74
0
 42
0.0000001
 43
0.0000001
 44
0.0000000001
 40
0.0
 40
0.0
 40
0.0
 40
0.0
 40
1.0
 40
1.0
 40
1.0
 40
1.0
 10
5.5998259024
 20
-32.0056577451
 30
0.0
 10
5.5953382211
 20
-32.0368782356
 30
0.0
 10
5.5846478041
 20
-32.0677617696
 30
0.0
 10
5.5688776627
 20
-32.0950777165
 30
0.0
  0
SPLINE
  5
543
100
AcDbEntity
  8
0
100
AcDbSpline
 62
7
  6
CONTINUOUS
 70
0
 71
3
 72
8
 73
4
 74
0
 42
0.0000001
 43
0.0000001
 44
0.0000000001
 40
0.0
 40
0.0
 40
0.0
 40
0.0
 40
1.0
 40
1.0
 40
1.0
 40
1.0
 10
5.5688776627
 20
-32.0950777165
 30
0.0
 10
5.5473104982
 20
-32.1324348652
 30
0.0
 10
5.5147299145
 20
-32.1650154489
 30
0.0
 10
5.4773727658
 20
-32.1865826134
 30
0.0
  0
SPLINE
  5
544
100
AcDbEntity
  8
0
100
AcDbSpline
 62
7
  6
CONTINUOUS
 70
0
 71
3
 72
8
 73
4
 74
0
 42
0.0000001
 43
0.0000001
 44
0.0000000001
 40
0.0
 40
0.0
 40
0.0
 40
0.0
 40
1.0
 40
1.0
 40
1.0
 40
1.0
 10
5.4773727658
 20
-32.1865826134
 30
0.0
 10
5.4400156173
 20
-32.2081497777
 30
0.0
 10
5.3955104807
 20
-32.2200753789
 30
0.0
 10
5.352374659
 20
-32.2200753789
 30
0.0
  0
SPLINE
  5
545
100
AcDbEntity
  8
RACCORDO
100
AcDbSpline
 62
250
  6
CONTINUOUS
 70
0
 71
3
 72
14
 73
10
 74
0
 42
0.0000001
 43
0.0000001
 44
0.0000000001
 40
0.0
 40
0.0
 40
0.0
 40
0.0
 40
0.0268559783
 40
0.0860904154
 40
0.1788054457
 40
0.3022591428
 40
0.4519871215
 40
0.6225599334
 40
1.0
 40
1.0
 40
1.0
 40
1.0
 10
-14.6903488229
 20
14.8145521637
 30
0.0
 10
-14.6902080845
 20
14.8122902887
 30
0.0
 10
-14.6821019727
 20
14.80821019
 30
0.0
 10
-14.6687211291
 20
14.8048645838
 30
0.0
 10
-14.6451236757
 20
14.8008686079
 30
0.0
 10
-14.6146871308
 20
14.7976132769
 30
0.0
 10
-14.5772456005
 20
14.7947748959
 30
0.0
 10
-14.5184730068
 20
14.7919039533
 30
0.0
 10
-14.472203439
 20
14.7911045676
 30
0.0
 10
-14.4403530536
 20
14.7911058655
 30
0.0
  0
SPLINE
  5
546
100
AcDbEntity
  8
RACCORDO
100
AcDbSpline
 62
250
  6
CONTINUOUS
 70
0
 71
3
 72
9
 73
5
 74
0
 42
0.0000001
 43
0.0000001
 44
0.0000000001
 40
0.0
 40
0.0
 40
0.0
 40
0.0
 40
0.5806406065
 40
1.0
 40
1.0
 40
1.0
 40
1.0
 10
-14.0533102701
 20
13.4608182955
 30
0.0
 10
-14.053014321
 20
13.5730796874
 30
0.0
 10
-14.0517229785
 20
13.7664140887
 30
0.0
 10
-14.0488305208
 20
13.9597492282
 30
0.0
 10
-14.0462856559
 20
14.0407887505
 30
0.0
  0
SPLINE
  5
547
100
AcDbEntity
  8
RACCORDO
100
AcDbSpline
 62
250
  6
CONTINUOUS
 70
0
 71
3
 72
11
 73
7
 74
0
 42
0.0000001
 43
0.0000001
 44
0.0000000001
 40
0.0
 40
0.0
 40
0.0
 40
0.0
 40
0.3965158929
 40
0.6976776256
 40
0.8994608778
 40
1.0
 40
1.0
 40
1.0
 40
1.0
 10
-14.0462856559
 20
14.0407887505
 30
0.0
 10
-14.0458712804
 20
14.0539842626
 30
0.0
 10
-14.0450140437
 20
14.0771814993
 30
0.0
 10
-14.043749608
 20
14.1071560197
 30
0.0
 10
-14.0420605312
 20
14.127084628
 30
0.0
 10
-14.041287505
 20
14.1372495777
 30
0.0
 10
-14.0402331688
 20
14.1404266568
 30
0.0
  0
SPLINE
  5
548
100
AcDbEntity
  8
RACCORDO
100
AcDbSpline
 62
250
  6
CONTINUOUS
 70
0
 71
3
 72
9
 73
5
 74
0
 42
0.0000001
 43
0.0000001
 44
0.0000000001
 40
0.0
 40
0.0
 40
0.0
 40
0.0
 40
0.2506344189
 40
1.0
 40
1.0
 40
1.0
 40
1.0
 10
-14.0642844854
 20
8.2715406852
 30
0.0
 10
-14.0635904355
 20
8.7050783027
 30
0.0
 10
-14.0605998243
 20
10.4348388386
 30
0.0
 10
-14.0567223284
 20
12.1645978449
 30
0.0
 10
-14.0533102701
 20
13.4608182955
 30
0.0
  0
SPLINE
  5
549
100
AcDbEntity
  8
RACCORDO
100
AcDbSpline
 62
250
  6
CONTINUOUS
 70
0
 71
3
 72
18
 73
14
 74
0
 42
0.0000001
 43
0.0000001
 44
0.0000000001
 40
0.0
 40
0.0
 40
0.0
 40
0.0
 40
0.0073730122
 40
0.0229990562
 40
0.0475744983
 40
0.0810920669
 40
0.1232770641
 40
0.173746769
 40
0.2977659197
 40
0.4484231134
 40
0.6201056676
 40
0.8065416681
 40
1.0
 40
1.0
 40
1.0
 40
1.0
 10
-14.8903454382
 20
14.6148262567
 30
0.0
 10
-14.8902208122
 20
14.6137221921
 30
0.0
 10
-14.8865542976
 20
14.6116785094
 30
0.0
 10
-14.8801330154
 20
14.6098614179
 30
0.0
 10
-14.8689719574
 20
14.6076457504
 30
0.0
 10
-14.8541048626
 20
14.6056107889
 30
0.0
 10
-14.8351584047
 20
14.6035678999
 30
0.0
 10
-14.8026406061
 20
14.600804817
 30
0.0
 10
-14.7537146568
 20
14.5978442372
 30
0.0
 10
-14.6865114086
 20
14.5950465647
 30
0.0
 10
-14.609865886
 20
14.5929605392
 30
0.0
 10
-14.5267550662
 20
14.5916675946
 30
0.0
 10
-14.4695062605
 20
14.591375461
 30
0.0
 10
-14.4403530536
 20
14.5913799585
 30
0.0
  0
SPLINE
  5
54A
100
AcDbEntity
  8
RACCORDO
100
AcDbSpline
 62
250
  6
CONTINUOUS
 70
0
 71
3
 72
11
 73
7
 74
0
 42
0.0000001
 43
0.0000001
 44
0.0000000001
 40
0.0
 40
0.0
 40
0.0
 40
0.0
 40
0.1005391102
 40
0.3023223628
 40
0.6034841012
 40
1.0
 40
1.0
 40
1.0
 40
1.0
 10
4.9449740253
 20
14.1404266568
 30
0.0
 10
4.9460283617
 20
14.1372495782
 30
0.0
 10
4.9468013875
 20
14.1270846287
 30
0.0
 10
4.9484904646
 20
14.1071560208
 30
0.0
 10
4.9497549001
 20
14.0771814999
 30
0.0
 10
4.9506121369
 20
14.0539842629
 30
0.0
 10
4.9510265124
 20
14.0407887506
 30
0.0
  0
SPLINE
  5
54B
100
AcDbEntity
  8
RACCORDO
100
AcDbSpline
 62
250
  6
CONTINUOUS
 70
0
 71
3
 72
9
 73
5
 74
0
 42
0.0000001
 43
0.0000001
 44
0.0000000001
 40
0.0
 40
0.0
 40
0.0
 40
0.0
 40
0.4193593935
 40
1.0
 40
1.0
 40
1.0
 40
1.0
 10
4.9510265124
 20
14.0407887506
 30
0.0
 10
4.9535713772
 20
13.9597492283
 30
0.0
 10
4.956463835
 20
13.7664140888
 30
0.0
 10
4.9577551775
 20
13.5730796875
 30
0.0
 10
4.9580511266
 20
13.4608182955
 30
0.0
  0
SPLINE
  5
54C
100
AcDbEntity
  8
RACCORDO
100
AcDbSpline
 62
250
  6
CONTINUOUS
 70
0
 71
3
 72
9
 73
5
 74
0
 42
0.0000001
 43
0.0000001
 44
0.0000000001
 40
0.0
 40
0.0
 40
0.0
 40
0.0
 40
0.2493118447
 40
1.0
 40
1.0
 40
1.0
 40
1.0
 10
4.9580511266
 20
13.4608182955
 30
0.0
 10
4.9591863089
 20
13.0295693566
 30
0.0
 10
4.9635145923
 20
11.2998116494
 30
0.0
 10
4.9669465569
 20
9.5700517029
 30
0.0
 10
4.9690253419
 20
8.2715406852
 30
0.0
  0
SPLINE
  5
54D
100
AcDbEntity
  8
RACCORDO
100
AcDbSpline
 62
250
  6
CONTINUOUS
 70
0
 71
3
 72
14
 73
10
 74
0
 42
0.0000001
 43
0.0000001
 44
0.0000000001
 40
0.0
 40
0.0
 40
0.0
 40
0.0
 40
0.3774400674
 40
0.5480128796
 40
0.6977408587
 40
0.821194556
 40
0.9139095863
 40
0.9731440264
 40
1.0
 40
1.0
 40
1.0
 40
1.0
 10
-12.0549060899
 20
14.7911058655
 30
0.0
 10
-12.0230557045
 20
14.7911045692
 30
0.0
 10
-11.9767861367
 20
14.7919039549
 30
0.0
 10
-11.918013543
 20
14.794774895
 30
0.0
 10
-11.8805720126
 20
14.7976132761
 30
0.0
 10
-11.8501354682
 20
14.8008686086
 30
0.0
 10
-11.8265380134
 20
14.8048645826
 30
0.0
 10
-11.8131571723
 20
14.8082101923
 30
0.0
 10
-11.8050510587
 20
14.8122902891
 30
0.0
 10
-11.8049103207
 20
14.8145521637
 30
0.0
  0
SPLINE
  5
54E
100
AcDbEntity
  8
RACCORDO
100
AcDbSpline
 62
250
  6
CONTINUOUS
 70
0
 71
3
 72
18
 73
14
 74
0
 42
0.0000001
 43
0.0000001
 44
0.0000000001
 40
0.0
 40
0.0
 40
0.0
 40
0.0
 40
0.19345833
 40
0.3798943307
 40
0.5515768897
 40
0.7022340867
 40
0.8262532288
 40
0.8767229244
 40
0.9189079144
 40
0.9524254829
 40
0.9770009332
 40
0.9926269861
 40
1.0
 40
1.0
 40
1.0
 40
1.0
 10
-12.0549060899
 20
14.5913799585
 30
0.0
 10
-12.0257528833
 20
14.5913754703
 30
0.0
 10
-11.9685040781
 20
14.5916676023
 30
0.0
 10
-11.8853932576
 20
14.5929605351
 30
0.0
 10
-11.808747734
 20
14.5950465645
 30
0.0
 10
-11.741544486
 20
14.5978442377
 30
0.0
 10
-11.6926185388
 20
14.6008048166
 30
0.0
 10
-11.6601007442
 20
14.6035678998
 30
0.0
 10
-11.6411542887
 20
14.6056107891
 30
0.0
 10
-11.6262871942
 20
14.6076457508
 30
0.0
 10
-11.6151261326
 20
14.6098614184
 30
0.0
 10
-11.6087048493
 20
14.6116785089
 30
0.0
 10
-11.6050383304
 20
14.6137221917
 30
0.0
 10
-11.6049137053
 20
14.6148262567
 30
0.0
  0
SPLINE
  5
54F
100
AcDbEntity
  8
RACCORDO
100
AcDbSpline
 62
7
  6
CONTINUOUS
 70
0
 71
3
 72
12
 73
8
 74
0
 42
0.0000001
 43
0.0000001
 44
0.0000000001
 40
0.0
 40
0.0
 40
0.0
 40
0.0
 40
0.6460705321
 40
0.7826184511
 40
0.8957408159
 40
0.9726527014
 40
1.0
 40
1.0
 40
1.0
 40
1.0
 10
2.4023704282
 20
-12.7250803839
 30
0.0
 10
2.2941737956
 20
-12.6168350359
 30
0.0
 10
2.1632685386
 20
-12.4855543215
 30
0.0
 10
2.0139691031
 20
-12.3347689918
 30
0.0
 10
1.959689049
 20
-12.2796478801
 30
0.0
 10
1.9235454184
 20
-12.2429578477
 30
0.0
 10
1.9067319085
 20
-12.2248667661
 30
0.0
 10
1.9023704282
 20
-12.2200753789
 30
0.0
  0
SPLINE
  5
550
100
AcDbEntity
  8
RACCORDO
100
AcDbSpline
 62
7
  6
CONTINUOUS
 70
0
 71
3
 72
11
 73
7
 74
0
 42
0.0000001
 43
0.0000001
 44
0.0000000001
 40
0.0
 40
0.0
 40
0.0
 40
0.0
 40
0.6458735877
 40
0.895457745
 40
0.9724784936
 40
1.0
 40
1.0
 40
1.0
 40
1.0
 10
2.4023704282
 20
-3.816171475
 30
0.0
 10
2.294327819
 20
-3.9242648511
 30
0.0
 10
2.1446182531
 20
-4.0742186983
 30
0.0
 10
1.9827065203
 20
-4.2377246939
 30
0.0
 10
1.9238004084
 20
-4.297330539
 30
0.0
 10
1.9068069312
 20
-4.3153072513
 30
0.0
 10
1.9023704282
 20
-4.3200753789
 30
0.0
  0
SPLINE
  5
551
100
AcDbEntity
  8
RACCORDO
100
AcDbSpline
 62
250
  6
CONTINUOUS
 70
0
 71
3
 72
14
 73
10
 74
0
 42
0.0000001
 43
0.0000001
 44
0.0000000001
 40
0.0
 40
0.0
 40
0.0
 40
0.0
 40
0.0268559783
 40
0.0860904154
 40
0.1788054457
 40
0.3022591428
 40
0.4519871215
 40
0.6225599334
 40
1.0
 40
1.0
 40
1.0
 40
1.0
 10
2.7096511771
 20
14.8145521637
 30
0.0
 10
2.7097919155
 20
14.8122902887
 30
0.0
 10
2.7178980273
 20
14.80821019
 30
0.0
 10
2.7312788709
 20
14.8048645838
 30
0.0
 10
2.7548763243
 20
14.8008686079
 30
0.0
 10
2.7853128692
 20
14.7976132769
 30
0.0
 10
2.8227543995
 20
14.7947748959
 30
0.0
 10
2.8815269932
 20
14.7919039533
 30
0.0
 10
2.927796561
 20
14.7911045676
 30
0.0
 10
2.9596469464
 20
14.7911058655
 30
0.0
  0
SPLINE
  5
552
100
AcDbEntity
  8
RACCORDO
100
AcDbSpline
 62
250
  6
CONTINUOUS
 70
0
 71
3
 72
18
 73
14
 74
0
 42
0.0000001
 43
0.0000001
 44
0.0000000001
 40
0.0
 40
0.0
 40
0.0
 40
0.0
 40
0.0073730122
 40
0.0229990562
 40
0.0475744983
 40
0.0810920669
 40
0.1232770641
 40
0.173746769
 40
0.2977659197
 40
0.4484231134
 40
0.6201056676
 40
0.8065416681
 40
1.0
 40
1.0
 40
1.0
 40
1.0
 10
2.5096545618
 20
14.6148262567
 30
0.0
 10
2.5097791878
 20
14.6137221921
 30
0.0
 10
2.5134457024
 20
14.6116785094
 30
0.0
 10
2.5198669846
 20
14.6098614179
 30
0.0
 10
2.5310280426
 20
14.6076457504
 30
0.0
 10
2.5458951374
 20
14.6056107889
 30
0.0
 10
2.5648415953
 20
14.6035678999
 30
0.0
 10
2.5973593939
 20
14.600804817
 30
0.0
 10
2.6462853432
 20
14.5978442372
 30
0.0
 10
2.7134885914
 20
14.5950465647
 30
0.0
 10
2.790134114
 20
14.5929605392
 30
0.0
 10
2.8732449338
 20
14.5916675946
 30
0.0
 10
2.9304937395
 20
14.591375461
 30
0.0
 10
2.9596469464
 20
14.5913799585
 30
0.0
  0
SPLINE
  5
553
100
AcDbEntity
  8
RACCORDO
100
AcDbSpline
 62
7
  6
CONTINUOUS
 70
0
 71
3
 72
22
 73
18
 74
0
 42
0.0000001
 43
0.0000001
 44
0.0000000001
 40
0.0
 40
0.0
 40
0.0
 40
0.0
 40
0.002231048
 40
0.0079853558
 40
0.0171233634
 40
0.0294930061
 40
0.0449404063
 40
0.0632855593
 40
0.1077281421
 40
0.1609083031
 40
0.2211282952
 40
0.2870428628
 40
0.3574370227
 40
0.5082382163
 40
0.6679741393
 40
0.8328580008
 40
1.0
 40
1.0
 40
1.0
 40
1.0
 10
-0.8976295718
 20
-13.8201157841
 30
0.0
 10
-0.8976295718
 20
-13.8206451428
 30
0.0
 10
-0.8958899701
 20
-13.8220034367
 30
0.0
 10
-0.893659557
 20
-13.8251328535
 30
0.0
 10
-0.8890096549
 20
-13.8298257151
 30
0.0
 10
-0.8830954748
 20
-13.8362218594
 30
0.0
 10
-0.8754866742
 20
-13.8441304939
 30
0.0
 10
-0.8626220512
 20
-13.857498995
 30
0.0
 10
-0.843429234
 20
-13.877224186
 30
0.0
 10
-0.8172436613
 20
-13.9039959457
 30
0.0
 10
-0.7874243355
 20
-13.9343443558
 30
0.0
 10
-0.7546926483
 20
-13.9675556391
 30
0.0
 10
-0.706814857
 20
-14.0160157196
 30
0.0
 10
-0.6431952658
 20
-14.08021597
 30
0.0
 10
-0.5636793475
 20
-14.1602264459
 30
0.0
 10
-0.4813291737
 20
-14.2428862508
 30
0.0
 10
-0.4256659575
 20
-14.2986340198
 30
0.0
 10
-0.3976295718
 20
-14.3266819855
 30
0.0
  0
SPLINE
  5
554
100
AcDbEntity
  8
RACCORDO
100
AcDbSpline
 62
7
  6
CONTINUOUS
 70
0
 71
3
 72
12
 73
8
 74
0
 42
0.0000001
 43
0.0000001
 44
0.0000000001
 40
0.0
 40
0.0
 40
0.0
 40
0.0
 40
0.6460763828
 40
0.7826271686
 40
0.8957472975
 40
0.9726618204
 40
1.0
 40
1.0
 40
1.0
 40
1.0
 10
-0.3976295718
 20
-12.7250803839
 30
0.0
 10
-0.5058271903
 20
-12.6168340495
 30
0.0
 10
-0.6367328816
 20
-12.485550876
 30
0.0
 10
-0.7860351049
 20
-12.334766077
 30
0.0
 10
-0.8403131456
 20
-12.2796419506
 30
0.0
 10
-0.8764595754
 20
-12.2429574434
 30
0.0
 10
-0.893270355
 20
-12.2248659245
 30
0.0
 10
-0.8976295718
 20
-12.2200753789
 30
0.0
  0
SPLINE
  5
555
100
AcDbEntity
  8
RACCORDO
100
AcDbSpline
 62
250
  6
CONTINUOUS
 70
0
 71
3
 72
14
 73
10
 74
0
 42
0.0000001
 43
0.0000001
 44
0.0000000001
 40
0.0
 40
0.0
 40
0.0
 40
0.0
 40
0.3774400674
 40
0.5480128796
 40
0.6977408587
 40
0.821194556
 40
0.9139095863
 40
0.9731440264
 40
1.0
 40
1.0
 40
1.0
 40
1.0
 10
5.3450939101
 20
14.7911058655
 30
0.0
 10
5.3769442955
 20
14.7911045692
 30
0.0
 10
5.4232138633
 20
14.7919039549
 30
0.0
 10
5.481986457
 20
14.794774895
 30
0.0
 10
5.5194279874
 20
14.7976132761
 30
0.0
 10
5.5498645318
 20
14.8008686086
 30
0.0
 10
5.5734619866
 20
14.8048645826
 30
0.0
 10
5.5868428277
 20
14.8082101923
 30
0.0
 10
5.5949489413
 20
14.8122902891
 30
0.0
 10
5.5950896793
 20
14.8145521637
 30
0.0
  0
SPLINE
  5
556
100
AcDbEntity
  8
RACCORDO
100
AcDbSpline
 62
250
  6
CONTINUOUS
 70
0
 71
3
 72
18
 73
14
 74
0
 42
0.0000001
 43
0.0000001
 44
0.0000000001
 40
0.0
 40
0.0
 40
0.0
 40
0.0
 40
0.19345833
 40
0.3798943307
 40
0.5515768897
 40
0.7022340867
 40
0.8262532288
 40
0.8767229244
 40
0.9189079144
 40
0.9524254829
 40
0.9770009332
 40
0.9926269861
 40
1.0
 40
1.0
 40
1.0
 40
1.0
 10
5.3450939101
 20
14.5913799585
 30
0.0
 10
5.3742471167
 20
14.5913754703
 30
0.0
 10
5.4314959219
 20
14.5916676023
 30
0.0
 10
5.5146067424
 20
14.5929605351
 30
0.0
 10
5.591252266
 20
14.5950465645
 30
0.0
 10
5.658455514
 20
14.5978442377
 30
0.0
 10
5.7073814612
 20
14.6008048166
 30
0.0
 10
5.7398992558
 20
14.6035678998
 30
0.0
 10
5.7588457113
 20
14.6056107891
 30
0.0
 10
5.7737128058
 20
14.6076457508
 30
0.0
 10
5.7848738674
 20
14.6098614184
 30
0.0
 10
5.7912951507
 20
14.6116785089
 30
0.0
 10
5.7949616696
 20
14.6137221917
 30
0.0
 10
5.7950862947
 20
14.6148262567
 30
0.0
  0
SPLINE
  5
557
100
AcDbEntity
  8
0
100
AcDbSpline
 62
250
  6
CONTINUOUS
 70
0
 71
3
 72
16
 73
12
 74
0
 42
0.0000001
 43
0.0000001
 44
0.0000000001
 40
0.0
 40
0.0
 40
0.0
 40
0.0
 40
0.0096013124
 40
0.0277102036
 40
0.0542061034
 40
0.0888989692
 40
0.1818074479
 40
0.3037289977
 40
0.4511061899
 40
0.6196364541
 40
1.0
 40
1.0
 40
1.0
 40
1.0
 10
-15.08397191
 20
-29.7803033216
 30
0.0
 10
-15.0835251584
 20
-29.7776211581
 30
0.0
 10
-15.0830890701
 20
-29.7697647166
 30
0.0
 10
-15.0823360258
 20
-29.7544460981
 30
0.0
 10
-15.0816913517
 20
-29.7319900662
 30
0.0
 10
-15.080664488
 20
-29.6883654658
 30
0.0
 10
-15.0795763584
 20
-29.6177045765
 30
0.0
 10
-15.078433558
 20
-29.5151342847
 30
0.0
 10
-15.0774583195
 20
-29.3911431554
 30
0.0
 10
-15.0763594537
 20
-29.1939606833
 30
0.0
 10
-15.075940717
 20
-29.0385126691
 30
0.0
 10
-15.075798906
 20
-28.9307928701
 30
0.0
  0
SPLINE
  5
558
100
AcDbEntity
  8
0
100
AcDbSpline
 62
250
  6
CONTINUOUS
 70
0
 71
3
 72
15
 73
11
 74
0
 42
0.0000001
 43
0.0000001
 44
0.0000000001
 40
0.0
 40
0.0
 40
0.0
 40
0.0
 40
0.0097136674
 40
0.027873925
 40
0.0891012711
 40
0.1820093854
 40
0.3039083942
 40
0.4512495622
 40
0.6197358201
 40
1.0
 40
1.0
 40
1.0
 40
1.0
 10
-15.5838962195
 20
-29.280989388
 30
0.0
 10
-15.5834614688
 20
-29.2796839404
 30
0.0
 10
-15.5830046761
 20
-29.2757240904
 30
0.0
 10
-15.5818117275
 20
-29.2631965467
 30
0.0
 10
-15.580777172
 20
-29.2387683508
 30
0.0
 10
-15.5794700854
 20
-29.1997125488
 30
0.0
 10
-15.5783688203
 20
-29.148416007
 30
0.0
 10
-15.577378715
 20
-29.0864233977
 30
0.0
 10
-15.576286011
 20
-28.9878266408
 30
0.0
 10
-15.5758645417
 20
-28.9100973891
 30
0.0
 10
-15.5757227535
 20
-28.8562333284
 30
0.0
  0
SPLINE
  5
559
100
AcDbEntity
  8
0
100
AcDbSpline
 62
250
  6
CONTINUOUS
 70
0
 71
3
 72
14
 73
10
 74
0
 42
0.0000001
 43
0.0000001
 44
0.0000000001
 40
0.0
 40
0.0
 40
0.0
 40
0.0
 40
0.0353257676
 40
0.0631908656
 40
0.0987762325
 40
0.1930298895
 40
0.3160943163
 40
0.631302526
 40
1.0
 40
1.0
 40
1.0
 40
1.0
 10
-15.5757227535
 20
-28.8562333284
 30
0.0
 10
-15.5750273087
 20
-28.862243539
 30
0.0
 10
-15.5657712043
 20
-28.8707369887
 30
0.0
 10
-15.5512138174
 20
-28.8784316263
 30
0.0
 10
-15.5258257433
 20
-28.8883804703
 30
0.0
 10
-15.4838504813
 20
-28.8989781154
 30
0.0
 10
-15.3938928784
 20
-28.9146435526
 30
0.0
 10
-15.2560838258
 20
-28.9270459468
 30
0.0
 10
-15.1389462196
 20
-28.9306303423
 30
0.0
 10
-15.075798906
 20
-28.9307928697
 30
0.0
  0
SPLINE
  5
55A
100
AcDbEntity
  8
0
100
AcDbSpline
 62
250
  6
CONTINUOUS
 70
0
 71
3
 72
18
 73
14
 74
0
 42
0.0000001
 43
0.0000001
 44
0.0000000001
 40
0.0
 40
0.0
 40
0.0
 40
0.0
 40
0.0066567222
 40
0.0225113735
 40
0.0475276483
 40
0.0814931529
 40
0.1240969435
 40
0.1749409488
 40
0.2993687996
 40
0.4501139444
 40
0.6215146931
 40
0.8071308937
 40
1.0
 40
1.0
 40
1.0
 40
1.0
 10
-15.558537869
 20
-17.2105753789
 30
0.0
 10
-15.5577871517
 20
-17.2113929382
 30
0.0
 10
-15.553537665
 20
-17.2114928117
 30
0.0
 10
-15.5461098654
 20
-17.2127731371
 30
0.0
 10
-15.5334170333
 20
-17.2133580167
 30
0.0
 10
-15.516600983
 20
-17.2143018285
 30
0.0
 10
-15.4953331047
 20
-17.2150756579
 30
0.0
 10
-15.4590386166
 20
-17.216207719
 30
0.0
 10
-15.4046797907
 20
-17.2173910933
 30
0.0
 10
-15.3302305945
 20
-17.2185316654
 30
0.0
 10
-15.2455686021
 20
-17.2193864515
 30
0.0
 10
-15.1538821179
 20
-17.2199293313
 30
0.0
 10
-15.0907731263
 20
-17.2200647154
 30
0.0
 10
-15.0586140214
 20
-17.2200753789
 30
0.0
  0
SPLINE
  5
55B
100
AcDbEntity
  8
0
100
AcDbSpline
 62
250
  6
CONTINUOUS
 70
0
 71
3
 72
9
 73
5
 74
0
 42
0.0000001
 43
0.0000001
 44
0.0000000001
 40
0.0
 40
0.0
 40
0.0
 40
0.0
 40
0.2499887187
 40
1.0
 40
1.0
 40
1.0
 40
1.0
 10
-15.558537869
 20
-17.2105753789
 30
0.0
 10
-15.5580132168
 20
-15.6288968262
 30
0.0
 10
-15.5564393771
 20
-9.3018969458
 30
0.0
 10
-15.5569638176
 20
-2.9748965434
 30
0.0
 10
-15.558537869
 20
1.7704246211
 30
0.0
  0
SPLINE
  5
55C
100
AcDbEntity
  8
0
100
AcDbSpline
 62
250
  6
CONTINUOUS
 70
0
 71
3
 72
18
 73
14
 74
0
 42
0.0000001
 43
0.0000001
 44
0.0000000001
 40
0.0
 40
0.0
 40
0.0
 40
0.0
 40
0.0066567225
 40
0.0225113742
 40
0.0475276493
 40
0.0814931541
 40
0.1240969449
 40
0.1749409503
 40
0.2993688012
 40
0.4501139457
 40
0.6215146941
 40
0.8071308943
 40
1.0
 40
1.0
 40
1.0
 40
1.0
 10
-15.558537869
 20
1.7704246211
 30
0.0
 10
-15.5577871516
 20
1.7712421802
 30
0.0
 10
-15.5535376649
 20
1.7713420539
 30
0.0
 10
-15.546109865
 20
1.7726223792
 30
0.0
 10
-15.5334170329
 20
1.7732072588
 30
0.0
 10
-15.5166009824
 20
1.7741510706
 30
0.0
 10
-15.495333104
 20
1.7749249
 30
0.0
 10
-15.4590386158
 20
1.7760569611
 30
0.0
 10
-15.40467979
 20
1.7772403354
 30
0.0
 10
-15.3302305939
 20
1.7783809075
 30
0.0
 10
-15.2455686017
 20
1.7792356936
 30
0.0
 10
-15.1538821176
 20
1.7797785733
 30
0.0
 10
-15.0907731262
 20
1.7799139575
 30
0.0
 10
-15.0586140214
 20
1.779924621
 30
0.0
  0
SPLINE
  5
55D
100
AcDbEntity
  8
0
100
AcDbSpline
 62
250
  6
CONTINUOUS
 70
0
 71
3
 72
14
 73
10
 74
0
 42
0.0000001
 43
0.0000001
 44
0.0000000001
 40
0.0
 40
0.0
 40
0.0
 40
0.0
 40
0.0353257947
 40
0.0631909114
 40
0.0987762962
 40
0.1930299817
 40
0.3160944223
 40
0.6313026063
 40
1.0
 40
1.0
 40
1.0
 40
1.0
 10
-15.5757227535
 20
13.4160825706
 30
0.0
 10
-15.575027296
 20
13.422092784
 30
0.0
 10
-15.5657711773
 20
13.4305862242
 30
0.0
 10
-15.5512137782
 20
13.4382808611
 30
0.0
 10
-15.5258256916
 20
13.4482296996
 30
0.0
 10
-15.48385042
 20
13.4588273405
 30
0.0
 10
-15.3938928167
 20
13.474492768
 30
0.0
 10
-15.2560837859
 20
13.4868951549
 30
0.0
 10
-15.138946203
 20
13.4904795478
 30
0.0
 10
-15.075798906
 20
13.490642075
 30
0.0
  0
SPLINE
  5
55E
100
AcDbEntity
  8
0
100
AcDbSpline
 62
250
  6
CONTINUOUS
 70
0
 71
3
 72
16
 73
12
 74
0
 42
0.0000001
 43
0.0000001
 44
0.0000000001
 40
0.0
 40
0.0
 40
0.0
 40
0.0
 40
0.380363539
 40
0.5488937994
 40
0.696270989
 40
0.8181925366
 40
0.9111010151
 40
0.9457938722
 40
0.9722897931
 40
0.990398642
 40
1.0
 40
1.0
 40
1.0
 40
1.0
 10
-15.075798906
 20
13.4906421122
 30
0.0
 10
-15.0759407192
 20
13.5983619114
 30
0.0
 10
-15.0763594505
 20
13.7538099254
 30
0.0
 10
-15.0774583293
 20
13.9509923982
 30
0.0
 10
-15.0784335624
 20
14.074983526
 30
0.0
 10
-15.079576325
 20
14.1775538232
 30
0.0
 10
-15.0806644759
 20
14.2482147008
 30
0.0
 10
-15.0816913028
 20
14.2918393201
 30
0.0
 10
-15.0823361539
 20
14.3142953143
 30
0.0
 10
-15.0830887488
 20
14.3296140056
 30
0.0
 10
-15.0835255566
 20
14.3374703514
 30
0.0
 10
-15.0839720943
 20
14.3401525637
 30
0.0
  0
SPLINE
  5
55F
100
AcDbEntity
  8
0
100
AcDbSpline
 62
250
  6
CONTINUOUS
 70
0
 71
3
 72
15
 73
11
 74
0
 42
0.0000001
 43
0.0000001
 44
0.0000000001
 40
0.0
 40
0.0
 40
0.0
 40
0.0
 40
0.3802567072
 40
0.5487404709
 40
0.6960804256
 40
0.8179797884
 40
0.9108899579
 40
0.972120993
 40
0.9902839525
 40
1.0
 40
1.0
 40
1.0
 40
1.0
 10
-15.5757227535
 20
13.4160825706
 30
0.0
 10
-15.5758645541
 20
13.4699454624
 30
0.0
 10
-15.5762859898
 20
13.5476731435
 30
0.0
 10
-15.577378657
 20
13.6462681148
 30
0.0
 10
-15.5783687277
 20
13.7082601234
 30
0.0
 10
-15.5794699539
 20
13.7595567282
 30
0.0
 10
-15.5807770131
 20
13.7986133201
 30
0.0
 10
-15.5818115229
 20
13.8230426579
 30
0.0
 10
-15.583004486
 20
13.8355714261
 30
0.0
 10
-15.5834611726
 20
13.8395320026
 30
0.0
 10
-15.5838959418
 20
13.8408377963
 30
0.0
  0
SPLINE
  5
560
100
AcDbEntity
  8
0
100
AcDbSpline
 62
250
  6
CONTINUOUS
 70
0
 71
3
 72
14
 73
10
 74
0
 42
0.0000001
 43
0.0000001
 44
0.0000000001
 40
0.0
 40
0.0
 40
0.0
 40
0.0
 40
0.0353257946
 40
0.0631909133
 40
0.0987763009
 40
0.1930299932
 40
0.3160944398
 40
0.6313026237
 40
1.0
 40
1.0
 40
1.0
 40
1.0
 10
6.48046361
 20
-28.8562333284
 30
0.0
 10
6.4797681525
 20
-28.8622435419
 30
0.0
 10
6.4705120324
 20
-28.8707369814
 30
0.0
 10
6.4559546322
 20
-28.8784316175
 30
0.0
 10
6.4305665432
 20
-28.8883804551
 30
0.0
 10
6.388591269
 20
-28.8989780947
 30
0.0
 10
6.2986336635
 20
-28.9146435197
 30
0.0
 10
6.1608246353
 20
-28.9270459042
 30
0.0
 10
6.0436870561
 20
-28.9306302963
 30
0.0
 10
5.9805397624
 20
-28.9307928234
 30
0.0
  0
SPLINE
  5
561
100
AcDbEntity
  8
0
100
AcDbSpline
 62
250
  6
CONTINUOUS
 70
0
 71
3
 72
16
 73
12
 74
0
 42
0.0000001
 43
0.0000001
 44
0.0000000001
 40
0.0
 40
0.0
 40
0.0
 40
0.0
 40
0.3803635459
 40
0.5488938101
 40
0.6962710023
 40
0.8181925521
 40
0.9111010308
 40
0.9457938966
 40
0.9722897964
 40
0.9903986876
 40
1.0
 40
1.0
 40
1.0
 40
1.0
 10
5.9805397624
 20
-28.9307928701
 30
0.0
 10
5.9806815734
 20
-29.0385126691
 30
0.0
 10
5.9811003102
 20
-29.1939606833
 30
0.0
 10
5.982199176
 20
-29.3911431554
 30
0.0
 10
5.9831744145
 20
-29.5151342847
 30
0.0
 10
5.9843172148
 20
-29.6177045765
 30
0.0
 10
5.9854053445
 20
-29.6883654658
 30
0.0
 10
5.9864322082
 20
-29.7319900662
 30
0.0
 10
5.9870768823
 20
-29.7544460981
 30
0.0
 10
5.9878299266
 20
-29.7697647166
 30
0.0
 10
5.9882660149
 20
-29.7776211581
 30
0.0
 10
5.9887127664
 20
-29.7803033216
 30
0.0
  0
SPLINE
  5
562
100
AcDbEntity
  8
0
100
AcDbSpline
 62
250
  6
CONTINUOUS
 70
0
 71
3
 72
15
 73
11
 74
0
 42
0.0000001
 43
0.0000001
 44
0.0000000001
 40
0.0
 40
0.0
 40
0.0
 40
0.0
 40
0.3802118094
 40
0.5486807494
 40
0.6960134312
 40
0.8179144271
 40
0.9108360916
 40
0.9720890047
 40
0.9902664778
 40
1.0
 40
1.0
 40
1.0
 40
1.0
 10
6.48046361
 20
-28.8562333284
 30
0.0
 10
6.4806053766
 20
-28.9100891969
 30
0.0
 10
6.481026743
 20
-28.9878074682
 30
0.0
 10
6.4821191875
 20
-29.0863917185
 30
0.0
 10
6.48310896
 20
-29.1483801102
 30
0.0
 10
6.4842102021
 20
-29.1996767968
 30
0.0
 10
6.485516476
 20
-29.2387381666
 30
0.0
 10
6.4865518936
 20
-29.2631734554
 30
0.0
 10
6.4877435833
 20
-29.2757103214
 30
0.0
 10
6.4882011657
 20
-29.279674901
 30
0.0
 10
6.4886351322
 20
-29.2809835519
 30
0.0
  0
SPLINE
  5
563
100
AcDbEntity
  8
0
100
AcDbSpline
 62
250
  6
CONTINUOUS
 70
0
 71
3
 72
18
 73
14
 74
0
 42
0.0000001
 43
0.0000001
 44
0.0000000001
 40
0.0
 40
0.0
 40
0.0
 40
0.0
 40
0.0066567224
 40
0.022511374
 40
0.047527649
 40
0.0814931537
 40
0.1240969444
 40
0.1749409498
 40
0.2993688006
 40
0.4501139453
 40
0.6215146938
 40
0.8071308941
 40
1.0
 40
1.0
 40
1.0
 40
1.0
 10
6.4632787255
 20
-17.2105753789
 30
0.0
 10
6.4625280081
 20
-17.2113929381
 30
0.0
 10
6.4582785214
 20
-17.2114928118
 30
0.0
 10
6.4508507216
 20
-17.2127731371
 30
0.0
 10
6.4381578895
 20
-17.2133580167
 30
0.0
 10
6.4213418391
 20
-17.2143018285
 30
0.0
 10
6.4000739607
 20
-17.2150756579
 30
0.0
 10
6.3637794726
 20
-17.216207719
 30
0.0
 10
6.3094206467
 20
-17.2173910933
 30
0.0
 10
6.2349714506
 20
-17.2185316654
 30
0.0
 10
6.1503094583
 20
-17.2193864514
 30
0.0
 10
6.0586229742
 20
-17.2199293312
 30
0.0
 10
5.9955139827
 20
-17.2200647154
 30
0.0
 10
5.9633548779
 20
-17.2200753789
 30
0.0
  0
SPLINE
  5
564
100
AcDbEntity
  8
RACCORDO
100
AcDbSpline
 62
7
  6
CONTINUOUS
 70
0
 71
3
 72
11
 73
7
 74
0
 42
0.0000001
 43
0.0000001
 44
0.0000000001
 40
0.0
 40
0.0
 40
0.0
 40
0.0
 40
0.6458780252
 40
0.8954627894
 40
0.9724850531
 40
1.0
 40
1.0
 40
1.0
 40
1.0
 10
-11.4976295718
 20
-3.816171475
 30
0.0
 10
-11.3895862175
 20
-3.9242655966
 30
0.0
 10
-11.239873375
 20
-4.0742179414
 30
0.0
 10
-11.0779652067
 20
-4.2377295538
 30
0.0
 10
-11.0190562147
 20
-4.2973311628
 30
0.0
 10
-11.0020645569
 20
-4.315307951
 30
0.0
 10
-10.9976295718
 20
-4.3200753789
 30
0.0
  0
SPLINE
  5
565
100
AcDbEntity
  8
RACCORDO
100
AcDbSpline
 62
7
  6
CONTINUOUS
 70
0
 71
3
 72
12
 73
8
 74
0
 42
0.0000001
 43
0.0000001
 44
0.0000000001
 40
0.0
 40
0.0
 40
0.0
 40
0.0
 40
0.6460763828
 40
0.7826271686
 40
0.8957472975
 40
0.9726618204
 40
1.0
 40
1.0
 40
1.0
 40
1.0
 10
-11.4976295718
 20
-12.7250803839
 30
0.0
 10
-11.3894319532
 20
-12.6168340495
 30
0.0
 10
-11.2585262619
 20
-12.485550876
 30
0.0
 10
-11.1092240387
 20
-12.334766077
 30
0.0
 10
-11.0549459979
 20
-12.2796419506
 30
0.0
 10
-11.0187995681
 20
-12.2429574434
 30
0.0
 10
-11.0019887885
 20
-12.2248659245
 30
0.0
 10
-10.9976295718
 20
-12.2200753789
 30
0.0
  0
SPLINE
  5
566
100
AcDbEntity
  8
0
100
AcDbSpline
 62
250
  6
CONTINUOUS
 70
0
 71
3
 72
18
 73
14
 74
0
 42
0.0000001
 43
0.0000001
 44
0.0000000001
 40
0.0
 40
0.0
 40
0.0
 40
0.0
 40
0.0066567222
 40
0.0225113735
 40
0.0475276483
 40
0.0814931529
 40
0.1240969435
 40
0.1749409488
 40
0.2993687996
 40
0.4501139444
 40
0.6215146931
 40
0.8071308937
 40
1.0
 40
1.0
 40
1.0
 40
1.0
 10
6.4632787255
 20
1.7704246211
 30
0.0
 10
6.4625280082
 20
1.7712421803
 30
0.0
 10
6.4582785215
 20
1.7713420539
 30
0.0
 10
6.4508507219
 20
1.7726223793
 30
0.0
 10
6.4381578898
 20
1.7732072588
 30
0.0
 10
6.4213418395
 20
1.7741510706
 30
0.0
 10
6.4000739612
 20
1.7749249001
 30
0.0
 10
6.3637794731
 20
1.7760569611
 30
0.0
 10
6.3094206472
 20
1.7772403354
 30
0.0
 10
6.234971451
 20
1.7783809075
 30
0.0
 10
6.1503094586
 20
1.7792356936
 30
0.0
 10
6.0586229744
 20
1.7797785734
 30
0.0
 10
5.9955139828
 20
1.7799139575
 30
0.0
 10
5.9633548779
 20
1.7799246211
 30
0.0
  0
SPLINE
  5
567
100
AcDbEntity
  8
RACCORDO
100
AcDbSpline
 62
7
  6
CONTINUOUS
 70
0
 71
3
 72
12
 73
8
 74
0
 42
0.0000001
 43
0.0000001
 44
0.0000000001
 40
0.0
 40
0.0
 40
0.0
 40
0.0
 40
0.6460705321
 40
0.7826184511
 40
0.8957408159
 40
0.9726527014
 40
1.0
 40
1.0
 40
1.0
 40
1.0
 10
-8.6976295718
 20
-12.7250803839
 30
0.0
 10
-8.5894329392
 20
-12.6168350359
 30
0.0
 10
-8.4585276821
 20
-12.4855543215
 30
0.0
 10
-8.3092282466
 20
-12.3347689918
 30
0.0
 10
-8.2549481925
 20
-12.2796478801
 30
0.0
 10
-8.2188045619
 20
-12.2429578477
 30
0.0
 10
-8.201991052
 20
-12.2248667661
 30
0.0
 10
-8.1976295718
 20
-12.2200753789
 30
0.0
  0
SPLINE
  5
568
100
AcDbEntity
  8
RACCORDO
100
AcDbSpline
 62
7
  6
CONTINUOUS
 70
0
 71
3
 72
22
 73
18
 74
0
 42
0.0000001
 43
0.0000001
 44
0.0000000001
 40
0.0
 40
0.0
 40
0.0
 40
0.0
 40
0.002231048
 40
0.0079853558
 40
0.0171233634
 40
0.0294930061
 40
0.0449404063
 40
0.0632855593
 40
0.1077281421
 40
0.1609083031
 40
0.2211282952
 40
0.2870428628
 40
0.3574370227
 40
0.5082382163
 40
0.6679741393
 40
0.8328580008
 40
1.0
 40
1.0
 40
1.0
 40
1.0
 10
-8.1976295718
 20
-13.8201157841
 30
0.0
 10
-8.1976295718
 20
-13.8206451428
 30
0.0
 10
-8.1993691734
 20
-13.8220034367
 30
0.0
 10
-8.2015995866
 20
-13.8251328535
 30
0.0
 10
-8.2062494886
 20
-13.8298257151
 30
0.0
 10
-8.2121636687
 20
-13.8362218594
 30
0.0
 10
-8.2197724693
 20
-13.8441304939
 30
0.0
 10
-8.2326370923
 20
-13.857498995
 30
0.0
 10
-8.2518299095
 20
-13.877224186
 30
0.0
 10
-8.2780154822
 20
-13.9039959457
 30
0.0
 10
-8.3078348081
 20
-13.9343443558
 30
0.0
 10
-8.3405664953
 20
-13.9675556391
 30
0.0
 10
-8.3884442865
 20
-14.0160157196
 30
0.0
 10
-8.4520638777
 20
-14.08021597
 30
0.0
 10
-8.5315797961
 20
-14.1602264459
 30
0.0
 10
-8.6139299698
 20
-14.2428862508
 30
0.0
 10
-8.669593186
 20
-14.2986340198
 30
0.0
 10
-8.6976295718
 20
-14.3266819855
 30
0.0
  0
SPLINE
  5
569
100
AcDbEntity
  8
0
100
AcDbSpline
 62
250
  6
CONTINUOUS
 70
0
 71
3
 72
9
 73
5
 74
0
 42
0.0000001
 43
0.0000001
 44
0.0000000001
 40
0.0
 40
0.0
 40
0.0
 40
0.0
 40
0.2499887187
 40
1.0
 40
1.0
 40
1.0
 40
1.0
 10
6.4632787255
 20
1.7704246211
 30
0.0
 10
6.4627540732
 20
0.1887460683
 30
0.0
 10
6.4611802336
 20
-6.1382538121
 30
0.0
 10
6.4617046741
 20
-12.4652542145
 30
0.0
 10
6.4632787255
 20
-17.2105753789
 30
0.0
  0
SPLINE
  5
56A
100
AcDbEntity
  8
0
100
AcDbSpline
 62
250
  6
CONTINUOUS
 70
0
 71
3
 72
14
 73
10
 74
0
 42
0.0000001
 43
0.0000001
 44
0.0000000001
 40
0.0
 40
0.0
 40
0.0
 40
0.0
 40
0.0353257674
 40
0.0631908654
 40
0.0987762322
 40
0.1930298891
 40
0.3160943159
 40
0.6313025258
 40
1.0
 40
1.0
 40
1.0
 40
1.0
 10
6.48046361
 20
13.4160825706
 30
0.0
 10
6.4797681653
 20
13.4220927811
 30
0.0
 10
6.4705120609
 20
13.4305862308
 30
0.0
 10
6.455954674
 20
13.4382808685
 30
0.0
 10
6.4305666
 20
13.4482297125
 30
0.0
 10
6.388591338
 20
13.4588273576
 30
0.0
 10
6.2986337351
 20
13.4744927948
 30
0.0
 10
6.1608246824
 20
13.486895189
 30
0.0
 10
6.0436870761
 20
13.4904795846
 30
0.0
 10
5.9805397624
 20
13.4906421119
 30
0.0
  0
SPLINE
  5
56B
100
AcDbEntity
  8
0
100
AcDbSpline
 62
250
  6
CONTINUOUS
 70
0
 71
3
 72
16
 73
12
 74
0
 42
0.0000001
 43
0.0000001
 44
0.0000000001
 40
0.0
 40
0.0
 40
0.0
 40
0.0
 40
0.009601358
 40
0.0277102069
 40
0.0542061278
 40
0.0888989849
 40
0.1818074634
 40
0.303729011
 40
0.4511062006
 40
0.619636461
 40
1.0
 40
1.0
 40
1.0
 40
1.0
 10
5.9887129507
 20
14.3401525637
 30
0.0
 10
5.988266413
 20
14.3374703514
 30
0.0
 10
5.9878296053
 20
14.3296140056
 30
0.0
 10
5.9870770104
 20
14.3142953143
 30
0.0
 10
5.9864321593
 20
14.2918393201
 30
0.0
 10
5.9854053324
 20
14.2482147008
 30
0.0
 10
5.9843171815
 20
14.1775538232
 30
0.0
 10
5.9831744189
 20
14.074983526
 30
0.0
 10
5.9821991857
 20
13.9509923982
 30
0.0
 10
5.981100307
 20
13.7538099254
 30
0.0
 10
5.9806815757
 20
13.5983619114
 30
0.0
 10
5.9805397624
 20
13.4906421122
 30
0.0
  0
SPLINE
  5
56C
100
AcDbEntity
  8
0
100
AcDbSpline
 62
250
  6
CONTINUOUS
 70
0
 71
3
 72
15
 73
11
 74
0
 42
0.0000001
 43
0.0000001
 44
0.0000000001
 40
0.0
 40
0.0
 40
0.0
 40
0.0
 40
0.0097160475
 40
0.027879007
 40
0.0891100421
 40
0.1820202116
 40
0.3039195744
 40
0.4512595291
 40
0.6197432928
 40
1.0
 40
1.0
 40
1.0
 40
1.0
 10
6.4886367983
 20
13.8408377963
 30
0.0
 10
6.488202029
 20
13.8395320026
 30
0.0
 10
6.4877453425
 20
13.8355714261
 30
0.0
 10
6.4865523794
 20
13.8230426579
 30
0.0
 10
6.4855178696
 20
13.7986133201
 30
0.0
 10
6.4842108104
 20
13.7595567282
 30
0.0
 10
6.4831095842
 20
13.7082601234
 30
0.0
 10
6.4821195135
 20
13.6462681148
 30
0.0
 10
6.4810268463
 20
13.5476731435
 30
0.0
 10
6.4806054106
 20
13.4699454624
 30
0.0
 10
6.48046361
 20
13.4160825706
 30
0.0
  0
SPLINE
  5
56D
100
AcDbEntity
  8
RACCORDO
100
AcDbSpline
 62
250
  6
CONTINUOUS
 70
0
 71
3
 72
13
 73
9
 74
0
 42
0.0000001
 43
0.0000001
 44
0.0000000001
 40
0.0
 40
0.0
 40
0.0
 40
0.0
 40
0.3687594133
 40
0.6840205768
 40
0.8070286789
 40
0.9013745316
 40
0.9646853707
 40
1.0
 40
1.0
 40
1.0
 40
1.0
 10
5.1580206656
 20
13.4906421116
 30
0.0
 10
5.1327617404
 20
13.4905770996
 30
0.0
 10
5.0859246106
 20
13.4891727727
 30
0.0
 10
5.0307489805
 20
13.4841181887
 30
0.0
 10
4.9948525922
 20
13.4779949744
 30
0.0
 10
4.9760595025
 20
13.4730173299
 30
0.0
 10
4.9640613723
 20
13.4683889498
 30
0.0
 10
4.9583291703
 20
13.463221218
 30
0.0
 10
4.9580511266
 20
13.4608182955
 30
0.0
  0
SPLINE
  5
56E
100
AcDbEntity
  8
RACCORDO
100
AcDbSpline
 62
250
  6
CONTINUOUS
 70
0
 71
3
 72
14
 73
10
 74
0
 42
0.0000001
 43
0.0000001
 44
0.0000000001
 40
0.0
 40
0.0
 40
0.0
 40
0.0
 40
0.3745443699
 40
0.5444026274
 40
0.6938928867
 40
0.8176474159
 40
0.9114159098
 40
0.971993636
 40
1.0
 40
1.0
 40
1.0
 40
1.0
 10
5.1689948791
 20
8.2898058225
 30
0.0
 10
5.1437443717
 20
8.2897660419
 30
0.0
 10
5.1070248496
 20
8.2891036552
 30
0.0
 10
5.0603267567
 20
8.2868364134
 30
0.0
 10
5.0304591303
 20
8.2846447259
 30
0.0
 10
5.0060481198
 20
8.2820611256
 30
0.0
 10
4.9870229266
 20
8.2790867832
 30
0.0
 10
4.9760324372
 20
8.2762624077
 30
0.0
 10
4.9693591617
 20
8.2733954871
 30
0.0
 10
4.9690061691
 20
8.2715406816
 30
0.0
  0
SPLINE
  5
56F
100
AcDbEntity
  8
RACCORDO
100
AcDbSpline
 62
250
  6
CONTINUOUS
 70
0
 71
3
 72
14
 73
10
 74
0
 42
0.0000001
 43
0.0000001
 44
0.0000000001
 40
0.0
 40
0.0
 40
0.0
 40
0.0
 40
0.3745588262
 40
0.5444177813
 40
0.6939056629
 40
0.817656001
 40
0.9114199958
 40
0.9719944166
 40
1.0
 40
1.0
 40
1.0
 40
1.0
 10
-14.2642540245
 20
8.2898070901
 30
0.0
 10
-14.2390048994
 20
8.289767006
 30
0.0
 10
-14.2022877903
 20
8.2891042545
 30
0.0
 10
-14.1555932199
 20
8.2868365925
 30
0.0
 10
-14.1257288174
 20
8.2846446929
 30
0.0
 10
-14.1013208358
 20
8.2820610201
 30
0.0
 10
-14.0822983778
 20
8.2790865658
 30
0.0
 10
-14.0713093732
 20
8.2762623728
 30
0.0
 10
-14.0646373419
 20
8.2733952836
 30
0.0
 10
-14.0642844854
 20
8.2715406852
 30
0.0
  0
SPLINE
  5
570
100
AcDbEntity
  8
RACCORDO
100
AcDbSpline
 62
250
  6
CONTINUOUS
 70
0
 71
3
 72
13
 73
9
 74
0
 42
0.0000001
 43
0.0000001
 44
0.0000000001
 40
0.0
 40
0.0
 40
0.0
 40
0.0
 40
0.3687421503
 40
0.6839962406
 40
0.8070064388
 40
0.901358193
 40
0.9646779259
 40
1.0
 40
1.0
 40
1.0
 40
1.0
 10
-14.2532798091
 20
13.4906391175
 30
0.0
 10
-14.2280223344
 20
13.4905741169
 30
0.0
 10
-14.1811873744
 20
13.4891699261
 30
0.0
 10
-14.1260138066
 20
13.4841160296
 30
0.0
 10
-14.0901176734
 20
13.4779933478
 30
0.0
 10
-14.0713234139
 20
13.4730164578
 30
0.0
 10
-14.0593238991
 20
13.4683877572
 30
0.0
 10
-14.0535897265
 20
13.4632215417
 30
0.0
 10
-14.0533102708
 20
13.4608182955
 30
0.0
  0
SPLINE
  5
571
100
AcDbEntity
  8
RACCORDO
100
AcDbSpline
 62
7
  6
CONTINUOUS
 70
0
 71
3
 72
22
 73
18
 74
0
 42
0.0000001
 43
0.0000001
 44
0.0000000001
 40
0.0
 40
0.0
 40
0.0
 40
0.0
 40
0.002231048
 40
0.0079853558
 40
0.0171233634
 40
0.0294930061
 40
0.0449404063
 40
0.0632855593
 40
0.1077281421
 40
0.1609083031
 40
0.2211282952
 40
0.2870428628
 40
0.3574370227
 40
0.5082382163
 40
0.6679741393
 40
0.8328580008
 40
1.0
 40
1.0
 40
1.0
 40
1.0
 10
-7.0476295718
 20
-13.8201157841
 30
0.0
 10
-7.0476295718
 20
-13.8206451428
 30
0.0
 10
-7.0493691734
 20
-13.8220034367
 30
0.0
 10
-7.0515995866
 20
-13.8251328535
 30
0.0
 10
-7.0562494886
 20
-13.8298257151
 30
0.0
 10
-7.0621636687
 20
-13.8362218594
 30
0.0
 10
-7.0697724693
 20
-13.8441304939
 30
0.0
 10
-7.0826370923
 20
-13.857498995
 30
0.0
 10
-7.1018299095
 20
-13.877224186
 30
0.0
 10
-7.1280154822
 20
-13.9039959457
 30
0.0
 10
-7.1578348081
 20
-13.9343443558
 30
0.0
 10
-7.1905664953
 20
-13.9675556391
 30
0.0
 10
-7.2384442865
 20
-14.0160157196
 30
0.0
 10
-7.3020638777
 20
-14.08021597
 30
0.0
 10
-7.3815797961
 20
-14.1602264459
 30
0.0
 10
-7.4639299698
 20
-14.2428862508
 30
0.0
 10
-7.519593186
 20
-14.2986340198
 30
0.0
 10
-7.5476295718
 20
-14.3266819855
 30
0.0
  0
SPLINE
  5
572
100
AcDbEntity
  8
RACCORDO
100
AcDbSpline
 62
250
  6
CONTINUOUS
 70
0
 71
3
 72
14
 73
10
 74
0
 42
0.0000001
 43
0.0000001
 44
0.0000000001
 40
0.0
 40
0.0
 40
0.0
 40
0.0
 40
0.0268559783
 40
0.0860904154
 40
0.1788054457
 40
0.3022591428
 40
0.4519871215
 40
0.6225599334
 40
1.0
 40
1.0
 40
1.0
 40
1.0
 10
-11.8049103207
 20
-30.2547029216
 30
0.0
 10
-11.805051059
 20
-30.2524410466
 30
0.0
 10
-11.8131571708
 20
-30.2483609478
 30
0.0
 10
-11.8265380144
 20
-30.2450153416
 30
0.0
 10
-11.8501354678
 20
-30.2410193657
 30
0.0
 10
-11.8805720128
 20
-30.2377640348
 30
0.0
 10
-11.9180135431
 20
-30.2349256538
 30
0.0
 10
-11.9767861367
 20
-30.2320547112
 30
0.0
 10
-12.0230557045
 20
-30.2312553255
 30
0.0
 10
-12.0549060899
 20
-30.2312566234
 30
0.0
  0
SPLINE
  5
573
100
AcDbEntity
  8
RACCORDO
100
AcDbSpline
 62
250
  6
CONTINUOUS
 70
0
 71
3
 72
18
 73
14
 74
0
 42
0.0000001
 43
0.0000001
 44
0.0000000001
 40
0.0
 40
0.0
 40
0.0
 40
0.0
 40
0.0073730122
 40
0.0229990562
 40
0.0475744983
 40
0.0810920669
 40
0.1232770641
 40
0.173746769
 40
0.2977659197
 40
0.4484231134
 40
0.6201056676
 40
0.8065416681
 40
1.0
 40
1.0
 40
1.0
 40
1.0
 10
-11.6049137053
 20
-30.0549770146
 30
0.0
 10
-11.6050383313
 20
-30.05387295
 30
0.0
 10
-11.6087048459
 20
-30.0518292672
 30
0.0
 10
-11.6151261281
 20
-30.0500121758
 30
0.0
 10
-11.6262871861
 20
-30.0477965082
 30
0.0
 10
-11.6411542809
 20
-30.0457615468
 30
0.0
 10
-11.6601007389
 20
-30.0437186578
 30
0.0
 10
-11.6926185374
 20
-30.0409555749
 30
0.0
 10
-11.7415444868
 20
-30.037994995
 30
0.0
 10
-11.8087477349
 20
-30.0351973226
 30
0.0
 10
-11.8853932575
 20
-30.0331112971
 30
0.0
 10
-11.9685040773
 20
-30.0318183525
 30
0.0
 10
-12.025752883
 20
-30.0315262189
 30
0.0
 10
-12.0549060899
 20
-30.0315307164
 30
0.0
  0
SPLINE
  5
574
100
AcDbEntity
  8
RACCORDO
100
AcDbSpline
 62
250
  6
CONTINUOUS
 70
0
 71
3
 72
14
 73
10
 74
0
 42
0.0000001
 43
0.0000001
 44
0.0000000001
 40
0.0
 40
0.0
 40
0.0
 40
0.0
 40
0.3774400674
 40
0.5480128796
 40
0.6977408587
 40
0.821194556
 40
0.9139095863
 40
0.9731440264
 40
1.0
 40
1.0
 40
1.0
 40
1.0
 10
-14.4403530536
 20
-30.2312566234
 30
0.0
 10
-14.472203439
 20
-30.231255327
 30
0.0
 10
-14.5184730068
 20
-30.2320547128
 30
0.0
 10
-14.5772456005
 20
-30.2349256528
 30
0.0
 10
-14.614687131
 20
-30.2377640339
 30
0.0
 10
-14.6451236753
 20
-30.2410193665
 30
0.0
 10
-14.6687211301
 20
-30.2450153405
 30
0.0
 10
-14.6821019712
 20
-30.2483609501
 30
0.0
 10
-14.6902080849
 20
-30.252441047
 30
0.0
 10
-14.6903488229
 20
-30.2547029216
 30
0.0
  0
SPLINE
  5
575
100
AcDbEntity
  8
RACCORDO
100
AcDbSpline
 62
250
  6
CONTINUOUS
 70
0
 71
3
 72
18
 73
14
 74
0
 42
0.0000001
 43
0.0000001
 44
0.0000000001
 40
0.0
 40
0.0
 40
0.0
 40
0.0
 40
0.19345833
 40
0.3798943307
 40
0.5515768897
 40
0.7022340867
 40
0.8262532288
 40
0.8767229244
 40
0.9189079144
 40
0.9524254829
 40
0.9770009332
 40
0.9926269861
 40
1.0
 40
1.0
 40
1.0
 40
1.0
 10
-14.4403530536
 20
-30.0315307164
 30
0.0
 10
-14.4695062602
 20
-30.0315262282
 30
0.0
 10
-14.5267550654
 20
-30.0318183602
 30
0.0
 10
-14.6098658859
 20
-30.033111293
 30
0.0
 10
-14.6865114096
 20
-30.0351973224
 30
0.0
 10
-14.7537146575
 20
-30.0379949956
 30
0.0
 10
-14.8026406047
 20
-30.0409555745
 30
0.0
 10
-14.8351583993
 20
-30.0437186577
 30
0.0
 10
-14.8541048548
 20
-30.045761547
 30
0.0
 10
-14.8689719493
 20
-30.0477965087
 30
0.0
 10
-14.8801330109
 20
-30.0500121762
 30
0.0
 10
-14.8865542943
 20
-30.0518292668
 30
0.0
 10
-14.8902208131
 20
-30.0538729496
 30
0.0
 10
-14.8903454382
 20
-30.0549770146
 30
0.0
  0
SPLINE
  5
576
100
AcDbEntity
  8
RACCORDO
100
AcDbSpline
 62
7
  6
CONTINUOUS
 70
0
 71
3
 72
22
 73
18
 74
0
 42
0.0000001
 43
0.0000001
 44
0.0000000001
 40
0.0
 40
0.0
 40
0.0
 40
0.0
 40
0.0023211245
 40
0.0081526034
 40
0.0173601688
 40
0.0297924344
 40
0.0452955142
 40
0.0636893809
 40
0.1082096152
 40
0.1614428635
 40
0.2216934041
 40
0.287618064
 40
0.3580038363
 40
0.5087395194
 40
0.6683541386
 40
0.8330689831
 40
1.0
 40
1.0
 40
1.0
 40
1.0
 10
-7.0476295718
 20
-15.1701347917
 30
0.0
 10
-7.0476295718
 20
-15.1706862711
 30
0.0
 10
-7.0493308733
 20
-15.1721281227
 30
0.0
 10
-7.0516062339
 20
-15.1753099961
 30
0.0
 10
-7.0562361806
 20
-15.1800934668
 30
0.0
 10
-7.0621616917
 20
-15.1865601634
 30
0.0
 10
-7.0697676393
 20
-15.1945454295
 30
0.0
 10
-7.0826306521
 20
-15.2080111164
 30
0.0
 10
-7.1018209159
 20
-15.2278498721
 30
0.0
 10
-7.1280087844
 20
-15.2547442525
 30
0.0
 10
-7.1578292835
 20
-15.2852036384
 30
0.0
 10
-7.190561905
 20
-15.3185136821
 30
0.0
 10
-7.2384352682
 20
-15.3670868846
 30
0.0
 10
-7.3020514176
 20
-15.431398145
 30
0.0
 10
-7.381569037
 20
-15.5115038332
 30
0.0
 10
-7.4639201166
 20
-15.5942184236
 30
0.0
 10
-7.5195899748
 20
-15.6499832631
 30
0.0
 10
-7.5476295718
 20
-15.6780333369
 30
0.0
  0
SPLINE
  5
577
100
AcDbEntity
  8
RACCORDO
100
AcDbSpline
 62
7
  6
CONTINUOUS
 70
0
 71
3
 72
22
 73
18
 74
0
 42
0.0000001
 43
0.0000001
 44
0.0000000001
 40
0.0
 40
0.0
 40
0.0
 40
0.0
 40
0.0023211245
 40
0.0081526034
 40
0.0173601688
 40
0.0297924344
 40
0.0452955142
 40
0.0636893809
 40
0.1082096152
 40
0.1614428635
 40
0.2216934041
 40
0.287618064
 40
0.3580038363
 40
0.5087395194
 40
0.6683541386
 40
0.8330689831
 40
1.0
 40
1.0
 40
1.0
 40
1.0
 10
-2.0476295718
 20
-15.1701347917
 30
0.0
 10
-2.0476295718
 20
-15.1706862711
 30
0.0
 10
-2.0459282702
 20
-15.1721281227
 30
0.0
 10
-2.0436529096
 20
-15.1753099961
 30
0.0
 10
-2.0390229629
 20
-15.1800934668
 30
0.0
 10
-2.0330974519
 20
-15.1865601634
 30
0.0
 10
-2.0254915042
 20
-15.1945454295
 30
0.0
 10
-2.0126284914
 20
-15.2080111164
 30
0.0
 10
-1.9934382276
 20
-15.2278498721
 30
0.0
 10
-1.9672503591
 20
-15.2547442525
 30
0.0
 10
-1.93742986
 20
-15.2852036384
 30
0.0
 10
-1.9046972386
 20
-15.3185136821
 30
0.0
 10
-1.8568238753
 20
-15.3670868846
 30
0.0
 10
-1.7932077259
 20
-15.431398145
 30
0.0
 10
-1.7136901065
 20
-15.5115038332
 30
0.0
 10
-1.631339027
 20
-15.5942184236
 30
0.0
 10
-1.5756691687
 20
-15.6499832631
 30
0.0
 10
-1.5476295718
 20
-15.6780333369
 30
0.0
  0
SPLINE
  5
578
100
AcDbEntity
  8
0
100
AcDbSpline
 62
7
  6
CONTINUOUS
 70
0
 71
3
 72
11
 73
7
 74
0
 42
0.0000001
 43
0.0000001
 44
0.0000000001
 40
0.0
 40
0.0
 40
0.0
 40
0.0
 40
0.327069379
 40
0.6069908884
 40
0.8253215288
 40
1.0
 40
1.0
 40
1.0
 40
1.0
 10
2.9596469464
 20
-30.8427251097
 30
0.0
 10
2.9255365074
 20
-30.8427251097
 30
0.0
 10
2.8619109845
 20
-30.8504128146
 30
0.0
 10
2.7807763251
 20
-30.8819232956
 30
0.0
 10
2.7252047068
 20
-30.9278346797
 30
0.0
 10
2.709834736
 20
-30.9688461846
 30
0.0
 10
2.7096511771
 20
-30.987062677
 30
0.0
  0
SPLINE
  5
579
100
AcDbEntity
  8
RACCORDO
100
AcDbSpline
 62
250
  6
CONTINUOUS
 70
0
 71
3
 72
17
 73
13
 74
0
 42
0.0000001
 43
0.0000001
 44
0.0000000001
 40
0.0
 40
0.0
 40
0.0
 40
0.0
 40
0.009667165
 40
0.0278015412
 40
0.0543097569
 40
0.0890163234
 40
0.181919812
 40
0.3038288213
 40
0.4511990262
 40
0.6196751255
 40
0.8044786695
 40
1.0
 40
1.0
 40
1.0
 40
1.0
 10
5.1449435643
 20
14.3401525637
 30
0.0
 10
5.1456475096
 20
14.3375063431
 30
0.0
 10
5.1463606007
 20
14.3296128155
 30
0.0
 10
5.1475569015
 20
14.314310235
 30
0.0
 10
5.1485944431
 20
14.2918390364
 30
0.0
 10
5.1502338474
 20
14.2482250589
 30
0.0
 10
5.151976947
 20
14.1775604259
 30
0.0
 10
5.1538050834
 20
14.0749905906
 30
0.0
 10
5.1553649224
 20
13.9510032383
 30
0.0
 10
5.1566316047
 20
13.8091986158
 30
0.0
 10
5.1575485275
 20
13.6537515589
 30
0.0
 10
5.1579037888
 20
13.5460239567
 30
0.0
 10
5.1580206656
 20
13.4906421122
 30
0.0
  0
SPLINE
  5
57A
100
AcDbEntity
  8
RACCORDO
100
AcDbSpline
 62
250
  6
CONTINUOUS
 70
0
 71
3
 72
17
 73
13
 74
0
 42
0.0000001
 43
0.0000001
 44
0.0000000001
 40
0.0
 40
0.0
 40
0.0
 40
0.0
 40
0.1955213305
 40
0.3803248745
 40
0.5488009738
 40
0.6961711787
 40
0.818080188
 40
0.9109836768
 40
0.9456902432
 40
0.9721984585
 40
0.9903328344
 40
1.0
 40
1.0
 40
1.0
 40
1.0
 10
-14.2532798091
 20
13.4906421122
 30
0.0
 10
-14.2531629323
 20
13.5460239567
 30
0.0
 10
-14.252807671
 20
13.6537515589
 30
0.0
 10
-14.2518907482
 20
13.8091986158
 30
0.0
 10
-14.250624066
 20
13.9510032383
 30
0.0
 10
-14.2490642269
 20
14.0749905905
 30
0.0
 10
-14.2472360905
 20
14.1775604259
 30
0.0
 10
-14.2454929909
 20
14.2482250589
 30
0.0
 10
-14.2438535867
 20
14.2918390364
 30
0.0
 10
-14.242816045
 20
14.3143102348
 30
0.0
 10
-14.2416197442
 20
14.3296128153
 30
0.0
 10
-14.2409066529
 20
14.3375063429
 30
0.0
 10
-14.2402027078
 20
14.3401525637
 30
0.0
  0
SPLINE
  5
57B
100
AcDbEntity
  8
RACCORDO
100
AcDbSpline
 62
250
  6
CONTINUOUS
 70
0
 71
3
 72
9
 73
5
 74
0
 42
0.0000001
 43
0.0000001
 44
0.0000000001
 40
0.0
 40
0.0
 40
0.0
 40
0.0
 40
0.2493118446
 40
1.0
 40
1.0
 40
1.0
 40
1.0
 10
5.1580206656
 20
13.4906421122
 30
0.0
 10
5.1591558479
 20
13.0584327059
 30
0.0
 10
5.1634841314
 20
11.324822525
 30
0.0
 10
5.166916096
 20
9.5912101097
 30
0.0
 10
5.1689948809
 20
8.2898070907
 30
0.0
  0
SPLINE
  5
57C
100
AcDbEntity
  8
RACCORDO
100
AcDbSpline
 62
250
  6
CONTINUOUS
 70
0
 71
3
 72
11
 73
7
 74
0
 42
0.0000001
 43
0.0000001
 44
0.0000000001
 40
0.0
 40
0.0
 40
0.0
 40
0.0
 40
0.2497604927
 40
0.4996808534
 40
0.7498105489
 40
1.0
 40
1.0
 40
1.0
 40
1.0
 10
5.1689948809
 20
8.2898070907
 30
0.0
 10
5.1691564342
 20
8.1987659312
 30
0.0
 10
5.1332041537
 20
8.0145866694
 30
0.0
 10
4.9782158908
 20
7.7811601275
 30
0.0
 10
4.7456569698
 20
7.6244646504
 30
0.0
 10
4.5612656468
 20
7.5877892355
 30
0.0
 10
4.4700679824
 20
7.5877905004
 30
0.0
  0
SPLINE
  5
57D
100
AcDbEntity
  8
RACCORDO
100
AcDbSpline
 62
250
  6
CONTINUOUS
 70
0
 71
3
 72
11
 73
7
 74
0
 42
0.0000001
 43
0.0000001
 44
0.0000000001
 40
0.0
 40
0.0
 40
0.0
 40
0.0
 40
0.250189451
 40
0.5003191473
 40
0.7502395167
 40
1.0
 40
1.0
 40
1.0
 40
1.0
 10
-13.5653271259
 20
7.5877905004
 30
0.0
 10
-13.6565247912
 20
7.5877892531
 30
0.0
 10
-13.8409161196
 20
7.6244646362
 30
0.0
 10
-14.0734750361
 20
7.7811601325
 30
0.0
 10
-14.2284633346
 20
8.0145866623
 30
0.0
 10
-14.2644155633
 20
8.1987659337
 30
0.0
 10
-14.2642540245
 20
8.2898070907
 30
0.0
  0
SPLINE
  5
57E
100
AcDbEntity
  8
RACCORDO
100
AcDbSpline
 62
250
  6
CONTINUOUS
 70
0
 71
3
 72
9
 73
5
 74
0
 42
0.0000001
 43
0.0000001
 44
0.0000000001
 40
0.0
 40
0.0
 40
0.0
 40
0.0
 40
0.250634419
 40
1.0
 40
1.0
 40
1.0
 40
1.0
 10
-14.2642540245
 20
8.2898070907
 30
0.0
 10
-14.2635599745
 20
8.7243102691
 30
0.0
 10
-14.2605693633
 20
10.4579232724
 30
0.0
 10
-14.2566918674
 20
12.1915347495
 30
0.0
 10
-14.2532798091
 20
13.4906421122
 30
0.0
  0
SPLINE
  5
57F
100
AcDbEntity
  8
RACCORDO
100
AcDbSpline
 62
250
  6
CONTINUOUS
 70
0
 71
3
 72
14
 73
10
 74
0
 42
0.0000001
 43
0.0000001
 44
0.0000000001
 40
0.0
 40
0.0
 40
0.0
 40
0.0
 40
0.0268559783
 40
0.0860904154
 40
0.1788054457
 40
0.3022591428
 40
0.4519871215
 40
0.6225599334
 40
1.0
 40
1.0
 40
1.0
 40
1.0
 10
5.5950896793
 20
-30.2547029216
 30
0.0
 10
5.594948941
 20
-30.2524410466
 30
0.0
 10
5.5868428292
 20
-30.2483609478
 30
0.0
 10
5.5734619856
 20
-30.2450153416
 30
0.0
 10
5.5498645322
 20
-30.2410193657
 30
0.0
 10
5.5194279872
 20
-30.2377640348
 30
0.0
 10
5.4819864569
 20
-30.2349256538
 30
0.0
 10
5.4232138633
 20
-30.2320547112
 30
0.0
 10
5.3769442955
 20
-30.2312553255
 30
0.0
 10
5.3450939101
 20
-30.2312566234
 30
0.0
  0
SPLINE
  5
580
100
AcDbEntity
  8
0
100
AcDbSpline
 62
250
  6
CONTINUOUS
 70
0
 71
3
 72
11
 73
7
 74
0
 42
0.0000001
 43
0.0000001
 44
0.0000000001
 40
0.0
 40
0.0
 40
0.0
 40
0.0
 40
0.2331623084
 40
0.476670585
 40
0.7338116789
 40
1.0
 40
1.0
 40
1.0
 40
1.0
 10
5.5892718495
 20
16.1242621884
 30
0.0
 10
5.5891767777
 20
16.0959570035
 30
0.0
 10
5.57524692
 20
16.0374138643
 30
0.0
 10
5.5183144959
 20
15.9657527496
 30
0.0
 10
5.4356464557
 20
15.9187545524
 30
0.0
 10
5.3715906009
 20
15.907837244
 30
0.0
 10
5.3392760803
 20
15.9077558374
 30
0.0
  0
SPLINE
  5
581
100
AcDbEntity
  8
0
100
AcDbSpline
 62
7
  6
CONTINUOUS
 70
0
 71
3
 72
11
 73
7
 74
0
 42
0.0000001
 43
0.0000001
 44
0.0000000001
 40
0.0
 40
0.0
 40
0.0
 40
0.0
 40
0.327069379
 40
0.6069908884
 40
0.8253215288
 40
1.0
 40
1.0
 40
1.0
 40
1.0
 10
5.3450939101
 20
15.4025743519
 30
0.0
 10
5.3792043491
 20
15.4025743519
 30
0.0
 10
5.4428298719
 20
15.4102620567
 30
0.0
 10
5.5239645313
 20
15.4417725378
 30
0.0
 10
5.5795361497
 20
15.4876839218
 30
0.0
 10
5.5949061205
 20
15.5286954268
 30
0.0
 10
5.5950896793
 20
15.5469119192
 30
0.0
  0
SPLINE
  5
582
100
AcDbEntity
  8
RACCORDO
100
AcDbSpline
 62
250
  6
CONTINUOUS
 70
0
 71
3
 72
18
 73
14
 74
0
 42
0.0000001
 43
0.0000001
 44
0.0000000001
 40
0.0
 40
0.0
 40
0.0
 40
0.0
 40
0.0073730122
 40
0.0229990562
 40
0.0475744983
 40
0.0810920669
 40
0.1232770641
 40
0.173746769
 40
0.2977659197
 40
0.4484231134
 40
0.6201056676
 40
0.8065416681
 40
1.0
 40
1.0
 40
1.0
 40
1.0
 10
5.7950862947
 20
-30.0549770146
 30
0.0
 10
5.7949616687
 20
-30.05387295
 30
0.0
 10
5.7912951541
 20
-30.0518292672
 30
0.0
 10
5.7848738719
 20
-30.0500121758
 30
0.0
 10
5.7737128139
 20
-30.0477965082
 30
0.0
 10
5.7588457191
 20
-30.0457615468
 30
0.0
 10
5.7398992611
 20
-30.0437186578
 30
0.0
 10
5.7073814626
 20
-30.0409555749
 30
0.0
 10
5.6584555132
 20
-30.037994995
 30
0.0
 10
5.5912522651
 20
-30.0351973226
 30
0.0
 10
5.5146067425
 20
-30.0331112971
 30
0.0
 10
5.4314959227
 20
-30.0318183525
 30
0.0
 10
5.374247117
 20
-30.0315262189
 30
0.0
 10
5.3450939101
 20
-30.0315307164
 30
0.0
  0
SPLINE
  5
583
100
AcDbEntity
  8
0
100
AcDbSpline
 62
7
  6
CONTINUOUS
 70
0
 71
3
 72
11
 73
7
 74
0
 42
0.0000001
 43
0.0000001
 44
0.0000000001
 40
0.0
 40
0.0
 40
0.0
 40
0.0
 40
0.1745970712
 40
0.3929474236
 40
0.672962312
 40
1.0
 40
1.0
 40
1.0
 40
1.0
 10
2.7096511771
 20
15.5469119192
 30
0.0
 10
2.709835072
 20
15.5286620877
 30
0.0
 10
2.7252685244
 20
15.4875649029
 30
0.0
 10
2.7810283604
 20
15.4416181364
 30
0.0
 10
2.8623971305
 20
15.4101063519
 30
0.0
 10
2.9261886894
 20
15.4025743519
 30
0.0
 10
2.9603741751
 20
15.4025743519
 30
0.0
  0
SPLINE
  5
584
100
AcDbEntity
  8
0
100
AcDbSpline
 62
250
  6
CONTINUOUS
 70
0
 71
3
 72
11
 73
7
 74
0
 42
0.0000001
 43
0.0000001
 44
0.0000000001
 40
0.0
 40
0.0
 40
0.0
 40
0.0
 40
0.2331623084
 40
0.476670585
 40
0.7338116789
 40
1.0
 40
1.0
 40
1.0
 40
1.0
 10
2.715469007
 20
16.1242621884
 30
0.0
 10
2.7155640788
 20
16.0959570035
 30
0.0
 10
2.7294939365
 20
16.0374138643
 30
0.0
 10
2.7864263606
 20
15.9657527496
 30
0.0
 10
2.8690944008
 20
15.9187545524
 30
0.0
 10
2.9331502555
 20
15.907837244
 30
0.0
 10
2.9654647762
 20
15.9077558374
 30
0.0
  0
SPLINE
  5
585
100
AcDbEntity
  8
0
100
AcDbSpline
 62
250
  6
CONTINUOUS
 70
0
 71
3
 72
11
 73
7
 74
0
 42
0.0000001
 43
0.0000001
 44
0.0000000001
 40
0.0
 40
0.0
 40
0.0
 40
0.0
 40
0.2331622206
 40
0.4766705204
 40
0.7338116472
 40
1.0
 40
1.0
 40
1.0
 40
1.0
 10
-11.8107281505
 20
16.1242621884
 30
0.0
 10
-11.8108232222
 20
16.0959570141
 30
0.0
 10
-11.8247530707
 20
16.0374138828
 30
0.0
 10
-11.8816854856
 20
15.9657527639
 30
0.0
 10
-11.9643535323
 20
15.9187545555
 30
0.0
 10
-12.0284093952
 20
15.907837244
 30
0.0
 10
-12.0607239197
 20
15.9077558374
 30
0.0
  0
SPLINE
  5
586
100
AcDbEntity
  8
0
100
AcDbSpline
 62
7
  6
CONTINUOUS
 70
0
 71
3
 72
11
 73
7
 74
0
 42
0.0000001
 43
0.0000001
 44
0.0000000001
 40
0.0
 40
0.0
 40
0.0
 40
0.0
 40
0.1745970712
 40
0.3929474236
 40
0.672962312
 40
1.0
 40
1.0
 40
1.0
 40
1.0
 10
-11.8049103207
 20
15.5469119192
 30
0.0
 10
-11.8050942155
 20
15.5286620877
 30
0.0
 10
-11.8205276679
 20
15.4875649029
 30
0.0
 10
-11.8762875039
 20
15.4416181364
 30
0.0
 10
-11.957656274
 20
15.4101063519
 30
0.0
 10
-12.0214478329
 20
15.4025743519
 30
0.0
 10
-12.0556333186
 20
15.4025743519
 30
0.0
  0
SPLINE
  5
587
100
AcDbEntity
  8
0
100
AcDbSpline
 62
7
  6
CONTINUOUS
 70
0
 71
3
 72
11
 73
7
 74
0
 42
0.0000001
 43
0.0000001
 44
0.0000000001
 40
0.0
 40
0.0
 40
0.0
 40
0.0
 40
0.1745970712
 40
0.3929474236
 40
0.672962312
 40
1.0
 40
1.0
 40
1.0
 40
1.0
 10
-14.6903488229
 20
15.5469119192
 30
0.0
 10
-14.690164928
 20
15.5286620877
 30
0.0
 10
-14.6747314756
 20
15.4875649029
 30
0.0
 10
-14.6189716396
 20
15.4416181364
 30
0.0
 10
-14.5376028695
 20
15.4101063519
 30
0.0
 10
-14.4738113106
 20
15.4025743519
 30
0.0
 10
-14.4396258249
 20
15.4025743519
 30
0.0
  0
SPLINE
  5
588
100
AcDbEntity
  8
0
100
AcDbSpline
 62
250
  6
CONTINUOUS
 70
0
 71
3
 72
11
 73
7
 74
0
 42
0.0000001
 43
0.0000001
 44
0.0000000001
 40
0.0
 40
0.0
 40
0.0
 40
0.0
 40
0.2331623084
 40
0.476670585
 40
0.7338116789
 40
1.0
 40
1.0
 40
1.0
 40
1.0
 10
-14.684530993
 20
16.1242621884
 30
0.0
 10
-14.6844359212
 20
16.0959570035
 30
0.0
 10
-14.6705060635
 20
16.0374138643
 30
0.0
 10
-14.6135736394
 20
15.9657527496
 30
0.0
 10
-14.5309055992
 20
15.9187545524
 30
0.0
 10
-14.4668497445
 20
15.907837244
 30
0.0
 10
-14.4345352238
 20
15.9077558374
 30
0.0
  0
SPLINE
  5
589
100
AcDbEntity
  8
RACCORDO
100
AcDbSpline
 62
250
  6
CONTINUOUS
 70
0
 71
3
 72
14
 73
10
 74
0
 42
0.0000001
 43
0.0000001
 44
0.0000000001
 40
0.0
 40
0.0
 40
0.0
 40
0.0
 40
0.3774400674
 40
0.5480128796
 40
0.6977408587
 40
0.821194556
 40
0.9139095863
 40
0.9731440264
 40
1.0
 40
1.0
 40
1.0
 40
1.0
 10
2.9596469464
 20
-30.2312566234
 30
0.0
 10
2.927796561
 20
-30.231255327
 30
0.0
 10
2.8815269932
 20
-30.2320547128
 30
0.0
 10
2.8227543995
 20
-30.2349256528
 30
0.0
 10
2.785312869
 20
-30.2377640339
 30
0.0
 10
2.7548763247
 20
-30.2410193665
 30
0.0
 10
2.7312788699
 20
-30.2450153405
 30
0.0
 10
2.7178980288
 20
-30.2483609501
 30
0.0
 10
2.7097919151
 20
-30.252441047
 30
0.0
 10
2.7096511771
 20
-30.2547029216
 30
0.0
  0
SPLINE
  5
58A
100
AcDbEntity
  8
RACCORDO
100
AcDbSpline
 62
250
  6
CONTINUOUS
 70
0
 71
3
 72
18
 73
14
 74
0
 42
0.0000001
 43
0.0000001
 44
0.0000000001
 40
0.0
 40
0.0
 40
0.0
 40
0.0
 40
0.19345833
 40
0.3798943307
 40
0.5515768897
 40
0.7022340867
 40
0.8262532288
 40
0.8767229244
 40
0.9189079144
 40
0.9524254829
 40
0.9770009332
 40
0.9926269861
 40
1.0
 40
1.0
 40
1.0
 40
1.0
 10
2.9596469464
 20
-30.0315307164
 30
0.0
 10
2.9304937398
 20
-30.0315262282
 30
0.0
 10
2.8732449346
 20
-30.0318183602
 30
0.0
 10
2.7901341141
 20
-30.033111293
 30
0.0
 10
2.7134885904
 20
-30.0351973224
 30
0.0
 10
2.6462853425
 20
-30.0379949956
 30
0.0
 10
2.5973593953
 20
-30.0409555745
 30
0.0
 10
2.5648416007
 20
-30.0437186577
 30
0.0
 10
2.5458951452
 20
-30.045761547
 30
0.0
 10
2.5310280507
 20
-30.0477965087
 30
0.0
 10
2.5198669891
 20
-30.0500121762
 30
0.0
 10
2.5134457057
 20
-30.0518292668
 30
0.0
 10
2.5097791869
 20
-30.0538729496
 30
0.0
 10
2.5096545618
 20
-30.0549770146
 30
0.0
  0
SPLINE
  5
58B
100
AcDbEntity
  8
RACCORDO
100
AcDbSpline
 62
7
  6
CONTINUOUS
 70
0
 71
3
 72
22
 73
18
 74
0
 42
0.0000001
 43
0.0000001
 44
0.0000000001
 40
0.0
 40
0.0
 40
0.0
 40
0.0
 40
0.002231048
 40
0.0079853558
 40
0.0171233634
 40
0.0294930061
 40
0.0449404063
 40
0.0632855593
 40
0.1077281421
 40
0.1609083031
 40
0.2211282952
 40
0.2870428628
 40
0.3574370227
 40
0.5082382163
 40
0.6679741393
 40
0.8328580008
 40
1.0
 40
1.0
 40
1.0
 40
1.0
 10
-2.0476295718
 20
-13.8201157841
 30
0.0
 10
-2.0476295718
 20
-13.8206451428
 30
0.0
 10
-2.0458899701
 20
-13.8220034367
 30
0.0
 10
-2.043659557
 20
-13.8251328535
 30
0.0
 10
-2.0390096549
 20
-13.8298257151
 30
0.0
 10
-2.0330954748
 20
-13.8362218594
 30
0.0
 10
-2.0254866742
 20
-13.8441304939
 30
0.0
 10
-2.0126220512
 20
-13.857498995
 30
0.0
 10
-1.993429234
 20
-13.877224186
 30
0.0
 10
-1.9672436613
 20
-13.9039959457
 30
0.0
 10
-1.9374243355
 20
-13.9343443558
 30
0.0
 10
-1.9046926483
 20
-13.9675556391
 30
0.0
 10
-1.856814857
 20
-14.0160157196
 30
0.0
 10
-1.7931952658
 20
-14.08021597
 30
0.0
 10
-1.7136793475
 20
-14.1602264459
 30
0.0
 10
-1.6313291737
 20
-14.2428862508
 30
0.0
 10
-1.5756659575
 20
-14.2986340198
 30
0.0
 10
-1.5476295718
 20
-14.3266819855
 30
0.0
  0
SPLINE
  5
58C
100
AcDbEntity
  8
0
100
AcDbSpline
 62
250
  6
CONTINUOUS
 70
0
 71
3
 72
11
 73
7
 74
0
 42
0.0000001
 43
0.0000001
 44
0.0000000001
 40
0.0
 40
0.0
 40
0.0
 40
0.0
 40
0.2331623162
 40
0.4766706026
 40
0.7338117062
 40
1.0
 40
1.0
 40
1.0
 40
1.0
 10
5.5892718495
 20
-31.5644129462
 30
0.0
 10
5.5891767777
 20
-31.5361077604
 30
0.0
 10
5.5752469188
 20
-31.477564619
 30
0.0
 10
5.5183144909
 20
-31.4059035029
 30
0.0
 10
5.4356464502
 20
-31.3589053084
 30
0.0
 10
5.3715905976
 20
-31.3479880018
 30
0.0
 10
5.3392760803
 20
-31.3479065953
 30
0.0
  0
SPLINE
  5
58D
100
AcDbEntity
  8
0
100
AcDbSpline
 62
7
  6
CONTINUOUS
 70
0
 71
3
 72
11
 73
7
 74
0
 42
0.0000001
 43
0.0000001
 44
0.0000000001
 40
0.0
 40
0.0
 40
0.0
 40
0.0
 40
0.1745970712
 40
0.3929474236
 40
0.672962312
 40
1.0
 40
1.0
 40
1.0
 40
1.0
 10
5.5950896793
 20
-30.987062677
 30
0.0
 10
5.5949057845
 20
-30.9688128456
 30
0.0
 10
5.5794723321
 20
-30.9277156608
 30
0.0
 10
5.5237124961
 20
-30.8817688943
 30
0.0
 10
5.442343726
 20
-30.8502571097
 30
0.0
 10
5.3785521671
 20
-30.8427251097
 30
0.0
 10
5.3443666814
 20
-30.8427251097
 30
0.0
  0
SPLINE
  5
58E
100
AcDbEntity
  8
0
100
AcDbSpline
 62
250
  6
CONTINUOUS
 70
0
 71
3
 72
11
 73
7
 74
0
 42
0.0000001
 43
0.0000001
 44
0.0000000001
 40
0.0
 40
0.0
 40
0.0
 40
0.0
 40
0.2331623084
 40
0.476670585
 40
0.7338116789
 40
1.0
 40
1.0
 40
1.0
 40
1.0
 10
2.715469007
 20
-31.5644129462
 30
0.0
 10
2.7155640788
 20
-31.5361077614
 30
0.0
 10
2.7294939365
 20
-31.4775646221
 30
0.0
 10
2.7864263606
 20
-31.4059035075
 30
0.0
 10
2.8690944008
 20
-31.3589053103
 30
0.0
 10
2.9331502555
 20
-31.3479880018
 30
0.0
 10
2.9654647762
 20
-31.3479065953
 30
0.0
  0
SPLINE
  5
58F
100
AcDbEntity
  8
0
100
AcDbSpline
 62
250
  6
CONTINUOUS
 70
0
 71
3
 72
11
 73
7
 74
0
 42
0.0000001
 43
0.0000001
 44
0.0000000001
 40
0.0
 40
0.0
 40
0.0
 40
0.0
 40
0.2331622206
 40
0.4766705204
 40
0.7338116472
 40
1.0
 40
1.0
 40
1.0
 40
1.0
 10
-14.684530993
 20
-31.5644129462
 30
0.0
 10
-14.6844359213
 20
-31.536107772
 30
0.0
 10
-14.6705060729
 20
-31.4775646406
 30
0.0
 10
-14.6135736579
 20
-31.4059035218
 30
0.0
 10
-14.5309056112
 20
-31.3589053134
 30
0.0
 10
-14.4668497483
 20
-31.3479880018
 30
0.0
 10
-14.4345352238
 20
-31.3479065953
 30
0.0
  0
SPLINE
  5
590
100
AcDbEntity
  8
0
100
AcDbSpline
 62
7
  6
CONTINUOUS
 70
0
 71
3
 72
11
 73
7
 74
0
 42
0.0000001
 43
0.0000001
 44
0.0000000001
 40
0.0
 40
0.0
 40
0.0
 40
0.0
 40
0.1745970712
 40
0.3929474236
 40
0.672962312
 40
1.0
 40
1.0
 40
1.0
 40
1.0
 10
-14.6903488229
 20
-30.987062677
 30
0.0
 10
-14.690164928
 20
-30.9688128456
 30
0.0
 10
-14.6747314756
 20
-30.9277156608
 30
0.0
 10
-14.6189716396
 20
-30.8817688943
 30
0.0
 10
-14.5376028695
 20
-30.8502571097
 30
0.0
 10
-14.4738113106
 20
-30.8427251097
 30
0.0
 10
-14.4396258249
 20
-30.8427251097
 30
0.0
  0
SPLINE
  5
591
100
AcDbEntity
  8
0
100
AcDbSpline
 62
250
  6
CONTINUOUS
 70
0
 71
3
 72
11
 73
7
 74
0
 42
0.0000001
 43
0.0000001
 44
0.0000000001
 40
0.0
 40
0.0
 40
0.0
 40
0.0
 40
0.2331623084
 40
0.476670585
 40
0.7338116789
 40
1.0
 40
1.0
 40
1.0
 40
1.0
 10
-11.8107281505
 20
-31.5644129462
 30
0.0
 10
-11.8108232223
 20
-31.5361077614
 30
0.0
 10
-11.82475308
 20
-31.4775646221
 30
0.0
 10
-11.8816855041
 20
-31.4059035075
 30
0.0
 10
-11.9643535443
 20
-31.3589053103
 30
0.0
 10
-12.0284093991
 20
-31.3479880018
 30
0.0
 10
-12.0607239197
 20
-31.3479065953
 30
0.0
  0
SPLINE
  5
592
100
AcDbEntity
  8
0
100
AcDbSpline
 62
7
  6
CONTINUOUS
 70
0
 71
3
 72
11
 73
7
 74
0
 42
0.0000001
 43
0.0000001
 44
0.0000000001
 40
0.0
 40
0.0
 40
0.0
 40
0.0
 40
0.1745970712
 40
0.3929474236
 40
0.672962312
 40
1.0
 40
1.0
 40
1.0
 40
1.0
 10
-11.8049103207
 20
-30.987062677
 30
0.0
 10
-11.8050942155
 20
-30.9688128456
 30
0.0
 10
-11.8205276679
 20
-30.9277156608
 30
0.0
 10
-11.8762875039
 20
-30.8817688943
 30
0.0
 10
-11.957656274
 20
-30.8502571097
 30
0.0
 10
-12.0214478329
 20
-30.8427251097
 30
0.0
 10
-12.0556333186
 20
-30.8427251097
 30
0.0
  0
SPLINE
  5
593
100
AcDbEntity
  8
0
100
AcDbSpline
 62
7
  6
CONTINUOUS
 70
0
 71
3
 72
10
 73
6
 74
0
 42
0.0000001
 43
0.0000001
 44
0.0000000001
 40
0.0
 40
0.0
 40
0.0
 40
0.0
 40
0.0871592394
 40
0.4713290238
 40
1.0
 40
1.0
 40
1.0
 40
1.0
 10
-59.9022037422
 20
15.4025743519
 30
0.0
 10
-59.8950334938
 20
15.4068543439
 30
0.0
 10
-59.8561926007
 20
15.4298860048
 30
0.0
 10
-59.7731766395
 20
15.4777152427
 30
0.0
 10
-59.6975219269
 20
15.5215865274
 30
0.0
 10
-59.653658175
 20
15.5469119192
 30
0.0
  0
SPLINE
  5
594
100
AcDbEntity
  8
0
100
AcDbSpline
 62
250
  6
CONTINUOUS
 70
0
 71
3
 72
21
 73
17
 74
0
 42
0.0000001
 43
0.0000001
 44
0.0000000001
 40
0.0
 40
0.0
 40
0.0
 40
0.0
 40
0.0012386196
 40
0.0048601485
 40
0.010873725
 40
0.0192698426
 40
0.0431182345
 40
0.0761810475
 40
0.1181392015
 40
0.1685881473
 40
0.2270443453
 40
0.29294427
 40
0.4444696608
 40
0.6173444947
 40
0.8049177821
 40
1.0
 40
1.0
 40
1.0
 40
1.0
 10
-57.6507493094
 20
16.7755527871
 30
0.0
 10
-57.6506460882
 20
16.7755521865
 30
0.0
 10
-57.6507338124
 20
16.7749198442
 30
0.0
 10
-57.6505487186
 20
16.7742339037
 30
0.0
 10
-57.6505642716
 20
16.7726092373
 30
0.0
 10
-57.6504362189
 20
16.7694963955
 30
0.0
 10
-57.6503843075
 20
16.7639994718
 30
0.0
 10
-57.6502871871
 20
16.7557865909
 30
0.0
 10
-57.6502288356
 20
16.7453204393
 30
0.0
 10
-57.6501798879
 20
16.7327515659
 30
0.0
 10
-57.6501525916
 20
16.7181826703
 30
0.0
 10
-57.6501401254
 20
16.6951920023
 30
0.0
 10
-57.6501792745
 20
16.6626652641
 30
0.0
 10
-57.6502977984
 20
16.6199991654
 30
0.0
 10
-57.6504871505
 20
16.5737032542
 30
0.0
 10
-57.6506547304
 20
16.5418143173
 30
0.0
 10
-57.6507493094
 20
16.5255570179
 30
0.0
  0
LINE
  5
595
100
AcDbEntity
  8
0
100
AcDbLine
 62
7
  6
CONTINUOUS
 10
-58.4022037422
 20
16.7799246211
 30
0.0
 11
-58.4022037422
 21
16.5299288519
 31
0.0
  0
LINE
  5
596
100
AcDbEntity
  8
RACCORDO
100
AcDbLine
 62
250
  6
CONTINUOUS
 10
-59.9022037422
 20
14.7911058655
 30
0.0
 11
-59.653658175
 21
14.8145521637
 31
0.0
  0
SPLINE
  5
597
100
AcDbEntity
  8
0
100
AcDbSpline
 62
250
  6
CONTINUOUS
 70
0
 71
3
 72
21
 73
17
 74
0
 42
0.0000001
 43
0.0000001
 44
0.0000000001
 40
0.0
 40
0.0
 40
0.0
 40
0.0
 40
0.001238631
 40
0.0048601809
 40
0.0108737668
 40
0.0192698957
 40
0.0431183126
 40
0.0761811521
 40
0.118139316
 40
0.1685882702
 40
0.2270444778
 40
0.2929444002
 40
0.4444697787
 40
0.6173445795
 40
0.8049178299
 40
1.0
 40
1.0
 40
1.0
 40
1.0
 10
-60.653658175
 20
16.7668260423
 30
0.0
 10
-60.6537613971
 20
16.7668254418
 30
0.0
 10
-60.6536736709
 20
16.7661930948
 30
0.0
 10
-60.6538587663
 20
16.7655071519
 30
0.0
 10
-60.6538432131
 20
16.7638824819
 30
0.0
 10
-60.653971266
 20
16.7607696363
 30
0.0
 10
-60.6540231771
 20
16.7552727074
 30
0.0
 10
-60.6541202975
 20
16.7470598213
 30
0.0
 10
-60.6541786489
 20
16.736593666
 30
0.0
 10
-60.6542275966
 20
16.7240247903
 30
0.0
 10
-60.6542548929
 20
16.7094558934
 30
0.0
 10
-60.654267359
 20
16.6864652258
 30
0.0
 10
-60.6542282099
 20
16.6539384916
 30
0.0
 10
-60.6541096859
 20
16.6112723998
 30
0.0
 10
-60.6539203338
 20
16.5649764984
 30
0.0
 10
-60.653752754
 20
16.5330875685
 30
0.0
 10
-60.653658175
 20
16.5168302731
 30
0.0
  0
LINE
  5
598
100
AcDbEntity
  8
RACCORDO
100
AcDbLine
 62
250
  6
CONTINUOUS
 10
-55.0022037422
 20
-15.8090932382
 30
0.0
 11
-55.1995976992
 21
-15.8079448176
 31
0.0
  0
SPLINE
  5
599
100
AcDbEntity
  8
RACCORDO
100
AcDbSpline
 62
250
  6
CONTINUOUS
 70
0
 71
3
 72
18
 73
14
 74
0
 42
0.0000001
 43
0.0000001
 44
0.0000000001
 40
0.0
 40
0.0
 40
0.0
 40
0.0
 40
0.0048806966
 40
0.0193135469
 40
0.0431344661
 40
0.0761643994
 40
0.118162703
 40
0.1686485495
 40
0.2929189102
 40
0.4443738816
 40
0.6173186979
 40
0.8053095872
 40
1.0
 40
1.0
 40
1.0
 40
1.0
 10
-59.6443545301
 20
-30.0549770146
 30
0.0
 10
-59.6440296736
 20
-30.0549940396
 30
0.0
 10
-59.6446600124
 20
-30.0570206789
 30
0.0
 10
-59.6441002389
 20
-30.05918906
 30
0.0
 10
-59.6445921344
 20
-30.0643358624
 30
0.0
 10
-59.6446827734
 20
-30.0707462375
 30
0.0
 10
-59.6450781716
 20
-30.0791711991
 30
0.0
 10
-59.64567057
 20
-30.0935743021
 30
0.0
 10
-59.646678616
 20
-30.1153131121
 30
0.0
 10
-59.6480986361
 20
-30.145175463
 30
0.0
 10
-59.6497846555
 20
-30.1792877646
 30
0.0
 10
-59.6516586379
 20
-30.2162724179
 30
0.0
 10
-59.6529790724
 20
-30.2417444326
 30
0.0
 10
-59.653658175
 20
-30.2547029216
 30
0.0
  0
SPLINE
  5
59A
100
AcDbEntity
  8
RACCORDO
100
AcDbSpline
 62
250
  6
CONTINUOUS
 70
0
 71
3
 72
21
 73
17
 74
0
 42
0.0000001
 43
0.0000001
 44
0.0000000001
 40
0.0
 40
0.0
 40
0.0
 40
0.0
 40
0.1946573615
 40
0.3826233858
 40
0.5555508077
 40
0.7069950846
 40
0.7728300205
 40
0.8312609374
 40
0.8817468185
 40
0.9237468489
 40
0.9567806193
 40
0.980608506
 40
0.9890150812
 40
0.9950552516
 40
0.9987119175
 40
1.0
 40
1.0
 40
1.0
 40
1.0
 10
-56.2978404745
 20
9.8755878418
 30
0.0
 10
-56.2976706175
 20
9.8561209539
 30
0.0
 10
-56.2973696441
 20
9.8178560658
 30
0.0
 10
-56.2970278059
 20
9.762296567
 30
0.0
 10
-56.2968147344
 20
9.7110583385
 30
0.0
 10
-56.2967441733
 20
9.6720335766
 30
0.0
 10
-56.29676646
 20
9.6444604052
 30
0.0
 10
-56.2968163225
 20
9.6269822966
 30
0.0
 10
-56.2969021315
 20
9.6118932518
 30
0.0
 10
-56.2970129073
 20
9.5993295333
 30
0.0
 10
-56.2971727178
 20
9.5894721513
 30
0.0
 10
-56.2973000619
 20
9.5828861203
 30
0.0
 10
-56.2974859805
 20
9.5791426697
 30
0.0
 10
-56.2975315131
 20
9.5771995047
 30
0.0
 10
-56.2977346798
 20
9.5763478297
 30
0.0
 10
-56.2977116577
 20
9.575600389
 30
0.0
 10
-56.2978404736
 20
9.5755992648
 30
0.0
  0
LINE
  5
59B
100
AcDbEntity
  8
RACCORDO
100
AcDbLine
 62
250
  6
CONTINUOUS
 10
-55.1995976992
 20
-16.4322059403
 30
0.0
 11
-55.0022037421
 21
-16.4310575196
 31
0.0
  0
LINE
  5
59C
100
AcDbEntity
  8
RACCORDO
100
AcDbLine
 62
250
  6
CONTINUOUS
 10
-55.1995976992
 20
-7.4079448176
 30
0.0
 11
-55.0022037421
 21
-7.4090932382
 31
0.0
  0
LINE
  5
59D
100
AcDbEntity
  8
RACCORDO
100
AcDbLine
 62
250
  6
CONTINUOUS
 10
-55.1995976992
 20
4.5920551824
 30
0.0
 11
-55.0022037421
 21
4.5909067618
 31
0.0
  0
SPLINE
  5
59E
100
AcDbEntity
  8
RACCORDO
100
AcDbSpline
 62
250
  6
CONTINUOUS
 70
0
 71
3
 72
18
 73
14
 74
0
 42
0.0000001
 43
0.0000001
 44
0.0000000001
 40
0.0
 40
0.0
 40
0.0
 40
0.0
 40
0.0048806941
 40
0.0193135386
 40
0.0431344518
 40
0.0761643816
 40
0.1181626805
 40
0.1686485184
 40
0.2929188659
 40
0.4443738356
 40
0.6173186655
 40
0.8053095781
 40
1.0
 40
1.0
 40
1.0
 40
1.0
 10
-59.6443545301
 20
14.6148262567
 30
0.0
 10
-59.6440296737
 20
14.6148432817
 30
0.0
 10
-59.6446600123
 20
14.6168699202
 30
0.0
 10
-59.644100239
 20
14.6190383005
 30
0.0
 10
-59.6445921345
 20
14.6241851018
 30
0.0
 10
-59.6446827735
 20
14.630595476
 30
0.0
 10
-59.6450781716
 20
14.6390204365
 30
0.0
 10
-59.6456705699
 20
14.6534235377
 30
0.0
 10
-59.6466786157
 20
14.6751623461
 30
0.0
 10
-59.6480986358
 20
14.7050246969
 30
0.0
 10
-59.6497846553
 20
14.7391370009
 30
0.0
 10
-59.6516586378
 20
14.7761216572
 30
0.0
 10
-59.6529790724
 20
14.8015936741
 30
0.0
 10
-59.653658175
 20
14.8145521637
 30
0.0
  0
LINE
  5
59F
100
AcDbEntity
  8
RACCORDO
100
AcDbLine
 62
250
  6
CONTINUOUS
 10
-55.0022037422
 20
-8.0310575196
 30
0.0
 11
-55.1995976992
 21
-8.0322059403
 31
0.0
  0
SPLINE
  5
5A0
100
AcDbEntity
  8
RACCORDO
100
AcDbSpline
 62
250
  6
CONTINUOUS
 70
0
 71
3
 72
12
 73
8
 74
0
 42
0.0000001
 43
0.0000001
 44
0.0000000001
 40
0.0
 40
0.0
 40
0.0
 40
0.0
 40
0.1361440583
 40
0.2347028708
 40
0.3557557044
 40
0.6554203798
 40
1.0
 40
1.0
 40
1.0
 40
1.0
 10
-55.23292706
 20
4.6920513747
 30
0.0
 10
-55.2278938883
 20
4.6920074509
 30
0.0
 10
-55.2199993507
 20
4.6857039461
 30
0.0
 10
-55.2134891057
 20
4.674538539
 30
0.0
 10
-55.2063424618
 20
4.6565367129
 30
0.0
 10
-55.2008920835
 20
4.6286488426
 30
0.0
 10
-55.1994995321
 20
4.6047942101
 30
0.0
 10
-55.1995976992
 20
4.5920551824
 30
0.0
  0
LINE
  5
5A1
100
AcDbEntity
  8
0
100
AcDbLine
 62
7
  6
CONTINUOUS
 10
-58.4022037422
 20
-29.6198465269
 30
0.0
 11
-58.402203742
 21
-30.1200753789
 31
0.0
  0
SPLINE
  5
5A2
100
AcDbEntity
  8
0
100
AcDbSpline
 62
250
  6
CONTINUOUS
 70
0
 71
3
 72
22
 73
18
 74
0
 42
0.0000001
 43
0.0000001
 44
0.0000000001
 40
0.0
 40
0.0
 40
0.0
 40
0.0
 40
0.1960040759
 40
0.3839724912
 40
0.5568497237
 40
0.7081347346
 40
0.7738642344
 40
0.8321384077
 40
0.8824088758
 40
0.9242017319
 40
0.9571224387
 40
0.9701562667
 40
0.9808619049
 40
0.9892162295
 40
0.9951976705
 40
0.9987935873
 40
1.0
 40
1.0
 40
1.0
 40
1.0
 10
-65.3362406807
 20
-28.8562333284
 30
0.0
 10
-65.3679856102
 20
-28.8610220875
 30
0.0
 10
-65.4301716832
 20
-28.8704187351
 30
0.0
 10
-65.5203488889
 20
-28.8840928885
 30
0.0
 10
-65.6032769141
 20
-28.8967174697
 30
0.0
 10
-65.6664040371
 20
-28.9063736659
 30
0.0
 10
-65.7109709676
 20
-28.913225978
 30
0.0
 10
-65.7391808029
 20
-28.9175822139
 30
0.0
 10
-65.7635158902
 20
-28.9213580426
 30
0.0
 10
-65.7837351764
 20
-28.9245245898
 30
0.0
 10
-65.7979463784
 20
-28.9267592816
 30
0.0
 10
-65.8070868009
 20
-28.928242218
 30
0.0
 10
-65.8123241084
 20
-28.9290574124
 30
0.0
 10
-65.8162443514
 20
-28.9298011774
 30
0.0
 10
-65.8194256414
 20
-28.9301312005
 30
0.0
 10
-65.8206598736
 20
-28.930738885
 30
0.0
 10
-65.821953258
 20
-28.930597431
 30
0.0
 10
-65.8219237905
 20
-28.9307928234
 30
0.0
  0
LINE
  5
5A3
100
AcDbEntity
  8
RACCORDO
100
AcDbLine
 62
250
  6
CONTINUOUS
 10
-59.653658175
 20
-30.2547029216
 30
0.0
 11
-59.9022037461
 21
-30.2312566219
 31
0.0
  0
SPLINE
  5
5A4
100
AcDbEntity
  8
0
100
AcDbSpline
 62
250
  6
CONTINUOUS
 70
0
 71
3
 72
21
 73
17
 74
0
 42
0.0000001
 43
0.0000001
 44
0.0000000001
 40
0.0
 40
0.0
 40
0.0
 40
0.0
 40
0.1950058568
 40
0.3824890613
 40
0.5552627024
 40
0.7066960656
 40
0.7725572599
 40
0.8309827743
 40
0.8814117146
 40
0.9233610648
 40
0.9564316272
 40
0.9803139006
 40
0.9887411045
 40
0.9948054096
 40
0.998515194
 40
1.0
 40
1.0
 40
1.0
 40
1.0
 10
-64.8681118406
 20
-29.2809826424
 30
0.0
 10
-64.8698126386
 20
-29.3134320053
 30
0.0
 10
-64.8730415824
 20
-29.3770846016
 30
0.0
 10
-64.8774059015
 20
-29.4695055131
 30
0.0
 10
-64.8810872701
 20
-29.5546892632
 30
0.0
 10
-64.8835776444
 20
-29.6196395024
 30
0.0
 10
-64.8850964409
 20
-29.6655572915
 30
0.0
 10
-64.8859355145
 20
-29.6946595935
 30
0.0
 10
-64.8865219474
 20
-29.719777363
 30
0.0
 10
-64.8868546508
 20
-29.740690038
 30
0.0
 10
-64.8869306736
 20
-29.7571405669
 30
0.0
 10
-64.8867901541
 20
-29.7680976745
 30
0.0
 10
-64.8865047302
 20
-29.7744022578
 30
0.0
 10
-64.8862513374
 20
-29.777565967
 30
0.0
 10
-64.8859842002
 20
-29.7791669559
 30
0.0
 10
-64.885687886
 20
-29.7802903729
 30
0.0
 10
-64.8854408113
 20
-29.7803033216
 30
0.0
  0
SPLINE
  5
5A5
100
AcDbEntity
  8
RACCORDO
100
AcDbSpline
 62
250
  6
CONTINUOUS
 70
0
 71
3
 72
16
 73
12
 74
0
 42
0.0000001
 43
0.0000001
 44
0.0000000001
 40
0.0
 40
0.0
 40
0.0
 40
0.0
 40
0.0049719387
 40
0.0195184577
 40
0.0434150612
 40
0.0764045011
 40
0.1685988773
 40
0.2928963949
 40
0.4443951204
 40
0.6178650359
 40
1.0
 40
1.0
 40
1.0
 40
1.0
 10
-55.2995857816
 20
-13.7073669034
 30
0.0
 10
-55.2994200447
 20
-13.7073683498
 30
0.0
 10
-55.2996321209
 20
-13.7083975359
 30
0.0
 10
-55.2993202535
 20
-13.7094830603
 30
0.0
 10
-55.2994040891
 20
-13.7120642701
 30
0.0
 10
-55.2992471379
 20
-13.7169146211
 30
0.0
 10
-55.299255166
 20
-13.7253171102
 30
0.0
 10
-55.2992092776
 20
-13.7375448349
 30
0.0
 10
-55.2992460376
 20
-13.7525356948
 30
0.0
 10
-55.2993413365
 20
-13.7761012869
 30
0.0
 10
-55.299474638
 20
-13.7946248376
 30
0.0
 10
-55.2995857816
 20
-13.8073630957
 30
0.0
  0
SPLINE
  5
5A6
100
AcDbEntity
  8
0
100
AcDbSpline
 62
250
  6
CONTINUOUS
 70
0
 71
3
 72
22
 73
18
 74
0
 42
0.0000001
 43
0.0000001
 44
0.0000000001
 40
0.0
 40
0.0
 40
0.0
 40
0.0
 40
0.1960040281
 40
0.383972413
 40
0.5568496354
 40
0.7081346548
 40
0.7738641643
 40
0.8321383496
 40
0.8824088308
 40
0.9242017
 40
0.9571224187
 40
0.9701562519
 40
0.9808618946
 40
0.9892162231
 40
0.9951976671
 40
0.9987935861
 40
1.0
 40
1.0
 40
1.0
 40
1.0
 10
-65.3362406807
 20
13.4160825706
 30
0.0
 10
-65.3679856225
 20
13.4208713314
 30
0.0
 10
-65.4301717223
 20
13.430267983
 30
0.0
 10
-65.5203489708
 20
13.4439421426
 30
0.0
 10
-65.6032770434
 20
13.4565667309
 30
0.0
 10
-65.6664042078
 20
13.4662229333
 30
0.0
 10
-65.7109711714
 20
13.4730752504
 30
0.0
 10
-65.7391810302
 20
13.4774314899
 30
0.0
 10
-65.763516139
 20
13.4812073218
 30
0.0
 10
-65.7837354443
 20
13.484373872
 30
0.0
 10
-65.7979466601
 20
13.4866085659
 30
0.0
 10
-65.807087092
 20
13.4880915039
 30
0.0
 10
-65.8123244047
 20
13.488906699
 30
0.0
 10
-65.8162446527
 20
13.4896504649
 30
0.0
 10
-65.8194259447
 20
13.4899804881
 30
0.0
 10
-65.8206601813
 20
13.4905881738
 30
0.0
 10
-65.8219535646
 20
13.490446719
 30
0.0
 10
-65.8219240983
 20
13.4906421119
 30
0.0
  0
SPLINE
  5
5A7
100
AcDbEntity
  8
RACCORDO
100
AcDbSpline
 62
250
  6
CONTINUOUS
 70
0
 71
3
 72
9
 73
5
 74
0
 42
0.0000001
 43
0.0000001
 44
0.0000000001
 40
0.0
 40
0.0
 40
0.0
 40
0.0
 40
0.7561307853
 40
1.0
 40
1.0
 40
1.0
 40
1.0
 10
-55.1995976992
 20
-15.8079448176
 30
0.0
 10
-55.1995238089
 20
-15.7983561697
 30
0.0
 10
-55.2000601181
 20
-15.7856554209
 30
0.0
 10
-55.2014744074
 20
-15.7730515777
 30
0.0
 10
-55.2018783691
 20
-15.7699854271
 30
0.0
  0
SPLINE
  5
5A8
100
AcDbEntity
  8
0
100
AcDbSpline
 62
250
  6
CONTINUOUS
 70
0
 71
3
 72
21
 73
17
 74
0
 42
0.0000001
 43
0.0000001
 44
0.0000000001
 40
0.0
 40
0.0
 40
0.0
 40
0.0
 40
0.1950099623
 40
0.382497113
 40
0.5552742795
 40
0.7067104288
 40
0.7725726647
 40
0.8309989402
 40
0.8814283009
 40
0.9233776473
 40
0.9564476507
 40
0.9803285401
 40
0.9887545231
 40
0.9948169717
 40
0.9985235371
 40
1.0
 40
1.0
 40
1.0
 40
1.0
 10
-64.8679990364
 20
13.8408377963
 30
0.0
 10
-64.8696991195
 20
13.8732871974
 30
0.0
 10
-64.8729265404
 20
13.9369398726
 30
0.0
 10
-64.8772892206
 20
14.0293608417
 30
0.0
 10
-64.8809752124
 20
14.1145442926
 30
0.0
 10
-64.8834775187
 20
14.1794939205
 30
0.0
 10
-64.8850085309
 20
14.2254110889
 30
0.0
 10
-64.8858572907
 20
14.2545128902
 30
0.0
 10
-64.8864543279
 20
14.2796299951
 30
0.0
 10
-64.8867987605
 20
14.300542224
 30
0.0
 10
-64.8868865791
 20
14.3169914458
 30
0.0
 10
-64.8867583564
 20
14.3279490778
 30
0.0
 10
-64.8864816292
 20
14.3342515764
 30
0.0
 10
-64.8862371619
 20
14.3374173441
 30
0.0
 10
-64.8859721237
 20
14.3390122672
 30
0.0
 10
-64.8856864925
 20
14.3401396881
 30
0.0
 10
-64.8854408113
 20
14.3401525637
 30
0.0
  0
SPLINE
  5
5A9
100
AcDbEntity
  8
RACCORDO
100
AcDbSpline
 62
250
  6
CONTINUOUS
 70
0
 71
3
 72
12
 73
8
 74
0
 42
0.0000001
 43
0.0000001
 44
0.0000000001
 40
0.0
 40
0.0
 40
0.0
 40
0.0
 40
0.3445796131
 40
0.6442442823
 40
0.7652971191
 40
0.8638559352
 40
1.0
 40
1.0
 40
1.0
 40
1.0
 10
-55.1995976992
 20
-16.4322059403
 30
0.0
 10
-55.1994995321
 20
-16.4449449677
 30
0.0
 10
-55.2008920832
 20
-16.4687995997
 30
0.0
 10
-55.2063424616
 20
-16.4966874695
 30
0.0
 10
-55.2134891051
 20
-16.5146892959
 30
0.0
 10
-55.2199993505
 20
-16.5258547031
 30
0.0
 10
-55.2278938881
 20
-16.5321582088
 30
0.0
 10
-55.23292706
 20
-16.5322021326
 30
0.0
  0
SPLINE
  5
5AA
100
AcDbEntity
  8
RACCORDO
100
AcDbSpline
 62
250
  6
CONTINUOUS
 70
0
 71
3
 72
12
 73
8
 74
0
 42
0.0000001
 43
0.0000001
 44
0.0000000001
 40
0.0
 40
0.0
 40
0.0
 40
0.0
 40
0.1361440675
 40
0.234702885
 40
0.3557557231
 40
0.6554203897
 40
1.0
 40
1.0
 40
1.0
 40
1.0
 10
-55.23292706
 20
-8.1322021326
 30
0.0
 10
-55.227893888
 20
-8.1321582088
 30
0.0
 10
-55.2199993504
 20
-8.1258547028
 30
0.0
 10
-55.2134891047
 20
-8.1146892955
 30
0.0
 10
-55.2063424614
 20
-8.096687469
 30
0.0
 10
-55.200892083
 20
-8.0687995995
 30
0.0
 10
-55.199499532
 20
-8.0449449676
 30
0.0
 10
-55.1995976992
 20
-8.0322059403
 30
0.0
  0
SPLINE
  5
5AB
100
AcDbEntity
  8
RACCORDO
100
AcDbSpline
 62
250
  6
CONTINUOUS
 70
0
 71
3
 72
12
 73
8
 74
0
 42
0.0000001
 43
0.0000001
 44
0.0000000001
 40
0.0
 40
0.0
 40
0.0
 40
0.0
 40
0.1361440583
 40
0.2347028708
 40
0.3557557044
 40
0.6554203798
 40
1.0
 40
1.0
 40
1.0
 40
1.0
 10
-55.23292706
 20
-7.3079486253
 30
0.0
 10
-55.2278938883
 20
-7.3079925491
 30
0.0
 10
-55.2199993507
 20
-7.3142960539
 30
0.0
 10
-55.2134891057
 20
-7.325461461
 30
0.0
 10
-55.2063424618
 20
-7.3434632871
 30
0.0
 10
-55.2008920835
 20
-7.3713511574
 30
0.0
 10
-55.1994995321
 20
-7.3952057899
 30
0.0
 10
-55.1995976992
 20
-7.4079448176
 30
0.0
  0
SPLINE
  5
5AC
100
AcDbEntity
  8
RACCORDO
100
AcDbSpline
 62
250
  6
CONTINUOUS
 70
0
 71
3
 72
10
 73
6
 74
0
 42
0.0000001
 43
0.0000001
 44
0.0000000001
 40
0.0
 40
0.0
 40
0.0
 40
0.0
 40
0.3517459956
 40
0.6433244343
 40
1.0
 40
1.0
 40
1.0
 40
1.0
 10
-55.23292706
 20
0.3920513747
 30
0.0
 10
-55.2244632234
 20
0.3919775119
 30
0.0
 10
-55.2130932505
 20
0.3759251581
 30
0.0
 10
-55.2060425461
 20
0.354190182
 30
0.0
 10
-55.2029994522
 20
0.338523819
 30
0.0
 10
-55.2018783691
 20
0.3300145715
 30
0.0
  0
LINE
  5
5AD
100
AcDbEntity
  8
0
100
AcDbLine
 62
7
  6
CONTINUOUS
 10
-58.4022037422
 20
14.6799246211
 30
0.0
 11
-58.4022037422
 21
14.179695769
 31
0.0
  0
SPLINE
  5
5AE
100
AcDbEntity
  8
0
100
AcDbSpline
 62
250
  6
CONTINUOUS
 70
0
 71
3
 72
21
 73
17
 74
0
 42
0.0000001
 43
0.0000001
 44
0.0000000001
 40
0.0
 40
0.0
 40
0.0
 40
0.0
 40
0.1950822179
 40
0.3826555053
 40
0.5555303392
 40
0.70705573
 40
0.7729556547
 40
0.8314118527
 40
0.8818607985
 40
0.9238189525
 40
0.9568817655
 40
0.9807301574
 40
0.989126275
 40
0.9951398515
 40
0.9987613804
 40
1.0
 40
1.0
 40
1.0
 40
1.0
 10
-57.6507493094
 20
-31.9657077757
 30
0.0
 10
-57.6506547304
 20
-31.9819650751
 30
0.0
 10
-57.6504871505
 20
-32.0138540121
 30
0.0
 10
-57.6502977984
 20
-32.0601499232
 30
0.0
 10
-57.6501792745
 20
-32.1028160219
 30
0.0
 10
-57.6501401254
 20
-32.1353427601
 30
0.0
 10
-57.6501525916
 20
-32.1583334282
 30
0.0
 10
-57.6501798879
 20
-32.1729023237
 30
0.0
 10
-57.6502288356
 20
-32.1854711972
 30
0.0
 10
-57.6502871871
 20
-32.1959373487
 30
0.0
 10
-57.6503843075
 20
-32.2041502297
 30
0.0
 10
-57.6504362189
 20
-32.2096471534
 30
0.0
 10
-57.6505642716
 20
-32.2127599952
 30
0.0
 10
-57.6505487186
 20
-32.2143846615
 30
0.0
 10
-57.6507338124
 20
-32.215070602
 30
0.0
 10
-57.6506460882
 20
-32.2157029444
 30
0.0
 10
-57.6507493094
 20
-32.2157035449
 30
0.0
  0
LINE
  5
5AF
100
AcDbEntity
  8
0
100
AcDbLine
 62
7
  6
CONTINUOUS
 10
-58.4022037422
 20
-31.9700796097
 30
0.0
 11
-58.4022037422
 21
-32.2200753789
 31
0.0
  0
SPLINE
  5
5B0
100
AcDbEntity
  8
0
100
AcDbSpline
 62
250
  6
CONTINUOUS
 70
0
 71
3
 72
21
 73
17
 74
0
 42
0.0000001
 43
0.0000001
 44
0.0000000001
 40
0.0
 40
0.0
 40
0.0
 40
0.0
 40
0.1950821701
 40
0.3826554205
 40
0.5555302213
 40
0.7070555998
 40
0.7729555222
 40
0.8314117298
 40
0.881860684
 40
0.9238188479
 40
0.9568816874
 40
0.9807301043
 40
0.9891262332
 40
0.9951398191
 40
0.998761369
 40
1.0
 40
1.0
 40
1.0
 40
1.0
 10
-60.653658175
 20
-31.956981031
 30
0.0
 10
-60.653752754
 20
-31.9732383264
 30
0.0
 10
-60.6539203338
 20
-32.0051272563
 30
0.0
 10
-60.6541096859
 20
-32.0514231576
 30
0.0
 10
-60.6542282099
 20
-32.0940892495
 30
0.0
 10
-60.654267359
 20
-32.1266159836
 30
0.0
 10
-60.6542548929
 20
-32.1496066513
 30
0.0
 10
-60.6542275966
 20
-32.1641755481
 30
0.0
 10
-60.6541786489
 20
-32.1767444239
 30
0.0
 10
-60.6541202975
 20
-32.1872105792
 30
0.0
 10
-60.6540231771
 20
-32.1954234652
 30
0.0
 10
-60.653971266
 20
-32.2009203942
 30
0.0
 10
-60.6538432131
 20
-32.2040332398
 30
0.0
 10
-60.6538587663
 20
-32.2056579098
 30
0.0
 10
-60.6536736709
 20
-32.2063438526
 30
0.0
 10
-60.6537613971
 20
-32.2069761997
 30
0.0
 10
-60.653658175
 20
-32.2069768002
 30
0.0
  0
SPLINE
  5
5B1
100
AcDbEntity
  8
0
100
AcDbSpline
 62
250
  6
CONTINUOUS
 70
0
 71
3
 72
21
 73
17
 74
0
 42
0.0000001
 43
0.0000001
 44
0.0000000001
 40
0.0
 40
0.0
 40
0.0
 40
0.0
 40
0.1952389023
 40
0.38287979
 40
0.5557566991
 40
0.7072427174
 40
0.7731145695
 40
0.8315405978
 40
0.8819595776
 40
0.9238899665
 40
0.9569288677
 40
0.9807583616
 40
0.9891470509
 40
0.9951544438
 40
0.9987704654
 40
1.0
 40
1.0
 40
1.0
 40
1.0
 10
-60.653658175
 20
-31.5644129462
 30
0.0
 10
-60.6617697387
 20
-31.5503628303
 30
0.0
 10
-60.6776637934
 20
-31.5228016508
 30
0.0
 10
-60.7006939751
 20
-31.4827728432
 30
0.0
 10
-60.7218690656
 20
-31.445871396
 30
0.0
 10
-60.7379699666
 20
-31.417723868
 30
0.0
 10
-60.7493181283
 20
-31.3978150112
 30
0.0
 10
-60.7564938681
 20
-31.3851926891
 30
0.0
 10
-60.7626643842
 20
-31.3742928813
 30
0.0
 10
-60.7677907487
 20
-31.3652103065
 30
0.0
 10
-60.771770251
 20
-31.358059751
 30
0.0
 10
-60.7744529167
 20
-31.3532834503
 30
0.0
 10
-60.7758842283
 20
-31.3505309635
 30
0.0
 10
-60.7767140743
 20
-31.3491383213
 30
0.0
 10
-60.7768853796
 20
-31.3484544117
 30
0.0
 10
-60.7772922233
 20
-31.3479576799
 30
0.0
 10
-60.7772037422
 20
-31.3479065953
 30
0.0
  0
LINE
  5
5B2
100
AcDbEntity
  8
RACCORDO
100
AcDbLine
 62
250
  6
CONTINUOUS
 10
-46.4022037422
 20
12.288162792
 30
0.0
 11
-57.4022037422
 21
10.4458984315
 31
0.0
  0
SPLINE
  5
5B3
100
AcDbEntity
  8
0
100
AcDbSpline
 62
250
  6
CONTINUOUS
 70
0
 71
3
 72
21
 73
17
 74
0
 42
0.0000001
 43
0.0000001
 44
0.0000000001
 40
0.0
 40
0.0
 40
0.0
 40
0.0
 40
0.1952388959
 40
0.3828797779
 40
0.5557566816
 40
0.7072426977
 40
0.7731145491
 40
0.8315405786
 40
0.8819595594
 40
0.9238899496
 40
0.9569288549
 40
0.9807583528
 40
0.9891470439
 40
0.9951544383
 40
0.9987704635
 40
1.0
 40
1.0
 40
1.0
 40
1.0
 10
-57.6507493094
 20
-31.5644129462
 30
0.0
 10
-57.642637746
 20
-31.5503628308
 30
0.0
 10
-57.6267436918
 20
-31.5228016521
 30
0.0
 10
-57.6037135108
 20
-31.4827728458
 30
0.0
 10
-57.5825384208
 20
-31.4458713996
 30
0.0
 10
-57.5664375201
 20
-31.4177238722
 30
0.0
 10
-57.5550893585
 20
-31.3978150155
 30
0.0
 10
-57.5479136187
 20
-31.3851926933
 30
0.0
 10
-57.5417431024
 20
-31.3742928852
 30
0.0
 10
-57.5366167376
 20
-31.3652103099
 30
0.0
 10
-57.532637235
 20
-31.3580597538
 30
0.0
 10
-57.5299545689
 20
-31.3532834524
 30
0.0
 10
-57.5285232569
 20
-31.3505309651
 30
0.0
 10
-57.5276934106
 20
-31.3491383223
 30
0.0
 10
-57.5275221054
 20
-31.3484544123
 30
0.0
 10
-57.5271152609
 20
-31.34795768
 30
0.0
 10
-57.5272037422
 20
-31.3479065953
 30
0.0
  0
LINE
  5
5B4
100
AcDbEntity
  8
RACCORDO
100
AcDbLine
 62
250
  6
CONTINUOUS
 10
-57.4022037422
 20
-25.8860491893
 30
0.0
 11
-46.4022037422
 21
-27.7283135499
 31
0.0
  0
SPLINE
  5
5B5
100
AcDbEntity
  8
0
100
AcDbSpline
 62
250
  6
CONTINUOUS
 70
0
 71
3
 72
21
 73
17
 74
0
 42
0.0000001
 43
0.0000001
 44
0.0000000001
 40
0.0
 40
0.0
 40
0.0
 40
0.0
 40
0.1952388959
 40
0.3828797779
 40
0.5557566816
 40
0.7072426977
 40
0.7731145491
 40
0.8315405786
 40
0.8819595594
 40
0.9238899496
 40
0.9569288549
 40
0.9807583528
 40
0.9891470439
 40
0.9951544383
 40
0.9987704635
 40
1.0
 40
1.0
 40
1.0
 40
1.0
 10
-60.653658175
 20
16.1242621884
 30
0.0
 10
-60.6617697384
 20
16.1102120729
 30
0.0
 10
-60.6776637926
 20
16.0826508943
 30
0.0
 10
-60.7006939736
 20
16.042622088
 30
0.0
 10
-60.7218690636
 20
16.0057206417
 30
0.0
 10
-60.7379699643
 20
15.9775731143
 30
0.0
 10
-60.7493181259
 20
15.9576642576
 30
0.0
 10
-60.7564938658
 20
15.9450419355
 30
0.0
 10
-60.762664382
 20
15.9341421274
 30
0.0
 10
-60.7677907468
 20
15.9250595521
 30
0.0
 10
-60.7717702494
 20
15.917908996
 30
0.0
 10
-60.7744529156
 20
15.9131326946
 30
0.0
 10
-60.7758842275
 20
15.9103802072
 30
0.0
 10
-60.7767140738
 20
15.9089875645
 30
0.0
 10
-60.776885379
 20
15.9083036544
 30
0.0
 10
-60.7772922235
 20
15.9078069221
 30
0.0
 10
-60.7772037422
 20
15.9077558374
 30
0.0
  0
SPLINE
  5
5B6
100
AcDbEntity
  8
0
100
AcDbSpline
 62
250
  6
CONTINUOUS
 70
0
 71
3
 72
21
 73
17
 74
0
 42
0.0000001
 43
0.0000001
 44
0.0000000001
 40
0.0
 40
0.0
 40
0.0
 40
0.0
 40
0.1952389023
 40
0.38287979
 40
0.5557566991
 40
0.7072427174
 40
0.7731145695
 40
0.8315405978
 40
0.8819595776
 40
0.9238899665
 40
0.9569288677
 40
0.9807583616
 40
0.9891470509
 40
0.9951544438
 40
0.9987704654
 40
1.0
 40
1.0
 40
1.0
 40
1.0
 10
-57.6507493094
 20
16.1242621884
 30
0.0
 10
-57.6426377457
 20
16.1102120725
 30
0.0
 10
-57.626743691
 20
16.0826508929
 30
0.0
 10
-57.6037135093
 20
16.0426220854
 30
0.0
 10
-57.5825384188
 20
16.0057206382
 30
0.0
 10
-57.5664375178
 20
15.9775731101
 30
0.0
 10
-57.5550893561
 20
15.9576642533
 30
0.0
 10
-57.5479136163
 20
15.9450419313
 30
0.0
 10
-57.5417431002
 20
15.9341421234
 30
0.0
 10
-57.5366167357
 20
15.9250595486
 30
0.0
 10
-57.5326372334
 20
15.9179089932
 30
0.0
 10
-57.5299545677
 20
15.9131326924
 30
0.0
 10
-57.5285232561
 20
15.9103802057
 30
0.0
 10
-57.5276934101
 20
15.9089875634
 30
0.0
 10
-57.5275221048
 20
15.9083036538
 30
0.0
 10
-57.5271152611
 20
15.907806922
 30
0.0
 10
-57.5272037422
 20
15.9077558374
 30
0.0
  0
LINE
  5
5B7
100
AcDbEntity
  8
RACCORDO
100
AcDbLine
 62
250
  6
CONTINUOUS
 10
-57.4022037422
 20
-18.6722633466
 30
0.0
 11
-57.0520999931
 21
-18.5480778143
 31
0.0
  0
ELLIPSE
  5
5B8
100
AcDbEntity
  8
RACCORDO
100
AcDbEllipse
 62
7
  6
CONTINUOUS
 10
-13.8517588683
 20
14.3439523797
 30
0.0
 11
0.0316478205
 21
0.0950206715
 31
0.0
 40
0.9984778551
 41
0.3210503505
 42
1.5694490861
  0
ELLIPSE
  5
5B9
100
AcDbEntity
  8
RACCORDO
100
AcDbEllipse
 62
7
  6
CONTINUOUS
 10
4.7564997248
 20
14.3439523797
 30
0.0
 11
-0.0316478205
 21
0.0950206715
 31
0.0
 40
0.9984778551
 41
-1.5694490861
 42
-0.3210503505
  0
ELLIPSE
  5
5BA
100
AcDbEntity
  8
RACCORDO
100
AcDbEllipse
 62
7
  6
CONTINUOUS
 10
-13.5475534077
 20
8.2799436603
 30
0.0
 11
-0.4473055582
 21
-0.2236357461
 31
0.0
 40
0.9998096356
 41
5.8196443071
 42
7.3902883349
  0
ELLIPSE
  5
5BB
100
AcDbEntity
  8
RACCORDO
100
AcDbEllipse
 62
7
  6
CONTINUOUS
 10
4.4522942642
 20
8.2799436603
 30
0.0
 11
-0.4473055582
 21
0.2236357461
 31
0.0
 40
0.9998096356
 41
8.3176749331
 42
9.8883189608
  0
ELLIPSE
  5
5BC
100
AcDbEntity
  8
RACCORDO
100
AcDbEllipse
 62
7
  6
CONTINUOUS
 10
-11.5976261871
 20
-30.3203498481
 30
0.0
 11
0.0220972656
 21
-0.1990550872
 31
0.0
 40
0.9986126811
 41
9.3143719601
 42
10.8848638081
  0
ELLIPSE
  5
5BD
100
AcDbEntity
  8
RACCORDO
100
AcDbEllipse
 62
7
  6
CONTINUOUS
 10
-14.8976329564
 20
-30.3203498481
 30
0.0
 11
0.0220972656
 21
0.1990550872
 31
0.0
 40
0.9986126811
 41
4.8230994598
 42
6.3935913078
  0
ELLIPSE
  5
5BE
100
AcDbEntity
  8
RACCORDO
100
AcDbEllipse
 62
7
  6
CONTINUOUS
 10
5.8023738129
 20
-30.3203498481
 30
0.0
 11
0.0220972656
 21
-0.1990550872
 31
0.0
 40
0.9986126811
 41
9.3143719601
 42
10.8848638081
  0
ELLIPSE
  5
5BF
100
AcDbEntity
  8
RACCORDO
100
AcDbEllipse
 62
7
  6
CONTINUOUS
 10
2.5023670436
 20
-30.3203498481
 30
0.0
 11
0.0220972656
 21
0.1990550872
 31
0.0
 40
0.9986126811
 41
4.8230994598
 42
6.3935913078
  0
ELLIPSE
  5
5C0
100
AcDbEntity
  8
RACCORDO
100
AcDbEllipse
 62
7
  6
CONTINUOUS
 10
-14.8976329564
 20
14.8801990903
 30
0.0
 11
-0.0220972656
 21
0.1990550872
 31
0.0
 40
0.9986126811
 41
9.3143719601
 42
10.8848638081
  0
ELLIPSE
  5
5C1
100
AcDbEntity
  8
RACCORDO
100
AcDbEllipse
 62
7
  6
CONTINUOUS
 10
-11.5976261871
 20
14.8801990903
 30
0.0
 11
-0.0220972656
 21
-0.1990550872
 31
0.0
 40
0.9986126811
 41
4.8230994598
 42
6.3935913078
  0
ELLIPSE
  5
5C2
100
AcDbEntity
  8
RACCORDO
100
AcDbEllipse
 62
7
  6
CONTINUOUS
 10
2.5023670436
 20
14.8801990903
 30
0.0
 11
-0.0220972656
 21
0.1990550872
 31
0.0
 40
0.9986126811
 41
9.3143719601
 42
10.8848638081
  0
ELLIPSE
  5
5C3
100
AcDbEntity
  8
RACCORDO
100
AcDbEllipse
 62
7
  6
CONTINUOUS
 10
5.8023738129
 20
14.8801990903
 30
0.0
 11
-0.0220972656
 21
-0.1990550872
 31
0.0
 40
0.9986126811
 41
4.8230994598
 42
6.3935913078
  0
ELLIPSE
  5
5C4
100
AcDbEntity
  8
0
100
AcDbEllipse
 62
7
  6
CONTINUOUS
 10
-5.7476295718
 20
-30.1043530451
 30
0.0
 11
0.2
 21
0.0
 31
0.0
 40
0.0524077793
 41
-0.0
 42
1.5707963268
  0
ELLIPSE
  5
5C5
100
AcDbEntity
  8
RACCORDO
100
AcDbEllipse
 62
7
  6
CONTINUOUS
 10
4.9184568824
 20
12.2526692757
 30
0.0
 11
0.0
 21
0.5
 31
0.0
 40
0.0174550649
 41
-1.4486232792
 42
-0.0174532925
  0
ELLIPSE
  5
5C6
100
AcDbEntity
  8
0
100
AcDbEllipse
 62
7
  6
CONTINUOUS
 10
-3.3476295718
 20
-30.1043530451
 30
0.0
 11
0.2
 21
-0.0
 31
0.0
 40
0.0524077793
 41
1.5707963268
 42
3.1415926536
  0
ELLIPSE
  5
5C7
100
AcDbEntity
  8
RACCORDO
100
AcDbEllipse
 62
7
  6
CONTINUOUS
 10
-14.0137160259
 20
12.2526692757
 30
0.0
 11
0.0
 21
0.5
 31
0.0
 40
0.0174550649
 41
0.0174532925
 42
1.4486232792
  0
ELLIPSE
  5
5C8
100
AcDbEntity
  8
0
100
AcDbEllipse
 62
7
  6
CONTINUOUS
 10
-5.7476295718
 20
14.6642022873
 30
0.0
 11
0.2
 21
0.0
 31
0.0
 40
0.0524077793
 41
-1.5707963268
 42
0.0
  0
ELLIPSE
  5
5C9
100
AcDbEntity
  8
0
100
AcDbEllipse
 62
7
  6
CONTINUOUS
 10
-3.3476295718
 20
14.6642022873
 30
0.0
 11
0.2
 21
0.0
 31
0.0
 40
0.0524077793
 41
-3.1415926536
 42
-1.5707963268
  0
ELLIPSE
  5
5CA
100
AcDbEntity
  8
RACCORDO
100
AcDbEllipse
 62
7
  6
CONTINUOUS
 10
5.110508738
 20
14.2438151451
 30
0.0
 11
-0.0632956409
 21
0.1900413429
 31
0.0
 40
0.9984778551
 41
-0.3210503505
 42
1.2488325878
  0
ELLIPSE
  5
5CB
100
AcDbEntity
  8
RACCORDO
100
AcDbEllipse
 62
7
  6
CONTINUOUS
 10
-14.2057678815
 20
14.2438151451
 30
0.0
 11
0.0632956409
 21
0.1900413429
 31
0.0
 40
0.9984778551
 41
-1.2488325878
 42
0.3210503505
  0
ELLIPSE
  5
5CC
100
AcDbEntity
  8
Z030100_COP
100
AcDbEllipse
 62
7
  6
CONTINUOUS
 10
-46.5022037422
 20
-12.4700753789
 30
0.0
 11
0.0
 21
0.9
 31
0.0
 40
0.3333333333
 41
-1.5707963268
 42
-1.2309594173
  0
ELLIPSE
  5
5CD
100
AcDbEntity
  8
Z030100_COP
100
AcDbEllipse
 62
7
  6
CONTINUOUS
 10
-53.3022037422
 20
-12.4700753789
 30
0.0
 11
-0.0
 21
0.9
 31
0.0
 40
0.3333333333
 41
1.2309594173
 42
1.5707963268
  0
ELLIPSE
  5
5CE
100
AcDbEntity
  8
Z030100_COP
100
AcDbEllipse
 62
7
  6
CONTINUOUS
 10
-38.9022037422
 20
-12.4700753789
 30
0.0
 11
-0.0
 21
0.9
 31
0.0
 40
0.3333333333
 41
-1.5707963268
 42
-1.2309594173
  0
ELLIPSE
  5
5CF
100
AcDbEntity
  8
Z030100_COP
100
AcDbEllipse
 62
7
  6
CONTINUOUS
 10
-45.7022037422
 20
-12.4700753789
 30
0.0
 11
0.0
 21
0.9
 31
0.0
 40
0.3333333333
 41
1.2309594173
 42
1.5707963268
  0
ELLIPSE
  5
5D0
100
AcDbEntity
  8
0
100
AcDbEllipse
 62
7
  6
CONTINUOUS
 10
18.9462259339
 20
15.4299246211
 30
0.0
 11
85.9426996401
 21
-0.0
 31
0.0
 40
0.0058178298
 41
-2.6905658418
 42
-2.5196231925
  0
ELLIPSE
  5
5D1
100
AcDbEntity
  8
DRAFT
100
AcDbEllipse
 62
7
  6
CONTINUOUS
 10
-46.9022037422
 20
-29.6738423494
 30
0.0
 11
0.3546425507
 21
0.3568377408
 31
0.0
 40
0.9877342685
 41
-0.2563081296
 42
0.7710302454
  0
ELLIPSE
  5
5D2
100
AcDbEntity
  8
DRAFT
100
AcDbEllipse
 62
7
  6
CONTINUOUS
 10
-46.9022037422
 20
14.2336915916
 30
0.0
 11
-0.3546425507
 21
0.3568377408
 31
0.0
 40
0.9877342685
 41
-3.912622899
 42
-2.8852845239
  0
ELLIPSE
  5
5D3
100
AcDbEntity
  8
0
100
AcDbEllipse
 62
7
  6
CONTINUOUS
 10
18.9462259339
 20
-30.8700753789
 30
0.0
 11
85.9426996401
 21
-0.0
 31
0.0
 40
0.0058178298
 41
2.5196231925
 42
2.6905658418
  0
ELLIPSE
  5
5D4
100
AcDbEntity
  8
0
100
AcDbEllipse
 62
7
  6
CONTINUOUS
 10
18.9462259339
 20
-30.8700753789
 30
0.0
 11
85.9426996401
 21
-0.0
 31
0.0
 40
0.0058178298
 41
-2.6791261215
 42
-2.5196231925
  0
ELLIPSE
  5
5D5
100
AcDbEntity
  8
0
100
AcDbEllipse
 62
7
  6
CONTINUOUS
 10
18.9462259339
 20
15.4299246211
 30
0.0
 11
85.9426996401
 21
-0.0
 31
0.0
 40
0.0058178298
 41
2.5196231925
 42
2.6791261215
  0
ENDSEC
  0
SECTION
  2
OBJECTS
  0
DICTIONARY
  5
C
100
AcDbDictionary
280
0
281
1
  3
ACAD_GROUP
350
D
  3
ACAD_MLINESTYLE
350
17
  3
ACAD_LAYOUT
350
1A
  3
ACAD_PLOTSETTINGS
350
19
  3
ACAD_PLOTSTYLENAME
350
E
  0
DICTIONARY
  5
D
102
{ACAD_REACTORS
330
C
102
}
100
AcDbDictionary
280
0
281
1
  0
ACDBDICTIONARYWDFLT
  5
E
102
{ACAD_REACTORS
330
C
102
}
100
AcDbDictionary
281
1
  3
Normal
350
F
100
AcDbDictionaryWithDefault
340
F
  0
DICTIONARY
  5
17
102
{ACAD_REACTORS
330
C
102
}
100
AcDbDictionary
280
0
281
1
  3
Standard
350
18
  0
DICTIONARY
  5
19
102
{ACAD_REACTORS
330
C
102
}
100
AcDbDictionary
281
1
  0
DICTIONARY
  5
1A
102
{ACAD_REACTORS
330
C
102
}
100
AcDbDictionary
281
1
  3
Model
350
5D6
  3
Layout1
350
5D7
  0
ACDBPLACEHOLDER
  5
F
102
{ACAD_REACTORS
330
E
102
}
  0
MLINESTYLE
  5
18
102
{ACAD_REACTORS
330
17
102
}
100
AcDbMlineStyle
  2
STANDARD
 70
0
  3

 62
256
 51
90.0
 52
90.0
 71
2
 49
0.5
 62
256
  6
BYLAYER
 49
-0.5
 62
256
  6
BYLAYER
  0
LAYOUT
  5
5D6
102
{ACAD_REACTORS
330
1A
102
}
100
AcDbPlotSettings
  1

  2
none_device
  4
ISO_A4_(297.00_x_210.00_MM)
  6

 40
0.0
 41
0.0
 42
0.0
 43
0.0
 44
297.0
 45
210.0
 46
0.0
 47
0.0
 48
0.0
 49
0.0
140
0.0
141
0.0
142
1.0
143
1.0
 70
1024
 72
1
 73
0
 74
0
  7

 75
0
147
1.0
148
0.0
149
0.0
100
AcDbLayout
  1
Model
 70
0
 71
0
 10
0.0
 20
0.0
 11
297.0
 21
210.0
 12
0.0
 22
0.0
 32
0.0
 14
0.0
 24
0.0
 34
0.0
 15
0.0
 25
0.0
 35
0.0
146
0.0
 13
0.0
 23
0.0
 33
0.0
 16
1.0
 26
0.0
 36
0.0
 17
0.0
 27
1.0
 37
0.0
 76
0
330
215
345
0
346
0
  0
LAYOUT
  5
5D7
102
{ACAD_REACTORS
330
1A
102
}
100
AcDbPlotSettings
  1

  2
none_device
  4
ISO_A4_(297.00_x_210.00_MM)
  6

 40
0.0
 41
0.0
 42
0.0
 43
0.0
 44
297.0
 45
210.0
 46
0.0
 47
0.0
 48
0.0
 49
0.0
140
0.0
141
0.0
142
1.0
143
1.0
 70
0
 72
1
 73
0
 74
0
  7

 75
0
147
1.0
148
0.0
149
0.0
100
AcDbLayout
  1
Layout1
 70
0
 71
1
 10
0.0
 20
0.0
 11
297.0
 21
210.0
 12
0.0
 22
0.0
 32
0.0
 14
0.0
 24
0.0
 34
0.0
 15
0.0
 25
0.0
 35
0.0
146
0.0
 13
0.0
 23
0.0
 33
0.0
 16
1.0
 26
0.0
 36
0.0
 17
0.0
 27
1.0
 37
0.0
 76
0
330
216
345
0
346
0
  0
ENDSEC
  0
EOF
