  0
SECTION
  2
HEADER
  9
$ACADVER
  1
AC1015
  9
$DWGCODEPAGE
  3
ANSI_1252
  9
$EXTMAX
 10
297.0
 20
210.0
 30
0.0
  9
$EXTMIN
 10
0.0
 20
0.0
 30
0.0
  9
$LIMMIN
 10
0.0
 20
0.0
  9
$LIMMAX
 10
297.0
 20
210.0
  9
$VIEWCTR
 10
148.5
 20
105.0
  9
$VIEWSIZE
 40
210.0
  9
$CLAYER
  8
0
  9
$LTSCALE
 40
16.335
  9
$CELTYPE
  6
BYLAYER
  9
$DIMSCALE
 40
1.0
  9
$DIMASZ
 40
3.0
  9
$DIMEXO
 40
1.85625
  9
$DIMDLI
 40
11.286
  9
$DIMEXE
 40
5.346
  9
$DIMCEN
 40
2.673
  9
$DIMLFAC
 40
1.0
  9
$DIMBLK
  1
_FILLED
  9
$DIMTXT
 40
3.0
  9
$DIMTOL
 70
1
  9
$DIMLIM
 70
0
  9
$DIMTFAC
 40
1.0
  9
$DIMTP
 40
0.01
  9
$DIMTM
 40
0.01
  9
$PDMODE
 70
3
  9
$PDSIZE
 40
3.0
  9
$HANDSEED
  5
5D5
  9
$TILEMODE
 70
1
  9
$MEASUREMENT
 70
1
  9
$INSUNITS
 70
4
  0
ENDSEC
  0
SECTION
  2
CLASSES
  0
CLASS
  1
ACDBDICTIONARYWDFLT
  2
AcDbDictionaryWithDefault
  3
AutoCAD 2000
 90
0
280
0
281
0
  0
CLASS
  1
ACDBPLACEHOLDER
  2
AcDbPlaceHolder
  3
AutoCAD 2000
 90
0
280
0
281
0
  0
CLASS
  1
LAYOUT
  2
AcDbLayout
  3
AutoCAD 2000
 90
0
280
0
281
0
  0
ENDSEC
  0
SECTION
  2
TABLES
  0
TABLE
  2
VPORT
  5
8
100
AcDbSymbolTable
 70
2
  0
VPORT
  5
1F4
100
AcDbSymbolTableRecord
100
AcDbViewportTableRecord
  2
*ACTIVE
 70
0
 10
0.0
 20
0.0
 11
1.0
 21
1.0
 12
148.5
 22
105.0
 13
0.0
 23
0.0
 14
1.0
 24
1.0
 15
0.0
 25
0.0
 16
0.0
 26
0.0
 36
1.0
 17
0.0
 27
0.0
 37
0.0
 40
210.0
 41
1.4142857143
 42
50.0
 43
0.0
 44
0.0
 50
0.0
 51
0.0
 71
0
 72
100
 73
1
 74
1
 75
0
 76
0
 77
0
 78
0
  0
ENDTAB
  0
TABLE
  2
LTYPE
  5
5
100
AcDbSymbolTable
 70
6
  0
LTYPE
  5
14
100
AcDbSymbolTableRecord
100
AcDbLinetypeTableRecord
  2
BYBLOCK
 70
0
  3

 72
65
 73
0
 40
0.0
  0
LTYPE
  5
15
100
AcDbSymbolTableRecord
100
AcDbLinetypeTableRecord
  2
BYLAYER
 70
0
  3

 72
65
 73
0
 40
0.0
  0
LTYPE
  5
16
100
AcDbSymbolTableRecord
100
AcDbLinetypeTableRecord
  2
CONTINUOUS
 70
64
  3
Solid line
 72
65
 73
0
 40
0.0
  0
LTYPE
  5
1F5
100
AcDbSymbolTableRecord
100
AcDbLinetypeTableRecord
  2
CENTER
 70
64
  3
____ _ ____ _ ____ _ ____ _ ____ _ ____ _ ____
 72
65
 73
4
 40
0.6
 49
0.375
 74
0
 49
-0.075
 74
0
 49
0.075
 74
0
 49
-0.075
 74
0
  0
LTYPE
  5
1F6
100
AcDbSymbolTableRecord
100
AcDbLinetypeTableRecord
  2
HIDDEN
 70
64
  3
- - - - - - - - - - - - - - - - - - - -
 72
65
 73
2
 40
0.2
 49
0.1
 74
0
 49
-0.1
 74
0
  0
LTYPE
  5
1F7
100
AcDbSymbolTableRecord
100
AcDbLinetypeTableRecord
  2
PHANTOM
 70
64
  3
_____ _ _ _____ _ _ _____ _ _ _____
 72
65
 73
6
 40
0.8
 49
0.45
 74
0
 49
-0.05
 74
0
 49
0.1
 74
0
 49
-0.05
 74
0
 49
0.1
 74
0
 49
-0.05
 74
0
  0
LTYPE
  5
1F8
100
AcDbSymbolTableRecord
100
AcDbLinetypeTableRecord
  2
DOT
 70
64
  3
. . . . . . . . . . . . . . . . . . . .
 72
65
 73
2
 40
0.2
 49
0.1
 74
0
 49
-0.1
 74
0
  0
LTYPE
  5
1F9
100
AcDbSymbolTableRecord
100
AcDbLinetypeTableRecord
  2
DASHED
 70
64
  3
- - - - - - - - - - - - - - - - - - - -
 72
65
 73
2
 40
0.2
 49
0.1
 74
0
 49
-0.1
 74
0
  0
ENDTAB
  0
TABLE
  2
LAYER
  5
2
100
AcDbSymbolTable
 70
36
  0
LAYER
  5
10
100
AcDbSymbolTableRecord
100
AcDbLayerTableRecord
  2
0
 70
0
 62
7
  6
CONTINUOUS
370
-3
390
F
  0
LAYER
  5
1FA
100
AcDbSymbolTableRecord
100
AcDbLayerTableRecord
  2
DEFAULT_1
 70
0
 62
7
  6
CENTER
370
-3
390
F
  0
LAYER
  5
1FB
100
AcDbSymbolTableRecord
100
AcDbLayerTableRecord
  2
DEFAULT_2
 70
0
 62
7
  6
HIDDEN
370
-3
390
F
  0
LAYER
  5
1FC
100
AcDbSymbolTableRecord
100
AcDbLayerTableRecord
  2
DEFAULT_3
 70
0
 62
7
  6
PHANTOM
370
-3
390
F
  0
LAYER
  5
1FD
100
AcDbSymbolTableRecord
100
AcDbLayerTableRecord
  2
43000491A0
 70
0
 62
7
  6
CONTINUOUS
370
-3
390
F
  0
LAYER
  5
1FE
100
AcDbSymbolTableRecord
100
AcDbLayerTableRecord
  2
ASM0001
 70
0
 62
7
  6
CONTINUOUS
370
-3
390
F
  0
LAYER
  5
1FF
100
AcDbSymbolTableRecord
100
AcDbLayerTableRecord
  2
ASSI
 70
0
 62
7
  6
CONTINUOUS
370
-3
390
F
  0
LAYER
  5
200
100
AcDbSymbolTableRecord
100
AcDbLayerTableRecord
  2
CN-MRT4P5_2SQV01-VIMAR_1600000
 70
0
 62
7
  6
CONTINUOUS
370
-3
390
F
  0
LAYER
  5
201
100
AcDbSymbolTableRecord
100
AcDbLayerTableRecord
  2
COLOR5
 70
0
 62
7
  6
CONTINUOUS
370
-3
390
F
  0
LAYER
  5
202
100
AcDbSymbolTableRecord
100
AcDbLayerTableRecord
  2
COLORE_MATERIALE
 70
0
 62
7
  6
CONTINUOUS
370
-3
390
F
  0
LAYER
  5
203
100
AcDbSymbolTableRecord
100
AcDbLayerTableRecord
  2
COORDINATE
 70
0
 62
7
  6
CONTINUOUS
370
-3
390
F
  0
LAYER
  5
204
100
AcDbSymbolTableRecord
100
AcDbLayerTableRecord
  2
COORD_ORIGINE
 70
0
 62
7
  6
CONTINUOUS
370
-3
390
F
  0
LAYER
  5
205
100
AcDbSymbolTableRecord
100
AcDbLayerTableRecord
  2
COPY_PUBLISH
 70
0
 62
7
  6
CONTINUOUS
370
-3
390
F
  0
LAYER
  5
206
100
AcDbSymbolTableRecord
100
AcDbLayerTableRecord
  2
COSMETIC
 70
0
 62
7
  6
CONTINUOUS
370
-3
390
F
  0
LAYER
  5
207
100
AcDbSymbolTableRecord
100
AcDbLayerTableRecord
  2
CURVE
 70
0
 62
7
  6
CONTINUOUS
370
-3
390
F
  0
LAYER
  5
208
100
AcDbSymbolTableRecord
100
AcDbLayerTableRecord
  2
DRAFT
 70
0
 62
7
  6
CONTINUOUS
370
-3
390
F
  0
LAYER
  5
209
100
AcDbSymbolTableRecord
100
AcDbLayerTableRecord
  2
IMPORT_IGES
 70
0
 62
7
  6
CONTINUOUS
370
-3
390
F
  0
LAYER
  5
20A
100
AcDbSymbolTableRecord
100
AcDbLayerTableRecord
  2
INCISIONI
 70
0
 62
7
  6
CONTINUOUS
370
-3
390
F
  0
LAYER
  5
20B
100
AcDbSymbolTableRecord
100
AcDbLayerTableRecord
  2
INTF_1
 70
0
 62
7
  6
CONTINUOUS
370
-3
390
F
  0
LAYER
  5
20C
100
AcDbSymbolTableRecord
100
AcDbLayerTableRecord
  2
INTF_11
 70
0
 62
7
  6
CONTINUOUS
370
-3
390
F
  0
LAYER
  5
20D
100
AcDbSymbolTableRecord
100
AcDbLayerTableRecord
  2
INTF_GREEN
 70
0
 62
7
  6
CONTINUOUS
370
-3
390
F
  0
LAYER
  5
20E
100
AcDbSymbolTableRecord
100
AcDbLayerTableRecord
  2
INTF_YELLOW
 70
0
 62
7
  6
CONTINUOUS
370
-3
390
F
  0
LAYER
  5
20F
100
AcDbSymbolTableRecord
100
AcDbLayerTableRecord
  2
NOTE
 70
0
 62
7
  6
CONTINUOUS
370
-3
390
F
  0
LAYER
  5
210
100
AcDbSymbolTableRecord
100
AcDbLayerTableRecord
  2
PIANI
 70
0
 62
7
  6
CONTINUOUS
370
-3
390
F
  0
LAYER
  5
211
100
AcDbSymbolTableRecord
100
AcDbLayerTableRecord
  2
PIANI_DI_RIFERIMENTO
 70
0
 62
7
  6
CONTINUOUS
370
-3
390
F
  0
LAYER
  5
212
100
AcDbSymbolTableRecord
100
AcDbLayerTableRecord
  2
PIANI_ORIGINE
 70
0
 62
7
  6
CONTINUOUS
370
-3
390
F
  0
LAYER
  5
213
100
AcDbSymbolTableRecord
100
AcDbLayerTableRecord
  2
PTC-4X7_5X5_0-VIMAR_750000
 70
0
 62
7
  6
CONTINUOUS
370
-3
390
F
  0
LAYER
  5
214
100
AcDbSymbolTableRecord
100
AcDbLayerTableRecord
  2
PUBLISHED_GEOMETRY
 70
0
 62
7
  6
CONTINUOUS
370
-3
390
F
  0
LAYER
  5
215
100
AcDbSymbolTableRecord
100
AcDbLayerTableRecord
  2
PUNTI
 70
0
 62
7
  6
CONTINUOUS
370
-3
390
F
  0
LAYER
  5
216
100
AcDbSymbolTableRecord
100
AcDbLayerTableRecord
  2
RACCORDO
 70
0
 62
7
  6
CONTINUOUS
370
-3
390
F
  0
LAYER
  5
217
100
AcDbSymbolTableRecord
100
AcDbLayerTableRecord
  2
SMUSSO
 70
0
 62
7
  6
CONTINUOUS
370
-3
390
F
  0
LAYER
  5
218
100
AcDbSymbolTableRecord
100
AcDbLayerTableRecord
  2
SUPERFICI
 70
0
 62
7
  6
CONTINUOUS
370
-3
390
F
  0
LAYER
  5
219
100
AcDbSymbolTableRecord
100
AcDbLayerTableRecord
  2
TRASH
 70
0
 62
7
  6
CONTINUOUS
370
-3
390
F
  0
LAYER
  5
21A
100
AcDbSymbolTableRecord
100
AcDbLayerTableRecord
  2
XSEC_DATUMS
 70
0
 62
7
  6
CONTINUOUS
370
-3
390
F
  0
LAYER
  5
21B
100
AcDbSymbolTableRecord
100
AcDbLayerTableRecord
  2
___SHELL
 70
0
 62
7
  6
CONTINUOUS
370
-3
390
F
  0
ENDTAB
  0
TABLE
  2
STYLE
  5
3
100
AcDbSymbolTable
 70
1
  0
STYLE
  5
11
100
AcDbSymbolTableRecord
100
AcDbTextStyleTableRecord
  2
STANDARD
 70
0
 40
0.0
 41
0.8
 50
0.0
 71
0
 42
0.2
  3
txt
  4

  0
STYLE
  5
21C
100
AcDbSymbolTableRecord
100
AcDbTextStyleTableRecord
  2
TEXTSTYLE_1
 70
0
 40
0.0
 41
0.8
 50
0.0
 71
0
 42
0.2
  3
gdt
  4

  0
ENDTAB
  0
TABLE
  2
VIEW
  5
6
100
AcDbSymbolTable
 70
0
  0
ENDTAB
  0
TABLE
  2
UCS
  5
7
100
AcDbSymbolTable
 70
0
  0
ENDTAB
  0
TABLE
  2
APPID
  5
9
100
AcDbSymbolTable
 70
1
  0
APPID
  5
21D
100
AcDbSymbolTableRecord
100
AcDbRegAppTableRecord
  2
ACAD
 70
0
  0
ENDTAB
  0
TABLE
  2
BLOCK_RECORD
  5
1
100
AcDbSymbolTable
 70
0
  0
BLOCK_RECORD
  5
21E
100
AcDbSymbolTableRecord
100
AcDbBlockTableRecord
  2
*Model_Space
  0
BLOCK_RECORD
  5
21F
100
AcDbSymbolTableRecord
100
AcDbBlockTableRecord
  2
*Paper_Space
  0
BLOCK_RECORD
  5
220
100
AcDbSymbolTableRecord
100
AcDbBlockTableRecord
  2
_FILLED
  0
BLOCK_RECORD
  5
221
100
AcDbSymbolTableRecord
100
AcDbBlockTableRecord
  2
*D0
  0
BLOCK_RECORD
  5
222
100
AcDbSymbolTableRecord
100
AcDbBlockTableRecord
  2
*D1
  0
BLOCK_RECORD
  5
223
100
AcDbSymbolTableRecord
100
AcDbBlockTableRecord
  2
*D2
  0
BLOCK_RECORD
  5
224
100
AcDbSymbolTableRecord
100
AcDbBlockTableRecord
  2
*D3
  0
ENDTAB
  0
TABLE
  2
DIMSTYLE
  5
A
100
AcDbSymbolTable
 70
1
100
AcDbDimStyleTable
 71
0
  0
DIMSTYLE
105
225
100
AcDbSymbolTableRecord
100
AcDbDimStyleTableRecord
  2
STANDARD
 70
0
  3

  4

 40
1.0
 41
3.0
 42
0.0625
 43
0.38
 44
0.18
 45
0.0
 46
0.0
 47
0.01
 48
0.01
140
3.0
141
0.09
142
0.0
143
25.4
144
1.0
145
0.0
146
1.0
147
0.09
 71
1.0
 72
0.0
 73
0
 74
0
 75
0
 76
0
 77
1
 78
8
170
0
171
2
172
0
173
0
174
0
175
0
176
0
177
0
178
0
270
2
271
2
272
2
273
2
274
2
275
0
280
0
281
0
282
0
283
1
284
8
285
0
286
0
287
3
288
0
340
11
341
220
342
220
343
220
344
220
  0
DIMSTYLE
105
226
100
AcDbSymbolTableRecord
100
AcDbDimStyleTableRecord
  2
DIMSTYLE_1
 70
0
  3

  4

 40
1.0
 41
3.0
 42
0.0625
 43
0.38
 44
0.18
 45
0.0
 46
0.0
 47
0.0
 48
0.0
140
3.0
141
0.09
142
0.0
143
25.4
144
1.0
145
0.0
146
1.0
147
0.09
 71
0.0
 72
0.0
 73
0
 74
0
 75
0
 76
0
 77
1
 78
8
170
0
171
2
172
0
173
0
174
0
175
0
176
0
177
0
178
0
270
2
271
2
272
2
273
2
274
2
275
0
280
0
281
0
282
0
283
1
284
8
285
0
286
0
287
3
288
0
340
11
341
220
342
220
343
220
344
220
  0
ENDTAB
  0
ENDSEC
  0
SECTION
  2
BLOCKS
  0
BLOCK
  5
20
100
AcDbEntity
  8
0
100
AcDbBlockBegin
  2
*Model_Space
 70
0
 10
0.0
 20
0.0
 30
0.0
  3
*Model_Space
  1

  0
ENDBLK
  5
21
100
AcDbEntity
  8
0
100
AcDbBlockEnd
  0
BLOCK
  5
1C
100
AcDbEntity
  8
0
100
AcDbBlockBegin
  2
*Paper_Space
 70
0
 10
0.0
 20
0.0
 30
0.0
  3
*Paper_Space
  1

  0
ENDBLK
  5
1D
100
AcDbEntity
  8
0
100
AcDbBlockEnd
  0
BLOCK
  5
227
100
AcDbEntity
  8
0
100
AcDbBlockBegin
  2
_FILLED
 70
64
 10
0.0
 20
0.0
  3
_FILLED
  1

  0
SOLID
  5
228
100
AcDbEntity
  8
0
  6
BYBLOCK
 62
0
100
AcDbTrace
 10
0.0
 20
0.0
 11
-1.0
 21
0.3166666667
 12
-1.0
 22
-0.3166666667
 13
-1.0
 23
-0.3166666667
  0
ENDBLK
  5
229
100
AcDbEntity
  8
0
  6
BYBLOCK
 62
0
100
AcDbBlockEnd
  0
BLOCK
  5
22A
100
AcDbEntity
  8
0
100
AcDbBlockBegin
 62
7
  6
CONTINUOUS
  2
*D0
 70
65
 10
0.0
 20
0.0
  3
*D0
  1

  0
MTEXT
  5
22B
100
AcDbEntity
  8
0
100
AcDbMText
 62
7
  6
CONTINUOUS
  7
STANDARD
 71
2
 72
1
 10
0.0
 20
32.7474290791
 30
0.0
 11
1.0
 21
0.0
 31
0.0
 44
0.9
  1
22,3
 40
3.0
 41
8.5714285714
  0
LINE
  5
22C
100
AcDbEntity
  8
0
100
AcDbLine
 62
7
  6
CONTINUOUS
 10
-11.1504363434
 20
22.400016923
 11
-11.1504363434
 21
30.4974290791
  0
LINE
  5
22D
100
AcDbEntity
  8
0
100
AcDbLine
 62
7
  6
CONTINUOUS
 10
11.1504363434
 20
22.400016923
 11
11.1504363434
 21
30.4974290791
  0
LINE
  5
22E
100
AcDbEntity
  8
0
100
AcDbLine
 62
7
  6
CONTINUOUS
 10
-11.1504363434
 20
28.9974290791
 11
0.0
 21
28.9974290791
  0
LINE
  5
22F
100
AcDbEntity
  8
0
100
AcDbLine
 62
7
  6
CONTINUOUS
 10
11.1504363434
 20
28.9974290791
 11
0.0
 21
28.9974290791
  0
INSERT
  5
230
100
AcDbEntity
  8
0
100
AcDbBlockReference
 62
7
  6
CONTINUOUS
  2
_FILLED
 10
-11.1504363434
 20
28.9974290791
 41
3.0
 42
3.0
 43
3.0
 50
180.0
  0
INSERT
  5
231
100
AcDbEntity
  8
0
100
AcDbBlockReference
 62
7
  6
CONTINUOUS
  2
_FILLED
 10
11.1504363434
 20
28.9974290791
 41
3.0
 42
3.0
 43
3.0
 50
360.0
  0
ENDBLK
  5
232
100
AcDbEntity
  8
0
  6
BYBLOCK
 62
0
100
AcDbBlockEnd
  0
BLOCK
  5
233
100
AcDbEntity
  8
0
100
AcDbBlockBegin
 62
7
  6
CONTINUOUS
  2
*D1
 70
65
 10
0.0
 20
0.0
  3
*D1
  1

  0
MTEXT
  5
234
100
AcDbEntity
  8
0
100
AcDbMText
 62
7
  6
CONTINUOUS
  7
STANDARD
 71
2
 72
1
 10
13.8974289787
 20
-0.0
 30
0.0
 11
0.0
 21
1.0
 31
0.0
 44
0.9
  1
49
 40
3.0
 41
4.7142857143
  0
LINE
  5
235
100
AcDbEntity
  8
0
100
AcDbLine
 62
7
  6
CONTINUOUS
 10
10.4000042308
 20
24.5
 11
19.1474289787
 21
24.5
  0
LINE
  5
236
100
AcDbEntity
  8
0
100
AcDbLine
 62
7
  6
CONTINUOUS
 10
7.9999957692
 20
-24.5
 11
19.1474289787
 21
-24.5
  0
LINE
  5
237
100
AcDbEntity
  8
0
100
AcDbLine
 62
7
  6
CONTINUOUS
 10
17.6474289787
 20
24.5
 11
17.6474289787
 21
-0.0
  0
LINE
  5
238
100
AcDbEntity
  8
0
100
AcDbLine
 62
7
  6
CONTINUOUS
 10
17.6474289787
 20
-24.5
 11
17.6474289787
 21
-0.0
  0
INSERT
  5
239
100
AcDbEntity
  8
0
100
AcDbBlockReference
 62
7
  6
CONTINUOUS
  2
_FILLED
 10
17.6474289787
 20
24.5
 41
3.0
 42
3.0
 43
3.0
 50
90.0
  0
INSERT
  5
23A
100
AcDbEntity
  8
0
100
AcDbBlockReference
 62
7
  6
CONTINUOUS
  2
_FILLED
 10
17.6474289787
 20
-24.5
 41
3.0
 42
3.0
 43
3.0
 50
270.0
  0
ENDBLK
  5
23B
100
AcDbEntity
  8
0
  6
BYBLOCK
 62
0
100
AcDbBlockEnd
  0
BLOCK
  5
23C
100
AcDbEntity
  8
0
100
AcDbBlockBegin
 62
7
  6
CONTINUOUS
  2
*D2
 70
65
 10
0.0
 20
0.0
  3
*D2
  1

  0
MTEXT
  5
23D
100
AcDbEntity
  8
0
100
AcDbMText
 62
7
  6
CONTINUOUS
  7
STANDARD
 71
2
 72
1
 10
-34.7676415705
 20
33.7193904993
 30
0.0
 11
1.0
 21
0.0
 31
0.0
 44
0.9
  1
24,4
 40
3.0
 41
8.7857142857
  0
LINE
  5
23E
100
AcDbEntity
  8
0
100
AcDbLine
 62
7
  6
CONTINUOUS
 10
-22.5676415705
 20
18.009618074
 11
-22.5676415705
 21
31.4693904993
  0
LINE
  5
23F
100
AcDbEntity
  8
0
100
AcDbLine
 62
7
  6
CONTINUOUS
 10
-46.9676415705
 20
24.7456323968
 11
-46.9676415705
 21
31.4693904993
  0
LINE
  5
240
100
AcDbEntity
  8
0
100
AcDbLine
 62
7
  6
CONTINUOUS
 10
-22.5676415705
 20
29.9693904993
 11
-34.7676415705
 21
29.9693904993
  0
LINE
  5
241
100
AcDbEntity
  8
0
100
AcDbLine
 62
7
  6
CONTINUOUS
 10
-46.9676415705
 20
29.9693904993
 11
-34.7676415705
 21
29.9693904993
  0
INSERT
  5
242
100
AcDbEntity
  8
0
100
AcDbBlockReference
 62
7
  6
CONTINUOUS
  2
_FILLED
 10
-22.5676415705
 20
29.9693904993
 41
3.0
 42
3.0
 43
3.0
  0
INSERT
  5
243
100
AcDbEntity
  8
0
100
AcDbBlockReference
 62
7
  6
CONTINUOUS
  2
_FILLED
 10
-46.9676415705
 20
29.9693904993
 41
3.0
 42
3.0
 43
3.0
 50
180.0
  0
ENDBLK
  5
244
100
AcDbEntity
  8
0
  6
BYBLOCK
 62
0
100
AcDbBlockEnd
  0
BLOCK
  5
245
100
AcDbEntity
  8
0
100
AcDbBlockBegin
 62
7
  6
CONTINUOUS
  2
*D3
 70
65
 10
0.0
 20
0.0
  3
*D3
  1

  0
MTEXT
  5
246
100
AcDbEntity
  8
0
100
AcDbMText
 62
7
  6
CONTINUOUS
  7
STANDARD
 71
2
 72
1
 10
-39.9176415705
 20
40.5875760796
 30
0.0
 11
1.0
 21
0.0
 31
0.0
 44
0.9
  1
34,7
 40
3.0
 41
8.5714285714
  0
LINE
  5
247
100
AcDbEntity
  8
0
100
AcDbLine
 62
7
  6
CONTINUOUS
 10
-22.5676415705
 20
18.009618074
 11
-22.5676415705
 21
38.3375760796
  0
LINE
  5
248
100
AcDbEntity
  8
0
100
AcDbLine
 62
7
  6
CONTINUOUS
 10
-57.2676415705
 20
0.5
 11
-57.2676415705
 21
38.3375760796
  0
LINE
  5
249
100
AcDbEntity
  8
0
100
AcDbLine
 62
7
  6
CONTINUOUS
 10
-22.5676415705
 20
36.8375760796
 11
-39.9176415705
 21
36.8375760796
  0
LINE
  5
24A
100
AcDbEntity
  8
0
100
AcDbLine
 62
7
  6
CONTINUOUS
 10
-57.2676415705
 20
36.8375760796
 11
-39.9176415705
 21
36.8375760796
  0
INSERT
  5
24B
100
AcDbEntity
  8
0
100
AcDbBlockReference
 62
7
  6
CONTINUOUS
  2
_FILLED
 10
-22.5676415705
 20
36.8375760796
 41
3.0
 42
3.0
 43
3.0
  0
INSERT
  5
24C
100
AcDbEntity
  8
0
100
AcDbBlockReference
 62
7
  6
CONTINUOUS
  2
_FILLED
 10
-57.2676415705
 20
36.8375760796
 41
3.0
 42
3.0
 43
3.0
 50
180.0
  0
ENDBLK
  5
24D
100
AcDbEntity
  8
0
  6
BYBLOCK
 62
0
100
AcDbBlockEnd
  0
ENDSEC
  0
SECTION
  2
ENTITIES
  0
DIMENSION
  5
24E
100
AcDbEntity
  8
0
100
AcDbDimension
 62
7
  6
CONTINUOUS
  2
*D0
 10
11.1504363434
 20
28.9974290791
 11
-4.2857142857
 21
31.2474290791
 70
160
 71
2
 42
22.3008726868
  3
DIMSTYLE_1
100
AcDbAlignedDimension
 13
-11.1504363434
 23
22.400016923
 14
11.1504363434
 24
22.400016923
 50
360.0
100
AcDbRotatedDimension
  0
DIMENSION
  5
24F
100
AcDbEntity
  8
0
100
AcDbDimension
 62
7
  6
CONTINUOUS
  2
*D1
 10
17.6474289787
 20
-24.5
 11
16.4536025024
 21
-2.1072778499
 70
160
 71
2
 42
49.0
  3
DIMSTYLE_1
100
AcDbAlignedDimension
 13
10.4000042308
 23
24.5
 14
7.9999957692
 24
-24.5
 50
270.0
100
AcDbRotatedDimension
  0
DIMENSION
  5
250
100
AcDbEntity
  8
0
100
AcDbDimension
 62
7
  6
CONTINUOUS
  2
*D2
 10
-46.9676415705
 20
29.9693904993
 11
-39.1604987134
 21
32.2193904993
 70
160
 71
2
 42
24.4
  3
DIMSTYLE_1
100
AcDbAlignedDimension
 13
-22.5676415705
 23
18.009618074
 14
-46.9676415705
 24
24.7456323968
 50
180.0
100
AcDbRotatedDimension
  0
DIMENSION
  5
251
100
AcDbEntity
  8
0
100
AcDbDimension
 62
7
  6
CONTINUOUS
  2
*D3
 10
-57.2676415705
 20
36.8375760796
 11
-44.2033558562
 21
39.0875760796
 70
160
 71
2
 42
34.7
  3
DIMSTYLE_1
100
AcDbAlignedDimension
 13
-22.5676415705
 23
18.009618074
 14
-57.2676415705
 24
0.5
 50
180.0
100
AcDbRotatedDimension
  0
LINE
  5
252
100
AcDbEntity
  8
SUPERFICI
100
AcDbLine
 62
7
  6
CONTINUOUS
 10
-9.8869056521
 20
-24.4869014213
 11
-7.5130943479
 21
-24.4869014213
  0
LINE
  5
253
100
AcDbEntity
  8
SUPERFICI
100
AcDbLine
 62
7
  6
CONTINUOUS
 10
7.5130943479
 20
-24.4869014213
 11
9.8869056521
 21
-24.4869014213
  0
LINE
  5
254
100
AcDbEntity
  8
SUPERFICI
100
AcDbLine
 62
253
  6
CONTINUOUS
 10
7.2630985787
 20
-24.2369056521
 11
10.1369014213
 21
-24.2369056521
  0
LINE
  5
255
100
AcDbEntity
  8
SUPERFICI
100
AcDbLine
 62
253
  6
CONTINUOUS
 10
-7.2630985787
 20
-24.2369056521
 11
-10.1369014213
 21
-24.2369056521
  0
LINE
  5
256
100
AcDbEntity
  8
SUPERFICI
100
AcDbLine
 62
7
  6
CONTINUOUS
 10
-3.5
 20
-23.9982478817
 11
-1.2
 21
-23.9982478817
  0
LINE
  5
257
100
AcDbEntity
  8
SUPERFICI
100
AcDbLine
 62
7
  6
CONTINUOUS
 10
1.2
 20
-23.9982478817
 11
3.5
 21
-23.9982478817
  0
LINE
  5
258
100
AcDbEntity
  8
SUPERFICI
100
AcDbLine
 62
7
  6
CONTINUOUS
 10
4.4412732553
 20
-23.9912732553
 11
3.5
 21
-23.9912732553
  0
LINE
  5
259
100
AcDbEntity
  8
SUPERFICI
100
AcDbLine
 62
7
  6
CONTINUOUS
 10
-3.5
 20
-23.9912732553
 11
-4.4412732553
 21
-23.9912732553
  0
LINE
  5
25A
100
AcDbEntity
  8
SUPERFICI
100
AcDbLine
 62
253
  6
CONTINUOUS
 10
7.2630985787
 20
-23.8443375673
 11
10.1369014213
 21
-23.8443375673
  0
LINE
  5
25B
100
AcDbEntity
  8
SUPERFICI
100
AcDbLine
 62
253
  6
CONTINUOUS
 10
-7.2630985787
 20
-23.8443375673
 11
-10.1369014213
 21
-23.8443375673
  0
LINE
  5
25C
100
AcDbEntity
  8
SUPERFICI
100
AcDbLine
 62
253
  6
CONTINUOUS
 10
-3.5
 20
-23.7982512664
 11
-1.0
 21
-23.7982512664
  0
LINE
  5
25D
100
AcDbEntity
  8
SUPERFICI
100
AcDbLine
 62
253
  6
CONTINUOUS
 10
1.0
 20
-23.7982512664
 11
3.5
 21
-23.7982512664
  0
LINE
  5
25E
100
AcDbEntity
  8
SUPERFICI
100
AcDbLine
 62
253
  6
CONTINUOUS
 10
9.8869056521
 20
-23.6278312164
 11
7.5130943479
 21
-23.6278312164
  0
LINE
  5
25F
100
AcDbEntity
  8
SUPERFICI
100
AcDbLine
 62
253
  6
CONTINUOUS
 10
-7.5130943479
 20
-23.6278312164
 11
-9.8869056521
 21
-23.6278312164
  0
LINE
  5
260
100
AcDbEntity
  8
SUPERFICI
100
AcDbLine
 62
7
  6
CONTINUOUS
 10
-9.8927234819
 20
-23.1226497308
 11
-7.5072765181
 21
-23.1226497308
  0
LINE
  5
261
100
AcDbEntity
  8
SUPERFICI
100
AcDbLine
 62
7
  6
CONTINUOUS
 10
9.8927234819
 20
-23.1226497308
 11
7.5072765181
 21
-23.1226497308
  0
LINE
  5
262
100
AcDbEntity
  8
SUPERFICI
100
AcDbLine
 62
7
  6
CONTINUOUS
 10
10.6495078465
 20
-22.4
 11
10.15
 21
-22.4
  0
LINE
  5
263
100
AcDbEntity
  8
SUPERFICI
100
AcDbLine
 62
7
  6
CONTINUOUS
 10
7.25
 20
-22.4
 11
4.45
 21
-22.4
  0
LINE
  5
264
100
AcDbEntity
  8
SUPERFICI
100
AcDbLine
 62
7
  6
CONTINUOUS
 10
-1.0
 20
-22.4
 11
1.0
 21
-22.4
  0
LINE
  5
265
100
AcDbEntity
  8
SUPERFICI
100
AcDbLine
 62
7
  6
CONTINUOUS
 10
-4.45
 20
-22.4
 11
-7.25
 21
-22.4
  0
LINE
  5
266
100
AcDbEntity
  8
SUPERFICI
100
AcDbLine
 62
7
  6
CONTINUOUS
 10
-10.15
 20
-22.4
 11
-10.6495078465
 21
-22.4
  0
LINE
  5
267
100
AcDbEntity
  8
SUPERFICI
100
AcDbLine
 62
7
  6
CONTINUOUS
 10
3.5
 20
-22.3737961104
 11
1.2
 21
-22.3737961104
  0
LINE
  5
268
100
AcDbEntity
  8
SUPERFICI
100
AcDbLine
 62
7
  6
CONTINUOUS
 10
-1.2
 20
-22.3737961104
 11
-3.5
 21
-22.3737961104
  0
LINE
  5
269
100
AcDbEntity
  8
SUPERFICI
100
AcDbLine
 62
7
  6
CONTINUOUS
 10
-9.8927234819
 20
-22.3213883311
 11
-7.5072765181
 21
-22.3213883311
  0
LINE
  5
26A
100
AcDbEntity
  8
SUPERFICI
100
AcDbLine
 62
7
  6
CONTINUOUS
 10
-4.4412732553
 20
-22.3213883311
 11
-3.5
 21
-22.3213883311
  0
LINE
  5
26B
100
AcDbEntity
  8
SUPERFICI
100
AcDbLine
 62
7
  6
CONTINUOUS
 10
3.5
 20
-22.3213883311
 11
4.4412732553
 21
-22.3213883311
  0
LINE
  5
26C
100
AcDbEntity
  8
SUPERFICI
100
AcDbLine
 62
7
  6
CONTINUOUS
 10
7.5072765181
 20
-22.3213883311
 11
9.8927234819
 21
-22.3213883311
  0
LINE
  5
26D
100
AcDbEntity
  8
SUPERFICI
100
AcDbLine
 62
253
  6
CONTINUOUS
 10
10.5363425225
 20
-22.0602279426
 11
-10.5363425225
 21
-22.0602279426
  0
LINE
  5
26E
100
AcDbEntity
  8
SUPERFICI
100
AcDbLine
 62
253
  6
CONTINUOUS
 10
10.5281693342
 20
-21.2107174911
 11
-10.5281693342
 21
-21.2107174911
  0
LINE
  5
26F
100
AcDbEntity
  8
SUPERFICI
100
AcDbLine
 62
7
  6
CONTINUOUS
 10
-11.1840373766
 20
-18.1473460386
 11
-11.15
 21
-18.491183651
  0
LINE
  5
270
100
AcDbEntity
  8
SUPERFICI
100
AcDbLine
 62
7
  6
CONTINUOUS
 10
-11.1840373766
 20
18.1473460386
 11
-11.15
 21
18.491183651
  0
LINE
  5
271
100
AcDbEntity
  8
SUPERFICI
100
AcDbLine
 62
7
  6
CONTINUOUS
 10
4.45
 20
24.0
 11
4.4412732553
 21
23.9912732553
  0
LINE
  5
272
100
AcDbEntity
  8
SUPERFICI
100
AcDbLine
 62
7
  6
CONTINUOUS
 10
-11.1840373766
 20
-18.1473460386
 11
-11.1840373766
 21
18.1473460386
  0
LINE
  5
273
100
AcDbEntity
  8
SUPERFICI
100
AcDbLine
 62
7
  6
CONTINUOUS
 10
-11.1504363434
 20
21.900016923
 11
-11.1504363434
 21
18.5
  0
LINE
  5
274
100
AcDbEntity
  8
SUPERFICI
100
AcDbLine
 62
7
  6
CONTINUOUS
 10
-11.1504363434
 20
-21.900016923
 11
-11.1504363434
 21
-18.5
  0
LINE
  5
275
100
AcDbEntity
  8
SUPERFICI
100
AcDbLine
 62
7
  6
CONTINUOUS
 10
-11.1504363434
 20
18.5
 11
-11.15
 21
18.491183651
  0
LINE
  5
276
100
AcDbEntity
  8
SUPERFICI
100
AcDbLine
 62
253
  6
CONTINUOUS
 10
-10.1369014213
 20
-23.8443375673
 11
-10.1427192511
 21
-23.2669872981
  0
LINE
  5
277
100
AcDbEntity
  8
SUPERFICI
100
AcDbLine
 62
253
  6
CONTINUOUS
 10
-9.8869056521
 20
-23.6278312164
 11
-9.8919962532
 21
-23.1226497308
  0
LINE
  5
278
100
AcDbEntity
  8
SUPERFICI
100
AcDbLine
 62
253
  6
CONTINUOUS
 10
-10.5109844497
 20
9.5
 11
-10.5281693342
 21
21.2107174911
  0
LINE
  5
279
100
AcDbEntity
  8
SUPERFICI
100
AcDbLine
 62
253
  6
CONTINUOUS
 10
-10.5109844497
 20
-9.5
 11
-10.5109844497
 21
9.5
  0
LINE
  5
27A
100
AcDbEntity
  8
SUPERFICI
100
AcDbLine
 62
7
  6
CONTINUOUS
 10
-10.15
 20
-23.2669872981
 11
-10.15
 21
-23.8443375673
  0
LINE
  5
27B
100
AcDbEntity
  8
SUPERFICI
100
AcDbLine
 62
7
  6
CONTINUOUS
 10
-10.15
 20
23.2669872981
 11
-10.15
 21
23.8443375673
  0
LINE
  5
27C
100
AcDbEntity
  8
SUPERFICI
100
AcDbLine
 62
7
  6
CONTINUOUS
 10
-10.1427192511
 20
23.2669872981
 11
-10.1427192511
 21
22.3344140523
  0
LINE
  5
27D
100
AcDbEntity
  8
SUPERFICI
100
AcDbLine
 62
7
  6
CONTINUOUS
 10
-10.1427192511
 20
-22.3344140523
 11
-10.1427192511
 21
-23.2669872981
  0
LINE
  5
27E
100
AcDbEntity
  8
SUPERFICI
100
AcDbLine
 62
7
  6
CONTINUOUS
 10
-10.1369014213
 20
24.2369056521
 11
-10.1369014213
 21
23.8443375673
  0
LINE
  5
27F
100
AcDbEntity
  8
SUPERFICI
100
AcDbLine
 62
7
  6
CONTINUOUS
 10
-10.1369014213
 20
-23.8443375673
 11
-10.1369014213
 21
-24.2369056521
  0
LINE
  5
280
100
AcDbEntity
  8
SUPERFICI
100
AcDbLine
 62
253
  6
CONTINUOUS
 10
-9.8927234819
 20
23.1226497308
 11
-9.8927234819
 21
22.3213883311
  0
LINE
  5
281
100
AcDbEntity
  8
SUPERFICI
100
AcDbLine
 62
253
  6
CONTINUOUS
 10
-9.8927234819
 20
-22.3213883311
 11
-9.8927234819
 21
-23.1226497308
  0
LINE
  5
282
100
AcDbEntity
  8
SUPERFICI
100
AcDbLine
 62
253
  6
CONTINUOUS
 10
-9.8869056521
 20
-23.6278312164
 11
-9.8869056521
 21
-24.4869014213
  0
LINE
  5
283
100
AcDbEntity
  8
SUPERFICI
100
AcDbLine
 62
253
  6
CONTINUOUS
 10
-9.8869056521
 20
23.6278312164
 11
-9.8869056521
 21
24.4869014213
  0
LINE
  5
284
100
AcDbEntity
  8
SUPERFICI
100
AcDbLine
 62
253
  6
CONTINUOUS
 10
-10.5281693342
 20
-21.2107174911
 11
-10.5109844497
 21
-9.5
  0
LINE
  5
285
100
AcDbEntity
  8
SUPERFICI
100
AcDbLine
 62
253
  6
CONTINUOUS
 10
-10.1427192511
 20
23.2669872981
 11
-10.1369014213
 21
23.8443375673
  0
LINE
  5
286
100
AcDbEntity
  8
SUPERFICI
100
AcDbLine
 62
253
  6
CONTINUOUS
 10
-9.8919962532
 20
23.1226497308
 11
-9.8869056521
 21
23.6278312164
  0
LINE
  5
287
100
AcDbEntity
  8
SUPERFICI
100
AcDbLine
 62
7
  6
CONTINUOUS
 10
-11.15
 20
-18.491183651
 11
-11.1504363434
 21
-18.5
  0
LINE
  5
288
100
AcDbEntity
  8
SUPERFICI
100
AcDbLine
 62
253
  6
CONTINUOUS
 10
-10.5109844497
 20
-9.5
 11
10.5109844497
 21
-9.5
  0
LINE
  5
289
100
AcDbEntity
  8
SUPERFICI
100
AcDbLine
 62
253
  6
CONTINUOUS
 10
-7.5130943479
 20
23.6278312164
 11
-7.5080037468
 21
23.1226497308
  0
LINE
  5
28A
100
AcDbEntity
  8
SUPERFICI
100
AcDbLine
 62
253
  6
CONTINUOUS
 10
-7.2630985787
 20
23.8443375673
 11
-7.2572807489
 21
23.2669872981
  0
LINE
  5
28B
100
AcDbEntity
  8
SUPERFICI
100
AcDbLine
 62
253
  6
CONTINUOUS
 10
-7.5130943479
 20
-23.6278312164
 11
-7.5130943479
 21
-24.4869014213
  0
LINE
  5
28C
100
AcDbEntity
  8
SUPERFICI
100
AcDbLine
 62
253
  6
CONTINUOUS
 10
-7.5130943479
 20
23.6278312164
 11
-7.5130943479
 21
24.4869014213
  0
LINE
  5
28D
100
AcDbEntity
  8
SUPERFICI
100
AcDbLine
 62
253
  6
CONTINUOUS
 10
-7.5072765181
 20
-23.1226497308
 11
-7.5072765181
 21
-22.3213883311
  0
LINE
  5
28E
100
AcDbEntity
  8
SUPERFICI
100
AcDbLine
 62
253
  6
CONTINUOUS
 10
-7.5072765181
 20
22.3213883311
 11
-7.5072765181
 21
23.1226497308
  0
LINE
  5
28F
100
AcDbEntity
  8
SUPERFICI
100
AcDbLine
 62
7
  6
CONTINUOUS
 10
-7.2630985787
 20
-24.2369056521
 11
-7.2630985787
 21
-23.8443375673
  0
LINE
  5
290
100
AcDbEntity
  8
SUPERFICI
100
AcDbLine
 62
7
  6
CONTINUOUS
 10
-7.2630985787
 20
23.8443375673
 11
-7.2630985787
 21
24.2369056521
  0
LINE
  5
291
100
AcDbEntity
  8
SUPERFICI
100
AcDbLine
 62
7
  6
CONTINUOUS
 10
-7.2572807489
 20
-23.2669872981
 11
-7.2572807489
 21
-22.3344140523
  0
LINE
  5
292
100
AcDbEntity
  8
SUPERFICI
100
AcDbLine
 62
7
  6
CONTINUOUS
 10
-7.2572807489
 20
22.3344140523
 11
-7.2572807489
 21
23.2669872981
  0
LINE
  5
293
100
AcDbEntity
  8
SUPERFICI
100
AcDbLine
 62
7
  6
CONTINUOUS
 10
-7.25
 20
-23.2669872981
 11
-7.25
 21
-23.8443375673
  0
LINE
  5
294
100
AcDbEntity
  8
SUPERFICI
100
AcDbLine
 62
7
  6
CONTINUOUS
 10
-7.25
 20
23.2669872981
 11
-7.25
 21
23.8443375673
  0
LINE
  5
295
100
AcDbEntity
  8
SUPERFICI
100
AcDbLine
 62
253
  6
CONTINUOUS
 10
-7.5080037468
 20
-23.1226497308
 11
-7.5130943479
 21
-23.6278312164
  0
LINE
  5
296
100
AcDbEntity
  8
SUPERFICI
100
AcDbLine
 62
253
  6
CONTINUOUS
 10
-7.2572807489
 20
-23.2669872981
 11
-7.2630985787
 21
-23.8443375673
  0
LINE
  5
297
100
AcDbEntity
  8
SUPERFICI
100
AcDbLine
 62
7
  6
CONTINUOUS
 10
-4.4412732553
 20
23.9912732553
 11
-4.4412732553
 21
22.3213883311
  0
LINE
  5
298
100
AcDbEntity
  8
SUPERFICI
100
AcDbLine
 62
7
  6
CONTINUOUS
 10
-4.4412732553
 20
-22.3213883311
 11
-4.4412732553
 21
-23.9912732553
  0
LINE
  5
299
100
AcDbEntity
  8
RACCORDO
100
AcDbLine
 62
253
  6
CONTINUOUS
 10
-4.2568120596
 20
3.2576158877
 11
-4.2568120596
 21
-3.2576158877
  0
LINE
  5
29A
100
AcDbEntity
  8
RACCORDO
100
AcDbLine
 62
253
  6
CONTINUOUS
 10
-4.1534300864
 20
-3.2535671608
 11
-4.1534300864
 21
3.2535671608
  0
LINE
  5
29B
100
AcDbEntity
  8
RACCORDO
100
AcDbLine
 62
253
  6
CONTINUOUS
 10
-3.7465699136
 20
3.246646066
 11
-3.7465699136
 21
-3.246646066
  0
LINE
  5
29C
100
AcDbEntity
  8
SUPERFICI
100
AcDbLine
 62
7
  6
CONTINUOUS
 10
-3.5
 20
-23.9912732553
 11
-3.5
 21
-22.3213883311
  0
LINE
  5
29D
100
AcDbEntity
  8
SUPERFICI
100
AcDbLine
 62
7
  6
CONTINUOUS
 10
-3.5
 20
22.3213883311
 11
-3.5
 21
23.9912732553
  0
LINE
  5
29E
100
AcDbEntity
  8
SUPERFICI
100
AcDbLine
 62
253
  6
CONTINUOUS
 10
-11.1491276455
 20
-21.8997723451
 11
-11.0362663701
 21
-21.5609131753
  0
LINE
  5
29F
100
AcDbEntity
  8
RACCORDO
100
AcDbLine
 62
253
  6
CONTINUOUS
 10
-3.2568332205
 20
-4.2575324221
 11
3.2568332205
 21
-4.2575324221
  0
LINE
  5
2A0
100
AcDbEntity
  8
RACCORDO
100
AcDbLine
 62
253
  6
CONTINUOUS
 10
-3.2568332205
 20
-4.1566961461
 11
3.2568332205
 21
-4.1566961461
  0
LINE
  5
2A1
100
AcDbEntity
  8
RACCORDO
100
AcDbLine
 62
253
  6
CONTINUOUS
 10
3.2535671608
 20
-4.1534300864
 11
-3.2535671608
 21
-4.1534300864
  0
LINE
  5
2A2
100
AcDbEntity
  8
RACCORDO
100
AcDbLine
 62
253
  6
CONTINUOUS
 10
-3.246646066
 20
-3.7465699136
 11
3.246646066
 21
-3.7465699136
  0
LINE
  5
2A3
100
AcDbEntity
  8
RACCORDO
100
AcDbLine
 62
253
  6
CONTINUOUS
 10
3.2378101359
 20
-3.7377339834
 11
-3.2378101359
 21
-3.7377339834
  0
LINE
  5
2A4
100
AcDbEntity
  8
SUPERFICI
100
AcDbLine
 62
253
  6
CONTINUOUS
 10
-11.0362616579
 20
21.5608990273
 11
-11.1491276455
 21
21.8997723451
  0
LINE
  5
2A5
100
AcDbEntity
  8
RACCORDO
100
AcDbLine
 62
253
  6
CONTINUOUS
 10
-3.2501066134
 20
3.9465394526
 11
-3.246646066
 21
3.7465699136
  0
LINE
  5
2A6
100
AcDbEntity
  8
RACCORDO
100
AcDbLine
 62
7
  6
CONTINUOUS
 10
-3.2501066134
 20
3.9465394526
 11
-3.2535671608
 21
4.1465089917
  0
LINE
  5
2A7
100
AcDbEntity
  8
RACCORDO
100
AcDbLine
 62
253
  6
CONTINUOUS
 10
-3.2568332205
 20
-4.1566961461
 11
-3.2568332205
 21
-4.2575324221
  0
LINE
  5
2A8
100
AcDbEntity
  8
RACCORDO
100
AcDbLine
 62
253
  6
CONTINUOUS
 10
-3.2568332205
 20
4.1566961461
 11
-3.2568332205
 21
4.2575324221
  0
LINE
  5
2A9
100
AcDbEntity
  8
RACCORDO
100
AcDbLine
 62
253
  6
CONTINUOUS
 10
-3.2378101359
 20
-3.7377339834
 11
-3.2378101359
 21
3.7377339834
  0
LINE
  5
2AA
100
AcDbEntity
  8
RACCORDO
100
AcDbLine
 62
7
  6
CONTINUOUS
 10
-3.2501066134
 20
-3.9465394526
 11
-3.2535671608
 21
-4.1465089917
  0
LINE
  5
2AB
100
AcDbEntity
  8
RACCORDO
100
AcDbLine
 62
253
  6
CONTINUOUS
 10
-3.2501066134
 20
-3.9465394526
 11
-3.246646066
 21
-3.7465699136
  0
LINE
  5
2AC
100
AcDbEntity
  8
SUPERFICI
100
AcDbLine
 62
253
  6
CONTINUOUS
 10
-10.6495078465
 20
-22.4
 11
-10.5363425225
 21
-22.0602279426
  0
LINE
  5
2AD
100
AcDbEntity
  8
RACCORDO
100
AcDbLine
 62
253
  6
CONTINUOUS
 10
-3.9465394526
 20
-3.2501066134
 11
-3.7465699136
 21
-3.246646066
  0
LINE
  5
2AE
100
AcDbEntity
  8
RACCORDO
100
AcDbLine
 62
7
  6
CONTINUOUS
 10
-3.9465394526
 20
-3.2501066134
 11
-4.1465089917
 21
-3.2535671608
  0
LINE
  5
2AF
100
AcDbEntity
  8
RACCORDO
100
AcDbLine
 62
253
  6
CONTINUOUS
 10
3.2378101359
 20
-3.2705152887
 11
-3.2378101359
 21
-3.2705152887
  0
LINE
  5
2B0
100
AcDbEntity
  8
RACCORDO
100
AcDbLine
 62
253
  6
CONTINUOUS
 10
3.9465394526
 20
-3.2501066134
 11
3.7465699136
 21
-3.246646066
  0
LINE
  5
2B1
100
AcDbEntity
  8
RACCORDO
100
AcDbLine
 62
7
  6
CONTINUOUS
 10
3.9465394526
 20
-3.2501066134
 11
4.1465089917
 21
-3.2535671608
  0
LINE
  5
2B2
100
AcDbEntity
  8
SUPERFICI
100
AcDbLine
 62
253
  6
CONTINUOUS
 10
-10.5363425225
 20
22.0602279426
 11
-10.6495078465
 21
22.4
  0
LINE
  5
2B3
100
AcDbEntity
  8
SUPERFICI
100
AcDbLine
 62
7
  6
CONTINUOUS
 10
-4.4412732553
 20
22.3213883311
 11
-4.45
 21
22.4
  0
LINE
  5
2B4
100
AcDbEntity
  8
SUPERFICI
100
AcDbLine
 62
253
  6
CONTINUOUS
 10
-1.2
 20
-22.3737961104
 11
-1.2
 21
-23.9982478817
  0
LINE
  5
2B5
100
AcDbEntity
  8
SUPERFICI
100
AcDbLine
 62
253
  6
CONTINUOUS
 10
-1.2
 20
22.3737961104
 11
-1.2
 21
23.9982478817
  0
LINE
  5
2B6
100
AcDbEntity
  8
SUPERFICI
100
AcDbLine
 62
7
  6
CONTINUOUS
 10
-1.0
 20
-23.7982512664
 11
-1.0
 21
-22.3842776662
  0
LINE
  5
2B7
100
AcDbEntity
  8
SUPERFICI
100
AcDbLine
 62
7
  6
CONTINUOUS
 10
-1.0
 20
22.3842776662
 11
-1.0
 21
23.7982512664
  0
LINE
  5
2B8
100
AcDbEntity
  8
RACCORDO
100
AcDbLine
 62
253
  6
CONTINUOUS
 10
3.2568332205
 20
4.1566961461
 11
3.2535671608
 21
4.1534300864
  0
LINE
  5
2B9
100
AcDbEntity
  8
RACCORDO
100
AcDbLine
 62
253
  6
CONTINUOUS
 10
-4.1568272901
 20
-3.2569643645
 11
-4.1534300864
 21
-3.2535671608
  0
LINE
  5
2BA
100
AcDbEntity
  8
RACCORDO
100
AcDbLine
 62
253
  6
CONTINUOUS
 10
3.246646066
 20
3.7465699136
 11
3.2378101359
 21
3.7377339834
  0
LINE
  5
2BB
100
AcDbEntity
  8
RACCORDO
100
AcDbLine
 62
253
  6
CONTINUOUS
 10
-3.7465699136
 20
-3.246646066
 11
-3.7377339834
 21
-3.2378101359
  0
LINE
  5
2BC
100
AcDbEntity
  8
RACCORDO
100
AcDbLine
 62
253
  6
CONTINUOUS
 10
-4.1568272901
 20
3.2569643645
 11
-4.1534300864
 21
3.2535671608
  0
LINE
  5
2BD
100
AcDbEntity
  8
RACCORDO
100
AcDbLine
 62
253
  6
CONTINUOUS
 10
3.2568332205
 20
-4.1566961461
 11
3.2535671608
 21
-4.1534300864
  0
LINE
  5
2BE
100
AcDbEntity
  8
RACCORDO
100
AcDbLine
 62
253
  6
CONTINUOUS
 10
3.246646066
 20
-3.7465699136
 11
3.2378101359
 21
-3.7377339834
  0
LINE
  5
2BF
100
AcDbEntity
  8
RACCORDO
100
AcDbLine
 62
253
  6
CONTINUOUS
 10
-3.7377339834
 20
3.2378101359
 11
-3.7465699136
 21
3.246646066
  0
LINE
  5
2C0
100
AcDbEntity
  8
SUPERFICI
100
AcDbLine
 62
7
  6
CONTINUOUS
 10
1.0
 20
23.7982512664
 11
1.0
 21
22.3842776662
  0
LINE
  5
2C1
100
AcDbEntity
  8
SUPERFICI
100
AcDbLine
 62
7
  6
CONTINUOUS
 10
1.0
 20
-22.3842776662
 11
1.0
 21
-23.7982512664
  0
LINE
  5
2C2
100
AcDbEntity
  8
SUPERFICI
100
AcDbLine
 62
253
  6
CONTINUOUS
 10
1.2
 20
-22.3737961104
 11
1.2
 21
-23.9982478817
  0
LINE
  5
2C3
100
AcDbEntity
  8
SUPERFICI
100
AcDbLine
 62
253
  6
CONTINUOUS
 10
1.2
 20
22.3737961104
 11
1.2
 21
23.9982478817
  0
LINE
  5
2C4
100
AcDbEntity
  8
SUPERFICI
100
AcDbLine
 62
7
  6
CONTINUOUS
 10
4.45
 20
22.4
 11
4.4412732553
 21
22.3213883311
  0
LINE
  5
2C5
100
AcDbEntity
  8
RACCORDO
100
AcDbLine
 62
253
  6
CONTINUOUS
 10
3.7465699136
 20
3.246646066
 11
3.7377339834
 21
3.2378101359
  0
LINE
  5
2C6
100
AcDbEntity
  8
RACCORDO
100
AcDbLine
 62
253
  6
CONTINUOUS
 10
-3.246646066
 20
-3.7465699136
 11
-3.2378101359
 21
-3.7377339834
  0
LINE
  5
2C7
100
AcDbEntity
  8
RACCORDO
100
AcDbLine
 62
253
  6
CONTINUOUS
 10
4.1568272901
 20
3.2569643645
 11
4.1534300864
 21
3.2535671608
  0
LINE
  5
2C8
100
AcDbEntity
  8
RACCORDO
100
AcDbLine
 62
253
  6
CONTINUOUS
 10
-3.2568332205
 20
-4.1566961461
 11
-3.2535671608
 21
-4.1534300864
  0
LINE
  5
2C9
100
AcDbEntity
  8
RACCORDO
100
AcDbLine
 62
253
  6
CONTINUOUS
 10
3.7465699136
 20
-3.246646066
 11
3.7377339834
 21
-3.2378101359
  0
LINE
  5
2CA
100
AcDbEntity
  8
RACCORDO
100
AcDbLine
 62
253
  6
CONTINUOUS
 10
-3.2378101359
 20
3.7377339834
 11
-3.246646066
 21
3.7465699136
  0
LINE
  5
2CB
100
AcDbEntity
  8
RACCORDO
100
AcDbLine
 62
253
  6
CONTINUOUS
 10
-3.2568332205
 20
4.1566961461
 11
-3.2535671608
 21
4.1534300864
  0
LINE
  5
2CC
100
AcDbEntity
  8
RACCORDO
100
AcDbLine
 62
253
  6
CONTINUOUS
 10
4.1568272901
 20
-3.2569643645
 11
4.1534300864
 21
-3.2535671608
  0
LINE
  5
2CD
100
AcDbEntity
  8
RACCORDO
100
AcDbLine
 62
7
  6
CONTINUOUS
 10
3.2501066134
 20
-3.9465394526
 11
3.2535671608
 21
-4.1465089917
  0
LINE
  5
2CE
100
AcDbEntity
  8
RACCORDO
100
AcDbLine
 62
253
  6
CONTINUOUS
 10
3.2501066134
 20
-3.9465394526
 11
3.246646066
 21
-3.7465699136
  0
LINE
  5
2CF
100
AcDbEntity
  8
RACCORDO
100
AcDbLine
 62
253
  6
CONTINUOUS
 10
3.2378101359
 20
-3.7377339834
 11
3.2378101359
 21
3.7377339834
  0
LINE
  5
2D0
100
AcDbEntity
  8
RACCORDO
100
AcDbLine
 62
253
  6
CONTINUOUS
 10
3.2568332205
 20
-4.1566961461
 11
3.2568332205
 21
-4.2575324221
  0
LINE
  5
2D1
100
AcDbEntity
  8
RACCORDO
100
AcDbLine
 62
253
  6
CONTINUOUS
 10
3.2568332205
 20
4.1566961461
 11
3.2568332205
 21
4.2575324221
  0
LINE
  5
2D2
100
AcDbEntity
  8
SUPERFICI
100
AcDbLine
 62
7
  6
CONTINUOUS
 10
3.5
 20
23.9912732553
 11
3.5
 21
22.3213883311
  0
LINE
  5
2D3
100
AcDbEntity
  8
SUPERFICI
100
AcDbLine
 62
7
  6
CONTINUOUS
 10
3.5
 20
-22.3213883311
 11
3.5
 21
-23.9912732553
  0
LINE
  5
2D4
100
AcDbEntity
  8
RACCORDO
100
AcDbLine
 62
253
  6
CONTINUOUS
 10
3.7465699136
 20
-3.246646066
 11
3.7465699136
 21
3.246646066
  0
LINE
  5
2D5
100
AcDbEntity
  8
RACCORDO
100
AcDbLine
 62
253
  6
CONTINUOUS
 10
3.2501066134
 20
3.9465394526
 11
3.246646066
 21
3.7465699136
  0
LINE
  5
2D6
100
AcDbEntity
  8
RACCORDO
100
AcDbLine
 62
7
  6
CONTINUOUS
 10
3.2501066134
 20
3.9465394526
 11
3.2535671608
 21
4.1465089917
  0
LINE
  5
2D7
100
AcDbEntity
  8
SUPERFICI
100
AcDbLine
 62
253
  6
CONTINUOUS
 10
10.6495078465
 20
22.4
 11
10.5363425225
 21
22.0602279426
  0
LINE
  5
2D8
100
AcDbEntity
  8
SUPERFICI
100
AcDbLine
 62
253
  6
CONTINUOUS
 10
11.1491276455
 20
21.8997723451
 11
11.036266885
 21
21.5609147213
  0
LINE
  5
2D9
100
AcDbEntity
  8
RACCORDO
100
AcDbLine
 62
253
  6
CONTINUOUS
 10
3.9465394526
 20
3.2501066134
 11
3.7465699136
 21
3.246646066
  0
LINE
  5
2DA
100
AcDbEntity
  8
RACCORDO
100
AcDbLine
 62
7
  6
CONTINUOUS
 10
3.9465394526
 20
3.2501066134
 11
4.1465089917
 21
3.2535671608
  0
LINE
  5
2DB
100
AcDbEntity
  8
RACCORDO
100
AcDbLine
 62
253
  6
CONTINUOUS
 10
-3.2378101359
 20
3.2705152887
 11
3.2378101359
 21
3.2705152887
  0
LINE
  5
2DC
100
AcDbEntity
  8
RACCORDO
100
AcDbLine
 62
253
  6
CONTINUOUS
 10
-3.2378101359
 20
3.7377339834
 11
3.2378101359
 21
3.7377339834
  0
LINE
  5
2DD
100
AcDbEntity
  8
RACCORDO
100
AcDbLine
 62
253
  6
CONTINUOUS
 10
3.246646066
 20
3.7465699136
 11
-3.246646066
 21
3.7465699136
  0
LINE
  5
2DE
100
AcDbEntity
  8
RACCORDO
100
AcDbLine
 62
253
  6
CONTINUOUS
 10
-3.9465394526
 20
3.2501066134
 11
-3.7465699136
 21
3.246646066
  0
LINE
  5
2DF
100
AcDbEntity
  8
RACCORDO
100
AcDbLine
 62
7
  6
CONTINUOUS
 10
-3.9465394526
 20
3.2501066134
 11
-4.1465089917
 21
3.2535671608
  0
LINE
  5
2E0
100
AcDbEntity
  8
SUPERFICI
100
AcDbLine
 62
253
  6
CONTINUOUS
 10
10.5363425225
 20
-22.0602279426
 11
10.6495078465
 21
-22.4
  0
LINE
  5
2E1
100
AcDbEntity
  8
SUPERFICI
100
AcDbLine
 62
253
  6
CONTINUOUS
 10
11.0362663701
 20
-21.5609131753
 11
11.1491276455
 21
-21.8997723451
  0
LINE
  5
2E2
100
AcDbEntity
  8
RACCORDO
100
AcDbLine
 62
253
  6
CONTINUOUS
 10
4.1534300864
 20
3.2535671608
 11
4.1534300864
 21
-3.2535671608
  0
LINE
  5
2E3
100
AcDbEntity
  8
RACCORDO
100
AcDbLine
 62
253
  6
CONTINUOUS
 10
4.2568120596
 20
-3.2576158877
 11
4.2568120596
 21
3.2576158877
  0
LINE
  5
2E4
100
AcDbEntity
  8
SUPERFICI
100
AcDbLine
 62
7
  6
CONTINUOUS
 10
4.4412732553
 20
-23.9912732553
 11
4.4412732553
 21
-22.3213883311
  0
LINE
  5
2E5
100
AcDbEntity
  8
SUPERFICI
100
AcDbLine
 62
7
  6
CONTINUOUS
 10
4.4412732553
 20
22.3213883311
 11
4.4412732553
 21
23.9912732553
  0
LINE
  5
2E6
100
AcDbEntity
  8
RACCORDO
100
AcDbLine
 62
253
  6
CONTINUOUS
 10
-3.2535671608
 20
4.1534300864
 11
3.2535671608
 21
4.1534300864
  0
LINE
  5
2E7
100
AcDbEntity
  8
RACCORDO
100
AcDbLine
 62
253
  6
CONTINUOUS
 10
3.2568332205
 20
4.1566961461
 11
-3.2568332205
 21
4.1566961461
  0
LINE
  5
2E8
100
AcDbEntity
  8
RACCORDO
100
AcDbLine
 62
253
  6
CONTINUOUS
 10
3.2568332205
 20
4.2575324221
 11
-3.2568332205
 21
4.2575324221
  0
LINE
  5
2E9
100
AcDbEntity
  8
SUPERFICI
100
AcDbLine
 62
253
  6
CONTINUOUS
 10
7.2630985787
 20
-23.8443375673
 11
7.2572807489
 21
-23.2669872981
  0
LINE
  5
2EA
100
AcDbEntity
  8
SUPERFICI
100
AcDbLine
 62
253
  6
CONTINUOUS
 10
7.5130943479
 20
-23.6278312164
 11
7.5080037468
 21
-23.1226497308
  0
LINE
  5
2EB
100
AcDbEntity
  8
SUPERFICI
100
AcDbLine
 62
7
  6
CONTINUOUS
 10
7.25
 20
-23.2669872981
 11
7.25
 21
-23.8443375673
  0
LINE
  5
2EC
100
AcDbEntity
  8
SUPERFICI
100
AcDbLine
 62
7
  6
CONTINUOUS
 10
7.25
 20
23.2669872981
 11
7.25
 21
23.8443375673
  0
LINE
  5
2ED
100
AcDbEntity
  8
SUPERFICI
100
AcDbLine
 62
7
  6
CONTINUOUS
 10
7.2572807489
 20
23.2669872981
 11
7.2572807489
 21
22.3344140523
  0
LINE
  5
2EE
100
AcDbEntity
  8
SUPERFICI
100
AcDbLine
 62
7
  6
CONTINUOUS
 10
7.2572807489
 20
-22.3344140523
 11
7.2572807489
 21
-23.2669872981
  0
LINE
  5
2EF
100
AcDbEntity
  8
SUPERFICI
100
AcDbLine
 62
7
  6
CONTINUOUS
 10
7.2630985787
 20
24.2369056521
 11
7.2630985787
 21
23.8443375673
  0
LINE
  5
2F0
100
AcDbEntity
  8
SUPERFICI
100
AcDbLine
 62
7
  6
CONTINUOUS
 10
7.2630985787
 20
-23.8443375673
 11
7.2630985787
 21
-24.2369056521
  0
LINE
  5
2F1
100
AcDbEntity
  8
SUPERFICI
100
AcDbLine
 62
253
  6
CONTINUOUS
 10
7.2572807489
 20
23.2669872981
 11
7.2630985787
 21
23.8443375673
  0
LINE
  5
2F2
100
AcDbEntity
  8
SUPERFICI
100
AcDbLine
 62
253
  6
CONTINUOUS
 10
7.5080037468
 20
23.1226497308
 11
7.5130943479
 21
23.6278312164
  0
LINE
  5
2F3
100
AcDbEntity
  8
SUPERFICI
100
AcDbLine
 62
253
  6
CONTINUOUS
 10
7.5072765181
 20
23.1226497308
 11
7.5072765181
 21
22.3213883311
  0
LINE
  5
2F4
100
AcDbEntity
  8
SUPERFICI
100
AcDbLine
 62
253
  6
CONTINUOUS
 10
7.5072765181
 20
-22.3213883311
 11
7.5072765181
 21
-23.1226497308
  0
LINE
  5
2F5
100
AcDbEntity
  8
SUPERFICI
100
AcDbLine
 62
253
  6
CONTINUOUS
 10
7.5130943479
 20
-23.6278312164
 11
7.5130943479
 21
-24.4869014213
  0
LINE
  5
2F6
100
AcDbEntity
  8
SUPERFICI
100
AcDbLine
 62
253
  6
CONTINUOUS
 10
7.5130943479
 20
23.6278312164
 11
7.5130943479
 21
24.4869014213
  0
LINE
  5
2F7
100
AcDbEntity
  8
SUPERFICI
100
AcDbLine
 62
7
  6
CONTINUOUS
 10
11.15
 20
-18.491183651
 11
11.1504363434
 21
-18.5
  0
LINE
  5
2F8
100
AcDbEntity
  8
SUPERFICI
100
AcDbLine
 62
253
  6
CONTINUOUS
 10
9.8869056521
 20
23.6278312164
 11
9.8919962532
 21
23.1226497308
  0
LINE
  5
2F9
100
AcDbEntity
  8
SUPERFICI
100
AcDbLine
 62
253
  6
CONTINUOUS
 10
10.1369014213
 20
23.8443375673
 11
10.1427192511
 21
23.2669872981
  0
LINE
  5
2FA
100
AcDbEntity
  8
SUPERFICI
100
AcDbLine
 62
253
  6
CONTINUOUS
 10
10.5109844497
 20
-9.5
 11
10.5281693342
 21
-21.2107174911
  0
LINE
  5
2FB
100
AcDbEntity
  8
SUPERFICI
100
AcDbLine
 62
253
  6
CONTINUOUS
 10
9.8869056521
 20
-23.6278312164
 11
9.8869056521
 21
-24.4869014213
  0
LINE
  5
2FC
100
AcDbEntity
  8
SUPERFICI
100
AcDbLine
 62
253
  6
CONTINUOUS
 10
9.8869056521
 20
23.6278312164
 11
9.8869056521
 21
24.4869014213
  0
LINE
  5
2FD
100
AcDbEntity
  8
SUPERFICI
100
AcDbLine
 62
253
  6
CONTINUOUS
 10
9.8927234819
 20
-23.1226497308
 11
9.8927234819
 21
-22.3213883311
  0
LINE
  5
2FE
100
AcDbEntity
  8
SUPERFICI
100
AcDbLine
 62
253
  6
CONTINUOUS
 10
9.8927234819
 20
22.3213883311
 11
9.8927234819
 21
23.1226497308
  0
LINE
  5
2FF
100
AcDbEntity
  8
SUPERFICI
100
AcDbLine
 62
7
  6
CONTINUOUS
 10
10.1369014213
 20
-24.2369056521
 11
10.1369014213
 21
-23.8443375673
  0
LINE
  5
300
100
AcDbEntity
  8
SUPERFICI
100
AcDbLine
 62
7
  6
CONTINUOUS
 10
10.1369014213
 20
23.8443375673
 11
10.1369014213
 21
24.2369056521
  0
LINE
  5
301
100
AcDbEntity
  8
SUPERFICI
100
AcDbLine
 62
7
  6
CONTINUOUS
 10
10.1427192511
 20
-23.2669872981
 11
10.1427192511
 21
-22.3344140523
  0
LINE
  5
302
100
AcDbEntity
  8
SUPERFICI
100
AcDbLine
 62
7
  6
CONTINUOUS
 10
10.1427192511
 20
22.3344140523
 11
10.1427192511
 21
23.2669872981
  0
LINE
  5
303
100
AcDbEntity
  8
SUPERFICI
100
AcDbLine
 62
7
  6
CONTINUOUS
 10
10.15
 20
-23.2669872981
 11
10.15
 21
-23.8443375673
  0
LINE
  5
304
100
AcDbEntity
  8
SUPERFICI
100
AcDbLine
 62
7
  6
CONTINUOUS
 10
10.15
 20
23.2669872981
 11
10.15
 21
23.8443375673
  0
LINE
  5
305
100
AcDbEntity
  8
SUPERFICI
100
AcDbLine
 62
253
  6
CONTINUOUS
 10
10.5109844497
 20
9.5
 11
10.5109844497
 21
-9.5
  0
LINE
  5
306
100
AcDbEntity
  8
SUPERFICI
100
AcDbLine
 62
253
  6
CONTINUOUS
 10
10.5281693342
 20
21.2107174911
 11
10.5109844497
 21
9.5
  0
LINE
  5
307
100
AcDbEntity
  8
SUPERFICI
100
AcDbLine
 62
253
  6
CONTINUOUS
 10
9.8919962532
 20
-23.1226497308
 11
9.8869056521
 21
-23.6278312164
  0
LINE
  5
308
100
AcDbEntity
  8
SUPERFICI
100
AcDbLine
 62
253
  6
CONTINUOUS
 10
10.1427192511
 20
-23.2669872981
 11
10.1369014213
 21
-23.8443375673
  0
LINE
  5
309
100
AcDbEntity
  8
SUPERFICI
100
AcDbLine
 62
7
  6
CONTINUOUS
 10
11.1504363434
 20
18.5
 11
11.15
 21
18.491183651
  0
LINE
  5
30A
100
AcDbEntity
  8
SUPERFICI
100
AcDbLine
 62
253
  6
CONTINUOUS
 10
-10.5109844497
 20
9.5
 11
10.5109844497
 21
9.5
  0
LINE
  5
30B
100
AcDbEntity
  8
SUPERFICI
100
AcDbLine
 62
7
  6
CONTINUOUS
 10
11.1504363434
 20
21.900016923
 11
11.1504363434
 21
18.5
  0
LINE
  5
30C
100
AcDbEntity
  8
SUPERFICI
100
AcDbLine
 62
7
  6
CONTINUOUS
 10
11.1504363434
 20
-21.900016923
 11
11.1504363434
 21
-18.5
  0
LINE
  5
30D
100
AcDbEntity
  8
SUPERFICI
100
AcDbLine
 62
7
  6
CONTINUOUS
 10
11.1840373766
 20
18.1473460386
 11
11.1840373766
 21
-18.1473460386
  0
LINE
  5
30E
100
AcDbEntity
  8
SUPERFICI
100
AcDbLine
 62
7
  6
CONTINUOUS
 10
11.1840373766
 20
18.1473460386
 11
11.15
 21
18.491183651
  0
LINE
  5
30F
100
AcDbEntity
  8
SUPERFICI
100
AcDbLine
 62
7
  6
CONTINUOUS
 10
11.1840373766
 20
-18.1473460386
 11
11.15
 21
-18.491183651
  0
LINE
  5
310
100
AcDbEntity
  8
SUPERFICI
100
AcDbLine
 62
7
  6
CONTINUOUS
 10
-4.45
 20
24.0
 11
-4.4412732553
 21
23.9912732553
  0
LINE
  5
311
100
AcDbEntity
  8
SUPERFICI
100
AcDbLine
 62
253
  6
CONTINUOUS
 10
-10.5281693342
 20
21.2107174911
 11
10.5281693342
 21
21.2107174911
  0
LINE
  5
312
100
AcDbEntity
  8
SUPERFICI
100
AcDbLine
 62
253
  6
CONTINUOUS
 10
-10.5363425225
 20
22.0602279426
 11
10.5363425225
 21
22.0602279426
  0
LINE
  5
313
100
AcDbEntity
  8
SUPERFICI
100
AcDbLine
 62
7
  6
CONTINUOUS
 10
-9.8927234819
 20
22.3213883311
 11
-7.5072765181
 21
22.3213883311
  0
LINE
  5
314
100
AcDbEntity
  8
SUPERFICI
100
AcDbLine
 62
7
  6
CONTINUOUS
 10
-4.4412732553
 20
22.3213883311
 11
-3.5
 21
22.3213883311
  0
LINE
  5
315
100
AcDbEntity
  8
SUPERFICI
100
AcDbLine
 62
7
  6
CONTINUOUS
 10
3.5
 20
22.3213883311
 11
4.4412732553
 21
22.3213883311
  0
LINE
  5
316
100
AcDbEntity
  8
SUPERFICI
100
AcDbLine
 62
7
  6
CONTINUOUS
 10
7.5072765181
 20
22.3213883311
 11
9.8927234819
 21
22.3213883311
  0
LINE
  5
317
100
AcDbEntity
  8
SUPERFICI
100
AcDbLine
 62
7
  6
CONTINUOUS
 10
3.5
 20
22.3737961104
 11
1.2
 21
22.3737961104
  0
LINE
  5
318
100
AcDbEntity
  8
SUPERFICI
100
AcDbLine
 62
7
  6
CONTINUOUS
 10
-1.2
 20
22.3737961104
 11
-3.5
 21
22.3737961104
  0
LINE
  5
319
100
AcDbEntity
  8
SUPERFICI
100
AcDbLine
 62
7
  6
CONTINUOUS
 10
10.6504426895
 20
22.4
 11
10.15
 21
22.4
  0
LINE
  5
31A
100
AcDbEntity
  8
SUPERFICI
100
AcDbLine
 62
7
  6
CONTINUOUS
 10
7.25
 20
22.4
 11
4.45
 21
22.4
  0
LINE
  5
31B
100
AcDbEntity
  8
SUPERFICI
100
AcDbLine
 62
7
  6
CONTINUOUS
 10
-1.0
 20
22.4
 11
1.0
 21
22.4
  0
LINE
  5
31C
100
AcDbEntity
  8
SUPERFICI
100
AcDbLine
 62
7
  6
CONTINUOUS
 10
-4.45
 20
22.4
 11
-7.25
 21
22.4
  0
LINE
  5
31D
100
AcDbEntity
  8
SUPERFICI
100
AcDbLine
 62
7
  6
CONTINUOUS
 10
-10.15
 20
22.4
 11
-10.6504426895
 21
22.4
  0
LINE
  5
31E
100
AcDbEntity
  8
SUPERFICI
100
AcDbLine
 62
7
  6
CONTINUOUS
 10
-9.8927234819
 20
23.1226497308
 11
-7.5072765181
 21
23.1226497308
  0
LINE
  5
31F
100
AcDbEntity
  8
SUPERFICI
100
AcDbLine
 62
7
  6
CONTINUOUS
 10
9.8927234819
 20
23.1226497308
 11
7.5072765181
 21
23.1226497308
  0
LINE
  5
320
100
AcDbEntity
  8
SUPERFICI
100
AcDbLine
 62
253
  6
CONTINUOUS
 10
-9.8869056521
 20
23.6278312164
 11
-7.5130943479
 21
23.6278312164
  0
LINE
  5
321
100
AcDbEntity
  8
SUPERFICI
100
AcDbLine
 62
253
  6
CONTINUOUS
 10
7.5130943479
 20
23.6278312164
 11
9.8869056521
 21
23.6278312164
  0
LINE
  5
322
100
AcDbEntity
  8
SUPERFICI
100
AcDbLine
 62
253
  6
CONTINUOUS
 10
3.5
 20
23.7982512664
 11
1.0
 21
23.7982512664
  0
LINE
  5
323
100
AcDbEntity
  8
SUPERFICI
100
AcDbLine
 62
253
  6
CONTINUOUS
 10
-1.0
 20
23.7982512664
 11
-3.5
 21
23.7982512664
  0
LINE
  5
324
100
AcDbEntity
  8
SUPERFICI
100
AcDbLine
 62
253
  6
CONTINUOUS
 10
7.2630985787
 20
23.8443375673
 11
10.1369014213
 21
23.8443375673
  0
LINE
  5
325
100
AcDbEntity
  8
SUPERFICI
100
AcDbLine
 62
253
  6
CONTINUOUS
 10
-7.2630985787
 20
23.8443375673
 11
-10.1369014213
 21
23.8443375673
  0
LINE
  5
326
100
AcDbEntity
  8
SUPERFICI
100
AcDbLine
 62
7
  6
CONTINUOUS
 10
-4.4412732553
 20
23.9912732553
 11
-3.5
 21
23.9912732553
  0
LINE
  5
327
100
AcDbEntity
  8
SUPERFICI
100
AcDbLine
 62
7
  6
CONTINUOUS
 10
3.5
 20
23.9912732553
 11
4.4412732553
 21
23.9912732553
  0
LINE
  5
328
100
AcDbEntity
  8
SUPERFICI
100
AcDbLine
 62
7
  6
CONTINUOUS
 10
3.5
 20
23.9982478817
 11
1.2
 21
23.9982478817
  0
LINE
  5
329
100
AcDbEntity
  8
SUPERFICI
100
AcDbLine
 62
7
  6
CONTINUOUS
 10
-1.2
 20
23.9982478817
 11
-3.5
 21
23.9982478817
  0
LINE
  5
32A
100
AcDbEntity
  8
SUPERFICI
100
AcDbLine
 62
253
  6
CONTINUOUS
 10
7.2630985787
 20
24.2369056521
 11
10.1369014213
 21
24.2369056521
  0
LINE
  5
32B
100
AcDbEntity
  8
SUPERFICI
100
AcDbLine
 62
253
  6
CONTINUOUS
 10
-7.2630985787
 20
24.2369056521
 11
-10.1369014213
 21
24.2369056521
  0
LINE
  5
32C
100
AcDbEntity
  8
SUPERFICI
100
AcDbLine
 62
7
  6
CONTINUOUS
 10
9.8869056521
 20
24.4869014213
 11
7.5130943479
 21
24.4869014213
  0
LINE
  5
32D
100
AcDbEntity
  8
SUPERFICI
100
AcDbLine
 62
7
  6
CONTINUOUS
 10
-7.5130943479
 20
24.4869014213
 11
-9.8869056521
 21
24.4869014213
  0
LINE
  5
32E
100
AcDbEntity
  8
SUPERFICI
100
AcDbLine
 62
253
  6
CONTINUOUS
 10
-47.9676415705
 20
23.4104851482
 11
-47.2161871377
 21
23.8443375673
  0
LINE
  5
32F
100
AcDbEntity
  8
SUPERFICI
100
AcDbLine
 62
7
  6
CONTINUOUS
 10
-47.9676415705
 20
23.1226497308
 11
-47.0926415705
 21
23.6278312164
  0
LINE
  5
330
100
AcDbEntity
  8
SUPERFICI
100
AcDbLine
 62
7
  6
CONTINUOUS
 10
-47.9676415705
 20
-24.5
 11
-47.2161871377
 21
-24.495628166
  0
LINE
  5
331
100
AcDbEntity
  8
SUPERFICI
100
AcDbLine
 62
253
  6
CONTINUOUS
 10
-47.9676415705
 20
-24.2500042308
 11
-47.2161871377
 21
-24.2456323968
  0
LINE
  5
332
100
AcDbEntity
  8
SUPERFICI
100
AcDbLine
 62
7
  6
CONTINUOUS
 10
-40.4647327048
 20
-23.9563493531
 11
-46.9667698296
 21
-23.9941770985
  0
LINE
  5
333
100
AcDbEntity
  8
SUPERFICI
100
AcDbLine
 62
253
  6
CONTINUOUS
 10
-46.9676415705
 20
-24.2456323968
 11
-47.2161871377
 21
-24.2456323968
  0
LINE
  5
334
100
AcDbEntity
  8
SUPERFICI
100
AcDbLine
 62
253
  6
CONTINUOUS
 10
-50.4676415705
 20
-24.2369056521
 11
-50.2190960033
 21
-24.2369056521
  0
LINE
  5
335
100
AcDbEntity
  8
SUPERFICI
100
AcDbLine
 62
253
  6
CONTINUOUS
 10
-50.4676415705
 20
-23.8443375673
 11
-50.2190960033
 21
-23.8443375673
  0
LINE
  5
336
100
AcDbEntity
  8
SUPERFICI
100
AcDbLine
 62
253
  6
CONTINUOUS
 10
-46.9676415705
 20
-23.8443375673
 11
-47.2161871377
 21
-23.8443375673
  0
LINE
  5
337
100
AcDbEntity
  8
SUPERFICI
100
AcDbLine
 62
7
  6
CONTINUOUS
 10
-50.2190960033
 20
-24.4869014213
 11
-47.9676415705
 21
-24.5
  0
LINE
  5
338
100
AcDbEntity
  8
SUPERFICI
100
AcDbLine
 62
253
  6
CONTINUOUS
 10
-50.2190960033
 20
-24.2369056521
 11
-47.9676415705
 21
-24.2500042308
  0
LINE
  5
339
100
AcDbEntity
  8
SUPERFICI
100
AcDbLine
 62
253
  6
CONTINUOUS
 10
-47.2161871377
 20
-23.8443375673
 11
-47.9676415705
 21
-23.4104851482
  0
LINE
  5
33A
100
AcDbEntity
  8
SUPERFICI
100
AcDbLine
 62
7
  6
CONTINUOUS
 10
-47.0926415705
 20
-23.6278312164
 11
-47.9676415705
 21
-23.1226497308
  0
LINE
  5
33B
100
AcDbEntity
  8
SUPERFICI
100
AcDbLine
 62
7
  6
CONTINUOUS
 10
-47.9676413952
 20
-22.399999999
 11
-46.9676415705
 21
-22.3941821702
  0
LINE
  5
33C
100
AcDbEntity
  8
DRAFT
100
AcDbLine
 62
7
  6
CONTINUOUS
 10
-36.9618238391
 20
-22.3359700255
 11
-46.9676415705
 21
-22.3941821702
  0
LINE
  5
33D
100
AcDbEntity
  8
SUPERFICI
100
AcDbLine
 62
253
  6
CONTINUOUS
 10
-47.9676415705
 20
-21.900016923
 11
-46.9676415705
 21
-21.8941990932
  0
LINE
  5
33E
100
AcDbEntity
  8
SUPERFICI
100
AcDbLine
 62
7
  6
CONTINUOUS
 10
-54.4508786396
 20
-22.0602279426
 11
-47.9676415705
 21
-22.4
  0
LINE
  5
33F
100
AcDbEntity
  8
SUPERFICI
100
AcDbLine
 62
253
  6
CONTINUOUS
 10
-54.4334368647
 20
-21.5609131753
 11
-47.9676187271
 21
-21.8997723451
  0
LINE
  5
340
100
AcDbEntity
  8
DRAFT
100
AcDbLine
 62
7
  6
CONTINUOUS
 10
-45.9676415705
 20
-20.85
 11
-35.9676415705
 21
-20.85
  0
LINE
  5
341
100
AcDbEntity
  8
ASSI
100
AcDbLine
 62
7
  6
CONTINUOUS
 10
-45.9676415705
 20
-20.85
 11
-35.9676415705
 21
-20.85
  0
LINE
  5
342
100
AcDbEntity
  8
DRAFT
100
AcDbLine
 62
7
  6
CONTINUOUS
 10
-36.4589153673
 20
-21.4537354271
 11
-46.9676415705
 21
-21.4
  0
LINE
  5
343
100
AcDbEntity
  8
DRAFT
100
AcDbLine
 62
7
  6
CONTINUOUS
 10
-35.9676415705
 20
-20.9959955457
 11
-46.9676415705
 21
-20.9
  0
LINE
  5
344
100
AcDbEntity
  8
DRAFT
100
AcDbLine
 62
7
  6
CONTINUOUS
 10
-45.9694629636
 20
-19.7087109727
 11
-46.9693868111
 21
-19.6999847695
  0
LINE
  5
345
100
AcDbEntity
  8
RACCORDO
100
AcDbLine
 62
7
  6
CONTINUOUS
 10
-23.5501891641
 20
-19.3942317309
 11
-35.9676415705
 21
-19.6109791689
  0
LINE
  5
346
100
AcDbEntity
  8
ASSI
100
AcDbLine
 62
7
  6
CONTINUOUS
 10
-23.5501891641
 20
-19.3942317309
 11
-35.9676415705
 21
-19.6109791689
  0
LINE
  5
347
100
AcDbEntity
  8
RACCORDO
100
AcDbLine
 62
253
  6
CONTINUOUS
 10
-23.5501891641
 20
-19.1013831211
 11
-35.9676415705
 21
-19.3181305591
  0
LINE
  5
348
100
AcDbEntity
  8
ASSI
100
AcDbLine
 62
253
  6
CONTINUOUS
 10
-23.5501891641
 20
-19.1013831211
 11
-35.9676415705
 21
-19.3181305591
  0
LINE
  5
349
100
AcDbEntity
  8
RACCORDO
100
AcDbLine
 62
253
  6
CONTINUOUS
 10
-45.9676415705
 20
-19.0856972195
 11
-23.5501891641
 21
-18.9236182982
  0
LINE
  5
34A
100
AcDbEntity
  8
ASSI
100
AcDbLine
 62
253
  6
CONTINUOUS
 10
-45.9676415705
 20
-19.0856972195
 11
-23.5501891641
 21
-18.9236182982
  0
LINE
  5
34B
100
AcDbEntity
  8
SUPERFICI
100
AcDbLine
 62
7
  6
CONTINUOUS
 10
-46.9676415705
 20
-19.5
 11
-45.9676415705
 21
-19.5
  0
LINE
  5
34C
100
AcDbEntity
  8
SUPERFICI
100
AcDbLine
 62
7
  6
CONTINUOUS
 10
-46.9676415705
 20
-18.5082905244
 11
-45.9676415705
 21
-18.5170173922
  0
LINE
  5
34D
100
AcDbEntity
  8
SUPERFICI
100
AcDbLine
 62
7
  6
CONTINUOUS
 10
-45.9676415705
 20
-18.1473460386
 11
-47.9676415705
 21
-18.5
  0
LINE
  5
34E
100
AcDbEntity
  8
RACCORDO
100
AcDbLine
 62
253
  6
CONTINUOUS
 10
-45.9676415705
 20
-17.6716990487
 11
-23.5501891641
 21
-17.5096157267
  0
LINE
  5
34F
100
AcDbEntity
  8
ASSI
100
AcDbLine
 62
253
  6
CONTINUOUS
 10
-45.9676415705
 20
-17.6716990487
 11
-23.5501891641
 21
-17.5096157267
  0
LINE
  5
350
100
AcDbEntity
  8
RACCORDO
100
AcDbLine
 62
253
  6
CONTINUOUS
 10
-22.5676415705
 20
-17.509618074
 11
-23.5501891641
 21
-17.509618074
  0
LINE
  5
351
100
AcDbEntity
  8
ASSI
100
AcDbLine
 62
253
  6
CONTINUOUS
 10
-22.5676415705
 20
-17.509618074
 11
-23.5501891641
 21
-17.509618074
  0
LINE
  5
352
100
AcDbEntity
  8
ASSI
100
AcDbLine
 62
7
  6
CONTINUOUS
 10
-22.5676415705
 20
-17.1
 11
-30.0676415705
 21
-17.1
  0
LINE
  5
353
100
AcDbEntity
  8
0
100
AcDbLine
 62
253
  6
CONTINUOUS
 10
-37.3676415705
 20
-16.0
 11
-38.8674131132
 21
-16.0
  0
LINE
  5
354
100
AcDbEntity
  8
INCISIONI
100
AcDbLine
 62
253
  6
CONTINUOUS
 10
-43.3664963495
 20
14.166101
 11
-41.3195460129
 21
15.502999
  0
LINE
  5
355
100
AcDbEntity
  8
INCISIONI
100
AcDbLine
 62
253
  6
CONTINUOUS
 10
-43.3744129375
 20
-15.342748
 11
-41.379099868
 21
-14.790021
  0
LINE
  5
356
100
AcDbEntity
  8
0
100
AcDbLine
 62
253
  6
CONTINUOUS
 10
-38.8674131132
 20
-15.1428571045
 11
-37.3676415705
 21
-15.1428571045
  0
LINE
  5
357
100
AcDbEntity
  8
INCISIONI
100
AcDbLine
 62
253
  6
CONTINUOUS
 10
-41.379099868
 20
-14.790021
 11
-43.3744129375
 21
-14.22041
  0
LINE
  5
358
100
AcDbEntity
  8
INCISIONI
100
AcDbLine
 62
253
  6
CONTINUOUS
 10
-43.3744129375
 20
-13.615552
 11
-40.4756431326
 21
-14.547617
  0
LINE
  5
359
100
AcDbEntity
  8
INCISIONI
100
AcDbLine
 62
7
  6
CONTINUOUS
 10
-43.1641454572
 20
15.5030080115
 11
-42.6657164687
 21
16.001437
  0
LINE
  5
35A
100
AcDbEntity
  8
INCISIONI
100
AcDbLine
 62
7
  6
CONTINUOUS
 10
-42.324106705
 20
15.5030039076
 11
-41.8256736126
 21
16.001437
  0
LINE
  5
35B
100
AcDbEntity
  8
INCISIONI
100
AcDbLine
 62
7
  6
CONTINUOUS
 10
-43.3268577566
 20
13.66021
 11
-41.7938348339
 21
15.1932329227
  0
LINE
  5
35C
100
AcDbEntity
  8
INCISIONI
100
AcDbLine
 62
7
  6
CONTINUOUS
 10
-41.4840679528
 20
15.5029998037
 11
-40.9856307566
 21
16.001437
  0
LINE
  5
35D
100
AcDbEntity
  8
INCISIONI
100
AcDbLine
 62
253
  6
CONTINUOUS
 10
-40.4682853743
 20
15.484078
 11
-42.4928945179
 21
14.165656
  0
LINE
  5
35E
100
AcDbEntity
  8
0
100
AcDbLine
 62
253
  6
CONTINUOUS
 10
-37.3676415705
 20
-13.428571403
 11
-38.8674131132
 21
-13.428571403
  0
LINE
  5
35F
100
AcDbEntity
  8
INCISIONI
100
AcDbLine
 62
253
  6
CONTINUOUS
 10
-43.3745868845
 20
-13.390935
 11
-40.4756431326
 21
-13.390935
  0
LINE
  5
360
100
AcDbEntity
  8
ASSI
100
AcDbLine
 62
7
  6
CONTINUOUS
 10
-22.5676415705
 20
-12.9
 11
-30.0676415705
 21
-12.9
  0
LINE
  5
361
100
AcDbEntity
  8
INCISIONI
100
AcDbLine
 62
253
  6
CONTINUOUS
 10
-40.4756431326
 20
-12.785664
 11
-43.3745868845
 21
-12.785664
  0
LINE
  5
362
100
AcDbEntity
  8
0
100
AcDbLine
 62
253
  6
CONTINUOUS
 10
-38.6531600485
 20
-12.6785715818
 11
-37.5818946576
 21
-12.6785715818
  0
LINE
  5
363
100
AcDbEntity
  8
ASSI
100
AcDbLine
 62
7
  6
CONTINUOUS
 10
-22.5676415705
 20
-12.1
 11
-30.0676415705
 21
-12.1
  0
LINE
  5
364
100
AcDbEntity
  8
0
100
AcDbLine
 62
253
  6
CONTINUOUS
 10
-37.3676415705
 20
-12.0714285374
 11
-38.8674131132
 21
-12.0714285374
  0
LINE
  5
365
100
AcDbEntity
  8
INCISIONI
100
AcDbLine
 62
253
  6
CONTINUOUS
 10
-42.3684854227
 20
-11.750162
 11
-40.4756431326
 21
-11.880779
  0
LINE
  5
366
100
AcDbEntity
  8
INCISIONI
100
AcDbLine
 62
253
  6
CONTINUOUS
 10
-40.4756431326
 20
-12.459827
 11
-43.3744129375
 21
-12.198005
  0
LINE
  5
367
100
AcDbEntity
  8
0
100
AcDbLine
 62
253
  6
CONTINUOUS
 10
-37.3676415705
 20
-14.7142857015
 11
-38.8674131132
 21
-14.2857142091
  0
LINE
  5
368
100
AcDbEntity
  8
0
100
AcDbLine
 62
253
  6
CONTINUOUS
 10
-38.0104008095
 20
-15.5714285523
 11
-38.8674131132
 21
-15.1428571045
  0
LINE
  5
369
100
AcDbEntity
  8
SUPERFICI
100
AcDbLine
 62
7
  6
CONTINUOUS
 10
-50.4676415705
 20
-24.2369056521
 11
-50.4676415705
 21
-23.8443375673
  0
LINE
  5
36A
100
AcDbEntity
  8
SUPERFICI
100
AcDbLine
 62
7
  6
CONTINUOUS
 10
-50.4676415705
 20
23.8443375673
 11
-50.4676415705
 21
24.2369056521
  0
LINE
  5
36B
100
AcDbEntity
  8
SUPERFICI
100
AcDbLine
 62
253
  6
CONTINUOUS
 10
-50.2190960033
 20
-24.2369056521
 11
-50.2190960033
 21
-23.8443375673
  0
LINE
  5
36C
100
AcDbEntity
  8
SUPERFICI
100
AcDbLine
 62
253
  6
CONTINUOUS
 10
-50.2190960033
 20
23.8443375673
 11
-50.2190960033
 21
24.2369056521
  0
LINE
  5
36D
100
AcDbEntity
  8
INCISIONI
100
AcDbLine
 62
7
  6
CONTINUOUS
 10
-42.4868149005
 20
13.66021
 11
-41.9831374068
 21
14.1638874937
  0
LINE
  5
36E
100
AcDbEntity
  8
INCISIONI
100
AcDbLine
 62
7
  6
CONTINUOUS
 10
-41.0263718666
 20
15.120653034
 11
-40.4682853743
 21
15.6787395262
  0
LINE
  5
36F
100
AcDbEntity
  8
INCISIONI
100
AcDbLine
 62
7
  6
CONTINUOUS
 10
-43.4260335241
 20
11.8809485203
 11
-42.1751091154
 21
13.1318729291
  0
LINE
  5
370
100
AcDbEntity
  8
INCISIONI
100
AcDbLine
 62
7
  6
CONTINUOUS
 10
-41.6467720445
 20
13.66021
 11
-41.1459988453
 21
14.1609831992
  0
LINE
  5
371
100
AcDbEntity
  8
INCISIONI
100
AcDbLine
 62
253
  6
CONTINUOUS
 10
-38.9959649759
 20
15.9999991179
 11
-39.2673521913
 21
15.7285706758
  0
LINE
  5
372
100
AcDbEntity
  8
INCISIONI
100
AcDbLine
 62
7
  6
CONTINUOUS
 10
-43.3082535014
 20
11.158685687
 11
-42.9401361185
 21
11.5268030699
  0
LINE
  5
373
100
AcDbEntity
  8
INCISIONI
100
AcDbLine
 62
7
  6
CONTINUOUS
 10
-41.8392475912
 20
12.6276915972
 11
-41.3934906604
 21
13.073448528
  0
LINE
  5
374
100
AcDbEntity
  8
INCISIONI
100
AcDbLine
 62
7
  6
CONTINUOUS
 10
-40.8067291884
 20
13.66021
 11
-40.4682853743
 21
13.9986538141
  0
LINE
  5
375
100
AcDbEntity
  8
INCISIONI
100
AcDbLine
 62
253
  6
CONTINUOUS
 10
-38.9959649759
 20
14.4619038582
 11
-39.2673521913
 21
14.2357133389
  0
LINE
  5
376
100
AcDbEntity
  8
INCISIONI
100
AcDbLine
 62
253
  6
CONTINUOUS
 10
-38.9959649759
 20
11.5214277864
 11
-38.7245777606
 21
11.6571420074
  0
LINE
  5
377
100
AcDbEntity
  8
INCISIONI
100
AcDbLine
 62
253
  6
CONTINUOUS
 10
-40.4756431326
 20
-10.111193
 11
-42.3605948268
 21
-10.235548
  0
LINE
  5
378
100
AcDbEntity
  8
INCISIONI
100
AcDbLine
 62
253
  6
CONTINUOUS
 10
-41.76500729
 20
-10.994355
 11
-43.3744129375
 21
-10.389084
  0
LINE
  5
379
100
AcDbEntity
  8
INCISIONI
100
AcDbLine
 62
253
  6
CONTINUOUS
 10
-42.3605948268
 20
-10.235548
 11
-40.4756431326
 21
-10.955216
  0
LINE
  5
37A
100
AcDbEntity
  8
SUPERFICI
100
AcDbLine
 62
7
  6
CONTINUOUS
 10
-49.4676415705
 20
-23.1226497308
 11
-49.4676415705
 21
-22.3213883311
  0
LINE
  5
37B
100
AcDbEntity
  8
SUPERFICI
100
AcDbLine
 62
7
  6
CONTINUOUS
 10
-49.4676415705
 20
22.3213883311
 11
-49.4676415705
 21
23.1226497308
  0
LINE
  5
37C
100
AcDbEntity
  8
SUPERFICI
100
AcDbLine
 62
253
  6
CONTINUOUS
 10
-49.2190960033
 20
-23.2669872981
 11
-49.2190960033
 21
-22.3344140523
  0
LINE
  5
37D
100
AcDbEntity
  8
SUPERFICI
100
AcDbLine
 62
253
  6
CONTINUOUS
 10
-49.2190960033
 20
22.3344140523
 11
-49.2190960033
 21
23.2669872981
  0
LINE
  5
37E
100
AcDbEntity
  8
SUPERFICI
100
AcDbLine
 62
7
  6
CONTINUOUS
 10
-47.9676415705
 20
21.900016923
 11
-47.9676415705
 21
18.5
  0
LINE
  5
37F
100
AcDbEntity
  8
SUPERFICI
100
AcDbLine
 62
7
  6
CONTINUOUS
 10
-47.9676415705
 20
-21.900016923
 11
-47.9676415705
 21
-18.5
  0
LINE
  5
380
100
AcDbEntity
  8
SUPERFICI
100
AcDbLine
 62
7
  6
CONTINUOUS
 10
-47.9676415705
 20
-22.4
 11
-47.9676415705
 21
-24.2500042308
  0
LINE
  5
381
100
AcDbEntity
  8
SUPERFICI
100
AcDbLine
 62
7
  6
CONTINUOUS
 10
-47.9676415705
 20
22.4
 11
-47.9676415705
 21
24.2500042308
  0
LINE
  5
382
100
AcDbEntity
  8
INCISIONI
100
AcDbLine
 62
7
  6
CONTINUOUS
 10
-43.3664963495
 20
10.2603999829
 11
-43.3221791969
 21
10.3047171355
  0
LINE
  5
383
100
AcDbEntity
  8
INCISIONI
100
AcDbLine
 62
7
  6
CONTINUOUS
 10
-42.9388247765
 20
10.6880715558
 11
-42.5782338798
 21
11.0486624526
  0
LINE
  5
384
100
AcDbEntity
  8
INCISIONI
100
AcDbLine
 62
7
  6
CONTINUOUS
 10
-41.1989575138
 20
12.4279388186
 11
-40.8440919109
 21
12.7828044214
  0
LINE
  5
385
100
AcDbEntity
  8
INCISIONI
100
AcDbLine
 62
7
  6
CONTINUOUS
 10
-43.2492605782
 20
9.5375928981
 11
-42.9114974493
 21
9.875356027
  0
LINE
  5
386
100
AcDbEntity
  8
INCISIONI
100
AcDbLine
 62
7
  6
CONTINUOUS
 10
-42.3678262701
 20
10.4190272062
 11
-41.9032150311
 21
10.8836384452
  0
LINE
  5
387
100
AcDbEntity
  8
INCISIONI
100
AcDbLine
 62
7
  6
CONTINUOUS
 10
-40.8770759771
 20
11.9097774992
 11
-40.4991651805
 21
12.2876882959
  0
LINE
  5
388
100
AcDbEntity
  8
INCISIONI
100
AcDbLine
 62
253
  6
CONTINUOUS
 10
-38.1818032732
 20
14.5071422338
 11
-38.4531905452
 21
14.2357133389
  0
LINE
  5
389
100
AcDbEntity
  8
INCISIONI
100
AcDbLine
 62
7
  6
CONTINUOUS
 10
-42.8328044661
 20
9.1140061542
 11
-42.5008157018
 21
9.4459949185
  0
LINE
  5
38A
100
AcDbEntity
  8
INCISIONI
100
AcDbLine
 62
7
  6
CONTINUOUS
 10
-41.5457620543
 20
10.4010485659
 11
-40.4213111528
 21
11.5254994675
  0
LINE
  5
38B
100
AcDbEntity
  8
INCISIONI
100
AcDbLine
 62
7
  6
CONTINUOUS
 10
-43.2529297642
 20
7.853838
 11
-42.7351877602
 21
8.371580004
  0
LINE
  5
38C
100
AcDbEntity
  8
INCISIONI
100
AcDbLine
 62
7
  6
CONTINUOUS
 10
-42.416348354
 20
8.6904194103
 11
-41.52721778
 21
9.5795499843
  0
LINE
  5
38D
100
AcDbEntity
  8
INCISIONI
100
AcDbLine
 62
253
  6
CONTINUOUS
 10
-42.1739097059
 20
9.10422
 11
-40.4682853743
 21
10.357884
  0
LINE
  5
38E
100
AcDbEntity
  8
INCISIONI
100
AcDbLine
 62
253
  6
CONTINUOUS
 10
-40.4682853743
 20
9.706581
 11
-41.8179031738
 21
8.741819
  0
LINE
  5
38F
100
AcDbEntity
  8
INCISIONI
100
AcDbLine
 62
253
  6
CONTINUOUS
 10
-37.6390288142
 20
10.8428563416
 11
-37.9104160579
 21
10.7071420074
  0
LINE
  5
390
100
AcDbEntity
  8
INCISIONI
100
AcDbLine
 62
253
  6
CONTINUOUS
 10
-43.3744129375
 20
-9.790227
 11
-40.4756431326
 21
-9.519077
  0
LINE
  5
391
100
AcDbEntity
  8
SUPERFICI
100
AcDbLine
 62
253
  6
CONTINUOUS
 10
-55.8861998853
 20
-9.4905
 11
-56.3773834216
 21
-9.5
  0
LINE
  5
392
100
AcDbEntity
  8
0
100
AcDbLine
 62
253
  6
CONTINUOUS
 10
-37.3676415705
 20
-9.5357146263
 11
-38.8674131132
 21
-9.5357146263
  0
LINE
  5
393
100
AcDbEntity
  8
0
100
AcDbLine
 62
253
  6
CONTINUOUS
 10
-37.3676415705
 20
-8.8571429253
 11
-38.8674131132
 21
-8.8571429253
  0
LINE
  5
394
100
AcDbEntity
  8
0
100
AcDbLine
 62
253
  6
CONTINUOUS
 10
-37.3676415705
 20
-8.1071429253
 11
-38.8674131132
 21
-8.1071429253
  0
LINE
  5
395
100
AcDbEntity
  8
ASSI
100
AcDbLine
 62
7
  6
CONTINUOUS
 10
-22.5676415705
 20
-7.9
 11
-30.0676415705
 21
-7.9
  0
LINE
  5
396
100
AcDbEntity
  8
INCISIONI
100
AcDbLine
 62
253
  6
CONTINUOUS
 10
-42.5779046171
 20
-8.233126
 11
-41.502134382
 21
-8.5345
  0
LINE
  5
397
100
AcDbEntity
  8
INCISIONI
100
AcDbLine
 62
253
  6
CONTINUOUS
 10
-41.0543408154
 20
-8.658312
 11
-40.4756431326
 21
-8.825329
  0
LINE
  5
398
100
AcDbEntity
  8
INCISIONI
100
AcDbLine
 62
253
  6
CONTINUOUS
 10
-40.4756431326
 20
-9.424033
 11
-43.3744129375
 21
-8.514517
  0
LINE
  5
399
100
AcDbEntity
  8
SUPERFICI
100
AcDbLine
 62
253
  6
CONTINUOUS
 10
-47.2161871377
 20
24.2456323968
 11
-47.2161871377
 21
23.8443375673
  0
LINE
  5
39A
100
AcDbEntity
  8
SUPERFICI
100
AcDbLine
 62
253
  6
CONTINUOUS
 10
-47.2161871377
 20
-23.8443375673
 11
-47.2161871377
 21
-24.2456323968
  0
LINE
  5
39B
100
AcDbEntity
  8
SUPERFICI
100
AcDbLine
 62
7
  6
CONTINUOUS
 10
-46.9676415705
 20
24.2456323968
 11
-46.9676415705
 21
23.8443375673
  0
LINE
  5
39C
100
AcDbEntity
  8
SUPERFICI
100
AcDbLine
 62
7
  6
CONTINUOUS
 10
-46.9676415705
 20
22.3941821702
 11
-46.9676415705
 21
18.5082905244
  0
LINE
  5
39D
100
AcDbEntity
  8
SUPERFICI
100
AcDbLine
 62
7
  6
CONTINUOUS
 10
-46.9676415705
 20
-18.5082905244
 11
-46.9676415705
 21
-22.3941821702
  0
LINE
  5
39E
100
AcDbEntity
  8
SUPERFICI
100
AcDbLine
 62
7
  6
CONTINUOUS
 10
-46.9676415705
 20
-23.8443375673
 11
-46.9676415705
 21
-24.2456323968
  0
LINE
  5
39F
100
AcDbEntity
  8
RACCORDO
100
AcDbLine
 62
7
  6
CONTINUOUS
 10
-45.9676415705
 20
20.85
 11
-45.9676415705
 21
19.0856972195
  0
LINE
  5
3A0
100
AcDbEntity
  8
SUPERFICI
100
AcDbLine
 62
7
  6
CONTINUOUS
 10
-45.9676415705
 20
19.5
 11
-45.9676415705
 21
-19.5
  0
LINE
  5
3A1
100
AcDbEntity
  8
RACCORDO
100
AcDbLine
 62
7
  6
CONTINUOUS
 10
-45.9676415705
 20
-19.0856972195
 11
-45.9676415705
 21
-20.85
  0
LINE
  5
3A2
100
AcDbEntity
  8
ASSI
100
AcDbLine
 62
7
  6
CONTINUOUS
 10
-45.9676415705
 20
-20.85
 11
-45.9676415705
 21
-18.8541290373
  0
LINE
  5
3A3
100
AcDbEntity
  8
ASSI
100
AcDbLine
 62
7
  6
CONTINUOUS
 10
-45.9676415705
 20
18.8541290373
 11
-45.9676415705
 21
20.85
  0
LINE
  5
3A4
100
AcDbEntity
  8
INCISIONI
100
AcDbLine
 62
253
  6
CONTINUOUS
 10
-39.2673521913
 20
11.2499991179
 11
-38.9959649759
 21
11.5214277864
  0
LINE
  5
3A5
100
AcDbEntity
  8
INCISIONI
100
AcDbLine
 62
7
  6
CONTINUOUS
 10
-43.3664963495
 20
6.9002285587
 11
-43.0286179082
 21
7.238107
  0
LINE
  5
3A6
100
AcDbEntity
  8
INCISIONI
100
AcDbLine
 62
7
  6
CONTINUOUS
 10
-42.4128869082
 20
7.853838
 11
-41.6765346456
 21
8.5901902626
  0
LINE
  5
3A7
100
AcDbEntity
  8
INCISIONI
100
AcDbLine
 62
7
  6
CONTINUOUS
 10
-40.7904161892
 20
9.4763087189
 11
-40.4682853743
 21
9.7984395338
  0
LINE
  5
3A8
100
AcDbEntity
  8
INCISIONI
100
AcDbLine
 62
7
  6
CONTINUOUS
 10
-43.3664963495
 20
6.0601857026
 11
-43.3406690521
 21
6.086013
  0
LINE
  5
3A9
100
AcDbEntity
  8
INCISIONI
100
AcDbLine
 62
7
  6
CONTINUOUS
 10
-42.7063440521
 20
6.720338
 11
-42.1885750521
 21
7.238107
  0
LINE
  5
3AA
100
AcDbEntity
  8
INCISIONI
100
AcDbLine
 62
7
  6
CONTINUOUS
 10
-41.5728440521
 20
7.853838
 11
-41.0551028944
 21
8.3715791577
  0
LINE
  5
3AB
100
AcDbEntity
  8
INCISIONI
100
AcDbLine
 62
253
  6
CONTINUOUS
 10
-38.9959649759
 20
10.1642848969
 11
-39.2673521913
 21
9.8928563416
  0
LINE
  5
3AC
100
AcDbEntity
  8
INCISIONI
100
AcDbLine
 62
7
  6
CONTINUOUS
 10
-43.3664963495
 20
5.2201428466
 11
-42.9065180858
 21
5.6801211102
  0
LINE
  5
3AD
100
AcDbEntity
  8
INCISIONI
100
AcDbLine
 62
7
  6
CONTINUOUS
 10
-41.8663011961
 20
6.720338
 11
-41.3485321961
 21
7.238107
  0
LINE
  5
3AE
100
AcDbEntity
  8
INCISIONI
100
AcDbLine
 62
7
  6
CONTINUOUS
 10
-40.7328011961
 20
7.853838
 11
-40.4682853743
 21
8.1183538217
  0
LINE
  5
3AF
100
AcDbEntity
  8
INCISIONI
100
AcDbLine
 62
253
  6
CONTINUOUS
 10
-37.3676415705
 20
11.1142848969
 11
-37.6390288142
 21
10.8428563416
  0
LINE
  5
3B0
100
AcDbEntity
  8
INCISIONI
100
AcDbLine
 62
253
  6
CONTINUOUS
 10
-40.4756431326
 20
-7.677235
 11
-41.0543408154
 21
-7.834033
  0
LINE
  5
3B1
100
AcDbEntity
  8
INCISIONI
100
AcDbLine
 62
253
  6
CONTINUOUS
 10
-41.502134382
 20
-7.954996
 11
-42.5779046171
 21
-8.233126
  0
LINE
  5
3B2
100
AcDbEntity
  8
INCISIONI
100
AcDbLine
 62
253
  6
CONTINUOUS
 10
-43.3405456035
 20
-6.8615673444
 11
-40.4756427804
 21
-6.8615673444
  0
LINE
  5
3B3
100
AcDbEntity
  8
INCISIONI
100
AcDbLine
 62
253
  6
CONTINUOUS
 10
-42.084809754
 20
-6.2788012718
 11
-42.8805786568
 21
-6.2788012718
  0
LINE
  5
3B4
100
AcDbEntity
  8
INCISIONI
100
AcDbLine
 62
253
  6
CONTINUOUS
 10
-40.4756427804
 20
-6.2587313832
 11
-41.6100612608
 21
-6.2587313832
  0
LINE
  5
3B5
100
AcDbEntity
  8
0
100
AcDbLine
 62
253
  6
CONTINUOUS
 10
-37.3676415705
 20
-6.2142858505
 11
-38.8674131132
 21
-6.2142858505
  0
LINE
  5
3B6
100
AcDbEntity
  8
0
100
AcDbLine
 62
253
  6
CONTINUOUS
 10
-37.5818946576
 20
-12.6785715818
 11
-37.3676415705
 21
-12.8928571939
  0
LINE
  5
3B7
100
AcDbEntity
  8
INCISIONI
100
AcDbLine
 62
7
  6
CONTINUOUS
 10
-43.3664963495
 20
4.3800999905
 11
-42.9065213766
 21
4.8400749634
  0
LINE
  5
3B8
100
AcDbEntity
  8
INCISIONI
100
AcDbLine
 62
7
  6
CONTINUOUS
 10
-42.1858650158
 20
5.5607313242
 11
-41.76446934
 21
5.982127
  0
LINE
  5
3B9
100
AcDbEntity
  8
INCISIONI
100
AcDbLine
 62
7
  6
CONTINUOUS
 10
-41.02625834
 20
6.720338
 11
-40.50848934
 21
7.238107
  0
LINE
  5
3BA
100
AcDbEntity
  8
INCISIONI
100
AcDbLine
 62
7
  6
CONTINUOUS
 10
-42.869459484
 20
4.037094
 11
-42.351721484
 21
4.554832
  0
LINE
  5
3BB
100
AcDbEntity
  8
INCISIONI
100
AcDbLine
 62
7
  6
CONTINUOUS
 10
-42.1858708996
 20
4.7206825844
 11
-41.7258666003
 21
5.1806868837
  0
LINE
  5
3BC
100
AcDbEntity
  8
INCISIONI
100
AcDbLine
 62
7
  6
CONTINUOUS
 10
-40.9282639904
 20
5.9782894936
 11
-40.808887484
 21
6.097666
  0
LINE
  5
3BD
100
AcDbEntity
  8
INCISIONI
100
AcDbLine
 62
7
  6
CONTINUOUS
 10
-42.0294166279
 20
4.037094
 11
-41.5116786279
 21
4.554832
  0
LINE
  5
3BE
100
AcDbEntity
  8
INCISIONI
100
AcDbLine
 62
7
  6
CONTINUOUS
 10
-40.9282552814
 20
5.1382553465
 11
-40.4682853743
 21
5.5982252536
  0
LINE
  5
3BF
100
AcDbEntity
  8
INCISIONI
100
AcDbLine
 62
7
  6
CONTINUOUS
 10
-41.1893737719
 20
4.037094
 11
-40.4682853743
 21
4.7581823975
  0
LINE
  5
3C0
100
AcDbEntity
  8
0
100
AcDbLine
 62
253
  6
CONTINUOUS
 10
-25.6135992112
 20
15.6571424484
 11
-24.9708399722
 21
16.0857136726
  0
LINE
  5
3C1
100
AcDbEntity
  8
0
100
AcDbLine
 62
253
  6
CONTINUOUS
 10
-26.470611515
 20
11.8
 11
-24.9708399722
 21
12.55
  0
LINE
  5
3C2
100
AcDbEntity
  8
INCISIONI
100
AcDbLine
 62
253
  6
CONTINUOUS
 10
-41.8287629362
 20
-5.30544429
 11
-41.8458921401
 21
-5.30544429
  0
LINE
  5
3C3
100
AcDbEntity
  8
0
100
AcDbLine
 62
253
  6
CONTINUOUS
 10
-37.3676415705
 20
-5.1071429253
 11
-38.8674131132
 21
-5.1071429253
  0
LINE
  5
3C4
100
AcDbEntity
  8
0
100
AcDbLine
 62
253
  6
CONTINUOUS
 10
-24.9708399722
 20
-4.2714285523
 11
-26.470611515
 21
-4.2714285523
  0
LINE
  5
3C5
100
AcDbEntity
  8
RACCORDO
100
AcDbLine
 62
7
  6
CONTINUOUS
 10
-56.4536422295
 20
-3.7415168269
 11
-56.6703611892
 21
-3.7377339834
  0
LINE
  5
3C6
100
AcDbEntity
  8
INCISIONI
100
AcDbLine
 62
253
  6
CONTINUOUS
 10
-43.3745868845
 20
-12.785664
 11
-43.3745868845
 21
-13.390935
  0
LINE
  5
3C7
100
AcDbEntity
  8
INCISIONI
100
AcDbLine
 62
253
  6
CONTINUOUS
 10
-43.3744129375
 20
-16.00026
 11
-43.3744129375
 21
-15.342748
  0
LINE
  5
3C8
100
AcDbEntity
  8
INCISIONI
100
AcDbLine
 62
253
  6
CONTINUOUS
 10
-43.3744129375
 20
-14.22041
 11
-43.3744129375
 21
-13.615552
  0
LINE
  5
3C9
100
AcDbEntity
  8
INCISIONI
100
AcDbLine
 62
253
  6
CONTINUOUS
 10
-43.3744129375
 20
-12.198005
 11
-43.3744129375
 21
-11.593234
  0
LINE
  5
3CA
100
AcDbEntity
  8
INCISIONI
100
AcDbLine
 62
253
  6
CONTINUOUS
 10
-43.3744129375
 20
-10.389084
 11
-43.3744129375
 21
-9.790227
  0
LINE
  5
3CB
100
AcDbEntity
  8
INCISIONI
100
AcDbLine
 62
253
  6
CONTINUOUS
 10
-43.3744129375
 20
-8.514517
 11
-43.3744129375
 21
-7.92899
  0
LINE
  5
3CC
100
AcDbEntity
  8
INCISIONI
100
AcDbLine
 62
253
  6
CONTINUOUS
 10
-43.3664963495
 20
4.037094
 11
-43.3664963495
 21
6.086013
  0
LINE
  5
3CD
100
AcDbEntity
  8
INCISIONI
100
AcDbLine
 62
253
  6
CONTINUOUS
 10
-43.3664963495
 20
6.720338
 11
-43.3664963495
 21
7.238107
  0
LINE
  5
3CE
100
AcDbEntity
  8
INCISIONI
100
AcDbLine
 62
253
  6
CONTINUOUS
 10
-43.3664963495
 20
7.853838
 11
-43.3664963495
 21
8.371585
  0
LINE
  5
3CF
100
AcDbEntity
  8
INCISIONI
100
AcDbLine
 62
253
  6
CONTINUOUS
 10
-43.3664963495
 20
9.656836
 11
-43.3664963495
 21
10.35105
  0
LINE
  5
3D0
100
AcDbEntity
  8
INCISIONI
100
AcDbLine
 62
253
  6
CONTINUOUS
 10
-43.3664963495
 20
13.66021
 11
-43.3664963495
 21
14.166101
  0
LINE
  5
3D1
100
AcDbEntity
  8
INCISIONI
100
AcDbLine
 62
253
  6
CONTINUOUS
 10
-43.3664963495
 20
15.503009
 11
-43.3664963495
 21
16.001437
  0
LINE
  5
3D2
100
AcDbEntity
  8
INCISIONI
100
AcDbLine
 62
253
  6
CONTINUOUS
 10
-42.9065164958
 20
6.086013
 11
-42.906522494
 21
4.554832
  0
LINE
  5
3D3
100
AcDbEntity
  8
INCISIONI
100
AcDbLine
 62
253
  6
CONTINUOUS
 10
-42.1858720613
 20
4.554832
 11
-42.1858620643
 21
5.982127
  0
LINE
  5
3D4
100
AcDbEntity
  8
INCISIONI
100
AcDbLine
 62
253
  6
CONTINUOUS
 10
-42.084809754
 20
-5.9328946758
 11
-42.084809754
 21
-6.2788012718
  0
LINE
  5
3D5
100
AcDbEntity
  8
INCISIONI
100
AcDbLine
 62
253
  6
CONTINUOUS
 10
-41.7258722137
 20
5.982127
 11
-41.7258622167
 21
4.554832
  0
LINE
  5
3D6
100
AcDbEntity
  8
RACCORDO
100
AcDbLine
 62
253
  6
CONTINUOUS
 10
-56.6703611892
 20
-3.2378101356
 11
-57.1605642124
 21
-3.2705152887
  0
LINE
  5
3D7
100
AcDbEntity
  8
0
100
AcDbLine
 62
253
  6
CONTINUOUS
 10
-24.9708399722
 20
-3.4142857015
 11
-26.470611515
 21
-3.4142857015
  0
LINE
  5
3D8
100
AcDbEntity
  8
0
100
AcDbLine
 62
253
  6
CONTINUOUS
 10
-38.8674131132
 20
-2.9642853737
 11
-37.3676415705
 21
-2.9642853737
  0
LINE
  5
3D9
100
AcDbEntity
  8
0
100
AcDbLine
 62
253
  6
CONTINUOUS
 10
-24.9708399722
 20
-2.3428571939
 11
-26.470611515
 21
-2.3428571939
  0
LINE
  5
3DA
100
AcDbEntity
  8
RACCORDO
100
AcDbLine
 62
253
  6
CONTINUOUS
 10
-56.4567487692
 20
-3.2415387545
 11
-56.6703611892
 21
-3.2378101359
  0
LINE
  5
3DB
100
AcDbEntity
  8
0
100
AcDbLine
 62
253
  6
CONTINUOUS
 10
-37.3676415705
 20
-4.2499997616
 11
-38.8674131132
 21
-3.8214292526
  0
LINE
  5
3DC
100
AcDbEntity
  8
INCISIONI
100
AcDbLine
 62
253
  6
CONTINUOUS
 10
-41.6100612608
 20
-6.2587313832
 11
-41.6100612608
 21
-5.9341993273
  0
LINE
  5
3DD
100
AcDbEntity
  8
INCISIONI
100
AcDbLine
 62
253
  6
CONTINUOUS
 10
-41.502134382
 20
-8.5345
 11
-41.502134382
 21
-7.954996
  0
LINE
  5
3DE
100
AcDbEntity
  8
INCISIONI
100
AcDbLine
 62
253
  6
CONTINUOUS
 10
-41.0543408154
 20
-7.834033
 11
-41.0543408154
 21
-8.658312
  0
LINE
  5
3DF
100
AcDbEntity
  8
INCISIONI
100
AcDbLine
 62
253
  6
CONTINUOUS
 10
-40.9282492329
 20
4.554832
 11
-40.928265228
 21
6.097666
  0
LINE
  5
3E0
100
AcDbEntity
  8
INCISIONI
100
AcDbLine
 62
253
  6
CONTINUOUS
 10
-40.4756431326
 20
-7.039304
 11
-40.4756431326
 21
-7.677235
  0
LINE
  5
3E1
100
AcDbEntity
  8
INCISIONI
100
AcDbLine
 62
253
  6
CONTINUOUS
 10
-40.4756431326
 20
-8.825329
 11
-40.4756431326
 21
-9.424033
  0
LINE
  5
3E2
100
AcDbEntity
  8
INCISIONI
100
AcDbLine
 62
253
  6
CONTINUOUS
 10
-40.4756431326
 20
-9.519077
 11
-40.4756431326
 21
-10.111193
  0
LINE
  5
3E3
100
AcDbEntity
  8
INCISIONI
100
AcDbLine
 62
253
  6
CONTINUOUS
 10
-40.4756431326
 20
-10.955216
 11
-40.4756431326
 21
-11.040105
  0
LINE
  5
3E4
100
AcDbEntity
  8
INCISIONI
100
AcDbLine
 62
253
  6
CONTINUOUS
 10
-40.4756431326
 20
-11.880779
 11
-40.4756431326
 21
-12.459827
  0
LINE
  5
3E5
100
AcDbEntity
  8
INCISIONI
100
AcDbLine
 62
253
  6
CONTINUOUS
 10
-40.4756431326
 20
-14.547617
 11
-40.4756431326
 21
-15.081013
  0
LINE
  5
3E6
100
AcDbEntity
  8
INCISIONI
100
AcDbLine
 62
253
  6
CONTINUOUS
 10
-40.4756431326
 20
-13.390935
 11
-40.4756431326
 21
-12.785664
  0
LINE
  5
3E7
100
AcDbEntity
  8
INCISIONI
100
AcDbLine
 62
253
  6
CONTINUOUS
 10
-40.4756427804
 20
-6.8615673444
 11
-40.4756427804
 21
-6.2587313832
  0
LINE
  5
3E8
100
AcDbEntity
  8
INCISIONI
100
AcDbLine
 62
253
  6
CONTINUOUS
 10
-40.4756427804
 20
-5.3318417383
 11
-40.4756427804
 21
-4.7496410148
  0
LINE
  5
3E9
100
AcDbEntity
  8
INCISIONI
100
AcDbLine
 62
253
  6
CONTINUOUS
 10
-40.4682853743
 20
16.001437
 11
-40.4682853743
 21
15.484078
  0
LINE
  5
3EA
100
AcDbEntity
  8
INCISIONI
100
AcDbLine
 62
253
  6
CONTINUOUS
 10
-40.4682853743
 20
14.158632
 11
-40.4682853743
 21
13.66021
  0
LINE
  5
3EB
100
AcDbEntity
  8
INCISIONI
100
AcDbLine
 62
253
  6
CONTINUOUS
 10
-40.4682853743
 20
10.357884
 11
-40.4682853743
 21
9.706581
  0
LINE
  5
3EC
100
AcDbEntity
  8
INCISIONI
100
AcDbLine
 62
253
  6
CONTINUOUS
 10
-40.4682853743
 20
8.371585
 11
-40.4682853743
 21
7.853838
  0
LINE
  5
3ED
100
AcDbEntity
  8
INCISIONI
100
AcDbLine
 62
253
  6
CONTINUOUS
 10
-40.4682853743
 20
7.238107
 11
-40.4682853743
 21
6.720338
  0
LINE
  5
3EE
100
AcDbEntity
  8
INCISIONI
100
AcDbLine
 62
253
  6
CONTINUOUS
 10
-40.4682853743
 20
6.097666
 11
-40.4682853743
 21
4.037094
  0
LINE
  5
3EF
100
AcDbEntity
  8
SUPERFICI
100
AcDbLine
 62
7
  6
CONTINUOUS
 10
-40.4676415705
 20
-23.4413184673
 11
-40.4676415705
 21
-22.8586815327
  0
LINE
  5
3F0
100
AcDbEntity
  8
SUPERFICI
100
AcDbLine
 62
7
  6
CONTINUOUS
 10
-40.4676415705
 20
22.8586815327
 11
-40.4676415705
 21
23.4413184673
  0
LINE
  5
3F1
100
AcDbEntity
  8
SUPERFICI
100
AcDbLine
 62
253
  6
CONTINUOUS
 10
-40.4180485997
 20
-23.9538922731
 11
-40.4180485997
 21
-22.356077753
  0
LINE
  5
3F2
100
AcDbEntity
  8
SUPERFICI
100
AcDbLine
 62
253
  6
CONTINUOUS
 10
-40.4180485997
 20
22.356077753
 11
-40.4180485997
 21
23.9538922731
  0
LINE
  5
3F3
100
AcDbEntity
  8
SUPERFICI
100
AcDbLine
 62
7
  6
CONTINUOUS
 10
-39.9676415705
 20
-23.4563578147
 11
-39.9676415705
 21
-22.3534625321
  0
LINE
  5
3F4
100
AcDbEntity
  8
SUPERFICI
100
AcDbLine
 62
7
  6
CONTINUOUS
 10
-39.9676415705
 20
22.3534625321
 11
-39.9676415705
 21
23.4563578147
  0
LINE
  5
3F5
100
AcDbEntity
  8
0
100
AcDbLine
 62
253
  6
CONTINUOUS
 10
-26.470611515
 20
15.8714287758
 11
-26.2563584502
 21
16.0857136726
  0
LINE
  5
3F6
100
AcDbEntity
  8
0
100
AcDbLine
 62
253
  6
CONTINUOUS
 10
-26.470611515
 20
14.6928575516
 11
-26.2563584502
 21
14.9071424484
  0
LINE
  5
3F7
100
AcDbEntity
  8
0
100
AcDbLine
 62
253
  6
CONTINUOUS
 10
-26.470611515
 20
13.6214287758
 11
-26.3634849379
 21
13.7285712242
  0
LINE
  5
3F8
100
AcDbEntity
  8
0
100
AcDbLine
 62
253
  6
CONTINUOUS
 10
-38.2246539189
 20
-1.5714292526
 11
-37.3676415705
 21
-1.5714292526
  0
LINE
  5
3F9
100
AcDbEntity
  8
0
100
AcDbLine
 62
253
  6
CONTINUOUS
 10
-26.470611515
 20
-1.4857143879
 11
-24.9708399722
 21
-1.4857143879
  0
LINE
  5
3FA
100
AcDbEntity
  8
0
100
AcDbLine
 62
253
  6
CONTINUOUS
 10
-24.9708399722
 20
-1.0571428061
 11
-26.470611515
 21
-1.0571428061
  0
LINE
  5
3FB
100
AcDbEntity
  8
0
100
AcDbLine
 62
253
  6
CONTINUOUS
 10
-26.2563584502
 20
-0.3071428061
 11
-25.8278523207
 21
-0.3071428061
  0
LINE
  5
3FC
100
AcDbEntity
  8
0
100
AcDbLine
 62
253
  6
CONTINUOUS
 10
-24.9708399722
 20
0.1214284182
 11
-26.470611515
 21
0.1214284182
  0
LINE
  5
3FD
100
AcDbEntity
  8
0
100
AcDbLine
 62
253
  6
CONTINUOUS
 10
-38.2246539189
 20
-1.5714292526
 11
-38.8674131132
 21
-1.1428565979
  0
LINE
  5
3FE
100
AcDbEntity
  8
INCISIONI
100
AcDbLine
 62
253
  6
CONTINUOUS
 10
-39.2673521913
 20
15.7285706758
 11
-39.2673521913
 21
15.3214275599
  0
LINE
  5
3FF
100
AcDbEntity
  8
INCISIONI
100
AcDbLine
 62
253
  6
CONTINUOUS
 10
-39.2673521913
 20
14.2357133389
 11
-39.2673521913
 21
13.6928564548
  0
LINE
  5
400
100
AcDbEntity
  8
INCISIONI
100
AcDbLine
 62
253
  6
CONTINUOUS
 10
-39.2673521913
 20
9.8928563416
 11
-39.2673521913
 21
9.4857134804
  0
LINE
  5
401
100
AcDbEntity
  8
INCISIONI
100
AcDbLine
 62
253
  6
CONTINUOUS
 10
-39.2673521913
 20
11.1142848969
 11
-39.2673521913
 21
11.2499991179
  0
LINE
  5
402
100
AcDbEntity
  8
0
100
AcDbLine
 62
253
  6
CONTINUOUS
 10
-38.8674131132
 20
-13.428571403
 11
-38.8674131132
 21
-12.8928571939
  0
LINE
  5
403
100
AcDbEntity
  8
0
100
AcDbLine
 62
253
  6
CONTINUOUS
 10
-38.8674131132
 20
-12.0714285374
 11
-38.8674131132
 21
-11.4285713434
  0
LINE
  5
404
100
AcDbEntity
  8
0
100
AcDbLine
 62
253
  6
CONTINUOUS
 10
-38.8674131132
 20
-5.5357141495
 11
-38.8674131132
 21
-4.678571701
  0
LINE
  5
405
100
AcDbEntity
  8
INCISIONI
100
AcDbLine
 62
253
  6
CONTINUOUS
 10
-38.4531905452
 20
14.2357133389
 11
-38.4531905452
 21
13.9642848969
  0
LINE
  5
406
100
AcDbEntity
  8
0
100
AcDbLine
 62
253
  6
CONTINUOUS
 10
-38.2246539189
 20
-11.6428573132
 11
-38.2246539189
 21
-12.0714285374
  0
LINE
  5
407
100
AcDbEntity
  8
0
100
AcDbLine
 62
253
  6
CONTINUOUS
 10
-37.7961477447
 20
-14.5714285672
 11
-37.7961477447
 21
-13.9999999404
  0
LINE
  5
408
100
AcDbEntity
  8
0
100
AcDbLine
 62
253
  6
CONTINUOUS
 10
-37.7961477447
 20
-4.1071431637
 11
-37.7961477447
 21
-3.5357146263
  0
LINE
  5
409
100
AcDbEntity
  8
INCISIONI
100
AcDbLine
 62
253
  6
CONTINUOUS
 10
-37.7747224219
 20
13.1499991179
 11
-37.7747224219
 21
12.1999991179
  0
LINE
  5
40A
100
AcDbEntity
  8
0
100
AcDbLine
 62
253
  6
CONTINUOUS
 10
-25.3993461464
 20
13.7285712242
 11
-26.0421053854
 21
12.9785712242
  0
LINE
  5
40B
100
AcDbEntity
  8
0
100
AcDbLine
 62
253
  6
CONTINUOUS
 10
-24.9708399722
 20
14.3714287758
 11
-25.1850930593
 21
14.1571424484
  0
LINE
  5
40C
100
AcDbEntity
  8
0
100
AcDbLine
 62
253
  6
CONTINUOUS
 10
-25.0779665158
 20
12.9785712242
 11
-24.9708399722
 21
13.0857136726
  0
LINE
  5
40D
100
AcDbEntity
  8
0
100
AcDbLine
 62
253
  6
CONTINUOUS
 10
-38.8674131132
 20
-2.0000004768
 11
-38.2246539189
 21
-1.5714292526
  0
LINE
  5
40E
100
AcDbEntity
  8
0
100
AcDbLine
 62
253
  6
CONTINUOUS
 10
-26.470611515
 20
2.8
 11
-24.9708399722
 21
3.2285712242
  0
LINE
  5
40F
100
AcDbEntity
  8
0
100
AcDbLine
 62
253
  6
CONTINUOUS
 10
-24.9708399722
 20
1.1928571939
 11
-26.470611515
 21
1.1928571939
  0
LINE
  5
410
100
AcDbEntity
  8
0
100
AcDbLine
 62
253
  6
CONTINUOUS
 10
-26.2563584502
 20
1.9428568363
 11
-25.8278523207
 21
1.9428568363
  0
LINE
  5
411
100
AcDbEntity
  8
RACCORDO
100
AcDbLine
 62
253
  6
CONTINUOUS
 10
-56.6703611892
 20
3.2378101351
 11
-57.1605642124
 21
3.2705152887
  0
LINE
  5
412
100
AcDbEntity
  8
INCISIONI
100
AcDbLine
 62
253
  6
CONTINUOUS
 10
-37.3676415705
 20
15.9999991179
 11
-37.3676415705
 21
15.0499991179
  0
LINE
  5
413
100
AcDbEntity
  8
INCISIONI
100
AcDbLine
 62
253
  6
CONTINUOUS
 10
-37.3676415705
 20
11.2499991179
 11
-37.3676415705
 21
11.1142848969
  0
LINE
  5
414
100
AcDbEntity
  8
INCISIONI
100
AcDbLine
 62
253
  6
CONTINUOUS
 10
-37.3676415705
 20
10.1642848969
 11
-37.3676415705
 21
9.2142848969
  0
LINE
  5
415
100
AcDbEntity
  8
0
100
AcDbLine
 62
253
  6
CONTINUOUS
 10
-37.3676415705
 20
-12.8928571939
 11
-37.3676415705
 21
-13.428571403
  0
LINE
  5
416
100
AcDbEntity
  8
0
100
AcDbLine
 62
253
  6
CONTINUOUS
 10
-37.3676415705
 20
-12.0714285374
 11
-37.3676415705
 21
-11.4285713434
  0
LINE
  5
417
100
AcDbEntity
  8
0
100
AcDbLine
 62
253
  6
CONTINUOUS
 10
-37.3676415705
 20
-2.9642853737
 11
-37.3676415705
 21
-2.428571701
  0
LINE
  5
418
100
AcDbEntity
  8
INCISIONI
100
AcDbLine
 62
253
  6
CONTINUOUS
 10
-37.3676415705
 20
13.6928564548
 11
-37.3676415705
 21
14.3714275599
  0
LINE
  5
419
100
AcDbEntity
  8
DRAFT
100
AcDbLine
 62
253
  6
CONTINUOUS
 10
-36.4589153673
 20
21.4537354271
 11
-36.4589153673
 21
20.9917082642
  0
LINE
  5
41A
100
AcDbEntity
  8
DRAFT
100
AcDbLine
 62
253
  6
CONTINUOUS
 10
-36.4589153673
 20
-20.9917082642
 11
-36.4589153673
 21
-21.4537354271
  0
LINE
  5
41B
100
AcDbEntity
  8
SUPERFICI
100
AcDbLine
 62
7
  6
CONTINUOUS
 10
-35.9676415705
 20
21.3359869487
 11
-35.9676415705
 21
20.9959955457
  0
LINE
  5
41C
100
AcDbEntity
  8
DRAFT
100
AcDbLine
 62
7
  6
CONTINUOUS
 10
-35.9676415705
 20
-20.85
 11
-35.9676415705
 21
-21.3359869487
  0
LINE
  5
41D
100
AcDbEntity
  8
SUPERFICI
100
AcDbLine
 62
7
  6
CONTINUOUS
 10
-35.9676415705
 20
-20.9959955457
 11
-35.9676415705
 21
-21.3359869487
  0
LINE
  5
41E
100
AcDbEntity
  8
RACCORDO
100
AcDbLine
 62
7
  6
CONTINUOUS
 10
-35.9676415705
 20
-20.85
 11
-35.9676415705
 21
-19.3181305591
  0
LINE
  5
41F
100
AcDbEntity
  8
ASSI
100
AcDbLine
 62
7
  6
CONTINUOUS
 10
-35.9676415705
 20
-20.85
 11
-35.9676415705
 21
-19.3181305591
  0
LINE
  5
420
100
AcDbEntity
  8
RACCORDO
100
AcDbLine
 62
7
  6
CONTINUOUS
 10
-35.9676415705
 20
19.3181305591
 11
-35.9676415705
 21
20.85
  0
LINE
  5
421
100
AcDbEntity
  8
ASSI
100
AcDbLine
 62
7
  6
CONTINUOUS
 10
-35.9676415705
 20
19.3181305591
 11
-35.9676415705
 21
20.85
  0
LINE
  5
422
100
AcDbEntity
  8
DRAFT
100
AcDbLine
 62
7
  6
CONTINUOUS
 10
-35.9676415705
 20
20.85
 11
-35.9676415705
 21
21.3359869487
  0
LINE
  5
423
100
AcDbEntity
  8
0
100
AcDbLine
 62
253
  6
CONTINUOUS
 10
-26.470611515
 20
10.1928575516
 11
-26.3634849379
 21
10.3
  0
LINE
  5
424
100
AcDbEntity
  8
0
100
AcDbLine
 62
253
  6
CONTINUOUS
 10
-25.0779665158
 20
9.55
 11
-24.9708399722
 21
9.6571424484
  0
LINE
  5
425
100
AcDbEntity
  8
0
100
AcDbLine
 62
253
  6
CONTINUOUS
 10
-25.6135992112
 20
6.4428568363
 11
-24.9708399722
 21
6.8714287758
  0
LINE
  5
426
100
AcDbEntity
  8
0
100
AcDbLine
 62
253
  6
CONTINUOUS
 10
-38.8674131132
 20
-3.8214292526
 11
-37.3676415705
 21
-3.3928565979
  0
LINE
  5
427
100
AcDbEntity
  8
RACCORDO
100
AcDbLine
 62
253
  6
CONTINUOUS
 10
-56.4567487692
 20
3.2415387545
 11
-56.6703611892
 21
3.2378101359
  0
LINE
  5
428
100
AcDbEntity
  8
RACCORDO
100
AcDbLine
 62
7
  6
CONTINUOUS
 10
-56.4536424122
 20
3.7415168238
 11
-56.6703611892
 21
3.7377339834
  0
LINE
  5
429
100
AcDbEntity
  8
INCISIONI
100
AcDbLine
 62
253
  6
CONTINUOUS
 10
-40.4682853743
 20
4.037094
 11
-43.3664963495
 21
4.037094
  0
LINE
  5
42A
100
AcDbEntity
  8
0
100
AcDbLine
 62
253
  6
CONTINUOUS
 10
-24.9708399722
 20
4.0857143879
 11
-26.470611515
 21
4.0857143879
  0
LINE
  5
42B
100
AcDbEntity
  8
0
100
AcDbLine
 62
253
  6
CONTINUOUS
 10
-25.3993461464
 20
10.3
 11
-26.0421053854
 21
9.55
  0
LINE
  5
42C
100
AcDbEntity
  8
0
100
AcDbLine
 62
253
  6
CONTINUOUS
 10
-26.470611515
 20
6.6571431637
 11
-26.2563584502
 21
6.8714287758
  0
LINE
  5
42D
100
AcDbEntity
  8
INCISIONI
100
AcDbLine
 62
253
  6
CONTINUOUS
 10
-42.906522494
 20
4.554832
 11
-42.1858720613
 21
4.554832
  0
LINE
  5
42E
100
AcDbEntity
  8
INCISIONI
100
AcDbLine
 62
253
  6
CONTINUOUS
 10
-41.7258622167
 20
4.554832
 11
-40.9282492329
 21
4.554832
  0
LINE
  5
42F
100
AcDbEntity
  8
0
100
AcDbLine
 62
253
  6
CONTINUOUS
 10
-26.470611515
 20
4.9428568363
 11
-25.1850930593
 21
4.9428568363
  0
LINE
  5
430
100
AcDbEntity
  8
0
100
AcDbLine
 62
253
  6
CONTINUOUS
 10
-25.1850930593
 20
5.6928568363
 11
-26.470611515
 21
5.6928568363
  0
LINE
  5
431
100
AcDbEntity
  8
INCISIONI
100
AcDbLine
 62
253
  6
CONTINUOUS
 10
-42.1858620643
 20
5.982127
 11
-41.7258722137
 21
5.982127
  0
LINE
  5
432
100
AcDbEntity
  8
INCISIONI
100
AcDbLine
 62
253
  6
CONTINUOUS
 10
-43.3664963495
 20
6.086013
 11
-42.9065164958
 21
6.086013
  0
LINE
  5
433
100
AcDbEntity
  8
INCISIONI
100
AcDbLine
 62
253
  6
CONTINUOUS
 10
-40.928265228
 20
6.097666
 11
-40.4682853743
 21
6.097666
  0
LINE
  5
434
100
AcDbEntity
  8
0
100
AcDbLine
 62
253
  6
CONTINUOUS
 10
-24.9708399722
 20
6.1214287758
 11
-26.470611515
 21
6.1214287758
  0
LINE
  5
435
100
AcDbEntity
  8
0
100
AcDbLine
 62
253
  6
CONTINUOUS
 10
-25.6135992112
 20
-1.9142857909
 11
-26.470611515
 21
-1.4857143879
  0
LINE
  5
436
100
AcDbEntity
  8
INCISIONI
100
AcDbLine
 62
253
  6
CONTINUOUS
 10
-42.1028713499
 20
8.371575
 11
-43.3664963495
 21
9.656836
  0
LINE
  5
437
100
AcDbEntity
  8
INCISIONI
100
AcDbLine
 62
253
  6
CONTINUOUS
 10
-43.3664963495
 20
10.35105
 11
-42.1739097059
 21
9.10422
  0
LINE
  5
438
100
AcDbEntity
  8
INCISIONI
100
AcDbLine
 62
253
  6
CONTINUOUS
 10
-41.8179031738
 20
8.741819
 11
-41.4727123463
 21
8.371575
  0
LINE
  5
439
100
AcDbEntity
  8
0
100
AcDbLine
 62
253
  6
CONTINUOUS
 10
-32.8922281295
 20
14.1395
 11
-32.8922281295
 21
15.6
  0
LINE
  5
43A
100
AcDbEntity
  8
0
100
AcDbLine
 62
253
  6
CONTINUOUS
 10
-32.1424565694
 20
15.6
 11
-32.1424565694
 21
14.1395
  0
LINE
  5
43B
100
AcDbEntity
  8
0
100
AcDbLine
 62
253
  6
CONTINUOUS
 10
-25.1850930593
 20
4.9428568363
 11
-24.9708399722
 21
5.1571431637
  0
LINE
  5
43C
100
AcDbEntity
  8
0
100
AcDbLine
 62
253
  6
CONTINUOUS
 10
-25.6135992112
 20
1.5142856121
 11
-24.9708399722
 21
1.9428568363
  0
LINE
  5
43D
100
AcDbEntity
  8
0
100
AcDbLine
 62
253
  6
CONTINUOUS
 10
-26.470611515
 20
-2.3428571939
 11
-25.6135992112
 21
-1.9142857909
  0
LINE
  5
43E
100
AcDbEntity
  8
INCISIONI
100
AcDbLine
 62
253
  6
CONTINUOUS
 10
-43.3744129375
 20
-7.92899
 11
-40.4756431326
 21
-7.039304
  0
LINE
  5
43F
100
AcDbEntity
  8
INCISIONI
100
AcDbLine
 62
253
  6
CONTINUOUS
 10
-40.4682853743
 20
6.720338
 11
-43.3664963495
 21
6.720338
  0
LINE
  5
440
100
AcDbEntity
  8
0
100
AcDbLine
 62
253
  6
CONTINUOUS
 10
-26.2563584502
 20
6.8714287758
 11
-25.8278523207
 21
6.8714287758
  0
LINE
  5
441
100
AcDbEntity
  8
INCISIONI
100
AcDbLine
 62
253
  6
CONTINUOUS
 10
-43.3664963495
 20
7.238107
 11
-40.4682853743
 21
7.238107
  0
LINE
  5
442
100
AcDbEntity
  8
0
100
AcDbLine
 62
253
  6
CONTINUOUS
 10
-24.9708399722
 20
7.3
 11
-26.470611515
 21
7.3
  0
LINE
  5
443
100
AcDbEntity
  8
INCISIONI
100
AcDbLine
 62
253
  6
CONTINUOUS
 10
-40.4682853743
 20
7.853838
 11
-43.3664963495
 21
7.853838
  0
LINE
  5
444
100
AcDbEntity
  8
0
100
AcDbLine
 62
253
  6
CONTINUOUS
 10
-24.9708399722
 20
2.3714287758
 11
-26.470611515
 21
2.8
  0
LINE
  5
445
100
AcDbEntity
  8
INCISIONI
100
AcDbLine
 62
253
  6
CONTINUOUS
 10
-39.2673521913
 20
9.4857134804
 11
-38.8602713116
 21
9.2142848969
  0
LINE
  5
446
100
AcDbEntity
  8
0
100
AcDbLine
 62
7
  6
CONTINUOUS
 10
-30.3176415705
 20
-16.9912871832
 11
-30.3176415705
 21
-13.1085815459
  0
LINE
  5
447
100
AcDbEntity
  8
0
100
AcDbLine
 62
7
  6
CONTINUOUS
 10
-30.3176415705
 20
-11.9912871832
 11
-30.3176415705
 21
-8.1085815459
  0
LINE
  5
448
100
AcDbEntity
  8
0
100
AcDbLine
 62
253
  6
CONTINUOUS
 10
-26.470611515
 20
1.7285712242
 11
-26.2563584502
 21
1.9428568363
  0
LINE
  5
449
100
AcDbEntity
  8
0
100
AcDbLine
 62
253
  6
CONTINUOUS
 10
-38.8674131132
 20
-12.8928571939
 11
-38.6531600485
 21
-12.6785715818
  0
LINE
  5
44A
100
AcDbEntity
  8
0
100
AcDbLine
 62
253
  6
CONTINUOUS
 10
-26.470611515
 20
-0.5214284182
 11
-26.2563584502
 21
-0.3071428061
  0
LINE
  5
44B
100
AcDbEntity
  8
0
100
AcDbLine
 62
253
  6
CONTINUOUS
 10
-38.8674131132
 20
-8.8571429253
 11
-37.3676415705
 21
-8.1071429253
  0
LINE
  5
44C
100
AcDbEntity
  8
INCISIONI
100
AcDbLine
 62
253
  6
CONTINUOUS
 10
-40.4756431326
 20
-11.040105
 11
-42.3684854227
 21
-11.750162
  0
LINE
  5
44D
100
AcDbEntity
  8
INCISIONI
100
AcDbLine
 62
253
  6
CONTINUOUS
 10
-43.3744129375
 20
-11.593234
 11
-41.76500729
 21
-10.994355
  0
LINE
  5
44E
100
AcDbEntity
  8
INCISIONI
100
AcDbLine
 62
253
  6
CONTINUOUS
 10
-43.3664963495
 20
8.371585
 11
-42.1028713499
 21
8.371575
  0
LINE
  5
44F
100
AcDbEntity
  8
INCISIONI
100
AcDbLine
 62
253
  6
CONTINUOUS
 10
-41.4727123463
 20
8.371575
 11
-40.4682853743
 21
8.371585
  0
LINE
  5
450
100
AcDbEntity
  8
0
100
AcDbLine
 62
253
  6
CONTINUOUS
 10
-26.0421053854
 20
9.55
 11
-26.2563584502
 21
9.55
  0
LINE
  5
451
100
AcDbEntity
  8
INCISIONI
100
AcDbLine
 62
253
  6
CONTINUOUS
 10
-38.7245777606
 20
10.1642848969
 11
-38.9959649759
 21
10.1642848969
  0
LINE
  5
452
100
AcDbEntity
  8
SUPERFICI
100
AcDbLine
 62
253
  6
CONTINUOUS
 10
-55.8861998853
 20
9.4905
 11
-56.3773834238
 21
9.5
  0
LINE
  5
453
100
AcDbEntity
  8
INCISIONI
100
AcDbLine
 62
253
  6
CONTINUOUS
 10
-38.7245777606
 20
10.7071420074
 11
-38.9959649759
 21
10.8428563416
  0
LINE
  5
454
100
AcDbEntity
  8
INCISIONI
100
AcDbLine
 62
253
  6
CONTINUOUS
 10
-37.3676415705
 20
9.2142848969
 11
-38.7245777606
 21
10.1642848969
  0
LINE
  5
455
100
AcDbEntity
  8
INCISIONI
100
AcDbLine
 62
253
  6
CONTINUOUS
 10
-38.9959649759
 20
10.8428563416
 11
-39.2673521913
 21
11.1142848969
  0
LINE
  5
456
100
AcDbEntity
  8
0
100
AcDbLine
 62
253
  6
CONTINUOUS
 10
-25.8278523207
 20
-0.3071428061
 11
-25.6135992112
 21
-0.5214284182
  0
LINE
  5
457
100
AcDbEntity
  8
INCISIONI
100
AcDbLine
 62
253
  6
CONTINUOUS
 10
-37.6390288142
 20
11.5214277864
 11
-37.3676415705
 21
11.2499991179
  0
LINE
  5
458
100
AcDbEntity
  8
INCISIONI
100
AcDbLine
 62
253
  6
CONTINUOUS
 10
-38.4531905452
 20
14.2357133389
 11
-38.5888840963
 21
14.4619038582
  0
LINE
  5
459
100
AcDbEntity
  8
0
100
AcDbLine
 62
7
  6
CONTINUOUS
 10
-29.4176415705
 20
-8.101282473
 11
-29.4176415705
 21
-11.998717527
  0
LINE
  5
45A
100
AcDbEntity
  8
0
100
AcDbLine
 62
7
  6
CONTINUOUS
 10
-29.4176415705
 20
-13.101282473
 11
-29.4176415705
 21
-16.998717527
  0
LINE
  5
45B
100
AcDbEntity
  8
0
100
AcDbLine
 62
253
  6
CONTINUOUS
 10
-25.1850930593
 20
10.3
 11
-25.3993461464
 21
10.3
  0
LINE
  5
45C
100
AcDbEntity
  8
INCISIONI
100
AcDbLine
 62
253
  6
CONTINUOUS
 10
-37.9104160579
 20
10.7071420074
 11
-38.7245777606
 21
10.7071420074
  0
LINE
  5
45D
100
AcDbEntity
  8
0
100
AcDbLine
 62
253
  6
CONTINUOUS
 10
-24.9708399722
 20
10.7285712242
 11
-26.470611515
 21
10.7285712242
  0
LINE
  5
45E
100
AcDbEntity
  8
0
100
AcDbLine
 62
253
  6
CONTINUOUS
 10
-35.0646062509
 20
11.61489
 11
-34.3140149405
 21
11.61489
  0
LINE
  5
45F
100
AcDbEntity
  8
0
100
AcDbLine
 62
253
  6
CONTINUOUS
 10
-30.7206697584
 20
11.61489
 11
-29.970078448
 21
11.61489
  0
LINE
  5
460
100
AcDbEntity
  8
INCISIONI
100
AcDbLine
 62
253
  6
CONTINUOUS
 10
-38.7245777606
 20
11.6571420074
 11
-37.9104160579
 21
11.6571420074
  0
LINE
  5
461
100
AcDbEntity
  8
0
100
AcDbLine
 62
253
  6
CONTINUOUS
 10
-24.9708399722
 20
11.8
 11
-26.470611515
 21
11.8
  0
LINE
  5
462
100
AcDbEntity
  8
INCISIONI
100
AcDbLine
 62
253
  6
CONTINUOUS
 10
-37.9104160579
 20
11.6571420074
 11
-37.6390288142
 21
11.5214277864
  0
LINE
  5
463
100
AcDbEntity
  8
0
100
AcDbLine
 62
253
  6
CONTINUOUS
 10
-25.8278523207
 20
1.9428568363
 11
-25.6135992112
 21
1.7285712242
  0
LINE
  5
464
100
AcDbEntity
  8
INCISIONI
100
AcDbLine
 62
253
  6
CONTINUOUS
 10
-37.3676415705
 20
14.3714275599
 11
-37.5033351923
 21
14.5071422338
  0
LINE
  5
465
100
AcDbEntity
  8
0
100
AcDbLine
 62
7
  6
CONTINUOUS
 10
-27.0676415705
 20
-7.9
 11
-27.0676415705
 21
-12.1
  0
LINE
  5
466
100
AcDbEntity
  8
0
100
AcDbLine
 62
7
  6
CONTINUOUS
 10
-27.0676415705
 20
-12.9
 11
-27.0676415705
 21
-17.1
  0
LINE
  5
467
100
AcDbEntity
  8
0
100
AcDbLine
 62
253
  6
CONTINUOUS
 10
-26.470611515
 20
-4.7
 11
-26.470611515
 21
-3.8428571045
  0
LINE
  5
468
100
AcDbEntity
  8
0
100
AcDbLine
 62
253
  6
CONTINUOUS
 10
-26.470611515
 20
-3.4142857015
 11
-26.470611515
 21
-2.771428597
  0
LINE
  5
469
100
AcDbEntity
  8
0
100
AcDbLine
 62
253
  6
CONTINUOUS
 10
-26.470611515
 20
-1.0571428061
 11
-26.470611515
 21
-0.5214284182
  0
LINE
  5
46A
100
AcDbEntity
  8
0
100
AcDbLine
 62
253
  6
CONTINUOUS
 10
-26.470611515
 20
0.1214284182
 11
-26.470611515
 21
0.7642856121
  0
LINE
  5
46B
100
AcDbEntity
  8
0
100
AcDbLine
 62
253
  6
CONTINUOUS
 10
-26.470611515
 20
1.1928571939
 11
-26.470611515
 21
1.7285712242
  0
LINE
  5
46C
100
AcDbEntity
  8
0
100
AcDbLine
 62
253
  6
CONTINUOUS
 10
-26.470611515
 20
3.6571431637
 11
-26.470611515
 21
4.5142856121
  0
LINE
  5
46D
100
AcDbEntity
  8
0
100
AcDbLine
 62
253
  6
CONTINUOUS
 10
-26.470611515
 20
6.1214287758
 11
-26.470611515
 21
6.6571431637
  0
LINE
  5
46E
100
AcDbEntity
  8
0
100
AcDbLine
 62
253
  6
CONTINUOUS
 10
-26.470611515
 20
7.3
 11
-26.470611515
 21
7.9428575516
  0
LINE
  5
46F
100
AcDbEntity
  8
0
100
AcDbLine
 62
253
  6
CONTINUOUS
 10
-26.470611515
 20
9.7642863274
 11
-26.470611515
 21
10.1928575516
  0
LINE
  5
470
100
AcDbEntity
  8
0
100
AcDbLine
 62
253
  6
CONTINUOUS
 10
-26.470611515
 20
10.7285712242
 11
-26.470611515
 21
11.3714287758
  0
LINE
  5
471
100
AcDbEntity
  8
0
100
AcDbLine
 62
253
  6
CONTINUOUS
 10
-26.470611515
 20
13.1928575516
 11
-26.470611515
 21
13.6214287758
  0
LINE
  5
472
100
AcDbEntity
  8
0
100
AcDbLine
 62
253
  6
CONTINUOUS
 10
-26.470611515
 20
14.3714287758
 11
-26.470611515
 21
14.6928575516
  0
LINE
  5
473
100
AcDbEntity
  8
0
100
AcDbLine
 62
253
  6
CONTINUOUS
 10
-26.470611515
 20
15.3357136726
 11
-26.470611515
 21
15.8714287758
  0
LINE
  5
474
100
AcDbEntity
  8
0
100
AcDbLine
 62
253
  6
CONTINUOUS
 10
-25.8278523207
 20
11.1571424484
 11
-25.8278523207
 21
10.7285712242
  0
LINE
  5
475
100
AcDbEntity
  8
0
100
AcDbLine
 62
253
  6
CONTINUOUS
 10
-25.8278523207
 20
7.7285712242
 11
-25.8278523207
 21
7.3
  0
LINE
  5
476
100
AcDbEntity
  8
0
100
AcDbLine
 62
253
  6
CONTINUOUS
 10
-25.8278523207
 20
0.55
 11
-25.8278523207
 21
0.1214284182
  0
LINE
  5
477
100
AcDbEntity
  8
0
100
AcDbLine
 62
253
  6
CONTINUOUS
 10
-25.8278523207
 20
-2.9857142091
 11
-25.8278523207
 21
-3.4142857015
  0
LINE
  5
478
100
AcDbEntity
  8
INCISIONI
100
AcDbLine
 62
253
  6
CONTINUOUS
 10
-40.4756431326
 20
-15.081013
 11
-43.3744129375
 21
-16.00026
  0
LINE
  5
479
100
AcDbEntity
  8
0
100
AcDbLine
 62
253
  6
CONTINUOUS
 10
-38.8674131132
 20
-14.2857142091
 11
-37.3676415705
 21
-13.8571428061
  0
LINE
  5
47A
100
AcDbEntity
  8
0
100
AcDbLine
 62
253
  6
CONTINUOUS
 10
-24.9708399722
 20
12.55
 11
-26.470611515
 21
12.55
  0
LINE
  5
47B
100
AcDbEntity
  8
INCISIONI
100
AcDbLine
 62
253
  6
CONTINUOUS
 10
-37.3676415705
 20
12.8333325267
 11
-38.3174968809
 21
12.8333325267
  0
LINE
  5
47C
100
AcDbEntity
  8
0
100
AcDbLine
 62
253
  6
CONTINUOUS
 10
-26.0421053854
 20
12.9785712242
 11
-26.2563584502
 21
12.9785712242
  0
LINE
  5
47D
100
AcDbEntity
  8
INCISIONI
100
AcDbLine
 62
253
  6
CONTINUOUS
 10
-40.4682853743
 20
13.66021
 11
-43.3664963495
 21
13.66021
  0
LINE
  5
47E
100
AcDbEntity
  8
0
100
AcDbLine
 62
253
  6
CONTINUOUS
 10
-25.1850930593
 20
13.7285712242
 11
-25.3993461464
 21
13.7285712242
  0
LINE
  5
47F
100
AcDbEntity
  8
0
100
AcDbLine
 62
253
  6
CONTINUOUS
 10
-25.1850930593
 20
14.1571424484
 11
-26.2563584502
 21
14.1571424484
  0
LINE
  5
480
100
AcDbEntity
  8
INCISIONI
100
AcDbLine
 62
253
  6
CONTINUOUS
 10
-42.4928945179
 20
14.165656
 11
-40.4682853743
 21
14.158632
  0
LINE
  5
481
100
AcDbEntity
  8
INCISIONI
100
AcDbLine
 62
253
  6
CONTINUOUS
 10
-37.7747224219
 20
12.1999991179
 11
-39.2673521913
 21
12.6071420074
  0
LINE
  5
482
100
AcDbEntity
  8
INCISIONI
100
AcDbLine
 62
253
  6
CONTINUOUS
 10
-39.2673521913
 20
15.3214275599
 11
-38.8602713116
 21
15.0499991179
  0
LINE
  5
483
100
AcDbEntity
  8
INCISIONI
100
AcDbLine
 62
253
  6
CONTINUOUS
 10
-37.3676415705
 20
15.0499991179
 11
-38.7245777606
 21
15.9999991179
  0
LINE
  5
484
100
AcDbEntity
  8
0
100
AcDbLine
 62
253
  6
CONTINUOUS
 10
-25.6135992112
 20
15.8714287758
 11
-25.6135992112
 21
15.3357136726
  0
LINE
  5
485
100
AcDbEntity
  8
0
100
AcDbLine
 62
253
  6
CONTINUOUS
 10
-25.6135992112
 20
6.6571431637
 11
-25.6135992112
 21
6.1214287758
  0
LINE
  5
486
100
AcDbEntity
  8
0
100
AcDbLine
 62
253
  6
CONTINUOUS
 10
-25.6135992112
 20
1.7285712242
 11
-25.6135992112
 21
1.1928571939
  0
LINE
  5
487
100
AcDbEntity
  8
0
100
AcDbLine
 62
253
  6
CONTINUOUS
 10
-25.6135992112
 20
-0.5214284182
 11
-25.6135992112
 21
-1.0571428061
  0
LINE
  5
488
100
AcDbEntity
  8
0
100
AcDbLine
 62
253
  6
CONTINUOUS
 10
-25.3993461464
 20
2.5142853737
 11
-25.3993461464
 21
3.0857146263
  0
LINE
  5
489
100
AcDbEntity
  8
0
100
AcDbLine
 62
253
  6
CONTINUOUS
 10
-24.9708399722
 20
14.6928575516
 11
-24.9708399722
 21
14.3714287758
  0
LINE
  5
48A
100
AcDbEntity
  8
0
100
AcDbLine
 62
253
  6
CONTINUOUS
 10
-24.9708399722
 20
-3.4142857015
 11
-24.9708399722
 21
-2.771428597
  0
LINE
  5
48B
100
AcDbEntity
  8
0
100
AcDbLine
 62
253
  6
CONTINUOUS
 10
-24.9708399722
 20
0.1214284182
 11
-24.9708399722
 21
0.7642856121
  0
LINE
  5
48C
100
AcDbEntity
  8
0
100
AcDbLine
 62
253
  6
CONTINUOUS
 10
-24.9708399722
 20
5.1571431637
 11
-24.9708399722
 21
5.4785712242
  0
LINE
  5
48D
100
AcDbEntity
  8
0
100
AcDbLine
 62
253
  6
CONTINUOUS
 10
-24.9708399722
 20
7.3
 11
-24.9708399722
 21
7.9428575516
  0
LINE
  5
48E
100
AcDbEntity
  8
0
100
AcDbLine
 62
253
  6
CONTINUOUS
 10
-24.9708399722
 20
9.6571424484
 11
-24.9708399722
 21
10.0857136726
  0
LINE
  5
48F
100
AcDbEntity
  8
0
100
AcDbLine
 62
253
  6
CONTINUOUS
 10
-24.9708399722
 20
10.7285712242
 11
-24.9708399722
 21
11.3714287758
  0
LINE
  5
490
100
AcDbEntity
  8
0
100
AcDbLine
 62
253
  6
CONTINUOUS
 10
-24.9708399722
 20
13.0857136726
 11
-24.9708399722
 21
13.5142863274
  0
LINE
  5
491
100
AcDbEntity
  8
0
100
AcDbLine
 62
7
  6
CONTINUOUS
 10
-24.9676415705
 20
-7.9
 11
-24.9676415705
 21
-12.1
  0
LINE
  5
492
100
AcDbEntity
  8
0
100
AcDbLine
 62
7
  6
CONTINUOUS
 10
-24.9676415705
 20
-12.9
 11
-24.9676415705
 21
-17.1
  0
LINE
  5
493
100
AcDbEntity
  8
0
100
AcDbLine
 62
7
  6
CONTINUOUS
 10
-24.5676415705
 20
-7.9
 11
-24.5676415705
 21
-12.1
  0
LINE
  5
494
100
AcDbEntity
  8
0
100
AcDbLine
 62
7
  6
CONTINUOUS
 10
-24.5676415705
 20
-12.9
 11
-24.5676415705
 21
-17.1
  0
LINE
  5
495
100
AcDbEntity
  8
RACCORDO
100
AcDbLine
 62
253
  6
CONTINUOUS
 10
-24.4650236099
 20
-17.1
 11
-24.4650236099
 21
-12.9
  0
LINE
  5
496
100
AcDbEntity
  8
ASSI
100
AcDbLine
 62
253
  6
CONTINUOUS
 10
-24.4650236099
 20
-17.1
 11
-24.4650236099
 21
-12.9
  0
LINE
  5
497
100
AcDbEntity
  8
RACCORDO
100
AcDbLine
 62
253
  6
CONTINUOUS
 10
-24.4650236099
 20
-12.1
 11
-24.4650236099
 21
-7.9
  0
LINE
  5
498
100
AcDbEntity
  8
ASSI
100
AcDbLine
 62
253
  6
CONTINUOUS
 10
-24.4650236099
 20
-12.1
 11
-24.4650236099
 21
-7.9
  0
LINE
  5
499
100
AcDbEntity
  8
ASSI
100
AcDbLine
 62
7
  6
CONTINUOUS
 10
-24.1679079327
 20
-7.9
 11
-24.1679079327
 21
-12.1
  0
LINE
  5
49A
100
AcDbEntity
  8
ASSI
100
AcDbLine
 62
7
  6
CONTINUOUS
 10
-24.1679079327
 20
-12.9
 11
-24.1679079327
 21
-17.1
  0
LINE
  5
49B
100
AcDbEntity
  8
SUPERFICI
100
AcDbLine
 62
7
  6
CONTINUOUS
 10
-49.4676415705
 20
-23.1226497308
 11
-50.3426415705
 21
-23.6278312164
  0
LINE
  5
49C
100
AcDbEntity
  8
SUPERFICI
100
AcDbLine
 62
253
  6
CONTINUOUS
 10
-49.2190960033
 20
-23.2669872981
 11
-50.2190960033
 21
-23.8443375673
  0
LINE
  5
49D
100
AcDbEntity
  8
0
100
AcDbLine
 62
253
  6
CONTINUOUS
 10
-38.8674131132
 20
-16.0
 11
-38.0104008095
 21
-15.5714285523
  0
LINE
  5
49E
100
AcDbEntity
  8
INCISIONI
100
AcDbLine
 62
253
  6
CONTINUOUS
 10
-38.5888840963
 20
14.4619038582
 11
-38.9959649759
 21
14.4619038582
  0
LINE
  5
49F
100
AcDbEntity
  8
INCISIONI
100
AcDbLine
 62
253
  6
CONTINUOUS
 10
-37.5033351923
 20
14.5071422338
 11
-38.1818032732
 21
14.5071422338
  0
LINE
  5
4A0
100
AcDbEntity
  8
0
100
AcDbLine
 62
253
  6
CONTINUOUS
 10
-26.2563584502
 20
14.9071424484
 11
-25.1850930593
 21
14.9071424484
  0
LINE
  5
4A1
100
AcDbEntity
  8
0
100
AcDbLine
 62
253
  6
CONTINUOUS
 10
-24.9708399722
 20
15.3357136726
 11
-26.470611515
 21
15.3357136726
  0
LINE
  5
4A2
100
AcDbEntity
  8
INCISIONI
100
AcDbLine
 62
253
  6
CONTINUOUS
 10
-41.3195460129
 20
15.502999
 11
-43.3664963495
 21
15.503009
  0
LINE
  5
4A3
100
AcDbEntity
  8
0
100
AcDbLine
 62
253
  6
CONTINUOUS
 10
-32.8922281295
 20
15.6
 11
-32.1424565694
 21
15.6
  0
LINE
  5
4A4
100
AcDbEntity
  8
INCISIONI
100
AcDbLine
 62
253
  6
CONTINUOUS
 10
-38.7245777606
 20
15.9999991179
 11
-38.9959649759
 21
15.9999991179
  0
LINE
  5
4A5
100
AcDbEntity
  8
0
100
AcDbLine
 62
253
  6
CONTINUOUS
 10
-35.0646062509
 20
16.0
 11
-34.3140149405
 21
16.0
  0
LINE
  5
4A6
100
AcDbEntity
  8
0
100
AcDbLine
 62
253
  6
CONTINUOUS
 10
-30.7206697584
 20
16.0
 11
-29.970078448
 21
16.0
  0
LINE
  5
4A7
100
AcDbEntity
  8
INCISIONI
100
AcDbLine
 62
253
  6
CONTINUOUS
 10
-43.3664963495
 20
16.001437
 11
-40.4682853743
 21
16.001437
  0
LINE
  5
4A8
100
AcDbEntity
  8
0
100
AcDbLine
 62
253
  6
CONTINUOUS
 10
-26.2563584502
 20
16.0857136726
 11
-25.8278523207
 21
16.0857136726
  0
LINE
  5
4A9
100
AcDbEntity
  8
SUPERFICI
100
AcDbLine
 62
7
  6
CONTINUOUS
 10
-50.3426415705
 20
23.6278312164
 11
-49.4676415705
 21
23.1226497308
  0
LINE
  5
4AA
100
AcDbEntity
  8
SUPERFICI
100
AcDbLine
 62
253
  6
CONTINUOUS
 10
-50.2190960033
 20
23.8443375673
 11
-49.2190960033
 21
23.2669872981
  0
LINE
  5
4AB
100
AcDbEntity
  8
0
100
AcDbLine
 62
253
  6
CONTINUOUS
 10
-24.9708399722
 20
5.4785712242
 11
-25.1850930593
 21
5.6928568363
  0
LINE
  5
4AC
100
AcDbEntity
  8
0
100
AcDbLine
 62
253
  6
CONTINUOUS
 10
-25.8278523207
 20
6.8714287758
 11
-25.6135992112
 21
6.6571431637
  0
LINE
  5
4AD
100
AcDbEntity
  8
RACCORDO
100
AcDbLine
 62
253
  6
CONTINUOUS
 10
-23.5501891641
 20
19.1013831211
 11
-23.5501891641
 21
18.9236182982
  0
LINE
  5
4AE
100
AcDbEntity
  8
ASSI
100
AcDbLine
 62
253
  6
CONTINUOUS
 10
-23.5501891641
 20
19.1013831211
 11
-23.5501891641
 21
18.9236182982
  0
LINE
  5
4AF
100
AcDbEntity
  8
ASSI
100
AcDbLine
 62
253
  6
CONTINUOUS
 10
-23.5501891641
 20
17.5096157267
 11
-23.5501891641
 21
-7.9
  0
LINE
  5
4B0
100
AcDbEntity
  8
ASSI
100
AcDbLine
 62
253
  6
CONTINUOUS
 10
-23.5501891641
 20
-12.1
 11
-23.5501891641
 21
-12.9
  0
LINE
  5
4B1
100
AcDbEntity
  8
ASSI
100
AcDbLine
 62
253
  6
CONTINUOUS
 10
-23.5501891641
 20
-17.1
 11
-23.5501891641
 21
-17.5096157267
  0
LINE
  5
4B2
100
AcDbEntity
  8
RACCORDO
100
AcDbLine
 62
253
  6
CONTINUOUS
 10
-23.5501891641
 20
-18.9236182982
 11
-23.5501891641
 21
-19.1013831211
  0
LINE
  5
4B3
100
AcDbEntity
  8
ASSI
100
AcDbLine
 62
253
  6
CONTINUOUS
 10
-23.5501891641
 20
-18.9236182982
 11
-23.5501891641
 21
-19.1013831211
  0
LINE
  5
4B4
100
AcDbEntity
  8
RACCORDO
100
AcDbLine
 62
7
  6
CONTINUOUS
 10
-22.5676415705
 20
18.3943840357
 11
-22.5676415705
 21
17.509618074
  0
LINE
  5
4B5
100
AcDbEntity
  8
RACCORDO
100
AcDbLine
 62
7
  6
CONTINUOUS
 10
-22.5676415705
 20
-12.1
 11
-22.5676415705
 21
-12.9
  0
LINE
  5
4B6
100
AcDbEntity
  8
RACCORDO
100
AcDbLine
 62
7
  6
CONTINUOUS
 10
-22.5676415705
 20
-17.509618074
 11
-22.5676415705
 21
-18.3943840357
  0
LINE
  5
4B7
100
AcDbEntity
  8
ASSI
100
AcDbLine
 62
7
  6
CONTINUOUS
 10
-22.5676415705
 20
-18.3943840357
 11
-22.5676415705
 21
18.3943840357
  0
LINE
  5
4B8
100
AcDbEntity
  8
RACCORDO
100
AcDbLine
 62
253
  6
CONTINUOUS
 10
-22.5676415705
 20
17.509618074
 11
-23.5501891641
 21
17.509618074
  0
LINE
  5
4B9
100
AcDbEntity
  8
ASSI
100
AcDbLine
 62
253
  6
CONTINUOUS
 10
-22.5676415705
 20
17.509618074
 11
-23.5501891641
 21
17.509618074
  0
LINE
  5
4BA
100
AcDbEntity
  8
RACCORDO
100
AcDbLine
 62
253
  6
CONTINUOUS
 10
-23.5501891641
 20
17.5096157267
 11
-45.9676415705
 21
17.6716990487
  0
LINE
  5
4BB
100
AcDbEntity
  8
ASSI
100
AcDbLine
 62
253
  6
CONTINUOUS
 10
-23.5501891641
 20
17.5096157267
 11
-45.9676415705
 21
17.6716990487
  0
LINE
  5
4BC
100
AcDbEntity
  8
SUPERFICI
100
AcDbLine
 62
7
  6
CONTINUOUS
 10
-45.9676415705
 20
18.1473460386
 11
-47.9676415705
 21
18.5
  0
LINE
  5
4BD
100
AcDbEntity
  8
0
100
AcDbLine
 62
253
  6
CONTINUOUS
 10
-26.2563584502
 20
9.55
 11
-26.470611515
 21
9.7642863274
  0
LINE
  5
4BE
100
AcDbEntity
  8
0
100
AcDbLine
 62
253
  6
CONTINUOUS
 10
-24.9708399722
 20
10.0857136726
 11
-25.1850930593
 21
10.3
  0
LINE
  5
4BF
100
AcDbEntity
  8
SUPERFICI
100
AcDbLine
 62
7
  6
CONTINUOUS
 10
-46.9676415705
 20
18.5082905244
 11
-45.9676415705
 21
18.5170173922
  0
LINE
  5
4C0
100
AcDbEntity
  8
DRAFT
100
AcDbLine
 62
7
  6
CONTINUOUS
 10
-45.9694629636
 20
19.7087109727
 11
-46.9693868111
 21
19.6999847695
  0
LINE
  5
4C1
100
AcDbEntity
  8
SUPERFICI
100
AcDbLine
 62
7
  6
CONTINUOUS
 10
-46.9676415705
 20
19.5
 11
-45.9676415705
 21
19.5
  0
LINE
  5
4C2
100
AcDbEntity
  8
RACCORDO
100
AcDbLine
 62
253
  6
CONTINUOUS
 10
-23.5501891641
 20
18.9236182982
 11
-45.9676415705
 21
19.0856972195
  0
LINE
  5
4C3
100
AcDbEntity
  8
ASSI
100
AcDbLine
 62
253
  6
CONTINUOUS
 10
-23.5501891641
 20
18.9236182982
 11
-45.9676415705
 21
19.0856972195
  0
LINE
  5
4C4
100
AcDbEntity
  8
RACCORDO
100
AcDbLine
 62
253
  6
CONTINUOUS
 10
-35.9676415705
 20
19.3181305591
 11
-23.5501891641
 21
19.1013831211
  0
LINE
  5
4C5
100
AcDbEntity
  8
ASSI
100
AcDbLine
 62
253
  6
CONTINUOUS
 10
-35.9676415705
 20
19.3181305591
 11
-23.5501891641
 21
19.1013831211
  0
LINE
  5
4C6
100
AcDbEntity
  8
RACCORDO
100
AcDbLine
 62
7
  6
CONTINUOUS
 10
-35.9676415705
 20
19.6109791689
 11
-23.5501891641
 21
19.3942317309
  0
LINE
  5
4C7
100
AcDbEntity
  8
ASSI
100
AcDbLine
 62
7
  6
CONTINUOUS
 10
-35.9676415705
 20
19.6109791689
 11
-23.5501891641
 21
19.3942317309
  0
LINE
  5
4C8
100
AcDbEntity
  8
0
100
AcDbLine
 62
253
  6
CONTINUOUS
 10
-26.2563584502
 20
12.9785712242
 11
-26.470611515
 21
13.1928575516
  0
LINE
  5
4C9
100
AcDbEntity
  8
0
100
AcDbLine
 62
253
  6
CONTINUOUS
 10
-26.2563584502
 20
14.1571424484
 11
-26.470611515
 21
14.3714287758
  0
LINE
  5
4CA
100
AcDbEntity
  8
0
100
AcDbLine
 62
253
  6
CONTINUOUS
 10
-24.9708399722
 20
13.5142863274
 11
-25.1850930593
 21
13.7285712242
  0
LINE
  5
4CB
100
AcDbEntity
  8
DRAFT
100
AcDbLine
 62
7
  6
CONTINUOUS
 10
-35.9676415705
 20
20.9959955457
 11
-46.9676415705
 21
20.9
  0
LINE
  5
4CC
100
AcDbEntity
  8
DRAFT
100
AcDbLine
 62
7
  6
CONTINUOUS
 10
-36.4589153673
 20
21.4537354271
 11
-46.9676415705
 21
21.4
  0
LINE
  5
4CD
100
AcDbEntity
  8
DRAFT
100
AcDbLine
 62
7
  6
CONTINUOUS
 10
-45.9676415705
 20
20.85
 11
-35.9676415705
 21
20.85
  0
LINE
  5
4CE
100
AcDbEntity
  8
ASSI
100
AcDbLine
 62
7
  6
CONTINUOUS
 10
-45.9676415705
 20
20.85
 11
-35.9676415705
 21
20.85
  0
LINE
  5
4CF
100
AcDbEntity
  8
SUPERFICI
100
AcDbLine
 62
253
  6
CONTINUOUS
 10
-46.9676415705
 20
21.8941990932
 11
-47.9676415705
 21
21.900016923
  0
LINE
  5
4D0
100
AcDbEntity
  8
0
100
AcDbLine
 62
253
  6
CONTINUOUS
 10
-25.1850930593
 20
14.9071424484
 11
-24.9708399722
 21
14.6928575516
  0
LINE
  5
4D1
100
AcDbEntity
  8
0
100
AcDbLine
 62
253
  6
CONTINUOUS
 10
-25.8278523207
 20
16.0857136726
 11
-25.6135992112
 21
15.8714287758
  0
LINE
  5
4D2
100
AcDbEntity
  8
SUPERFICI
100
AcDbLine
 62
253
  6
CONTINUOUS
 10
-47.9676187271
 20
21.8997723451
 11
-54.4334073638
 21
21.5609147213
  0
LINE
  5
4D3
100
AcDbEntity
  8
SUPERFICI
100
AcDbLine
 62
7
  6
CONTINUOUS
 10
-47.9676415705
 20
22.4
 11
-54.4508786396
 21
22.0602279426
  0
LINE
  5
4D4
100
AcDbEntity
  8
SUPERFICI
100
AcDbLine
 62
253
  6
CONTINUOUS
 10
-50.4676415705
 20
23.8443375673
 11
-50.2190960033
 21
23.8443375673
  0
LINE
  5
4D5
100
AcDbEntity
  8
SUPERFICI
100
AcDbLine
 62
253
  6
CONTINUOUS
 10
-46.9676415705
 20
23.8443375673
 11
-47.2161871377
 21
23.8443375673
  0
LINE
  5
4D6
100
AcDbEntity
  8
SUPERFICI
100
AcDbLine
 62
253
  6
CONTINUOUS
 10
-50.4676415705
 20
24.2369056521
 11
-50.2190960033
 21
24.2369056521
  0
LINE
  5
4D7
100
AcDbEntity
  8
SUPERFICI
100
AcDbLine
 62
253
  6
CONTINUOUS
 10
-46.9676415705
 20
24.2456323968
 11
-47.2161871377
 21
24.2456323968
  0
LINE
  5
4D8
100
AcDbEntity
  8
DRAFT
100
AcDbLine
 62
7
  6
CONTINUOUS
 10
-36.9618238391
 20
22.3359700255
 11
-46.9676415705
 21
22.3941821702
  0
LINE
  5
4D9
100
AcDbEntity
  8
SUPERFICI
100
AcDbLine
 62
7
  6
CONTINUOUS
 10
-46.9676415705
 20
22.3941821702
 11
-47.9676413952
 21
22.399999999
  0
LINE
  5
4DA
100
AcDbEntity
  8
SUPERFICI
100
AcDbLine
 62
7
  6
CONTINUOUS
 10
-40.4647327048
 20
23.9563493531
 11
-46.9667698296
 21
23.9941770985
  0
LINE
  5
4DB
100
AcDbEntity
  8
SUPERFICI
100
AcDbLine
 62
253
  6
CONTINUOUS
 10
-47.9676415705
 20
24.2500042308
 11
-47.2161871377
 21
24.2456323968
  0
LINE
  5
4DC
100
AcDbEntity
  8
SUPERFICI
100
AcDbLine
 62
253
  6
CONTINUOUS
 10
-50.2190960033
 20
24.2369056521
 11
-47.9676415705
 21
24.2500042308
  0
LINE
  5
4DD
100
AcDbEntity
  8
SUPERFICI
100
AcDbLine
 62
7
  6
CONTINUOUS
 10
-50.2190960033
 20
24.4869014213
 11
-47.9676415705
 21
24.5
  0
LINE
  5
4DE
100
AcDbEntity
  8
SUPERFICI
100
AcDbLine
 62
7
  6
CONTINUOUS
 10
-47.9676415705
 20
24.5
 11
-47.2161871377
 21
24.495628166
  0
ARC
  5
4DF
100
AcDbEntity
  8
SUPERFICI
100
AcDbCircle
 62
253
  6
CONTINUOUS
 10
-5063.1987417229
 20
-7.8580939553
 40
5052.188097148
100
AcDbArc
 50
359.8494161563
 51
359.9814872335
  0
ARC
  5
4E0
100
AcDbEntity
  8
RACCORDO
100
AcDbCircle
 62
253
  6
CONTINUOUS
 10
-3.2568384001
 20
-3.2575620945
 40
0.9999703484
100
AcDbArc
 50
180.0030822027
 51
270.0002967778
  0
ARC
  5
4E1
100
AcDbEntity
  8
RACCORDO
100
AcDbCircle
 62
253
  6
CONTINUOUS
 10
-3.2535333216
 20
-3.2535333216
 40
0.8998967654
100
AcDbArc
 50
180.0021545139
 51
269.9978454861
  0
ARC
  5
4E2
100
AcDbEntity
  8
RACCORDO
100
AcDbCircle
 62
253
  6
CONTINUOUS
 10
-3.2569864139
 20
-3.256844579
 40
0.8998443685
100
AcDbArc
 50
180.0076271298
 51
270.0097542056
  0
ARC
  5
4E3
100
AcDbEntity
  8
SUPERFICI
100
AcDbCircle
 62
253
  6
CONTINUOUS
 10
-10.5361267826
 20
-21.5600454809
 40
0.5001623375
100
AcDbArc
 50
180.0994026012
 51
269.9752870466
  0
ARC
  5
4E4
100
AcDbEntity
  8
SUPERFICI
100
AcDbCircle
 62
7
  6
CONTINUOUS
 10
-4.0
 20
-23.15
 40
0.5
100
AcDbArc
 50
154.1580672368
 51
205.8419327632
  0
ARC
  5
4E5
100
AcDbEntity
  8
RACCORDO
100
AcDbCircle
 62
253
  6
CONTINUOUS
 10
-3.2377813095
 20
-3.2377813095
 40
0.4999526748
100
AcDbArc
 50
180.0033035682
 51
269.9966964318
  0
ARC
  5
4E6
100
AcDbEntity
  8
SUPERFICI
100
AcDbCircle
 62
7
  6
CONTINUOUS
 10
-10.6492730098
 20
-21.9001879719
 40
0.4998306865
100
AcDbArc
 50
179.9522215796
 51
269.9730795759
  0
ARC
  5
4E7
100
AcDbEntity
  8
RACCORDO
100
AcDbCircle
 62
253
  6
CONTINUOUS
 10
-3.2467616675
 20
-3.2467616675
 40
0.4998067664
100
AcDbArc
 50
179.9867479647
 51
270.0132520367
  0
ARC
  5
4E8
100
AcDbEntity
  8
SUPERFICI
100
AcDbCircle
 62
7
  6
CONTINUOUS
 10
-9.885834597
 20
-24.2367565382
 40
0.2510668685
100
AcDbArc
 50
180.034029157
 51
194.9710875867
  0
ARC
  5
4E9
100
AcDbEntity
  8
SUPERFICI
100
AcDbCircle
 62
7
  6
CONTINUOUS
 10
-7.5132434618
 20
-24.235834597
 40
0.2510668685
100
AcDbArc
 50
270.034029157
 51
284.9710875867
  0
ARC
  5
4EA
100
AcDbEntity
  8
SUPERFICI
100
AcDbCircle
 62
7
  6
CONTINUOUS
 10
-9.8868945252
 20
-24.2368939653
 40
0.2500074563
100
AcDbArc
 50
195.0034130597
 51
269.9974499901
  0
ARC
  5
4EB
100
AcDbEntity
  8
SUPERFICI
100
AcDbCircle
 62
7
  6
CONTINUOUS
 10
-7.5131060347
 20
-24.2368945252
 40
0.2500074563
100
AcDbArc
 50
285.0034130597
 51
359.9974499901
  0
ARC
  5
4EC
100
AcDbEntity
  8
SUPERFICI
100
AcDbCircle
 62
7
  6
CONTINUOUS
 10
-9.9000053487
 20
-24.2500053487
 40
0.2499946513
100
AcDbArc
 50
179.9997437926
 51
270.0002562074
  0
ARC
  5
4ED
100
AcDbEntity
  8
SUPERFICI
100
AcDbCircle
 62
7
  6
CONTINUOUS
 10
-7.4999946513
 20
-24.2500053487
 40
0.2499946513
100
AcDbArc
 50
269.9997437926
 51
0.0002562074
  0
ARC
  5
4EE
100
AcDbEntity
  8
SUPERFICI
100
AcDbCircle
 62
7
  6
CONTINUOUS
 10
-1.2000016924
 20
-23.7999983076
 40
0.2000016924
100
AcDbArc
 50
270.0004848234
 51
0.0004848094
  0
ARC
  5
4EF
100
AcDbEntity
  8
SUPERFICI
100
AcDbCircle
 62
7
  6
CONTINUOUS
 10
-1.1999988155
 20
-23.7982490662
 40
0.1999988155
100
AcDbArc
 50
269.9996606734
 51
359.9993696938
  0
ARC
  5
4F0
100
AcDbEntity
  8
SUPERFICI
100
AcDbCircle
 62
253
  6
CONTINUOUS
 10
-5091.2066110625
 20
7.8167642165
 40
5080.1959784822
100
AcDbArc
 50
0.0188768305
 51
0.1502197797
  0
ARC
  5
4F1
100
AcDbEntity
  8
RACCORDO
100
AcDbCircle
 62
253
  6
CONTINUOUS
 10
-2835.8360417302
 20
0.0
 40
2832.1001585673
100
AcDbArc
 50
359.9344963505
 51
0.0655036495
  0
ARC
  5
4F2
100
AcDbEntity
  8
RACCORDO
100
AcDbCircle
 62
253
  6
CONTINUOUS
 10
-3.2568382863
 20
3.2575620438
 40
0.9999703474
100
AcDbArc
 50
89.9997097421
 51
179.9969148908
  0
ARC
  5
4F3
100
AcDbEntity
  8
RACCORDO
100
AcDbCircle
 62
253
  6
CONTINUOUS
 10
-3.2535333216
 20
3.2535333216
 40
0.8998967654
100
AcDbArc
 50
90.0021545139
 51
179.9978454861
  0
ARC
  5
4F4
100
AcDbEntity
  8
RACCORDO
100
AcDbCircle
 62
253
  6
CONTINUOUS
 10
-3.2569863862
 20
3.2568445863
 40
0.8998443561
100
AcDbArc
 50
89.9902475596
 51
179.9923733385
  0
ARC
  5
4F5
100
AcDbEntity
  8
SUPERFICI
100
AcDbCircle
 62
253
  6
CONTINUOUS
 10
-10.5361015783
 20
21.5600254367
 40
0.5001825095
100
AcDbArc
 50
90.0275989911
 51
179.9000363393
  0
ARC
  5
4F6
100
AcDbEntity
  8
SUPERFICI
100
AcDbCircle
 62
7
  6
CONTINUOUS
 10
-4.0
 20
23.15
 40
0.5
100
AcDbArc
 50
154.1580672368
 51
205.8419327632
  0
ARC
  5
4F7
100
AcDbEntity
  8
RACCORDO
100
AcDbCircle
 62
253
  6
CONTINUOUS
 10
-3.2377813097
 20
3.2377813097
 40
0.4999526745
100
AcDbArc
 50
90.0033035414
 51
179.9966964586
  0
ARC
  5
4F8
100
AcDbEntity
  8
SUPERFICI
100
AcDbCircle
 62
7
  6
CONTINUOUS
 10
-10.6492730071
 20
21.9001879742
 40
0.4998306865
100
AcDbArc
 50
90.026920736
 51
180.0477786903
  0
ARC
  5
4F9
100
AcDbEntity
  8
RACCORDO
100
AcDbCircle
 62
253
  6
CONTINUOUS
 10
-3.2467610745
 20
3.2467610745
 40
0.4998073189
100
AcDbArc
 50
89.986815961
 51
180.0131840399
  0
ARC
  5
4FA
100
AcDbEntity
  8
SUPERFICI
100
AcDbCircle
 62
7
  6
CONTINUOUS
 10
-9.8867565382
 20
24.235834597
 40
0.2510668685
100
AcDbArc
 50
90.034029157
 51
104.9710875867
  0
ARC
  5
4FB
100
AcDbEntity
  8
SUPERFICI
100
AcDbCircle
 62
7
  6
CONTINUOUS
 10
-7.514165403
 20
24.2367565382
 40
0.2510668685
100
AcDbArc
 50
0.0340291569
 51
14.9710875867
  0
ARC
  5
4FC
100
AcDbEntity
  8
SUPERFICI
100
AcDbCircle
 62
7
  6
CONTINUOUS
 10
-9.8868939653
 20
24.2368945252
 40
0.2500074563
100
AcDbArc
 50
105.0034130597
 51
179.9974499901
  0
ARC
  5
4FD
100
AcDbEntity
  8
SUPERFICI
100
AcDbCircle
 62
7
  6
CONTINUOUS
 10
-7.5131054748
 20
24.2368939653
 40
0.2500074563
100
AcDbArc
 50
15.0034130597
 51
89.9974499901
  0
ARC
  5
4FE
100
AcDbEntity
  8
SUPERFICI
100
AcDbCircle
 62
7
  6
CONTINUOUS
 10
-9.9000053487
 20
24.2500053487
 40
0.2499946513
100
AcDbArc
 50
89.9997437926
 51
180.0002562074
  0
ARC
  5
4FF
100
AcDbEntity
  8
SUPERFICI
100
AcDbCircle
 62
7
  6
CONTINUOUS
 10
-7.4999946513
 20
24.2500053487
 40
0.2499946513
100
AcDbArc
 50
359.9997437926
 51
90.0002562074
  0
ARC
  5
500
100
AcDbEntity
  8
SUPERFICI
100
AcDbCircle
 62
7
  6
CONTINUOUS
 10
-1.2000016924
 20
23.7999983076
 40
0.2000016924
100
AcDbArc
 50
359.9995151906
 51
89.9995151766
  0
ARC
  5
501
100
AcDbEntity
  8
SUPERFICI
100
AcDbCircle
 62
253
  6
CONTINUOUS
 10
-1.1999988151
 20
23.7982490666
 40
0.1999988151
100
AcDbArc
 50
0.0006301927
 51
90.0003394401
  0
ARC
  5
502
100
AcDbEntity
  8
SUPERFICI
100
AcDbCircle
 62
253
  6
CONTINUOUS
 10
5091.2065644609
 20
-7.8167642853
 40
5080.1959318805
100
AcDbArc
 50
180.0188768298
 51
180.1502197803
  0
ARC
  5
503
100
AcDbEntity
  8
RACCORDO
100
AcDbCircle
 62
253
  6
CONTINUOUS
 10
3.2568383701
 20
-3.2575621242
 40
0.9999703474
100
AcDbArc
 50
269.9997049394
 51
359.9969194982
  0
ARC
  5
504
100
AcDbEntity
  8
RACCORDO
100
AcDbCircle
 62
253
  6
CONTINUOUS
 10
3.2535333216
 20
-3.2535333216
 40
0.8998967654
100
AcDbArc
 50
270.0021545139
 51
359.9978454861
  0
ARC
  5
505
100
AcDbEntity
  8
RACCORDO
100
AcDbCircle
 62
253
  6
CONTINUOUS
 10
3.2569864145
 20
-3.2568446034
 40
0.8998443561
100
AcDbArc
 50
269.9902457598
 51
359.9923744223
  0
ARC
  5
506
100
AcDbEntity
  8
SUPERFICI
100
AcDbCircle
 62
253
  6
CONTINUOUS
 10
10.5361267853
 20
-21.5600454779
 40
0.5001623376
100
AcDbArc
 50
270.0247126369
 51
359.9005970608
  0
ARC
  5
507
100
AcDbEntity
  8
SUPERFICI
100
AcDbCircle
 62
7
  6
CONTINUOUS
 10
4.0
 20
-23.15
 40
0.5
100
AcDbArc
 50
334.1580672368
 51
25.8419327632
  0
ARC
  5
508
100
AcDbEntity
  8
RACCORDO
100
AcDbCircle
 62
253
  6
CONTINUOUS
 10
3.23778131
 20
-3.23778131
 40
0.4999526743
100
AcDbArc
 50
270.0033035148
 51
359.9966964852
  0
ARC
  5
509
100
AcDbEntity
  8
SUPERFICI
100
AcDbCircle
 62
7
  6
CONTINUOUS
 10
10.6492655294
 20
-21.9001805017
 40
0.4998398177
100
AcDbArc
 50
270.0277775167
 51
0.0469214535
  0
ARC
  5
50A
100
AcDbEntity
  8
RACCORDO
100
AcDbCircle
 62
253
  6
CONTINUOUS
 10
3.2467614417
 20
-3.2467614417
 40
0.4998070441
100
AcDbArc
 50
269.986773856
 51
0.0132261457
  0
ARC
  5
50B
100
AcDbEntity
  8
SUPERFICI
100
AcDbCircle
 62
7
  6
CONTINUOUS
 10
7.514165703
 20
-24.2367564787
 40
0.2510671686
100
AcDbArc
 50
180.0340426917
 51
194.9731859015
  0
ARC
  5
50C
100
AcDbEntity
  8
SUPERFICI
100
AcDbCircle
 62
7
  6
CONTINUOUS
 10
9.8867567858
 20
-24.2358358093
 40
0.2510656561
100
AcDbArc
 50
270.0339728338
 51
284.9614933414
  0
ARC
  5
50D
100
AcDbEntity
  8
SUPERFICI
100
AcDbCircle
 62
7
  6
CONTINUOUS
 10
7.5131054739
 20
-24.2368939663
 40
0.2500074552
100
AcDbArc
 50
195.0055246822
 51
269.9974501856
  0
ARC
  5
50E
100
AcDbEntity
  8
SUPERFICI
100
AcDbCircle
 62
7
  6
CONTINUOUS
 10
9.8868939672
 20
-24.2368945256
 40
0.2500074544
100
AcDbArc
 50
284.9937608317
 51
359.9974500682
  0
ARC
  5
50F
100
AcDbEntity
  8
SUPERFICI
100
AcDbCircle
 62
7
  6
CONTINUOUS
 10
9.9000053487
 20
-24.2500053487
 40
0.2499946513
100
AcDbArc
 50
269.9997437926
 51
0.0002562074
  0
ARC
  5
510
100
AcDbEntity
  8
SUPERFICI
100
AcDbCircle
 62
7
  6
CONTINUOUS
 10
7.4999946513
 20
-24.2500053487
 40
0.2499946513
100
AcDbArc
 50
179.9997437926
 51
270.0002562074
  0
ARC
  5
511
100
AcDbEntity
  8
SUPERFICI
100
AcDbCircle
 62
7
  6
CONTINUOUS
 10
1.2000016924
 20
-23.7999983076
 40
0.2000016924
100
AcDbArc
 50
179.9995151906
 51
269.9995151766
  0
ARC
  5
512
100
AcDbEntity
  8
SUPERFICI
100
AcDbCircle
 62
253
  6
CONTINUOUS
 10
1.1999988151
 20
-23.7982490666
 40
0.1999988151
100
AcDbArc
 50
180.0006301927
 51
270.0003394401
  0
ARC
  5
513
100
AcDbEntity
  8
SUPERFICI
100
AcDbCircle
 62
253
  6
CONTINUOUS
 10
5063.1986951284
 20
7.858094024
 40
5052.1880505534
100
AcDbArc
 50
179.8494161557
 51
179.9814872341
  0
ARC
  5
514
100
AcDbEntity
  8
RACCORDO
100
AcDbCircle
 62
253
  6
CONTINUOUS
 10
2835.8360417259
 20
-0.0
 40
2832.100158563
100
AcDbArc
 50
179.9344963505
 51
180.0655036495
  0
ARC
  5
515
100
AcDbEntity
  8
RACCORDO
100
AcDbCircle
 62
253
  6
CONTINUOUS
 10
3.2568383181
 20
3.2575620125
 40
0.9999703484
100
AcDbArc
 50
0.0030869
 51
90.0002920805
  0
ARC
  5
516
100
AcDbEntity
  8
RACCORDO
100
AcDbCircle
 62
253
  6
CONTINUOUS
 10
3.2535333216
 20
3.2535333216
 40
0.8998967654
100
AcDbArc
 50
0.0021545139
 51
89.9978454861
  0
ARC
  5
517
100
AcDbEntity
  8
RACCORDO
100
AcDbCircle
 62
253
  6
CONTINUOUS
 10
3.2569864007
 20
3.2568445506
 40
0.8998443685
100
AcDbArc
 50
0.0076289353
 51
90.0097533636
  0
ARC
  5
518
100
AcDbEntity
  8
SUPERFICI
100
AcDbCircle
 62
253
  6
CONTINUOUS
 10
10.5361278501
 20
21.5600463231
 40
0.5001614861
100
AcDbArc
 50
0.0993790513
 51
89.9754092863
  0
ARC
  5
519
100
AcDbEntity
  8
SUPERFICI
100
AcDbCircle
 62
7
  6
CONTINUOUS
 10
4.0
 20
23.15
 40
0.5
100
AcDbArc
 50
334.1580672368
 51
25.8419327632
  0
ARC
  5
51A
100
AcDbEntity
  8
RACCORDO
100
AcDbCircle
 62
253
  6
CONTINUOUS
 10
3.2377813095
 20
3.2377813095
 40
0.4999526748
100
AcDbArc
 50
0.0033035682
 51
89.9966964318
  0
ARC
  5
51B
100
AcDbEntity
  8
SUPERFICI
100
AcDbCircle
 62
7
  6
CONTINUOUS
 10
10.6492655269
 20
21.9001805043
 40
0.4998398177
100
AcDbArc
 50
359.9530782551
 51
89.9722221915
  0
ARC
  5
51C
100
AcDbEntity
  8
RACCORDO
100
AcDbCircle
 62
253
  6
CONTINUOUS
 10
3.2467614417
 20
3.2467614417
 40
0.4998070441
100
AcDbArc
 50
359.9867738567
 51
90.0132261449
  0
ARC
  5
51D
100
AcDbEntity
  8
SUPERFICI
100
AcDbCircle
 62
7
  6
CONTINUOUS
 10
9.885834297
 20
24.2367564787
 40
0.2510671686
100
AcDbArc
 50
0.0340426917
 51
14.9731859015
  0
ARC
  5
51E
100
AcDbEntity
  8
SUPERFICI
100
AcDbCircle
 62
7
  6
CONTINUOUS
 10
7.5132434618
 20
24.235834597
 40
0.2510668685
100
AcDbArc
 50
90.034029157
 51
104.9710875866
  0
ARC
  5
51F
100
AcDbEntity
  8
SUPERFICI
100
AcDbCircle
 62
7
  6
CONTINUOUS
 10
7.5131060347
 20
24.2368945252
 40
0.2500074563
100
AcDbArc
 50
105.0034130597
 51
179.9974499901
  0
ARC
  5
520
100
AcDbEntity
  8
SUPERFICI
100
AcDbCircle
 62
7
  6
CONTINUOUS
 10
9.8868945261
 20
24.2368939663
 40
0.2500074552
100
AcDbArc
 50
15.0055246822
 51
89.9974501856
  0
ARC
  5
521
100
AcDbEntity
  8
SUPERFICI
100
AcDbCircle
 62
7
  6
CONTINUOUS
 10
7.4999946513
 20
24.2500053487
 40
0.2499946513
100
AcDbArc
 50
89.9997437926
 51
180.0002562074
  0
ARC
  5
522
100
AcDbEntity
  8
SUPERFICI
100
AcDbCircle
 62
7
  6
CONTINUOUS
 10
9.9000053487
 20
24.2500053487
 40
0.2499946513
100
AcDbArc
 50
359.9997437926
 51
90.0002562074
  0
ARC
  5
523
100
AcDbEntity
  8
SUPERFICI
100
AcDbCircle
 62
7
  6
CONTINUOUS
 10
1.2000016924
 20
23.7999983076
 40
0.2000016924
100
AcDbArc
 50
90.0004848234
 51
180.0004848094
  0
ARC
  5
524
100
AcDbEntity
  8
SUPERFICI
100
AcDbCircle
 62
7
  6
CONTINUOUS
 10
1.1999988155
 20
23.7982490662
 40
0.1999988155
100
AcDbArc
 50
89.9996606734
 51
179.9993696938
  0
ARC
  5
525
100
AcDbEntity
  8
ASSI
100
AcDbCircle
 62
253
  6
CONTINUOUS
 10
-209.401207239
 20
-18.2166167271
 40
185.852362822
100
AcDbArc
 50
359.7820404152
 51
0.2179594088
  0
ARC
  5
526
100
AcDbEntity
  8
SUPERFICI
100
AcDbCircle
 62
7
  6
CONTINUOUS
 10
-54.3985426833
 20
-21.0615984079
 40
1.0
100
AcDbArc
 50
188.5758796048
 51
267.0
  0
ARC
  5
527
100
AcDbEntity
  8
SUPERFICI
100
AcDbCircle
 62
253
  6
CONTINUOUS
 10
-54.4072688804
 20
-21.0615984012
 40
0.500000007
100
AcDbArc
 50
188.575880264
 51
266.9999993409
  0
ARC
  5
528
100
AcDbEntity
  8
SUPERFICI
100
AcDbCircle
 62
7
  6
CONTINUOUS
 10
-40.4676415705
 20
-23.4563578147
 40
0.5
100
AcDbArc
 50
270.3333333333
 51
360.0
  0
ARC
  5
529
100
AcDbEntity
  8
SUPERFICI
100
AcDbCircle
 62
7
  6
CONTINUOUS
 10
-50.2176415705
 20
-23.8443375673
 40
0.25
100
AcDbArc
 50
120.0
 51
180.0
  0
ARC
  5
52A
100
AcDbEntity
  8
SUPERFICI
100
AcDbCircle
 62
7
  6
CONTINUOUS
 10
-47.2176415705
 20
-23.8443375673
 40
0.25
100
AcDbArc
 50
0.0
 51
60.0
  0
ARC
  5
52B
100
AcDbEntity
  8
SUPERFICI
100
AcDbCircle
 62
7
  6
CONTINUOUS
 10
-47.2176415705
 20
-24.2456323968
 40
0.25
100
AcDbArc
 50
270.3333333333
 51
360.0
  0
ARC
  5
52C
100
AcDbEntity
  8
SUPERFICI
100
AcDbCircle
 62
7
  6
CONTINUOUS
 10
-50.2176415705
 20
-24.2369056521
 40
0.25
100
AcDbArc
 50
180.0
 51
269.6666666667
  0
ARC
  5
52D
100
AcDbEntity
  8
DRAFT
100
AcDbCircle
 62
7
  6
CONTINUOUS
 10
-36.9676415705
 20
-21.3359869487
 40
1.0
100
AcDbArc
 50
270.3333333333
 51
360.0
  0
ARC
  5
52E
100
AcDbEntity
  8
SUPERFICI
100
AcDbCircle
 62
7
  6
CONTINUOUS
 10
-26.8524712908
 20
-15.5339267375
 40
44.7858999132
100
AcDbArc
 50
119.9611189427
 51
120.3288190334
  0
ARC
  5
52F
100
AcDbEntity
  8
ASSI
100
AcDbCircle
 62
7
  6
CONTINUOUS
 10
-30.0676415705
 20
-15.0
 40
2.1
100
AcDbArc
 50
90.0
 51
270.0
  0
CIRCLE
  5
530
100
AcDbEntity
  8
0
100
AcDbCircle
 62
7
  6
CONTINUOUS
 10
-29.8676415705
 20
-15.05
 40
2.0
  0
ARC
  5
531
100
AcDbEntity
  8
RACCORDO
100
AcDbCircle
 62
7
  6
CONTINUOUS
 10
-23.5676415705
 20
-18.3943840357
 40
1.0
100
AcDbArc
 50
271.0
 51
360.0
  0
ARC
  5
532
100
AcDbEntity
  8
ASSI
100
AcDbCircle
 62
7
  6
CONTINUOUS
 10
-23.5676415705
 20
-18.3943840357
 40
1.0
100
AcDbArc
 50
271.0
 51
360.0
  0
ARC
  5
533
100
AcDbEntity
  8
SUPERFICI
100
AcDbCircle
 62
7
  6
CONTINUOUS
 10
33.6063701097
 20
-7.79
 40
90.0
100
AcDbArc
 50
181.08868532
 51
188.5758796048
  0
ARC
  5
534
100
AcDbEntity
  8
SUPERFICI
100
AcDbCircle
 62
253
  6
CONTINUOUS
 10
33.5976113131
 20
-7.7900027554
 40
89.4999673602
100
AcDbArc
 50
181.0886839528
 51
188.575880972
  0
ARC
  5
535
100
AcDbEntity
  8
RACCORDO
100
AcDbCircle
 62
253
  6
CONTINUOUS
 10
-30.268469884
 20
-3.7000374218
 40
26.4059371838
100
AcDbArc
 50
178.9970049102
 51
179.5393255685
  0
ARC
  5
536
100
AcDbEntity
  8
ASSI
100
AcDbCircle
 62
7
  6
CONTINUOUS
 10
-30.0676415705
 20
-10.0
 40
2.1
100
AcDbArc
 50
90.0
 51
270.0
  0
CIRCLE
  5
537
100
AcDbEntity
  8
0
100
AcDbCircle
 62
7
  6
CONTINUOUS
 10
-29.8676415705
 20
-10.05
 40
2.0
  0
ARC
  5
538
100
AcDbEntity
  8
RACCORDO
100
AcDbCircle
 62
7
  6
CONTINUOUS
 10
-56.6616349859
 20
-3.2378101359
 40
0.5
100
AcDbArc
 50
183.7504120681
 51
269.0
  0
ARC
  5
539
100
AcDbEntity
  8
ASSI
100
AcDbCircle
 62
253
  6
CONTINUOUS
 10
-180.1941865329
 20
18.2166167719
 40
156.6455928499
100
AcDbArc
 50
359.7414015116
 51
0.2585986644
  0
ARC
  5
53A
100
AcDbEntity
  8
SUPERFICI
100
AcDbCircle
 62
7
  6
CONTINUOUS
 10
33.6063701097
 20
7.79
 40
90.0
100
AcDbArc
 50
171.4241203952
 51
178.91131468
  0
ARC
  5
53B
100
AcDbEntity
  8
SUPERFICI
100
AcDbCircle
 62
253
  6
CONTINUOUS
 10
33.5976113136
 20
7.7900027554
 40
89.4999673607
100
AcDbArc
 50
171.424119028
 51
178.9113160472
  0
ARC
  5
53C
100
AcDbEntity
  8
RACCORDO
100
AcDbCircle
 62
7
  6
CONTINUOUS
 10
-7.2676415705
 20
0.0
 40
50.0
100
AcDbArc
 50
176.2495879319
 51
183.7504120681
  0
ARC
  5
53D
100
AcDbEntity
  8
RACCORDO
100
AcDbCircle
 62
253
  6
CONTINUOUS
 10
-7.2218591779
 20
0.0
 40
49.5543919913
100
AcDbArc
 50
176.2537103464
 51
183.7462896536
  0
ARC
  5
53E
100
AcDbEntity
  8
0
100
AcDbCircle
 62
253
  6
CONTINUOUS
 10
-32.5136046941
 20
11.5153037888
 40
2.545472043
100
AcDbArc
 50
357.8464828967
 51
2.2421457922
  0
ARC
  5
53F
100
AcDbEntity
  8
RACCORDO
100
AcDbCircle
 62
7
  6
CONTINUOUS
 10
-56.6616349859
 20
3.2378101359
 40
0.5
100
AcDbArc
 50
91.0
 51
176.2495879319
  0
ARC
  5
540
100
AcDbEntity
  8
SUPERFICI
100
AcDbCircle
 62
7
  6
CONTINUOUS
 10
-26.8524712902
 20
15.5339267385
 40
44.7858999144
100
AcDbArc
 50
239.6711809666
 51
240.0388810573
  0
ARC
  5
541
100
AcDbEntity
  8
0
100
AcDbCircle
 62
253
  6
CONTINUOUS
 10
-32.51360469
 20
15.9004137892
 40
2.5454721565
100
AcDbArc
 50
357.8464812837
 51
2.2421457871
  0
ARC
  5
542
100
AcDbEntity
  8
RACCORDO
100
AcDbCircle
 62
7
  6
CONTINUOUS
 10
-23.5676415705
 20
18.3943840357
 40
1.0
100
AcDbArc
 50
0.0
 51
89.0
  0
ARC
  5
543
100
AcDbEntity
  8
ASSI
100
AcDbCircle
 62
7
  6
CONTINUOUS
 10
-23.5676415705
 20
18.3943840357
 40
1.0
100
AcDbArc
 50
0.0
 51
89.0
  0
ARC
  5
544
100
AcDbEntity
  8
SUPERFICI
100
AcDbCircle
 62
7
  6
CONTINUOUS
 10
-54.3985426833
 20
21.0615984079
 40
1.0
100
AcDbArc
 50
93.0
 51
171.4241203952
  0
ARC
  5
545
100
AcDbEntity
  8
DRAFT
100
AcDbCircle
 62
7
  6
CONTINUOUS
 10
-36.9676415705
 20
21.3359869487
 40
1.0
100
AcDbArc
 50
0.0
 51
89.6666666667
  0
ARC
  5
546
100
AcDbEntity
  8
ASSI
100
AcDbCircle
 62
253
  6
CONTINUOUS
 10
-23.0734105118
 20
18.2162840827
 40
0.505769051
100
AcDbArc
 50
0.0377324299
 51
10.9860360064
  0
ARC
  5
547
100
AcDbEntity
  8
SUPERFICI
100
AcDbCircle
 62
253
  6
CONTINUOUS
 10
-54.407268883
 20
21.061598405
 40
0.500000004
100
AcDbArc
 50
92.9966151997
 51
171.4241201256
  0
ARC
  5
548
100
AcDbEntity
  8
SUPERFICI
100
AcDbCircle
 62
7
  6
CONTINUOUS
 10
-40.4676415705
 20
23.4563578147
 40
0.5
100
AcDbArc
 50
0.0
 51
89.6666666667
  0
ARC
  5
549
100
AcDbEntity
  8
SUPERFICI
100
AcDbCircle
 62
7
  6
CONTINUOUS
 10
-47.2176415705
 20
23.8443375673
 40
0.25
100
AcDbArc
 50
300.0
 51
360.0
  0
ARC
  5
54A
100
AcDbEntity
  8
SUPERFICI
100
AcDbCircle
 62
7
  6
CONTINUOUS
 10
-50.2176415705
 20
23.8443375673
 40
0.25
100
AcDbArc
 50
180.0
 51
240.0
  0
ARC
  5
54B
100
AcDbEntity
  8
SUPERFICI
100
AcDbCircle
 62
7
  6
CONTINUOUS
 10
-50.2176415705
 20
24.2369056521
 40
0.25
100
AcDbArc
 50
90.3333333333
 51
180.0
  0
ARC
  5
54C
100
AcDbEntity
  8
SUPERFICI
100
AcDbCircle
 62
7
  6
CONTINUOUS
 10
-47.2176415705
 20
24.2456323968
 40
0.25
100
AcDbArc
 50
0.0
 51
89.6666666667
  0
ARC
  5
54D
100
AcDbEntity
  8
SUPERFICI
100
AcDbCircle
 62
7
  6
CONTINUOUS
 10
443.5323584295
 20
-0.0
 40
500.0
100
AcDbArc
 50
178.91131468
 51
181.08868532
  0
ARC
  5
54E
100
AcDbEntity
  8
SUPERFICI
100
AcDbCircle
 62
253
  6
CONTINUOUS
 10
443.5689261384
 20
0.0
 40
499.5452857366
100
AcDbArc
 50
178.9114133854
 51
181.0885866146
  0
SPLINE
  5
54F
100
AcDbEntity
  8
RACCORDO
100
AcDbSpline
 62
253
  6
CONTINUOUS
 70
0
 71
3
 72
13
 73
9
 74
7
 42
0.0000001
 43
0.0000001
 44
0.0000000001
 12
-0.0609969904
 22
0.5005476873
 32
0.0
 13
-0.5026276142
 23
0.0404240212
 33
0.0
 40
0.0
 40
0.0
 40
0.0
 40
0.0
 40
0.0290493754
 40
0.0880702286
 40
0.1808108553
 40
0.3045526542
 40
0.6250577972
 40
1.0
 40
1.0
 40
1.0
 40
1.0
 10
3.7377339834
 20
3.2378101351
 30
0.0
 10
3.7371433419
 20
3.242657001
 30
0.0
 10
3.7207023674
 20
3.2510432856
 30
0.0
 10
3.6920662679
 20
3.2513262176
 30
0.0
 10
3.645072527
 20
3.2561555834
 30
0.0
 10
3.5556493361
 20
3.2639786671
 30
0.0
 10
3.4176132563
 20
3.2677529641
 30
0.0
 10
3.3006289041
 20
3.2654630649
 30
0.0
 10
3.2378101359
 20
3.2705152887
 30
0.0
 11
3.7377339834
 21
3.2378101351
 31
0.0
 11
3.7265686554
 21
3.2472919148
 31
0.0
 11
3.6971266798
 21
3.2516398936
 31
0.0
 11
3.6505212999
 21
3.2554945244
 31
0.0
 11
3.5883477402
 21
3.2607687942
 31
0.0
 11
3.4268287349
 21
3.2663352469
 31
0.0
 11
3.2378101359
 21
3.2705152887
 31
0.0
  0
SPLINE
  5
550
100
AcDbEntity
  8
RACCORDO
100
AcDbSpline
 62
253
  6
CONTINUOUS
 70
0
 71
3
 72
13
 73
9
 74
7
 42
0.0000001
 43
0.0000001
 44
0.0000000001
 12
-0.0609963273
 22
-0.5005478092
 32
0.0
 13
-0.5026276455
 23
-0.0404241409
 33
0.0
 40
0.0
 40
0.0
 40
0.0
 40
0.0
 40
0.0290494765
 40
0.0880703297
 40
0.1808109473
 40
0.3045527426
 40
0.6250578463
 40
1.0
 40
1.0
 40
1.0
 40
1.0
 10
3.7377339834
 20
-3.2378101356
 30
0.0
 10
3.7371433463
 20
-3.2426570195
 30
0.0
 10
3.7207024106
 20
-3.2510434042
 30
0.0
 10
3.6920662424
 20
-3.2513262483
 30
0.0
 10
3.6450725189
 20
-3.2561555708
 30
0.0
 10
3.5556493162
 20
-3.2639786419
 30
0.0
 10
3.4176132522
 20
-3.2677530193
 30
0.0
 10
3.3006288998
 20
-3.2654630506
 30
0.0
 10
3.2378101359
 20
-3.2705152887
 30
0.0
 11
3.7377339834
 21
-3.2378101356
 31
0.0
 11
3.7265686526
 21
-3.2472919925
 31
0.0
 11
3.6971266711
 21
-3.2516399483
 31
0.0
 11
3.6505212873
 21
-3.2554945218
 31
0.0
 11
3.5883477232
 21
-3.260768778
 31
0.0
 11
3.4268287259
 21
-3.2663352674
 31
0.0
 11
3.2378101359
 21
-3.2705152887
 31
0.0
  0
SPLINE
  5
551
100
AcDbEntity
  8
SUPERFICI
100
AcDbSpline
 62
253
  6
CONTINUOUS
 70
0
 71
3
 72
12
 73
8
 74
6
 42
0.0000001
 43
0.0000001
 44
0.0000000001
 12
0.0590407158
 22
0.5102357704
 32
0.0
 13
0.5136385888
 23
0.0013219914
 33
0.0
 40
0.0
 40
0.0
 40
0.0
 40
0.0
 40
0.03533786
 40
0.0986771909
 40
0.3158608543
 40
0.6311766965
 40
1.0
 40
1.0
 40
1.0
 40
1.0
 10
-11.0280931818
 20
21.1361579495
 30
0.0
 10
-11.0273977243
 20
21.1421681629
 30
0.0
 10
-11.0131311224
 20
21.1551383025
 30
0.0
 10
-10.9637577524
 20
21.1739579285
 30
0.0
 10
-10.86172448
 20
21.1930358263
 30
0.0
 10
-10.708687331
 20
21.2070043483
 30
0.0
 10
-10.5913166279
 20
21.2105549174
 30
0.0
 10
-10.5281693342
 20
21.2107174445
 30
0.0
 11
-11.0280931818
 21
21.1361579495
 31
0.0
 11
-11.0170310246
 21
21.1505484191
 31
0.0
 11
-10.9875922137
 21
21.1643973772
 31
0.0
 11
-10.8786574963
 21
21.1884303696
 31
0.0
 11
-10.7175155197
 21
21.2046770715
 31
0.0
 11
-10.5281693342
 21
21.2107174445
 31
0.0
  0
SPLINE
  5
552
100
AcDbEntity
  8
SUPERFICI
100
AcDbSpline
 62
253
  6
CONTINUOUS
 70
0
 71
3
 72
13
 73
9
 74
7
 42
0.0000001
 43
0.0000001
 44
0.0000000001
 12
-0.001118483
 22
0.8496009892
 32
0.0
 13
-0.1395898372
 23
0.8380559463
 33
0.0
 40
0.0
 40
0.0
 40
0.0
 40
0.0
 40
0.3803660792
 40
0.6962754093
 40
0.8181977711
 40
0.9111068686
 40
0.9722955342
 40
1.0
 40
1.0
 40
1.0
 40
1.0
 10
-10.5281693342
 20
21.2107174911
 30
0.0
 10
-10.5283111452
 20
21.3184372902
 30
0.0
 10
-10.52889607
 20
21.5156157464
 30
0.0
 10
-10.5301983665
 20
21.7473471712
 30
0.0
 10
-10.5320405798
 20
21.8976137229
 30
0.0
 10
-10.5329207446
 20
21.9758308708
 30
0.0
 10
-10.5348722639
 20
22.0271878971
 30
0.0
 10
-10.5350532509
 20
22.0524886452
 30
0.0
 10
-10.5363423382
 20
22.0602279426
 30
0.0
 11
-10.5281693342
 21
21.2107174911
 31
0.0
 11
-10.5291063903
 21
21.5338758097
 31
0.0
 11
-10.5309355067
 21
21.8022666889
 31
0.0
 11
-10.5321217553
 21
21.9058453452
 31
0.0
 11
-10.5334445719
 21
21.98476999
 31
0.0
 11
-10.5348653336
 21
22.0367365677
 31
0.0
 11
-10.5363423382
 21
22.0602279426
 31
0.0
  0
SPLINE
  5
553
100
AcDbEntity
  8
SUPERFICI
100
AcDbSpline
 62
253
  6
CONTINUOUS
 70
0
 71
3
 72
13
 73
9
 74
7
 42
0.0000001
 43
0.0000001
 44
0.0000000001
 12
-0.0011185348
 22
0.4249213513
 32
0.0
 13
-0.1329458982
 23
0.4035898835
 33
0.0
 40
0.0
 40
0.0
 40
0.0
 40
0.0
 40
0.3801387947
 40
0.6959065668
 40
0.8178135656
 40
0.910758658
 40
0.9720530702
 40
1.0
 40
1.0
 40
1.0
 40
1.0
 10
-11.0280931818
 20
21.1361579495
 30
0.0
 10
-11.0282349146
 20
21.1900009796
 30
0.0
 10
-11.0288149221
 20
21.2885569818
 30
0.0
 10
-11.0301313794
 20
21.4044231223
 30
0.0
 10
-11.0319505416
 20
21.4795081273
 30
0.0
 10
-11.0328709528
 20
21.5187058237
 30
0.0
 10
-11.0347428635
 20
21.544275967
 30
0.0
 10
-11.0350231814
 20
21.5571393279
 30
0.0
 10
-11.0362616579
 20
21.5608990273
 30
0.0
 11
-11.0280931818
 21
21.1361579495
 31
0.0
 11
-11.0290297659
 21
21.2976848842
 31
0.0
 11
-11.0308577586
 21
21.4318493648
 31
0.0
 11
-11.0320432407
 21
21.4836368641
 31
0.0
 11
-11.0333652403
 21
21.5231092233
 31
0.0
 11
-11.0347851796
 21
21.5491158832
 31
0.0
 11
-11.0362616579
 21
21.5608990273
 31
0.0
  0
SPLINE
  5
554
100
AcDbEntity
  8
SUPERFICI
100
AcDbSpline
 62
253
  6
CONTINUOUS
 70
0
 71
3
 72
16
 73
12
 74
10
 42
0.0000001
 43
0.0000001
 44
0.0000000001
 12
0.3383269824
 22
0.3684507043
 32
0.0
 13
0.5002209922
 23
0.0001658665
 33
0.0
 40
0.0
 40
0.0
 40
0.0
 40
0.0
 40
0.006656732
 40
0.0225114064
 40
0.0475277175
 40
0.0814932712
 40
0.1749404601
 40
0.2993684902
 40
0.4501138521
 40
0.6215148476
 40
1.0
 40
1.0
 40
1.0
 40
1.0
 10
-11.0109082972
 20
9.4905
 30
0.0
 10
-11.0101575799
 20
9.4913175592
 30
0.0
 10
-11.0059081135
 20
9.4914174588
 30
0.0
 10
-10.9984800657
 20
9.4926974686
 30
0.0
 10
-10.9857890317
 20
9.4932846351
 30
0.0
 10
-10.9605407905
 20
9.4946807145
 30
0.0
 10
-10.9184702864
 20
9.495924447
 30
0.0
 10
-10.8570657633
 20
9.4973352665
 30
0.0
 10
-10.782595912
 20
9.4984501078
 30
0.0
 10
-10.6657847624
 20
9.4996387548
 30
0.0
 10
-10.5740931891
 20
9.499979074
 30
0.0
 10
-10.5109844497
 20
9.5
 30
0.0
 11
-11.0109082972
 21
9.4905
 31
0.0
 11
-11.0077083402
 21
9.4914209188
 31
0.0
 11
-10.9998301599
 21
9.4923333439
 31
0.0
 11
-10.9873485227
 21
9.4932283497
 31
0.0
 11
-10.9703804954
 21
9.4940977165
 31
0.0
 11
-10.9236646472
 21
9.4957269066
 31
0.0
 11
-10.8614396238
 21
9.4971596626
 31
0.0
 11
-10.7860428969
 21
9.4983421181
 31
0.0
 11
-10.7003091121
 21
9.4992298544
 31
0.0
 11
-10.5109844497
 21
9.5
 31
0.0
  0
SPLINE
  5
555
100
AcDbEntity
  8
SUPERFICI
100
AcDbSpline
 62
253
  6
CONTINUOUS
 70
0
 71
3
 72
16
 73
12
 74
10
 42
0.0000001
 43
0.0000001
 44
0.0000000001
 12
0.3383269506
 22
-0.3684507336
 32
0.0
 13
0.5002209922
 23
-0.0001658665
 33
0.0
 40
0.0
 40
0.0
 40
0.0
 40
0.0
 40
0.0066567318
 40
0.0225114059
 40
0.0475277168
 40
0.0814932703
 40
0.174940459
 40
0.2993684892
 40
0.4501138512
 40
0.621514847
 40
1.0
 40
1.0
 40
1.0
 40
1.0
 10
-11.0109082972
 20
-9.4905
 30
0.0
 10
-11.01015758
 20
-9.4913175592
 30
0.0
 10
-11.0059081136
 20
-9.4914174587
 30
0.0
 10
-10.9984800659
 20
-9.4926974686
 30
0.0
 10
-10.985789032
 20
-9.4932846351
 30
0.0
 10
-10.960540791
 20
-9.4946807146
 30
0.0
 10
-10.9184702869
 20
-9.495924447
 30
0.0
 10
-10.8570657638
 20
-9.4973352665
 30
0.0
 10
-10.7825959125
 20
-9.4984501078
 30
0.0
 10
-10.6657847626
 20
-9.4996387548
 30
0.0
 10
-10.5740931892
 20
-9.499979074
 30
0.0
 10
-10.5109844497
 20
-9.5
 30
0.0
 11
-11.0109082972
 21
-9.4905
 31
0.0
 11
-11.0077083404
 21
-9.4914209188
 31
0.0
 11
-10.9998301601
 21
-9.4923333439
 31
0.0
 11
-10.987348523
 21
-9.4932283497
 31
0.0
 11
-10.9703804959
 21
-9.4940977165
 31
0.0
 11
-10.9236646478
 21
-9.4957269066
 31
0.0
 11
-10.8614396243
 21
-9.4971596626
 31
0.0
 11
-10.7860428974
 21
-9.4983421182
 31
0.0
 11
-10.7003091124
 21
-9.4992298545
 31
0.0
 11
-10.5109844497
 21
-9.5
 31
0.0
  0
SPLINE
  5
556
100
AcDbEntity
  8
SUPERFICI
100
AcDbSpline
 62
253
  6
CONTINUOUS
 70
0
 71
3
 72
8
 73
4
 74
2
 42
0.0000001
 43
0.0000001
 44
0.0000000001
 12
0.0062961108
 22
18.9809989558
 32
0.0
 13
-0.0062961107
 23
18.9809989558
 33
0.0
 40
0.0
 40
0.0
 40
0.0
 40
0.0
 40
1.0
 40
1.0
 40
1.0
 40
1.0
 10
-11.0109082972
 20
-9.4905
 30
0.0
 10
-11.0088095936
 20
-3.1635003481
 30
0.0
 10
-11.0088095936
 20
3.1635003481
 30
0.0
 10
-11.0109082972
 20
9.4905
 30
0.0
 11
-11.0109082972
 21
-9.4905
 31
0.0
 11
-11.0109082972
 21
9.4905
 31
0.0
  0
SPLINE
  5
557
100
AcDbEntity
  8
SUPERFICI
100
AcDbSpline
 62
253
  6
CONTINUOUS
 70
0
 71
3
 72
12
 73
8
 74
6
 42
0.0000001
 43
0.0000001
 44
0.0000000001
 12
0.0590396755
 22
-0.5102359167
 32
0.0
 13
0.5136386145
 23
-0.0013219934
 33
0.0
 40
0.0
 40
0.0
 40
0.0
 40
0.0
 40
0.0353378329
 40
0.0986771219
 40
0.3158607299
 40
0.6311765982
 40
1.0
 40
1.0
 40
1.0
 40
1.0
 10
-11.0280931818
 20
-21.1361579495
 30
0.0
 10
-11.027397737
 20
-21.14216816
 30
0.0
 10
-11.0131311582
 20
-21.1551383147
 30
0.0
 10
-10.9637578078
 20
-21.1739579446
 30
0.0
 10
-10.8617245467
 20
-21.1930358606
 30
0.0
 10
-10.708687378
 20
-21.2070043903
 30
0.0
 10
-10.5913166479
 20
-21.2105549635
 30
0.0
 10
-10.5281693342
 20
-21.2107174909
 30
0.0
 11
-11.0280931818
 21
-21.1361579495
 31
0.0
 11
-11.017031053
 21
-21.1505484245
 31
0.0
 11
-10.987592267
 21
-21.164397389
 31
0.0
 11
-10.8786575764
 21
-21.1884303961
 31
0.0
 11
-10.7175155795
 21
-21.2046771117
 31
0.0
 11
-10.5281693342
 21
-21.2107174909
 31
0.0
  0
SPLINE
  5
558
100
AcDbEntity
  8
SUPERFICI
100
AcDbSpline
 62
253
  6
CONTINUOUS
 70
0
 71
3
 72
13
 73
9
 74
7
 42
0.0000001
 43
0.0000001
 44
0.0000000001
 12
0.1395223671
 22
0.8380671944
 32
0.0
 13
0.0011185006
 23
0.8496010018
 33
0.0
 40
0.0
 40
0.0
 40
0.0
 40
0.0
 40
0.0277044641
 40
0.0888931427
 40
0.1818022404
 40
0.3037246006
 40
0.6196339258
 40
1.0
 40
1.0
 40
1.0
 40
1.0
 10
-10.5363425225
 20
-22.0602279426
 30
0.0
 10
-10.5350540584
 20
-22.0524885418
 30
0.0
 10
-10.5348713836
 20
-22.0271880284
 30
0.0
 10
-10.5329211772
 20
-21.9758308106
 30
0.0
 10
-10.5320403646
 20
-21.8976137512
 30
0.0
 10
-10.5301985409
 20
-21.7473471487
 30
0.0
 10
-10.5288959913
 20
-21.5156157576
 30
0.0
 10
-10.5283111474
 20
-21.3184372904
 30
0.0
 10
-10.5281693342
 20
-21.2107174911
 30
0.0
 11
-10.5363425225
 21
-22.0602279426
 31
0.0
 11
-10.5348653153
 21
-22.0367365815
 31
0.0
 11
-10.5334445428
 21
-21.9847699923
 31
0.0
 11
-10.532121732
 21
-21.9058453461
 31
0.0
 11
-10.5309355033
 21
-21.8022666894
 31
0.0
 11
-10.5291063925
 21
-21.5338758103
 31
0.0
 11
-10.5281693342
 21
-21.2107174911
 31
0.0
  0
SPLINE
  5
559
100
AcDbEntity
  8
SUPERFICI
100
AcDbSpline
 62
253
  6
CONTINUOUS
 70
0
 71
3
 72
13
 73
9
 74
7
 42
0.0000001
 43
0.0000001
 44
0.0000000001
 12
0.1342393988
 22
0.4031769632
 32
0.0
 13
0.0011186957
 23
0.4249360286
 33
0.0
 40
0.0
 40
0.0
 40
0.0
 40
0.0
 40
0.0278564617
 40
0.0890889748
 40
0.182001387
 40
0.3039036924
 40
0.6197341137
 40
1.0
 40
1.0
 40
1.0
 40
1.0
 10
-11.0362663701
 20
-21.5609131753
 30
0.0
 10
-11.0350198919
 20
-21.5571694807
 30
0.0
 10
-11.034753573
 20
-21.5443210055
 30
0.0
 10
-11.0328692849
 20
-21.5187815185
 30
0.0
 10
-11.0319546364
 20
-21.4795938267
 30
0.0
 10
-11.0301309083
 20
-21.4045041605
 30
0.0
 10
-11.0288160086
 20
-21.2886067975
 30
0.0
 10
-11.0282349824
 20
-21.1900208414
 30
0.0
 10
-11.0280931818
 20
-21.1361579495
 30
0.0
 11
-11.0362663701
 21
-21.5609131753
 31
0.0
 11
-11.0347892059
 21
-21.5491684489
 31
0.0
 11
-11.0333685072
 21
-21.523187272
 31
0.0
 11
-11.0320457304
 21
-21.4837274687
 31
0.0
 11
-11.0308595059
 21
-21.4319401915
 31
0.0
 11
-11.0290303216
 21
-21.2977444675
 31
0.0
 11
-11.0280931818
 21
-21.1361579495
 31
0.0
  0
SPLINE
  5
55A
100
AcDbEntity
  8
RACCORDO
100
AcDbSpline
 62
253
  6
CONTINUOUS
 70
0
 71
3
 72
13
 73
9
 74
7
 42
0.0000001
 43
0.0000001
 44
0.0000000001
 12
0.0609969904
 22
-0.5005476873
 32
0.0
 13
0.5026276142
 23
-0.0404240212
 33
0.0
 40
0.0
 40
0.0
 40
0.0
 40
0.0
 40
0.0290493754
 40
0.0880702286
 40
0.1808108553
 40
0.3045526542
 40
0.6250577972
 40
1.0
 40
1.0
 40
1.0
 40
1.0
 10
-3.7377339834
 20
-3.2378101351
 30
0.0
 10
-3.7371433419
 20
-3.242657001
 30
0.0
 10
-3.7207023674
 20
-3.2510432856
 30
0.0
 10
-3.6920662679
 20
-3.2513262176
 30
0.0
 10
-3.645072527
 20
-3.2561555834
 30
0.0
 10
-3.5556493361
 20
-3.2639786671
 30
0.0
 10
-3.4176132563
 20
-3.2677529641
 30
0.0
 10
-3.3006289041
 20
-3.2654630649
 30
0.0
 10
-3.2378101359
 20
-3.2705152887
 30
0.0
 11
-3.7377339834
 21
-3.2378101351
 31
0.0
 11
-3.7265686554
 21
-3.2472919148
 31
0.0
 11
-3.6971266798
 21
-3.2516398936
 31
0.0
 11
-3.6505212999
 21
-3.2554945244
 31
0.0
 11
-3.5883477402
 21
-3.2607687942
 31
0.0
 11
-3.4268287349
 21
-3.2663352469
 31
0.0
 11
-3.2378101359
 21
-3.2705152887
 31
0.0
  0
SPLINE
  5
55B
100
AcDbEntity
  8
RACCORDO
100
AcDbSpline
 62
253
  6
CONTINUOUS
 70
0
 71
3
 72
13
 73
9
 74
7
 42
0.0000001
 43
0.0000001
 44
0.0000000001
 12
0.06099536
 22
0.5005479872
 32
0.0
 13
0.5026276902
 23
0.0404243294
 33
0.0
 40
0.0
 40
0.0
 40
0.0
 40
0.0
 40
0.0290496242
 40
0.0880704774
 40
0.1808110821
 40
0.3045528728
 40
0.6250579187
 40
1.0
 40
1.0
 40
1.0
 40
1.0
 10
-3.7377339834
 20
3.2378101352
 30
0.0
 10
-3.7371433527
 20
3.2426570455
 30
0.0
 10
-3.7207024737
 20
3.2510435762
 30
0.0
 10
-3.6920662052
 20
3.2513262925
 30
0.0
 10
-3.6450725068
 20
3.2561555519
 30
0.0
 10
-3.5556492869
 20
3.2639786051
 30
0.0
 10
-3.4176132461
 20
3.2677531005
 30
0.0
 10
-3.3006288933
 20
3.265463028
 30
0.0
 10
-3.2378101359
 20
3.2705152887
 30
0.0
 11
-3.7377339834
 21
3.2378101352
 31
0.0
 11
-3.7265686483
 21
3.247292105
 31
0.0
 11
-3.6971266584
 21
3.2516400275
 31
0.0
 11
-3.6505212687
 21
3.2554945178
 31
0.0
 11
-3.5883476978
 21
3.2607687542
 31
0.0
 11
-3.4268287124
 21
3.2663352975
 31
0.0
 11
-3.2378101359
 21
3.2705152887
 31
0.0
  0
SPLINE
  5
55C
100
AcDbEntity
  8
SUPERFICI
100
AcDbSpline
 62
253
  6
CONTINUOUS
 70
0
 71
3
 72
10
 73
6
 74
4
 42
0.0000001
 43
0.0000001
 44
0.0000000001
 12
0.001213321
 22
0.3612351839
 32
0.0
 13
0.3612360752
 23
0.0009100238
 33
0.0
 40
0.0
 40
0.0
 40
0.0
 40
0.0
 40
0.2350699996
 40
0.4805706163
 40
1.0
 40
1.0
 40
1.0
 40
1.0
 10
-10.1369014213
 20
-23.8443375673
 30
0.0
 10
-10.1368063495
 20
-23.8160323825
 30
0.0
 10
-10.1227633015
 20
-23.7574749998
 30
0.0
 10
-10.0465359174
 20
-23.6607030629
 30
0.0
 10
-9.9494511961
 20
-23.6279887807
 30
0.0
 10
-9.8869056521
 20
-23.6278312164
 30
0.0
 11
-10.1369014213
 21
-23.8443375673
 31
0.0
 11
-10.1176631919
 21
-23.7616295068
 31
0.0
 11
-10.0634226257
 21
-23.6914667969
 31
0.0
 11
-9.8869056521
 21
-23.6278312164
 31
0.0
  0
SPLINE
  5
55D
100
AcDbEntity
  8
RACCORDO
100
AcDbSpline
 62
253
  6
CONTINUOUS
 70
0
 71
3
 72
8
 73
4
 74
2
 42
0.0000001
 43
0.0000001
 44
0.0000000001
 12
0.0007408042
 22
6.5139286868
 32
0.0
 13
-0.0007408042
 23
6.5139286868
 33
0.0
 40
0.0
 40
0.0
 40
0.0
 40
0.0
 40
1.0
 40
1.0
 40
1.0
 40
1.0
 10
4.1568272901
 20
-3.2569643645
 30
0.0
 10
4.1570742249
 20
-1.0856548022
 30
0.0
 10
4.1570742249
 20
1.0856548022
 30
0.0
 10
4.1568272901
 20
3.2569643645
 30
0.0
 11
4.1568272901
 21
-3.2569643645
 31
0.0
 11
4.1568272901
 21
3.2569643645
 31
0.0
  0
SPLINE
  5
55E
100
AcDbEntity
  8
SUPERFICI
100
AcDbSpline
 62
7
  6
CONTINUOUS
 70
0
 71
3
 72
11
 73
7
 74
5
 42
0.0000001
 43
0.0000001
 44
0.0000000001
 12
-0.3128734253
 22
0.0
 32
0.0
 13
-0.0031525156
 23
-0.3128575425
 33
0.0
 40
0.0
 40
0.0
 40
0.0
 40
0.0
 40
0.327069379
 40
0.6069908884
 40
0.8253215288
 40
1.0
 40
1.0
 40
1.0
 40
1.0
 10
-9.8927234819
 20
-23.1226497308
 30
0.0
 10
-9.9268339208
 20
-23.1226497308
 30
0.0
 10
-9.9904594437
 20
-23.1303374357
 30
0.0
 10
-10.0715941031
 20
-23.1618479167
 30
0.0
 10
-10.1271657214
 20
-23.2077593007
 30
0.0
 10
-10.1425356922
 20
-23.2487708057
 30
0.0
 10
-10.1427192511
 20
-23.2669872981
 30
0.0
 11
-9.8927234819
 21
-23.1226497308
 31
0.0
 11
-9.9942534457
 21
-23.1354311576
 31
0.0
 11
-10.0751759211
 21
-23.1689245842
 31
0.0
 11
-10.1254977136
 21
-23.215119319
 31
0.0
 11
-10.1427192511
 21
-23.2669872981
 31
0.0
  0
SPLINE
  5
55F
100
AcDbEntity
  8
SUPERFICI
100
AcDbSpline
 62
7
  6
CONTINUOUS
 70
0
 71
3
 72
11
 73
7
 74
5
 42
0.0000001
 43
0.0000001
 44
0.0000000001
 12
-0.0031597576
 22
0.3135762468
 32
0.0
 13
-0.3135921661
 23
0.0
 33
0.0
 40
0.0
 40
0.0
 40
0.0
 40
0.0
 40
0.1745970712
 40
0.3929474236
 40
0.672962312
 40
1.0
 40
1.0
 40
1.0
 40
1.0
 10
-7.2572807489
 20
-23.2669872981
 30
0.0
 10
-7.2574646437
 20
-23.2487374667
 30
0.0
 10
-7.2728980961
 20
-23.2076402818
 30
0.0
 10
-7.3286579321
 20
-23.1616935154
 30
0.0
 10
-7.4100267022
 20
-23.1301817308
 30
0.0
 10
-7.4738182612
 20
-23.1226497308
 30
0.0
 10
-7.5080037468
 20
-23.1226497308
 30
0.0
 11
-7.2572807489
 21
-23.2669872981
 31
0.0
 11
-7.2745605835
 21
-23.2150332915
 31
0.0
 11
-7.3250527761
 21
-23.1687830511
 31
0.0
 11
-7.4062311591
 21
-23.1353054509
 31
0.0
 11
-7.5080037468
 21
-23.1226497308
 31
0.0
  0
SPLINE
  5
560
100
AcDbEntity
  8
SUPERFICI
100
AcDbSpline
 62
253
  6
CONTINUOUS
 70
0
 71
3
 72
10
 73
6
 74
4
 42
0.0000001
 43
0.0000001
 44
0.0000000001
 12
-0.001213321
 22
0.3612351839
 32
0.0
 13
-0.3612360752
 23
0.0009100238
 33
0.0
 40
0.0
 40
0.0
 40
0.0
 40
0.0
 40
0.2350699996
 40
0.4805706163
 40
1.0
 40
1.0
 40
1.0
 40
1.0
 10
-7.2630985787
 20
-23.8443375673
 30
0.0
 10
-7.2631936505
 20
-23.8160323825
 30
0.0
 10
-7.2772366985
 20
-23.7574749998
 30
0.0
 10
-7.3534640826
 20
-23.6607030629
 30
0.0
 10
-7.4505488039
 20
-23.6279887807
 30
0.0
 10
-7.5130943479
 20
-23.6278312164
 30
0.0
 11
-7.2630985787
 21
-23.8443375673
 31
0.0
 11
-7.2823368081
 21
-23.7616295068
 31
0.0
 11
-7.3365773743
 21
-23.6914667969
 31
0.0
 11
-7.5130943479
 21
-23.6278312164
 31
0.0
  0
SPLINE
  5
561
100
AcDbEntity
  8
SUPERFICI
100
AcDbSpline
 62
253
  6
CONTINUOUS
 70
0
 71
3
 72
10
 73
6
 74
4
 42
0.0000001
 43
0.0000001
 44
0.0000000001
 12
0.001213321
 22
0.3612351831
 32
0.0
 13
0.3612360745
 23
0.0009100238
 33
0.0
 40
0.0
 40
0.0
 40
0.0
 40
0.0
 40
0.2350699118
 40
0.4805705526
 40
1.0
 40
1.0
 40
1.0
 40
1.0
 10
7.2630985787
 20
-23.8443375673
 30
0.0
 10
7.2631936505
 20
-23.8160323931
 30
0.0
 10
7.2772366891
 20
-23.7574750183
 30
0.0
 10
7.3534640635
 20
-23.6607030719
 30
0.0
 10
7.4505487964
 20
-23.6279887807
 30
0.0
 10
7.5130943479
 20
-23.6278312164
 30
0.0
 11
7.2630985787
 21
-23.8443375673
 31
0.0
 11
7.282336793
 21
-23.761629536
 31
0.0
 11
7.336577356
 21
-23.6914668129
 31
0.0
 11
7.5130943479
 21
-23.6278312164
 31
0.0
  0
SPLINE
  5
562
100
AcDbEntity
  8
SUPERFICI
100
AcDbSpline
 62
7
  6
CONTINUOUS
 70
0
 71
3
 72
11
 73
7
 74
5
 42
0.0000001
 43
0.0000001
 44
0.0000000001
 12
0.0031597576
 22
0.3135762468
 32
0.0
 13
0.3135921661
 23
0.0
 33
0.0
 40
0.0
 40
0.0
 40
0.0
 40
0.0
 40
0.1745970712
 40
0.3929474236
 40
0.672962312
 40
1.0
 40
1.0
 40
1.0
 40
1.0
 10
7.2572807489
 20
-23.2669872981
 30
0.0
 10
7.2574646437
 20
-23.2487374667
 30
0.0
 10
7.2728980961
 20
-23.2076402818
 30
0.0
 10
7.3286579321
 20
-23.1616935154
 30
0.0
 10
7.4100267022
 20
-23.1301817308
 30
0.0
 10
7.4738182612
 20
-23.1226497308
 30
0.0
 10
7.5080037468
 20
-23.1226497308
 30
0.0
 11
7.2572807489
 21
-23.2669872981
 31
0.0
 11
7.2745605835
 21
-23.2150332915
 31
0.0
 11
7.3250527761
 21
-23.1687830511
 31
0.0
 11
7.4062311591
 21
-23.1353054509
 31
0.0
 11
7.5080037468
 21
-23.1226497308
 31
0.0
  0
SPLINE
  5
563
100
AcDbEntity
  8
RACCORDO
100
AcDbSpline
 62
253
  6
CONTINUOUS
 70
0
 71
3
 72
8
 73
4
 74
2
 42
0.0000001
 43
0.0000001
 44
0.0000000001
 12
-0.0007408042
 22
-6.5139286868
 32
0.0
 13
0.0007408042
 23
-6.5139286868
 33
0.0
 40
0.0
 40
0.0
 40
0.0
 40
0.0
 40
1.0
 40
1.0
 40
1.0
 40
1.0
 10
-4.1568272901
 20
3.2569643645
 30
0.0
 10
-4.1570742249
 20
1.0856548022
 30
0.0
 10
-4.1570742249
 20
-1.0856548022
 30
0.0
 10
-4.1568272901
 20
-3.2569643645
 30
0.0
 11
-4.1568272901
 21
3.2569643645
 31
0.0
 11
-4.1568272901
 21
-3.2569643645
 31
0.0
  0
SPLINE
  5
564
100
AcDbEntity
  8
RACCORDO
100
AcDbSpline
 62
253
  6
CONTINUOUS
 70
0
 71
3
 72
11
 73
7
 74
5
 42
0.0000001
 43
0.0000001
 44
0.0000000001
 12
0.093673264
 22
-0.0349756225
 32
0.0
 13
0.0999898716
 23
-0.000011371
 33
0.0
 40
0.0
 40
0.0
 40
0.0
 40
0.0
 40
0.0812610357
 40
0.2989290445
 40
0.6217934666
 40
1.0
 40
1.0
 40
1.0
 40
1.0
 10
4.1568272901
 20
-3.2569643645
 30
0.0
 10
4.1593646189
 20
-3.2579117496
 30
0.0
 10
4.1697094964
 20
-3.2562886286
 30
0.0
 10
4.1900988252
 20
-3.2580212454
 30
0.0
 10
4.2208867263
 20
-3.2573638026
 30
0.0
 10
4.2442064521
 20
-3.2576144541
 30
0.0
 10
4.2568120596
 20
-3.2576158877
 30
0.0
 11
4.1568272901
 21
-3.2569643645
 31
0.0
 11
4.1649488331
 21
-3.2572107871
 31
0.0
 11
4.1867124129
 21
-3.2574211495
 31
0.0
 11
4.2189952737
 21
-3.2575629659
 31
0.0
 11
4.2568120596
 21
-3.2576158877
 31
0.0
  0
SPLINE
  5
565
100
AcDbEntity
  8
RACCORDO
100
AcDbSpline
 62
253
  6
CONTINUOUS
 70
0
 71
3
 72
11
 73
7
 74
5
 42
0.0000001
 43
0.0000001
 44
0.0000000001
 12
0.0936736864
 22
0.0349754703
 32
0.0
 13
0.0999902141
 23
0.0000113679
 33
0.0
 40
0.0
 40
0.0
 40
0.0
 40
0.0
 40
0.0812611869
 40
0.2989294177
 40
0.6217938734
 40
1.0
 40
1.0
 40
1.0
 40
1.0
 10
4.1568269476
 20
3.2569643645
 30
0.0
 10
4.1593642926
 20
3.2579117472
 30
0.0
 10
4.1697092122
 20
3.2562886334
 30
0.0
 10
4.1900986297
 20
3.258021243
 30
0.0
 10
4.2208866284
 20
3.2573638044
 30
0.0
 10
4.2442064224
 20
3.2576144538
 30
0.0
 10
4.2568120596
 20
3.257615887
 30
0.0
 11
4.1568269476
 21
3.2569643645
 31
0.0
 11
4.1649485335
 21
3.2572107876
 31
0.0
 11
4.1867122101
 21
3.2574211502
 31
0.0
 11
4.2189951848
 21
3.2575629661
 31
0.0
 11
4.2568120596
 21
3.257615887
 31
0.0
  0
SPLINE
  5
566
100
AcDbEntity
  8
SUPERFICI
100
AcDbSpline
 62
7
  6
CONTINUOUS
 70
0
 71
3
 72
11
 73
7
 74
5
 42
0.0000001
 43
0.0000001
 44
0.0000000001
 12
-0.0031597576
 22
0.3135762468
 32
0.0
 13
-0.3135921661
 23
0.0
 33
0.0
 40
0.0
 40
0.0
 40
0.0
 40
0.0
 40
0.1745970712
 40
0.3929474236
 40
0.672962312
 40
1.0
 40
1.0
 40
1.0
 40
1.0
 10
10.1427192511
 20
-23.2669872981
 30
0.0
 10
10.1425353563
 20
-23.2487374667
 30
0.0
 10
10.1271019039
 20
-23.2076402818
 30
0.0
 10
10.0713420679
 20
-23.1616935154
 30
0.0
 10
9.9899732978
 20
-23.1301817308
 30
0.0
 10
9.9261817388
 20
-23.1226497308
 30
0.0
 10
9.8919962532
 20
-23.1226497308
 30
0.0
 11
10.1427192511
 21
-23.2669872981
 31
0.0
 11
10.1254394165
 21
-23.2150332915
 31
0.0
 11
10.0749472239
 21
-23.1687830511
 31
0.0
 11
9.9937688409
 21
-23.1353054509
 31
0.0
 11
9.8919962532
 21
-23.1226497308
 31
0.0
  0
SPLINE
  5
567
100
AcDbEntity
  8
SUPERFICI
100
AcDbSpline
 62
253
  6
CONTINUOUS
 70
0
 71
3
 72
10
 73
6
 74
4
 42
0.0000001
 43
0.0000001
 44
0.0000000001
 12
-0.001213321
 22
0.3612351839
 32
0.0
 13
-0.3612360752
 23
0.0009100238
 33
0.0
 40
0.0
 40
0.0
 40
0.0
 40
0.0
 40
0.2350699996
 40
0.4805706163
 40
1.0
 40
1.0
 40
1.0
 40
1.0
 10
10.1369014213
 20
-23.8443375673
 30
0.0
 10
10.1368063495
 20
-23.8160323825
 30
0.0
 10
10.1227633015
 20
-23.7574749998
 30
0.0
 10
10.0465359174
 20
-23.6607030629
 30
0.0
 10
9.9494511961
 20
-23.6279887807
 30
0.0
 10
9.8869056521
 20
-23.6278312164
 30
0.0
 11
10.1369014213
 21
-23.8443375673
 31
0.0
 11
10.1176631919
 21
-23.7616295068
 31
0.0
 11
10.0634226257
 21
-23.6914667969
 31
0.0
 11
9.8869056521
 21
-23.6278312164
 31
0.0
  0
SPLINE
  5
568
100
AcDbEntity
  8
SUPERFICI
100
AcDbSpline
 62
253
  6
CONTINUOUS
 70
0
 71
3
 72
10
 73
6
 74
4
 42
0.0000001
 43
0.0000001
 44
0.0000000001
 12
-0.001213321
 22
-0.3612351831
 32
0.0
 13
-0.3612360745
 23
-0.0009100238
 33
0.0
 40
0.0
 40
0.0
 40
0.0
 40
0.0
 40
0.2350699118
 40
0.4805705526
 40
1.0
 40
1.0
 40
1.0
 40
1.0
 10
10.1369014213
 20
23.8443375673
 30
0.0
 10
10.1368063495
 20
23.8160323931
 30
0.0
 10
10.1227633109
 20
23.7574750183
 30
0.0
 10
10.0465359365
 20
23.6607030719
 30
0.0
 10
9.9494512036
 20
23.6279887807
 30
0.0
 10
9.8869056521
 20
23.6278312164
 30
0.0
 11
10.1369014213
 21
23.8443375673
 31
0.0
 11
10.117663207
 21
23.761629536
 31
0.0
 11
10.063422644
 21
23.6914668129
 31
0.0
 11
9.8869056521
 21
23.6278312164
 31
0.0
  0
SPLINE
  5
569
100
AcDbEntity
  8
SUPERFICI
100
AcDbSpline
 62
7
  6
CONTINUOUS
 70
0
 71
3
 72
11
 73
7
 74
5
 42
0.0000001
 43
0.0000001
 44
0.0000000001
 12
-0.0031597576
 22
-0.3135762468
 32
0.0
 13
-0.3135921661
 23
-0.0
 33
0.0
 40
0.0
 40
0.0
 40
0.0
 40
0.0
 40
0.1745970712
 40
0.3929474236
 40
0.672962312
 40
1.0
 40
1.0
 40
1.0
 40
1.0
 10
10.1427192511
 20
23.2669872981
 30
0.0
 10
10.1425353563
 20
23.2487374667
 30
0.0
 10
10.1271019039
 20
23.2076402818
 30
0.0
 10
10.0713420679
 20
23.1616935154
 30
0.0
 10
9.9899732978
 20
23.1301817308
 30
0.0
 10
9.9261817388
 20
23.1226497308
 30
0.0
 10
9.8919962532
 20
23.1226497308
 30
0.0
 11
10.1427192511
 21
23.2669872981
 31
0.0
 11
10.1254394165
 21
23.2150332915
 31
0.0
 11
10.0749472239
 21
23.1687830511
 31
0.0
 11
9.9937688409
 21
23.1353054509
 31
0.0
 11
9.8919962532
 21
23.1226497308
 31
0.0
  0
SPLINE
  5
56A
100
AcDbEntity
  8
SUPERFICI
100
AcDbSpline
 62
7
  6
CONTINUOUS
 70
0
 71
3
 72
11
 73
7
 74
5
 42
0.0000001
 43
0.0000001
 44
0.0000000001
 12
0.0031597576
 22
-0.3135762468
 32
0.0
 13
0.3135921661
 23
-0.0
 33
0.0
 40
0.0
 40
0.0
 40
0.0
 40
0.0
 40
0.1745970712
 40
0.3929474236
 40
0.672962312
 40
1.0
 40
1.0
 40
1.0
 40
1.0
 10
7.2572807489
 20
23.2669872981
 30
0.0
 10
7.2574646437
 20
23.2487374667
 30
0.0
 10
7.2728980961
 20
23.2076402818
 30
0.0
 10
7.3286579321
 20
23.1616935154
 30
0.0
 10
7.4100267022
 20
23.1301817308
 30
0.0
 10
7.4738182612
 20
23.1226497308
 30
0.0
 10
7.5080037468
 20
23.1226497308
 30
0.0
 11
7.2572807489
 21
23.2669872981
 31
0.0
 11
7.2745605835
 21
23.2150332915
 31
0.0
 11
7.3250527761
 21
23.1687830511
 31
0.0
 11
7.4062311591
 21
23.1353054509
 31
0.0
 11
7.5080037468
 21
23.1226497308
 31
0.0
  0
SPLINE
  5
56B
100
AcDbEntity
  8
SUPERFICI
100
AcDbSpline
 62
253
  6
CONTINUOUS
 70
0
 71
3
 72
10
 73
6
 74
4
 42
0.0000001
 43
0.0000001
 44
0.0000000001
 12
0.001213321
 22
-0.3612351839
 32
0.0
 13
0.3612360752
 23
-0.0009100238
 33
0.0
 40
0.0
 40
0.0
 40
0.0
 40
0.0
 40
0.2350699996
 40
0.4805706163
 40
1.0
 40
1.0
 40
1.0
 40
1.0
 10
7.2630985787
 20
23.8443375673
 30
0.0
 10
7.2631936505
 20
23.8160323825
 30
0.0
 10
7.2772366985
 20
23.7574749998
 30
0.0
 10
7.3534640826
 20
23.6607030629
 30
0.0
 10
7.4505488039
 20
23.6279887807
 30
0.0
 10
7.5130943479
 20
23.6278312164
 30
0.0
 11
7.2630985787
 21
23.8443375673
 31
0.0
 11
7.2823368081
 21
23.7616295068
 31
0.0
 11
7.3365773743
 21
23.6914667969
 31
0.0
 11
7.5130943479
 21
23.6278312164
 31
0.0
  0
SPLINE
  5
56C
100
AcDbEntity
  8
SUPERFICI
100
AcDbSpline
 62
253
  6
CONTINUOUS
 70
0
 71
3
 72
10
 73
6
 74
4
 42
0.0000001
 43
0.0000001
 44
0.0000000001
 12
-0.001213321
 22
-0.3612351839
 32
0.0
 13
-0.3612360752
 23
-0.0009100238
 33
0.0
 40
0.0
 40
0.0
 40
0.0
 40
0.0
 40
0.2350699996
 40
0.4805706163
 40
1.0
 40
1.0
 40
1.0
 40
1.0
 10
-7.2630985787
 20
23.8443375673
 30
0.0
 10
-7.2631936505
 20
23.8160323825
 30
0.0
 10
-7.2772366985
 20
23.7574749998
 30
0.0
 10
-7.3534640826
 20
23.6607030629
 30
0.0
 10
-7.4505488039
 20
23.6279887807
 30
0.0
 10
-7.5130943479
 20
23.6278312164
 30
0.0
 11
-7.2630985787
 21
23.8443375673
 31
0.0
 11
-7.2823368081
 21
23.7616295068
 31
0.0
 11
-7.3365773743
 21
23.6914667969
 31
0.0
 11
-7.5130943479
 21
23.6278312164
 31
0.0
  0
SPLINE
  5
56D
100
AcDbEntity
  8
SUPERFICI
100
AcDbSpline
 62
7
  6
CONTINUOUS
 70
0
 71
3
 72
11
 73
7
 74
5
 42
0.0000001
 43
0.0000001
 44
0.0000000001
 12
0.0031597576
 22
-0.3135762468
 32
0.0
 13
0.3135921661
 23
0.0
 33
0.0
 40
0.0
 40
0.0
 40
0.0
 40
0.0
 40
0.1745970712
 40
0.3929474236
 40
0.672962312
 40
1.0
 40
1.0
 40
1.0
 40
1.0
 10
-10.1427192511
 20
23.2669872981
 30
0.0
 10
-10.1425353563
 20
23.2487374667
 30
0.0
 10
-10.1271019039
 20
23.2076402818
 30
0.0
 10
-10.0713420679
 20
23.1616935154
 30
0.0
 10
-9.9899732978
 20
23.1301817308
 30
0.0
 10
-9.9261817388
 20
23.1226497308
 30
0.0
 10
-9.8919962532
 20
23.1226497308
 30
0.0
 11
-10.1427192511
 21
23.2669872981
 31
0.0
 11
-10.1254394165
 21
23.2150332915
 31
0.0
 11
-10.0749472239
 21
23.1687830511
 31
0.0
 11
-9.9937688409
 21
23.1353054509
 31
0.0
 11
-9.8919962532
 21
23.1226497308
 31
0.0
  0
SPLINE
  5
56E
100
AcDbEntity
  8
SUPERFICI
100
AcDbSpline
 62
253
  6
CONTINUOUS
 70
0
 71
3
 72
10
 73
6
 74
4
 42
0.0000001
 43
0.0000001
 44
0.0000000001
 12
0.001213321
 22
-0.3612351841
 32
0.0
 13
0.3612360755
 23
-0.0009100238
 33
0.0
 40
0.0
 40
0.0
 40
0.0
 40
0.0
 40
0.2350700073
 40
0.4805706337
 40
1.0
 40
1.0
 40
1.0
 40
1.0
 10
-10.1369014213
 20
23.8443375673
 30
0.0
 10
-10.1368063495
 20
23.8160323815
 30
0.0
 10
-10.1227633003
 20
23.7574749967
 30
0.0
 10
-10.046535914
 20
23.6607030612
 30
0.0
 10
-9.949451194
 20
23.6279887807
 30
0.0
 10
-9.8869056521
 20
23.6278312164
 30
0.0
 11
-10.1369014213
 21
23.8443375673
 31
0.0
 11
-10.1176631905
 21
23.7616295042
 31
0.0
 11
-10.0634226207
 21
23.6914667926
 31
0.0
 11
-9.8869056521
 21
23.6278312164
 31
0.0
  0
SPLINE
  5
56F
100
AcDbEntity
  8
RACCORDO
100
AcDbSpline
 62
253
  6
CONTINUOUS
 70
0
 71
3
 72
11
 73
7
 74
5
 42
0.0000001
 43
0.0000001
 44
0.0000000001
 12
-0.093673264
 22
0.0349756225
 32
0.0
 13
-0.0999898716
 23
0.000011371
 33
0.0
 40
0.0
 40
0.0
 40
0.0
 40
0.0
 40
0.0812610357
 40
0.2989290445
 40
0.6217934666
 40
1.0
 40
1.0
 40
1.0
 40
1.0
 10
-4.1568272901
 20
3.2569643645
 30
0.0
 10
-4.1593646189
 20
3.2579117496
 30
0.0
 10
-4.1697094964
 20
3.2562886286
 30
0.0
 10
-4.1900988252
 20
3.2580212454
 30
0.0
 10
-4.2208867263
 20
3.2573638026
 30
0.0
 10
-4.2442064521
 20
3.2576144541
 30
0.0
 10
-4.2568120596
 20
3.2576158877
 30
0.0
 11
-4.1568272901
 21
3.2569643645
 31
0.0
 11
-4.1649488331
 21
3.2572107871
 31
0.0
 11
-4.1867124129
 21
3.2574211495
 31
0.0
 11
-4.2189952737
 21
3.2575629659
 31
0.0
 11
-4.2568120596
 21
3.2576158877
 31
0.0
  0
SPLINE
  5
570
100
AcDbEntity
  8
RACCORDO
100
AcDbSpline
 62
253
  6
CONTINUOUS
 70
0
 71
3
 72
11
 73
7
 74
5
 42
0.0000001
 43
0.0000001
 44
0.0000000001
 12
-0.0936736864
 22
-0.0349754703
 32
0.0
 13
-0.0999902141
 23
-0.0000113679
 33
0.0
 40
0.0
 40
0.0
 40
0.0
 40
0.0
 40
0.0812611869
 40
0.2989294177
 40
0.6217938734
 40
1.0
 40
1.0
 40
1.0
 40
1.0
 10
-4.1568269476
 20
-3.2569643645
 30
0.0
 10
-4.1593642926
 20
-3.2579117472
 30
0.0
 10
-4.1697092122
 20
-3.2562886334
 30
0.0
 10
-4.1900986297
 20
-3.258021243
 30
0.0
 10
-4.2208866284
 20
-3.2573638044
 30
0.0
 10
-4.2442064224
 20
-3.2576144538
 30
0.0
 10
-4.2568120596
 20
-3.257615887
 30
0.0
 11
-4.1568269476
 21
-3.2569643645
 31
0.0
 11
-4.1649485335
 21
-3.2572107876
 31
0.0
 11
-4.1867122101
 21
-3.2574211502
 31
0.0
 11
-4.2189951848
 21
-3.2575629661
 31
0.0
 11
-4.2568120596
 21
-3.257615887
 31
0.0
  0
SPLINE
  5
571
100
AcDbEntity
  8
RACCORDO
100
AcDbSpline
 62
7
  6
CONTINUOUS
 70
0
 71
3
 72
11
 73
7
 74
5
 42
0.0000001
 43
0.0000001
 44
0.0000000001
 12
1.0854358112
 22
-0.0007369258
 32
0.0
 13
0.0004751792
 23
-1.0854359573
 33
0.0
 40
0.0
 40
0.0
 40
0.0
 40
0.0
 40
0.249609235
 40
0.499800589
 40
0.7502120341
 40
1.0
 40
1.0
 40
1.0
 40
1.0
 10
3.2535671607
 20
3.9499388231
 30
0.0
 10
3.3438787615
 20
3.9498775086
 30
0.0
 10
3.5264233836
 20
3.9124414722
 30
0.0
 10
3.7576727937
 20
3.7578691251
 30
0.0
 10
3.9122792291
 20
3.5266064154
 30
0.0
 10
3.9499530247
 20
3.3439434399
 30
0.0
 10
3.9499925894
 20
3.2535671599
 30
0.0
 11
3.2535671607
 21
3.9499388231
 31
0.0
 11
3.5191065039
 21
3.8961377243
 31
0.0
 11
3.7448244393
 21
3.7451413803
 31
0.0
 11
3.8960207691
 21
3.5192698218
 31
0.0
 11
3.9499925894
 21
3.2535671599
 31
0.0
  0
SPLINE
  5
572
100
AcDbEntity
  8
SUPERFICI
100
AcDbSpline
 62
253
  6
CONTINUOUS
 70
0
 71
3
 72
13
 73
9
 74
7
 42
0.0000001
 43
0.0000001
 44
0.0000000001
 12
-0.1395898373
 22
-0.8380559463
 32
0.0
 13
-0.001118483
 23
-0.8496009892
 33
0.0
 40
0.0
 40
0.0
 40
0.0
 40
0.0
 40
0.0277044658
 40
0.0888931314
 40
0.1818022289
 40
0.3037245907
 40
0.6196339208
 40
1.0
 40
1.0
 40
1.0
 40
1.0
 10
10.5363423382
 20
22.0602279426
 30
0.0
 10
10.5350532509
 20
22.0524886452
 30
0.0
 10
10.5348722639
 20
22.0271878971
 30
0.0
 10
10.5329207446
 20
21.9758308708
 30
0.0
 10
10.5320405798
 20
21.8976137229
 30
0.0
 10
10.5301983665
 20
21.7473471712
 30
0.0
 10
10.52889607
 20
21.5156157464
 30
0.0
 10
10.5283111452
 20
21.3184372902
 30
0.0
 10
10.5281693342
 20
21.2107174911
 30
0.0
 11
10.5363423382
 21
22.0602279426
 31
0.0
 11
10.5348653336
 21
22.0367365677
 31
0.0
 11
10.5334445719
 21
21.98476999
 31
0.0
 11
10.5321217553
 21
21.9058453452
 31
0.0
 11
10.5309355067
 21
21.8022666889
 31
0.0
 11
10.5291063903
 21
21.5338758097
 31
0.0
 11
10.5281693342
 21
21.2107174911
 31
0.0
  0
SPLINE
  5
573
100
AcDbEntity
  8
SUPERFICI
100
AcDbSpline
 62
253
  6
CONTINUOUS
 70
0
 71
3
 72
13
 73
9
 74
7
 42
0.0000001
 43
0.0000001
 44
0.0000000001
 12
-0.1343295646
 22
-0.403148621
 32
0.0
 13
-0.0011185777
 23
-0.4249376322
 33
0.0
 40
0.0
 40
0.0
 40
0.0
 40
0.0
 40
0.0278468312
 40
0.0890725354
 40
0.1819812403
 40
0.3038829519
 40
0.6197202383
 40
1.0
 40
1.0
 40
1.0
 40
1.0
 10
11.036266885
 20
21.5609147213
 30
0.0
 10
11.0350200008
 20
21.5571725841
 30
0.0
 10
11.0347542612
 20
21.544326022
 30
0.0
 10
11.0328693655
 20
21.5187896258
 30
0.0
 10
11.0319549756
 20
21.4796031878
 30
0.0
 10
11.0301309462
 20
21.4045129743
 30
0.0
 10
11.0288160949
 20
21.2886122544
 30
0.0
 10
11.0282349726
 20
21.19002301
 30
0.0
 10
11.0280931818
 20
21.1361579495
 30
0.0
 11
11.036266885
 21
21.5609147213
 31
0.0
 11
11.0347896455
 21
21.5491740841
 31
0.0
 11
11.0333688642
 21
21.5231957111
 31
0.0
 11
11.0320460024
 21
21.4837373378
 31
0.0
 11
11.0308596969
 21
21.4319501194
 31
0.0
 11
11.029030384
 21
21.2977509731
 31
0.0
 11
11.0280931818
 21
21.1361579495
 31
0.0
  0
SPLINE
  5
574
100
AcDbEntity
  8
SUPERFICI
100
AcDbSpline
 62
253
  6
CONTINUOUS
 70
0
 71
3
 72
12
 73
8
 74
6
 42
0.0000001
 43
0.0000001
 44
0.0000000001
 12
-0.0590396806
 22
0.510235916
 32
0.0
 13
-0.5136386144
 23
0.0013219933
 33
0.0
 40
0.0
 40
0.0
 40
0.0
 40
0.0
 40
0.035337833
 40
0.0986771222
 40
0.3158607303
 40
0.6311765984
 40
1.0
 40
1.0
 40
1.0
 40
1.0
 10
11.0280931818
 20
21.1361579495
 30
0.0
 10
11.027397737
 20
21.14216816
 30
0.0
 10
11.013131158
 20
21.1551383147
 30
0.0
 10
10.9637578076
 20
21.1739579445
 30
0.0
 10
10.8617245465
 20
21.1930358605
 30
0.0
 10
10.7086873778
 20
21.2070043902
 30
0.0
 10
10.5913166478
 20
21.2105549634
 30
0.0
 10
10.5281693342
 20
21.2107174908
 30
0.0
 11
11.0280931818
 21
21.1361579495
 31
0.0
 11
11.0170310529
 21
21.1505484245
 31
0.0
 11
10.9875922668
 21
21.164397389
 31
0.0
 11
10.8786575762
 21
21.1884303961
 31
0.0
 11
10.7175155793
 21
21.2046771116
 31
0.0
 11
10.5281693342
 21
21.2107174908
 31
0.0
  0
SPLINE
  5
575
100
AcDbEntity
  8
SUPERFICI
100
AcDbSpline
 62
253
  6
CONTINUOUS
 70
0
 71
3
 72
16
 73
12
 74
10
 42
0.0000001
 43
0.0000001
 44
0.0000000001
 12
-0.3383269516
 22
0.3684507326
 32
0.0
 13
-0.5002209922
 23
0.0001658665
 33
0.0
 40
0.0
 40
0.0
 40
0.0
 40
0.0
 40
0.0066567318
 40
0.022511406
 40
0.0475277168
 40
0.0814932703
 40
0.1749404591
 40
0.2993684892
 40
0.4501138512
 40
0.621514847
 40
1.0
 40
1.0
 40
1.0
 40
1.0
 10
11.0109082972
 20
9.4905
 30
0.0
 10
11.01015758
 20
9.4913175592
 30
0.0
 10
11.0059081136
 20
9.4914174587
 30
0.0
 10
10.9984800659
 20
9.4926974686
 30
0.0
 10
10.985789032
 20
9.4932846351
 30
0.0
 10
10.960540791
 20
9.4946807146
 30
0.0
 10
10.9184702869
 20
9.495924447
 30
0.0
 10
10.8570657638
 20
9.4973352665
 30
0.0
 10
10.7825959124
 20
9.4984501078
 30
0.0
 10
10.6657847626
 20
9.4996387548
 30
0.0
 10
10.5740931892
 20
9.499979074
 30
0.0
 10
10.5109844497
 20
9.5
 30
0.0
 11
11.0109082972
 21
9.4905
 31
0.0
 11
11.0077083404
 21
9.4914209188
 31
0.0
 11
10.9998301601
 21
9.4923333439
 31
0.0
 11
10.987348523
 21
9.4932283497
 31
0.0
 11
10.9703804958
 21
9.4940977165
 31
0.0
 11
10.9236646477
 21
9.4957269066
 31
0.0
 11
10.8614396243
 21
9.4971596626
 31
0.0
 11
10.7860428973
 21
9.4983421182
 31
0.0
 11
10.7003091124
 21
9.4992298545
 31
0.0
 11
10.5109844497
 21
9.5
 31
0.0
  0
SPLINE
  5
576
100
AcDbEntity
  8
SUPERFICI
100
AcDbSpline
 62
253
  6
CONTINUOUS
 70
0
 71
3
 72
8
 73
4
 74
2
 42
0.0000001
 43
0.0000001
 44
0.0000000001
 12
-0.0062961107
 22
-18.9809989558
 32
0.0
 13
0.0062961108
 23
-18.9809989558
 33
0.0
 40
0.0
 40
0.0
 40
0.0
 40
0.0
 40
1.0
 40
1.0
 40
1.0
 40
1.0
 10
11.0109082972
 20
9.4905
 30
0.0
 10
11.0088095936
 20
3.1635003481
 30
0.0
 10
11.0088095936
 20
-3.1635003481
 30
0.0
 10
11.0109082972
 20
-9.4905
 30
0.0
 11
11.0109082972
 21
9.4905
 31
0.0
 11
11.0109082972
 21
-9.4905
 31
0.0
  0
SPLINE
  5
577
100
AcDbEntity
  8
SUPERFICI
100
AcDbSpline
 62
253
  6
CONTINUOUS
 70
0
 71
3
 72
16
 73
12
 74
10
 42
0.0000001
 43
0.0000001
 44
0.0000000001
 12
-0.3383269982
 22
-0.3684506898
 32
0.0
 13
-0.5002209922
 23
-0.0001658665
 33
0.0
 40
0.0
 40
0.0
 40
0.0
 40
0.0
 40
0.0066567321
 40
0.0225114067
 40
0.0475277178
 40
0.0814932716
 40
0.1749404606
 40
0.2993684907
 40
0.4501138526
 40
0.621514848
 40
1.0
 40
1.0
 40
1.0
 40
1.0
 10
11.0109082972
 20
-9.4905
 30
0.0
 10
11.0101575798
 20
-9.4913175592
 30
0.0
 10
11.0059081135
 20
-9.4914174588
 30
0.0
 10
10.9984800655
 20
-9.4926974686
 30
0.0
 10
10.9857890316
 20
-9.4932846351
 30
0.0
 10
10.9605407903
 20
-9.4946807145
 30
0.0
 10
10.9184702862
 20
-9.495924447
 30
0.0
 10
10.8570657631
 20
-9.4973352665
 30
0.0
 10
10.7825959118
 20
-9.4984501078
 30
0.0
 10
10.6657847622
 20
-9.4996387548
 30
0.0
 10
10.5740931891
 20
-9.499979074
 30
0.0
 10
10.5109844497
 20
-9.5
 30
0.0
 11
11.0109082972
 21
-9.4905
 31
0.0
 11
11.0077083402
 21
-9.4914209188
 31
0.0
 11
10.9998301597
 21
-9.4923333439
 31
0.0
 11
10.9873485225
 21
-9.4932283497
 31
0.0
 11
10.9703804952
 21
-9.4940977165
 31
0.0
 11
10.923664647
 21
-9.4957269066
 31
0.0
 11
10.8614396236
 21
-9.4971596626
 31
0.0
 11
10.7860428967
 21
-9.4983421181
 31
0.0
 11
10.7003091119
 21
-9.4992298544
 31
0.0
 11
10.5109844497
 21
-9.5
 31
0.0
  0
SPLINE
  5
578
100
AcDbEntity
  8
SUPERFICI
100
AcDbSpline
 62
253
  6
CONTINUOUS
 70
0
 71
3
 72
12
 73
8
 74
6
 42
0.0000001
 43
0.0000001
 44
0.0000000001
 12
-0.0590407193
 22
-0.510235773
 32
0.0
 13
-0.5136385917
 23
-0.0013219918
 33
0.0
 40
0.0
 40
0.0
 40
0.0
 40
0.0
 40
0.0353378601
 40
0.0986771862
 40
0.3158608368
 40
0.631176679
 40
1.0
 40
1.0
 40
1.0
 40
1.0
 10
11.0280931818
 20
-21.1361579495
 30
0.0
 10
11.0273977242
 20
-21.142168163
 30
0.0
 10
11.0131311248
 20
-21.1551383032
 30
0.0
 10
10.9637577576
 20
-21.1739579319
 30
0.0
 10
10.8617244888
 20
-21.1930358321
 30
0.0
 10
10.7086873379
 20
-21.2070043569
 30
0.0
 10
10.5913166313
 20
-21.2105549267
 30
0.0
 10
10.5281693342
 20
-21.2107174539
 30
0.0
 11
11.0280931818
 21
-21.1361579495
 31
0.0
 11
11.0170310256
 21
-21.15054842
 31
0.0
 11
10.9875922176
 21
-21.1643973792
 31
0.0
 11
10.8786575071
 21
-21.1884303744
 31
0.0
 11
10.7175155297
 21
-21.2046770794
 31
0.0
 11
10.5281693342
 21
-21.2107174539
 31
0.0
  0
SPLINE
  5
579
100
AcDbEntity
  8
SUPERFICI
100
AcDbSpline
 62
253
  6
CONTINUOUS
 70
0
 71
3
 72
13
 73
9
 74
7
 42
0.0000001
 43
0.0000001
 44
0.0000000001
 12
0.0011185006
 22
-0.8496010018
 32
0.0
 13
0.1395223665
 23
-0.8380671945
 33
0.0
 40
0.0
 40
0.0
 40
0.0
 40
0.0
 40
0.3803660742
 40
0.6962753994
 40
0.8181977596
 40
0.9111068573
 40
0.9722955359
 40
1.0
 40
1.0
 40
1.0
 40
1.0
 10
10.5281693342
 20
-21.2107174911
 30
0.0
 10
10.5283111474
 20
-21.3184372904
 30
0.0
 10
10.5288959913
 20
-21.5156157576
 30
0.0
 10
10.5301985409
 20
-21.7473471487
 30
0.0
 10
10.5320403646
 20
-21.8976137512
 30
0.0
 10
10.5329211772
 20
-21.9758308106
 30
0.0
 10
10.5348713836
 20
-22.0271880284
 30
0.0
 10
10.5350540584
 20
-22.0524885418
 30
0.0
 10
10.5363425225
 20
-22.0602279426
 30
0.0
 11
10.5281693342
 21
-21.2107174911
 31
0.0
 11
10.5291063925
 21
-21.5338758103
 31
0.0
 11
10.5309355033
 21
-21.8022666894
 31
0.0
 11
10.532121732
 21
-21.9058453461
 31
0.0
 11
10.5334445428
 21
-21.9847699923
 31
0.0
 11
10.5348653153
 21
-22.0367365815
 31
0.0
 11
10.5363425225
 21
-22.0602279426
 31
0.0
  0
SPLINE
  5
57A
100
AcDbEntity
  8
SUPERFICI
100
AcDbSpline
 62
253
  6
CONTINUOUS
 70
0
 71
3
 72
13
 73
9
 74
7
 42
0.0000001
 43
0.0000001
 44
0.0000000001
 12
0.0011186957
 22
-0.4249360286
 32
0.0
 13
0.1342393992
 23
-0.4031769631
 33
0.0
 40
0.0
 40
0.0
 40
0.0
 40
0.0
 40
0.3802658863
 40
0.6960963076
 40
0.817998613
 40
0.9109110252
 40
0.9721435383
 40
1.0
 40
1.0
 40
1.0
 40
1.0
 10
11.0280931818
 20
-21.1361579495
 30
0.0
 10
11.0282349824
 20
-21.1900208414
 30
0.0
 10
11.0288160086
 20
-21.2886067975
 30
0.0
 10
11.0301309083
 20
-21.4045041605
 30
0.0
 10
11.0319546364
 20
-21.4795938267
 30
0.0
 10
11.0328692849
 20
-21.5187815185
 30
0.0
 10
11.034753573
 20
-21.5443210055
 30
0.0
 10
11.0350198919
 20
-21.5571694807
 30
0.0
 10
11.0362663701
 20
-21.5609131753
 30
0.0
 11
11.0280931818
 21
-21.1361579495
 31
0.0
 11
11.0290303216
 21
-21.2977444675
 31
0.0
 11
11.0308595059
 21
-21.4319401915
 31
0.0
 11
11.0320457304
 21
-21.4837274687
 31
0.0
 11
11.0333685072
 21
-21.523187272
 31
0.0
 11
11.0347892059
 21
-21.5491684489
 31
0.0
 11
11.0362663701
 21
-21.5609131753
 31
0.0
  0
SPLINE
  5
57B
100
AcDbEntity
  8
SUPERFICI
100
AcDbSpline
 62
7
  6
CONTINUOUS
 70
0
 71
3
 72
11
 73
7
 74
5
 42
0.0000001
 43
0.0000001
 44
0.0000000001
 12
0.3128734253
 22
0.0
 32
0.0
 13
0.0031525156
 23
0.3128575425
 33
0.0
 40
0.0
 40
0.0
 40
0.0
 40
0.0
 40
0.327069379
 40
0.6069908884
 40
0.8253215288
 40
1.0
 40
1.0
 40
1.0
 40
1.0
 10
-7.5072765181
 20
23.1226497308
 30
0.0
 10
-7.4731660792
 20
23.1226497308
 30
0.0
 10
-7.4095405563
 20
23.1303374357
 30
0.0
 10
-7.3284058969
 20
23.1618479167
 30
0.0
 10
-7.2728342786
 20
23.2077593007
 30
0.0
 10
-7.2574643078
 20
23.2487708057
 30
0.0
 10
-7.2572807489
 20
23.2669872981
 30
0.0
 11
-7.5072765181
 21
23.1226497308
 31
0.0
 11
-7.4057465543
 21
23.1354311576
 31
0.0
 11
-7.3248240789
 21
23.1689245842
 31
0.0
 11
-7.2745022864
 21
23.215119319
 31
0.0
 11
-7.2572807489
 21
23.2669872981
 31
0.0
  0
SPLINE
  5
57C
100
AcDbEntity
  8
RACCORDO
100
AcDbSpline
 62
7
  6
CONTINUOUS
 70
0
 71
3
 72
11
 73
7
 74
5
 42
0.0000001
 43
0.0000001
 44
0.0000000001
 12
-0.0007369258
 22
-1.0854358112
 32
0.0
 13
-1.0854359573
 23
-0.0004751792
 33
0.0
 40
0.0
 40
0.0
 40
0.0
 40
0.0
 40
0.249609235
 40
0.499800589
 40
0.7502120341
 40
1.0
 40
1.0
 40
1.0
 40
1.0
 10
3.9499388231
 20
-3.2535671607
 30
0.0
 10
3.9498775086
 20
-3.3438787615
 30
0.0
 10
3.9124414722
 20
-3.5264233836
 30
0.0
 10
3.7578691251
 20
-3.7576727937
 30
0.0
 10
3.5266064154
 20
-3.9122792291
 30
0.0
 10
3.3439434399
 20
-3.9499530247
 30
0.0
 10
3.2535671599
 20
-3.9499925894
 30
0.0
 11
3.9499388231
 21
-3.2535671607
 31
0.0
 11
3.8961377243
 21
-3.5191065039
 31
0.0
 11
3.7451413803
 21
-3.7448244393
 31
0.0
 11
3.5192698218
 21
-3.8960207691
 31
0.0
 11
3.2535671599
 21
-3.9499925894
 31
0.0
  0
SPLINE
  5
57D
100
AcDbEntity
  8
RACCORDO
100
AcDbSpline
 62
7
  6
CONTINUOUS
 70
0
 71
3
 72
11
 73
7
 74
5
 42
0.0000001
 43
0.0000001
 44
0.0000000001
 12
-1.0854358112
 22
0.0007369258
 32
0.0
 13
-0.0004751792
 23
1.0854359573
 33
0.0
 40
0.0
 40
0.0
 40
0.0
 40
0.0
 40
0.249609235
 40
0.499800589
 40
0.7502120341
 40
1.0
 40
1.0
 40
1.0
 40
1.0
 10
-3.2535671607
 20
-3.9499388231
 30
0.0
 10
-3.3438787615
 20
-3.9498775086
 30
0.0
 10
-3.5264233836
 20
-3.9124414722
 30
0.0
 10
-3.7576727937
 20
-3.7578691251
 30
0.0
 10
-3.9122792291
 20
-3.5266064154
 30
0.0
 10
-3.9499530247
 20
-3.3439434399
 30
0.0
 10
-3.9499925894
 20
-3.2535671599
 30
0.0
 11
-3.2535671607
 21
-3.9499388231
 31
0.0
 11
-3.5191065039
 21
-3.8961377243
 31
0.0
 11
-3.7448244393
 21
-3.7451413803
 31
0.0
 11
-3.8960207691
 21
-3.5192698218
 31
0.0
 11
-3.9499925894
 21
-3.2535671599
 31
0.0
  0
SPLINE
  5
57E
100
AcDbEntity
  8
RACCORDO
100
AcDbSpline
 62
7
  6
CONTINUOUS
 70
0
 71
3
 72
11
 73
7
 74
5
 42
0.0000001
 43
0.0000001
 44
0.0000000001
 12
0.000805646
 22
1.0854442138
 32
0.0
 13
1.0854432326
 23
-0.0016670891
 33
0.0
 40
0.0
 40
0.0
 40
0.0
 40
0.0
 40
0.2496299229
 40
0.4998054686
 40
0.7502442731
 40
1.0
 40
1.0
 40
1.0
 40
1.0
 10
-3.9499116766
 20
3.2535671607
 30
0.0
 10
-3.9498446388
 20
3.3438869459
 30
0.0
 10
-3.9124438899
 20
3.5264443519
 30
0.0
 10
-3.7578136779
 20
3.7576797238
 30
0.0
 10
-3.5266339912
 20
3.9123226962
 30
0.0
 10
-3.3439323811
 20
3.950116916
 30
0.0
 10
-3.2535671599
 20
3.9499781277
 30
0.0
 11
-3.9499116766
 21
3.2535671607
 31
0.0
 11
-3.896117413
 21
3.5191329528
 31
0.0
 11
-3.7451180603
 21
3.7448307746
 31
0.0
 11
-3.5192545289
 21
3.8960962745
 31
0.0
 11
-3.2535671599
 21
3.9499781277
 31
0.0
  0
SPLINE
  5
57F
100
AcDbEntity
  8
RACCORDO
100
AcDbSpline
 62
253
  6
CONTINUOUS
 70
0
 71
3
 72
17
 73
13
 74
11
 42
0.0000001
 43
0.0000001
 44
0.0000000001
 12
0.0
 22
1.3316895916
 32
0.0
 13
-1.3315881686
 23
0.0164352532
 33
0.0
 40
0.0
 40
0.0
 40
0.0
 40
0.0
 40
0.0515908929
 40
0.1036598923
 40
0.156657205
 40
0.2109737202
 40
0.3245653768
 40
0.4461449403
 40
0.5758593351
 40
0.7127219469
 40
0.8548996392
 40
1.0
 40
1.0
 40
1.0
 40
1.0
 10
-22.5676415705
 20
18.3943840357
 30
0.0
 10
-22.5676415705
 20
18.4172850541
 30
0.0
 10
-22.5708205248
 20
18.46336102
 30
0.0
 10
-22.5850492502
 20
18.531633381
 30
0.0
 10
-22.6085937701
 20
18.5985695098
 30
0.0
 10
-22.6526852457
 20
18.686409046
 30
0.0
 10
-22.7310080196
 20
18.7898180822
 30
0.0
 10
-22.8543817074
 20
18.8962878868
 30
0.0
 10
-23.0038365817
 20
18.9837295661
 30
0.0
 10
-23.1738534279
 20
19.0491455783
 30
0.0
 10
-23.3581999052
 20
19.090313009
 30
0.0
 10
-23.4857845228
 20
19.1005882007
 30
0.0
 10
-23.5501891641
 20
19.1013831211
 30
0.0
 11
-22.5676415705
 21
18.3943840357
 31
0.0
 11
-22.5723505586
 21
18.4629255211
 31
0.0
 11
-22.5864331036
 21
18.5308201608
 31
0.0
 11
-22.6097565146
 21
18.5974308656
 31
0.0
 11
-22.6421011283
 21
18.6621290182
 31
0.0
 11
-22.7325536117
 21
18.7833750746
 31
0.0
 11
-22.8543912046
 21
18.8900016719
 31
0.0
 11
-23.003034659
 21
18.9780016293
 31
0.0
 11
-23.1728977475
 21
19.0440674877
 31
0.0
 11
-23.3575966907
 21
19.0857163858
 31
0.0
 11
-23.5501891641
 21
19.1013831211
 31
0.0
  0
SPLINE
  5
580
100
AcDbEntity
  8
RACCORDO
100
AcDbSpline
 62
253
  6
CONTINUOUS
 70
0
 71
3
 72
9
 73
5
 74
3
 42
0.0000001
 43
0.0000001
 44
0.0000000001
 12
0.0
 22
0.1355960161
 32
0.0
 13
-0.0357235337
 23
0.1308056143
 33
0.0
 40
0.0
 40
0.0
 40
0.0
 40
0.0
 40
0.497772517
 40
1.0
 40
1.0
 40
1.0
 40
1.0
 10
-22.5676415705
 20
18.2166171594
 30
0.0
 10
-22.5676415705
 20
18.2391158162
 30
0.0
 10
-22.5707065904
 20
18.2843658345
 30
0.0
 10
-22.5798011163
 20
18.3287911672
 30
0.0
 10
-22.5857815631
 20
18.3506892253
 30
0.0
 11
-22.5676415705
 21
18.2166171594
 31
0.0
 11
-22.5721869116
 21
18.2839599087
 31
0.0
 11
-22.5857815631
 21
18.3506892253
 31
0.0
  0
SPLINE
  5
581
100
AcDbEntity
  8
RACCORDO
100
AcDbSpline
 62
253
  6
CONTINUOUS
 70
0
 71
3
 72
16
 73
12
 74
10
 42
0.0000001
 43
0.0000001
 44
0.0000000001
 12
-0.3151956582
 22
1.1541232755
 32
0.0
 13
-1.1962988005
 23
0.0147654315
 33
0.0
 40
0.0
 40
0.0
 40
0.0
 40
0.0
 40
0.0516458785
 40
0.1043732496
 40
0.2138823245
 40
0.3300261451
 40
0.4532291245
 40
0.5831014767
 40
0.7185967894
 40
0.8581817655
 40
1.0
 40
1.0
 40
1.0
 40
1.0
 10
-22.5857815631
 20
18.3506892253
 30
0.0
 10
-22.5912077487
 20
18.3705577954
 30
0.0
 10
-22.6045460124
 20
18.4101033428
 30
0.0
 10
-22.640748075
 20
18.4874943367
 30
0.0
 10
-22.703954058
 20
18.579801632
 30
0.0
 10
-22.80350487
 20
18.6780141611
 30
0.0
 10
-22.9247497751
 20
18.7626713498
 30
0.0
 10
-23.064175617
 20
18.8314993821
 30
0.0
 10
-23.2178450163
 20
18.8826760843
 30
0.0
 10
-23.3813846426
 20
18.9148069545
 30
0.0
 10
-23.4936368361
 20
18.9229182424
 30
0.0
 10
-23.5501891641
 20
18.9236162448
 30
0.0
 11
-22.5857815631
 21
18.3506892253
 31
0.0
 11
-22.6054675265
 21
18.4092579453
 31
0.0
 11
-22.6321273926
 21
18.466430078
 31
0.0
 11
-22.7055467549
 21
18.5749412407
 31
0.0
 11
-22.8039149135
 21
18.6730825869
 31
0.0
 11
-22.9243851233
 21
18.758013945
 31
0.0
 11
-23.0634710138
 21
18.8272774239
 31
0.0
 11
-23.217147491
 21
18.8788685538
 31
0.0
 11
-23.3809672783
 21
18.9112942956
 31
0.0
 11
-23.5501891641
 21
18.9236162448
 31
0.0
  0
SPLINE
  5
582
100
AcDbEntity
  8
RACCORDO
100
AcDbSpline
 62
253
  6
CONTINUOUS
 70
0
 71
3
 72
26
 73
22
 74
20
 42
0.0000001
 43
0.0000001
 44
0.0000000001
 12
0.2929002677
 22
-0.0051125932
 32
0.0
 13
-0.002994653
 23
-0.2929295777
 33
0.0
 40
0.0
 40
0.0
 40
0.0
 40
0.0
 40
0.0003971256
 40
0.0012254039
 40
0.0043670231
 40
0.0095380282
 40
0.0167493193
 40
0.0260005682
 40
0.0372878978
 40
0.0506063409
 40
0.0659483835
 40
0.1026655047
 40
0.1473539989
 40
0.1999069527
 40
0.2601981921
 40
0.3280839118
 40
0.4033998165
 40
0.4859654089
 40
0.5755829009
 40
0.7750869405
 40
1.0
 40
1.0
 40
1.0
 40
1.0
 10
-23.5501891641
 20
19.3942317309
 30
0.0
 10
-23.5501503913
 20
19.3942310541
 30
0.0
 10
-23.5500668881
 20
19.3941118959
 30
0.0
 10
-23.5499574844
 20
19.3937236222
 30
0.0
 10
-23.5498161021
 20
19.3928168314
 30
0.0
 10
-23.549682132
 20
19.3913203983
 30
0.0
 10
-23.5495463315
 20
19.3892061028
 30
0.0
 10
-23.5494222537
 20
19.3865014645
 30
0.0
 10
-23.5493066214
 20
19.3831965239
 30
0.0
 10
-23.5492016678
 20
19.3792973545
 30
0.0
 10
-23.5490676103
 20
19.3729146013
 30
0.0
 10
-23.5489361151
 20
19.3634682462
 30
0.0
 10
-23.5488280958
 20
19.3503877999
 30
0.0
 10
-23.5487640391
 20
19.33500511
 30
0.0
 10
-23.5487442925
 20
19.3173571305
 30
0.0
 10
-23.5487693681
 20
19.297486401
 30
0.0
 10
-23.5488393585
 20
19.2754407172
 30
0.0
 10
-23.5489542206
 20
19.2512731275
 30
0.0
 10
-23.5491751239
 20
19.2149791771
 30
0.0
 10
-23.5495685354
 20
19.1647860802
 30
0.0
 10
-23.5499646519
 20
19.1233443503
 30
0.0
 10
-23.5501891641
 20
19.1013831211
 30
0.0
 11
-23.5501891641
 21
19.3942317309
 31
0.0
 11
-23.5501018141
 21
19.3941548932
 31
0.0
 11
-23.5500170952
 21
19.3939275238
 31
0.0
 11
-23.5498556084
 21
19.3930214812
 31
0.0
 11
-23.5497048199
 21
19.3915141853
 31
0.0
 11
-23.5495648419
 21
19.3894063171
 31
0.0
 11
-23.5494357579
 21
19.386699287
 31
0.0
 11
-23.5493176386
 21
19.383394832
 31
0.0
 11
-23.5492105539
 21
19.379494732
 31
0.0
 11
-23.549114566
 21
19.3750013843
 31
0.0
 11
-23.5489561041
 21
19.3642464588
 31
0.0
 11
-23.5488426469
 21
19.3511556846
 31
0.0
 11
-23.5487744636
 21
19.3357607166
 31
0.0
 11
-23.5487517155
 21
19.3180987211
 31
0.0
 11
-23.5487744636
 21
19.2982119598
 31
0.0
 11
-23.5488426469
 21
19.2761486561
 31
0.0
 11
-23.5489561041
 21
19.2519617543
 31
0.0
 11
-23.549114566
 21
19.2257092467
 31
0.0
 11
-23.5495648419
 21
19.1672672934
 31
0.0
 11
-23.5501891641
 21
19.1013831211
 31
0.0
  0
SPLINE
  5
583
100
AcDbEntity
  8
RACCORDO
100
AcDbSpline
 62
253
  6
CONTINUOUS
 70
0
 71
3
 72
26
 73
22
 74
20
 42
0.0000001
 43
0.0000001
 44
0.0000000001
 12
0.002994653
 22
-0.2929295777
 32
0.0
 13
-0.2929002677
 23
-0.0051125932
 33
0.0
 40
0.0
 40
0.0
 40
0.0
 40
0.0
 40
0.2249130595
 40
0.4244170991
 40
0.5140345911
 40
0.5966001835
 40
0.6719160882
 40
0.7398018079
 40
0.8000930473
 40
0.8526460011
 40
0.8973344953
 40
0.9340516165
 40
0.9493936591
 40
0.9627121022
 40
0.9739994318
 40
0.9832506807
 40
0.9904619718
 40
0.9956329769
 40
0.9987745961
 40
0.9996028744
 40
1.0
 40
1.0
 40
1.0
 40
1.0
 10
-23.5501891641
 20
-19.1013831211
 30
0.0
 10
-23.5499646519
 20
-19.1233443503
 30
0.0
 10
-23.5495685354
 20
-19.1647860802
 30
0.0
 10
-23.5491751239
 20
-19.2149791771
 30
0.0
 10
-23.5489542206
 20
-19.2512731275
 30
0.0
 10
-23.5488393585
 20
-19.2754407172
 30
0.0
 10
-23.5487693681
 20
-19.297486401
 30
0.0
 10
-23.5487442925
 20
-19.3173571305
 30
0.0
 10
-23.5487640391
 20
-19.33500511
 30
0.0
 10
-23.5488280958
 20
-19.3503877999
 30
0.0
 10
-23.5489361151
 20
-19.3634682462
 30
0.0
 10
-23.5490676103
 20
-19.3729146013
 30
0.0
 10
-23.5492016678
 20
-19.3792973545
 30
0.0
 10
-23.5493066214
 20
-19.3831965239
 30
0.0
 10
-23.5494222537
 20
-19.3865014645
 30
0.0
 10
-23.5495463315
 20
-19.3892061028
 30
0.0
 10
-23.549682132
 20
-19.3913203983
 30
0.0
 10
-23.5498161021
 20
-19.3928168314
 30
0.0
 10
-23.5499574844
 20
-19.3937236222
 30
0.0
 10
-23.5500668881
 20
-19.3941118959
 30
0.0
 10
-23.5501503913
 20
-19.3942310541
 30
0.0
 10
-23.5501891641
 20
-19.3942317309
 30
0.0
 11
-23.5501891641
 21
-19.1013831211
 31
0.0
 11
-23.5495648419
 21
-19.1672672934
 31
0.0
 11
-23.549114566
 21
-19.2257092467
 31
0.0
 11
-23.5489561041
 21
-19.2519617543
 31
0.0
 11
-23.5488426469
 21
-19.2761486561
 31
0.0
 11
-23.5487744636
 21
-19.2982119598
 31
0.0
 11
-23.5487517155
 21
-19.3180987211
 31
0.0
 11
-23.5487744636
 21
-19.3357607166
 31
0.0
 11
-23.5488426469
 21
-19.3511556846
 31
0.0
 11
-23.5489561041
 21
-19.3642464588
 31
0.0
 11
-23.549114566
 21
-19.3750013843
 31
0.0
 11
-23.5492105539
 21
-19.379494732
 31
0.0
 11
-23.5493176386
 21
-19.383394832
 31
0.0
 11
-23.5494357579
 21
-19.386699287
 31
0.0
 11
-23.5495648419
 21
-19.3894063171
 31
0.0
 11
-23.5497048199
 21
-19.3915141853
 31
0.0
 11
-23.5498556084
 21
-19.3930214812
 31
0.0
 11
-23.5500170952
 21
-19.3939275238
 31
0.0
 11
-23.5501018141
 21
-19.3941548932
 31
0.0
 11
-23.5501891641
 21
-19.3942317309
 31
0.0
  0
SPLINE
  5
584
100
AcDbEntity
  8
RACCORDO
100
AcDbSpline
 62
253
  6
CONTINUOUS
 70
0
 71
3
 72
17
 73
13
 74
11
 42
0.0000001
 43
0.0000001
 44
0.0000000001
 12
0.0
 22
-1.3316895916
 32
0.0
 13
-1.3315881686
 23
-0.0164352532
 33
0.0
 40
0.0
 40
0.0
 40
0.0
 40
0.0
 40
0.0515908929
 40
0.1036598923
 40
0.156657205
 40
0.2109737202
 40
0.3245653768
 40
0.4461449403
 40
0.5758593351
 40
0.7127219469
 40
0.8548996392
 40
1.0
 40
1.0
 40
1.0
 40
1.0
 10
-22.5676415705
 20
-18.3943840357
 30
0.0
 10
-22.5676415705
 20
-18.4172850541
 30
0.0
 10
-22.5708205248
 20
-18.46336102
 30
0.0
 10
-22.5850492502
 20
-18.531633381
 30
0.0
 10
-22.6085937701
 20
-18.5985695098
 30
0.0
 10
-22.6526852457
 20
-18.686409046
 30
0.0
 10
-22.7310080196
 20
-18.7898180822
 30
0.0
 10
-22.8543817074
 20
-18.8962878868
 30
0.0
 10
-23.0038365817
 20
-18.9837295661
 30
0.0
 10
-23.1738534279
 20
-19.0491455783
 30
0.0
 10
-23.3581999052
 20
-19.090313009
 30
0.0
 10
-23.4857845228
 20
-19.1005882007
 30
0.0
 10
-23.5501891641
 20
-19.1013831211
 30
0.0
 11
-22.5676415705
 21
-18.3943840357
 31
0.0
 11
-22.5723505586
 21
-18.4629255211
 31
0.0
 11
-22.5864331036
 21
-18.5308201608
 31
0.0
 11
-22.6097565146
 21
-18.5974308656
 31
0.0
 11
-22.6421011283
 21
-18.6621290182
 31
0.0
 11
-22.7325536117
 21
-18.7833750746
 31
0.0
 11
-22.8543912046
 21
-18.8900016719
 31
0.0
 11
-23.003034659
 21
-18.9780016293
 31
0.0
 11
-23.1728977475
 21
-19.0440674877
 31
0.0
 11
-23.3575966907
 21
-19.0857163858
 31
0.0
 11
-23.5501891641
 21
-19.1013831211
 31
0.0
  0
SPLINE
  5
585
100
AcDbEntity
  8
RACCORDO
100
AcDbSpline
 62
253
  6
CONTINUOUS
 70
0
 71
3
 72
10
 73
6
 74
4
 42
0.0000001
 43
0.0000001
 44
0.0000000001
 12
0.0051111389
 22
-1.4139967799
 32
0.0
 13
-0.0072275116
 23
-1.4139875461
 33
0.0
 40
0.0
 40
0.0
 40
0.0
 40
0.0
 40
0.541189103
 40
0.785688022
 40
1.0
 40
1.0
 40
1.0
 40
1.0
 10
-23.5501891732
 20
-17.5096157267
 30
0.0
 10
-23.5492671423
 20
-17.7646956097
 30
0.0
 10
-23.5485150111
 20
-18.1350184829
 30
0.0
 10
-23.5489546
 20
-18.6063538399
 30
0.0
 10
-23.5496728613
 20
-18.822606809
 30
0.0
 10
-23.5501891754
 20
-18.9236182983
 30
0.0
 11
-23.5501891732
 21
-17.5096157267
 31
0.0
 11
-23.5487517155
 21
-18.2748590249
 31
0.0
 11
-23.5491145658
 21
-18.6205817771
 31
0.0
 11
-23.5501891754
 21
-18.9236182983
 31
0.0
  0
SPLINE
  5
586
100
AcDbEntity
  8
RACCORDO
100
AcDbSpline
 62
253
  6
CONTINUOUS
 70
0
 71
3
 72
9
 73
5
 74
3
 42
0.0000001
 43
0.0000001
 44
0.0000000001
 12
0.0
 22
-0.1355960174
 32
0.0
 13
-0.0357235343
 23
-0.1308056155
 33
0.0
 40
0.0
 40
0.0
 40
0.0
 40
0.0
 40
0.4977725169
 40
1.0
 40
1.0
 40
1.0
 40
1.0
 10
-22.5676415705
 20
-18.2166171594
 30
0.0
 10
-22.5676415705
 20
-18.2391158164
 30
0.0
 10
-22.5707065904
 20
-18.2843658351
 30
0.0
 10
-22.5798011165
 20
-18.3287911682
 30
0.0
 10
-22.5857815634
 20
-18.3506892266
 30
0.0
 11
-22.5676415705
 21
-18.2166171594
 31
0.0
 11
-22.5721869117
 21
-18.2839599093
 31
0.0
 11
-22.5857815634
 21
-18.3506892266
 31
0.0
  0
SPLINE
  5
587
100
AcDbEntity
  8
RACCORDO
100
AcDbSpline
 62
253
  6
CONTINUOUS
 70
0
 71
3
 72
16
 73
12
 74
10
 42
0.0000001
 43
0.0000001
 44
0.0000000001
 12
-0.3151956607
 22
-1.1541232735
 32
0.0
 13
-1.1962987992
 23
-0.0147654313
 33
0.0
 40
0.0
 40
0.0
 40
0.0
 40
0.0
 40
0.0516458785
 40
0.1043732496
 40
0.2138823246
 40
0.3300261451
 40
0.4532291246
 40
0.5831014768
 40
0.7185967894
 40
0.8581817655
 40
1.0
 40
1.0
 40
1.0
 40
1.0
 10
-22.5857815634
 20
-18.3506892266
 30
0.0
 10
-22.591207749
 20
-18.3705577967
 30
0.0
 10
-22.6045460128
 20
-18.410103344
 30
0.0
 10
-22.6407480756
 20
-18.4874943377
 30
0.0
 10
-22.7039540587
 20
-18.5798016329
 30
0.0
 10
-22.8035048707
 20
-18.6780141617
 30
0.0
 10
-22.9247497758
 20
-18.7626713502
 30
0.0
 10
-23.0641756176
 20
-18.8314993823
 30
0.0
 10
-23.2178450168
 20
-18.8826760845
 30
0.0
 10
-23.3813846428
 20
-18.9148069546
 30
0.0
 10
-23.4936368362
 20
-18.9229182424
 30
0.0
 10
-23.5501891641
 20
-18.9236162448
 30
0.0
 11
-22.5857815634
 21
-18.3506892266
 31
0.0
 11
-22.605467527
 21
-18.4092579465
 31
0.0
 11
-22.6321273931
 21
-18.4664300791
 31
0.0
 11
-22.7055467556
 21
-18.5749412416
 31
0.0
 11
-22.8039149143
 21
-18.6730825876
 31
0.0
 11
-22.924385124
 21
-18.7580139454
 31
0.0
 11
-23.0634710144
 21
-18.8272774242
 31
0.0
 11
-23.2171474915
 21
-18.878868554
 31
0.0
 11
-23.3809672786
 21
-18.9112942957
 31
0.0
 11
-23.5501891641
 21
-18.9236162448
 31
0.0
  0
SPLINE
  5
588
100
AcDbEntity
  8
RACCORDO
100
AcDbSpline
 62
253
  6
CONTINUOUS
 70
0
 71
3
 72
10
 73
6
 74
4
 42
0.0000001
 43
0.0000001
 44
0.0000000001
 12
0.0072275116
 22
-1.413987546
 32
0.0
 13
-0.0051111389
 23
-1.4139967799
 33
0.0
 40
0.0
 40
0.0
 40
0.0
 40
0.0
 40
0.214311978
 40
0.458810897
 40
1.0
 40
1.0
 40
1.0
 40
1.0
 10
-23.5501891754
 20
18.9236182983
 30
0.0
 10
-23.5496728613
 20
18.822606809
 30
0.0
 10
-23.5489546
 20
18.6063538399
 30
0.0
 10
-23.5485150111
 20
18.1350184829
 30
0.0
 10
-23.5492671423
 20
17.7646956097
 30
0.0
 10
-23.5501891732
 20
17.5096157267
 30
0.0
 11
-23.5501891754
 21
18.9236182983
 31
0.0
 11
-23.5491145658
 21
18.6205817771
 31
0.0
 11
-23.5487517155
 21
18.2748590249
 31
0.0
 11
-23.5501891732
 21
17.5096157267
 31
0.0
  0
SPLINE
  5
589
100
AcDbEntity
  8
ASSI
100
AcDbSpline
 62
253
  6
CONTINUOUS
 70
0
 71
3
 72
19
 73
15
 74
13
 42
0.0000001
 43
0.0000001
 44
0.0000000001
 12
0.0029944016
 22
-0.2929049881
 32
0.0
 13
-0.2928756806
 23
-0.005112164
 33
0.0
 40
0.0
 40
0.0
 40
0.0
 40
0.0
 40
0.2249319411
 40
0.4244527292
 40
0.5966502297
 40
0.7398638083
 40
0.8001601092
 40
0.8527174749
 40
0.8974097207
 40
0.9341299243
 40
0.9627926839
 40
0.9833326254
 40
0.9957142815
 40
1.0
 40
1.0
 40
1.0
 40
1.0
 10
-23.5501891641
 20
-19.1013831211
 30
0.0
 10
-23.5499646519
 20
-19.1233443503
 30
0.0
 10
-23.5495685436
 20
-19.1647859915
 30
0.0
 10
-23.5491119097
 20
-19.2230415781
 30
0.0
 10
-23.5488311364
 20
-19.2733178108
 30
0.0
 10
-23.5487354373
 20
-19.3100044316
 30
0.0
 10
-23.5487652352
 20
-19.3350026905
 30
0.0
 10
-23.5488242946
 20
-19.3503952548
 30
0.0
 10
-23.5489471698
 20
-19.3634466111
 30
0.0
 10
-23.5490554087
 20
-19.3742742867
 30
0.0
 10
-23.5493533619
 20
-19.382453366
 30
0.0
 10
-23.5493312706
 20
-19.3889361802
 30
0.0
 10
-23.5500045778
 20
-19.3917244361
 30
0.0
 10
-23.5497707698
 20
-19.3942244278
 30
0.0
 10
-23.5501891641
 20
-19.3942317309
 30
0.0
 11
-23.5501891641
 21
-19.1013831211
 31
0.0
 11
-23.5495648419
 21
-19.1672672934
 31
0.0
 11
-23.549114566
 21
-19.2257092467
 31
0.0
 11
-23.5488426469
 21
-19.2761486561
 31
0.0
 11
-23.5487517155
 21
-19.3180987211
 31
0.0
 11
-23.5487744636
 21
-19.3357607166
 31
0.0
 11
-23.5488426469
 21
-19.3511556846
 31
0.0
 11
-23.5489561041
 21
-19.3642464588
 31
0.0
 11
-23.549114566
 21
-19.3750013843
 31
0.0
 11
-23.5493176386
 21
-19.383394832
 31
0.0
 11
-23.5495648419
 21
-19.3894063171
 31
0.0
 11
-23.5498556084
 21
-19.3930214812
 31
0.0
 11
-23.5501891641
 21
-19.3942317309
 31
0.0
  0
SPLINE
  5
58A
100
AcDbEntity
  8
ASSI
100
AcDbSpline
 62
253
  6
CONTINUOUS
 70
0
 71
3
 72
19
 73
15
 74
13
 42
0.0000001
 43
0.0000001
 44
0.0000000001
 12
0.2928756806
 22
-0.005112164
 32
0.0
 13
-0.0029944016
 23
-0.2929049881
 33
0.0
 40
0.0
 40
0.0
 40
0.0
 40
0.0
 40
0.0042857185
 40
0.0166673746
 40
0.0372073161
 40
0.0658700757
 40
0.1025902793
 40
0.1472825251
 40
0.1998398908
 40
0.2601361917
 40
0.4033497703
 40
0.5755472708
 40
0.7750680589
 40
1.0
 40
1.0
 40
1.0
 40
1.0
 10
-23.5501891641
 20
19.3942317309
 30
0.0
 10
-23.5497707698
 20
19.3942244278
 30
0.0
 10
-23.5500045778
 20
19.3917244361
 30
0.0
 10
-23.5493312706
 20
19.3889361802
 30
0.0
 10
-23.5493533619
 20
19.382453366
 30
0.0
 10
-23.5490554087
 20
19.3742742867
 30
0.0
 10
-23.5489471698
 20
19.3634466111
 30
0.0
 10
-23.5488242946
 20
19.3503952548
 30
0.0
 10
-23.5487652352
 20
19.3350026905
 30
0.0
 10
-23.5487354373
 20
19.3100044316
 30
0.0
 10
-23.5488311364
 20
19.2733178108
 30
0.0
 10
-23.5491119097
 20
19.2230415781
 30
0.0
 10
-23.5495685436
 20
19.1647859915
 30
0.0
 10
-23.5499646519
 20
19.1233443503
 30
0.0
 10
-23.5501891641
 20
19.1013831211
 30
0.0
 11
-23.5501891641
 21
19.3942317309
 31
0.0
 11
-23.5498556084
 21
19.3930214812
 31
0.0
 11
-23.5495648419
 21
19.3894063171
 31
0.0
 11
-23.5493176386
 21
19.383394832
 31
0.0
 11
-23.549114566
 21
19.3750013843
 31
0.0
 11
-23.5489561041
 21
19.3642464588
 31
0.0
 11
-23.5488426469
 21
19.3511556846
 31
0.0
 11
-23.5487744636
 21
19.3357607166
 31
0.0
 11
-23.5487517155
 21
19.3180987211
 31
0.0
 11
-23.5488426469
 21
19.2761486561
 31
0.0
 11
-23.549114566
 21
19.2257092467
 31
0.0
 11
-23.5495648419
 21
19.1672672934
 31
0.0
 11
-23.5501891641
 21
19.1013831211
 31
0.0
  0
SPLINE
  5
58B
100
AcDbEntity
  8
ASSI
100
AcDbSpline
 62
253
  6
CONTINUOUS
 70
0
 71
3
 72
13
 73
9
 74
7
 42
0.0000001
 43
0.0000001
 44
0.0000000001
 12
0.0
 22
-1.3289526441
 32
0.0
 13
-1.3288514296
 23
-0.0164014747
 33
0.0
 40
0.0
 40
0.0
 40
0.0
 40
0.0
 40
0.1036335927
 40
0.2109524543
 40
0.3247780502
 40
0.446608004
 40
0.7128414663
 40
1.0
 40
1.0
 40
1.0
 40
1.0
 10
-22.5676415705
 20
-18.2166171594
 30
0.0
 10
-22.5676415705
 20
-18.2625252051
 30
0.0
 10
-22.5808040397
 20
-18.3564410082
 30
0.0
 10
-22.6384448266
 20
-18.489886986
 30
0.0
 10
-22.7309983343
 20
-18.6120322262
 30
0.0
 10
-22.9003513708
 20
-18.7581523487
 30
0.0
 10
-23.1770246824
 20
-18.8863123696
 30
0.0
 10
-23.4229921547
 20
-18.9220463037
 30
0.0
 10
-23.5501891641
 20
-18.9236162448
 30
0.0
 11
-22.5676415705
 21
-18.2166171594
 31
0.0
 11
-22.5864331036
 21
-18.3530532845
 31
0.0
 11
-22.6421011283
 21
-18.4843621418
 31
0.0
 11
-22.7325536116
 21
-18.6056081982
 31
0.0
 11
-22.8543912044
 21
-18.7122347955
 31
0.0
 11
-23.1728977472
 21
-18.8663006113
 31
0.0
 11
-23.5501891641
 21
-18.9236162448
 31
0.0
  0
SPLINE
  5
58C
100
AcDbEntity
  8
ASSI
100
AcDbSpline
 62
253
  6
CONTINUOUS
 70
0
 71
3
 72
13
 73
9
 74
7
 42
0.0000001
 43
0.0000001
 44
0.0000000001
 12
0.0
 22
-1.3289526441
 32
0.0
 13
-1.3288514296
 23
-0.0164014747
 33
0.0
 40
0.0
 40
0.0
 40
0.0
 40
0.0
 40
0.1036335927
 40
0.2109524544
 40
0.3247780503
 40
0.4466080041
 40
0.7128414666
 40
1.0
 40
1.0
 40
1.0
 40
1.0
 10
-22.5676415705
 20
-18.3943840357
 30
0.0
 10
-22.5676415705
 20
-18.4402920814
 30
0.0
 10
-22.5808040397
 20
-18.5342078845
 30
0.0
 10
-22.6384448266
 20
-18.6676538623
 30
0.0
 10
-22.7309983343
 20
-18.7897991026
 30
0.0
 10
-22.900351371
 20
-18.9359192251
 30
0.0
 10
-23.1770246826
 20
-19.0640792459
 30
0.0
 10
-23.4229921548
 20
-19.09981318
 30
0.0
 10
-23.5501891641
 20
-19.1013831211
 30
0.0
 11
-22.5676415705
 21
-18.3943840357
 31
0.0
 11
-22.5864331036
 21
-18.5308201608
 31
0.0
 11
-22.6421011283
 21
-18.6621290182
 31
0.0
 11
-22.7325536117
 21
-18.7833750746
 31
0.0
 11
-22.8543912046
 21
-18.8900016719
 31
0.0
 11
-23.1728977475
 21
-19.0440674877
 31
0.0
 11
-23.5501891641
 21
-19.1013831211
 31
0.0
  0
SPLINE
  5
58D
100
AcDbEntity
  8
ASSI
100
AcDbSpline
 62
253
  6
CONTINUOUS
 70
0
 71
3
 72
13
 73
9
 74
7
 42
0.0000001
 43
0.0000001
 44
0.0000000001
 12
-0.234793892
 22
1.2109105344
 32
0.0
 13
-1.2333696749
 23
0.0152229822
 33
0.0
 40
0.0
 40
0.0
 40
0.0
 40
0.0
 40
0.1039029621
 40
0.2128014713
 40
0.3284088018
 40
0.4514020118
 40
0.7169662472
 40
1.0
 40
1.0
 40
1.0
 40
1.0
 10
-22.5769103575
 20
18.3126683642
 30
0.0
 10
-22.5850422845
 20
18.3546074279
 30
0.0
 10
-22.6126318942
 20
18.4386878682
 30
0.0
 10
-22.6834625615
 20
18.5548251284
 30
0.0
 10
-22.7817129626
 20
18.6598009015
 30
0.0
 10
-22.948983848
 20
18.7837988277
 30
0.0
 10
-23.2076677939
 20
18.8917884699
 30
0.0
 10
-23.4338274148
 20
18.9221800389
 30
0.0
 10
-23.5501891641
 20
18.9236162448
 30
0.0
 11
-22.5769103575
 21
18.3126683642
 31
0.0
 11
-22.6163486305
 21
18.4346099173
 31
0.0
 11
-22.685557731
 21
18.5497298281
 31
0.0
 11
-22.7823717925
 21
18.654424939
 31
0.0
 11
-22.903760955
 21
18.7454187971
 31
0.0
 11
-23.204418763
 21
18.8754301049
 31
0.0
 11
-23.5501891641
 21
18.9236162448
 31
0.0
  0
SPLINE
  5
58E
100
AcDbEntity
  8
ASSI
100
AcDbSpline
 62
253
  6
CONTINUOUS
 70
0
 71
3
 72
13
 73
9
 74
7
 42
0.0000001
 43
0.0000001
 44
0.0000000001
 12
0.0
 22
1.3289526441
 32
0.0
 13
-1.3288514296
 23
0.0164014747
 33
0.0
 40
0.0
 40
0.0
 40
0.0
 40
0.0
 40
0.1036335927
 40
0.2109524544
 40
0.3247780503
 40
0.4466080041
 40
0.7128414666
 40
1.0
 40
1.0
 40
1.0
 40
1.0
 10
-22.5676415705
 20
18.3943840357
 30
0.0
 10
-22.5676415705
 20
18.4402920814
 30
0.0
 10
-22.5808040397
 20
18.5342078845
 30
0.0
 10
-22.6384448266
 20
18.6676538623
 30
0.0
 10
-22.7309983343
 20
18.7897991026
 30
0.0
 10
-22.900351371
 20
18.9359192251
 30
0.0
 10
-23.1770246826
 20
19.0640792459
 30
0.0
 10
-23.4229921548
 20
19.09981318
 30
0.0
 10
-23.5501891641
 20
19.1013831211
 30
0.0
 11
-22.5676415705
 21
18.3943840357
 31
0.0
 11
-22.5864331036
 21
18.5308201608
 31
0.0
 11
-22.6421011283
 21
18.6621290182
 31
0.0
 11
-22.7325536117
 21
18.7833750746
 31
0.0
 11
-22.8543912046
 21
18.8900016719
 31
0.0
 11
-23.1728977475
 21
19.0440674877
 31
0.0
 11
-23.5501891641
 21
19.1013831211
 31
0.0
  0
SPLINE
  5
58F
100
AcDbEntity
  8
0
100
AcDbSpline
 62
253
  6
CONTINUOUS
 70
0
 71
3
 72
21
 73
17
 74
15
 42
0.0000001
 43
0.0000001
 44
0.0000000001
 12
-0.3135592172
 22
-7.9917993856
 32
0.0
 13
0.3006277517
 23
8.0084169721
 33
0.0
 40
0.0
 40
0.0
 40
0.0
 40
0.0
 40
0.0731707317
 40
0.1463414634
 40
0.2195121951
 40
0.2926829268
 40
0.3658536585
 40
0.4390243902
 40
0.512195122
 40
0.5853658537
 40
0.6585365854
 40
0.7317073171
 40
0.8048780488
 40
0.8780487805
 40
0.9512195122
 40
1.0
 40
1.0
 40
1.0
 40
1.0
 10
-35.0646032518
 20
16.000003
 30
0.0
 10
-35.0722510376
 20
15.8050810638
 30
0.0
 10
-35.0424883488
 20
15.4119858959
 30
0.0
 10
-34.8648019239
 20
14.8492255142
 30
0.0
 10
-34.5634902861
 20
14.3414920485
 30
0.0
 10
-34.1544074033
 20
13.9159278213
 30
0.0
 10
-33.6591033452
 20
13.5948393728
 30
0.0
 10
-33.1036639985
 20
13.3951668157
 30
0.0
 10
-32.5173439204
 20
13.327418785
 30
0.0
 10
-31.9310237596
 20
13.3951660992
 30
0.0
 10
-31.3755841691
 20
13.5948379775
 30
0.0
 10
-30.8802797188
 20
13.9159258207
 30
0.0
 10
-30.4711963162
 20
14.3414895479
 30
0.0
 10
-30.1698840583
 20
14.8492226454
 30
0.0
 10
-30.0119399585
 20
15.3494539028
 30
0.0
 10
-29.9748185809
 20
15.6745440556
 30
0.0
 10
-29.9699303248
 20
15.8047622178
 30
0.0
 11
-35.0646032518
 21
16.000003
 31
0.0
 11
-35.0203146169
 21
15.4164662909
 31
0.0
 11
-34.8441977218
 21
14.8583966668
 31
0.0
 11
-34.5455284119
 21
14.3551869216
 31
0.0
 11
-34.1400372074
 21
13.9333404511
 31
0.0
 11
-33.6490807971
 21
13.6150753547
 31
0.0
 11
-33.09851721
 21
13.4171542368
 31
0.0
 11
-32.5173439066
 21
13.3500013425
 31
0.0
 11
-31.9361705213
 21
13.4171535265
 31
0.0
 11
-31.3856066924
 21
13.6150739716
 31
0.0
 11
-30.8946498934
 21
13.9333384681
 31
0.0
 11
-30.4891581737
 21
14.355184443
 31
0.0
 11
-30.1904882492
 21
14.8583938232
 31
0.0
 11
-30.0143706726
 21
15.4164632321
 31
0.0
 11
-29.9699303248
 21
15.8047622178
 31
0.0
  0
SPLINE
  5
590
100
AcDbEntity
  8
0
100
AcDbSpline
 62
253
  6
CONTINUOUS
 70
0
 71
3
 72
12
 73
8
 74
6
 42
0.0000001
 43
0.0000001
 44
0.0000000001
 12
-2.4846836643
 22
0.5294162148
 32
0.0
 13
0.1411347778
 23
2.537275274
 33
0.0
 40
0.0
 40
0.0
 40
0.0
 40
0.0
 40
0.2
 40
0.4
 40
0.6
 40
0.8
 40
1.0
 40
1.0
 40
1.0
 40
1.0
 10
-32.8922278071
 20
14.1394958193
 30
0.0
 10
-33.0578733847
 20
14.1747902336
 30
0.0
 10
-33.3809701781
 20
14.293205054
 30
0.0
 10
-33.7952555566
 20
14.5985751356
 30
0.0
 10
-34.1080580647
 20
15.0078982758
 30
0.0
 10
-34.2939553719
 20
15.4879076435
 30
0.0
 10
-34.3234239257
 20
15.8308483151
 30
0.0
 10
-34.3140149405
 20
16.0
 30
0.0
 11
-32.8922278071
 21
14.1394958193
 31
0.0
 11
-33.3692435428
 21
14.3144963625
 31
0.0
 11
-33.7783417449
 21
14.6159006454
 31
0.0
 11
-34.0869071979
 21
15.0196793137
 31
0.0
 11
-34.2703396258
 21
15.4936412501
 31
0.0
 11
-34.3140149405
 21
16.0
 31
0.0
  0
SPLINE
  5
591
100
AcDbEntity
  8
0
100
AcDbSpline
 62
253
  6
CONTINUOUS
 70
0
 71
3
 72
12
 73
8
 74
6
 42
0.0000001
 43
0.0000001
 44
0.0000000001
 12
0.1411387897
 22
-2.5372726921
 32
0.0
 13
-2.4846810741
 23
-0.5294170747
 33
0.0
 40
0.0
 40
0.0
 40
0.0
 40
0.0
 40
0.2
 40
0.4
 40
0.6
 40
0.8
 40
1.0
 40
1.0
 40
1.0
 40
1.0
 10
-30.7206729597
 20
16.0000027662
 30
0.0
 10
-30.7112637071
 20
15.8308512534
 30
0.0
 10
-30.7407317115
 20
15.4879108464
 30
0.0
 10
-30.9266282235
 20
15.0079016712
 30
0.0
 10
-31.2394300029
 20
14.5985785613
 30
0.0
 10
-31.6537147399
 20
14.2932083957
 30
0.0
 10
-31.9768111644
 20
14.1747934716
 30
0.0
 10
-32.1424565694
 20
14.139499
 30
0.0
 11
-30.7206729597
 21
16.0000027662
 31
0.0
 11
-30.7643474624
 21
15.4936444189
 31
0.0
 11
-30.9477791014
 21
15.0196826821
 31
0.0
 11
-31.2563438291
 21
14.615904052
 31
0.0
 11
-31.6654413898
 21
14.3144996923
 31
0.0
 11
-32.1424565694
 21
14.139499
 31
0.0
  0
SPLINE
  5
592
100
AcDbEntity
  8
0
100
AcDbSpline
 62
253
  6
CONTINUOUS
 70
0
 71
3
 72
21
 73
17
 74
15
 42
0.0000001
 43
0.0000001
 44
0.0000000001
 12
-0.3135496968
 22
-7.9917964808
 32
0.0
 13
0.3006274032
 23
8.0084136885
 33
0.0
 40
0.0
 40
0.0
 40
0.0
 40
0.0
 40
0.0731707317
 40
0.1463414634
 40
0.2195121951
 40
0.2926829268
 40
0.3658536585
 40
0.4390243902
 40
0.512195122
 40
0.5853658537
 40
0.6585365854
 40
0.7317073171
 40
0.8048780488
 40
0.8780487805
 40
0.9512195122
 40
1.0
 40
1.0
 40
1.0
 40
1.0
 10
-35.0646032518
 20
11.61489
 30
0.0
 10
-35.0722508054
 20
11.4199681346
 30
0.0
 10
-35.0424876835
 20
11.0268731645
 30
0.0
 10
-34.8648007421
 20
10.4641132033
 30
0.0
 10
-34.5634887394
 20
9.9563802399
 30
0.0
 10
-34.1544056517
 20
9.5308165506
 30
0.0
 10
-33.6591015436
 20
9.2097286309
 30
0.0
 10
-33.1036622856
 20
9.0100565534
 30
0.0
 10
-32.5173424088
 20
8.9423089202
 30
0.0
 10
-31.9310225288
 20
9.0100565264
 30
0.0
 10
-31.3755832616
 20
9.2097285782
 30
0.0
 10
-30.8802791387
 20
9.5308164751
 30
0.0
 10
-30.4711960313
 20
9.9563801455
 30
0.0
 10
-30.1698840053
 20
10.4641130949
 30
0.0
 10
-30.0119400343
 20
10.9643441643
 30
0.0
 10
-29.9748186901
 20
11.2894341845
 30
0.0
 10
-29.9699304396
 20
11.4196522933
 30
0.0
 11
-35.0646032518
 21
11.61489
 31
0.0
 11
-35.0203139737
 21
11.0313535801
 31
0.0
 11
-34.8441965652
 21
10.4732843696
 31
0.0
 11
-34.5455268919
 21
9.9700751189
 31
0.0
 11
-34.1400354817
 21
9.5482291789
 31
0.0
 11
-33.6490790186
 21
9.2299646046
 31
0.0
 11
-33.0985155158
 21
9.0320439608
 31
0.0
 11
-32.5173424082
 21
8.9648914601
 31
0.0
 11
-31.9361692976
 21
9.032043934
 31
0.0
 11
-31.3856057856
 21
9.2299645524
 31
0.0
 11
-30.8946493079
 21
9.548229104
 31
0.0
 11
-30.4891578782
 21
9.9700750253
 31
0.0
 11
-30.1904881817
 21
10.4732842622
 31
0.0
 11
-30.0143707474
 21
11.0313534646
 31
0.0
 11
-29.9699304396
 21
11.4196522933
 31
0.0
  0
SPLINE
  5
593
100
AcDbEntity
  8
0
100
AcDbSpline
 62
253
  6
CONTINUOUS
 70
0
 71
3
 72
20
 73
16
 74
14
 42
0.0000001
 43
0.0000001
 44
0.0000000001
 12
0.3160129389
 22
-5.6811844721
 32
0.0
 13
-0.1592701701
 23
5.7013176796
 33
0.0
 40
0.0
 40
0.0
 40
0.0
 40
0.0
 40
0.0789473684
 40
0.1578947368
 40
0.2368421053
 40
0.3157894737
 40
0.3947368421
 40
0.4736842105
 40
0.5526315789
 40
0.6315789474
 40
0.7105263158
 40
0.7894736842
 40
0.8684210526
 40
0.9473684211
 40
1.0
 40
1.0
 40
1.0
 40
1.0
 10
-30.7206697522
 20
11.6148898891
 30
0.0
 10
-30.7123536222
 20
11.4653850345
 30
0.0
 10
-30.7333370331
 20
11.1629354732
 30
0.0
 10
-30.8759798997
 20
10.7322485814
 30
0.0
 10
-31.1208313794
 20
10.350018756
 30
0.0
 10
-31.4526622283
 20
10.040414091
 30
0.0
 10
-31.8508005173
 20
9.8226196994
 30
0.0
 10
-32.2904515355
 20
9.7102257864
 30
0.0
 10
-32.7442332748
 20
9.7102258004
 30
0.0
 10
-33.183884286
 20
9.8226197405
 30
0.0
 10
-33.5820225616
 20
10.0404141567
 30
0.0
 10
-33.9138533913
 20
10.3500188422
 30
0.0
 10
-34.1587048474
 20
10.7322486827
 30
0.0
 10
-34.285498483
 20
11.1150814833
 30
0.0
 10
-34.3132779536
 20
11.3649943185
 30
0.0
 10
-34.3160721671
 20
11.4650174357
 30
0.0
 11
-30.7206697522
 21
11.6148898891
 31
0.0
 11
-30.7518649915
 21
11.1667667149
 31
0.0
 11
-30.8930146686
 21
10.7403247591
 31
0.0
 11
-31.135327941
 21
10.3621229494
 31
0.0
 11
-31.4637134683
 21
10.0557158032
 31
0.0
 11
-31.8577193055
 21
9.8401864458
 31
0.0
 11
-32.2928066557
 21
9.7289581076
 31
0.0
 11
-32.7418781534
 21
9.7289581214
 31
0.0
 11
-33.1769654967
 21
9.8401864865
 31
0.0
 11
-33.5709713206
 21
10.0557158682
 31
0.0
 11
-33.899356829
 21
10.3621230347
 31
0.0
 11
-34.1416700781
 21
10.7403248594
 31
0.0
 11
-34.2828197289
 21
11.1667668239
 31
0.0
 11
-34.3160721671
 21
11.4650174357
 31
0.0
  0
SPLINE
  5
594
100
AcDbEntity
  8
INCISIONI
100
AcDbSpline
 62
253
  6
CONTINUOUS
 70
0
 71
3
 72
9
 73
5
 74
3
 42
0.0000001
 43
0.0000001
 44
0.0000000001
 12
0.867158247
 22
-0.7385080985
 32
0.0
 13
1.138943158
 23
0.0
 33
0.0
 40
0.0
 40
0.0
 40
0.0
 40
0.0
 40
0.7499778947
 40
1.0
 40
1.0
 40
1.0
 40
1.0
 10
-42.9852024271
 20
10.7246185849
 30
0.0
 10
-42.768419255
 20
10.539997002
 30
0.0
 10
-42.3904940686
 20
10.3922411511
 30
0.0
 10
-42.0126030726
 20
10.3623239211
 30
0.0
 10
-41.9176827505
 20
10.3623239211
 30
0.0
 11
-42.9852024271
 21
10.7246185849
 31
0.0
 11
-42.2015674147
 21
10.384650075
 31
0.0
 11
-41.9176827505
 21
10.3623239211
 31
0.0
  0
SPLINE
  5
595
100
AcDbEntity
  8
INCISIONI
100
AcDbSpline
 62
253
  6
CONTINUOUS
 70
0
 71
3
 72
9
 73
5
 74
3
 42
0.0000001
 43
0.0000001
 44
0.0000000001
 12
0.0
 22
-1.1518927052
 32
0.0
 13
0.8769043901
 23
-0.7467671714
 33
0.0
 40
0.0
 40
0.0
 40
0.0
 40
0.0
 40
0.5000575813
 40
1.0
 40
1.0
 40
1.0
 40
1.0
 10
-43.4313489053
 20
11.7566003002
 30
0.0
 10
-43.4313489053
 20
11.5645960735
 30
0.0
 10
-43.3651051475
 20
11.174918261
 30
0.0
 10
-43.1313363277
 20
10.8490654469
 30
0.0
 10
-42.9852024271
 20
10.7246185849
 30
0.0
 11
-43.4313489053
 21
11.7566003002
 31
0.0
 11
-43.3232066064
 21
11.1908333096
 31
0.0
 11
-42.9852024271
 21
10.7246185849
 31
0.0
  0
SPLINE
  5
596
100
AcDbEntity
  8
INCISIONI
100
AcDbSpline
 62
253
  6
CONTINUOUS
 70
0
 71
3
 72
9
 73
5
 74
3
 42
0.0000001
 43
0.0000001
 44
0.0000000001
 12
-0.876784082
 22
-0.746694301
 32
0.0
 13
0.0
 23
-1.1517538486
 33
0.0
 40
0.0
 40
0.0
 40
0.0
 40
0.0
 40
0.4999423617
 40
1.0
 40
1.0
 40
1.0
 40
1.0
 10
-42.9852024271
 20
12.7884285572
 30
0.0
 10
-43.131316262
 20
12.6639938531
 30
0.0
 10
-43.3651039752
 20
12.3382210796
 30
0.0
 10
-43.4313489053
 20
11.9485814034
 30
0.0
 10
-43.4313489053
 20
11.7566003002
 30
0.0
 11
-42.9852024271
 21
12.7884285572
 31
0.0
 11
-43.3232009855
 21
12.3222955888
 31
0.0
 11
-43.4313489053
 21
11.7566003002
 31
0.0
  0
SPLINE
  5
597
100
AcDbEntity
  8
INCISIONI
100
AcDbSpline
 62
253
  6
CONTINUOUS
 70
0
 71
3
 72
9
 73
5
 74
3
 42
0.0000001
 43
0.0000001
 44
0.0000000001
 12
-1.1407661403
 22
0.0
 32
0.0
 13
-0.8685518643
 23
-0.7396835099
 33
0.0
 40
0.0
 40
0.0
 40
0.0
 40
0.0
 40
0.750054758
 40
1.0
 40
1.0
 40
1.0
 40
1.0
 10
-41.9176827505
 20
13.1507078752
 30
0.0
 10
-42.2028951076
 20
13.1507078752
 30
0.0
 10
-42.594196006
 20
13.0616694123
 30
0.0
 10
-42.9128389585
 20
12.8500553485
 30
0.0
 10
-42.9852024271
 20
12.7884285572
 30
0.0
 11
-41.9176827505
 21
13.1507078752
 31
0.0
 11
-42.7490132462
 21
12.9481815859
 31
0.0
 11
-42.9852024271
 21
12.7884285572
 31
0.0
  0
SPLINE
  5
598
100
AcDbEntity
  8
INCISIONI
100
AcDbSpline
 62
253
  6
CONTINUOUS
 70
0
 71
3
 72
9
 73
5
 74
3
 42
0.0000001
 43
0.0000001
 44
0.0000000001
 12
-0.8671868248
 22
0.7384580574
 32
0.0
 13
-1.1389324802
 23
0.0
 33
0.0
 40
0.0
 40
0.0
 40
0.0
 40
0.0
 40
0.7499778839
 40
1.0
 40
1.0
 40
1.0
 40
1.0
 10
-40.8501681876
 20
12.7884285572
 30
0.0
 10
-41.0669585009
 20
12.9730376276
 30
0.0
 10
-41.4448749775
 20
13.1207928882
 30
0.0
 10
-41.8227633142
 20
13.1507078752
 30
0.0
 10
-41.9176827505
 20
13.1507078752
 30
0.0
 11
-40.8501681876
 21
12.7884285572
 31
0.0
 11
-41.633800672
 21
13.1283827383
 31
0.0
 11
-41.9176827505
 21
13.1507078752
 31
0.0
  0
SPLINE
  5
599
100
AcDbEntity
  8
INCISIONI
100
AcDbSpline
 62
253
  6
CONTINUOUS
 70
0
 71
3
 72
9
 73
5
 74
3
 42
0.0000001
 43
0.0000001
 44
0.0000000001
 12
0.0
 22
1.1517571284
 32
0.0
 13
-0.8768179889
 23
0.746659532
 33
0.0
 40
0.0
 40
0.0
 40
0.0
 40
0.0
 40
0.5000576434
 40
1.0
 40
1.0
 40
1.0
 40
1.0
 10
-40.4040165957
 20
11.7566003002
 30
0.0
 10
-40.4040165957
 20
11.948581952
 30
0.0
 10
-40.4702618472
 20
12.3382212405
 30
0.0
 10
-40.7040487037
 20
12.6639996485
 30
0.0
 10
-40.8501681876
 20
12.7884285572
 30
0.0
 11
-40.4040165957
 21
11.7566003002
 31
0.0
 11
-40.5121645439
 21
12.3222972593
 31
0.0
 11
-40.8501681876
 21
12.7884285572
 31
0.0
  0
SPLINE
  5
59A
100
AcDbEntity
  8
INCISIONI
100
AcDbSpline
 62
253
  6
CONTINUOUS
 70
0
 71
3
 72
9
 73
5
 74
3
 42
0.0000001
 43
0.0000001
 44
0.0000000001
 12
0.8768689068
 22
0.7468061142
 32
0.0
 13
0.0
 23
1.1518909321
 33
0.0
 40
0.0
 40
0.0
 40
0.0
 40
0.0
 40
0.4999424868
 40
1.0
 40
1.0
 40
1.0
 40
1.0
 10
-40.8501681876
 20
10.7246185849
 30
0.0
 10
-40.7040401803
 20
10.8490719536
 30
0.0
 10
-40.4702761971
 20
11.174920788
 30
0.0
 10
-40.4040165957
 20
11.5645963952
 30
0.0
 10
-40.4040165957
 20
11.7566003002
 30
0.0
 11
-40.8501681876
 21
10.7246185849
 31
0.0
 11
-40.5121695484
 21
11.1908363293
 31
0.0
 11
-40.4040165957
 21
11.7566003002
 31
0.0
  0
SPLINE
  5
59B
100
AcDbEntity
  8
INCISIONI
100
AcDbSpline
 62
253
  6
CONTINUOUS
 70
0
 71
3
 72
9
 73
5
 74
3
 42
0.0000001
 43
0.0000001
 44
0.0000000001
 12
1.1407658859
 22
0.0
 32
0.0
 13
0.8685323249
 23
0.7397060674
 33
0.0
 40
0.0
 40
0.0
 40
0.0
 40
0.0
 40
0.7500547609
 40
1.0
 40
1.0
 40
1.0
 40
1.0
 10
-41.9176827505
 20
10.3623239211
 30
0.0
 10
-41.6324704559
 20
10.3623239211
 30
0.0
 10
-41.2411730884
 20
10.4513763062
 30
0.0
 10
-40.9225300275
 20
10.662989915
 30
0.0
 10
-40.8501681876
 20
10.7246185849
 30
0.0
 11
-41.9176827505
 21
10.3623239211
 31
0.0
 11
-41.0863555647
 21
10.564863008
 31
0.0
 11
-40.8501681876
 21
10.7246185849
 31
0.0
  0
SPLINE
  5
59C
100
AcDbEntity
  8
INCISIONI
100
AcDbSpline
 62
253
  6
CONTINUOUS
 70
0
 71
3
 72
8
 73
4
 74
2
 42
0.0000001
 43
0.0000001
 44
0.0000000001
 12
0.0
 22
-0.651743576
 32
0.0
 13
-0.4804800633
 23
-0.4402706656
 33
0.0
 40
0.0
 40
0.0
 40
0.0
 40
0.0
 40
1.0
 40
1.0
 40
1.0
 40
1.0
 10
-40.8628757811
 20
11.7579507336
 30
0.0
 10
-40.8628757811
 20
11.5407028749
 30
0.0
 10
-40.9503732067
 20
11.3018670207
 30
0.0
 10
-41.1105332278
 20
11.1551101322
 30
0.0
 11
-40.8628757811
 21
11.7579507336
 31
0.0
 11
-41.1105332278
 21
11.1551101322
 31
0.0
  0
SPLINE
  5
59D
100
AcDbEntity
  8
INCISIONI
100
AcDbSpline
 62
253
  6
CONTINUOUS
 70
0
 71
3
 72
8
 73
4
 74
2
 42
0.0000001
 43
0.0000001
 44
0.0000000001
 12
0.4785009339
 22
-0.4385102618
 32
0.0
 13
0.0
 23
-0.6490948727
 33
0.0
 40
0.0
 40
0.0
 40
0.0
 40
0.0
 40
1.0
 40
1.0
 40
1.0
 40
1.0
 10
-41.1105332278
 20
12.3579267794
 30
0.0
 10
-40.9510329165
 20
12.2117566921
 30
0.0
 10
-40.8628757811
 20
11.9743156911
 30
0.0
 10
-40.8628757811
 20
11.7579507336
 30
0.0
 11
-41.1105332278
 21
12.3579267794
 31
0.0
 11
-40.8628757811
 21
11.7579507336
 31
0.0
  0
SPLINE
  5
59E
100
AcDbEntity
  8
INCISIONI
100
AcDbSpline
 62
253
  6
CONTINUOUS
 70
0
 71
3
 72
9
 73
5
 74
3
 42
0.0000001
 43
0.0000001
 44
0.0000000001
 12
0.8631522108
 22
0.0
 32
0.0
 13
0.6363970365
 23
-0.5832102119
 33
0.0
 40
0.0
 40
0.0
 40
0.0
 40
0.0
 40
0.7501681637
 40
1.0
 40
1.0
 40
1.0
 40
1.0
 10
-41.9174014959
 20
12.6297219488
 30
0.0
 10
-41.7015650596
 20
12.6297219488
 30
0.0
 10
-41.4032948232
 20
12.5705197887
 30
0.0
 10
-41.1635306412
 20
12.4064949388
 30
0.0
 10
-41.1105332278
 20
12.3579267794
 30
0.0
 11
-41.9174014959
 21
12.6297219488
 31
0.0
 11
-41.2869838037
 21
12.4819095903
 31
0.0
 11
-41.1105332278
 21
12.3579267794
 31
0.0
  0
SPLINE
  5
59F
100
AcDbEntity
  8
INCISIONI
100
AcDbSpline
 62
253
  6
CONTINUOUS
 70
0
 71
3
 72
9
 73
5
 74
3
 42
0.0000001
 43
0.0000001
 44
0.0000000001
 12
0.6345080407
 22
0.5814597384
 32
0.0
 13
0.8605770749
 23
0.0
 33
0.0
 40
0.0
 40
0.0
 40
0.0
 40
0.0
 40
0.7499573393
 40
1.0
 40
1.0
 40
1.0
 40
1.0
 10
-42.7242851052
 20
12.3579267794
 30
0.0
 10
-42.5656671179
 20
12.5032834455
 30
0.0
 10
-42.2740699107
 20
12.6100652632
 30
0.0
 10
-41.9891284898
 20
12.6297219488
 30
0.0
 10
-41.9174014959
 20
12.6297219488
 30
0.0
 11
-42.7242851052
 21
12.3579267794
 31
0.0
 11
-42.1320396405
 21
12.6144447496
 31
0.0
 11
-41.9174014959
 21
12.6297219488
 31
0.0
  0
SPLINE
  5
5A0
100
AcDbEntity
  8
INCISIONI
100
AcDbSpline
 62
253
  6
CONTINUOUS
 70
0
 71
3
 72
8
 73
4
 74
2
 42
0.0000001
 43
0.0000001
 44
0.0000000001
 12
0.0
 22
0.6490948727
 32
0.0
 13
0.4785082014
 23
0.4385023289
 33
0.0
 40
0.0
 40
0.0
 40
0.0
 40
0.0
 40
1.0
 40
1.0
 40
1.0
 40
1.0
 10
-42.9719425519
 20
11.7579507336
 30
0.0
 10
-42.9719425519
 20
11.9743156911
 30
0.0
 10
-42.883787839
 20
12.2117593364
 30
0.0
 10
-42.7242851052
 20
12.3579267794
 30
0.0
 11
-42.9719425519
 21
11.7579507336
 31
0.0
 11
-42.7242851052
 21
12.3579267794
 31
0.0
  0
SPLINE
  5
5A1
100
AcDbEntity
  8
INCISIONI
100
AcDbSpline
 62
253
  6
CONTINUOUS
 70
0
 71
3
 72
8
 73
4
 74
2
 42
0.0000001
 43
0.0000001
 44
0.0000000001
 12
-0.4804732797
 22
0.4402780709
 32
0.0
 13
0.0
 23
0.651743576
 33
0.0
 40
0.0
 40
0.0
 40
0.0
 40
0.0
 40
1.0
 40
1.0
 40
1.0
 40
1.0
 10
-42.7242851052
 20
11.1551101322
 30
0.0
 10
-42.8844428651
 20
11.3018694891
 30
0.0
 10
-42.9719425519
 20
11.5407028749
 30
0.0
 10
-42.9719425519
 20
11.7579507336
 30
0.0
 11
-42.7242851052
 21
11.1551101322
 31
0.0
 11
-42.9719425519
 21
11.7579507336
 31
0.0
  0
SPLINE
  5
5A2
100
AcDbEntity
  8
INCISIONI
100
AcDbSpline
 62
253
  6
CONTINUOUS
 70
0
 71
3
 72
9
 73
5
 74
3
 42
0.0000001
 43
0.0000001
 44
0.0000000001
 12
-0.8631686094
 22
0.0
 32
0.0
 13
-0.6364162643
 23
0.5832135014
 33
0.0
 40
0.0
 40
0.0
 40
0.0
 40
0.0
 40
0.7501681644
 40
1.0
 40
1.0
 40
1.0
 40
1.0
 10
-41.9174014959
 20
10.8833098474
 30
0.0
 10
-42.133242033
 20
10.8833098474
 30
0.0
 10
-42.4315188402
 20
10.9425121049
 30
0.0
 10
-42.6712860907
 20
11.106541699
 30
0.0
 10
-42.7242851052
 20
11.1551101322
 30
0.0
 11
-41.9174014959
 21
10.8833098474
 31
0.0
 11
-42.5478311767
 21
11.0311249672
 31
0.0
 11
-42.7242851052
 21
11.1551101322
 31
0.0
  0
SPLINE
  5
5A3
100
AcDbEntity
  8
INCISIONI
100
AcDbSpline
 62
253
  6
CONTINUOUS
 70
0
 71
3
 72
9
 73
5
 74
3
 42
0.0000001
 43
0.0000001
 44
0.0000000001
 12
-0.6345237032
 22
-0.5814230277
 32
0.0
 13
-0.8605638273
 23
0.0
 33
0.0
 40
0.0
 40
0.0
 40
0.0
 40
0.0
 40
0.7499573136
 40
1.0
 40
1.0
 40
1.0
 40
1.0
 10
-41.1105332278
 20
11.1551101322
 30
0.0
 10
-41.2691551251
 20
11.0097626482
 30
0.0
 10
-41.5607375984
 20
10.9029716844
 30
0.0
 10
-41.8456755989
 20
10.8833098474
 30
0.0
 10
-41.9174014959
 20
10.8833098474
 30
0.0
 11
-41.1105332278
 21
11.1551101322
 31
0.0
 11
-41.7027668513
 21
10.8985898747
 31
0.0
 11
-41.9174014959
 21
10.8833098474
 31
0.0
  0
SPLINE
  5
5A4
100
AcDbEntity
  8
INCISIONI
100
AcDbSpline
 62
253
  6
CONTINUOUS
 70
0
 71
3
 72
11
 73
7
 74
5
 42
0.0000001
 43
0.0000001
 44
0.0000000001
 12
0.7373377137
 22
0.0113808125
 32
0.0
 13
0.0164643223
 23
-0.7373539953
 33
0.0
 40
0.0
 40
0.0
 40
0.0
 40
0.0
 40
0.2491315025
 40
0.4973515609
 40
0.7462289133
 40
1.0
 40
1.0
 40
1.0
 40
1.0
 10
-42.5352773833
 20
-5.4627200261
 30
0.0
 10
-42.4740460325
 20
-5.4617749198
 30
0.0
 10
-42.3495919606
 20
-5.4732383197
 30
0.0
 10
-42.1859565577
 20
-5.5749993121
 30
0.0
 10
-42.1007026353
 20
-5.746549742
 30
0.0
 10
-42.086202477
 20
-5.8705216342
 30
0.0
 10
-42.084809754
 20
-5.9328946758
 30
0.0
 11
-42.5352773833
 21
-5.4627200261
 31
0.0
 11
-42.3532263221
 21
-5.4874007505
 31
0.0
 11
-42.1992070679
 21
-5.5863253894
 31
0.0
 11
-42.1116947372
 21
-5.7476704692
 31
0.0
 11
-42.084809754
 21
-5.9328946758
 31
0.0
  0
SPLINE
  5
5A5
100
AcDbEntity
  8
INCISIONI
100
AcDbSpline
 62
253
  6
CONTINUOUS
 70
0
 71
3
 72
9
 73
5
 74
3
 42
0.0000001
 43
0.0000001
 44
0.0000000001
 12
0.0616043735
 22
0.5307774627
 32
0.0
 13
0.5341948855
 23
0.0083576149
 33
0.0
 40
0.0
 40
0.0
 40
0.0
 40
0.0
 40
0.5000882298
 40
1.0
 40
1.0
 40
1.0
 40
1.0
 10
-42.897642648
 20
-5.804625691
 30
0.0
 10
-42.8873734406
 20
-5.7161471704
 30
0.0
 10
-42.8095218606
 20
-5.5367587789
 30
0.0
 10
-42.6242941536
 20
-5.4641127161
 30
0.0
 10
-42.5352773833
 20
-5.4627200261
 30
0.0
 11
-42.897642648
 21
-5.804625691
 31
0.0
 11
-42.7826546166
 21
-5.5634221249
 31
0.0
 11
-42.5352773833
 21
-5.4627200261
 31
0.0
  0
SPLINE
  5
5A6
100
AcDbEntity
  8
INCISIONI
100
AcDbSpline
 62
253
  6
CONTINUOUS
 70
0
 71
3
 72
9
 73
5
 74
3
 42
0.0000001
 43
0.0000001
 44
0.0000000001
 12
-0.0800078963
 22
0.4690276623
 32
0.0
 13
0.054842989
 23
0.4726325126
 33
0.0
 40
0.0
 40
0.0
 40
0.0
 40
0.0
 40
0.4997637338
 40
1.0
 40
1.0
 40
1.0
 40
1.0
 10
-42.8805786568
 20
-6.2788012718
 30
0.0
 10
-42.8939070051
 20
-6.2006669333
 30
0.0
 10
-42.913289615
 20
-6.0427263562
 30
0.0
 10
-42.9067874653
 20
-5.8834349988
 30
0.0
 10
-42.897642648
 20
-5.804625691
 30
0.0
 11
-42.8805786568
 21
-6.2788012718
 31
0.0
 11
-42.9068153804
 21
-6.0424636122
 31
0.0
 11
-42.897642648
 21
-5.804625691
 31
0.0
  0
SPLINE
  5
5A7
100
AcDbEntity
  8
INCISIONI
100
AcDbSpline
 62
253
  6
CONTINUOUS
 70
0
 71
3
 72
11
 73
7
 74
5
 42
0.0000001
 43
0.0000001
 44
0.0000000001
 12
-0.5116812263
 22
-1.4167437705
 32
0.0
 13
0.2191822581
 23
-1.4903036133
 33
0.0
 40
0.0
 40
0.0
 40
0.0
 40
0.0
 40
0.249614251
 40
0.499888924
 40
0.7499637517
 40
1.0
 40
1.0
 40
1.0
 40
1.0
 10
-43.3100260575
 20
-5.3678501192
 30
0.0
 10
-43.3526003662
 20
-5.485729931
 30
0.0
 10
-43.4000760596
 20
-5.735014474
 30
0.0
 10
-43.4144828208
 20
-6.1116431473
 30
0.0
 10
-43.391327147
 20
-6.4882750285
 30
0.0
 10
-43.35881344
 20
-6.7373573696
 30
0.0
 10
-43.3405456035
 20
-6.8615673444
 30
0.0
 11
-43.3100260575
 21
-5.3678501192
 31
0.0
 11
-43.3905701249
 21
-5.7351233729
 31
0.0
 11
-43.4082187432
 21
-6.1117086883
 31
0.0
 11
-43.3870550228
 21
-6.487811254
 31
0.0
 11
-43.3405456035
 21
-6.8615673444
 31
0.0
  0
SPLINE
  5
5A8
100
AcDbEntity
  8
INCISIONI
100
AcDbSpline
 62
253
  6
CONTINUOUS
 70
0
 71
3
 72
18
 73
14
 74
12
 42
0.0000001
 43
0.0000001
 44
0.0000000001
 12
-0.2311001381
 22
1.7915717583
 32
0.0
 13
-0.6128270121
 23
-1.6992591149
 33
0.0
 40
0.0
 40
0.0
 40
0.0
 40
0.0
 40
0.0626155709
 40
0.1255750725
 40
0.1873779143
 40
0.2500548274
 40
0.3131302752
 40
0.3757850613
 40
0.5005898481
 40
0.6254073429
 40
0.7503252015
 40
0.8752611255
 40
1.0
 40
1.0
 40
1.0
 40
1.0
 10
-41.8458921401
 20
-5.30544429
 30
0.0
 10
-41.8507156291
 20
-5.2680508605
 30
0.0
 10
-41.9036880568
 20
-5.205742357
 30
0.0
 10
-41.9757093582
 20
-5.1219941374
 30
0.0
 10
-42.061658628
 20
-5.0470552444
 30
0.0
 10
-42.1580771057
 20
-4.9877497308
 30
0.0
 10
-42.2624562987
 20
-4.9423237958
 30
0.0
 10
-42.408118869
 20
-4.9015430794
 30
0.0
 10
-42.5975152427
 20
-4.887359708
 30
0.0
 10
-42.8226855336
 20
-4.9207057947
 30
0.0
 10
-43.0312371196
 20
-5.0158512686
 30
0.0
 10
-43.2013254366
 20
-5.1675562972
 30
0.0
 10
-43.2845449403
 20
-5.2971955627
 30
0.0
 10
-43.3100260575
 20
-5.3678501192
 30
0.0
 11
-41.8458921401
 21
-5.30544429
 31
0.0
 11
-41.9023729325
 21
-5.2074502929
 31
0.0
 11
-41.9785107784
 21
-5.1229750287
 31
0.0
 11
-42.0629619142
 21
-5.0499699399
 31
0.0
 11
-42.1591195475
 21
-4.9902217399
 31
0.0
 11
-42.26355629
 21
-4.9447010075
 31
0.0
 11
-42.3725100036
 21
-4.914117073
 31
0.0
 11
-42.597176213
 21
-4.8957499389
 31
0.0
 11
-42.8198450147
 21
-4.9309846614
 31
0.0
 11
-43.0248215252
 21
-5.0252799698
 31
0.0
 11
-43.1938659197
 21
-5.1747784359
 31
0.0
 11
-43.3100260575
 21
-5.3678501192
 31
0.0
  0
SPLINE
  5
5A9
100
AcDbEntity
  8
INCISIONI
100
AcDbSpline
 62
253
  6
CONTINUOUS
 70
0
 71
3
 72
11
 73
7
 74
5
 42
0.0000001
 43
0.0000001
 44
0.0000000001
 12
-0.6648989534
 22
-0.181193689
 32
0.0
 13
-0.2552161048
 23
-0.6402353954
 33
0.0
 40
0.0
 40
0.0
 40
0.0
 40
0.0
 40
0.2450440156
 40
0.5033055314
 40
0.7579591626
 40
1.0
 40
1.0
 40
1.0
 40
1.0
 10
-41.2602168355
 20
-4.9565587397
 30
0.0
 10
-41.314526672
 20
-4.9713588828
 30
0.0
 10
-41.42648809
 20
-5.0005213919
 30
0.0
 10
-41.5888960179
 20
-5.0651610171
 30
0.0
 10
-41.7365328016
 20
-5.159157879
 30
0.0
 10
-41.8081720296
 20
-5.2537899196
 30
0.0
 10
-41.8287629362
 20
-5.30544429
 30
0.0
 11
-41.2602168355
 21
-4.9565587397
 31
0.0
 11
-41.4225716595
 21
-5.0030172293
 31
0.0
 11
-41.5872356304
 21
-5.0705695192
 31
0.0
 11
-41.7322983456
 21
-5.169347468
 31
0.0
 11
-41.8287629362
 21
-5.30544429
 31
0.0
  0
SPLINE
  5
5AA
100
AcDbEntity
  8
INCISIONI
100
AcDbSpline
 62
253
  6
CONTINUOUS
 70
0
 71
3
 72
8
 73
4
 74
2
 42
0.0000001
 43
0.0000001
 44
0.0000000001
 12
-0.7830184647
 22
-0.212730392
 32
0.0
 13
-0.7828503484
 23
-0.2133484193
 33
0.0
 40
0.0
 40
0.0
 40
0.0
 40
0.0
 40
1.0
 40
1.0
 40
1.0
 40
1.0
 10
-40.4756427804
 20
-4.7496410148
 30
0.0
 10
-40.7366489353
 20
-4.8205511455
 30
0.0
 10
-40.9992667194
 20
-4.8854426
 30
0.0
 10
-41.2602168355
 20
-4.9565587397
 30
0.0
 11
-40.4756427804
 21
-4.7496410148
 31
0.0
 11
-41.2602168355
 21
-4.9565587397
 31
0.0
  0
SPLINE
  5
5AB
100
AcDbEntity
  8
INCISIONI
100
AcDbSpline
 62
253
  6
CONTINUOUS
 70
0
 71
3
 72
9
 73
5
 74
3
 42
0.0000001
 43
0.0000001
 44
0.0000000001
 12
0.8593546271
 22
0.3229459945
 32
0.0
 13
0.8822654545
 23
0.2537321442
 33
0.0
 40
0.0
 40
0.0
 40
0.0
 40
0.0
 40
0.499968398
 40
1.0
 40
1.0
 40
1.0
 40
1.0
 10
-41.3546448325
 20
-5.5965120355
 30
0.0
 10
-41.2114281138
 20
-5.542691105
 30
0.0
 10
-40.9158074099
 20
-5.4614309255
 30
0.0
 10
-40.6226963166
 20
-5.3741331019
 30
0.0
 10
-40.4756427804
 20
-5.3318417383
 30
0.0
 11
-41.3546448325
 21
-5.5965120355
 31
0.0
 11
-40.9164534177
 21
-5.4599268412
 31
0.0
 11
-40.4756427804
 21
-5.3318417383
 31
0.0
  0
SPLINE
  5
5AC
100
AcDbEntity
  8
INCISIONI
100
AcDbSpline
 62
253
  6
CONTINUOUS
 70
0
 71
3
 72
11
 73
7
 74
5
 42
0.0000001
 43
0.0000001
 44
0.0000000001
 12
0.0
 22
0.4505958664
 32
0.0
 13
0.421793933
 23
0.1583423737
 33
0.0
 40
0.0
 40
0.0
 40
0.0
 40
0.0
 40
0.2477795725
 40
0.4960551195
 40
0.7486644071
 40
1.0
 40
1.0
 40
1.0
 40
1.0
 10
-41.6100612608
 20
-5.9341993273
 30
0.0
 10
-41.6100612608
 20
-5.8969831769
 30
0.0
 10
-41.5991730395
 20
-5.8216580962
 30
0.0
 10
-41.5434666807
 20
-5.7211454858
 30
0.0
 10
-41.4578067122
 20
-5.6450913069
 30
0.0
 10
-41.3899821086
 20
-5.609777727
 30
0.0
 10
-41.3546448325
 20
-5.5965120355
 30
0.0
 11
-41.6100612608
 21
-5.9341993273
 31
0.0
 11
-41.5926914099
 21
-5.8239107377
 31
0.0
 11
-41.5389320036
 21
-5.7258068357
 31
0.0
 11
-41.4550391374
 21
-5.648891914
 31
0.0
 11
-41.3546448325
 21
-5.5965120355
 31
0.0
  0
SPLINE
  5
5AD
100
AcDbEntity
  8
0
100
AcDbSpline
 62
253
  6
CONTINUOUS
 70
0
 71
3
 72
8
 73
4
 74
2
 42
0.0000001
 43
0.0000001
 44
0.0000000001
 12
-0.0041913203
 22
0.1500346758
 32
0.0
 13
0.0083161392
 23
0.149504854
 33
0.0
 40
0.0
 40
0.0
 40
0.0
 40
0.0
 40
1.0
 40
1.0
 40
1.0
 40
1.0
 10
-34.3160721671
 20
11.4650174357
 30
0.0
 10
-34.3174692738
 20
11.5150289943
 30
0.0
 10
-34.3167869869
 20
11.5650550487
 30
0.0
 10
-34.3140149405
 20
11.61489
 30
0.0
 11
-34.3160721671
 21
11.4650174357
 31
0.0
 11
-34.3140149405
 21
11.61489
 31
0.0
  0
SPLINE
  5
5AE
100
AcDbEntity
  8
SUPERFICI
100
AcDbSpline
 62
253
  6
CONTINUOUS
 70
0
 71
3
 72
16
 73
12
 74
10
 42
0.0000001
 43
0.0000001
 44
0.0000000001
 12
-0.0261516336
 22
-0.4991549303
 32
0.0
 13
0.4991545139
 23
-0.0261595796
 33
0.0
 40
0.0
 40
0.0
 40
0.0
 40
0.0
 40
0.3825280148
 40
0.5553194149
 40
0.7067680397
 40
0.831066508
 40
0.9234521345
 40
0.9565248622
 40
0.9804077189
 40
0.9948944787
 40
1.0
 40
1.0
 40
1.0
 40
1.0
 10
-54.4334368647
 20
-21.5609131753
 30
0.0
 10
-54.4367714422
 20
-21.6245600901
 30
0.0
 10
-54.4413258206
 20
-21.7169835667
 30
0.0
 10
-54.4464059271
 20
-21.8346044515
 30
0.0
 10
-54.449312504
 20
-21.9093437609
 30
0.0
 10
-54.4511884612
 20
-21.9704769407
 30
0.0
 10
-54.4523024913
 20
-22.0124547443
 30
0.0
 10
-54.4522010507
 20
-22.0368202192
 30
0.0
 10
-54.4524614552
 20
-22.0495933469
 30
0.0
 10
-54.4513842419
 20
-22.0552676953
 30
0.0
 10
-54.4517281209
 20
-22.0601834232
 30
0.0
 10
-54.4508786396
 20
-22.0602279426
 30
0.0
 11
-54.4334368647
 21
-21.5609131753
 31
0.0
 11
-54.4427788705
 21
-21.7518874393
 31
0.0
 11
-54.4464941685
 21
-21.8381754633
 31
0.0
 11
-54.4493732991
 21
-21.9138207008
 31
0.0
 11
-54.4513057785
 21
-21.975919927
 31
0.0
 11
-54.4522173923
 21
-22.0220889157
 31
0.0
 11
-54.4522778529
 21
-22.0386198617
 31
0.0
 11
-54.4520731814
 21
-22.0505557028
 31
0.0
 11
-54.4516052159
 21
-22.0577816206
 31
0.0
 11
-54.4508786396
 21
-22.0602279426
 31
0.0
  0
SPLINE
  5
5AF
100
AcDbEntity
  8
RACCORDO
100
AcDbSpline
 62
253
  6
CONTINUOUS
 70
0
 71
3
 72
16
 73
12
 74
10
 42
0.0000001
 43
0.0000001
 44
0.0000000001
 12
-0.500063574
 22
-0.0087286317
 32
0.0
 13
0.0087259843
 23
-0.5000636202
 33
0.0
 40
0.0
 40
0.0
 40
0.0
 40
0.0
 40
0.0051818794
 40
0.0197944606
 40
0.0437225214
 40
0.0767254161
 40
0.1689121444
 40
0.2931715745
 40
0.4446124842
 40
0.6180123883
 40
1.0
 40
1.0
 40
1.0
 40
1.0
 10
-56.6703611892
 20
3.7377339834
 30
0.0
 10
-56.6712249455
 20
3.7377189065
 30
0.0
 10
-56.6710071544
 20
3.7327241635
 30
0.0
 10
-56.672315424
 20
3.7270669721
 30
0.0
 10
-56.672488464
 20
3.7142629554
 30
0.0
 10
-56.6734582392
 20
3.6899392066
 30
0.0
 10
-56.6738114081
 20
3.647973911
 30
0.0
 10
-56.6740709528
 20
3.586817121
 30
0.0
 10
-56.6737753794
 20
3.5118830654
 30
0.0
 10
-56.6727923847
 20
3.3940759943
 30
0.0
 10
-56.6714722618
 20
3.3014828385
 30
0.0
 10
-56.6703611892
 20
3.2378101359
 30
0.0
 11
-56.6703611892
 21
3.7377339834
 31
0.0
 11
-56.6711664328
 21
3.7352705906
 31
0.0
 11
-56.6718843075
 21
3.7279976007
 31
0.0
 11
-56.6725075952
 21
3.7160464685
 31
0.0
 11
-56.6730290777
 21
3.6995486489
 31
0.0
 11
-56.6737381112
 21
3.653447854
 31
0.0
 11
-56.6739754062
 21
3.591301227
 31
0.0
 11
-56.6737381111
 21
3.5155599804
 31
0.0
 11
-56.6730290777
 21
3.4288386947
 31
0.0
 11
-56.6703611892
 21
3.2378101359
 31
0.0
  0
LINE
  5
5B0
100
AcDbEntity
  8
SUPERFICI
100
AcDbLine
 62
7
  6
CONTINUOUS
 10
-47.9676415705
 20
-21.8997711479
 11
-47.9676415703
 21
-22.4
  0
SPLINE
  5
5B1
100
AcDbEntity
  8
RACCORDO
100
AcDbSpline
 62
253
  6
CONTINUOUS
 70
0
 71
3
 72
9
 73
5
 74
3
 42
0.0000001
 43
0.0000001
 44
0.0000000001
 12
-0.0017980436
 22
-0.2422280039
 32
0.0
 13
0.019336293
 23
-0.2414616877
 33
0.0
 40
0.0
 40
0.0
 40
0.0
 40
0.0
 40
0.6581435511
 40
1.0
 40
1.0
 40
1.0
 40
1.0
 10
-56.6735535507
 20
-3.4877284325
 30
0.0
 10
-56.6739480076
 20
-3.5408686988
 30
0.0
 10
-56.6735994046
 20
-3.621554842
 30
0.0
 10
-56.6739429548
 20
-3.7024224938
 30
0.0
 10
-56.6717395427
 20
-3.7299375721
 30
0.0
 11
-56.6735535507
 21
-3.4877284325
 31
0.0
 11
-56.6737889542
 21
-3.6471534494
 31
0.0
 11
-56.6717395427
 21
-3.7299375721
 31
0.0
  0
SPLINE
  5
5B2
100
AcDbEntity
  8
RACCORDO
100
AcDbSpline
 62
253
  6
CONTINUOUS
 70
0
 71
3
 72
9
 73
5
 74
3
 42
0.0000001
 43
0.0000001
 44
0.0000000001
 12
0.000635543
 22
-0.0079363338
 32
0.0
 13
0.0079605278
 23
-0.0001389518
 33
0.0
 40
0.0
 40
0.0
 40
0.0
 40
0.0
 40
0.7362363489
 40
1.0
 40
1.0
 40
1.0
 40
1.0
 10
-56.6717395427
 20
-3.7299375721
 30
0.0
 10
-56.6715835727
 20
-3.7318852446
 30
0.0
 10
-56.6710289618
 20
-3.733722946
 30
0.0
 10
-56.6710610884
 20
-3.7377217666
 30
0.0
 10
-56.6703611892
 20
-3.7377339834
 30
0.0
 11
-56.6717395427
 21
-3.7299375721
 31
0.0
 11
-56.6710849608
 21
-3.7357626314
 31
0.0
 11
-56.6703611892
 21
-3.7377339834
 31
0.0
  0
SPLINE
  5
5B3
100
AcDbEntity
  8
SUPERFICI
100
AcDbSpline
 62
253
  6
CONTINUOUS
 70
0
 71
3
 72
16
 73
12
 74
10
 42
0.0000001
 43
0.0000001
 44
0.0000000001
 12
-0.1246395078
 22
0.2158892671
 32
0.0
 13
0.2158874404
 23
0.1246426718
 33
0.0
 40
0.0
 40
0.0
 40
0.0
 40
0.0
 40
0.3828830346
 40
0.5557614317
 40
0.7072487564
 40
0.8315476875
 40
0.9238977984
 40
0.956936989
 40
0.9807666927
 40
0.9951626574
 40
1.0
 40
1.0
 40
1.0
 40
1.0
 10
-50.2190960033
 20
-23.8443375673
 30
0.0
 10
-50.2350034543
 20
-23.8167841214
 30
0.0
 10
-50.2580646822
 20
-23.7767657931
 30
0.0
 10
-50.2872960506
 20
-23.7258002017
 30
0.0
 10
-50.305851471
 20
-23.6934215834
 30
0.0
 10
-50.3208667595
 20
-23.6668867538
 30
0.0
 10
-50.3313523991
 20
-23.6487265313
 30
0.0
 10
-50.3370369117
 20
-23.6380480956
 30
0.0
 10
-50.3405210722
 20
-23.63262565
 30
0.0
 10
-50.3411150177
 20
-23.6299026515
 30
0.0
 10
-50.3429896777
 20
-23.6280321961
 30
0.0
 10
-50.3426415705
 20
-23.6278312164
 30
0.0
 11
-50.2190960033
 21
-23.8443375673
 31
0.0
 11
-50.2667355996
 21
-23.7616295068
 31
0.0
 11
-50.2881825529
 21
-23.7242490603
 31
0.0
 11
-50.3069284967
 21
-23.6914667969
 31
0.0
 11
-50.3222559871
 21
-23.6645373679
 31
0.0
 11
-50.333577904
 21
-23.6444922937
 31
0.0
 11
-50.33759496
 21
-23.6373021601
 31
0.0
 11
-50.3404609009
 21
-23.632098826
 31
0.0
 11
-50.3421484956
 21
-23.6289316801
 31
0.0
 11
-50.3426415705
 21
-23.6278312164
 31
0.0
  0
SPLINE
  5
5B4
100
AcDbEntity
  8
SUPERFICI
100
AcDbSpline
 62
253
  6
CONTINUOUS
 70
0
 71
3
 72
16
 73
12
 74
10
 42
0.0000001
 43
0.0000001
 44
0.0000000001
 12
0.0014544317
 22
-0.2500040385
 32
0.0
 13
-0.2500040382
 23
-0.0014544809
 33
0.0
 40
0.0
 40
0.0
 40
0.0
 40
0.0
 40
0.3826597988
 40
0.5555366031
 40
0.7070637209
 40
0.8314212295
 40
0.9238293055
 40
0.9568924954
 40
0.9807411591
 40
0.9951506915
 40
1.0
 40
1.0
 40
1.0
 40
1.0
 10
-47.2161871377
 20
-24.2456323968
 30
0.0
 10
-47.2160016201
 20
-24.2775212285
 30
0.0
 10
-47.2157760624
 20
-24.3238233827
 30
0.0
 10
-47.2156241905
 20
-24.3827316602
 30
0.0
 10
-47.2155504135
 20
-24.4201663041
 30
0.0
 10
-47.2156614869
 20
-24.4507566721
 30
0.0
 10
-47.215572686
 20
-24.4717978934
 30
0.0
 10
-47.215935814
 20
-24.4839346488
 30
0.0
 10
-47.2156242001
 20
-24.4903919827
 30
0.0
 10
-47.2164460681
 20
-24.4930663262
 30
0.0
 10
-47.2157830221
 20
-24.4956258149
 30
0.0
 10
-47.2161871377
 20
-24.495628166
 30
0.0
 11
-47.2161871377
 21
-24.2456323968
 31
0.0
 11
-47.21574129
 21
-24.3412994718
 31
0.0
 11
-47.2156242471
 21
-24.384519944
 31
0.0
 11
-47.2155847288
 21
-24.4224029558
 31
0.0
 11
-47.2156242473
 21
-24.4534933362
 31
0.0
 11
-47.2157412903
 21
-24.4765958229
 31
0.0
 11
-47.215827587
 21
-24.4848614432
 31
0.0
 11
-47.2159313469
 21
-24.4908229035
 31
0.0
 11
-47.2160516095
 21
-24.4944233978
 31
0.0
 11
-47.2161871377
 21
-24.495628166
 31
0.0
  0
LINE
  5
5B5
100
AcDbEntity
  8
SUPERFICI
100
AcDbLine
 62
7
  6
CONTINUOUS
 10
-47.9676415705
 20
-24.2500042308
 11
-47.9676415705
 21
-24.5
  0
SPLINE
  5
5B6
100
AcDbEntity
  8
SUPERFICI
100
AcDbSpline
 62
253
  6
CONTINUOUS
 70
0
 71
3
 72
16
 73
12
 74
10
 42
0.0000001
 43
0.0000001
 44
0.0000000001
 12
-0.0014544317
 22
-0.2500040385
 32
0.0
 13
0.2500040382
 23
-0.0014544809
 33
0.0
 40
0.0
 40
0.0
 40
0.0
 40
0.0
 40
0.3826597988
 40
0.5555366031
 40
0.7070637209
 40
0.8314212295
 40
0.9238293055
 40
0.9568924954
 40
0.9807411591
 40
0.9951506915
 40
1.0
 40
1.0
 40
1.0
 40
1.0
 10
-50.2190960033
 20
-24.2369056521
 30
0.0
 10
-50.2192815209
 20
-24.2687944838
 30
0.0
 10
-50.2195070786
 20
-24.3150966379
 30
0.0
 10
-50.2196589505
 20
-24.3740049155
 30
0.0
 10
-50.2197327275
 20
-24.4114395594
 30
0.0
 10
-50.2196216541
 20
-24.4420299274
 30
0.0
 10
-50.219710455
 20
-24.4630711487
 30
0.0
 10
-50.219347327
 20
-24.4752079041
 30
0.0
 10
-50.2196589409
 20
-24.481665238
 30
0.0
 10
-50.2188370729
 20
-24.4843395815
 30
0.0
 10
-50.2195001189
 20
-24.4868990702
 30
0.0
 10
-50.2190960033
 20
-24.4869014213
 30
0.0
 11
-50.2190960033
 21
-24.2369056521
 31
0.0
 11
-50.219541851
 21
-24.3325727271
 31
0.0
 11
-50.2196588939
 21
-24.3757931993
 31
0.0
 11
-50.2196984122
 21
-24.4136762111
 31
0.0
 11
-50.2196588937
 21
-24.4447665915
 31
0.0
 11
-50.2195418507
 21
-24.4678690781
 31
0.0
 11
-50.219455554
 21
-24.4761346985
 31
0.0
 11
-50.2193517941
 21
-24.4820961588
 31
0.0
 11
-50.2192315315
 21
-24.4856966531
 31
0.0
 11
-50.2190960033
 21
-24.4869014213
 31
0.0
  0
SPLINE
  5
5B7
100
AcDbEntity
  8
SUPERFICI
100
AcDbSpline
 62
253
  6
CONTINUOUS
 70
0
 71
3
 72
16
 73
12
 74
10
 42
0.0000001
 43
0.0000001
 44
0.0000000001
 12
0.1246395078
 22
0.2158892671
 32
0.0
 13
-0.2158874404
 23
0.1246426718
 33
0.0
 40
0.0
 40
0.0
 40
0.0
 40
0.0
 40
0.3828830467
 40
0.5557614492
 40
0.7072487762
 40
0.8315477067
 40
0.9238978152
 40
0.9569370018
 40
0.9807667016
 40
0.9951626628
 40
1.0
 40
1.0
 40
1.0
 40
1.0
 10
-47.2161871377
 20
-23.8443375673
 30
0.0
 10
-47.2002796862
 20
-23.8167841205
 30
0.0
 10
-47.1772184576
 20
-23.776765791
 30
0.0
 10
-47.1479870884
 20
-23.7258001981
 30
0.0
 10
-47.1294316676
 20
-23.6934215793
 30
0.0
 10
-47.1144163792
 20
-23.6668867498
 30
0.0
 10
-47.10393074
 20
-23.6487265277
 30
0.0
 10
-47.0982462277
 20
-23.6380480928
 30
0.0
 10
-47.0947620678
 20
-23.6326256479
 30
0.0
 10
-47.0941681225
 20
-23.6299026505
 30
0.0
 10
-47.0922934637
 20
-23.6280321959
 30
0.0
 10
-47.0926415705
 20
-23.6278312164
 30
0.0
 11
-47.2161871377
 21
-23.8443375673
 31
0.0
 11
-47.1685475399
 21
-23.7616295042
 31
0.0
 11
-47.147100586
 21
-23.7242490565
 31
0.0
 11
-47.1283546419
 21
-23.6914667926
 31
0.0
 11
-47.1130271516
 21
-23.6645373638
 31
0.0
 11
-47.1017052349
 21
-23.6444922901
 31
0.0
 11
-47.0976881795
 21
-23.6373021573
 31
0.0
 11
-47.0948222391
 21
-23.632098824
 31
0.0
 11
-47.0931346448
 21
-23.6289316788
 31
0.0
 11
-47.0926415705
 21
-23.6278312164
 31
0.0
  0
LINE
  5
5B8
100
AcDbEntity
  8
SUPERFICI
100
AcDbLine
 62
7
  6
CONTINUOUS
 10
-47.9676415705
 20
22.4
 11
-47.9676415705
 21
21.8997711479
  0
SPLINE
  5
5B9
100
AcDbEntity
  8
SUPERFICI
100
AcDbSpline
 62
253
  6
CONTINUOUS
 70
0
 71
3
 72
16
 73
12
 74
10
 42
0.0000001
 43
0.0000001
 44
0.0000000001
 12
0.1246395078
 22
-0.2158892671
 32
0.0
 13
-0.2158874404
 23
-0.1246426718
 33
0.0
 40
0.0
 40
0.0
 40
0.0
 40
0.0
 40
0.3828830346
 40
0.5557614317
 40
0.7072487564
 40
0.8315476875
 40
0.9238977984
 40
0.956936989
 40
0.9807666927
 40
0.9951626574
 40
1.0
 40
1.0
 40
1.0
 40
1.0
 10
-47.2161871377
 20
23.8443375673
 30
0.0
 10
-47.2002796867
 20
23.8167841214
 30
0.0
 10
-47.1772184588
 20
23.7767657931
 30
0.0
 10
-47.1479870904
 20
23.7258002017
 30
0.0
 10
-47.12943167
 20
23.6934215834
 30
0.0
 10
-47.1144163815
 20
23.6668867538
 30
0.0
 10
-47.103930742
 20
23.6487265313
 30
0.0
 10
-47.0982462293
 20
23.6380480956
 30
0.0
 10
-47.0947620688
 20
23.63262565
 30
0.0
 10
-47.0941681234
 20
23.6299026515
 30
0.0
 10
-47.0922934633
 20
23.6280321961
 30
0.0
 10
-47.0926415705
 20
23.6278312164
 30
0.0
 11
-47.2161871377
 21
23.8443375673
 31
0.0
 11
-47.1685475414
 21
23.7616295068
 31
0.0
 11
-47.1471005881
 21
23.7242490603
 31
0.0
 11
-47.1283546443
 21
23.6914667969
 31
0.0
 11
-47.1130271539
 21
23.6645373679
 31
0.0
 11
-47.101705237
 21
23.6444922937
 31
0.0
 11
-47.097688181
 21
23.6373021601
 31
0.0
 11
-47.0948222401
 21
23.632098826
 31
0.0
 11
-47.0931346454
 21
23.6289316801
 31
0.0
 11
-47.0926415705
 21
23.6278312164
 31
0.0
  0
SPLINE
  5
5BA
100
AcDbEntity
  8
SUPERFICI
100
AcDbSpline
 62
253
  6
CONTINUOUS
 70
0
 71
3
 72
16
 73
12
 74
10
 42
0.0000001
 43
0.0000001
 44
0.0000000001
 12
-0.1246395078
 22
-0.2158892671
 32
0.0
 13
0.2158874404
 23
-0.1246426718
 33
0.0
 40
0.0
 40
0.0
 40
0.0
 40
0.0
 40
0.3828828995
 40
0.5557613231
 40
0.7072486826
 40
0.8315476456
 40
0.9238977787
 40
0.9569369789
 40
0.9807666881
 40
0.9951626558
 40
1.0
 40
1.0
 40
1.0
 40
1.0
 10
-50.2190960033
 20
23.8443375673
 30
0.0
 10
-50.2350034487
 20
23.8167841311
 30
0.0
 10
-50.2580646721
 20
23.7767658107
 30
0.0
 10
-50.2872960374
 20
23.7258002246
 30
0.0
 10
-50.3058514618
 20
23.6934215996
 30
0.0
 10
-50.3208667539
 20
23.6668867636
 30
0.0
 10
-50.3313523962
 20
23.6487265365
 30
0.0
 10
-50.3370369102
 20
23.6380480981
 30
0.0
 10
-50.3405210717
 20
23.6326256511
 30
0.0
 10
-50.3411150172
 20
23.629902652
 30
0.0
 10
-50.3429896778
 20
23.6280321962
 30
0.0
 10
-50.3426415705
 20
23.6278312164
 30
0.0
 11
-50.2190960033
 21
23.8443375673
 31
0.0
 11
-50.2667355828
 21
23.761629536
 31
0.0
 11
-50.2881825394
 21
23.7242490838
 31
0.0
 11
-50.3069284875
 21
23.6914668129
 31
0.0
 11
-50.3222559819
 21
23.664537377
 31
0.0
 11
-50.3335779016
 21
23.644492298
 31
0.0
 11
-50.3375949588
 21
23.6373021623
 31
0.0
 11
-50.3404609003
 21
23.632098827
 31
0.0
 11
-50.3421484954
 21
23.6289316804
 31
0.0
 11
-50.3426415705
 21
23.6278312164
 31
0.0
  0
SPLINE
  5
5BB
100
AcDbEntity
  8
SUPERFICI
100
AcDbSpline
 62
253
  6
CONTINUOUS
 70
0
 71
3
 72
16
 73
12
 74
10
 42
0.0000001
 43
0.0000001
 44
0.0000000001
 12
-0.2500040382
 22
-0.0014544809
 32
0.0
 13
0.0014544317
 23
-0.2500040385
 33
0.0
 40
0.0
 40
0.0
 40
0.0
 40
0.0
 40
0.0048493085
 40
0.0192588409
 40
0.0431075046
 40
0.0761706945
 40
0.1685787705
 40
0.2929362791
 40
0.4444633969
 40
0.6173402012
 40
1.0
 40
1.0
 40
1.0
 40
1.0
 10
-50.2190960033
 20
24.4869014213
 30
0.0
 10
-50.2195001189
 20
24.4868990702
 30
0.0
 10
-50.2188370729
 20
24.4843395815
 30
0.0
 10
-50.2196589409
 20
24.481665238
 30
0.0
 10
-50.219347327
 20
24.4752079041
 30
0.0
 10
-50.219710455
 20
24.4630711487
 30
0.0
 10
-50.2196216541
 20
24.4420299274
 30
0.0
 10
-50.2197327275
 20
24.4114395594
 30
0.0
 10
-50.2196589505
 20
24.3740049155
 30
0.0
 10
-50.2195070786
 20
24.3150966379
 30
0.0
 10
-50.2192815209
 20
24.2687944838
 30
0.0
 10
-50.2190960033
 20
24.2369056521
 30
0.0
 11
-50.2190960033
 21
24.4869014213
 31
0.0
 11
-50.2192315315
 21
24.4856966531
 31
0.0
 11
-50.2193517941
 21
24.4820961588
 31
0.0
 11
-50.219455554
 21
24.4761346985
 31
0.0
 11
-50.2195418507
 21
24.4678690781
 31
0.0
 11
-50.2196588937
 21
24.4447665915
 31
0.0
 11
-50.2196984122
 21
24.4136762111
 31
0.0
 11
-50.2196588939
 21
24.3757931993
 31
0.0
 11
-50.219541851
 21
24.3325727271
 31
0.0
 11
-50.2190960033
 21
24.2369056521
 31
0.0
  0
SPLINE
  5
5BC
100
AcDbEntity
  8
SUPERFICI
100
AcDbSpline
 62
253
  6
CONTINUOUS
 70
0
 71
3
 72
16
 73
12
 74
10
 42
0.0000001
 43
0.0000001
 44
0.0000000001
 12
-0.0261467153
 22
0.4991541801
 32
0.0
 13
0.4991535089
 23
0.0261595269
 33
0.0
 40
0.0
 40
0.0
 40
0.0
 40
0.0
 40
0.3825287882
 40
0.555320521
 40
0.7067694092
 40
0.8310680424
 40
0.9234536939
 40
0.9565263547
 40
0.9804090591
 40
0.9948954982
 40
1.0
 40
1.0
 40
1.0
 40
1.0
 10
-54.4334247451
 20
21.5609138104
 30
0.0
 10
-54.4367587022
 20
21.6245607583
 30
0.0
 10
-54.4413128205
 20
21.7169842476
 30
0.0
 10
-54.4463939642
 20
21.8346050621
 30
0.0
 10
-54.4493019851
 20
21.909344327
 30
0.0
 10
-54.4511796222
 20
21.9704773033
 30
0.0
 10
-54.4522961241
 20
22.0124551967
 30
0.0
 10
-54.4521960154
 20
22.0368202915
 30
0.0
 10
-54.4524588285
 20
22.0495937879
 30
0.0
 10
-54.4513809968
 20
22.0552671321
 30
0.0
 10
-54.4517279496
 20
22.0601834322
 30
0.0
 10
-54.4508786396
 20
22.0602279426
 30
0.0
 11
-54.4334247451
 21
21.5609138104
 31
0.0
 11
-54.4427662825
 21
21.751888099
 31
0.0
 11
-54.4464823985
 21
21.8381760801
 31
0.0
 11
-54.4493629799
 21
21.9138212416
 31
0.0
 11
-54.4512974661
 21
21.9759203626
 31
0.0
 11
-54.4522115456
 21
22.0220892221
 31
0.0
 11
-54.4522733763
 21
22.0386200963
 31
0.0
 11
-54.4520701468
 21
22.0505558619
 31
0.0
 11
-54.451603678
 21
22.0577817012
 31
0.0
 11
-54.4508786396
 21
22.0602279426
 31
0.0
  0
LINE
  5
5BD
100
AcDbEntity
  8
SUPERFICI
100
AcDbLine
 62
7
  6
CONTINUOUS
 10
-47.9676415705
 20
24.5
 11
-47.9676415705
 21
24.2500042308
  0
SPLINE
  5
5BE
100
AcDbEntity
  8
SUPERFICI
100
AcDbSpline
 62
253
  6
CONTINUOUS
 70
0
 71
3
 72
16
 73
12
 74
10
 42
0.0000001
 43
0.0000001
 44
0.0000000001
 12
0.2500040382
 22
-0.0014544809
 32
0.0
 13
-0.0014544317
 23
-0.2500040385
 33
0.0
 40
0.0
 40
0.0
 40
0.0
 40
0.0
 40
0.0048493085
 40
0.0192588409
 40
0.0431075046
 40
0.0761706945
 40
0.1685787705
 40
0.2929362791
 40
0.4444633969
 40
0.6173402012
 40
1.0
 40
1.0
 40
1.0
 40
1.0
 10
-47.2161871377
 20
24.495628166
 30
0.0
 10
-47.2157830221
 20
24.4956258149
 30
0.0
 10
-47.2164460681
 20
24.4930663262
 30
0.0
 10
-47.2156242001
 20
24.4903919827
 30
0.0
 10
-47.215935814
 20
24.4839346488
 30
0.0
 10
-47.215572686
 20
24.4717978934
 30
0.0
 10
-47.2156614869
 20
24.4507566721
 30
0.0
 10
-47.2155504135
 20
24.4201663041
 30
0.0
 10
-47.2156241905
 20
24.3827316602
 30
0.0
 10
-47.2157760624
 20
24.3238233827
 30
0.0
 10
-47.2160016201
 20
24.2775212285
 30
0.0
 10
-47.2161871377
 20
24.2456323968
 30
0.0
 11
-47.2161871377
 21
24.495628166
 31
0.0
 11
-47.2160516095
 21
24.4944233978
 31
0.0
 11
-47.2159313469
 21
24.4908229035
 31
0.0
 11
-47.215827587
 21
24.4848614432
 31
0.0
 11
-47.2157412903
 21
24.4765958229
 31
0.0
 11
-47.2156242473
 21
24.4534933362
 31
0.0
 11
-47.2155847288
 21
24.4224029558
 31
0.0
 11
-47.2156242471
 21
24.384519944
 31
0.0
 11
-47.21574129
 21
24.3412994718
 31
0.0
 11
-47.2161871377
 21
24.2456323968
 31
0.0
  0
SPLINE
  5
5BF
100
AcDbEntity
  8
SUPERFICI
100
AcDbSpline
 62
253
  6
CONTINUOUS
 70
0
 71
3
 72
18
 73
14
 74
12
 42
0.0000001
 43
0.0000001
 44
0.0000000001
 12
-0.4858808312
 22
0.0732956804
 32
0.0
 13
0.0732738674
 23
0.4858841212
 33
0.0
 40
0.0
 40
0.0
 40
0.0
 40
0.0
 40
0.1960044919
 40
0.3839733216
 40
0.556850953
 40
0.7081363303
 40
0.832140312
 40
0.8824109122
 40
0.9242038802
 40
0.9571246768
 40
0.9808641946
 40
0.9951999345
 40
1.0
 40
1.0
 40
1.0
 40
1.0
 10
-54.901678509
 20
21.1361579495
 30
0.0
 10
-54.9334234508
 20
21.1409467104
 30
0.0
 10
-54.9956101023
 20
21.1503429858
 30
0.0
 10
-55.0857850156
 20
21.1640187369
 30
0.0
 10
-55.1687205987
 20
21.1766382063
 30
0.0
 10
-55.2412600967
 20
21.1877531929
 30
0.0
 10
-55.2940196342
 20
21.1958297429
 30
0.0
 10
-55.3289020844
 20
21.2013166598
 30
0.0
 10
-55.3493207254
 20
21.2043526728
 30
0.0
 10
-55.3647422291
 20
21.2072029342
 30
0.0
 10
-55.3773844253
 20
21.2082869645
 30
0.0
 10
-55.3822588529
 20
21.2107871673
 30
0.0
 10
-55.3874791656
 20
21.2099400656
 30
0.0
 10
-55.3873619258
 20
21.2107174908
 30
0.0
 11
-54.901678509
 21
21.1361579495
 31
0.0
 11
-54.9969096818
 21
21.1505484245
 31
0.0
 11
-55.0882292941
 21
21.164397389
 31
0.0
 11
-55.1722095744
 21
21.1771850079
 31
0.0
 11
-55.2456924111
 21
21.1884303961
 31
0.0
 11
-55.3059143986
 21
21.1977106631
 31
0.0
 11
-55.3303236352
 21
21.201501659
 31
0.0
 11
-55.3506127931
 21
21.2046771116
 31
0.0
 11
-55.3665902931
 21
21.2072070406
 31
0.0
 11
-55.3781060279
 21
21.209067665
 31
0.0
 11
-55.385051801
 21
21.2102415293
 31
0.0
 11
-55.3873619258
 21
21.2107174908
 31
0.0
  0
SPLINE
  5
5C0
100
AcDbEntity
  8
SUPERFICI
100
AcDbSpline
 62
253
  6
CONTINUOUS
 70
0
 71
3
 72
18
 73
14
 74
12
 42
0.0000001
 43
0.0000001
 44
0.0000000001
 12
-0.4858805865
 22
-0.0732956445
 32
0.0
 13
0.0732760233
 23
-0.485883546
 33
0.0
 40
0.0
 40
0.0
 40
0.0
 40
0.0
 40
0.1960045271
 40
0.3839733777
 40
0.5568510153
 40
0.7081363858
 40
0.8321403521
 40
0.8824109432
 40
0.9242039022
 40
0.9571246905
 40
0.9808642017
 40
0.9951999368
 40
1.0
 40
1.0
 40
1.0
 40
1.0
 10
-54.901678509
 20
-21.1361579495
 30
0.0
 10
-54.9334234405
 20
-21.1409467089
 30
0.0
 10
-54.9956100698
 20
-21.1503429811
 30
0.0
 10
-55.0857849478
 20
-21.164018727
 30
0.0
 10
-55.1687204924
 20
-21.1766381907
 30
0.0
 10
-55.2412599512
 20
-21.1877531714
 30
0.0
 10
-55.2940194573
 20
-21.1958297166
 30
0.0
 10
-55.3289018841
 20
-21.20131663
 30
0.0
 10
-55.3493205113
 20
-21.2043526409
 30
0.0
 10
-55.3647420015
 20
-21.2072028999
 30
0.0
 10
-55.3773841925
 20
-21.2082869301
 30
0.0
 10
-55.3822586078
 20
-21.2107871296
 30
0.0
 10
-55.3874789245
 20
-21.20994003
 30
0.0
 10
-55.3873616813
 20
-21.2107174539
 30
0.0
 11
-54.901678509
 21
-21.1361579495
 31
0.0
 11
-54.996909651
 21
-21.15054842
 31
0.0
 11
-55.0882292274
 21
-21.1643973792
 31
0.0
 11
-55.1722094684
 21
-21.1771849923
 31
0.0
 11
-55.2456922648
 21
-21.1884303744
 31
0.0
 11
-55.3059142145
 21
-21.1977106357
 31
0.0
 11
-55.3303234344
 21
-21.201501629
 31
0.0
 11
-55.3506125777
 21
-21.2046770794
 31
0.0
 11
-55.3665900657
 21
-21.2072070065
 31
0.0
 11
-55.3781057915
 21
-21.2090676296
 31
0.0
 11
-55.3850515588
 21
-21.2102414929
 31
0.0
 11
-55.3873616813
 21
-21.2107174539
 31
0.0
  0
ELLIPSE
  5
5C1
100
AcDbEntity
  8
SUPERFICI
100
AcDbEllipse
 62
7
  6
CONTINUOUS
 10
-9.8927234819
 20
-22.3344902759
 30
0.0
 11
0.25
 21
0.0
 31
0.0
 40
0.0524077793
 41
1.5707963268
 42
3.1357748894
  0
ELLIPSE
  5
5C2
100
AcDbEntity
  8
SUPERFICI
100
AcDbEllipse
 62
7
  6
CONTINUOUS
 10
-7.5072765181
 20
-22.3344902759
 30
0.0
 11
0.25
 21
-0.0
 31
0.0
 40
0.0524077793
 41
0.0058177642
 42
1.5707963268
  0
ELLIPSE
  5
5C3
100
AcDbEntity
  8
SUPERFICI
100
AcDbEllipse
 62
7
  6
CONTINUOUS
 10
7.5072765181
 20
-22.3344902759
 30
0.0
 11
0.25
 21
0.0
 31
0.0
 40
0.0524077793
 41
1.5707963268
 42
3.1357748894
  0
ELLIPSE
  5
5C4
100
AcDbEntity
  8
SUPERFICI
100
AcDbEllipse
 62
7
  6
CONTINUOUS
 10
1.2
 20
22.3842776662
 30
0.0
 11
0.2
 21
-0.0
 31
0.0
 40
0.0524077793
 41
-3.1415926536
 42
-1.5707963268
  0
ELLIPSE
  5
5C5
100
AcDbEntity
  8
SUPERFICI
100
AcDbEllipse
 62
7
  6
CONTINUOUS
 10
-1.2
 20
22.3842776662
 30
0.0
 11
0.2
 21
0.0
 31
0.0
 40
0.0524077793
 41
-1.5707963268
 42
0.0
  0
ELLIPSE
  5
5C6
100
AcDbEntity
  8
SUPERFICI
100
AcDbEllipse
 62
7
  6
CONTINUOUS
 10
1.2
 20
-22.3842776662
 30
0.0
 11
0.2
 21
0.0
 31
0.0
 40
0.0524077793
 41
1.5707963268
 42
3.1415926536
  0
ELLIPSE
  5
5C7
100
AcDbEntity
  8
SUPERFICI
100
AcDbEllipse
 62
7
  6
CONTINUOUS
 10
-1.2
 20
-22.3842776662
 30
0.0
 11
0.2
 21
0.0
 31
0.0
 40
0.0524077793
 41
0.0
 42
1.5707963268
  0
ELLIPSE
  5
5C8
100
AcDbEntity
  8
SUPERFICI
100
AcDbEllipse
 62
7
  6
CONTINUOUS
 10
9.8927234819
 20
-22.3344902759
 30
0.0
 11
0.25
 21
0.0
 31
0.0
 40
0.0524077793
 41
0.0058177642
 42
1.5707963268
  0
ELLIPSE
  5
5C9
100
AcDbEntity
  8
SUPERFICI
100
AcDbEllipse
 62
7
  6
CONTINUOUS
 10
9.8927234819
 20
22.3344902759
 30
0.0
 11
0.25
 21
0.0
 31
0.0
 40
0.0524077793
 41
-1.5707963268
 42
-0.0058177642
  0
ELLIPSE
  5
5CA
100
AcDbEntity
  8
SUPERFICI
100
AcDbEllipse
 62
7
  6
CONTINUOUS
 10
7.5072765181
 20
22.3344902759
 30
0.0
 11
0.25
 21
0.0
 31
0.0
 40
0.0524077793
 41
-3.1357748894
 42
-1.5707963268
  0
ELLIPSE
  5
5CB
100
AcDbEntity
  8
SUPERFICI
100
AcDbEllipse
 62
7
  6
CONTINUOUS
 10
-9.8927234819
 20
22.3344902759
 30
0.0
 11
0.25
 21
0.0
 31
0.0
 40
0.0524077793
 41
-3.1357748894
 42
-1.5707963268
  0
ELLIPSE
  5
5CC
100
AcDbEntity
  8
SUPERFICI
100
AcDbEllipse
 62
7
  6
CONTINUOUS
 10
-7.5072765181
 20
22.3344902759
 30
0.0
 11
0.25
 21
-0.0
 31
0.0
 40
0.0524077793
 41
-1.5707963268
 42
-0.0058177642
  0
ELLIPSE
  5
5CD
100
AcDbEntity
  8
SUPERFICI
100
AcDbEllipse
 62
7
  6
CONTINUOUS
 10
29.3807881056
 20
-23.15
 30
0.0
 11
85.9426996401
 21
0.0
 31
0.0
 40
0.0058178298
 41
2.5196231925
 42
2.6905658418
  0
ELLIPSE
  5
5CE
100
AcDbEntity
  8
SUPERFICI
100
AcDbEllipse
 62
7
  6
CONTINUOUS
 10
29.3807881056
 20
-23.15
 30
0.0
 11
85.9426996401
 21
0.0
 31
0.0
 40
0.0058178298
 41
-2.6791261215
 42
-2.5196231925
  0
ELLIPSE
  5
5CF
100
AcDbEntity
  8
DRAFT
100
AcDbEllipse
 62
7
  6
CONTINUOUS
 10
-36.4676415705
 20
21.9537669705
 30
0.0
 11
-0.3546425507
 21
0.3568377408
 31
0.0
 40
0.9877342685
 41
-3.912622899
 42
-2.8852845239
  0
ELLIPSE
  5
5D0
100
AcDbEntity
  8
DRAFT
100
AcDbEllipse
 62
7
  6
CONTINUOUS
 10
-36.4676415705
 20
-21.9537669705
 30
0.0
 11
0.3546425507
 21
0.3568377408
 31
0.0
 40
0.9877342685
 41
6.0268771775
 42
7.0542155526
  0
ELLIPSE
  5
5D1
100
AcDbEntity
  8
SUPERFICI
100
AcDbEllipse
 62
7
  6
CONTINUOUS
 10
29.3807881056
 20
23.15
 30
0.0
 11
85.9426996401
 21
0.0
 31
0.0
 40
0.0058178298
 41
2.5196231925
 42
2.6791261215
  0
ELLIPSE
  5
5D2
100
AcDbEntity
  8
SUPERFICI
100
AcDbEllipse
 62
7
  6
CONTINUOUS
 10
29.3807881056
 20
23.15
 30
0.0
 11
85.9426996401
 21
-0.0
 31
0.0
 40
0.0058178298
 41
-2.6905658418
 42
-2.5196231925
  0
ENDSEC
  0
SECTION
  2
OBJECTS
  0
DICTIONARY
  5
C
100
AcDbDictionary
280
0
281
1
  3
ACAD_GROUP
350
D
  3
ACAD_MLINESTYLE
350
17
  3
ACAD_LAYOUT
350
1A
  3
ACAD_PLOTSETTINGS
350
19
  3
ACAD_PLOTSTYLENAME
350
E
  0
DICTIONARY
  5
D
102
{ACAD_REACTORS
330
C
102
}
100
AcDbDictionary
280
0
281
1
  0
ACDBDICTIONARYWDFLT
  5
E
102
{ACAD_REACTORS
330
C
102
}
100
AcDbDictionary
281
1
  3
Normal
350
F
100
AcDbDictionaryWithDefault
340
F
  0
DICTIONARY
  5
17
102
{ACAD_REACTORS
330
C
102
}
100
AcDbDictionary
280
0
281
1
  3
Standard
350
18
  0
DICTIONARY
  5
19
102
{ACAD_REACTORS
330
C
102
}
100
AcDbDictionary
281
1
  0
DICTIONARY
  5
1A
102
{ACAD_REACTORS
330
C
102
}
100
AcDbDictionary
281
1
  3
Model
350
5D3
  3
Layout1
350
5D4
  0
ACDBPLACEHOLDER
  5
F
102
{ACAD_REACTORS
330
E
102
}
  0
MLINESTYLE
  5
18
102
{ACAD_REACTORS
330
17
102
}
100
AcDbMlineStyle
  2
STANDARD
 70
0
  3

 62
256
 51
90.0
 52
90.0
 71
2
 49
0.5
 62
256
  6
BYLAYER
 49
-0.5
 62
256
  6
BYLAYER
  0
LAYOUT
  5
5D3
102
{ACAD_REACTORS
330
1A
102
}
100
AcDbPlotSettings
  1

  2
none_device
  4
ISO_A4_(297.00_x_210.00_MM)
  6

 40
0.0
 41
0.0
 42
0.0
 43
0.0
 44
297.0
 45
210.0
 46
0.0
 47
0.0
 48
0.0
 49
0.0
140
0.0
141
0.0
142
1.0
143
1.0
 70
1024
 72
1
 73
0
 74
0
  7

 75
0
147
1.0
148
0.0
149
0.0
100
AcDbLayout
  1
Model
 70
0
 71
0
 10
0.0
 20
0.0
 11
297.0
 21
210.0
 12
0.0
 22
0.0
 32
0.0
 14
0.0
 24
0.0
 34
0.0
 15
0.0
 25
0.0
 35
0.0
146
0.0
 13
0.0
 23
0.0
 33
0.0
 16
1.0
 26
0.0
 36
0.0
 17
0.0
 27
1.0
 37
0.0
 76
0
330
21E
345
0
346
0
  0
LAYOUT
  5
5D4
102
{ACAD_REACTORS
330
1A
102
}
100
AcDbPlotSettings
  1

  2
none_device
  4
ISO_A4_(297.00_x_210.00_MM)
  6

 40
0.0
 41
0.0
 42
0.0
 43
0.0
 44
297.0
 45
210.0
 46
0.0
 47
0.0
 48
0.0
 49
0.0
140
0.0
141
0.0
142
1.0
143
1.0
 70
0
 72
1
 73
0
 74
0
  7

 75
0
147
1.0
148
0.0
149
0.0
100
AcDbLayout
  1
Layout1
 70
0
 71
1
 10
0.0
 20
0.0
 11
297.0
 21
210.0
 12
0.0
 22
0.0
 32
0.0
 14
0.0
 24
0.0
 34
0.0
 15
0.0
 25
0.0
 35
0.0
146
0.0
 13
0.0
 23
0.0
 33
0.0
 16
1.0
 26
0.0
 36
0.0
 17
0.0
 27
1.0
 37
0.0
 76
0
330
21F
345
0
346
0
  0
ENDSEC
  0
EOF
