  0
SECTION
  2
HEADER
  9
$ACADVER
  1
AC1024
  9
$DWGCODEPAGE
  3
ANSI_1252
  9
$EXTMAX
 10
558.8
 20
431.8
 30
0.0
  9
$EXTMIN
 10
0.0
 20
0.0
 30
0.0
  9
$LIMMIN
 10
0.0
 20
0.0
  9
$LIMMAX
 10
558.8
 20
431.8
  9
$VIEWCTR
 10
279.4
 20
215.9
  9
$VIEWSIZE
 40
431.8
  9
$CLAYER
  8
0
  9
$LTSCALE
 40
30.734
  9
$CELTYPE
  6
BYLAYER
  9
$DIMSCALE
 40
1.0
  9
$DIMASZ
 40
3.0
  9
$DIMEXO
 40
0.5
  9
$DIMDLI
 40
21.2344
  9
$DIMEXE
 40
1.5
  9
$DIMCEN
 40
5.0292
  9
$DIMLFAC
 40
1.0
  9
$DIMBLK
  1
_FILLED
  9
$DIMALT
 70
0
  9
$DIMALTF
 40
0.0393700787
  9
$DIMTXT
 40
3.0
  9
$DIMTOL
 70
1
  9
$DIMLIM
 70
0
  9
$DIMTFAC
 40
1.0
  9
$DIMTP
 40
0.01
  9
$DIMTM
 40
0.01
  9
$DIMGAP
 40
0.625
  9
$DIMDSEP
 70
44
  9
$AUNITS
 70
0
  9
$PDMODE
 70
3
  9
$PDSIZE
 40
3.0
  9
$HANDSEED
  5
2D1
  9
$TILEMODE
 70
1
  9
$MEASUREMENT
 70
1
  9
$INSUNITS
 70
4
  0
ENDSEC
  0
SECTION
  2
CLASSES
  0
CLASS
  1
ACDBDICTIONARYWDFLT
  2
AcDbDictionaryWithDefault
  3
AutoCAD 2000
 90
0
 91
1
280
0
281
0
  0
CLASS
  1
ACDBPLACEHOLDER
  2
AcDbPlaceHolder
  3
AutoCAD 2000
 90
0
 91
1
280
0
281
0
  0
CLASS
  1
LAYOUT
  2
AcDbLayout
  3
AutoCAD 2000
 90
0
 91
0
280
0
281
0
  0
ENDSEC
  0
SECTION
  2
TABLES
  0
TABLE
  2
VPORT
  5
8
100
AcDbSymbolTable
 70
2
  0
VPORT
  5
1F4
100
AcDbSymbolTableRecord
100
AcDbViewportTableRecord
  2
*ACTIVE
 70
0
 10
0.0
 20
0.0
 11
1.0
 21
1.0
 12
279.4
 22
215.9
 13
0.0
 23
0.0
 14
1.0
 24
1.0
 15
0.0
 25
0.0
 16
0.0
 26
0.0
 36
1.0
 17
0.0
 27
0.0
 37
0.0
 40
431.8
 41
1.2941176471
 42
50.0
 43
0.0
 44
0.0
 50
0.0
 51
0.0
 71
0
 72
100
 73
1
 74
1
 75
0
 76
0
 77
0
 78
0
  0
ENDTAB
  0
TABLE
  2
LTYPE
  5
5
100
AcDbSymbolTable
 70
6
  0
LTYPE
  5
14
100
AcDbSymbolTableRecord
100
AcDbLinetypeTableRecord
  2
BYBLOCK
 70
0
  3

 72
65
 73
0
 40
0.0
  0
LTYPE
  5
15
100
AcDbSymbolTableRecord
100
AcDbLinetypeTableRecord
  2
BYLAYER
 70
0
  3

 72
65
 73
0
 40
0.0
  0
LTYPE
  5
16
100
AcDbSymbolTableRecord
100
AcDbLinetypeTableRecord
  2
CONTINUOUS
 70
64
  3
Solid line
 72
65
 73
0
 40
0.0
  0
LTYPE
  5
1F5
100
AcDbSymbolTableRecord
100
AcDbLinetypeTableRecord
  2
CENTER
 70
64
  3
____ _ ____ _ ____ _ ____ _ ____ _ ____ _ ____
 72
65
 73
4
 40
0.6
 49
0.375
 74
0
 49
-0.075
 74
0
 49
0.075
 74
0
 49
-0.075
 74
0
  0
LTYPE
  5
1F6
100
AcDbSymbolTableRecord
100
AcDbLinetypeTableRecord
  2
HIDDEN
 70
64
  3
- - - - - - - - - - - - - - - - - - - -
 72
65
 73
2
 40
0.2
 49
0.1
 74
0
 49
-0.1
 74
0
  0
LTYPE
  5
1F7
100
AcDbSymbolTableRecord
100
AcDbLinetypeTableRecord
  2
PHANTOM
 70
64
  3
_____ _ _ _____ _ _ _____ _ _ _____
 72
65
 73
6
 40
0.8
 49
0.45
 74
0
 49
-0.05
 74
0
 49
0.1
 74
0
 49
-0.05
 74
0
 49
0.1
 74
0
 49
-0.05
 74
0
  0
LTYPE
  5
1F8
100
AcDbSymbolTableRecord
100
AcDbLinetypeTableRecord
  2
DOT
 70
64
  3
. . . . . . . . . . . . . . . . . . . .
 72
65
 73
2
 40
0.2
 49
0.1
 74
0
 49
-0.1
 74
0
  0
LTYPE
  5
1F9
100
AcDbSymbolTableRecord
100
AcDbLinetypeTableRecord
  2
DASHED
 70
64
  3
- - - - - - - - - - - - - - - - - - - -
 72
65
 73
2
 40
0.2
 49
0.1
 74
0
 49
-0.1
 74
0
  0
ENDTAB
  0
TABLE
  2
LAYER
  5
2
100
AcDbSymbolTable
 70
36
  0
LAYER
  5
10
100
AcDbSymbolTableRecord
100
AcDbLayerTableRecord
  2
0
 70
0
 62
7
  6
CONTINUOUS
370
-3
390
F
  0
LAYER
  5
1FA
100
AcDbSymbolTableRecord
100
AcDbLayerTableRecord
  2
DEFAULT_1
 70
0
 62
7
  6
CENTER
370
-3
390
F
  0
LAYER
  5
1FB
100
AcDbSymbolTableRecord
100
AcDbLayerTableRecord
  2
DEFAULT_2
 70
0
 62
7
  6
HIDDEN
370
-3
390
F
  0
LAYER
  5
1FC
100
AcDbSymbolTableRecord
100
AcDbLayerTableRecord
  2
DEFAULT_3
 70
0
 62
7
  6
PHANTOM
370
-3
390
F
  0
LAYER
  5
1FD
100
AcDbSymbolTableRecord
100
AcDbLayerTableRecord
  2
ASSI
 70
0
 62
7
  6
CONTINUOUS
370
-3
390
F
  0
LAYER
  5
1FE
100
AcDbSymbolTableRecord
100
AcDbLayerTableRecord
  2
COORDINATE
 70
0
 62
7
  6
CONTINUOUS
370
-3
390
F
  0
LAYER
  5
1FF
100
AcDbSymbolTableRecord
100
AcDbLayerTableRecord
  2
COPY_PUBLISH
 70
0
 62
7
  6
CONTINUOUS
370
-3
390
F
  0
LAYER
  5
200
100
AcDbSymbolTableRecord
100
AcDbLayerTableRecord
  2
COSMETIC
 70
0
 62
7
  6
CONTINUOUS
370
-3
390
F
  0
LAYER
  5
201
100
AcDbSymbolTableRecord
100
AcDbLayerTableRecord
  2
COSMETICI
 70
0
 62
7
  6
CONTINUOUS
370
-3
390
F
  0
LAYER
  5
202
100
AcDbSymbolTableRecord
100
AcDbLayerTableRecord
  2
CURVE
 70
0
 62
7
  6
CONTINUOUS
370
-3
390
F
  0
LAYER
  5
203
100
AcDbSymbolTableRecord
100
AcDbLayerTableRecord
  2
DRAFT
 70
0
 62
7
  6
CONTINUOUS
370
-3
390
F
  0
LAYER
  5
204
100
AcDbSymbolTableRecord
100
AcDbLayerTableRecord
  2
IMPORT_IGES
 70
0
 62
7
  6
CONTINUOUS
370
-3
390
F
  0
LAYER
  5
205
100
AcDbSymbolTableRecord
100
AcDbLayerTableRecord
  2
NOTE
 70
0
 62
7
  6
CONTINUOUS
370
-3
390
F
  0
LAYER
  5
206
100
AcDbSymbolTableRecord
100
AcDbLayerTableRecord
  2
PIANI
 70
0
 62
7
  6
CONTINUOUS
370
-3
390
F
  0
LAYER
  5
207
100
AcDbSymbolTableRecord
100
AcDbLayerTableRecord
  2
PUNTI
 70
0
 62
7
  6
CONTINUOUS
370
-3
390
F
  0
LAYER
  5
208
100
AcDbSymbolTableRecord
100
AcDbLayerTableRecord
  2
RACCORDO
 70
0
 62
7
  6
CONTINUOUS
370
-3
390
F
  0
LAYER
  5
209
100
AcDbSymbolTableRecord
100
AcDbLayerTableRecord
  2
SIMBOLI
 70
0
 62
7
  6
CONTINUOUS
370
-3
390
F
  0
LAYER
  5
20A
100
AcDbSymbolTableRecord
100
AcDbLayerTableRecord
  2
SMUSSO
 70
0
 62
7
  6
CONTINUOUS
370
-3
390
F
  0
LAYER
  5
20B
100
AcDbSymbolTableRecord
100
AcDbLayerTableRecord
  2
SNAPLINE
 70
0
 62
7
  6
CONTINUOUS
370
-3
390
F
  0
LAYER
  5
20C
100
AcDbSymbolTableRecord
100
AcDbLayerTableRecord
  2
SUPERFICI
 70
0
 62
7
  6
CONTINUOUS
370
-3
390
F
  0
LAYER
  5
20D
100
AcDbSymbolTableRecord
100
AcDbLayerTableRecord
  2
TRASH
 70
0
 62
7
  6
CONTINUOUS
370
-3
390
F
  0
ENDTAB
  0
TABLE
  2
STYLE
  5
3
100
AcDbSymbolTable
 70
1
  0
STYLE
  5
11
100
AcDbSymbolTableRecord
100
AcDbTextStyleTableRecord
  2
STANDARD
 70
0
 40
0.0
 41
0.8
 50
0.0
 71
0
 42
0.2
  3
txt
  4

  0
STYLE
  5
20E
100
AcDbSymbolTableRecord
100
AcDbTextStyleTableRecord
  2
TEXTSTYLE_1
 70
0
 40
0.0
 41
0.8
 50
0.0
 71
0
 42
0.2
  3
gdt
  4

  0
ENDTAB
  0
TABLE
  2
VIEW
  5
6
100
AcDbSymbolTable
 70
0
  0
ENDTAB
  0
TABLE
  2
UCS
  5
7
100
AcDbSymbolTable
 70
0
  0
ENDTAB
  0
TABLE
  2
APPID
  5
9
100
AcDbSymbolTable
 70
1
  0
APPID
  5
20F
100
AcDbSymbolTableRecord
100
AcDbRegAppTableRecord
  2
ACAD
 70
0
  0
ENDTAB
  0
TABLE
  2
BLOCK_RECORD
  5
1
100
AcDbSymbolTable
 70
0
  0
BLOCK_RECORD
  5
210
100
AcDbSymbolTableRecord
100
AcDbBlockTableRecord
  2
*Model_Space
  0
BLOCK_RECORD
  5
211
100
AcDbSymbolTableRecord
100
AcDbBlockTableRecord
  2
*Paper_Space
  0
BLOCK_RECORD
  5
212
100
AcDbSymbolTableRecord
100
AcDbBlockTableRecord
  2
_FILLED
  0
BLOCK_RECORD
  5
213
100
AcDbSymbolTableRecord
100
AcDbBlockTableRecord
  2
*D0
  0
BLOCK_RECORD
  5
214
100
AcDbSymbolTableRecord
100
AcDbBlockTableRecord
  2
*D1
  0
BLOCK_RECORD
  5
215
100
AcDbSymbolTableRecord
100
AcDbBlockTableRecord
  2
*D2
  0
ENDTAB
  0
TABLE
  2
DIMSTYLE
  5
A
100
AcDbSymbolTable
 70
1
100
AcDbDimStyleTable
 71
0
  0
DIMSTYLE
105
216
100
AcDbSymbolTableRecord
100
AcDbDimStyleTableRecord
  2
STANDARD
 70
0
  3

  4

 40
1.0
 41
3.0
 42
0.5
 43
0.38
 44
1.5
 45
0.0
 46
0.0
 47
0.01
 48
0.01
140
3.0
141
0.09
142
0.0
143
25.4
144
1.0
145
0.0
146
1.0
147
0.625
 71
1
 72
0
 73
0
 74
0
 75
0
 76
0
 77
1
 78
8
 79
2
170
0
171
1
172
0
173
0
174
0
175
0
176
0
177
0
178
0
270
2
179
2
271
2
272
2
273
2
274
2
275
0
280
0
281
0
282
0
283
1
284
8
285
0
286
0
287
3
288
0
340
11
278
44
341
212
342
212
343
212
344
212
  0
DIMSTYLE
105
217
100
AcDbSymbolTableRecord
100
AcDbDimStyleTableRecord
  2
DIMSTYLE_1
 70
0
  3

  4

 40
1.0
 41
3.0
 42
0.5
 43
0.38
 44
1.5
 45
0.0
 46
0.0
 47
0.0
 48
0.0
140
3.0
141
0.09
142
0.0
143
25.4
144
1.0
145
0.0
146
1.0
147
0.75
 71
0
 72
0
 73
0
 74
0
 75
0
 76
0
 77
1
 78
8
 79
2
170
0
171
1
172
0
173
0
174
0
175
0
176
0
177
0
178
0
270
2
179
2
271
2
272
2
273
2
274
2
275
0
280
0
281
0
282
0
283
1
284
8
285
0
286
0
287
3
288
0
340
11
278
44
341
212
342
212
343
212
344
212
  0
DIMSTYLE
105
218
100
AcDbSymbolTableRecord
100
AcDbDimStyleTableRecord
  2
DIMSTYLE_2
 70
0
  3

  4

 40
1.0
 41
3.0
 42
0.5
 43
0.38
 44
1.5
 45
0.0
 46
0.0
 47
0.0
 48
0.0
140
3.0
141
0.09
142
0.0
143
25.4
144
1.0
145
0.0
146
1.0
147
0.75
 71
0
 72
0
 73
0
 74
0
 75
0
 76
0
 77
1
 78
8
 79
2
170
0
171
1
172
0
173
0
174
0
175
0
176
0
177
0
178
0
270
2
179
2
271
1
272
1
273
2
274
2
275
0
280
0
281
0
282
0
283
1
284
8
285
0
286
0
287
3
288
0
340
11
278
44
341
212
342
212
343
212
344
212
  0
ENDTAB
  0
ENDSEC
  0
SECTION
  2
BLOCKS
  0
BLOCK
  5
20
100
AcDbEntity
  8
0
100
AcDbBlockBegin
  2
*Model_Space
 70
0
 10
0.0
 20
0.0
 30
0.0
  3
*Model_Space
  1

  0
ENDBLK
  5
21
100
AcDbEntity
  8
0
100
AcDbBlockEnd
  0
BLOCK
  5
1C
100
AcDbEntity
  8
0
100
AcDbBlockBegin
  2
*Paper_Space
 70
0
 10
0.0
 20
0.0
 30
0.0
  3
*Paper_Space
  1

  0
ENDBLK
  5
1D
100
AcDbEntity
  8
0
100
AcDbBlockEnd
  0
BLOCK
  5
219
100
AcDbEntity
  8
0
100
AcDbBlockBegin
  2
_FILLED
 70
64
 10
0.0
 20
0.0
  3
_FILLED
  1

  0
SOLID
  5
21A
100
AcDbEntity
  8
0
  6
BYBLOCK
 62
0
100
AcDbTrace
 10
0.0
 20
0.0
 11
-1.0
 21
0.3166666667
 12
-1.0
 22
-0.3166666667
 13
-1.0
 23
-0.3166666667
  0
ENDBLK
  5
21B
100
AcDbEntity
  8
0
  6
BYBLOCK
 62
0
100
AcDbBlockEnd
  0
BLOCK
  5
21C
100
AcDbEntity
  8
0
100
AcDbBlockBegin
 62
7
  6
CONTINUOUS
  2
*D0
 70
65
 10
0.0
 20
0.0
  3
*D0
  1

  0
LINE
  5
21D
100
AcDbEntity
  8
0
100
AcDbLine
 62
7
  6
CONTINUOUS
 10
-29.5
 20
23.3497711479
 11
-29.5
 21
32.85
  0
LINE
  5
21E
100
AcDbEntity
  8
0
100
AcDbLine
 62
7
  6
CONTINUOUS
 10
29.5
 20
23.3497711479
 11
29.5
 21
32.85
  0
LINE
  5
21F
100
AcDbEntity
  8
0
100
AcDbLine
 62
7
  6
CONTINUOUS
 10
-29.5
 20
31.35
 11
-0.0
 21
31.35
  0
LINE
  5
220
100
AcDbEntity
  8
0
100
AcDbLine
 62
7
  6
CONTINUOUS
 10
29.5
 20
31.35
 11
-0.0
 21
31.35
  0
INSERT
  5
221
100
AcDbEntity
  8
0
100
AcDbBlockReference
 62
7
  6
CONTINUOUS
  2
_FILLED
 10
-29.5
 20
31.35
 41
3.0
 42
3.0
 43
3.0
 50
180.0
  0
INSERT
  5
222
100
AcDbEntity
  8
0
100
AcDbBlockReference
 62
7
  6
CONTINUOUS
  2
_FILLED
 10
29.5
 20
31.35
 41
3.0
 42
3.0
 43
3.0
 50
0.0
  0
ENDBLK
  5
223
100
AcDbEntity
  8
0
  6
BYBLOCK
 62
0
100
AcDbBlockEnd
  0
BLOCK
  5
224
100
AcDbEntity
  8
0
100
AcDbBlockBegin
 62
7
  6
CONTINUOUS
  2
*D1
 70
65
 10
0.0
 20
0.0
  3
*D1
  1

  0
LINE
  5
225
100
AcDbEntity
  8
0
100
AcDbLine
 62
7
  6
CONTINUOUS
 10
29.5003805997
 20
23.35
 11
39.0
 21
23.35
  0
LINE
  5
226
100
AcDbEntity
  8
0
100
AcDbLine
 62
7
  6
CONTINUOUS
 10
29.5003805997
 20
-23.35
 11
39.0
 21
-23.35
  0
LINE
  5
227
100
AcDbEntity
  8
0
100
AcDbLine
 62
7
  6
CONTINUOUS
 10
37.5
 20
23.35
 11
37.5
 21
0.0
  0
LINE
  5
228
100
AcDbEntity
  8
0
100
AcDbLine
 62
7
  6
CONTINUOUS
 10
37.5
 20
-23.35
 11
37.5
 21
0.0
  0
INSERT
  5
229
100
AcDbEntity
  8
0
100
AcDbBlockReference
 62
7
  6
CONTINUOUS
  2
_FILLED
 10
37.5
 20
23.35
 41
3.0
 42
3.0
 43
3.0
 50
90.0
  0
INSERT
  5
22A
100
AcDbEntity
  8
0
100
AcDbBlockReference
 62
7
  6
CONTINUOUS
  2
_FILLED
 10
37.5
 20
-23.35
 41
3.0
 42
3.0
 43
3.0
 50
270.0
  0
ENDBLK
  5
22B
100
AcDbEntity
  8
0
  6
BYBLOCK
 62
0
100
AcDbBlockEnd
  0
BLOCK
  5
22C
100
AcDbEntity
  8
0
100
AcDbBlockBegin
 62
7
  6
CONTINUOUS
  2
*D2
 70
65
 10
0.0
 20
0.0
  3
*D2
  1

  0
LINE
  5
22D
100
AcDbEntity
  8
0
100
AcDbLine
 62
7
  6
CONTINUOUS
 10
-56.5439323959
 20
23.3497711479
 11
-56.5439323959
 21
32.85
  0
LINE
  5
22E
100
AcDbEntity
  8
0
100
AcDbLine
 62
7
  6
CONTINUOUS
 10
-69.0662942404
 20
-19.3135891336
 11
-69.0662942404
 21
32.85
  0
LINE
  5
22F
100
AcDbEntity
  8
0
100
AcDbLine
 62
7
  6
CONTINUOUS
 10
-56.5439323959
 20
31.35
 11
-62.8051133182
 21
31.35
  0
LINE
  5
230
100
AcDbEntity
  8
0
100
AcDbLine
 62
7
  6
CONTINUOUS
 10
-69.0662942404
 20
31.35
 11
-62.8051133182
 21
31.35
  0
INSERT
  5
231
100
AcDbEntity
  8
0
100
AcDbBlockReference
 62
7
  6
CONTINUOUS
  2
_FILLED
 10
-56.5439323959
 20
31.35
 41
3.0
 42
3.0
 43
3.0
  0
INSERT
  5
232
100
AcDbEntity
  8
0
100
AcDbBlockReference
 62
7
  6
CONTINUOUS
  2
_FILLED
 10
-69.0662942404
 20
31.35
 41
3.0
 42
3.0
 43
3.0
 50
180.0
  0
ENDBLK
  5
233
100
AcDbEntity
  8
0
  6
BYBLOCK
 62
0
100
AcDbBlockEnd
  0
ENDSEC
  0
SECTION
  2
ENTITIES
  0
DIMENSION
  5
234
100
AcDbEntity
  8
0
100
AcDbDimension
 62
7
  6
CONTINUOUS
  2
*D0
 10
29.5
 20
31.35
 11
-2.25
 21
31.35
 70
160
 71
2
 72
2
 41
0.9
 42
59.0
  3
DIMSTYLE_1
100
AcDbAlignedDimension
 13
-29.5
 23
22.8497711479
 14
29.5
 24
22.8497711479
100
AcDbRotatedDimension
  0
DIMENSION
  5
235
100
AcDbEntity
  8
0
100
AcDbDimension
 62
7
  6
CONTINUOUS
  2
*D1
 10
37.5
 20
-23.35
 11
37.5
 21
-4.3928571429
 70
160
 71
2
 72
2
 41
0.9
 42
46.7
  3
DIMSTYLE_1
100
AcDbAlignedDimension
 13
29.0003805997
 23
23.35
 14
29.0003805997
 24
-23.35
 50
270.0
100
AcDbRotatedDimension
  0
DIMENSION
  5
236
100
AcDbEntity
  8
0
100
AcDbDimension
 62
7
  6
CONTINUOUS
  2
*D2
 10
-69.0662942404
 20
31.35
 11
-66.7693990325
 21
31.35
 70
160
 71
2
 72
2
 41
0.9
 42
12.5223618444
  3
DIMSTYLE_2
100
AcDbAlignedDimension
 13
-56.5439323959
 23
22.8497711479
 14
-69.0662942404
 24
-19.8135891336
 50
180.0
100
AcDbRotatedDimension
  0
LINE
  5
237
100
AcDbEntity
  8
0
100
AcDbLine
 62
7
  6
CONTINUOUS
 10
-28.7131797596
 20
-23.1196657239
 11
-28.6820034417
 21
-23.1357481578
  0
LINE
  5
238
100
AcDbEntity
  8
0
100
AcDbLine
 62
7
  6
CONTINUOUS
 10
-29.5
 20
22.8497711479
 11
-29.5
 21
-22.8497711479
  0
LINE
  5
239
100
AcDbEntity
  8
0
100
AcDbLine
 62
7
  6
CONTINUOUS
 10
-28.7228677775
 20
-23.0869620154
 11
-28.6615122168
 21
-21.3756843682
  0
LINE
  5
23A
100
AcDbEntity
  8
0
100
AcDbLine
 62
250
  6
CONTINUOUS
 10
-29.4217866543
 20
-22.6039991023
 11
-29.3029339387
 21
-20.7795149599
  0
LINE
  5
23B
100
AcDbEntity
  8
0
100
AcDbLine
 62
250
  6
CONTINUOUS
 10
-28.9218628067
 20
-23.0869620154
 11
-28.8030100911
 21
-21.2624778731
  0
LWPOLYLINE
  5
23C
100
AcDbEntity
  8
0
100
AcDbPolyline
 62
7
  6
CONTINUOUS
 90
10
 70
0
 43
0.3500000087
 10
0.3214285665
 20
32.0999995667
 10
1.1785713995
 20
32.9571414337
 10
1.3928571327
 20
33.8142875641
 10
1.3928571327
 20
34.6714294312
 10
0.9642857329
 20
35.099998233
 10
0.3214285665
 20
35.099998233
 10
-0.1071428583
 20
34.6714294312
 10
-0.1071428583
 20
33.8142875641
 10
0.3214285665
 20
33.3857144989
 10
1.2500000216
 20
33.3857144989
  0
LINE
  5
23D
100
AcDbEntity
  8
0
100
AcDbLine
 62
7
  6
CONTINUOUS
 10
29.0003805997
 20
-23.35
 11
-29.0003805997
 21
-23.35
  0
LINE
  5
23E
100
AcDbEntity
  8
0
100
AcDbLine
 62
7
  6
CONTINUOUS
 10
-28.3070824666
 20
-23.1613253167
 11
28.3070824666
 21
-23.1613253167
  0
LINE
  5
23F
100
AcDbEntity
  8
0
100
AcDbLine
 62
250
  6
CONTINUOUS
 10
-28.9236648946
 20
-23.1196657239
 11
-28.7131797596
 21
-23.1196657239
  0
LINE
  5
240
100
AcDbEntity
  8
0
100
AcDbLine
 62
250
  6
CONTINUOUS
 10
28.7131797596
 20
-23.1196657239
 11
28.9236648946
 21
-23.1196657239
  0
LINE
  5
241
100
AcDbEntity
  8
0
100
AcDbLine
 62
250
  6
CONTINUOUS
 10
-28.9218628067
 20
-23.0869620154
 11
-28.7228677775
 21
-23.0869620154
  0
LINE
  5
242
100
AcDbEntity
  8
0
100
AcDbLine
 62
250
  6
CONTINUOUS
 10
28.7228677775
 20
-23.0869620154
 11
28.9218628067
 21
-23.0869620154
  0
LINE
  5
243
100
AcDbEntity
  8
0
100
AcDbLine
 62
250
  6
CONTINUOUS
 10
-29.5
 20
-22.8497711479
 11
-29.4235887421
 21
-22.6203509565
  0
LINE
  5
244
100
AcDbEntity
  8
0
100
AcDbLine
 62
250
  6
CONTINUOUS
 10
-29.0003805997
 20
-23.35
 11
-28.9236648946
 21
-23.1196657239
  0
LINE
  5
245
100
AcDbEntity
  8
0
100
AcDbLine
 62
7
  6
CONTINUOUS
 10
-10.2453762373
 20
-22.0179927278
 11
10.2453762373
 21
-22.0179927278
  0
LINE
  5
246
100
AcDbEntity
  8
0
100
AcDbLine
 62
250
  6
CONTINUOUS
 10
-28.8030100911
 20
-21.2624778731
 11
-28.2202383644
 21
-21.2624778731
  0
LINE
  5
247
100
AcDbEntity
  8
0
100
AcDbLine
 62
7
  6
CONTINUOUS
 10
-28.2202383644
 20
-21.2624778731
 11
28.2202383644
 21
-21.2624778731
  0
LINE
  5
248
100
AcDbEntity
  8
0
100
AcDbLine
 62
250
  6
CONTINUOUS
 10
28.2202383644
 20
-21.2624778731
 11
28.8030100911
 21
-21.2624778731
  0
LINE
  5
249
100
AcDbEntity
  8
0
100
AcDbLine
 62
7
  6
CONTINUOUS
 10
-10.9593319632
 20
-21.2624778731
 11
-10.55321504
 21
-21.8663236634
  0
LINE
  5
24A
100
AcDbEntity
  8
0
100
AcDbLine
 62
250
  6
CONTINUOUS
 10
-29.4653943175
 20
22.7458696741
 11
-29.5
 21
22.8497711479
  0
LINE
  5
24B
100
AcDbEntity
  8
0
100
AcDbLine
 62
250
  6
CONTINUOUS
 10
-28.9654704699
 20
23.2451844414
 11
-29.0003805997
 21
23.35
  0
LINE
  5
24C
100
AcDbEntity
  8
0
100
AcDbLine
 62
250
  6
CONTINUOUS
 10
-28.0131187392
 20
-21.2624778731
 11
-28.6820034417
 21
-23.1357481578
  0
LINE
  5
24D
100
AcDbEntity
  8
0
100
AcDbLine
 62
250
  6
CONTINUOUS
 10
-27.6290649815
 20
-21.2624778731
 11
-28.3070824666
 21
-23.1613253167
  0
LINE
  5
24E
100
AcDbEntity
  8
0
100
AcDbLine
 62
250
  6
CONTINUOUS
 10
28.7903329477
 20
-19.5555475067
 11
-28.7903329477
 21
-19.5555475067
  0
LINE
  5
24F
100
AcDbEntity
  8
0
100
AcDbLine
 62
250
  6
CONTINUOUS
 10
-28.6367031365
 20
-21.3366797111
 11
-28.6503240801
 21
-21.3580944604
  0
LINE
  5
250
100
AcDbEntity
  8
0
100
AcDbLine
 62
250
  6
CONTINUOUS
 10
-10.55321504
 20
-21.8663236634
 11
-10.4039114747
 21
-21.2624778731
  0
LINE
  5
251
100
AcDbEntity
  8
0
100
AcDbLine
 62
250
  6
CONTINUOUS
 10
-10.2453762373
 20
-22.0179927278
 11
-10.0585718192
 21
-21.2624778731
  0
LWPOLYLINE
  5
252
100
AcDbEntity
  8
0
100
AcDbPolyline
 62
7
  6
CONTINUOUS
 90
2
 70
0
 43
0.3500000087
 10
36.7500017822
 20
-3.3928567604
 10
35.2500003174
 20
-3.3928567604
  0
LWPOLYLINE
  5
253
100
AcDbEntity
  8
0
100
AcDbPolyline
 62
7
  6
CONTINUOUS
 90
4
 70
0
 43
0.3500000087
 10
34.3928563187
 20
2.0357137268
 10
33.7500009842
 20
2.0357137268
 10
33.7500009842
 20
3.5357151917
 10
36.7500017822
 20
2.6785711929
  0
LINE
  5
254
100
AcDbEntity
  8
0
100
AcDbLine
 62
250
  6
CONTINUOUS
 10
10.2453762373
 20
-22.0179927278
 11
10.0585718192
 21
-21.2624778731
  0
LINE
  5
255
100
AcDbEntity
  8
0
100
AcDbLine
 62
250
  6
CONTINUOUS
 10
10.55321504
 20
-21.8663236634
 11
10.4039114747
 21
-21.2624778731
  0
LWPOLYLINE
  5
256
100
AcDbEntity
  8
0
100
AcDbPolyline
 62
7
  6
CONTINUOUS
 90
3
 70
0
 43
0.3500000087
 10
36.4642878265
 20
1.0357148819
 10
36.6785700958
 20
0.9642853271
 10
36.9642840515
 20
0.8214283493
  0
LINE
  5
257
100
AcDbEntity
  8
0
100
AcDbLine
 62
250
  6
CONTINUOUS
 10
28.6503240801
 20
-21.3580944604
 11
28.6367031365
 21
-21.3366797111
  0
LWPOLYLINE
  5
258
100
AcDbEntity
  8
0
100
AcDbPolyline
 62
7
  6
CONTINUOUS
 90
10
 70
0
 43
0.3500000087
 10
36.2500012939
 20
0.9642853271
 10
36.3928561401
 20
1.0357148819
 10
36.4642878265
 20
1.0357148819
 10
36.6071426727
 20
0.8928579041
 10
36.6071426727
 20
0.8214283493
 10
36.5357152496
 20
0.7500009262
 10
36.4642878265
 20
0.7500009262
 10
36.321428717
 20
0.8214283493
 10
36.2500012939
 20
0.8928579041
 10
36.2500012939
 20
0.9642853271
  0
LINE
  5
259
100
AcDbEntity
  8
0
100
AcDbLine
 62
250
  6
CONTINUOUS
 10
29.0003805997
 20
23.35
 11
28.9654704699
 21
23.2451844414
  0
LINE
  5
25A
100
AcDbEntity
  8
0
100
AcDbLine
 62
250
  6
CONTINUOUS
 10
28.3070824666
 20
-23.1613253167
 11
27.6290649815
 21
-21.2624778731
  0
LINE
  5
25B
100
AcDbEntity
  8
0
100
AcDbLine
 62
250
  6
CONTINUOUS
 10
28.6820034417
 20
-23.1357481578
 11
28.0131187392
 21
-21.2624778731
  0
LINE
  5
25C
100
AcDbEntity
  8
0
100
AcDbLine
 62
250
  6
CONTINUOUS
 10
28.9236648946
 20
-23.1196657239
 11
29.0003805997
 21
-23.35
  0
LINE
  5
25D
100
AcDbEntity
  8
0
100
AcDbLine
 62
250
  6
CONTINUOUS
 10
29.5
 20
22.8497711479
 11
29.4653943175
 21
22.7458696741
  0
LINE
  5
25E
100
AcDbEntity
  8
0
100
AcDbLine
 62
7
  6
CONTINUOUS
 10
10.55321504
 20
-21.8663236634
 11
10.9593319632
 21
-21.2624778731
  0
LINE
  5
25F
100
AcDbEntity
  8
0
100
AcDbLine
 62
250
  6
CONTINUOUS
 10
28.9495078192
 20
22.1303394271
 11
-28.9495078192
 21
22.1303394271
  0
LINE
  5
260
100
AcDbEntity
  8
0
100
AcDbLine
 62
250
  6
CONTINUOUS
 10
29.4235887421
 20
-22.6203509565
 11
29.5
 21
-22.8497711479
  0
LINE
  5
261
100
AcDbEntity
  8
0
100
AcDbLine
 62
250
  6
CONTINUOUS
 10
28.9654704699
 20
23.2451844414
 11
-28.9654704699
 21
23.2451844414
  0
LINE
  5
262
100
AcDbEntity
  8
0
100
AcDbLine
 62
7
  6
CONTINUOUS
 10
29.0003805997
 20
23.35
 11
-29.0003805997
 21
23.35
  0
LWPOLYLINE
  5
263
100
AcDbEntity
  8
0
100
AcDbPolyline
 62
7
  6
CONTINUOUS
 90
10
 70
0
 43
0.3500000087
 10
33.7500009842
 20
-0.9642849396
 10
34.3928563187
 20
-1.6071424057
 10
35.2500003174
 20
-2.0357144051
 10
36.321428717
 20
-2.0357144051
 10
36.7500017822
 20
-1.6071424057
 10
36.7500017822
 20
-0.9642849396
 10
36.321428717
 20
-0.535714006
 10
35.4642847183
 20
-0.535714006
 10
35.0357137848
 20
-0.9642849396
 10
35.0357137848
 20
-1.8928563614
  0
LINE
  5
264
100
AcDbEntity
  8
0
100
AcDbLine
 62
250
  6
CONTINUOUS
 10
28.8030100911
 20
-21.2624778731
 11
28.9218628067
 21
-23.0869620154
  0
LINE
  5
265
100
AcDbEntity
  8
0
100
AcDbLine
 62
250
  6
CONTINUOUS
 10
29.3029339387
 20
-20.7795149599
 11
29.4217866543
 21
-22.6039991023
  0
LINE
  5
266
100
AcDbEntity
  8
0
100
AcDbLine
 62
7
  6
CONTINUOUS
 10
28.7228677775
 20
-23.0869620154
 11
28.6615122168
 21
-21.3756843682
  0
LINE
  5
267
100
AcDbEntity
  8
0
100
AcDbLine
 62
7
  6
CONTINUOUS
 10
29.5
 20
-22.8497711479
 11
29.5
 21
22.8497711479
  0
LWPOLYLINE
  5
268
100
AcDbEntity
  8
0
100
AcDbPolyline
 62
7
  6
CONTINUOUS
 90
8
 70
0
 43
0.3500000087
 10
-2.2500000656
 20
32.0999995667
 10
-1.3928571327
 20
32.0999995667
 10
-0.9642857329
 20
32.5285726318
 10
-0.9642857329
 20
33.3857144989
 10
-1.3928571327
 20
33.8142875641
 10
-2.2500000656
 20
33.8142875641
 10
-2.2500000656
 20
35.099998233
 10
-0.9642857329
 20
35.099998233
  0
LWPOLYLINE
  5
269
100
AcDbEntity
  8
0
100
AcDbPolyline
 62
7
  6
CONTINUOUS
 90
3
 70
0
 43
0.3500000087
 10
36.1071421844
 20
-2.892857338
 10
36.1071421844
 20
-4.3928566711
 10
33.7500009842
 20
-3.7500002708
  0
LINE
  5
26A
100
AcDbEntity
  8
0
100
AcDbLine
 62
7
  6
CONTINUOUS
 10
28.7131797596
 20
-23.1196657239
 11
28.6820034417
 21
-23.1357481578
  0
LWPOLYLINE
  5
26B
100
AcDbEntity
  8
0
100
AcDbPolyline
 62
7
  6
CONTINUOUS
 90
3
 70
0
 43
0.3500000087
 10
-66.7693992767
 20
34.242856366
 10
-65.9122574097
 20
35.099998233
 10
-65.9122574097
 20
32.0999995667
  0
LINE
  5
26C
100
AcDbEntity
  8
0
100
AcDbLine
 62
7
  6
CONTINUOUS
 10
-50.2439323959
 20
-22.240033091
 11
-56.5439323959
 21
-22.35
  0
LINE
  5
26D
100
AcDbEntity
  8
0
100
AcDbLine
 62
250
  6
CONTINUOUS
 10
-50.2439323959
 20
-21.7401092434
 11
-56.5439323959
 21
-21.8500761524
  0
LINE
  5
26E
100
AcDbEntity
  8
0
100
AcDbLine
 62
7
  6
CONTINUOUS
 10
-49.8590116265
 20
-22.0
 11
-49.5939323959
 21
-22.0
  0
LINE
  5
26F
100
AcDbEntity
  8
0
100
AcDbLine
 62
7
  6
CONTINUOUS
 10
-60.9389722024
 20
-23.1196657239
 11
-56.5439323959
 21
-23.35
  0
LINE
  5
270
100
AcDbEntity
  8
0
100
AcDbLine
 62
250
  6
CONTINUOUS
 10
-60.9215304275
 20
-22.6203509565
 11
-56.5439323959
 21
-22.8497711479
  0
LINE
  5
271
100
AcDbEntity
  8
0
100
AcDbLine
 62
7
  6
CONTINUOUS
 10
-67.954522808
 20
-21.2624778731
 11
-61.1454552912
 21
-23.0869620154
  0
LINE
  5
272
100
AcDbEntity
  8
0
100
AcDbLine
 62
250
  6
CONTINUOUS
 10
-67.8338394887
 20
-20.7795149599
 11
-61.0247719719
 21
-22.6039991023
  0
LINE
  5
273
100
AcDbEntity
  8
0
100
AcDbLine
 62
7
  6
CONTINUOUS
 10
-50.2439323959
 20
-21.0
 11
-49.8939323959
 21
-21.0
  0
LINE
  5
274
100
AcDbEntity
  8
0
100
AcDbLine
 62
7
  6
CONTINUOUS
 10
-56.5439323959
 20
-20.8
 11
-50.2439323959
 21
-20.8
  0
LINE
  5
275
100
AcDbEntity
  8
0
100
AcDbLine
 62
250
  6
CONTINUOUS
 10
-49.0421870888
 20
-20.4192181483
 11
-48.8439323959
 21
-20.4192181454
  0
LINE
  5
276
100
AcDbEntity
  8
0
100
AcDbLine
 62
250
  6
CONTINUOUS
 10
-49.3395691282
 20
-20.1192295714
 11
-56.5439323959
 21
-20.0563580457
  0
LINE
  5
277
100
AcDbEntity
  8
0
100
AcDbLine
 62
7
  6
CONTINUOUS
 10
-49.3395691282
 20
-19.9192371868
 11
-56.5439323959
 21
-19.856365661
  0
LWPOLYLINE
  5
278
100
AcDbEntity
  8
0
100
AcDbPolyline
 62
7
  6
CONTINUOUS
 90
3
 70
0
 43
0.3500000087
 10
-61.9836851898
 20
32.3857135223
 10
-62.0551126129
 20
32.1714269897
 10
-62.1979717224
 20
31.8857130341
  0
LINE
  5
279
100
AcDbEntity
  8
0
100
AcDbLine
 62
250
  6
CONTINUOUS
 10
-56.5439323959
 20
19.2130367467
 11
-56.2519074251
 21
20.384284932
  0
LINE
  5
27A
100
AcDbEntity
  8
0
100
AcDbLine
 62
7
  6
CONTINUOUS
 10
-56.5439323959
 20
17.6183215136
 11
-55.8490360507
 21
20.4053985261
  0
LINE
  5
27B
100
AcDbEntity
  8
0
100
AcDbLine
 62
7
  6
CONTINUOUS
 10
-56.5439323959
 20
-23.35
 11
-56.5439323959
 21
23.35
  0
LINE
  5
27C
100
AcDbEntity
  8
0
100
AcDbLine
 62
7
  6
CONTINUOUS
 10
-49.8939323959
 20
-21.0
 11
-49.8590116265
 21
-22.0
  0
LINE
  5
27D
100
AcDbEntity
  8
0
100
AcDbLine
 62
7
  6
CONTINUOUS
 10
-49.8659957804
 20
21.8
 11
-49.8939323959
 21
21.0
  0
LINE
  5
27E
100
AcDbEntity
  8
0
100
AcDbLine
 62
7
  6
CONTINUOUS
 10
-50.2439323959
 20
-20.8
 11
-50.2439323959
 21
-22.240033091
  0
LINE
  5
27F
100
AcDbEntity
  8
0
100
AcDbLine
 62
7
  6
CONTINUOUS
 10
-50.2439323959
 20
20.6991495613
 11
-50.2439323959
 21
22.240033091
  0
LINE
  5
280
100
AcDbEntity
  8
0
100
AcDbLine
 62
250
  6
CONTINUOUS
 10
-49.0421870888
 20
-21.4482546929
 11
-49.0421870888
 21
-20.4192181483
  0
LINE
  5
281
100
AcDbEntity
  8
0
100
AcDbLine
 62
250
  6
CONTINUOUS
 10
-49.0421870888
 20
20.4192181483
 11
-49.0421870888
 21
21.3953867748
  0
LINE
  5
282
100
AcDbEntity
  8
0
100
AcDbLine
 62
7
  6
CONTINUOUS
 10
-48.8439323959
 20
-21.25
 11
-48.8439323959
 21
-20.4192181483
  0
LINE
  5
283
100
AcDbEntity
  8
0
100
AcDbLine
 62
7
  6
CONTINUOUS
 10
-48.8439323959
 20
20.4192181483
 11
-48.8439323959
 21
21.25
  0
LWPOLYLINE
  5
284
100
AcDbEntity
  8
0
100
AcDbPolyline
 62
7
  6
CONTINUOUS
 90
10
 70
0
 43
0.3500000087
 10
-62.0551126129
 20
32.6000000549
 10
-61.9836851898
 20
32.4571409454
 10
-61.9836851898
 20
32.3857135223
 10
-62.126540036
 20
32.2428586761
 10
-62.1979717224
 20
32.2428586761
 10
-62.2693991455
 20
32.3142860992
 10
-62.2693991455
 20
32.3857135223
 10
-62.1979717224
 20
32.5285726318
 10
-62.126540036
 20
32.6000000549
 10
-62.0551126129
 20
32.6000000549
  0
LINE
  5
285
100
AcDbEntity
  8
0
100
AcDbLine
 62
7
  6
CONTINUOUS
 10
-50.2439323959
 20
20.6991495613
 11
-56.5439323959
 21
20.3689805518
  0
LINE
  5
286
100
AcDbEntity
  8
0
100
AcDbLine
 62
7
  6
CONTINUOUS
 10
-55.9847085297
 20
19.8612459338
 11
-49.3395691282
 21
19.9192371868
  0
LINE
  5
287
100
AcDbEntity
  8
0
100
AcDbLine
 62
250
  6
CONTINUOUS
 10
-55.9347360952
 20
20.0616744212
 11
-49.3395691282
 21
20.1192295714
  0
LINE
  5
288
100
AcDbEntity
  8
0
100
AcDbLine
 62
250
  6
CONTINUOUS
 10
-49.0421870888
 20
20.4192181483
 11
-48.8439323959
 21
20.4192181483
  0
LINE
  5
289
100
AcDbEntity
  8
0
100
AcDbLine
 62
7
  6
CONTINUOUS
 10
-48.8439323959
 20
-21.25
 11
-49.5939323959
 21
-22.0
  0
LINE
  5
28A
100
AcDbEntity
  8
0
100
AcDbLine
 62
7
  6
CONTINUOUS
 10
-49.8939323959
 20
21.0
 11
-50.2439323959
 21
21.0
  0
LINE
  5
28B
100
AcDbEntity
  8
0
100
AcDbLine
 62
7
  6
CONTINUOUS
 10
-49.5939323959
 20
21.8
 11
-49.8659957804
 21
21.8
  0
LINE
  5
28C
100
AcDbEntity
  8
0
100
AcDbLine
 62
250
  6
CONTINUOUS
 10
-56.5439323959
 20
21.8500761524
 11
-50.2439323959
 21
21.7401092434
  0
LINE
  5
28D
100
AcDbEntity
  8
0
100
AcDbLine
 62
250
  6
CONTINUOUS
 10
-56.5439323959
 20
22.8497711479
 11
-58.526490621
 21
22.7458696741
  0
LINE
  5
28E
100
AcDbEntity
  8
0
100
AcDbLine
 62
7
  6
CONTINUOUS
 10
-56.5439323959
 20
23.35
 11
-58.5439323959
 21
23.2451844414
  0
LWPOLYLINE
  5
28F
100
AcDbEntity
  8
0
100
AcDbPolyline
 62
7
  6
CONTINUOUS
 90
8
 70
0
 43
0.3500000087
 10
-60.9836842133
 20
32.0999995667
 10
-60.1265423462
 20
32.0999995667
 10
-59.697969281
 20
32.5285726318
 10
-59.697969281
 20
33.3857144989
 10
-60.1265423462
 20
33.8142875641
 10
-60.9836842133
 20
33.8142875641
 10
-60.9836842133
 20
35.099998233
 10
-59.697969281
 20
35.099998233
  0
LWPOLYLINE
  5
290
100
AcDbEntity
  8
0
100
AcDbPolyline
 62
7
  6
CONTINUOUS
 90
7
 70
0
 43
0.3500000087
 10
-63.5551140778
 20
32.0999995667
 10
-65.0551112793
 20
32.0999995667
 10
-63.5551140778
 20
34.242856366
 10
-63.5551140778
 20
34.6714294312
 10
-63.9836828796
 20
35.099998233
 10
-64.6265424774
 20
35.099998233
 10
-65.0551112793
 20
34.4571428986
  0
LINE
  5
291
100
AcDbEntity
  8
0
100
AcDbLine
 62
7
  6
CONTINUOUS
 10
-56.5439323959
 20
22.35
 11
-50.2439323959
 21
22.240033091
  0
LINE
  5
292
100
AcDbEntity
  8
0
100
AcDbLine
 62
7
  6
CONTINUOUS
 10
-48.8439323959
 20
21.25
 11
-49.5939323959
 21
21.8
  0
ARC
  5
293
100
AcDbEntity
  8
0
100
AcDbCircle
 62
250
  6
CONTINUOUS
 10
-28.9652276143
 20
22.7449748247
 40
0.5001919811
100
AcDbArc
 50
90.0278175375
 51
179.8974921
  0
ARC
  5
294
100
AcDbEntity
  8
0
100
AcDbCircle
 62
250
  6
CONTINUOUS
 10
28.9652276167
 20
22.7449748217
 40
0.5001919815
100
AcDbArc
 50
0.1025082465
 51
89.9721827365
  0
ARC
  5
295
100
AcDbEntity
  8
0
100
AcDbCircle
 62
250
  6
CONTINUOUS
 10
28.9234220418
 20
-22.6194561043
 40
0.5001919811
100
AcDbArc
 50
270.0278172097
 51
359.8974917711
  0
ARC
  5
296
100
AcDbEntity
  8
0
100
AcDbCircle
 62
250
  6
CONTINUOUS
 10
-28.9234220389
 20
-22.6194561071
 40
0.5001919812
100
AcDbArc
 50
180.1025079047
 51
269.9721824579
  0
ARC
  5
297
100
AcDbEntity
  8
0
100
AcDbCircle
 62
7
  6
CONTINUOUS
 10
-67.5662942404
 20
-19.8135891336
 40
1.5
100
AcDbArc
 50
170.0942622231
 51
255.0
  0
ARC
  5
298
100
AcDbEntity
  8
0
100
AcDbCircle
 62
7
  6
CONTINUOUS
 10
-58.4654284616
 20
21.7472401393
 40
1.5
100
AcDbArc
 50
93.0
 51
165.2027398228
  0
ARC
  5
299
100
AcDbEntity
  8
0
100
AcDbCircle
 62
250
  6
CONTINUOUS
 10
-58.4741526285
 20
21.7472376337
 40
1.0000026087
100
AcDbArc
 50
93.0001089994
 51
165.2026308234
  0
ARC
  5
29A
100
AcDbEntity
  8
0
100
AcDbCircle
 62
250
  6
CONTINUOUS
 10
-67.5750192041
 20
-19.8135883425
 40
1.000001085
100
AcDbArc
 50
170.0943190922
 51
254.9999431308
  0
ARC
  5
29B
100
AcDbEntity
  8
0
100
AcDbCircle
 62
7
  6
CONTINUOUS
 10
-60.8866362461
 20
-22.1210361891
 40
1.0
100
AcDbArc
 50
255.0
 51
267.0
  0
ARC
  5
29C
100
AcDbEntity
  8
0
100
AcDbCircle
 62
250
  6
CONTINUOUS
 10
-60.8951471304
 20
-22.1196767189
 40
0.5013688967
100
AcDbArc
 50
255.0164418089
 51
266.9835581911
  0
ARC
  5
29D
100
AcDbEntity
  8
0
100
AcDbCircle
 62
7
  6
CONTINUOUS
 10
-49.3439323959
 20
20.4192181483
 40
0.5
100
AcDbArc
 50
270.5
 51
360.0
  0
ARC
  5
29E
100
AcDbEntity
  8
0
100
AcDbCircle
 62
7
  6
CONTINUOUS
 10
-49.3439323959
 20
-20.4192181483
 40
0.5
100
AcDbArc
 50
0.0
 51
89.5
  0
ARC
  5
29F
100
AcDbEntity
  8
0
100
AcDbCircle
 62
250
  6
CONTINUOUS
 10
-49.3421869505
 20
20.4192180112
 40
0.2999998616
100
AcDbArc
 50
270.4999738007
 51
0.0000261993
  0
ARC
  5
2A0
100
AcDbEntity
  8
0
100
AcDbCircle
 62
250
  6
CONTINUOUS
 10
-49.3421869503
 20
-20.419218011
 40
0.2999998615
100
AcDbArc
 50
359.9999737742
 51
89.5000262258
  0
ARC
  5
2A1
100
AcDbEntity
  8
0
100
AcDbCircle
 62
7
  6
CONTINUOUS
 10
423.5021194552
 20
-105.5694231657
 40
500.0
100
AcDbArc
 50
165.2027398228
 51
170.0942622231
  0
ARC
  5
2A2
100
AcDbEntity
  8
0
100
AcDbCircle
 62
250
  6
CONTINUOUS
 10
423.4933372425
 20
-105.569410901
 40
499.4999427157
100
AcDbArc
 50
165.2027395421
 51
170.0942625037
  0
SPLINE
  5
2A3
100
AcDbEntity
  8
0
100
AcDbSpline
 62
250
  6
CONTINUOUS
 70
0
 71
3
 72
11
 73
7
 74
0
 42
0.0000001
 43
0.0000001
 44
0.0000000001
 40
0.0
 40
0.0
 40
0.0
 40
0.0
 40
0.245895522
 40
0.4943904537
 40
0.7461629304
 40
1.0
 40
1.0
 40
1.0
 40
1.0
 10
-29.4217866543
 20
-22.6039991023
 30
0.0
 10
-29.4214930881
 20
-22.6667853214
 30
0.0
 10
-29.3946652567
 20
-22.7943251359
 30
0.0
 10
-29.2826378368
 20
-22.9543923375
 30
0.0
 10
-29.1170027221
 20
-23.0613732716
 30
0.0
 10
-28.9866768879
 20
-23.0866791819
 30
0.0
 10
-28.9218628067
 20
-23.0869620154
 30
0.0
  0
SPLINE
  5
2A4
100
AcDbEntity
  8
0
100
AcDbSpline
 62
250
  6
CONTINUOUS
 70
0
 71
3
 72
11
 73
7
 74
0
 42
0.0000001
 43
0.0000001
 44
0.0000000001
 40
0.0
 40
0.0
 40
0.0
 40
0.0
 40
0.2458955071
 40
0.4943904359
 40
0.7461629184
 40
1.0
 40
1.0
 40
1.0
 40
1.0
 10
-29.3029339387
 20
-20.7795149599
 30
0.0
 10
-29.3026403725
 20
-20.8423011752
 30
0.0
 10
-29.2758125429
 20
-20.9698409846
 30
0.0
 10
-29.1637851291
 20
-21.129908186
 30
0.0
 10
-28.9981500139
 20
-21.2368891264
 30
0.0
 10
-28.8678241753
 20
-21.2621950392
 30
0.0
 10
-28.8030100911
 20
-21.2624778731
 30
0.0
  0
SPLINE
  5
2A5
100
AcDbEntity
  8
0
100
AcDbSpline
 62
250
  6
CONTINUOUS
 70
0
 71
3
 72
12
 73
8
 74
0
 42
0.0000001
 43
0.0000001
 44
0.0000000001
 40
0.0
 40
0.0
 40
0.0
 40
0.0
 40
0.0385284916
 40
0.1032498691
 40
0.3204540748
 40
0.6338452775
 40
1.0
 40
1.0
 40
1.0
 40
1.0
 10
-29.2902567953
 20
-19.6415613823
 30
0.0
 10
-29.289595915
 20
-19.6349475176
 30
0.0
 10
-29.2761430802
 20
-19.6201636443
 30
0.0
 10
-29.2262475427
 20
-19.5978926185
 30
0.0
 10
-29.1243423429
 20
-19.5761009889
 30
0.0
 10
-28.9709326549
 20
-19.5597886476
 30
0.0
 10
-28.8535004117
 20
-19.5557343554
 30
0.0
 10
-28.7903329477
 20
-19.5555475067
 30
0.0
  0
SPLINE
  5
2A6
100
AcDbEntity
  8
0
100
AcDbSpline
 62
250
  6
CONTINUOUS
 70
0
 71
3
 72
13
 73
9
 74
0
 42
0.0000001
 43
0.0000001
 44
0.0000000001
 40
0.0
 40
0.0
 40
0.0
 40
0.0
 40
0.1183014904
 40
0.2150495848
 40
0.337258261
 40
0.4817819293
 40
0.6441672262
 40
1.0
 40
1.0
 40
1.0
 40
1.0
 10
-29.4494316668
 20
22.0026396645
 30
0.0
 10
-29.4480460294
 20
22.0236159167
 30
0.0
 10
-29.4118658887
 20
22.0524418372
 30
0.0
 10
-29.3589569096
 20
22.0753215308
 30
0.0
 10
-29.2962650185
 20
22.0942815614
 30
0.0
 10
-29.2217367677
 20
22.1094857028
 30
0.0
 10
-29.1048891639
 20
22.1254283829
 30
0.0
 10
-29.0127380943
 20
22.1300668949
 30
0.0
 10
-28.9495078192
 20
22.1303394263
 30
0.0
  0
SPLINE
  5
2A7
100
AcDbEntity
  8
0
100
AcDbSpline
 62
250
  6
CONTINUOUS
 70
0
 71
3
 72
13
 73
9
 74
0
 42
0.0000001
 43
0.0000001
 44
0.0000000001
 40
0.0
 40
0.0
 40
0.0
 40
0.0
 40
0.1183014938
 40
0.2150495941
 40
0.3372582732
 40
0.4817819443
 40
0.6441672386
 40
1.0
 40
1.0
 40
1.0
 40
1.0
 10
29.4494316668
 20
22.0026396645
 30
0.0
 10
29.4480460293
 20
22.0236159172
 30
0.0
 10
29.4118658838
 20
22.0524418362
 30
0.0
 10
29.3589569029
 20
22.0753215285
 30
0.0
 10
29.2962650097
 20
22.0942815586
 30
0.0
 10
29.2217367588
 20
22.1094856998
 30
0.0
 10
29.104889158
 20
22.1254283803
 30
0.0
 10
29.0127380918
 20
22.130066894
 30
0.0
 10
28.9495078192
 20
22.1303394271
 30
0.0
  0
SPLINE
  5
2A8
100
AcDbEntity
  8
0
100
AcDbSpline
 62
250
  6
CONTINUOUS
 70
0
 71
3
 72
12
 73
8
 74
0
 42
0.0000001
 43
0.0000001
 44
0.0000000001
 40
0.0
 40
0.0
 40
0.0
 40
0.0
 40
0.0385284876
 40
0.103249858
 40
0.3204540498
 40
0.6338452548
 40
1.0
 40
1.0
 40
1.0
 40
1.0
 10
29.2902567953
 20
-19.6415613823
 30
0.0
 10
29.289595915
 20
-19.6349475182
 30
0.0
 10
29.2761430841
 20
-19.6201636449
 30
0.0
 10
29.2262475482
 20
-19.5978926224
 30
0.0
 10
29.1243423542
 20
-19.5761009892
 30
0.0
 10
28.970932663
 20
-19.5597886478
 30
0.0
 10
28.8535004157
 20
-19.5557343548
 30
0.0
 10
28.7903329477
 20
-19.5555475059
 30
0.0
  0
SPLINE
  5
2A9
100
AcDbEntity
  8
0
100
AcDbSpline
 62
250
  6
CONTINUOUS
 70
0
 71
3
 72
11
 73
7
 74
0
 42
0.0000001
 43
0.0000001
 44
0.0000000001
 40
0.0
 40
0.0
 40
0.0
 40
0.0
 40
0.245895522
 40
0.4943904537
 40
0.7461629304
 40
1.0
 40
1.0
 40
1.0
 40
1.0
 10
29.3029339387
 20
-20.7795149599
 30
0.0
 10
29.3026403725
 20
-20.8423011791
 30
0.0
 10
29.2758125411
 20
-20.9698409936
 30
0.0
 10
29.1637851212
 20
-21.1299081951
 30
0.0
 10
28.9981500065
 20
-21.2368891293
 30
0.0
 10
28.8678241723
 20
-21.2621950396
 30
0.0
 10
28.8030100911
 20
-21.2624778731
 30
0.0
  0
SPLINE
  5
2AA
100
AcDbEntity
  8
0
100
AcDbSpline
 62
250
  6
CONTINUOUS
 70
0
 71
3
 72
11
 73
7
 74
0
 42
0.0000001
 43
0.0000001
 44
0.0000000001
 40
0.0
 40
0.0
 40
0.0
 40
0.0
 40
0.2458955193
 40
0.4943904504
 40
0.7461629279
 40
1.0
 40
1.0
 40
1.0
 40
1.0
 10
29.4217866543
 20
-22.6039991023
 30
0.0
 10
29.4214930881
 20
-22.6667853207
 30
0.0
 10
29.3946652572
 20
-22.7943251343
 30
0.0
 10
29.2826378386
 20
-22.9543923361
 30
0.0
 10
29.1170027238
 20
-23.0613732715
 30
0.0
 10
28.9866768886
 20
-23.086679182
 30
0.0
 10
28.9218628067
 20
-23.0869620154
 30
0.0
  0
SPLINE
  5
2AB
100
AcDbEntity
  8
0
100
AcDbSpline
 62
250
  6
CONTINUOUS
 70
0
 71
3
 72
11
 73
7
 74
0
 42
0.0000001
 43
0.0000001
 44
0.0000000001
 40
0.0
 40
0.0
 40
0.0
 40
0.0
 40
0.1399469285
 40
0.376023646
 40
0.6762507322
 40
1.0
 40
1.0
 40
1.0
 40
1.0
 10
-28.8030100911
 20
-21.2624778731
 30
0.0
 10
-28.7995580004
 20
-21.1829215158
 30
0.0
 10
-28.796224114
 20
-20.9689471155
 30
0.0
 10
-28.7920001125
 20
-20.5841984168
 30
0.0
 10
-28.7900549833
 20
-20.0948108874
 30
0.0
 10
-28.7899590187
 20
-19.739763736
 30
0.0
 10
-28.7903329477
 20
-19.5555475067
 30
0.0
  0
SPLINE
  5
2AC
100
AcDbEntity
  8
0
100
AcDbSpline
 62
250
  6
CONTINUOUS
 70
0
 71
3
 72
11
 73
7
 74
0
 42
0.0000001
 43
0.0000001
 44
0.0000000001
 40
0.0
 40
0.0
 40
0.0
 40
0.0
 40
0.3236351607
 40
0.6238631853
 40
0.8599871694
 40
1.0
 40
1.0
 40
1.0
 40
1.0
 10
28.7903329477
 20
-19.5555475067
 30
0.0
 10
28.7899590592
 20
-19.7396988077
 30
0.0
 10
28.7900548538
 20
-20.0946815674
 30
0.0
 10
28.7919991796
 20
-20.5840315903
 30
0.0
 10
28.796222191
 20
-20.9688452407
 30
0.0
 10
28.7995569791
 20
-21.1828840259
 30
0.0
 10
28.8030100911
 20
-21.2624778731
 30
0.0
  0
SPLINE
  5
2AD
100
AcDbEntity
  8
0
100
AcDbSpline
 62
250
  6
CONTINUOUS
 70
0
 71
3
 72
9
 73
5
 74
0
 42
0.0000001
 43
0.0000001
 44
0.0000000001
 40
0.0
 40
0.0
 40
0.0
 40
0.0
 40
0.2516952273
 40
1.0
 40
1.0
 40
1.0
 40
1.0
 10
-28.7903329477
 20
-19.5555475067
 30
0.0
 10
-28.8009830259
 20
-16.0581584306
 30
0.0
 10
-28.8459566121
 20
-2.162833374
 30
0.0
 10
-28.9016118297
 20
11.732457297
 30
0.0
 10
-28.9495078192
 20
22.1303394271
 30
0.0
  0
SPLINE
  5
2AE
100
AcDbEntity
  8
0
100
AcDbSpline
 62
250
  6
CONTINUOUS
 70
0
 71
3
 72
9
 73
5
 74
0
 42
0.0000001
 43
0.0000001
 44
0.0000000001
 40
0.0
 40
0.0
 40
0.0
 40
0.0
 40
0.248189665
 40
1.0
 40
1.0
 40
1.0
 40
1.0
 10
28.9495078192
 20
22.1303394271
 30
0.0
 10
28.9336221933
 20
18.6816819031
 30
0.0
 10
28.8723905539
 20
4.7864189156
 30
0.0
 10
28.8221445916
 20
-9.1088923125
 30
0.0
 10
28.7903329477
 20
-19.5555475067
 30
0.0
  0
SPLINE
  5
2AF
100
AcDbEntity
  8
0
100
AcDbSpline
 62
250
  6
CONTINUOUS
 70
0
 71
3
 72
16
 73
12
 74
0
 42
0.0000001
 43
0.0000001
 44
0.0000000001
 40
0.0
 40
0.0
 40
0.0
 40
0.0
 40
0.3860692999
 40
0.5542950196
 40
0.7003061553
 40
0.8204841297
 40
0.9118662176
 40
0.9460244398
 40
0.9721925098
 40
0.9902133924
 40
1.0
 40
1.0
 40
1.0
 40
1.0
 10
-28.9495078192
 20
22.1303394271
 30
0.0
 10
-28.9499486228
 20
22.2738412177
 30
0.0
 10
-28.9509396332
 20
22.4798721714
 30
0.0
 10
-28.95320867
 20
22.7401667804
 30
0.0
 10
-28.9551252
 20
22.9016295064
 30
0.0
 10
-28.9573061262
 20
23.0345187034
 30
0.0
 10
-28.9593578207
 20
23.1258373623
 30
0.0
 10
-28.9612566006
 20
23.1821876817
 30
0.0
 10
-28.9624692005
 20
23.2113003435
 30
0.0
 10
-28.9638330092
 20
23.2312882668
 30
0.0
 10
-28.9646828401
 20
23.2416330383
 30
0.0
 10
-28.9654704699
 20
23.2451844414
 30
0.0
  0
SPLINE
  5
2B0
100
AcDbEntity
  8
0
100
AcDbSpline
 62
250
  6
CONTINUOUS
 70
0
 71
3
 72
16
 73
12
 74
0
 42
0.0000001
 43
0.0000001
 44
0.0000000001
 40
0.0
 40
0.0
 40
0.0
 40
0.0
 40
0.0097808371
 40
0.0277901288
 40
0.053942815
 40
0.0880760975
 40
0.1794190415
 40
0.2995646857
 40
0.4455677804
 40
0.6138019428
 40
1.0
 40
1.0
 40
1.0
 40
1.0
 10
28.9654704699
 20
23.2451844414
 30
0.0
 10
28.9646830882
 20
23.2416351802
 30
0.0
 10
28.9638327744
 20
23.2312969598
 30
0.0
 10
28.9624699741
 20
23.2113211302
 30
0.0
 10
28.9612584924
 20
23.1822277545
 30
0.0
 10
28.9593597469
 20
23.1259069795
 30
0.0
 10
28.9573079097
 20
23.0346241672
 30
0.0
 10
28.9551272527
 20
22.9017645196
 30
0.0
 10
28.9532100766
 20
22.7403136639
 30
0.0
 10
28.9509403037
 20
22.4799710401
 30
0.0
 10
28.9499487145
 20
22.2738890825
 30
0.0
 10
28.9495078192
 20
22.1303394271
 30
0.0
  0
SPLINE
  5
2B1
100
AcDbEntity
  8
0
100
AcDbSpline
 62
250
  6
CONTINUOUS
 70
0
 71
3
 72
9
 73
5
 74
0
 42
0.0000001
 43
0.0000001
 44
0.0000000001
 40
0.0
 40
0.0
 40
0.0
 40
0.0
 40
0.1277690183
 40
1.0
 40
1.0
 40
1.0
 40
1.0
 10
-29.4235887421
 20
-22.6203509565
 30
0.0
 10
-29.4233671552
 20
-22.6196856467
 30
0.0
 10
-29.4224106551
 20
-22.6142550842
 30
0.0
 10
-29.4220978427
 20
-22.6087760801
 30
0.0
 10
-29.4217866543
 20
-22.6039991023
 30
0.0
  0
SPLINE
  5
2B2
100
AcDbEntity
  8
0
100
AcDbSpline
 62
250
  6
CONTINUOUS
 70
0
 71
3
 72
11
 73
7
 74
0
 42
0.0000001
 43
0.0000001
 44
0.0000000001
 40
0.0
 40
0.0
 40
0.0
 40
0.0
 40
0.1399808676
 40
0.3760521674
 40
0.6762650034
 40
1.0
 40
1.0
 40
1.0
 40
1.0
 10
-29.3029339387
 20
-20.7795149599
 30
0.0
 10
-29.2994824045
 20
-20.7265230055
 30
0.0
 10
-29.2961484541
 20
-20.5838411707
 30
0.0
 10
-29.291924137
 20
-20.3273551975
 30
0.0
 10
-29.2899790108
 20
-20.0010786461
 30
0.0
 10
-29.2898825527
 20
-19.7643754604
 30
0.0
 10
-29.2902567953
 20
-19.6415613823
 30
0.0
  0
SPLINE
  5
2B3
100
AcDbEntity
  8
0
100
AcDbSpline
 62
250
  6
CONTINUOUS
 70
0
 71
3
 72
9
 73
5
 74
0
 42
0.0000001
 43
0.0000001
 44
0.0000000001
 40
0.0
 40
0.0
 40
0.0
 40
0.0
 40
0.2516952273
 40
1.0
 40
1.0
 40
1.0
 40
1.0
 10
-29.2902567953
 20
-19.6415613823
 30
0.0
 10
-29.3009068736
 20
-16.147669677
 30
0.0
 10
-29.3458804597
 20
-2.2662398866
 30
0.0
 10
-29.4015356782
 20
11.6151554837
 30
0.0
 10
-29.4494316668
 20
22.0026396645
 30
0.0
  0
SPLINE
  5
2B4
100
AcDbEntity
  8
0
100
AcDbSpline
 62
250
  6
CONTINUOUS
 70
0
 71
3
 72
15
 73
11
 74
0
 42
0.0000001
 43
0.0000001
 44
0.0000000001
 40
0.0
 40
0.0
 40
0.0
 40
0.0
 40
0.3859772814
 40
0.554164375
 40
0.700145762
 40
0.8203070848
 40
0.9116930814
 40
0.9720545756
 40
0.9901194509
 40
1.0
 40
1.0
 40
1.0
 40
1.0
 10
-29.4494316668
 20
22.0026396645
 30
0.0
 10
-29.449872862
 20
22.09831161
 30
0.0
 10
-29.4508679305
 20
22.2356701648
 30
0.0
 10
-29.4531267352
 20
22.4092049064
 30
0.0
 10
-29.4550671752
 20
22.516840529
 30
0.0
 10
-29.4571818971
 20
22.6054529975
 30
0.0
 10
-29.4596159349
 20
22.6727724098
 30
0.0
 10
-29.4615780476
 20
22.714889166
 30
0.0
 10
-29.4637467861
 20
22.7366132509
 30
0.0
 10
-29.4646210485
 20
22.7435458405
 30
0.0
 10
-29.4653943175
 20
22.7458696741
 30
0.0
  0
SPLINE
  5
2B5
100
AcDbEntity
  8
0
100
AcDbSpline
 62
250
  6
CONTINUOUS
 70
0
 71
3
 72
15
 73
11
 74
0
 42
0.0000001
 43
0.0000001
 44
0.0000000001
 40
0.0
 40
0.0
 40
0.0
 40
0.0
 40
0.009874149
 40
0.0279276241
 40
0.0882494894
 40
0.1795960787
 40
0.2997251466
 40
0.4456984934
 40
0.6138939497
 40
1.0
 40
1.0
 40
1.0
 40
1.0
 10
29.4653943175
 20
22.7458696741
 30
0.0
 10
29.4646213336
 20
22.7435474174
 30
0.0
 10
29.4637467748
 20
22.7366193526
 30
0.0
 10
29.4615795697
 20
22.7149093598
 30
0.0
 10
29.4596177503
 20
22.6728151047
 30
0.0
 10
29.4571838412
 20
22.6055232522
 30
0.0
 10
29.4550690673
 20
22.5169305475
 30
0.0
 10
29.4531282733
 20
22.4093028369
 30
0.0
 10
29.4508683788
 20
22.2357360936
 30
0.0
 10
29.4498730374
 20
22.0983435357
 30
0.0
 10
29.4494316668
 20
22.0026396645
 30
0.0
  0
SPLINE
  5
2B6
100
AcDbEntity
  8
0
100
AcDbSpline
 62
250
  6
CONTINUOUS
 70
0
 71
3
 72
9
 73
5
 74
0
 42
0.0000001
 43
0.0000001
 44
0.0000000001
 40
0.0
 40
0.0
 40
0.0
 40
0.0
 40
0.2481896651
 40
1.0
 40
1.0
 40
1.0
 40
1.0
 10
29.4494316668
 20
22.0026396645
 30
0.0
 10
29.4335460411
 20
18.5574308192
 30
0.0
 10
29.3723144015
 20
4.6760631601
 30
0.0
 10
29.3220684396
 20
-9.2053527879
 30
0.0
 10
29.2902567953
 20
-19.6415613823
 30
0.0
  0
SPLINE
  5
2B7
100
AcDbEntity
  8
0
100
AcDbSpline
 62
250
  6
CONTINUOUS
 70
0
 71
3
 72
11
 73
7
 74
0
 42
0.0000001
 43
0.0000001
 44
0.0000000001
 40
0.0
 40
0.0
 40
0.0
 40
0.0
 40
0.3236209031
 40
0.6238346739
 40
0.8599533336
 40
1.0
 40
1.0
 40
1.0
 40
1.0
 10
29.2902567953
 20
-19.6415613823
 30
0.0
 10
29.2898826488
 20
-19.7643321766
 30
0.0
 10
29.289978907
 20
-20.0009924331
 30
0.0
 10
29.2919230095
 20
-20.3272440246
 30
0.0
 10
29.2961470305
 20
-20.5837732811
 30
0.0
 10
29.2994809956
 20
-20.7264980826
 30
0.0
 10
29.3029339387
 20
-20.7795149599
 30
0.0
  0
SPLINE
  5
2B8
100
AcDbEntity
  8
0
100
AcDbSpline
 62
250
  6
CONTINUOUS
 70
0
 71
3
 72
9
 73
5
 74
0
 42
0.0000001
 43
0.0000001
 44
0.0000000001
 40
0.0
 40
0.0
 40
0.0
 40
0.0
 40
0.3722819966
 40
1.0
 40
1.0
 40
1.0
 40
1.0
 10
29.4217866543
 20
-22.6039991023
 30
0.0
 10
29.4219194145
 20
-22.6060370724
 30
0.0
 10
29.4224136205
 20
-22.611475426
 30
0.0
 10
29.422500596
 20
-22.6170838222
 30
0.0
 10
29.4235887421
 20
-22.6203509565
 30
0.0
  0
SPLINE
  5
2B9
100
AcDbEntity
  8
0
100
AcDbSpline
 62
250
  6
CONTINUOUS
 70
0
 71
3
 72
9
 73
5
 74
0
 42
0.0000001
 43
0.0000001
 44
0.0000000001
 40
0.0
 40
0.0
 40
0.0
 40
0.0
 40
0.335130532
 40
1.0
 40
1.0
 40
1.0
 40
1.0
 10
-28.9236648946
 20
-23.1196657239
 30
0.0
 10
-28.9230639678
 20
-23.1160558068
 30
0.0
 10
-28.9226169088
 20
-23.1051083125
 30
0.0
 10
-28.9220990667
 20
-23.0942184787
 30
0.0
 10
-28.9218628067
 20
-23.0869620154
 30
0.0
  0
SPLINE
  5
2BA
100
AcDbEntity
  8
0
100
AcDbSpline
 62
250
  6
CONTINUOUS
 70
0
 71
3
 72
9
 73
5
 74
0
 42
0.0000001
 43
0.0000001
 44
0.0000000001
 40
0.0
 40
0.0
 40
0.0
 40
0.0
 40
0.664869292
 40
1.0
 40
1.0
 40
1.0
 40
1.0
 10
28.9218628067
 20
-23.0869620154
 30
0.0
 10
28.9220990669
 20
-23.0942184768
 30
0.0
 10
28.9226169079
 20
-23.1051083107
 30
0.0
 10
28.923063968
 20
-23.1160558049
 30
0.0
 10
28.9236648946
 20
-23.1196657239
 30
0.0
  0
SPLINE
  5
2BB
100
AcDbEntity
  8
0
100
AcDbSpline
 62
250
  6
CONTINUOUS
 70
0
 71
3
 72
21
 73
17
 74
0
 42
0.0000001
 43
0.0000001
 44
0.0000000001
 40
0.0
 40
0.0
 40
0.0
 40
0.0
 40
0.1958116706
 40
0.3839758104
 40
0.5568170662
 40
0.7080588904
 40
0.7738119696
 40
0.8320981929
 40
0.8823563379
 40
0.9241603212
 40
0.9570935608
 40
0.9808164458
 40
0.9891701642
 40
0.9951616533
 40
0.9987741893
 40
1.0
 40
1.0
 40
1.0
 40
1.0
 10
-59.4409902674
 20
22.0026396645
 30
0.0
 10
-59.4720116388
 20
22.0108367741
 30
0.0
 10
-59.5328359131
 20
22.0269369595
 30
0.0
 10
-59.621018837
 20
22.0503622003
 30
0.0
 10
-59.7021211904
 20
22.0719941989
 30
0.0
 10
-59.763823343
 20
22.0885318058
 30
0.0
 10
-59.8073769448
 20
22.1002680712
 30
0.0
 10
-59.8349488634
 20
22.1077273986
 30
0.0
 10
-59.8587127384
 20
22.1141987407
 30
0.0
 10
-59.8784892257
 20
22.1196053957
 30
0.0
 10
-59.8939762879
 20
22.1239366491
 30
0.0
 10
-59.9043557657
 20
22.1267839654
 30
0.0
 10
-59.9101738842
 20
22.1285865785
 30
0.0
 10
-59.9132754474
 20
22.1293362232
 30
0.0
 10
-59.91446102
 20
22.1300526596
 30
0.0
 10
-59.9157331661
 20
22.1301452247
 30
0.0
 10
-59.9156818655
 20
22.1303394271
 30
0.0
  0
SPLINE
  5
2BC
100
AcDbEntity
  8
0
100
AcDbSpline
 62
250
  6
CONTINUOUS
 70
0
 71
3
 72
21
 73
17
 74
0
 42
0.0000001
 43
0.0000001
 44
0.0000000001
 40
0.0
 40
0.0
 40
0.0
 40
0.0
 40
0.195833428
 40
0.3840091852
 40
0.5568544452
 40
0.708094987
 40
0.7738461197
 40
0.8321298653
 40
0.8823852065
 40
0.9241861816
 40
0.9571162648
 40
0.980835717
 40
0.9891874068
 40
0.9951763607
 40
0.9987850387
 40
1.0
 40
1.0
 40
1.0
 40
1.0
 10
-68.5601125473
 20
-19.6415613823
 30
0.0
 10
-68.5917124916
 20
-19.6360413669
 30
0.0
 10
-68.653673584
 20
-19.6251992707
 30
0.0
 10
-68.7435145471
 20
-19.6094237285
 30
0.0
 10
-68.8261508685
 20
-19.5948552591
 30
0.0
 10
-68.8890297748
 20
-19.5837172657
 30
0.0
 10
-68.9334218045
 20
-19.5758119081
 30
0.0
 10
-68.9615283795
 20
-19.5707881592
 30
0.0
 10
-68.9857579874
 20
-19.5664262997
 30
0.0
 10
-69.0059270196
 20
-19.5627905199
 30
0.0
 10
-69.0217292029
 20
-19.5598539852
 30
0.0
 10
-69.0323242391
 20
-19.557972247
 30
0.0
 10
-69.0382744804
 20
-19.5567058427
 30
0.0
 10
-69.0414438534
 20
-19.556283974
 30
0.0
 10
-69.0426702565
 20
-19.5556517176
 30
0.0
 10
-69.0439666322
 20
-19.5557435554
 30
0.0
 10
-69.0439323958
 20
-19.5555475059
 30
0.0
  0
SPLINE
  5
2BD
100
AcDbEntity
  8
0
100
AcDbSpline
 62
250
  6
CONTINUOUS
 70
0
 71
3
 72
18
 73
14
 74
0
 42
0.0000001
 43
0.0000001
 44
0.0000000001
 40
0.0
 40
0.0
 40
0.0
 40
0.0
 40
0.1950581356
 40
0.3828579541
 40
0.5556220302
 40
0.7069783424
 40
0.8312343546
 40
0.881614569
 40
0.9235406643
 40
0.9565915577
 40
0.9804282207
 40
0.9948997176
 40
1.0
 40
1.0
 40
1.0
 40
1.0
 10
-67.8338394887
 20
-20.7795149599
 30
0.0
 10
-67.8422178922
 20
-20.8107931144
 30
0.0
 10
-67.8585628394
 20
-20.8722128379
 30
0.0
 10
-67.8819826962
 20
-20.9614250705
 30
0.0
 10
-67.9032540507
 20
-21.0437080848
 30
0.0
 10
-67.9215325891
 20
-21.1158442381
 30
0.0
 10
-67.9345408004
 20
-21.1684193523
 30
0.0
 10
-67.9428342681
 20
-21.2033306349
 30
0.0
 10
-67.9476169097
 20
-21.2237352181
 30
0.0
 10
-67.9508753959
 20
-21.2394205203
 30
0.0
 10
-67.9538208561
 20
-21.2518056466
 30
0.0
 10
-67.9539226629
 20
-21.2575385976
 30
0.0
 10
-67.9553406369
 20
-21.2622587365
 30
0.0
 10
-67.954522808
 20
-21.2624778731
 30
0.0
  0
SPLINE
  5
2BE
100
AcDbEntity
  8
0
100
AcDbSpline
 62
250
  6
CONTINUOUS
 70
0
 71
3
 72
18
 73
14
 74
0
 42
0.0000001
 43
0.0000001
 44
0.0000000001
 40
0.0
 40
0.0
 40
0.0
 40
0.0
 40
0.1950581342
 40
0.3828579499
 40
0.5556220255
 40
0.7069783386
 40
0.8312343518
 40
0.8816145669
 40
0.9235406631
 40
0.9565915569
 40
0.9804282204
 40
0.9948997176
 40
1.0
 40
1.0
 40
1.0
 40
1.0
 10
-61.0247719719
 20
-22.6039991023
 30
0.0
 10
-61.0331503752
 20
-22.6352772565
 30
0.0
 10
-61.0494953219
 20
-22.6966969794
 30
0.0
 10
-61.0729151781
 20
-22.7859092113
 30
0.0
 10
-61.0941865322
 20
-22.8681922253
 30
0.0
 10
-61.1124650707
 20
-22.9403283788
 30
0.0
 10
-61.1254732821
 20
-22.9929034934
 30
0.0
 10
-61.13376675
 20
-23.0278147764
 30
0.0
 10
-61.1385493919
 20
-23.0482193599
 30
0.0
 10
-61.1418078782
 20
-23.0639046623
 30
0.0
 10
-61.1447533388
 20
-23.0762897888
 30
0.0
 10
-61.1448551454
 20
-23.0820227398
 30
0.0
 10
-61.1462731201
 20
-23.0867428788
 30
0.0
 10
-61.1454552912
 20
-23.0869620154
 30
0.0
  0
SPLINE
  5
2BF
100
AcDbEntity
  8
0
100
AcDbSpline
 62
250
  6
CONTINUOUS
 70
0
 71
3
 72
18
 73
14
 74
0
 42
0.0000001
 43
0.0000001
 44
0.0000000001
 40
0.0
 40
0.0
 40
0.0
 40
0.0
 40
0.194859331
 40
0.3825730895
 40
0.5553326703
 40
0.7067367545
 40
0.8310650509
 40
0.8814826762
 40
0.9234438399
 40
0.9565253787
 40
0.9803868592
 40
0.994877762
 40
1.0
 40
1.0
 40
1.0
 40
1.0
 10
-60.9215304275
 20
-22.6203509565
 30
0.0
 10
-60.9232290562
 20
-22.6527725988
 30
0.0
 10
-60.92645633
 20
-22.7164330914
 30
0.0
 10
-60.9308190778
 20
-22.8088542441
 30
0.0
 10
-60.934510224
 20
-22.8940658604
 30
0.0
 10
-60.9373731644
 20
-22.9687183676
 30
0.0
 10
-60.9391402311
 20
-23.0230739739
 30
0.0
 10
-60.9399681836
 20
-23.0591032443
 30
0.0
 10
-60.9403802324
 20
-23.0801492675
 30
0.0
 10
-60.9402906012
 20
-23.0962462339
 30
0.0
 10
-60.9405564491
 20
-23.109024878
 30
0.0
 10
-60.9394688808
 20
-23.1146960419
 30
0.0
 10
-60.9398244645
 20
-23.1196210587
 30
0.0
 10
-60.9389722024
 20
-23.1196657239
 30
0.0
  0
SPLINE
  5
2C0
100
AcDbEntity
  8
0
100
AcDbSpline
 62
250
  6
CONTINUOUS
 70
0
 71
3
 72
18
 73
14
 74
0
 42
0.0000001
 43
0.0000001
 44
0.0000000001
 40
0.0
 40
0.0
 40
0.0
 40
0.0
 40
0.1946620325
 40
0.3826326133
 40
0.555564194
 40
0.7070120652
 40
0.8312807665
 40
0.8817678251
 40
0.9237688424
 40
0.9568033907
 40
0.9806318308
 40
0.9950781976
 40
1.0
 40
1.0
 40
1.0
 40
1.0
 10
-49.3395691282
 20
20.1192295714
 30
0.0
 10
-49.3394558836
 20
20.1062516441
 30
0.0
 10
-49.3392550682
 20
20.0807415153
 30
0.0
 10
-49.3390278234
 20
20.0437026755
 30
0.0
 10
-49.3388836402
 20
20.0095411564
 30
0.0
 10
-49.3388360186
 20
19.979637039
 30
0.0
 10
-49.3388530717
 20
19.957869059
 30
0.0
 10
-49.338954727
 20
19.9434486738
 30
0.0
 10
-49.3389853953
 20
19.9350131307
 30
0.0
 10
-49.3392054204
 20
19.9285984188
 30
0.0
 10
-49.3390379726
 20
19.9234417594
 30
0.0
 10
-49.339656001
 20
19.9212812731
 30
0.0
 10
-49.3392409935
 20
19.9192400504
 30
0.0
 10
-49.3395691253
 20
19.9192371868
 30
0.0
  0
SPLINE
  5
2C1
100
AcDbEntity
  8
0
100
AcDbSpline
 62
250
  6
CONTINUOUS
 70
0
 71
3
 72
18
 73
14
 74
0
 42
0.0000001
 43
0.0000001
 44
0.0000000001
 40
0.0
 40
0.0
 40
0.0
 40
0.0
 40
0.1946620534
 40
0.3826326862
 40
0.55556429
 40
0.7070121474
 40
0.8312808179
 40
0.8817678585
 40
0.9237688657
 40
0.9568034073
 40
0.9806318379
 40
0.9950781969
 40
1.0
 40
1.0
 40
1.0
 40
1.0
 10
-49.3395691282
 20
-20.1192295714
 30
0.0
 10
-49.3394558802
 20
-20.1062516427
 30
0.0
 10
-49.3392550589
 20
-20.0807415088
 30
0.0
 10
-49.3390278075
 20
-20.0437026624
 30
0.0
 10
-49.3388836204
 20
-20.009541139
 30
0.0
 10
-49.3388359973
 20
-19.9796370228
 30
0.0
 10
-49.3388530518
 20
-19.9578690468
 30
0.0
 10
-49.3389547094
 20
-19.9434486654
 30
0.0
 10
-49.3389853809
 20
-19.9350131248
 30
0.0
 10
-49.339205407
 20
-19.9285984141
 30
0.0
 10
-49.3390379677
 20
-19.9234417576
 30
0.0
 10
-49.3396559913
 20
-19.9212812703
 30
0.0
 10
-49.3392409964
 20
-19.9192400504
 30
0.0
 10
-49.3395691282
 20
-19.9192371868
 30
0.0
  0
SPLINE
  5
2C2
100
AcDbEntity
  8
0
100
AcDbSpline
 62
250
  6
CONTINUOUS
 70
0
 71
3
 72
18
 73
14
 74
0
 42
0.0000001
 43
0.0000001
 44
0.0000000001
 40
0.0
 40
0.0
 40
0.0
 40
0.0
 40
0.1948593216
 40
0.382573061
 40
0.5553326383
 40
0.7067367287
 40
0.8310650317
 40
0.8814826615
 40
0.9234438306
 40
0.9565253725
 40
0.9803868554
 40
0.9948777608
 40
1.0
 40
1.0
 40
1.0
 40
1.0
 10
-58.526490621
 20
22.7458696741
 30
0.0
 10
-58.5281892498
 20
22.7782913148
 30
0.0
 10
-58.5314165235
 20
22.8419518026
 30
0.0
 10
-58.5357792711
 20
22.9343729501
 30
0.0
 10
-58.5394704172
 20
23.0195845636
 30
0.0
 10
-58.5423333577
 20
23.0942370724
 30
0.0
 10
-58.5441004245
 20
23.1485926815
 30
0.0
 10
-58.5449283769
 20
23.1846219547
 30
0.0
 10
-58.5453404257
 20
23.2056679801
 30
0.0
 10
-58.5452507944
 20
23.2217649483
 30
0.0
 10
-58.5455166421
 20
23.2345435939
 30
0.0
 10
-58.5444290736
 20
23.2402147586
 30
0.0
 10
-58.5447846574
 20
23.2451397763
 30
0.0
 10
-58.5439323951
 20
23.2451844415
 30
0.0
  0
ELLIPSE
  5
2C3
100
AcDbEntity
  8
0
100
AcDbEllipse
 62
7
  6
CONTINUOUS
 10
28.999923836
 20
-22.849313827
 30
0.0
 11
-0.1582391023
 21
0.4751033573
 31
0.0
 40
0.9984778551
 41
-3.4626430041
 42
-1.8927600658
  0
ELLIPSE
  5
2C4
100
AcDbEntity
  8
0
100
AcDbEllipse
 62
7
  6
CONTINUOUS
 10
28.999923836
 20
22.849313827
 30
0.0
 11
0.1582391023
 21
0.4751033573
 31
0.0
 40
0.9984778551
 41
-1.2488325878
 42
0.3210503505
  0
ELLIPSE
  5
2C5
100
AcDbEntity
  8
0
100
AcDbEllipse
 62
7
  6
CONTINUOUS
 10
-28.999923836
 20
22.849313827
 30
0.0
 11
-0.1582391023
 21
0.4751033573
 31
0.0
 40
0.9984778551
 41
-0.3210503505
 42
1.2488325878
  0
ELLIPSE
  5
2C6
100
AcDbEntity
  8
0
100
AcDbEllipse
 62
7
  6
CONTINUOUS
 10
-28.999923836
 20
-22.849313827
 30
0.0
 11
0.1582391023
 21
0.4751033573
 31
0.0
 40
0.9984778551
 41
-4.3904252414
 42
-2.8205423031
  0
ELLIPSE
  5
2C7
100
AcDbEntity
  8
0
100
AcDbEllipse
 62
7
  6
CONTINUOUS
 10
-10.0756578114
 20
-21.4693994182
 30
0.0
 11
0.4320475976
 21
0.4510748035
 31
0.0
 40
0.7226696982
 41
-3.2980226467
 42
-2.5361301941
  0
ELLIPSE
  5
2C8
100
AcDbEntity
  8
0
100
AcDbEllipse
 62
7
  6
CONTINUOUS
 10
28.0964254077
 20
-21.4091040068
 30
0.0
 11
0.5650436824
 21
0.0343128895
 31
0.0
 40
0.2522897366
 41
-0.0062613434
 42
1.334589788
  0
ELLIPSE
  5
2C9
100
AcDbEntity
  8
0
100
AcDbEllipse
 62
7
  6
CONTINUOUS
 10
-28.0964254077
 20
-21.4091040068
 30
0.0
 11
0.5650436824
 21
-0.0343128895
 31
0.0
 40
0.2522897366
 41
8.0901881728
 42
9.4310393042
  0
ELLIPSE
  5
2CA
100
AcDbEntity
  8
0
100
AcDbEllipse
 62
7
  6
CONTINUOUS
 10
-28.1524389962
 20
-23.1168056932
 30
0.0
 11
0.5352916972
 21
0.012943491
 31
0.0
 40
0.0795762632
 41
-2.9970908611
 42
-1.8657930946
  0
ELLIPSE
  5
2CB
100
AcDbEntity
  8
0
100
AcDbEllipse
 62
7
  6
CONTINUOUS
 10
10.0756578114
 20
-21.4693994182
 30
0.0
 11
-0.4320475976
 21
0.4510748035
 31
0.0
 40
0.7226696982
 41
-3.7470551131
 42
-2.9851626604
  0
ELLIPSE
  5
2CC
100
AcDbEntity
  8
0
100
AcDbEllipse
 62
7
  6
CONTINUOUS
 10
-28.1912393278
 20
-22.1210361891
 30
0.0
 11
0.5219959958
 21
0.9986006811
 31
0.0
 40
0.1013104369
 41
-3.3504837182
 42
-3.1410442079
  0
ELLIPSE
  5
2CD
100
AcDbEntity
  8
0
100
AcDbEllipse
 62
7
  6
CONTINUOUS
 10
28.1912393278
 20
-22.1210361891
 30
0.0
 11
-0.5219959958
 21
0.9986006811
 31
0.0
 40
0.1013104369
 41
-3.1421410993
 42
-2.932701589
  0
ELLIPSE
  5
2CE
100
AcDbEntity
  8
0
100
AcDbEllipse
 62
7
  6
CONTINUOUS
 10
28.1524389962
 20
-23.1168056932
 30
0.0
 11
0.5352916972
 21
-0.012943491
 31
0.0
 40
0.0795762632
 41
-1.275799559
 42
-0.1445017925
  0
ENDSEC
  0
SECTION
  2
OBJECTS
  0
DICTIONARY
  5
C
100
AcDbDictionary
280
0
281
1
  3
ACAD_GROUP
350
D
  3
ACAD_MLINESTYLE
350
17
  3
ACAD_LAYOUT
350
1A
  3
ACAD_PLOTSETTINGS
350
19
  3
ACAD_PLOTSTYLENAME
350
E
  0
DICTIONARY
  5
D
102
{ACAD_REACTORS
330
C
102
}
100
AcDbDictionary
280
0
281
1
  0
ACDBDICTIONARYWDFLT
  5
E
102
{ACAD_REACTORS
330
C
102
}
100
AcDbDictionary
281
1
  3
Normal
350
F
100
AcDbDictionaryWithDefault
340
F
  0
DICTIONARY
  5
17
102
{ACAD_REACTORS
330
C
102
}
100
AcDbDictionary
280
0
281
1
  3
Standard
350
18
  0
DICTIONARY
  5
19
102
{ACAD_REACTORS
330
C
102
}
100
AcDbDictionary
281
1
  0
DICTIONARY
  5
1A
102
{ACAD_REACTORS
330
C
102
}
100
AcDbDictionary
281
1
  3
Model
350
2CF
  3
Layout1
350
2D0
  0
ACDBPLACEHOLDER
  5
F
102
{ACAD_REACTORS
330
E
102
}
  0
MLINESTYLE
  5
18
102
{ACAD_REACTORS
330
17
102
}
100
AcDbMlineStyle
  2
STANDARD
 70
0
  3

 62
256
 51
90.0
 52
90.0
 71
2
 49
0.5
 62
256
  6
BYLAYER
 49
-0.5
 62
256
  6
BYLAYER
  0
LAYOUT
  5
2CF
102
{ACAD_REACTORS
330
1A
102
}
100
AcDbPlotSettings
  1

  2
none_device
  4
ANSI_C_(22.00_x_17.00_Inches)
  6

 40
0.0
 41
0.0
 42
0.0
 43
0.0
 44
558.8
 45
431.8
 46
0.0
 47
0.0
 48
0.0
 49
0.0
140
0.0
141
0.0
142
1.0
143
1.0
 70
1024
 72
1
 73
0
 74
0
  7

 75
0
147
1.0
148
0.0
149
0.0
100
AcDbLayout
  1
Model
 70
0
 71
0
 10
0.0
 20
0.0
 11
558.8
 21
431.8
 12
0.0
 22
0.0
 32
0.0
 14
0.0
 24
0.0
 34
0.0
 15
0.0
 25
0.0
 35
0.0
146
0.0
 13
0.0
 23
0.0
 33
0.0
 16
1.0
 26
0.0
 36
0.0
 17
0.0
 27
1.0
 37
0.0
 76
0
330
210
345
0
346
0
  0
LAYOUT
  5
2D0
102
{ACAD_REACTORS
330
1A
102
}
100
AcDbPlotSettings
  1

  2
none_device
  4
ANSI_C_(22.00_x_17.00_Inches)
  6

 40
0.0
 41
0.0
 42
0.0
 43
0.0
 44
558.8
 45
431.8
 46
0.0
 47
0.0
 48
0.0
 49
0.0
140
0.0
141
0.0
142
1.0
143
1.0
 70
0
 72
1
 73
0
 74
0
  7

 75
0
147
1.0
148
0.0
149
0.0
100
AcDbLayout
  1
Layout1
 70
0
 71
1
 10
0.0
 20
0.0
 11
558.8
 21
431.8
 12
0.0
 22
0.0
 32
0.0
 14
0.0
 24
0.0
 34
0.0
 15
0.0
 25
0.0
 35
0.0
146
0.0
 13
0.0
 23
0.0
 33
0.0
 16
1.0
 26
0.0
 36
0.0
 17
0.0
 27
1.0
 37
0.0
 76
0
330
211
345
0
346
0
  0
ENDSEC
  0
EOF
