0
SECTION
2
HEADER
9
$ACADVER
1
AC1014
9
$HANDSEED
5
       34E
9
$EXTMAX
10
297.0000000000
20
210.0000000000
9
$EXTMIN
10
0.0000000000
20
0.0000000000
9
$LIMMIN
10
0.0000000000
20
0.0000000000
9
$LIMMAX
10
297.0000000000
20
210.0000000000
9
$VIEWCTR
10
148.5000000000
20
105.0000000000
9
$VIEWSIZE
40
210.0000000000
9
$CLAYER
8
0
9
$LTSCALE
40
16.3350000000
9
$CELTYPE
6
BYLAYER
9
$DIMSCALE
40
1
9
$DIMASZ
40
3.0000000000
9
$DIMEXO
40
1.8562500000
9
$DIMDLI
40
11.2860000000
9
$DIMEXE
40
5.3460000000
9
$DIMCEN
40
2.6730000000
9
$DIMLFAC
40
1.0000000000
9
$DIMTXT
40
3.0000000000
9
$DIMTOL
70
1
9
$DIMLIM
70
0
9
$DIMTFAC
40
1.0000000000
9
$DIMTP
40
0.0100000000
9
$DIMTM
40
0.0100000000
9
$MEASUREMENT
70
1
0
ENDSEC
0
SECTION
2
CLASSES
0
ENDSEC
0
SECTION
2
TABLES
0
TABLE
2
VPORT
5
8
100
AcDbSymbolTable
70
2
0
VPORT
5
1F4
100
AcDbSymbolTableRecord
100
AcDbViewportTableRecord
2
*ACTIVE
70
0
10
0.0
20
0.0
11
1.0
21
1.0
12
148.5000000000
22
105.0000000000
13
0.0
23
0.0
14
1.0
24
1.0
15
0.0
25
0.0
16
0.0
26
0.0
36
1.0
17
0.0
27
0.0
37
0.0
40
210.0000000000
41
1.4142857143
42
50.0
43
0.0
44
0.0
50
0.0
51
0.0
71
0
72
100
73
1
74
1
75
0
76
0
77
0
78
0
0
ENDTAB
0
TABLE
2
LTYPE
5
5
100
AcDbSymbolTable
70
6
0
LTYPE
5
14
100
AcDbSymbolTableRecord
100
AcDbLinetypeTableRecord
2
BYBLOCK
70
0
3

72
65
73
0
40
0.0
0
LTYPE
5
15
100
AcDbSymbolTableRecord
100
AcDbLinetypeTableRecord
2
BYLAYER
70
0
3

72
65
73
0
40
0.0
0
LTYPE
5
16
100
AcDbSymbolTableRecord
100
AcDbLinetypeTableRecord
2
CONTINUOUS
70
64
3
Solid line
72
65
73
0
40
0
0
LTYPE
5
1F5
100
AcDbSymbolTableRecord
100
AcDbLinetypeTableRecord
2
CENTER
70
64
3
____ _ ____ _ ____ _ ____ _ ____ _ ____ _ ____
72
65
73
4
40
0.6
49
0.375
74
0
49
-0.075
74
0
49
0.075
74
0
49
-0.075
74
0
0
LTYPE
5
1F6
100
AcDbSymbolTableRecord
100
AcDbLinetypeTableRecord
2
HIDDEN
70
64
3
- - - - - - - - - - - - - - - - - - - -
72
65
73
2
40
0.2
49
0.1
74
0
49
-0.1
74
0
0
LTYPE
5
1F7
100
AcDbSymbolTableRecord
100
AcDbLinetypeTableRecord
2
PHANTOM
70
64
3
_____ _ _ _____ _ _ _____ _ _ _____
72
65
73
6
40
0.8
49
0.45
74
0
49
-0.05
74
0
49
0.1
74
0
49
-0.05
74
0
49
0.1
74
0
49
-0.05
74
0
0
LTYPE
5
1F8
100
AcDbSymbolTableRecord
100
AcDbLinetypeTableRecord
2
DOT
70
64
3
. . . . . . . . . . . . . . . . . . . .
72
65
73
2
40
0.2
49
0.1
74
0
49
-0.1
74
0
0
LTYPE
5
1F9
100
AcDbSymbolTableRecord
100
AcDbLinetypeTableRecord
2
DASHED
70
64
3
- - - - - - - - - - - - - - - - - - - -
72
65
73
2
40
0.2
49
0.1
74
0
49
-0.1
74
0
0
ENDTAB
0
TABLE
2
LAYER
5
2
100
AcDbSymbolTable
70
36
0
LAYER
5
10
100
AcDbSymbolTableRecord
100
AcDbLayerTableRecord
2
0
70
0
62
7
6
CONTINUOUS
0
LAYER
5
1FA
100
AcDbSymbolTableRecord
100
AcDbLayerTableRecord
2
DEFAULT_1
70
0
62
7
6
CENTER
0
LAYER
5
1FB
100
AcDbSymbolTableRecord
100
AcDbLayerTableRecord
2
DEFAULT_2
70
0
62
8
6
HIDDEN
0
LAYER
5
1FC
100
AcDbSymbolTableRecord
100
AcDbLayerTableRecord
2
DEFAULT_3
70
0
62
7
6
PHANTOM
0
LAYER
5
1FD
100
AcDbSymbolTableRecord
100
AcDbLayerTableRecord
2
ASSI
70
0
62
7
6
CONTINUOUS
0
LAYER
5
1FE
100
AcDbSymbolTableRecord
100
AcDbLayerTableRecord
2
COLORE_MATERIALE
70
0
62
7
6
CONTINUOUS
0
LAYER
5
1FF
100
AcDbSymbolTableRecord
100
AcDbLayerTableRecord
2
COORDINATE
70
0
62
7
6
CONTINUOUS
0
LAYER
5
200
100
AcDbSymbolTableRecord
100
AcDbLayerTableRecord
2
COORD_ORIGINE
70
0
62
7
6
CONTINUOUS
0
LAYER
5
201
100
AcDbSymbolTableRecord
100
AcDbLayerTableRecord
2
COPY
70
0
62
7
6
CONTINUOUS
0
LAYER
5
202
100
AcDbSymbolTableRecord
100
AcDbLayerTableRecord
2
CURVE
70
0
62
7
6
CONTINUOUS
0
LAYER
5
203
100
AcDbSymbolTableRecord
100
AcDbLayerTableRecord
2
DRAFT
70
0
62
7
6
CONTINUOUS
0
LAYER
5
204
100
AcDbSymbolTableRecord
100
AcDbLayerTableRecord
2
IGS
70
0
62
7
6
CONTINUOUS
0
LAYER
5
205
100
AcDbSymbolTableRecord
100
AcDbLayerTableRecord
2
INC_LASER
70
0
62
7
6
CONTINUOUS
0
LAYER
5
206
100
AcDbSymbolTableRecord
100
AcDbLayerTableRecord
2
PIANI
70
0
62
7
6
CONTINUOUS
0
LAYER
5
207
100
AcDbSymbolTableRecord
100
AcDbLayerTableRecord
2
PIANI_ORIGINE
70
0
62
7
6
CONTINUOUS
0
LAYER
5
208
100
AcDbSymbolTableRecord
100
AcDbLayerTableRecord
2
PIANI_RIFERIMENTO
70
0
62
7
6
CONTINUOUS
0
LAYER
5
209
100
AcDbSymbolTableRecord
100
AcDbLayerTableRecord
2
RACCORDO
70
0
62
7
6
CONTINUOUS
0
LAYER
5
20A
100
AcDbSymbolTableRecord
100
AcDbLayerTableRecord
2
SMUSSO
70
0
62
7
6
CONTINUOUS
0
LAYER
5
20B
100
AcDbSymbolTableRecord
100
AcDbLayerTableRecord
2
SNAPLINE
70
0
62
7
6
CONTINUOUS
0
LAYER
5
20C
100
AcDbSymbolTableRecord
100
AcDbLayerTableRecord
2
SUPERFICI
70
0
62
7
6
CONTINUOUS
0
LAYER
5
20D
100
AcDbSymbolTableRecord
100
AcDbLayerTableRecord
2
TRASH
70
0
62
7
6
CONTINUOUS
0
ENDTAB
0
TABLE
2
STYLE
5
3
100
AcDbSymbolTable
70
1
0
STYLE
5
11
100
AcDbSymbolTableRecord
100
AcDbTextStyleTableRecord
2
STANDARD
70
0
40
0.0
41
0.8000000000
50
0.0
71
0
42
0.2
3
txt
4

0
ENDTAB
0
TABLE
2
VIEW
5
6
100
AcDbSymbolTable
70
0
0
ENDTAB
0
TABLE
2
UCS
5
7
100
AcDbSymbolTable
70
0
0
ENDTAB
0
TABLE
2
APPID
5
9
100
AcDbSymbolTable
70
1
0
APPID
5
20E
100
AcDbSymbolTableRecord
100
AcDbRegAppTableRecord
2
ACAD
70
0
0
ENDTAB
0
TABLE
2
DIMSTYLE
5
A
100
AcDbSymbolTable
70
1
0
DIMSTYLE
105
20F
100
AcDbSymbolTableRecord
100
AcDbDimStyleTableRecord
2
STANDARD
70
0
3

4

5

6

7

40
1.0
41
3.0000000000
42
0.0625
43
0.38
44
0.18
45
0.0
46
0.0
47
0.0100000000
48
0.0100000000
140
3.0000000000
141
0.09
142
0.0
143
25.4
144
1.0000000000
145
0.0
146
1.0000000000
147
0.09
71
1
72
0
73
0
74
0
75
0
76
0
77
1
78
8
170
0
171
2
172
0
173
0
174
0
175
0
176
0
177
0
178
0
270
2
271
2
272
2
273
2
274
2
340
11
275
0
280
0
281
0
282
0
283
1
284
8
285
0
286
0
287
3
288
0
0
DIMSTYLE
105
210
100
AcDbSymbolTableRecord
100
AcDbDimStyleTableRecord
2
DIMSTYLE_1
70
0
3

4

5

6

7

40
1.0
41
3.0000000000
42
0.0625
43
0.38
44
0.18
45
0.0
46
0.0
47
0.0000000000
48
0.0000000000
140
3.0000000000
141
0.09
142
0.0
143
25.4
144
1.0000000000
145
0.0
146
1.0000000000
147
0.09
71
0
72
0
73
0
74
0
75
0
76
0
77
1
78
8
170
0
171
2
172
0
173
0
174
0
175
0
176
0
177
0
178
0
270
2
271
2
272
2
273
2
274
2
340
11
275
0
280
0
281
0
282
0
283
1
284
8
285
0
286
0
287
3
288
0
0
DIMSTYLE
105
211
100
AcDbSymbolTableRecord
100
AcDbDimStyleTableRecord
2
DIMSTYLE_2
70
0
3

4

5

6

7

40
1.0
41
3.0000000000
42
0.0625
43
0.38
44
0.18
45
0.0
46
0.0
47
0.0000000000
48
0.0000000000
140
3.0000000000
141
0.09
142
0.0
143
25.4
144
1.0000000000
145
0.0
146
1.0000000000
147
0.09
71
0
72
0
73
0
74
0
75
0
76
0
77
1
78
8
170
0
171
2
172
0
173
0
174
0
175
0
176
0
177
0
178
0
270
2
271
1
272
1
273
2
274
2
340
11
275
0
280
0
281
0
282
0
283
1
284
8
285
0
286
0
287
3
288
0
0
ENDTAB
0
TABLE
2
BLOCK_RECORD
5
1
100
AcDbSymbolTable
70
0
0
BLOCK_RECORD
5
1B
100
AcDbSymbolTableRecord
100
AcDbBlockTableRecord
2
*MODEL_SPACE
0
BLOCK_RECORD
5
1C
100
AcDbSymbolTableRecord
100
AcDbBlockTableRecord
2
*PAPER_SPACE
0
BLOCK_RECORD
5
212
100
AcDbSymbolTableRecord
100
AcDbBlockTableRecord
2
*D0
0
BLOCK_RECORD
5
213
100
AcDbSymbolTableRecord
100
AcDbBlockTableRecord
2
*D1
0
BLOCK_RECORD
5
214
100
AcDbSymbolTableRecord
100
AcDbBlockTableRecord
2
*D2
0
ENDTAB
0
ENDSEC
0
SECTION
2
BLOCKS
0
BLOCK
5
1E
100
AcDbEntity
8
0
100
AcDbBlockBegin
2
*MODEL_SPACE
70
0
10
0.0
20
0.0
30
0.0
3
*MODEL_SPACE
1

0
ENDBLK
5
1F
100
AcDbEntity
8
0
100
AcDbBlockEnd
0
BLOCK
5
20
100
AcDbEntity
8
0
100
AcDbBlockBegin
2
*PAPER_SPACE
70
0
10
0.0
20
0.0
30
0.0
3
*PAPER_SPACE
1

0
ENDBLK
5
21
100
AcDbEntity
8
0
100
AcDbBlockEnd
0
BLOCK
5
215
100
AcDbEntity
8
0
100
AcDbBlockBegin
62
7
6
CONTINUOUS
2
*D0
70
65
10
0.0000000000
20
0.0000000000
3
*D0
1

0
TEXT
5
216
100
AcDbEntity
8
0
100
AcDbText
62
7
6
CONTINUOUS
10
-38.2988238574
20
30.8131804435
7
STANDARD
40
3.0000000000
1
9,55
41
0.6964285714
72
0
100
AcDbText
0
LINE
5
217
100
AcDbEntity
8
0
100
AcDbLine
62
7
6
CONTINUOUS
10
-20.0974698644
20
13.3295639153
11
-20.0974698644
21
31.5631804435
0
LINE
5
218
100
AcDbEntity
8
0
100
AcDbLine
62
7
6
CONTINUOUS
10
-29.6493842388
20
0.5609488970
11
-29.6493842388
21
31.5631804435
0
LINE
5
219
100
AcDbEntity
8
0
100
AcDbLine
62
7
6
CONTINUOUS
10
-20.0974698644
20
30.0631804435
11
-24.8734270516
21
30.0631804435
0
LINE
5
21A
100
AcDbEntity
8
0
100
AcDbLine
62
7
6
CONTINUOUS
10
-29.6493842388
20
30.0631804435
11
-24.8734270516
21
30.0631804435
0
LINE
5
21B
100
AcDbEntity
8
0
100
AcDbLine
62
7
6
CONTINUOUS
10
-24.8734270516
20
30.0631804435
11
-38.2988238574
21
30.0631804435
0
SOLID
5
21C
100
AcDbEntity
8
0
100
AcDbTrace
62
7
6
CONTINUOUS
10
-23.0974698644
20
29.1131804435
11
-20.0974698644
21
30.0631804435
12
-23.0974698644
22
31.0131804435
13
-23.0974698644
23
31.0131804435
0
SOLID
5
21D
100
AcDbEntity
8
0
100
AcDbTrace
62
7
6
CONTINUOUS
10
-26.6493842388
20
31.0131804435
11
-29.6493842388
21
30.0631804435
12
-26.6493842388
22
29.1131804435
13
-26.6493842388
23
29.1131804435
0
ENDBLK
5
21E
100
AcDbEntity
8
0
100
AcDbBlockEnd
0
BLOCK
5
21F
100
AcDbEntity
8
0
100
AcDbBlockBegin
62
7
6
CONTINUOUS
2
*D1
70
65
10
0.0000000000
20
0.0000000000
3
*D1
1

0
TEXT
5
220
100
AcDbEntity
8
0
100
AcDbText
62
7
6
CONTINUOUS
10
-2.8188308143
20
30.8131804435
7
STANDARD
40
3.0000000000
1
22,2
41
0.7321428571
72
0
100
AcDbText
0
LINE
5
221
100
AcDbEntity
8
0
100
AcDbLine
62
7
6
CONTINUOUS
10
-10.0636088710
20
21.9157524886
11
-10.0636088710
21
31.5631804435
0
LINE
5
222
100
AcDbEntity
8
0
100
AcDbLine
62
7
6
CONTINUOUS
10
12.1363911290
20
21.9157524886
11
12.1363911290
21
31.5631804435
0
LINE
5
223
100
AcDbEntity
8
0
100
AcDbLine
62
7
6
CONTINUOUS
10
-10.0636088710
20
30.0631804435
11
1.0363911290
21
30.0631804435
0
LINE
5
224
100
AcDbEntity
8
0
100
AcDbLine
62
7
6
CONTINUOUS
10
12.1363911290
20
30.0631804435
11
1.0363911290
21
30.0631804435
0
SOLID
5
225
100
AcDbEntity
8
0
100
AcDbTrace
62
7
6
CONTINUOUS
10
-7.0636088710
20
31.0131804435
11
-10.0636088710
21
30.0631804435
12
-7.0636088710
22
29.1131804435
13
-7.0636088710
23
29.1131804435
0
SOLID
5
226
100
AcDbEntity
8
0
100
AcDbTrace
62
7
6
CONTINUOUS
10
9.1363911290
20
29.1131804435
11
12.1363911290
21
30.0631804435
12
9.1363911290
22
31.0131804435
13
9.1363911290
23
31.0131804435
0
ENDBLK
5
227
100
AcDbEntity
8
0
100
AcDbBlockEnd
0
BLOCK
5
228
100
AcDbEntity
8
0
100
AcDbBlockBegin
62
7
6
CONTINUOUS
2
*D2
70
65
10
0.0000000000
20
0.0000000000
3
*D2
1

0
TEXT
5
229
100
AcDbEntity
8
0
100
AcDbText
62
7
6
CONTINUOUS
10
20.7863911290
20
-4.3416901358
7
STANDARD
40
3.0000000000
1
44,5
50
90.0000000000
41
0.7142857143
72
0
100
AcDbText
0
LINE
5
22A
100
AcDbEntity
8
0
100
AcDbLine
62
7
6
CONTINUOUS
10
12.1363911290
20
21.9845687746
11
23.0363911290
21
21.9845687746
0
LINE
5
22B
100
AcDbEntity
8
0
100
AcDbLine
62
7
6
CONTINUOUS
10
12.1172797796
20
-22.5315543731
11
23.0363911290
21
-22.5315543731
0
LINE
5
22C
100
AcDbEntity
8
0
100
AcDbLine
62
7
6
CONTINUOUS
10
21.5363911290
20
21.9845687746
11
21.5363911290
21
-0.2734927992
0
LINE
5
22D
100
AcDbEntity
8
0
100
AcDbLine
62
7
6
CONTINUOUS
10
21.5363911290
20
-22.5315543731
11
21.5363911290
21
-0.2734927992
0
SOLID
5
22E
100
AcDbEntity
8
0
100
AcDbTrace
62
7
6
CONTINUOUS
10
22.4863911290
20
18.9845687746
11
21.5363911290
21
21.9845687746
12
20.5863911290
22
18.9845687746
13
20.5863911290
23
18.9845687746
0
SOLID
5
22F
100
AcDbEntity
8
0
100
AcDbTrace
62
7
6
CONTINUOUS
10
20.5863911290
20
-19.5315543731
11
21.5363911290
21
-22.5315543731
12
22.4863911290
22
-19.5315543731
13
22.4863911290
23
-19.5315543731
0
ENDBLK
5
230
100
AcDbEntity
8
0
100
AcDbBlockEnd
0
ENDSEC
0
SECTION
2
ENTITIES
0
DIMENSION
5
231
100
AcDbEntity
8
0
100
AcDbDimension
62
7
6
CONTINUOUS
2
*D0
10
-29.6493842388
20
30.0631804435
11
-34.1202524288
21
32.3131804435
70
160
3
DIMSTYLE_1
100
AcDbAlignedDimension
13
-20.0974698644
23
13.3295639153
14
-29.6493842388
24
0.5609488970
50
180.000000
100
AcDbRotatedDimension
0
DIMENSION
5
232
100
AcDbEntity
8
0
100
AcDbDimension
62
7
6
CONTINUOUS
2
*D1
10
12.1363911290
20
30.0631804435
11
1.5740263285
21
32.3131804435
70
160
3
DIMSTYLE_1
100
AcDbAlignedDimension
13
-10.0636088710
23
21.9157524886
14
12.1363911290
24
21.9157524886
100
AcDbRotatedDimension
0
DIMENSION
5
233
100
AcDbEntity
8
0
100
AcDbDimension
62
7
6
CONTINUOUS
2
*D2
10
21.5363911290
20
-22.5315543731
11
19.2863911290
21
-0.0559758501
70
160
3
DIMSTYLE_2
100
AcDbAlignedDimension
13
12.1363911290
23
21.9845687746
14
12.1172797796
24
-22.5315543731
50
270.000000
100
AcDbRotatedDimension
0
LINE
5
234
100
AcDbEntity
8
0
100
AcDbLine
62
7
6
CONTINUOUS
10
11.6172797796
20
-22.5315543731
11
3.6206563011
21
-22.5315543731
0
LINE
5
235
100
AcDbEntity
8
0
100
AcDbLine
62
7
6
CONTINUOUS
10
-1.5478740430
20
-22.5315543731
11
-9.5444975215
21
-22.5315543731
0
LINE
5
236
100
AcDbEntity
8
0
100
AcDbLine
62
7
6
CONTINUOUS
10
3.1709210752
20
-22.5011797338
11
-1.0981388171
21
-22.5011797338
0
LINE
5
237
100
AcDbEntity
8
0
100
AcDbLine
62
7
6
CONTINUOUS
10
3.6206563011
20
-22.5315543731
11
3.3441261560
21
-22.5064261093
0
LINE
5
238
100
AcDbEntity
8
0
100
AcDbLine
62
7
6
CONTINUOUS
10
-1.5478740430
20
-22.5315543731
11
-1.2713438979
21
-22.5064261093
0
LINE
5
239
100
AcDbEntity
8
0
100
AcDbLine
62
9
6
CONTINUOUS
10
-9.4996983285
20
-22.3970474991
11
11.5724805866
21
-22.3970474991
0
LINE
5
23A
100
AcDbEntity
8
0
100
AcDbLine
62
9
6
CONTINUOUS
10
-9.4915251402
20
-21.5475370476
11
11.5643073983
21
-21.5475370476
0
LINE
5
23B
100
AcDbEntity
8
0
100
AcDbLine
62
7
6
CONTINUOUS
10
-10.0451821638
20
-22.0345238459
11
-10.0636088710
21
-13.4368195565
0
LINE
5
23C
100
AcDbEntity
8
0
100
AcDbLine
62
7
6
CONTINUOUS
10
-10.0636088710
20
-0.6867909998
11
-10.0636088710
21
-13.4368195565
0
LINE
5
23D
100
AcDbEntity
8
0
100
AcDbLine
62
7
6
CONTINUOUS
10
-10.0636088710
20
0.0018450350
11
-10.0636088710
21
21.4838826016
0
LINE
5
23E
100
AcDbEntity
8
0
100
AcDbLine
62
9
6
CONTINUOUS
10
-9.8136088710
20
-0.2368195572
11
-9.8136088710
21
-0.2481644846
0
LINE
5
23F
100
AcDbEntity
8
0
100
AcDbLine
62
9
6
CONTINUOUS
10
-9.5636088710
20
21.9152959338
11
-9.5636088710
21
21.9845687746
0
LINE
5
240
100
AcDbEntity
8
0
100
AcDbLine
62
9
6
CONTINUOUS
10
-9.4727691283
20
-0.4843986447
11
-9.4727691283
21
-0.7345880099
0
LINE
5
241
100
AcDbEntity
8
0
100
AcDbLine
62
9
6
CONTINUOUS
10
-9.4727691283
20
-0.1892404682
11
-9.4727691283
21
0.0609488970
0
LINE
5
242
100
AcDbEntity
8
0
100
AcDbLine
62
9
6
CONTINUOUS
10
-3.8616128793
20
-0.7345880097
11
-3.8616086996
21
-1.1351653773
0
LINE
5
243
100
AcDbEntity
8
0
100
AcDbLine
62
9
6
CONTINUOUS
10
-3.8616128793
20
0.0609488968
11
-3.8616086992
21
0.4615262737
0
LINE
5
244
100
AcDbEntity
8
0
100
AcDbLine
62
7
6
CONTINUOUS
10
-3.6498228512
20
-1.1230525752
11
-3.6498228512
21
-0.6739138391
0
LINE
5
245
100
AcDbEntity
8
0
100
AcDbLine
62
7
6
CONTINUOUS
10
-3.6498228512
20
0.0002747262
11
-3.6498228512
21
0.4494134623
0
LINE
5
246
100
AcDbEntity
8
0
100
AcDbLine
62
9
6
CONTINUOUS
10
-3.1616213227
20
1.1617656755
11
-3.1616213227
21
0.9611738568
0
LINE
5
247
100
AcDbEntity
8
0
100
AcDbLine
62
9
6
CONTINUOUS
10
-3.1616213227
20
-1.6348129697
11
-3.1616213227
21
-1.8354047884
0
LINE
5
248
100
AcDbEntity
8
0
100
AcDbLine
62
9
6
CONTINUOUS
10
11.5471225137
20
-9.8368195565
11
-9.4743402557
21
-9.8368195565
0
LINE
5
249
100
AcDbEntity
8
0
100
AcDbLine
62
7
6
CONTINUOUS
10
-1.2136088710
20
21.9845687746
11
-1.2136088710
21
21.8692716602
0
LINE
5
24A
100
AcDbEntity
8
0
100
AcDbLine
62
9
6
CONTINUOUS
10
-10.0451821638
20
-22.0345238459
11
-9.9996221761
21
-21.8977327317
0
LINE
5
24B
100
AcDbEntity
8
0
100
AcDbLine
62
9
6
CONTINUOUS
10
-9.5444975215
20
-22.5315543731
11
-9.4996983285
21
-22.3970474991
0
LINE
5
24C
100
AcDbEntity
8
0
100
AcDbLine
62
9
6
CONTINUOUS
10
-3.8502910612
20
-0.4735093620
11
-3.8611803438
21
-0.4843986447
0
LINE
5
24D
100
AcDbEntity
8
0
100
AcDbLine
62
9
6
CONTINUOUS
10
-9.9726929489
20
0.0586063859
11
-10.0636088710
21
0.0131518869
0
LINE
5
24E
100
AcDbEntity
8
0
100
AcDbLine
62
9
6
CONTINUOUS
10
-9.7227310252
20
-0.1913840948
11
-9.8136088710
21
-0.2368195572
0
LINE
5
24F
100
AcDbEntity
8
0
100
AcDbLine
62
9
6
CONTINUOUS
10
-10.0636088710
20
-0.6867909998
11
-9.9726929489
21
-0.7322454989
0
LINE
5
250
100
AcDbEntity
8
0
100
AcDbLine
62
9
6
CONTINUOUS
10
-9.8136088695
20
-0.4368195565
11
-9.7227310252
21
-0.4822550181
0
LINE
5
251
100
AcDbEntity
8
0
100
AcDbLine
62
9
6
CONTINUOUS
10
-3.8502910612
20
-0.2001297509
11
-3.8611803438
21
-0.1892404682
0
LINE
5
252
100
AcDbEntity
8
0
100
AcDbLine
62
9
6
CONTINUOUS
10
-9.9996221761
20
21.2240936188
11
-10.0636088710
21
21.4162098095
0
LINE
5
253
100
AcDbEntity
8
0
100
AcDbLine
62
9
6
CONTINUOUS
10
-9.4996983285
20
21.7234083862
11
-9.5636088710
21
21.9152959338
0
LINE
5
254
100
AcDbEntity
8
0
100
AcDbLine
62
9
6
CONTINUOUS
10
-3.6498228851
20
-0.6730259552
11
-3.6611879592
21
-0.6843910293
0
LINE
5
255
100
AcDbEntity
8
0
100
AcDbLine
62
9
6
CONTINUOUS
10
-3.6498228512
20
-1.1230525752
11
-3.6616163150
21
-1.1348460389
0
LINE
5
256
100
AcDbEntity
8
0
100
AcDbLine
62
9
6
CONTINUOUS
10
-3.1498418897
20
-1.6230335367
11
-3.1616213227
21
-1.6348129697
0
LINE
5
257
100
AcDbEntity
8
0
100
AcDbLine
62
7
6
CONTINUOUS
10
-8.8863004554
20
-0.2481644846
11
-8.8112436762
21
-0.2106389531
0
LINE
5
258
100
AcDbEntity
8
0
100
AcDbLine
62
7
6
CONTINUOUS
10
-8.8636088710
20
-0.4368195565
11
-8.8112436762
21
-0.4630001598
0
LINE
5
259
100
AcDbEntity
8
0
100
AcDbLine
62
9
6
CONTINUOUS
10
-3.6498228851
20
-0.0006131577
11
-3.6611879592
21
0.0107519164
0
LINE
5
25A
100
AcDbEntity
8
0
100
AcDbLine
62
9
6
CONTINUOUS
10
-3.6498228512
20
0.4494134623
11
-3.6616163146
21
0.4612069257
0
LINE
5
25B
100
AcDbEntity
8
0
100
AcDbLine
62
9
6
CONTINUOUS
10
-3.1498418897
20
0.9493944238
11
-3.1616213227
21
0.9611738568
0
LINE
5
25C
100
AcDbEntity
8
0
100
AcDbLine
62
7
6
CONTINUOUS
10
3.2863911290
20
21.9845687746
11
3.2863911290
21
21.8692716602
0
LINE
5
25D
100
AcDbEntity
8
0
100
AcDbLine
62
9
6
CONTINUOUS
10
11.6363911290
20
21.9152959338
11
11.5724805866
21
21.7234083862
0
LINE
5
25E
100
AcDbEntity
8
0
100
AcDbLine
62
9
6
CONTINUOUS
10
12.1363911290
20
21.4162098095
11
12.0724044342
21
21.2240936188
0
LINE
5
25F
100
AcDbEntity
8
0
100
AcDbLine
62
9
6
CONTINUOUS
10
5.2226241477
20
0.9493944238
11
5.2344035808
21
0.9611738568
0
LINE
5
260
100
AcDbEntity
8
0
100
AcDbLine
62
9
6
CONTINUOUS
10
5.2226241477
20
-1.6230335367
11
5.2344035808
21
-1.6348129697
0
LINE
5
261
100
AcDbEntity
8
0
100
AcDbLine
62
9
6
CONTINUOUS
10
11.5724805866
20
-22.3970474991
11
11.6172797796
21
-22.5315543731
0
LINE
5
262
100
AcDbEntity
8
0
100
AcDbLine
62
9
6
CONTINUOUS
10
12.0724044342
20
-21.8977327317
11
12.1179644219
21
-22.0345238459
0
LINE
5
263
100
AcDbEntity
8
0
100
AcDbLine
62
9
6
CONTINUOUS
10
5.2344035808
20
1.1617656755
11
5.2344035808
21
0.9611738568
0
LINE
5
264
100
AcDbEntity
8
0
100
AcDbLine
62
9
6
CONTINUOUS
10
5.2344035808
20
-1.6348129697
11
5.2344035808
21
-1.8354047884
0
LINE
5
265
100
AcDbEntity
8
0
100
AcDbLine
62
7
6
CONTINUOUS
10
5.7226051093
20
0.4494134623
11
5.7226051093
21
0.0002747262
0
LINE
5
266
100
AcDbEntity
8
0
100
AcDbLine
62
7
6
CONTINUOUS
10
5.7226051093
20
-0.6739138391
11
5.7226051093
21
-1.1230525752
0
LINE
5
267
100
AcDbEntity
8
0
100
AcDbLine
62
9
6
CONTINUOUS
10
5.9343909573
20
0.4615262737
11
5.9343951373
21
0.0609488968
0
LINE
5
268
100
AcDbEntity
8
0
100
AcDbLine
62
9
6
CONTINUOUS
10
5.9343909577
20
-1.1351653773
11
5.9343951373
21
-0.7345880097
0
LINE
5
269
100
AcDbEntity
8
0
100
AcDbLine
62
9
6
CONTINUOUS
10
5.7226051093
20
0.4494134623
11
5.7343985727
21
0.4612069257
0
LINE
5
26A
100
AcDbEntity
8
0
100
AcDbLine
62
9
6
CONTINUOUS
10
5.7339702172
20
0.0107519164
11
5.7226051432
21
-0.0006131577
0
LINE
5
26B
100
AcDbEntity
8
0
100
AcDbLine
62
9
6
CONTINUOUS
10
5.9339626019
20
-0.1892404682
11
5.9230733192
21
-0.2001297509
0
LINE
5
26C
100
AcDbEntity
8
0
100
AcDbLine
62
9
6
CONTINUOUS
10
6.6143100283
20
-0.4630305960
11
6.6183388902
21
-0.4630001598
0
LINE
5
26D
100
AcDbEntity
8
0
100
AcDbLine
62
7
6
CONTINUOUS
10
5.9195755397
20
-0.4735317707
11
6.6143100283
21
-0.4630305960
0
LINE
5
26E
100
AcDbEntity
8
0
100
AcDbLine
62
7
6
CONTINUOUS
10
6.6142878364
20
-0.4630329824
11
6.6183388902
21
-0.4630001598
0
LINE
5
26F
100
AcDbEntity
8
0
100
AcDbLine
62
7
6
CONTINUOUS
10
-4.5415057123
20
-0.2106061591
11
-4.5455566322
21
-0.2106389531
0
LINE
5
270
100
AcDbEntity
8
0
100
AcDbLine
62
7
6
CONTINUOUS
10
5.9195772453
20
-0.4735317450
11
5.9230733192
21
-0.4735093620
0
LINE
5
271
100
AcDbEntity
8
0
100
AcDbLine
62
7
6
CONTINUOUS
10
-3.8467953986
20
-0.2001073741
11
-3.8502910612
21
-0.2001297509
0
LINE
5
272
100
AcDbEntity
8
0
100
AcDbLine
62
9
6
CONTINUOUS
10
-3.6616204947
20
-0.7344289023
11
-3.8616128793
21
-0.7345880097
0
LINE
5
273
100
AcDbEntity
8
0
100
AcDbLine
62
9
6
CONTINUOUS
10
-3.1616213227
20
-1.8354047884
11
5.2344035808
21
-1.8354047884
0
LINE
5
274
100
AcDbEntity
8
0
100
AcDbLine
62
9
6
CONTINUOUS
10
-3.1616213227
20
-1.6348129697
11
5.2344035808
21
-1.6348129697
0
LINE
5
275
100
AcDbEntity
8
0
100
AcDbLine
62
7
6
CONTINUOUS
10
5.2226241477
20
-1.6230335367
11
-3.1498418897
21
-1.6230335367
0
LINE
5
276
100
AcDbEntity
8
0
100
AcDbLine
62
9
6
CONTINUOUS
10
-9.4727691283
20
-0.7345880099
11
-3.8616128793
21
-0.7345880097
0
LINE
5
277
100
AcDbEntity
8
0
100
AcDbLine
62
9
6
CONTINUOUS
10
11.5455513864
20
-0.7345880099
11
5.9343951373
21
-0.7345880097
0
LINE
5
278
100
AcDbEntity
8
0
100
AcDbLine
62
9
6
CONTINUOUS
10
-9.4727691283
20
-0.4843986447
11
-3.8611803438
21
-0.4843986447
0
LINE
5
279
100
AcDbEntity
8
0
100
AcDbLine
62
9
6
CONTINUOUS
10
11.5455513864
20
-0.4843986447
11
5.9339626019
21
-0.4843986447
0
LINE
5
27A
100
AcDbEntity
8
0
100
AcDbLine
62
7
6
CONTINUOUS
10
-8.8112436762
20
-0.4630001598
11
-4.5455566322
21
-0.4630001598
0
LINE
5
27B
100
AcDbEntity
8
0
100
AcDbLine
62
7
6
CONTINUOUS
10
6.6183388902
20
-0.4630001598
11
10.8840259342
21
-0.4630001598
0
LINE
5
27C
100
AcDbEntity
8
0
100
AcDbLine
62
7
6
CONTINUOUS
10
11.8863911276
20
-0.4368195565
11
10.9363911290
21
-0.4368195565
0
LINE
5
27D
100
AcDbEntity
8
0
100
AcDbLine
62
7
6
CONTINUOUS
10
-8.8636088710
20
-0.4368195565
11
-9.8136088695
21
-0.4368195565
0
LINE
5
27E
100
AcDbEntity
8
0
100
AcDbLine
62
7
6
CONTINUOUS
10
-9.8136088710
20
-0.2481644846
11
-8.8863004554
21
-0.2481644846
0
LINE
5
27F
100
AcDbEntity
8
0
100
AcDbLine
62
7
6
CONTINUOUS
10
10.9590827134
20
-0.2481644846
11
11.8863911290
21
-0.2481644846
0
LINE
5
280
100
AcDbEntity
8
0
100
AcDbLine
62
7
6
CONTINUOUS
10
10.8840259342
20
-0.2106389531
11
6.6183388902
21
-0.2106389531
0
LINE
5
281
100
AcDbEntity
8
0
100
AcDbLine
62
7
6
CONTINUOUS
10
-4.5455566322
20
-0.2106389531
11
-8.8112436762
21
-0.2106389531
0
LINE
5
282
100
AcDbEntity
8
0
100
AcDbLine
62
9
6
CONTINUOUS
10
11.5455513864
20
-0.1892404682
11
5.9339626019
21
-0.1892404682
0
LINE
5
283
100
AcDbEntity
8
0
100
AcDbLine
62
9
6
CONTINUOUS
10
-3.8611803438
20
-0.1892404682
11
-9.4727691283
21
-0.1892404682
0
LINE
5
284
100
AcDbEntity
8
0
100
AcDbLine
62
9
6
CONTINUOUS
10
5.7344027527
20
-0.7344289023
11
5.9343951373
21
-0.7345880096
0
LINE
5
285
100
AcDbEntity
8
0
100
AcDbLine
62
7
6
CONTINUOUS
10
-3.8467960598
20
-0.4735317094
11
-3.8502910612
21
-0.4735093620
0
LINE
5
286
100
AcDbEntity
8
0
100
AcDbLine
62
7
6
CONTINUOUS
10
5.9195776566
20
-0.2001073741
11
5.9230733192
21
-0.2001297509
0
LINE
5
287
100
AcDbEntity
8
0
100
AcDbLine
62
7
6
CONTINUOUS
10
-4.5455566322
20
-0.4630001598
11
-4.5415055783
21
-0.4630329824
0
LINE
5
288
100
AcDbEntity
8
0
100
AcDbLine
62
7
6
CONTINUOUS
10
6.6183388902
20
-0.2106389531
11
6.6142879704
21
-0.2106061591
0
LINE
5
289
100
AcDbEntity
8
0
100
AcDbLine
62
9
6
CONTINUOUS
10
-4.5455566322
20
-0.4630001598
11
-4.5415277702
21
-0.4630305960
0
LINE
5
28A
100
AcDbEntity
8
0
100
AcDbLine
62
7
6
CONTINUOUS
10
-4.5415277702
20
-0.4630305960
11
-3.8467932816
21
-0.4735317707
0
LINE
5
28B
100
AcDbEntity
8
0
100
AcDbLine
62
7
6
CONTINUOUS
10
6.6143100280
20
-0.2106085169
11
5.9195759160
21
-0.2001073479
0
LINE
5
28C
100
AcDbEntity
8
0
100
AcDbLine
62
9
6
CONTINUOUS
10
6.6183388902
20
-0.2106389531
11
6.6143104883
21
-0.2105780623
0
LINE
5
28D
100
AcDbEntity
8
0
100
AcDbLine
62
9
6
CONTINUOUS
10
5.7226051093
20
-1.1230525752
11
5.7343985730
21
-1.1348460389
0
LINE
5
28E
100
AcDbEntity
8
0
100
AcDbLine
62
9
6
CONTINUOUS
10
5.7226051432
20
-0.6730259552
11
5.7339706408
21
-0.6843914528
0
LINE
5
28F
100
AcDbEntity
8
0
100
AcDbLine
62
9
6
CONTINUOUS
10
5.9230733192
20
-0.4735093620
11
5.9339626019
21
-0.4843986447
0
LINE
5
290
100
AcDbEntity
8
0
100
AcDbLine
62
7
6
CONTINUOUS
10
10.9363911290
20
-0.4368195565
11
10.8840259342
21
-0.4630001598
0
LINE
5
291
100
AcDbEntity
8
0
100
AcDbLine
62
7
6
CONTINUOUS
10
-3.8467936579
20
-0.2001073479
11
-4.5415277699
21
-0.2106085169
0
LINE
5
292
100
AcDbEntity
8
0
100
AcDbLine
62
9
6
CONTINUOUS
10
-4.5415282302
20
-0.2105780623
11
-4.5455566322
21
-0.2106389531
0
LINE
5
293
100
AcDbEntity
8
0
100
AcDbLine
62
9
6
CONTINUOUS
10
5.9343951373
20
0.0609488967
11
5.7344027527
21
0.0607897894
0
LINE
5
294
100
AcDbEntity
8
0
100
AcDbLine
62
9
6
CONTINUOUS
10
11.5455513864
20
0.0609488970
11
5.9343951373
21
0.0609488968
0
LINE
5
295
100
AcDbEntity
8
0
100
AcDbLine
62
9
6
CONTINUOUS
10
-3.8616128793
20
0.0609488968
11
-9.4727691283
21
0.0609488970
0
LINE
5
296
100
AcDbEntity
8
0
100
AcDbLine
62
7
6
CONTINUOUS
10
-3.1498418897
20
0.9493944238
11
5.2226241477
21
0.9493944238
0
LINE
5
297
100
AcDbEntity
8
0
100
AcDbLine
62
9
6
CONTINUOUS
10
-3.1616213227
20
0.9611738568
11
5.2344035808
21
0.9611738568
0
LINE
5
298
100
AcDbEntity
8
0
100
AcDbLine
62
9
6
CONTINUOUS
10
-3.1616213227
20
1.1617656755
11
5.2344035808
21
1.1617656755
0
LINE
5
299
100
AcDbEntity
8
0
100
AcDbLine
62
9
6
CONTINUOUS
10
-3.8616128793
20
0.0609488968
11
-3.6616204947
21
0.0607897894
0
LINE
5
29A
100
AcDbEntity
8
0
100
AcDbLine
62
7
6
CONTINUOUS
10
10.9590827134
20
-0.2481644846
11
10.8840259342
21
-0.2106389531
0
LINE
5
29B
100
AcDbEntity
8
0
100
AcDbLine
62
9
6
CONTINUOUS
10
11.8863911276
20
-0.4368195565
11
11.7955132832
21
-0.4822550181
0
LINE
5
29C
100
AcDbEntity
8
0
100
AcDbLine
62
9
6
CONTINUOUS
10
12.1363911290
20
-0.6867909998
11
12.0454752070
21
-0.7322454989
0
LINE
5
29D
100
AcDbEntity
8
0
100
AcDbLine
62
9
6
CONTINUOUS
10
11.8863911290
20
-0.2368195572
11
11.7955132832
21
-0.1913840948
0
LINE
5
29E
100
AcDbEntity
8
0
100
AcDbLine
62
9
6
CONTINUOUS
10
12.1363911290
20
0.0131518869
11
12.0454752070
21
0.0586063859
0
LINE
5
29F
100
AcDbEntity
8
0
100
AcDbLine
62
9
6
CONTINUOUS
10
11.5455513864
20
-0.7345880099
11
11.5455513864
21
-0.4843986447
0
LINE
5
2A0
100
AcDbEntity
8
0
100
AcDbLine
62
9
6
CONTINUOUS
10
11.5455513864
20
-0.1892404682
11
11.5455513864
21
0.0609488970
0
LINE
5
2A1
100
AcDbEntity
8
0
100
AcDbLine
62
9
6
CONTINUOUS
10
11.6363911290
20
21.9845687746
11
11.6363911290
21
21.9152959338
0
LINE
5
2A2
100
AcDbEntity
8
0
100
AcDbLine
62
9
6
CONTINUOUS
10
11.8863911290
20
-0.2481644846
11
11.8863911290
21
-0.2368195572
0
LINE
5
2A3
100
AcDbEntity
8
0
100
AcDbLine
62
7
6
CONTINUOUS
10
12.1363911290
20
-0.6867909998
11
12.1363911290
21
-13.4368195565
0
LINE
5
2A4
100
AcDbEntity
8
0
100
AcDbLine
62
7
6
CONTINUOUS
10
12.1363911290
20
0.0018450350
11
12.1363911290
21
21.4838826016
0
LINE
5
2A5
100
AcDbEntity
8
0
100
AcDbLine
62
7
6
CONTINUOUS
10
12.1179644219
20
-22.0345238459
11
12.1363911290
21
-13.4368195565
0
LINE
5
2A6
100
AcDbEntity
8
0
100
AcDbLine
62
9
6
CONTINUOUS
10
-9.4743402557
20
9.1631804435
11
11.5471225137
21
9.1631804435
0
LINE
5
2A7
100
AcDbEntity
8
0
100
AcDbLine
62
9
6
CONTINUOUS
10
11.5643073983
20
20.8738979347
11
-9.4915251402
21
20.8738979347
0
LINE
5
2A8
100
AcDbEntity
8
0
100
AcDbLine
62
9
6
CONTINUOUS
10
11.5724805866
20
21.7234083862
11
-9.4996983285
21
21.7234083862
0
LINE
5
2A9
100
AcDbEntity
8
0
100
AcDbLine
62
7
6
CONTINUOUS
10
-1.0136088710
20
21.8587901043
11
3.0863911290
21
21.8587901043
0
LINE
5
2AA
100
AcDbEntity
8
0
100
AcDbLine
62
7
6
CONTINUOUS
10
-9.5636088710
20
21.9845687746
11
-1.2136088710
21
21.9845687746
0
LINE
5
2AB
100
AcDbEntity
8
0
100
AcDbLine
62
7
6
CONTINUOUS
10
3.2863911290
20
21.9845687746
11
11.6363911290
21
21.9845687746
0
LINE
5
2AC
100
AcDbEntity
8
0
100
AcDbLine
62
7
6
CONTINUOUS
10
-27.6327795277
20
-22.3970474991
11
-25.0662354796
21
-22.5315543731
0
LINE
5
2AD
100
AcDbEntity
8
0
100
AcDbLine
62
9
6
CONTINUOUS
10
-27.6153377527
20
-21.8977327317
11
-25.0052078045
21
-22.0345238459
0
LINE
5
2AE
100
AcDbEntity
8
0
100
AcDbLine
62
9
6
CONTINUOUS
10
-29.0681007734
20
-9.8273195565
11
-29.5592843117
21
-9.8368195564
0
LINE
5
2AF
100
AcDbEntity
8
0
100
AcDbLine
62
9
6
CONTINUOUS
10
-23.9495424586
20
-0.6867909998
11
-29.1581121431
21
-0.7322454989
0
LINE
5
2B0
100
AcDbEntity
8
0
100
AcDbLine
62
7
6
CONTINUOUS
10
-23.9495424586
20
-0.4368195565
11
-29.4015659518
21
-0.4843986447
0
LINE
5
2B1
100
AcDbEntity
8
0
100
AcDbLine
62
7
6
CONTINUOUS
10
-22.6495424586
20
-0.2481644846
11
-29.4015659518
21
-0.1892404682
0
LINE
5
2B2
100
AcDbEntity
8
0
100
AcDbLine
62
7
6
CONTINUOUS
10
-23.9495424586
20
-0.4368195565
11
-23.9495424586
21
-13.4368195565
0
LINE
5
2B3
100
AcDbEntity
8
0
100
AcDbLine
62
7
6
CONTINUOUS
10
-23.9495424586
20
0.0131899631
11
-23.9495424586
21
21.4157524886
0
LINE
5
2B4
100
AcDbEntity
8
0
100
AcDbLine
62
9
6
CONTINUOUS
10
-22.6495424586
20
0.0018450350
11
-29.1581121431
21
0.0586063859
0
LINE
5
2B5
100
AcDbEntity
8
0
100
AcDbLine
62
7
6
CONTINUOUS
10
-22.6495424586
20
-0.2481644846
11
-22.6495424586
21
21.9845687746
0
LINE
5
2B6
100
AcDbEntity
8
0
100
AcDbLine
62
7
6
CONTINUOUS
10
-23.9495424586
20
-13.4368195565
11
-25.0662354796
21
-22.5315543731
0
LINE
5
2B7
100
AcDbEntity
8
0
100
AcDbLine
62
9
6
CONTINUOUS
10
-20.7242999401
20
12.8350341785
11
-20.7242999401
21
8.6913267086
0
LINE
5
2B8
100
AcDbEntity
8
0
100
AcDbLine
62
7
6
CONTINUOUS
10
-20.0974698644
20
12.8295639153
11
-20.0974698644
21
8.6967969718
0
LINE
5
2B9
100
AcDbEntity
8
0
100
AcDbLine
62
7
6
CONTINUOUS
10
-20.0974698644
20
8.6967969718
11
-22.6495424586
21
8.6745253717
0
LINE
5
2BA
100
AcDbEntity
8
0
100
AcDbLine
62
9
6
CONTINUOUS
10
-29.0681007734
20
9.1536804435
11
-29.5592843120
21
9.1631804435
0
LINE
5
2BB
100
AcDbEntity
8
0
100
AcDbLine
62
7
6
CONTINUOUS
10
-22.6495424586
20
12.8518355154
11
-20.0974698644
21
12.8295639153
0
LINE
5
2BC
100
AcDbEntity
8
0
100
AcDbLine
62
9
6
CONTINUOUS
10
-22.6495424586
20
21.4838826016
11
-23.9495424586
21
21.4157524886
0
LINE
5
2BD
100
AcDbEntity
8
0
100
AcDbLine
62
9
6
CONTINUOUS
10
-23.9495424586
20
21.4162098095
11
-27.6153377527
21
21.2240936188
0
LINE
5
2BE
100
AcDbEntity
8
0
100
AcDbLine
62
7
6
CONTINUOUS
10
-22.6495424586
20
21.9845687746
11
-27.6327795277
21
21.7234083862
0
ARC
5
2BF
100
AcDbEntity
8
0
100
AcDbCircle
62
7
6
CONTINUOUS
10
-29.3993843179
20
-0.7343891254
40
0.2500000000
100
AcDbArc
50
90.4999999475
51
180.0455809664
0
ARC
5
2C0
100
AcDbEntity
8
0
100
AcDbCircle
62
7
6
CONTINUOUS
10
470.3504575414
20
-0.3368195565
40
500.0000000000
100
AcDbArc
50
180.0455809120
51
181.0886853200
0
ARC
5
2C1
100
AcDbEntity
8
0
100
AcDbCircle
62
7
6
CONTINUOUS
10
60.4244692216
20
-8.1268195565
40
90.0000000000
100
AcDbArc
50
181.0886853200
51
188.5758796048
0
ARC
5
2C2
100
AcDbEntity
8
0
100
AcDbCircle
62
7
6
CONTINUOUS
10
-27.5804435714
20
-21.3984179643
40
1.0000000000
100
AcDbArc
50
188.5758796048
51
267.0000000000
0
ARC
5
2C3
100
AcDbEntity
8
0
100
AcDbCircle
62
7
6
CONTINUOUS
10
-29.3993842464
20
0.0607500119
40
0.2500000000
100
AcDbArc
50
179.9544189035
51
269.4999836683
0
ARC
5
2C4
100
AcDbEntity
8
0
100
AcDbCircle
62
7
6
CONTINUOUS
10
470.3504575414
20
-0.3368195565
40
500.0000000000
100
AcDbArc
50
178.9113146800
51
179.9544190880
0
ARC
5
2C5
100
AcDbEntity
8
0
100
AcDbCircle
62
7
6
CONTINUOUS
10
60.4244692216
20
7.4531804435
40
90.0000000000
100
AcDbArc
50
171.4241203952
51
178.9113146800
0
ARC
5
2C6
100
AcDbEntity
8
0
100
AcDbCircle
62
7
6
CONTINUOUS
10
-27.5804435714
20
20.7247788514
40
1.0000000000
100
AcDbArc
50
93.0000000000
51
171.4241203952
0
SPLINE
5
2C7
100
AcDbEntity
8
0
100
AcDbSpline
62
7
6
CONTINUOUS
70
0
71
3
72
17
73
13
74
11
42
0.0000001000
43
0.0000001000
44
0.0000000001
12
0.1726172704
22
0.0156857123
32
0.0000000000
13
0.1733284847
23
-0.0000000000
33
0.0000000000
40
0.0000000000
40
0.0000000000
40
0.0000000000
40
0.0000000000
40
0.0658932083
40
0.1422619237
40
0.2278502935
40
0.3216127585
40
0.4232716975
40
0.5312327141
40
0.6437122183
40
0.7603539652
40
0.8797993424
40
1.0000000000
40
1.0000000000
40
1.0000000000
40
1.0000000000
10
-1.2713438979
20
-22.5064261093
30
0.0000000000
10
-1.2675524626
20
-22.5060815820
30
0.0000000000
10
-1.2593583054
20
-22.5054314094
30
0.0000000000
10
-1.2462204800
20
-22.5045915505
30
0.0000000000
10
-1.2314655278
20
-22.5038260098
30
0.0000000000
10
-1.2152440239
20
-22.5031430642
30
0.0000000000
10
-1.1977255778
20
-22.5025509852
30
0.0000000000
10
-1.1791223028
20
-22.5020576107
30
0.0000000000
10
-1.1596507471
20
-22.5016683825
30
0.0000000000
10
-1.1395137516
20
-22.5013872318
30
0.0000000000
10
-1.1189294081
20
-22.5012174672
30
0.0000000000
10
-1.1050835497
20
-22.5011797338
30
0.0000000000
10
-1.0981388171
20
-22.5011797338
30
0.0000000000
11
-1.2713438979
21
-22.5064261093
31
0.0000000000
11
-1.2599598291
21
-22.5055062725
31
0.0000000000
11
-1.2467506496
21
-22.5046504658
31
0.0000000000
11
-1.2319361082
21
-22.5038734895
31
0.0000000000
11
-1.2156990437
21
-22.5031837920
31
0.0000000000
11
-1.1980888657
21
-22.5025839833
31
0.0000000000
11
-1.1793828145
21
-22.5020844679
31
0.0000000000
11
-1.1598908549
21
-22.5016924104
31
0.0000000000
11
-1.1396755110
21
-22.5014085168
31
0.0000000000
11
-1.1189729368
21
-22.5012368202
31
0.0000000000
11
-1.0981388171
21
-22.5011797338
31
0.0000000000
0
SPLINE
5
2C8
100
AcDbEntity
8
0
100
AcDbSpline
62
7
6
CONTINUOUS
70
0
71
3
72
17
73
13
74
11
42
0.0000001000
43
0.0000001000
44
0.0000000001
12
0.1733284847
22
0.0000000000
32
0.0000000000
13
0.1726172704
23
-0.0156857123
33
0.0000000000
40
0.0000000000
40
0.0000000000
40
0.0000000000
40
0.0000000000
40
0.1202006576
40
0.2396460348
40
0.3562877817
40
0.4687672859
40
0.5767283025
40
0.6783872415
40
0.7721497065
40
0.8577380763
40
0.9341067917
40
1.0000000000
40
1.0000000000
40
1.0000000000
40
1.0000000000
10
3.1709210752
20
-22.5011797338
30
0.0000000000
10
3.1778658078
20
-22.5011797338
30
0.0000000000
10
3.1917116662
20
-22.5012174672
30
0.0000000000
10
3.2122960096
20
-22.5013872318
30
0.0000000000
10
3.2324330052
20
-22.5016683825
30
0.0000000000
10
3.2519045608
20
-22.5020576107
30
0.0000000000
10
3.2705078358
20
-22.5025509852
30
0.0000000000
10
3.2880262820
20
-22.5031430642
30
0.0000000000
10
3.3042477859
20
-22.5038260098
30
0.0000000000
10
3.3190027381
20
-22.5045915505
30
0.0000000000
10
3.3321405635
20
-22.5054314094
30
0.0000000000
10
3.3403347207
20
-22.5060815820
30
0.0000000000
10
3.3441261560
20
-22.5064261093
30
0.0000000000
11
3.1709210752
21
-22.5011797338
31
0.0000000000
11
3.1917551948
21
-22.5012368202
31
0.0000000000
11
3.2124577691
21
-22.5014085168
31
0.0000000000
11
3.2326731130
21
-22.5016924104
31
0.0000000000
11
3.2521650725
21
-22.5020844679
31
0.0000000000
11
3.2708711238
21
-22.5025839833
31
0.0000000000
11
3.2884813017
21
-22.5031837920
31
0.0000000000
11
3.3047183663
21
-22.5038734895
31
0.0000000000
11
3.3195329077
21
-22.5046504658
31
0.0000000000
11
3.3327420871
21
-22.5055062725
31
0.0000000000
11
3.3441261560
21
-22.5064261093
31
0.0000000000
0
SPLINE
5
2C9
100
AcDbEntity
8
0
100
AcDbSpline
62
7
6
CONTINUOUS
70
0
71
3
72
23
73
19
74
17
42
0.0000001000
43
0.0000001000
44
0.0000000001
12
-0.0000237134
22
0.3106548039
32
0.0000000000
13
-0.3106854503
23
0.0046952346
33
0.0000000000
40
0.0000000000
40
0.0000000000
40
0.0000000000
40
0.0000000000
40
0.0646779465
40
0.1291321245
40
0.1933747557
40
0.2574136034
40
0.3212532596
40
0.3848964236
40
0.4483447611
40
0.5115999474
40
0.5746643301
40
0.6375413151
40
0.7002357652
40
0.7627541603
40
0.8251044741
40
0.8872962917
40
0.9493405948
40
1.0000000000
40
1.0000000000
40
1.0000000000
40
1.0000000000
10
-3.6498228851
20
-0.6730259552
30
0.0000000000
10
-3.6498233963
20
-0.6663284503
30
0.0000000000
10
-3.6504988784
20
-0.6529468466
30
0.0000000000
10
-3.6535178930
20
-0.6331190200
30
0.0000000000
10
-3.6584915897
20
-0.6137556566
30
0.0000000000
10
-3.6653523351
20
-0.5950464721
30
0.0000000000
10
-3.6740147000
20
-0.5771693955
30
0.0000000000
10
-3.6843764584
20
-0.5602927632
30
0.0000000000
10
-3.6963199628
20
-0.5445722823
30
0.0000000000
10
-3.7097138082
20
-0.5301497401
30
0.0000000000
10
-3.7244146983
20
-0.5171516606
30
0.0000000000
10
-3.7402694154
20
-0.5056884234
30
0.0000000000
10
-3.7571167815
20
-0.4958536920
30
0.0000000000
10
-3.7747896534
20
-0.4877241581
30
0.0000000000
10
-3.7931164747
20
-0.4813595325
30
0.0000000000
10
-3.8119239570
20
-0.4768027468
30
0.0000000000
10
-3.8298799235
20
-0.4742448217
30
0.0000000000
10
-3.8415496806
20
-0.4736110465
30
0.0000000000
10
-3.8467960606
20
-0.4735317605
30
0.0000000000
11
-3.6498228851
21
-0.6730259552
31
0.0000000000
11
-3.6508363516
21
-0.6529590162
31
0.0000000000
11
-3.6538502440
21
-0.6331641436
31
0.0000000000
11
-3.6588155067
21
-0.6138343926
31
0.0000000000
11
-3.6656647046
21
-0.5951566315
31
0.0000000000
11
-3.6743126012
21
-0.5773093372
31
0.0000000000
11
-3.6846571792
21
-0.5604604705
31
0.0000000000
11
-3.6965809909
21
-0.5447656387
31
0.0000000000
11
-3.7099528526
21
-0.5303664530
31
0.0000000000
11
-3.7246297131
21
-0.5173892816
31
0.0000000000
11
-3.7404585974
21
-0.5059443712
31
0.0000000000
11
-3.7572786060
21
-0.4961252661
31
0.0000000000
11
-3.7749228423
21
-0.4880085537
31
0.0000000000
11
-3.7932201853
21
-0.4816538824
31
0.0000000000
11
-3.8119970171
21
-0.4771041340
31
0.0000000000
11
-3.8310787249
21
-0.4743857862
31
0.0000000000
11
-3.8467960606
21
-0.4735317605
31
0.0000000000
0
SPLINE
5
2CA
100
AcDbEntity
8
0
100
AcDbSpline
62
7
6
CONTINUOUS
70
0
71
3
72
21
73
17
74
15
42
0.0000001000
43
0.0000001000
44
0.0000000001
12
0.0000000000
22
0.3924734050
32
0.0000000000
13
0.3924734050
23
0.0000000000
33
0.0000000000
40
0.0000000000
40
0.0000000000
40
0.0000000000
40
0.0000000000
40
0.0711967107
40
0.1427877147
40
0.2142531260
40
0.2854139324
40
0.3569863851
40
0.4286623395
40
0.4999736954
40
0.5712831011
40
0.6429605067
40
0.7145463342
40
0.7857225949
40
0.8571907506
40
0.9287895850
40
1.0000000000
40
1.0000000000
40
1.0000000000
40
1.0000000000
10
-10.0636088710
20
-0.6867909998
30
0.0000000000
10
-10.0636088710
20
-0.6774767280
30
0.0000000000
10
-10.0625626730
20
-0.6587798155
30
0.0000000000
10
-10.0578639324
20
-0.6310897118
30
0.0000000000
10
-10.0500908862
20
-0.6041022721
30
0.0000000000
10
-10.0393506810
20
-0.5781568117
30
0.0000000000
10
-10.0257612980
20
-0.5535507649
30
0.0000000000
10
-10.0094834112
20
-0.5306100640
30
0.0000000000
10
-9.9907603551
20
-0.5096645289
30
0.0000000000
10
-9.9698130502
20
-0.4909431800
30
0.0000000000
10
-9.9468697083
20
-0.4746661192
30
0.0000000000
10
-9.9222591921
20
-0.4610766155
30
0.0000000000
10
-9.8963091383
20
-0.4503366879
30
0.0000000000
10
-9.8693180169
20
-0.4425642125
30
0.0000000000
10
-9.8416246622
20
-0.4378657529
30
0.0000000000
10
-9.8229249342
20
-0.4368195565
30
0.0000000000
10
-9.8136088695
20
-0.4368195565
30
0.0000000000
11
-10.0636088710
21
-0.6867909998
31
0.0000000000
11
-10.0620471247
21
-0.6588918621
31
0.0000000000
11
-10.0573468817
21
-0.6311902217
31
0.0000000000
11
-10.0495836811
21
-0.6042377014
31
0.0000000000
11
-10.0389016215
21
-0.5784325230
31
0.0000000000
11
-10.0253213593
21
-0.5538430834
31
0.0000000000
11
-10.0090424432
21
-0.5309008787
31
0.0000000000
11
-9.9903901225
21
-0.5100344348
31
0.0000000000
11
-9.9695226481
21
-0.4913844156
31
0.0000000000
11
-9.9465787269
21
-0.4751069346
31
0.0000000000
11
-9.9219837158
21
-0.4615259025
31
0.0000000000
11
-9.8961721784
21
-0.4508433468
31
0.0000000000
11
-9.8692181959
21
-0.4430813313
31
0.0000000000
11
-9.8415133904
21
-0.4383813709
31
0.0000000000
11
-9.8136088695
21
-0.4368195565
31
0.0000000000
0
SPLINE
5
2CB
100
AcDbEntity
8
0
100
AcDbSpline
62
7
6
CONTINUOUS
70
0
71
3
72
23
73
19
74
17
42
0.0000001000
43
0.0000001000
44
0.0000000001
12
0.0000237133
22
0.3106537311
32
0.0000000000
13
0.3106843700
23
0.0046968782
33
0.0000000000
40
0.0000000000
40
0.0000000000
40
0.0000000000
40
0.0000000000
40
0.0646781699
40
0.1291325704
40
0.1933754235
40
0.2574144924
40
0.3212543690
40
0.3848977528
40
0.4483463095
40
0.5116017142
40
0.5746663147
40
0.6375435167
40
0.7002381834
40
0.7627567944
40
0.8251073235
40
0.8872993559
40
0.9493438733
40
1.0000000000
40
1.0000000000
40
1.0000000000
40
1.0000000000
10
5.7226051432
20
-0.6730259552
30
0.0000000000
10
5.7226056544
20
-0.6663284503
30
0.0000000000
10
5.7232811364
20
-0.6529468466
30
0.0000000000
10
5.7263001510
20
-0.6331190200
30
0.0000000000
10
5.7312738478
20
-0.6137556566
30
0.0000000000
10
5.7381345931
20
-0.5950464721
30
0.0000000000
10
5.7467969581
20
-0.5771693955
30
0.0000000000
10
5.7571587164
20
-0.5602927632
30
0.0000000000
10
5.7691022209
20
-0.5445722823
30
0.0000000000
10
5.7824960663
20
-0.5301497401
30
0.0000000000
10
5.7971969564
20
-0.5171516606
30
0.0000000000
10
5.8130516735
20
-0.5056884234
30
0.0000000000
10
5.8298990395
20
-0.4958536920
30
0.0000000000
10
5.8475719115
20
-0.4877241581
30
0.0000000000
10
5.8658987328
20
-0.4813595325
30
0.0000000000
10
5.8847062150
20
-0.4768027468
30
0.0000000000
10
5.9026618270
20
-0.4742448722
30
0.0000000000
10
5.9143312235
20
-0.4736110853
30
0.0000000000
10
5.9195772458
20
-0.4735317768
30
0.0000000000
11
5.7226051432
21
-0.6730259552
31
0.0000000000
11
5.7236186096
21
-0.6529590162
31
0.0000000000
11
5.7266325021
21
-0.6331641436
31
0.0000000000
11
5.7315977647
21
-0.6138343926
31
0.0000000000
11
5.7384469627
21
-0.5951566315
31
0.0000000000
11
5.7470948593
21
-0.5773093372
31
0.0000000000
11
5.7574394373
21
-0.5604604705
31
0.0000000000
11
5.7693632490
21
-0.5447656387
31
0.0000000000
11
5.7827351106
21
-0.5303664530
31
0.0000000000
11
5.7974119712
21
-0.5173892816
31
0.0000000000
11
5.8132408555
21
-0.5059443712
31
0.0000000000
11
5.8300608641
21
-0.4961252661
31
0.0000000000
11
5.8477051004
21
-0.4880085537
31
0.0000000000
11
5.8660024433
21
-0.4816538824
31
0.0000000000
11
5.8847792752
21
-0.4771041340
31
0.0000000000
11
5.9038609830
21
-0.4743857862
31
0.0000000000
11
5.9195772458
21
-0.4735317768
31
0.0000000000
0
SPLINE
5
2CC
100
AcDbEntity
8
0
100
AcDbSpline
62
7
6
CONTINUOUS
70
0
71
3
72
21
73
17
74
15
42
0.0000001000
43
0.0000001000
44
0.0000000001
12
0.3924734050
22
0.0000000000
32
0.0000000000
13
0.0000000000
23
-0.3924734050
33
0.0000000000
40
0.0000000000
40
0.0000000000
40
0.0000000000
40
0.0000000000
40
0.0712143132
40
0.1428215184
40
0.2143011328
40
0.2854739577
40
0.3570556854
40
0.4287372481
40
0.5000501903
40
0.5713580133
40
0.6430298220
40
0.7146063779
40
0.7857706105
40
0.8572245482
40
0.9288071775
40
1.0000000000
40
1.0000000000
40
1.0000000000
40
1.0000000000
10
11.8863911276
20
-0.4368195565
30
0.0000000000
10
11.8957077022
20
-0.4368195565
30
0.0000000000
10
11.9144090382
20
-0.4378659002
30
0.0000000000
10
11.9421054128
20
-0.4425652341
30
0.0000000000
10
11.9690984001
20
-0.4503390742
30
0.0000000000
10
11.9950485503
20
-0.4610800941
30
0.0000000000
10
12.0196582826
20
-0.4746700857
30
0.0000000000
10
12.0426015477
20
-0.4909480826
30
0.0000000000
10
12.0635486127
20
-0.5096705281
30
0.0000000000
10
12.0822705738
20
-0.5306163050
30
0.0000000000
10
12.0985475256
20
-0.5535570850
30
0.0000000000
10
12.1121364203
20
-0.5781639167
30
0.0000000000
10
12.1228755315
20
-0.6041092785
30
0.0000000000
10
12.1306472117
20
-0.6310948487
30
0.0000000000
10
12.1353450783
20
-0.6587819313
30
0.0000000000
10
12.1363911290
20
-0.6774772367
30
0.0000000000
10
12.1363911290
20
-0.6867909998
30
0.0000000000
11
11.8863911276
21
-0.4368195565
31
0.0000000000
11
11.9142971712
21
-0.4383815419
31
0.0000000000
11
11.9420051560
21
-0.4430824040
31
0.0000000000
11
11.9689632405
21
-0.4508464268
31
0.0000000000
11
11.9947731622
21
-0.4615293600
31
0.0000000000
11
12.0193663752
21
-0.4751103197
31
0.0000000000
11
12.0423111594
21
-0.4913894039
31
0.0000000000
11
12.0631790199
21
-0.5100410739
31
0.0000000000
11
12.0818296907
21
-0.5309071328
31
0.0000000000
11
12.0981070058
21
-0.5538484784
31
0.0000000000
11
12.1116873405
21
-0.5784397178
31
0.0000000000
11
12.1223690205
21
-0.6042465086
31
0.0000000000
11
12.1301302119
21
-0.6311949214
31
0.0000000000
11
12.1348295533
21
-0.6588933810
31
0.0000000000
11
12.1363911290
21
-0.6867909998
31
0.0000000000
0
SPLINE
5
2CD
100
AcDbEntity
8
0
100
AcDbSpline
62
7
6
CONTINUOUS
70
0
71
3
72
10
73
6
74
4
42
0.0000001000
43
0.0000001000
44
0.0000000001
12
0.0627158223
22
-0.0078302189
32
0.0000000000
13
0.0632027428
23
-0.0000000000
33
0.0000000000
40
0.0000000000
40
0.0000000000
40
0.0000000000
40
0.0000000000
40
0.3371715920
40
0.6698236531
40
1.0000000000
40
1.0000000000
40
1.0000000000
40
1.0000000000
10
-3.2128865510
20
-1.6191099384
30
0.0000000000
10
-3.2058378864
20
-1.6199899808
30
0.0000000000
10
-3.1917966559
20
-1.6214458837
30
0.0000000000
10
-3.1707638574
20
-1.6227463963
30
0.0000000000
10
-3.1567979066
20
-1.6230335367
30
0.0000000000
10
-3.1498418897
20
-1.6230335367
30
0.0000000000
11
-3.2128865510
21
-1.6191099384
31
0.0000000000
11
-3.1916899968
21
-1.6213075305
31
0.0000000000
11
-3.1707055362
21
-1.6226048213
31
0.0000000000
11
-3.1498418897
21
-1.6230335367
31
0.0000000000
0
SPLINE
5
2CE
100
AcDbEntity
8
0
100
AcDbSpline
62
7
6
CONTINUOUS
70
0
71
3
72
21
73
17
74
15
42
0.0000001000
43
0.0000001000
44
0.0000000001
12
-0.6541205404
22
0.0816684977
32
0.0000000000
13
-0.0816684977
23
0.6541205404
33
0.0000000000
40
0.0000000000
40
0.0000000000
40
0.0000000000
40
0.0000000000
40
0.0726067848
40
0.1446774765
40
0.2163246717
40
0.2875828558
40
0.3585629515
40
0.4293282611
40
0.5000000000
40
0.5706717389
40
0.6414370485
40
0.7124171442
40
0.7836753283
40
0.8553225235
40
0.9273932152
40
1.0000000000
40
1.0000000000
40
1.0000000000
40
1.0000000000
10
-3.2128865510
20
-1.6191099384
30
0.0000000000
10
-3.2287177474
20
-1.6171333760
30
0.0000000000
10
-3.2600955306
20
-1.6116809069
30
0.0000000000
10
-3.3060039502
20
-1.5990967678
30
0.0000000000
10
-3.3502390408
20
-1.5823220364
30
0.0000000000
10
-3.3924770243
20
-1.5615550997
30
0.0000000000
10
-3.4324110257
20
-1.5370123845
30
0.0000000000
10
-3.4697660094
20
-1.5089134189
30
0.0000000000
10
-3.5042787535
20
-1.4774894389
30
0.0000000000
10
-3.5357027334
20
-1.4429766949
30
0.0000000000
10
-3.5638016990
20
-1.4056217112
30
0.0000000000
10
-3.5883444143
20
-1.3656877098
30
0.0000000000
10
-3.6091113509
20
-1.3234497263
30
0.0000000000
10
-3.6258860823
20
-1.2792146357
30
0.0000000000
10
-3.6384702215
20
-1.2333062161
30
0.0000000000
10
-3.6439226905
20
-1.2019284329
30
0.0000000000
10
-3.6458992529
20
-1.1860972365
30
0.0000000000
11
-3.2128865510
21
-1.6191099384
31
0.0000000000
11
-3.2600419646
21
-1.6109142579
31
0.0000000000
11
-3.3058606221
21
-1.5983544252
31
0.0000000000
11
-3.3500213699
21
-1.5816069163
31
0.0000000000
11
-3.3921749884
21
-1.5608809396
31
0.0000000000
11
-3.4320381435
21
-1.5363812612
31
0.0000000000
11
-3.4693170779
21
-1.5083392074
31
0.0000000000
11
-3.5037641865
21
-1.4769748720
31
0.0000000000
11
-3.5351285219
21
-1.4425277634
31
0.0000000000
11
-3.5631705757
21
-1.4052488290
31
0.0000000000
11
-3.5876702541
21
-1.3653856739
31
0.0000000000
11
-3.6083962308
21
-1.3232320554
31
0.0000000000
11
-3.6251437397
21
-1.2790713076
31
0.0000000000
11
-3.6377035724
21
-1.2332526501
31
0.0000000000
11
-3.6458992529
21
-1.1860972365
31
0.0000000000
0
SPLINE
5
2CF
100
AcDbEntity
8
0
100
AcDbSpline
62
7
6
CONTINUOUS
70
0
71
3
72
21
73
17
74
15
42
0.0000001000
43
0.0000001000
44
0.0000000001
12
0.6541205404
22
0.0816684977
32
0.0000000000
13
0.0816684977
23
0.6541205404
33
0.0000000000
40
0.0000000000
40
0.0000000000
40
0.0000000000
40
0.0000000000
40
0.0726067848
40
0.1446774765
40
0.2163246717
40
0.2875828558
40
0.3585629515
40
0.4293282611
40
0.5000000000
40
0.5706717389
40
0.6414370485
40
0.7124171442
40
0.7836753283
40
0.8553225235
40
0.9273932152
40
1.0000000000
40
1.0000000000
40
1.0000000000
40
1.0000000000
10
5.2856688091
20
-1.6191099384
30
0.0000000000
10
5.3015000055
20
-1.6171333760
30
0.0000000000
10
5.3328777886
20
-1.6116809069
30
0.0000000000
10
5.3787862082
20
-1.5990967678
30
0.0000000000
10
5.4230212989
20
-1.5823220364
30
0.0000000000
10
5.4652592824
20
-1.5615550997
30
0.0000000000
10
5.5051932838
20
-1.5370123845
30
0.0000000000
10
5.5425482674
20
-1.5089134189
30
0.0000000000
10
5.5770610115
20
-1.4774894389
30
0.0000000000
10
5.6084849915
20
-1.4429766949
30
0.0000000000
10
5.6365839570
20
-1.4056217112
30
0.0000000000
10
5.6611266723
20
-1.3656877098
30
0.0000000000
10
5.6818936090
20
-1.3234497263
30
0.0000000000
10
5.6986683404
20
-1.2792146357
30
0.0000000000
10
5.7112524795
20
-1.2333062161
30
0.0000000000
10
5.7167049486
20
-1.2019284329
30
0.0000000000
10
5.7186815109
20
-1.1860972365
30
0.0000000000
11
5.2856688091
21
-1.6191099384
31
0.0000000000
11
5.3328242227
21
-1.6109142579
31
0.0000000000
11
5.3786428801
21
-1.5983544252
31
0.0000000000
11
5.4228036280
21
-1.5816069163
31
0.0000000000
11
5.4649572465
21
-1.5608809396
31
0.0000000000
11
5.5048204016
21
-1.5363812612
31
0.0000000000
11
5.5420993360
21
-1.5083392074
31
0.0000000000
11
5.5765464446
21
-1.4769748720
31
0.0000000000
11
5.6079107800
21
-1.4425277634
31
0.0000000000
11
5.6359528337
21
-1.4052488290
31
0.0000000000
11
5.6604525121
21
-1.3653856739
31
0.0000000000
11
5.6811784889
21
-1.3232320554
31
0.0000000000
11
5.6979259978
21
-1.2790713076
31
0.0000000000
11
5.7104858305
21
-1.2332526501
31
0.0000000000
11
5.7186815109
21
-1.1860972365
31
0.0000000000
0
SPLINE
5
2D0
100
AcDbEntity
8
0
100
AcDbSpline
62
7
6
CONTINUOUS
70
0
71
3
72
10
73
6
74
4
42
0.0000001000
43
0.0000001000
44
0.0000000001
12
-0.0627158223
22
-0.0078302189
32
0.0000000000
13
-0.0632027428
23
0.0000000000
33
0.0000000000
40
0.0000000000
40
0.0000000000
40
0.0000000000
40
0.0000000000
40
0.3371715920
40
0.6698236531
40
1.0000000000
40
1.0000000000
40
1.0000000000
40
1.0000000000
10
5.2856688091
20
-1.6191099384
30
0.0000000000
10
5.2786201445
20
-1.6199899808
30
0.0000000000
10
5.2645789140
20
-1.6214458837
30
0.0000000000
10
5.2435461155
20
-1.6227463963
30
0.0000000000
10
5.2295801647
20
-1.6230335367
30
0.0000000000
10
5.2226241477
20
-1.6230335367
30
0.0000000000
11
5.2856688091
21
-1.6191099384
31
0.0000000000
11
5.2644722549
21
-1.6213075305
31
0.0000000000
11
5.2434877942
21
-1.6226048213
31
0.0000000000
11
5.2226241477
21
-1.6230335367
31
0.0000000000
0
SPLINE
5
2D1
100
AcDbEntity
8
0
100
AcDbSpline
62
7
6
CONTINUOUS
70
0
71
3
72
24
73
20
74
18
42
0.0000001000
43
0.0000001000
44
0.0000000001
12
-0.0016782543
22
-0.7830554684
32
0.0000000000
13
-0.7830572668
23
0.0000000000
33
0.0000000000
40
0.0000000000
40
0.0000000000
40
0.0000000000
40
0.0000000000
40
0.0587062448
40
0.1174447231
40
0.1761710925
40
0.2349577819
40
0.2937131995
40
0.3525475408
40
0.4113338880
40
0.4702085367
40
0.5290230439
40
0.5879244001
40
0.6467608799
40
0.7056716357
40
0.7645208808
40
0.8234228981
40
0.8822751668
40
0.9411524566
40
1.0000000000
40
1.0000000000
40
1.0000000000
40
1.0000000000
10
12.1179644219
20
-22.0345238459
30
0.0000000000
10
12.1179315805
20
-22.0498472613
30
0.0000000000
10
12.1164400337
20
-22.0805185086
30
0.0000000000
10
12.1099453346
20
-22.1261051948
30
0.0000000000
10
12.0992467629
20
-22.1709177207
30
0.0000000000
10
12.0844402015
20
-22.2145491447
30
0.0000000000
10
12.0656462391
20
-22.2566481119
30
0.0000000000
10
12.0430386422
20
-22.2968280005
30
0.0000000000
10
12.0167977723
20
-22.3347725115
30
0.0000000000
10
11.9871701905
20
-22.3701293230
30
0.0000000000
10
11.9543885599
20
-22.4026254680
30
0.0000000000
10
11.9187619756
20
-22.4319592107
30
0.0000000000
10
11.8805683284
20
-22.4579063555
30
0.0000000000
10
11.8401646180
20
-22.4802289493
30
0.0000000000
10
11.7978673759
20
-22.4987562148
30
0.0000000000
10
11.7540642909
20
-22.5133225050
30
0.0000000000
10
11.7091027046
20
-22.5238151593
30
0.0000000000
10
11.6633871534
20
-22.5301439853
30
0.0000000000
10
11.6326401117
20
-22.5315543731
30
0.0000000000
10
11.6172797796
20
-22.5315543731
30
0.0000000000
11
12.1179644219
21
-22.0345238459
31
0.0000000000
11
12.1157312940
21
-22.0804399255
31
0.0000000000
11
12.1092448083
21
-22.1259758455
31
0.0000000000
11
12.0985666290
21
-22.1707050176
31
0.0000000000
11
12.0837744046
21
-22.2142969766
31
0.0000000000
11
12.0650198593
21
-22.2563098547
31
0.0000000000
11
12.0424292197
21
-22.2964616738
31
0.0000000000
11
12.0162467538
21
-22.3343235622
31
0.0000000000
11
11.9866372709
21
-22.3696604177
31
0.0000000000
11
11.9539299859
21
-22.4020843016
31
0.0000000000
11
11.9183239100
21
-22.4314024008
31
0.0000000000
11
11.8802145820
21
-22.4572933065
31
0.0000000000
11
11.8398371673
21
-22.4796022058
31
0.0000000000
11
11.7976268967
21
-22.4980920437
31
0.0000000000
11
11.7538598654
21
-22.5126467099
31
0.0000000000
11
11.7089811437
21
-22.5231204680
31
0.0000000000
11
11.6633123542
21
-22.5294424285
31
0.0000000000
11
11.6172797796
21
-22.5315543731
31
0.0000000000
0
SPLINE
5
2D2
100
AcDbEntity
8
0
100
AcDbSpline
62
7
6
CONTINUOUS
70
0
71
3
72
24
73
20
74
18
42
0.0000001000
43
0.0000001000
44
0.0000000001
12
-0.7830572668
22
0.0000000000
32
0.0000000000
13
-0.0016782543
23
0.7830554684
33
0.0000000000
40
0.0000000000
40
0.0000000000
40
0.0000000000
40
0.0000000000
40
0.0588475434
40
0.1177248332
40
0.1765771019
40
0.2354791192
40
0.2943283643
40
0.3532391201
40
0.4120755999
40
0.4709769561
40
0.5297914633
40
0.5886661120
40
0.6474524592
40
0.7062868005
40
0.7650422181
40
0.8238289075
40
0.8825552769
40
0.9412937552
40
1.0000000000
40
1.0000000000
40
1.0000000000
40
1.0000000000
10
-9.5444975215
20
-22.5315543731
30
0.0000000000
10
-9.5598578537
20
-22.5315543731
30
0.0000000000
10
-9.5906048954
20
-22.5301439853
30
0.0000000000
10
-9.6363204465
20
-22.5238151593
30
0.0000000000
10
-9.6812820328
20
-22.5133225050
30
0.0000000000
10
-9.7250851179
20
-22.4987562148
30
0.0000000000
10
-9.7673823599
20
-22.4802289493
30
0.0000000000
10
-9.8077860704
20
-22.4579063555
30
0.0000000000
10
-9.8459797176
20
-22.4319592107
30
0.0000000000
10
-9.8816063019
20
-22.4026254680
30
0.0000000000
10
-9.9143879324
20
-22.3701293230
30
0.0000000000
10
-9.9440155142
20
-22.3347725115
30
0.0000000000
10
-9.9702563842
20
-22.2968280005
30
0.0000000000
10
-9.9928639810
20
-22.2566481119
30
0.0000000000
10
-10.0116579434
20
-22.2145491447
30
0.0000000000
10
-10.0264645049
20
-22.1709177207
30
0.0000000000
10
-10.0371630766
20
-22.1261051948
30
0.0000000000
10
-10.0436577757
20
-22.0805185086
30
0.0000000000
10
-10.0451493225
20
-22.0498472613
30
0.0000000000
10
-10.0451821638
20
-22.0345238459
30
0.0000000000
11
-9.5444975215
21
-22.5315543731
31
0.0000000000
11
-9.5905300961
21
-22.5294424285
31
0.0000000000
11
-9.6361988857
21
-22.5231204680
31
0.0000000000
11
-9.6810776074
21
-22.5126467099
31
0.0000000000
11
-9.7248446386
21
-22.4980920437
31
0.0000000000
11
-9.7670549092
21
-22.4796022058
31
0.0000000000
11
-9.8074323239
21
-22.4572933065
31
0.0000000000
11
-9.8455416519
21
-22.4314024008
31
0.0000000000
11
-9.8811477278
21
-22.4020843016
31
0.0000000000
11
-9.9138550128
21
-22.3696604177
31
0.0000000000
11
-9.9434644957
21
-22.3343235622
31
0.0000000000
11
-9.9696469617
21
-22.2964616738
31
0.0000000000
11
-9.9922376012
21
-22.2563098547
31
0.0000000000
11
-10.0109921466
21
-22.2142969766
31
0.0000000000
11
-10.0257843709
21
-22.1707050176
31
0.0000000000
11
-10.0364625503
21
-22.1259758455
31
0.0000000000
11
-10.0429490359
21
-22.0804399255
31
0.0000000000
11
-10.0451821638
21
-22.0345238459
31
0.0000000000
0
SPLINE
5
2D3
100
AcDbEntity
8
0
100
AcDbSpline
62
7
6
CONTINUOUS
70
0
71
3
72
10
73
6
74
4
42
0.0000001000
43
0.0000001000
44
0.0000000001
12
-0.0078302189
22
0.0627158223
32
0.0000000000
13
-0.0000000000
23
0.0632027428
33
0.0000000000
40
0.0000000000
40
0.0000000000
40
0.0000000000
40
0.0000000000
40
0.3371715920
40
0.6698236531
40
1.0000000000
40
1.0000000000
40
1.0000000000
40
1.0000000000
10
-3.6458992529
20
-1.1860972365
30
0.0000000000
10
-3.6467792953
20
-1.1790485719
30
0.0000000000
10
-3.6482351983
20
-1.1650073414
30
0.0000000000
10
-3.6495357108
20
-1.1439745429
30
0.0000000000
10
-3.6498228512
20
-1.1300085921
30
0.0000000000
10
-3.6498228512
20
-1.1230525752
30
0.0000000000
11
-3.6458992529
21
-1.1860972365
31
0.0000000000
11
-3.6480968450
21
-1.1649006823
31
0.0000000000
11
-3.6493941358
21
-1.1439162216
31
0.0000000000
11
-3.6498228512
21
-1.1230525752
31
0.0000000000
0
SPLINE
5
2D4
100
AcDbEntity
8
0
100
AcDbSpline
62
7
6
CONTINUOUS
70
0
71
3
72
10
73
6
74
4
42
0.0000001000
43
0.0000001000
44
0.0000000001
12
0.0078302189
22
0.0627158223
32
0.0000000000
13
0.0000000000
23
0.0632027428
33
0.0000000000
40
0.0000000000
40
0.0000000000
40
0.0000000000
40
0.0000000000
40
0.3371715920
40
0.6698236531
40
1.0000000000
40
1.0000000000
40
1.0000000000
40
1.0000000000
10
5.7186815109
20
-1.1860972365
30
0.0000000000
10
5.7195615534
20
-1.1790485719
30
0.0000000000
10
5.7210174563
20
-1.1650073414
30
0.0000000000
10
5.7223179688
20
-1.1439745429
30
0.0000000000
10
5.7226051093
20
-1.1300085921
30
0.0000000000
10
5.7226051093
20
-1.1230525752
30
0.0000000000
11
5.7186815109
21
-1.1860972365
31
0.0000000000
11
5.7208791030
21
-1.1649006823
31
0.0000000000
11
5.7221763939
21
-1.1439162216
31
0.0000000000
11
5.7226051093
21
-1.1230525752
31
0.0000000000
0
SPLINE
5
2D5
100
AcDbEntity
8
0
100
AcDbSpline
62
7
6
CONTINUOUS
70
0
71
3
72
10
73
6
74
4
42
0.0000001000
43
0.0000001000
44
0.0000000001
12
0.0000000678
22
-0.0008878840
32
0.0000000000
13
-0.0000000000
23
-0.0008878840
33
0.0000000000
40
0.0000000000
40
0.0000000000
40
0.0000000000
40
0.0000000000
40
0.3333222599
40
0.6666549596
40
1.0000000000
40
1.0000000000
40
1.0000000000
40
1.0000000000
10
-3.6498228851
20
-0.6730259552
30
0.0000000000
10
-3.6498228776
20
-0.6731246057
30
0.0000000000
10
-3.6498228650
20
-0.6733219098
30
0.0000000000
10
-3.6498228537
20
-0.6736178711
30
0.0000000000
10
-3.6498228512
20
-0.6738151819
30
0.0000000000
10
-3.6498228512
20
-0.6739138391
30
0.0000000000
11
-3.6498228851
21
-0.6730259552
31
0.0000000000
11
-3.6498228663
21
-0.6733219067
31
0.0000000000
11
-3.6498228550
21
-0.6736178674
31
0.0000000000
11
-3.6498228512
21
-0.6739138391
31
0.0000000000
0
SPLINE
5
2D6
100
AcDbEntity
8
0
100
AcDbSpline
62
7
6
CONTINUOUS
70
0
71
3
72
10
73
6
74
4
42
0.0000001000
43
0.0000001000
44
0.0000000001
12
-0.0000000678
22
-0.0008878840
32
0.0000000000
13
0.0000000000
23
-0.0008878840
33
0.0000000000
40
0.0000000000
40
0.0000000000
40
0.0000000000
40
0.0000000000
40
0.3333222606
40
0.6666549610
40
1.0000000000
40
1.0000000000
40
1.0000000000
40
1.0000000000
10
5.7226051432
20
-0.6730259552
30
0.0000000000
10
5.7226051356
20
-0.6731246057
30
0.0000000000
10
5.7226051231
20
-0.6733219098
30
0.0000000000
10
5.7226051118
20
-0.6736178711
30
0.0000000000
10
5.7226051093
20
-0.6738151819
30
0.0000000000
10
5.7226051093
20
-0.6739138391
30
0.0000000000
11
5.7226051432
21
-0.6730259552
31
0.0000000000
11
5.7226051243
21
-0.6733219067
31
0.0000000000
11
5.7226051130
21
-0.6736178674
31
0.0000000000
11
5.7226051093
21
-0.6739138391
31
0.0000000000
0
SPLINE
5
2D7
100
AcDbEntity
8
0
100
AcDbSpline
62
9
6
CONTINUOUS
70
0
71
3
72
20
73
16
74
14
42
0.0000001000
43
0.0000001000
44
0.0000000001
12
0.1967271167
22
-0.0359965190
32
0.0000000000
13
0.1999932694
23
-0.0000027867
33
0.0000000000
40
0.0000000000
40
0.0000000000
40
0.0000000000
40
0.0000000000
40
0.0082587083
40
0.0308177289
40
0.0673528524
40
0.1173373942
40
0.1800505995
40
0.2545881218
40
0.3398750839
40
0.4346815861
40
0.5376404450
40
0.6472669113
40
0.7619800817
40
0.8801256973
40
1.0000000000
40
1.0000000000
40
1.0000000000
40
1.0000000000
10
5.7343985730
20
-1.1348460389
30
0.0000000000
10
5.7349401437
20
-1.1349451338
30
0.0000000000
10
5.7370142932
20
-1.1348007586
30
0.0000000000
10
5.7414861422
20
-1.1349893826
30
0.0000000000
10
5.7487676420
20
-1.1349377537
30
0.0000000000
10
5.7587118668
20
-1.1350079675
30
0.0000000000
10
5.7711953571
20
-1.1350260472
30
0.0000000000
10
5.7860301190
20
-1.1350604439
30
0.0000000000
10
5.8030051088
20
-1.1350855952
30
0.0000000000
10
5.8218745569
20
-1.1351095144
30
0.0000000000
10
5.8423666639
20
-1.1351291041
30
0.0000000000
10
5.8641858187
20
-1.1351449006
30
0.0000000000
10
5.8870173992
20
-1.1351564103
30
0.0000000000
10
5.9105321457
20
-1.1351635326
30
0.0000000000
10
5.9263996064
20
-1.1351652659
30
0.0000000000
10
5.9343909577
20
-1.1351653773
30
0.0000000000
11
5.7343985730
21
-1.1348460389
31
0.0000000000
11
5.7360498154
21
-1.1348843196
31
0.0000000000
11
5.7405613100
21
-1.1349220481
31
0.0000000000
11
5.7478679970
21
-1.1349586806
31
0.0000000000
11
5.7578645076
21
-1.1349936887
31
0.0000000000
11
5.7704066835
21
-1.1350265675
31
0.0000000000
11
5.7853136555
21
-1.1350568430
31
0.0000000000
11
5.8023704521
21
-1.1350840785
31
0.0000000000
11
5.8213310995
21
-1.1351078812
31
0.0000000000
11
5.8419221686
21
-1.1351279080
31
0.0000000000
11
5.8638467182
21
-1.1351438699
31
0.0000000000
11
5.8867885772
21
-1.1351555369
31
0.0000000000
11
5.9104169041
21
-1.1351627406
31
0.0000000000
11
5.9343909577
21
-1.1351653773
31
0.0000000000
0
SPLINE
5
2D8
100
AcDbEntity
8
0
100
AcDbSpline
62
9
6
CONTINUOUS
70
0
71
3
72
21
73
17
74
15
42
0.0000001000
43
0.0000001000
44
0.0000000001
12
-0.0000597609
22
0.3924368229
32
0.0000000000
13
-0.3924368229
23
0.0000597746
33
0.0000000000
40
0.0000000000
40
0.0000000000
40
0.0000000000
40
0.0000000000
40
0.0714297709
40
0.1428605252
40
0.2142919796
40
0.2857238157
40
0.3571556959
40
0.4285872806
40
0.5000182445
40
0.5714482939
40
0.6428771806
40
0.7143047146
40
0.7857307738
40
0.8571553099
40
0.9285783510
40
1.0000000000
40
1.0000000000
40
1.0000000000
40
1.0000000000
10
12.0454752070
20
-0.7322454989
30
0.0000000000
10
12.0454737841
20
-0.7229016081
30
0.0000000000
10
12.0444211102
20
-0.7041969107
30
0.0000000000
10
12.0397125720
20
-0.6765063517
30
0.0000000000
10
12.0319336945
20
-0.6495129700
30
0.0000000000
10
12.0211822839
20
-0.6235607717
30
0.0000000000
10
12.0075935180
20
-0.5989748149
30
0.0000000000
10
11.9913382473
20
-0.5760645499
30
0.0000000000
10
11.9726208494
20
-0.5551179388
30
0.0000000000
10
11.9516766500
20
-0.5363983686
30
0.0000000000
10
11.9287690023
20
-0.5201411968
30
0.0000000000
10
11.9041858340
20
-0.5065508304
30
0.0000000000
10
11.8782365609
20
-0.4957981460
30
0.0000000000
10
11.8512462061
20
-0.4880183425
30
0.0000000000
10
11.8235587431
20
-0.4833092419
30
0.0000000000
10
11.8048561116
20
-0.4822564412
30
0.0000000000
10
11.7955132832
20
-0.4822550181
30
0.0000000000
11
12.0454752070
21
-0.7322454989
31
0.0000000000
11
12.0438995411
21
-0.7042581455
31
0.0000000000
11
12.0392008785
21
-0.6766226813
31
0.0000000000
11
12.0314382962
21
-0.6496865712
31
0.0000000000
11
12.0207093943
21
-0.6237884868
31
0.0000000000
11
12.0071490691
21
-0.5992540485
31
0.0000000000
11
11.9909278166
21
-0.5763917313
31
0.0000000000
11
11.9722495891
21
-0.5554889865
31
0.0000000000
11
11.9513492308
21
-0.5368086272
31
0.0000000000
11
11.9284895251
21
-0.5205855241
31
0.0000000000
11
11.9039578904
21
-0.5070236526
31
0.0000000000
11
11.8780627666
21
-0.4962935279
31
0.0000000000
11
11.8511297369
21
-0.4885300611
31
0.0000000000
11
11.8234974341
21
-0.4838308634
31
0.0000000000
11
11.7955132832
21
-0.4822550181
31
0.0000000000
0
SPLINE
5
2D9
100
AcDbEntity
8
0
100
AcDbSpline
62
9
6
CONTINUOUS
70
0
71
3
72
20
73
16
74
14
42
0.0000001000
43
0.0000001000
44
0.0000000001
12
-0.3139478230
22
-0.0000261730
32
0.0000000000
13
-0.0000262876
23
-0.3139478230
33
0.0000000000
40
0.0000000000
40
0.0000000000
40
0.0000000000
40
0.0000000000
40
0.0769213091
40
0.1538433949
40
0.2307662024
40
0.3076896313
40
0.3846135422
40
0.4615377652
40
0.5384621092
40
0.6153863714
40
0.6923103489
40
0.7692338507
40
0.8461567081
40
0.9230787874
40
1.0000000000
40
1.0000000000
40
1.0000000000
40
1.0000000000
10
5.9339626019
20
-0.4843986447
30
0.0000000000
10
5.9259128427
20
-0.4843993158
30
0.0000000000
10
5.9097963891
20
-0.4853750591
30
0.0000000000
10
5.8859877788
20
-0.4897404813
30
0.0000000000
10
5.8628750429
20
-0.4969440609
30
0.0000000000
10
5.8407997950
20
-0.5068807590
30
0.0000000000
10
5.8200826700
20
-0.5194056863
30
0.0000000000
10
5.8010260672
20
-0.5343362139
30
0.0000000000
10
5.7839077534
20
-0.5514546463
30
0.0000000000
10
5.7689773471
20
-0.5705113577
30
0.0000000000
10
5.7564525357
20
-0.5912285736
30
0.0000000000
10
5.7465159394
20
-0.6133038877
30
0.0000000000
10
5.7393124377
20
-0.6364166592
30
0.0000000000
10
5.7349470623
20
-0.6602252708
30
0.0000000000
10
5.7339713238
20
-0.6763417127
30
0.0000000000
10
5.7339706498
20
-0.6843914618
30
0.0000000000
11
5.9339626019
21
-0.4843986447
31
0.0000000000
11
5.9098575006
21
-0.4858586803
31
0.0000000000
11
5.8861038672
21
-0.4902134807
31
0.0000000000
11
5.8630480483
21
-0.4973995465
31
0.0000000000
11
5.8410262155
21
-0.5073120959
31
0.0000000000
11
5.8203594639
21
-0.5198065924
31
0.0000000000
11
5.8013491297
21
-0.5347008526
31
0.0000000000
11
5.7842723965
21
-0.5517777027
31
0.0000000000
11
5.7693782546
21
-0.5707881453
31
0.0000000000
11
5.7568838707
21
-0.5914549893
31
0.0000000000
11
5.7469714197
21
-0.6134768915
31
0.0000000000
11
5.7397854299
21
-0.6365327505
31
0.0000000000
11
5.7354306755
21
-0.6602863903
31
0.0000000000
11
5.7339706498
21
-0.6843914618
31
0.0000000000
0
SPLINE
5
2DA
100
AcDbEntity
8
0
100
AcDbSpline
62
9
6
CONTINUOUS
70
0
71
3
72
21
73
17
74
15
42
0.0000001000
43
0.0000001000
44
0.0000000001
12
0.0000003718
22
0.2501907000
32
0.0000000000
13
-0.0491421243
23
0.2453170153
33
0.0000000000
40
0.0000000000
40
0.0000000000
40
0.0000000000
40
0.0000000000
40
0.1113213989
40
0.2212669153
40
0.3284677329
40
0.4315894173
40
0.5293481218
40
0.6205269182
40
0.7039906809
40
0.7787003914
40
0.8437259963
40
0.8982579868
40
0.9416175499
40
0.9732649425
40
0.9928064216
40
1.0000000000
40
1.0000000000
40
1.0000000000
40
1.0000000000
10
5.9343951373
20
-0.7345880097
30
0.0000000000
10
5.9343951511
20
-0.7253041501
30
0.0000000000
10
5.9343933831
20
-0.7068511753
30
0.0000000000
10
5.9343853939
20
-0.6794579854
30
0.0000000000
10
5.9343721589
20
-0.6527486292
30
0.0000000000
10
5.9343538785
20
-0.6270556159
30
0.0000000000
10
5.9343307019
20
-0.6026988028
30
0.0000000000
10
5.9343032381
20
-0.5799813752
30
0.0000000000
10
5.9342708577
20
-0.5591862683
30
0.0000000000
10
5.9342372129
20
-0.5405719523
30
0.0000000000
10
5.9341929129
20
-0.5243714273
30
0.0000000000
10
5.9341677418
20
-0.5107826390
30
0.0000000000
10
5.9340822418
20
-0.4999850344
30
0.0000000000
10
5.9341378925
20
-0.4920873804
30
0.0000000000
10
5.9339159693
20
-0.4872418493
30
0.0000000000
10
5.9340804419
20
-0.4849868804
30
0.0000000000
10
5.9339626060
20
-0.4843986447
30
0.0000000000
11
5.9343951373
21
-0.7345880097
31
0.0000000000
11
5.9343924574
21
-0.7067364311
31
0.0000000000
11
5.9343843807
21
-0.6792290866
31
0.0000000000
11
5.9343710062
21
-0.6524084423
31
0.0000000000
11
5.9343525005
21
-0.6266083625
31
0.0000000000
11
5.9343290940
21
-0.6021500550
31
0.0000000000
11
5.9343010781
21
-0.5793379853
31
0.0000000000
11
5.9342688013
21
-0.5584561530
31
0.0000000000
11
5.9342326656
21
-0.5397645132
31
0.0000000000
11
5.9341931206
21
-0.5234957596
31
0.0000000000
11
5.9341506587
21
-0.5098524288
31
0.0000000000
11
5.9341058083
21
-0.4990043621
31
0.0000000000
11
5.9340591277
21
-0.4910866164
31
0.0000000000
11
5.9340111979
21
-0.4861977550
31
0.0000000000
11
5.9339626060
21
-0.4843986447
31
0.0000000000
0
SPLINE
5
2DB
100
AcDbEntity
8
0
100
AcDbSpline
62
9
6
CONTINUOUS
70
0
71
3
72
21
73
17
74
15
42
0.0000001000
43
0.0000001000
44
0.0000000001
12
-0.3924368229
22
-0.0000597746
32
0.0000000000
13
-0.0000597609
23
-0.3924368229
33
0.0000000000
40
0.0000000000
40
0.0000000000
40
0.0000000000
40
0.0000000000
40
0.0714216495
40
0.1428446909
40
0.2142692274
40
0.2856952868
40
0.3571228210
40
0.4285517077
40
0.4999817571
40
0.5714127210
40
0.6428443055
40
0.7142761856
40
0.7857080214
40
0.8571394755
40
0.9285702295
40
1.0000000000
40
1.0000000000
40
1.0000000000
40
1.0000000000
10
-9.7227310252
20
-0.4822550181
30
0.0000000000
10
-9.7320738536
20
-0.4822564412
30
0.0000000000
10
-9.7507764852
20
-0.4833092420
30
0.0000000000
10
-9.7784639483
20
-0.4880183425
30
0.0000000000
10
-9.8054543032
20
-0.4957981461
30
0.0000000000
10
-9.8314035765
20
-0.5065508307
30
0.0000000000
10
-9.8559867448
20
-0.5201411971
30
0.0000000000
10
-9.8788943924
20
-0.5363983690
30
0.0000000000
10
-9.8998385918
20
-0.5551179393
30
0.0000000000
10
-9.9185559896
20
-0.5760645504
30
0.0000000000
10
-9.9348112602
20
-0.5989748154
30
0.0000000000
10
-9.9484000260
20
-0.6235607722
30
0.0000000000
10
-9.9591514365
20
-0.6495129704
30
0.0000000000
10
-9.9669303140
20
-0.6765063519
30
0.0000000000
10
-9.9716388522
20
-0.7041969108
30
0.0000000000
10
-9.9726915260
20
-0.7229016081
30
0.0000000000
10
-9.9726929489
20
-0.7322454989
30
0.0000000000
11
-9.7227310252
21
-0.4822550181
31
0.0000000000
11
-9.7507151762
21
-0.4838308634
31
0.0000000000
11
-9.7783474792
21
-0.4885300612
31
0.0000000000
11
-9.8052805090
21
-0.4962935281
31
0.0000000000
11
-9.8311756328
21
-0.5070236529
31
0.0000000000
11
-9.8557072675
21
-0.5205855245
31
0.0000000000
11
-9.8785669733
21
-0.5368086276
31
0.0000000000
11
-9.8994673315
21
-0.5554889870
31
0.0000000000
11
-9.9181455589
21
-0.5763917318
31
0.0000000000
11
-9.9343668113
21
-0.5992540490
31
0.0000000000
11
-9.9479271365
21
-0.6237884872
31
0.0000000000
11
-9.9586560382
21
-0.6496865716
31
0.0000000000
11
-9.9664186205
21
-0.6766226816
31
0.0000000000
11
-9.9711172831
21
-0.7042581456
31
0.0000000000
11
-9.9726929489
21
-0.7322454989
31
0.0000000000
0
SPLINE
5
2DC
100
AcDbEntity
8
0
100
AcDbSpline
62
9
6
CONTINUOUS
70
0
71
3
72
22
73
18
74
16
42
0.0000001000
43
0.0000001000
44
0.0000000001
12
-0.0490278991
22
-0.2453398875
32
0.0000000000
13
0.0000003023
23
-0.2501907179
33
0.0000000000
40
0.0000000000
40
0.0000000000
40
0.0000000000
40
0.0000000000
40
0.0063281820
40
0.0234232381
40
0.0511013195
40
0.0890622708
40
0.1368943666
40
0.1940791664
40
0.2599961904
40
0.3339306270
40
0.4150805206
40
0.5025658989
40
0.5954374363
40
0.6926883285
40
0.7932638638
40
0.8960722356
40
1.0000000000
40
1.0000000000
40
1.0000000000
40
1.0000000000
10
-3.8611803438
20
-0.4843986447
30
0.0000000000
10
-3.8612837630
20
-0.4849161632
30
0.0000000000
10
-3.8611457141
20
-0.4868915422
30
0.0000000000
10
-3.8613385095
20
-0.4911329930
30
0.0000000000
10
-3.8612948228
20
-0.4980436380
30
0.0000000000
10
-3.8613717118
20
-0.5075019708
30
0.0000000000
10
-3.8613971941
20
-0.5194276079
30
0.0000000000
10
-3.8614391947
20
-0.5336822926
30
0.0000000000
10
-3.8614721737
20
-0.5501146796
30
0.0000000000
10
-3.8615042138
20
-0.5685454158
30
0.0000000000
10
-3.8615321538
20
-0.5887749802
30
0.0000000000
10
-3.8615565339
20
-0.6105838195
30
0.0000000000
10
-3.8615768096
20
-0.6337354448
30
0.0000000000
10
-3.8615928262
20
-0.6579787501
30
0.0000000000
10
-3.8616043831
20
-0.6830507598
30
0.0000000000
10
-3.8616113558
20
-0.7086796015
30
0.0000000000
10
-3.8616128898
20
-0.7259207557
30
0.0000000000
10
-3.8616128793
20
-0.7345880097
30
0.0000000000
11
-3.8611803438
21
-0.4843986447
31
0.0000000000
11
-3.8612256969
21
-0.4859812474
31
0.0000000000
11
-3.8612705095
21
-0.4902580369
31
0.0000000000
11
-3.8613143237
21
-0.4971826974
31
0.0000000000
11
-3.8613566351
21
-0.5066800808
31
0.0000000000
11
-3.8613969975
21
-0.5186471591
31
0.0000000000
11
-3.8614349681
21
-0.5329542148
31
0.0000000000
11
-3.8614701359
21
-0.5494460049
31
0.0000000000
11
-3.8615021176
21
-0.5679436870
31
0.0000000000
11
-3.8615305668
21
-0.5882466172
31
0.0000000000
11
-3.8615551749
21
-0.6101346330
31
0.0000000000
11
-3.8615756759
21
-0.6333702206
31
0.0000000000
11
-3.8615918468
21
-0.6577014857
31
0.0000000000
11
-3.8616035138
21
-0.6828645484
31
0.0000000000
11
-3.8616105497
21
-0.7085862478
31
0.0000000000
11
-3.8616128793
21
-0.7345880097
31
0.0000000000
0
SPLINE
5
2DD
100
AcDbEntity
8
0
100
AcDbSpline
62
9
6
CONTINUOUS
70
0
71
3
72
25
73
21
74
19
42
0.0000001000
43
0.0000001000
44
0.0000000001
12
-0.0000041312
22
-0.7851276568
32
0.0000000000
13
0.7851276565
23
0.0000195160
33
0.0000000000
40
0.0000000000
40
0.0000000000
40
0.0000000000
40
0.0000000000
40
0.0550877623
40
0.1105533662
40
0.1662414835
40
0.2219960428
40
0.2776734014
40
0.3332537418
40
0.3888247503
40
0.4444381125
40
0.5000741939
40
0.5557080590
40
0.6113148322
40
0.6668754869
40
0.7224429283
40
0.7781049406
40
0.8338402734
40
0.8895046340
40
0.9449425913
40
1.0000000000
40
1.0000000000
40
1.0000000000
40
1.0000000000
10
-3.6616163150
20
-1.1348460389
30
0.0000000000
10
-3.6616163908
20
-1.1492630142
30
0.0000000000
10
-3.6603639177
20
-1.1782114287
30
0.0000000000
10
-3.6547132741
20
-1.2214027697
30
0.0000000000
10
-3.6452802850
20
-1.2641113362
30
0.0000000000
10
-3.6321331728
20
-1.3058839210
30
0.0000000000
10
-3.6153957542
20
-1.3463213651
30
0.0000000000
10
-3.5952151980
20
-1.3851007735
30
0.0000000000
10
-3.5717391197
20
-1.4219586818
30
0.0000000000
10
-3.5451287426
20
-1.4566401474
30
0.0000000000
10
-3.5155819937
20
-1.4888790998
30
0.0000000000
10
-3.4833352240
20
-1.5184147520
30
0.0000000000
10
-3.4486498025
20
-1.5450116947
30
0.0000000000
10
-3.4117919009
20
-1.5684731742
30
0.0000000000
10
-3.3730162930
20
-1.5886390465
30
0.0000000000
10
-3.3325865545
20
-1.6053624464
30
0.0000000000
10
-3.2908260545
20
-1.6184968760
30
0.0000000000
10
-3.2481341963
20
-1.6279194159
30
0.0000000000
10
-3.2049635850
20
-1.6335628829
30
0.0000000000
10
-3.1760303541
20
-1.6348133279
30
0.0000000000
10
-3.1616213227
20
-1.6348129697
30
0.0000000000
11
-3.6616163150
21
-1.1348460389
31
0.0000000000
11
-3.6597461474
21
-1.1780565127
31
0.0000000000
11
-3.6540973947
21
-1.2212361756
31
0.0000000000
11
-3.6446675874
21
-1.2639294608
31
0.0000000000
11
-3.6315259829
21
-1.3056847047
31
0.0000000000
11
-3.6148079023
21
-1.3460753604
31
0.0000000000
11
-3.5946635572
21
-1.3847851905
31
0.0000000000
11
-3.5712245406
21
-1.4215849010
31
0.0000000000
11
-3.5446448683
21
-1.4562263502
31
0.0000000000
11
-3.5151313094
21
-1.4884290960
31
0.0000000000
11
-3.4829207722
21
-1.5179315751
31
0.0000000000
11
-3.4482754923
21
-1.5444977534
31
0.0000000000
11
-3.4114760438
21
-1.5679220465
31
0.0000000000
11
-3.3727700098
21
-1.5880517445
31
0.0000000000
11
-3.3323866685
21
-1.6047559892
31
0.0000000000
11
-3.2906432843
21
-1.6178849909
31
0.0000000000
11
-3.2479667900
21
-1.6273043345
31
0.0000000000
11
-3.2048080761
21
-1.6329458834
31
0.0000000000
11
-3.1616213227
21
-1.6348129697
31
0.0000000000
0
SPLINE
5
2DE
100
AcDbEntity
8
0
100
AcDbSpline
62
9
6
CONTINUOUS
70
0
71
3
72
25
73
21
74
19
42
0.0000001000
43
0.0000001000
44
0.0000000001
12
0.0000269693
22
-1.0993876072
32
0.0000000000
13
1.0993876074
23
-0.0000114981
33
0.0000000000
40
0.0000000000
40
0.0000000000
40
0.0000000000
40
0.0000000000
40
0.0550758604
40
0.1105538750
40
0.1662542588
40
0.2220205597
40
0.2777087334
40
0.3332986164
40
0.3888776696
40
0.4444974233
40
0.5001381129
40
0.5557746744
40
0.6113820347
40
0.6669412083
40
0.7225052336
40
0.7781620482
40
0.8338905563
40
0.8895466924
40
0.9449753469
40
1.0000000000
40
1.0000000000
40
1.0000000000
40
1.0000000000
10
-3.8616086996
20
-1.1351653773
30
0.0000000000
10
-3.8616082045
20
-1.1553486167
30
0.0000000000
10
-3.8598550314
20
-1.1958842057
30
0.0000000000
10
-3.8519455948
20
-1.2563686504
30
0.0000000000
10
-3.8387397960
20
-1.3161862640
30
0.0000000000
10
-3.8203337781
20
-1.3746934248
30
0.0000000000
10
-3.7969010604
20
-1.4313310068
30
0.0000000000
10
-3.7686475947
20
-1.4856466399
30
0.0000000000
10
-3.7357800705
20
-1.5372712473
30
0.0000000000
10
-3.6985241798
20
-1.5858476980
30
0.0000000000
10
-3.6571570268
20
-1.6310032583
30
0.0000000000
10
-3.6120095761
20
-1.6723725363
30
0.0000000000
10
-3.5634478565
20
-1.7096257028
30
0.0000000000
10
-3.5118446213
20
-1.7424871117
30
0.0000000000
10
-3.4575566198
20
-1.7707324544
30
0.0000000000
10
-3.4009529266
20
-1.7941559865
30
0.0000000000
10
-3.3424863817
20
-1.8125525789
30
0.0000000000
10
-3.2827162337
20
-1.8257498876
30
0.0000000000
10
-3.2222845435
20
-1.8336531940
30
0.0000000000
10
-3.1817857966
20
-1.8354045775
30
0.0000000000
10
-3.1616213227
20
-1.8354047884
30
0.0000000000
11
-3.8616086996
21
-1.1351653773
31
0.0000000000
11
-3.8589911860
21
-1.1956584927
31
0.0000000000
11
-3.8510833539
21
-1.2561355210
31
0.0000000000
11
-3.8378818660
21
-1.3159318971
31
0.0000000000
11
-3.8194834947
21
-1.3744149411
31
0.0000000000
11
-3.7960777179
21
-1.4309871220
31
0.0000000000
11
-3.7678748332
21
-1.4852053804
31
0.0000000000
11
-3.7350590797
21
-1.5367485026
31
0.0000000000
11
-3.6978460677
21
-1.5852689007
31
0.0000000000
11
-3.6565252771
21
-1.6303737221
31
0.0000000000
11
-3.6114284396
21
-1.6716965088
31
0.0000000000
11
-3.5629228873
21
-1.7089064884
31
0.0000000000
11
-3.5114015057
21
-1.7417156940
31
0.0000000000
11
-3.4572109557
21
-1.7699102444
31
0.0000000000
11
-3.4006722900
21
-1.7933068480
31
0.0000000000
11
-3.3422298090
21
-1.8116957042
31
0.0000000000
11
-3.2824813351
21
-1.8248885200
31
0.0000000000
11
-3.2220582081
21
-1.8327900301
31
0.0000000000
11
-3.1616213227
21
-1.8354047884
31
0.0000000000
0
SPLINE
5
2DF
100
AcDbEntity
8
0
100
AcDbSpline
62
9
6
CONTINUOUS
70
0
71
3
72
25
73
21
74
19
42
0.0000001000
43
0.0000001000
44
0.0000000001
12
0.7851276566
22
-0.0000194479
32
0.0000000000
13
-0.0000041994
23
0.7851276568
33
0.0000000000
40
0.0000000000
40
0.0000000000
40
0.0000000000
40
0.0000000000
40
0.0550627584
40
0.1105046254
40
0.1661708840
40
0.2219060105
40
0.2775668216
40
0.3331336532
40
0.3886945897
40
0.4443018057
40
0.4999358293
40
0.5555717511
40
0.6111846696
40
0.6667553942
40
0.7223363401
40
0.7780148970
40
0.8337696630
40
0.8894558842
40
0.9449175811
40
1.0000000000
40
1.0000000000
40
1.0000000000
40
1.0000000000
10
5.2344035808
20
-1.6348129697
30
0.0000000000
10
5.2488140123
20
-1.6348133267
30
0.0000000000
10
5.2777496709
20
-1.6335626568
30
0.0000000000
10
5.3209231235
20
-1.6279183134
30
0.0000000000
10
5.3636162677
20
-1.6184947715
30
0.0000000000
10
5.4053766615
20
-1.6053595778
30
0.0000000000
10
5.4458056371
20
-1.5886357232
30
0.0000000000
10
5.4845805890
20
-1.5684694608
30
0.0000000000
10
5.5214381742
20
-1.5450074271
30
0.0000000000
10
5.5561233770
20
-1.5184098172
30
0.0000000000
10
5.5883697706
20
-1.4888735825
30
0.0000000000
10
5.6179159366
20
-1.4566342545
30
0.0000000000
10
5.6445256460
20
-1.4219525708
30
0.0000000000
10
5.6680011692
20
-1.3850943477
30
0.0000000000
10
5.6881813345
20
-1.3463142854
30
0.0000000000
10
5.7049182982
20
-1.3058760801
30
0.0000000000
10
5.7180646468
20
-1.2641033893
30
0.0000000000
10
5.7274966342
20
-1.2213961075
30
0.0000000000
10
5.7331464018
20
-1.1782076048
30
0.0000000000
10
5.7343986501
20
-1.1492616158
30
0.0000000000
10
5.7343985730
20
-1.1348460389
30
0.0000000000
11
5.2344035808
21
-1.6348129697
31
0.0000000000
11
5.2775945226
21
-1.6329455204
31
0.0000000000
11
5.3207562155
21
-1.6273030782
31
0.0000000000
11
5.3634340137
21
-1.6178827287
31
0.0000000000
11
5.4051770154
21
-1.6047530503
31
0.0000000000
11
5.4455592134
21
-1.5880485091
31
0.0000000000
11
5.4842645238
21
-1.5679184574
31
0.0000000000
11
5.5210638172
21
-1.5444935087
31
0.0000000000
11
5.5557089702
21
-1.5179265936
31
0.0000000000
11
5.5879191381
21
-1.4884235270
31
0.0000000000
11
5.6174321090
21
-1.4562204123
31
0.0000000000
11
5.6440110441
21
-1.4215788366
31
0.0000000000
11
5.6674494044
21
-1.3847789723
31
0.0000000000
11
5.6875933945
21
-1.3460684216
31
0.0000000000
11
5.7043111784
21
-1.3056766249
31
0.0000000000
11
5.7174521069
21
-1.2639209980
31
0.0000000000
11
5.7268809087
21
-1.2212290153
31
0.0000000000
11
5.7325287683
21
-1.1780523293
31
0.0000000000
11
5.7343985730
21
-1.1348460389
31
0.0000000000
0
SPLINE
5
2E0
100
AcDbEntity
8
0
100
AcDbSpline
62
9
6
CONTINUOUS
70
0
71
3
72
25
73
21
74
19
42
0.0000001000
43
0.0000001000
44
0.0000000001
12
1.0993876074
22
0.0000116657
32
0.0000000000
13
0.0000268015
23
1.0993876072
33
0.0000000000
40
0.0000000000
40
0.0000000000
40
0.0000000000
40
0.0000000000
40
0.0550286111
40
0.1104610873
40
0.1661190354
40
0.2218472576
40
0.2775027954
40
0.3330661309
40
0.3886254979
40
0.4442332082
40
0.4998698521
40
0.5555104580
40
0.6111298609
40
0.6667087189
40
0.7222992878
40
0.7779887359
40
0.8337553236
40
0.8894538968
40
0.9449280910
40
1.0000000000
40
1.0000000000
40
1.0000000000
40
1.0000000000
10
5.2344035808
20
-1.8354047884
30
0.0000000000
10
5.2545695052
20
-1.8354045745
30
0.0000000000
10
5.2950711080
20
-1.8336529482
30
0.0000000000
10
5.3555062234
20
-1.8257486131
30
0.0000000000
10
5.4152781139
20
-1.8125500721
30
0.0000000000
10
5.4737444709
20
-1.7941525803
30
0.0000000000
10
5.5303470784
20
-1.7707285962
30
0.0000000000
10
5.5846341596
20
-1.7424828986
30
0.0000000000
10
5.6362369662
20
-1.7096209156
30
0.0000000000
10
5.6847984178
20
-1.6723670206
30
0.0000000000
10
5.7299454481
20
-1.6309970942
30
0.0000000000
10
5.7713119518
20
-1.5858411146
30
0.0000000000
10
5.8085671133
20
-1.5372643971
30
0.0000000000
10
5.8414340625
20
-1.4856393635
30
0.0000000000
10
5.8696871723
20
-1.4313228131
30
0.0000000000
10
5.8931194382
20
-1.3746841476
30
0.0000000000
10
5.9115245577
20
-1.3161767995
30
0.0000000000
10
5.9247291255
20
-1.2563609273
30
0.0000000000
10
5.9326375349
20
-1.1958799046
30
0.0000000000
10
5.9343904657
20
-1.1553471687
30
0.0000000000
10
5.9343909577
20
-1.1351653773
30
0.0000000000
11
5.2344035808
21
-1.8354047884
31
0.0000000000
11
5.2948448053
21
-1.8327896539
31
0.0000000000
11
5.3552720249
21
-1.8248870358
31
0.0000000000
11
5.4150222642
21
-1.8116929772
31
0.0000000000
11
5.4734641720
21
-1.7933033464
31
0.0000000000
11
5.5300012222
21
-1.7699065096
31
0.0000000000
11
5.5841907589
21
-1.7417116549
31
0.0000000000
11
5.6357119366
21
-1.7089017332
31
0.0000000000
11
5.6842173436
21
-1.6716909320
31
0.0000000000
11
5.7293137336
21
-1.6303675229
31
0.0000000000
11
5.7706339008
21
-1.5852622552
31
0.0000000000
11
5.8078460910
21
-1.5367417127
31
0.0000000000
11
5.8406611275
21
-1.4851983886
31
0.0000000000
11
5.8688637063
21
-1.4309791210
31
0.0000000000
11
5.8922692498
21
-1.3744053275
31
0.0000000000
11
5.9106668479
21
-1.3159217096
31
0.0000000000
11
5.9238670945
21
-1.2561270980
31
0.0000000000
11
5.9317738196
21
-1.1956541608
31
0.0000000000
11
5.9343909577
21
-1.1351653773
31
0.0000000000
0
SPLINE
5
2E1
100
AcDbEntity
8
0
100
AcDbSpline
62
9
6
CONTINUOUS
70
0
71
3
72
10
73
6
74
4
42
0.0000001000
43
0.0000001000
44
0.0000000001
12
0.0001262690
22
-9.1022317153
32
0.0000000000
13
0.0030162464
23
-9.1022312164
33
0.0000000000
40
0.0000000000
40
0.0000000000
40
0.0000000000
40
0.0000000000
40
0.3333526954
40
0.6666869347
40
1.0000000000
40
1.0000000000
40
1.0000000000
40
1.0000000000
10
11.5455513864
20
-0.7345880099
30
0.0000000000
10
11.5455654171
20
-1.7460058354
30
0.0000000000
10
11.5457005022
20
-3.7687854894
30
0.0000000000
10
11.5462242015
20
-6.8028626880
30
0.0000000000
10
11.5467873956
20
-8.8255220272
30
0.0000000000
10
11.5471225137
20
-9.8368195565
30
0.0000000000
11
11.5455513864
21
-0.7345880099
31
0.0000000000
11
11.5457540235
21
-3.7688414800
31
0.0000000000
11
11.5462777338
21
-6.8029269197
31
0.0000000000
11
11.5471225137
21
-9.8368195565
31
0.0000000000
0
SPLINE
5
2E2
100
AcDbEntity
8
0
100
AcDbSpline
62
9
6
CONTINUOUS
70
0
71
3
72
10
73
6
74
4
42
0.0000001000
43
0.0000001000
44
0.0000000001
12
0.0001256779
22
-9.0950742265
32
0.0000000000
13
0.0030168915
23
-9.0950737270
33
0.0000000000
40
0.0000000000
40
0.0000000000
40
0.0000000000
40
0.0000000000
40
0.3333523841
40
0.6666867789
40
1.0000000000
40
1.0000000000
40
1.0000000000
40
1.0000000000
10
12.0454752070
20
-0.7322454989
30
0.0000000000
10
12.0454891720
20
-1.7428670580
30
0.0000000000
10
12.0456241714
20
-3.7640556383
30
0.0000000000
10
12.0461478795
20
-6.7957470073
30
0.0000000000
10
12.0467111714
20
-8.8168167832
30
0.0000000000
10
12.0470463613
20
-9.8273195565
30
0.0000000000
11
12.0454752070
21
-0.7322454989
31
0.0000000000
11
12.0456777154
21
-3.7641101697
31
0.0000000000
11
12.0462014348
21
-6.7958111877
31
0.0000000000
11
12.0470463613
21
-9.8273195565
31
0.0000000000
0
SPLINE
5
2E3
100
AcDbEntity
8
0
100
AcDbSpline
62
9
6
CONTINUOUS
70
0
71
3
72
24
73
20
74
18
42
0.0000001000
43
0.0000001000
44
0.0000000001
12
-0.4823495780
22
-0.1314594124
32
0.0000000000
13
-0.4999426892
23
-0.0000035234
33
0.0000000000
40
0.0000000000
40
0.0000000000
40
0.0000000000
40
0.0000000000
40
0.0057809180
40
0.0198464118
40
0.0420872873
40
0.0723187966
40
0.1102891675
40
0.1556824090
40
0.2081194927
40
0.2671630525
40
0.3323201678
40
0.4030479660
40
0.4787560596
40
0.5588129529
40
0.6425498020
40
0.7292691319
40
0.8182477266
40
0.9087399380
40
1.0000000000
40
1.0000000000
40
1.0000000000
40
1.0000000000
10
12.0454752070
20
-0.7322454989
30
0.0000000000
10
12.0445457326
20
-0.7324988175
30
0.0000000000
10
12.0411824259
20
-0.7323927188
30
0.0000000000
10
12.0342212065
20
-0.7328039123
30
0.0000000000
10
12.0231079865
20
-0.7328831517
30
0.0000000000
10
12.0080484350
20
-0.7331308908
30
0.0000000000
10
11.9891148071
20
-0.7333047924
30
0.0000000000
10
11.9664861863
20
-0.7334966932
30
0.0000000000
10
11.9403436231
20
-0.7336700494
30
0.0000000000
10
11.9109079818
20
-0.7338348244
30
0.0000000000
10
11.8784239246
20
-0.7339856145
30
0.0000000000
10
11.8431627420
20
-0.7341222524
30
0.0000000000
10
11.8054184581
20
-0.7342431457
30
0.0000000000
10
11.7655061960
20
-0.7343473417
30
0.0000000000
10
11.7237588905
20
-0.7344339014
30
0.0000000000
10
11.6805247699
20
-0.7345020831
30
0.0000000000
10
11.6361648581
20
-0.7345512996
30
0.0000000000
10
11.5910482271
20
-0.7345811268
30
0.0000000000
10
11.5607596533
20
-0.7345879030
30
0.0000000000
10
11.5455513864
20
-0.7345880101
30
0.0000000000
11
12.0454752070
21
-0.7322454989
31
0.0000000000
11
12.0425932346
21
-0.7324624617
31
0.0000000000
11
12.0355645761
21
-0.7326772899
31
0.0000000000
11
12.0244474140
21
-0.7328882314
31
0.0000000000
11
12.0093347860
21
-0.7330935009
31
0.0000000000
11
11.9903528081
21
-0.7332913917
31
0.0000000000
11
11.9676595747
21
-0.7334802514
31
0.0000000000
11
11.9414446441
21
-0.7336585009
31
0.0000000000
11
11.9119267156
21
-0.7338246508
31
0.0000000000
11
11.8793522499
21
-0.7339773121
31
0.0000000000
11
11.8439926731
21
-0.7341152104
31
0.0000000000
11
11.8061431618
21
-0.7342371922
31
0.0000000000
11
11.7661194412
21
-0.7343422378
31
0.0000000000
11
11.7242559065
21
-0.7344294681
31
0.0000000000
11
11.6809012659
21
-0.7344981544
31
0.0000000000
11
11.6364170956
21
-0.7345477236
31
0.0000000000
11
11.5911761861
21
-0.7345777581
31
0.0000000000
11
11.5455513864
21
-0.7345880101
31
0.0000000000
0
SPLINE
5
2E4
100
AcDbEntity
8
0
100
AcDbSpline
62
9
6
CONTINUOUS
70
0
71
3
72
23
73
19
74
17
42
0.0000001000
43
0.0000001000
44
0.0000000001
12
-0.3383277213
22
-0.3684515610
32
0.0000000000
13
-0.5002221230
23
-0.0001658668
33
0.0000000000
40
0.0000000000
40
0.0000000000
40
0.0000000000
40
0.0000000000
40
0.0066564874
40
0.0225106005
40
0.0475272778
40
0.0814931198
40
0.1240964970
40
0.1749402368
40
0.2335478510
40
0.2993689012
40
0.3717845595
40
0.4501136209
40
0.5336190190
40
0.6215148257
40
0.7129736900
40
0.8071346535
40
0.9031112767
40
1.0000000000
40
1.0000000000
40
1.0000000000
40
1.0000000000
10
12.0470463613
20
-9.8273195565
30
0.0000000000
10
12.0462956699
20
-9.8281370875
30
0.0000000000
10
12.0420463912
20
-9.8282371924
30
0.0000000000
10
12.0346185711
20
-9.8295171720
30
0.0000000000
10
12.0219257213
20
-9.8301022625
30
0.0000000000
10
12.0051096393
20
-9.8310460432
30
0.0000000000
10
11.9838415301
20
-9.8318194384
30
0.0000000000
10
11.9585130454
20
-9.8326118811
30
0.0000000000
10
11.9292926095
20
-9.8333401595
30
0.0000000000
10
11.8964790187
20
-9.8340209879
30
0.0000000000
10
11.8603734789
20
-9.8346390119
30
0.0000000000
10
11.8213184197
20
-9.8351904624
30
0.0000000000
10
11.7796808852
20
-9.8356690321
30
0.0000000000
10
11.7358532200
20
-9.8360702256
30
0.0000000000
10
11.6902481129
20
-9.8363900450
30
0.0000000000
10
11.6432950795
20
-9.8366253965
30
0.0000000000
10
11.5954363105
20
-9.8367739924
30
0.0000000000
10
11.5632778080
20
-9.8368141996
30
0.0000000000
10
11.5471225137
20
-9.8368195564
30
0.0000000000
11
12.0470463613
21
-9.8273195565
31
0.0000000000
11
12.0438465447
21
-9.8282405478
31
0.0000000000
11
12.0359686165
21
-9.8291528654
31
0.0000000000
11
12.0234867705
21
-9.8300479169
31
0.0000000000
11
12.0065185599
21
-9.8309172730
31
0.0000000000
11
11.9852237899
21
-9.8317527460
31
0.0000000000
11
11.9598030134
21
-9.8325464676
31
0.0000000000
11
11.9304956413
21
-9.8332909625
31
0.0000000000
11
11.8975776883
21
-9.8339792191
31
0.0000000000
11
11.8613591735
21
-9.8346047554
31
0.0000000000
11
11.8221812001
21
-9.8351616803
31
0.0000000000
11
11.7804127437
21
-9.8356447487
31
0.0000000000
11
11.7364471764
21
-9.8360494109
31
0.0000000000
11
11.6906985630
21
-9.8363718560
31
0.0000000000
11
11.6435977605
21
-9.8366090472
31
0.0000000000
11
11.5955883611
21
-9.8367587507
31
0.0000000000
11
11.5471225137
21
-9.8368195564
31
0.0000000000
0
SPLINE
5
2E5
100
AcDbEntity
8
0
100
AcDbSpline
62
9
6
CONTINUOUS
70
0
71
3
72
14
73
10
74
8
42
0.0000001000
43
0.0000001000
44
0.0000000001
12
0.0038629499
22
-11.7107319604
32
0.0000000000
13
0.0306549602
23
-11.7106924750
33
0.0000000000
40
0.0000000000
40
0.0000000000
40
0.0000000000
40
0.0000000000
40
0.1434088633
40
0.2867169135
40
0.4298742344
40
0.5728309521
40
0.7155372777
40
0.8579434943
40
1.0000000000
40
1.0000000000
40
1.0000000000
40
1.0000000000
10
11.5471225137
20
-9.8368195565
30
0.0000000000
10
11.5473071741
20
-10.3966271429
30
0.0000000000
10
11.5478577075
20
-11.5158487325
30
0.0000000000
10
11.5492275716
20
-13.1938956046
30
0.0000000000
10
11.5511408262
20
-14.8701769605
30
0.0000000000
10
11.5535968046
20
-16.5441087272
30
0.0000000000
10
11.5565946506
20
-18.2151076136
30
0.0000000000
10
11.5601333185
20
-19.8825913853
30
0.0000000000
10
11.5628558194
20
-20.9930103635
30
0.0000000000
10
11.5643073983
20
-21.5475370476
30
0.0000000000
11
11.5471225137
21
-9.8368195565
31
0.0000000000
11
11.5479487491
21
-11.5162422038
31
0.0000000000
11
11.5493190112
21
-13.1944838992
31
0.0000000000
11
11.5512328227
21
-14.8709599112
31
0.0000000000
11
11.5536895172
21
-16.5450860027
31
0.0000000000
11
11.5566882390
21
-18.2162789306
31
0.0000000000
11
11.5602279436
21
-19.8839562975
31
0.0000000000
11
11.5643073983
21
-21.5475370476
31
0.0000000000
0
SPLINE
5
2E6
100
AcDbEntity
8
0
100
AcDbSpline
62
9
6
CONTINUOUS
70
0
71
3
72
14
73
10
74
8
42
0.0000001000
43
0.0000001000
44
0.0000000001
12
0.0038629500
22
-11.6456724996
32
0.0000000000
13
0.0306549594
23
-11.6456327936
33
0.0000000000
40
0.0000000000
40
0.0000000000
40
0.0000000000
40
0.0000000000
40
0.1434087580
40
0.2867168399
40
0.4298741931
40
0.5728309438
40
0.7155373031
40
0.8579435543
40
1.0000000000
40
1.0000000000
40
1.0000000000
40
1.0000000000
10
12.0470463613
20
-9.8273195565
30
0.0000000000
10
12.0472310216
20
-10.3840166993
30
0.0000000000
10
12.0477815547
20
-11.4970201202
30
0.0000000000
10
12.0491514184
20
-13.1657443676
30
0.0000000000
10
12.0510646732
20
-14.8327134383
30
0.0000000000
10
12.0535206521
20
-16.4973459729
30
0.0000000000
10
12.0565184988
20
-18.1590619198
30
0.0000000000
10
12.0600571669
20
-19.8172819075
30
0.0000000000
10
12.0627796677
20
-20.9215317717
30
0.0000000000
10
12.0642312459
20
-21.4729775060
30
0.0000000000
11
12.0470463613
21
-9.8273195565
31
0.0000000000
11
12.0478725959
21
-11.4974108726
31
0.0000000000
11
12.0492428579
21
-13.1663293907
31
0.0000000000
11
12.0511566698
21
-14.8334920353
31
0.0000000000
11
12.0536133647
21
-16.4983178145
31
0.0000000000
11
12.0566120873
21
-18.1602267244
31
0.0000000000
11
12.0601517929
21
-19.8186396015
31
0.0000000000
11
12.0642312459
21
-21.4729775060
31
0.0000000000
0
SPLINE
5
2E7
100
AcDbEntity
8
0
100
AcDbSpline
62
9
6
CONTINUOUS
70
0
71
3
72
23
73
19
74
17
42
0.0000001000
43
0.0000001000
44
0.0000000001
12
-0.0591165911
22
-0.5108996411
32
0.0000000000
13
-0.5143067785
23
-0.0013237128
33
0.0000000000
40
0.0000000000
40
0.0000000000
40
0.0000000000
40
0.0000000000
40
0.0153646563
40
0.0360541360
40
0.0638932360
40
0.0994447812
40
0.1427618271
40
0.1936475247
40
0.2517515074
40
0.3166124948
40
0.3876810841
40
0.4643344769
40
0.5458877042
40
0.6316032928
40
0.7207002588
40
0.8123628439
40
0.9057491855
40
1.0000000000
40
1.0000000000
40
1.0000000000
40
1.0000000000
10
12.0642312459
20
-21.4729775060
30
0.0000000000
10
12.0639284772
20
-21.4755941051
30
0.0000000000
10
12.0609308632
20
-21.4814028957
30
0.0000000000
10
12.0523640427
20
-21.4883953663
30
0.0000000000
10
12.0396306211
20
-21.4952597341
30
0.0000000000
10
12.0225551230
20
-21.5019038929
30
0.0000000000
10
12.0012456229
20
-21.5083359406
30
0.0000000000
10
11.9758530365
20
-21.5144630320
30
0.0000000000
10
11.9466046378
20
-21.5202270667
30
0.0000000000
10
11.9137662049
20
-21.5255648754
30
0.0000000000
10
11.8776431715
20
-21.5304228108
30
0.0000000000
10
11.8385731301
20
-21.5347519149
30
0.0000000000
10
11.7969226244
20
-21.5385094554
30
0.0000000000
10
11.7530829923
20
-21.5416585826
30
0.0000000000
10
11.7074665427
20
-21.5441686364
30
0.0000000000
10
11.6605024652
20
-21.5460152801
30
0.0000000000
10
11.6126329260
20
-21.5471806684
30
0.0000000000
10
11.5804653425
20
-21.5474954570
30
0.0000000000
10
11.5643073983
20
-21.5475370440
30
0.0000000000
11
12.0642312459
21
-21.4729775060
31
0.0000000000
11
12.0610400503
21
-21.4802066559
31
0.0000000000
11
12.0531695064
21
-21.4873677055
31
0.0000000000
11
12.0406937569
21
-21.4943931956
31
0.0000000000
11
12.0237303264
21
-21.5012169445
31
0.0000000000
11
12.0024390147
21
-21.5077746706
31
0.0000000000
11
11.9770203915
21
-21.5140045985
31
0.0000000000
11
11.9477139066
21
-21.5198480407
31
0.0000000000
11
11.9147956347
21
-21.5252499505
31
0.0000000000
11
11.8785756742
21
-21.5301594406
31
0.0000000000
11
11.8393952264
21
-21.5345302621
31
0.0000000000
11
11.7976233811
21
-21.5383212410
31
0.0000000000
11
11.7536536398
21
-21.5414966653
31
0.0000000000
11
11.7079002085
21
-21.5440266215
31
0.0000000000
11
11.6607940964
21
-21.5458872769
31
0.0000000000
11
11.6127790550
21
-21.5470611037
31
0.0000000000
11
11.5643073983
21
-21.5475370440
31
0.0000000000
0
SPLINE
5
2E8
100
AcDbEntity
8
0
100
AcDbSpline
62
9
6
CONTINUOUS
70
0
71
3
72
24
73
20
74
18
42
0.0000001000
43
0.0000001000
44
0.0000000001
12
0.0011180227
22
-0.8496073353
32
0.0000000000
13
0.1395303237
23
-0.8380722898
33
0.0000000000
40
0.0000000000
40
0.0000000000
40
0.0000000000
40
0.0000000000
40
0.0930367319
40
0.1843324435
40
0.2732981693
40
0.3593559178
40
0.4419491486
40
0.5205425301
40
0.5946267879
40
0.6637218374
40
0.7273804317
40
0.7851898402
40
0.8367759437
40
0.8818045865
40
0.9199843201
40
0.9510683651
40
0.9748569697
40
0.9911988350
40
1.0000000000
40
1.0000000000
40
1.0000000000
40
1.0000000000
10
11.5643073983
20
-21.5475370476
30
0.0000000000
10
11.5643420707
20
-21.5738852775
30
0.0000000000
10
11.5644293820
20
-21.6260886539
30
0.0000000000
10
11.5646159894
20
-21.7034872127
30
0.0000000000
10
11.5648561159
20
-21.7789091484
30
0.0000000000
10
11.5651481231
20
-21.8518663166
30
0.0000000000
10
11.5654900916
20
-21.9218857597
30
0.0000000000
10
11.5658797216
20
-21.9885139749
30
0.0000000000
10
11.5663143844
20
-22.0513191075
30
0.0000000000
10
11.5667911439
20
-22.1098942306
30
0.0000000000
10
11.5673066134
20
-22.1638597705
30
0.0000000000
10
11.5678574337
20
-22.2128660545
30
0.0000000000
10
11.5684386195
20
-22.2565956822
30
0.0000000000
10
11.5690484753
20
-22.2947646815
30
0.0000000000
10
11.5696730740
20
-22.3271276544
30
0.0000000000
10
11.5703297612
20
-22.3534696697
30
0.0000000000
10
11.5709446453
20
-22.3736351353
30
0.0000000000
10
11.5716451901
20
-22.3874632205
30
0.0000000000
10
11.5720712434
20
-22.3945888283
30
0.0000000000
10
11.5724805866
20
-22.3970474991
30
0.0000000000
11
11.5643073983
21
-21.5475370476
31
0.0000000000
11
11.5644400272
21
-21.6265816946
31
0.0000000000
11
11.5646276995
21
-21.7041470410
31
0.0000000000
11
11.5648692224
21
-21.7797326537
31
0.0000000000
11
11.5651630119
21
-21.8528474212
31
0.0000000000
11
11.5655071764
21
-21.9230184527
31
0.0000000000
11
11.5658994823
21
-21.9897908715
31
0.0000000000
11
11.5663373895
21
-22.0527319315
31
0.0000000000
11
11.5668180594
21
-22.1114336753
31
0.0000000000
11
11.5673383809
21
-22.1655160279
31
0.0000000000
11
11.5678949798
21
-22.2146282140
31
0.0000000000
11
11.5684842533
21
-22.2584522223
31
0.0000000000
11
11.5691023816
21
-22.2967039266
31
0.0000000000
11
11.5697453613
21
-22.3291353633
31
0.0000000000
11
11.5704090161
21
-22.3555362788
31
0.0000000000
11
11.5710890746
21
-22.3757358247
31
0.0000000000
11
11.5717810662
21
-22.3896027501
31
0.0000000000
11
11.5724805866
21
-22.3970474991
31
0.0000000000
0
SPLINE
5
2E9
100
AcDbEntity
8
0
100
AcDbSpline
62
9
6
CONTINUOUS
70
0
71
3
72
24
73
20
74
18
42
0.0000001000
43
0.0000001000
44
0.0000000001
12
0.0011186547
22
-0.4249484695
32
0.0000000000
13
0.1342631991
23
-0.4031821505
33
0.0000000000
40
0.0000000000
40
0.0000000000
40
0.0000000000
40
0.0000000000
40
0.0929869778
40
0.1842552376
40
0.2731949150
40
0.3592282932
40
0.4417991461
40
0.5203724537
40
0.5944392766
40
0.6635198393
40
0.7271672677
40
0.7849693581
40
0.8365526549
40
0.8815838995
40
0.9197729576
40
0.9508752205
40
0.9746949652
40
0.9910905731
40
1.0000000000
40
1.0000000000
40
1.0000000000
40
1.0000000000
10
12.0642312459
20
-21.4729775060
30
0.0000000000
10
12.0642659193
20
-21.4861490639
30
0.0000000000
10
12.0643532035
20
-21.5122486797
30
0.0000000000
10
12.0645398119
20
-21.5509462982
30
0.0000000000
10
12.0647799260
20
-21.5886586270
30
0.0000000000
10
12.0650719433
20
-21.6251385652
30
0.0000000000
10
12.0654139156
20
-21.6601496086
30
0.0000000000
10
12.0658035575
20
-21.6934649837
30
0.0000000000
10
12.0662382346
20
-21.7248687364
30
0.0000000000
10
12.0667150095
20
-21.7541573645
30
0.0000000000
10
12.0672305088
20
-21.7811410858
30
0.0000000000
10
12.0677813280
20
-21.8056449811
30
0.0000000000
10
12.0683626310
20
-21.8275106491
30
0.0000000000
10
12.0689722706
20
-21.8465953433
30
0.0000000000
10
12.0695976927
20
-21.8627789861
30
0.0000000000
10
12.0702524294
20
-21.8759475146
30
0.0000000000
10
12.0708728078
20
-21.8860425988
30
0.0000000000
10
12.0715636453
20
-21.8929456602
30
0.0000000000
10
12.0720056981
20
-21.8965353578
30
0.0000000000
10
12.0724044342
20
-21.8977327317
30
0.0000000000
11
12.0642312459
21
-21.4729775060
31
0.0000000000
11
12.0643638417
21
-21.5124920943
31
0.0000000000
11
12.0645515165
21
-21.5512760819
31
0.0000000000
11
12.0647930349
21
-21.5890702210
31
0.0000000000
11
12.0650868292
21
-21.6256289196
31
0.0000000000
11
12.0654309991
21
-21.6607157108
31
0.0000000000
11
12.0658233148
21
-21.6941031284
31
0.0000000000
11
12.0662612345
21
-21.7255747739
31
0.0000000000
11
12.0667419197
21
-21.7549266192
31
0.0000000000
11
12.0672622584
21
-21.7819685846
31
0.0000000000
11
12.0678188763
21
-21.8065252720
31
0.0000000000
11
12.0684081699
21
-21.8284376684
31
0.0000000000
11
12.0690263198
21
-21.8475637066
31
0.0000000000
11
12.0696693195
21
-21.8637794012
31
0.0000000000
11
12.0703330001
21
-21.8769796323
31
0.0000000000
11
12.0710130687
21
-21.8870789600
31
0.0000000000
11
12.0717051054
21
-21.8940118188
31
0.0000000000
11
12.0724044342
21
-21.8977327317
31
0.0000000000
0
SPLINE
5
2EA
100
AcDbEntity
8
0
100
AcDbSpline
62
9
6
CONTINUOUS
70
0
71
3
72
23
73
19
74
17
42
0.0000001000
43
0.0000001000
44
0.0000000001
12
-0.0007172057
22
-0.7842577210
32
0.0000000000
13
-0.7842577226
23
-0.0007154591
33
0.0000000000
40
0.0000000000
40
0.0000000000
40
0.0000000000
40
0.0000000000
40
0.0624467159
40
0.1249003792
40
0.1873620694
40
0.2498325574
40
0.3123122765
40
0.3748013052
40
0.4372993648
40
0.4998058302
40
0.5623197539
40
0.6248399026
40
0.6873648043
40
0.7498928050
40
0.8124221320
40
0.8749509618
40
0.9374774899
40
1.0000000000
40
1.0000000000
40
1.0000000000
40
1.0000000000
10
12.0724044342
20
-21.8977327317
30
0.0000000000
10
12.0723895051
20
-21.9140575048
30
0.0000000000
10
12.0707538118
20
-21.9467301022
30
0.0000000000
10
12.0635072546
20
-21.9952469562
30
0.0000000000
10
12.0515372849
20
-22.0428305387
30
0.0000000000
10
12.0349590922
20
-22.0890169230
30
0.0000000000
10
12.0139321878
20
-22.1333634905
30
0.0000000000
10
11.9886588753
20
-22.1754432269
30
0.0000000000
10
11.9593822996
20
-22.2148514978
30
0.0000000000
10
11.9263841046
20
-22.2512092235
30
0.0000000000
10
11.8899817257
20
-22.2841667140
30
0.0000000000
10
11.8505253216
20
-22.3134069784
30
0.0000000000
10
11.8083944572
20
-22.3386487839
30
0.0000000000
10
11.7639942626
20
-22.3596493547
30
0.0000000000
10
11.7177522505
20
-22.3762067041
30
0.0000000000
10
11.6701115473
20
-22.3881615783
30
0.0000000000
10
11.6215365573
20
-22.3953989775
30
0.0000000000
10
11.5888251737
20
-22.3970325883
30
0.0000000000
10
11.5724805866
20
-22.3970474991
30
0.0000000000
11
12.0724044342
21
-21.8977327317
31
0.0000000000
11
12.0699552296
21
-21.9466457906
31
0.0000000000
11
12.0627206378
21
-21.9950883373
31
0.0000000000
11
12.0507702511
21
-22.0425943855
31
0.0000000000
11
12.0342190244
21
-22.0887069574
31
0.0000000000
11
12.0132261699
21
-22.1329824796
31
0.0000000000
11
11.9879936255
21
-22.1749950501
31
0.0000000000
11
11.9587641120
21
-22.2143405349
31
0.0000000000
11
11.9258187986
21
-22.2506404556
31
0.0000000000
11
11.8894745981
21
-22.2835456301
31
0.0000000000
11
11.8500811185
21
-22.3127395320
31
0.0000000000
11
11.8080172997
21
-22.3379413345
31
0.0000000000
11
11.7636877687
21
-22.3589086124
31
0.0000000000
11
11.7175189472
21
-22.3754396740
31
0.0000000000
11
11.6699549497
21
-22.3873755010
31
0.0000000000
11
11.6214533112
21
-22.3946012785
31
0.0000000000
11
11.5724805866
21
-22.3970474991
31
0.0000000000
0
SPLINE
5
2EB
100
AcDbEntity
8
0
100
AcDbSpline
62
9
6
CONTINUOUS
70
0
71
3
72
10
73
6
74
4
42
0.0000001000
43
0.0000001000
44
0.0000000001
12
0.0030168915
22
9.0950737270
32
0.0000000000
13
0.0001256779
23
9.0950742265
33
0.0000000000
40
0.0000000000
40
0.0000000000
40
0.0000000000
40
0.0000000000
40
0.3333132211
40
0.6666476159
40
1.0000000000
40
1.0000000000
40
1.0000000000
40
1.0000000000
10
-9.9742641032
20
-9.8273195565
30
0.0000000000
10
-9.9739289133
20
-8.8168167832
30
0.0000000000
10
-9.9733656214
20
-6.7957470073
30
0.0000000000
10
-9.9728419133
20
-3.7640556383
30
0.0000000000
10
-9.9727069140
20
-1.7428670580
30
0.0000000000
10
-9.9726929489
20
-0.7322454989
30
0.0000000000
11
-9.9742641032
21
-9.8273195565
31
0.0000000000
11
-9.9734191767
21
-6.7958111877
31
0.0000000000
11
-9.9728954573
21
-3.7641101697
31
0.0000000000
11
-9.9726929489
21
-0.7322454989
31
0.0000000000
0
SPLINE
5
2EC
100
AcDbEntity
8
0
100
AcDbSpline
62
9
6
CONTINUOUS
70
0
71
3
72
23
73
19
74
17
42
0.0000001000
43
0.0000001000
44
0.0000000001
12
0.3383277130
22
-0.3684515687
32
0.0000000000
13
0.5002221230
23
-0.0001658668
33
0.0000000000
40
0.0000000000
40
0.0000000000
40
0.0000000000
40
0.0000000000
40
0.0066564873
40
0.0225106003
40
0.0475272776
40
0.0814931196
40
0.1240964968
40
0.1749402365
40
0.2335478507
40
0.2993689009
40
0.3717845592
40
0.4501136206
40
0.5336190188
40
0.6215148255
40
0.7129736898
40
0.8071346534
40
0.9031112767
40
1.0000000000
40
1.0000000000
40
1.0000000000
40
1.0000000000
10
-9.9742641032
20
-9.8273195565
30
0.0000000000
10
-9.9735134119
20
-9.8281370875
30
0.0000000000
10
-9.9692641332
20
-9.8282371924
30
0.0000000000
10
-9.9618363131
20
-9.8295171720
30
0.0000000000
10
-9.9491434633
20
-9.8301022625
30
0.0000000000
10
-9.9323273813
20
-9.8310460432
30
0.0000000000
10
-9.9110592721
20
-9.8318194384
30
0.0000000000
10
-9.8857307874
20
-9.8326118811
30
0.0000000000
10
-9.8565103515
20
-9.8333401595
30
0.0000000000
10
-9.8236967608
20
-9.8340209879
30
0.0000000000
10
-9.7875912210
20
-9.8346390119
30
0.0000000000
10
-9.7485361618
20
-9.8351904624
30
0.0000000000
10
-9.7068986273
20
-9.8356690321
30
0.0000000000
10
-9.6630709620
20
-9.8360702256
30
0.0000000000
10
-9.6174658549
20
-9.8363900451
30
0.0000000000
10
-9.5705128215
20
-9.8366253965
30
0.0000000000
10
-9.5226540525
20
-9.8367739924
30
0.0000000000
10
-9.4904955500
20
-9.8368141996
30
0.0000000000
10
-9.4743402557
20
-9.8368195565
30
0.0000000000
11
-9.9742641032
21
-9.8273195565
31
0.0000000000
11
-9.9710642867
21
-9.8282405478
31
0.0000000000
11
-9.9631863585
21
-9.8291528654
31
0.0000000000
11
-9.9507045125
21
-9.8300479169
31
0.0000000000
11
-9.9337363019
21
-9.8309172730
31
0.0000000000
11
-9.9124415320
21
-9.8317527460
31
0.0000000000
11
-9.8870207555
21
-9.8325464676
31
0.0000000000
11
-9.8577133833
21
-9.8332909625
31
0.0000000000
11
-9.8247954304
21
-9.8339792191
31
0.0000000000
11
-9.7885769155
21
-9.8346047554
31
0.0000000000
11
-9.7493989422
21
-9.8351616803
31
0.0000000000
11
-9.7076304857
21
-9.8356447487
31
0.0000000000
11
-9.6636649185
21
-9.8360494109
31
0.0000000000
11
-9.6179163050
21
-9.8363718560
31
0.0000000000
11
-9.5708155025
21
-9.8366090472
31
0.0000000000
11
-9.5228061030
21
-9.8367587507
31
0.0000000000
11
-9.4743402557
21
-9.8368195565
31
0.0000000000
0
SPLINE
5
2ED
100
AcDbEntity
8
0
100
AcDbSpline
62
9
6
CONTINUOUS
70
0
71
3
72
10
73
6
74
4
42
0.0000001000
43
0.0000001000
44
0.0000000001
12
0.0030162464
22
9.1022312164
32
0.0000000000
13
0.0001262690
23
9.1022317153
33
0.0000000000
40
0.0000000000
40
0.0000000000
40
0.0000000000
40
0.0000000000
40
0.3333130653
40
0.6666473046
40
1.0000000000
40
1.0000000000
40
1.0000000000
40
1.0000000000
10
-9.4743402557
20
-9.8368195565
30
0.0000000000
10
-9.4740051376
20
-8.8255220272
30
0.0000000000
10
-9.4734419434
20
-6.8028626879
30
0.0000000000
10
-9.4729182441
20
-3.7687854893
30
0.0000000000
10
-9.4727831590
20
-1.7460058354
30
0.0000000000
10
-9.4727691283
20
-0.7345880099
30
0.0000000000
11
-9.4743402557
21
-9.8368195565
31
0.0000000000
11
-9.4734954758
21
-6.8029269196
31
0.0000000000
11
-9.4729717654
21
-3.7688414798
31
0.0000000000
11
-9.4727691283
21
-0.7345880099
31
0.0000000000
0
SPLINE
5
2EE
100
AcDbEntity
8
0
100
AcDbSpline
62
9
6
CONTINUOUS
70
0
71
3
72
24
73
20
74
18
42
0.0000001000
43
0.0000001000
44
0.0000000001
12
0.4823500253
22
-0.1314577715
32
0.0000000000
13
0.4999426893
23
-0.0000035310
33
0.0000000000
40
0.0000000000
40
0.0000000000
40
0.0000000000
40
0.0000000000
40
0.0057809081
40
0.0198463907
40
0.0420872420
40
0.0723187311
40
0.1102890632
40
0.1556822685
40
0.2081193147
40
0.2671628392
40
0.3323199063
40
0.4030476492
40
0.4787556940
40
0.5588125511
40
0.6425493722
40
0.7292686082
40
0.8182472517
40
0.9087391724
40
1.0000000000
40
1.0000000000
40
1.0000000000
40
1.0000000000
10
-9.9726929489
20
-0.7322454989
30
0.0000000000
10
-9.9717634752
20
-0.7324988140
30
0.0000000000
10
-9.9684001741
20
-0.7323927234
30
0.0000000000
10
-9.9614389606
20
-0.7328039094
30
0.0000000000
10
-9.9503257507
20
-0.7328831533
30
0.0000000000
10
-9.9352662127
20
-0.7331308906
30
0.0000000000
10
-9.9163326008
20
-0.7333047931
30
0.0000000000
10
-9.8937039987
20
-0.7334966938
30
0.0000000000
10
-9.8675614537
20
-0.7336700504
30
0.0000000000
10
-9.8381258326
20
-0.7338348254
30
0.0000000000
10
-9.8056417985
20
-0.7339856154
30
0.0000000000
10
-9.7703806413
20
-0.7341222531
30
0.0000000000
10
-9.7326363807
20
-0.7342431461
30
0.0000000000
10
-9.6927241374
20
-0.7343473420
30
0.0000000000
10
-9.6509768583
20
-0.7344339014
30
0.0000000000
10
-9.6077427498
20
-0.7345020833
30
0.0000000000
10
-9.5633828940
20
-0.7345512989
30
0.0000000000
10
-9.5182661758
20
-0.7345811272
30
0.0000000000
10
-9.4879775228
20
-0.7345879027
30
0.0000000000
10
-9.4727691283
20
-0.7345880101
30
0.0000000000
11
-9.9726929489
21
-0.7322454989
31
0.0000000000
11
-9.9698109815
21
-0.7324624618
31
0.0000000000
11
-9.9627823285
21
-0.7326772899
31
0.0000000000
11
-9.9516651786
21
-0.7328882317
31
0.0000000000
11
-9.9365525606
21
-0.7330935012
31
0.0000000000
11
-9.9175706022
21
-0.7332913923
31
0.0000000000
11
-9.8948773869
21
-0.7334802521
31
0.0000000000
11
-9.8686624750
21
-0.7336585018
31
0.0000000000
11
-9.8391445642
21
-0.7338246518
31
0.0000000000
11
-9.8065701226
21
-0.7339773130
31
0.0000000000
11
-9.7712105735
21
-0.7341152111
31
0.0000000000
11
-9.7333610865
21
-0.7342371927
31
0.0000000000
11
-9.6933373840
21
-0.7343422380
31
0.0000000000
11
-9.6514738633
21
-0.7344294681
31
0.0000000000
11
-9.6081192697
21
-0.7344981544
31
0.0000000000
11
-9.5636350749
21
-0.7345477233
31
0.0000000000
11
-9.5183943107
21
-0.7345777581
31
0.0000000000
11
-9.4727691283
21
-0.7345880101
31
0.0000000000
0
SPLINE
5
2EF
100
AcDbEntity
8
0
100
AcDbSpline
62
9
6
CONTINUOUS
70
0
71
3
72
23
73
19
74
17
42
0.0000001000
43
0.0000001000
44
0.0000000001
12
0.0591164681
22
-0.5108996579
32
0.0000000000
13
0.5143067811
23
-0.0013237131
33
0.0000000000
40
0.0000000000
40
0.0000000000
40
0.0000000000
40
0.0000000000
40
0.0153646553
40
0.0360541332
40
0.0638932314
40
0.0994447751
40
0.1427618196
40
0.1936475163
40
0.2517514986
40
0.3166124859
40
0.3876810753
40
0.4643344687
40
0.5458876969
40
0.6316032866
40
0.7207002540
40
0.8123628406
40
0.9057491838
40
1.0000000000
40
1.0000000000
40
1.0000000000
40
1.0000000000
10
-9.9914489878
20
-21.4729775060
30
0.0000000000
10
-9.9911462197
20
-21.4755941050
30
0.0000000000
10
-9.9881486072
20
-21.4814028959
30
0.0000000000
10
-9.9795817877
20
-21.4883953669
30
0.0000000000
10
-9.9668483672
20
-21.4952597349
30
0.0000000000
10
-9.9497728700
20
-21.5019038941
30
0.0000000000
10
-9.9284633705
20
-21.5083359420
30
0.0000000000
10
-9.9030707846
20
-21.5144630337
30
0.0000000000
10
-9.8738223860
20
-21.5202270687
30
0.0000000000
10
-9.8409839531
20
-21.5255648776
30
0.0000000000
10
-9.8048609194
20
-21.5304228133
30
0.0000000000
10
-9.7657908775
20
-21.5347519176
30
0.0000000000
10
-9.7241403712
20
-21.5385094583
30
0.0000000000
10
-9.6803007383
20
-21.5416585857
30
0.0000000000
10
-9.6346842878
20
-21.5441686396
30
0.0000000000
10
-9.5877202093
20
-21.5460152834
30
0.0000000000
10
-9.5398506690
20
-21.5471806718
30
0.0000000000
10
-9.5076830848
20
-21.5474954605
30
0.0000000000
10
-9.4915251402
20
-21.5475370475
30
0.0000000000
11
-9.9914489878
21
-21.4729775060
31
0.0000000000
11
-9.9882577938
21
-21.4802066562
31
0.0000000000
11
-9.9803872514
21
-21.4873677060
31
0.0000000000
11
-9.9679115030
21
-21.4943931964
31
0.0000000000
11
-9.9509480734
21
-21.5012169455
31
0.0000000000
11
-9.9296567624
21
-21.5077746719
31
0.0000000000
11
-9.9042381396
21
-21.5140046001
31
0.0000000000
11
-9.8749316549
21
-21.5198480426
31
0.0000000000
11
-9.8420133829
21
-21.5252499527
31
0.0000000000
11
-9.8057934221
21
-21.5301594430
31
0.0000000000
11
-9.7666129739
21
-21.5345302648
31
0.0000000000
11
-9.7248411279
21
-21.5383212439
31
0.0000000000
11
-9.6808713858
21
-21.5414966683
31
0.0000000000
11
-9.6351179537
21
-21.5440266247
31
0.0000000000
11
-9.5880118406
21
-21.5458872803
31
0.0000000000
11
-9.5399967981
21
-21.5470611071
31
0.0000000000
11
-9.4915251402
21
-21.5475370475
31
0.0000000000
0
SPLINE
5
2F0
100
AcDbEntity
8
0
100
AcDbSpline
62
9
6
CONTINUOUS
70
0
71
3
72
14
73
10
74
8
42
0.0000001000
43
0.0000001000
44
0.0000000001
12
0.0306549602
22
11.7106924750
32
0.0000000000
13
0.0038629499
23
11.7107319604
33
0.0000000000
40
0.0000000000
40
0.0000000000
40
0.0000000000
40
0.0000000000
40
0.1420565057
40
0.2844627223
40
0.4271690479
40
0.5701257656
40
0.7132830865
40
0.8565911367
40
1.0000000000
40
1.0000000000
40
1.0000000000
40
1.0000000000
10
-9.4915251402
20
-21.5475370476
30
0.0000000000
10
-9.4900735614
20
-20.9930103635
30
0.0000000000
10
-9.4873510604
20
-19.8825913853
30
0.0000000000
10
-9.4838123925
20
-18.2151076136
30
0.0000000000
10
-9.4808145466
20
-16.5441087272
30
0.0000000000
10
-9.4783585681
20
-14.8701769605
30
0.0000000000
10
-9.4764453136
20
-13.1938956046
30
0.0000000000
10
-9.4750754494
20
-11.5158487325
30
0.0000000000
10
-9.4745249161
20
-10.3966271429
30
0.0000000000
10
-9.4743402557
20
-9.8368195565
30
0.0000000000
11
-9.4915251402
21
-21.5475370476
31
0.0000000000
11
-9.4874456856
21
-19.8839562975
31
0.0000000000
11
-9.4839059809
21
-18.2162789306
31
0.0000000000
11
-9.4809072591
21
-16.5450860027
31
0.0000000000
11
-9.4784505647
21
-14.8709599112
31
0.0000000000
11
-9.4765367531
21
-13.1944838992
31
0.0000000000
11
-9.4751664910
21
-11.5162422038
31
0.0000000000
11
-9.4743402557
21
-9.8368195565
31
0.0000000000
0
SPLINE
5
2F1
100
AcDbEntity
8
0
100
AcDbSpline
62
9
6
CONTINUOUS
70
0
71
3
72
14
73
10
74
8
42
0.0000001000
43
0.0000001000
44
0.0000000001
12
0.0306549594
22
11.6456327936
32
0.0000000000
13
0.0038629500
23
11.6456724996
33
0.0000000000
40
0.0000000000
40
0.0000000000
40
0.0000000000
40
0.0000000000
40
0.1420564457
40
0.2844626969
40
0.4271690562
40
0.5701258069
40
0.7132831601
40
0.8565912420
40
1.0000000000
40
1.0000000000
40
1.0000000000
40
1.0000000000
10
-9.9914489878
20
-21.4729775060
30
0.0000000000
10
-9.9899974096
20
-20.9215317717
30
0.0000000000
10
-9.9872749088
20
-19.8172819075
30
0.0000000000
10
-9.9837362408
20
-18.1590619198
30
0.0000000000
10
-9.9807383941
20
-16.4973459729
30
0.0000000000
10
-9.9782824151
20
-14.8327134383
30
0.0000000000
10
-9.9763691603
20
-13.1657443676
30
0.0000000000
10
-9.9749992966
20
-11.4970201202
30
0.0000000000
10
-9.9744487635
20
-10.3840166993
30
0.0000000000
10
-9.9742641032
20
-9.8273195565
30
0.0000000000
11
-9.9914489878
21
-21.4729775060
31
0.0000000000
11
-9.9873695348
21
-19.8186396015
31
0.0000000000
11
-9.9838298292
21
-18.1602267244
31
0.0000000000
11
-9.9808311066
21
-16.4983178145
31
0.0000000000
11
-9.9783744117
21
-14.8334920353
31
0.0000000000
11
-9.9764605999
21
-13.1663293907
31
0.0000000000
11
-9.9750903378
21
-11.4974108726
31
0.0000000000
11
-9.9742641032
21
-9.8273195565
31
0.0000000000
0
SPLINE
5
2F2
100
AcDbEntity
8
0
100
AcDbSpline
62
9
6
CONTINUOUS
70
0
71
3
72
23
73
19
74
17
42
0.0000001000
43
0.0000001000
44
0.0000000001
12
0.0007172057
22
-0.7842577210
32
0.0000000000
13
0.7842577226
23
-0.0007154592
33
0.0000000000
40
0.0000000000
40
0.0000000000
40
0.0000000000
40
0.0000000000
40
0.0624467123
40
0.1249003724
40
0.1873620598
40
0.2498325457
40
0.3123122631
40
0.3748012906
40
0.4372993496
40
0.4998058150
40
0.5623197393
40
0.6248398890
40
0.6873647922
40
0.7498927948
40
0.8124221241
40
0.8749509564
40
0.9374774871
40
1.0000000000
40
1.0000000000
40
1.0000000000
40
1.0000000000
10
-9.9996221761
20
-21.8977327317
30
0.0000000000
10
-9.9996072470
20
-21.9140575038
30
0.0000000000
10
-9.9979715539
20
-21.9467300995
30
0.0000000000
10
-9.9907249975
20
-21.9952469511
30
0.0000000000
10
-9.9787550289
20
-22.0428305316
30
0.0000000000
10
-9.9621768376
20
-22.0890169146
30
0.0000000000
10
-9.9411499346
20
-22.1333634813
30
0.0000000000
10
-9.9158766235
20
-22.1754432175
30
0.0000000000
10
-9.8866000490
20
-22.2148514887
30
0.0000000000
10
-9.8536018548
20
-22.2512092152
30
0.0000000000
10
-9.8171994764
20
-22.2841667068
30
0.0000000000
10
-9.7777430723
20
-22.3134069726
30
0.0000000000
10
-9.7356122075
20
-22.3386487795
30
0.0000000000
10
-9.6912120119
20
-22.3596493517
30
0.0000000000
10
-9.6449699984
20
-22.3762067024
30
0.0000000000
10
-9.5973292934
20
-22.3881615776
30
0.0000000000
10
-9.5487543014
20
-22.3953989774
30
0.0000000000
10
-9.5160429164
20
-22.3970325883
30
0.0000000000
10
-9.4996983285
20
-22.3970474991
30
0.0000000000
11
-9.9996221761
21
-21.8977327317
31
0.0000000000
11
-9.9971729718
21
-21.9466457878
31
0.0000000000
11
-9.9899383808
21
-21.9950883321
31
0.0000000000
11
-9.9779879952
21
-22.0425943783
31
0.0000000000
11
-9.9614367699
21
-22.0887069489
31
0.0000000000
11
-9.9404439168
21
-22.1329824703
31
0.0000000000
11
-9.9152113738
21
-22.1749950407
31
0.0000000000
11
-9.8859818615
21
-22.2143405257
31
0.0000000000
11
-9.8530365489
21
-22.2506404472
31
0.0000000000
11
-9.8166923489
21
-22.2835456229
31
0.0000000000
11
-9.7772988693
21
-22.3127395261
31
0.0000000000
11
-9.7352350500
21
-22.3379413300
31
0.0000000000
11
-9.6909055180
21
-22.3589086093
31
0.0000000000
11
-9.6447366951
21
-22.3754396721
31
0.0000000000
11
-9.5971726958
21
-22.3873755002
31
0.0000000000
11
-9.5486710553
21
-22.3946012783
31
0.0000000000
11
-9.4996983285
21
-22.3970474991
31
0.0000000000
0
SPLINE
5
2F3
100
AcDbEntity
8
0
100
AcDbSpline
62
9
6
CONTINUOUS
70
0
71
3
72
24
73
20
74
18
42
0.0000001000
43
0.0000001000
44
0.0000000001
12
0.1395303240
22
0.8380722897
32
0.0000000000
13
0.0011180227
23
0.8496073353
33
0.0000000000
40
0.0000000000
40
0.0000000000
40
0.0000000000
40
0.0000000000
40
0.0088011650
40
0.0251430303
40
0.0489316349
40
0.0800156799
40
0.1181954135
40
0.1632240563
40
0.2148101598
40
0.2726195683
40
0.3362781626
40
0.4053732121
40
0.4794574699
40
0.5580508514
40
0.6406440822
40
0.7267018307
40
0.8156675565
40
0.9069632681
40
1.0000000000
40
1.0000000000
40
1.0000000000
40
1.0000000000
10
-9.4996983285
20
-22.3970474991
30
0.0000000000
10
-9.4992889854
20
-22.3945888283
30
0.0000000000
10
-9.4988629320
20
-22.3874632205
30
0.0000000000
10
-9.4981623873
20
-22.3736351353
30
0.0000000000
10
-9.4975475031
20
-22.3534696697
30
0.0000000000
10
-9.4968908159
20
-22.3271276544
30
0.0000000000
10
-9.4962662172
20
-22.2947646815
30
0.0000000000
10
-9.4956563614
20
-22.2565956822
30
0.0000000000
10
-9.4950751757
20
-22.2128660545
30
0.0000000000
10
-9.4945243553
20
-22.1638597705
30
0.0000000000
10
-9.4940088858
20
-22.1098942306
30
0.0000000000
10
-9.4935321264
20
-22.0513191075
30
0.0000000000
10
-9.4930974636
20
-21.9885139749
30
0.0000000000
10
-9.4927078335
20
-21.9218857597
30
0.0000000000
10
-9.4923658651
20
-21.8518663166
30
0.0000000000
10
-9.4920738579
20
-21.7789091484
30
0.0000000000
10
-9.4918337313
20
-21.7034872127
30
0.0000000000
10
-9.4916471239
20
-21.6260886539
30
0.0000000000
10
-9.4915598126
20
-21.5738852775
30
0.0000000000
10
-9.4915251402
20
-21.5475370476
30
0.0000000000
11
-9.4996983285
21
-22.3970474991
31
0.0000000000
11
-9.4989988081
21
-22.3896027501
31
0.0000000000
11
-9.4983068165
21
-22.3757358247
31
0.0000000000
11
-9.4976267581
21
-22.3555362788
31
0.0000000000
11
-9.4969631032
21
-22.3291353633
31
0.0000000000
11
-9.4963201236
21
-22.2967039266
31
0.0000000000
11
-9.4957019953
21
-22.2584522223
31
0.0000000000
11
-9.4951127217
21
-22.2146282140
31
0.0000000000
11
-9.4945561228
21
-22.1655160279
31
0.0000000000
11
-9.4940358014
21
-22.1114336753
31
0.0000000000
11
-9.4935551315
21
-22.0527319315
31
0.0000000000
11
-9.4931172243
21
-21.9897908715
31
0.0000000000
11
-9.4927249183
21
-21.9230184527
31
0.0000000000
11
-9.4923807538
21
-21.8528474212
31
0.0000000000
11
-9.4920869643
21
-21.7797326537
31
0.0000000000
11
-9.4918454415
21
-21.7041470410
31
0.0000000000
11
-9.4916577691
21
-21.6265816946
31
0.0000000000
11
-9.4915251402
21
-21.5475370476
31
0.0000000000
0
SPLINE
5
2F4
100
AcDbEntity
8
0
100
AcDbSpline
62
9
6
CONTINUOUS
70
0
71
3
72
24
73
20
74
18
42
0.0000001000
43
0.0000001000
44
0.0000000001
12
0.1342631990
22
0.4031821506
32
0.0000000000
13
0.0011186547
23
0.4249484695
33
0.0000000000
40
0.0000000000
40
0.0000000000
40
0.0000000000
40
0.0000000000
40
0.0089094269
40
0.0253050348
40
0.0491247795
40
0.0802270424
40
0.1184161005
40
0.1634473451
40
0.2150306419
40
0.2728327323
40
0.3364801607
40
0.4055607234
40
0.4796275463
40
0.5582008539
40
0.6407717068
40
0.7268050850
40
0.8157447624
40
0.9070130222
40
1.0000000000
40
1.0000000000
40
1.0000000000
40
1.0000000000
10
-9.9996221761
20
-21.8977327317
30
0.0000000000
10
-9.9992234400
20
-21.8965353578
30
0.0000000000
10
-9.9987813872
20
-21.8929456602
30
0.0000000000
10
-9.9980905497
20
-21.8860425988
30
0.0000000000
10
-9.9974701714
20
-21.8759475146
30
0.0000000000
10
-9.9968154346
20
-21.8627789861
30
0.0000000000
10
-9.9961900126
20
-21.8465953433
30
0.0000000000
10
-9.9955803730
20
-21.8275106491
30
0.0000000000
10
-9.9949990700
20
-21.8056449811
30
0.0000000000
10
-9.9944482507
20
-21.7811410858
30
0.0000000000
10
-9.9939327515
20
-21.7541573645
30
0.0000000000
10
-9.9934559766
20
-21.7248687364
30
0.0000000000
10
-9.9930212994
20
-21.6934649837
30
0.0000000000
10
-9.9926316576
20
-21.6601496086
30
0.0000000000
10
-9.9922896852
20
-21.6251385652
30
0.0000000000
10
-9.9919976680
20
-21.5886586270
30
0.0000000000
10
-9.9917575538
20
-21.5509462982
30
0.0000000000
10
-9.9915709454
20
-21.5122486797
30
0.0000000000
10
-9.9914836612
20
-21.4861490639
30
0.0000000000
10
-9.9914489878
20
-21.4729775060
30
0.0000000000
11
-9.9996221761
21
-21.8977327317
31
0.0000000000
11
-9.9989228473
21
-21.8940118188
31
0.0000000000
11
-9.9982308106
21
-21.8870789600
31
0.0000000000
11
-9.9975507421
21
-21.8769796323
31
0.0000000000
11
-9.9968870614
21
-21.8637794012
31
0.0000000000
11
-9.9962440617
21
-21.8475637066
31
0.0000000000
11
-9.9956259119
21
-21.8284376684
31
0.0000000000
11
-9.9950366183
21
-21.8065252720
31
0.0000000000
11
-9.9944800003
21
-21.7819685846
31
0.0000000000
11
-9.9939596616
21
-21.7549266192
31
0.0000000000
11
-9.9934789764
21
-21.7255747739
31
0.0000000000
11
-9.9930410567
21
-21.6941031284
31
0.0000000000
11
-9.9926487410
21
-21.6607157108
31
0.0000000000
11
-9.9923045711
21
-21.6256289196
31
0.0000000000
11
-9.9920107769
21
-21.5890702210
31
0.0000000000
11
-9.9917692585
21
-21.5512760819
31
0.0000000000
11
-9.9915815836
21
-21.5124920943
31
0.0000000000
11
-9.9914489878
21
-21.4729775060
31
0.0000000000
0
SPLINE
5
2F5
100
AcDbEntity
8
0
100
AcDbSpline
62
9
6
CONTINUOUS
70
0
71
3
72
24
73
20
74
18
42
0.0000001000
43
0.0000001000
44
0.0000000001
12
-0.2236386802
22
-0.1117251390
32
0.0000000000
13
-0.2499935318
23
-0.0000000286
33
0.0000000000
40
0.0000000000
40
0.0000000000
40
0.0000000000
40
0.0000000000
40
0.0058141549
40
0.0198913127
40
0.0421377060
40
0.0723722548
40
0.1103442418
40
0.1557383148
40
0.2081757736
40
0.2672194679
40
0.3323766118
40
0.4031042038
40
0.4788117261
40
0.5588676560
40
0.6426031091
40
0.7293206279
40
0.8182967266
40
0.9087868532
40
1.0000000000
40
1.0000000000
40
1.0000000000
40
1.0000000000
10
11.7955132832
20
-0.4822550181
30
0.0000000000
10
11.7950798599
20
-0.4824715472
30
0.0000000000
10
11.7933410951
20
-0.4824078973
30
0.0000000000
10
11.7899069028
20
-0.4827561205
30
0.0000000000
10
11.7843246873
20
-0.4828440588
30
0.0000000000
10
11.7768056580
20
-0.4830645470
30
0.0000000000
10
11.7673346205
20
-0.4832262781
30
0.0000000000
10
11.7560213741
20
-0.4834011563
30
0.0000000000
10
11.7429490316
20
-0.4835601507
30
0.0000000000
10
11.7282305430
20
-0.4837108728
30
0.0000000000
10
11.7119874368
20
-0.4838488714
30
0.0000000000
10
11.6943556641
20
-0.4839738397
30
0.0000000000
10
11.6754822118
20
-0.4840843702
30
0.0000000000
10
11.6555247115
20
-0.4841795800
30
0.0000000000
10
11.6346496558
20
-0.4842586157
30
0.0000000000
10
11.6130312127
20
-0.4843208026
30
0.0000000000
10
11.5908498505
20
-0.4843656029
30
0.0000000000
10
11.5682938337
20
-0.4843926316
30
0.0000000000
10
11.5531522853
20
-0.4843986438
30
0.0000000000
10
11.5455513864
20
-0.4843986447
30
0.0000000000
11
11.7955132832
21
-0.4822550181
31
0.0000000000
11
11.7940734418
21
-0.4824538202
31
0.0000000000
11
11.7905597568
21
-0.4826507339
31
0.0000000000
11
11.7850016626
21
-0.4828440322
31
0.0000000000
11
11.7774455610
21
-0.4830320973
31
0.0000000000
11
11.7679545406
21
-0.4832133600
31
0.0000000000
11
11.7566076340
21
-0.4833863104
31
0.0000000000
11
11.7434996243
21
-0.4835495032
31
0.0000000000
11
11.7287398660
21
-0.4837015769
31
0.0000000000
11
11.7124516004
21
-0.4838412619
31
0.0000000000
11
11.6947706098
21
-0.4839673937
31
0.0000000000
11
11.6758445475
21
-0.4840789189
31
0.0000000000
11
11.6558313130
21
-0.4841749073
31
0.0000000000
11
11.6348981429
21
-0.4842545571
31
0.0000000000
11
11.6132194146
21
-0.4843172052
31
0.0000000000
11
11.5909760112
21
-0.4843623285
31
0.0000000000
11
11.5683540813
21
-0.4843895506
31
0.0000000000
11
11.5455513864
21
-0.4843986447
31
0.0000000000
0
SPLINE
5
2F6
100
AcDbEntity
8
0
100
AcDbSpline
62
9
6
CONTINUOUS
70
0
71
3
72
22
73
18
74
16
42
0.0000001000
43
0.0000001000
44
0.0000000001
12
-0.0353441806
22
-0.0354295517
32
0.0000000000
13
0.0000003406
23
-0.0500446225
33
0.0000000000
40
0.0000000000
40
0.0000000000
40
0.0000000000
40
0.0000000000
40
0.0063804617
40
0.0234903223
40
0.0511749337
40
0.0891401260
40
0.1369761742
40
0.1941659063
40
0.2600888112
40
0.3340284987
40
0.4151826286
40
0.5026709211
40
0.5955438215
40
0.6927943286
40
0.7933677196
40
0.8961720396
40
1.0000000000
40
1.0000000000
40
1.0000000000
40
1.0000000000
10
-3.6611879592
20
-0.6843910293
30
0.0000000000
10
-3.6612631299
20
-0.6844663816
30
0.0000000000
10
-3.6611898983
20
-0.6849218290
30
0.0000000000
10
-3.6613237665
20
-0.6857163296
30
0.0000000000
10
-3.6613124407
20
-0.6871282209
30
0.0000000000
10
-3.6613754339
20
-0.6890072084
30
0.0000000000
10
-3.6614061869
20
-0.6913973970
30
0.0000000000
10
-3.6614463438
20
-0.6942470249
30
0.0000000000
10
-3.6614799368
20
-0.6975345866
30
0.0000000000
10
-3.6615117838
20
-0.7012211605
30
0.0000000000
10
-3.6615397857
20
-0.7052677672
30
0.0000000000
10
-3.6615641497
20
-0.7096301612
30
0.0000000000
10
-3.6615844310
20
-0.7142611138
30
0.0000000000
10
-3.6616004474
20
-0.7191103573
30
0.0000000000
10
-3.6616120034
20
-0.7241252871
30
0.0000000000
10
-3.6616189721
20
-0.7292499469
30
0.0000000000
10
-3.6616205065
20
-0.7326968919
30
0.0000000000
10
-3.6616204947
20
-0.7344289023
30
0.0000000000
11
-3.6611879592
21
-0.6843910293
31
0.0000000000
11
-3.6612332838
21
-0.6847071039
31
0.0000000000
11
-3.6612781139
21
-0.6855621860
31
0.0000000000
11
-3.6613219256
21
-0.6869469591
31
0.0000000000
11
-3.6613642431
21
-0.6888464414
31
0.0000000000
11
-3.6614046074
21
-0.6912400381
31
0.0000000000
11
-3.6614425807
21
-0.6941018247
31
0.0000000000
11
-3.6614777503
21
-0.6974007242
31
0.0000000000
11
-3.6615097340
21
-0.7011008697
31
0.0000000000
11
-3.6615381849
21
-0.7051620978
31
0.0000000000
11
-3.6615627947
21
-0.7095403472
31
0.0000000000
11
-3.6615832964
21
-0.7141880912
31
0.0000000000
11
-3.6615994680
21
-0.7190549293
31
0.0000000000
11
-3.6616111340
21
-0.7240880731
31
0.0000000000
11
-3.6616181684
21
-0.7292328717
31
0.0000000000
11
-3.6616204947
21
-0.7344289023
31
0.0000000000
0
SPLINE
5
2F7
100
AcDbEntity
8
0
100
AcDbSpline
62
9
6
CONTINUOUS
70
0
71
3
72
10
73
6
74
4
42
0.0000001000
43
0.0000001000
44
0.0000000001
12
0.0000027799
22
-0.4004171367
32
0.0000000000
13
0.0000055795
23
-0.4004171366
33
0.0000000000
40
0.0000000000
40
0.0000000000
40
0.0000000000
40
0.0000000000
40
0.3333334383
40
0.6666667744
40
1.0000000000
40
1.0000000000
40
1.0000000000
40
1.0000000000
10
-3.6616204947
20
-0.7344289023
30
0.0000000000
10
-3.6616201858
20
-0.7789197093
30
0.0000000000
10
-3.6616194643
20
-0.8679013096
30
0.0000000000
10
-3.6616180711
20
-1.0013736884
30
0.0000000000
10
-3.6616169349
20
-1.0903552604
30
0.0000000000
10
-3.6616163150
20
-1.1348460389
30
0.0000000000
11
-3.6616204947
21
-0.7344289023
31
0.0000000000
11
-3.6616194125
21
-0.8679013232
31
0.0000000000
11
-3.6616180193
21
-1.0013737032
31
0.0000000000
11
-3.6616163150
21
-1.1348460389
31
0.0000000000
0
SPLINE
5
2F8
100
AcDbEntity
8
0
100
AcDbSpline
62
9
6
CONTINUOUS
70
0
71
3
72
24
73
20
74
18
42
0.0000001000
43
0.0000001000
44
0.0000000001
12
0.2236386592
22
-0.1117251808
32
0.0000000000
13
0.2499935317
23
-0.0000000303
33
0.0000000000
40
0.0000000000
40
0.0000000000
40
0.0000000000
40
0.0000000000
40
0.0058143509
40
0.0198918243
40
0.0421387210
40
0.0723739585
40
0.1103468305
40
0.1557420085
40
0.2081807999
40
0.2672258514
40
0.3323840566
40
0.4031125249
40
0.4788208419
40
0.5588774741
40
0.6426135134
40
0.7293314446
40
0.8183078759
40
0.9087981978
40
1.0000000000
40
1.0000000000
40
1.0000000000
40
1.0000000000
10
-9.7227310252
20
-0.4822550181
30
0.0000000000
10
-9.7222975873
20
-0.4824715546
30
0.0000000000
10
-9.7205587767
20
-0.4824078969
30
0.0000000000
10
-9.7171245020
20
-0.4827561289
30
0.0000000000
10
-9.7115421597
20
-0.4828440654
30
0.0000000000
10
-9.7040229578
20
-0.4830645570
30
0.0000000000
10
-9.6945516970
20
-0.4832262892
30
0.0000000000
10
-9.6832381737
20
-0.4834011693
30
0.0000000000
10
-9.6701655150
20
-0.4835601649
30
0.0000000000
10
-9.6554467138
20
-0.4837108875
30
0.0000000000
10
-9.6392033330
20
-0.4838488858
30
0.0000000000
10
-9.6215713326
20
-0.4839738530
30
0.0000000000
10
-9.6026976825
20
-0.4840843822
30
0.0000000000
10
-9.5827400087
20
-0.4841795905
30
0.0000000000
10
-9.5618648112
20
-0.4842586243
30
0.0000000000
10
-9.5402462572
20
-0.4843208092
30
0.0000000000
10
-9.5180648167
20
-0.4843656072
30
0.0000000000
10
-9.4955097012
20
-0.4843926328
30
0.0000000000
10
-9.4803690818
20
-0.4843986437
30
0.0000000000
10
-9.4727691283
20
-0.4843986447
30
0.0000000000
11
-9.7227310252
21
-0.4822550181
31
0.0000000000
11
-9.7212911348
21
-0.4824538241
31
0.0000000000
11
-9.7177773709
21
-0.4826507395
31
0.0000000000
11
-9.7122191508
21
-0.4828440396
31
0.0000000000
11
-9.7046628771
21
-0.4830321065
31
0.0000000000
11
-9.6951716354
21
-0.4832133711
31
0.0000000000
11
-9.6838244525
21
-0.4833863231
31
0.0000000000
11
-9.6707161097
21
-0.4835495174
31
0.0000000000
11
-9.6559560121
21
-0.4837015919
31
0.0000000000
11
-9.6396674812
21
-0.4838412764
31
0.0000000000
11
-9.6219862715
21
-0.4839674072
31
0.0000000000
11
-9.6030600105
21
-0.4840789310
31
0.0000000000
11
-9.5830466005
21
-0.4841749178
31
0.0000000000
11
-9.5621132838
21
-0.4842545657
31
0.0000000000
11
-9.5404344524
21
-0.4843172118
31
0.0000000000
11
-9.5181909659
21
-0.4843623329
31
0.0000000000
11
-9.4955689871
21
-0.4843895528
31
0.0000000000
11
-9.4727691283
21
-0.4843986447
31
0.0000000000
0
SPLINE
5
2F9
100
AcDbEntity
8
0
100
AcDbSpline
62
9
6
CONTINUOUS
70
0
71
3
72
10
73
6
74
4
42
0.0000001000
43
0.0000001000
44
0.0000000001
12
0.0000055795
22
0.4004171366
32
0.0000000000
13
0.0000027799
23
0.4004171367
33
0.0000000000
40
0.0000000000
40
0.0000000000
40
0.0000000000
40
0.0000000000
40
0.3333332255
40
0.6666665617
40
1.0000000000
40
1.0000000000
40
1.0000000000
40
1.0000000000
10
5.7343985730
20
-1.1348460389
30
0.0000000000
10
5.7343991930
20
-1.0903552604
30
0.0000000000
10
5.7344003292
20
-1.0013736885
30
0.0000000000
10
5.7344017224
20
-0.8679013096
30
0.0000000000
10
5.7344024439
20
-0.7789197093
30
0.0000000000
10
5.7344027527
20
-0.7344289023
30
0.0000000000
11
5.7343985730
21
-1.1348460389
31
0.0000000000
11
5.7344002773
21
-1.0013737032
31
0.0000000000
11
5.7344016706
21
-0.8679013232
31
0.0000000000
11
5.7344027527
21
-0.7344289023
31
0.0000000000
0
SPLINE
5
2FA
100
AcDbEntity
8
0
100
AcDbSpline
62
9
6
CONTINUOUS
70
0
71
3
72
21
73
17
74
15
42
0.0000001000
43
0.0000001000
44
0.0000000001
12
0.0000003509
22
0.0500440465
32
0.0000000000
13
-0.0334558117
23
0.0372171366
33
0.0000000000
40
0.0000000000
40
0.0000000000
40
0.0000000000
40
0.0000000000
40
0.1112384700
40
0.2211037249
40
0.3282298634
40
0.4312851885
40
0.5289884626
40
0.6201251700
40
0.7035623641
40
0.7782629456
40
0.8432985197
40
0.8978610210
40
0.9412730292
40
0.9729966818
40
0.9926429066
40
1.0000000000
40
1.0000000000
40
1.0000000000
40
1.0000000000
10
5.7344027527
20
-0.7344289023
30
0.0000000000
10
5.7344027657
20
-0.7325732946
30
0.0000000000
10
5.7344010045
20
-0.7288849860
30
0.0000000000
10
5.7343930238
20
-0.7234096737
30
0.0000000000
10
5.7343798077
20
-0.7180708795
30
0.0000000000
10
5.7343615425
20
-0.7129349732
30
0.0000000000
10
5.7343384156
20
-0.7080658366
30
0.0000000000
10
5.7343109061
20
-0.7035239104
30
0.0000000000
10
5.7342788101
20
-0.6993659846
30
0.0000000000
10
5.7342444119
20
-0.6956427199
30
0.0000000000
10
5.7342025370
20
-0.6924035942
30
0.0000000000
10
5.7341705682
20
-0.6896794820
30
0.0000000000
10
5.7341031470
20
-0.6875300982
30
0.0000000000
10
5.7341168459
20
-0.6859174959
30
0.0000000000
10
5.7339709606
20
-0.6849974992
30
0.0000000000
10
5.7340526866
20
-0.6844827228
30
0.0000000000
10
5.7339706408
20
-0.6843914528
30
0.0000000000
11
5.7344027527
21
-0.7344289023
31
0.0000000000
11
5.7344000786
21
-0.7288620798
31
0.0000000000
11
5.7343920127
21
-0.7233639837
31
0.0000000000
11
5.7343786551
21
-0.7180029749
31
0.0000000000
11
5.7343601720
21
-0.7128457025
31
0.0000000000
11
5.7343367931
21
-0.7079562912
31
0.0000000000
11
5.7343088092
21
-0.7033955275
31
0.0000000000
11
5.7342765681
21
-0.6992201171
31
0.0000000000
11
5.7342404708
21
-0.6954819720
31
0.0000000000
11
5.7342009660
21
-0.6922275685
31
0.0000000000
11
5.7341585450
21
-0.6894973697
31
0.0000000000
11
5.7341137350
21
-0.6873253193
31
0.0000000000
11
5.7340670933
21
-0.6857384246
31
0.0000000000
11
5.7340191997
21
-0.6847564153
31
0.0000000000
11
5.7339706408
21
-0.6843914528
31
0.0000000000
0
SPLINE
5
2FB
100
AcDbEntity
8
0
100
AcDbSpline
62
9
6
CONTINUOUS
70
0
71
3
72
20
73
16
74
14
42
0.0000001000
43
0.0000001000
44
0.0000000001
12
-0.0000239080
22
0.3139486583
32
0.0000000000
13
-0.3139486583
23
0.0000239080
33
0.0000000000
40
0.0000000000
40
0.0000000000
40
0.0000000000
40
0.0000000000
40
0.0769215331
40
0.1538437542
40
0.2307666040
40
0.3076899869
40
0.3846137763
40
0.4615378222
40
0.5384619594
40
0.6153860176
40
0.6923098313
40
0.7692332490
40
0.8461561422
40
0.9230784131
40
1.0000000000
40
1.0000000000
40
1.0000000000
40
1.0000000000
10
-3.6611879592
20
-0.6843910293
30
0.0000000000
10
-3.6611885722
20
-0.6763412252
30
0.0000000000
10
-3.6621641989
20
-0.6602246842
30
0.0000000000
10
-3.6665294496
20
-0.6364159345
30
0.0000000000
10
-3.6737328683
20
-0.6133030662
30
0.0000000000
10
-3.6836694218
20
-0.5912276962
30
0.0000000000
10
-3.6961942274
20
-0.5705104634
30
0.0000000000
10
-3.7111246620
20
-0.5514537714
30
0.0000000000
10
-3.7282430353
20
-0.5343353923
30
0.0000000000
10
-3.7472997254
20
-0.5194049489
30
0.0000000000
10
-3.7680169608
20
-0.5068801331
30
0.0000000000
10
-3.7900923380
20
-0.4969435694
30
0.0000000000
10
-3.8132052178
20
-0.4897401422
30
0.0000000000
10
-3.8370139823
20
-0.4853748857
30
0.0000000000
10
-3.8531305341
20
-0.4843992577
30
0.0000000000
10
-3.8611803438
20
-0.4843986447
30
0.0000000000
11
-3.6611879592
21
-0.6843910293
31
0.0000000000
11
-3.6626478222
21
-0.6602857828
31
0.0000000000
11
-3.6670024543
21
-0.6365320100
31
0.0000000000
11
-3.6741883615
21
-0.6134760604
31
0.0000000000
11
-3.6841007679
21
-0.5914541087
31
0.0000000000
11
-3.6965951431
21
-0.5707872533
31
0.0000000000
11
-3.7114893093
21
-0.5517768345
31
0.0000000000
11
-3.7285660976
21
-0.5347000403
31
0.0000000000
11
-3.7475765145
21
-0.5198058654
31
0.0000000000
11
-3.7682433726
21
-0.5073114800
31
0.0000000000
11
-3.7902653317
21
-0.4973990634
31
0.0000000000
11
-3.8133212929
21
-0.4902131475
31
0.0000000000
11
-3.8370750805
21
-0.4858585098
31
0.0000000000
11
-3.8611803438
21
-0.4843986447
31
0.0000000000
0
SPLINE
5
2FC
100
AcDbEntity
8
0
100
AcDbSpline
62
9
6
CONTINUOUS
70
0
71
3
72
20
73
16
74
14
42
0.0000001000
43
0.0000001000
44
0.0000000001
12
-0.1967271794
22
-0.0359965100
32
0.0000000000
13
-0.1999933295
23
-0.0000027866
33
0.0000000000
40
0.0000000000
40
0.0000000000
40
0.0000000000
40
0.0000000000
40
0.0082587095
40
0.0308177328
40
0.0673528603
40
0.1173374070
40
0.1800506179
40
0.2545881457
40
0.3398751126
40
0.4346816181
40
0.5376404783
40
0.6472669428
40
0.7619801075
40
0.8801257129
40
1.0000000000
40
1.0000000000
40
1.0000000000
40
1.0000000000
10
-3.6616162549
20
-1.1348460389
30
0.0000000000
10
-3.6621578258
20
-1.1349451338
30
0.0000000000
10
-3.6642319762
20
-1.1348007587
30
0.0000000000
10
-3.6687038270
20
-1.1349893826
30
0.0000000000
10
-3.6759853298
20
-1.1349377537
30
0.0000000000
10
-3.6859295586
20
-1.1350079675
30
0.0000000000
10
-3.6984130537
20
-1.1350260472
30
0.0000000000
10
-3.7132478211
20
-1.1350604439
30
0.0000000000
10
-3.7302228169
20
-1.1350855952
30
0.0000000000
10
-3.7490922713
20
-1.1351095144
30
0.0000000000
10
-3.7695843847
20
-1.1351291041
30
0.0000000000
10
-3.7914035456
20
-1.1351449006
30
0.0000000000
10
-3.8142351318
20
-1.1351564103
30
0.0000000000
10
-3.8377498833
20
-1.1351635326
30
0.0000000000
10
-3.8536173470
20
-1.1351652659
30
0.0000000000
10
-3.8616086996
20
-1.1351653772
30
0.0000000000
11
-3.6616162549
21
-1.1348460389
31
0.0000000000
11
-3.6632674980
21
-1.1348843196
31
0.0000000000
11
-3.6677789944
21
-1.1349220482
31
0.0000000000
11
-3.6750856844
21
-1.1349586806
31
0.0000000000
11
-3.6850821990
21
-1.1349936887
31
0.0000000000
11
-3.6976243798
21
-1.1350265675
31
0.0000000000
11
-3.7125313574
21
-1.1350568430
31
0.0000000000
11
-3.7295881601
21
-1.1350840785
31
0.0000000000
11
-3.7485488139
21
-1.1351078812
31
0.0000000000
11
-3.7691398894
21
-1.1351279080
31
0.0000000000
11
-3.7910644453
21
-1.1351438699
31
0.0000000000
11
-3.8140063100
21
-1.1351555369
31
0.0000000000
11
-3.8376346419
21
-1.1351627406
31
0.0000000000
11
-3.8616086996
21
-1.1351653772
31
0.0000000000
0
SPLINE
5
2FD
100
AcDbEntity
8
0
100
AcDbSpline
62
7
6
CONTINUOUS
70
0
71
3
72
20
73
16
74
14
42
0.0000001000
43
0.0000001000
44
0.0000000001
12
0.0000000000
22
-0.2009542966
32
0.0000000000
13
-0.2009542966
23
-0.0000000000
33
0.0000000000
40
0.0000000000
40
0.0000000000
40
0.0000000000
40
0.0000000000
40
0.0095626718
40
0.0321362966
40
0.0683939842
40
0.1179435073
40
0.1806081923
40
0.2551150087
40
0.3399532960
40
0.4348736207
40
0.5381585885
40
0.6474799216
40
0.7621326503
40
0.8805268335
40
1.0000000000
40
1.0000000000
40
1.0000000000
40
1.0000000000
10
3.2863911290
20
21.8692716602
30
0.0000000000
10
3.2863911290
20
21.8686311069
30
0.0000000000
10
3.2838544034
20
21.8674840702
30
0.0000000000
10
3.2798719433
20
21.8665572701
30
0.0000000000
10
3.2724410440
20
21.8653451521
30
0.0000000000
10
3.2626647843
20
21.8642757153
30
0.0000000000
10
3.2501592802
20
21.8632088715
30
0.0000000000
10
3.2353337011
20
21.8622401781
30
0.0000000000
10
3.2183193093
20
21.8613602497
30
0.0000000000
10
3.1993764542
20
21.8605923557
30
0.0000000000
10
3.1787862507
20
21.8599471993
30
0.0000000000
10
3.1568707809
20
21.8594356318
30
0.0000000000
10
3.1339401040
20
21.8590646029
30
0.0000000000
10
3.1103275488
20
21.8588400469
30
0.0000000000
10
3.0943940111
20
21.8587901043
30
0.0000000000
10
3.0863911290
20
21.8587901043
30
0.0000000000
11
3.2863911290
21
21.8692716602
31
0.0000000000
11
3.2849403679
21
21.8680114740
31
0.0000000000
11
3.2805792283
21
21.8667632035
31
0.0000000000
11
3.2733939962
21
21.8655547966
31
0.0000000000
11
3.2635036747
21
21.8644027699
31
0.0000000000
11
3.2509579899
21
21.8633151874
31
0.0000000000
11
3.2360188556
21
21.8623167029
31
0.0000000000
11
3.2189935688
21
21.8614250774
31
0.0000000000
11
3.1999349610
21
21.8606430097
31
0.0000000000
11
3.1791897824
21
21.8599866921
31
0.0000000000
11
3.1572272784
21
21.8594695504
31
0.0000000000
11
3.1341903833
21
21.8590938547
31
0.0000000000
11
3.1103996555
21
21.8588658992
31
0.0000000000
11
3.0863911290
21
21.8587901043
31
0.0000000000
0
SPLINE
5
2FE
100
AcDbEntity
8
0
100
AcDbSpline
62
7
6
CONTINUOUS
70
0
71
3
72
21
73
17
74
15
42
0.0000001000
43
0.0000001000
44
0.0000000001
12
0.0000000000
22
-0.3925005991
32
0.0000000000
13
-0.3925005991
23
0.0000000000
33
0.0000000000
40
0.0000000000
40
0.0000000000
40
0.0000000000
40
0.0000000000
40
0.0711981245
40
0.1427907489
40
0.2142578034
40
0.2854302793
40
0.3570180029
40
0.4287065171
40
0.5000256145
40
0.5713401973
40
0.6430219693
40
0.7146111115
40
0.7857838669
40
0.8572331890
40
0.9288109481
40
1.0000000000
40
1.0000000000
40
1.0000000000
40
1.0000000000
10
12.1363911290
20
0.0018450350
30
0.0000000000
10
12.1363911290
20
-0.0074700672
30
0.0000000000
10
12.1353449039
20
-0.0261686684
30
0.0000000000
10
12.1306461724
20
-0.0538613551
30
0.0000000000
10
12.1228728941
20
-0.0808527707
30
0.0000000000
10
12.1121315660
20
-0.1068039270
30
0.0000000000
10
12.0985397023
20
-0.1314167509
30
0.0000000000
10
12.0822588018
20
-0.1543634261
30
0.0000000000
10
12.0635329366
20
-0.1753135412
30
0.0000000000
10
12.0425831139
20
-0.1940383974
30
0.0000000000
10
12.0196372717
20
-0.2103182294
30
0.0000000000
10
11.9950248104
20
-0.2239094030
30
0.0000000000
10
11.9690753203
20
-0.2346492918
30
0.0000000000
10
11.9420878332
20
-0.2424208252
30
0.0000000000
10
11.9144005108
20
-0.2471184482
30
0.0000000000
10
11.8957050442
20
-0.2481644846
30
0.0000000000
10
11.8863911290
20
-0.2481644846
30
0.0000000000
11
12.1363911290
21
0.0018450350
31
0.0000000000
11
12.1348293673
21
-0.0260565968
31
0.0000000000
11
12.1301291439
21
-0.0537608603
31
0.0000000000
11
12.1223660768
21
-0.0807161127
31
0.0000000000
11
12.1116825735
21
-0.1065277449
31
0.0000000000
11
12.0980994316
21
-0.1311246648
31
0.0000000000
11
12.0818173364
21
-0.1540730485
31
0.0000000000
11
12.0631623922
21
-0.1749438238
31
0.0000000000
11
12.0422925593
21
-0.1935971633
31
0.0000000000
11
12.0193461011
21
-0.2098773989
31
0.0000000000
11
11.9947484808
21
-0.2234604243
31
0.0000000000
11
11.9689364802
21
-0.2341433248
31
0.0000000000
11
11.9419877512
21
-0.2419038934
31
0.0000000000
11
11.9142892066
21
-0.2466029432
31
0.0000000000
11
11.8863911290
21
-0.2481644846
31
0.0000000000
0
SPLINE
5
2FF
100
AcDbEntity
8
0
100
AcDbSpline
62
7
6
CONTINUOUS
70
0
71
3
72
20
73
16
74
14
42
0.0000001000
43
0.0000001000
44
0.0000000001
12
-0.2009542966
22
0.0000000000
32
0.0000000000
13
0.0000000000
23
0.2009542966
33
0.0000000000
40
0.0000000000
40
0.0000000000
40
0.0000000000
40
0.0000000000
40
0.1194731665
40
0.2378673497
40
0.3525200784
40
0.4618414115
40
0.5651263793
40
0.6600467040
40
0.7448849913
40
0.8193918077
40
0.8820564927
40
0.9316060158
40
0.9678637034
40
0.9904373282
40
1.0000000000
40
1.0000000000
40
1.0000000000
40
1.0000000000
10
-1.0136088710
20
21.8587901043
30
0.0000000000
10
-1.0216117530
20
21.8587901043
30
0.0000000000
10
-1.0375452907
20
21.8588400469
30
0.0000000000
10
-1.0611578459
20
21.8590646029
30
0.0000000000
10
-1.0840885229
20
21.8594356318
30
0.0000000000
10
-1.1060039927
20
21.8599471993
30
0.0000000000
10
-1.1265941961
20
21.8605923557
30
0.0000000000
10
-1.1455370513
20
21.8613602497
30
0.0000000000
10
-1.1625514430
20
21.8622401781
30
0.0000000000
10
-1.1773770221
20
21.8632088715
30
0.0000000000
10
-1.1898825262
20
21.8642757153
30
0.0000000000
10
-1.1996587859
20
21.8653451521
30
0.0000000000
10
-1.2070896852
20
21.8665572701
30
0.0000000000
10
-1.2110721453
20
21.8674840702
30
0.0000000000
10
-1.2136088710
20
21.8686311069
30
0.0000000000
10
-1.2136088710
20
21.8692716602
30
0.0000000000
11
-1.0136088710
21
21.8587901043
31
0.0000000000
11
-1.0376173975
21
21.8588658992
31
0.0000000000
11
-1.0614081252
21
21.8590938547
31
0.0000000000
11
-1.0844450203
21
21.8594695504
31
0.0000000000
11
-1.1064075243
21
21.8599866921
31
0.0000000000
11
-1.1271527030
21
21.8606430097
31
0.0000000000
11
-1.1462113108
21
21.8614250774
31
0.0000000000
11
-1.1632365976
21
21.8623167029
31
0.0000000000
11
-1.1781757319
21
21.8633151874
31
0.0000000000
11
-1.1907214167
21
21.8644027699
31
0.0000000000
11
-1.2006117381
21
21.8655547966
31
0.0000000000
11
-1.2077969703
21
21.8667632035
31
0.0000000000
11
-1.2121581098
21
21.8680114740
31
0.0000000000
11
-1.2136088710
21
21.8692716602
31
0.0000000000
0
SPLINE
5
300
100
AcDbEntity
8
0
100
AcDbSpline
62
7
6
CONTINUOUS
70
0
71
3
72
20
73
16
74
14
42
0.0000001000
43
0.0000001000
44
0.0000000001
12
0.0000237084
22
-0.3105890571
32
0.0000000000
13
0.3106369231
23
-0.0046987873
33
0.0000000000
40
0.0000000000
40
0.0000000000
40
0.0000000000
40
0.0000000000
40
0.0795701838
40
0.1588067754
40
0.2377292296
40
0.3163482463
40
0.3946694030
40
0.4726958146
40
0.5504308891
40
0.6278799552
40
0.7050513657
40
0.7819571568
40
0.8586128639
40
0.9350376605
40
1.0000000000
40
1.0000000000
40
1.0000000000
40
1.0000000000
10
5.7226051432
20
-0.0006131577
30
0.0000000000
10
5.7226057720
20
-0.0088510338
30
0.0000000000
10
5.7236279295
20
-0.0253104430
30
0.0000000000
10
5.7281869183
20
-0.0495572557
30
0.0000000000
10
5.7356643450
20
-0.0729684600
30
0.0000000000
10
5.7459147030
20
-0.0951989375
30
0.0000000000
10
5.7587531973
20
-0.1159324968
30
0.0000000000
10
5.7739594213
20
-0.1348793634
30
0.0000000000
10
5.7912820623
20
-0.1517827478
30
0.0000000000
10
5.8104442189
20
-0.1664215777
30
0.0000000000
10
5.8311491198
20
-0.1786127205
30
0.0000000000
10
5.8530850903
20
-0.1882119015
30
0.0000000000
10
5.8759325930
20
-0.1951137736
30
0.0000000000
10
5.8982120159
20
-0.1990482140
30
0.0000000000
10
5.9128510903
20
-0.2000055741
30
0.0000000000
10
5.9195776574
20
-0.2001073222
30
0.0000000000
11
5.7226051432
21
-0.0006131577
31
0.0000000000
11
5.7241380332
21
-0.0252792007
31
0.0000000000
11
5.7286852909
21
-0.0494654665
31
0.0000000000
11
5.7361435951
21
-0.0728157114
31
0.0000000000
11
5.7463679874
21
-0.0949902599
31
0.0000000000
11
5.7591742506
21
-0.1156721125
31
0.0000000000
11
5.7743425540
21
-0.1345722867
31
0.0000000000
11
5.7916222239
21
-0.1514343594
31
0.0000000000
11
5.8107370753
21
-0.1660376954
31
0.0000000000
11
5.8313909868
21
-0.1781995012
31
0.0000000000
11
5.8532734063
21
-0.1877757926
31
0.0000000000
11
5.8760644025
21
-0.1946613964
31
0.0000000000
11
5.8994394148
21
-0.1987893490
31
0.0000000000
11
5.9195776574
21
-0.2001073222
31
0.0000000000
0
SPLINE
5
301
100
AcDbEntity
8
0
100
AcDbSpline
62
7
6
CONTINUOUS
70
0
71
3
72
20
73
16
74
14
42
0.0000001000
43
0.0000001000
44
0.0000000001
12
-0.0000237084
22
-0.3105890571
32
0.0000000000
13
-0.3106369231
23
-0.0046987873
33
0.0000000000
40
0.0000000000
40
0.0000000000
40
0.0000000000
40
0.0000000000
40
0.0795701838
40
0.1588067754
40
0.2377292296
40
0.3163482463
40
0.3946694030
40
0.4726958146
40
0.5504308891
40
0.6278799552
40
0.7050513657
40
0.7819571568
40
0.8586128639
40
0.9350376605
40
1.0000000000
40
1.0000000000
40
1.0000000000
40
1.0000000000
10
-3.6498228851
20
-0.0006131577
30
0.0000000000
10
-3.6498235139
20
-0.0088510338
30
0.0000000000
10
-3.6508456714
20
-0.0253104430
30
0.0000000000
10
-3.6554046602
20
-0.0495572557
30
0.0000000000
10
-3.6628820869
20
-0.0729684600
30
0.0000000000
10
-3.6731324450
20
-0.0951989375
30
0.0000000000
10
-3.6859709392
20
-0.1159324968
30
0.0000000000
10
-3.7011771633
20
-0.1348793634
30
0.0000000000
10
-3.7184998042
20
-0.1517827478
30
0.0000000000
10
-3.7376619608
20
-0.1664215777
30
0.0000000000
10
-3.7583668618
20
-0.1786127205
30
0.0000000000
10
-3.7803028322
20
-0.1882119015
30
0.0000000000
10
-3.8031503350
20
-0.1951137736
30
0.0000000000
10
-3.8254297578
20
-0.1990482140
30
0.0000000000
10
-3.8400688323
20
-0.2000055741
30
0.0000000000
10
-3.8467953994
20
-0.2001073222
30
0.0000000000
11
-3.6498228851
21
-0.0006131577
31
0.0000000000
11
-3.6513557752
21
-0.0252792007
31
0.0000000000
11
-3.6559030329
21
-0.0494654665
31
0.0000000000
11
-3.6633613370
21
-0.0728157114
31
0.0000000000
11
-3.6735857294
21
-0.0949902599
31
0.0000000000
11
-3.6863919925
21
-0.1156721125
31
0.0000000000
11
-3.7015602959
21
-0.1345722867
31
0.0000000000
11
-3.7188399658
21
-0.1514343594
31
0.0000000000
11
-3.7379548173
21
-0.1660376954
31
0.0000000000
11
-3.7586087287
21
-0.1781995012
31
0.0000000000
11
-3.7804911482
21
-0.1877757926
31
0.0000000000
11
-3.8032821444
21
-0.1946613964
31
0.0000000000
11
-3.8266571567
21
-0.1987893490
31
0.0000000000
11
-3.8467953994
21
-0.2001073222
31
0.0000000000
0
SPLINE
5
302
100
AcDbEntity
8
0
100
AcDbSpline
62
7
6
CONTINUOUS
70
0
71
3
72
10
73
6
74
4
42
0.0000001000
43
0.0000001000
44
0.0000000001
12
-0.0078302189
22
-0.0627158223
32
0.0000000000
13
0.0000000000
23
-0.0632027428
33
0.0000000000
40
0.0000000000
40
0.0000000000
40
0.0000000000
40
0.0000000000
40
0.3371715920
40
0.6698236531
40
1.0000000000
40
1.0000000000
40
1.0000000000
40
1.0000000000
10
-3.6458992529
20
0.5124581236
30
0.0000000000
10
-3.6467792953
20
0.5054094590
30
0.0000000000
10
-3.6482351983
20
0.4913682285
30
0.0000000000
10
-3.6495357108
20
0.4703354300
30
0.0000000000
10
-3.6498228512
20
0.4563694792
30
0.0000000000
10
-3.6498228512
20
0.4494134623
30
0.0000000000
11
-3.6458992529
21
0.5124581236
31
0.0000000000
11
-3.6480968450
21
0.4912615694
31
0.0000000000
11
-3.6493941358
21
0.4702771087
31
0.0000000000
11
-3.6498228512
21
0.4494134623
31
0.0000000000
0
SPLINE
5
303
100
AcDbEntity
8
0
100
AcDbSpline
62
7
6
CONTINUOUS
70
0
71
3
72
21
73
17
74
15
42
0.0000001000
43
0.0000001000
44
0.0000000001
12
0.0816684977
22
0.6541205404
32
0.0000000000
13
0.6541205404
23
0.0816684977
33
0.0000000000
40
0.0000000000
40
0.0000000000
40
0.0000000000
40
0.0000000000
40
0.0726067848
40
0.1446774765
40
0.2163246717
40
0.2875828558
40
0.3585629515
40
0.4293282611
40
0.5000000000
40
0.5706717389
40
0.6414370485
40
0.7124171442
40
0.7836753283
40
0.8553225235
40
0.9273932152
40
1.0000000000
40
1.0000000000
40
1.0000000000
40
1.0000000000
10
-3.6458992529
20
0.5124581236
30
0.0000000000
10
-3.6439226905
20
0.5282893200
30
0.0000000000
10
-3.6384702215
20
0.5596671032
30
0.0000000000
10
-3.6258860823
20
0.6055755228
30
0.0000000000
10
-3.6091113509
20
0.6498106134
30
0.0000000000
10
-3.5883444143
20
0.6920485969
30
0.0000000000
10
-3.5638016990
20
0.7319825983
30
0.0000000000
10
-3.5357027334
20
0.7693375820
30
0.0000000000
10
-3.5042787535
20
0.8038503260
30
0.0000000000
10
-3.4697660094
20
0.8352743060
30
0.0000000000
10
-3.4324110257
20
0.8633732716
30
0.0000000000
10
-3.3924770243
20
0.8879159868
30
0.0000000000
10
-3.3502390408
20
0.9086829235
30
0.0000000000
10
-3.3060039502
20
0.9254576549
30
0.0000000000
10
-3.2600955306
20
0.9380417940
30
0.0000000000
10
-3.2287177474
20
0.9434942631
30
0.0000000000
10
-3.2128865510
20
0.9454708255
30
0.0000000000
11
-3.6458992529
21
0.5124581236
31
0.0000000000
11
-3.6377035724
21
0.5596135372
31
0.0000000000
11
-3.6251437397
21
0.6054321947
31
0.0000000000
11
-3.6083962308
21
0.6495929425
31
0.0000000000
11
-3.5876702541
21
0.6917465610
31
0.0000000000
11
-3.5631705757
21
0.7316097161
31
0.0000000000
11
-3.5351285219
21
0.7688886505
31
0.0000000000
11
-3.5037641865
21
0.8033357591
31
0.0000000000
11
-3.4693170779
21
0.8347000945
31
0.0000000000
11
-3.4320381435
21
0.8627421483
31
0.0000000000
11
-3.3921749884
21
0.8872418267
31
0.0000000000
11
-3.3500213699
21
0.9079678034
31
0.0000000000
11
-3.3058606221
21
0.9247153123
31
0.0000000000
11
-3.2600419646
21
0.9372751450
31
0.0000000000
11
-3.2128865510
21
0.9454708255
31
0.0000000000
0
SPLINE
5
304
100
AcDbEntity
8
0
100
AcDbSpline
62
7
6
CONTINUOUS
70
0
71
3
72
21
73
17
74
15
42
0.0000001000
43
0.0000001000
44
0.0000000001
12
0.6541205404
22
-0.0816684977
32
0.0000000000
13
0.0816684977
23
-0.6541205404
33
0.0000000000
40
0.0000000000
40
0.0000000000
40
0.0000000000
40
0.0000000000
40
0.0726067848
40
0.1446774765
40
0.2163246717
40
0.2875828558
40
0.3585629515
40
0.4293282611
40
0.5000000000
40
0.5706717389
40
0.6414370485
40
0.7124171442
40
0.7836753283
40
0.8553225235
40
0.9273932152
40
1.0000000000
40
1.0000000000
40
1.0000000000
40
1.0000000000
10
5.2856688091
20
0.9454708255
30
0.0000000000
10
5.3015000055
20
0.9434942631
30
0.0000000000
10
5.3328777886
20
0.9380417940
30
0.0000000000
10
5.3787862082
20
0.9254576549
30
0.0000000000
10
5.4230212989
20
0.9086829235
30
0.0000000000
10
5.4652592824
20
0.8879159868
30
0.0000000000
10
5.5051932838
20
0.8633732716
30
0.0000000000
10
5.5425482674
20
0.8352743060
30
0.0000000000
10
5.5770610115
20
0.8038503260
30
0.0000000000
10
5.6084849915
20
0.7693375820
30
0.0000000000
10
5.6365839570
20
0.7319825983
30
0.0000000000
10
5.6611266723
20
0.6920485969
30
0.0000000000
10
5.6818936090
20
0.6498106134
30
0.0000000000
10
5.6986683404
20
0.6055755228
30
0.0000000000
10
5.7112524795
20
0.5596671032
30
0.0000000000
10
5.7167049486
20
0.5282893200
30
0.0000000000
10
5.7186815109
20
0.5124581236
30
0.0000000000
11
5.2856688091
21
0.9454708255
31
0.0000000000
11
5.3328242227
21
0.9372751450
31
0.0000000000
11
5.3786428801
21
0.9247153123
31
0.0000000000
11
5.4228036280
21
0.9079678034
31
0.0000000000
11
5.4649572465
21
0.8872418267
31
0.0000000000
11
5.5048204016
21
0.8627421483
31
0.0000000000
11
5.5420993360
21
0.8347000945
31
0.0000000000
11
5.5765464446
21
0.8033357591
31
0.0000000000
11
5.6079107800
21
0.7688886505
31
0.0000000000
11
5.6359528337
21
0.7316097161
31
0.0000000000
11
5.6604525121
21
0.6917465610
31
0.0000000000
11
5.6811784889
21
0.6495929425
31
0.0000000000
11
5.6979259978
21
0.6054321947
31
0.0000000000
11
5.7104858305
21
0.5596135372
31
0.0000000000
11
5.7186815109
21
0.5124581236
31
0.0000000000
0
SPLINE
5
305
100
AcDbEntity
8
0
100
AcDbSpline
62
7
6
CONTINUOUS
70
0
71
3
72
10
73
6
74
4
42
0.0000001000
43
0.0000001000
44
0.0000000001
12
-0.0627158223
22
0.0078302189
32
0.0000000000
13
-0.0632027428
23
0.0000000000
33
0.0000000000
40
0.0000000000
40
0.0000000000
40
0.0000000000
40
0.0000000000
40
0.3371715920
40
0.6698236531
40
1.0000000000
40
1.0000000000
40
1.0000000000
40
1.0000000000
10
5.2856688091
20
0.9454708255
30
0.0000000000
10
5.2786201445
20
0.9463508679
30
0.0000000000
10
5.2645789140
20
0.9478067708
30
0.0000000000
10
5.2435461155
20
0.9491072834
30
0.0000000000
10
5.2295801647
20
0.9493944238
30
0.0000000000
10
5.2226241477
20
0.9493944238
30
0.0000000000
11
5.2856688091
21
0.9454708255
31
0.0000000000
11
5.2644722549
21
0.9476684176
31
0.0000000000
11
5.2434877942
21
0.9489657084
31
0.0000000000
11
5.2226241477
21
0.9493944238
31
0.0000000000
0
SPLINE
5
306
100
AcDbEntity
8
0
100
AcDbSpline
62
7
6
CONTINUOUS
70
0
71
3
72
23
73
19
74
17
42
0.0000001000
43
0.0000001000
44
0.0000000001
12
0.0000000000
22
0.7856215844
32
0.0000000000
13
0.7856215844
23
0.0000000000
33
0.0000000000
40
0.0000000000
40
0.0000000000
40
0.0000000000
40
0.0000000000
40
0.0625945066
40
0.1251848284
40
0.1877682570
40
0.2503395945
40
0.3129011664
40
0.3754438804
40
0.4379735847
40
0.5004819823
40
0.5629742399
40
0.6254466794
40
0.6879023416
40
0.7503419100
40
0.8127684860
40
0.8751838684
40
0.9375942187
40
1.0000000000
40
1.0000000000
40
1.0000000000
40
1.0000000000
10
-10.0636088710
20
21.4838826016
30
0.0000000000
10
-10.0636088710
20
21.5002744668
30
0.0000000000
10
-10.0619986098
20
21.5330798581
30
0.0000000000
10
-10.0547759864
20
21.5817940790
30
0.0000000000
10
-10.0428168352
20
21.6295653897
30
0.0000000000
10
-10.0262376811
20
21.6759268396
30
0.0000000000
10
-10.0052004017
20
21.7204315411
30
0.0000000000
10
-9.9799091119
20
21.7626512413
30
0.0000000000
10
-9.9506104534
20
21.8021781117
30
0.0000000000
10
-9.9175877950
20
21.8386333826
30
0.0000000000
10
-9.8811619982
20
21.8716662332
30
0.0000000000
10
-9.8416845608
20
21.9009609634
30
0.0000000000
10
-9.7995371605
20
21.9262371773
30
0.0000000000
10
-9.7551253407
20
21.9472540219
30
0.0000000000
10
-9.7088770188
20
21.9638112302
30
0.0000000000
10
-9.6612340923
20
21.9757515811
30
0.0000000000
10
-9.6126601324
20
21.9829614709
30
0.0000000000
10
-9.5799513139
20
21.9845687746
30
0.0000000000
10
-9.5636088710
20
21.9845687746
30
0.0000000000
11
-10.0636088710
21
21.4838826016
31
0.0000000000
11
-10.0611972395
21
21.5329990268
31
0.0000000000
11
-10.0539859991
21
21.5816396874
31
0.0000000000
11
-10.0420455456
21
21.6293346438
31
0.0000000000
11
-10.0254929883
21
21.6756213824
31
0.0000000000
11
-10.0044882094
21
21.7200566652
31
0.0000000000
11
-9.9792380305
21
21.7622071985
31
0.0000000000
11
-9.9499848444
21
21.8016721934
31
0.0000000000
11
-9.9170158509
21
21.8380677407
31
0.0000000000
11
-9.8806475985
21
21.8710479682
31
0.0000000000
11
-9.8412340049
21
21.9002949388
31
0.0000000000
11
-9.7991542773
21
21.9255302224
31
0.0000000000
11
-9.7548144919
21
21.9465127354
31
0.0000000000
11
-9.7086405628
21
21.9630429925
31
0.0000000000
11
-9.6610767394
21
21.9749636194
31
0.0000000000
11
-9.6125770801
21
21.9821618129
31
0.0000000000
11
-9.5636088710
21
21.9845687746
31
0.0000000000
0
SPLINE
5
307
100
AcDbEntity
8
0
100
AcDbSpline
62
7
6
CONTINUOUS
70
0
71
3
72
23
73
19
74
17
42
0.0000001000
43
0.0000001000
44
0.0000000001
12
0.7856215844
22
0.0000000000
32
0.0000000000
13
0.0000000000
23
-0.7856215844
33
0.0000000000
40
0.0000000000
40
0.0000000000
40
0.0000000000
40
0.0000000000
40
0.0624057813
40
0.1248161316
40
0.1872315140
40
0.2496580900
40
0.3120976584
40
0.3745533206
40
0.4370257601
40
0.4995180177
40
0.5620264153
40
0.6245561196
40
0.6870988336
40
0.7496604055
40
0.8122317430
40
0.8748151716
40
0.9374054934
40
1.0000000000
40
1.0000000000
40
1.0000000000
40
1.0000000000
10
11.6363911290
20
21.9845687746
30
0.0000000000
10
11.6527335720
20
21.9845687746
30
0.0000000000
10
11.6854423905
20
21.9829614709
30
0.0000000000
10
11.7340163504
20
21.9757515811
30
0.0000000000
10
11.7816592769
20
21.9638112302
30
0.0000000000
10
11.8279075987
20
21.9472540219
30
0.0000000000
10
11.8723194186
20
21.9262371773
30
0.0000000000
10
11.9144668189
20
21.9009609634
30
0.0000000000
10
11.9539442563
20
21.8716662332
30
0.0000000000
10
11.9903700530
20
21.8386333826
30
0.0000000000
10
12.0233927115
20
21.8021781117
30
0.0000000000
10
12.0526913699
20
21.7626512413
30
0.0000000000
10
12.0779826598
20
21.7204315411
30
0.0000000000
10
12.0990199392
20
21.6759268396
30
0.0000000000
10
12.1155990933
20
21.6295653897
30
0.0000000000
10
12.1275582445
20
21.5817940790
30
0.0000000000
10
12.1347808679
20
21.5330798581
30
0.0000000000
10
12.1363911290
20
21.5002744668
30
0.0000000000
10
12.1363911290
20
21.4838826016
30
0.0000000000
11
11.6363911290
21
21.9845687746
31
0.0000000000
11
11.6853593381
21
21.9821618129
31
0.0000000000
11
11.7338589975
21
21.9749636194
31
0.0000000000
11
11.7814228209
21
21.9630429925
31
0.0000000000
11
11.8275967500
21
21.9465127354
31
0.0000000000
11
11.8719365354
21
21.9255302224
31
0.0000000000
11
11.9140162630
21
21.9002949388
31
0.0000000000
11
11.9534298565
21
21.8710479682
31
0.0000000000
11
11.9897981090
21
21.8380677407
31
0.0000000000
11
12.0227671025
21
21.8016721934
31
0.0000000000
11
12.0520202886
21
21.7622071985
31
0.0000000000
11
12.0772704675
21
21.7200566652
31
0.0000000000
11
12.0982752463
21
21.6756213824
31
0.0000000000
11
12.1148278037
21
21.6293346438
31
0.0000000000
11
12.1267682572
21
21.5816396874
31
0.0000000000
11
12.1339794976
21
21.5329990268
31
0.0000000000
11
12.1363911290
21
21.4838826016
31
0.0000000000
0
SPLINE
5
308
100
AcDbEntity
8
0
100
AcDbSpline
62
7
6
CONTINUOUS
70
0
71
3
72
21
73
17
74
15
42
0.0000001000
43
0.0000001000
44
0.0000000001
12
-0.3925005991
22
0.0000000000
32
0.0000000000
13
-0.0000000000
23
0.3925005991
33
0.0000000000
40
0.0000000000
40
0.0000000000
40
0.0000000000
40
0.0000000000
40
0.0711890519
40
0.1427668110
40
0.2142161331
40
0.2853888885
40
0.3569780307
40
0.4286598027
40
0.4999743855
40
0.5712934829
40
0.6429819971
40
0.7145697207
40
0.7857421966
40
0.8572092511
40
0.9288018755
40
1.0000000000
40
1.0000000000
40
1.0000000000
40
1.0000000000
10
-9.8136088710
20
-0.2481644846
30
0.0000000000
10
-9.8229227861
20
-0.2481644846
30
0.0000000000
10
-9.8416182528
20
-0.2471184482
30
0.0000000000
10
-9.8693055751
20
-0.2424208252
30
0.0000000000
10
-9.8962930623
20
-0.2346492918
30
0.0000000000
10
-9.9222425523
20
-0.2239094030
30
0.0000000000
10
-9.9468550137
20
-0.2103182294
30
0.0000000000
10
-9.9698008558
20
-0.1940383974
30
0.0000000000
10
-9.9907506785
20
-0.1753135412
30
0.0000000000
10
-10.0094765437
20
-0.1543634261
30
0.0000000000
10
-10.0257574442
20
-0.1314167509
30
0.0000000000
10
-10.0393493079
20
-0.1068039270
30
0.0000000000
10
-10.0500906360
20
-0.0808527707
30
0.0000000000
10
-10.0578639144
20
-0.0538613551
30
0.0000000000
10
-10.0625626459
20
-0.0261686684
30
0.0000000000
10
-10.0636088710
20
-0.0074700672
30
0.0000000000
10
-10.0636088710
20
0.0018450350
30
0.0000000000
11
-9.8136088710
21
-0.2481644846
31
0.0000000000
11
-9.8415069485
21
-0.2466029432
31
0.0000000000
11
-9.8692054931
21
-0.2419038934
31
0.0000000000
11
-9.8961542222
21
-0.2341433248
31
0.0000000000
11
-9.9219662227
21
-0.2234604243
31
0.0000000000
11
-9.9465638430
21
-0.2098773989
31
0.0000000000
11
-9.9695103012
21
-0.1935971633
31
0.0000000000
11
-9.9903801342
21
-0.1749438238
31
0.0000000000
11
-10.0090350784
21
-0.1540730485
31
0.0000000000
11
-10.0253171735
21
-0.1311246648
31
0.0000000000
11
-10.0389003154
21
-0.1065277449
31
0.0000000000
11
-10.0495838187
21
-0.0807161127
31
0.0000000000
11
-10.0573468858
21
-0.0537608603
31
0.0000000000
11
-10.0620471092
21
-0.0260565968
31
0.0000000000
11
-10.0636088710
21
0.0018450350
31
0.0000000000
0
SPLINE
5
309
100
AcDbEntity
8
0
100
AcDbSpline
62
7
6
CONTINUOUS
70
0
71
3
72
10
73
6
74
4
42
0.0000001000
43
0.0000001000
44
0.0000000001
12
0.0627158223
22
0.0078302189
32
0.0000000000
13
0.0632027428
23
-0.0000000000
33
0.0000000000
40
0.0000000000
40
0.0000000000
40
0.0000000000
40
0.0000000000
40
0.3371715920
40
0.6698236531
40
1.0000000000
40
1.0000000000
40
1.0000000000
40
1.0000000000
10
-3.2128865510
20
0.9454708255
30
0.0000000000
10
-3.2058378864
20
0.9463508679
30
0.0000000000
10
-3.1917966559
20
0.9478067708
30
0.0000000000
10
-3.1707638574
20
0.9491072834
30
0.0000000000
10
-3.1567979066
20
0.9493944238
30
0.0000000000
10
-3.1498418897
20
0.9493944238
30
0.0000000000
11
-3.2128865510
21
0.9454708255
31
0.0000000000
11
-3.1916899968
21
0.9476684176
31
0.0000000000
11
-3.1707055362
21
0.9489657084
31
0.0000000000
11
-3.1498418897
21
0.9493944238
31
0.0000000000
0
SPLINE
5
30A
100
AcDbEntity
8
0
100
AcDbSpline
62
7
6
CONTINUOUS
70
0
71
3
72
10
73
6
74
4
42
0.0000001000
43
0.0000001000
44
0.0000000001
12
0.0078302189
22
-0.0627158223
32
0.0000000000
13
0.0000000000
23
-0.0632027428
33
0.0000000000
40
0.0000000000
40
0.0000000000
40
0.0000000000
40
0.0000000000
40
0.3371715920
40
0.6698236531
40
1.0000000000
40
1.0000000000
40
1.0000000000
40
1.0000000000
10
5.7186815109
20
0.5124581236
30
0.0000000000
10
5.7195615534
20
0.5054094590
30
0.0000000000
10
5.7210174563
20
0.4913682285
30
0.0000000000
10
5.7223179688
20
0.4703354300
30
0.0000000000
10
5.7226051093
20
0.4563694792
30
0.0000000000
10
5.7226051093
20
0.4494134623
30
0.0000000000
11
5.7186815109
21
0.5124581236
31
0.0000000000
11
5.7208791030
21
0.4912615694
31
0.0000000000
11
5.7221763939
21
0.4702771087
31
0.0000000000
11
5.7226051093
21
0.4494134623
31
0.0000000000
0
SPLINE
5
30B
100
AcDbEntity
8
0
100
AcDbSpline
62
7
6
CONTINUOUS
70
0
71
3
72
10
73
6
74
4
42
0.0000001000
43
0.0000001000
44
0.0000000001
12
-0.0000000678
22
0.0008878840
32
0.0000000000
13
0.0000000000
23
0.0008878840
33
0.0000000000
40
0.0000000000
40
0.0000000000
40
0.0000000000
40
0.0000000000
40
0.3333222604
40
0.6666549605
40
1.0000000000
40
1.0000000000
40
1.0000000000
40
1.0000000000
10
5.7226051432
20
-0.0006131577
30
0.0000000000
10
5.7226051356
20
-0.0005145072
30
0.0000000000
10
5.7226051231
20
-0.0003172031
30
0.0000000000
10
5.7226051118
20
-0.0000212418
30
0.0000000000
10
5.7226051093
20
0.0001760690
30
0.0000000000
10
5.7226051093
20
0.0002747262
30
0.0000000000
11
5.7226051432
21
-0.0006131577
31
0.0000000000
11
5.7226051243
21
-0.0003172062
31
0.0000000000
11
5.7226051130
21
-0.0000212455
31
0.0000000000
11
5.7226051093
21
0.0002747262
31
0.0000000000
0
SPLINE
5
30C
100
AcDbEntity
8
0
100
AcDbSpline
62
7
6
CONTINUOUS
70
0
71
3
72
10
73
6
74
4
42
0.0000001000
43
0.0000001000
44
0.0000000001
12
0.0000000678
22
0.0008878840
32
0.0000000000
13
-0.0000000000
23
0.0008878840
33
0.0000000000
40
0.0000000000
40
0.0000000000
40
0.0000000000
40
0.0000000000
40
0.3333222606
40
0.6666549610
40
1.0000000000
40
1.0000000000
40
1.0000000000
40
1.0000000000
10
-3.6498228851
20
-0.0006131577
30
0.0000000000
10
-3.6498228776
20
-0.0005145072
30
0.0000000000
10
-3.6498228650
20
-0.0003172031
30
0.0000000000
10
-3.6498228537
20
-0.0000212418
30
0.0000000000
10
-3.6498228512
20
0.0001760690
30
0.0000000000
10
-3.6498228512
20
0.0002747262
30
0.0000000000
11
-3.6498228851
21
-0.0006131577
31
0.0000000000
11
-3.6498228663
21
-0.0003172062
31
0.0000000000
11
-3.6498228550
21
-0.0000212455
31
0.0000000000
11
-3.6498228512
21
0.0002747262
31
0.0000000000
0
SPLINE
5
30D
100
AcDbEntity
8
0
100
AcDbSpline
62
9
6
CONTINUOUS
70
0
71
3
72
25
73
21
74
19
42
0.0000001000
43
0.0000001000
44
0.0000000001
12
-0.0000271793
22
1.0993875953
32
0.0000000000
13
-1.0993875956
23
0.0000117758
33
0.0000000000
40
0.0000000000
40
0.0000000000
40
0.0000000000
40
0.0000000000
40
0.0550781110
40
0.1105590901
40
0.1662606870
40
0.2220263767
40
0.2777129763
40
0.3333014435
40
0.3888795510
40
0.4444985820
40
0.5001385716
40
0.5557744339
40
0.6113810426
40
0.6669392486
40
0.7225019361
40
0.7781573519
40
0.8338853332
40
0.8895425111
40
0.9449737200
40
1.0000000000
40
1.0000000000
40
1.0000000000
40
1.0000000000
10
5.9343909573
20
0.4615262737
30
0.0000000000
10
5.9343904583
20
0.4817103377
30
0.0000000000
10
5.9326371383
20
0.5222478403
30
0.0000000000
10
5.9247270246
20
0.5827345831
30
0.0000000000
10
5.9115204051
20
0.6425533581
30
0.0000000000
10
5.8931139284
20
0.7010599982
30
0.0000000000
10
5.8696812719
20
0.7576961697
30
0.0000000000
10
5.8414281727
20
0.8120103606
30
0.0000000000
10
5.8085610672
20
0.8636338891
30
0.0000000000
10
5.7713055908
20
0.9122095591
30
0.0000000000
10
5.7299389079
20
0.9573644906
30
0.0000000000
10
5.6847920336
20
0.9987332255
30
0.0000000000
10
5.6362310560
20
1.0359858969
30
0.0000000000
10
5.5846288456
20
1.0688468205
30
0.0000000000
10
5.5303421703
20
1.0970917579
30
0.0000000000
10
5.4737397343
20
1.1205151838
30
0.0000000000
10
5.4152736449
20
1.1389121370
30
0.0000000000
10
5.3555024908
20
1.1521101215
30
0.0000000000
10
5.2950689316
20
1.1600139680
30
0.0000000000
10
5.2545686507
20
1.1617654595
30
0.0000000000
10
5.2344035808
20
1.1617656755
30
0.0000000000
11
5.9343909573
21
0.4615262737
31
0.0000000000
11
5.9317732290
21
0.5220218559
31
0.0000000000
11
5.9238646130
21
0.5825020678
31
0.0000000000
11
5.9106622937
21
0.6422996254
31
0.0000000000
11
5.8922635609
21
0.7007818508
31
0.0000000000
11
5.8688579994
21
0.7573522470
31
0.0000000000
11
5.8406555322
21
0.8115689674
31
0.0000000000
11
5.8078401467
21
0.8631110906
31
0.0000000000
11
5.7706275027
21
0.9116307688
31
0.0000000000
11
5.7293071748
21
0.9567349696
31
0.0000000000
11
5.6842108971
21
0.9980572285
31
0.0000000000
11
5.6357060367
21
1.0352667513
31
0.0000000000
11
5.5841856286
21
1.0680755041
31
0.0000000000
11
5.5299965002
21
1.0962695985
31
0.0000000000
11
5.4734594025
21
1.1196659682
31
0.0000000000
11
5.4150176180
21
1.1380551060
31
0.0000000000
11
5.3552681232
21
1.1512486069
31
0.0000000000
11
5.2948422491
21
1.1591507627
31
0.0000000000
11
5.2344035808
21
1.1617656755
31
0.0000000000
0
SPLINE
5
30E
100
AcDbEntity
8
0
100
AcDbSpline
62
9
6
CONTINUOUS
70
0
71
3
72
25
73
21
74
19
42
0.0000001000
43
0.0000001000
44
0.0000000001
12
-1.0993875956
22
-0.0000118754
32
0.0000000000
13
-0.0000270794
23
-1.0993875953
33
0.0000000000
40
0.0000000000
40
0.0000000000
40
0.0000000000
40
0.0000000000
40
0.0550308829
40
0.1104663287
40
0.1661254943
40
0.2218531090
40
0.2775070736
40
0.3330689927
40
0.3886274137
40
0.4442344016
40
0.4998703456
40
0.5555102521
40
0.6111289031
40
0.6667067935
40
0.7222960249
40
0.7779840731
40
0.8337501305
40
0.8894497411
40
0.9449264849
40
1.0000000000
40
1.0000000000
40
1.0000000000
40
1.0000000000
10
-3.1616213227
20
1.1617656755
30
0.0000000000
10
-3.1817880794
20
1.1617654577
30
0.0000000000
10
-3.2222916055
20
1.1600136837
30
0.0000000000
10
-3.2827290300
20
1.1521086687
30
0.0000000000
10
-3.3425020861
20
1.1389093038
30
0.0000000000
10
-3.4009679250
20
1.1205113499
30
0.0000000000
10
-3.4575691222
20
1.0970874242
30
0.0000000000
10
-3.5118547600
20
1.0688420909
30
0.0000000000
10
-3.5634564862
20
1.0359805247
30
0.0000000000
10
-3.6120171556
20
0.9987270421
30
0.0000000000
10
-3.6571635555
20
0.9573575840
30
0.0000000000
10
-3.6985295143
20
0.9122021793
30
0.0000000000
10
-3.7357841787
20
0.8636262025
30
0.0000000000
10
-3.7686506405
20
0.8120021923
30
0.0000000000
10
-3.7969033428
20
0.7576869672
30
0.0000000000
10
-3.8203354997
20
0.7010495595
30
0.0000000000
10
-3.8387409768
20
0.6425426693
30
0.0000000000
10
-3.8519462174
20
0.5827257951
30
0.0000000000
10
-3.8598551641
20
0.5222429141
30
0.0000000000
10
-3.8616082021
20
0.4817086535
30
0.0000000000
10
-3.8616086992
20
0.4615262737
30
0.0000000000
11
-3.1616213227
21
1.1617656755
31
0.0000000000
11
-3.2220650371
21
1.1591503247
31
0.0000000000
11
-3.2824954457
21
1.1512469203
31
0.0000000000
11
-3.3422468710
21
1.1380520272
31
0.0000000000
11
-3.4006879630
21
1.1196620315
31
0.0000000000
11
-3.4572232286
21
1.0962654073
31
0.0000000000
11
-3.5114112254
21
1.0680709682
31
0.0000000000
11
-3.5629314026
21
1.0352614127
31
0.0000000000
11
-3.6114360884
21
0.9980509773
31
0.0000000000
11
-3.6565318562
21
0.9567280292
31
0.0000000000
11
-3.6978514937
21
0.9116233198
31
0.0000000000
11
-3.7350632249
21
0.8631034680
31
0.0000000000
11
-3.7678778068
21
0.8115611161
31
0.0000000000
11
-3.7960799277
21
0.7573432686
31
0.0000000000
11
-3.8194852345
21
0.7007710435
31
0.0000000000
11
-3.8378831109
21
0.6422881249
31
0.0000000000
11
-3.8510840396
21
0.5824924966
31
0.0000000000
11
-3.8589914082
21
0.5220168174
31
0.0000000000
11
-3.8616086992
21
0.4615262737
31
0.0000000000
0
SPLINE
5
30F
100
AcDbEntity
8
0
100
AcDbSpline
62
9
6
CONTINUOUS
70
0
71
3
72
23
73
19
74
17
42
0.0000001000
43
0.0000001000
44
0.0000000001
12
-0.2236459549
22
0.1117099944
32
0.0000000000
13
-0.2499932719
23
0.0000000365
33
0.0000000000
40
0.0000000000
40
0.0000000000
40
0.0000000000
40
0.0000000000
40
0.0064505269
40
0.0222263290
40
0.0472030955
40
0.0811501043
40
0.1237495888
40
0.1746015919
40
0.2332273049
40
0.2990742107
40
0.3715222780
40
0.4498894715
40
0.5334375890
40
0.6213790293
40
0.7128858807
40
0.8070973114
40
0.9031233887
40
1.0000000000
40
1.0000000000
40
1.0000000000
40
1.0000000000
10
11.7955132832
20
-0.1913840948
30
0.0000000000
10
11.7950324051
20
-0.1911438987
30
0.0000000000
10
11.7930870531
20
-0.1912334810
30
0.0000000000
10
11.7892414537
20
-0.1908445653
30
0.0000000000
10
11.7829750187
20
-0.1907626806
30
0.0000000000
10
11.7745359227
20
-0.1905254241
30
0.0000000000
10
11.7639141539
20
-0.1903576595
30
0.0000000000
10
11.7512450930
20
-0.1901747157
30
0.0000000000
10
11.7366352088
20
-0.1900106354
30
0.0000000000
10
11.7202265658
20
-0.1898564658
30
0.0000000000
10
11.7021723203
20
-0.1897173719
30
0.0000000000
10
11.6826429749
20
-0.1895936711
30
0.0000000000
10
11.6618224013
20
-0.1894869443
30
0.0000000000
10
11.6399068018
20
-0.1893981464
30
0.0000000000
10
11.6171025420
20
-0.1893281771
30
0.0000000000
10
11.5936245285
20
-0.1892777120
30
0.0000000000
10
11.5696990123
20
-0.1892472463
30
0.0000000000
10
11.5536242200
20
-0.1892404694
30
0.0000000000
10
11.5455513864
20
-0.1892404682
30
0.0000000000
11
11.7955132832
21
-0.1913840948
31
0.0000000000
11
11.7939145809
21
-0.1911729262
31
0.0000000000
11
11.7899762746
21
-0.1909639963
31
0.0000000000
11
11.7837356047
21
-0.1907593773
31
0.0000000000
11
11.7752513997
21
-0.1905610024
31
0.0000000000
11
11.7646035150
21
-0.1903707383
31
0.0000000000
11
11.7518921358
21
-0.1901903763
31
0.0000000000
11
11.7372370737
21
-0.1900216171
31
0.0000000000
11
11.7207765253
21
-0.1898660519
31
0.0000000000
11
11.7026655441
21
-0.1897251452
31
0.0000000000
11
11.6830746712
21
-0.1896002238
31
0.0000000000
11
11.6621884819
21
-0.1894924644
31
0.0000000000
11
11.6402038960
21
-0.1894028824
31
0.0000000000
11
11.6173279077
21
-0.1893323206
31
0.0000000000
11
11.5937757388
21
-0.1892814432
31
0.0000000000
11
11.5697698852
21
-0.1892507294
31
0.0000000000
11
11.5455513864
21
-0.1892404682
31
0.0000000000
0
SPLINE
5
310
100
AcDbEntity
8
0
100
AcDbSpline
62
9
6
CONTINUOUS
70
0
71
3
72
20
73
16
74
14
42
0.0000001000
43
0.0000001000
44
0.0000000001
12
-0.1999932692
22
-0.0000044504
32
0.0000000000
13
-0.1967293239
23
-0.0359844527
33
0.0000000000
40
0.0000000000
40
0.0000000000
40
0.0000000000
40
0.0000000000
40
0.1198743359
40
0.2380199835
40
0.3527331806
40
0.4623596636
40
0.5653185275
40
0.6601250242
40
0.7454119727
40
0.8199494758
40
0.8826626596
40
0.9326471807
40
0.9691822872
40
0.9917412965
40
1.0000000000
40
1.0000000000
40
1.0000000000
40
1.0000000000
10
5.9343909577
20
0.4615262644
30
0.0000000000
10
5.9263996042
20
0.4615260865
30
0.0000000000
10
5.9105321392
20
0.4615242637
30
0.0000000000
10
5.8870173866
20
0.4615172459
30
0.0000000000
10
5.8641858010
20
0.4615057587
30
0.0000000000
10
5.8423666431
20
0.4614899880
30
0.0000000000
10
5.8218745350
20
0.4614704093
30
0.0000000000
10
5.8030050877
20
0.4614464949
30
0.0000000000
10
5.7860301007
20
0.4614213415
30
0.0000000000
10
5.7711953420
20
0.4613869409
30
0.0000000000
10
5.7587118570
20
0.4613688494
30
0.0000000000
10
5.7487676332
20
0.4612986417
30
0.0000000000
10
5.7414861435
20
0.4613502373
30
0.0000000000
10
5.7370142844
20
0.4611616673
30
0.0000000000
10
5.7349401494
20
0.4613059877
30
0.0000000000
10
5.7343985730
20
0.4612069260
30
0.0000000000
11
5.9343909577
21
0.4615262644
31
0.0000000000
11
5.9104168975
21
0.4615235117
31
0.0000000000
11
5.8867885643
21
0.4615163596
31
0.0000000000
11
5.8638466999
21
0.4615047291
31
0.0000000000
11
5.8419221470
21
0.4614887900
31
0.0000000000
11
5.8213310769
21
0.4614687754
31
0.0000000000
11
5.8023704306
21
0.4614449771
31
0.0000000000
11
5.7853136367
21
0.4614177401
31
0.0000000000
11
5.7704066685
21
0.4613874592
31
0.0000000000
11
5.7578644970
21
0.4613545734
31
0.0000000000
11
5.7478679905
21
0.4613195592
31
0.0000000000
11
5.7405613070
21
0.4612829236
31
0.0000000000
11
5.7360498147
21
0.4612451971
31
0.0000000000
11
5.7343985730
21
0.4612069260
31
0.0000000000
0
SPLINE
5
311
100
AcDbEntity
8
0
100
AcDbSpline
62
9
6
CONTINUOUS
70
0
71
3
72
23
73
19
74
17
42
0.0000001000
43
0.0000001000
44
0.0000000001
12
-0.2499932719
22
-0.0000000365
32
0.0000000000
13
-0.2236459546
23
-0.1117099951
33
0.0000000000
40
0.0000000000
40
0.0000000000
40
0.0000000000
40
0.0000000000
40
0.0968766113
40
0.1929026886
40
0.2871141193
40
0.3786209707
40
0.4665624110
40
0.5501105285
40
0.6284777220
40
0.7009257893
40
0.7667726951
40
0.8253984081
40
0.8762504112
40
0.9188498957
40
0.9527969045
40
0.9777736710
40
0.9935494731
40
1.0000000000
40
1.0000000000
40
1.0000000000
40
1.0000000000
10
-9.4727691283
20
-0.1892404682
30
0.0000000000
10
-9.4808419620
20
-0.1892404694
30
0.0000000000
10
-9.4969167542
20
-0.1892472463
30
0.0000000000
10
-9.5208422704
20
-0.1892777120
30
0.0000000000
10
-9.5443202839
20
-0.1893281771
30
0.0000000000
10
-9.5671245437
20
-0.1893981464
30
0.0000000000
10
-9.5890401432
20
-0.1894869443
30
0.0000000000
10
-9.6098607169
20
-0.1895936711
30
0.0000000000
10
-9.6293900622
20
-0.1897173719
30
0.0000000000
10
-9.6474443077
20
-0.1898564658
30
0.0000000000
10
-9.6638529508
20
-0.1900106354
30
0.0000000000
10
-9.6784628349
20
-0.1901747157
30
0.0000000000
10
-9.6911318958
20
-0.1903576595
30
0.0000000000
10
-9.7017536646
20
-0.1905254241
30
0.0000000000
10
-9.7101927606
20
-0.1907626806
30
0.0000000000
10
-9.7164591956
20
-0.1908445653
30
0.0000000000
10
-9.7203047951
20
-0.1912334810
30
0.0000000000
10
-9.7222501471
20
-0.1911438987
30
0.0000000000
10
-9.7227310252
20
-0.1913840948
30
0.0000000000
11
-9.4727691283
21
-0.1892404682
31
0.0000000000
11
-9.4969876272
21
-0.1892507294
31
0.0000000000
11
-9.5209934808
21
-0.1892814432
31
0.0000000000
11
-9.5445456496
21
-0.1893323206
31
0.0000000000
11
-9.5674216380
21
-0.1894028824
31
0.0000000000
11
-9.5894062239
21
-0.1894924644
31
0.0000000000
11
-9.6102924131
21
-0.1896002238
31
0.0000000000
11
-9.6298832860
21
-0.1897251452
31
0.0000000000
11
-9.6479942672
21
-0.1898660519
31
0.0000000000
11
-9.6644548156
21
-0.1900216171
31
0.0000000000
11
-9.6791098778
21
-0.1901903763
31
0.0000000000
11
-9.6918212569
21
-0.1903707383
31
0.0000000000
11
-9.7024691417
21
-0.1905610024
31
0.0000000000
11
-9.7109533466
21
-0.1907593773
31
0.0000000000
11
-9.7171940165
21
-0.1909639963
31
0.0000000000
11
-9.7211323229
21
-0.1911729262
31
0.0000000000
11
-9.7227310252
21
-0.1913840948
31
0.0000000000
0
SPLINE
5
312
100
AcDbEntity
8
0
100
AcDbSpline
62
9
6
CONTINUOUS
70
0
71
3
72
19
73
15
74
13
42
0.0000001000
43
0.0000001000
44
0.0000000001
12
0.3139155005
22
0.0000239054
32
0.0000000000
13
0.0000239054
23
0.3139155005
33
0.0000000000
40
0.0000000000
40
0.0000000000
40
0.0000000000
40
0.0000000000
40
0.0833317636
40
0.1666643245
40
0.2499975973
40
0.3333314483
40
0.4166657041
40
0.5000001638
40
0.5833346126
40
0.6666688362
40
0.7500026358
40
0.8333358413
40
0.9166683228
40
1.0000000000
40
1.0000000000
40
1.0000000000
40
1.0000000000
10
-3.8611803438
20
-0.1892404682
30
0.0000000000
10
-3.8524606330
20
-0.1892398042
30
0.0000000000
10
-3.8349996917
20
-0.1880946639
30
0.0000000000
10
-3.8092735859
20
-0.1829749726
30
0.0000000000
10
-3.7844309188
20
-0.1745408852
30
0.0000000000
10
-3.7609025736
20
-0.1629367000
30
0.0000000000
10
-3.7390895143
20
-0.1483609527
30
0.0000000000
10
-3.7193653493
20
-0.1310630067
30
0.0000000000
10
-3.7020674155
20
-0.1113388355
30
0.0000000000
10
-3.6874916841
20
-0.0895257775
30
0.0000000000
10
-3.6758875155
20
-0.0659974419
30
0.0000000000
10
-3.6674534425
20
-0.0411547919
30
0.0000000000
10
-3.6623337612
20
-0.0154287093
30
0.0000000000
10
-3.6611886232
20
0.0020322147
30
0.0000000000
10
-3.6611879592
20
0.0107519164
30
0.0000000000
11
-3.8611803438
21
-0.1892404682
31
0.0000000000
11
-3.8350773446
21
-0.1875276818
31
0.0000000000
11
-3.8094209330
21
-0.1824226018
31
0.0000000000
11
-3.7846500558
21
-0.1740125697
31
0.0000000000
11
-3.7611885095
21
-0.1624414708
31
0.0000000000
11
-3.7394376888
21
-0.1479072719
31
0.0000000000
11
-3.7197697203
21
-0.1306586343
31
0.0000000000
11
-3.7025210949
21
-0.1109906595
31
0.0000000000
11
-3.6879869119
21
-0.0892398404
31
0.0000000000
11
-3.6764158296
21
-0.0657783038
31
0.0000000000
11
-3.6680058122
21
-0.0410074441
31
0.0000000000
11
-3.6629007421
21
-0.0153510559
31
0.0000000000
11
-3.6611879592
21
0.0107519164
31
0.0000000000
0
SPLINE
5
313
100
AcDbEntity
8
0
100
AcDbSpline
62
9
6
CONTINUOUS
70
0
71
3
72
23
73
19
74
17
42
0.0000001000
43
0.0000001000
44
0.0000000001
12
0.0007172057
22
0.7842577210
32
0.0000000000
13
0.7842577226
23
0.0007154591
33
0.0000000000
40
0.0000000000
40
0.0000000000
40
0.0000000000
40
0.0000000000
40
0.0624467159
40
0.1249003792
40
0.1873620694
40
0.2498325574
40
0.3123122765
40
0.3748013052
40
0.4372993648
40
0.4998058302
40
0.5623197539
40
0.6248399026
40
0.6873648043
40
0.7498928050
40
0.8124221320
40
0.8749509618
40
0.9374774899
40
1.0000000000
40
1.0000000000
40
1.0000000000
40
1.0000000000
10
-9.9996221761
20
21.2240936188
30
0.0000000000
10
-9.9996072470
20
21.2404183918
30
0.0000000000
10
-9.9979715537
20
21.2730909893
30
0.0000000000
10
-9.9907249966
20
21.3216078433
30
0.0000000000
10
-9.9787550268
20
21.3691914258
30
0.0000000000
10
-9.9621768341
20
21.4153778101
30
0.0000000000
10
-9.9411499297
20
21.4597243776
30
0.0000000000
10
-9.9158766172
20
21.5018041140
30
0.0000000000
10
-9.8866000415
20
21.5412123849
30
0.0000000000
10
-9.8536018465
20
21.5775701106
30
0.0000000000
10
-9.8171994676
20
21.6105276011
30
0.0000000000
10
-9.7777430635
20
21.6397678655
30
0.0000000000
10
-9.7356121991
20
21.6650096710
30
0.0000000000
10
-9.6912120046
20
21.6860102417
30
0.0000000000
10
-9.6449699924
20
21.7025675912
30
0.0000000000
10
-9.5973292892
20
21.7145224654
30
0.0000000000
10
-9.5487542992
20
21.7217598646
30
0.0000000000
10
-9.5160429156
20
21.7233934754
30
0.0000000000
10
-9.4996983285
20
21.7234083862
30
0.0000000000
11
-9.9996221761
21
21.2240936188
31
0.0000000000
11
-9.9971729715
21
21.2730066777
31
0.0000000000
11
-9.9899383798
21
21.3214492244
31
0.0000000000
11
-9.9779879930
21
21.3689552725
31
0.0000000000
11
-9.9614367663
21
21.4150678445
31
0.0000000000
11
-9.9404439119
21
21.4593433667
31
0.0000000000
11
-9.9152113674
21
21.5013559372
31
0.0000000000
11
-9.8859818539
21
21.5407014220
31
0.0000000000
11
-9.8530365405
21
21.5770013427
31
0.0000000000
11
-9.8166923401
21
21.6099065172
31
0.0000000000
11
-9.7772988604
21
21.6391004191
31
0.0000000000
11
-9.7352350416
21
21.6643022216
31
0.0000000000
11
-9.6909055106
21
21.6852694995
31
0.0000000000
11
-9.6447366892
21
21.7018005610
31
0.0000000000
11
-9.5971726916
21
21.7137363881
31
0.0000000000
11
-9.5486710532
21
21.7209621656
31
0.0000000000
11
-9.4996983285
21
21.7234083862
31
0.0000000000
0
SPLINE
5
314
100
AcDbEntity
8
0
100
AcDbSpline
62
9
6
CONTINUOUS
70
0
71
3
72
20
73
16
74
14
42
0.0000001000
43
0.0000001000
44
0.0000000001
12
0.1999932682
22
-0.0000055457
32
0.0000000000
13
0.1967303354
23
-0.0359789172
33
0.0000000000
40
0.0000000000
40
0.0000000000
40
0.0000000000
40
0.0000000000
40
0.1198743329
40
0.2380199778
40
0.3527331725
40
0.4623596538
40
0.5653185174
40
0.6601250149
40
0.7454119650
40
0.8199494703
40
0.8826626565
40
0.9326471797
40
0.9691822876
40
0.9917412974
40
1.0000000000
40
1.0000000000
40
1.0000000000
40
1.0000000000
10
-3.8616086996
20
0.4615262644
30
0.0000000000
10
-3.8536173464
20
0.4615260428
30
0.0000000000
10
-3.8377498819
20
0.4615241453
30
0.0000000000
10
-3.8142351299
20
0.4615170550
30
0.0000000000
10
-3.7914035450
20
0.4615055266
30
0.0000000000
10
-3.7695843874
20
0.4614897408
30
0.0000000000
10
-3.7490922795
20
0.4614701675
30
0.0000000000
10
-3.7302228322
20
0.4614462737
30
0.0000000000
10
-3.7132478449
20
0.4614211514
30
0.0000000000
10
-3.6984130857
20
0.4613867889
30
0.0000000000
10
-3.6859296006
20
0.4613687352
30
0.0000000000
10
-3.6759853751
20
0.4612985703
30
0.0000000000
10
-3.6687038880
20
0.4613501872
30
0.0000000000
10
-3.6642320233
20
0.4611616617
30
0.0000000000
10
-3.6621578941
20
0.4613059724
30
0.0000000000
10
-3.6616163150
20
0.4612069260
30
0.0000000000
11
-3.8616086996
21
0.4615262644
31
0.0000000000
11
-3.8376346402
21
0.4615233993
31
0.0000000000
11
-3.8140063076
21
0.4615161732
31
0.0000000000
11
-3.7910644438
21
0.4615045008
31
0.0000000000
11
-3.7691398914
21
0.4614885461
31
0.0000000000
11
-3.7485488215
21
0.4614685367
31
0.0000000000
11
-3.7295881751
21
0.4614447591
31
0.0000000000
11
-3.7125313809
21
0.4614175535
31
0.0000000000
11
-3.6976244123
21
0.4613873104
31
0.0000000000
11
-3.6850822402
21
0.4613544647
31
0.0000000000
11
-3.6750857333
21
0.4613194890
31
0.0000000000
11
-3.6677790493
21
0.4612828867
31
0.0000000000
11
-3.6632675567
21
0.4612451848
31
0.0000000000
11
-3.6616163150
21
0.4612069260
31
0.0000000000
0
SPLINE
5
315
100
AcDbEntity
8
0
100
AcDbSpline
62
7
6
CONTINUOUS
70
0
71
3
72
9
73
5
74
3
42
0.0000001000
43
0.0000001000
44
0.0000000001
12
0.0000000000
22
0.0655313943
32
0.0000000000
13
-0.0085937933
23
0.0649926831
33
0.0000000000
40
0.0000000000
40
0.0000000000
40
0.0000000000
40
0.0000000000
40
0.7506533119
40
1.0000000000
40
1.0000000000
40
1.0000000000
40
1.0000000000
10
12.1363911290
20
21.4157524886
30
0.0000000000
10
12.1363911290
20
21.4321496079
30
0.0000000000
10
12.1353119339
20
21.4540087819
30
0.0000000000
10
12.1328022611
20
21.4757207372
30
0.0000000000
10
12.1320879831
20
21.4811226406
30
0.0000000000
11
12.1363911290
21
21.4157524886
31
0.0000000000
11
12.1339648801
21
21.4648839758
31
0.0000000000
11
12.1320879831
21
21.4811226406
31
0.0000000000
0
SPLINE
5
316
100
AcDbEntity
8
0
100
AcDbSpline
62
7
6
CONTINUOUS
70
0
71
3
72
8
73
4
74
2
42
0.0000001000
43
0.0000001000
44
0.0000000001
12
-0.0002747458
22
0.0020778329
32
0.0000000000
13
-0.0002834723
23
0.0020766417
33
0.0000000000
40
0.0000000000
40
0.0000000000
40
0.0000000000
40
0.0000000000
40
1.0000000000
40
1.0000000000
40
1.0000000000
40
1.0000000000
10
12.1320879831
20
21.4811226406
30
0.0000000000
10
12.1319964011
20
21.4818152516
30
0.0000000000
10
12.1319033643
20
21.4825076669
30
0.0000000000
10
12.1318088736
20
21.4831998809
30
0.0000000000
11
12.1320879831
21
21.4811226406
31
0.0000000000
11
12.1318088736
21
21.4831998809
31
0.0000000000
0
SPLINE
5
317
100
AcDbEntity
8
0
100
AcDbSpline
62
7
6
CONTINUOUS
70
0
71
3
72
22
73
18
74
16
42
0.0000001000
43
0.0000001000
44
0.0000000001
12
-0.0970184380
22
0.7107310282
32
0.0000000000
13
-0.7170331323
23
0.0003270411
33
0.0000000000
40
0.0000000000
40
0.0000000000
40
0.0000000000
40
0.0000000000
40
0.0425941806
40
0.1109170048
40
0.1792575016
40
0.2476146356
40
0.3159870353
40
0.3843729674
40
0.4527703265
40
0.5211766379
40
0.5895890759
40
0.6580044940
40
0.7264194687
40
0.7948303530
40
0.8632333389
40
0.9316245256
40
1.0000000000
40
1.0000000000
40
1.0000000000
40
1.0000000000
10
12.1318088736
20
21.4831998809
30
0.0000000000
10
12.1304314000
20
21.4932908828
30
0.0000000000
10
12.1260397930
20
21.5194567971
30
0.0000000000
10
12.1155875483
20
21.5610788501
30
0.0000000000
10
12.0990222300
20
21.6072796118
30
0.0000000000
10
12.0780011589
20
21.6516443582
30
0.0000000000
10
12.0527260569
20
21.6937435514
30
0.0000000000
10
12.0234402121
20
21.7331701484
30
0.0000000000
10
11.9904260837
20
21.7695429074
30
0.0000000000
10
11.9540025178
20
21.8025103656
30
0.0000000000
10
11.9145215762
20
21.8317542649
30
0.0000000000
10
11.8723650971
20
21.8569927090
30
0.0000000000
10
11.8279407139
20
21.8779829329
30
0.0000000000
10
11.7816785203
20
21.8945236806
30
0.0000000000
10
11.7340241443
20
21.9064571611
30
0.0000000000
10
11.6854442407
20
21.9136705600
30
0.0000000000
10
11.6527336226
20
21.9152884800
30
0.0000000000
10
11.6363911290
20
21.9152959338
30
0.0000000000
11
12.1318088736
21
21.4831998809
31
0.0000000000
11
12.1267523644
21
21.5133265240
31
0.0000000000
11
12.1148203941
21
21.5608409649
31
0.0000000000
11
12.0982818823
21
21.6069681085
31
0.0000000000
11
12.0772947260
21
21.6512619490
31
0.0000000000
11
12.0520602847
21
21.6932940933
31
0.0000000000
11
12.0228214175
21
21.7326580149
31
0.0000000000
11
11.9898600989
21
21.7689730910
31
0.0000000000
11
11.9534946373
21
21.8018883787
31
0.0000000000
11
11.9140765260
21
21.8310860912
31
0.0000000000
11
11.8719869585
21
21.8562847392
31
0.0000000000
11
11.8276330451
21
21.8772419036
31
0.0000000000
11
11.7814437710
21
21.8937566113
31
0.0000000000
11
11.7338657358
21
21.9056712917
31
0.0000000000
11
11.6853587220
21
21.9128732911
31
0.0000000000
11
11.6363911290
21
21.9152959338
31
0.0000000000
0
SPLINE
5
318
100
AcDbEntity
8
0
100
AcDbSpline
62
9
6
CONTINUOUS
70
0
71
3
72
10
73
6
74
4
42
0.0000001000
43
0.0000001000
44
0.0000000001
12
-0.0030168915
22
-9.0950737270
32
0.0000000000
13
-0.0001256780
23
-9.0950742265
33
0.0000000000
40
0.0000000000
40
0.0000000000
40
0.0000000000
40
0.0000000000
40
0.3333132214
40
0.6666476165
40
1.0000000000
40
1.0000000000
40
1.0000000000
40
1.0000000000
10
12.0470463613
20
9.1536804435
30
0.0000000000
10
12.0467111714
20
8.1431776692
30
0.0000000000
10
12.0461478795
20
6.1221078911
30
0.0000000000
10
12.0456241714
20
3.0904165221
30
0.0000000000
10
12.0454891720
20
1.0692279430
30
0.0000000000
10
12.0454752070
20
0.0586063859
30
0.0000000000
11
12.0470463613
21
9.1536804435
31
0.0000000000
11
12.0462014348
21
6.1221720714
31
0.0000000000
11
12.0456777154
21
3.0904710506
31
0.0000000000
11
12.0454752070
21
0.0586063859
31
0.0000000000
0
SPLINE
5
319
100
AcDbEntity
8
0
100
AcDbSpline
62
9
6
CONTINUOUS
70
0
71
3
72
22
73
18
74
16
42
0.0000001000
43
0.0000001000
44
0.0000000001
12
-0.3383259739
22
0.3684496748
32
0.0000000000
13
-0.5002195518
23
0.0001658660
33
0.0000000000
40
0.0000000000
40
0.0000000000
40
0.0000000000
40
0.0000000000
40
0.0074214241
40
0.0253154708
40
0.0536084284
40
0.0920197827
40
0.1401463889
40
0.1974767508
40
0.2633990283
40
0.3372084832
40
0.4181154121
40
0.5052537947
40
0.5976906746
40
0.6944362149
40
0.7944543415
40
0.8966738698
40
1.0000000000
40
1.0000000000
40
1.0000000000
40
1.0000000000
10
12.0470463613
20
9.1536804435
30
0.0000000000
10
12.0462094078
20
9.1545919173
30
0.0000000000
10
12.0414057629
20
9.1546169975
30
0.0000000000
10
12.0330407843
20
9.1560499448
30
0.0000000000
10
12.0186788501
20
9.1566308208
30
0.0000000000
10
11.9996716269
20
9.1576456004
30
0.0000000000
10
11.9756529908
20
9.1584516348
30
0.0000000000
10
11.9471042817
20
9.1592803514
30
0.0000000000
10
11.9142495745
20
9.1600312162
30
0.0000000000
10
11.8774683839
20
9.1607249072
30
0.0000000000
10
11.8371457289
20
9.1613433095
30
0.0000000000
10
11.7937164055
20
9.1618823234
30
0.0000000000
10
11.7476448463
20
9.1623348864
30
0.0000000000
10
11.6994249140
20
9.1626961937
30
0.0000000000
10
11.6495731668
20
9.1629621394
30
0.0000000000
10
11.5986237485
20
9.1631297996
30
0.0000000000
10
11.5643510972
20
9.1631747308
30
0.0000000000
10
11.5471225137
20
9.1631804435
30
0.0000000000
11
12.0470463613
21
9.1536804435
31
0.0000000000
11
12.0434663045
21
9.1546626216
31
0.0000000000
11
12.0345682464
21
9.1556342763
31
0.0000000000
11
12.0204475239
21
9.1565849969
31
0.0000000000
11
12.0012554314
21
9.1575045971
31
0.0000000000
11
11.9771975997
21
9.1583832240
31
0.0000000000
11
11.9485317928
21
9.1592114636
31
0.0000000000
11
11.9155651463
21
9.1599804420
31
0.0000000000
11
11.8786508763
21
9.1606819199
31
0.0000000000
11
11.8381844952
21
9.1613083816
31
0.0000000000
11
11.7945995741
21
9.1618531149
31
0.0000000000
11
11.7483630970
21
9.1623102834
31
0.0000000000
11
11.6999704578
21
9.1626749887
31
0.0000000000
11
11.6499401522
21
9.1629433233
31
0.0000000000
11
11.5988082224
21
9.1631124121
31
0.0000000000
11
11.5471225137
21
9.1631804435
31
0.0000000000
0
SPLINE
5
31A
100
AcDbEntity
8
0
100
AcDbSpline
62
9
6
CONTINUOUS
70
0
71
3
72
10
73
6
74
4
42
0.0000001000
43
0.0000001000
44
0.0000000001
12
-0.0030162464
22
-9.1022312164
32
0.0000000000
13
-0.0001262690
23
-9.1022317153
33
0.0000000000
40
0.0000000000
40
0.0000000000
40
0.0000000000
40
0.0000000000
40
0.3333130661
40
0.6666473044
40
1.0000000000
40
1.0000000000
40
1.0000000000
40
1.0000000000
10
11.5471225137
20
9.1631804435
30
0.0000000000
10
11.5467873956
20
8.1518829119
30
0.0000000000
10
11.5462242015
20
6.1292235731
30
0.0000000000
10
11.5457005022
20
3.0951463745
30
0.0000000000
10
11.5455654171
20
1.0723667229
30
0.0000000000
10
11.5455513864
20
0.0609488970
30
0.0000000000
11
11.5471225137
21
9.1631804435
31
0.0000000000
11
11.5462777338
21
6.1292877997
31
0.0000000000
11
11.5457540235
21
3.0952023684
31
0.0000000000
11
11.5455513864
21
0.0609488970
31
0.0000000000
0
SPLINE
5
31B
100
AcDbEntity
8
0
100
AcDbSpline
62
9
6
CONTINUOUS
70
0
71
3
72
23
73
19
74
17
42
0.0000001000
43
0.0000001000
44
0.0000000001
12
-0.4823524669
22
0.1314482156
32
0.0000000000
13
-0.4999425324
23
0.0000035442
33
0.0000000000
40
0.0000000000
40
0.0000000000
40
0.0000000000
40
0.0000000000
40
0.0064178156
40
0.0221823128
40
0.0471535201
40
0.0810968665
40
0.1236934913
40
0.1745427627
40
0.2331655696
40
0.2990096989
40
0.3714552862
40
0.4498203921
40
0.5333669171
40
0.6213073809
40
0.7128138799
40
0.8070260884
40
0.9030522497
40
1.0000000000
40
1.0000000000
40
1.0000000000
40
1.0000000000
10
12.0454752070
20
0.0586063859
30
0.0000000000
10
12.0444433239
20
0.0588875894
30
0.0000000000
10
12.0406826607
20
0.0587485061
30
0.0000000000
10
12.0328843730
20
0.0592083121
30
0.0000000000
10
12.0204105516
20
0.0592786784
30
0.0000000000
10
12.0035081177
20
0.0595456875
30
0.0000000000
10
11.9822751038
20
0.0597258265
30
0.0000000000
10
11.9569356572
20
0.0599266696
30
0.0000000000
10
11.9277196396
20
0.0601055573
30
0.0000000000
10
11.8949052613
20
0.0602741323
30
0.0000000000
10
11.8588005357
20
0.0604261424
30
0.0000000000
10
11.8197457364
20
0.0605614291
30
0.0000000000
10
11.7781086629
20
0.0606782025
30
0.0000000000
10
11.7342815598
20
0.0607754340
30
0.0000000000
10
11.6886770022
20
0.0608521289
30
0.0000000000
10
11.6417249520
20
0.0609075503
30
0.0000000000
10
11.5938661101
20
0.0609411569
30
0.0000000000
10
11.5617074876
20
0.0609487827
30
0.0000000000
10
11.5455513864
20
0.0609488972
30
0.0000000000
11
12.0454752070
21
0.0586063859
31
0.0000000000
11
12.0422749563
21
0.0588368584
31
0.0000000000
11
12.0343969103
21
0.0590647934
31
0.0000000000
11
12.0219147389
21
0.0592880914
31
0.0000000000
11
12.0049463978
21
0.0595046181
31
0.0000000000
11
11.9836515464
21
0.0597123440
31
0.0000000000
11
11.9582305960
21
0.0599093083
31
0.0000000000
11
11.9289231412
21
0.0600936529
31
0.0000000000
11
11.8960052994
21
0.0602636382
31
0.0000000000
11
11.8597869964
21
0.0604176614
31
0.0000000000
11
11.8206091851
21
0.0605542698
31
0.0000000000
11
11.7788408902
21
0.0606721739
31
0.0000000000
11
11.7348758215
21
0.0607702604
31
0.0000000000
11
11.6891278960
21
0.0608476037
31
0.0000000000
11
11.6420272391
21
0.0609034755
31
0.0000000000
11
11.5940196888
21
0.0609373457
31
0.0000000000
11
11.5455513864
21
0.0609488972
31
0.0000000000
0
SPLINE
5
31C
100
AcDbEntity
8
0
100
AcDbSpline
62
9
6
CONTINUOUS
70
0
71
3
72
22
73
18
74
16
42
0.0000001000
43
0.0000001000
44
0.0000000001
12
-0.0591136697
22
0.5108754711
32
0.0000000000
13
-0.5142824330
23
0.0013236504
33
0.0000000000
40
0.0000000000
40
0.0000000000
40
0.0000000000
40
0.0000000000
40
0.0165205698
40
0.0392968673
40
0.0703415139
40
0.1102029580
40
0.1588601866
40
0.2160113579
40
0.2811780874
40
0.3537518259
40
0.4330195517
40
0.5181812907
40
0.6083642252
40
0.7026353789
40
0.8000137562
40
0.8994823248
40
1.0000000000
40
1.0000000000
40
1.0000000000
40
1.0000000000
10
12.0642312459
20
20.7993383931
30
0.0000000000
10
12.0639057154
20
20.8021517110
30
0.0000000000
10
12.0604560690
20
20.8084279790
30
0.0000000000
10
12.0507882779
20
20.8158034413
30
0.0000000000
10
12.0364092991
20
20.8230810157
30
0.0000000000
10
12.0171168868
20
20.8300905171
30
0.0000000000
10
11.9930610048
20
20.8368477429
30
0.0000000000
10
11.9644441508
20
20.8432342219
30
0.0000000000
10
11.9315610386
20
20.8491828002
30
0.0000000000
10
11.8947536461
20
20.8546186418
30
0.0000000000
10
11.8544124451
20
20.8594799209
30
0.0000000000
10
11.8109669513
20
20.8637108823
30
0.0000000000
10
11.7648812055
20
20.8672640652
30
0.0000000000
10
11.7166480481
20
20.8700998200
30
0.0000000000
10
11.6667836256
20
20.8721867271
30
0.0000000000
10
11.6158219482
20
20.8735017483
30
0.0000000000
10
11.5815388898
20
20.8738535845
30
0.0000000000
10
11.5643073983
20
20.8738979346
30
0.0000000000
11
12.0642312459
21
20.7993383931
31
0.0000000000
11
12.0606603432
21
20.8070478163
31
0.0000000000
11
12.0517700276
21
20.8146746177
31
0.0000000000
11
12.0376555764
21
20.8221370609
31
0.0000000000
11
12.0184682543
21
20.8293551707
31
0.0000000000
11
11.9944136916
21
20.8362515909
31
0.0000000000
11
11.9657496810
21
20.8427524124
31
0.0000000000
11
11.9327834147
21
20.8487879661
31
0.0000000000
11
11.8958681920
21
20.8542935687
31
0.0000000000
11
11.8553996333
21
20.8592102170
31
0.0000000000
11
11.8118114400
21
20.8634852191
31
0.0000000000
11
11.7655707466
21
20.8670727598
31
0.0000000000
11
11.7171731146
21
20.8699343915
31
0.0000000000
11
11.6671372211
21
20.8720394461
31
0.0000000000
11
11.6159993006
21
20.8733653638
31
0.0000000000
11
11.5643073983
21
20.8738979346
31
0.0000000000
0
SPLINE
5
31D
100
AcDbEntity
8
0
100
AcDbSpline
62
9
6
CONTINUOUS
70
0
71
3
72
14
73
10
74
8
42
0.0000001000
43
0.0000001000
44
0.0000000001
12
-0.0306549601
22
-11.7106924750
32
0.0000000000
13
-0.0038629500
23
-11.7107319604
33
0.0000000000
40
0.0000000000
40
0.0000000000
40
0.0000000000
40
0.0000000000
40
0.1420565057
40
0.2844627223
40
0.4271690479
40
0.5701257656
40
0.7132830865
40
0.8565911367
40
1.0000000000
40
1.0000000000
40
1.0000000000
40
1.0000000000
10
11.5643073983
20
20.8738979347
30
0.0000000000
10
11.5628558194
20
20.3193712506
30
0.0000000000
10
11.5601333185
20
19.2089522724
30
0.0000000000
10
11.5565946506
20
17.5414685007
30
0.0000000000
10
11.5535968046
20
15.8704696143
30
0.0000000000
10
11.5511408262
20
14.1965378476
30
0.0000000000
10
11.5492275716
20
12.5202564918
30
0.0000000000
10
11.5478577075
20
10.8422096196
30
0.0000000000
10
11.5473071742
20
9.7229880300
30
0.0000000000
10
11.5471225137
20
9.1631804435
30
0.0000000000
11
11.5643073983
21
20.8738979347
31
0.0000000000
11
11.5602279436
21
19.2103171846
31
0.0000000000
11
11.5566882390
21
17.5426398177
31
0.0000000000
11
11.5536895172
21
15.8714468898
31
0.0000000000
11
11.5512328227
21
14.1973207984
31
0.0000000000
11
11.5493190112
21
12.5208447864
31
0.0000000000
11
11.5479487491
21
10.8426030909
31
0.0000000000
11
11.5471225137
21
9.1631804435
31
0.0000000000
0
SPLINE
5
31E
100
AcDbEntity
8
0
100
AcDbSpline
62
9
6
CONTINUOUS
70
0
71
3
72
14
73
10
74
8
42
0.0000001000
43
0.0000001000
44
0.0000000001
12
-0.0306549593
22
-11.6456327936
32
0.0000000000
13
-0.0038629501
23
-11.6456724996
33
0.0000000000
40
0.0000000000
40
0.0000000000
40
0.0000000000
40
0.0000000000
40
0.1420564384
40
0.2844626934
40
0.4271690566
40
0.5701258111
40
0.7132831682
40
0.8565912539
40
1.0000000000
40
1.0000000000
40
1.0000000000
40
1.0000000000
10
12.0642312459
20
20.7993383931
30
0.0000000000
10
12.0627796677
20
20.2478926870
30
0.0000000000
10
12.0600571670
20
19.1436428363
30
0.0000000000
10
12.0565184989
20
17.4854228472
30
0.0000000000
10
12.0535206521
20
15.8237068558
30
0.0000000000
10
12.0510646731
20
14.1590742764
30
0.0000000000
10
12.0491514183
20
12.4921051611
30
0.0000000000
10
12.0477815546
20
10.8233809301
30
0.0000000000
10
12.0472310216
20
9.7103775404
30
0.0000000000
10
12.0470463613
20
9.1536804435
30
0.0000000000
11
12.0642312459
21
20.7993383931
31
0.0000000000
11
12.0601517931
21
19.1450005733
31
0.0000000000
11
12.0566120873
21
17.4865876520
31
0.0000000000
11
12.0536133647
21
15.8246786974
31
0.0000000000
11
12.0511566697
21
14.1598528734
31
0.0000000000
11
12.0492428579
21
12.4926901842
31
0.0000000000
11
12.0478725958
21
10.8237716216
31
0.0000000000
11
12.0470463613
21
9.1536804435
31
0.0000000000
0
SPLINE
5
31F
100
AcDbEntity
8
0
100
AcDbSpline
62
7
6
CONTINUOUS
70
0
71
3
72
23
73
19
74
17
42
0.0000001000
43
0.0000001000
44
0.0000000001
12
0.3843339366
22
0.0000292680
32
0.0000000000
13
0.0126266485
23
0.3842667819
33
0.0000000000
40
0.0000000000
40
0.0000000000
40
0.0000000000
40
0.0000000000
40
0.0638358665
40
0.1276700901
40
0.1915029367
40
0.2553346552
40
0.3191654810
40
0.3829956388
40
0.4468253471
40
0.5106548221
40
0.5744842821
40
0.6383139525
40
0.7021440698
40
0.7659748856
40
0.8298066709
40
0.8936397184
40
0.9574743457
40
1.0000000000
40
1.0000000000
40
1.0000000000
40
1.0000000000
10
11.8863911290
20
-0.2368195572
30
0.0000000000
10
11.8945692257
20
-0.2368189344
30
0.0000000000
10
11.9109365118
20
-0.2360138637
30
0.0000000000
10
11.9352414908
20
-0.2324065384
30
0.0000000000
10
11.9590778306
20
-0.2264344439
30
0.0000000000
10
11.9822130638
20
-0.2181552308
30
0.0000000000
10
12.0044254125
20
-0.2076487100
30
0.0000000000
10
12.0255009302
20
-0.1950160869
30
0.0000000000
10
12.0452368864
20
-0.1803789893
30
0.0000000000
10
12.0634433517
20
-0.1638783011
30
0.0000000000
10
12.0799451127
20
-0.1456728139
30
0.0000000000
10
12.0945833293
20
-0.1259376985
30
0.0000000000
10
12.1072170553
20
-0.1048628525
30
0.0000000000
10
12.1177246258
20
-0.0826509852
30
0.0000000000
10
12.1260046897
20
-0.0595160320
30
0.0000000000
10
12.1319776929
20
-0.0356797755
30
0.0000000000
10
12.1351833484
20
-0.0140793907
30
0.0000000000
10
12.1360778266
20
-0.0004668110
30
0.0000000000
10
12.1362568121
20
0.0049802544
30
0.0000000000
11
11.8863911290
21
-0.2368195572
31
0.0000000000
11
11.9108957762
21
-0.2356138829
31
0.0000000000
11
11.9351636444
21
-0.2320123590
31
0.0000000000
11
11.9589611875
21
-0.2260498616
31
0.0000000000
11
11.9820594087
21
-0.2177839475
31
0.0000000000
11
12.0042360543
21
-0.2072942994
31
0.0000000000
11
12.0252777421
21
-0.1946819602
31
0.0000000000
11
12.0449820062
21
-0.1800683628
31
0.0000000000
11
12.0631592365
21
-0.1635941663
31
0.0000000000
11
12.0796344965
21
-0.1454179076
31
0.0000000000
11
12.0942492000
21
-0.1257144820
31
0.0000000000
11
12.1068626330
21
-0.1046734680
31
0.0000000000
11
12.1173533037
21
-0.0824973104
31
0.0000000000
11
12.1256201095
21
-0.0593993810
31
0.0000000000
11
12.1315833094
21
-0.0356019343
31
0.0000000000
11
12.1351852912
21
-0.0113339773
31
0.0000000000
11
12.1362568121
21
0.0049802544
31
0.0000000000
0
SPLINE
5
320
100
AcDbEntity
8
0
100
AcDbSpline
62
7
6
CONTINUOUS
70
0
71
3
72
8
73
4
74
2
42
0.0000001000
43
0.0000001000
44
0.0000000001
12
0.0002684605
22
0.0081700577
32
0.0000000000
13
0.0000000000
23
0.0081714856
33
0.0000000000
40
0.0000000000
40
0.0000000000
40
0.0000000000
40
0.0000000000
40
1.0000000000
40
1.0000000000
40
1.0000000000
40
1.0000000000
10
12.1362568121
20
0.0049802544
30
0.0000000000
10
12.1363462989
20
0.0077036070
30
0.0000000000
10
12.1363911290
20
0.0104280584
30
0.0000000000
10
12.1363911290
20
0.0131518869
30
0.0000000000
11
12.1362568121
21
0.0049802544
31
0.0000000000
11
12.1363911290
21
0.0131518869
31
0.0000000000
0
SPLINE
5
321
100
AcDbEntity
8
0
100
AcDbSpline
62
9
6
CONTINUOUS
70
0
71
3
72
20
73
16
74
14
42
0.0000001000
43
0.0000001000
44
0.0000000001
12
0.3924039430
22
0.0000597696
32
0.0000000000
13
0.0000597559
23
0.3924039430
33
0.0000000000
40
0.0000000000
40
0.0000000000
40
0.0000000000
40
0.0000000000
40
0.0769156694
40
0.1538329653
40
0.2307520060
40
0.3076728085
40
0.3845952873
40
0.4615192599
40
0.5384444567
40
0.6153705374
40
0.6922971101
40
0.7692237546
40
0.8461500464
40
0.9230755815
40
1.0000000000
40
1.0000000000
40
1.0000000000
40
1.0000000000
10
11.7955132832
20
-0.1913840948
30
0.0000000000
10
11.8055739539
20
-0.1913825624
30
0.0000000000
10
11.8257164895
20
-0.1901615917
30
0.0000000000
10
11.8554726617
20
-0.1847032566
30
0.0000000000
10
11.8843591903
20
-0.1756976080
30
0.0000000000
10
11.9119491605
20
-0.1632759507
30
0.0000000000
10
11.9378418761
20
-0.1476193899
30
0.0000000000
10
11.9616594280
20
-0.1289561954
30
0.0000000000
10
11.9830546876
20
-0.1075584589
30
0.0000000000
10
12.0017157017
20
-0.0837381758
30
0.0000000000
10
12.0173704171
20
-0.0578425176
30
0.0000000000
10
12.0297905993
20
-0.0302494366
30
0.0000000000
10
12.0387951719
20
-0.0013596724
30
0.0000000000
10
12.0442528522
20
0.0283998202
30
0.0000000000
10
12.0454736748
20
0.0485445709
30
0.0000000000
10
12.0454752070
20
0.0586063859
30
0.0000000000
11
11.7955132832
21
-0.1913840948
31
0.0000000000
11
11.8256399513
21
-0.1895571477
31
0.0000000000
11
11.8553273908
21
-0.1841121194
31
0.0000000000
11
11.8841427759
21
-0.1751283950
31
0.0000000000
11
11.9116659951
21
-0.1627369518
31
0.0000000000
11
11.9374957754
21
-0.1471184493
31
0.0000000000
11
11.9612555333
21
-0.1285005962
31
0.0000000000
11
11.9825988650
21
-0.1071548296
31
0.0000000000
11
12.0012145965
21
-0.0833923584
31
0.0000000000
11
12.0168313207
21
-0.0575596257
31
0.0000000000
11
12.0292213544
21
-0.0300332580
31
0.0000000000
11
12.0382040576
21
-0.0012145741
31
0.0000000000
11
12.0436484673
21
0.0284762658
31
0.0000000000
11
12.0454752070
21
0.0586063859
31
0.0000000000
0
SPLINE
5
322
100
AcDbEntity
8
0
100
AcDbSpline
62
9
6
CONTINUOUS
70
0
71
3
72
23
73
19
74
17
42
0.0000001000
43
0.0000001000
44
0.0000000001
12
-0.0007172057
22
0.7842577210
32
0.0000000000
13
-0.7842577226
23
0.0007154592
33
0.0000000000
40
0.0000000000
40
0.0000000000
40
0.0000000000
40
0.0000000000
40
0.0624467125
40
0.1249003729
40
0.1873620608
40
0.2498325470
40
0.3123122647
40
0.3748012926
40
0.4372993518
40
0.4998058173
40
0.5623197415
40
0.6248398911
40
0.6873647941
40
0.7498927964
40
0.8124221253
40
0.8749509571
40
0.9374774875
40
1.0000000000
40
1.0000000000
40
1.0000000000
40
1.0000000000
10
12.0724044342
20
21.2240936188
30
0.0000000000
10
12.0723895051
20
21.2404183910
30
0.0000000000
10
12.0707538120
20
21.2730909868
30
0.0000000000
10
12.0635072555
20
21.3216078387
30
0.0000000000
10
12.0515372868
20
21.3691914194
30
0.0000000000
10
12.0349590953
20
21.4153778026
30
0.0000000000
10
12.0139321920
20
21.4597243695
30
0.0000000000
10
11.9886588807
20
21.5018041059
30
0.0000000000
10
11.9593823060
20
21.5412123771
30
0.0000000000
10
11.9263841117
20
21.5775701035
30
0.0000000000
10
11.8899817331
20
21.6105275950
30
0.0000000000
10
11.8505253290
20
21.6397678606
30
0.0000000000
10
11.8083944642
20
21.6650096673
30
0.0000000000
10
11.7639942689
20
21.6860102392
30
0.0000000000
10
11.7177522556
20
21.7025675898
30
0.0000000000
10
11.6701115509
20
21.7145224648
30
0.0000000000
10
11.6215365592
20
21.7217598645
30
0.0000000000
10
11.5888251743
20
21.7233934754
30
0.0000000000
10
11.5724805866
20
21.7234083862
30
0.0000000000
11
12.0724044342
21
21.2240936188
31
0.0000000000
11
12.0699552298
21
21.2730066751
31
0.0000000000
11
12.0627206388
21
21.3214492196
31
0.0000000000
11
12.0507702531
21
21.3689552661
31
0.0000000000
11
12.0342190275
21
21.4150678369
31
0.0000000000
11
12.0132261743
21
21.4593433586
31
0.0000000000
11
11.9879936310
21
21.5013559290
31
0.0000000000
11
11.9587641184
21
21.5407014141
31
0.0000000000
11
11.9258188058
21
21.5770013355
31
0.0000000000
11
11.8894746056
21
21.6099065111
31
0.0000000000
11
11.8500811260
21
21.6391004141
31
0.0000000000
11
11.8080173068
21
21.6643022178
31
0.0000000000
11
11.7636877750
21
21.6852694969
31
0.0000000000
11
11.7175189523
21
21.7018005595
31
0.0000000000
11
11.6699549533
21
21.7137363874
31
0.0000000000
11
11.6214533131
21
21.7209621654
31
0.0000000000
11
11.5724805866
21
21.7234083862
31
0.0000000000
0
SPLINE
5
323
100
AcDbEntity
8
0
100
AcDbSpline
62
9
6
CONTINUOUS
70
0
71
3
72
24
73
20
74
18
42
0.0000001000
43
0.0000001000
44
0.0000000001
12
-0.1395334171
22
-0.8380717746
32
0.0000000000
13
-0.0011180529
23
-0.8496073351
33
0.0000000000
40
0.0000000000
40
0.0000000000
40
0.0000000000
40
0.0000000000
40
0.0088011624
40
0.0251430266
40
0.0489316306
40
0.0800156745
40
0.1181954087
40
0.1632240521
40
0.2148101561
40
0.2726195649
40
0.3362781609
40
0.4053732110
40
0.4794574707
40
0.5580508546
40
0.6406440882
40
0.7267018366
40
0.8156675663
40
0.9069632768
40
1.0000000000
40
1.0000000000
40
1.0000000000
40
1.0000000000
10
11.5724805866
20
21.7234083862
30
0.0000000000
10
11.5720712345
20
21.7209497176
30
0.0000000000
10
11.5716452010
20
21.7138241077
30
0.0000000000
10
11.5709446412
20
21.6999960260
30
0.0000000000
10
11.5703297646
20
21.6798305601
30
0.0000000000
10
11.5696730741
20
21.6534885457
30
0.0000000000
10
11.5690484765
20
21.6211255725
30
0.0000000000
10
11.5684386201
20
21.5829565728
30
0.0000000000
10
11.5678574343
20
21.5392269447
30
0.0000000000
10
11.5673066137
20
21.4902206601
30
0.0000000000
10
11.5667911441
20
21.4362551194
30
0.0000000000
10
11.5663143844
20
21.3776799951
30
0.0000000000
10
11.5658797215
20
21.3148748611
30
0.0000000000
10
11.5654900913
20
21.2482466439
30
0.0000000000
10
11.5651481229
20
21.1782271994
30
0.0000000000
10
11.5648561155
20
21.1052700293
30
0.0000000000
10
11.5646159894
20
21.0298480929
30
0.0000000000
10
11.5644293810
20
20.9524495357
30
0.0000000000
10
11.5643420716
20
20.9002461622
30
0.0000000000
10
11.5643073983
20
20.8738979347
30
0.0000000000
11
11.5724805866
21
21.7234083862
31
0.0000000000
11
11.5717810678
21
21.7159636392
31
0.0000000000
11
11.5710890755
21
21.7020967148
31
0.0000000000
11
11.5704090173
21
21.6818971694
31
0.0000000000
11
11.5697453623
21
21.6554962549
31
0.0000000000
11
11.5691023825
21
21.6230648177
31
0.0000000000
11
11.5684842541
21
21.5848131129
31
0.0000000000
11
11.5678949804
21
21.5409891042
31
0.0000000000
11
11.5673383812
21
21.4918769178
31
0.0000000000
11
11.5668180596
21
21.4377945638
31
0.0000000000
11
11.5663373895
21
21.3790928195
31
0.0000000000
11
11.5658994822
21
21.3161517578
31
0.0000000000
11
11.5655071761
21
21.2493793370
31
0.0000000000
11
11.5651630116
21
21.1792083032
31
0.0000000000
11
11.5648692221
21
21.1060935358
31
0.0000000000
11
11.5646276993
21
21.0305079197
31
0.0000000000
11
11.5644400268
21
20.9529425743
31
0.0000000000
11
11.5643073983
21
20.8738979347
31
0.0000000000
0
SPLINE
5
324
100
AcDbEntity
8
0
100
AcDbSpline
62
9
6
CONTINUOUS
70
0
71
3
72
21
73
17
74
15
42
0.0000001000
43
0.0000001000
44
0.0000000001
12
0.0000002801
22
-0.2501906996
32
0.0000000000
13
-0.0490396965
23
-0.2453375111
33
0.0000000000
40
0.0000000000
40
0.0000000000
40
0.0000000000
40
0.0000000000
40
0.1113217994
40
0.2212666770
40
0.3284677488
40
0.4315892809
40
0.5293479542
40
0.6205268850
40
0.7039906850
40
0.7787004222
40
0.8437261097
40
0.8982580603
40
0.9416175510
40
0.9732650025
40
0.9928063785
40
1.0000000000
40
1.0000000000
40
1.0000000000
40
1.0000000000
10
5.9343951373
20
0.0609488968
30
0.0000000000
10
5.9343951477
20
0.0516650038
30
0.0000000000
10
5.9343933883
20
0.0332120489
30
0.0000000000
10
5.9343854017
20
0.0058188577
30
0.0000000000
10
5.9343721657
20
-0.0208904537
30
0.0000000000
10
5.9343538884
20
-0.0465834728
30
0.0000000000
10
5.9343307091
20
-0.0709402818
30
0.0000000000
10
5.9343032425
20
-0.0936577209
30
0.0000000000
10
5.9342708580
20
-0.1144528447
30
0.0000000000
10
5.9342372008
20
-0.1330671719
30
0.0000000000
10
5.9341929130
20
-0.1492677057
30
0.0000000000
10
5.9341676858
20
-0.1628564825
30
0.0000000000
10
5.9340823102
20
-0.1736541066
30
0.0000000000
10
5.9341376686
20
-0.1815516949
30
0.0000000000
10
5.9339162491
20
-0.1863973278
30
0.0000000000
10
5.9340801929
20
-0.1886521798
30
0.0000000000
10
5.9339626019
20
-0.1892404682
30
0.0000000000
11
5.9343951373
21
0.0609488968
31
0.0000000000
11
5.9343924609
21
0.0330972180
31
0.0000000000
11
5.9343843879
21
0.0055900333
31
0.0000000000
11
5.9343710137
21
-0.0212306745
31
0.0000000000
11
5.9343525095
21
-0.0470307161
31
0.0000000000
11
5.9343291011
21
-0.0714890158
31
0.0000000000
11
5.9343010820
21
-0.0943011190
31
0.0000000000
11
5.9342687997
21
-0.1151829606
31
0.0000000000
11
5.9342326577
21
-0.1338746071
31
0.0000000000
11
5.9341931069
21
-0.1501433812
31
0.0000000000
11
5.9341506384
21
-0.1637867020
31
0.0000000000
11
5.9341057863
21
-0.1746347506
31
0.0000000000
11
5.9340590953
21
-0.1825525110
31
0.0000000000
11
5.9340111780
21
-0.1874413467
31
0.0000000000
11
5.9339626019
21
-0.1892404682
31
0.0000000000
0
SPLINE
5
325
100
AcDbEntity
8
0
100
AcDbSpline
62
9
6
CONTINUOUS
70
0
71
3
72
21
73
17
74
15
42
0.0000001000
43
0.0000001000
44
0.0000000001
12
-0.0490396967
22
0.2453375110
32
0.0000000000
13
0.0000002801
23
0.2501906996
33
0.0000000000
40
0.0000000000
40
0.0000000000
40
0.0000000000
40
0.0000000000
40
0.0071936215
40
0.0267349975
40
0.0583824490
40
0.1017419397
40
0.1562738903
40
0.2212995778
40
0.2960093150
40
0.3794731150
40
0.4706520458
40
0.5684107191
40
0.6715322512
40
0.7787333230
40
0.8886782006
40
1.0000000000
40
1.0000000000
40
1.0000000000
40
1.0000000000
10
-3.8611803438
20
-0.1892404682
30
0.0000000000
10
-3.8612979348
20
-0.1886521798
30
0.0000000000
10
-3.8611339910
20
-0.1863973278
30
0.0000000000
10
-3.8613554105
20
-0.1815516949
30
0.0000000000
10
-3.8613000521
20
-0.1736541066
30
0.0000000000
10
-3.8613854277
20
-0.1628564825
30
0.0000000000
10
-3.8614106549
20
-0.1492677057
30
0.0000000000
10
-3.8614549427
20
-0.1330671719
30
0.0000000000
10
-3.8614886000
20
-0.1144528447
30
0.0000000000
10
-3.8615209844
20
-0.0936577209
30
0.0000000000
10
-3.8615484511
20
-0.0709402818
30
0.0000000000
10
-3.8615716304
20
-0.0465834728
30
0.0000000000
10
-3.8615899077
20
-0.0208904537
30
0.0000000000
10
-3.8616031436
20
0.0058188577
30
0.0000000000
10
-3.8616111302
20
0.0332120489
30
0.0000000000
10
-3.8616128897
20
0.0516650038
30
0.0000000000
10
-3.8616128793
20
0.0609488968
30
0.0000000000
11
-3.8611803438
21
-0.1892404682
31
0.0000000000
11
-3.8612289200
21
-0.1874413467
31
0.0000000000
11
-3.8612768372
21
-0.1825525110
31
0.0000000000
11
-3.8613235283
21
-0.1746347506
31
0.0000000000
11
-3.8613683804
21
-0.1637867020
31
0.0000000000
11
-3.8614108488
21
-0.1501433812
31
0.0000000000
11
-3.8614503996
21
-0.1338746071
31
0.0000000000
11
-3.8614865417
21
-0.1151829606
31
0.0000000000
11
-3.8615188240
21
-0.0943011190
31
0.0000000000
11
-3.8615468431
21
-0.0714890158
31
0.0000000000
11
-3.8615702514
21
-0.0470307161
31
0.0000000000
11
-3.8615887556
21
-0.0212306745
31
0.0000000000
11
-3.8616021298
21
0.0055900333
31
0.0000000000
11
-3.8616102028
21
0.0330972180
31
0.0000000000
11
-3.8616128793
21
0.0609488968
31
0.0000000000
0
SPLINE
5
326
100
AcDbEntity
8
0
100
AcDbSpline
62
9
6
CONTINUOUS
70
0
71
3
72
20
73
16
74
14
42
0.0000001000
43
0.0000001000
44
0.0000000001
12
-0.3924039430
22
0.0000597696
32
0.0000000000
13
-0.0000597559
23
0.3924039430
33
0.0000000000
40
0.0000000000
40
0.0000000000
40
0.0000000000
40
0.0000000000
40
0.0769156840
40
0.1538329925
40
0.2307520434
40
0.3076728535
40
0.3845953371
40
0.4615193115
40
0.5384445074
40
0.6153705844
40
0.6922971510
40
0.7692237872
40
0.8461500690
40
0.9230755931
40
1.0000000000
40
1.0000000000
40
1.0000000000
40
1.0000000000
10
-9.7227310252
20
-0.1913840948
30
0.0000000000
10
-9.7327916977
20
-0.1913825624
30
0.0000000000
10
-9.7529342369
20
-0.1901615913
30
0.0000000000
10
-9.7826904138
20
-0.1847032543
30
0.0000000000
10
-9.8115769458
20
-0.1756976030
30
0.0000000000
10
-9.8391669179
20
-0.1632759427
30
0.0000000000
10
-9.8650596339
20
-0.1476193791
30
0.0000000000
10
-9.8888771849
20
-0.1289561821
30
0.0000000000
10
-9.9102724426
20
-0.1075584442
30
0.0000000000
10
-9.9289334539
20
-0.0837381608
30
0.0000000000
10
-9.9445881663
20
-0.0578425036
30
0.0000000000
10
-9.9570083455
20
-0.0302494247
30
0.0000000000
10
-9.9660129158
20
-0.0013596638
30
0.0000000000
10
-9.9714705945
20
0.0283998247
30
0.0000000000
10
-9.9726914167
20
0.0485445724
30
0.0000000000
10
-9.9726929489
20
0.0586063859
30
0.0000000000
11
-9.7227310252
21
-0.1913840948
31
0.0000000000
11
-9.7528576990
21
-0.1895571470
31
0.0000000000
11
-9.7825451431
21
-0.1841121168
31
0.0000000000
11
-9.8113605316
21
-0.1751283898
31
0.0000000000
11
-9.8388837527
21
-0.1627369436
31
0.0000000000
11
-9.8647135334
21
-0.1471184382
31
0.0000000000
11
-9.8884732905
21
-0.1285005827
31
0.0000000000
11
-9.9098166201
21
-0.1071548146
31
0.0000000000
11
-9.9284323489
21
-0.0833923432
31
0.0000000000
11
-9.9440490701
21
-0.0575596115
31
0.0000000000
11
-9.9564391009
21
-0.0300332460
31
0.0000000000
11
-9.9654218016
21
-0.0012145655
31
0.0000000000
11
-9.9708662098
21
0.0284762703
31
0.0000000000
11
-9.9726929489
21
0.0586063859
31
0.0000000000
0
SPLINE
5
327
100
AcDbEntity
8
0
100
AcDbSpline
62
7
6
CONTINUOUS
70
0
71
3
72
23
73
19
74
17
42
0.0000001000
43
0.0000001000
44
0.0000000001
12
-0.3925054221
22
0.0000298902
32
0.0000000000
13
-0.0000000000
23
0.3925054233
33
0.0000000000
40
0.0000000000
40
0.0000000000
40
0.0000000000
40
0.0000000000
40
0.0625068814
40
0.1250121541
40
0.1875160784
40
0.2500188983
40
0.3125208439
40
0.3750221354
40
0.4375229868
40
0.5000236097
40
0.5625242180
40
0.6250250323
40
0.6875262842
40
0.7500282201
40
0.8125311052
40
0.8750352263
40
0.9375408942
40
1.0000000000
40
1.0000000000
40
1.0000000000
40
1.0000000000
10
-9.8136088710
20
-0.2368195572
30
0.0000000000
10
-9.8217869676
20
-0.2368189344
30
0.0000000000
10
-9.8381542538
20
-0.2360138637
30
0.0000000000
10
-9.8624592327
20
-0.2324065384
30
0.0000000000
10
-9.8862955725
20
-0.2264344439
30
0.0000000000
10
-9.9094308058
20
-0.2181552308
30
0.0000000000
10
-9.9316431544
20
-0.2076487100
30
0.0000000000
10
-9.9527186721
20
-0.1950160869
30
0.0000000000
10
-9.9724546284
20
-0.1803789893
30
0.0000000000
10
-9.9906610936
20
-0.1638783011
30
0.0000000000
10
-10.0071628546
20
-0.1456728139
30
0.0000000000
10
-10.0218010712
20
-0.1259376985
30
0.0000000000
10
-10.0344347973
20
-0.1048628525
30
0.0000000000
10
-10.0449423677
20
-0.0826509852
30
0.0000000000
10
-10.0532224316
20
-0.0595160320
30
0.0000000000
10
-10.0591954349
20
-0.0356797755
30
0.0000000000
10
-10.0628015572
20
-0.0113809602
30
0.0000000000
10
-10.0636088710
20
0.0049800410
30
0.0000000000
10
-10.0636088710
20
0.0131518869
30
0.0000000000
11
-9.8136088710
21
-0.2368195572
31
0.0000000000
11
-9.8381135181
21
-0.2356138829
31
0.0000000000
11
-9.8623813863
21
-0.2320123590
31
0.0000000000
11
-9.8861789294
21
-0.2260498616
31
0.0000000000
11
-9.9092771506
21
-0.2177839475
31
0.0000000000
11
-9.9314537962
21
-0.2072942994
31
0.0000000000
11
-9.9524954840
21
-0.1946819602
31
0.0000000000
11
-9.9721997481
21
-0.1800683628
31
0.0000000000
11
-9.9903769785
21
-0.1635941663
31
0.0000000000
11
-10.0068522384
21
-0.1454179076
31
0.0000000000
11
-10.0214669420
21
-0.1257144820
31
0.0000000000
11
-10.0340803750
21
-0.1046734680
31
0.0000000000
11
-10.0445710456
21
-0.0824973104
31
0.0000000000
11
-10.0528378515
21
-0.0593993810
31
0.0000000000
11
-10.0588010513
21
-0.0356019343
31
0.0000000000
11
-10.0624030331
21
-0.0113339773
31
0.0000000000
11
-10.0636088710
21
0.0131518869
31
0.0000000000
0
SPLINE
5
328
100
AcDbEntity
8
0
100
AcDbSpline
62
9
6
CONTINUOUS
70
0
71
3
72
24
73
20
74
18
42
0.0000001000
43
0.0000001000
44
0.0000000001
12
-0.1342624945
22
-0.4031823853
32
0.0000000000
13
-0.0011186572
23
-0.4249484697
33
0.0000000000
40
0.0000000000
40
0.0000000000
40
0.0000000000
40
0.0000000000
40
0.0089091212
40
0.0253045980
40
0.0491242403
40
0.0802264459
40
0.1184154924
40
0.1634467739
40
0.2150301575
40
0.2728323862
40
0.3364800065
40
0.4055608124
40
0.4796279141
40
0.5582015138
40
0.6407726649
40
0.7268063368
40
0.8157463054
40
0.9070148359
40
1.0000000000
40
1.0000000000
40
1.0000000000
40
1.0000000000
10
12.0724044342
20
21.2240936188
30
0.0000000000
10
12.0720057139
20
21.2228962852
30
0.0000000000
10
12.0715636529
20
21.2193066534
30
0.0000000000
10
12.0708728238
20
21.2124036665
30
0.0000000000
10
12.0702524408
20
21.2023086246
30
0.0000000000
10
12.0695977036
20
21.1891401200
30
0.0000000000
10
12.0689722792
20
21.1729564819
30
0.0000000000
10
12.0683626378
20
21.1538717718
30
0.0000000000
10
12.0677813328
20
21.1320060668
30
0.0000000000
10
12.0672305116
20
21.1075021124
30
0.0000000000
10
12.0667150105
20
21.0805183099
30
0.0000000000
10
12.0662382339
20
21.0512295807
30
0.0000000000
10
12.0658035554
20
21.0198257127
30
0.0000000000
10
12.0654139125
20
20.9865102145
30
0.0000000000
10
12.0650719397
20
20.9514990459
30
0.0000000000
10
12.0647799222
20
20.9150189825
30
0.0000000000
10
12.0645398082
20
20.8773065325
30
0.0000000000
10
12.0643532017
20
20.8386090913
30
0.0000000000
10
12.0642659187
20
20.8125096941
30
0.0000000000
10
12.0642312459
20
20.7993383931
30
0.0000000000
11
12.0724044342
21
21.2240936188
31
0.0000000000
11
12.0717051222
21
21.2203728349
31
0.0000000000
11
12.0710130838
21
21.2134400323
31
0.0000000000
11
12.0703330134
21
21.2033407483
31
0.0000000000
11
12.0696693308
21
21.1901405416
31
0.0000000000
11
12.0690263290
21
21.1739248520
31
0.0000000000
11
12.0684081771
21
21.1547987983
31
0.0000000000
11
12.0678188814
21
21.1328863650
31
0.0000000000
11
12.0672622615
21
21.1083296188
31
0.0000000000
11
12.0667419209
21
21.0812875719
31
0.0000000000
11
12.0662612339
21
21.0519356232
31
0.0000000000
11
12.0658233128
21
21.0204638593
31
0.0000000000
11
12.0654309961
21
20.9870763175
31
0.0000000000
11
12.0650868255
21
20.9519893996
31
0.0000000000
11
12.0647930311
21
20.9154305762
31
0.0000000000
11
12.0645515129
21
20.8776363134
31
0.0000000000
11
12.0643638385
21
20.8388522107
31
0.0000000000
11
12.0642312459
21
20.7993383931
31
0.0000000000
0
SPLINE
5
329
100
AcDbEntity
8
0
100
AcDbSpline
62
9
6
CONTINUOUS
70
0
71
3
72
25
73
21
74
19
42
0.0000001000
43
0.0000001000
44
0.0000000001
12
-0.7851276567
22
0.0000193632
32
0.0000000000
13
0.0000040884
23
-0.7851276569
33
0.0000000000
40
0.0000000000
40
0.0000000000
40
0.0000000000
40
0.0000000000
40
0.0550667117
40
0.1105114419
40
0.1661787833
40
0.2219131360
40
0.2775721800
40
0.3331373801
40
0.3886971336
40
0.4443033637
40
0.4999363947
40
0.5555713058
40
0.6111831866
40
0.6667526861
40
0.7223320607
40
0.7780090062
40
0.8337630586
40
0.8894501654
40
0.9449142893
40
1.0000000000
40
1.0000000000
40
1.0000000000
40
1.0000000000
10
-3.1616213227
20
0.9611738568
30
0.0000000000
10
-3.1760327888
20
0.9611742122
30
0.0000000000
10
-3.2049702347
20
0.9599233774
30
0.0000000000
10
-3.2481456972
20
0.9542783985
30
0.0000000000
10
-3.2908395464
20
0.9448541834
30
0.0000000000
10
-3.3325994190
20
0.9317186117
30
0.0000000000
10
-3.3730272168
20
0.9149947797
30
0.0000000000
10
-3.4118009567
20
0.8948287960
30
0.0000000000
10
-3.4486575843
20
0.8713671167
30
0.0000000000
10
-3.4833420424
20
0.8447699003
30
0.0000000000
10
-3.5155878076
20
0.8152341422
30
0.0000000000
10
-3.5451334308
20
0.7829954003
30
0.0000000000
10
-3.5717426693
20
0.7483144391
30
0.0000000000
10
-3.5952177729
20
0.7114571428
30
0.0000000000
10
-3.6153976165
20
0.6726782187
30
0.0000000000
10
-3.6321345118
20
0.6322410937
30
0.0000000000
10
-3.6452811570
20
0.5904688933
30
0.0000000000
10
-3.6547137051
20
0.5477610359
30
0.0000000000
10
-3.6603640048
20
0.5045708528
30
0.0000000000
10
-3.6616163901
20
0.4756233643
30
0.0000000000
10
-3.6616163150
20
0.4612069260
30
0.0000000000
11
-3.1616213227
21
0.9611738568
31
0.0000000000
11
-3.2048153597
21
0.9593061392
31
0.0000000000
11
-3.2479792339
21
0.9536630403
31
0.0000000000
11
-3.2906577533
21
0.9442420140
31
0.0000000000
11
-3.3324000204
21
0.9311120250
31
0.0000000000
11
-3.3727807724
21
0.9144076180
31
0.0000000000
11
-3.4114848028
21
0.8942778810
31
0.0000000000
11
-3.4482831972
21
0.8708532497
31
0.0000000000
11
-3.4829276503
21
0.8442866940
31
0.0000000000
11
-3.5151371943
21
0.8147840999
31
0.0000000000
11
-3.5446496260
21
0.7825815675
31
0.0000000000
11
-3.5712281177
21
0.7479406785
31
0.0000000000
11
-3.5946660825
21
0.7111417026
31
0.0000000000
11
-3.6148097157
21
0.6724323570
31
0.0000000000
11
-3.6315273386
21
0.6320418627
31
0.0000000000
11
-3.6446685089
21
0.5902868994
31
0.0000000000
11
-3.6540978742
21
0.5475943291
31
0.0000000000
11
-3.6597462867
21
0.5044157936
31
0.0000000000
11
-3.6616163150
21
0.4612069260
31
0.0000000000
0
SPLINE
5
32A
100
AcDbEntity
8
0
100
AcDbSpline
62
9
6
CONTINUOUS
70
0
71
3
72
25
73
21
74
19
42
0.0000001000
43
0.0000001000
44
0.0000000001
12
0.0000040462
22
0.7851276569
32
0.0000000000
13
-0.7851276567
23
-0.0000194052
33
0.0000000000
40
0.0000000000
40
0.0000000000
40
0.0000000000
40
0.0000000000
40
0.0550917047
40
0.1105601654
40
0.1662493606
40
0.2220031426
40
0.2776787335
40
0.3332574434
40
0.3888272692
40
0.4444396450
40
0.5000747338
40
0.5557075883
40
0.6113133243
40
0.6668727539
40
0.7224386234
40
0.7780990254
40
0.8338336478
40
0.8894988989
40
0.9449392892
40
1.0000000000
40
1.0000000000
40
1.0000000000
40
1.0000000000
10
5.7343985730
20
0.4612069260
30
0.0000000000
10
5.7343986473
20
0.4756249331
30
0.0000000000
10
5.7331460095
20
0.5045751303
30
0.0000000000
10
5.7274947318
20
0.5477684755
30
0.0000000000
10
5.7180610714
20
0.5904777433
30
0.0000000000
10
5.7049135832
20
0.6322498050
30
0.0000000000
10
5.6881761894
20
0.6726860712
30
0.0000000000
10
5.6679959135
20
0.7114642686
30
0.0000000000
10
5.6445201912
20
0.7483212204
30
0.0000000000
10
5.6179102092
20
0.7830019424
30
0.0000000000
10
5.5883639384
20
0.8152402677
30
0.0000000000
10
5.5561177561
20
0.8447753786
30
0.0000000000
10
5.5214330581
20
0.8713718522
30
0.0000000000
10
5.4845760844
20
0.8948329137
30
0.0000000000
10
5.4458016154
20
0.9149984661
30
0.0000000000
10
5.4053729569
20
0.9317217996
30
0.0000000000
10
5.3636129453
20
0.9448565280
30
0.0000000000
10
5.3209205081
20
0.9542796303
30
0.0000000000
10
5.2777482109
20
0.9599236308
30
0.0000000000
10
5.2488134764
20
0.9611742130
30
0.0000000000
10
5.2344035808
20
0.9611738568
30
0.0000000000
11
5.7343985730
21
0.4612069260
31
0.0000000000
11
5.7325281377
21
0.5044204865
31
0.0000000000
11
5.7268787296
21
0.5476023257
31
0.0000000000
11
5.7174482473
21
0.5902963284
31
0.0000000000
11
5.7043063345
21
0.6320508355
31
0.0000000000
11
5.6875883900
21
0.6724400456
31
0.0000000000
11
5.6674443611
21
0.7111485970
31
0.0000000000
11
5.6440056634
21
0.7479474097
31
0.0000000000
11
5.6174263522
21
0.7825881599
31
0.0000000000
11
5.5879132674
21
0.8147902830
31
0.0000000000
11
5.5557033136
21
0.8442922245
31
0.0000000000
11
5.5210587213
21
0.8708579612
31
0.0000000000
11
5.4842601624
21
0.8942818604
31
0.0000000000
11
5.4455553346
21
0.9144112031
31
0.0000000000
11
5.4051732958
21
0.9311152888
31
0.0000000000
11
5.3634305729
21
0.9442445347
31
0.0000000000
11
5.3207534875
21
0.9536644435
31
0.0000000000
11
5.2775929195
21
0.9593065464
31
0.0000000000
11
5.2344035808
21
0.9611738568
31
0.0000000000
0
SPLINE
5
32B
100
AcDbEntity
8
0
100
AcDbSpline
62
9
6
CONTINUOUS
70
0
71
3
72
19
73
15
74
13
42
0.0000001000
43
0.0000001000
44
0.0000000001
12
-0.3139155005
22
0.0000239054
32
0.0000000000
13
-0.0000239054
23
0.3139155005
33
0.0000000000
40
0.0000000000
40
0.0000000000
40
0.0000000000
40
0.0000000000
40
0.0833317219
40
0.1666642438
40
0.2499974830
40
0.3333313078
40
0.4166655467
40
0.5000000000
40
0.5833344533
40
0.6666686922
40
0.7500025170
40
0.8333357562
40
0.9166682781
40
1.0000000000
40
1.0000000000
40
1.0000000000
40
1.0000000000
10
5.9339626019
20
-0.1892404682
30
0.0000000000
10
5.9252428955
20
-0.1892398042
30
0.0000000000
10
5.9077819626
20
-0.1880946650
30
0.0000000000
10
5.8820558682
20
-0.1829749786
30
0.0000000000
10
5.8572132096
20
-0.1745408983
30
0.0000000000
10
5.8336848694
20
-0.1629367214
30
0.0000000000
10
5.8118718110
20
-0.1483609821
30
0.0000000000
10
5.7921476431
20
-0.1310630424
30
0.0000000000
10
5.7748497034
20
-0.1113388745
30
0.0000000000
10
5.7602739641
20
-0.0895258161
30
0.0000000000
10
5.7486697872
20
-0.0659974759
30
0.0000000000
10
5.7402357069
20
-0.0411548173
30
0.0000000000
10
5.7351160204
20
-0.0154287229
30
0.0000000000
10
5.7339708813
20
0.0020322100
30
0.0000000000
10
5.7339702172
20
0.0107519164
30
0.0000000000
11
5.9339626019
21
-0.1892404682
31
0.0000000000
11
5.9078596157
21
-0.1875276835
31
0.0000000000
11
5.8822032155
21
-0.1824226083
31
0.0000000000
11
5.8574323471
21
-0.1740125835
31
0.0000000000
11
5.8339708058
21
-0.1624414929
31
0.0000000000
11
5.8122199862
21
-0.1479073020
31
0.0000000000
11
5.7925520148
21
-0.1306586707
31
0.0000000000
11
5.7753033835
21
-0.1109906993
31
0.0000000000
11
5.7607691926
21
-0.0892398797
31
0.0000000000
11
5.7491981020
21
-0.0657783384
31
0.0000000000
11
5.7407880772
21
-0.0410074700
31
0.0000000000
11
5.7356830020
21
-0.0153510698
31
0.0000000000
11
5.7339702172
21
0.0107519164
31
0.0000000000
0
SPLINE
5
32C
100
AcDbEntity
8
0
100
AcDbSpline
62
9
6
CONTINUOUS
70
0
71
3
72
23
73
19
74
17
42
0.0000001000
43
0.0000001000
44
0.0000000001
12
-0.4999425324
22
-0.0000035442
32
0.0000000000
13
-0.4823524670
23
-0.1314482153
33
0.0000000000
40
0.0000000000
40
0.0000000000
40
0.0000000000
40
0.0000000000
40
0.0969477502
40
0.1929739115
40
0.2871861200
40
0.3786926191
40
0.4666330828
40
0.5501796078
40
0.6285447137
40
0.7009903011
40
0.7668344304
40
0.8254572373
40
0.8763065087
40
0.9189031335
40
0.9528464798
40
0.9778176872
40
0.9935821844
40
1.0000000000
40
1.0000000000
40
1.0000000000
40
1.0000000000
10
-9.4727691283
20
0.0609488972
30
0.0000000000
10
-9.4889252296
20
0.0609487827
30
0.0000000000
10
-9.5210838520
20
0.0609411569
30
0.0000000000
10
-9.5689426940
20
0.0609075503
30
0.0000000000
10
-9.6158947441
20
0.0608521289
30
0.0000000000
10
-9.6614993017
20
0.0607754340
30
0.0000000000
10
-9.7053264048
20
0.0606782025
30
0.0000000000
10
-9.7469634783
20
0.0605614291
30
0.0000000000
10
-9.7860182777
20
0.0604261424
30
0.0000000000
10
-9.8221230032
20
0.0602741323
30
0.0000000000
10
-9.8549373815
20
0.0601055573
30
0.0000000000
10
-9.8841533991
20
0.0599266696
30
0.0000000000
10
-9.9094928457
20
0.0597258265
30
0.0000000000
10
-9.9307258597
20
0.0595456875
30
0.0000000000
10
-9.9476282936
20
0.0592786784
30
0.0000000000
10
-9.9601021150
20
0.0592083121
30
0.0000000000
10
-9.9679004027
20
0.0587485061
30
0.0000000000
10
-9.9716610659
20
0.0588875894
30
0.0000000000
10
-9.9726929489
20
0.0586063859
30
0.0000000000
11
-9.4727691283
21
0.0609488972
31
0.0000000000
11
-9.5212374307
21
0.0609373457
31
0.0000000000
11
-9.5692449810
21
0.0609034755
31
0.0000000000
11
-9.6163456379
21
0.0608476037
31
0.0000000000
11
-9.6620935634
21
0.0607702604
31
0.0000000000
11
-9.7060586322
21
0.0606721739
31
0.0000000000
11
-9.7478269270
21
0.0605542698
31
0.0000000000
11
-9.7870047384
21
0.0604176614
31
0.0000000000
11
-9.8232230413
21
0.0602636382
31
0.0000000000
11
-9.8561408831
21
0.0600936529
31
0.0000000000
11
-9.8854483379
21
0.0599093083
31
0.0000000000
11
-9.9108692884
21
0.0597123440
31
0.0000000000
11
-9.9321641397
21
0.0595046181
31
0.0000000000
11
-9.9491324808
21
0.0592880914
31
0.0000000000
11
-9.9616146522
21
0.0590647934
31
0.0000000000
11
-9.9694926982
21
0.0588368584
31
0.0000000000
11
-9.9726929489
21
0.0586063859
31
0.0000000000
0
SPLINE
5
32D
100
AcDbEntity
8
0
100
AcDbSpline
62
9
6
CONTINUOUS
70
0
71
3
72
10
73
6
74
4
42
0.0000001000
43
0.0000001000
44
0.0000000001
12
-0.0001262690
22
9.1022317153
32
0.0000000000
13
-0.0030162464
23
9.1022312164
33
0.0000000000
40
0.0000000000
40
0.0000000000
40
0.0000000000
40
0.0000000000
40
0.3333526956
40
0.6666869339
40
1.0000000000
40
1.0000000000
40
1.0000000000
40
1.0000000000
10
-9.4727691283
20
0.0609488970
30
0.0000000000
10
-9.4727831590
20
1.0723667229
30
0.0000000000
10
-9.4729182441
20
3.0951463745
30
0.0000000000
10
-9.4734419434
20
6.1292235731
30
0.0000000000
10
-9.4740051376
20
8.1518829119
30
0.0000000000
10
-9.4743402557
20
9.1631804435
30
0.0000000000
11
-9.4727691283
21
0.0609488970
31
0.0000000000
11
-9.4729717654
21
3.0952023684
31
0.0000000000
11
-9.4734954758
21
6.1292877997
31
0.0000000000
11
-9.4743402557
21
9.1631804435
31
0.0000000000
0
SPLINE
5
32E
100
AcDbEntity
8
0
100
AcDbSpline
62
9
6
CONTINUOUS
70
0
71
3
72
10
73
6
74
4
42
0.0000001000
43
0.0000001000
44
0.0000000001
12
-0.0001256780
22
9.0950742265
32
0.0000000000
13
-0.0030168915
23
9.0950737270
33
0.0000000000
40
0.0000000000
40
0.0000000000
40
0.0000000000
40
0.0000000000
40
0.3333523835
40
0.6666867786
40
1.0000000000
40
1.0000000000
40
1.0000000000
40
1.0000000000
10
-9.9726929489
20
0.0586063859
30
0.0000000000
10
-9.9727069140
20
1.0692279430
30
0.0000000000
10
-9.9728419133
20
3.0904165221
30
0.0000000000
10
-9.9733656214
20
6.1221078911
30
0.0000000000
10
-9.9739289133
20
8.1431776692
30
0.0000000000
10
-9.9742641032
20
9.1536804435
30
0.0000000000
11
-9.9726929489
21
0.0586063859
31
0.0000000000
11
-9.9728954573
21
3.0904710506
31
0.0000000000
11
-9.9734191767
21
6.1221720714
31
0.0000000000
11
-9.9742641032
21
9.1536804435
31
0.0000000000
0
SPLINE
5
32F
100
AcDbEntity
8
0
100
AcDbSpline
62
9
6
CONTINUOUS
70
0
71
3
72
22
73
18
74
16
42
0.0000001000
43
0.0000001000
44
0.0000000001
12
0.3383259833
22
0.3684496662
32
0.0000000000
13
0.5002195517
23
0.0001658660
33
0.0000000000
40
0.0000000000
40
0.0000000000
40
0.0000000000
40
0.0000000000
40
0.0074214242
40
0.0253154709
40
0.0536084286
40
0.0920197829
40
0.1401463892
40
0.1974767511
40
0.2633990286
40
0.3372084835
40
0.4181154124
40
0.5052537950
40
0.5976906748
40
0.6944362150
40
0.7944543416
40
0.8966738698
40
1.0000000000
40
1.0000000000
40
1.0000000000
40
1.0000000000
10
-9.9742641032
20
9.1536804435
30
0.0000000000
10
-9.9734271497
20
9.1545919173
30
0.0000000000
10
-9.9686235048
20
9.1546169975
30
0.0000000000
10
-9.9602585261
20
9.1560499448
30
0.0000000000
10
-9.9458965919
20
9.1566308208
30
0.0000000000
10
-9.9268893687
20
9.1576456004
30
0.0000000000
10
-9.9028707326
20
9.1584516348
30
0.0000000000
10
-9.8743220235
20
9.1592803514
30
0.0000000000
10
-9.8414673163
20
9.1600312162
30
0.0000000000
10
-9.8046861257
20
9.1607249072
30
0.0000000000
10
-9.7643634707
20
9.1613433095
30
0.0000000000
10
-9.7209341474
20
9.1618823234
30
0.0000000000
10
-9.6748625881
20
9.1623348864
30
0.0000000000
10
-9.6266426558
20
9.1626961937
30
0.0000000000
10
-9.5767909087
20
9.1629621394
30
0.0000000000
10
-9.5258414904
20
9.1631297996
30
0.0000000000
10
-9.4915688392
20
9.1631747308
30
0.0000000000
10
-9.4743402557
20
9.1631804435
30
0.0000000000
11
-9.9742641032
21
9.1536804435
31
0.0000000000
11
-9.9706840464
21
9.1546626216
31
0.0000000000
11
-9.9617859883
21
9.1556342763
31
0.0000000000
11
-9.9476652658
21
9.1565849969
31
0.0000000000
11
-9.9284731732
21
9.1575045971
31
0.0000000000
11
-9.9044153415
21
9.1583832239
31
0.0000000000
11
-9.8757495346
21
9.1592114636
31
0.0000000000
11
-9.8427828881
21
9.1599804420
31
0.0000000000
11
-9.8058686181
21
9.1606819199
31
0.0000000000
11
-9.7654022370
21
9.1613083816
31
0.0000000000
11
-9.7218173159
21
9.1618531149
31
0.0000000000
11
-9.6755808388
21
9.1623102833
31
0.0000000000
11
-9.6271881997
21
9.1626749886
31
0.0000000000
11
-9.5771578941
21
9.1629433232
31
0.0000000000
11
-9.5260259643
21
9.1631124121
31
0.0000000000
11
-9.4743402557
21
9.1631804435
31
0.0000000000
0
SPLINE
5
330
100
AcDbEntity
8
0
100
AcDbSpline
62
9
6
CONTINUOUS
70
0
71
3
72
14
73
10
74
8
42
0.0000001000
43
0.0000001000
44
0.0000000001
12
-0.0038629500
22
11.7107319604
32
0.0000000000
13
-0.0306549601
23
11.7106924750
33
0.0000000000
40
0.0000000000
40
0.0000000000
40
0.0000000000
40
0.0000000000
40
0.1434088633
40
0.2867169135
40
0.4298742344
40
0.5728309521
40
0.7155372777
40
0.8579434943
40
1.0000000000
40
1.0000000000
40
1.0000000000
40
1.0000000000
10
-9.4743402557
20
9.1631804435
30
0.0000000000
10
-9.4745249161
20
9.7229880300
30
0.0000000000
10
-9.4750754494
20
10.8422096196
30
0.0000000000
10
-9.4764453136
20
12.5202564918
30
0.0000000000
10
-9.4783585681
20
14.1965378476
30
0.0000000000
10
-9.4808145466
20
15.8704696143
30
0.0000000000
10
-9.4838123925
20
17.5414685007
30
0.0000000000
10
-9.4873510604
20
19.2089522724
30
0.0000000000
10
-9.4900735614
20
20.3193712506
30
0.0000000000
10
-9.4915251402
20
20.8738979347
30
0.0000000000
11
-9.4743402557
21
9.1631804435
31
0.0000000000
11
-9.4751664910
21
10.8426030909
31
0.0000000000
11
-9.4765367531
21
12.5208447864
31
0.0000000000
11
-9.4784505647
21
14.1973207984
31
0.0000000000
11
-9.4809072591
21
15.8714468898
31
0.0000000000
11
-9.4839059809
21
17.5426398177
31
0.0000000000
11
-9.4874456856
21
19.2103171846
31
0.0000000000
11
-9.4915251402
21
20.8738979347
31
0.0000000000
0
SPLINE
5
331
100
AcDbEntity
8
0
100
AcDbSpline
62
9
6
CONTINUOUS
70
0
71
3
72
14
73
10
74
8
42
0.0000001000
43
0.0000001000
44
0.0000000001
12
-0.0038629501
22
11.6456724996
32
0.0000000000
13
-0.0306549593
23
11.6456327936
33
0.0000000000
40
0.0000000000
40
0.0000000000
40
0.0000000000
40
0.0000000000
40
0.1434087461
40
0.2867168318
40
0.4298741889
40
0.5728309434
40
0.7155373066
40
0.8579435616
40
1.0000000000
40
1.0000000000
40
1.0000000000
40
1.0000000000
10
-9.9742641032
20
9.1536804435
30
0.0000000000
10
-9.9744487635
20
9.7103775404
30
0.0000000000
10
-9.9749992966
20
10.8233809301
30
0.0000000000
10
-9.9763691602
20
12.4921051611
30
0.0000000000
10
-9.9782824151
20
14.1590742764
30
0.0000000000
10
-9.9807383940
20
15.8237068558
30
0.0000000000
10
-9.9837362408
20
17.4854228472
30
0.0000000000
10
-9.9872749089
20
19.1436428363
30
0.0000000000
10
-9.9899974097
20
20.2478926870
30
0.0000000000
10
-9.9914489878
20
20.7993383931
30
0.0000000000
11
-9.9742641032
21
9.1536804435
31
0.0000000000
11
-9.9750903377
21
10.8237716216
31
0.0000000000
11
-9.9764605998
21
12.4926901842
31
0.0000000000
11
-9.9783744116
21
14.1598528734
31
0.0000000000
11
-9.9808311066
21
15.8246786974
31
0.0000000000
11
-9.9838298293
21
17.4865876520
31
0.0000000000
11
-9.9873695350
21
19.1450005733
31
0.0000000000
11
-9.9914489878
21
20.7993383931
31
0.0000000000
0
SPLINE
5
332
100
AcDbEntity
8
0
100
AcDbSpline
62
9
6
CONTINUOUS
70
0
71
3
72
22
73
18
74
16
42
0.0000001000
43
0.0000001000
44
0.0000000001
12
0.0591138124
22
0.5108754516
32
0.0000000000
13
0.5142824300
23
0.0013236501
33
0.0000000000
40
0.0000000000
40
0.0000000000
40
0.0000000000
40
0.0000000000
40
0.0165205710
40
0.0392968707
40
0.0703415196
40
0.1102029656
40
0.1588601956
40
0.2160113678
40
0.2811780978
40
0.3537518362
40
0.4330195614
40
0.5181812995
40
0.6083642327
40
0.7026353848
40
0.8000137603
40
0.8994823269
40
1.0000000000
40
1.0000000000
40
1.0000000000
40
1.0000000000
10
-9.9914489878
20
20.7993383931
30
0.0000000000
10
-9.9911234565
20
20.8021517111
30
0.0000000000
10
-9.9876738085
20
20.8084279786
30
0.0000000000
10
-9.9780060161
20
20.8158034405
30
0.0000000000
10
-9.9636270359
20
20.8230810146
30
0.0000000000
10
-9.9443346226
20
20.8300905157
30
0.0000000000
10
-9.9202787399
20
20.8368477411
30
0.0000000000
10
-9.8916618855
20
20.8432342197
30
0.0000000000
10
-9.8587787733
20
20.8491827977
30
0.0000000000
10
-9.8219713810
20
20.8546186389
30
0.0000000000
10
-9.7816301805
20
20.8594799178
30
0.0000000000
10
-9.7381846873
20
20.8637108789
30
0.0000000000
10
-9.6920989424
20
20.8672640615
30
0.0000000000
10
-9.6438657861
20
20.8700998162
30
0.0000000000
10
-9.5940013648
20
20.8721867231
30
0.0000000000
10
-9.5430396887
20
20.8735017442
30
0.0000000000
10
-9.5087566313
20
20.8738535804
30
0.0000000000
10
-9.4915251402
20
20.8738979305
30
0.0000000000
11
-9.9914489878
21
20.7993383931
31
0.0000000000
11
-9.9878780832
21
20.8070478160
31
0.0000000000
11
-9.9789877658
21
20.8146746171
31
0.0000000000
11
-9.9648733133
21
20.8221370599
31
0.0000000000
11
-9.9456859901
21
20.8293551694
31
0.0000000000
11
-9.9216314266
21
20.8362515892
31
0.0000000000
11
-9.8929674157
21
20.8427524103
31
0.0000000000
11
-9.8600011493
21
20.8487879636
31
0.0000000000
11
-9.8230859268
21
20.8542935659
31
0.0000000000
11
-9.7826173686
21
20.8592102139
31
0.0000000000
11
-9.7390291760
21
20.8634852157
31
0.0000000000
11
-9.6927884835
21
20.8670727562
31
0.0000000000
11
-9.6443908526
21
20.8699343877
31
0.0000000000
11
-9.5943549603
21
20.8720394421
31
0.0000000000
11
-9.5432170412
21
20.8733653597
31
0.0000000000
11
-9.4915251402
21
20.8738979305
31
0.0000000000
0
SPLINE
5
333
100
AcDbEntity
8
0
100
AcDbSpline
62
9
6
CONTINUOUS
70
0
71
3
72
24
73
20
74
18
42
0.0000001000
43
0.0000001000
44
0.0000000001
12
-0.0011180529
22
0.8496073351
32
0.0000000000
13
-0.1395334169
23
0.8380717747
33
0.0000000000
40
0.0000000000
40
0.0000000000
40
0.0000000000
40
0.0000000000
40
0.0930367232
40
0.1843324337
40
0.2732981634
40
0.3593559118
40
0.4419491454
40
0.5205425293
40
0.5946267890
40
0.6637218391
40
0.7273804351
40
0.7851898439
40
0.8367759479
40
0.8818045913
40
0.9199843255
40
0.9510683694
40
0.9748569734
40
0.9911988376
40
1.0000000000
40
1.0000000000
40
1.0000000000
40
1.0000000000
10
-9.4915251402
20
20.8738979347
30
0.0000000000
10
-9.4915598135
20
20.9002461622
30
0.0000000000
10
-9.4916471230
20
20.9524495357
30
0.0000000000
10
-9.4918337314
20
21.0298480929
30
0.0000000000
10
-9.4920738574
20
21.1052700293
30
0.0000000000
10
-9.4923658648
20
21.1782271994
30
0.0000000000
10
-9.4927078332
20
21.2482466439
30
0.0000000000
10
-9.4930974634
20
21.3148748611
30
0.0000000000
10
-9.4935321263
20
21.3776799951
30
0.0000000000
10
-9.4940088860
20
21.4362551194
30
0.0000000000
10
-9.4945243557
20
21.4902206601
30
0.0000000000
10
-9.4950751762
20
21.5392269447
30
0.0000000000
10
-9.4956563620
20
21.5829565728
30
0.0000000000
10
-9.4962662184
20
21.6211255725
30
0.0000000000
10
-9.4968908160
20
21.6534885457
30
0.0000000000
10
-9.4975475065
20
21.6798305601
30
0.0000000000
10
-9.4981623832
20
21.6999960260
30
0.0000000000
10
-9.4988629429
20
21.7138241077
30
0.0000000000
10
-9.4992889764
20
21.7209497176
30
0.0000000000
10
-9.4996983285
20
21.7234083862
30
0.0000000000
11
-9.4915251402
21
20.8738979347
31
0.0000000000
11
-9.4916577688
21
20.9529425743
31
0.0000000000
11
-9.4918454413
21
21.0305079197
31
0.0000000000
11
-9.4920869640
21
21.1060935358
31
0.0000000000
11
-9.4923807535
21
21.1792083032
31
0.0000000000
11
-9.4927249181
21
21.2493793370
31
0.0000000000
11
-9.4931172241
21
21.3161517578
31
0.0000000000
11
-9.4935551315
21
21.3790928195
31
0.0000000000
11
-9.4940358015
21
21.4377945638
31
0.0000000000
11
-9.4945561232
21
21.4918769178
31
0.0000000000
11
-9.4951127223
21
21.5409891042
31
0.0000000000
11
-9.4957019960
21
21.5848131129
31
0.0000000000
11
-9.4963201245
21
21.6230648177
31
0.0000000000
11
-9.4969631042
21
21.6554962549
31
0.0000000000
11
-9.4976267592
21
21.6818971694
31
0.0000000000
11
-9.4983068175
21
21.7020967148
31
0.0000000000
11
-9.4989988097
21
21.7159636392
31
0.0000000000
11
-9.4996983285
21
21.7234083862
31
0.0000000000
0
SPLINE
5
334
100
AcDbEntity
8
0
100
AcDbSpline
62
9
6
CONTINUOUS
70
0
71
3
72
21
73
17
74
15
42
0.0000001000
43
0.0000001000
44
0.0000000001
12
0.0000003362
22
-0.0500445334
32
0.0000000000
13
-0.0353367652
23
-0.0354368220
33
0.0000000000
40
0.0000000000
40
0.0000000000
40
0.0000000000
40
0.0000000000
40
0.1112124462
40
0.2211577307
40
0.3283614956
40
0.4314876071
40
0.5292524591
40
0.6204386846
40
0.7039102372
40
0.7786258595
40
0.8436553035
40
0.8981896376
40
0.9415514285
40
0.9732030272
40
0.9927566960
40
1.0000000000
40
1.0000000000
40
1.0000000000
40
1.0000000000
10
5.7344027527
20
0.0607897894
30
0.0000000000
10
5.7344027652
20
0.0589345977
30
0.0000000000
10
5.7344010050
20
0.0552453524
30
0.0000000000
10
5.7343930197
20
0.0497677910
30
0.0000000000
10
5.7343797892
20
0.0444251343
30
0.0000000000
10
5.7343615026
20
0.0392856744
30
0.0000000000
10
5.7343383440
20
0.0344134591
30
0.0000000000
10
5.7343108073
20
0.0298690534
30
0.0000000000
10
5.7342786422
20
0.0257094666
30
0.0000000000
10
5.7342442875
20
0.0219853523
30
0.0000000000
10
5.7342021007
20
0.0187467944
30
0.0000000000
10
5.7341708423
20
0.0160232748
30
0.0000000000
10
5.7341014073
20
0.0138784614
30
0.0000000000
10
5.7341195901
20
0.0122646316
30
0.0000000000
10
5.7339658601
20
0.0113578300
30
0.0000000000
10
5.7340555356
20
0.0108374763
30
0.0000000000
10
5.7339702172
20
0.0107519164
30
0.0000000000
11
5.7344027527
21
0.0607897894
31
0.0000000000
11
5.7344000800
21
0.0552242150
31
0.0000000000
11
5.7343920072
21
0.0497220605
31
0.0000000000
11
5.7343786348
21
0.0443571148
31
0.0000000000
11
5.7343601291
21
0.0391962498
31
0.0000000000
11
5.7343367201
21
0.0343037094
31
0.0000000000
11
5.7343086991
21
0.0297404233
31
0.0000000000
11
5.7342764150
21
0.0255632532
31
0.0000000000
11
5.7342402705
21
0.0218243194
31
0.0000000000
11
5.7342007161
21
0.0185701916
31
0.0000000000
11
5.7341582446
21
0.0158413768
31
0.0000000000
11
5.7341133849
21
0.0136718200
31
0.0000000000
11
5.7340666954
21
0.0120885187
31
0.0000000000
11
5.7340187581
21
0.0111111394
31
0.0000000000
11
5.7339702172
21
0.0107519164
31
0.0000000000
0
SPLINE
5
335
100
AcDbEntity
8
0
100
AcDbSpline
62
9
6
CONTINUOUS
70
0
71
3
72
9
73
5
74
3
42
0.0000001000
43
0.0000001000
44
0.0000000001
12
0.0000055795
22
-0.4004171363
32
0.0000000000
13
0.0000027799
23
-0.4004171363
33
0.0000000000
40
0.0000000000
40
0.0000000000
40
0.0000000000
40
0.0000000000
40
0.4999991097
40
1.0000000000
40
1.0000000000
40
1.0000000000
40
1.0000000000
10
5.7343985727
20
0.4612069257
30
0.0000000000
10
5.7343995026
20
0.3944708551
30
0.0000000000
10
5.7344011296
20
0.2609984764
30
0.0000000000
10
5.7344022894
20
0.1275260976
30
0.0000000000
10
5.7344027527
20
0.0607897894
30
0.0000000000
11
5.7343985727
21
0.4612069257
31
0.0000000000
11
5.7344010128
21
0.2609987140
31
0.0000000000
11
5.7344027527
21
0.0607897894
31
0.0000000000
0
SPLINE
5
336
100
AcDbEntity
8
0
100
AcDbSpline
62
9
6
CONTINUOUS
70
0
71
3
72
24
73
20
74
18
42
0.0000001000
43
0.0000001000
44
0.0000000001
12
-0.0011186572
22
0.4249484697
32
0.0000000000
13
-0.1342624947
23
0.4031823853
33
0.0000000000
40
0.0000000000
40
0.0000000000
40
0.0000000000
40
0.0000000000
40
0.0929851641
40
0.1842536946
40
0.2731936632
40
0.3592273351
40
0.4417984862
40
0.5203720859
40
0.5944391876
40
0.6635199935
40
0.7271676138
40
0.7849698425
40
0.8365532261
40
0.8815845076
40
0.9197735541
40
0.9508757597
40
0.9746954020
40
0.9910908788
40
1.0000000000
40
1.0000000000
40
1.0000000000
40
1.0000000000
10
-9.9914489878
20
20.7993383931
30
0.0000000000
10
-9.9914836606
20
20.8125096941
30
0.0000000000
10
-9.9915709436
20
20.8386090913
30
0.0000000000
10
-9.9917575502
20
20.8773065325
30
0.0000000000
10
-9.9919976641
20
20.9150189825
30
0.0000000000
10
-9.9922896816
20
20.9514990459
30
0.0000000000
10
-9.9926316545
20
20.9865102145
30
0.0000000000
10
-9.9930212973
20
21.0198257127
30
0.0000000000
10
-9.9934559759
20
21.0512295807
30
0.0000000000
10
-9.9939327524
20
21.0805183099
30
0.0000000000
10
-9.9944482535
20
21.1075021124
30
0.0000000000
10
-9.9949990747
20
21.1320060668
30
0.0000000000
10
-9.9955803798
20
21.1538717718
30
0.0000000000
10
-9.9961900212
20
21.1729564819
30
0.0000000000
10
-9.9968154456
20
21.1891401200
30
0.0000000000
10
-9.9974701827
20
21.2023086246
30
0.0000000000
10
-9.9980905657
20
21.2124036665
30
0.0000000000
10
-9.9987813948
20
21.2193066534
30
0.0000000000
10
-9.9992234558
20
21.2228962852
30
0.0000000000
10
-9.9996221761
20
21.2240936188
30
0.0000000000
11
-9.9914489878
21
20.7993383931
31
0.0000000000
11
-9.9915815805
21
20.8388522107
31
0.0000000000
11
-9.9917692548
21
20.8776363134
31
0.0000000000
11
-9.9920107731
21
20.9154305762
31
0.0000000000
11
-9.9923045675
21
20.9519893996
31
0.0000000000
11
-9.9926487380
21
20.9870763175
31
0.0000000000
11
-9.9930410547
21
21.0204638593
31
0.0000000000
11
-9.9934789758
21
21.0519356232
31
0.0000000000
11
-9.9939596628
21
21.0812875719
31
0.0000000000
11
-9.9944800034
21
21.1083296188
31
0.0000000000
11
-9.9950366234
21
21.1328863650
31
0.0000000000
11
-9.9956259190
21
21.1547987983
31
0.0000000000
11
-9.9962440709
21
21.1739248520
31
0.0000000000
11
-9.9968870727
21
21.1901405416
31
0.0000000000
11
-9.9975507553
21
21.2033407483
31
0.0000000000
11
-9.9982308257
21
21.2134400323
31
0.0000000000
11
-9.9989228641
21
21.2203728349
31
0.0000000000
11
-9.9996221761
21
21.2240936188
31
0.0000000000
0
SPLINE
5
337
100
AcDbEntity
8
0
100
AcDbSpline
62
9
6
CONTINUOUS
70
0
71
3
72
21
73
17
74
15
42
0.0000001000
43
0.0000001000
44
0.0000000001
12
-0.0353367651
22
0.0354368220
32
0.0000000000
13
0.0000003362
23
0.0500445334
33
0.0000000000
40
0.0000000000
40
0.0000000000
40
0.0000000000
40
0.0000000000
40
0.0072433040
40
0.0267969728
40
0.0584485715
40
0.1018103624
40
0.1563446965
40
0.2213741405
40
0.2960897628
40
0.3795613154
40
0.4707475409
40
0.5685123929
40
0.6716385044
40
0.7788422693
40
0.8887875538
40
1.0000000000
40
1.0000000000
40
1.0000000000
40
1.0000000000
10
-3.6611879592
20
0.0107519164
30
0.0000000000
10
-3.6612732775
20
0.0108374763
30
0.0000000000
10
-3.6611836021
20
0.0113578300
30
0.0000000000
10
-3.6613373320
20
0.0122646316
30
0.0000000000
10
-3.6613191492
20
0.0138784614
30
0.0000000000
10
-3.6613885842
20
0.0160232748
30
0.0000000000
10
-3.6614198426
20
0.0187467944
30
0.0000000000
10
-3.6614620294
20
0.0219853523
30
0.0000000000
10
-3.6614963841
20
0.0257094666
30
0.0000000000
10
-3.6615285493
20
0.0298690534
30
0.0000000000
10
-3.6615560860
20
0.0344134591
30
0.0000000000
10
-3.6615792446
20
0.0392856744
30
0.0000000000
10
-3.6615975312
20
0.0444251343
30
0.0000000000
10
-3.6616107616
20
0.0497677910
30
0.0000000000
10
-3.6616187470
20
0.0552453524
30
0.0000000000
10
-3.6616205071
20
0.0589345977
30
0.0000000000
10
-3.6616204947
20
0.0607897894
30
0.0000000000
11
-3.6611879592
21
0.0107519164
31
0.0000000000
11
-3.6612365000
21
0.0111111394
31
0.0000000000
11
-3.6612844373
21
0.0120885187
31
0.0000000000
11
-3.6613311268
21
0.0136718200
31
0.0000000000
11
-3.6613759865
21
0.0158413768
31
0.0000000000
11
-3.6614184581
21
0.0185701916
31
0.0000000000
11
-3.6614580125
21
0.0218243194
31
0.0000000000
11
-3.6614941570
21
0.0255632532
31
0.0000000000
11
-3.6615264411
21
0.0297404233
31
0.0000000000
11
-3.6615544620
21
0.0343037094
31
0.0000000000
11
-3.6615778710
21
0.0391962498
31
0.0000000000
11
-3.6615963768
21
0.0443571148
31
0.0000000000
11
-3.6616097491
21
0.0497220605
31
0.0000000000
11
-3.6616178220
21
0.0552242150
31
0.0000000000
11
-3.6616204947
21
0.0607897894
31
0.0000000000
0
SPLINE
5
338
100
AcDbEntity
8
0
100
AcDbSpline
62
7
6
CONTINUOUS
70
0
71
3
72
23
73
19
74
17
42
0.0000001000
43
0.0000001000
44
0.0000000001
12
0.0000000000
22
0.7846596569
32
0.0000000000
13
0.7846595753
23
0.0003578857
33
0.0000000000
40
0.0000000000
40
0.0000000000
40
0.0000000000
40
0.0000000000
40
0.0626913309
40
0.1251088814
40
0.1875432544
40
0.2499937769
40
0.3124595028
40
0.3749391786
40
0.4374312206
40
0.4999337047
40
0.5624443696
40
0.6249606330
40
0.6874796197
40
0.7499982012
40
0.8125130448
40
0.8750206707
40
0.9375175144
40
1.0000000000
40
1.0000000000
40
1.0000000000
40
1.0000000000
10
-10.0636088710
20
21.4157524886
30
0.0000000000
10
-10.0636088710
20
21.4321496079
30
0.0000000000
10
-10.0619922060
20
21.4648952721
30
0.0000000000
10
-10.0547566613
20
21.5134871013
30
0.0000000000
10
-10.0428052903
20
21.5610788501
30
0.0000000000
10
-10.0262399719
20
21.6072796118
30
0.0000000000
10
-10.0052189008
20
21.6516443582
30
0.0000000000
10
-9.9799437988
20
21.6937435514
30
0.0000000000
10
-9.9506579540
20
21.7331701484
30
0.0000000000
10
-9.9176438257
20
21.7695429074
30
0.0000000000
10
-9.8812202597
20
21.8025103656
30
0.0000000000
10
-9.8417393182
20
21.8317542649
30
0.0000000000
10
-9.7995828391
20
21.8569927090
30
0.0000000000
10
-9.7551584558
20
21.8779829329
30
0.0000000000
10
-9.7088962622
20
21.8945236806
30
0.0000000000
10
-9.6612418862
20
21.9064571611
30
0.0000000000
10
-9.6126619826
20
21.9136705600
30
0.0000000000
10
-9.5799513645
20
21.9152884800
30
0.0000000000
10
-9.5636088710
20
21.9152959338
30
0.0000000000
11
-10.0636088710
21
21.4157524886
31
0.0000000000
11
-10.0611826220
21
21.4648839758
31
0.0000000000
11
-10.0539701063
21
21.5133265240
31
0.0000000000
11
-10.0420381360
21
21.5608409649
31
0.0000000000
11
-10.0254996242
21
21.6069681085
31
0.0000000000
11
-10.0045124679
21
21.6512619490
31
0.0000000000
11
-9.9792780266
21
21.6932940933
31
0.0000000000
11
-9.9500391594
21
21.7326580149
31
0.0000000000
11
-9.9170778408
21
21.7689730910
31
0.0000000000
11
-9.8807123793
21
21.8018883787
31
0.0000000000
11
-9.8412942680
21
21.8310860912
31
0.0000000000
11
-9.7992047004
21
21.8562847392
31
0.0000000000
11
-9.7548507870
21
21.8772419036
31
0.0000000000
11
-9.7086615129
21
21.8937566113
31
0.0000000000
11
-9.6610834778
21
21.9056712917
31
0.0000000000
11
-9.6125764639
21
21.9128732911
31
0.0000000000
11
-9.5636088710
21
21.9152959338
31
0.0000000000
0
SPLINE
5
339
100
AcDbEntity
8
0
100
AcDbSpline
62
9
6
CONTINUOUS
70
0
71
3
72
9
73
5
74
3
42
0.0000001000
43
0.0000001000
44
0.0000000001
12
0.0000027799
22
0.4004171363
32
0.0000000000
13
0.0000055795
23
0.4004171363
33
0.0000000000
40
0.0000000000
40
0.0000000000
40
0.0000000000
40
0.0000000000
40
0.5000008903
40
1.0000000000
40
1.0000000000
40
1.0000000000
40
1.0000000000
10
-3.6616204947
20
0.0607897894
30
0.0000000000
10
-3.6616200314
20
0.1275260976
30
0.0000000000
10
-3.6616188716
20
0.2609984764
30
0.0000000000
10
-3.6616172445
20
0.3944708551
30
0.0000000000
10
-3.6616163146
20
0.4612069257
30
0.0000000000
11
-3.6616204947
21
0.0607897894
31
0.0000000000
11
-3.6616187548
21
0.2609987140
31
0.0000000000
11
-3.6616163146
21
0.4612069257
31
0.0000000000
0
SPLINE
5
33A
100
AcDbEntity
8
0
100
AcDbSpline
62
9
6
CONTINUOUS
70
0
71
3
72
21
73
17
74
15
42
0.0000001000
43
0.0000001000
44
0.0000000001
12
-0.0021818974
22
0.2500968312
32
0.0000000000
13
0.2500968254
23
0.0021825619
33
0.0000000000
40
0.0000000000
40
0.0000000000
40
0.0000000000
40
0.0000000000
40
0.1119051666
40
0.2224018517
40
0.3301012135
40
0.4336496181
40
0.5317456834
40
0.6231566781
40
0.7067340773
40
0.7814280999
40
0.8463010855
40
0.9005396551
40
0.9434658236
40
0.9745481484
40
0.9934196197
40
1.0000000000
40
1.0000000000
40
1.0000000000
40
1.0000000000
10
-29.1581121431
20
-0.7322454989
30
0.0000000000
10
-29.1581935317
20
-0.7229164563
30
0.0000000000
10
-29.1583372280
20
-0.7043756293
30
0.0000000000
10
-29.1584962447
20
-0.6768559268
30
0.0000000000
10
-29.1585962961
20
-0.6500326780
30
0.0000000000
10
-29.1586362762
20
-0.6242429698
30
0.0000000000
10
-29.1586155309
20
-0.5998116125
30
0.0000000000
10
-29.1585354236
20
-0.5770438735
30
0.0000000000
10
-29.1583942307
20
-0.5562322642
30
0.0000000000
10
-29.1582038775
20
-0.5376183632
30
0.0000000000
10
-29.1579378082
20
-0.5214978565
30
0.0000000000
10
-29.1576881592
20
-0.5078923824
30
0.0000000000
10
-29.1572224431
20
-0.4974677238
30
0.0000000000
10
-29.1571449332
20
-0.4891290681
30
0.0000000000
10
-29.1562557668
20
-0.4855070930
30
0.0000000000
10
-29.1564792528
20
-0.4822598054
30
0.0000000000
10
-29.1559306754
20
-0.4822550181
30
0.0000000000
11
-29.1581121431
21
-0.7322454989
31
0.0000000000
11
-29.1583288817
21
-0.7042581455
31
0.0000000000
11
-29.1584880373
21
-0.6766226813
31
0.0000000000
11
-29.1585876089
21
-0.6496865712
31
0.0000000000
11
-29.1586263444
21
-0.6237884868
31
0.0000000000
11
-29.1586037568
21
-0.5992540485
31
0.0000000000
11
-29.1585201302
21
-0.5763917313
31
0.0000000000
11
-29.1583765160
21
-0.5554889865
31
0.0000000000
11
-29.1581747200
21
-0.5368086272
31
0.0000000000
11
-29.1579172792
21
-0.5205855241
31
0.0000000000
11
-29.1576074305
21
-0.5070236526
31
0.0000000000
11
-29.1572490698
21
-0.4962935279
31
0.0000000000
11
-29.1568467028
21
-0.4885300611
31
0.0000000000
11
-29.1564053884
21
-0.4838308634
31
0.0000000000
11
-29.1559306754
21
-0.4822550181
31
0.0000000000
0
SPLINE
5
33B
100
AcDbEntity
8
0
100
AcDbSpline
62
9
6
CONTINUOUS
70
0
71
3
72
10
73
6
74
4
42
0.0000001000
43
0.0000001000
44
0.0000000001
12
0.0072005235
22
-9.0956283078
32
0.0000000000
13
0.1728169920
23
-9.0939892483
33
0.0000000000
40
0.0000000000
40
0.0000000000
40
0.0000000000
40
0.0000000000
40
0.3333344125
40
0.6666647149
40
1.0000000000
40
1.0000000000
40
1.0000000000
40
1.0000000000
10
-29.1581121431
20
-0.7322454989
30
0.0000000000
10
-29.1573120824
20
-1.7428741383
30
0.0000000000
10
-29.1495776166
20
-3.7641196846
30
0.0000000000
10
-29.1195733126
20
-6.7958650242
30
0.0000000000
10
-29.0873027739
20
-8.8168703901
30
0.0000000000
10
-29.0681007734
20
-9.8273195565
30
0.0000000000
11
-29.1581121431
21
-0.7322454989
31
0.0000000000
11
-29.1465104448
21
-3.7641101697
31
0.0000000000
11
-29.1165065825
21
-6.7958111877
31
0.0000000000
11
-29.0681007734
21
-9.8273195565
31
0.0000000000
0
SPLINE
5
33C
100
AcDbEntity
8
0
100
AcDbSpline
62
9
6
CONTINUOUS
70
0
71
3
72
24
73
20
74
18
42
0.0000001000
43
0.0000001000
44
0.0000000001
12
-0.4912721175
22
-0.0023378481
32
0.0000000000
13
-0.4912716472
23
-0.0024349462
33
0.0000000000
40
0.0000000000
40
0.0000000000
40
0.0000000000
40
0.0000000000
40
0.0927832169
40
0.1846372743
40
0.2748054374
40
0.3625319320
40
0.4470851539
40
0.5277607684
40
0.6038847310
40
0.6748220584
40
0.7399806055
40
0.7988174696
40
0.8508414217
40
0.8956184912
40
0.9327747002
40
0.9620006381
40
0.9830524240
40
0.9957539464
40
1.0000000000
40
1.0000000000
40
1.0000000000
40
1.0000000000
10
-29.1581121431
20
-0.7322454989
30
0.0000000000
10
-29.1733060789
20
-0.7323178032
30
0.0000000000
10
-29.2035417936
20
-0.7324617372
30
0.0000000000
10
-29.2485432096
20
-0.7326759625
30
0.0000000000
10
-29.2927165497
20
-0.7328863225
30
0.0000000000
10
-29.3356943241
20
-0.7330910167
30
0.0000000000
10
-29.3771176234
20
-0.7332883592
30
0.0000000000
10
-29.4166409224
20
-0.7334766914
30
0.0000000000
10
-29.4539345182
20
-0.7336544443
30
0.0000000000
10
-29.4886870796
20
-0.7338201304
30
0.0000000000
10
-29.5206087512
20
-0.7339723661
30
0.0000000000
10
-29.5494332180
20
-0.7341098774
30
0.0000000000
10
-29.5749200675
20
-0.7342315189
30
0.0000000000
10
-29.5968565500
20
-0.7343362607
30
0.0000000000
10
-29.6150596894
20
-0.7344232595
30
0.0000000000
10
-29.6293776390
20
-0.7344916979
30
0.0000000000
10
-29.6396909528
20
-0.7345412103
30
0.0000000000
10
-29.6459136280
20
-0.7345709353
30
0.0000000000
10
-29.6486889165
20
-0.7345845638
30
0.0000000000
10
-29.6493842384
20
-0.7345880101
30
0.0000000000
11
-29.1581121431
21
-0.7322454989
31
0.0000000000
11
-29.2036939503
21
-0.7324624617
31
0.0000000000
11
-29.2488192872
21
-0.7326772899
31
0.0000000000
11
-29.2931163909
21
-0.7328882314
31
0.0000000000
11
-29.3362139709
21
-0.7330935009
31
0.0000000000
11
-29.3777526102
21
-0.7332913917
31
0.0000000000
11
-29.4173862889
21
-0.7334802514
31
0.0000000000
11
-29.4547838679
21
-0.7336585009
31
0.0000000000
11
-29.4896333974
21
-0.7338246508
31
0.0000000000
11
-29.5216439733
21
-0.7339773121
31
0.0000000000
11
-29.5505488824
21
-0.7341152104
31
0.0000000000
11
-29.5761067979
21
-0.7342371922
31
0.0000000000
11
-29.5981045219
21
-0.7343422378
31
0.0000000000
11
-29.6163583296
21
-0.7344294681
31
0.0000000000
11
-29.6307162163
21
-0.7344981544
31
0.0000000000
11
-29.6410583700
21
-0.7345477236
31
0.0000000000
11
-29.6472982722
21
-0.7345777581
31
0.0000000000
11
-29.6493842384
21
-0.7345880101
31
0.0000000000
0
SPLINE
5
33D
100
AcDbEntity
8
0
100
AcDbSpline
62
9
6
CONTINUOUS
70
0
71
3
72
14
73
10
74
8
42
0.0000001000
43
0.0000001000
44
0.0000000001
12
0.2222121708
22
-11.6932381477
32
0.0000000000
13
1.7439992621
23
-11.5645865988
33
0.0000000000
40
0.0000000000
40
0.0000000000
40
0.0000000000
40
0.0000000000
40
0.1428569537
40
0.2857140616
40
0.4285711969
40
0.5714283588
40
0.7142855615
40
0.8571428042
40
1.0000000000
40
1.0000000000
40
1.0000000000
40
1.0000000000
10
-29.0681007734
20
-9.8273195565
30
0.0000000000
10
-29.0575192555
20
-10.3841396835
30
0.0000000000
10
-29.0259605859
20
-11.4976110090
30
0.0000000000
10
-28.9474538671
20
-13.1666211887
30
0.0000000000
10
-28.8378052602
20
-14.8338820315
30
0.0000000000
10
-28.6970531791
20
-16.4988038866
30
0.0000000000
10
-28.5252463042
20
-18.1608106759
30
0.0000000000
10
-28.3224456918
20
-19.8193148168
30
0.0000000000
10
-28.1666270118
20
-20.9222827018
30
0.0000000000
10
-28.0835793971
20
-21.4729775060
30
0.0000000000
11
-29.0681007734
21
-9.8273195565
31
0.0000000000
11
-29.0207658260
21
-11.4974108726
31
0.0000000000
11
-28.9422635653
21
-13.1663293907
31
0.0000000000
11
-28.8326213603
21
-14.8334920353
31
0.0000000000
11
-28.6918774016
21
-16.4983178145
31
0.0000000000
11
-28.5200807007
21
-18.1602267244
31
0.0000000000
11
-28.3172911013
21
-19.8186396015
31
0.0000000000
11
-28.0835793971
21
-21.4729775060
31
0.0000000000
0
SPLINE
5
33E
100
AcDbEntity
8
0
100
AcDbSpline
62
9
6
CONTINUOUS
70
0
71
3
72
23
73
19
74
17
42
0.0000001000
43
0.0000001000
44
0.0000000001
12
-0.4858808183
22
-0.0732956787
32
0.0000000000
13
0.0732740359
23
-0.4858840826
33
0.0000000000
40
0.0000000000
40
0.0000000000
40
0.0000000000
40
0.0000000000
40
0.0985472528
40
0.1960007521
40
0.2914424677
40
0.3839733211
40
0.4727216560
40
0.5568514490
40
0.6355701863
40
0.7081363299
40
0.7738663042
40
0.8321409379
40
0.8824113004
40
0.9242038811
40
0.9571250706
40
0.9808649275
40
0.9952003542
40
1.0000000000
40
1.0000000000
40
1.0000000000
40
1.0000000000
10
-28.0835793971
20
-21.4729775060
30
0.0000000000
10
-28.0995401370
20
-21.4753852019
30
0.0000000000
10
-28.1312838697
20
-21.4801778649
30
0.0000000000
10
-28.1784832581
20
-21.4873163304
30
0.0000000000
10
-28.2247064370
20
-21.4943196029
30
0.0000000000
10
-28.2695180021
20
-21.5011216818
30
0.0000000000
10
-28.3124957203
20
-21.5076585399
30
0.0000000000
10
-28.3532350774
20
-21.5138683510
30
0.0000000000
10
-28.3913511353
20
-21.5196933520
30
0.0000000000
10
-28.4264887322
20
-21.5250760646
30
0.0000000000
10
-28.4583042115
20
-21.5299740239
30
0.0000000000
10
-28.4865378902
20
-21.5343146965
30
0.0000000000
10
-28.5108019590
20
-21.5381370194
30
0.0000000000
10
-28.5312219435
20
-21.5411721023
30
0.0000000000
10
-28.5466432308
20
-21.5440225330
30
0.0000000000
10
-28.5592855676
20
-21.5451065678
30
0.0000000000
10
-28.5641599398
20
-21.5476066918
30
0.0000000000
10
-28.5693800227
20
-21.5467596869
30
0.0000000000
10
-28.5692627929
20
-21.5475370440
30
0.0000000000
11
-28.0835793971
21
-21.4729775060
31
0.0000000000
11
-28.1314607020
21
-21.4802066559
31
0.0000000000
11
-28.1788087497
21
-21.4873677055
31
0.0000000000
11
-28.2251775093
21
-21.4943931956
31
0.0000000000
11
-28.2701301753
21
-21.5012169445
31
0.0000000000
11
-28.3132432823
21
-21.5077746706
31
0.0000000000
11
-28.3541106936
21
-21.5140045985
31
0.0000000000
11
-28.3923474279
21
-21.5198480407
31
0.0000000000
11
-28.4275932853
21
-21.5252499505
31
0.0000000000
11
-28.4595162410
21
-21.5301594406
31
0.0000000000
11
-28.4878155725
21
-21.5345302621
31
0.0000000000
11
-28.5122246930
21
-21.5383212410
31
0.0000000000
11
-28.5325136622
21
-21.5414966653
31
0.0000000000
11
-28.5484913529
21
-21.5440266215
31
0.0000000000
11
-28.5600072512
21
-21.5458872769
31
0.0000000000
11
-28.5669528743
21
-21.5470611037
31
0.0000000000
11
-28.5692627929
21
-21.5475370440
31
0.0000000000
0
SPLINE
5
33F
100
AcDbEntity
8
0
100
AcDbSpline
62
9
6
CONTINUOUS
70
0
71
3
72
24
73
20
74
18
42
0.0000001000
43
0.0000001000
44
0.0000000001
12
0.1020315407
22
-0.6765441356
32
0.0000000000
13
0.6832567443
23
-0.0358137421
33
0.0000000000
40
0.0000000000
40
0.0000000000
40
0.0000000000
40
0.0000000000
40
0.0588109529
40
0.1176344825
40
0.1764588689
40
0.2352830481
40
0.2941076902
40
0.3529326429
40
0.4117578364
40
0.4705831033
40
0.5294087083
40
0.5882343131
40
0.6470602209
40
0.7058863008
40
0.7647124471
40
0.8235384502
40
0.8823649382
40
0.9411908136
40
1.0000000000
40
1.0000000000
40
1.0000000000
40
1.0000000000
10
-28.0835793971
20
-21.4729775060
30
0.0000000000
10
-28.0815792063
20
-21.4862402411
30
0.0000000000
10
-28.0765082892
20
-21.5126198492
30
0.0000000000
10
-28.0657457326
20
-21.5514410654
30
0.0000000000
10
-28.0518942245
20
-21.5892764059
30
0.0000000000
10
-28.0350445157
20
-21.6258746109
30
0.0000000000
10
-28.0153057334
20
-21.6609993452
30
0.0000000000
10
-27.9928056924
20
-21.6944228330
30
0.0000000000
10
-27.9676901918
20
-21.7259284755
30
0.0000000000
10
-27.9401219408
20
-21.7553120963
30
0.0000000000
10
-27.9102795847
20
-21.7823832453
30
0.0000000000
10
-27.8783564353
20
-21.8069665236
30
0.0000000000
10
-27.8445593511
20
-21.8289025932
30
0.0000000000
10
-27.8091073168
20
-21.8480492992
30
0.0000000000
10
-27.7722300644
20
-21.8642825017
30
0.0000000000
10
-27.7341667367
20
-21.8774970599
30
0.0000000000
10
-27.6951631822
20
-21.8876072308
30
0.0000000000
10
-27.6554793116
20
-21.8945469413
30
0.0000000000
10
-27.6287316771
20
-21.8970306727
30
0.0000000000
10
-27.6153377527
20
-21.8977327317
30
0.0000000000
11
-28.0835793971
21
-21.4729775060
31
0.0000000000
11
-28.0759829863
21
-21.5124920943
31
0.0000000000
11
-28.0652311022
21
-21.5512760819
31
0.0000000000
11
-28.0513945220
21
-21.5890702210
31
0.0000000000
11
-28.0345630619
21
-21.6256289196
31
0.0000000000
11
-28.0148455807
21
-21.6607157108
31
0.0000000000
11
-27.9923698287
21
-21.6941031284
31
0.0000000000
11
-27.9672814274
21
-21.7255747739
31
0.0000000000
11
-27.9397429893
21
-21.7549266192
31
0.0000000000
11
-27.9099328044
21
-21.7819685846
31
0.0000000000
11
-27.8780441842
21
-21.8065252720
31
0.0000000000
11
-27.8442835773
21
-21.8284376684
31
0.0000000000
11
-27.8088697971
21
-21.8475637066
31
0.0000000000
11
-27.7720323694
21
-21.8637794012
31
0.0000000000
11
-27.7340101281
21
-21.8769796323
31
0.0000000000
11
-27.6950490292
21
-21.8870789600
31
0.0000000000
11
-27.6554022718
21
-21.8940118188
31
0.0000000000
11
-27.6153377527
21
-21.8977327317
31
0.0000000000
0
SPLINE
5
340
100
AcDbEntity
8
0
100
AcDbSpline
62
9
6
CONTINUOUS
70
0
71
3
72
23
73
19
74
17
42
0.0000001000
43
0.0000001000
44
0.0000000001
12
-0.0261516865
22
-0.4991559418
32
0.0000000000
13
0.4991555254
23
-0.0261596326
33
0.0000000000
40
0.0000000000
40
0.0000000000
40
0.0000000000
40
0.0000000000
40
0.0979871817
40
0.1950232916
40
0.2901752017
40
0.3825279267
40
0.4711934375
40
0.5553192191
40
0.6340964926
40
0.7067680292
40
0.7726354882
40
0.8310662277
40
0.8814995662
40
0.9234525413
40
0.9565254334
40
0.9804082146
40
0.9948946581
40
1.0000000000
40
1.0000000000
40
1.0000000000
40
1.0000000000
10
-27.6153377527
20
-21.8977327317
30
0.0000000000
10
-27.6161919294
20
-21.9140363597
30
0.0000000000
10
-27.6178643598
20
-21.9464868258
30
0.0000000000
10
-27.6202697278
20
-21.9947740868
30
0.0000000000
10
-27.6225445609
20
-22.0421278334
30
0.0000000000
10
-27.6246670508
20
-22.0880925744
30
0.0000000000
10
-27.6266168464
20
-22.1322260873
30
0.0000000000
10
-27.6283754620
20
-22.1741040951
30
0.0000000000
10
-27.6299257915
20
-22.2133228887
30
0.0000000000
10
-27.6312546227
20
-22.2495081331
30
0.0000000000
10
-27.6323452268
20
-22.2823022716
30
0.0000000000
10
-27.6332020390
20
-22.3114199041
30
0.0000000000
10
-27.6337752642
20
-22.3364894947
30
0.0000000000
10
-27.6341870229
20
-22.3575362302
30
0.0000000000
10
-27.6340989606
20
-22.3736342681
30
0.0000000000
10
-27.6343626609
20
-22.3864138712
30
0.0000000000
10
-27.6332852486
20
-22.3920873626
30
0.0000000000
10
-27.6336289809
20
-22.3970029811
30
0.0000000000
10
-27.6327795277
20
-22.3970474991
30
0.0000000000
11
-27.6153377527
21
-21.8977327317
31
0.0000000000
11
-27.6178584265
21
-21.9466457906
31
0.0000000000
11
-27.6202709125
21
-21.9950883373
31
0.0000000000
11
-27.6225520043
21
-22.0425943855
31
0.0000000000
11
-27.6246797590
21
-22.0887069574
31
0.0000000000
11
-27.6266337092
21
-22.1329824796
31
0.0000000000
11
-27.6283950590
21
-22.1749950501
31
0.0000000000
11
-27.6299468654
21
-22.2143405349
31
0.0000000000
11
-27.6312742011
21
-22.2506404556
31
0.0000000000
11
-27.6323642978
21
-22.2835456301
31
0.0000000000
11
-27.6332066696
21
-22.3127395320
31
0.0000000000
11
-27.6337932134
21
-22.3379413345
31
0.0000000000
11
-27.6341182871
21
-22.3589086124
31
0.0000000000
11
-27.6341787635
21
-22.3754396740
31
0.0000000000
11
-27.6339740610
21
-22.3873755010
31
0.0000000000
11
-27.6335061487
21
-22.3946012785
31
0.0000000000
11
-27.6327795277
21
-22.3970474991
31
0.0000000000
0
SPLINE
5
341
100
AcDbEntity
8
0
100
AcDbSpline
62
9
6
CONTINUOUS
70
0
71
3
72
24
73
20
74
18
42
0.0000001000
43
0.0000001000
44
0.0000000001
12
-0.6832567329
22
-0.0358139503
32
0.0000000000
13
-0.1020317658
23
-0.6765441012
33
0.0000000000
40
0.0000000000
40
0.0000000000
40
0.0000000000
40
0.0000000000
40
0.0588077691
40
0.1176337694
40
0.1764603917
40
0.2352865374
40
0.2941128385
40
0.3529390831
40
0.4117651656
40
0.4705909563
40
0.5294167598
40
0.5882422364
40
0.6470676399
40
0.7058927905
40
0.7647176189
40
0.8235419712
40
0.8823665225
40
0.9411902032
40
1.0000000000
40
1.0000000000
40
1.0000000000
40
1.0000000000
10
-27.6153377527
20
21.2240936188
30
0.0000000000
10
-27.6287313541
20
21.2233915726
30
0.0000000000
10
-27.6554786959
20
21.2209079025
30
0.0000000000
10
-27.6951623183
20
21.2139683031
30
0.0000000000
10
-27.7341659796
20
21.2038581791
30
0.0000000000
10
-27.7722294198
20
21.1906436435
30
0.0000000000
10
-27.8091067901
20
21.1744104467
30
0.0000000000
10
-27.8445589442
20
21.1552637248
30
0.0000000000
10
-27.8783561477
20
21.1333276181
30
0.0000000000
10
-27.9102794129
20
21.1087442806
30
0.0000000000
10
-27.9401218784
20
21.0816730500
30
0.0000000000
10
-27.9676902275
20
21.0522893273
30
0.0000000000
10
-27.9928058084
20
21.0207835681
30
0.0000000000
10
-28.0153059079
20
20.9873599558
30
0.0000000000
10
-28.0350447245
20
20.9522350946
30
0.0000000000
10
-28.0518944469
20
20.9156367636
30
0.0000000000
10
-28.0657459422
20
20.8778012997
30
0.0000000000
10
-28.0765083969
20
20.8389802534
30
0.0000000000
10
-28.0815792413
20
20.8126008668
30
0.0000000000
10
-28.0835793971
20
20.7993383931
30
0.0000000000
11
-27.6153377527
21
21.2240936188
31
0.0000000000
11
-27.6554013099
21
21.2203728349
31
0.0000000000
11
-27.6950481639
21
21.2134400323
31
0.0000000000
11
-27.7340093690
21
21.2033407483
31
0.0000000000
11
-27.7720317220
21
21.1901405416
31
0.0000000000
11
-27.8088692676
21
21.1739248520
31
0.0000000000
11
-27.8442831674
21
21.1547987983
31
0.0000000000
11
-27.8780438928
21
21.1328863650
31
0.0000000000
11
-27.9099326283
21
21.1083296188
31
0.0000000000
11
-27.9397429226
21
21.0812875719
31
0.0000000000
11
-27.9672814601
21
21.0519356232
31
0.0000000000
11
-27.9923699432
21
21.0204638593
31
0.0000000000
11
-28.0148457533
21
20.9870763175
31
0.0000000000
11
-28.0345632692
21
20.9519893996
31
0.0000000000
11
-28.0513947411
21
20.9154305762
31
0.0000000000
11
-28.0652313114
21
20.8776363134
31
0.0000000000
11
-28.0759831676
21
20.8388522107
31
0.0000000000
11
-28.0835793971
21
20.7993383931
31
0.0000000000
0
SPLINE
5
342
100
AcDbEntity
8
0
100
AcDbSpline
62
7
6
CONTINUOUS
70
0
71
3
72
23
73
19
74
17
42
0.0000001000
43
0.0000001000
44
0.0000000001
12
0.0000000000
22
0.5000752029
32
0.0000000000
13
0.4993898672
23
0.0261719139
33
0.0000000000
40
0.0000000000
40
0.0000000000
40
0.0000000000
40
0.0000000000
40
0.0983795800
40
0.1953765405
40
0.2905108540
40
0.3828631983
40
0.4715406982
40
0.5556857949
40
0.6344847673
40
0.7071758213
40
0.7730566605
40
0.8314914671
40
0.8819172303
40
0.9238493836
40
0.9568867751
40
0.9807162252
40
0.9951183501
40
1.0000000000
40
1.0000000000
40
1.0000000000
40
1.0000000000
10
-23.9495424586
20
21.4157524886
30
0.0000000000
10
-23.9495424586
20
21.4321515514
30
0.0000000000
10
-23.9524666699
20
21.4646434460
30
0.0000000000
10
-23.9544502869
20
21.5130186861
30
0.0000000000
10
-23.9569562262
20
21.5603767703
30
0.0000000000
10
-23.9591901556
20
21.6063560851
30
0.0000000000
10
-23.9613307154
20
21.6505068375
30
0.0000000000
10
-23.9633064261
20
21.6924036601
30
0.0000000000
10
-23.9651103372
20
21.7316400580
30
0.0000000000
10
-23.9667244968
20
21.7678400218
30
0.0000000000
10
-23.9681262481
20
21.8006430841
30
0.0000000000
10
-23.9693278206
20
21.8297662166
30
0.0000000000
10
-23.9702406036
20
21.8548261101
30
0.0000000000
10
-23.9710832449
20
21.8758797686
30
0.0000000000
10
-23.9712357705
20
21.8919149289
30
0.0000000000
10
-23.9722148490
20
21.9047712602
30
0.0000000000
10
-23.9709171279
20
21.9102246722
30
0.0000000000
10
-23.9721596183
20
21.9152533464
30
0.0000000000
10
-23.9713470028
20
21.9152959338
30
0.0000000000
11
-23.9495424586
21
21.4157524886
31
0.0000000000
11
-23.9520841736
21
21.4648839758
31
0.0000000000
11
-23.9545599973
21
21.5133265240
31
0.0000000000
11
-23.9569459948
21
21.5608409649
31
0.0000000000
11
-23.9592190866
21
21.6069681085
31
0.0000000000
11
-23.9613572762
21
21.6512619490
31
0.0000000000
11
-23.9633398699
21
21.6932940933
31
0.0000000000
11
-23.9651476818
21
21.7326580149
31
0.0000000000
11
-23.9667632252
21
21.7689730910
31
0.0000000000
11
-23.9681708857
21
21.8018883787
31
0.0000000000
11
-23.9693570762
21
21.8310860912
31
0.0000000000
11
-23.9703103712
21
21.8562847392
31
0.0000000000
11
-23.9710216189
21
21.8772419036
31
0.0000000000
11
-23.9714840302
21
21.8937566113
31
0.0000000000
11
-23.9716932449
21
21.9056712917
31
0.0000000000
11
-23.9716473713
21
21.9128732911
31
0.0000000000
11
-23.9713470028
21
21.9152959338
31
0.0000000000
0
SPLINE
5
343
100
AcDbEntity
8
0
100
AcDbSpline
62
9
6
CONTINUOUS
70
0
71
3
72
10
73
6
74
4
42
0.0000001000
43
0.0000001000
44
0.0000000001
12
-0.1728169920
22
-9.0939892483
32
0.0000000000
13
-0.0072005236
23
-9.0956283078
33
0.0000000000
40
0.0000000000
40
0.0000000000
40
0.0000000000
40
0.0000000000
40
0.3333352855
40
0.6666655882
40
1.0000000000
40
1.0000000000
40
1.0000000000
40
1.0000000000
10
-29.0681007734
20
9.1536804435
30
0.0000000000
10
-29.0873027739
20
8.1432312760
30
0.0000000000
10
-29.1195733126
20
6.1222259080
30
0.0000000000
10
-29.1495776166
20
3.0904805685
30
0.0000000000
10
-29.1573120824
20
1.0692350233
30
0.0000000000
10
-29.1581121431
20
0.0586063859
30
0.0000000000
11
-29.0681007734
21
9.1536804435
31
0.0000000000
11
-29.1165065825
21
6.1221720714
31
0.0000000000
11
-29.1465104449
21
3.0904710506
31
0.0000000000
11
-29.1581121431
21
0.0586063859
31
0.0000000000
0
SPLINE
5
344
100
AcDbEntity
8
0
100
AcDbSpline
62
9
6
CONTINUOUS
70
0
71
3
72
23
73
19
74
17
42
0.0000001000
43
0.0000001000
44
0.0000000001
12
-0.4912721177
22
0.0023378033
32
0.0000000000
13
-0.4912716750
23
0.0024292918
33
0.0000000000
40
0.0000000000
40
0.0000000000
40
0.0000000000
40
0.0000000000
40
0.0985597998
40
0.1960164754
40
0.2914628103
40
0.3839957814
40
0.4727451672
40
0.5568755071
40
0.6355937752
40
0.7081585009
40
0.7738865962
40
0.8321592757
40
0.8824275908
40
0.9242178093
40
0.9571366476
40
0.9808744633
40
0.9952069043
40
1.0000000000
40
1.0000000000
40
1.0000000000
40
1.0000000000
10
-29.1581121431
20
0.0586063859
30
0.0000000000
10
-29.1742520370
20
0.0586831904
30
0.0000000000
10
-29.2063511797
20
0.0588359991
30
0.0000000000
10
-29.2540803633
20
0.0590632106
30
0.0000000000
10
-29.3008226089
20
0.0592858143
30
0.0000000000
10
-29.3461389714
20
0.0595016564
30
0.0000000000
10
-29.3896022561
20
0.0597087319
30
0.0000000000
10
-29.4308032812
20
0.0599050753
30
0.0000000000
10
-29.4693539487
20
0.0600888399
30
0.0000000000
10
-29.5048911128
20
0.0602582900
30
0.0000000000
10
-29.5370801610
20
0.0604118265
30
0.0000000000
10
-29.5656180075
20
0.0605480047
30
0.0000000000
10
-29.5902358502
20
0.0606655267
30
0.0000000000
10
-29.6107018143
20
0.0607633165
30
0.0000000000
10
-29.6268232140
20
0.0608403575
30
0.0000000000
10
-29.6384481994
20
0.0608961390
30
0.0000000000
10
-29.6454673888
20
0.0609296635
30
0.0000000000
10
-29.6485993343
20
0.0609450160
30
0.0000000000
10
-29.6493842384
20
0.0609488972
30
0.0000000000
11
-29.1581121431
21
0.0586063859
31
0.0000000000
11
-29.2065318244
21
0.0588368584
31
0.0000000000
11
-29.2544095713
21
0.0590647934
31
0.0000000000
11
-29.3012996937
21
0.0592880914
31
0.0000000000
11
-29.3467585613
21
0.0595046181
31
0.0000000000
11
-29.3903586589
21
0.0597123440
31
0.0000000000
11
-29.4316895478
21
0.0599093083
31
0.0000000000
11
-29.4703616365
21
0.0600936529
31
0.0000000000
11
-29.5060106614
21
0.0602636382
31
0.0000000000
11
-29.5383010402
21
0.0604176614
31
0.0000000000
11
-29.5669287811
21
0.0605542698
31
0.0000000000
11
-29.5916242008
21
0.0606721739
31
0.0000000000
11
-29.6121545681
21
0.0607702604
31
0.0000000000
11
-29.6283266737
21
0.0608476037
31
0.0000000000
11
-29.6399883988
21
0.0609034755
31
0.0000000000
11
-29.6470295257
21
0.0609373457
31
0.0000000000
11
-29.6493842384
21
0.0609488972
31
0.0000000000
0
SPLINE
5
345
100
AcDbEntity
8
0
100
AcDbSpline
62
9
6
CONTINUOUS
70
0
71
3
72
22
73
18
74
16
42
0.0000001000
43
0.0000001000
44
0.0000000001
12
-0.4858807333
22
0.0732956657
32
0.0000000000
13
0.0732738393
23
0.4858840253
33
0.0000000000
40
0.0000000000
40
0.0000000000
40
0.0000000000
40
0.0000000000
40
0.1050884321
40
0.2088624495
40
0.3102099143
40
0.4080446947
40
0.5013183052
40
0.5890311439
40
0.6702432060
40
0.7440841587
40
0.8097626715
40
0.8665749000
40
0.9139120380
40
0.9512668618
40
0.9782392258
40
0.9945406072
40
1.0000000000
40
1.0000000000
40
1.0000000000
40
1.0000000000
10
-28.0835793971
20
20.7993383931
30
0.0000000000
10
-28.1005995452
20
20.8019059019
30
0.0000000000
10
-28.1344262756
20
20.8070133417
30
0.0000000000
10
-28.1846648604
20
20.8146127764
30
0.0000000000
10
-28.2337266418
20
20.8220483413
30
0.0000000000
10
-28.2810857197
20
20.8292404062
30
0.0000000000
10
-28.3262349260
20
20.8361116230
30
0.0000000000
10
-28.3686891152
20
20.8425891708
30
0.0000000000
10
-28.4079976328
20
20.8486007205
30
0.0000000000
10
-28.4437250935
20
20.8540911155
30
0.0000000000
10
-28.4755334874
20
20.8589717027
30
0.0000000000
10
-28.5029447241
20
20.8632807606
30
0.0000000000
10
-28.5260651482
20
20.8667069911
30
0.0000000000
10
-28.5435566801
20
20.8699343250
30
0.0000000000
10
-28.5579170237
20
20.8711495352
30
0.0000000000
10
-28.5634554611
20
20.8739974508
30
0.0000000000
10
-28.5693961595
20
20.8730137240
30
0.0000000000
10
-28.5692628160
20
20.8738979346
30
0.0000000000
11
-28.0835793971
21
20.7993383931
31
0.0000000000
11
-28.1346388007
21
20.8070478163
31
0.0000000000
11
-28.1850574821
21
20.8146746177
31
0.0000000000
11
-28.2342951045
21
20.8221370609
31
0.0000000000
11
-28.2818239885
21
20.8293551707
31
0.0000000000
11
-28.3271347670
21
20.8362515909
31
0.0000000000
11
-28.3697418447
21
20.8427524124
31
0.0000000000
11
-28.4091886016
21
20.8487879661
31
0.0000000000
11
-28.4450522869
21
20.8542935687
31
0.0000000000
11
-28.4769485496
21
20.8592102170
31
0.0000000000
11
-28.5045355577
21
20.8634852191
31
0.0000000000
11
-28.5275176611
21
20.8670727598
31
0.0000000000
11
-28.5456485607
21
20.8699343915
31
0.0000000000
11
-28.5587339479
21
20.8720394461
31
0.0000000000
11
-28.5666335864
21
20.8733653638
31
0.0000000000
11
-28.5692628160
21
20.8738979346
31
0.0000000000
0
SPLINE
5
346
100
AcDbEntity
8
0
100
AcDbSpline
62
9
6
CONTINUOUS
70
0
71
3
72
20
73
16
74
14
42
0.0000001000
43
0.0000001000
44
0.0000000001
12
-0.2500942365
22
0.0021825393
32
0.0000000000
13
0.0021818749
23
0.2500942423
33
0.0000000000
40
0.0000000000
40
0.0000000000
40
0.0000000000
40
0.0000000000
40
0.0075839507
40
0.0294362153
40
0.0653962967
40
0.1149638614
40
0.1774246168
40
0.2518719662
40
0.3372228595
40
0.4322344741
40
0.5355227083
40
0.6455825416
40
0.7608100756
40
0.8795259770
40
1.0000000000
40
1.0000000000
40
1.0000000000
40
1.0000000000
10
-29.1559306754
20
-0.1913840948
30
0.0000000000
10
-29.1565629095
20
-0.1913785774
30
0.0000000000
10
-29.1562207532
20
-0.1875986203
30
0.0000000000
10
-29.1572676649
20
-0.1834283687
30
0.0000000000
10
-29.1572895847
20
-0.1737742546
30
0.0000000000
10
-29.1577998038
20
-0.1617489071
30
0.0000000000
10
-29.1580411928
20
-0.1460890400
30
0.0000000000
10
-29.1583055998
20
-0.1276019764
30
0.0000000000
10
-29.1584787881
20
-0.1063463059
30
0.0000000000
10
-29.1585942357
20
-0.0827033880
30
0.0000000000
10
-29.1586378367
20
-0.0569948001
30
0.0000000000
10
-29.1586123356
20
-0.0296024989
30
0.0000000000
10
-29.1585168012
20
-0.0009236861
30
0.0000000000
10
-29.1583528329
20
0.0286228959
30
0.0000000000
10
-29.1581997629
20
0.0485630994
30
0.0000000000
10
-29.1581121431
20
0.0586063859
30
0.0000000000
11
-29.1559306754
21
-0.1913840948
31
0.0000000000
11
-29.1564405949
21
-0.1895571477
31
0.0000000000
11
-29.1569112730
21
-0.1841121194
31
0.0000000000
11
-29.1573358477
21
-0.1751283950
31
0.0000000000
11
-29.1577081288
21
-0.1627369518
31
0.0000000000
11
-29.1580226887
21
-0.1471184493
31
0.0000000000
11
-29.1582749413
21
-0.1285005962
31
0.0000000000
11
-29.1584612089
21
-0.1071548296
31
0.0000000000
11
-29.1585787757
21
-0.0833923584
31
0.0000000000
11
-29.1586259278
21
-0.0575596257
31
0.0000000000
11
-29.1586019776
21
-0.0300332580
31
0.0000000000
11
-29.1585072744
21
-0.0012145741
31
0.0000000000
11
-29.1583431989
21
0.0284762658
31
0.0000000000
11
-29.1581121431
21
0.0586063859
31
0.0000000000
0
SPLINE
5
347
100
AcDbEntity
8
0
100
AcDbSpline
62
7
6
CONTINUOUS
70
0
71
3
72
23
73
19
74
17
42
0.0000001000
43
0.0000001000
44
0.0000000001
12
-0.2499900964
22
0.0021816305
32
0.0000000000
13
-0.0000000000
23
0.2499996156
33
0.0000000000
40
0.0000000000
40
0.0000000000
40
0.0000000000
40
0.0000000000
40
0.0048908026
40
0.0193149721
40
0.0431731229
40
0.0762408837
40
0.1182015238
40
0.1686518165
40
0.2271065661
40
0.2930034800
40
0.3657086509
40
0.4445226745
40
0.5286873743
40
0.6173930791
40
0.7097863889
40
0.8049783578
40
0.9020530158
40
1.0000000000
40
1.0000000000
40
1.0000000000
40
1.0000000000
10
-23.9495423755
20
-0.2368195572
30
0.0000000000
10
-23.9499499262
20
-0.2368160005
30
0.0000000000
10
-23.9494383929
20
-0.2342732282
30
0.0000000000
10
-23.9502064716
20
-0.2315740362
30
0.0000000000
10
-23.9499978477
20
-0.2251243771
30
0.0000000000
10
-23.9502716477
20
-0.2171051529
30
0.0000000000
10
-23.9503101094
20
-0.2065645976
30
0.0000000000
10
-23.9504008724
20
-0.1940224940
30
0.0000000000
10
-23.9504359881
20
-0.1794457525
30
0.0000000000
10
-23.9504513632
20
-0.1630275755
30
0.0000000000
10
-23.9504346498
20
-0.1449085979
30
0.0000000000
10
-23.9503896130
20
-0.1252686518
30
0.0000000000
10
-23.9503157032
20
-0.1042950176
30
0.0000000000
10
-23.9502128377
20
-0.0821900033
30
0.0000000000
10
-23.9500862019
20
-0.0591661306
30
0.0000000000
10
-23.9499200014
20
-0.0354450607
30
0.0000000000
10
-23.9497815631
20
-0.0112611146
30
0.0000000000
10
-23.9495424586
20
0.0049896508
30
0.0000000000
10
-23.9495424586
20
0.0131518869
30
0.0000000000
11
-23.9495423755
21
-0.2368195572
31
0.0000000000
11
-23.9497457026
21
-0.2356138829
31
0.0000000000
11
-23.9499260550
21
-0.2320123590
31
0.0000000000
11
-23.9500816991
21
-0.2260498616
31
0.0000000000
11
-23.9502111387
21
-0.2177839475
31
0.0000000000
11
-23.9503131296
21
-0.2072942994
31
0.0000000000
11
-23.9503866914
21
-0.1946819602
31
0.0000000000
11
-23.9504311170
21
-0.1800683628
31
0.0000000000
11
-23.9504459791
21
-0.1635941663
31
0.0000000000
11
-23.9504311347
21
-0.1454179076
31
0.0000000000
11
-23.9503867261
21
-0.1257144820
31
0.0000000000
11
-23.9503131797
21
-0.1046734680
31
0.0000000000
11
-23.9502112020
21
-0.0824973104
31
0.0000000000
11
-23.9500817728
21
-0.0593993810
31
0.0000000000
11
-23.9499261357
21
-0.0356019343
31
0.0000000000
11
-23.9497457864
21
-0.0113339773
31
0.0000000000
11
-23.9495424586
21
0.0131518869
31
0.0000000000
0
SPLINE
5
348
100
AcDbEntity
8
0
100
AcDbSpline
62
9
6
CONTINUOUS
70
0
71
3
72
14
73
10
74
8
42
0.0000001000
43
0.0000001000
44
0.0000000001
12
-1.7439992578
22
-11.5645865995
32
0.0000000000
13
-0.2222121768
23
-11.6932381476
33
0.0000000000
40
0.0000000000
40
0.0000000000
40
0.0000000000
40
0.0000000000
40
0.1428571885
40
0.2857144350
40
0.4285716416
40
0.5714288073
40
0.7142859464
40
0.8571430581
40
1.0000000000
40
1.0000000000
40
1.0000000000
40
1.0000000000
10
-28.0835793971
20
20.7993383931
30
0.0000000000
10
-28.1666270073
20
20.2486436170
30
0.0000000000
10
-28.3224456863
20
19.1456757456
30
0.0000000000
10
-28.5252462999
20
17.4871716034
30
0.0000000000
10
-28.6970531798
20
15.8251647695
30
0.0000000000
10
-28.8378052642
20
14.1602428697
30
0.0000000000
10
-28.9474538726
20
12.4929819822
30
0.0000000000
10
-29.0259605887
20
10.8239718188
30
0.0000000000
10
-29.0575192561
20
9.7105005245
30
0.0000000000
10
-29.0681007734
20
9.1536804435
30
0.0000000000
11
-28.0835793971
21
20.7993383931
31
0.0000000000
11
-28.3172910902
21
19.1450005733
31
0.0000000000
11
-28.5200806961
21
17.4865876520
31
0.0000000000
11
-28.6918774020
21
15.8246786974
31
0.0000000000
11
-28.8326213640
21
14.1598528734
31
0.0000000000
11
-28.9422635706
21
12.4926901842
31
0.0000000000
11
-29.0207658312
21
10.8237716216
31
0.0000000000
11
-29.0681007734
21
9.1536804435
31
0.0000000000
0
SPLINE
5
349
100
AcDbEntity
8
0
100
AcDbSpline
62
9
6
CONTINUOUS
70
0
71
3
72
23
73
19
74
17
42
0.0000001000
43
0.0000001000
44
0.0000000001
12
-0.0261516868
22
0.4991559418
32
0.0000000000
13
0.4991555254
23
0.0261596326
33
0.0000000000
40
0.0000000000
40
0.0000000000
40
0.0000000000
40
0.0000000000
40
0.0979871764
40
0.1950232820
40
0.2901751887
40
0.3825279115
40
0.4711934212
40
0.5553192026
40
0.6340964768
40
0.7067680149
40
0.7726354759
40
0.8310662177
40
0.8814995586
40
0.9234525361
40
0.9565254303
40
0.9804082132
40
0.9948946577
40
1.0000000000
40
1.0000000000
40
1.0000000000
40
1.0000000000
10
-27.6153377527
20
21.2240936188
30
0.0000000000
10
-27.6161919294
20
21.2403972459
30
0.0000000000
10
-27.6178643597
20
21.2728477104
30
0.0000000000
10
-27.6202697277
20
21.3211349692
30
0.0000000000
10
-27.6225445606
20
21.3684887143
30
0.0000000000
10
-27.6246670505
20
21.4144534541
30
0.0000000000
10
-27.6266168461
20
21.4585869664
30
0.0000000000
10
-27.6283754617
20
21.5004649741
30
0.0000000000
10
-27.6299257913
20
21.5396837681
30
0.0000000000
10
-27.6312546225
20
21.5758690131
30
0.0000000000
10
-27.6323452268
20
21.6086631526
30
0.0000000000
10
-27.6332020390
20
21.6377807862
30
0.0000000000
10
-27.6337752642
20
21.6628503780
30
0.0000000000
10
-27.6341870229
20
21.6838971146
30
0.0000000000
10
-27.6340989607
20
21.6999951535
30
0.0000000000
10
-27.6343626610
20
21.7127747575
30
0.0000000000
10
-27.6332852487
20
21.7184482493
30
0.0000000000
10
-27.6336289809
20
21.7233638682
30
0.0000000000
10
-27.6327795277
20
21.7234083862
30
0.0000000000
11
-27.6153377527
21
21.2240936188
31
0.0000000000
11
-27.6178584264
21
21.2730066751
31
0.0000000000
11
-27.6202709124
21
21.3214492196
31
0.0000000000
11
-27.6225520040
21
21.3689552661
31
0.0000000000
11
-27.6246797587
21
21.4150678369
31
0.0000000000
11
-27.6266337089
21
21.4593433586
31
0.0000000000
11
-27.6283950588
21
21.5013559290
31
0.0000000000
11
-27.6299468652
21
21.5407014141
31
0.0000000000
11
-27.6312742009
21
21.5770013355
31
0.0000000000
11
-27.6323642977
21
21.6099065111
31
0.0000000000
11
-27.6332066696
21
21.6391004141
31
0.0000000000
11
-27.6337932135
21
21.6643022178
31
0.0000000000
11
-27.6341182871
21
21.6852694969
31
0.0000000000
11
-27.6341787636
21
21.7018005595
31
0.0000000000
11
-27.6339740611
21
21.7137363874
31
0.0000000000
11
-27.6335061488
21
21.7209621654
31
0.0000000000
11
-27.6327795277
21
21.7234083862
31
0.0000000000
0
ENDSEC
0
SECTION
2
OBJECTS
0
DICTIONARY
5
34A
100
AcDbDictionary
3
ACAD_GROUP
350
34B
3
ACAD_MLINESTYLE
350
34C
0
DICTIONARY
5
34B
102
{ACAD_REACTORS
330
34A
102
}
100
AcDbDictionary
0
DICTIONARY
5
34C
102
{ACAD_REACTORS
330
34A
102
}
100
AcDbDictionary
3
STANDARD
350
34D
0
MLINESTYLE
5
34D
102
{ACAD_REACTORS
330
34C
102
}
100
AcDbMlineStyle
2
STANDARD
70
0
3

62
256
51
90.0
52
90.0
71
2
49
0.5
62
256
6
BYLAYER
49
-0.5
62
256
6
BYLAYER
0
ENDSEC
0
EOF
