0
SECTION
2
HEADER
9
$ACADVER
1
AC1014
9
$HANDSEED
5
       33E
9
$EXTMAX
10
297.0000000000
20
210.0000000000
9
$EXTMIN
10
0.0000000000
20
0.0000000000
9
$LIMMIN
10
0.0000000000
20
0.0000000000
9
$LIMMAX
10
297.0000000000
20
210.0000000000
9
$VIEWCTR
10
148.5000000000
20
105.0000000000
9
$VIEWSIZE
40
210.0000000000
9
$CLAYER
8
0
9
$LTSCALE
40
16.3350000000
9
$CELTYPE
6
BYLAYER
9
$DIMSCALE
40
1
9
$DIMASZ
40
3.0000000000
9
$DIMEXO
40
1.8562500000
9
$DIMDLI
40
11.2860000000
9
$DIMEXE
40
5.3460000000
9
$DIMCEN
40
2.6730000000
9
$DIMLFAC
40
1.0000000000
9
$DIMTXT
40
3.0000000000
9
$DIMTOL
70
1
9
$DIMLIM
70
0
9
$DIMTFAC
40
1.0000000000
9
$DIMTP
40
0.0100000000
9
$DIMTM
40
0.0100000000
9
$MEASUREMENT
70
1
0
ENDSEC
0
SECTION
2
CLASSES
0
ENDSEC
0
SECTION
2
TABLES
0
TABLE
2
VPORT
5
8
100
AcDbSymbolTable
70
2
0
VPORT
5
1F4
100
AcDbSymbolTableRecord
100
AcDbViewportTableRecord
2
*ACTIVE
70
0
10
0.0
20
0.0
11
1.0
21
1.0
12
148.5000000000
22
105.0000000000
13
0.0
23
0.0
14
1.0
24
1.0
15
0.0
25
0.0
16
0.0
26
0.0
36
1.0
17
0.0
27
0.0
37
0.0
40
210.0000000000
41
1.4142857143
42
50.0
43
0.0
44
0.0
50
0.0
51
0.0
71
0
72
100
73
1
74
1
75
0
76
0
77
0
78
0
0
ENDTAB
0
TABLE
2
LTYPE
5
5
100
AcDbSymbolTable
70
6
0
LTYPE
5
14
100
AcDbSymbolTableRecord
100
AcDbLinetypeTableRecord
2
BYBLOCK
70
0
3

72
65
73
0
40
0.0
0
LTYPE
5
15
100
AcDbSymbolTableRecord
100
AcDbLinetypeTableRecord
2
BYLAYER
70
0
3

72
65
73
0
40
0.0
0
LTYPE
5
16
100
AcDbSymbolTableRecord
100
AcDbLinetypeTableRecord
2
CONTINUOUS
70
64
3
Solid line
72
65
73
0
40
0
0
LTYPE
5
1F5
100
AcDbSymbolTableRecord
100
AcDbLinetypeTableRecord
2
CENTER
70
64
3
____ _ ____ _ ____ _ ____ _ ____ _ ____ _ ____
72
65
73
4
40
0.6
49
0.375
74
0
49
-0.075
74
0
49
0.075
74
0
49
-0.075
74
0
0
LTYPE
5
1F6
100
AcDbSymbolTableRecord
100
AcDbLinetypeTableRecord
2
HIDDEN
70
64
3
- - - - - - - - - - - - - - - - - - - -
72
65
73
2
40
0.2
49
0.1
74
0
49
-0.1
74
0
0
LTYPE
5
1F7
100
AcDbSymbolTableRecord
100
AcDbLinetypeTableRecord
2
PHANTOM
70
64
3
_____ _ _ _____ _ _ _____ _ _ _____
72
65
73
6
40
0.8
49
0.45
74
0
49
-0.05
74
0
49
0.1
74
0
49
-0.05
74
0
49
0.1
74
0
49
-0.05
74
0
0
LTYPE
5
1F8
100
AcDbSymbolTableRecord
100
AcDbLinetypeTableRecord
2
DOT
70
64
3
. . . . . . . . . . . . . . . . . . . .
72
65
73
2
40
0.2
49
0.1
74
0
49
-0.1
74
0
0
LTYPE
5
1F9
100
AcDbSymbolTableRecord
100
AcDbLinetypeTableRecord
2
DASHED
70
64
3
- - - - - - - - - - - - - - - - - - - -
72
65
73
2
40
0.2
49
0.1
74
0
49
-0.1
74
0
0
ENDTAB
0
TABLE
2
LAYER
5
2
100
AcDbSymbolTable
70
36
0
LAYER
5
10
100
AcDbSymbolTableRecord
100
AcDbLayerTableRecord
2
0
70
0
62
7
6
CONTINUOUS
0
LAYER
5
1FA
100
AcDbSymbolTableRecord
100
AcDbLayerTableRecord
2
DEFAULT_1
70
0
62
7
6
CENTER
0
LAYER
5
1FB
100
AcDbSymbolTableRecord
100
AcDbLayerTableRecord
2
DEFAULT_2
70
0
62
8
6
HIDDEN
0
LAYER
5
1FC
100
AcDbSymbolTableRecord
100
AcDbLayerTableRecord
2
DEFAULT_3
70
0
62
7
6
PHANTOM
0
LAYER
5
1FD
100
AcDbSymbolTableRecord
100
AcDbLayerTableRecord
2
ASSI
70
0
62
7
6
CONTINUOUS
0
LAYER
5
1FE
100
AcDbSymbolTableRecord
100
AcDbLayerTableRecord
2
COORDINATE
70
0
62
7
6
CONTINUOUS
0
LAYER
5
1FF
100
AcDbSymbolTableRecord
100
AcDbLayerTableRecord
2
COORD_ORIGINE
70
0
62
7
6
CONTINUOUS
0
LAYER
5
200
100
AcDbSymbolTableRecord
100
AcDbLayerTableRecord
2
COPY
70
0
62
7
6
CONTINUOUS
0
LAYER
5
201
100
AcDbSymbolTableRecord
100
AcDbLayerTableRecord
2
CURVE
70
0
62
7
6
CONTINUOUS
0
LAYER
5
202
100
AcDbSymbolTableRecord
100
AcDbLayerTableRecord
2
DRAFT
70
0
62
7
6
CONTINUOUS
0
LAYER
5
203
100
AcDbSymbolTableRecord
100
AcDbLayerTableRecord
2
IGS
70
0
62
7
6
CONTINUOUS
0
LAYER
5
204
100
AcDbSymbolTableRecord
100
AcDbLayerTableRecord
2
INC_LASER
70
0
62
7
6
CONTINUOUS
0
LAYER
5
205
100
AcDbSymbolTableRecord
100
AcDbLayerTableRecord
2
PIANI
70
0
62
7
6
CONTINUOUS
0
LAYER
5
206
100
AcDbSymbolTableRecord
100
AcDbLayerTableRecord
2
PIANI_ORIGINE
70
0
62
7
6
CONTINUOUS
0
LAYER
5
207
100
AcDbSymbolTableRecord
100
AcDbLayerTableRecord
2
PIANI_RIFERIMENTO
70
0
62
7
6
CONTINUOUS
0
LAYER
5
208
100
AcDbSymbolTableRecord
100
AcDbLayerTableRecord
2
RACCORDO
70
0
62
7
6
CONTINUOUS
0
LAYER
5
209
100
AcDbSymbolTableRecord
100
AcDbLayerTableRecord
2
SMUSSO
70
0
62
7
6
CONTINUOUS
0
LAYER
5
20A
100
AcDbSymbolTableRecord
100
AcDbLayerTableRecord
2
SNAPLINE
70
0
62
7
6
CONTINUOUS
0
LAYER
5
20B
100
AcDbSymbolTableRecord
100
AcDbLayerTableRecord
2
SUPERFICI
70
0
62
7
6
CONTINUOUS
0
LAYER
5
20C
100
AcDbSymbolTableRecord
100
AcDbLayerTableRecord
2
TRASH
70
0
62
7
6
CONTINUOUS
0
ENDTAB
0
TABLE
2
STYLE
5
3
100
AcDbSymbolTable
70
1
0
STYLE
5
11
100
AcDbSymbolTableRecord
100
AcDbTextStyleTableRecord
2
STANDARD
70
0
40
0.0
41
0.8000000000
50
0.0
71
0
42
0.2
3
txt
4

0
ENDTAB
0
TABLE
2
VIEW
5
6
100
AcDbSymbolTable
70
0
0
ENDTAB
0
TABLE
2
UCS
5
7
100
AcDbSymbolTable
70
0
0
ENDTAB
0
TABLE
2
APPID
5
9
100
AcDbSymbolTable
70
1
0
APPID
5
20D
100
AcDbSymbolTableRecord
100
AcDbRegAppTableRecord
2
ACAD
70
0
0
ENDTAB
0
TABLE
2
DIMSTYLE
5
A
100
AcDbSymbolTable
70
1
0
DIMSTYLE
105
20E
100
AcDbSymbolTableRecord
100
AcDbDimStyleTableRecord
2
STANDARD
70
0
3

4

5

6

7

40
1.0
41
3.0000000000
42
0.0625
43
0.38
44
0.18
45
0.0
46
0.0
47
0.0100000000
48
0.0100000000
140
3.0000000000
141
0.09
142
0.0
143
25.4
144
1.0000000000
145
0.0
146
1.0000000000
147
0.09
71
1
72
0
73
0
74
0
75
0
76
0
77
1
78
8
170
0
171
2
172
0
173
0
174
0
175
0
176
0
177
0
178
0
270
2
271
2
272
2
273
2
274
2
340
11
275
0
280
0
281
0
282
0
283
1
284
8
285
0
286
0
287
3
288
0
0
DIMSTYLE
105
20F
100
AcDbSymbolTableRecord
100
AcDbDimStyleTableRecord
2
DIMSTYLE_1
70
0
3

4

5

6

7

40
1.0
41
3.0000000000
42
0.0625
43
0.38
44
0.18
45
0.0
46
0.0
47
0.0000000000
48
0.0000000000
140
3.0000000000
141
0.09
142
0.0
143
25.4
144
1.0000000000
145
0.0
146
1.0000000000
147
0.09
71
0
72
0
73
0
74
0
75
0
76
0
77
1
78
8
170
0
171
2
172
0
173
0
174
0
175
0
176
0
177
0
178
0
270
2
271
2
272
2
273
2
274
2
340
11
275
0
280
0
281
0
282
0
283
1
284
8
285
0
286
0
287
3
288
0
0
DIMSTYLE
105
210
100
AcDbSymbolTableRecord
100
AcDbDimStyleTableRecord
2
DIMSTYLE_2
70
0
3

4

5

6

7

40
1.0
41
3.0000000000
42
0.0625
43
0.38
44
0.18
45
0.0
46
0.0
47
0.0000000000
48
0.0000000000
140
3.0000000000
141
0.09
142
0.0
143
25.4
144
1.0000000000
145
0.0
146
1.0000000000
147
0.09
71
0
72
0
73
0
74
0
75
0
76
0
77
1
78
8
170
0
171
2
172
0
173
0
174
0
175
0
176
0
177
0
178
0
270
2
271
1
272
1
273
2
274
2
340
11
275
0
280
0
281
0
282
0
283
1
284
8
285
0
286
0
287
3
288
0
0
ENDTAB
0
TABLE
2
BLOCK_RECORD
5
1
100
AcDbSymbolTable
70
0
0
BLOCK_RECORD
5
1B
100
AcDbSymbolTableRecord
100
AcDbBlockTableRecord
2
*MODEL_SPACE
0
BLOCK_RECORD
5
1C
100
AcDbSymbolTableRecord
100
AcDbBlockTableRecord
2
*PAPER_SPACE
0
BLOCK_RECORD
5
211
100
AcDbSymbolTableRecord
100
AcDbBlockTableRecord
2
*D0
0
BLOCK_RECORD
5
212
100
AcDbSymbolTableRecord
100
AcDbBlockTableRecord
2
*D1
0
BLOCK_RECORD
5
213
100
AcDbSymbolTableRecord
100
AcDbBlockTableRecord
2
*D2
0
ENDTAB
0
ENDSEC
0
SECTION
2
BLOCKS
0
BLOCK
5
1E
100
AcDbEntity
8
0
100
AcDbBlockBegin
2
*MODEL_SPACE
70
0
10
0.0
20
0.0
30
0.0
3
*MODEL_SPACE
1

0
ENDBLK
5
1F
100
AcDbEntity
8
0
100
AcDbBlockEnd
0
BLOCK
5
20
100
AcDbEntity
8
0
100
AcDbBlockBegin
2
*PAPER_SPACE
70
0
10
0.0
20
0.0
30
0.0
3
*PAPER_SPACE
1

0
ENDBLK
5
21
100
AcDbEntity
8
0
100
AcDbBlockEnd
0
BLOCK
5
214
100
AcDbEntity
8
0
100
AcDbBlockBegin
62
7
6
CONTINUOUS
2
*D0
70
65
10
0.0000000000
20
0.0000000000
3
*D0
1

0
TEXT
5
215
100
AcDbEntity
8
0
100
AcDbText
62
7
6
CONTINUOUS
10
-27.2097381523
20
31.1500000000
7
STANDARD
40
3.0000000000
1
5,7
41
0.6904762056
72
0
100
AcDbText
0
LINE
5
216
100
AcDbEntity
8
0
100
AcDbLine
62
7
6
CONTINUOUS
10
-27.5160018870
20
0.8977684534
11
-27.5160018870
21
31.9000000000
0
LINE
5
217
100
AcDbEntity
8
0
100
AcDbLine
62
7
6
CONTINUOUS
10
-21.8161601068
20
0.8499714434
11
-21.8161601068
21
31.9000000000
0
LINE
5
218
100
AcDbEntity
8
0
100
AcDbLine
62
7
6
CONTINUOUS
10
-27.5160018870
20
30.4000000000
11
-31.5160018870
21
30.4000000000
0
LINE
5
219
100
AcDbEntity
8
0
100
AcDbLine
62
7
6
CONTINUOUS
10
-31.5160018870
20
30.4000000000
11
-24.6660809969
21
30.4000000000
0
LINE
5
21A
100
AcDbEntity
8
0
100
AcDbLine
62
7
6
CONTINUOUS
10
-21.8161601068
20
30.4000000000
11
-17.8161601068
21
30.4000000000
0
LINE
5
21B
100
AcDbEntity
8
0
100
AcDbLine
62
7
6
CONTINUOUS
10
-17.8161601068
20
30.4000000000
11
-24.6660809969
21
30.4000000000
0
SOLID
5
21C
100
AcDbEntity
8
0
100
AcDbTrace
62
7
6
CONTINUOUS
10
-30.5160018870
20
29.4500000000
11
-27.5160018870
21
30.4000000000
12
-30.5160018870
22
31.3500000000
13
-30.5160018870
23
31.3500000000
0
SOLID
5
21D
100
AcDbEntity
8
0
100
AcDbTrace
62
7
6
CONTINUOUS
10
-18.8161601068
20
31.3500000000
11
-21.8161601068
21
30.4000000000
12
-18.8161601068
22
29.4500000000
13
-18.8161601068
23
29.4500000000
0
ENDBLK
5
21E
100
AcDbEntity
8
0
100
AcDbBlockEnd
0
BLOCK
5
21F
100
AcDbEntity
8
0
100
AcDbBlockBegin
62
7
6
CONTINUOUS
2
*D1
70
65
10
0.0000000000
20
0.0000000000
3
*D1
1

0
TEXT
5
220
100
AcDbEntity
8
0
100
AcDbText
62
7
6
CONTINUOUS
10
-4.3802757441
20
31.1500000000
7
STANDARD
40
3.0000000000
1
22,2
41
0.7321428732
72
0
100
AcDbText
0
LINE
5
221
100
AcDbEntity
8
0
100
AcDbLine
62
7
6
CONTINUOUS
10
-11.1000000000
20
13.6000000000
11
-11.1000000000
21
31.9000000000
0
LINE
5
222
100
AcDbEntity
8
0
100
AcDbLine
62
7
6
CONTINUOUS
10
11.1000000000
20
13.6000000000
11
11.1000000000
21
31.9000000000
0
LINE
5
223
100
AcDbEntity
8
0
100
AcDbLine
62
7
6
CONTINUOUS
10
-11.1000000000
20
30.4000000000
11
-0.0000000000
21
30.4000000000
0
LINE
5
224
100
AcDbEntity
8
0
100
AcDbLine
62
7
6
CONTINUOUS
10
11.1000000000
20
30.4000000000
11
-0.0000000000
21
30.4000000000
0
SOLID
5
225
100
AcDbEntity
8
0
100
AcDbTrace
62
7
6
CONTINUOUS
10
-8.1000000000
20
31.3500000000
11
-11.1000000000
21
30.4000000000
12
-8.1000000000
22
29.4500000000
13
-8.1000000000
23
29.4500000000
0
SOLID
5
226
100
AcDbEntity
8
0
100
AcDbTrace
62
7
6
CONTINUOUS
10
8.1000000000
20
29.4500000000
11
11.1000000000
21
30.4000000000
12
8.1000000000
22
31.3500000000
13
8.1000000000
23
31.3500000000
0
ENDBLK
5
227
100
AcDbEntity
8
0
100
AcDbBlockEnd
0
BLOCK
5
228
100
AcDbEntity
8
0
100
AcDbBlockBegin
62
7
6
CONTINUOUS
2
*D2
70
65
10
0.0000000000
20
0.0000000000
3
*D2
1

0
TEXT
5
229
100
AcDbEntity
8
0
100
AcDbText
62
7
6
CONTINUOUS
10
18.3500000000
20
-3.2932956012
7
STANDARD
40
3.0000000000
1
44,4
50
90.0000000000
41
0.7321428571
72
0
100
AcDbText
0
LINE
5
22A
100
AcDbEntity
8
0
100
AcDbLine
62
7
6
CONTINUOUS
10
11.0808886505
20
22.1947348166
11
20.6000000000
21
22.1947348166
0
LINE
5
22B
100
AcDbEntity
8
0
100
AcDbLine
62
7
6
CONTINUOUS
10
11.0808886505
20
-22.1947348166
11
20.6000000000
21
-22.1947348166
0
LINE
5
22C
100
AcDbEntity
8
0
100
AcDbLine
62
7
6
CONTINUOUS
10
19.1000000000
20
22.1947348166
11
19.1000000000
21
0.0000000000
0
LINE
5
22D
100
AcDbEntity
8
0
100
AcDbLine
62
7
6
CONTINUOUS
10
19.1000000000
20
-22.1947348166
11
19.1000000000
21
0.0000000000
0
SOLID
5
22E
100
AcDbEntity
8
0
100
AcDbTrace
62
7
6
CONTINUOUS
10
20.0500000000
20
19.1947348166
11
19.1000000000
21
22.1947348166
12
18.1500000000
22
19.1947348166
13
18.1500000000
23
19.1947348166
0
SOLID
5
22F
100
AcDbEntity
8
0
100
AcDbTrace
62
7
6
CONTINUOUS
10
18.1500000000
20
-19.1947348166
11
19.1000000000
21
-22.1947348166
12
20.0500000000
22
-19.1947348166
13
20.0500000000
23
-19.1947348166
0
ENDBLK
5
230
100
AcDbEntity
8
0
100
AcDbBlockEnd
0
ENDSEC
0
SECTION
2
ENTITIES
0
DIMENSION
5
231
100
AcDbEntity
8
0
100
AcDbDimension
62
7
6
CONTINUOUS
2
*D0
10
-21.8161601068
20
30.4000000000
11
-24.1025952270
21
32.6500000000
70
160
3
DIMSTYLE_1
100
AcDbAlignedDimension
13
-27.5160018870
23
0.8977684534
14
-21.8161601068
24
0.8499714434
100
AcDbRotatedDimension
0
DIMENSION
5
232
100
AcDbEntity
8
0
100
AcDbDimension
62
7
6
CONTINUOUS
2
*D1
10
11.1000000000
20
30.4000000000
11
0.0125814951
21
32.6500000000
70
160
3
DIMSTYLE_1
100
AcDbAlignedDimension
13
-11.1000000000
23
13.6000000000
14
11.1000000000
24
13.6000000000
100
AcDbRotatedDimension
0
DIMENSION
5
233
100
AcDbEntity
8
0
100
AcDbDimension
62
7
6
CONTINUOUS
2
*D2
10
19.1000000000
20
-22.1947348166
11
16.8500000000
21
1.0995615416
70
160
3
DIMSTYLE_2
100
AcDbAlignedDimension
13
11.0808886505
23
22.1947348166
14
11.0808886505
24
-22.1947348166
50
270.000000
100
AcDbRotatedDimension
0
LINE
5
234
100
AcDbEntity
8
0
100
AcDbLine
62
7
6
CONTINUOUS
10
-2.5842651720
20
-22.1947348166
11
-2.3077350269
21
-22.1696065528
0
LINE
5
235
100
AcDbEntity
8
0
100
AcDbLine
62
7
6
CONTINUOUS
10
10.5808886505
20
-22.1947348166
11
2.5842651720
21
-22.1947348166
0
LINE
5
236
100
AcDbEntity
8
0
100
AcDbLine
62
7
6
CONTINUOUS
10
-2.5842651720
20
-22.1947348166
11
-10.5808886505
21
-22.1947348166
0
LINE
5
237
100
AcDbEntity
8
0
100
AcDbLine
62
7
6
CONTINUOUS
10
2.1345299462
20
-22.1643601773
11
-2.1345299462
21
-22.1643601773
0
LINE
5
238
100
AcDbEntity
8
0
100
AcDbLine
62
9
6
CONTINUOUS
10
-10.5360894575
20
-22.0602279426
11
10.5360894575
21
-22.0602279426
0
LINE
5
239
100
AcDbEntity
8
0
100
AcDbLine
62
7
6
CONTINUOUS
10
2.5842651720
20
-22.1947348166
11
2.3077350269
21
-22.1696065528
0
LINE
5
23A
100
AcDbEntity
8
0
100
AcDbLine
62
9
6
CONTINUOUS
10
-10.5279162692
20
-21.2107174911
11
10.5279162692
21
-21.2107174911
0
LINE
5
23B
100
AcDbEntity
8
0
100
AcDbLine
62
7
6
CONTINUOUS
10
-11.0815732928
20
-21.6977042895
11
-11.1000000000
21
-13.1000000000
0
LINE
5
23C
100
AcDbEntity
8
0
100
AcDbLine
62
7
6
CONTINUOUS
10
-11.1000000000
20
-0.3499714434
11
-11.1000000000
21
-13.1000000000
0
LINE
5
23D
100
AcDbEntity
8
0
100
AcDbLine
62
7
6
CONTINUOUS
10
-11.1000000000
20
0.3499714434
11
-11.1000000000
21
13.1000000000
0
LINE
5
23E
100
AcDbEntity
8
0
100
AcDbLine
62
9
6
CONTINUOUS
10
-10.5091602573
20
0.3977684534
11
-10.5091602573
21
0.1475790882
0
LINE
5
23F
100
AcDbEntity
8
0
100
AcDbLine
62
9
6
CONTINUOUS
10
-10.5091602573
20
-0.1475790882
11
-10.5091602573
21
-0.3977684534
0
LINE
5
240
100
AcDbEntity
8
0
100
AcDbLine
62
7
6
CONTINUOUS
10
-11.0815732928
20
21.6977042895
11
-11.1000000000
21
13.1000000000
0
LINE
5
241
100
AcDbEntity
8
0
100
AcDbLine
62
9
6
CONTINUOUS
10
10.5107313847
20
-9.5000000000
11
-10.5107313847
21
-9.5000000000
0
LINE
5
242
100
AcDbEntity
8
0
100
AcDbLine
62
9
6
CONTINUOUS
10
-4.8979998286
20
0.7983458208
11
-4.8980040083
21
0.3977684532
0
LINE
5
243
100
AcDbEntity
8
0
100
AcDbLine
62
9
6
CONTINUOUS
10
-4.8980040083
20
-0.3977684532
11
-4.8979998286
21
-0.7983458208
0
LINE
5
244
100
AcDbEntity
8
0
100
AcDbLine
62
9
6
CONTINUOUS
10
-11.1000000000
20
0.3499714434
11
-11.0090840780
21
0.3954259424
0
LINE
5
245
100
AcDbEntity
8
0
100
AcDbLine
62
9
6
CONTINUOUS
10
-10.8499999985
20
0.1000000000
11
-10.7591221542
21
0.1454354616
0
LINE
5
246
100
AcDbEntity
8
0
100
AcDbLine
62
9
6
CONTINUOUS
10
-11.1000000000
20
-0.3499714434
11
-11.0090840780
21
-0.3954259424
0
LINE
5
247
100
AcDbEntity
8
0
100
AcDbLine
62
9
6
CONTINUOUS
10
-10.8499999985
20
-0.1000000000
11
-10.7591221542
21
-0.1454354616
0
LINE
5
248
100
AcDbEntity
8
0
100
AcDbLine
62
7
6
CONTINUOUS
10
-4.6862139802
20
-0.7862330187
11
-4.6862139802
21
-0.3370942827
0
LINE
5
249
100
AcDbEntity
8
0
100
AcDbLine
62
7
6
CONTINUOUS
10
-4.6862139802
20
0.3370942827
11
-4.6862139802
21
0.7862330187
0
LINE
5
24A
100
AcDbEntity
8
0
100
AcDbLine
62
9
6
CONTINUOUS
10
-4.1980124517
20
-1.2979934133
11
-4.1980124517
21
-1.4985852320
0
LINE
5
24B
100
AcDbEntity
8
0
100
AcDbLine
62
9
6
CONTINUOUS
10
-4.1980124517
20
1.2979934133
11
-4.1980124517
21
1.4985852320
0
LINE
5
24C
100
AcDbEntity
8
0
100
AcDbLine
62
9
6
CONTINUOUS
10
-11.0815732928
20
-21.6977042895
11
-11.0360133051
21
-21.5609131753
0
LINE
5
24D
100
AcDbEntity
8
0
100
AcDbLine
62
9
6
CONTINUOUS
10
-4.8866821902
20
-0.1366898056
11
-4.8975714728
21
-0.1475790882
0
LINE
5
24E
100
AcDbEntity
8
0
100
AcDbLine
62
7
6
CONTINUOUS
10
-9.9000000000
20
0.1000000000
11
-9.8476348052
21
0.1261806034
0
LINE
5
24F
100
AcDbEntity
8
0
100
AcDbLine
62
7
6
CONTINUOUS
10
-9.9000000000
20
-0.1000000000
11
-9.8476348052
21
-0.1261806034
0
LINE
5
250
100
AcDbEntity
8
0
100
AcDbLine
62
9
6
CONTINUOUS
10
-4.8866821902
20
0.1366898056
11
-4.8975714728
21
0.1475790882
0
LINE
5
251
100
AcDbEntity
8
0
100
AcDbLine
62
9
6
CONTINUOUS
10
-11.0360133051
20
21.5609131753
11
-11.0815732928
21
21.6977042895
0
LINE
5
252
100
AcDbEntity
8
0
100
AcDbLine
62
9
6
CONTINUOUS
10
-10.5808886505
20
-22.1947348166
11
-10.5360894575
21
-22.0602279426
0
LINE
5
253
100
AcDbEntity
8
0
100
AcDbLine
62
9
6
CONTINUOUS
10
-4.6862140141
20
-0.3362063987
11
-4.6975790882
21
-0.3475714728
0
LINE
5
254
100
AcDbEntity
8
0
100
AcDbLine
62
9
6
CONTINUOUS
10
-4.6862139802
20
-0.7862330187
11
-4.6980074440
21
-0.7980264825
0
LINE
5
255
100
AcDbEntity
8
0
100
AcDbLine
62
9
6
CONTINUOUS
10
-4.1862330187
20
-1.2862139802
11
-4.1980124517
21
-1.2979934133
0
LINE
5
256
100
AcDbEntity
8
0
100
AcDbLine
62
9
6
CONTINUOUS
10
-4.1980124517
20
-1.4985852320
11
4.1980124517
21
-1.4985852320
0
LINE
5
257
100
AcDbEntity
8
0
100
AcDbLine
62
9
6
CONTINUOUS
10
-4.6862140141
20
0.3362063987
11
-4.6975795117
21
0.3475718963
0
LINE
5
258
100
AcDbEntity
8
0
100
AcDbLine
62
9
6
CONTINUOUS
10
-4.6862139802
20
0.7862330187
11
-4.6980074440
21
0.7980264825
0
LINE
5
259
100
AcDbEntity
8
0
100
AcDbLine
62
9
6
CONTINUOUS
10
-4.1862330187
20
1.2862139802
11
-4.1980124517
21
1.2979934133
0
LINE
5
25A
100
AcDbEntity
8
0
100
AcDbLine
62
9
6
CONTINUOUS
10
-10.5360894575
20
22.0602279426
11
-10.5808886505
21
22.1947348166
0
LINE
5
25B
100
AcDbEntity
8
0
100
AcDbLine
62
9
6
CONTINUOUS
10
5.5779188992
20
-0.1262110396
11
5.5819477612
21
-0.1261806034
0
LINE
5
25C
100
AcDbEntity
8
0
100
AcDbLine
62
7
6
CONTINUOUS
10
4.8831844107
20
-0.1367122143
11
5.5779188992
21
-0.1262110396
0
LINE
5
25D
100
AcDbEntity
8
0
100
AcDbLine
62
7
6
CONTINUOUS
10
-4.8831844107
20
0.1367122143
11
-5.5779188992
21
0.1262110396
0
LINE
5
25E
100
AcDbEntity
8
0
100
AcDbLine
62
9
6
CONTINUOUS
10
-5.5779193596
20
0.1262414942
11
-5.5819477612
21
0.1261806034
0
LINE
5
25F
100
AcDbEntity
8
0
100
AcDbLine
62
7
6
CONTINUOUS
10
5.5778967073
20
-0.1262134259
11
5.5819477612
21
-0.1261806034
0
LINE
5
260
100
AcDbEntity
8
0
100
AcDbLine
62
7
6
CONTINUOUS
10
-5.5778967073
20
0.1262134259
11
-5.5819477612
21
0.1261806034
0
LINE
5
261
100
AcDbEntity
8
0
100
AcDbLine
62
7
6
CONTINUOUS
10
4.8831861163
20
-0.1367121885
11
4.8866821902
21
-0.1366898056
0
LINE
5
262
100
AcDbEntity
8
0
100
AcDbLine
62
7
6
CONTINUOUS
10
-4.8831861163
20
0.1367121885
11
-4.8866821902
21
0.1366898056
0
LINE
5
263
100
AcDbEntity
8
0
100
AcDbLine
62
9
6
CONTINUOUS
10
-4.6980116237
20
-0.3976093458
11
-4.8980040083
21
-0.3977684532
0
LINE
5
264
100
AcDbEntity
8
0
100
AcDbLine
62
9
6
CONTINUOUS
10
-4.1980124517
20
-1.2979934133
11
4.1980124517
21
-1.2979934133
0
LINE
5
265
100
AcDbEntity
8
0
100
AcDbLine
62
7
6
CONTINUOUS
10
4.1862330187
20
-1.2862139802
11
-4.1862330187
21
-1.2862139802
0
LINE
5
266
100
AcDbEntity
8
0
100
AcDbLine
62
9
6
CONTINUOUS
10
-10.5091602573
20
-0.3977684534
11
-4.8980040083
21
-0.3977684532
0
LINE
5
267
100
AcDbEntity
8
0
100
AcDbLine
62
9
6
CONTINUOUS
10
10.5091602573
20
-0.3977684534
11
4.8980040083
21
-0.3977684532
0
LINE
5
268
100
AcDbEntity
8
0
100
AcDbLine
62
9
6
CONTINUOUS
10
-10.5091602573
20
-0.1475790882
11
-4.8975714728
21
-0.1475790882
0
LINE
5
269
100
AcDbEntity
8
0
100
AcDbLine
62
9
6
CONTINUOUS
10
10.5091602573
20
-0.1475790882
11
4.8975714728
21
-0.1475790882
0
LINE
5
26A
100
AcDbEntity
8
0
100
AcDbLine
62
7
6
CONTINUOUS
10
-9.8476348052
20
-0.1261806034
11
-5.5819477612
21
-0.1261806034
0
LINE
5
26B
100
AcDbEntity
8
0
100
AcDbLine
62
7
6
CONTINUOUS
10
5.5819477612
20
-0.1261806034
11
9.8476348052
21
-0.1261806034
0
LINE
5
26C
100
AcDbEntity
8
0
100
AcDbLine
62
7
6
CONTINUOUS
10
10.8499999985
20
-0.1000000000
11
9.9000000000
21
-0.1000000000
0
LINE
5
26D
100
AcDbEntity
8
0
100
AcDbLine
62
7
6
CONTINUOUS
10
-9.9000000000
20
-0.1000000000
11
-10.8499999985
21
-0.1000000000
0
LINE
5
26E
100
AcDbEntity
8
0
100
AcDbLine
62
7
6
CONTINUOUS
10
-10.8499999985
20
0.1000000000
11
-9.9000000000
21
0.1000000000
0
LINE
5
26F
100
AcDbEntity
8
0
100
AcDbLine
62
7
6
CONTINUOUS
10
9.9000000000
20
0.1000000000
11
10.8499999985
21
0.1000000000
0
LINE
5
270
100
AcDbEntity
8
0
100
AcDbLine
62
7
6
CONTINUOUS
10
9.8476348052
20
0.1261806034
11
5.5819477612
21
0.1261806034
0
LINE
5
271
100
AcDbEntity
8
0
100
AcDbLine
62
7
6
CONTINUOUS
10
-5.5819477612
20
0.1261806034
11
-9.8476348052
21
0.1261806034
0
LINE
5
272
100
AcDbEntity
8
0
100
AcDbLine
62
9
6
CONTINUOUS
10
-10.5091602573
20
0.1475790882
11
-4.8975714728
21
0.1475790882
0
LINE
5
273
100
AcDbEntity
8
0
100
AcDbLine
62
9
6
CONTINUOUS
10
10.5091602573
20
0.1475790882
11
4.8975714728
21
0.1475790882
0
LINE
5
274
100
AcDbEntity
8
0
100
AcDbLine
62
9
6
CONTINUOUS
10
4.6980116237
20
-0.3976093458
11
4.8980040083
21
-0.3977684531
0
LINE
5
275
100
AcDbEntity
8
0
100
AcDbLine
62
7
6
CONTINUOUS
10
-4.8831871889
20
-0.1367121530
11
-4.8866821902
21
-0.1366898056
0
LINE
5
276
100
AcDbEntity
8
0
100
AcDbLine
62
7
6
CONTINUOUS
10
4.8831871889
20
0.1367121530
11
4.8866821902
21
0.1366898056
0
LINE
5
277
100
AcDbEntity
8
0
100
AcDbLine
62
7
6
CONTINUOUS
10
-5.5819477612
20
-0.1261806034
11
-5.5778967073
21
-0.1262134259
0
LINE
5
278
100
AcDbEntity
8
0
100
AcDbLine
62
7
6
CONTINUOUS
10
5.5819477612
20
0.1261806034
11
5.5778967073
21
0.1262134259
0
LINE
5
279
100
AcDbEntity
8
0
100
AcDbLine
62
9
6
CONTINUOUS
10
-5.5819477612
20
-0.1261806034
11
-5.5779188992
21
-0.1262110396
0
LINE
5
27A
100
AcDbEntity
8
0
100
AcDbLine
62
7
6
CONTINUOUS
10
-5.5779188992
20
-0.1262110396
11
-4.8831844107
21
-0.1367122143
0
LINE
5
27B
100
AcDbEntity
8
0
100
AcDbLine
62
7
6
CONTINUOUS
10
5.5779188992
20
0.1262110396
11
4.8831844107
21
0.1367122143
0
LINE
5
27C
100
AcDbEntity
8
0
100
AcDbLine
62
9
6
CONTINUOUS
10
5.5819477612
20
0.1261806034
11
5.5779193596
21
0.1262414942
0
LINE
5
27D
100
AcDbEntity
8
0
100
AcDbLine
62
9
6
CONTINUOUS
10
4.6980116237
20
0.3976093458
11
4.8980040083
21
0.3977684532
0
LINE
5
27E
100
AcDbEntity
8
0
100
AcDbLine
62
9
6
CONTINUOUS
10
-10.5091602573
20
0.3977684534
11
-4.8980040083
21
0.3977684532
0
LINE
5
27F
100
AcDbEntity
8
0
100
AcDbLine
62
9
6
CONTINUOUS
10
10.5091602573
20
0.3977684534
11
4.8980040083
21
0.3977684532
0
LINE
5
280
100
AcDbEntity
8
0
100
AcDbLine
62
7
6
CONTINUOUS
10
-4.1862330187
20
1.2862139802
11
4.1862330187
21
1.2862139802
0
LINE
5
281
100
AcDbEntity
8
0
100
AcDbLine
62
9
6
CONTINUOUS
10
4.1980124517
20
1.2979934133
11
-4.1980124517
21
1.2979934133
0
LINE
5
282
100
AcDbEntity
8
0
100
AcDbLine
62
9
6
CONTINUOUS
10
4.1980124517
20
1.4985852320
11
-4.1980124517
21
1.4985852320
0
LINE
5
283
100
AcDbEntity
8
0
100
AcDbLine
62
9
6
CONTINUOUS
10
-4.6980116237
20
0.3976093458
11
-4.8980040083
21
0.3977684531
0
LINE
5
284
100
AcDbEntity
8
0
100
AcDbLine
62
9
6
CONTINUOUS
10
10.5808886505
20
22.1947348166
11
10.5360894575
21
22.0602279426
0
LINE
5
285
100
AcDbEntity
8
0
100
AcDbLine
62
9
6
CONTINUOUS
10
4.1862330187
20
1.2862139802
11
4.1980124517
21
1.2979934133
0
LINE
5
286
100
AcDbEntity
8
0
100
AcDbLine
62
9
6
CONTINUOUS
10
4.6862139802
20
0.7862330187
11
4.6980074440
21
0.7980264825
0
LINE
5
287
100
AcDbEntity
8
0
100
AcDbLine
62
9
6
CONTINUOUS
10
4.6862140141
20
0.3362063987
11
4.6975790882
21
0.3475714728
0
LINE
5
288
100
AcDbEntity
8
0
100
AcDbLine
62
9
6
CONTINUOUS
10
4.8866821902
20
0.1366898056
11
4.8975714728
21
0.1475790882
0
LINE
5
289
100
AcDbEntity
8
0
100
AcDbLine
62
9
6
CONTINUOUS
10
4.1862330187
20
-1.2862139802
11
4.1980124517
21
-1.2979934133
0
LINE
5
28A
100
AcDbEntity
8
0
100
AcDbLine
62
9
6
CONTINUOUS
10
4.6862139802
20
-0.7862330187
11
4.6980074440
21
-0.7980264825
0
LINE
5
28B
100
AcDbEntity
8
0
100
AcDbLine
62
9
6
CONTINUOUS
10
4.6862140141
20
-0.3362063987
11
4.6975795117
21
-0.3475718963
0
LINE
5
28C
100
AcDbEntity
8
0
100
AcDbLine
62
9
6
CONTINUOUS
10
4.8866821902
20
-0.1366898056
11
4.8975714728
21
-0.1475790882
0
LINE
5
28D
100
AcDbEntity
8
0
100
AcDbLine
62
9
6
CONTINUOUS
10
10.5360894575
20
-22.0602279426
11
10.5808886505
21
-22.1947348166
0
LINE
5
28E
100
AcDbEntity
8
0
100
AcDbLine
62
9
6
CONTINUOUS
10
4.1980124517
20
-1.2979934133
11
4.1980124517
21
-1.4985852320
0
LINE
5
28F
100
AcDbEntity
8
0
100
AcDbLine
62
9
6
CONTINUOUS
10
4.1980124517
20
1.2979934133
11
4.1980124517
21
1.4985852320
0
LINE
5
290
100
AcDbEntity
8
0
100
AcDbLine
62
7
6
CONTINUOUS
10
4.6862139802
20
0.7862330187
11
4.6862139802
21
0.3370942827
0
LINE
5
291
100
AcDbEntity
8
0
100
AcDbLine
62
7
6
CONTINUOUS
10
4.6862139802
20
-0.3370942827
11
4.6862139802
21
-0.7862330187
0
LINE
5
292
100
AcDbEntity
8
0
100
AcDbLine
62
9
6
CONTINUOUS
10
4.8979998286
20
-0.7983458208
11
4.8980040083
21
-0.3977684532
0
LINE
5
293
100
AcDbEntity
8
0
100
AcDbLine
62
9
6
CONTINUOUS
10
4.8980040083
20
0.3977684532
11
4.8979998286
21
0.7983458208
0
LINE
5
294
100
AcDbEntity
8
0
100
AcDbLine
62
9
6
CONTINUOUS
10
11.0815732928
20
21.6977042895
11
11.0360133051
21
21.5609131753
0
LINE
5
295
100
AcDbEntity
8
0
100
AcDbLine
62
7
6
CONTINUOUS
10
9.9000000000
20
-0.1000000000
11
9.8476348052
21
-0.1261806034
0
LINE
5
296
100
AcDbEntity
8
0
100
AcDbLine
62
9
6
CONTINUOUS
10
10.8499999985
20
-0.1000000000
11
10.7591221542
21
-0.1454354616
0
LINE
5
297
100
AcDbEntity
8
0
100
AcDbLine
62
7
6
CONTINUOUS
10
9.9000000000
20
0.1000000000
11
9.8476348052
21
0.1261806034
0
LINE
5
298
100
AcDbEntity
8
0
100
AcDbLine
62
9
6
CONTINUOUS
10
10.8499999985
20
0.1000000000
11
10.7591221542
21
0.1454354616
0
LINE
5
299
100
AcDbEntity
8
0
100
AcDbLine
62
9
6
CONTINUOUS
10
11.0360133051
20
-21.5609131753
11
11.0815732928
21
-21.6977042895
0
LINE
5
29A
100
AcDbEntity
8
0
100
AcDbLine
62
9
6
CONTINUOUS
10
11.1000000000
20
-0.3499714434
11
11.0090840780
21
-0.3954259424
0
LINE
5
29B
100
AcDbEntity
8
0
100
AcDbLine
62
9
6
CONTINUOUS
10
11.1000000000
20
0.3499714434
11
11.0090840780
21
0.3954259424
0
LINE
5
29C
100
AcDbEntity
8
0
100
AcDbLine
62
9
6
CONTINUOUS
10
-10.5107313847
20
9.5000000000
11
10.5107313847
21
9.5000000000
0
LINE
5
29D
100
AcDbEntity
8
0
100
AcDbLine
62
7
6
CONTINUOUS
10
11.0815732928
20
21.6977042895
11
11.1000000000
21
13.1000000000
0
LINE
5
29E
100
AcDbEntity
8
0
100
AcDbLine
62
9
6
CONTINUOUS
10
10.5091602573
20
-0.3977684534
11
10.5091602573
21
-0.1475790882
0
LINE
5
29F
100
AcDbEntity
8
0
100
AcDbLine
62
9
6
CONTINUOUS
10
10.5091602573
20
0.1475790882
11
10.5091602573
21
0.3977684534
0
LINE
5
2A0
100
AcDbEntity
8
0
100
AcDbLine
62
7
6
CONTINUOUS
10
11.1000000000
20
-0.3499714434
11
11.1000000000
21
-13.1000000000
0
LINE
5
2A1
100
AcDbEntity
8
0
100
AcDbLine
62
7
6
CONTINUOUS
10
11.1000000000
20
0.3499714434
11
11.1000000000
21
13.1000000000
0
LINE
5
2A2
100
AcDbEntity
8
0
100
AcDbLine
62
7
6
CONTINUOUS
10
11.0815732928
20
-21.6977042895
11
11.1000000000
21
-13.1000000000
0
LINE
5
2A3
100
AcDbEntity
8
0
100
AcDbLine
62
7
6
CONTINUOUS
10
2.5842651720
20
22.1947348166
11
2.3077350269
21
22.1696065528
0
LINE
5
2A4
100
AcDbEntity
8
0
100
AcDbLine
62
9
6
CONTINUOUS
10
10.5279162692
20
21.2107174911
11
-10.5279162692
21
21.2107174911
0
LINE
5
2A5
100
AcDbEntity
8
0
100
AcDbLine
62
7
6
CONTINUOUS
10
-2.5842651720
20
22.1947348166
11
-2.3077350269
21
22.1696065528
0
LINE
5
2A6
100
AcDbEntity
8
0
100
AcDbLine
62
9
6
CONTINUOUS
10
10.5360894575
20
22.0602279426
11
-10.5360894575
21
22.0602279426
0
LINE
5
2A7
100
AcDbEntity
8
0
100
AcDbLine
62
7
6
CONTINUOUS
10
-2.1345299462
20
22.1643601773
11
2.1345299462
21
22.1643601773
0
LINE
5
2A8
100
AcDbEntity
8
0
100
AcDbLine
62
7
6
CONTINUOUS
10
-10.5808886505
20
22.1947348166
11
-2.5842651720
21
22.1947348166
0
LINE
5
2A9
100
AcDbEntity
8
0
100
AcDbLine
62
7
6
CONTINUOUS
10
2.5842651720
20
22.1947348166
11
10.5808886505
21
22.1947348166
0
LINE
5
2AA
100
AcDbEntity
8
0
100
AcDbLine
62
7
6
CONTINUOUS
10
-25.4993971759
20
-22.0602279426
11
-22.9328531278
21
-22.1947348166
0
LINE
5
2AB
100
AcDbEntity
8
0
100
AcDbLine
62
9
6
CONTINUOUS
10
-25.4819554010
20
-21.5609131753
11
-22.8718254528
21
-21.6977042895
0
LINE
5
2AC
100
AcDbEntity
8
0
100
AcDbLine
62
9
6
CONTINUOUS
10
-26.9347184216
20
-9.4905000000
11
-27.4259019599
21
-9.5000000000
0
LINE
5
2AD
100
AcDbEntity
8
0
100
AcDbLine
62
9
6
CONTINUOUS
10
-21.8161601068
20
-0.3499714434
11
-27.0247297913
21
-0.3954259424
0
LINE
5
2AE
100
AcDbEntity
8
0
100
AcDbLine
62
7
6
CONTINUOUS
10
-21.8161601068
20
-0.1000000000
11
-27.2681836000
21
-0.1475790882
0
LINE
5
2AF
100
AcDbEntity
8
0
100
AcDbLine
62
7
6
CONTINUOUS
10
-21.8161601068
20
0.1000000000
11
-27.2681835998
21
0.1475790882
0
LINE
5
2B0
100
AcDbEntity
8
0
100
AcDbLine
62
7
6
CONTINUOUS
10
-21.8161601068
20
-0.1000000000
11
-21.8161601068
21
-13.1000000000
0
LINE
5
2B1
100
AcDbEntity
8
0
100
AcDbLine
62
7
6
CONTINUOUS
10
-21.8161601068
20
0.1000000000
11
-21.8161601068
21
13.1000000000
0
LINE
5
2B2
100
AcDbEntity
8
0
100
AcDbLine
62
9
6
CONTINUOUS
10
-21.8161601068
20
0.3499714434
11
-27.0247297913
21
0.3954259424
0
LINE
5
2B3
100
AcDbEntity
8
0
100
AcDbLine
62
7
6
CONTINUOUS
10
-22.9328531278
20
-22.1947348166
11
-21.8161601068
21
-13.1000000000
0
LINE
5
2B4
100
AcDbEntity
8
0
100
AcDbLine
62
7
6
CONTINUOUS
10
-22.9328531278
20
22.1947348166
11
-21.8161601068
21
13.1000000000
0
LINE
5
2B5
100
AcDbEntity
8
0
100
AcDbLine
62
9
6
CONTINUOUS
10
-26.9347184216
20
9.4905000000
11
-27.4259019603
21
9.5000000000
0
LINE
5
2B6
100
AcDbEntity
8
0
100
AcDbLine
62
9
6
CONTINUOUS
10
-22.8718254528
20
21.6977042895
11
-25.4819554010
21
21.5609131753
0
LINE
5
2B7
100
AcDbEntity
8
0
100
AcDbLine
62
7
6
CONTINUOUS
10
-22.9328531278
20
22.1947348166
11
-25.4993971759
21
22.0602279426
0
ARC
5
2B8
100
AcDbEntity
8
0
100
AcDbCircle
62
7
6
CONTINUOUS
10
-27.2660019661
20
0.3975695690
40
0.2500000000
100
AcDbArc
50
179.9544190336
51
269.5000000525
0
ARC
5
2B9
100
AcDbEntity
8
0
100
AcDbCircle
62
7
6
CONTINUOUS
10
472.4838398932
20
-0.0000000000
40
500.0000000000
100
AcDbArc
50
178.9113146800
51
179.9544190880
0
ARC
5
2BA
100
AcDbEntity
8
0
100
AcDbCircle
62
7
6
CONTINUOUS
10
62.5578515734
20
7.7900000000
40
90.0000000000
100
AcDbArc
50
171.4241203952
51
178.9113146800
0
ARC
5
2BB
100
AcDbEntity
8
0
100
AcDbCircle
62
7
6
CONTINUOUS
10
-25.4470612196
20
21.0615984079
40
1.0000000000
100
AcDbArc
50
93.0000000000
51
171.4241203952
0
ARC
5
2BC
100
AcDbEntity
8
0
100
AcDbCircle
62
7
6
CONTINUOUS
10
-27.2660019661
20
-0.3975695690
40
0.2500000000
100
AcDbArc
50
90.4999999475
51
180.0455809664
0
ARC
5
2BD
100
AcDbEntity
8
0
100
AcDbCircle
62
7
6
CONTINUOUS
10
472.4838398932
20
-0.0000000000
40
500.0000000000
100
AcDbArc
50
180.0455809120
51
181.0886853200
0
ARC
5
2BE
100
AcDbEntity
8
0
100
AcDbCircle
62
7
6
CONTINUOUS
10
62.5578515734
20
-7.7900000000
40
90.0000000000
100
AcDbArc
50
181.0886853200
51
188.5758796048
0
ARC
5
2BF
100
AcDbEntity
8
0
100
AcDbCircle
62
7
6
CONTINUOUS
10
-25.4470612196
20
-21.0615984079
40
1.0000000000
100
AcDbArc
50
188.5758796048
51
267.0000000000
0
SPLINE
5
2C0
100
AcDbEntity
8
0
100
AcDbSpline
62
7
6
CONTINUOUS
70
0
71
3
72
17
73
13
74
11
42
0.0000001000
43
0.0000001000
44
0.0000000001
12
0.1726172704
22
0.0156857123
32
0.0000000000
13
0.1733284847
23
-0.0000000000
33
0.0000000000
40
0.0000000000
40
0.0000000000
40
0.0000000000
40
0.0000000000
40
0.0658932083
40
0.1422619237
40
0.2278502935
40
0.3216127585
40
0.4232716975
40
0.5312327141
40
0.6437122183
40
0.7603539652
40
0.8797993424
40
1.0000000000
40
1.0000000000
40
1.0000000000
40
1.0000000000
10
-2.3077350269
20
-22.1696065528
30
0.0000000000
10
-2.3039435917
20
-22.1692620255
30
0.0000000000
10
-2.2957494344
20
-22.1686118529
30
0.0000000000
10
-2.2826116090
20
-22.1677719940
30
0.0000000000
10
-2.2678566569
20
-22.1670064533
30
0.0000000000
10
-2.2516351529
20
-22.1663235078
30
0.0000000000
10
-2.2341167068
20
-22.1657314288
30
0.0000000000
10
-2.2155134318
20
-22.1652380543
30
0.0000000000
10
-2.1960418761
20
-22.1648488260
30
0.0000000000
10
-2.1759048806
20
-22.1645676754
30
0.0000000000
10
-2.1553205372
20
-22.1643979107
30
0.0000000000
10
-2.1414746788
20
-22.1643601773
30
0.0000000000
10
-2.1345299462
20
-22.1643601773
30
0.0000000000
11
-2.3077350269
21
-22.1696065528
31
0.0000000000
11
-2.2963509581
21
-22.1686867161
31
0.0000000000
11
-2.2831417787
21
-22.1678309094
31
0.0000000000
11
-2.2683272372
21
-22.1670539331
31
0.0000000000
11
-2.2520901727
21
-22.1663642355
31
0.0000000000
11
-2.2344799947
21
-22.1657644269
31
0.0000000000
11
-2.2157739435
21
-22.1652649115
31
0.0000000000
11
-2.1962819840
21
-22.1648728540
31
0.0000000000
11
-2.1760666401
21
-22.1645889604
31
0.0000000000
11
-2.1553640658
21
-22.1644172637
31
0.0000000000
11
-2.1345299462
21
-22.1643601773
31
0.0000000000
0
SPLINE
5
2C1
100
AcDbEntity
8
0
100
AcDbSpline
62
7
6
CONTINUOUS
70
0
71
3
72
17
73
13
74
11
42
0.0000001000
43
0.0000001000
44
0.0000000001
12
0.1733284847
22
0.0000000000
32
0.0000000000
13
0.1726172704
23
-0.0156857123
33
0.0000000000
40
0.0000000000
40
0.0000000000
40
0.0000000000
40
0.0000000000
40
0.1202006576
40
0.2396460348
40
0.3562877817
40
0.4687672859
40
0.5767283025
40
0.6783872415
40
0.7721497065
40
0.8577380763
40
0.9341067917
40
1.0000000000
40
1.0000000000
40
1.0000000000
40
1.0000000000
10
2.1345299462
20
-22.1643601773
30
0.0000000000
10
2.1414746788
20
-22.1643601773
30
0.0000000000
10
2.1553205372
20
-22.1643979107
30
0.0000000000
10
2.1759048806
20
-22.1645676754
30
0.0000000000
10
2.1960418761
20
-22.1648488260
30
0.0000000000
10
2.2155134318
20
-22.1652380543
30
0.0000000000
10
2.2341167068
20
-22.1657314288
30
0.0000000000
10
2.2516351529
20
-22.1663235078
30
0.0000000000
10
2.2678566569
20
-22.1670064533
30
0.0000000000
10
2.2826116090
20
-22.1677719940
30
0.0000000000
10
2.2957494344
20
-22.1686118529
30
0.0000000000
10
2.3039435917
20
-22.1692620255
30
0.0000000000
10
2.3077350269
20
-22.1696065528
30
0.0000000000
11
2.1345299462
21
-22.1643601773
31
0.0000000000
11
2.1553640658
21
-22.1644172637
31
0.0000000000
11
2.1760666401
21
-22.1645889604
31
0.0000000000
11
2.1962819840
21
-22.1648728540
31
0.0000000000
11
2.2157739435
21
-22.1652649115
31
0.0000000000
11
2.2344799947
21
-22.1657644269
31
0.0000000000
11
2.2520901727
21
-22.1663642355
31
0.0000000000
11
2.2683272372
21
-22.1670539331
31
0.0000000000
11
2.2831417787
21
-22.1678309094
31
0.0000000000
11
2.2963509581
21
-22.1686867161
31
0.0000000000
11
2.3077350269
21
-22.1696065528
31
0.0000000000
0
SPLINE
5
2C2
100
AcDbEntity
8
0
100
AcDbSpline
62
7
6
CONTINUOUS
70
0
71
3
72
23
73
19
74
17
42
0.0000001000
43
0.0000001000
44
0.0000000001
12
-0.0000237134
22
0.3106548039
32
0.0000000000
13
-0.3106854503
23
0.0046952346
33
0.0000000000
40
0.0000000000
40
0.0000000000
40
0.0000000000
40
0.0000000000
40
0.0646779465
40
0.1291321245
40
0.1933747557
40
0.2574136034
40
0.3212532596
40
0.3848964236
40
0.4483447611
40
0.5115999474
40
0.5746643301
40
0.6375413151
40
0.7002357652
40
0.7627541603
40
0.8251044741
40
0.8872962917
40
0.9493405948
40
1.0000000000
40
1.0000000000
40
1.0000000000
40
1.0000000000
10
-4.6862140141
20
-0.3362063987
30
0.0000000000
10
-4.6862145254
20
-0.3295088938
30
0.0000000000
10
-4.6868900074
20
-0.3161272901
30
0.0000000000
10
-4.6899090220
20
-0.2962994635
30
0.0000000000
10
-4.6948827187
20
-0.2769361001
30
0.0000000000
10
-4.7017434641
20
-0.2582269157
30
0.0000000000
10
-4.7104058290
20
-0.2403498391
30
0.0000000000
10
-4.7207675874
20
-0.2234732067
30
0.0000000000
10
-4.7327110919
20
-0.2077527258
30
0.0000000000
10
-4.7461049372
20
-0.1933301837
30
0.0000000000
10
-4.7608058274
20
-0.1803321042
30
0.0000000000
10
-4.7766605444
20
-0.1688688669
30
0.0000000000
10
-4.7935079105
20
-0.1590341355
30
0.0000000000
10
-4.8111807824
20
-0.1509046016
30
0.0000000000
10
-4.8295076037
20
-0.1445399761
30
0.0000000000
10
-4.8483150860
20
-0.1399831903
30
0.0000000000
10
-4.8662710525
20
-0.1374252653
30
0.0000000000
10
-4.8779408096
20
-0.1367914900
30
0.0000000000
10
-4.8831871897
20
-0.1367122041
30
0.0000000000
11
-4.6862140141
21
-0.3362063987
31
0.0000000000
11
-4.6872274806
21
-0.3161394598
31
0.0000000000
11
-4.6902413730
21
-0.2963445871
31
0.0000000000
11
-4.6952066357
21
-0.2770148361
31
0.0000000000
11
-4.7020558336
21
-0.2583370750
31
0.0000000000
11
-4.7107037303
21
-0.2404897808
31
0.0000000000
11
-4.7210483082
21
-0.2236409140
31
0.0000000000
11
-4.7329721199
21
-0.2079460823
31
0.0000000000
11
-4.7463439816
21
-0.1935468966
31
0.0000000000
11
-4.7610208421
21
-0.1805697251
31
0.0000000000
11
-4.7768497265
21
-0.1691248148
31
0.0000000000
11
-4.7936697351
21
-0.1593057096
31
0.0000000000
11
-4.8113139714
21
-0.1511889973
31
0.0000000000
11
-4.8296113143
21
-0.1448343259
31
0.0000000000
11
-4.8483881462
21
-0.1402845775
31
0.0000000000
11
-4.8674698540
21
-0.1375662298
31
0.0000000000
11
-4.8831871897
21
-0.1367122041
31
0.0000000000
0
SPLINE
5
2C3
100
AcDbEntity
8
0
100
AcDbSpline
62
7
6
CONTINUOUS
70
0
71
3
72
21
73
17
74
15
42
0.0000001000
43
0.0000001000
44
0.0000000001
12
0.0000000000
22
0.3924734050
32
0.0000000000
13
0.3924734050
23
-0.0000000000
33
0.0000000000
40
0.0000000000
40
0.0000000000
40
0.0000000000
40
0.0000000000
40
0.0711967107
40
0.1427877147
40
0.2142531260
40
0.2854139324
40
0.3569863851
40
0.4286623395
40
0.4999736954
40
0.5712831011
40
0.6429605067
40
0.7145463342
40
0.7857225949
40
0.8571907506
40
0.9287895850
40
1.0000000000
40
1.0000000000
40
1.0000000000
40
1.0000000000
10
-11.1000000000
20
-0.3499714434
30
0.0000000000
10
-11.1000000000
20
-0.3406571716
30
0.0000000000
10
-11.0989538020
20
-0.3219602590
30
0.0000000000
10
-11.0942550614
20
-0.2942701554
30
0.0000000000
10
-11.0864820152
20
-0.2672827157
30
0.0000000000
10
-11.0757418100
20
-0.2413372552
30
0.0000000000
10
-11.0621524271
20
-0.2167312084
30
0.0000000000
10
-11.0458745402
20
-0.1937905076
30
0.0000000000
10
-11.0271514841
20
-0.1728449725
30
0.0000000000
10
-11.0062041793
20
-0.1541236236
30
0.0000000000
10
-10.9832608373
20
-0.1378465628
30
0.0000000000
10
-10.9586503211
20
-0.1242570591
30
0.0000000000
10
-10.9327002673
20
-0.1135171315
30
0.0000000000
10
-10.9057091460
20
-0.1057446561
30
0.0000000000
10
-10.8780157912
20
-0.1010461964
30
0.0000000000
10
-10.8593160632
20
-0.1000000000
30
0.0000000000
10
-10.8499999985
20
-0.1000000000
30
0.0000000000
11
-11.1000000000
21
-0.3499714434
31
0.0000000000
11
-11.0984382537
21
-0.3220723057
31
0.0000000000
11
-11.0937380107
21
-0.2943706653
31
0.0000000000
11
-11.0859748101
21
-0.2674181449
31
0.0000000000
11
-11.0752927506
21
-0.2416129666
31
0.0000000000
11
-11.0617124883
21
-0.2170235269
31
0.0000000000
11
-11.0454335722
21
-0.1940813222
31
0.0000000000
11
-11.0267812515
21
-0.1732148784
31
0.0000000000
11
-11.0059137772
21
-0.1545648592
31
0.0000000000
11
-10.9829698559
21
-0.1382873782
31
0.0000000000
11
-10.9583748448
21
-0.1247063461
31
0.0000000000
11
-10.9325633075
21
-0.1140237904
31
0.0000000000
11
-10.9056093249
21
-0.1062617749
31
0.0000000000
11
-10.8779045195
21
-0.1015618144
31
0.0000000000
11
-10.8499999985
21
-0.1000000000
31
0.0000000000
0
SPLINE
5
2C4
100
AcDbEntity
8
0
100
AcDbSpline
62
7
6
CONTINUOUS
70
0
71
3
72
23
73
19
74
17
42
0.0000001000
43
0.0000001000
44
0.0000000001
12
0.0000237133
22
0.3106537311
32
0.0000000000
13
0.3106843700
23
0.0046968782
33
0.0000000000
40
0.0000000000
40
0.0000000000
40
0.0000000000
40
0.0000000000
40
0.0646781699
40
0.1291325704
40
0.1933754235
40
0.2574144924
40
0.3212543690
40
0.3848977528
40
0.4483463095
40
0.5116017142
40
0.5746663147
40
0.6375435167
40
0.7002381834
40
0.7627567944
40
0.8251073235
40
0.8872993559
40
0.9493438733
40
1.0000000000
40
1.0000000000
40
1.0000000000
40
1.0000000000
10
4.6862140141
20
-0.3362063987
30
0.0000000000
10
4.6862145254
20
-0.3295088938
30
0.0000000000
10
4.6868900074
20
-0.3161272901
30
0.0000000000
10
4.6899090220
20
-0.2962994635
30
0.0000000000
10
4.6948827187
20
-0.2769361001
30
0.0000000000
10
4.7017434641
20
-0.2582269157
30
0.0000000000
10
4.7104058290
20
-0.2403498391
30
0.0000000000
10
4.7207675874
20
-0.2234732067
30
0.0000000000
10
4.7327110919
20
-0.2077527258
30
0.0000000000
10
4.7461049372
20
-0.1933301837
30
0.0000000000
10
4.7608058274
20
-0.1803321042
30
0.0000000000
10
4.7766605444
20
-0.1688688669
30
0.0000000000
10
4.7935079105
20
-0.1590341355
30
0.0000000000
10
4.8111807824
20
-0.1509046016
30
0.0000000000
10
4.8295076037
20
-0.1445399761
30
0.0000000000
10
4.8483150860
20
-0.1399831903
30
0.0000000000
10
4.8662706980
20
-0.1374253158
30
0.0000000000
10
4.8779400945
20
-0.1367915289
30
0.0000000000
10
4.8831861167
20
-0.1367122203
30
0.0000000000
11
4.6862140141
21
-0.3362063987
31
0.0000000000
11
4.6872274806
21
-0.3161394598
31
0.0000000000
11
4.6902413730
21
-0.2963445871
31
0.0000000000
11
4.6952066357
21
-0.2770148361
31
0.0000000000
11
4.7020558336
21
-0.2583370750
31
0.0000000000
11
4.7107037303
21
-0.2404897808
31
0.0000000000
11
4.7210483082
21
-0.2236409140
31
0.0000000000
11
4.7329721199
21
-0.2079460823
31
0.0000000000
11
4.7463439816
21
-0.1935468966
31
0.0000000000
11
4.7610208421
21
-0.1805697251
31
0.0000000000
11
4.7768497265
21
-0.1691248148
31
0.0000000000
11
4.7936697351
21
-0.1593057096
31
0.0000000000
11
4.8113139714
21
-0.1511889973
31
0.0000000000
11
4.8296113143
21
-0.1448343259
31
0.0000000000
11
4.8483881462
21
-0.1402845775
31
0.0000000000
11
4.8674698540
21
-0.1375662298
31
0.0000000000
11
4.8831861167
21
-0.1367122203
31
0.0000000000
0
SPLINE
5
2C5
100
AcDbEntity
8
0
100
AcDbSpline
62
7
6
CONTINUOUS
70
0
71
3
72
21
73
17
74
15
42
0.0000001000
43
0.0000001000
44
0.0000000001
12
0.3924734050
22
0.0000000000
32
0.0000000000
13
-0.0000000000
23
-0.3924734050
33
0.0000000000
40
0.0000000000
40
0.0000000000
40
0.0000000000
40
0.0000000000
40
0.0712143132
40
0.1428215184
40
0.2143011328
40
0.2854739577
40
0.3570556854
40
0.4287372481
40
0.5000501903
40
0.5713580133
40
0.6430298220
40
0.7146063779
40
0.7857706105
40
0.8572245482
40
0.9288071775
40
1.0000000000
40
1.0000000000
40
1.0000000000
40
1.0000000000
10
10.8499999985
20
-0.1000000000
30
0.0000000000
10
10.8593165732
20
-0.1000000000
30
0.0000000000
10
10.8780179092
20
-0.1010463438
30
0.0000000000
10
10.9057142838
20
-0.1057456776
30
0.0000000000
10
10.9327072711
20
-0.1135195177
30
0.0000000000
10
10.9586574212
20
-0.1242605377
30
0.0000000000
10
10.9832671535
20
-0.1378505293
30
0.0000000000
10
11.0062104186
20
-0.1541285262
30
0.0000000000
10
11.0271574836
20
-0.1728509716
30
0.0000000000
10
11.0458794448
20
-0.1937967485
30
0.0000000000
10
11.0621563965
20
-0.2167375285
30
0.0000000000
10
11.0757452913
20
-0.2413443602
30
0.0000000000
10
11.0864844025
20
-0.2672897220
30
0.0000000000
10
11.0942560827
20
-0.2942752923
30
0.0000000000
10
11.0989539492
20
-0.3219623749
30
0.0000000000
10
11.1000000000
20
-0.3406576802
30
0.0000000000
10
11.1000000000
20
-0.3499714434
30
0.0000000000
11
10.8499999985
21
-0.1000000000
31
0.0000000000
11
10.8779060422
21
-0.1015619854
31
0.0000000000
11
10.9056140270
21
-0.1062628475
31
0.0000000000
11
10.9325721115
21
-0.1140268703
31
0.0000000000
11
10.9583820332
21
-0.1247098035
31
0.0000000000
11
10.9829752461
21
-0.1382907632
31
0.0000000000
11
11.0059200304
21
-0.1545698475
31
0.0000000000
11
11.0267878909
21
-0.1732215175
31
0.0000000000
11
11.0454385617
21
-0.1940875763
31
0.0000000000
11
11.0617158768
21
-0.2170289220
31
0.0000000000
11
11.0752962115
21
-0.2416201614
31
0.0000000000
11
11.0859778914
21
-0.2674269521
31
0.0000000000
11
11.0937390829
21
-0.2943753650
31
0.0000000000
11
11.0984384243
21
-0.3220738245
31
0.0000000000
11
11.1000000000
21
-0.3499714434
31
0.0000000000
0
SPLINE
5
2C6
100
AcDbEntity
8
0
100
AcDbSpline
62
7
6
CONTINUOUS
70
0
71
3
72
10
73
6
74
4
42
0.0000001000
43
0.0000001000
44
0.0000000001
12
0.0627158223
22
-0.0078302189
32
0.0000000000
13
0.0632027428
23
0.0000000000
33
0.0000000000
40
0.0000000000
40
0.0000000000
40
0.0000000000
40
0.0000000000
40
0.3371715920
40
0.6698236531
40
1.0000000000
40
1.0000000000
40
1.0000000000
40
1.0000000000
10
-4.2492776800
20
-1.2822903819
30
0.0000000000
10
-4.2422290155
20
-1.2831704244
30
0.0000000000
10
-4.2281877849
20
-1.2846263273
30
0.0000000000
10
-4.2071549864
20
-1.2859268398
30
0.0000000000
10
-4.1931890356
20
-1.2862139802
30
0.0000000000
10
-4.1862330187
20
-1.2862139802
30
0.0000000000
11
-4.2492776800
21
-1.2822903819
31
0.0000000000
11
-4.2280811258
21
-1.2844879740
31
0.0000000000
11
-4.2070966652
21
-1.2857852648
31
0.0000000000
11
-4.1862330187
21
-1.2862139802
31
0.0000000000
0
SPLINE
5
2C7
100
AcDbEntity
8
0
100
AcDbSpline
62
7
6
CONTINUOUS
70
0
71
3
72
21
73
17
74
15
42
0.0000001000
43
0.0000001000
44
0.0000000001
12
-0.6541205404
22
0.0816684977
32
0.0000000000
13
-0.0816684977
23
0.6541205404
33
0.0000000000
40
0.0000000000
40
0.0000000000
40
0.0000000000
40
0.0000000000
40
0.0726067848
40
0.1446774765
40
0.2163246717
40
0.2875828558
40
0.3585629515
40
0.4293282611
40
0.5000000000
40
0.5706717389
40
0.6414370485
40
0.7124171442
40
0.7836753283
40
0.8553225235
40
0.9273932152
40
1.0000000000
40
1.0000000000
40
1.0000000000
40
1.0000000000
10
-4.2492776800
20
-1.2822903819
30
0.0000000000
10
-4.2651088765
20
-1.2803138196
30
0.0000000000
10
-4.2964866596
20
-1.2748613505
30
0.0000000000
10
-4.3423950792
20
-1.2622772113
30
0.0000000000
10
-4.3866301698
20
-1.2455024799
30
0.0000000000
10
-4.4288681533
20
-1.2247355433
30
0.0000000000
10
-4.4688021548
20
-1.2001928280
30
0.0000000000
10
-4.5061571384
20
-1.1720938625
30
0.0000000000
10
-4.5406698825
20
-1.1406698825
30
0.0000000000
10
-4.5720938625
20
-1.1061571384
30
0.0000000000
10
-4.6001928280
20
-1.0688021548
30
0.0000000000
10
-4.6247355433
20
-1.0288681533
30
0.0000000000
10
-4.6455024799
20
-0.9866301698
30
0.0000000000
10
-4.6622772113
20
-0.9423950792
30
0.0000000000
10
-4.6748613505
20
-0.8964866596
30
0.0000000000
10
-4.6803138196
20
-0.8651088765
30
0.0000000000
10
-4.6822903819
20
-0.8492776800
30
0.0000000000
11
-4.2492776800
21
-1.2822903819
31
0.0000000000
11
-4.2964330937
21
-1.2740947014
31
0.0000000000
11
-4.3422517511
21
-1.2615348687
31
0.0000000000
11
-4.3864124989
21
-1.2447873598
31
0.0000000000
11
-4.4285661175
21
-1.2240613831
31
0.0000000000
11
-4.4684292726
21
-1.1995617047
31
0.0000000000
11
-4.5057082070
21
-1.1715196510
31
0.0000000000
11
-4.5401553156
21
-1.1401553156
31
0.0000000000
11
-4.5715196510
21
-1.1057082070
31
0.0000000000
11
-4.5995617047
21
-1.0684292726
31
0.0000000000
11
-4.6240613831
21
-1.0285661175
31
0.0000000000
11
-4.6447873598
21
-0.9864124989
31
0.0000000000
11
-4.6615348687
21
-0.9422517511
31
0.0000000000
11
-4.6740947014
21
-0.8964330937
31
0.0000000000
11
-4.6822903819
21
-0.8492776800
31
0.0000000000
0
SPLINE
5
2C8
100
AcDbEntity
8
0
100
AcDbSpline
62
7
6
CONTINUOUS
70
0
71
3
72
21
73
17
74
15
42
0.0000001000
43
0.0000001000
44
0.0000000001
12
0.6541205404
22
0.0816684977
32
0.0000000000
13
0.0816684977
23
0.6541205404
33
0.0000000000
40
0.0000000000
40
0.0000000000
40
0.0000000000
40
0.0000000000
40
0.0726067848
40
0.1446774765
40
0.2163246717
40
0.2875828558
40
0.3585629515
40
0.4293282611
40
0.5000000000
40
0.5706717389
40
0.6414370485
40
0.7124171442
40
0.7836753283
40
0.8553225235
40
0.9273932152
40
1.0000000000
40
1.0000000000
40
1.0000000000
40
1.0000000000
10
4.2492776800
20
-1.2822903819
30
0.0000000000
10
4.2651088765
20
-1.2803138196
30
0.0000000000
10
4.2964866596
20
-1.2748613505
30
0.0000000000
10
4.3423950792
20
-1.2622772113
30
0.0000000000
10
4.3866301698
20
-1.2455024799
30
0.0000000000
10
4.4288681533
20
-1.2247355433
30
0.0000000000
10
4.4688021548
20
-1.2001928280
30
0.0000000000
10
4.5061571384
20
-1.1720938625
30
0.0000000000
10
4.5406698825
20
-1.1406698825
30
0.0000000000
10
4.5720938625
20
-1.1061571384
30
0.0000000000
10
4.6001928280
20
-1.0688021548
30
0.0000000000
10
4.6247355433
20
-1.0288681533
30
0.0000000000
10
4.6455024799
20
-0.9866301698
30
0.0000000000
10
4.6622772113
20
-0.9423950792
30
0.0000000000
10
4.6748613505
20
-0.8964866596
30
0.0000000000
10
4.6803138196
20
-0.8651088765
30
0.0000000000
10
4.6822903819
20
-0.8492776800
30
0.0000000000
11
4.2492776800
21
-1.2822903819
31
0.0000000000
11
4.2964330937
21
-1.2740947014
31
0.0000000000
11
4.3422517511
21
-1.2615348687
31
0.0000000000
11
4.3864124989
21
-1.2447873598
31
0.0000000000
11
4.4285661175
21
-1.2240613831
31
0.0000000000
11
4.4684292726
21
-1.1995617047
31
0.0000000000
11
4.5057082070
21
-1.1715196510
31
0.0000000000
11
4.5401553156
21
-1.1401553156
31
0.0000000000
11
4.5715196510
21
-1.1057082070
31
0.0000000000
11
4.5995617047
21
-1.0684292726
31
0.0000000000
11
4.6240613831
21
-1.0285661175
31
0.0000000000
11
4.6447873598
21
-0.9864124989
31
0.0000000000
11
4.6615348687
21
-0.9422517511
31
0.0000000000
11
4.6740947014
21
-0.8964330937
31
0.0000000000
11
4.6822903819
21
-0.8492776800
31
0.0000000000
0
SPLINE
5
2C9
100
AcDbEntity
8
0
100
AcDbSpline
62
7
6
CONTINUOUS
70
0
71
3
72
10
73
6
74
4
42
0.0000001000
43
0.0000001000
44
0.0000000001
12
-0.0627158223
22
-0.0078302189
32
0.0000000000
13
-0.0632027428
23
0.0000000000
33
0.0000000000
40
0.0000000000
40
0.0000000000
40
0.0000000000
40
0.0000000000
40
0.3371715920
40
0.6698236531
40
1.0000000000
40
1.0000000000
40
1.0000000000
40
1.0000000000
10
4.2492776800
20
-1.2822903819
30
0.0000000000
10
4.2422290155
20
-1.2831704244
30
0.0000000000
10
4.2281877849
20
-1.2846263273
30
0.0000000000
10
4.2071549864
20
-1.2859268398
30
0.0000000000
10
4.1931890356
20
-1.2862139802
30
0.0000000000
10
4.1862330187
20
-1.2862139802
30
0.0000000000
11
4.2492776800
21
-1.2822903819
31
0.0000000000
11
4.2280811258
21
-1.2844879740
31
0.0000000000
11
4.2070966652
21
-1.2857852648
31
0.0000000000
11
4.1862330187
21
-1.2862139802
31
0.0000000000
0
SPLINE
5
2CA
100
AcDbEntity
8
0
100
AcDbSpline
62
7
6
CONTINUOUS
70
0
71
3
72
24
73
20
74
18
42
0.0000001000
43
0.0000001000
44
0.0000000001
12
-0.0016782543
22
-0.7830554684
32
0.0000000000
13
-0.7830572668
23
0.0000000000
33
0.0000000000
40
0.0000000000
40
0.0000000000
40
0.0000000000
40
0.0000000000
40
0.0587062448
40
0.1174447231
40
0.1761710925
40
0.2349577819
40
0.2937131995
40
0.3525475408
40
0.4113338880
40
0.4702085367
40
0.5290230439
40
0.5879244001
40
0.6467608799
40
0.7056716357
40
0.7645208808
40
0.8234228981
40
0.8822751668
40
0.9411524566
40
1.0000000000
40
1.0000000000
40
1.0000000000
40
1.0000000000
10
11.0815732928
20
-21.6977042895
30
0.0000000000
10
11.0815404515
20
-21.7130277048
30
0.0000000000
10
11.0800489047
20
-21.7436989521
30
0.0000000000
10
11.0735542056
20
-21.7892856384
30
0.0000000000
10
11.0628556339
20
-21.8340981643
30
0.0000000000
10
11.0480490725
20
-21.8777295883
30
0.0000000000
10
11.0292551101
20
-21.9198285554
30
0.0000000000
10
11.0066475132
20
-21.9600084441
30
0.0000000000
10
10.9804066432
20
-21.9979529551
30
0.0000000000
10
10.9507790615
20
-22.0333097666
30
0.0000000000
10
10.9179974309
20
-22.0658059116
30
0.0000000000
10
10.8823708466
20
-22.0951396542
30
0.0000000000
10
10.8441771994
20
-22.1210867991
30
0.0000000000
10
10.8037734890
20
-22.1434093928
30
0.0000000000
10
10.7614762469
20
-22.1619366584
30
0.0000000000
10
10.7176731618
20
-22.1765029486
30
0.0000000000
10
10.6727115756
20
-22.1869956029
30
0.0000000000
10
10.6269960244
20
-22.1933244288
30
0.0000000000
10
10.5962489827
20
-22.1947348166
30
0.0000000000
10
10.5808886505
20
-22.1947348166
30
0.0000000000
11
11.0815732928
21
-21.6977042895
31
0.0000000000
11
11.0793401650
21
-21.7436203691
31
0.0000000000
11
11.0728536793
21
-21.7891562891
31
0.0000000000
11
11.0621755000
21
-21.8338854611
31
0.0000000000
11
11.0473832756
21
-21.8774774201
31
0.0000000000
11
11.0286287303
21
-21.9194902982
31
0.0000000000
11
11.0060380907
21
-21.9596421173
31
0.0000000000
11
10.9798556248
21
-21.9975040057
31
0.0000000000
11
10.9502461419
21
-22.0328408612
31
0.0000000000
11
10.9175388568
21
-22.0652647451
31
0.0000000000
11
10.8819327810
21
-22.0945828444
31
0.0000000000
11
10.8438234530
21
-22.1204737501
31
0.0000000000
11
10.8034460382
21
-22.1427826493
31
0.0000000000
11
10.7612357677
21
-22.1612724872
31
0.0000000000
11
10.7174687364
21
-22.1758271534
31
0.0000000000
11
10.6725900147
21
-22.1863009115
31
0.0000000000
11
10.6269212252
21
-22.1926228721
31
0.0000000000
11
10.5808886505
21
-22.1947348166
31
0.0000000000
0
SPLINE
5
2CB
100
AcDbEntity
8
0
100
AcDbSpline
62
7
6
CONTINUOUS
70
0
71
3
72
24
73
20
74
18
42
0.0000001000
43
0.0000001000
44
0.0000000001
12
-0.7830572668
22
0.0000000000
32
0.0000000000
13
-0.0016782543
23
0.7830554684
33
0.0000000000
40
0.0000000000
40
0.0000000000
40
0.0000000000
40
0.0000000000
40
0.0588475434
40
0.1177248332
40
0.1765771019
40
0.2354791192
40
0.2943283643
40
0.3532391201
40
0.4120755999
40
0.4709769561
40
0.5297914633
40
0.5886661120
40
0.6474524592
40
0.7062868005
40
0.7650422181
40
0.8238289075
40
0.8825552769
40
0.9412937552
40
1.0000000000
40
1.0000000000
40
1.0000000000
40
1.0000000000
10
-10.5808886505
20
-22.1947348166
30
0.0000000000
10
-10.5962489827
20
-22.1947348166
30
0.0000000000
10
-10.6269960244
20
-22.1933244288
30
0.0000000000
10
-10.6727115756
20
-22.1869956029
30
0.0000000000
10
-10.7176731618
20
-22.1765029486
30
0.0000000000
10
-10.7614762469
20
-22.1619366584
30
0.0000000000
10
-10.8037734890
20
-22.1434093928
30
0.0000000000
10
-10.8441771994
20
-22.1210867991
30
0.0000000000
10
-10.8823708466
20
-22.0951396542
30
0.0000000000
10
-10.9179974309
20
-22.0658059116
30
0.0000000000
10
-10.9507790615
20
-22.0333097666
30
0.0000000000
10
-10.9804066432
20
-21.9979529551
30
0.0000000000
10
-11.0066475132
20
-21.9600084441
30
0.0000000000
10
-11.0292551101
20
-21.9198285554
30
0.0000000000
10
-11.0480490725
20
-21.8777295883
30
0.0000000000
10
-11.0628556339
20
-21.8340981643
30
0.0000000000
10
-11.0735542056
20
-21.7892856384
30
0.0000000000
10
-11.0800489047
20
-21.7436989521
30
0.0000000000
10
-11.0815404515
20
-21.7130277048
30
0.0000000000
10
-11.0815732928
20
-21.6977042895
30
0.0000000000
11
-10.5808886505
21
-22.1947348166
31
0.0000000000
11
-10.6269212252
21
-22.1926228721
31
0.0000000000
11
-10.6725900147
21
-22.1863009115
31
0.0000000000
11
-10.7174687364
21
-22.1758271534
31
0.0000000000
11
-10.7612357677
21
-22.1612724872
31
0.0000000000
11
-10.8034460382
21
-22.1427826493
31
0.0000000000
11
-10.8438234530
21
-22.1204737501
31
0.0000000000
11
-10.8819327810
21
-22.0945828444
31
0.0000000000
11
-10.9175388568
21
-22.0652647451
31
0.0000000000
11
-10.9502461419
21
-22.0328408612
31
0.0000000000
11
-10.9798556248
21
-21.9975040057
31
0.0000000000
11
-11.0060380907
21
-21.9596421173
31
0.0000000000
11
-11.0286287303
21
-21.9194902982
31
0.0000000000
11
-11.0473832756
21
-21.8774774201
31
0.0000000000
11
-11.0621755000
21
-21.8338854611
31
0.0000000000
11
-11.0728536793
21
-21.7891562891
31
0.0000000000
11
-11.0793401650
21
-21.7436203691
31
0.0000000000
11
-11.0815732928
21
-21.6977042895
31
0.0000000000
0
SPLINE
5
2CC
100
AcDbEntity
8
0
100
AcDbSpline
62
7
6
CONTINUOUS
70
0
71
3
72
10
73
6
74
4
42
0.0000001000
43
0.0000001000
44
0.0000000001
12
-0.0078302189
22
0.0627158223
32
0.0000000000
13
-0.0000000000
23
0.0632027428
33
0.0000000000
40
0.0000000000
40
0.0000000000
40
0.0000000000
40
0.0000000000
40
0.3371715920
40
0.6698236531
40
1.0000000000
40
1.0000000000
40
1.0000000000
40
1.0000000000
10
-4.6822903819
20
-0.8492776800
30
0.0000000000
10
-4.6831704244
20
-0.8422290155
30
0.0000000000
10
-4.6846263273
20
-0.8281877849
30
0.0000000000
10
-4.6859268398
20
-0.8071549864
30
0.0000000000
10
-4.6862139802
20
-0.7931890356
30
0.0000000000
10
-4.6862139802
20
-0.7862330187
30
0.0000000000
11
-4.6822903819
21
-0.8492776800
31
0.0000000000
11
-4.6844879740
21
-0.8280811258
31
0.0000000000
11
-4.6857852648
21
-0.8070966652
31
0.0000000000
11
-4.6862139802
21
-0.7862330187
31
0.0000000000
0
SPLINE
5
2CD
100
AcDbEntity
8
0
100
AcDbSpline
62
7
6
CONTINUOUS
70
0
71
3
72
10
73
6
74
4
42
0.0000001000
43
0.0000001000
44
0.0000000001
12
0.0078302189
22
0.0627158223
32
0.0000000000
13
0.0000000000
23
0.0632027428
33
0.0000000000
40
0.0000000000
40
0.0000000000
40
0.0000000000
40
0.0000000000
40
0.3371715920
40
0.6698236531
40
1.0000000000
40
1.0000000000
40
1.0000000000
40
1.0000000000
10
4.6822903819
20
-0.8492776800
30
0.0000000000
10
4.6831704244
20
-0.8422290155
30
0.0000000000
10
4.6846263273
20
-0.8281877849
30
0.0000000000
10
4.6859268398
20
-0.8071549864
30
0.0000000000
10
4.6862139802
20
-0.7931890356
30
0.0000000000
10
4.6862139802
20
-0.7862330187
30
0.0000000000
11
4.6822903819
21
-0.8492776800
31
0.0000000000
11
4.6844879740
21
-0.8280811258
31
0.0000000000
11
4.6857852648
21
-0.8070966652
31
0.0000000000
11
4.6862139802
21
-0.7862330187
31
0.0000000000
0
SPLINE
5
2CE
100
AcDbEntity
8
0
100
AcDbSpline
62
7
6
CONTINUOUS
70
0
71
3
72
10
73
6
74
4
42
0.0000001000
43
0.0000001000
44
0.0000000001
12
0.0000000678
22
-0.0008878840
32
0.0000000000
13
-0.0000000000
23
-0.0008878840
33
0.0000000000
40
0.0000000000
40
0.0000000000
40
0.0000000000
40
0.0000000000
40
0.3333222599
40
0.6666549596
40
1.0000000000
40
1.0000000000
40
1.0000000000
40
1.0000000000
10
-4.6862140141
20
-0.3362063987
30
0.0000000000
10
-4.6862140066
20
-0.3363050492
30
0.0000000000
10
-4.6862139940
20
-0.3365023533
30
0.0000000000
10
-4.6862139828
20
-0.3367983146
30
0.0000000000
10
-4.6862139802
20
-0.3369956255
30
0.0000000000
10
-4.6862139802
20
-0.3370942827
30
0.0000000000
11
-4.6862140141
21
-0.3362063987
31
0.0000000000
11
-4.6862139953
21
-0.3365023502
31
0.0000000000
11
-4.6862139840
21
-0.3367983110
31
0.0000000000
11
-4.6862139802
21
-0.3370942827
31
0.0000000000
0
SPLINE
5
2CF
100
AcDbEntity
8
0
100
AcDbSpline
62
7
6
CONTINUOUS
70
0
71
3
72
10
73
6
74
4
42
0.0000001000
43
0.0000001000
44
0.0000000001
12
-0.0000000678
22
-0.0008878840
32
0.0000000000
13
0.0000000000
23
-0.0008878840
33
0.0000000000
40
0.0000000000
40
0.0000000000
40
0.0000000000
40
0.0000000000
40
0.3333222606
40
0.6666549610
40
1.0000000000
40
1.0000000000
40
1.0000000000
40
1.0000000000
10
4.6862140141
20
-0.3362063987
30
0.0000000000
10
4.6862140066
20
-0.3363050492
30
0.0000000000
10
4.6862139940
20
-0.3365023533
30
0.0000000000
10
4.6862139828
20
-0.3367983146
30
0.0000000000
10
4.6862139802
20
-0.3369956255
30
0.0000000000
10
4.6862139802
20
-0.3370942827
30
0.0000000000
11
4.6862140141
21
-0.3362063987
31
0.0000000000
11
4.6862139953
21
-0.3365023502
31
0.0000000000
11
4.6862139840
21
-0.3367983110
31
0.0000000000
11
4.6862139802
21
-0.3370942827
31
0.0000000000
0
SPLINE
5
2D0
100
AcDbEntity
8
0
100
AcDbSpline
62
9
6
CONTINUOUS
70
0
71
3
72
20
73
16
74
14
42
0.0000001000
43
0.0000001000
44
0.0000000001
12
0.1967271167
22
-0.0359965190
32
0.0000000000
13
0.1999932694
23
-0.0000027867
33
0.0000000000
40
0.0000000000
40
0.0000000000
40
0.0000000000
40
0.0000000000
40
0.0082587083
40
0.0308177289
40
0.0673528524
40
0.1173373942
40
0.1800505995
40
0.2545881218
40
0.3398750839
40
0.4346815861
40
0.5376404450
40
0.6472669113
40
0.7619800817
40
0.8801256973
40
1.0000000000
40
1.0000000000
40
1.0000000000
40
1.0000000000
10
4.6980074440
20
-0.7980264825
30
0.0000000000
10
4.6985490146
20
-0.7981255774
30
0.0000000000
10
4.7006231642
20
-0.7979812022
30
0.0000000000
10
4.7050950132
20
-0.7981698262
30
0.0000000000
10
4.7123765129
20
-0.7981181972
30
0.0000000000
10
4.7223207378
20
-0.7981884111
30
0.0000000000
10
4.7348042281
20
-0.7982064907
30
0.0000000000
10
4.7496389900
20
-0.7982408874
30
0.0000000000
10
4.7666139797
20
-0.7982660387
30
0.0000000000
10
4.7854834279
20
-0.7982899579
30
0.0000000000
10
4.8059755349
20
-0.7983095476
30
0.0000000000
10
4.8277946897
20
-0.7983253441
30
0.0000000000
10
4.8506262702
20
-0.7983368539
30
0.0000000000
10
4.8741410167
20
-0.7983439761
30
0.0000000000
10
4.8900084774
20
-0.7983457095
30
0.0000000000
10
4.8979998286
20
-0.7983458208
30
0.0000000000
11
4.6980074440
21
-0.7980264825
31
0.0000000000
11
4.6996586864
21
-0.7980647631
31
0.0000000000
11
4.7041701809
21
-0.7981024917
31
0.0000000000
11
4.7114768679
21
-0.7981391242
31
0.0000000000
11
4.7214733785
21
-0.7981741322
31
0.0000000000
11
4.7340155544
21
-0.7982070111
31
0.0000000000
11
4.7489225265
21
-0.7982372865
31
0.0000000000
11
4.7659793231
21
-0.7982645220
31
0.0000000000
11
4.7849399705
21
-0.7982883248
31
0.0000000000
11
4.8055310396
21
-0.7983083515
31
0.0000000000
11
4.8274555892
21
-0.7983243135
31
0.0000000000
11
4.8503974482
21
-0.7983359804
31
0.0000000000
11
4.8740257750
21
-0.7983431842
31
0.0000000000
11
4.8979998286
21
-0.7983458208
31
0.0000000000
0
SPLINE
5
2D1
100
AcDbEntity
8
0
100
AcDbSpline
62
9
6
CONTINUOUS
70
0
71
3
72
21
73
17
74
15
42
0.0000001000
43
0.0000001000
44
0.0000000001
12
-0.0000597609
22
0.3924368229
32
0.0000000000
13
-0.3924368229
23
0.0000597746
33
0.0000000000
40
0.0000000000
40
0.0000000000
40
0.0000000000
40
0.0000000000
40
0.0714297709
40
0.1428605252
40
0.2142919796
40
0.2857238157
40
0.3571556959
40
0.4285872806
40
0.5000182445
40
0.5714482939
40
0.6428771806
40
0.7143047146
40
0.7857307738
40
0.8571553099
40
0.9285783510
40
1.0000000000
40
1.0000000000
40
1.0000000000
40
1.0000000000
10
11.0090840780
20
-0.3954259424
30
0.0000000000
10
11.0090826551
20
-0.3860820516
30
0.0000000000
10
11.0080299812
20
-0.3673773543
30
0.0000000000
10
11.0033214430
20
-0.3396867952
30
0.0000000000
10
10.9955425654
20
-0.3126934136
30
0.0000000000
10
10.9847911548
20
-0.2867412153
30
0.0000000000
10
10.9712023889
20
-0.2621552585
30
0.0000000000
10
10.9549471182
20
-0.2392449935
30
0.0000000000
10
10.9362297204
20
-0.2182983824
30
0.0000000000
10
10.9152855210
20
-0.1995788121
30
0.0000000000
10
10.8923778733
20
-0.1833216403
30
0.0000000000
10
10.8677947050
20
-0.1697312740
30
0.0000000000
10
10.8418454318
20
-0.1589785895
30
0.0000000000
10
10.8148550770
20
-0.1511987860
30
0.0000000000
10
10.7871676141
20
-0.1464896855
30
0.0000000000
10
10.7684649825
20
-0.1454368847
30
0.0000000000
10
10.7591221542
20
-0.1454354616
30
0.0000000000
11
11.0090840780
21
-0.3954259424
31
0.0000000000
11
11.0075084121
21
-0.3674385890
31
0.0000000000
11
11.0028097495
21
-0.3398031249
31
0.0000000000
11
10.9950471671
21
-0.3128670147
31
0.0000000000
11
10.9843182653
21
-0.2869689303
31
0.0000000000
11
10.9707579401
21
-0.2624344920
31
0.0000000000
11
10.9545366876
21
-0.2395721749
31
0.0000000000
11
10.9358584601
21
-0.2186694301
31
0.0000000000
11
10.9149581018
21
-0.1999890707
31
0.0000000000
11
10.8920983961
21
-0.1837659677
31
0.0000000000
11
10.8675667614
21
-0.1702040962
31
0.0000000000
11
10.8416716376
21
-0.1594739714
31
0.0000000000
11
10.8147386078
21
-0.1517105047
31
0.0000000000
11
10.7871063051
21
-0.1470113069
31
0.0000000000
11
10.7591221542
21
-0.1454354616
31
0.0000000000
0
SPLINE
5
2D2
100
AcDbEntity
8
0
100
AcDbSpline
62
9
6
CONTINUOUS
70
0
71
3
72
20
73
16
74
14
42
0.0000001000
43
0.0000001000
44
0.0000000001
12
-0.3139478230
22
-0.0000261730
32
0.0000000000
13
-0.0000262876
23
-0.3139478230
33
0.0000000000
40
0.0000000000
40
0.0000000000
40
0.0000000000
40
0.0000000000
40
0.0769213091
40
0.1538433949
40
0.2307662024
40
0.3076896313
40
0.3846135422
40
0.4615377652
40
0.5384621092
40
0.6153863714
40
0.6923103489
40
0.7692338507
40
0.8461567081
40
0.9230787874
40
1.0000000000
40
1.0000000000
40
1.0000000000
40
1.0000000000
10
4.8975714728
20
-0.1475790882
30
0.0000000000
10
4.8895217137
20
-0.1475797593
30
0.0000000000
10
4.8734052601
20
-0.1485555026
30
0.0000000000
10
4.8495966498
20
-0.1529209248
30
0.0000000000
10
4.8264839138
20
-0.1601245045
30
0.0000000000
10
4.8044086659
20
-0.1700612026
30
0.0000000000
10
4.7836915410
20
-0.1825861299
30
0.0000000000
10
4.7646349381
20
-0.1975166575
30
0.0000000000
10
4.7475166244
20
-0.2146350899
30
0.0000000000
10
4.7325862180
20
-0.2336918012
30
0.0000000000
10
4.7200614067
20
-0.2544090172
30
0.0000000000
10
4.7101248103
20
-0.2764843313
30
0.0000000000
10
4.7029213086
20
-0.2995971028
30
0.0000000000
10
4.6985559332
20
-0.3234057144
30
0.0000000000
10
4.6975801948
20
-0.3395221563
30
0.0000000000
10
4.6975795207
20
-0.3475719053
30
0.0000000000
11
4.8975714728
21
-0.1475790882
31
0.0000000000
11
4.8734663716
21
-0.1490391239
31
0.0000000000
11
4.8497127382
21
-0.1533939243
31
0.0000000000
11
4.8266569192
21
-0.1605799901
31
0.0000000000
11
4.8046350865
21
-0.1704925395
31
0.0000000000
11
4.7839683349
21
-0.1829870359
31
0.0000000000
11
4.7649580007
21
-0.1978812961
31
0.0000000000
11
4.7478812674
21
-0.2149581463
31
0.0000000000
11
4.7329871256
21
-0.2339685889
31
0.0000000000
11
4.7204927416
21
-0.2546354329
31
0.0000000000
11
4.7105802907
21
-0.2766573350
31
0.0000000000
11
4.7033943009
21
-0.2997131941
31
0.0000000000
11
4.6990395464
21
-0.3234668339
31
0.0000000000
11
4.6975795207
21
-0.3475719053
31
0.0000000000
0
SPLINE
5
2D3
100
AcDbEntity
8
0
100
AcDbSpline
62
9
6
CONTINUOUS
70
0
71
3
72
21
73
17
74
15
42
0.0000001000
43
0.0000001000
44
0.0000000001
12
0.0000003718
22
0.2501907000
32
0.0000000000
13
-0.0491421243
23
0.2453170153
33
0.0000000000
40
0.0000000000
40
0.0000000000
40
0.0000000000
40
0.0000000000
40
0.1113213989
40
0.2212669153
40
0.3284677329
40
0.4315894173
40
0.5293481218
40
0.6205269182
40
0.7039906809
40
0.7787003914
40
0.8437259963
40
0.8982579868
40
0.9416175499
40
0.9732649425
40
0.9928064216
40
1.0000000000
40
1.0000000000
40
1.0000000000
40
1.0000000000
10
4.8980040083
20
-0.3977684532
30
0.0000000000
10
4.8980040221
20
-0.3884845936
30
0.0000000000
10
4.8980022541
20
-0.3700316188
30
0.0000000000
10
4.8979942648
20
-0.3426384290
30
0.0000000000
10
4.8979810299
20
-0.3159290727
30
0.0000000000
10
4.8979627495
20
-0.2902360594
30
0.0000000000
10
4.8979395729
20
-0.2658792464
30
0.0000000000
10
4.8979121091
20
-0.2431618188
30
0.0000000000
10
4.8978797287
20
-0.2223667119
30
0.0000000000
10
4.8978460838
20
-0.2037523958
30
0.0000000000
10
4.8978017839
20
-0.1875518709
30
0.0000000000
10
4.8977766128
20
-0.1739630825
30
0.0000000000
10
4.8976911128
20
-0.1631654779
30
0.0000000000
10
4.8977467635
20
-0.1552678240
30
0.0000000000
10
4.8975248403
20
-0.1504222929
30
0.0000000000
10
4.8976893129
20
-0.1481673239
30
0.0000000000
10
4.8975714770
20
-0.1475790882
30
0.0000000000
11
4.8980040083
21
-0.3977684532
31
0.0000000000
11
4.8980013284
21
-0.3699168746
31
0.0000000000
11
4.8979932516
21
-0.3424095301
31
0.0000000000
11
4.8979798772
21
-0.3155888858
31
0.0000000000
11
4.8979613715
21
-0.2897888060
31
0.0000000000
11
4.8979379650
21
-0.2653304985
31
0.0000000000
11
4.8979099490
21
-0.2425184288
31
0.0000000000
11
4.8978776723
21
-0.2216365966
31
0.0000000000
11
4.8978415365
21
-0.2029449567
31
0.0000000000
11
4.8978019916
21
-0.1866762032
31
0.0000000000
11
4.8977595297
21
-0.1730328724
31
0.0000000000
11
4.8977146792
21
-0.1621848056
31
0.0000000000
11
4.8976679987
21
-0.1542670599
31
0.0000000000
11
4.8976200689
21
-0.1493781985
31
0.0000000000
11
4.8975714770
21
-0.1475790882
31
0.0000000000
0
SPLINE
5
2D4
100
AcDbEntity
8
0
100
AcDbSpline
62
9
6
CONTINUOUS
70
0
71
3
72
21
73
17
74
15
42
0.0000001000
43
0.0000001000
44
0.0000000001
12
-0.3924368229
22
-0.0000597746
32
0.0000000000
13
-0.0000597609
23
-0.3924368229
33
0.0000000000
40
0.0000000000
40
0.0000000000
40
0.0000000000
40
0.0000000000
40
0.0714216495
40
0.1428446909
40
0.2142692274
40
0.2856952868
40
0.3571228210
40
0.4285517077
40
0.4999817571
40
0.5714127210
40
0.6428443055
40
0.7142761856
40
0.7857080214
40
0.8571394755
40
0.9285702295
40
1.0000000000
40
1.0000000000
40
1.0000000000
40
1.0000000000
10
-10.7591221542
20
-0.1454354616
30
0.0000000000
10
-10.7684649826
20
-0.1454368847
30
0.0000000000
10
-10.7871676143
20
-0.1464896855
30
0.0000000000
10
-10.8148550774
20
-0.1511987861
30
0.0000000000
10
-10.8418454323
20
-0.1589785897
30
0.0000000000
10
-10.8677947055
20
-0.1697312742
30
0.0000000000
10
-10.8923778738
20
-0.1833216406
30
0.0000000000
10
-10.9152855215
20
-0.1995788125
30
0.0000000000
10
-10.9362297209
20
-0.2182983828
30
0.0000000000
10
-10.9549471186
20
-0.2392449940
30
0.0000000000
10
-10.9712023892
20
-0.2621552590
30
0.0000000000
10
-10.9847911550
20
-0.2867412157
30
0.0000000000
10
-10.9955425656
20
-0.3126934140
30
0.0000000000
10
-11.0033214430
20
-0.3396867955
30
0.0000000000
10
-11.0080299812
20
-0.3673773544
30
0.0000000000
10
-11.0090826551
20
-0.3860820517
30
0.0000000000
10
-11.0090840780
20
-0.3954259424
30
0.0000000000
11
-10.7591221542
21
-0.1454354616
31
0.0000000000
11
-10.7871063053
21
-0.1470113069
31
0.0000000000
11
-10.8147386082
21
-0.1517105048
31
0.0000000000
11
-10.8416716380
21
-0.1594739716
31
0.0000000000
11
-10.8675667619
21
-0.1702040964
31
0.0000000000
11
-10.8920983966
21
-0.1837659680
31
0.0000000000
11
-10.9149581023
21
-0.1999890712
31
0.0000000000
11
-10.9358584605
21
-0.2186694305
31
0.0000000000
11
-10.9545366880
21
-0.2395721754
31
0.0000000000
11
-10.9707579404
21
-0.2624344925
31
0.0000000000
11
-10.9843182655
21
-0.2869689308
31
0.0000000000
11
-10.9950471673
21
-0.3128670151
31
0.0000000000
11
-11.0028097495
21
-0.3398031251
31
0.0000000000
11
-11.0075084121
21
-0.3674385891
31
0.0000000000
11
-11.0090840780
21
-0.3954259424
31
0.0000000000
0
SPLINE
5
2D5
100
AcDbEntity
8
0
100
AcDbSpline
62
9
6
CONTINUOUS
70
0
71
3
72
22
73
18
74
16
42
0.0000001000
43
0.0000001000
44
0.0000000001
12
-0.0490278991
22
-0.2453398876
32
0.0000000000
13
0.0000003023
23
-0.2501907179
33
0.0000000000
40
0.0000000000
40
0.0000000000
40
0.0000000000
40
0.0000000000
40
0.0063281820
40
0.0234232381
40
0.0511013195
40
0.0890622708
40
0.1368943666
40
0.1940791664
40
0.2599961904
40
0.3339306270
40
0.4150805206
40
0.5025658989
40
0.5954374363
40
0.6926883285
40
0.7932638638
40
0.8960722356
40
1.0000000000
40
1.0000000000
40
1.0000000000
40
1.0000000000
10
-4.8975714728
20
-0.1475790882
30
0.0000000000
10
-4.8976748920
20
-0.1480966067
30
0.0000000000
10
-4.8975368431
20
-0.1500719857
30
0.0000000000
10
-4.8977296386
20
-0.1543134366
30
0.0000000000
10
-4.8976859518
20
-0.1612240815
30
0.0000000000
10
-4.8977628408
20
-0.1706824144
30
0.0000000000
10
-4.8977883231
20
-0.1826080514
30
0.0000000000
10
-4.8978303237
20
-0.1968627362
30
0.0000000000
10
-4.8978633028
20
-0.2132951231
30
0.0000000000
10
-4.8978953428
20
-0.2317258593
30
0.0000000000
10
-4.8979232829
20
-0.2519554237
30
0.0000000000
10
-4.8979476630
20
-0.2737642630
30
0.0000000000
10
-4.8979679387
20
-0.2969158884
30
0.0000000000
10
-4.8979839552
20
-0.3211591936
30
0.0000000000
10
-4.8979955121
20
-0.3462312033
30
0.0000000000
10
-4.8980024848
20
-0.3718600451
30
0.0000000000
10
-4.8980040188
20
-0.3891011992
30
0.0000000000
10
-4.8980040083
20
-0.3977684532
30
0.0000000000
11
-4.8975714728
21
-0.1475790882
31
0.0000000000
11
-4.8976168260
21
-0.1491616909
31
0.0000000000
11
-4.8976616386
21
-0.1534384805
31
0.0000000000
11
-4.8977054527
21
-0.1603631409
31
0.0000000000
11
-4.8977477641
21
-0.1698605244
31
0.0000000000
11
-4.8977881265
21
-0.1818276027
31
0.0000000000
11
-4.8978260971
21
-0.1961346584
31
0.0000000000
11
-4.8978612649
21
-0.2126264485
31
0.0000000000
11
-4.8978932466
21
-0.2311241306
31
0.0000000000
11
-4.8979216958
21
-0.2514270608
31
0.0000000000
11
-4.8979463039
21
-0.2733150765
31
0.0000000000
11
-4.8979668049
21
-0.2965506641
31
0.0000000000
11
-4.8979829758
21
-0.3208819293
31
0.0000000000
11
-4.8979946428
21
-0.3460449920
31
0.0000000000
11
-4.8980016788
21
-0.3717666913
31
0.0000000000
11
-4.8980040083
21
-0.3977684532
31
0.0000000000
0
SPLINE
5
2D6
100
AcDbEntity
8
0
100
AcDbSpline
62
9
6
CONTINUOUS
70
0
71
3
72
25
73
21
74
19
42
0.0000001000
43
0.0000001000
44
0.0000000001
12
-0.0000041312
22
-0.7851276568
32
0.0000000000
13
0.7851276565
23
0.0000195160
33
0.0000000000
40
0.0000000000
40
0.0000000000
40
0.0000000000
40
0.0000000000
40
0.0550877623
40
0.1105533662
40
0.1662414835
40
0.2219960428
40
0.2776734014
40
0.3332537418
40
0.3888247503
40
0.4444381125
40
0.5000741939
40
0.5557080590
40
0.6113148322
40
0.6668754869
40
0.7224429283
40
0.7781049406
40
0.8338402734
40
0.8895046340
40
0.9449425913
40
1.0000000000
40
1.0000000000
40
1.0000000000
40
1.0000000000
10
-4.6980074440
20
-0.7980264825
30
0.0000000000
10
-4.6980075199
20
-0.8124434577
30
0.0000000000
10
-4.6967550467
20
-0.8413918722
30
0.0000000000
10
-4.6911044031
20
-0.8845832132
30
0.0000000000
10
-4.6816714141
20
-0.9272917798
30
0.0000000000
10
-4.6685243018
20
-0.9690643645
30
0.0000000000
10
-4.6517868832
20
-1.0095018086
30
0.0000000000
10
-4.6316063270
20
-1.0482812171
30
0.0000000000
10
-4.6081302487
20
-1.0851391254
30
0.0000000000
10
-4.5815198716
20
-1.1198205910
30
0.0000000000
10
-4.5519731227
20
-1.1520595433
30
0.0000000000
10
-4.5197263530
20
-1.1815951956
30
0.0000000000
10
-4.4850409315
20
-1.2081921383
30
0.0000000000
10
-4.4481830299
20
-1.2316536178
30
0.0000000000
10
-4.4094074220
20
-1.2518194901
30
0.0000000000
10
-4.3689776835
20
-1.2685428900
30
0.0000000000
10
-4.3272171835
20
-1.2816773196
30
0.0000000000
10
-4.2845253253
20
-1.2910998595
30
0.0000000000
10
-4.2413547140
20
-1.2967433265
30
0.0000000000
10
-4.2124214832
20
-1.2979937714
30
0.0000000000
10
-4.1980124517
20
-1.2979934133
30
0.0000000000
11
-4.6980074440
21
-0.7980264825
31
0.0000000000
11
-4.6961372764
21
-0.8412369563
31
0.0000000000
11
-4.6904885237
21
-0.8844166191
31
0.0000000000
11
-4.6810587165
21
-0.9271099043
31
0.0000000000
11
-4.6679171119
21
-0.9688651482
31
0.0000000000
11
-4.6511990313
21
-1.0092558040
31
0.0000000000
11
-4.6310546863
21
-1.0479656341
31
0.0000000000
11
-4.6076156696
21
-1.0847653445
31
0.0000000000
11
-4.5810359974
21
-1.1194067938
31
0.0000000000
11
-4.5515224384
21
-1.1516095396
31
0.0000000000
11
-4.5193119012
21
-1.1811120186
31
0.0000000000
11
-4.4846666213
21
-1.2076781970
31
0.0000000000
11
-4.4478671729
21
-1.2311024901
31
0.0000000000
11
-4.4091611388
21
-1.2512321880
31
0.0000000000
11
-4.3687777976
21
-1.2679364327
31
0.0000000000
11
-4.3270344133
21
-1.2810654345
31
0.0000000000
11
-4.2843579191
21
-1.2904847781
31
0.0000000000
11
-4.2411992052
21
-1.2961263269
31
0.0000000000
11
-4.1980124517
21
-1.2979934133
31
0.0000000000
0
SPLINE
5
2D7
100
AcDbEntity
8
0
100
AcDbSpline
62
9
6
CONTINUOUS
70
0
71
3
72
25
73
21
74
19
42
0.0000001000
43
0.0000001000
44
0.0000000001
12
0.0000269693
22
-1.0993876072
32
0.0000000000
13
1.0993876074
23
-0.0000114981
33
0.0000000000
40
0.0000000000
40
0.0000000000
40
0.0000000000
40
0.0000000000
40
0.0550758604
40
0.1105538750
40
0.1662542588
40
0.2220205597
40
0.2777087334
40
0.3332986164
40
0.3888776696
40
0.4444974233
40
0.5001381129
40
0.5557746744
40
0.6113820347
40
0.6669412083
40
0.7225052336
40
0.7781620482
40
0.8338905563
40
0.8895466924
40
0.9449753469
40
1.0000000000
40
1.0000000000
40
1.0000000000
40
1.0000000000
10
-4.8979998286
20
-0.7983458208
30
0.0000000000
10
-4.8979993335
20
-0.8185290603
30
0.0000000000
10
-4.8962461605
20
-0.8590646492
30
0.0000000000
10
-4.8883367238
20
-0.9195490940
30
0.0000000000
10
-4.8751309250
20
-0.9793667076
30
0.0000000000
10
-4.8567249071
20
-1.0378738683
30
0.0000000000
10
-4.8332921894
20
-1.0945114503
30
0.0000000000
10
-4.8050387238
20
-1.1488270835
30
0.0000000000
10
-4.7721711995
20
-1.2004516908
30
0.0000000000
10
-4.7349153088
20
-1.2490281416
30
0.0000000000
10
-4.6935481558
20
-1.2941837019
30
0.0000000000
10
-4.6484007051
20
-1.3355529798
30
0.0000000000
10
-4.5998389855
20
-1.3728061464
30
0.0000000000
10
-4.5482357503
20
-1.4056675553
30
0.0000000000
10
-4.4939477489
20
-1.4339128980
30
0.0000000000
10
-4.4373440556
20
-1.4573364301
30
0.0000000000
10
-4.3788775107
20
-1.4757330225
30
0.0000000000
10
-4.3191073627
20
-1.4889303311
30
0.0000000000
10
-4.2586756726
20
-1.4968336375
30
0.0000000000
10
-4.2181769257
20
-1.4985850211
30
0.0000000000
10
-4.1980124517
20
-1.4985852320
30
0.0000000000
11
-4.8979998286
21
-0.7983458208
31
0.0000000000
11
-4.8953823150
21
-0.8588389362
31
0.0000000000
11
-4.8874744830
21
-0.9193159646
31
0.0000000000
11
-4.8742729950
21
-0.9791123406
31
0.0000000000
11
-4.8558746237
21
-1.0375953847
31
0.0000000000
11
-4.8324688469
21
-1.0941675655
31
0.0000000000
11
-4.8042659623
21
-1.1483858240
31
0.0000000000
11
-4.7714502087
21
-1.1999289462
31
0.0000000000
11
-4.7342371968
21
-1.2484493442
31
0.0000000000
11
-4.6929164061
21
-1.2935541656
31
0.0000000000
11
-4.6478195686
21
-1.3348769523
31
0.0000000000
11
-4.5993140164
21
-1.3720869320
31
0.0000000000
11
-4.5477926347
21
-1.4048961376
31
0.0000000000
11
-4.4936020847
21
-1.4330906879
31
0.0000000000
11
-4.4370634190
21
-1.4564872916
31
0.0000000000
11
-4.3786209380
21
-1.4748761478
31
0.0000000000
11
-4.3188724642
21
-1.4880689636
31
0.0000000000
11
-4.2584493371
21
-1.4959704736
31
0.0000000000
11
-4.1980124517
21
-1.4985852320
31
0.0000000000
0
SPLINE
5
2D8
100
AcDbEntity
8
0
100
AcDbSpline
62
9
6
CONTINUOUS
70
0
71
3
72
25
73
21
74
19
42
0.0000001000
43
0.0000001000
44
0.0000000001
12
0.7851276566
22
-0.0000194479
32
0.0000000000
13
-0.0000041994
23
0.7851276568
33
0.0000000000
40
0.0000000000
40
0.0000000000
40
0.0000000000
40
0.0000000000
40
0.0550627584
40
0.1105046254
40
0.1661708840
40
0.2219060105
40
0.2775668216
40
0.3331336532
40
0.3886945897
40
0.4443018057
40
0.4999358293
40
0.5555717511
40
0.6111846696
40
0.6667553942
40
0.7223363401
40
0.7780148970
40
0.8337696630
40
0.8894558842
40
0.9449175811
40
1.0000000000
40
1.0000000000
40
1.0000000000
40
1.0000000000
10
4.1980124517
20
-1.2979934133
30
0.0000000000
10
4.2124228832
20
-1.2979937702
30
0.0000000000
10
4.2413585419
20
-1.2967431004
30
0.0000000000
10
4.2845319944
20
-1.2910987569
30
0.0000000000
10
4.3272251386
20
-1.2816752150
30
0.0000000000
10
4.3689855325
20
-1.2685400213
30
0.0000000000
10
4.4094145080
20
-1.2518161667
30
0.0000000000
10
4.4481894600
20
-1.2316499043
30
0.0000000000
10
4.4850470452
20
-1.2081878707
30
0.0000000000
10
4.5197322480
20
-1.1815902608
30
0.0000000000
10
4.5519786416
20
-1.1520540261
30
0.0000000000
10
4.5815248076
20
-1.1198146980
30
0.0000000000
10
4.6081345169
20
-1.0851330143
30
0.0000000000
10
4.6316100402
20
-1.0482747912
30
0.0000000000
10
4.6517902054
20
-1.0094947289
30
0.0000000000
10
4.6685271692
20
-0.9690565236
30
0.0000000000
10
4.6816735178
20
-0.9272838329
30
0.0000000000
10
4.6911055052
20
-0.8845765510
30
0.0000000000
10
4.6967552728
20
-0.8413880484
30
0.0000000000
10
4.6980075211
20
-0.8124420593
30
0.0000000000
10
4.6980074440
20
-0.7980264825
30
0.0000000000
11
4.1980124517
21
-1.2979934133
31
0.0000000000
11
4.2412033935
21
-1.2961259639
31
0.0000000000
11
4.2843650865
21
-1.2904835217
31
0.0000000000
11
4.3270428846
21
-1.2810631722
31
0.0000000000
11
4.3687858863
21
-1.2679334938
31
0.0000000000
11
4.4091680843
21
-1.2512289526
31
0.0000000000
11
4.4478733948
21
-1.2310989010
31
0.0000000000
11
4.4846726881
21
-1.2076739522
31
0.0000000000
11
4.5193178412
21
-1.1811070372
31
0.0000000000
11
4.5515280091
21
-1.1516039705
31
0.0000000000
11
4.5810409800
21
-1.1194008559
31
0.0000000000
11
4.6076199151
21
-1.0847592802
31
0.0000000000
11
4.6310582754
21
-1.0479594158
31
0.0000000000
11
4.6512022655
21
-1.0092488651
31
0.0000000000
11
4.6679200494
21
-0.9688570684
31
0.0000000000
11
4.6810609779
21
-0.9271014415
31
0.0000000000
11
4.6904897797
21
-0.8844094589
31
0.0000000000
11
4.6961376392
21
-0.8412327729
31
0.0000000000
11
4.6980074440
21
-0.7980264825
31
0.0000000000
0
SPLINE
5
2D9
100
AcDbEntity
8
0
100
AcDbSpline
62
9
6
CONTINUOUS
70
0
71
3
72
25
73
21
74
19
42
0.0000001000
43
0.0000001000
44
0.0000000001
12
1.0993876074
22
0.0000116657
32
0.0000000000
13
0.0000268015
23
1.0993876072
33
0.0000000000
40
0.0000000000
40
0.0000000000
40
0.0000000000
40
0.0000000000
40
0.0550286111
40
0.1104610873
40
0.1661190354
40
0.2218472576
40
0.2775027954
40
0.3330661309
40
0.3886254979
40
0.4442332082
40
0.4998698521
40
0.5555104580
40
0.6111298609
40
0.6667087189
40
0.7222992878
40
0.7779887359
40
0.8337553236
40
0.8894538968
40
0.9449280910
40
1.0000000000
40
1.0000000000
40
1.0000000000
40
1.0000000000
10
4.1980124517
20
-1.4985852320
30
0.0000000000
10
4.2181783761
20
-1.4985850180
30
0.0000000000
10
4.2586799790
20
-1.4968333917
30
0.0000000000
10
4.3191150944
20
-1.4889290567
30
0.0000000000
10
4.3788869849
20
-1.4757305157
30
0.0000000000
10
4.4373533419
20
-1.4573330238
30
0.0000000000
10
4.4939559493
20
-1.4339090398
30
0.0000000000
10
4.5482430306
20
-1.4056633422
30
0.0000000000
10
4.5998458372
20
-1.3728013591
30
0.0000000000
10
4.6484072887
20
-1.3355474641
30
0.0000000000
10
4.6935543190
20
-1.2941775378
30
0.0000000000
10
4.7349208228
20
-1.2490215581
30
0.0000000000
10
4.7721759843
20
-1.2004448407
30
0.0000000000
10
4.8050429334
20
-1.1488198070
30
0.0000000000
10
4.8332960433
20
-1.0945032567
30
0.0000000000
10
4.8567283092
20
-1.0378645911
30
0.0000000000
10
4.8751334287
20
-0.9793572430
30
0.0000000000
10
4.8883379965
20
-0.9195413708
30
0.0000000000
10
4.8962464059
20
-0.8590603481
30
0.0000000000
10
4.8979993366
20
-0.8185276122
30
0.0000000000
10
4.8979998286
20
-0.7983458208
30
0.0000000000
11
4.1980124517
21
-1.4985852320
31
0.0000000000
11
4.2584536763
21
-1.4959700974
31
0.0000000000
11
4.3188808958
21
-1.4880674793
31
0.0000000000
11
4.3786311352
21
-1.4748734207
31
0.0000000000
11
4.4370730429
21
-1.4564837900
31
0.0000000000
11
4.4936100932
21
-1.4330869532
31
0.0000000000
11
4.5477996298
21
-1.4048920984
31
0.0000000000
11
4.5993208076
21
-1.3720821767
31
0.0000000000
11
4.6478262145
21
-1.3348713755
31
0.0000000000
11
4.6929226045
21
-1.2935479664
31
0.0000000000
11
4.7342427718
21
-1.2484426987
31
0.0000000000
11
4.7714549619
21
-1.1999221563
31
0.0000000000
11
4.8042699985
21
-1.1483788322
31
0.0000000000
11
4.8324725773
21
-1.0941595645
31
0.0000000000
11
4.8558781208
21
-1.0375857710
31
0.0000000000
11
4.8742757189
21
-0.9791021531
31
0.0000000000
11
4.8874759654
21
-0.9193075415
31
0.0000000000
11
4.8953826906
21
-0.8588346043
31
0.0000000000
11
4.8979998286
21
-0.7983458208
31
0.0000000000
0
SPLINE
5
2DA
100
AcDbEntity
8
0
100
AcDbSpline
62
9
6
CONTINUOUS
70
0
71
3
72
10
73
6
74
4
42
0.0000001000
43
0.0000001000
44
0.0000000001
12
0.0001262690
22
-9.1022317153
32
0.0000000000
13
0.0030162464
23
-9.1022312164
33
0.0000000000
40
0.0000000000
40
0.0000000000
40
0.0000000000
40
0.0000000000
40
0.3333526954
40
0.6666869347
40
1.0000000000
40
1.0000000000
40
1.0000000000
40
1.0000000000
10
10.5091602573
20
-0.3977684534
30
0.0000000000
10
10.5091742880
20
-1.4091862790
30
0.0000000000
10
10.5093093731
20
-3.4319659329
30
0.0000000000
10
10.5098330725
20
-6.4660431315
30
0.0000000000
10
10.5103962666
20
-8.4887024707
30
0.0000000000
10
10.5107313847
20
-9.5000000000
30
0.0000000000
11
10.5091602573
21
-0.3977684534
31
0.0000000000
11
10.5093628944
21
-3.4320219235
31
0.0000000000
11
10.5098866048
21
-6.4661073633
31
0.0000000000
11
10.5107313847
21
-9.5000000000
31
0.0000000000
0
SPLINE
5
2DB
100
AcDbEntity
8
0
100
AcDbSpline
62
9
6
CONTINUOUS
70
0
71
3
72
10
73
6
74
4
42
0.0000001000
43
0.0000001000
44
0.0000000001
12
0.0001256779
22
-9.0950742265
32
0.0000000000
13
0.0030168915
23
-9.0950737270
33
0.0000000000
40
0.0000000000
40
0.0000000000
40
0.0000000000
40
0.0000000000
40
0.3333523841
40
0.6666867789
40
1.0000000000
40
1.0000000000
40
1.0000000000
40
1.0000000000
10
11.0090840780
20
-0.3954259424
30
0.0000000000
10
11.0090980430
20
-1.4060475015
30
0.0000000000
10
11.0092330424
20
-3.4272360818
30
0.0000000000
10
11.0097567505
20
-6.4589274508
30
0.0000000000
10
11.0103200423
20
-8.4799972268
30
0.0000000000
10
11.0106552323
20
-9.4905000000
30
0.0000000000
11
11.0090840780
21
-0.3954259424
31
0.0000000000
11
11.0092865864
21
-3.4272906133
31
0.0000000000
11
11.0098103057
21
-6.4589916313
31
0.0000000000
11
11.0106552323
21
-9.4905000000
31
0.0000000000
0
SPLINE
5
2DC
100
AcDbEntity
8
0
100
AcDbSpline
62
9
6
CONTINUOUS
70
0
71
3
72
24
73
20
74
18
42
0.0000001000
43
0.0000001000
44
0.0000000001
12
-0.4823495780
22
-0.1314594124
32
0.0000000000
13
-0.4999426892
23
-0.0000035234
33
0.0000000000
40
0.0000000000
40
0.0000000000
40
0.0000000000
40
0.0000000000
40
0.0057809180
40
0.0198464118
40
0.0420872873
40
0.0723187966
40
0.1102891675
40
0.1556824090
40
0.2081194927
40
0.2671630525
40
0.3323201678
40
0.4030479660
40
0.4787560596
40
0.5588129529
40
0.6425498020
40
0.7292691319
40
0.8182477266
40
0.9087399380
40
1.0000000000
40
1.0000000000
40
1.0000000000
40
1.0000000000
10
11.0090840780
20
-0.3954259424
30
0.0000000000
10
11.0081546035
20
-0.3956792611
30
0.0000000000
10
11.0047912969
20
-0.3955731624
30
0.0000000000
10
10.9978300775
20
-0.3959843558
30
0.0000000000
10
10.9867168574
20
-0.3960635952
30
0.0000000000
10
10.9716573059
20
-0.3963113344
30
0.0000000000
10
10.9527236780
20
-0.3964852359
30
0.0000000000
10
10.9300950572
20
-0.3966771367
30
0.0000000000
10
10.9039524941
20
-0.3968504929
30
0.0000000000
10
10.8745168528
20
-0.3970152679
30
0.0000000000
10
10.8420327956
20
-0.3971660581
30
0.0000000000
10
10.8067716130
20
-0.3973026960
30
0.0000000000
10
10.7690273291
20
-0.3974235892
30
0.0000000000
10
10.7291150669
20
-0.3975277852
30
0.0000000000
10
10.6873677614
20
-0.3976143450
30
0.0000000000
10
10.6441336408
20
-0.3976825267
30
0.0000000000
10
10.5997737291
20
-0.3977317432
30
0.0000000000
10
10.5546570981
20
-0.3977615704
30
0.0000000000
10
10.5243685243
20
-0.3977683465
30
0.0000000000
10
10.5091602573
20
-0.3977684537
30
0.0000000000
11
11.0090840780
21
-0.3954259424
31
0.0000000000
11
11.0062021055
21
-0.3956429052
31
0.0000000000
11
10.9991734470
21
-0.3958577335
31
0.0000000000
11
10.9880562850
21
-0.3960686750
31
0.0000000000
11
10.9729436569
21
-0.3962739444
31
0.0000000000
11
10.9539616791
21
-0.3964718353
31
0.0000000000
11
10.9312684457
21
-0.3966606950
31
0.0000000000
11
10.9050535151
21
-0.3968389444
31
0.0000000000
11
10.8755355866
21
-0.3970050943
31
0.0000000000
11
10.8429611209
21
-0.3971577557
31
0.0000000000
11
10.8076015441
21
-0.3972956540
31
0.0000000000
11
10.7697520328
21
-0.3974176358
31
0.0000000000
11
10.7297283121
21
-0.3975226813
31
0.0000000000
11
10.6878647774
21
-0.3976099116
31
0.0000000000
11
10.6445101369
21
-0.3976785979
31
0.0000000000
11
10.6000259666
21
-0.3977281671
31
0.0000000000
11
10.5547850570
21
-0.3977582017
31
0.0000000000
11
10.5091602573
21
-0.3977684537
31
0.0000000000
0
SPLINE
5
2DD
100
AcDbEntity
8
0
100
AcDbSpline
62
9
6
CONTINUOUS
70
0
71
3
72
23
73
19
74
17
42
0.0000001000
43
0.0000001000
44
0.0000000001
12
-0.3383277213
22
-0.3684515610
32
0.0000000000
13
-0.5002221230
23
-0.0001658668
33
0.0000000000
40
0.0000000000
40
0.0000000000
40
0.0000000000
40
0.0000000000
40
0.0066564874
40
0.0225106005
40
0.0475272778
40
0.0814931198
40
0.1240964970
40
0.1749402368
40
0.2335478510
40
0.2993689012
40
0.3717845595
40
0.4501136209
40
0.5336190190
40
0.6215148257
40
0.7129736900
40
0.8071346535
40
0.9031112767
40
1.0000000000
40
1.0000000000
40
1.0000000000
40
1.0000000000
10
11.0106552323
20
-9.4905000000
30
0.0000000000
10
11.0099045409
20
-9.4913175311
30
0.0000000000
10
11.0056552622
20
-9.4914176359
30
0.0000000000
10
10.9982274420
20
-9.4926976155
30
0.0000000000
10
10.9855345922
20
-9.4932827060
30
0.0000000000
10
10.9687185102
20
-9.4942264867
30
0.0000000000
10
10.9474504011
20
-9.4949998819
30
0.0000000000
10
10.9221219163
20
-9.4957923246
30
0.0000000000
10
10.8929014804
20
-9.4965206031
30
0.0000000000
10
10.8600878897
20
-9.4972014315
30
0.0000000000
10
10.8239823499
20
-9.4978194555
30
0.0000000000
10
10.7849272907
20
-9.4983709060
30
0.0000000000
10
10.7432897562
20
-9.4988494756
30
0.0000000000
10
10.6994620910
20
-9.4992506691
30
0.0000000000
10
10.6538569839
20
-9.4995704886
30
0.0000000000
10
10.6069039505
20
-9.4998058400
30
0.0000000000
10
10.5590451815
20
-9.4999544359
30
0.0000000000
10
10.5268866790
20
-9.4999946431
30
0.0000000000
10
10.5107313847
20
-9.5000000000
30
0.0000000000
11
11.0106552323
21
-9.4905000000
31
0.0000000000
11
11.0074554157
21
-9.4914209914
31
0.0000000000
11
10.9995774875
21
-9.4923333089
31
0.0000000000
11
10.9870956415
21
-9.4932283605
31
0.0000000000
11
10.9701274308
21
-9.4940977165
31
0.0000000000
11
10.9488326609
21
-9.4949331896
31
0.0000000000
11
10.9234118844
21
-9.4957269111
31
0.0000000000
11
10.8941045122
21
-9.4964714060
31
0.0000000000
11
10.8611865593
21
-9.4971596626
31
0.0000000000
11
10.8249680444
21
-9.4977851990
31
0.0000000000
11
10.7857900711
21
-9.4983421239
31
0.0000000000
11
10.7440216147
21
-9.4988251922
31
0.0000000000
11
10.7000560474
21
-9.4992298545
31
0.0000000000
11
10.6543074340
21
-9.4995522996
31
0.0000000000
11
10.6072066315
21
-9.4997894908
31
0.0000000000
11
10.5591972321
21
-9.4999391942
31
0.0000000000
11
10.5107313847
21
-9.5000000000
31
0.0000000000
0
SPLINE
5
2DE
100
AcDbEntity
8
0
100
AcDbSpline
62
9
6
CONTINUOUS
70
0
71
3
72
14
73
10
74
8
42
0.0000001000
43
0.0000001000
44
0.0000000001
12
0.0038629499
22
-11.7107319604
32
0.0000000000
13
0.0306549602
23
-11.7106924750
33
0.0000000000
40
0.0000000000
40
0.0000000000
40
0.0000000000
40
0.0000000000
40
0.1434088633
40
0.2867169135
40
0.4298742344
40
0.5728309521
40
0.7155372777
40
0.8579434943
40
1.0000000000
40
1.0000000000
40
1.0000000000
40
1.0000000000
10
10.5107313847
20
-9.5000000000
30
0.0000000000
10
10.5109160451
20
-10.0598075864
30
0.0000000000
10
10.5114665785
20
-11.1790291760
30
0.0000000000
10
10.5128364426
20
-12.8570760482
30
0.0000000000
10
10.5147496972
20
-14.5333574041
30
0.0000000000
10
10.5172056756
20
-16.2072891708
30
0.0000000000
10
10.5202035216
20
-17.8782880572
30
0.0000000000
10
10.5237421894
20
-19.5457718288
30
0.0000000000
10
10.5264646904
20
-20.6561908070
30
0.0000000000
10
10.5279162692
20
-21.2107174911
30
0.0000000000
11
10.5107313847
21
-9.5000000000
31
0.0000000000
11
10.5115576201
21
-11.1794226474
31
0.0000000000
11
10.5129278821
21
-12.8576643428
31
0.0000000000
11
10.5148416937
21
-14.5341403548
31
0.0000000000
11
10.5172983881
21
-16.2082664463
31
0.0000000000
11
10.5202971100
21
-17.8794593742
31
0.0000000000
11
10.5238368146
21
-19.5471367411
31
0.0000000000
11
10.5279162692
21
-21.2107174911
31
0.0000000000
0
SPLINE
5
2DF
100
AcDbEntity
8
0
100
AcDbSpline
62
9
6
CONTINUOUS
70
0
71
3
72
14
73
10
74
8
42
0.0000001000
43
0.0000001000
44
0.0000000001
12
0.0038629500
22
-11.6456724996
32
0.0000000000
13
0.0306549594
23
-11.6456327936
33
0.0000000000
40
0.0000000000
40
0.0000000000
40
0.0000000000
40
0.0000000000
40
0.1434087580
40
0.2867168399
40
0.4298741931
40
0.5728309438
40
0.7155373031
40
0.8579435543
40
1.0000000000
40
1.0000000000
40
1.0000000000
40
1.0000000000
10
11.0106552323
20
-9.4905000000
30
0.0000000000
10
11.0108398926
20
-10.0471971429
30
0.0000000000
10
11.0113904256
20
-11.1602005638
30
0.0000000000
10
11.0127602893
20
-12.8289248111
30
0.0000000000
10
11.0146735442
20
-14.4958938818
30
0.0000000000
10
11.0171295231
20
-16.1605264165
30
0.0000000000
10
11.0201273698
20
-17.8222423634
30
0.0000000000
10
11.0236660379
20
-19.4804623510
30
0.0000000000
10
11.0263885386
20
-20.5847122153
30
0.0000000000
10
11.0278401168
20
-21.1361579495
30
0.0000000000
11
11.0106552323
21
-9.4905000000
31
0.0000000000
11
11.0114814669
21
-11.1605913162
31
0.0000000000
11
11.0128517289
21
-12.8295098343
31
0.0000000000
11
11.0147655407
21
-14.4966724788
31
0.0000000000
11
11.0172222357
21
-16.1614982581
31
0.0000000000
11
11.0202209582
21
-17.8234071680
31
0.0000000000
11
11.0237606639
21
-19.4818200450
31
0.0000000000
11
11.0278401168
21
-21.1361579495
31
0.0000000000
0
SPLINE
5
2E0
100
AcDbEntity
8
0
100
AcDbSpline
62
9
6
CONTINUOUS
70
0
71
3
72
23
73
19
74
17
42
0.0000001000
43
0.0000001000
44
0.0000000001
12
-0.0591165911
22
-0.5108996411
32
0.0000000000
13
-0.5143067785
23
-0.0013237128
33
0.0000000000
40
0.0000000000
40
0.0000000000
40
0.0000000000
40
0.0000000000
40
0.0153646563
40
0.0360541360
40
0.0638932360
40
0.0994447812
40
0.1427618271
40
0.1936475247
40
0.2517515074
40
0.3166124948
40
0.3876810841
40
0.4643344769
40
0.5458877042
40
0.6316032928
40
0.7207002588
40
0.8123628439
40
0.9057491855
40
1.0000000000
40
1.0000000000
40
1.0000000000
40
1.0000000000
10
11.0278401168
20
-21.1361579495
30
0.0000000000
10
11.0275373481
20
-21.1387745486
30
0.0000000000
10
11.0245397342
20
-21.1445833392
30
0.0000000000
10
11.0159729136
20
-21.1515758098
30
0.0000000000
10
11.0032394921
20
-21.1584401776
30
0.0000000000
10
10.9861639940
20
-21.1650843365
30
0.0000000000
10
10.9648544938
20
-21.1715163842
30
0.0000000000
10
10.9394619075
20
-21.1776434755
30
0.0000000000
10
10.9102135088
20
-21.1834075103
30
0.0000000000
10
10.8773750759
20
-21.1887453189
30
0.0000000000
10
10.8412520425
20
-21.1936032543
30
0.0000000000
10
10.8021820011
20
-21.1979323585
30
0.0000000000
10
10.7605314954
20
-21.2016898990
30
0.0000000000
10
10.7166918633
20
-21.2048390261
30
0.0000000000
10
10.6710754136
20
-21.2073490799
30
0.0000000000
10
10.6241113362
20
-21.2091957236
30
0.0000000000
10
10.5762417970
20
-21.2103611119
30
0.0000000000
10
10.5440742135
20
-21.2106759006
30
0.0000000000
10
10.5279162692
20
-21.2107174876
30
0.0000000000
11
11.0278401168
21
-21.1361579495
31
0.0000000000
11
11.0246489212
21
-21.1433870995
31
0.0000000000
11
11.0167783774
21
-21.1505481490
31
0.0000000000
11
11.0043026279
21
-21.1575736392
31
0.0000000000
11
10.9873391973
21
-21.1643973880
31
0.0000000000
11
10.9660478857
21
-21.1709551141
31
0.0000000000
11
10.9406292624
21
-21.1771850421
31
0.0000000000
11
10.9113227776
21
-21.1830284843
31
0.0000000000
11
10.8784045057
21
-21.1884303941
31
0.0000000000
11
10.8421845452
21
-21.1933398841
31
0.0000000000
11
10.8030040974
21
-21.1977107057
31
0.0000000000
11
10.7612322521
21
-21.2015016846
31
0.0000000000
11
10.7172625107
21
-21.2046771088
31
0.0000000000
11
10.6715090795
21
-21.2072070651
31
0.0000000000
11
10.6244029674
21
-21.2090677205
31
0.0000000000
11
10.5763879260
21
-21.2102415472
31
0.0000000000
11
10.5279162692
21
-21.2107174876
31
0.0000000000
0
SPLINE
5
2E1
100
AcDbEntity
8
0
100
AcDbSpline
62
9
6
CONTINUOUS
70
0
71
3
72
24
73
20
74
18
42
0.0000001000
43
0.0000001000
44
0.0000000001
12
0.0011180227
22
-0.8496073353
32
0.0000000000
13
0.1395303237
23
-0.8380722898
33
0.0000000000
40
0.0000000000
40
0.0000000000
40
0.0000000000
40
0.0000000000
40
0.0930367319
40
0.1843324435
40
0.2732981693
40
0.3593559178
40
0.4419491486
40
0.5205425301
40
0.5946267879
40
0.6637218374
40
0.7273804317
40
0.7851898402
40
0.8367759437
40
0.8818045865
40
0.9199843201
40
0.9510683651
40
0.9748569697
40
0.9911988350
40
1.0000000000
40
1.0000000000
40
1.0000000000
40
1.0000000000
10
10.5279162692
20
-21.2107174911
30
0.0000000000
10
10.5279509416
20
-21.2370657211
30
0.0000000000
10
10.5280382529
20
-21.2892690974
30
0.0000000000
10
10.5282248603
20
-21.3666676562
30
0.0000000000
10
10.5284649869
20
-21.4420895919
30
0.0000000000
10
10.5287569941
20
-21.5150467602
30
0.0000000000
10
10.5290989625
20
-21.5850662032
30
0.0000000000
10
10.5294885926
20
-21.6516944184
30
0.0000000000
10
10.5299232554
20
-21.7144995511
30
0.0000000000
10
10.5304000148
20
-21.7730746742
30
0.0000000000
10
10.5309154843
20
-21.8270402141
30
0.0000000000
10
10.5314663047
20
-21.8760464981
30
0.0000000000
10
10.5320474904
20
-21.9197761257
30
0.0000000000
10
10.5326573463
20
-21.9579451250
30
0.0000000000
10
10.5332819450
20
-21.9903080980
30
0.0000000000
10
10.5339386321
20
-22.0166501132
30
0.0000000000
10
10.5345535163
20
-22.0368155788
30
0.0000000000
10
10.5352540611
20
-22.0506436640
30
0.0000000000
10
10.5356801144
20
-22.0577692718
30
0.0000000000
10
10.5360894575
20
-22.0602279426
30
0.0000000000
11
10.5279162692
21
-21.2107174911
31
0.0000000000
11
10.5280488981
21
-21.2897621382
31
0.0000000000
11
10.5282365705
21
-21.3673274846
31
0.0000000000
11
10.5284780934
21
-21.4429130973
31
0.0000000000
11
10.5287718828
21
-21.5160278647
31
0.0000000000
11
10.5291160474
21
-21.5861988963
31
0.0000000000
11
10.5295083533
21
-21.6529713150
31
0.0000000000
11
10.5299462605
21
-21.7159123751
31
0.0000000000
11
10.5304269304
21
-21.7746141189
31
0.0000000000
11
10.5309472518
21
-21.8286964715
31
0.0000000000
11
10.5315038508
21
-21.8778086576
31
0.0000000000
11
10.5320931243
21
-21.9216326659
31
0.0000000000
11
10.5327112526
21
-21.9598843702
31
0.0000000000
11
10.5333542322
21
-21.9923158068
31
0.0000000000
11
10.5340178871
21
-22.0187167223
31
0.0000000000
11
10.5346979456
21
-22.0389162682
31
0.0000000000
11
10.5353899371
21
-22.0527831937
31
0.0000000000
11
10.5360894575
21
-22.0602279426
31
0.0000000000
0
SPLINE
5
2E2
100
AcDbEntity
8
0
100
AcDbSpline
62
9
6
CONTINUOUS
70
0
71
3
72
24
73
20
74
18
42
0.0000001000
43
0.0000001000
44
0.0000000001
12
0.0011186547
22
-0.4249484695
32
0.0000000000
13
0.1342631991
23
-0.4031821505
33
0.0000000000
40
0.0000000000
40
0.0000000000
40
0.0000000000
40
0.0000000000
40
0.0929869778
40
0.1842552376
40
0.2731949150
40
0.3592282932
40
0.4417991461
40
0.5203724537
40
0.5944392766
40
0.6635198393
40
0.7271672677
40
0.7849693581
40
0.8365526549
40
0.8815838995
40
0.9197729576
40
0.9508752205
40
0.9746949652
40
0.9910905731
40
1.0000000000
40
1.0000000000
40
1.0000000000
40
1.0000000000
10
11.0278401168
20
-21.1361579495
30
0.0000000000
10
11.0278747903
20
-21.1493295075
30
0.0000000000
10
11.0279620745
20
-21.1754291232
30
0.0000000000
10
11.0281486828
20
-21.2141267417
30
0.0000000000
10
11.0283887970
20
-21.2518390705
30
0.0000000000
10
11.0286808143
20
-21.2883190088
30
0.0000000000
10
11.0290227866
20
-21.3233300522
30
0.0000000000
10
11.0294124284
20
-21.3566454272
30
0.0000000000
10
11.0298471056
20
-21.3880491799
30
0.0000000000
10
11.0303238805
20
-21.4173378080
30
0.0000000000
10
11.0308393798
20
-21.4443215293
30
0.0000000000
10
11.0313901990
20
-21.4688254246
30
0.0000000000
10
11.0319715020
20
-21.4906910926
30
0.0000000000
10
11.0325811416
20
-21.5097757868
30
0.0000000000
10
11.0332065636
20
-21.5259594296
30
0.0000000000
10
11.0338613004
20
-21.5391279582
30
0.0000000000
10
11.0344816788
20
-21.5492230423
30
0.0000000000
10
11.0351725162
20
-21.5561261037
30
0.0000000000
10
11.0356145691
20
-21.5597158013
30
0.0000000000
10
11.0360133051
20
-21.5609131753
30
0.0000000000
11
11.0278401168
21
-21.1361579495
31
0.0000000000
11
11.0279727127
21
-21.1756725378
31
0.0000000000
11
11.0281603875
21
-21.2144565255
31
0.0000000000
11
11.0284019059
21
-21.2522506645
31
0.0000000000
11
11.0286957001
21
-21.2888093631
31
0.0000000000
11
11.0290398701
21
-21.3238961543
31
0.0000000000
11
11.0294321858
21
-21.3572835720
31
0.0000000000
11
11.0298701054
21
-21.3887552174
31
0.0000000000
11
11.0303507907
21
-21.4181070628
31
0.0000000000
11
11.0308711294
21
-21.4451490281
31
0.0000000000
11
11.0314277473
21
-21.4697057155
31
0.0000000000
11
11.0320170409
21
-21.4916181120
31
0.0000000000
11
11.0326351907
21
-21.5107441501
31
0.0000000000
11
11.0332781904
21
-21.5269598447
31
0.0000000000
11
11.0339418711
21
-21.5401600758
31
0.0000000000
11
11.0346219396
21
-21.5502594036
31
0.0000000000
11
11.0353139763
21
-21.5571922624
31
0.0000000000
11
11.0360133051
21
-21.5609131753
31
0.0000000000
0
SPLINE
5
2E3
100
AcDbEntity
8
0
100
AcDbSpline
62
9
6
CONTINUOUS
70
0
71
3
72
23
73
19
74
17
42
0.0000001000
43
0.0000001000
44
0.0000000001
12
-0.0007172057
22
-0.7842577210
32
0.0000000000
13
-0.7842577226
23
-0.0007154591
33
0.0000000000
40
0.0000000000
40
0.0000000000
40
0.0000000000
40
0.0000000000
40
0.0624467159
40
0.1249003792
40
0.1873620694
40
0.2498325574
40
0.3123122765
40
0.3748013052
40
0.4372993648
40
0.4998058302
40
0.5623197539
40
0.6248399026
40
0.6873648043
40
0.7498928050
40
0.8124221320
40
0.8749509618
40
0.9374774899
40
1.0000000000
40
1.0000000000
40
1.0000000000
40
1.0000000000
10
11.0360133051
20
-21.5609131753
30
0.0000000000
10
11.0359983761
20
-21.5772379483
30
0.0000000000
10
11.0343626828
20
-21.6099105457
30
0.0000000000
10
11.0271161256
20
-21.6584273998
30
0.0000000000
10
11.0151461559
20
-21.7060109822
30
0.0000000000
10
10.9985679632
20
-21.7521973665
30
0.0000000000
10
10.9775410587
20
-21.7965439340
30
0.0000000000
10
10.9522677463
20
-21.8386236704
30
0.0000000000
10
10.9229911706
20
-21.8780319414
30
0.0000000000
10
10.8899929756
20
-21.9143896670
30
0.0000000000
10
10.8535905966
20
-21.9473471576
30
0.0000000000
10
10.8141341926
20
-21.9765874219
30
0.0000000000
10
10.7720033282
20
-22.0018292275
30
0.0000000000
10
10.7276031336
20
-22.0228297982
30
0.0000000000
10
10.6813611215
20
-22.0393871477
30
0.0000000000
10
10.6337204182
20
-22.0513420219
30
0.0000000000
10
10.5851454283
20
-22.0585794210
30
0.0000000000
10
10.5524340447
20
-22.0602130319
30
0.0000000000
10
10.5360894575
20
-22.0602279426
30
0.0000000000
11
11.0360133051
21
-21.5609131753
31
0.0000000000
11
11.0335641005
21
-21.6098262342
31
0.0000000000
11
11.0263295088
21
-21.6582687809
31
0.0000000000
11
11.0143791221
21
-21.7057748290
31
0.0000000000
11
10.9978278954
21
-21.7518874009
31
0.0000000000
11
10.9768350409
21
-21.7961629232
31
0.0000000000
11
10.9516024964
21
-21.8381754937
31
0.0000000000
11
10.9223729829
21
-21.8775209785
31
0.0000000000
11
10.8894276696
21
-21.9138208991
31
0.0000000000
11
10.8530834691
21
-21.9467260737
31
0.0000000000
11
10.8136899895
21
-21.9759199755
31
0.0000000000
11
10.7716261707
21
-22.0011217780
31
0.0000000000
11
10.7272966397
21
-22.0220890559
31
0.0000000000
11
10.6811278182
21
-22.0386201175
31
0.0000000000
11
10.6335638206
21
-22.0505559445
31
0.0000000000
11
10.5850621822
21
-22.0577817220
31
0.0000000000
11
10.5360894575
21
-22.0602279426
31
0.0000000000
0
SPLINE
5
2E4
100
AcDbEntity
8
0
100
AcDbSpline
62
9
6
CONTINUOUS
70
0
71
3
72
10
73
6
74
4
42
0.0000001000
43
0.0000001000
44
0.0000000001
12
0.0030168915
22
9.0950737270
32
0.0000000000
13
0.0001256779
23
9.0950742265
33
0.0000000000
40
0.0000000000
40
0.0000000000
40
0.0000000000
40
0.0000000000
40
0.3333132211
40
0.6666476159
40
1.0000000000
40
1.0000000000
40
1.0000000000
40
1.0000000000
10
-11.0106552323
20
-9.4905000000
30
0.0000000000
10
-11.0103200423
20
-8.4799972268
30
0.0000000000
10
-11.0097567505
20
-6.4589274508
30
0.0000000000
10
-11.0092330424
20
-3.4272360818
30
0.0000000000
10
-11.0090980430
20
-1.4060475015
30
0.0000000000
10
-11.0090840780
20
-0.3954259424
30
0.0000000000
11
-11.0106552323
21
-9.4905000000
31
0.0000000000
11
-11.0098103057
21
-6.4589916313
31
0.0000000000
11
-11.0092865864
21
-3.4272906133
31
0.0000000000
11
-11.0090840780
21
-0.3954259424
31
0.0000000000
0
SPLINE
5
2E5
100
AcDbEntity
8
0
100
AcDbSpline
62
9
6
CONTINUOUS
70
0
71
3
72
23
73
19
74
17
42
0.0000001000
43
0.0000001000
44
0.0000000001
12
0.3383277130
22
-0.3684515687
32
0.0000000000
13
0.5002221230
23
-0.0001658668
33
0.0000000000
40
0.0000000000
40
0.0000000000
40
0.0000000000
40
0.0000000000
40
0.0066564873
40
0.0225106003
40
0.0475272776
40
0.0814931196
40
0.1240964968
40
0.1749402365
40
0.2335478507
40
0.2993689009
40
0.3717845592
40
0.4501136206
40
0.5336190188
40
0.6215148255
40
0.7129736898
40
0.8071346534
40
0.9031112767
40
1.0000000000
40
1.0000000000
40
1.0000000000
40
1.0000000000
10
-11.0106552323
20
-9.4905000000
30
0.0000000000
10
-11.0099045409
20
-9.4913175311
30
0.0000000000
10
-11.0056552622
20
-9.4914176359
30
0.0000000000
10
-10.9982274421
20
-9.4926976155
30
0.0000000000
10
-10.9855345923
20
-9.4932827060
30
0.0000000000
10
-10.9687185104
20
-9.4942264867
30
0.0000000000
10
-10.9474504012
20
-9.4949998819
30
0.0000000000
10
-10.9221219165
20
-9.4957923246
30
0.0000000000
10
-10.8929014806
20
-9.4965206031
30
0.0000000000
10
-10.8600878898
20
-9.4972014315
30
0.0000000000
10
-10.8239823500
20
-9.4978194555
30
0.0000000000
10
-10.7849272908
20
-9.4983709060
30
0.0000000000
10
-10.7432897563
20
-9.4988494756
30
0.0000000000
10
-10.6994620911
20
-9.4992506691
30
0.0000000000
10
-10.6538569840
20
-9.4995704886
30
0.0000000000
10
-10.6069039505
20
-9.4998058400
30
0.0000000000
10
-10.5590451815
20
-9.4999544359
30
0.0000000000
10
-10.5268866790
20
-9.4999946431
30
0.0000000000
10
-10.5107313847
20
-9.5000000000
30
0.0000000000
11
-11.0106552323
21
-9.4905000000
31
0.0000000000
11
-11.0074554157
21
-9.4914209914
31
0.0000000000
11
-10.9995774875
21
-9.4923333089
31
0.0000000000
11
-10.9870956416
21
-9.4932283605
31
0.0000000000
11
-10.9701274309
21
-9.4940977165
31
0.0000000000
11
-10.9488326610
21
-9.4949331896
31
0.0000000000
11
-10.9234118845
21
-9.4957269111
31
0.0000000000
11
-10.8941045124
21
-9.4964714060
31
0.0000000000
11
-10.8611865594
21
-9.4971596626
31
0.0000000000
11
-10.8249680446
21
-9.4977851990
31
0.0000000000
11
-10.7857900712
21
-9.4983421239
31
0.0000000000
11
-10.7440216148
21
-9.4988251922
31
0.0000000000
11
-10.7000560475
21
-9.4992298545
31
0.0000000000
11
-10.6543074340
21
-9.4995522996
31
0.0000000000
11
-10.6072066316
21
-9.4997894908
31
0.0000000000
11
-10.5591972321
21
-9.4999391942
31
0.0000000000
11
-10.5107313847
21
-9.5000000000
31
0.0000000000
0
SPLINE
5
2E6
100
AcDbEntity
8
0
100
AcDbSpline
62
9
6
CONTINUOUS
70
0
71
3
72
10
73
6
74
4
42
0.0000001000
43
0.0000001000
44
0.0000000001
12
0.0030162464
22
9.1022312164
32
0.0000000000
13
0.0001262690
23
9.1022317153
33
0.0000000000
40
0.0000000000
40
0.0000000000
40
0.0000000000
40
0.0000000000
40
0.3333130653
40
0.6666473046
40
1.0000000000
40
1.0000000000
40
1.0000000000
40
1.0000000000
10
-10.5107313847
20
-9.5000000000
30
0.0000000000
10
-10.5103962666
20
-8.4887024707
30
0.0000000000
10
-10.5098330725
20
-6.4660431314
30
0.0000000000
10
-10.5093093731
20
-3.4319659328
30
0.0000000000
10
-10.5091742880
20
-1.4091862789
30
0.0000000000
10
-10.5091602573
20
-0.3977684534
30
0.0000000000
11
-10.5107313847
21
-9.5000000000
31
0.0000000000
11
-10.5098866048
21
-6.4661073632
31
0.0000000000
11
-10.5093628944
21
-3.4320219234
31
0.0000000000
11
-10.5091602573
21
-0.3977684534
31
0.0000000000
0
SPLINE
5
2E7
100
AcDbEntity
8
0
100
AcDbSpline
62
9
6
CONTINUOUS
70
0
71
3
72
24
73
20
74
18
42
0.0000001000
43
0.0000001000
44
0.0000000001
12
0.4823500253
22
-0.1314577715
32
0.0000000000
13
0.4999426893
23
-0.0000035310
33
0.0000000000
40
0.0000000000
40
0.0000000000
40
0.0000000000
40
0.0000000000
40
0.0057809081
40
0.0198463907
40
0.0420872420
40
0.0723187311
40
0.1102890632
40
0.1556822685
40
0.2081193147
40
0.2671628392
40
0.3323199063
40
0.4030476492
40
0.4787556940
40
0.5588125511
40
0.6425493722
40
0.7292686082
40
0.8182472517
40
0.9087391724
40
1.0000000000
40
1.0000000000
40
1.0000000000
40
1.0000000000
10
-11.0090840780
20
-0.3954259424
30
0.0000000000
10
-11.0081546043
20
-0.3956792575
30
0.0000000000
10
-11.0047913031
20
-0.3955731670
30
0.0000000000
10
-10.9978300896
20
-0.3959843530
30
0.0000000000
10
-10.9867168797
20
-0.3960635969
30
0.0000000000
10
-10.9716573417
20
-0.3963113341
30
0.0000000000
10
-10.9527237298
20
-0.3964852367
30
0.0000000000
10
-10.9300951277
20
-0.3966771374
30
0.0000000000
10
-10.9039525827
20
-0.3968504939
30
0.0000000000
10
-10.8745169616
20
-0.3970152690
30
0.0000000000
10
-10.8420329275
20
-0.3971660589
30
0.0000000000
10
-10.8067717703
20
-0.3973026966
30
0.0000000000
10
-10.7690275098
20
-0.3974235897
30
0.0000000000
10
-10.7291152665
20
-0.3975277856
30
0.0000000000
10
-10.6873679873
20
-0.3976143449
30
0.0000000000
10
-10.6441338789
20
-0.3976825269
30
0.0000000000
10
-10.5997740231
20
-0.3977317425
30
0.0000000000
10
-10.5546573048
20
-0.3977615707
30
0.0000000000
10
-10.5243686519
20
-0.3977683463
30
0.0000000000
10
-10.5091602573
20
-0.3977684537
30
0.0000000000
11
-11.0090840780
21
-0.3954259424
31
0.0000000000
11
-11.0062021105
21
-0.3956429054
31
0.0000000000
11
-10.9991734576
21
-0.3958577334
31
0.0000000000
11
-10.9880563077
21
-0.3960686752
31
0.0000000000
11
-10.9729436897
21
-0.3962739448
31
0.0000000000
11
-10.9539617313
21
-0.3964718358
31
0.0000000000
11
-10.9312685160
21
-0.3966606957
31
0.0000000000
11
-10.9050536041
21
-0.3968389453
31
0.0000000000
11
-10.8755356933
21
-0.3970050954
31
0.0000000000
11
-10.8429612517
21
-0.3971577565
31
0.0000000000
11
-10.8076017025
21
-0.3972956546
31
0.0000000000
11
-10.7697522156
21
-0.3974176362
31
0.0000000000
11
-10.7297285130
21
-0.3975226816
31
0.0000000000
11
-10.6878649924
21
-0.3976099117
31
0.0000000000
11
-10.6445103987
21
-0.3976785979
31
0.0000000000
11
-10.6000262040
21
-0.3977281668
31
0.0000000000
11
-10.5547854398
21
-0.3977582017
31
0.0000000000
11
-10.5091602573
21
-0.3977684537
31
0.0000000000
0
SPLINE
5
2E8
100
AcDbEntity
8
0
100
AcDbSpline
62
9
6
CONTINUOUS
70
0
71
3
72
23
73
19
74
17
42
0.0000001000
43
0.0000001000
44
0.0000000001
12
0.0591164681
22
-0.5108996579
32
0.0000000000
13
0.5143067811
23
-0.0013237131
33
0.0000000000
40
0.0000000000
40
0.0000000000
40
0.0000000000
40
0.0000000000
40
0.0153646553
40
0.0360541332
40
0.0638932314
40
0.0994447751
40
0.1427618196
40
0.1936475163
40
0.2517514986
40
0.3166124859
40
0.3876810753
40
0.4643344687
40
0.5458876969
40
0.6316032866
40
0.7207002540
40
0.8123628406
40
0.9057491838
40
1.0000000000
40
1.0000000000
40
1.0000000000
40
1.0000000000
10
-11.0278401168
20
-21.1361579495
30
0.0000000000
10
-11.0275373488
20
-21.1387745486
30
0.0000000000
10
-11.0245397362
20
-21.1445833395
30
0.0000000000
10
-11.0159729167
20
-21.1515758104
30
0.0000000000
10
-11.0032394963
20
-21.1584401785
30
0.0000000000
10
-10.9861639990
20
-21.1650843376
30
0.0000000000
10
-10.9648544995
20
-21.1715163856
30
0.0000000000
10
-10.9394619136
20
-21.1776434772
30
0.0000000000
10
-10.9102135151
20
-21.1834075122
30
0.0000000000
10
-10.8773750821
20
-21.1887453211
30
0.0000000000
10
-10.8412520484
20
-21.1936032568
30
0.0000000000
10
-10.8021820066
20
-21.1979323612
30
0.0000000000
10
-10.7605315002
20
-21.2016899019
30
0.0000000000
10
-10.7166918674
20
-21.2048390292
30
0.0000000000
10
-10.6710754168
20
-21.2073490832
30
0.0000000000
10
-10.6241113383
20
-21.2091957270
30
0.0000000000
10
-10.5762417981
20
-21.2103611154
30
0.0000000000
10
-10.5440742139
20
-21.2106759041
30
0.0000000000
10
-10.5279162692
20
-21.2107174911
30
0.0000000000
11
-11.0278401168
21
-21.1361579495
31
0.0000000000
11
-11.0246489229
21
-21.1433870997
31
0.0000000000
11
-11.0167783804
21
-21.1505481495
31
0.0000000000
11
-11.0043026320
21
-21.1575736399
31
0.0000000000
11
-10.9873392024
21
-21.1643973891
31
0.0000000000
11
-10.9660478914
21
-21.1709551155
31
0.0000000000
11
-10.9406292686
21
-21.1771850437
31
0.0000000000
11
-10.9113227839
21
-21.1830284862
31
0.0000000000
11
-10.8784045119
21
-21.1884303963
31
0.0000000000
11
-10.8421845512
21
-21.1933398866
31
0.0000000000
11
-10.8030041029
21
-21.1977107084
31
0.0000000000
11
-10.7612322570
21
-21.2015016875
31
0.0000000000
11
-10.7172625148
21
-21.2046771119
31
0.0000000000
11
-10.6715090827
21
-21.2072070683
31
0.0000000000
11
-10.6244029696
21
-21.2090677238
31
0.0000000000
11
-10.5763879271
21
-21.2102415507
31
0.0000000000
11
-10.5279162692
21
-21.2107174911
31
0.0000000000
0
SPLINE
5
2E9
100
AcDbEntity
8
0
100
AcDbSpline
62
9
6
CONTINUOUS
70
0
71
3
72
14
73
10
74
8
42
0.0000001000
43
0.0000001000
44
0.0000000001
12
0.0306549602
22
11.7106924750
32
0.0000000000
13
0.0038629499
23
11.7107319604
33
0.0000000000
40
0.0000000000
40
0.0000000000
40
0.0000000000
40
0.0000000000
40
0.1420565057
40
0.2844627223
40
0.4271690479
40
0.5701257656
40
0.7132830865
40
0.8565911367
40
1.0000000000
40
1.0000000000
40
1.0000000000
40
1.0000000000
10
-10.5279162692
20
-21.2107174911
30
0.0000000000
10
-10.5264646904
20
-20.6561908070
30
0.0000000000
10
-10.5237421894
20
-19.5457718288
30
0.0000000000
10
-10.5202035216
20
-17.8782880572
30
0.0000000000
10
-10.5172056756
20
-16.2072891708
30
0.0000000000
10
-10.5147496972
20
-14.5333574041
30
0.0000000000
10
-10.5128364426
20
-12.8570760482
30
0.0000000000
10
-10.5114665785
20
-11.1790291760
30
0.0000000000
10
-10.5109160451
20
-10.0598075864
30
0.0000000000
10
-10.5107313847
20
-9.5000000000
30
0.0000000000
11
-10.5279162692
21
-21.2107174911
31
0.0000000000
11
-10.5238368146
21
-19.5471367411
31
0.0000000000
11
-10.5202971100
21
-17.8794593742
31
0.0000000000
11
-10.5172983881
21
-16.2082664463
31
0.0000000000
11
-10.5148416937
21
-14.5341403548
31
0.0000000000
11
-10.5129278821
21
-12.8576643428
31
0.0000000000
11
-10.5115576201
21
-11.1794226474
31
0.0000000000
11
-10.5107313847
21
-9.5000000000
31
0.0000000000
0
SPLINE
5
2EA
100
AcDbEntity
8
0
100
AcDbSpline
62
9
6
CONTINUOUS
70
0
71
3
72
14
73
10
74
8
42
0.0000001000
43
0.0000001000
44
0.0000000001
12
0.0306549594
22
11.6456327936
32
0.0000000000
13
0.0038629500
23
11.6456724996
33
0.0000000000
40
0.0000000000
40
0.0000000000
40
0.0000000000
40
0.0000000000
40
0.1420564457
40
0.2844626969
40
0.4271690562
40
0.5701258069
40
0.7132831601
40
0.8565912420
40
1.0000000000
40
1.0000000000
40
1.0000000000
40
1.0000000000
10
-11.0278401168
20
-21.1361579495
30
0.0000000000
10
-11.0263885386
20
-20.5847122153
30
0.0000000000
10
-11.0236660379
20
-19.4804623510
30
0.0000000000
10
-11.0201273698
20
-17.8222423634
30
0.0000000000
10
-11.0171295231
20
-16.1605264165
30
0.0000000000
10
-11.0146735442
20
-14.4958938818
30
0.0000000000
10
-11.0127602893
20
-12.8289248111
30
0.0000000000
10
-11.0113904256
20
-11.1602005638
30
0.0000000000
10
-11.0108398926
20
-10.0471971429
30
0.0000000000
10
-11.0106552323
20
-9.4905000000
30
0.0000000000
11
-11.0278401168
21
-21.1361579495
31
0.0000000000
11
-11.0237606639
21
-19.4818200450
31
0.0000000000
11
-11.0202209582
21
-17.8234071680
31
0.0000000000
11
-11.0172222357
21
-16.1614982581
31
0.0000000000
11
-11.0147655407
21
-14.4966724788
31
0.0000000000
11
-11.0128517289
21
-12.8295098343
31
0.0000000000
11
-11.0114814669
21
-11.1605913162
31
0.0000000000
11
-11.0106552323
21
-9.4905000000
31
0.0000000000
0
SPLINE
5
2EB
100
AcDbEntity
8
0
100
AcDbSpline
62
9
6
CONTINUOUS
70
0
71
3
72
23
73
19
74
17
42
0.0000001000
43
0.0000001000
44
0.0000000001
12
0.0007172057
22
-0.7842577210
32
0.0000000000
13
0.7842577226
23
-0.0007154592
33
0.0000000000
40
0.0000000000
40
0.0000000000
40
0.0000000000
40
0.0000000000
40
0.0624467123
40
0.1249003724
40
0.1873620598
40
0.2498325457
40
0.3123122631
40
0.3748012906
40
0.4372993496
40
0.4998058150
40
0.5623197393
40
0.6248398890
40
0.6873647922
40
0.7498927948
40
0.8124221241
40
0.8749509564
40
0.9374774871
40
1.0000000000
40
1.0000000000
40
1.0000000000
40
1.0000000000
10
-11.0360133051
20
-21.5609131753
30
0.0000000000
10
-11.0359983761
20
-21.5772379474
30
0.0000000000
10
-11.0343626830
20
-21.6099105430
30
0.0000000000
10
-11.0271161265
20
-21.6584273947
30
0.0000000000
10
-11.0151461579
20
-21.7060109752
30
0.0000000000
10
-10.9985679666
20
-21.7521973581
30
0.0000000000
10
-10.9775410636
20
-21.7965439248
30
0.0000000000
10
-10.9522677525
20
-21.8386236610
30
0.0000000000
10
-10.9229911780
20
-21.8780319323
30
0.0000000000
10
-10.8899929839
20
-21.9143896587
30
0.0000000000
10
-10.8535906054
20
-21.9473471504
30
0.0000000000
10
-10.8141342014
20
-21.9765874161
30
0.0000000000
10
-10.7720033365
20
-22.0018292231
30
0.0000000000
10
-10.7276031409
20
-22.0228297952
30
0.0000000000
10
-10.6813611274
20
-22.0393871459
30
0.0000000000
10
-10.6337204224
20
-22.0513420211
30
0.0000000000
10
-10.5851454304
20
-22.0585794209
30
0.0000000000
10
-10.5524340454
20
-22.0602130319
30
0.0000000000
10
-10.5360894575
20
-22.0602279426
30
0.0000000000
11
-11.0360133051
21
-21.5609131753
31
0.0000000000
11
-11.0335641008
21
-21.6098262314
31
0.0000000000
11
-11.0263295099
21
-21.6582687756
31
0.0000000000
11
-11.0143791242
21
-21.7057748219
31
0.0000000000
11
-10.9978278989
21
-21.7518873924
31
0.0000000000
11
-10.9768350459
21
-21.7961629139
31
0.0000000000
11
-10.9516025028
21
-21.8381754842
31
0.0000000000
11
-10.9223729905
21
-21.8775209693
31
0.0000000000
11
-10.8894276780
21
-21.9138208907
31
0.0000000000
11
-10.8530834780
21
-21.9467260664
31
0.0000000000
11
-10.8136899983
21
-21.9759199696
31
0.0000000000
11
-10.7716261790
21
-22.0011217735
31
0.0000000000
11
-10.7272966471
21
-22.0220890528
31
0.0000000000
11
-10.6811278242
21
-22.0386201157
31
0.0000000000
11
-10.6335638248
21
-22.0505559437
31
0.0000000000
11
-10.5850621844
21
-22.0577817218
31
0.0000000000
11
-10.5360894575
21
-22.0602279426
31
0.0000000000
0
SPLINE
5
2EC
100
AcDbEntity
8
0
100
AcDbSpline
62
9
6
CONTINUOUS
70
0
71
3
72
24
73
20
74
18
42
0.0000001000
43
0.0000001000
44
0.0000000001
12
0.1395303240
22
0.8380722897
32
0.0000000000
13
0.0011180227
23
0.8496073353
33
0.0000000000
40
0.0000000000
40
0.0000000000
40
0.0000000000
40
0.0000000000
40
0.0088011650
40
0.0251430303
40
0.0489316349
40
0.0800156799
40
0.1181954135
40
0.1632240563
40
0.2148101598
40
0.2726195683
40
0.3362781626
40
0.4053732121
40
0.4794574699
40
0.5580508514
40
0.6406440822
40
0.7267018307
40
0.8156675565
40
0.9069632681
40
1.0000000000
40
1.0000000000
40
1.0000000000
40
1.0000000000
10
-10.5360894575
20
-22.0602279426
30
0.0000000000
10
-10.5356801144
20
-22.0577692718
30
0.0000000000
10
-10.5352540611
20
-22.0506436640
30
0.0000000000
10
-10.5345535163
20
-22.0368155788
30
0.0000000000
10
-10.5339386321
20
-22.0166501132
30
0.0000000000
10
-10.5332819450
20
-21.9903080980
30
0.0000000000
10
-10.5326573463
20
-21.9579451250
30
0.0000000000
10
-10.5320474904
20
-21.9197761257
30
0.0000000000
10
-10.5314663047
20
-21.8760464981
30
0.0000000000
10
-10.5309154843
20
-21.8270402141
30
0.0000000000
10
-10.5304000148
20
-21.7730746742
30
0.0000000000
10
-10.5299232554
20
-21.7144995511
30
0.0000000000
10
-10.5294885926
20
-21.6516944184
30
0.0000000000
10
-10.5290989625
20
-21.5850662032
30
0.0000000000
10
-10.5287569941
20
-21.5150467602
30
0.0000000000
10
-10.5284649869
20
-21.4420895919
30
0.0000000000
10
-10.5282248603
20
-21.3666676562
30
0.0000000000
10
-10.5280382529
20
-21.2892690974
30
0.0000000000
10
-10.5279509416
20
-21.2370657211
30
0.0000000000
10
-10.5279162692
20
-21.2107174911
30
0.0000000000
11
-10.5360894575
21
-22.0602279426
31
0.0000000000
11
-10.5353899371
21
-22.0527831937
31
0.0000000000
11
-10.5346979456
21
-22.0389162682
31
0.0000000000
11
-10.5340178871
21
-22.0187167223
31
0.0000000000
11
-10.5333542322
21
-21.9923158068
31
0.0000000000
11
-10.5327112526
21
-21.9598843702
31
0.0000000000
11
-10.5320931243
21
-21.9216326659
31
0.0000000000
11
-10.5315038508
21
-21.8778086576
31
0.0000000000
11
-10.5309472518
21
-21.8286964715
31
0.0000000000
11
-10.5304269304
21
-21.7746141189
31
0.0000000000
11
-10.5299462605
21
-21.7159123751
31
0.0000000000
11
-10.5295083533
21
-21.6529713150
31
0.0000000000
11
-10.5291160474
21
-21.5861988963
31
0.0000000000
11
-10.5287718828
21
-21.5160278647
31
0.0000000000
11
-10.5284780934
21
-21.4429130973
31
0.0000000000
11
-10.5282365705
21
-21.3673274846
31
0.0000000000
11
-10.5280488981
21
-21.2897621382
31
0.0000000000
11
-10.5279162692
21
-21.2107174911
31
0.0000000000
0
SPLINE
5
2ED
100
AcDbEntity
8
0
100
AcDbSpline
62
9
6
CONTINUOUS
70
0
71
3
72
24
73
20
74
18
42
0.0000001000
43
0.0000001000
44
0.0000000001
12
0.1342631990
22
0.4031821506
32
0.0000000000
13
0.0011186547
23
0.4249484695
33
0.0000000000
40
0.0000000000
40
0.0000000000
40
0.0000000000
40
0.0000000000
40
0.0089094269
40
0.0253050348
40
0.0491247795
40
0.0802270424
40
0.1184161005
40
0.1634473451
40
0.2150306419
40
0.2728327323
40
0.3364801607
40
0.4055607234
40
0.4796275463
40
0.5582008539
40
0.6407717068
40
0.7268050850
40
0.8157447624
40
0.9070130222
40
1.0000000000
40
1.0000000000
40
1.0000000000
40
1.0000000000
10
-11.0360133051
20
-21.5609131753
30
0.0000000000
10
-11.0356145691
20
-21.5597158013
30
0.0000000000
10
-11.0351725162
20
-21.5561261037
30
0.0000000000
10
-11.0344816788
20
-21.5492230423
30
0.0000000000
10
-11.0338613004
20
-21.5391279582
30
0.0000000000
10
-11.0332065636
20
-21.5259594296
30
0.0000000000
10
-11.0325811416
20
-21.5097757868
30
0.0000000000
10
-11.0319715020
20
-21.4906910926
30
0.0000000000
10
-11.0313901990
20
-21.4688254246
30
0.0000000000
10
-11.0308393798
20
-21.4443215293
30
0.0000000000
10
-11.0303238805
20
-21.4173378080
30
0.0000000000
10
-11.0298471056
20
-21.3880491799
30
0.0000000000
10
-11.0294124284
20
-21.3566454272
30
0.0000000000
10
-11.0290227866
20
-21.3233300522
30
0.0000000000
10
-11.0286808143
20
-21.2883190088
30
0.0000000000
10
-11.0283887970
20
-21.2518390705
30
0.0000000000
10
-11.0281486828
20
-21.2141267417
30
0.0000000000
10
-11.0279620745
20
-21.1754291232
30
0.0000000000
10
-11.0278747903
20
-21.1493295075
30
0.0000000000
10
-11.0278401168
20
-21.1361579495
30
0.0000000000
11
-11.0360133051
21
-21.5609131753
31
0.0000000000
11
-11.0353139763
21
-21.5571922624
31
0.0000000000
11
-11.0346219396
21
-21.5502594036
31
0.0000000000
11
-11.0339418711
21
-21.5401600758
31
0.0000000000
11
-11.0332781904
21
-21.5269598447
31
0.0000000000
11
-11.0326351907
21
-21.5107441501
31
0.0000000000
11
-11.0320170409
21
-21.4916181120
31
0.0000000000
11
-11.0314277473
21
-21.4697057155
31
0.0000000000
11
-11.0308711294
21
-21.4451490281
31
0.0000000000
11
-11.0303507907
21
-21.4181070628
31
0.0000000000
11
-11.0298701054
21
-21.3887552174
31
0.0000000000
11
-11.0294321858
21
-21.3572835720
31
0.0000000000
11
-11.0290398701
21
-21.3238961543
31
0.0000000000
11
-11.0286957001
21
-21.2888093631
31
0.0000000000
11
-11.0284019059
21
-21.2522506645
31
0.0000000000
11
-11.0281603875
21
-21.2144565255
31
0.0000000000
11
-11.0279727127
21
-21.1756725378
31
0.0000000000
11
-11.0278401168
21
-21.1361579495
31
0.0000000000
0
SPLINE
5
2EE
100
AcDbEntity
8
0
100
AcDbSpline
62
9
6
CONTINUOUS
70
0
71
3
72
24
73
20
74
18
42
0.0000001000
43
0.0000001000
44
0.0000000001
12
-0.2236386802
22
-0.1117251390
32
0.0000000000
13
-0.2499935318
23
-0.0000000286
33
0.0000000000
40
0.0000000000
40
0.0000000000
40
0.0000000000
40
0.0000000000
40
0.0058141549
40
0.0198913127
40
0.0421377060
40
0.0723722548
40
0.1103442418
40
0.1557383148
40
0.2081757736
40
0.2672194679
40
0.3323766118
40
0.4031042038
40
0.4788117261
40
0.5588676560
40
0.6426031091
40
0.7293206279
40
0.8182967266
40
0.9087868532
40
1.0000000000
40
1.0000000000
40
1.0000000000
40
1.0000000000
10
10.7591221542
20
-0.1454354616
30
0.0000000000
10
10.7586887309
20
-0.1456519907
30
0.0000000000
10
10.7569499660
20
-0.1455883408
30
0.0000000000
10
10.7535157738
20
-0.1459365640
30
0.0000000000
10
10.7479335583
20
-0.1460245023
30
0.0000000000
10
10.7404145290
20
-0.1462449905
30
0.0000000000
10
10.7309434915
20
-0.1464067217
30
0.0000000000
10
10.7196302450
20
-0.1465815998
30
0.0000000000
10
10.7065579026
20
-0.1467405943
30
0.0000000000
10
10.6918394140
20
-0.1468913164
30
0.0000000000
10
10.6755963078
20
-0.1470293149
30
0.0000000000
10
10.6579645350
20
-0.1471542832
30
0.0000000000
10
10.6390910828
20
-0.1472648138
30
0.0000000000
10
10.6191335825
20
-0.1473600236
30
0.0000000000
10
10.5982585268
20
-0.1474390593
30
0.0000000000
10
10.5766400837
20
-0.1475012462
30
0.0000000000
10
10.5544587215
20
-0.1475460465
30
0.0000000000
10
10.5319027046
20
-0.1475730752
30
0.0000000000
10
10.5167611562
20
-0.1475790873
30
0.0000000000
10
10.5091602573
20
-0.1475790882
30
0.0000000000
11
10.7591221542
21
-0.1454354616
31
0.0000000000
11
10.7576823128
21
-0.1456342637
31
0.0000000000
11
10.7541686278
21
-0.1458311775
31
0.0000000000
11
10.7486105336
21
-0.1460244757
31
0.0000000000
11
10.7410544320
21
-0.1462125408
31
0.0000000000
11
10.7315634116
21
-0.1463938036
31
0.0000000000
11
10.7202165049
21
-0.1465667540
31
0.0000000000
11
10.7071084952
21
-0.1467299468
31
0.0000000000
11
10.6923487370
21
-0.1468820205
31
0.0000000000
11
10.6760604714
21
-0.1470217054
31
0.0000000000
11
10.6583794808
21
-0.1471478372
31
0.0000000000
11
10.6394534185
21
-0.1472593625
31
0.0000000000
11
10.6194401840
21
-0.1473553508
31
0.0000000000
11
10.5985070139
21
-0.1474350006
31
0.0000000000
11
10.5768282856
21
-0.1474976487
31
0.0000000000
11
10.5545848822
21
-0.1475427721
31
0.0000000000
11
10.5319629522
21
-0.1475699941
31
0.0000000000
11
10.5091602573
21
-0.1475790882
31
0.0000000000
0
SPLINE
5
2EF
100
AcDbEntity
8
0
100
AcDbSpline
62
9
6
CONTINUOUS
70
0
71
3
72
22
73
18
74
16
42
0.0000001000
43
0.0000001000
44
0.0000000001
12
-0.0353441806
22
-0.0354295517
32
0.0000000000
13
0.0000003406
23
-0.0500446225
33
0.0000000000
40
0.0000000000
40
0.0000000000
40
0.0000000000
40
0.0000000000
40
0.0063804617
40
0.0234903223
40
0.0511749337
40
0.0891401260
40
0.1369761742
40
0.1941659063
40
0.2600888112
40
0.3340284987
40
0.4151826286
40
0.5026709211
40
0.5955438215
40
0.6927943286
40
0.7933677196
40
0.8961720396
40
1.0000000000
40
1.0000000000
40
1.0000000000
40
1.0000000000
10
-4.6975790882
20
-0.3475714728
30
0.0000000000
10
-4.6976542589
20
-0.3476468251
30
0.0000000000
10
-4.6975810273
20
-0.3481022726
30
0.0000000000
10
-4.6977148955
20
-0.3488967732
30
0.0000000000
10
-4.6977035697
20
-0.3503086644
30
0.0000000000
10
-4.6977665629
20
-0.3521876520
30
0.0000000000
10
-4.6977973159
20
-0.3545778406
30
0.0000000000
10
-4.6978374728
20
-0.3574274684
30
0.0000000000
10
-4.6978710658
20
-0.3607150301
30
0.0000000000
10
-4.6979029129
20
-0.3644016040
30
0.0000000000
10
-4.6979309148
20
-0.3684482107
30
0.0000000000
10
-4.6979552787
20
-0.3728106047
30
0.0000000000
10
-4.6979755600
20
-0.3774415574
30
0.0000000000
10
-4.6979915764
20
-0.3822908008
30
0.0000000000
10
-4.6980031324
20
-0.3873057306
30
0.0000000000
10
-4.6980101011
20
-0.3924303904
30
0.0000000000
10
-4.6980116355
20
-0.3958773355
30
0.0000000000
10
-4.6980116237
20
-0.3976093458
30
0.0000000000
11
-4.6975790882
21
-0.3475714728
31
0.0000000000
11
-4.6976244129
21
-0.3478875474
31
0.0000000000
11
-4.6976692429
21
-0.3487426296
31
0.0000000000
11
-4.6977130546
21
-0.3501274026
31
0.0000000000
11
-4.6977553722
21
-0.3520268850
31
0.0000000000
11
-4.6977957364
21
-0.3544204817
31
0.0000000000
11
-4.6978337097
21
-0.3572822683
31
0.0000000000
11
-4.6978688793
21
-0.3605811677
31
0.0000000000
11
-4.6979008630
21
-0.3642813132
31
0.0000000000
11
-4.6979293140
21
-0.3683425414
31
0.0000000000
11
-4.6979539237
21
-0.3727207908
31
0.0000000000
11
-4.6979744254
21
-0.3773685348
31
0.0000000000
11
-4.6979905970
21
-0.3822353728
31
0.0000000000
11
-4.6980022631
21
-0.3872685167
31
0.0000000000
11
-4.6980092974
21
-0.3924133153
31
0.0000000000
11
-4.6980116237
21
-0.3976093458
31
0.0000000000
0
SPLINE
5
2F0
100
AcDbEntity
8
0
100
AcDbSpline
62
9
6
CONTINUOUS
70
0
71
3
72
10
73
6
74
4
42
0.0000001000
43
0.0000001000
44
0.0000000001
12
0.0000027799
22
-0.4004171367
32
0.0000000000
13
0.0000055795
23
-0.4004171366
33
0.0000000000
40
0.0000000000
40
0.0000000000
40
0.0000000000
40
0.0000000000
40
0.3333334383
40
0.6666667744
40
1.0000000000
40
1.0000000000
40
1.0000000000
40
1.0000000000
10
-4.6980116237
20
-0.3976093458
30
0.0000000000
10
-4.6980113148
20
-0.4421001528
30
0.0000000000
10
-4.6980105934
20
-0.5310817531
30
0.0000000000
10
-4.6980092001
20
-0.6645541320
30
0.0000000000
10
-4.6980080640
20
-0.7535357039
30
0.0000000000
10
-4.6980074440
20
-0.7980264825
30
0.0000000000
11
-4.6980116237
21
-0.3976093458
31
0.0000000000
11
-4.6980105415
21
-0.5310817667
31
0.0000000000
11
-4.6980091483
21
-0.6645541468
31
0.0000000000
11
-4.6980074440
21
-0.7980264825
31
0.0000000000
0
SPLINE
5
2F1
100
AcDbEntity
8
0
100
AcDbSpline
62
9
6
CONTINUOUS
70
0
71
3
72
24
73
20
74
18
42
0.0000001000
43
0.0000001000
44
0.0000000001
12
0.2236386592
22
-0.1117251808
32
0.0000000000
13
0.2499935317
23
-0.0000000303
33
0.0000000000
40
0.0000000000
40
0.0000000000
40
0.0000000000
40
0.0000000000
40
0.0058143509
40
0.0198918243
40
0.0421387210
40
0.0723739585
40
0.1103468305
40
0.1557420085
40
0.2081807999
40
0.2672258514
40
0.3323840566
40
0.4031125249
40
0.4788208419
40
0.5588774741
40
0.6426135134
40
0.7293314446
40
0.8183078759
40
0.9087981978
40
1.0000000000
40
1.0000000000
40
1.0000000000
40
1.0000000000
10
-10.7591221542
20
-0.1454354616
30
0.0000000000
10
-10.7586887163
20
-0.1456519981
30
0.0000000000
10
-10.7569499057
20
-0.1455883405
30
0.0000000000
10
-10.7535156310
20
-0.1459365725
30
0.0000000000
10
-10.7479332888
20
-0.1460245089
30
0.0000000000
10
-10.7404140869
20
-0.1462450005
30
0.0000000000
10
-10.7309428260
20
-0.1464067328
30
0.0000000000
10
-10.7196293027
20
-0.1465816128
30
0.0000000000
10
-10.7065566440
20
-0.1467406085
30
0.0000000000
10
-10.6918378428
20
-0.1468913311
30
0.0000000000
10
-10.6755944621
20
-0.1470293293
30
0.0000000000
10
-10.6579624616
20
-0.1471542966
30
0.0000000000
10
-10.6390888116
20
-0.1472648258
30
0.0000000000
10
-10.6191311377
20
-0.1473600340
30
0.0000000000
10
-10.5982559402
20
-0.1474390678
30
0.0000000000
10
-10.5766373862
20
-0.1475012528
30
0.0000000000
10
-10.5544559457
20
-0.1475460508
30
0.0000000000
10
-10.5319008302
20
-0.1475730764
30
0.0000000000
10
-10.5167602109
20
-0.1475790873
30
0.0000000000
10
-10.5091602573
20
-0.1475790882
30
0.0000000000
11
-10.7591221542
21
-0.1454354616
31
0.0000000000
11
-10.7576822639
21
-0.1456342676
31
0.0000000000
11
-10.7541684999
21
-0.1458311831
31
0.0000000000
11
-10.7486102799
21
-0.1460244831
31
0.0000000000
11
-10.7410540061
21
-0.1462125501
31
0.0000000000
11
-10.7315627645
21
-0.1463938146
31
0.0000000000
11
-10.7202155815
21
-0.1465667667
31
0.0000000000
11
-10.7071072387
21
-0.1467299610
31
0.0000000000
11
-10.6923471412
21
-0.1468820355
31
0.0000000000
11
-10.6760586102
21
-0.1470217200
31
0.0000000000
11
-10.6583774005
21
-0.1471478507
31
0.0000000000
11
-10.6394511396
21
-0.1472593746
31
0.0000000000
11
-10.6194377295
21
-0.1473553613
31
0.0000000000
11
-10.5985044128
21
-0.1474350093
31
0.0000000000
11
-10.5768255815
21
-0.1474976553
31
0.0000000000
11
-10.5545820949
21
-0.1475427765
31
0.0000000000
11
-10.5319601162
21
-0.1475699964
31
0.0000000000
11
-10.5091602573
21
-0.1475790882
31
0.0000000000
0
SPLINE
5
2F2
100
AcDbEntity
8
0
100
AcDbSpline
62
9
6
CONTINUOUS
70
0
71
3
72
10
73
6
74
4
42
0.0000001000
43
0.0000001000
44
0.0000000001
12
0.0000055795
22
0.4004171366
32
0.0000000000
13
0.0000027799
23
0.4004171367
33
0.0000000000
40
0.0000000000
40
0.0000000000
40
0.0000000000
40
0.0000000000
40
0.3333332255
40
0.6666665617
40
1.0000000000
40
1.0000000000
40
1.0000000000
40
1.0000000000
10
4.6980074440
20
-0.7980264825
30
0.0000000000
10
4.6980080640
20
-0.7535357039
30
0.0000000000
10
4.6980092001
20
-0.6645541320
30
0.0000000000
10
4.6980105934
20
-0.5310817531
30
0.0000000000
10
4.6980113148
20
-0.4421001528
30
0.0000000000
10
4.6980116237
20
-0.3976093458
30
0.0000000000
11
4.6980074440
21
-0.7980264825
31
0.0000000000
11
4.6980091483
21
-0.6645541468
31
0.0000000000
11
4.6980105415
21
-0.5310817668
31
0.0000000000
11
4.6980116237
21
-0.3976093458
31
0.0000000000
0
SPLINE
5
2F3
100
AcDbEntity
8
0
100
AcDbSpline
62
9
6
CONTINUOUS
70
0
71
3
72
21
73
17
74
15
42
0.0000001000
43
0.0000001000
44
0.0000000001
12
0.0000003509
22
0.0500440465
32
0.0000000000
13
-0.0334558117
23
0.0372171366
33
0.0000000000
40
0.0000000000
40
0.0000000000
40
0.0000000000
40
0.0000000000
40
0.1112384700
40
0.2211037249
40
0.3282298634
40
0.4312851885
40
0.5289884626
40
0.6201251700
40
0.7035623641
40
0.7782629456
40
0.8432985197
40
0.8978610210
40
0.9412730292
40
0.9729966818
40
0.9926429066
40
1.0000000000
40
1.0000000000
40
1.0000000000
40
1.0000000000
10
4.6980116237
20
-0.3976093458
30
0.0000000000
10
4.6980116367
20
-0.3957537381
30
0.0000000000
10
4.6980098754
20
-0.3920654296
30
0.0000000000
10
4.6980018948
20
-0.3865901173
30
0.0000000000
10
4.6979886786
20
-0.3812513231
30
0.0000000000
10
4.6979704135
20
-0.3761154168
30
0.0000000000
10
4.6979472866
20
-0.3712462801
30
0.0000000000
10
4.6979197771
20
-0.3667043539
30
0.0000000000
10
4.6978876811
20
-0.3625464281
30
0.0000000000
10
4.6978532828
20
-0.3588231635
30
0.0000000000
10
4.6978114079
20
-0.3555840377
30
0.0000000000
10
4.6977794392
20
-0.3528599255
30
0.0000000000
10
4.6977120179
20
-0.3507105417
30
0.0000000000
10
4.6977257169
20
-0.3490979394
30
0.0000000000
10
4.6975798316
20
-0.3481779428
30
0.0000000000
10
4.6976615576
20
-0.3476631663
30
0.0000000000
10
4.6975795117
20
-0.3475718963
30
0.0000000000
11
4.6980116237
21
-0.3976093458
31
0.0000000000
11
4.6980089496
21
-0.3920425233
31
0.0000000000
11
4.6980008836
21
-0.3865444273
31
0.0000000000
11
4.6979875261
21
-0.3811834185
31
0.0000000000
11
4.6979690429
21
-0.3760261461
31
0.0000000000
11
4.6979456641
21
-0.3711367348
31
0.0000000000
11
4.6979176802
21
-0.3665759710
31
0.0000000000
11
4.6978854391
21
-0.3624005607
31
0.0000000000
11
4.6978493418
21
-0.3586624156
31
0.0000000000
11
4.6978098370
21
-0.3554080120
31
0.0000000000
11
4.6977674159
21
-0.3526778132
31
0.0000000000
11
4.6977226059
21
-0.3505057628
31
0.0000000000
11
4.6976759642
21
-0.3489188682
31
0.0000000000
11
4.6976280707
21
-0.3479368588
31
0.0000000000
11
4.6975795117
21
-0.3475718963
31
0.0000000000
0
SPLINE
5
2F4
100
AcDbEntity
8
0
100
AcDbSpline
62
9
6
CONTINUOUS
70
0
71
3
72
20
73
16
74
14
42
0.0000001000
43
0.0000001000
44
0.0000000001
12
-0.0000239080
22
0.3139486583
32
0.0000000000
13
-0.3139486583
23
0.0000239080
33
0.0000000000
40
0.0000000000
40
0.0000000000
40
0.0000000000
40
0.0000000000
40
0.0769215331
40
0.1538437542
40
0.2307666040
40
0.3076899869
40
0.3846137763
40
0.4615378222
40
0.5384619594
40
0.6153860176
40
0.6923098313
40
0.7692332490
40
0.8461561422
40
0.9230784131
40
1.0000000000
40
1.0000000000
40
1.0000000000
40
1.0000000000
10
-4.6975790882
20
-0.3475714728
30
0.0000000000
10
-4.6975797012
20
-0.3395216688
30
0.0000000000
10
-4.6985553279
20
-0.3234051278
30
0.0000000000
10
-4.7029205786
20
-0.2995963780
30
0.0000000000
10
-4.7101239973
20
-0.2764835097
30
0.0000000000
10
-4.7200605509
20
-0.2544081398
30
0.0000000000
10
-4.7325853565
20
-0.2336909070
30
0.0000000000
10
-4.7475157911
20
-0.2146342150
30
0.0000000000
10
-4.7646341643
20
-0.1975158358
30
0.0000000000
10
-4.7836908544
20
-0.1825853925
30
0.0000000000
10
-4.8044080898
20
-0.1700605767
30
0.0000000000
10
-4.8264834670
20
-0.1601240130
30
0.0000000000
10
-4.8495963468
20
-0.1529205857
30
0.0000000000
10
-4.8734051113
20
-0.1485553293
30
0.0000000000
10
-4.8895216632
20
-0.1475797012
30
0.0000000000
10
-4.8975714728
20
-0.1475790882
30
0.0000000000
11
-4.6975790882
21
-0.3475714728
31
0.0000000000
11
-4.6990389513
21
-0.3234662263
31
0.0000000000
11
-4.7033935833
21
-0.2997124536
31
0.0000000000
11
-4.7105794905
21
-0.2766565040
31
0.0000000000
11
-4.7204918970
21
-0.2546345523
31
0.0000000000
11
-4.7329862722
21
-0.2339676969
31
0.0000000000
11
-4.7478804383
21
-0.2149572780
31
0.0000000000
11
-4.7649572266
21
-0.1978804839
31
0.0000000000
11
-4.7839676436
21
-0.1829863090
31
0.0000000000
11
-4.8046345016
21
-0.1704919235
31
0.0000000000
11
-4.8266564607
21
-0.1605795069
31
0.0000000000
11
-4.8497124219
21
-0.1533935911
31
0.0000000000
11
-4.8734662096
21
-0.1490389533
31
0.0000000000
11
-4.8975714728
21
-0.1475790882
31
0.0000000000
0
SPLINE
5
2F5
100
AcDbEntity
8
0
100
AcDbSpline
62
9
6
CONTINUOUS
70
0
71
3
72
20
73
16
74
14
42
0.0000001000
43
0.0000001000
44
0.0000000001
12
-0.1967271794
22
-0.0359965100
32
0.0000000000
13
-0.1999933295
23
-0.0000027866
33
0.0000000000
40
0.0000000000
40
0.0000000000
40
0.0000000000
40
0.0000000000
40
0.0082587095
40
0.0308177328
40
0.0673528603
40
0.1173374070
40
0.1800506179
40
0.2545881457
40
0.3398751126
40
0.4346816181
40
0.5376404783
40
0.6472669428
40
0.7619801075
40
0.8801257129
40
1.0000000000
40
1.0000000000
40
1.0000000000
40
1.0000000000
10
-4.6980073839
20
-0.7980264825
30
0.0000000000
10
-4.6985489548
20
-0.7981255774
30
0.0000000000
10
-4.7006231052
20
-0.7979812022
30
0.0000000000
10
-4.7050949561
20
-0.7981698261
30
0.0000000000
10
-4.7123764588
20
-0.7981181972
30
0.0000000000
10
-4.7223206876
20
-0.7981884111
30
0.0000000000
10
-4.7348041827
20
-0.7982064907
30
0.0000000000
10
-4.7496389501
20
-0.7982408874
30
0.0000000000
10
-4.7666139459
20
-0.7982660387
30
0.0000000000
10
-4.7854834003
20
-0.7982899579
30
0.0000000000
10
-4.8059755137
20
-0.7983095476
30
0.0000000000
10
-4.8277946746
20
-0.7983253441
30
0.0000000000
10
-4.8506262608
20
-0.7983368539
30
0.0000000000
10
-4.8741410123
20
-0.7983439761
30
0.0000000000
10
-4.8900084760
20
-0.7983457094
30
0.0000000000
10
-4.8979998286
20
-0.7983458208
30
0.0000000000
11
-4.6980073839
21
-0.7980264825
31
0.0000000000
11
-4.6996586271
21
-0.7980647631
31
0.0000000000
11
-4.7041701235
21
-0.7981024917
31
0.0000000000
11
-4.7114768135
21
-0.7981391242
31
0.0000000000
11
-4.7214733281
21
-0.7981741323
31
0.0000000000
11
-4.7340155088
21
-0.7982070111
31
0.0000000000
11
-4.7489224864
21
-0.7982372866
31
0.0000000000
11
-4.7659792892
21
-0.7982645220
31
0.0000000000
11
-4.7849399429
21
-0.7982883248
31
0.0000000000
11
-4.8055310184
21
-0.7983083515
31
0.0000000000
11
-4.8274555743
21
-0.7983243135
31
0.0000000000
11
-4.8503974391
21
-0.7983359804
31
0.0000000000
11
-4.8740257710
21
-0.7983431841
31
0.0000000000
11
-4.8979998286
21
-0.7983458208
31
0.0000000000
0
SPLINE
5
2F6
100
AcDbEntity
8
0
100
AcDbSpline
62
7
6
CONTINUOUS
70
0
71
3
72
17
73
13
74
11
42
0.0000001000
43
0.0000001000
44
0.0000000001
12
-0.1726172704
22
-0.0156857123
32
0.0000000000
13
-0.1733284847
23
0.0000000000
33
0.0000000000
40
0.0000000000
40
0.0000000000
40
0.0000000000
40
0.0000000000
40
0.0658932083
40
0.1422619237
40
0.2278502935
40
0.3216127585
40
0.4232716975
40
0.5312327141
40
0.6437122183
40
0.7603539652
40
0.8797993424
40
1.0000000000
40
1.0000000000
40
1.0000000000
40
1.0000000000
10
2.3077350269
20
22.1696065528
30
0.0000000000
10
2.3039435917
20
22.1692620255
30
0.0000000000
10
2.2957494344
20
22.1686118529
30
0.0000000000
10
2.2826116090
20
22.1677719940
30
0.0000000000
10
2.2678566569
20
22.1670064533
30
0.0000000000
10
2.2516351529
20
22.1663235078
30
0.0000000000
10
2.2341167068
20
22.1657314288
30
0.0000000000
10
2.2155134318
20
22.1652380543
30
0.0000000000
10
2.1960418761
20
22.1648488260
30
0.0000000000
10
2.1759048806
20
22.1645676754
30
0.0000000000
10
2.1553205372
20
22.1643979107
30
0.0000000000
10
2.1414746788
20
22.1643601773
30
0.0000000000
10
2.1345299462
20
22.1643601773
30
0.0000000000
11
2.3077350269
21
22.1696065528
31
0.0000000000
11
2.2963509581
21
22.1686867161
31
0.0000000000
11
2.2831417787
21
22.1678309094
31
0.0000000000
11
2.2683272372
21
22.1670539331
31
0.0000000000
11
2.2520901727
21
22.1663642355
31
0.0000000000
11
2.2344799947
21
22.1657644269
31
0.0000000000
11
2.2157739435
21
22.1652649115
31
0.0000000000
11
2.1962819840
21
22.1648728540
31
0.0000000000
11
2.1760666401
21
22.1645889604
31
0.0000000000
11
2.1553640658
21
22.1644172637
31
0.0000000000
11
2.1345299462
21
22.1643601773
31
0.0000000000
0
SPLINE
5
2F7
100
AcDbEntity
8
0
100
AcDbSpline
62
7
6
CONTINUOUS
70
0
71
3
72
17
73
13
74
11
42
0.0000001000
43
0.0000001000
44
0.0000000001
12
-0.1733284847
22
0.0000000000
32
0.0000000000
13
-0.1726172704
23
0.0156857123
33
0.0000000000
40
0.0000000000
40
0.0000000000
40
0.0000000000
40
0.0000000000
40
0.1202006576
40
0.2396460348
40
0.3562877817
40
0.4687672859
40
0.5767283025
40
0.6783872415
40
0.7721497065
40
0.8577380763
40
0.9341067917
40
1.0000000000
40
1.0000000000
40
1.0000000000
40
1.0000000000
10
-2.1345299462
20
22.1643601773
30
0.0000000000
10
-2.1414746788
20
22.1643601773
30
0.0000000000
10
-2.1553205372
20
22.1643979107
30
0.0000000000
10
-2.1759048806
20
22.1645676754
30
0.0000000000
10
-2.1960418761
20
22.1648488260
30
0.0000000000
10
-2.2155134318
20
22.1652380543
30
0.0000000000
10
-2.2341167068
20
22.1657314288
30
0.0000000000
10
-2.2516351529
20
22.1663235078
30
0.0000000000
10
-2.2678566569
20
22.1670064533
30
0.0000000000
10
-2.2826116090
20
22.1677719940
30
0.0000000000
10
-2.2957494344
20
22.1686118529
30
0.0000000000
10
-2.3039435917
20
22.1692620255
30
0.0000000000
10
-2.3077350269
20
22.1696065528
30
0.0000000000
11
-2.1345299462
21
22.1643601773
31
0.0000000000
11
-2.1553640658
21
22.1644172637
31
0.0000000000
11
-2.1760666401
21
22.1645889604
31
0.0000000000
11
-2.1962819840
21
22.1648728540
31
0.0000000000
11
-2.2157739435
21
22.1652649115
31
0.0000000000
11
-2.2344799947
21
22.1657644269
31
0.0000000000
11
-2.2520901727
21
22.1663642355
31
0.0000000000
11
-2.2683272372
21
22.1670539331
31
0.0000000000
11
-2.2831417787
21
22.1678309094
31
0.0000000000
11
-2.2963509581
21
22.1686867161
31
0.0000000000
11
-2.3077350269
21
22.1696065528
31
0.0000000000
0
SPLINE
5
2F8
100
AcDbEntity
8
0
100
AcDbSpline
62
7
6
CONTINUOUS
70
0
71
3
72
23
73
19
74
17
42
0.0000001000
43
0.0000001000
44
0.0000000001
12
0.0000237134
22
-0.3106548039
32
0.0000000000
13
0.3106854503
23
-0.0046952346
33
0.0000000000
40
0.0000000000
40
0.0000000000
40
0.0000000000
40
0.0000000000
40
0.0646779465
40
0.1291321245
40
0.1933747557
40
0.2574136034
40
0.3212532596
40
0.3848964236
40
0.4483447611
40
0.5115999474
40
0.5746643301
40
0.6375413151
40
0.7002357652
40
0.7627541603
40
0.8251044741
40
0.8872962917
40
0.9493405948
40
1.0000000000
40
1.0000000000
40
1.0000000000
40
1.0000000000
10
4.6862140141
20
0.3362063987
30
0.0000000000
10
4.6862145254
20
0.3295088938
30
0.0000000000
10
4.6868900074
20
0.3161272901
30
0.0000000000
10
4.6899090220
20
0.2962994635
30
0.0000000000
10
4.6948827187
20
0.2769361001
30
0.0000000000
10
4.7017434641
20
0.2582269157
30
0.0000000000
10
4.7104058290
20
0.2403498391
30
0.0000000000
10
4.7207675874
20
0.2234732067
30
0.0000000000
10
4.7327110919
20
0.2077527258
30
0.0000000000
10
4.7461049372
20
0.1933301837
30
0.0000000000
10
4.7608058274
20
0.1803321042
30
0.0000000000
10
4.7766605444
20
0.1688688669
30
0.0000000000
10
4.7935079105
20
0.1590341355
30
0.0000000000
10
4.8111807824
20
0.1509046016
30
0.0000000000
10
4.8295076037
20
0.1445399761
30
0.0000000000
10
4.8483150860
20
0.1399831903
30
0.0000000000
10
4.8662710525
20
0.1374252653
30
0.0000000000
10
4.8779408096
20
0.1367914900
30
0.0000000000
10
4.8831871897
20
0.1367122041
30
0.0000000000
11
4.6862140141
21
0.3362063987
31
0.0000000000
11
4.6872274806
21
0.3161394598
31
0.0000000000
11
4.6902413730
21
0.2963445871
31
0.0000000000
11
4.6952066357
21
0.2770148361
31
0.0000000000
11
4.7020558336
21
0.2583370750
31
0.0000000000
11
4.7107037303
21
0.2404897808
31
0.0000000000
11
4.7210483082
21
0.2236409140
31
0.0000000000
11
4.7329721199
21
0.2079460823
31
0.0000000000
11
4.7463439816
21
0.1935468966
31
0.0000000000
11
4.7610208421
21
0.1805697251
31
0.0000000000
11
4.7768497265
21
0.1691248148
31
0.0000000000
11
4.7936697351
21
0.1593057096
31
0.0000000000
11
4.8113139714
21
0.1511889973
31
0.0000000000
11
4.8296113143
21
0.1448343259
31
0.0000000000
11
4.8483881462
21
0.1402845775
31
0.0000000000
11
4.8674698540
21
0.1375662298
31
0.0000000000
11
4.8831871897
21
0.1367122041
31
0.0000000000
0
SPLINE
5
2F9
100
AcDbEntity
8
0
100
AcDbSpline
62
7
6
CONTINUOUS
70
0
71
3
72
21
73
17
74
15
42
0.0000001000
43
0.0000001000
44
0.0000000001
12
0.0000000000
22
-0.3924734050
32
0.0000000000
13
-0.3924734050
23
0.0000000000
33
0.0000000000
40
0.0000000000
40
0.0000000000
40
0.0000000000
40
0.0000000000
40
0.0711967107
40
0.1427877147
40
0.2142531260
40
0.2854139324
40
0.3569863851
40
0.4286623395
40
0.4999736954
40
0.5712831011
40
0.6429605067
40
0.7145463342
40
0.7857225949
40
0.8571907506
40
0.9287895850
40
1.0000000000
40
1.0000000000
40
1.0000000000
40
1.0000000000
10
11.1000000000
20
0.3499714434
30
0.0000000000
10
11.1000000000
20
0.3406571716
30
0.0000000000
10
11.0989538020
20
0.3219602590
30
0.0000000000
10
11.0942550614
20
0.2942701554
30
0.0000000000
10
11.0864820152
20
0.2672827157
30
0.0000000000
10
11.0757418100
20
0.2413372552
30
0.0000000000
10
11.0621524271
20
0.2167312084
30
0.0000000000
10
11.0458745402
20
0.1937905076
30
0.0000000000
10
11.0271514841
20
0.1728449725
30
0.0000000000
10
11.0062041793
20
0.1541236236
30
0.0000000000
10
10.9832608373
20
0.1378465628
30
0.0000000000
10
10.9586503211
20
0.1242570591
30
0.0000000000
10
10.9327002673
20
0.1135171315
30
0.0000000000
10
10.9057091460
20
0.1057446561
30
0.0000000000
10
10.8780157912
20
0.1010461964
30
0.0000000000
10
10.8593160632
20
0.1000000000
30
0.0000000000
10
10.8499999985
20
0.1000000000
30
0.0000000000
11
11.1000000000
21
0.3499714434
31
0.0000000000
11
11.0984382537
21
0.3220723057
31
0.0000000000
11
11.0937380107
21
0.2943706653
31
0.0000000000
11
11.0859748101
21
0.2674181449
31
0.0000000000
11
11.0752927506
21
0.2416129666
31
0.0000000000
11
11.0617124883
21
0.2170235269
31
0.0000000000
11
11.0454335722
21
0.1940813222
31
0.0000000000
11
11.0267812515
21
0.1732148784
31
0.0000000000
11
11.0059137772
21
0.1545648592
31
0.0000000000
11
10.9829698559
21
0.1382873782
31
0.0000000000
11
10.9583748448
21
0.1247063461
31
0.0000000000
11
10.9325633075
21
0.1140237904
31
0.0000000000
11
10.9056093249
21
0.1062617749
31
0.0000000000
11
10.8779045195
21
0.1015618144
31
0.0000000000
11
10.8499999985
21
0.1000000000
31
0.0000000000
0
SPLINE
5
2FA
100
AcDbEntity
8
0
100
AcDbSpline
62
7
6
CONTINUOUS
70
0
71
3
72
23
73
19
74
17
42
0.0000001000
43
0.0000001000
44
0.0000000001
12
-0.0000237133
22
-0.3106537311
32
0.0000000000
13
-0.3106843700
23
-0.0046968782
33
0.0000000000
40
0.0000000000
40
0.0000000000
40
0.0000000000
40
0.0000000000
40
0.0646781699
40
0.1291325704
40
0.1933754235
40
0.2574144924
40
0.3212543690
40
0.3848977528
40
0.4483463095
40
0.5116017142
40
0.5746663147
40
0.6375435167
40
0.7002381834
40
0.7627567944
40
0.8251073235
40
0.8872993559
40
0.9493438733
40
1.0000000000
40
1.0000000000
40
1.0000000000
40
1.0000000000
10
-4.6862140141
20
0.3362063987
30
0.0000000000
10
-4.6862145254
20
0.3295088938
30
0.0000000000
10
-4.6868900074
20
0.3161272901
30
0.0000000000
10
-4.6899090220
20
0.2962994635
30
0.0000000000
10
-4.6948827187
20
0.2769361001
30
0.0000000000
10
-4.7017434641
20
0.2582269157
30
0.0000000000
10
-4.7104058290
20
0.2403498391
30
0.0000000000
10
-4.7207675874
20
0.2234732067
30
0.0000000000
10
-4.7327110919
20
0.2077527258
30
0.0000000000
10
-4.7461049372
20
0.1933301837
30
0.0000000000
10
-4.7608058274
20
0.1803321042
30
0.0000000000
10
-4.7766605444
20
0.1688688669
30
0.0000000000
10
-4.7935079105
20
0.1590341355
30
0.0000000000
10
-4.8111807824
20
0.1509046016
30
0.0000000000
10
-4.8295076037
20
0.1445399761
30
0.0000000000
10
-4.8483150860
20
0.1399831903
30
0.0000000000
10
-4.8662706980
20
0.1374253158
30
0.0000000000
10
-4.8779400945
20
0.1367915289
30
0.0000000000
10
-4.8831861167
20
0.1367122203
30
0.0000000000
11
-4.6862140141
21
0.3362063987
31
0.0000000000
11
-4.6872274806
21
0.3161394598
31
0.0000000000
11
-4.6902413730
21
0.2963445871
31
0.0000000000
11
-4.6952066357
21
0.2770148361
31
0.0000000000
11
-4.7020558336
21
0.2583370750
31
0.0000000000
11
-4.7107037303
21
0.2404897808
31
0.0000000000
11
-4.7210483082
21
0.2236409140
31
0.0000000000
11
-4.7329721199
21
0.2079460823
31
0.0000000000
11
-4.7463439816
21
0.1935468966
31
0.0000000000
11
-4.7610208421
21
0.1805697251
31
0.0000000000
11
-4.7768497265
21
0.1691248148
31
0.0000000000
11
-4.7936697351
21
0.1593057096
31
0.0000000000
11
-4.8113139714
21
0.1511889973
31
0.0000000000
11
-4.8296113143
21
0.1448343259
31
0.0000000000
11
-4.8483881462
21
0.1402845775
31
0.0000000000
11
-4.8674698540
21
0.1375662298
31
0.0000000000
11
-4.8831861167
21
0.1367122203
31
0.0000000000
0
SPLINE
5
2FB
100
AcDbEntity
8
0
100
AcDbSpline
62
7
6
CONTINUOUS
70
0
71
3
72
21
73
17
74
15
42
0.0000001000
43
0.0000001000
44
0.0000000001
12
-0.3924734050
22
0.0000000000
32
0.0000000000
13
0.0000000000
23
0.3924734050
33
0.0000000000
40
0.0000000000
40
0.0000000000
40
0.0000000000
40
0.0000000000
40
0.0712143132
40
0.1428215184
40
0.2143011328
40
0.2854739577
40
0.3570556854
40
0.4287372481
40
0.5000501903
40
0.5713580133
40
0.6430298220
40
0.7146063779
40
0.7857706105
40
0.8572245482
40
0.9288071775
40
1.0000000000
40
1.0000000000
40
1.0000000000
40
1.0000000000
10
-10.8499999985
20
0.1000000000
30
0.0000000000
10
-10.8593165732
20
0.1000000000
30
0.0000000000
10
-10.8780179092
20
0.1010463438
30
0.0000000000
10
-10.9057142838
20
0.1057456776
30
0.0000000000
10
-10.9327072711
20
0.1135195177
30
0.0000000000
10
-10.9586574212
20
0.1242605377
30
0.0000000000
10
-10.9832671535
20
0.1378505293
30
0.0000000000
10
-11.0062104186
20
0.1541285262
30
0.0000000000
10
-11.0271574836
20
0.1728509716
30
0.0000000000
10
-11.0458794448
20
0.1937967485
30
0.0000000000
10
-11.0621563965
20
0.2167375285
30
0.0000000000
10
-11.0757452913
20
0.2413443602
30
0.0000000000
10
-11.0864844025
20
0.2672897220
30
0.0000000000
10
-11.0942560827
20
0.2942752923
30
0.0000000000
10
-11.0989539492
20
0.3219623749
30
0.0000000000
10
-11.1000000000
20
0.3406576802
30
0.0000000000
10
-11.1000000000
20
0.3499714434
30
0.0000000000
11
-10.8499999985
21
0.1000000000
31
0.0000000000
11
-10.8779060422
21
0.1015619854
31
0.0000000000
11
-10.9056140270
21
0.1062628475
31
0.0000000000
11
-10.9325721115
21
0.1140268703
31
0.0000000000
11
-10.9583820332
21
0.1247098035
31
0.0000000000
11
-10.9829752461
21
0.1382907632
31
0.0000000000
11
-11.0059200304
21
0.1545698475
31
0.0000000000
11
-11.0267878909
21
0.1732215175
31
0.0000000000
11
-11.0454385617
21
0.1940875763
31
0.0000000000
11
-11.0617158768
21
0.2170289220
31
0.0000000000
11
-11.0752962115
21
0.2416201614
31
0.0000000000
11
-11.0859778914
21
0.2674269521
31
0.0000000000
11
-11.0937390829
21
0.2943753650
31
0.0000000000
11
-11.0984384243
21
0.3220738245
31
0.0000000000
11
-11.1000000000
21
0.3499714434
31
0.0000000000
0
SPLINE
5
2FC
100
AcDbEntity
8
0
100
AcDbSpline
62
7
6
CONTINUOUS
70
0
71
3
72
10
73
6
74
4
42
0.0000001000
43
0.0000001000
44
0.0000000001
12
-0.0627158223
22
0.0078302189
32
0.0000000000
13
-0.0632027428
23
-0.0000000000
33
0.0000000000
40
0.0000000000
40
0.0000000000
40
0.0000000000
40
0.0000000000
40
0.3371715920
40
0.6698236531
40
1.0000000000
40
1.0000000000
40
1.0000000000
40
1.0000000000
10
4.2492776800
20
1.2822903819
30
0.0000000000
10
4.2422290155
20
1.2831704244
30
0.0000000000
10
4.2281877849
20
1.2846263273
30
0.0000000000
10
4.2071549864
20
1.2859268398
30
0.0000000000
10
4.1931890356
20
1.2862139802
30
0.0000000000
10
4.1862330187
20
1.2862139802
30
0.0000000000
11
4.2492776800
21
1.2822903819
31
0.0000000000
11
4.2280811258
21
1.2844879740
31
0.0000000000
11
4.2070966652
21
1.2857852648
31
0.0000000000
11
4.1862330187
21
1.2862139802
31
0.0000000000
0
SPLINE
5
2FD
100
AcDbEntity
8
0
100
AcDbSpline
62
7
6
CONTINUOUS
70
0
71
3
72
21
73
17
74
15
42
0.0000001000
43
0.0000001000
44
0.0000000001
12
0.6541205404
22
-0.0816684977
32
0.0000000000
13
0.0816684977
23
-0.6541205404
33
0.0000000000
40
0.0000000000
40
0.0000000000
40
0.0000000000
40
0.0000000000
40
0.0726067848
40
0.1446774765
40
0.2163246717
40
0.2875828558
40
0.3585629515
40
0.4293282611
40
0.5000000000
40
0.5706717389
40
0.6414370485
40
0.7124171442
40
0.7836753283
40
0.8553225235
40
0.9273932152
40
1.0000000000
40
1.0000000000
40
1.0000000000
40
1.0000000000
10
4.2492776800
20
1.2822903819
30
0.0000000000
10
4.2651088765
20
1.2803138196
30
0.0000000000
10
4.2964866596
20
1.2748613505
30
0.0000000000
10
4.3423950792
20
1.2622772113
30
0.0000000000
10
4.3866301698
20
1.2455024799
30
0.0000000000
10
4.4288681533
20
1.2247355433
30
0.0000000000
10
4.4688021548
20
1.2001928280
30
0.0000000000
10
4.5061571384
20
1.1720938625
30
0.0000000000
10
4.5406698825
20
1.1406698825
30
0.0000000000
10
4.5720938625
20
1.1061571384
30
0.0000000000
10
4.6001928280
20
1.0688021548
30
0.0000000000
10
4.6247355433
20
1.0288681533
30
0.0000000000
10
4.6455024799
20
0.9866301698
30
0.0000000000
10
4.6622772113
20
0.9423950792
30
0.0000000000
10
4.6748613505
20
0.8964866596
30
0.0000000000
10
4.6803138196
20
0.8651088765
30
0.0000000000
10
4.6822903819
20
0.8492776800
30
0.0000000000
11
4.2492776800
21
1.2822903819
31
0.0000000000
11
4.2964330937
21
1.2740947014
31
0.0000000000
11
4.3422517511
21
1.2615348687
31
0.0000000000
11
4.3864124989
21
1.2447873598
31
0.0000000000
11
4.4285661175
21
1.2240613831
31
0.0000000000
11
4.4684292726
21
1.1995617047
31
0.0000000000
11
4.5057082070
21
1.1715196510
31
0.0000000000
11
4.5401553156
21
1.1401553156
31
0.0000000000
11
4.5715196510
21
1.1057082070
31
0.0000000000
11
4.5995617047
21
1.0684292726
31
0.0000000000
11
4.6240613831
21
1.0285661175
31
0.0000000000
11
4.6447873598
21
0.9864124989
31
0.0000000000
11
4.6615348687
21
0.9422517511
31
0.0000000000
11
4.6740947014
21
0.8964330937
31
0.0000000000
11
4.6822903819
21
0.8492776800
31
0.0000000000
0
SPLINE
5
2FE
100
AcDbEntity
8
0
100
AcDbSpline
62
7
6
CONTINUOUS
70
0
71
3
72
21
73
17
74
15
42
0.0000001000
43
0.0000001000
44
0.0000000001
12
-0.6541205404
22
-0.0816684977
32
0.0000000000
13
-0.0816684977
23
-0.6541205404
33
0.0000000000
40
0.0000000000
40
0.0000000000
40
0.0000000000
40
0.0000000000
40
0.0726067848
40
0.1446774765
40
0.2163246717
40
0.2875828558
40
0.3585629515
40
0.4293282611
40
0.5000000000
40
0.5706717389
40
0.6414370485
40
0.7124171442
40
0.7836753283
40
0.8553225235
40
0.9273932152
40
1.0000000000
40
1.0000000000
40
1.0000000000
40
1.0000000000
10
-4.2492776800
20
1.2822903819
30
0.0000000000
10
-4.2651088765
20
1.2803138196
30
0.0000000000
10
-4.2964866596
20
1.2748613505
30
0.0000000000
10
-4.3423950792
20
1.2622772113
30
0.0000000000
10
-4.3866301698
20
1.2455024799
30
0.0000000000
10
-4.4288681533
20
1.2247355433
30
0.0000000000
10
-4.4688021548
20
1.2001928280
30
0.0000000000
10
-4.5061571384
20
1.1720938625
30
0.0000000000
10
-4.5406698825
20
1.1406698825
30
0.0000000000
10
-4.5720938625
20
1.1061571384
30
0.0000000000
10
-4.6001928280
20
1.0688021548
30
0.0000000000
10
-4.6247355433
20
1.0288681533
30
0.0000000000
10
-4.6455024799
20
0.9866301698
30
0.0000000000
10
-4.6622772113
20
0.9423950792
30
0.0000000000
10
-4.6748613505
20
0.8964866596
30
0.0000000000
10
-4.6803138196
20
0.8651088765
30
0.0000000000
10
-4.6822903819
20
0.8492776800
30
0.0000000000
11
-4.2492776800
21
1.2822903819
31
0.0000000000
11
-4.2964330937
21
1.2740947014
31
0.0000000000
11
-4.3422517511
21
1.2615348687
31
0.0000000000
11
-4.3864124989
21
1.2447873598
31
0.0000000000
11
-4.4285661175
21
1.2240613831
31
0.0000000000
11
-4.4684292726
21
1.1995617047
31
0.0000000000
11
-4.5057082070
21
1.1715196510
31
0.0000000000
11
-4.5401553156
21
1.1401553156
31
0.0000000000
11
-4.5715196510
21
1.1057082070
31
0.0000000000
11
-4.5995617047
21
1.0684292726
31
0.0000000000
11
-4.6240613831
21
1.0285661175
31
0.0000000000
11
-4.6447873598
21
0.9864124989
31
0.0000000000
11
-4.6615348687
21
0.9422517511
31
0.0000000000
11
-4.6740947014
21
0.8964330937
31
0.0000000000
11
-4.6822903819
21
0.8492776800
31
0.0000000000
0
SPLINE
5
2FF
100
AcDbEntity
8
0
100
AcDbSpline
62
7
6
CONTINUOUS
70
0
71
3
72
10
73
6
74
4
42
0.0000001000
43
0.0000001000
44
0.0000000001
12
0.0627158223
22
0.0078302189
32
0.0000000000
13
0.0632027428
23
-0.0000000000
33
0.0000000000
40
0.0000000000
40
0.0000000000
40
0.0000000000
40
0.0000000000
40
0.3371715920
40
0.6698236531
40
1.0000000000
40
1.0000000000
40
1.0000000000
40
1.0000000000
10
-4.2492776800
20
1.2822903819
30
0.0000000000
10
-4.2422290155
20
1.2831704244
30
0.0000000000
10
-4.2281877849
20
1.2846263273
30
0.0000000000
10
-4.2071549864
20
1.2859268398
30
0.0000000000
10
-4.1931890356
20
1.2862139802
30
0.0000000000
10
-4.1862330187
20
1.2862139802
30
0.0000000000
11
-4.2492776800
21
1.2822903819
31
0.0000000000
11
-4.2280811258
21
1.2844879740
31
0.0000000000
11
-4.2070966652
21
1.2857852648
31
0.0000000000
11
-4.1862330187
21
1.2862139802
31
0.0000000000
0
SPLINE
5
300
100
AcDbEntity
8
0
100
AcDbSpline
62
7
6
CONTINUOUS
70
0
71
3
72
24
73
20
74
18
42
0.0000001000
43
0.0000001000
44
0.0000000001
12
0.0016782543
22
0.7830554684
32
0.0000000000
13
0.7830572668
23
0.0000000000
33
0.0000000000
40
0.0000000000
40
0.0000000000
40
0.0000000000
40
0.0000000000
40
0.0587062448
40
0.1174447231
40
0.1761710925
40
0.2349577819
40
0.2937131995
40
0.3525475408
40
0.4113338880
40
0.4702085367
40
0.5290230439
40
0.5879244001
40
0.6467608799
40
0.7056716357
40
0.7645208808
40
0.8234228981
40
0.8822751668
40
0.9411524566
40
1.0000000000
40
1.0000000000
40
1.0000000000
40
1.0000000000
10
-11.0815732928
20
21.6977042895
30
0.0000000000
10
-11.0815404515
20
21.7130277048
30
0.0000000000
10
-11.0800489047
20
21.7436989521
30
0.0000000000
10
-11.0735542056
20
21.7892856384
30
0.0000000000
10
-11.0628556339
20
21.8340981643
30
0.0000000000
10
-11.0480490725
20
21.8777295883
30
0.0000000000
10
-11.0292551101
20
21.9198285554
30
0.0000000000
10
-11.0066475132
20
21.9600084441
30
0.0000000000
10
-10.9804066432
20
21.9979529551
30
0.0000000000
10
-10.9507790615
20
22.0333097666
30
0.0000000000
10
-10.9179974309
20
22.0658059116
30
0.0000000000
10
-10.8823708466
20
22.0951396542
30
0.0000000000
10
-10.8441771994
20
22.1210867991
30
0.0000000000
10
-10.8037734890
20
22.1434093928
30
0.0000000000
10
-10.7614762469
20
22.1619366584
30
0.0000000000
10
-10.7176731618
20
22.1765029486
30
0.0000000000
10
-10.6727115756
20
22.1869956029
30
0.0000000000
10
-10.6269960244
20
22.1933244288
30
0.0000000000
10
-10.5962489827
20
22.1947348166
30
0.0000000000
10
-10.5808886505
20
22.1947348166
30
0.0000000000
11
-11.0815732928
21
21.6977042895
31
0.0000000000
11
-11.0793401650
21
21.7436203691
31
0.0000000000
11
-11.0728536793
21
21.7891562891
31
0.0000000000
11
-11.0621755000
21
21.8338854611
31
0.0000000000
11
-11.0473832756
21
21.8774774201
31
0.0000000000
11
-11.0286287303
21
21.9194902982
31
0.0000000000
11
-11.0060380907
21
21.9596421173
31
0.0000000000
11
-10.9798556248
21
21.9975040057
31
0.0000000000
11
-10.9502461419
21
22.0328408612
31
0.0000000000
11
-10.9175388568
21
22.0652647451
31
0.0000000000
11
-10.8819327810
21
22.0945828444
31
0.0000000000
11
-10.8438234530
21
22.1204737501
31
0.0000000000
11
-10.8034460382
21
22.1427826493
31
0.0000000000
11
-10.7612357677
21
22.1612724872
31
0.0000000000
11
-10.7174687364
21
22.1758271534
31
0.0000000000
11
-10.6725900147
21
22.1863009115
31
0.0000000000
11
-10.6269212252
21
22.1926228721
31
0.0000000000
11
-10.5808886505
21
22.1947348166
31
0.0000000000
0
SPLINE
5
301
100
AcDbEntity
8
0
100
AcDbSpline
62
7
6
CONTINUOUS
70
0
71
3
72
24
73
20
74
18
42
0.0000001000
43
0.0000001000
44
0.0000000001
12
0.7830572668
22
0.0000000000
32
0.0000000000
13
0.0016782543
23
-0.7830554684
33
0.0000000000
40
0.0000000000
40
0.0000000000
40
0.0000000000
40
0.0000000000
40
0.0588475434
40
0.1177248332
40
0.1765771019
40
0.2354791192
40
0.2943283643
40
0.3532391201
40
0.4120755999
40
0.4709769561
40
0.5297914633
40
0.5886661120
40
0.6474524592
40
0.7062868005
40
0.7650422181
40
0.8238289075
40
0.8825552769
40
0.9412937552
40
1.0000000000
40
1.0000000000
40
1.0000000000
40
1.0000000000
10
10.5808886505
20
22.1947348166
30
0.0000000000
10
10.5962489827
20
22.1947348166
30
0.0000000000
10
10.6269960244
20
22.1933244288
30
0.0000000000
10
10.6727115756
20
22.1869956029
30
0.0000000000
10
10.7176731618
20
22.1765029486
30
0.0000000000
10
10.7614762469
20
22.1619366584
30
0.0000000000
10
10.8037734890
20
22.1434093928
30
0.0000000000
10
10.8441771994
20
22.1210867991
30
0.0000000000
10
10.8823708466
20
22.0951396542
30
0.0000000000
10
10.9179974309
20
22.0658059116
30
0.0000000000
10
10.9507790615
20
22.0333097666
30
0.0000000000
10
10.9804066432
20
21.9979529551
30
0.0000000000
10
11.0066475132
20
21.9600084441
30
0.0000000000
10
11.0292551101
20
21.9198285554
30
0.0000000000
10
11.0480490725
20
21.8777295883
30
0.0000000000
10
11.0628556339
20
21.8340981643
30
0.0000000000
10
11.0735542056
20
21.7892856384
30
0.0000000000
10
11.0800489047
20
21.7436989521
30
0.0000000000
10
11.0815404515
20
21.7130277048
30
0.0000000000
10
11.0815732928
20
21.6977042895
30
0.0000000000
11
10.5808886505
21
22.1947348166
31
0.0000000000
11
10.6269212252
21
22.1926228721
31
0.0000000000
11
10.6725900147
21
22.1863009115
31
0.0000000000
11
10.7174687364
21
22.1758271534
31
0.0000000000
11
10.7612357677
21
22.1612724872
31
0.0000000000
11
10.8034460382
21
22.1427826493
31
0.0000000000
11
10.8438234530
21
22.1204737501
31
0.0000000000
11
10.8819327810
21
22.0945828444
31
0.0000000000
11
10.9175388568
21
22.0652647451
31
0.0000000000
11
10.9502461419
21
22.0328408612
31
0.0000000000
11
10.9798556248
21
21.9975040057
31
0.0000000000
11
11.0060380907
21
21.9596421173
31
0.0000000000
11
11.0286287303
21
21.9194902982
31
0.0000000000
11
11.0473832756
21
21.8774774201
31
0.0000000000
11
11.0621755000
21
21.8338854611
31
0.0000000000
11
11.0728536793
21
21.7891562891
31
0.0000000000
11
11.0793401650
21
21.7436203691
31
0.0000000000
11
11.0815732928
21
21.6977042895
31
0.0000000000
0
SPLINE
5
302
100
AcDbEntity
8
0
100
AcDbSpline
62
7
6
CONTINUOUS
70
0
71
3
72
10
73
6
74
4
42
0.0000001000
43
0.0000001000
44
0.0000000001
12
0.0078302189
22
-0.0627158223
32
0.0000000000
13
-0.0000000000
23
-0.0632027428
33
0.0000000000
40
0.0000000000
40
0.0000000000
40
0.0000000000
40
0.0000000000
40
0.3371715920
40
0.6698236531
40
1.0000000000
40
1.0000000000
40
1.0000000000
40
1.0000000000
10
4.6822903819
20
0.8492776800
30
0.0000000000
10
4.6831704244
20
0.8422290155
30
0.0000000000
10
4.6846263273
20
0.8281877849
30
0.0000000000
10
4.6859268398
20
0.8071549864
30
0.0000000000
10
4.6862139802
20
0.7931890356
30
0.0000000000
10
4.6862139802
20
0.7862330187
30
0.0000000000
11
4.6822903819
21
0.8492776800
31
0.0000000000
11
4.6844879740
21
0.8280811258
31
0.0000000000
11
4.6857852648
21
0.8070966652
31
0.0000000000
11
4.6862139802
21
0.7862330187
31
0.0000000000
0
SPLINE
5
303
100
AcDbEntity
8
0
100
AcDbSpline
62
7
6
CONTINUOUS
70
0
71
3
72
10
73
6
74
4
42
0.0000001000
43
0.0000001000
44
0.0000000001
12
-0.0078302189
22
-0.0627158223
32
0.0000000000
13
0.0000000000
23
-0.0632027428
33
0.0000000000
40
0.0000000000
40
0.0000000000
40
0.0000000000
40
0.0000000000
40
0.3371715920
40
0.6698236531
40
1.0000000000
40
1.0000000000
40
1.0000000000
40
1.0000000000
10
-4.6822903819
20
0.8492776800
30
0.0000000000
10
-4.6831704244
20
0.8422290155
30
0.0000000000
10
-4.6846263273
20
0.8281877849
30
0.0000000000
10
-4.6859268398
20
0.8071549864
30
0.0000000000
10
-4.6862139802
20
0.7931890356
30
0.0000000000
10
-4.6862139802
20
0.7862330187
30
0.0000000000
11
-4.6822903819
21
0.8492776800
31
0.0000000000
11
-4.6844879740
21
0.8280811258
31
0.0000000000
11
-4.6857852648
21
0.8070966652
31
0.0000000000
11
-4.6862139802
21
0.7862330187
31
0.0000000000
0
SPLINE
5
304
100
AcDbEntity
8
0
100
AcDbSpline
62
7
6
CONTINUOUS
70
0
71
3
72
10
73
6
74
4
42
0.0000001000
43
0.0000001000
44
0.0000000001
12
-0.0000000678
22
0.0008878840
32
0.0000000000
13
0.0000000000
23
0.0008878840
33
0.0000000000
40
0.0000000000
40
0.0000000000
40
0.0000000000
40
0.0000000000
40
0.3333222599
40
0.6666549596
40
1.0000000000
40
1.0000000000
40
1.0000000000
40
1.0000000000
10
4.6862140141
20
0.3362063987
30
0.0000000000
10
4.6862140066
20
0.3363050492
30
0.0000000000
10
4.6862139940
20
0.3365023533
30
0.0000000000
10
4.6862139828
20
0.3367983146
30
0.0000000000
10
4.6862139802
20
0.3369956255
30
0.0000000000
10
4.6862139802
20
0.3370942827
30
0.0000000000
11
4.6862140141
21
0.3362063987
31
0.0000000000
11
4.6862139953
21
0.3365023502
31
0.0000000000
11
4.6862139840
21
0.3367983110
31
0.0000000000
11
4.6862139802
21
0.3370942827
31
0.0000000000
0
SPLINE
5
305
100
AcDbEntity
8
0
100
AcDbSpline
62
7
6
CONTINUOUS
70
0
71
3
72
10
73
6
74
4
42
0.0000001000
43
0.0000001000
44
0.0000000001
12
0.0000000678
22
0.0008878840
32
0.0000000000
13
0.0000000000
23
0.0008878840
33
0.0000000000
40
0.0000000000
40
0.0000000000
40
0.0000000000
40
0.0000000000
40
0.3333222606
40
0.6666549610
40
1.0000000000
40
1.0000000000
40
1.0000000000
40
1.0000000000
10
-4.6862140141
20
0.3362063987
30
0.0000000000
10
-4.6862140066
20
0.3363050492
30
0.0000000000
10
-4.6862139940
20
0.3365023533
30
0.0000000000
10
-4.6862139828
20
0.3367983146
30
0.0000000000
10
-4.6862139802
20
0.3369956255
30
0.0000000000
10
-4.6862139802
20
0.3370942827
30
0.0000000000
11
-4.6862140141
21
0.3362063987
31
0.0000000000
11
-4.6862139953
21
0.3365023502
31
0.0000000000
11
-4.6862139840
21
0.3367983110
31
0.0000000000
11
-4.6862139802
21
0.3370942827
31
0.0000000000
0
SPLINE
5
306
100
AcDbEntity
8
0
100
AcDbSpline
62
9
6
CONTINUOUS
70
0
71
3
72
20
73
16
74
14
42
0.0000001000
43
0.0000001000
44
0.0000000001
12
-0.1967271167
22
0.0359965190
32
0.0000000000
13
-0.1999932694
23
0.0000027867
33
0.0000000000
40
0.0000000000
40
0.0000000000
40
0.0000000000
40
0.0000000000
40
0.0082587083
40
0.0308177289
40
0.0673528524
40
0.1173373942
40
0.1800505995
40
0.2545881218
40
0.3398750839
40
0.4346815861
40
0.5376404450
40
0.6472669113
40
0.7619800817
40
0.8801256973
40
1.0000000000
40
1.0000000000
40
1.0000000000
40
1.0000000000
10
-4.6980074440
20
0.7980264825
30
0.0000000000
10
-4.6985490146
20
0.7981255774
30
0.0000000000
10
-4.7006231642
20
0.7979812022
30
0.0000000000
10
-4.7050950132
20
0.7981698262
30
0.0000000000
10
-4.7123765129
20
0.7981181972
30
0.0000000000
10
-4.7223207378
20
0.7981884111
30
0.0000000000
10
-4.7348042281
20
0.7982064907
30
0.0000000000
10
-4.7496389900
20
0.7982408874
30
0.0000000000
10
-4.7666139797
20
0.7982660387
30
0.0000000000
10
-4.7854834279
20
0.7982899579
30
0.0000000000
10
-4.8059755349
20
0.7983095476
30
0.0000000000
10
-4.8277946897
20
0.7983253441
30
0.0000000000
10
-4.8506262702
20
0.7983368539
30
0.0000000000
10
-4.8741410167
20
0.7983439761
30
0.0000000000
10
-4.8900084774
20
0.7983457095
30
0.0000000000
10
-4.8979998286
20
0.7983458208
30
0.0000000000
11
-4.6980074440
21
0.7980264825
31
0.0000000000
11
-4.6996586864
21
0.7980647631
31
0.0000000000
11
-4.7041701809
21
0.7981024917
31
0.0000000000
11
-4.7114768679
21
0.7981391242
31
0.0000000000
11
-4.7214733785
21
0.7981741322
31
0.0000000000
11
-4.7340155544
21
0.7982070111
31
0.0000000000
11
-4.7489225265
21
0.7982372865
31
0.0000000000
11
-4.7659793231
21
0.7982645220
31
0.0000000000
11
-4.7849399705
21
0.7982883248
31
0.0000000000
11
-4.8055310396
21
0.7983083515
31
0.0000000000
11
-4.8274555892
21
0.7983243135
31
0.0000000000
11
-4.8503974482
21
0.7983359804
31
0.0000000000
11
-4.8740257750
21
0.7983431842
31
0.0000000000
11
-4.8979998286
21
0.7983458208
31
0.0000000000
0
SPLINE
5
307
100
AcDbEntity
8
0
100
AcDbSpline
62
9
6
CONTINUOUS
70
0
71
3
72
21
73
17
74
15
42
0.0000001000
43
0.0000001000
44
0.0000000001
12
0.0000597609
22
-0.3924368229
32
0.0000000000
13
0.3924368229
23
-0.0000597746
33
0.0000000000
40
0.0000000000
40
0.0000000000
40
0.0000000000
40
0.0000000000
40
0.0714297709
40
0.1428605252
40
0.2142919796
40
0.2857238157
40
0.3571556959
40
0.4285872806
40
0.5000182445
40
0.5714482939
40
0.6428771806
40
0.7143047146
40
0.7857307738
40
0.8571553099
40
0.9285783510
40
1.0000000000
40
1.0000000000
40
1.0000000000
40
1.0000000000
10
-11.0090840780
20
0.3954259424
30
0.0000000000
10
-11.0090826551
20
0.3860820516
30
0.0000000000
10
-11.0080299812
20
0.3673773543
30
0.0000000000
10
-11.0033214430
20
0.3396867952
30
0.0000000000
10
-10.9955425654
20
0.3126934136
30
0.0000000000
10
-10.9847911548
20
0.2867412153
30
0.0000000000
10
-10.9712023889
20
0.2621552585
30
0.0000000000
10
-10.9549471182
20
0.2392449935
30
0.0000000000
10
-10.9362297204
20
0.2182983824
30
0.0000000000
10
-10.9152855210
20
0.1995788121
30
0.0000000000
10
-10.8923778733
20
0.1833216403
30
0.0000000000
10
-10.8677947050
20
0.1697312740
30
0.0000000000
10
-10.8418454318
20
0.1589785895
30
0.0000000000
10
-10.8148550770
20
0.1511987860
30
0.0000000000
10
-10.7871676141
20
0.1464896855
30
0.0000000000
10
-10.7684649825
20
0.1454368847
30
0.0000000000
10
-10.7591221542
20
0.1454354616
30
0.0000000000
11
-11.0090840780
21
0.3954259424
31
0.0000000000
11
-11.0075084121
21
0.3674385890
31
0.0000000000
11
-11.0028097495
21
0.3398031249
31
0.0000000000
11
-10.9950471671
21
0.3128670147
31
0.0000000000
11
-10.9843182653
21
0.2869689303
31
0.0000000000
11
-10.9707579401
21
0.2624344920
31
0.0000000000
11
-10.9545366876
21
0.2395721749
31
0.0000000000
11
-10.9358584601
21
0.2186694301
31
0.0000000000
11
-10.9149581018
21
0.1999890707
31
0.0000000000
11
-10.8920983961
21
0.1837659677
31
0.0000000000
11
-10.8675667614
21
0.1702040962
31
0.0000000000
11
-10.8416716376
21
0.1594739714
31
0.0000000000
11
-10.8147386078
21
0.1517105047
31
0.0000000000
11
-10.7871063051
21
0.1470113069
31
0.0000000000
11
-10.7591221542
21
0.1454354616
31
0.0000000000
0
SPLINE
5
308
100
AcDbEntity
8
0
100
AcDbSpline
62
9
6
CONTINUOUS
70
0
71
3
72
20
73
16
74
14
42
0.0000001000
43
0.0000001000
44
0.0000000001
12
0.3139478230
22
0.0000261730
32
0.0000000000
13
0.0000262876
23
0.3139478230
33
0.0000000000
40
0.0000000000
40
0.0000000000
40
0.0000000000
40
0.0000000000
40
0.0769213091
40
0.1538433949
40
0.2307662024
40
0.3076896313
40
0.3846135422
40
0.4615377652
40
0.5384621092
40
0.6153863714
40
0.6923103489
40
0.7692338507
40
0.8461567081
40
0.9230787874
40
1.0000000000
40
1.0000000000
40
1.0000000000
40
1.0000000000
10
-4.8975714728
20
0.1475790882
30
0.0000000000
10
-4.8895217137
20
0.1475797593
30
0.0000000000
10
-4.8734052601
20
0.1485555026
30
0.0000000000
10
-4.8495966498
20
0.1529209248
30
0.0000000000
10
-4.8264839138
20
0.1601245045
30
0.0000000000
10
-4.8044086659
20
0.1700612026
30
0.0000000000
10
-4.7836915410
20
0.1825861299
30
0.0000000000
10
-4.7646349381
20
0.1975166575
30
0.0000000000
10
-4.7475166244
20
0.2146350899
30
0.0000000000
10
-4.7325862180
20
0.2336918012
30
0.0000000000
10
-4.7200614067
20
0.2544090172
30
0.0000000000
10
-4.7101248103
20
0.2764843313
30
0.0000000000
10
-4.7029213086
20
0.2995971028
30
0.0000000000
10
-4.6985559332
20
0.3234057144
30
0.0000000000
10
-4.6975801948
20
0.3395221563
30
0.0000000000
10
-4.6975795207
20
0.3475719053
30
0.0000000000
11
-4.8975714728
21
0.1475790882
31
0.0000000000
11
-4.8734663716
21
0.1490391239
31
0.0000000000
11
-4.8497127382
21
0.1533939243
31
0.0000000000
11
-4.8266569192
21
0.1605799901
31
0.0000000000
11
-4.8046350865
21
0.1704925395
31
0.0000000000
11
-4.7839683349
21
0.1829870359
31
0.0000000000
11
-4.7649580007
21
0.1978812961
31
0.0000000000
11
-4.7478812674
21
0.2149581463
31
0.0000000000
11
-4.7329871256
21
0.2339685889
31
0.0000000000
11
-4.7204927416
21
0.2546354329
31
0.0000000000
11
-4.7105802907
21
0.2766573350
31
0.0000000000
11
-4.7033943009
21
0.2997131941
31
0.0000000000
11
-4.6990395464
21
0.3234668339
31
0.0000000000
11
-4.6975795207
21
0.3475719053
31
0.0000000000
0
SPLINE
5
309
100
AcDbEntity
8
0
100
AcDbSpline
62
9
6
CONTINUOUS
70
0
71
3
72
21
73
17
74
15
42
0.0000001000
43
0.0000001000
44
0.0000000001
12
-0.0000003718
22
-0.2501907000
32
0.0000000000
13
0.0491421243
23
-0.2453170153
33
0.0000000000
40
0.0000000000
40
0.0000000000
40
0.0000000000
40
0.0000000000
40
0.1113213989
40
0.2212669153
40
0.3284677329
40
0.4315894173
40
0.5293481218
40
0.6205269182
40
0.7039906809
40
0.7787003914
40
0.8437259963
40
0.8982579868
40
0.9416175499
40
0.9732649425
40
0.9928064216
40
1.0000000000
40
1.0000000000
40
1.0000000000
40
1.0000000000
10
-4.8980040083
20
0.3977684532
30
0.0000000000
10
-4.8980040221
20
0.3884845936
30
0.0000000000
10
-4.8980022541
20
0.3700316188
30
0.0000000000
10
-4.8979942648
20
0.3426384290
30
0.0000000000
10
-4.8979810299
20
0.3159290727
30
0.0000000000
10
-4.8979627495
20
0.2902360594
30
0.0000000000
10
-4.8979395729
20
0.2658792464
30
0.0000000000
10
-4.8979121091
20
0.2431618188
30
0.0000000000
10
-4.8978797287
20
0.2223667119
30
0.0000000000
10
-4.8978460838
20
0.2037523958
30
0.0000000000
10
-4.8978017839
20
0.1875518709
30
0.0000000000
10
-4.8977766128
20
0.1739630825
30
0.0000000000
10
-4.8976911128
20
0.1631654779
30
0.0000000000
10
-4.8977467635
20
0.1552678240
30
0.0000000000
10
-4.8975248403
20
0.1504222929
30
0.0000000000
10
-4.8976893129
20
0.1481673239
30
0.0000000000
10
-4.8975714770
20
0.1475790882
30
0.0000000000
11
-4.8980040083
21
0.3977684532
31
0.0000000000
11
-4.8980013284
21
0.3699168746
31
0.0000000000
11
-4.8979932516
21
0.3424095301
31
0.0000000000
11
-4.8979798772
21
0.3155888858
31
0.0000000000
11
-4.8979613715
21
0.2897888060
31
0.0000000000
11
-4.8979379650
21
0.2653304985
31
0.0000000000
11
-4.8979099490
21
0.2425184288
31
0.0000000000
11
-4.8978776723
21
0.2216365966
31
0.0000000000
11
-4.8978415365
21
0.2029449567
31
0.0000000000
11
-4.8978019916
21
0.1866762032
31
0.0000000000
11
-4.8977595297
21
0.1730328724
31
0.0000000000
11
-4.8977146792
21
0.1621848056
31
0.0000000000
11
-4.8976679987
21
0.1542670599
31
0.0000000000
11
-4.8976200689
21
0.1493781985
31
0.0000000000
11
-4.8975714770
21
0.1475790882
31
0.0000000000
0
SPLINE
5
30A
100
AcDbEntity
8
0
100
AcDbSpline
62
9
6
CONTINUOUS
70
0
71
3
72
21
73
17
74
15
42
0.0000001000
43
0.0000001000
44
0.0000000001
12
0.3924368229
22
0.0000597746
32
0.0000000000
13
0.0000597609
23
0.3924368229
33
0.0000000000
40
0.0000000000
40
0.0000000000
40
0.0000000000
40
0.0000000000
40
0.0714216495
40
0.1428446909
40
0.2142692274
40
0.2856952868
40
0.3571228210
40
0.4285517077
40
0.4999817571
40
0.5714127210
40
0.6428443055
40
0.7142761856
40
0.7857080214
40
0.8571394755
40
0.9285702295
40
1.0000000000
40
1.0000000000
40
1.0000000000
40
1.0000000000
10
10.7591221542
20
0.1454354616
30
0.0000000000
10
10.7684649826
20
0.1454368847
30
0.0000000000
10
10.7871676143
20
0.1464896855
30
0.0000000000
10
10.8148550774
20
0.1511987861
30
0.0000000000
10
10.8418454323
20
0.1589785897
30
0.0000000000
10
10.8677947055
20
0.1697312742
30
0.0000000000
10
10.8923778738
20
0.1833216406
30
0.0000000000
10
10.9152855215
20
0.1995788125
30
0.0000000000
10
10.9362297209
20
0.2182983828
30
0.0000000000
10
10.9549471186
20
0.2392449940
30
0.0000000000
10
10.9712023892
20
0.2621552590
30
0.0000000000
10
10.9847911550
20
0.2867412157
30
0.0000000000
10
10.9955425656
20
0.3126934140
30
0.0000000000
10
11.0033214430
20
0.3396867955
30
0.0000000000
10
11.0080299812
20
0.3673773544
30
0.0000000000
10
11.0090826551
20
0.3860820517
30
0.0000000000
10
11.0090840780
20
0.3954259424
30
0.0000000000
11
10.7591221542
21
0.1454354616
31
0.0000000000
11
10.7871063053
21
0.1470113069
31
0.0000000000
11
10.8147386082
21
0.1517105048
31
0.0000000000
11
10.8416716380
21
0.1594739716
31
0.0000000000
11
10.8675667619
21
0.1702040964
31
0.0000000000
11
10.8920983966
21
0.1837659680
31
0.0000000000
11
10.9149581023
21
0.1999890712
31
0.0000000000
11
10.9358584605
21
0.2186694305
31
0.0000000000
11
10.9545366880
21
0.2395721754
31
0.0000000000
11
10.9707579404
21
0.2624344925
31
0.0000000000
11
10.9843182655
21
0.2869689308
31
0.0000000000
11
10.9950471673
21
0.3128670151
31
0.0000000000
11
11.0028097495
21
0.3398031251
31
0.0000000000
11
11.0075084121
21
0.3674385891
31
0.0000000000
11
11.0090840780
21
0.3954259424
31
0.0000000000
0
SPLINE
5
30B
100
AcDbEntity
8
0
100
AcDbSpline
62
9
6
CONTINUOUS
70
0
71
3
72
22
73
18
74
16
42
0.0000001000
43
0.0000001000
44
0.0000000001
12
0.0490278991
22
0.2453398875
32
0.0000000000
13
-0.0000003023
23
0.2501907179
33
0.0000000000
40
0.0000000000
40
0.0000000000
40
0.0000000000
40
0.0000000000
40
0.0063281820
40
0.0234232381
40
0.0511013195
40
0.0890622708
40
0.1368943666
40
0.1940791664
40
0.2599961904
40
0.3339306270
40
0.4150805206
40
0.5025658989
40
0.5954374363
40
0.6926883285
40
0.7932638638
40
0.8960722356
40
1.0000000000
40
1.0000000000
40
1.0000000000
40
1.0000000000
10
4.8975714728
20
0.1475790882
30
0.0000000000
10
4.8976748920
20
0.1480966067
30
0.0000000000
10
4.8975368431
20
0.1500719857
30
0.0000000000
10
4.8977296386
20
0.1543134366
30
0.0000000000
10
4.8976859518
20
0.1612240815
30
0.0000000000
10
4.8977628408
20
0.1706824144
30
0.0000000000
10
4.8977883231
20
0.1826080514
30
0.0000000000
10
4.8978303237
20
0.1968627362
30
0.0000000000
10
4.8978633028
20
0.2132951231
30
0.0000000000
10
4.8978953428
20
0.2317258593
30
0.0000000000
10
4.8979232829
20
0.2519554237
30
0.0000000000
10
4.8979476630
20
0.2737642630
30
0.0000000000
10
4.8979679387
20
0.2969158884
30
0.0000000000
10
4.8979839552
20
0.3211591936
30
0.0000000000
10
4.8979955121
20
0.3462312033
30
0.0000000000
10
4.8980024848
20
0.3718600451
30
0.0000000000
10
4.8980040188
20
0.3891011992
30
0.0000000000
10
4.8980040083
20
0.3977684532
30
0.0000000000
11
4.8975714728
21
0.1475790882
31
0.0000000000
11
4.8976168260
21
0.1491616909
31
0.0000000000
11
4.8976616386
21
0.1534384805
31
0.0000000000
11
4.8977054527
21
0.1603631409
31
0.0000000000
11
4.8977477641
21
0.1698605244
31
0.0000000000
11
4.8977881265
21
0.1818276027
31
0.0000000000
11
4.8978260971
21
0.1961346584
31
0.0000000000
11
4.8978612649
21
0.2126264485
31
0.0000000000
11
4.8978932466
21
0.2311241306
31
0.0000000000
11
4.8979216958
21
0.2514270608
31
0.0000000000
11
4.8979463039
21
0.2733150765
31
0.0000000000
11
4.8979668049
21
0.2965506641
31
0.0000000000
11
4.8979829758
21
0.3208819293
31
0.0000000000
11
4.8979946428
21
0.3460449920
31
0.0000000000
11
4.8980016788
21
0.3717666913
31
0.0000000000
11
4.8980040083
21
0.3977684532
31
0.0000000000
0
SPLINE
5
30C
100
AcDbEntity
8
0
100
AcDbSpline
62
9
6
CONTINUOUS
70
0
71
3
72
25
73
21
74
19
42
0.0000001000
43
0.0000001000
44
0.0000000001
12
0.0000041312
22
0.7851276568
32
0.0000000000
13
-0.7851276565
23
-0.0000195160
33
0.0000000000
40
0.0000000000
40
0.0000000000
40
0.0000000000
40
0.0000000000
40
0.0550877623
40
0.1105533662
40
0.1662414835
40
0.2219960428
40
0.2776734014
40
0.3332537418
40
0.3888247503
40
0.4444381125
40
0.5000741939
40
0.5557080590
40
0.6113148322
40
0.6668754869
40
0.7224429283
40
0.7781049406
40
0.8338402734
40
0.8895046340
40
0.9449425913
40
1.0000000000
40
1.0000000000
40
1.0000000000
40
1.0000000000
10
4.6980074440
20
0.7980264825
30
0.0000000000
10
4.6980075199
20
0.8124434577
30
0.0000000000
10
4.6967550467
20
0.8413918722
30
0.0000000000
10
4.6911044031
20
0.8845832132
30
0.0000000000
10
4.6816714141
20
0.9272917798
30
0.0000000000
10
4.6685243018
20
0.9690643645
30
0.0000000000
10
4.6517868832
20
1.0095018086
30
0.0000000000
10
4.6316063270
20
1.0482812171
30
0.0000000000
10
4.6081302487
20
1.0851391254
30
0.0000000000
10
4.5815198716
20
1.1198205910
30
0.0000000000
10
4.5519731227
20
1.1520595433
30
0.0000000000
10
4.5197263530
20
1.1815951956
30
0.0000000000
10
4.4850409315
20
1.2081921383
30
0.0000000000
10
4.4481830299
20
1.2316536178
30
0.0000000000
10
4.4094074220
20
1.2518194901
30
0.0000000000
10
4.3689776835
20
1.2685428900
30
0.0000000000
10
4.3272171835
20
1.2816773196
30
0.0000000000
10
4.2845253253
20
1.2910998595
30
0.0000000000
10
4.2413547140
20
1.2967433265
30
0.0000000000
10
4.2124214832
20
1.2979937714
30
0.0000000000
10
4.1980124517
20
1.2979934133
30
0.0000000000
11
4.6980074440
21
0.7980264825
31
0.0000000000
11
4.6961372764
21
0.8412369563
31
0.0000000000
11
4.6904885237
21
0.8844166191
31
0.0000000000
11
4.6810587165
21
0.9271099043
31
0.0000000000
11
4.6679171119
21
0.9688651482
31
0.0000000000
11
4.6511990313
21
1.0092558040
31
0.0000000000
11
4.6310546863
21
1.0479656341
31
0.0000000000
11
4.6076156696
21
1.0847653445
31
0.0000000000
11
4.5810359974
21
1.1194067938
31
0.0000000000
11
4.5515224384
21
1.1516095396
31
0.0000000000
11
4.5193119012
21
1.1811120186
31
0.0000000000
11
4.4846666213
21
1.2076781970
31
0.0000000000
11
4.4478671729
21
1.2311024901
31
0.0000000000
11
4.4091611388
21
1.2512321880
31
0.0000000000
11
4.3687777976
21
1.2679364327
31
0.0000000000
11
4.3270344133
21
1.2810654345
31
0.0000000000
11
4.2843579191
21
1.2904847781
31
0.0000000000
11
4.2411992052
21
1.2961263269
31
0.0000000000
11
4.1980124517
21
1.2979934133
31
0.0000000000
0
SPLINE
5
30D
100
AcDbEntity
8
0
100
AcDbSpline
62
9
6
CONTINUOUS
70
0
71
3
72
25
73
21
74
19
42
0.0000001000
43
0.0000001000
44
0.0000000001
12
-0.0000269693
22
1.0993876072
32
0.0000000000
13
-1.0993876074
23
0.0000114981
33
0.0000000000
40
0.0000000000
40
0.0000000000
40
0.0000000000
40
0.0000000000
40
0.0550758604
40
0.1105538750
40
0.1662542588
40
0.2220205597
40
0.2777087334
40
0.3332986164
40
0.3888776696
40
0.4444974233
40
0.5001381129
40
0.5557746744
40
0.6113820347
40
0.6669412083
40
0.7225052336
40
0.7781620482
40
0.8338905563
40
0.8895466924
40
0.9449753469
40
1.0000000000
40
1.0000000000
40
1.0000000000
40
1.0000000000
10
4.8979998286
20
0.7983458208
30
0.0000000000
10
4.8979993335
20
0.8185290603
30
0.0000000000
10
4.8962461605
20
0.8590646492
30
0.0000000000
10
4.8883367238
20
0.9195490940
30
0.0000000000
10
4.8751309250
20
0.9793667076
30
0.0000000000
10
4.8567249071
20
1.0378738683
30
0.0000000000
10
4.8332921894
20
1.0945114503
30
0.0000000000
10
4.8050387238
20
1.1488270835
30
0.0000000000
10
4.7721711995
20
1.2004516908
30
0.0000000000
10
4.7349153088
20
1.2490281416
30
0.0000000000
10
4.6935481558
20
1.2941837019
30
0.0000000000
10
4.6484007051
20
1.3355529798
30
0.0000000000
10
4.5998389855
20
1.3728061464
30
0.0000000000
10
4.5482357503
20
1.4056675553
30
0.0000000000
10
4.4939477489
20
1.4339128980
30
0.0000000000
10
4.4373440556
20
1.4573364301
30
0.0000000000
10
4.3788775107
20
1.4757330225
30
0.0000000000
10
4.3191073627
20
1.4889303311
30
0.0000000000
10
4.2586756726
20
1.4968336375
30
0.0000000000
10
4.2181769257
20
1.4985850211
30
0.0000000000
10
4.1980124517
20
1.4985852320
30
0.0000000000
11
4.8979998286
21
0.7983458208
31
0.0000000000
11
4.8953823150
21
0.8588389362
31
0.0000000000
11
4.8874744830
21
0.9193159646
31
0.0000000000
11
4.8742729950
21
0.9791123406
31
0.0000000000
11
4.8558746237
21
1.0375953847
31
0.0000000000
11
4.8324688469
21
1.0941675655
31
0.0000000000
11
4.8042659623
21
1.1483858240
31
0.0000000000
11
4.7714502087
21
1.1999289462
31
0.0000000000
11
4.7342371968
21
1.2484493442
31
0.0000000000
11
4.6929164061
21
1.2935541656
31
0.0000000000
11
4.6478195686
21
1.3348769523
31
0.0000000000
11
4.5993140164
21
1.3720869320
31
0.0000000000
11
4.5477926347
21
1.4048961376
31
0.0000000000
11
4.4936020847
21
1.4330906879
31
0.0000000000
11
4.4370634190
21
1.4564872916
31
0.0000000000
11
4.3786209380
21
1.4748761478
31
0.0000000000
11
4.3188724642
21
1.4880689636
31
0.0000000000
11
4.2584493371
21
1.4959704736
31
0.0000000000
11
4.1980124517
21
1.4985852320
31
0.0000000000
0
SPLINE
5
30E
100
AcDbEntity
8
0
100
AcDbSpline
62
9
6
CONTINUOUS
70
0
71
3
72
25
73
21
74
19
42
0.0000001000
43
0.0000001000
44
0.0000000001
12
-0.7851276566
22
0.0000194479
32
0.0000000000
13
0.0000041994
23
-0.7851276568
33
0.0000000000
40
0.0000000000
40
0.0000000000
40
0.0000000000
40
0.0000000000
40
0.0550627584
40
0.1105046254
40
0.1661708840
40
0.2219060105
40
0.2775668216
40
0.3331336532
40
0.3886945897
40
0.4443018057
40
0.4999358293
40
0.5555717511
40
0.6111846696
40
0.6667553942
40
0.7223363401
40
0.7780148970
40
0.8337696630
40
0.8894558842
40
0.9449175811
40
1.0000000000
40
1.0000000000
40
1.0000000000
40
1.0000000000
10
-4.1980124517
20
1.2979934133
30
0.0000000000
10
-4.2124228832
20
1.2979937702
30
0.0000000000
10
-4.2413585419
20
1.2967431004
30
0.0000000000
10
-4.2845319944
20
1.2910987569
30
0.0000000000
10
-4.3272251386
20
1.2816752150
30
0.0000000000
10
-4.3689855325
20
1.2685400213
30
0.0000000000
10
-4.4094145080
20
1.2518161667
30
0.0000000000
10
-4.4481894600
20
1.2316499043
30
0.0000000000
10
-4.4850470452
20
1.2081878707
30
0.0000000000
10
-4.5197322480
20
1.1815902608
30
0.0000000000
10
-4.5519786416
20
1.1520540261
30
0.0000000000
10
-4.5815248076
20
1.1198146980
30
0.0000000000
10
-4.6081345169
20
1.0851330143
30
0.0000000000
10
-4.6316100402
20
1.0482747912
30
0.0000000000
10
-4.6517902054
20
1.0094947289
30
0.0000000000
10
-4.6685271692
20
0.9690565236
30
0.0000000000
10
-4.6816735178
20
0.9272838329
30
0.0000000000
10
-4.6911055052
20
0.8845765510
30
0.0000000000
10
-4.6967552728
20
0.8413880484
30
0.0000000000
10
-4.6980075211
20
0.8124420593
30
0.0000000000
10
-4.6980074440
20
0.7980264825
30
0.0000000000
11
-4.1980124517
21
1.2979934133
31
0.0000000000
11
-4.2412033935
21
1.2961259639
31
0.0000000000
11
-4.2843650865
21
1.2904835217
31
0.0000000000
11
-4.3270428846
21
1.2810631722
31
0.0000000000
11
-4.3687858863
21
1.2679334938
31
0.0000000000
11
-4.4091680843
21
1.2512289526
31
0.0000000000
11
-4.4478733948
21
1.2310989010
31
0.0000000000
11
-4.4846726881
21
1.2076739522
31
0.0000000000
11
-4.5193178412
21
1.1811070372
31
0.0000000000
11
-4.5515280091
21
1.1516039705
31
0.0000000000
11
-4.5810409800
21
1.1194008559
31
0.0000000000
11
-4.6076199151
21
1.0847592802
31
0.0000000000
11
-4.6310582754
21
1.0479594158
31
0.0000000000
11
-4.6512022655
21
1.0092488651
31
0.0000000000
11
-4.6679200494
21
0.9688570684
31
0.0000000000
11
-4.6810609779
21
0.9271014415
31
0.0000000000
11
-4.6904897797
21
0.8844094589
31
0.0000000000
11
-4.6961376392
21
0.8412327729
31
0.0000000000
11
-4.6980074440
21
0.7980264825
31
0.0000000000
0
SPLINE
5
30F
100
AcDbEntity
8
0
100
AcDbSpline
62
9
6
CONTINUOUS
70
0
71
3
72
25
73
21
74
19
42
0.0000001000
43
0.0000001000
44
0.0000000001
12
-1.0993876074
22
-0.0000116657
32
0.0000000000
13
-0.0000268015
23
-1.0993876072
33
0.0000000000
40
0.0000000000
40
0.0000000000
40
0.0000000000
40
0.0000000000
40
0.0550286111
40
0.1104610873
40
0.1661190354
40
0.2218472576
40
0.2775027954
40
0.3330661309
40
0.3886254979
40
0.4442332082
40
0.4998698521
40
0.5555104580
40
0.6111298609
40
0.6667087189
40
0.7222992878
40
0.7779887359
40
0.8337553236
40
0.8894538968
40
0.9449280910
40
1.0000000000
40
1.0000000000
40
1.0000000000
40
1.0000000000
10
-4.1980124517
20
1.4985852320
30
0.0000000000
10
-4.2181783761
20
1.4985850180
30
0.0000000000
10
-4.2586799790
20
1.4968333917
30
0.0000000000
10
-4.3191150944
20
1.4889290567
30
0.0000000000
10
-4.3788869849
20
1.4757305157
30
0.0000000000
10
-4.4373533419
20
1.4573330238
30
0.0000000000
10
-4.4939559493
20
1.4339090398
30
0.0000000000
10
-4.5482430306
20
1.4056633422
30
0.0000000000
10
-4.5998458372
20
1.3728013591
30
0.0000000000
10
-4.6484072887
20
1.3355474641
30
0.0000000000
10
-4.6935543190
20
1.2941775378
30
0.0000000000
10
-4.7349208228
20
1.2490215581
30
0.0000000000
10
-4.7721759843
20
1.2004448407
30
0.0000000000
10
-4.8050429334
20
1.1488198070
30
0.0000000000
10
-4.8332960433
20
1.0945032567
30
0.0000000000
10
-4.8567283092
20
1.0378645911
30
0.0000000000
10
-4.8751334287
20
0.9793572430
30
0.0000000000
10
-4.8883379965
20
0.9195413708
30
0.0000000000
10
-4.8962464059
20
0.8590603481
30
0.0000000000
10
-4.8979993366
20
0.8185276122
30
0.0000000000
10
-4.8979998286
20
0.7983458208
30
0.0000000000
11
-4.1980124517
21
1.4985852320
31
0.0000000000
11
-4.2584536763
21
1.4959700974
31
0.0000000000
11
-4.3188808958
21
1.4880674793
31
0.0000000000
11
-4.3786311352
21
1.4748734207
31
0.0000000000
11
-4.4370730429
21
1.4564837900
31
0.0000000000
11
-4.4936100932
21
1.4330869532
31
0.0000000000
11
-4.5477996298
21
1.4048920984
31
0.0000000000
11
-4.5993208076
21
1.3720821767
31
0.0000000000
11
-4.6478262145
21
1.3348713755
31
0.0000000000
11
-4.6929226045
21
1.2935479664
31
0.0000000000
11
-4.7342427718
21
1.2484426987
31
0.0000000000
11
-4.7714549619
21
1.1999221563
31
0.0000000000
11
-4.8042699985
21
1.1483788322
31
0.0000000000
11
-4.8324725773
21
1.0941595645
31
0.0000000000
11
-4.8558781208
21
1.0375857710
31
0.0000000000
11
-4.8742757189
21
0.9791021531
31
0.0000000000
11
-4.8874759654
21
0.9193075415
31
0.0000000000
11
-4.8953826906
21
0.8588346043
31
0.0000000000
11
-4.8979998286
21
0.7983458208
31
0.0000000000
0
SPLINE
5
310
100
AcDbEntity
8
0
100
AcDbSpline
62
9
6
CONTINUOUS
70
0
71
3
72
10
73
6
74
4
42
0.0000001000
43
0.0000001000
44
0.0000000001
12
-0.0001262690
22
9.1022317153
32
0.0000000000
13
-0.0030162464
23
9.1022312164
33
0.0000000000
40
0.0000000000
40
0.0000000000
40
0.0000000000
40
0.0000000000
40
0.3333526954
40
0.6666869347
40
1.0000000000
40
1.0000000000
40
1.0000000000
40
1.0000000000
10
-10.5091602573
20
0.3977684534
30
0.0000000000
10
-10.5091742880
20
1.4091862790
30
0.0000000000
10
-10.5093093731
20
3.4319659329
30
0.0000000000
10
-10.5098330725
20
6.4660431315
30
0.0000000000
10
-10.5103962666
20
8.4887024707
30
0.0000000000
10
-10.5107313847
20
9.5000000000
30
0.0000000000
11
-10.5091602573
21
0.3977684534
31
0.0000000000
11
-10.5093628944
21
3.4320219235
31
0.0000000000
11
-10.5098866048
21
6.4661073633
31
0.0000000000
11
-10.5107313847
21
9.5000000000
31
0.0000000000
0
SPLINE
5
311
100
AcDbEntity
8
0
100
AcDbSpline
62
9
6
CONTINUOUS
70
0
71
3
72
10
73
6
74
4
42
0.0000001000
43
0.0000001000
44
0.0000000001
12
-0.0001256779
22
9.0950742265
32
0.0000000000
13
-0.0030168915
23
9.0950737270
33
0.0000000000
40
0.0000000000
40
0.0000000000
40
0.0000000000
40
0.0000000000
40
0.3333523841
40
0.6666867789
40
1.0000000000
40
1.0000000000
40
1.0000000000
40
1.0000000000
10
-11.0090840780
20
0.3954259424
30
0.0000000000
10
-11.0090980430
20
1.4060475015
30
0.0000000000
10
-11.0092330424
20
3.4272360818
30
0.0000000000
10
-11.0097567505
20
6.4589274508
30
0.0000000000
10
-11.0103200423
20
8.4799972268
30
0.0000000000
10
-11.0106552323
20
9.4905000000
30
0.0000000000
11
-11.0090840780
21
0.3954259424
31
0.0000000000
11
-11.0092865864
21
3.4272906133
31
0.0000000000
11
-11.0098103057
21
6.4589916313
31
0.0000000000
11
-11.0106552323
21
9.4905000000
31
0.0000000000
0
SPLINE
5
312
100
AcDbEntity
8
0
100
AcDbSpline
62
9
6
CONTINUOUS
70
0
71
3
72
24
73
20
74
18
42
0.0000001000
43
0.0000001000
44
0.0000000001
12
0.4823495780
22
0.1314594124
32
0.0000000000
13
0.4999426892
23
0.0000035234
33
0.0000000000
40
0.0000000000
40
0.0000000000
40
0.0000000000
40
0.0000000000
40
0.0057809180
40
0.0198464118
40
0.0420872873
40
0.0723187966
40
0.1102891675
40
0.1556824090
40
0.2081194927
40
0.2671630525
40
0.3323201678
40
0.4030479660
40
0.4787560596
40
0.5588129529
40
0.6425498020
40
0.7292691319
40
0.8182477266
40
0.9087399380
40
1.0000000000
40
1.0000000000
40
1.0000000000
40
1.0000000000
10
-11.0090840780
20
0.3954259424
30
0.0000000000
10
-11.0081546035
20
0.3956792611
30
0.0000000000
10
-11.0047912969
20
0.3955731624
30
0.0000000000
10
-10.9978300775
20
0.3959843558
30
0.0000000000
10
-10.9867168574
20
0.3960635952
30
0.0000000000
10
-10.9716573059
20
0.3963113344
30
0.0000000000
10
-10.9527236780
20
0.3964852359
30
0.0000000000
10
-10.9300950572
20
0.3966771367
30
0.0000000000
10
-10.9039524941
20
0.3968504929
30
0.0000000000
10
-10.8745168528
20
0.3970152679
30
0.0000000000
10
-10.8420327956
20
0.3971660581
30
0.0000000000
10
-10.8067716130
20
0.3973026960
30
0.0000000000
10
-10.7690273291
20
0.3974235892
30
0.0000000000
10
-10.7291150669
20
0.3975277852
30
0.0000000000
10
-10.6873677614
20
0.3976143450
30
0.0000000000
10
-10.6441336408
20
0.3976825267
30
0.0000000000
10
-10.5997737291
20
0.3977317432
30
0.0000000000
10
-10.5546570981
20
0.3977615704
30
0.0000000000
10
-10.5243685243
20
0.3977683465
30
0.0000000000
10
-10.5091602573
20
0.3977684537
30
0.0000000000
11
-11.0090840780
21
0.3954259424
31
0.0000000000
11
-11.0062021055
21
0.3956429052
31
0.0000000000
11
-10.9991734470
21
0.3958577335
31
0.0000000000
11
-10.9880562850
21
0.3960686750
31
0.0000000000
11
-10.9729436569
21
0.3962739444
31
0.0000000000
11
-10.9539616791
21
0.3964718353
31
0.0000000000
11
-10.9312684457
21
0.3966606950
31
0.0000000000
11
-10.9050535151
21
0.3968389444
31
0.0000000000
11
-10.8755355866
21
0.3970050943
31
0.0000000000
11
-10.8429611209
21
0.3971577557
31
0.0000000000
11
-10.8076015441
21
0.3972956540
31
0.0000000000
11
-10.7697520328
21
0.3974176358
31
0.0000000000
11
-10.7297283121
21
0.3975226813
31
0.0000000000
11
-10.6878647774
21
0.3976099116
31
0.0000000000
11
-10.6445101369
21
0.3976785979
31
0.0000000000
11
-10.6000259666
21
0.3977281671
31
0.0000000000
11
-10.5547850570
21
0.3977582017
31
0.0000000000
11
-10.5091602573
21
0.3977684537
31
0.0000000000
0
SPLINE
5
313
100
AcDbEntity
8
0
100
AcDbSpline
62
9
6
CONTINUOUS
70
0
71
3
72
23
73
19
74
17
42
0.0000001000
43
0.0000001000
44
0.0000000001
12
0.3383277213
22
0.3684515610
32
0.0000000000
13
0.5002221230
23
0.0001658668
33
0.0000000000
40
0.0000000000
40
0.0000000000
40
0.0000000000
40
0.0000000000
40
0.0066564874
40
0.0225106005
40
0.0475272778
40
0.0814931198
40
0.1240964970
40
0.1749402368
40
0.2335478510
40
0.2993689012
40
0.3717845595
40
0.4501136209
40
0.5336190190
40
0.6215148257
40
0.7129736900
40
0.8071346535
40
0.9031112767
40
1.0000000000
40
1.0000000000
40
1.0000000000
40
1.0000000000
10
-11.0106552323
20
9.4905000000
30
0.0000000000
10
-11.0099045409
20
9.4913175311
30
0.0000000000
10
-11.0056552622
20
9.4914176359
30
0.0000000000
10
-10.9982274420
20
9.4926976155
30
0.0000000000
10
-10.9855345922
20
9.4932827060
30
0.0000000000
10
-10.9687185102
20
9.4942264867
30
0.0000000000
10
-10.9474504011
20
9.4949998819
30
0.0000000000
10
-10.9221219163
20
9.4957923246
30
0.0000000000
10
-10.8929014804
20
9.4965206031
30
0.0000000000
10
-10.8600878897
20
9.4972014315
30
0.0000000000
10
-10.8239823499
20
9.4978194555
30
0.0000000000
10
-10.7849272907
20
9.4983709060
30
0.0000000000
10
-10.7432897562
20
9.4988494756
30
0.0000000000
10
-10.6994620910
20
9.4992506691
30
0.0000000000
10
-10.6538569839
20
9.4995704886
30
0.0000000000
10
-10.6069039505
20
9.4998058400
30
0.0000000000
10
-10.5590451815
20
9.4999544359
30
0.0000000000
10
-10.5268866790
20
9.4999946431
30
0.0000000000
10
-10.5107313847
20
9.5000000000
30
0.0000000000
11
-11.0106552323
21
9.4905000000
31
0.0000000000
11
-11.0074554157
21
9.4914209914
31
0.0000000000
11
-10.9995774875
21
9.4923333089
31
0.0000000000
11
-10.9870956415
21
9.4932283605
31
0.0000000000
11
-10.9701274308
21
9.4940977165
31
0.0000000000
11
-10.9488326609
21
9.4949331896
31
0.0000000000
11
-10.9234118844
21
9.4957269111
31
0.0000000000
11
-10.8941045122
21
9.4964714060
31
0.0000000000
11
-10.8611865593
21
9.4971596626
31
0.0000000000
11
-10.8249680444
21
9.4977851990
31
0.0000000000
11
-10.7857900711
21
9.4983421239
31
0.0000000000
11
-10.7440216147
21
9.4988251922
31
0.0000000000
11
-10.7000560474
21
9.4992298545
31
0.0000000000
11
-10.6543074340
21
9.4995522996
31
0.0000000000
11
-10.6072066315
21
9.4997894908
31
0.0000000000
11
-10.5591972321
21
9.4999391942
31
0.0000000000
11
-10.5107313847
21
9.5000000000
31
0.0000000000
0
SPLINE
5
314
100
AcDbEntity
8
0
100
AcDbSpline
62
9
6
CONTINUOUS
70
0
71
3
72
14
73
10
74
8
42
0.0000001000
43
0.0000001000
44
0.0000000001
12
-0.0038629499
22
11.7107319604
32
0.0000000000
13
-0.0306549602
23
11.7106924750
33
0.0000000000
40
0.0000000000
40
0.0000000000
40
0.0000000000
40
0.0000000000
40
0.1434088633
40
0.2867169135
40
0.4298742344
40
0.5728309521
40
0.7155372777
40
0.8579434943
40
1.0000000000
40
1.0000000000
40
1.0000000000
40
1.0000000000
10
-10.5107313847
20
9.5000000000
30
0.0000000000
10
-10.5109160451
20
10.0598075864
30
0.0000000000
10
-10.5114665785
20
11.1790291760
30
0.0000000000
10
-10.5128364426
20
12.8570760482
30
0.0000000000
10
-10.5147496972
20
14.5333574041
30
0.0000000000
10
-10.5172056756
20
16.2072891708
30
0.0000000000
10
-10.5202035216
20
17.8782880572
30
0.0000000000
10
-10.5237421894
20
19.5457718288
30
0.0000000000
10
-10.5264646904
20
20.6561908070
30
0.0000000000
10
-10.5279162692
20
21.2107174911
30
0.0000000000
11
-10.5107313847
21
9.5000000000
31
0.0000000000
11
-10.5115576201
21
11.1794226474
31
0.0000000000
11
-10.5129278821
21
12.8576643428
31
0.0000000000
11
-10.5148416937
21
14.5341403548
31
0.0000000000
11
-10.5172983881
21
16.2082664463
31
0.0000000000
11
-10.5202971100
21
17.8794593742
31
0.0000000000
11
-10.5238368146
21
19.5471367411
31
0.0000000000
11
-10.5279162692
21
21.2107174911
31
0.0000000000
0
SPLINE
5
315
100
AcDbEntity
8
0
100
AcDbSpline
62
9
6
CONTINUOUS
70
0
71
3
72
14
73
10
74
8
42
0.0000001000
43
0.0000001000
44
0.0000000001
12
-0.0038629500
22
11.6456724996
32
0.0000000000
13
-0.0306549594
23
11.6456327936
33
0.0000000000
40
0.0000000000
40
0.0000000000
40
0.0000000000
40
0.0000000000
40
0.1434087580
40
0.2867168399
40
0.4298741931
40
0.5728309438
40
0.7155373031
40
0.8579435543
40
1.0000000000
40
1.0000000000
40
1.0000000000
40
1.0000000000
10
-11.0106552323
20
9.4905000000
30
0.0000000000
10
-11.0108398926
20
10.0471971429
30
0.0000000000
10
-11.0113904256
20
11.1602005638
30
0.0000000000
10
-11.0127602893
20
12.8289248111
30
0.0000000000
10
-11.0146735442
20
14.4958938818
30
0.0000000000
10
-11.0171295231
20
16.1605264165
30
0.0000000000
10
-11.0201273698
20
17.8222423634
30
0.0000000000
10
-11.0236660379
20
19.4804623510
30
0.0000000000
10
-11.0263885386
20
20.5847122153
30
0.0000000000
10
-11.0278401168
20
21.1361579495
30
0.0000000000
11
-11.0106552323
21
9.4905000000
31
0.0000000000
11
-11.0114814669
21
11.1605913162
31
0.0000000000
11
-11.0128517289
21
12.8295098343
31
0.0000000000
11
-11.0147655407
21
14.4966724788
31
0.0000000000
11
-11.0172222357
21
16.1614982581
31
0.0000000000
11
-11.0202209582
21
17.8234071680
31
0.0000000000
11
-11.0237606639
21
19.4818200450
31
0.0000000000
11
-11.0278401168
21
21.1361579495
31
0.0000000000
0
SPLINE
5
316
100
AcDbEntity
8
0
100
AcDbSpline
62
9
6
CONTINUOUS
70
0
71
3
72
23
73
19
74
17
42
0.0000001000
43
0.0000001000
44
0.0000000001
12
0.0591165911
22
0.5108996411
32
0.0000000000
13
0.5143067785
23
0.0013237128
33
0.0000000000
40
0.0000000000
40
0.0000000000
40
0.0000000000
40
0.0000000000
40
0.0153646563
40
0.0360541360
40
0.0638932360
40
0.0994447812
40
0.1427618271
40
0.1936475247
40
0.2517515074
40
0.3166124948
40
0.3876810841
40
0.4643344769
40
0.5458877042
40
0.6316032928
40
0.7207002588
40
0.8123628439
40
0.9057491855
40
1.0000000000
40
1.0000000000
40
1.0000000000
40
1.0000000000
10
-11.0278401168
20
21.1361579495
30
0.0000000000
10
-11.0275373481
20
21.1387745486
30
0.0000000000
10
-11.0245397342
20
21.1445833392
30
0.0000000000
10
-11.0159729136
20
21.1515758098
30
0.0000000000
10
-11.0032394921
20
21.1584401776
30
0.0000000000
10
-10.9861639940
20
21.1650843365
30
0.0000000000
10
-10.9648544938
20
21.1715163842
30
0.0000000000
10
-10.9394619075
20
21.1776434755
30
0.0000000000
10
-10.9102135088
20
21.1834075103
30
0.0000000000
10
-10.8773750759
20
21.1887453189
30
0.0000000000
10
-10.8412520425
20
21.1936032543
30
0.0000000000
10
-10.8021820011
20
21.1979323585
30
0.0000000000
10
-10.7605314954
20
21.2016898990
30
0.0000000000
10
-10.7166918633
20
21.2048390261
30
0.0000000000
10
-10.6710754136
20
21.2073490799
30
0.0000000000
10
-10.6241113362
20
21.2091957236
30
0.0000000000
10
-10.5762417970
20
21.2103611119
30
0.0000000000
10
-10.5440742135
20
21.2106759006
30
0.0000000000
10
-10.5279162692
20
21.2107174876
30
0.0000000000
11
-11.0278401168
21
21.1361579495
31
0.0000000000
11
-11.0246489212
21
21.1433870995
31
0.0000000000
11
-11.0167783774
21
21.1505481490
31
0.0000000000
11
-11.0043026279
21
21.1575736392
31
0.0000000000
11
-10.9873391973
21
21.1643973880
31
0.0000000000
11
-10.9660478857
21
21.1709551141
31
0.0000000000
11
-10.9406292624
21
21.1771850421
31
0.0000000000
11
-10.9113227776
21
21.1830284843
31
0.0000000000
11
-10.8784045057
21
21.1884303941
31
0.0000000000
11
-10.8421845452
21
21.1933398841
31
0.0000000000
11
-10.8030040974
21
21.1977107057
31
0.0000000000
11
-10.7612322521
21
21.2015016846
31
0.0000000000
11
-10.7172625107
21
21.2046771088
31
0.0000000000
11
-10.6715090795
21
21.2072070651
31
0.0000000000
11
-10.6244029674
21
21.2090677205
31
0.0000000000
11
-10.5763879260
21
21.2102415472
31
0.0000000000
11
-10.5279162692
21
21.2107174876
31
0.0000000000
0
SPLINE
5
317
100
AcDbEntity
8
0
100
AcDbSpline
62
9
6
CONTINUOUS
70
0
71
3
72
24
73
20
74
18
42
0.0000001000
43
0.0000001000
44
0.0000000001
12
-0.0011180227
22
0.8496073353
32
0.0000000000
13
-0.1395303237
23
0.8380722898
33
0.0000000000
40
0.0000000000
40
0.0000000000
40
0.0000000000
40
0.0000000000
40
0.0930367319
40
0.1843324435
40
0.2732981693
40
0.3593559178
40
0.4419491486
40
0.5205425301
40
0.5946267879
40
0.6637218374
40
0.7273804317
40
0.7851898402
40
0.8367759437
40
0.8818045865
40
0.9199843201
40
0.9510683651
40
0.9748569697
40
0.9911988350
40
1.0000000000
40
1.0000000000
40
1.0000000000
40
1.0000000000
10
-10.5279162692
20
21.2107174911
30
0.0000000000
10
-10.5279509416
20
21.2370657211
30
0.0000000000
10
-10.5280382529
20
21.2892690974
30
0.0000000000
10
-10.5282248603
20
21.3666676562
30
0.0000000000
10
-10.5284649869
20
21.4420895919
30
0.0000000000
10
-10.5287569941
20
21.5150467602
30
0.0000000000
10
-10.5290989625
20
21.5850662032
30
0.0000000000
10
-10.5294885926
20
21.6516944184
30
0.0000000000
10
-10.5299232554
20
21.7144995511
30
0.0000000000
10
-10.5304000148
20
21.7730746742
30
0.0000000000
10
-10.5309154843
20
21.8270402141
30
0.0000000000
10
-10.5314663047
20
21.8760464981
30
0.0000000000
10
-10.5320474904
20
21.9197761257
30
0.0000000000
10
-10.5326573463
20
21.9579451250
30
0.0000000000
10
-10.5332819450
20
21.9903080980
30
0.0000000000
10
-10.5339386321
20
22.0166501132
30
0.0000000000
10
-10.5345535163
20
22.0368155788
30
0.0000000000
10
-10.5352540611
20
22.0506436640
30
0.0000000000
10
-10.5356801144
20
22.0577692718
30
0.0000000000
10
-10.5360894575
20
22.0602279426
30
0.0000000000
11
-10.5279162692
21
21.2107174911
31
0.0000000000
11
-10.5280488981
21
21.2897621382
31
0.0000000000
11
-10.5282365705
21
21.3673274846
31
0.0000000000
11
-10.5284780934
21
21.4429130973
31
0.0000000000
11
-10.5287718828
21
21.5160278647
31
0.0000000000
11
-10.5291160474
21
21.5861988963
31
0.0000000000
11
-10.5295083533
21
21.6529713150
31
0.0000000000
11
-10.5299462605
21
21.7159123751
31
0.0000000000
11
-10.5304269304
21
21.7746141189
31
0.0000000000
11
-10.5309472518
21
21.8286964715
31
0.0000000000
11
-10.5315038508
21
21.8778086576
31
0.0000000000
11
-10.5320931243
21
21.9216326659
31
0.0000000000
11
-10.5327112526
21
21.9598843702
31
0.0000000000
11
-10.5333542322
21
21.9923158068
31
0.0000000000
11
-10.5340178871
21
22.0187167223
31
0.0000000000
11
-10.5346979456
21
22.0389162682
31
0.0000000000
11
-10.5353899371
21
22.0527831937
31
0.0000000000
11
-10.5360894575
21
22.0602279426
31
0.0000000000
0
SPLINE
5
318
100
AcDbEntity
8
0
100
AcDbSpline
62
9
6
CONTINUOUS
70
0
71
3
72
24
73
20
74
18
42
0.0000001000
43
0.0000001000
44
0.0000000001
12
-0.0011186547
22
0.4249484695
32
0.0000000000
13
-0.1342631991
23
0.4031821505
33
0.0000000000
40
0.0000000000
40
0.0000000000
40
0.0000000000
40
0.0000000000
40
0.0929869778
40
0.1842552376
40
0.2731949150
40
0.3592282932
40
0.4417991461
40
0.5203724537
40
0.5944392766
40
0.6635198393
40
0.7271672677
40
0.7849693581
40
0.8365526549
40
0.8815838995
40
0.9197729576
40
0.9508752205
40
0.9746949652
40
0.9910905731
40
1.0000000000
40
1.0000000000
40
1.0000000000
40
1.0000000000
10
-11.0278401168
20
21.1361579495
30
0.0000000000
10
-11.0278747903
20
21.1493295075
30
0.0000000000
10
-11.0279620745
20
21.1754291232
30
0.0000000000
10
-11.0281486828
20
21.2141267417
30
0.0000000000
10
-11.0283887970
20
21.2518390705
30
0.0000000000
10
-11.0286808143
20
21.2883190088
30
0.0000000000
10
-11.0290227866
20
21.3233300522
30
0.0000000000
10
-11.0294124284
20
21.3566454272
30
0.0000000000
10
-11.0298471056
20
21.3880491799
30
0.0000000000
10
-11.0303238805
20
21.4173378080
30
0.0000000000
10
-11.0308393798
20
21.4443215293
30
0.0000000000
10
-11.0313901990
20
21.4688254246
30
0.0000000000
10
-11.0319715020
20
21.4906910926
30
0.0000000000
10
-11.0325811416
20
21.5097757868
30
0.0000000000
10
-11.0332065636
20
21.5259594296
30
0.0000000000
10
-11.0338613004
20
21.5391279582
30
0.0000000000
10
-11.0344816788
20
21.5492230423
30
0.0000000000
10
-11.0351725162
20
21.5561261037
30
0.0000000000
10
-11.0356145691
20
21.5597158013
30
0.0000000000
10
-11.0360133051
20
21.5609131753
30
0.0000000000
11
-11.0278401168
21
21.1361579495
31
0.0000000000
11
-11.0279727127
21
21.1756725378
31
0.0000000000
11
-11.0281603875
21
21.2144565255
31
0.0000000000
11
-11.0284019059
21
21.2522506645
31
0.0000000000
11
-11.0286957001
21
21.2888093631
31
0.0000000000
11
-11.0290398701
21
21.3238961543
31
0.0000000000
11
-11.0294321858
21
21.3572835720
31
0.0000000000
11
-11.0298701054
21
21.3887552174
31
0.0000000000
11
-11.0303507907
21
21.4181070628
31
0.0000000000
11
-11.0308711294
21
21.4451490281
31
0.0000000000
11
-11.0314277473
21
21.4697057155
31
0.0000000000
11
-11.0320170409
21
21.4916181120
31
0.0000000000
11
-11.0326351907
21
21.5107441501
31
0.0000000000
11
-11.0332781904
21
21.5269598447
31
0.0000000000
11
-11.0339418711
21
21.5401600758
31
0.0000000000
11
-11.0346219396
21
21.5502594036
31
0.0000000000
11
-11.0353139763
21
21.5571922624
31
0.0000000000
11
-11.0360133051
21
21.5609131753
31
0.0000000000
0
SPLINE
5
319
100
AcDbEntity
8
0
100
AcDbSpline
62
9
6
CONTINUOUS
70
0
71
3
72
23
73
19
74
17
42
0.0000001000
43
0.0000001000
44
0.0000000001
12
0.0007172057
22
0.7842577210
32
0.0000000000
13
0.7842577226
23
0.0007154591
33
0.0000000000
40
0.0000000000
40
0.0000000000
40
0.0000000000
40
0.0000000000
40
0.0624467159
40
0.1249003792
40
0.1873620694
40
0.2498325574
40
0.3123122765
40
0.3748013052
40
0.4372993648
40
0.4998058302
40
0.5623197539
40
0.6248399026
40
0.6873648043
40
0.7498928050
40
0.8124221320
40
0.8749509618
40
0.9374774899
40
1.0000000000
40
1.0000000000
40
1.0000000000
40
1.0000000000
10
-11.0360133051
20
21.5609131753
30
0.0000000000
10
-11.0359983761
20
21.5772379483
30
0.0000000000
10
-11.0343626828
20
21.6099105457
30
0.0000000000
10
-11.0271161256
20
21.6584273998
30
0.0000000000
10
-11.0151461559
20
21.7060109822
30
0.0000000000
10
-10.9985679632
20
21.7521973665
30
0.0000000000
10
-10.9775410587
20
21.7965439340
30
0.0000000000
10
-10.9522677463
20
21.8386236704
30
0.0000000000
10
-10.9229911706
20
21.8780319414
30
0.0000000000
10
-10.8899929756
20
21.9143896670
30
0.0000000000
10
-10.8535905966
20
21.9473471576
30
0.0000000000
10
-10.8141341926
20
21.9765874219
30
0.0000000000
10
-10.7720033282
20
22.0018292275
30
0.0000000000
10
-10.7276031336
20
22.0228297982
30
0.0000000000
10
-10.6813611215
20
22.0393871477
30
0.0000000000
10
-10.6337204182
20
22.0513420219
30
0.0000000000
10
-10.5851454283
20
22.0585794210
30
0.0000000000
10
-10.5524340447
20
22.0602130319
30
0.0000000000
10
-10.5360894575
20
22.0602279426
30
0.0000000000
11
-11.0360133051
21
21.5609131753
31
0.0000000000
11
-11.0335641005
21
21.6098262342
31
0.0000000000
11
-11.0263295088
21
21.6582687809
31
0.0000000000
11
-11.0143791221
21
21.7057748290
31
0.0000000000
11
-10.9978278954
21
21.7518874009
31
0.0000000000
11
-10.9768350409
21
21.7961629232
31
0.0000000000
11
-10.9516024964
21
21.8381754937
31
0.0000000000
11
-10.9223729829
21
21.8775209785
31
0.0000000000
11
-10.8894276696
21
21.9138208991
31
0.0000000000
11
-10.8530834691
21
21.9467260737
31
0.0000000000
11
-10.8136899895
21
21.9759199755
31
0.0000000000
11
-10.7716261707
21
22.0011217780
31
0.0000000000
11
-10.7272966397
21
22.0220890559
31
0.0000000000
11
-10.6811278182
21
22.0386201175
31
0.0000000000
11
-10.6335638206
21
22.0505559445
31
0.0000000000
11
-10.5850621822
21
22.0577817220
31
0.0000000000
11
-10.5360894575
21
22.0602279426
31
0.0000000000
0
SPLINE
5
31A
100
AcDbEntity
8
0
100
AcDbSpline
62
9
6
CONTINUOUS
70
0
71
3
72
10
73
6
74
4
42
0.0000001000
43
0.0000001000
44
0.0000000001
12
-0.0030168915
22
-9.0950737270
32
0.0000000000
13
-0.0001256779
23
-9.0950742265
33
0.0000000000
40
0.0000000000
40
0.0000000000
40
0.0000000000
40
0.0000000000
40
0.3333132211
40
0.6666476159
40
1.0000000000
40
1.0000000000
40
1.0000000000
40
1.0000000000
10
11.0106552323
20
9.4905000000
30
0.0000000000
10
11.0103200423
20
8.4799972268
30
0.0000000000
10
11.0097567505
20
6.4589274508
30
0.0000000000
10
11.0092330424
20
3.4272360818
30
0.0000000000
10
11.0090980430
20
1.4060475015
30
0.0000000000
10
11.0090840780
20
0.3954259424
30
0.0000000000
11
11.0106552323
21
9.4905000000
31
0.0000000000
11
11.0098103057
21
6.4589916313
31
0.0000000000
11
11.0092865864
21
3.4272906133
31
0.0000000000
11
11.0090840780
21
0.3954259424
31
0.0000000000
0
SPLINE
5
31B
100
AcDbEntity
8
0
100
AcDbSpline
62
9
6
CONTINUOUS
70
0
71
3
72
23
73
19
74
17
42
0.0000001000
43
0.0000001000
44
0.0000000001
12
-0.3383277130
22
0.3684515687
32
0.0000000000
13
-0.5002221230
23
0.0001658668
33
0.0000000000
40
0.0000000000
40
0.0000000000
40
0.0000000000
40
0.0000000000
40
0.0066564873
40
0.0225106003
40
0.0475272776
40
0.0814931196
40
0.1240964968
40
0.1749402365
40
0.2335478507
40
0.2993689009
40
0.3717845592
40
0.4501136206
40
0.5336190188
40
0.6215148255
40
0.7129736898
40
0.8071346534
40
0.9031112767
40
1.0000000000
40
1.0000000000
40
1.0000000000
40
1.0000000000
10
11.0106552323
20
9.4905000000
30
0.0000000000
10
11.0099045409
20
9.4913175311
30
0.0000000000
10
11.0056552622
20
9.4914176359
30
0.0000000000
10
10.9982274421
20
9.4926976155
30
0.0000000000
10
10.9855345923
20
9.4932827060
30
0.0000000000
10
10.9687185104
20
9.4942264867
30
0.0000000000
10
10.9474504012
20
9.4949998819
30
0.0000000000
10
10.9221219165
20
9.4957923246
30
0.0000000000
10
10.8929014806
20
9.4965206031
30
0.0000000000
10
10.8600878898
20
9.4972014315
30
0.0000000000
10
10.8239823500
20
9.4978194555
30
0.0000000000
10
10.7849272908
20
9.4983709060
30
0.0000000000
10
10.7432897563
20
9.4988494756
30
0.0000000000
10
10.6994620911
20
9.4992506691
30
0.0000000000
10
10.6538569840
20
9.4995704886
30
0.0000000000
10
10.6069039505
20
9.4998058400
30
0.0000000000
10
10.5590451815
20
9.4999544359
30
0.0000000000
10
10.5268866790
20
9.4999946431
30
0.0000000000
10
10.5107313847
20
9.5000000000
30
0.0000000000
11
11.0106552323
21
9.4905000000
31
0.0000000000
11
11.0074554157
21
9.4914209914
31
0.0000000000
11
10.9995774875
21
9.4923333089
31
0.0000000000
11
10.9870956416
21
9.4932283605
31
0.0000000000
11
10.9701274309
21
9.4940977165
31
0.0000000000
11
10.9488326610
21
9.4949331896
31
0.0000000000
11
10.9234118845
21
9.4957269111
31
0.0000000000
11
10.8941045124
21
9.4964714060
31
0.0000000000
11
10.8611865594
21
9.4971596626
31
0.0000000000
11
10.8249680446
21
9.4977851990
31
0.0000000000
11
10.7857900712
21
9.4983421239
31
0.0000000000
11
10.7440216148
21
9.4988251922
31
0.0000000000
11
10.7000560475
21
9.4992298545
31
0.0000000000
11
10.6543074340
21
9.4995522996
31
0.0000000000
11
10.6072066316
21
9.4997894908
31
0.0000000000
11
10.5591972321
21
9.4999391942
31
0.0000000000
11
10.5107313847
21
9.5000000000
31
0.0000000000
0
SPLINE
5
31C
100
AcDbEntity
8
0
100
AcDbSpline
62
9
6
CONTINUOUS
70
0
71
3
72
10
73
6
74
4
42
0.0000001000
43
0.0000001000
44
0.0000000001
12
-0.0030162464
22
-9.1022312164
32
0.0000000000
13
-0.0001262690
23
-9.1022317153
33
0.0000000000
40
0.0000000000
40
0.0000000000
40
0.0000000000
40
0.0000000000
40
0.3333130653
40
0.6666473046
40
1.0000000000
40
1.0000000000
40
1.0000000000
40
1.0000000000
10
10.5107313847
20
9.5000000000
30
0.0000000000
10
10.5103962666
20
8.4887024707
30
0.0000000000
10
10.5098330725
20
6.4660431314
30
0.0000000000
10
10.5093093731
20
3.4319659328
30
0.0000000000
10
10.5091742880
20
1.4091862789
30
0.0000000000
10
10.5091602573
20
0.3977684534
30
0.0000000000
11
10.5107313847
21
9.5000000000
31
0.0000000000
11
10.5098866048
21
6.4661073632
31
0.0000000000
11
10.5093628944
21
3.4320219234
31
0.0000000000
11
10.5091602573
21
0.3977684534
31
0.0000000000
0
SPLINE
5
31D
100
AcDbEntity
8
0
100
AcDbSpline
62
9
6
CONTINUOUS
70
0
71
3
72
24
73
20
74
18
42
0.0000001000
43
0.0000001000
44
0.0000000001
12
-0.4823500253
22
0.1314577715
32
0.0000000000
13
-0.4999426893
23
0.0000035310
33
0.0000000000
40
0.0000000000
40
0.0000000000
40
0.0000000000
40
0.0000000000
40
0.0057809081
40
0.0198463907
40
0.0420872420
40
0.0723187311
40
0.1102890632
40
0.1556822685
40
0.2081193147
40
0.2671628392
40
0.3323199063
40
0.4030476492
40
0.4787556940
40
0.5588125511
40
0.6425493722
40
0.7292686082
40
0.8182472517
40
0.9087391724
40
1.0000000000
40
1.0000000000
40
1.0000000000
40
1.0000000000
10
11.0090840780
20
0.3954259424
30
0.0000000000
10
11.0081546043
20
0.3956792575
30
0.0000000000
10
11.0047913031
20
0.3955731670
30
0.0000000000
10
10.9978300896
20
0.3959843530
30
0.0000000000
10
10.9867168797
20
0.3960635969
30
0.0000000000
10
10.9716573417
20
0.3963113341
30
0.0000000000
10
10.9527237298
20
0.3964852367
30
0.0000000000
10
10.9300951277
20
0.3966771374
30
0.0000000000
10
10.9039525827
20
0.3968504939
30
0.0000000000
10
10.8745169616
20
0.3970152690
30
0.0000000000
10
10.8420329275
20
0.3971660589
30
0.0000000000
10
10.8067717703
20
0.3973026966
30
0.0000000000
10
10.7690275098
20
0.3974235897
30
0.0000000000
10
10.7291152665
20
0.3975277856
30
0.0000000000
10
10.6873679873
20
0.3976143449
30
0.0000000000
10
10.6441338789
20
0.3976825269
30
0.0000000000
10
10.5997740231
20
0.3977317425
30
0.0000000000
10
10.5546573048
20
0.3977615707
30
0.0000000000
10
10.5243686519
20
0.3977683463
30
0.0000000000
10
10.5091602573
20
0.3977684537
30
0.0000000000
11
11.0090840780
21
0.3954259424
31
0.0000000000
11
11.0062021105
21
0.3956429054
31
0.0000000000
11
10.9991734576
21
0.3958577334
31
0.0000000000
11
10.9880563077
21
0.3960686752
31
0.0000000000
11
10.9729436897
21
0.3962739448
31
0.0000000000
11
10.9539617313
21
0.3964718358
31
0.0000000000
11
10.9312685160
21
0.3966606957
31
0.0000000000
11
10.9050536041
21
0.3968389453
31
0.0000000000
11
10.8755356933
21
0.3970050954
31
0.0000000000
11
10.8429612517
21
0.3971577565
31
0.0000000000
11
10.8076017025
21
0.3972956546
31
0.0000000000
11
10.7697522156
21
0.3974176362
31
0.0000000000
11
10.7297285130
21
0.3975226816
31
0.0000000000
11
10.6878649924
21
0.3976099117
31
0.0000000000
11
10.6445103987
21
0.3976785979
31
0.0000000000
11
10.6000262040
21
0.3977281668
31
0.0000000000
11
10.5547854398
21
0.3977582017
31
0.0000000000
11
10.5091602573
21
0.3977684537
31
0.0000000000
0
SPLINE
5
31E
100
AcDbEntity
8
0
100
AcDbSpline
62
9
6
CONTINUOUS
70
0
71
3
72
23
73
19
74
17
42
0.0000001000
43
0.0000001000
44
0.0000000001
12
-0.0591164681
22
0.5108996579
32
0.0000000000
13
-0.5143067811
23
0.0013237131
33
0.0000000000
40
0.0000000000
40
0.0000000000
40
0.0000000000
40
0.0000000000
40
0.0153646553
40
0.0360541332
40
0.0638932314
40
0.0994447751
40
0.1427618196
40
0.1936475163
40
0.2517514986
40
0.3166124859
40
0.3876810753
40
0.4643344687
40
0.5458876969
40
0.6316032866
40
0.7207002540
40
0.8123628406
40
0.9057491838
40
1.0000000000
40
1.0000000000
40
1.0000000000
40
1.0000000000
10
11.0278401168
20
21.1361579495
30
0.0000000000
10
11.0275373488
20
21.1387745486
30
0.0000000000
10
11.0245397362
20
21.1445833395
30
0.0000000000
10
11.0159729167
20
21.1515758104
30
0.0000000000
10
11.0032394963
20
21.1584401785
30
0.0000000000
10
10.9861639990
20
21.1650843376
30
0.0000000000
10
10.9648544995
20
21.1715163856
30
0.0000000000
10
10.9394619136
20
21.1776434772
30
0.0000000000
10
10.9102135151
20
21.1834075122
30
0.0000000000
10
10.8773750821
20
21.1887453211
30
0.0000000000
10
10.8412520484
20
21.1936032568
30
0.0000000000
10
10.8021820066
20
21.1979323612
30
0.0000000000
10
10.7605315002
20
21.2016899019
30
0.0000000000
10
10.7166918674
20
21.2048390292
30
0.0000000000
10
10.6710754168
20
21.2073490832
30
0.0000000000
10
10.6241113383
20
21.2091957270
30
0.0000000000
10
10.5762417981
20
21.2103611154
30
0.0000000000
10
10.5440742139
20
21.2106759041
30
0.0000000000
10
10.5279162692
20
21.2107174911
30
0.0000000000
11
11.0278401168
21
21.1361579495
31
0.0000000000
11
11.0246489229
21
21.1433870997
31
0.0000000000
11
11.0167783804
21
21.1505481495
31
0.0000000000
11
11.0043026320
21
21.1575736399
31
0.0000000000
11
10.9873392024
21
21.1643973891
31
0.0000000000
11
10.9660478914
21
21.1709551155
31
0.0000000000
11
10.9406292686
21
21.1771850437
31
0.0000000000
11
10.9113227839
21
21.1830284862
31
0.0000000000
11
10.8784045119
21
21.1884303963
31
0.0000000000
11
10.8421845512
21
21.1933398866
31
0.0000000000
11
10.8030041029
21
21.1977107084
31
0.0000000000
11
10.7612322570
21
21.2015016875
31
0.0000000000
11
10.7172625148
21
21.2046771119
31
0.0000000000
11
10.6715090827
21
21.2072070683
31
0.0000000000
11
10.6244029696
21
21.2090677238
31
0.0000000000
11
10.5763879271
21
21.2102415507
31
0.0000000000
11
10.5279162692
21
21.2107174911
31
0.0000000000
0
SPLINE
5
31F
100
AcDbEntity
8
0
100
AcDbSpline
62
9
6
CONTINUOUS
70
0
71
3
72
14
73
10
74
8
42
0.0000001000
43
0.0000001000
44
0.0000000001
12
-0.0306549602
22
-11.7106924750
32
0.0000000000
13
-0.0038629499
23
-11.7107319604
33
0.0000000000
40
0.0000000000
40
0.0000000000
40
0.0000000000
40
0.0000000000
40
0.1420565057
40
0.2844627223
40
0.4271690479
40
0.5701257656
40
0.7132830865
40
0.8565911367
40
1.0000000000
40
1.0000000000
40
1.0000000000
40
1.0000000000
10
10.5279162692
20
21.2107174911
30
0.0000000000
10
10.5264646904
20
20.6561908070
30
0.0000000000
10
10.5237421894
20
19.5457718288
30
0.0000000000
10
10.5202035216
20
17.8782880572
30
0.0000000000
10
10.5172056756
20
16.2072891708
30
0.0000000000
10
10.5147496972
20
14.5333574041
30
0.0000000000
10
10.5128364426
20
12.8570760482
30
0.0000000000
10
10.5114665785
20
11.1790291760
30
0.0000000000
10
10.5109160451
20
10.0598075864
30
0.0000000000
10
10.5107313847
20
9.5000000000
30
0.0000000000
11
10.5279162692
21
21.2107174911
31
0.0000000000
11
10.5238368146
21
19.5471367411
31
0.0000000000
11
10.5202971100
21
17.8794593742
31
0.0000000000
11
10.5172983881
21
16.2082664463
31
0.0000000000
11
10.5148416937
21
14.5341403548
31
0.0000000000
11
10.5129278821
21
12.8576643428
31
0.0000000000
11
10.5115576201
21
11.1794226474
31
0.0000000000
11
10.5107313847
21
9.5000000000
31
0.0000000000
0
SPLINE
5
320
100
AcDbEntity
8
0
100
AcDbSpline
62
9
6
CONTINUOUS
70
0
71
3
72
14
73
10
74
8
42
0.0000001000
43
0.0000001000
44
0.0000000001
12
-0.0306549594
22
-11.6456327936
32
0.0000000000
13
-0.0038629500
23
-11.6456724996
33
0.0000000000
40
0.0000000000
40
0.0000000000
40
0.0000000000
40
0.0000000000
40
0.1420564457
40
0.2844626969
40
0.4271690562
40
0.5701258069
40
0.7132831601
40
0.8565912420
40
1.0000000000
40
1.0000000000
40
1.0000000000
40
1.0000000000
10
11.0278401168
20
21.1361579495
30
0.0000000000
10
11.0263885386
20
20.5847122153
30
0.0000000000
10
11.0236660379
20
19.4804623510
30
0.0000000000
10
11.0201273698
20
17.8222423634
30
0.0000000000
10
11.0171295231
20
16.1605264165
30
0.0000000000
10
11.0146735442
20
14.4958938818
30
0.0000000000
10
11.0127602893
20
12.8289248111
30
0.0000000000
10
11.0113904256
20
11.1602005638
30
0.0000000000
10
11.0108398926
20
10.0471971429
30
0.0000000000
10
11.0106552323
20
9.4905000000
30
0.0000000000
11
11.0278401168
21
21.1361579495
31
0.0000000000
11
11.0237606639
21
19.4818200450
31
0.0000000000
11
11.0202209582
21
17.8234071680
31
0.0000000000
11
11.0172222357
21
16.1614982581
31
0.0000000000
11
11.0147655407
21
14.4966724788
31
0.0000000000
11
11.0128517289
21
12.8295098343
31
0.0000000000
11
11.0114814669
21
11.1605913162
31
0.0000000000
11
11.0106552323
21
9.4905000000
31
0.0000000000
0
SPLINE
5
321
100
AcDbEntity
8
0
100
AcDbSpline
62
9
6
CONTINUOUS
70
0
71
3
72
23
73
19
74
17
42
0.0000001000
43
0.0000001000
44
0.0000000001
12
-0.0007172057
22
0.7842577210
32
0.0000000000
13
-0.7842577226
23
0.0007154592
33
0.0000000000
40
0.0000000000
40
0.0000000000
40
0.0000000000
40
0.0000000000
40
0.0624467123
40
0.1249003724
40
0.1873620598
40
0.2498325457
40
0.3123122631
40
0.3748012906
40
0.4372993496
40
0.4998058150
40
0.5623197393
40
0.6248398890
40
0.6873647922
40
0.7498927948
40
0.8124221241
40
0.8749509564
40
0.9374774871
40
1.0000000000
40
1.0000000000
40
1.0000000000
40
1.0000000000
10
11.0360133051
20
21.5609131753
30
0.0000000000
10
11.0359983761
20
21.5772379474
30
0.0000000000
10
11.0343626830
20
21.6099105430
30
0.0000000000
10
11.0271161265
20
21.6584273947
30
0.0000000000
10
11.0151461579
20
21.7060109752
30
0.0000000000
10
10.9985679666
20
21.7521973581
30
0.0000000000
10
10.9775410636
20
21.7965439248
30
0.0000000000
10
10.9522677525
20
21.8386236610
30
0.0000000000
10
10.9229911780
20
21.8780319323
30
0.0000000000
10
10.8899929839
20
21.9143896587
30
0.0000000000
10
10.8535906054
20
21.9473471504
30
0.0000000000
10
10.8141342014
20
21.9765874161
30
0.0000000000
10
10.7720033365
20
22.0018292231
30
0.0000000000
10
10.7276031409
20
22.0228297952
30
0.0000000000
10
10.6813611274
20
22.0393871459
30
0.0000000000
10
10.6337204224
20
22.0513420211
30
0.0000000000
10
10.5851454304
20
22.0585794209
30
0.0000000000
10
10.5524340454
20
22.0602130319
30
0.0000000000
10
10.5360894575
20
22.0602279426
30
0.0000000000
11
11.0360133051
21
21.5609131753
31
0.0000000000
11
11.0335641008
21
21.6098262314
31
0.0000000000
11
11.0263295099
21
21.6582687756
31
0.0000000000
11
11.0143791242
21
21.7057748219
31
0.0000000000
11
10.9978278989
21
21.7518873924
31
0.0000000000
11
10.9768350459
21
21.7961629139
31
0.0000000000
11
10.9516025028
21
21.8381754842
31
0.0000000000
11
10.9223729905
21
21.8775209693
31
0.0000000000
11
10.8894276780
21
21.9138208907
31
0.0000000000
11
10.8530834780
21
21.9467260664
31
0.0000000000
11
10.8136899983
21
21.9759199696
31
0.0000000000
11
10.7716261790
21
22.0011217735
31
0.0000000000
11
10.7272966471
21
22.0220890528
31
0.0000000000
11
10.6811278242
21
22.0386201157
31
0.0000000000
11
10.6335638248
21
22.0505559437
31
0.0000000000
11
10.5850621844
21
22.0577817218
31
0.0000000000
11
10.5360894575
21
22.0602279426
31
0.0000000000
0
SPLINE
5
322
100
AcDbEntity
8
0
100
AcDbSpline
62
9
6
CONTINUOUS
70
0
71
3
72
24
73
20
74
18
42
0.0000001000
43
0.0000001000
44
0.0000000001
12
-0.1395303240
22
-0.8380722897
32
0.0000000000
13
-0.0011180227
23
-0.8496073353
33
0.0000000000
40
0.0000000000
40
0.0000000000
40
0.0000000000
40
0.0000000000
40
0.0088011650
40
0.0251430303
40
0.0489316349
40
0.0800156799
40
0.1181954135
40
0.1632240563
40
0.2148101598
40
0.2726195683
40
0.3362781626
40
0.4053732121
40
0.4794574699
40
0.5580508514
40
0.6406440822
40
0.7267018307
40
0.8156675565
40
0.9069632681
40
1.0000000000
40
1.0000000000
40
1.0000000000
40
1.0000000000
10
10.5360894575
20
22.0602279426
30
0.0000000000
10
10.5356801144
20
22.0577692718
30
0.0000000000
10
10.5352540611
20
22.0506436640
30
0.0000000000
10
10.5345535163
20
22.0368155788
30
0.0000000000
10
10.5339386321
20
22.0166501132
30
0.0000000000
10
10.5332819450
20
21.9903080980
30
0.0000000000
10
10.5326573463
20
21.9579451250
30
0.0000000000
10
10.5320474904
20
21.9197761257
30
0.0000000000
10
10.5314663047
20
21.8760464981
30
0.0000000000
10
10.5309154843
20
21.8270402141
30
0.0000000000
10
10.5304000148
20
21.7730746742
30
0.0000000000
10
10.5299232554
20
21.7144995511
30
0.0000000000
10
10.5294885926
20
21.6516944184
30
0.0000000000
10
10.5290989625
20
21.5850662032
30
0.0000000000
10
10.5287569941
20
21.5150467602
30
0.0000000000
10
10.5284649869
20
21.4420895919
30
0.0000000000
10
10.5282248603
20
21.3666676562
30
0.0000000000
10
10.5280382529
20
21.2892690974
30
0.0000000000
10
10.5279509416
20
21.2370657211
30
0.0000000000
10
10.5279162692
20
21.2107174911
30
0.0000000000
11
10.5360894575
21
22.0602279426
31
0.0000000000
11
10.5353899371
21
22.0527831937
31
0.0000000000
11
10.5346979456
21
22.0389162682
31
0.0000000000
11
10.5340178871
21
22.0187167223
31
0.0000000000
11
10.5333542322
21
21.9923158068
31
0.0000000000
11
10.5327112526
21
21.9598843702
31
0.0000000000
11
10.5320931243
21
21.9216326659
31
0.0000000000
11
10.5315038508
21
21.8778086576
31
0.0000000000
11
10.5309472518
21
21.8286964715
31
0.0000000000
11
10.5304269304
21
21.7746141189
31
0.0000000000
11
10.5299462605
21
21.7159123751
31
0.0000000000
11
10.5295083533
21
21.6529713150
31
0.0000000000
11
10.5291160474
21
21.5861988963
31
0.0000000000
11
10.5287718828
21
21.5160278647
31
0.0000000000
11
10.5284780934
21
21.4429130973
31
0.0000000000
11
10.5282365705
21
21.3673274846
31
0.0000000000
11
10.5280488981
21
21.2897621382
31
0.0000000000
11
10.5279162692
21
21.2107174911
31
0.0000000000
0
SPLINE
5
323
100
AcDbEntity
8
0
100
AcDbSpline
62
9
6
CONTINUOUS
70
0
71
3
72
24
73
20
74
18
42
0.0000001000
43
0.0000001000
44
0.0000000001
12
-0.1342631990
22
-0.4031821506
32
0.0000000000
13
-0.0011186547
23
-0.4249484695
33
0.0000000000
40
0.0000000000
40
0.0000000000
40
0.0000000000
40
0.0000000000
40
0.0089094269
40
0.0253050348
40
0.0491247795
40
0.0802270424
40
0.1184161005
40
0.1634473451
40
0.2150306419
40
0.2728327323
40
0.3364801607
40
0.4055607234
40
0.4796275463
40
0.5582008539
40
0.6407717068
40
0.7268050850
40
0.8157447624
40
0.9070130222
40
1.0000000000
40
1.0000000000
40
1.0000000000
40
1.0000000000
10
11.0360133051
20
21.5609131753
30
0.0000000000
10
11.0356145691
20
21.5597158013
30
0.0000000000
10
11.0351725162
20
21.5561261037
30
0.0000000000
10
11.0344816788
20
21.5492230423
30
0.0000000000
10
11.0338613004
20
21.5391279582
30
0.0000000000
10
11.0332065636
20
21.5259594296
30
0.0000000000
10
11.0325811416
20
21.5097757868
30
0.0000000000
10
11.0319715020
20
21.4906910926
30
0.0000000000
10
11.0313901990
20
21.4688254246
30
0.0000000000
10
11.0308393798
20
21.4443215293
30
0.0000000000
10
11.0303238805
20
21.4173378080
30
0.0000000000
10
11.0298471056
20
21.3880491799
30
0.0000000000
10
11.0294124284
20
21.3566454272
30
0.0000000000
10
11.0290227866
20
21.3233300522
30
0.0000000000
10
11.0286808143
20
21.2883190088
30
0.0000000000
10
11.0283887970
20
21.2518390705
30
0.0000000000
10
11.0281486828
20
21.2141267417
30
0.0000000000
10
11.0279620745
20
21.1754291232
30
0.0000000000
10
11.0278747903
20
21.1493295075
30
0.0000000000
10
11.0278401168
20
21.1361579495
30
0.0000000000
11
11.0360133051
21
21.5609131753
31
0.0000000000
11
11.0353139763
21
21.5571922624
31
0.0000000000
11
11.0346219396
21
21.5502594036
31
0.0000000000
11
11.0339418711
21
21.5401600758
31
0.0000000000
11
11.0332781904
21
21.5269598447
31
0.0000000000
11
11.0326351907
21
21.5107441501
31
0.0000000000
11
11.0320170409
21
21.4916181120
31
0.0000000000
11
11.0314277473
21
21.4697057155
31
0.0000000000
11
11.0308711294
21
21.4451490281
31
0.0000000000
11
11.0303507907
21
21.4181070628
31
0.0000000000
11
11.0298701054
21
21.3887552174
31
0.0000000000
11
11.0294321858
21
21.3572835720
31
0.0000000000
11
11.0290398701
21
21.3238961543
31
0.0000000000
11
11.0286957001
21
21.2888093631
31
0.0000000000
11
11.0284019059
21
21.2522506645
31
0.0000000000
11
11.0281603875
21
21.2144565255
31
0.0000000000
11
11.0279727127
21
21.1756725378
31
0.0000000000
11
11.0278401168
21
21.1361579495
31
0.0000000000
0
SPLINE
5
324
100
AcDbEntity
8
0
100
AcDbSpline
62
9
6
CONTINUOUS
70
0
71
3
72
24
73
20
74
18
42
0.0000001000
43
0.0000001000
44
0.0000000001
12
0.2236386802
22
0.1117251390
32
0.0000000000
13
0.2499935318
23
0.0000000286
33
0.0000000000
40
0.0000000000
40
0.0000000000
40
0.0000000000
40
0.0000000000
40
0.0058141549
40
0.0198913127
40
0.0421377060
40
0.0723722548
40
0.1103442418
40
0.1557383148
40
0.2081757736
40
0.2672194679
40
0.3323766118
40
0.4031042038
40
0.4788117261
40
0.5588676560
40
0.6426031091
40
0.7293206279
40
0.8182967266
40
0.9087868532
40
1.0000000000
40
1.0000000000
40
1.0000000000
40
1.0000000000
10
-10.7591221542
20
0.1454354616
30
0.0000000000
10
-10.7586887309
20
0.1456519907
30
0.0000000000
10
-10.7569499660
20
0.1455883408
30
0.0000000000
10
-10.7535157738
20
0.1459365640
30
0.0000000000
10
-10.7479335583
20
0.1460245023
30
0.0000000000
10
-10.7404145290
20
0.1462449905
30
0.0000000000
10
-10.7309434915
20
0.1464067217
30
0.0000000000
10
-10.7196302450
20
0.1465815998
30
0.0000000000
10
-10.7065579026
20
0.1467405943
30
0.0000000000
10
-10.6918394140
20
0.1468913164
30
0.0000000000
10
-10.6755963078
20
0.1470293149
30
0.0000000000
10
-10.6579645350
20
0.1471542832
30
0.0000000000
10
-10.6390910828
20
0.1472648138
30
0.0000000000
10
-10.6191335825
20
0.1473600236
30
0.0000000000
10
-10.5982585268
20
0.1474390593
30
0.0000000000
10
-10.5766400837
20
0.1475012462
30
0.0000000000
10
-10.5544587215
20
0.1475460465
30
0.0000000000
10
-10.5319027046
20
0.1475730752
30
0.0000000000
10
-10.5167611562
20
0.1475790873
30
0.0000000000
10
-10.5091602573
20
0.1475790882
30
0.0000000000
11
-10.7591221542
21
0.1454354616
31
0.0000000000
11
-10.7576823128
21
0.1456342637
31
0.0000000000
11
-10.7541686278
21
0.1458311775
31
0.0000000000
11
-10.7486105336
21
0.1460244757
31
0.0000000000
11
-10.7410544320
21
0.1462125408
31
0.0000000000
11
-10.7315634116
21
0.1463938036
31
0.0000000000
11
-10.7202165049
21
0.1465667540
31
0.0000000000
11
-10.7071084952
21
0.1467299468
31
0.0000000000
11
-10.6923487370
21
0.1468820205
31
0.0000000000
11
-10.6760604714
21
0.1470217054
31
0.0000000000
11
-10.6583794808
21
0.1471478372
31
0.0000000000
11
-10.6394534185
21
0.1472593625
31
0.0000000000
11
-10.6194401840
21
0.1473553508
31
0.0000000000
11
-10.5985070139
21
0.1474350006
31
0.0000000000
11
-10.5768282856
21
0.1474976487
31
0.0000000000
11
-10.5545848822
21
0.1475427721
31
0.0000000000
11
-10.5319629522
21
0.1475699941
31
0.0000000000
11
-10.5091602573
21
0.1475790882
31
0.0000000000
0
SPLINE
5
325
100
AcDbEntity
8
0
100
AcDbSpline
62
9
6
CONTINUOUS
70
0
71
3
72
22
73
18
74
16
42
0.0000001000
43
0.0000001000
44
0.0000000001
12
0.0353441806
22
0.0354295517
32
0.0000000000
13
-0.0000003406
23
0.0500446225
33
0.0000000000
40
0.0000000000
40
0.0000000000
40
0.0000000000
40
0.0000000000
40
0.0063804617
40
0.0234903223
40
0.0511749337
40
0.0891401260
40
0.1369761742
40
0.1941659063
40
0.2600888112
40
0.3340284987
40
0.4151826286
40
0.5026709211
40
0.5955438215
40
0.6927943286
40
0.7933677196
40
0.8961720396
40
1.0000000000
40
1.0000000000
40
1.0000000000
40
1.0000000000
10
4.6975790882
20
0.3475714728
30
0.0000000000
10
4.6976542589
20
0.3476468251
30
0.0000000000
10
4.6975810273
20
0.3481022726
30
0.0000000000
10
4.6977148955
20
0.3488967732
30
0.0000000000
10
4.6977035697
20
0.3503086644
30
0.0000000000
10
4.6977665629
20
0.3521876520
30
0.0000000000
10
4.6977973159
20
0.3545778406
30
0.0000000000
10
4.6978374728
20
0.3574274684
30
0.0000000000
10
4.6978710658
20
0.3607150301
30
0.0000000000
10
4.6979029129
20
0.3644016040
30
0.0000000000
10
4.6979309148
20
0.3684482107
30
0.0000000000
10
4.6979552787
20
0.3728106047
30
0.0000000000
10
4.6979755600
20
0.3774415574
30
0.0000000000
10
4.6979915764
20
0.3822908008
30
0.0000000000
10
4.6980031324
20
0.3873057306
30
0.0000000000
10
4.6980101011
20
0.3924303904
30
0.0000000000
10
4.6980116355
20
0.3958773355
30
0.0000000000
10
4.6980116237
20
0.3976093458
30
0.0000000000
11
4.6975790882
21
0.3475714728
31
0.0000000000
11
4.6976244129
21
0.3478875474
31
0.0000000000
11
4.6976692429
21
0.3487426296
31
0.0000000000
11
4.6977130546
21
0.3501274026
31
0.0000000000
11
4.6977553722
21
0.3520268850
31
0.0000000000
11
4.6977957364
21
0.3544204817
31
0.0000000000
11
4.6978337097
21
0.3572822683
31
0.0000000000
11
4.6978688793
21
0.3605811677
31
0.0000000000
11
4.6979008630
21
0.3642813132
31
0.0000000000
11
4.6979293140
21
0.3683425414
31
0.0000000000
11
4.6979539237
21
0.3727207908
31
0.0000000000
11
4.6979744254
21
0.3773685348
31
0.0000000000
11
4.6979905970
21
0.3822353728
31
0.0000000000
11
4.6980022631
21
0.3872685167
31
0.0000000000
11
4.6980092974
21
0.3924133153
31
0.0000000000
11
4.6980116237
21
0.3976093458
31
0.0000000000
0
SPLINE
5
326
100
AcDbEntity
8
0
100
AcDbSpline
62
9
6
CONTINUOUS
70
0
71
3
72
10
73
6
74
4
42
0.0000001000
43
0.0000001000
44
0.0000000001
12
-0.0000027799
22
0.4004171367
32
0.0000000000
13
-0.0000055795
23
0.4004171366
33
0.0000000000
40
0.0000000000
40
0.0000000000
40
0.0000000000
40
0.0000000000
40
0.3333334383
40
0.6666667744
40
1.0000000000
40
1.0000000000
40
1.0000000000
40
1.0000000000
10
4.6980116237
20
0.3976093458
30
0.0000000000
10
4.6980113148
20
0.4421001528
30
0.0000000000
10
4.6980105934
20
0.5310817531
30
0.0000000000
10
4.6980092001
20
0.6645541320
30
0.0000000000
10
4.6980080640
20
0.7535357039
30
0.0000000000
10
4.6980074440
20
0.7980264825
30
0.0000000000
11
4.6980116237
21
0.3976093458
31
0.0000000000
11
4.6980105415
21
0.5310817667
31
0.0000000000
11
4.6980091483
21
0.6645541468
31
0.0000000000
11
4.6980074440
21
0.7980264825
31
0.0000000000
0
SPLINE
5
327
100
AcDbEntity
8
0
100
AcDbSpline
62
9
6
CONTINUOUS
70
0
71
3
72
24
73
20
74
18
42
0.0000001000
43
0.0000001000
44
0.0000000001
12
-0.2236386592
22
0.1117251808
32
0.0000000000
13
-0.2499935317
23
0.0000000303
33
0.0000000000
40
0.0000000000
40
0.0000000000
40
0.0000000000
40
0.0000000000
40
0.0058143509
40
0.0198918243
40
0.0421387210
40
0.0723739585
40
0.1103468305
40
0.1557420085
40
0.2081807999
40
0.2672258514
40
0.3323840566
40
0.4031125249
40
0.4788208419
40
0.5588774741
40
0.6426135134
40
0.7293314446
40
0.8183078759
40
0.9087981978
40
1.0000000000
40
1.0000000000
40
1.0000000000
40
1.0000000000
10
10.7591221542
20
0.1454354616
30
0.0000000000
10
10.7586887163
20
0.1456519981
30
0.0000000000
10
10.7569499057
20
0.1455883405
30
0.0000000000
10
10.7535156310
20
0.1459365725
30
0.0000000000
10
10.7479332888
20
0.1460245089
30
0.0000000000
10
10.7404140869
20
0.1462450005
30
0.0000000000
10
10.7309428260
20
0.1464067328
30
0.0000000000
10
10.7196293027
20
0.1465816128
30
0.0000000000
10
10.7065566440
20
0.1467406085
30
0.0000000000
10
10.6918378428
20
0.1468913311
30
0.0000000000
10
10.6755944621
20
0.1470293293
30
0.0000000000
10
10.6579624616
20
0.1471542966
30
0.0000000000
10
10.6390888116
20
0.1472648258
30
0.0000000000
10
10.6191311377
20
0.1473600340
30
0.0000000000
10
10.5982559402
20
0.1474390678
30
0.0000000000
10
10.5766373862
20
0.1475012528
30
0.0000000000
10
10.5544559457
20
0.1475460508
30
0.0000000000
10
10.5319008302
20
0.1475730764
30
0.0000000000
10
10.5167602109
20
0.1475790873
30
0.0000000000
10
10.5091602573
20
0.1475790882
30
0.0000000000
11
10.7591221542
21
0.1454354616
31
0.0000000000
11
10.7576822639
21
0.1456342676
31
0.0000000000
11
10.7541684999
21
0.1458311831
31
0.0000000000
11
10.7486102799
21
0.1460244831
31
0.0000000000
11
10.7410540061
21
0.1462125501
31
0.0000000000
11
10.7315627645
21
0.1463938146
31
0.0000000000
11
10.7202155815
21
0.1465667667
31
0.0000000000
11
10.7071072387
21
0.1467299610
31
0.0000000000
11
10.6923471412
21
0.1468820355
31
0.0000000000
11
10.6760586102
21
0.1470217200
31
0.0000000000
11
10.6583774005
21
0.1471478507
31
0.0000000000
11
10.6394511396
21
0.1472593746
31
0.0000000000
11
10.6194377295
21
0.1473553613
31
0.0000000000
11
10.5985044128
21
0.1474350093
31
0.0000000000
11
10.5768255815
21
0.1474976553
31
0.0000000000
11
10.5545820949
21
0.1475427765
31
0.0000000000
11
10.5319601162
21
0.1475699964
31
0.0000000000
11
10.5091602573
21
0.1475790882
31
0.0000000000
0
SPLINE
5
328
100
AcDbEntity
8
0
100
AcDbSpline
62
9
6
CONTINUOUS
70
0
71
3
72
10
73
6
74
4
42
0.0000001000
43
0.0000001000
44
0.0000000001
12
-0.0000055795
22
-0.4004171366
32
0.0000000000
13
-0.0000027799
23
-0.4004171367
33
0.0000000000
40
0.0000000000
40
0.0000000000
40
0.0000000000
40
0.0000000000
40
0.3333332255
40
0.6666665617
40
1.0000000000
40
1.0000000000
40
1.0000000000
40
1.0000000000
10
-4.6980074440
20
0.7980264825
30
0.0000000000
10
-4.6980080640
20
0.7535357039
30
0.0000000000
10
-4.6980092001
20
0.6645541320
30
0.0000000000
10
-4.6980105934
20
0.5310817531
30
0.0000000000
10
-4.6980113148
20
0.4421001528
30
0.0000000000
10
-4.6980116237
20
0.3976093458
30
0.0000000000
11
-4.6980074440
21
0.7980264825
31
0.0000000000
11
-4.6980091483
21
0.6645541468
31
0.0000000000
11
-4.6980105415
21
0.5310817668
31
0.0000000000
11
-4.6980116237
21
0.3976093458
31
0.0000000000
0
SPLINE
5
329
100
AcDbEntity
8
0
100
AcDbSpline
62
9
6
CONTINUOUS
70
0
71
3
72
21
73
17
74
15
42
0.0000001000
43
0.0000001000
44
0.0000000001
12
-0.0000003509
22
-0.0500440465
32
0.0000000000
13
0.0334558117
23
-0.0372171366
33
0.0000000000
40
0.0000000000
40
0.0000000000
40
0.0000000000
40
0.0000000000
40
0.1112384700
40
0.2211037249
40
0.3282298634
40
0.4312851885
40
0.5289884626
40
0.6201251700
40
0.7035623641
40
0.7782629456
40
0.8432985197
40
0.8978610210
40
0.9412730292
40
0.9729966818
40
0.9926429066
40
1.0000000000
40
1.0000000000
40
1.0000000000
40
1.0000000000
10
-4.6980116237
20
0.3976093458
30
0.0000000000
10
-4.6980116367
20
0.3957537381
30
0.0000000000
10
-4.6980098754
20
0.3920654296
30
0.0000000000
10
-4.6980018948
20
0.3865901173
30
0.0000000000
10
-4.6979886786
20
0.3812513231
30
0.0000000000
10
-4.6979704135
20
0.3761154168
30
0.0000000000
10
-4.6979472866
20
0.3712462801
30
0.0000000000
10
-4.6979197771
20
0.3667043539
30
0.0000000000
10
-4.6978876811
20
0.3625464281
30
0.0000000000
10
-4.6978532828
20
0.3588231635
30
0.0000000000
10
-4.6978114079
20
0.3555840377
30
0.0000000000
10
-4.6977794392
20
0.3528599255
30
0.0000000000
10
-4.6977120179
20
0.3507105417
30
0.0000000000
10
-4.6977257169
20
0.3490979394
30
0.0000000000
10
-4.6975798316
20
0.3481779428
30
0.0000000000
10
-4.6976615576
20
0.3476631663
30
0.0000000000
10
-4.6975795117
20
0.3475718963
30
0.0000000000
11
-4.6980116237
21
0.3976093458
31
0.0000000000
11
-4.6980089496
21
0.3920425233
31
0.0000000000
11
-4.6980008836
21
0.3865444273
31
0.0000000000
11
-4.6979875261
21
0.3811834185
31
0.0000000000
11
-4.6979690429
21
0.3760261461
31
0.0000000000
11
-4.6979456641
21
0.3711367348
31
0.0000000000
11
-4.6979176802
21
0.3665759710
31
0.0000000000
11
-4.6978854391
21
0.3624005607
31
0.0000000000
11
-4.6978493418
21
0.3586624156
31
0.0000000000
11
-4.6978098370
21
0.3554080120
31
0.0000000000
11
-4.6977674159
21
0.3526778132
31
0.0000000000
11
-4.6977226059
21
0.3505057628
31
0.0000000000
11
-4.6976759642
21
0.3489188682
31
0.0000000000
11
-4.6976280707
21
0.3479368588
31
0.0000000000
11
-4.6975795117
21
0.3475718963
31
0.0000000000
0
SPLINE
5
32A
100
AcDbEntity
8
0
100
AcDbSpline
62
9
6
CONTINUOUS
70
0
71
3
72
20
73
16
74
14
42
0.0000001000
43
0.0000001000
44
0.0000000001
12
0.0000239080
22
-0.3139486583
32
0.0000000000
13
0.3139486583
23
-0.0000239080
33
0.0000000000
40
0.0000000000
40
0.0000000000
40
0.0000000000
40
0.0000000000
40
0.0769215331
40
0.1538437542
40
0.2307666040
40
0.3076899869
40
0.3846137763
40
0.4615378222
40
0.5384619594
40
0.6153860176
40
0.6923098313
40
0.7692332490
40
0.8461561422
40
0.9230784131
40
1.0000000000
40
1.0000000000
40
1.0000000000
40
1.0000000000
10
4.6975790882
20
0.3475714728
30
0.0000000000
10
4.6975797012
20
0.3395216688
30
0.0000000000
10
4.6985553279
20
0.3234051278
30
0.0000000000
10
4.7029205786
20
0.2995963780
30
0.0000000000
10
4.7101239973
20
0.2764835097
30
0.0000000000
10
4.7200605509
20
0.2544081398
30
0.0000000000
10
4.7325853565
20
0.2336909070
30
0.0000000000
10
4.7475157911
20
0.2146342150
30
0.0000000000
10
4.7646341643
20
0.1975158358
30
0.0000000000
10
4.7836908544
20
0.1825853925
30
0.0000000000
10
4.8044080898
20
0.1700605767
30
0.0000000000
10
4.8264834670
20
0.1601240130
30
0.0000000000
10
4.8495963468
20
0.1529205857
30
0.0000000000
10
4.8734051113
20
0.1485553293
30
0.0000000000
10
4.8895216632
20
0.1475797012
30
0.0000000000
10
4.8975714728
20
0.1475790882
30
0.0000000000
11
4.6975790882
21
0.3475714728
31
0.0000000000
11
4.6990389513
21
0.3234662263
31
0.0000000000
11
4.7033935833
21
0.2997124536
31
0.0000000000
11
4.7105794905
21
0.2766565040
31
0.0000000000
11
4.7204918970
21
0.2546345523
31
0.0000000000
11
4.7329862722
21
0.2339676969
31
0.0000000000
11
4.7478804383
21
0.2149572780
31
0.0000000000
11
4.7649572266
21
0.1978804839
31
0.0000000000
11
4.7839676436
21
0.1829863090
31
0.0000000000
11
4.8046345016
21
0.1704919235
31
0.0000000000
11
4.8266564607
21
0.1605795069
31
0.0000000000
11
4.8497124219
21
0.1533935911
31
0.0000000000
11
4.8734662096
21
0.1490389533
31
0.0000000000
11
4.8975714728
21
0.1475790882
31
0.0000000000
0
SPLINE
5
32B
100
AcDbEntity
8
0
100
AcDbSpline
62
9
6
CONTINUOUS
70
0
71
3
72
20
73
16
74
14
42
0.0000001000
43
0.0000001000
44
0.0000000001
12
0.1967271794
22
0.0359965100
32
0.0000000000
13
0.1999933295
23
0.0000027866
33
0.0000000000
40
0.0000000000
40
0.0000000000
40
0.0000000000
40
0.0000000000
40
0.0082587095
40
0.0308177328
40
0.0673528603
40
0.1173374070
40
0.1800506179
40
0.2545881457
40
0.3398751126
40
0.4346816181
40
0.5376404783
40
0.6472669428
40
0.7619801075
40
0.8801257129
40
1.0000000000
40
1.0000000000
40
1.0000000000
40
1.0000000000
10
4.6980073839
20
0.7980264825
30
0.0000000000
10
4.6985489548
20
0.7981255774
30
0.0000000000
10
4.7006231052
20
0.7979812022
30
0.0000000000
10
4.7050949561
20
0.7981698261
30
0.0000000000
10
4.7123764588
20
0.7981181972
30
0.0000000000
10
4.7223206876
20
0.7981884111
30
0.0000000000
10
4.7348041827
20
0.7982064907
30
0.0000000000
10
4.7496389501
20
0.7982408874
30
0.0000000000
10
4.7666139459
20
0.7982660387
30
0.0000000000
10
4.7854834003
20
0.7982899579
30
0.0000000000
10
4.8059755137
20
0.7983095476
30
0.0000000000
10
4.8277946746
20
0.7983253441
30
0.0000000000
10
4.8506262608
20
0.7983368539
30
0.0000000000
10
4.8741410123
20
0.7983439761
30
0.0000000000
10
4.8900084760
20
0.7983457094
30
0.0000000000
10
4.8979998286
20
0.7983458208
30
0.0000000000
11
4.6980073839
21
0.7980264825
31
0.0000000000
11
4.6996586271
21
0.7980647631
31
0.0000000000
11
4.7041701235
21
0.7981024917
31
0.0000000000
11
4.7114768135
21
0.7981391242
31
0.0000000000
11
4.7214733281
21
0.7981741323
31
0.0000000000
11
4.7340155088
21
0.7982070111
31
0.0000000000
11
4.7489224864
21
0.7982372866
31
0.0000000000
11
4.7659792892
21
0.7982645220
31
0.0000000000
11
4.7849399429
21
0.7982883248
31
0.0000000000
11
4.8055310184
21
0.7983083515
31
0.0000000000
11
4.8274555743
21
0.7983243135
31
0.0000000000
11
4.8503974391
21
0.7983359804
31
0.0000000000
11
4.8740257710
21
0.7983431841
31
0.0000000000
11
4.8979998286
21
0.7983458208
31
0.0000000000
0
SPLINE
5
32C
100
AcDbEntity
8
0
100
AcDbSpline
62
9
6
CONTINUOUS
70
0
71
3
72
10
73
6
74
4
42
0.0000001000
43
0.0000001000
44
0.0000000001
12
-0.1728169920
22
-9.0939892483
32
0.0000000000
13
-0.0072005235
23
-9.0956283078
33
0.0000000000
40
0.0000000000
40
0.0000000000
40
0.0000000000
40
0.0000000000
40
0.3333352851
40
0.6666655875
40
1.0000000000
40
1.0000000000
40
1.0000000000
40
1.0000000000
10
-26.9347184216
20
9.4905000000
30
0.0000000000
10
-26.9539204221
20
8.4800508336
30
0.0000000000
10
-26.9861909608
20
6.4590454677
30
0.0000000000
10
-27.0161952648
20
3.4273001282
30
0.0000000000
10
-27.0239297306
20
1.4060545818
30
0.0000000000
10
-27.0247297913
20
0.3954259424
30
0.0000000000
11
-26.9347184216
21
9.4905000000
31
0.0000000000
11
-26.9831242307
21
6.4589916313
31
0.0000000000
11
-27.0131280931
21
3.4272906133
31
0.0000000000
11
-27.0247297913
21
0.3954259424
31
0.0000000000
0
SPLINE
5
32D
100
AcDbEntity
8
0
100
AcDbSpline
62
9
6
CONTINUOUS
70
0
71
3
72
24
73
20
74
18
42
0.0000001000
43
0.0000001000
44
0.0000000001
12
-0.4912721177
22
0.0023378101
32
0.0000000000
13
-0.4912716475
23
0.0024348855
33
0.0000000000
40
0.0000000000
40
0.0000000000
40
0.0000000000
40
0.0000000000
40
0.0927831242
40
0.1846371684
40
0.2748052835
40
0.3625317666
40
0.4470849471
40
0.5277605431
40
0.6038844961
40
0.6748218246
40
0.7399803668
40
0.7988172297
40
0.8508411946
40
0.8956182902
40
0.9327745328
40
0.9620004882
40
0.9830523347
40
0.9957538751
40
1.0000000000
40
1.0000000000
40
1.0000000000
40
1.0000000000
10
-27.0247297913
20
0.3954259424
30
0.0000000000
10
-27.0399237120
20
0.3954982455
30
0.0000000000
10
-27.0701594093
20
0.3956421819
30
0.0000000000
10
-27.1151608001
20
0.3958564056
30
0.0000000000
10
-27.1593341283
20
0.3960667665
30
0.0000000000
10
-27.2023118861
20
0.3962714605
30
0.0000000000
10
-27.2437351738
20
0.3964688033
30
0.0000000000
10
-27.2832584614
20
0.3966571356
30
0.0000000000
10
-27.3205520527
20
0.3968348888
30
0.0000000000
10
-27.3553046120
20
0.3970005750
30
0.0000000000
10
-27.3872262827
20
0.3971528105
30
0.0000000000
10
-27.4160507506
20
0.3972903217
30
0.0000000000
10
-27.4415376063
20
0.3974119628
30
0.0000000000
10
-27.4634741006
20
0.3975167047
30
0.0000000000
10
-27.4816772527
20
0.3976037029
30
0.0000000000
10
-27.4959952206
20
0.3976721418
30
0.0000000000
10
-27.5063085502
20
0.3977216532
30
0.0000000000
10
-27.5125312499
20
0.3977513790
30
0.0000000000
10
-27.5153065530
20
0.3977650074
30
0.0000000000
10
-27.5160018866
20
0.3977684537
30
0.0000000000
11
-27.0247297913
21
0.3954259424
31
0.0000000000
11
-27.0703115530
21
0.3956429054
31
0.0000000000
11
-27.1154368834
21
0.3958577334
31
0.0000000000
11
-27.1597339635
21
0.3960686752
31
0.0000000000
11
-27.2028315378
21
0.3962739448
31
0.0000000000
11
-27.2443701568
21
0.3964718358
31
0.0000000000
11
-27.2840038264
21
0.3966606957
31
0.0000000000
11
-27.3214014007
21
0.3968389453
31
0.0000000000
11
-27.3562509308
21
0.3970050954
31
0.0000000000
11
-27.3882615042
21
0.3971577565
31
0.0000000000
11
-27.4171664128
21
0.3972956546
31
0.0000000000
11
-27.4427243345
21
0.3974176362
31
0.0000000000
11
-27.4647220713
21
0.3975226816
31
0.0000000000
11
-27.4829758955
21
0.3976099117
31
0.0000000000
11
-27.4973337908
21
0.3976785979
31
0.0000000000
11
-27.5076759743
21
0.3977281668
31
0.0000000000
11
-27.5139158853
21
0.3977582017
31
0.0000000000
11
-27.5160018866
21
0.3977684537
31
0.0000000000
0
SPLINE
5
32E
100
AcDbEntity
8
0
100
AcDbSpline
62
9
6
CONTINUOUS
70
0
71
3
72
23
73
19
74
17
42
0.0000001000
43
0.0000001000
44
0.0000000001
12
-0.4858808415
22
0.0732956820
32
0.0000000000
13
0.0732738554
23
0.4858841335
33
0.0000000000
40
0.0000000000
40
0.0000000000
40
0.0000000000
40
0.0000000000
40
0.0985472517
40
0.1960007501
40
0.2914424650
40
0.3839733182
40
0.4727216529
40
0.5568514459
40
0.6355701834
40
0.7081363273
40
0.7738663021
40
0.8321409362
40
0.8824112990
40
0.9242038801
40
0.9571250700
40
0.9808649271
40
0.9952003541
40
1.0000000000
40
1.0000000000
40
1.0000000000
40
1.0000000000
10
-25.9501970453
20
21.1361579495
30
0.0000000000
10
-25.9661577858
20
21.1385656455
30
0.0000000000
10
-25.9979015197
20
21.1433583087
30
0.0000000000
10
-26.0451009099
20
21.1504967744
30
0.0000000000
10
-26.0913240907
20
21.1575000472
30
0.0000000000
10
-26.1361356578
20
21.1643021264
30
0.0000000000
10
-26.1791133779
20
21.1708389848
30
0.0000000000
10
-26.2198527370
20
21.1770487962
30
0.0000000000
10
-26.2579687968
20
21.1828737974
30
0.0000000000
10
-26.2931063956
20
21.1882565103
30
0.0000000000
10
-26.3249218765
20
21.1931544699
30
0.0000000000
10
-26.3531555567
20
21.1974951428
30
0.0000000000
10
-26.3774196269
20
21.2013174658
30
0.0000000000
10
-26.3978396125
20
21.2043525489
30
0.0000000000
10
-26.4132609009
20
21.2072029798
30
0.0000000000
10
-26.4259032381
20
21.2082870146
30
0.0000000000
10
-26.4307776112
20
21.2107871389
30
0.0000000000
10
-26.4359976937
20
21.2099401338
30
0.0000000000
10
-26.4358804642
20
21.2107174911
30
0.0000000000
11
-25.9501970453
21
21.1361579495
31
0.0000000000
11
-25.9980783519
21
21.1433870997
31
0.0000000000
11
-26.0454264014
21
21.1505481495
31
0.0000000000
11
-26.0917951630
21
21.1575736399
31
0.0000000000
11
-26.1367478310
21
21.1643973891
31
0.0000000000
11
-26.1798609399
21
21.1709551155
31
0.0000000000
11
-26.2207283532
21
21.1771850437
31
0.0000000000
11
-26.2589650894
21
21.1830284862
31
0.0000000000
11
-26.2942109487
21
21.1884303963
31
0.0000000000
11
-26.3261339061
21
21.1933398866
31
0.0000000000
11
-26.3544332392
21
21.1977107084
31
0.0000000000
11
-26.3788423609
21
21.2015016875
31
0.0000000000
11
-26.3991313313
21
21.2046771119
31
0.0000000000
11
-26.4151090229
21
21.2072070683
31
0.0000000000
11
-26.4266249219
21
21.2090677238
31
0.0000000000
11
-26.4335705455
21
21.2102415507
31
0.0000000000
11
-26.4358804642
21
21.2107174911
31
0.0000000000
0
SPLINE
5
32F
100
AcDbEntity
8
0
100
AcDbSpline
62
9
6
CONTINUOUS
70
0
71
3
72
14
73
10
74
8
42
0.0000001000
43
0.0000001000
44
0.0000000001
12
-1.7439992621
22
-11.5645865988
32
0.0000000000
13
-0.2222121708
23
-11.6932381477
33
0.0000000000
40
0.0000000000
40
0.0000000000
40
0.0000000000
40
0.0000000000
40
0.1428571958
40
0.2857144385
40
0.4285716412
40
0.5714288031
40
0.7142859384
40
0.8571430463
40
1.0000000000
40
1.0000000000
40
1.0000000000
40
1.0000000000
10
-25.9501970453
20
21.1361579495
30
0.0000000000
10
-26.0332446600
20
20.5854631453
30
0.0000000000
10
-26.1890633400
20
19.4824952603
30
0.0000000000
10
-26.3918639525
20
17.8239911194
30
0.0000000000
10
-26.5636708273
20
16.1619843301
30
0.0000000000
10
-26.7044229084
20
14.4970624751
30
0.0000000000
10
-26.8140715153
20
12.8298016322
30
0.0000000000
10
-26.8925782341
20
11.1607914525
30
0.0000000000
10
-26.9241369037
20
10.0473201270
30
0.0000000000
10
-26.9347184216
20
9.4905000000
30
0.0000000000
11
-25.9501970453
21
21.1361579495
31
0.0000000000
11
-26.1839087495
21
19.4818200450
31
0.0000000000
11
-26.3866983489
21
17.8234071680
31
0.0000000000
11
-26.5584950499
21
16.1614982581
31
0.0000000000
11
-26.6992390085
21
14.4966724788
31
0.0000000000
11
-26.8088812135
21
12.8295098343
31
0.0000000000
11
-26.8873834742
21
11.1605913162
31
0.0000000000
11
-26.9347184216
21
9.4905000000
31
0.0000000000
0
SPLINE
5
330
100
AcDbEntity
8
0
100
AcDbSpline
62
9
6
CONTINUOUS
70
0
71
3
72
23
73
19
74
17
42
0.0000001000
43
0.0000001000
44
0.0000000001
12
-0.0261516868
22
0.4991559418
32
0.0000000000
13
0.4991555254
23
0.0261596326
33
0.0000000000
40
0.0000000000
40
0.0000000000
40
0.0000000000
40
0.0000000000
40
0.0979871761
40
0.1950232812
40
0.2901751874
40
0.3825279096
40
0.4711934189
40
0.5553192000
40
0.6340964742
40
0.7067680124
40
0.7726354736
40
0.8310662159
40
0.8814995573
40
0.9234525352
40
0.9565254297
40
0.9804082129
40
0.9948946576
40
1.0000000000
40
1.0000000000
40
1.0000000000
40
1.0000000000
10
-25.4819554010
20
21.5609131753
30
0.0000000000
10
-25.4828095776
20
21.5772168023
30
0.0000000000
10
-25.4844820079
20
21.6096672666
30
0.0000000000
10
-25.4868873758
20
21.6579545253
30
0.0000000000
10
-25.4891622088
20
21.7053082700
30
0.0000000000
10
-25.4912846987
20
21.7512730097
30
0.0000000000
10
-25.4932344943
20
21.7954065217
30
0.0000000000
10
-25.4949931099
20
21.8372845293
30
0.0000000000
10
-25.4965434395
20
21.8765033233
30
0.0000000000
10
-25.4978722707
20
21.9126885683
30
0.0000000000
10
-25.4989628749
20
21.9454827080
30
0.0000000000
10
-25.4998196872
20
21.9746003418
30
0.0000000000
10
-25.5003929124
20
21.9996699338
30
0.0000000000
10
-25.5008046711
20
22.0207166706
30
0.0000000000
10
-25.5007166089
20
22.0368147097
30
0.0000000000
10
-25.5009803092
20
22.0495943138
30
0.0000000000
10
-25.4999028969
20
22.0552678057
30
0.0000000000
10
-25.5002466291
20
22.0601834247
30
0.0000000000
10
-25.4993971759
20
22.0602279426
30
0.0000000000
11
-25.4819554010
21
21.5609131753
31
0.0000000000
11
-25.4844760746
21
21.6098262314
31
0.0000000000
11
-25.4868885605
21
21.6582687756
31
0.0000000000
11
-25.4891696522
21
21.7057748219
31
0.0000000000
11
-25.4912974069
21
21.7518873924
31
0.0000000000
11
-25.4932513571
21
21.7961629139
31
0.0000000000
11
-25.4950127069
21
21.8381754842
31
0.0000000000
11
-25.4965645134
21
21.8775209693
31
0.0000000000
11
-25.4978918491
21
21.9138208907
31
0.0000000000
11
-25.4989819459
21
21.9467260664
31
0.0000000000
11
-25.4998243178
21
21.9759199696
31
0.0000000000
11
-25.5004108616
21
22.0011217735
31
0.0000000000
11
-25.5007359353
21
22.0220890528
31
0.0000000000
11
-25.5007964118
21
22.0386201157
31
0.0000000000
11
-25.5005917093
21
22.0505559437
31
0.0000000000
11
-25.5001237970
21
22.0577817218
31
0.0000000000
11
-25.4993971759
21
22.0602279426
31
0.0000000000
0
SPLINE
5
331
100
AcDbEntity
8
0
100
AcDbSpline
62
9
6
CONTINUOUS
70
0
71
3
72
24
73
20
74
18
42
0.0000001000
43
0.0000001000
44
0.0000000001
12
-0.6832567443
22
-0.0358137421
32
0.0000000000
13
-0.1020315406
23
-0.6765441356
33
0.0000000000
40
0.0000000000
40
0.0000000000
40
0.0000000000
40
0.0000000000
40
0.0588091864
40
0.1176350618
40
0.1764615498
40
0.2352875529
40
0.2941136992
40
0.3529397791
40
0.4117656869
40
0.4705912917
40
0.5294168967
40
0.5882421636
40
0.6470673571
40
0.7058923098
40
0.7647169519
40
0.8235411311
40
0.8823655175
40
0.9411890471
40
1.0000000000
40
1.0000000000
40
1.0000000000
40
1.0000000000
10
-25.4819554010
20
21.5609131753
30
0.0000000000
10
-25.4953493254
20
21.5602111163
30
0.0000000000
10
-25.5220969599
20
21.5577273849
30
0.0000000000
10
-25.5617808305
20
21.5507876744
30
0.0000000000
10
-25.6007843850
20
21.5406775035
30
0.0000000000
10
-25.6388477126
20
21.5274629452
30
0.0000000000
10
-25.6757249650
20
21.5112297427
30
0.0000000000
10
-25.7111769993
20
21.4920830368
30
0.0000000000
10
-25.7449740835
20
21.4701469671
30
0.0000000000
10
-25.7768972329
20
21.4455636889
30
0.0000000000
10
-25.8067395890
20
21.4184925399
30
0.0000000000
10
-25.8343078401
20
21.3891089191
30
0.0000000000
10
-25.8594233406
20
21.3576032765
30
0.0000000000
10
-25.8819233816
20
21.3241797887
30
0.0000000000
10
-25.9016621639
20
21.2890550545
30
0.0000000000
10
-25.9185118727
20
21.2524568494
30
0.0000000000
10
-25.9323633808
20
21.2146215090
30
0.0000000000
10
-25.9431259374
20
21.1758002928
30
0.0000000000
10
-25.9481968546
20
21.1494206846
30
0.0000000000
10
-25.9501970453
20
21.1361579495
30
0.0000000000
11
-25.4819554010
21
21.5609131753
31
0.0000000000
11
-25.5220199200
21
21.5571922624
31
0.0000000000
11
-25.5616666774
21
21.5502594036
31
0.0000000000
11
-25.6006277763
21
21.5401600758
31
0.0000000000
11
-25.6386500176
21
21.5269598447
31
0.0000000000
11
-25.6754874453
21
21.5107441501
31
0.0000000000
11
-25.7109012256
21
21.4916181120
31
0.0000000000
11
-25.7446618324
21
21.4697057155
31
0.0000000000
11
-25.7765504526
21
21.4451490281
31
0.0000000000
11
-25.8063606376
21
21.4181070628
31
0.0000000000
11
-25.8338990756
21
21.3887552174
31
0.0000000000
11
-25.8589874769
21
21.3572835720
31
0.0000000000
11
-25.8814632289
21
21.3238961543
31
0.0000000000
11
-25.9011807101
21
21.2888093631
31
0.0000000000
11
-25.9180121702
21
21.2522506645
31
0.0000000000
11
-25.9318487504
21
21.2144565255
31
0.0000000000
11
-25.9426006345
21
21.1756725378
31
0.0000000000
11
-25.9501970453
21
21.1361579495
31
0.0000000000
0
SPLINE
5
332
100
AcDbEntity
8
0
100
AcDbSpline
62
9
6
CONTINUOUS
70
0
71
3
72
21
73
17
74
15
42
0.0000001000
43
0.0000001000
44
0.0000000001
12
-0.2500968254
22
0.0021825619
32
0.0000000000
13
0.0021818975
23
0.2500968312
33
0.0000000000
40
0.0000000000
40
0.0000000000
40
0.0000000000
40
0.0000000000
40
0.0065803804
40
0.0254518520
40
0.0565341770
40
0.0994603459
40
0.1536989159
40
0.2185719018
40
0.2932659245
40
0.3768433239
40
0.4682543185
40
0.5663503837
40
0.6698987880
40
0.7775981494
40
0.8880948340
40
1.0000000000
40
1.0000000000
40
1.0000000000
40
1.0000000000
10
-27.0225483236
20
0.1454354616
30
0.0000000000
10
-27.0230969010
20
0.1454402490
30
0.0000000000
10
-27.0228734150
20
0.1486875366
30
0.0000000000
10
-27.0237625814
20
0.1523095117
30
0.0000000000
10
-27.0238400913
20
0.1606481675
30
0.0000000000
10
-27.0243058074
20
0.1710728262
30
0.0000000000
10
-27.0245554564
20
0.1846783004
30
0.0000000000
10
-27.0248215257
20
0.2007988071
30
0.0000000000
10
-27.0250118789
20
0.2194127082
30
0.0000000000
10
-27.0251530718
20
0.2402243176
30
0.0000000000
10
-27.0252331791
20
0.2629920565
30
0.0000000000
10
-27.0252539244
20
0.2874234138
30
0.0000000000
10
-27.0252139443
20
0.3132131219
30
0.0000000000
10
-27.0251138929
20
0.3400363706
30
0.0000000000
10
-27.0249548762
20
0.3675560730
30
0.0000000000
10
-27.0248111799
20
0.3860968999
30
0.0000000000
10
-27.0247297913
20
0.3954259424
30
0.0000000000
11
-27.0225483236
21
0.1454354616
31
0.0000000000
11
-27.0230230366
21
0.1470113069
31
0.0000000000
11
-27.0234643510
21
0.1517105048
31
0.0000000000
11
-27.0238667181
21
0.1594739716
31
0.0000000000
11
-27.0242250788
21
0.1702040964
31
0.0000000000
11
-27.0245349274
21
0.1837659680
31
0.0000000000
11
-27.0247923682
21
0.1999890712
31
0.0000000000
11
-27.0249941642
21
0.2186694305
31
0.0000000000
11
-27.0251377784
21
0.2395721754
31
0.0000000000
11
-27.0252214050
21
0.2624344925
31
0.0000000000
11
-27.0252439926
21
0.2869689308
31
0.0000000000
11
-27.0252052571
21
0.3128670151
31
0.0000000000
11
-27.0251056856
21
0.3398031251
31
0.0000000000
11
-27.0249465299
21
0.3674385891
31
0.0000000000
11
-27.0247297913
21
0.3954259424
31
0.0000000000
0
SPLINE
5
333
100
AcDbEntity
8
0
100
AcDbSpline
62
9
6
CONTINUOUS
70
0
71
3
72
21
73
17
74
15
42
0.0000001000
43
0.0000001000
44
0.0000000001
12
-0.0021818974
22
0.2500968312
32
0.0000000000
13
0.2500968254
23
0.0021825619
33
0.0000000000
40
0.0000000000
40
0.0000000000
40
0.0000000000
40
0.0000000000
40
0.1119051666
40
0.2224018517
40
0.3301012135
40
0.4336496181
40
0.5317456834
40
0.6231566781
40
0.7067340773
40
0.7814280999
40
0.8463010855
40
0.9005396551
40
0.9434658236
40
0.9745481484
40
0.9934196197
40
1.0000000000
40
1.0000000000
40
1.0000000000
40
1.0000000000
10
-27.0247297913
20
-0.3954259424
30
0.0000000000
10
-27.0248111799
20
-0.3860968999
30
0.0000000000
10
-27.0249548762
20
-0.3675560728
30
0.0000000000
10
-27.0251138929
20
-0.3400363703
30
0.0000000000
10
-27.0252139443
20
-0.3132131216
30
0.0000000000
10
-27.0252539244
20
-0.2874234133
30
0.0000000000
10
-27.0252331791
20
-0.2629920560
30
0.0000000000
10
-27.0251530718
20
-0.2402243171
30
0.0000000000
10
-27.0250118789
20
-0.2194127077
30
0.0000000000
10
-27.0248215257
20
-0.2007988067
30
0.0000000000
10
-27.0245554564
20
-0.1846783000
30
0.0000000000
10
-27.0243058074
20
-0.1710728260
30
0.0000000000
10
-27.0238400913
20
-0.1606481673
30
0.0000000000
10
-27.0237625814
20
-0.1523095116
30
0.0000000000
10
-27.0228734150
20
-0.1486875366
30
0.0000000000
10
-27.0230969010
20
-0.1454402490
30
0.0000000000
10
-27.0225483236
20
-0.1454354616
30
0.0000000000
11
-27.0247297913
21
-0.3954259424
31
0.0000000000
11
-27.0249465299
21
-0.3674385890
31
0.0000000000
11
-27.0251056856
21
-0.3398031249
31
0.0000000000
11
-27.0252052571
21
-0.3128670147
31
0.0000000000
11
-27.0252439926
21
-0.2869689303
31
0.0000000000
11
-27.0252214050
21
-0.2624344920
31
0.0000000000
11
-27.0251377784
21
-0.2395721749
31
0.0000000000
11
-27.0249941642
21
-0.2186694301
31
0.0000000000
11
-27.0247923682
21
-0.1999890707
31
0.0000000000
11
-27.0245349274
21
-0.1837659677
31
0.0000000000
11
-27.0242250788
21
-0.1702040962
31
0.0000000000
11
-27.0238667180
21
-0.1594739714
31
0.0000000000
11
-27.0234643510
21
-0.1517105047
31
0.0000000000
11
-27.0230230366
21
-0.1470113069
31
0.0000000000
11
-27.0225483236
21
-0.1454354616
31
0.0000000000
0
SPLINE
5
334
100
AcDbEntity
8
0
100
AcDbSpline
62
9
6
CONTINUOUS
70
0
71
3
72
10
73
6
74
4
42
0.0000001000
43
0.0000001000
44
0.0000000001
12
0.0072005235
22
-9.0956283078
32
0.0000000000
13
0.1728169920
23
-9.0939892483
33
0.0000000000
40
0.0000000000
40
0.0000000000
40
0.0000000000
40
0.0000000000
40
0.3333344125
40
0.6666647149
40
1.0000000000
40
1.0000000000
40
1.0000000000
40
1.0000000000
10
-27.0247297913
20
-0.3954259424
30
0.0000000000
10
-27.0239297306
20
-1.4060545818
30
0.0000000000
10
-27.0161952648
20
-3.4273001282
30
0.0000000000
10
-26.9861909608
20
-6.4590454677
30
0.0000000000
10
-26.9539204221
20
-8.4800508336
30
0.0000000000
10
-26.9347184216
20
-9.4905000000
30
0.0000000000
11
-27.0247297913
21
-0.3954259424
31
0.0000000000
11
-27.0131280931
21
-3.4272906133
31
0.0000000000
11
-26.9831242307
21
-6.4589916313
31
0.0000000000
11
-26.9347184216
21
-9.4905000000
31
0.0000000000
0
SPLINE
5
335
100
AcDbEntity
8
0
100
AcDbSpline
62
9
6
CONTINUOUS
70
0
71
3
72
24
73
20
74
18
42
0.0000001000
43
0.0000001000
44
0.0000000001
12
-0.4912721175
22
-0.0023378481
32
0.0000000000
13
-0.4912716472
23
-0.0024349462
33
0.0000000000
40
0.0000000000
40
0.0000000000
40
0.0000000000
40
0.0000000000
40
0.0927832169
40
0.1846372743
40
0.2748054374
40
0.3625319320
40
0.4470851539
40
0.5277607684
40
0.6038847310
40
0.6748220584
40
0.7399806055
40
0.7988174696
40
0.8508414217
40
0.8956184912
40
0.9327747002
40
0.9620006381
40
0.9830524240
40
0.9957539464
40
1.0000000000
40
1.0000000000
40
1.0000000000
40
1.0000000000
10
-27.0247297913
20
-0.3954259424
30
0.0000000000
10
-27.0399237271
20
-0.3954982468
30
0.0000000000
10
-27.0701594418
20
-0.3956421808
30
0.0000000000
10
-27.1151608578
20
-0.3958564060
30
0.0000000000
10
-27.1593341980
20
-0.3960667660
30
0.0000000000
10
-27.2023119723
20
-0.3962714603
30
0.0000000000
10
-27.2437352716
20
-0.3964688028
30
0.0000000000
10
-27.2832585706
20
-0.3966571349
30
0.0000000000
10
-27.3205521664
20
-0.3968348879
30
0.0000000000
10
-27.3553047278
20
-0.3970005739
30
0.0000000000
10
-27.3872263994
20
-0.3971528096
30
0.0000000000
10
-27.4160508662
20
-0.3972903210
30
0.0000000000
10
-27.4415377157
20
-0.3974119624
30
0.0000000000
10
-27.4634741982
20
-0.3975167043
30
0.0000000000
10
-27.4816773376
20
-0.3976037030
30
0.0000000000
10
-27.4959952872
20
-0.3976721414
30
0.0000000000
10
-27.5063086010
20
-0.3977216539
30
0.0000000000
10
-27.5125312762
20
-0.3977513788
30
0.0000000000
10
-27.5153065647
20
-0.3977650074
30
0.0000000000
10
-27.5160018866
20
-0.3977684537
30
0.0000000000
11
-27.0247297913
21
-0.3954259424
31
0.0000000000
11
-27.0703115985
21
-0.3956429052
31
0.0000000000
11
-27.1154369354
21
-0.3958577335
31
0.0000000000
11
-27.1597340391
21
-0.3960686750
31
0.0000000000
11
-27.2028316191
21
-0.3962739444
31
0.0000000000
11
-27.2443702584
21
-0.3964718353
31
0.0000000000
11
-27.2840039371
21
-0.3966606950
31
0.0000000000
11
-27.3214015161
21
-0.3968389444
31
0.0000000000
11
-27.3562510456
21
-0.3970050943
31
0.0000000000
11
-27.3882616215
21
-0.3971577557
31
0.0000000000
11
-27.4171665306
21
-0.3972956540
31
0.0000000000
11
-27.4427244461
21
-0.3974176358
31
0.0000000000
11
-27.4647221701
21
-0.3975226813
31
0.0000000000
11
-27.4829759778
21
-0.3976099116
31
0.0000000000
11
-27.4973338645
21
-0.3976785979
31
0.0000000000
11
-27.5076760182
21
-0.3977281671
31
0.0000000000
11
-27.5139159204
21
-0.3977582017
31
0.0000000000
11
-27.5160018866
21
-0.3977684537
31
0.0000000000
0
SPLINE
5
336
100
AcDbEntity
8
0
100
AcDbSpline
62
9
6
CONTINUOUS
70
0
71
3
72
14
73
10
74
8
42
0.0000001000
43
0.0000001000
44
0.0000000001
12
0.2222121708
22
-11.6932381477
32
0.0000000000
13
1.7439992621
23
-11.5645865988
33
0.0000000000
40
0.0000000000
40
0.0000000000
40
0.0000000000
40
0.0000000000
40
0.1428569537
40
0.2857140616
40
0.4285711969
40
0.5714283588
40
0.7142855615
40
0.8571428042
40
1.0000000000
40
1.0000000000
40
1.0000000000
40
1.0000000000
10
-26.9347184216
20
-9.4905000000
30
0.0000000000
10
-26.9241369037
20
-10.0473201270
30
0.0000000000
10
-26.8925782341
20
-11.1607914525
30
0.0000000000
10
-26.8140715153
20
-12.8298016322
30
0.0000000000
10
-26.7044229084
20
-14.4970624751
30
0.0000000000
10
-26.5636708273
20
-16.1619843301
30
0.0000000000
10
-26.3918639525
20
-17.8239911194
30
0.0000000000
10
-26.1890633400
20
-19.4824952603
30
0.0000000000
10
-26.0332446600
20
-20.5854631453
30
0.0000000000
10
-25.9501970453
20
-21.1361579495
30
0.0000000000
11
-26.9347184216
21
-9.4905000000
31
0.0000000000
11
-26.8873834742
21
-11.1605913162
31
0.0000000000
11
-26.8088812135
21
-12.8295098343
31
0.0000000000
11
-26.6992390085
21
-14.4966724788
31
0.0000000000
11
-26.5584950499
21
-16.1614982581
31
0.0000000000
11
-26.3866983489
21
-17.8234071680
31
0.0000000000
11
-26.1839087495
21
-19.4818200450
31
0.0000000000
11
-25.9501970453
21
-21.1361579495
31
0.0000000000
0
SPLINE
5
337
100
AcDbEntity
8
0
100
AcDbSpline
62
9
6
CONTINUOUS
70
0
71
3
72
23
73
19
74
17
42
0.0000001000
43
0.0000001000
44
0.0000000001
12
-0.4858808183
22
-0.0732956787
32
0.0000000000
13
0.0732740359
23
-0.4858840826
33
0.0000000000
40
0.0000000000
40
0.0000000000
40
0.0000000000
40
0.0000000000
40
0.0985472528
40
0.1960007521
40
0.2914424677
40
0.3839733211
40
0.4727216560
40
0.5568514490
40
0.6355701863
40
0.7081363299
40
0.7738663042
40
0.8321409379
40
0.8824113004
40
0.9242038811
40
0.9571250706
40
0.9808649275
40
0.9952003542
40
1.0000000000
40
1.0000000000
40
1.0000000000
40
1.0000000000
10
-25.9501970453
20
-21.1361579495
30
0.0000000000
10
-25.9661577852
20
-21.1385656454
30
0.0000000000
10
-25.9979015179
20
-21.1433583085
30
0.0000000000
10
-26.0451009063
20
-21.1504967739
30
0.0000000000
10
-26.0913240852
20
-21.1575000465
30
0.0000000000
10
-26.1361356503
20
-21.1643021254
30
0.0000000000
10
-26.1791133685
20
-21.1708389835
30
0.0000000000
10
-26.2198527256
20
-21.1770487946
30
0.0000000000
10
-26.2579687835
20
-21.1828737955
30
0.0000000000
10
-26.2931063804
20
-21.1882565081
30
0.0000000000
10
-26.3249218597
20
-21.1931544674
30
0.0000000000
10
-26.3531555384
20
-21.1974951401
30
0.0000000000
10
-26.3774196072
20
-21.2013174629
30
0.0000000000
10
-26.3978395917
20
-21.2043525459
30
0.0000000000
10
-26.4132608790
20
-21.2072029766
30
0.0000000000
10
-26.4259032158
20
-21.2082870114
30
0.0000000000
10
-26.4307775880
20
-21.2107871354
30
0.0000000000
10
-26.4359976709
20
-21.2099401304
30
0.0000000000
10
-26.4358804411
20
-21.2107174876
30
0.0000000000
11
-25.9501970453
21
-21.1361579495
31
0.0000000000
11
-25.9980783502
21
-21.1433870995
31
0.0000000000
11
-26.0454263979
21
-21.1505481490
31
0.0000000000
11
-26.0917951575
21
-21.1575736392
31
0.0000000000
11
-26.1367478235
21
-21.1643973880
31
0.0000000000
11
-26.1798609305
21
-21.1709551141
31
0.0000000000
11
-26.2207283418
21
-21.1771850421
31
0.0000000000
11
-26.2589650761
21
-21.1830284843
31
0.0000000000
11
-26.2942109336
21
-21.1884303941
31
0.0000000000
11
-26.3261338892
21
-21.1933398841
31
0.0000000000
11
-26.3544332207
21
-21.1977107057
31
0.0000000000
11
-26.3788423412
21
-21.2015016846
31
0.0000000000
11
-26.3991313104
21
-21.2046771088
31
0.0000000000
11
-26.4151090011
21
-21.2072070651
31
0.0000000000
11
-26.4266248994
21
-21.2090677205
31
0.0000000000
11
-26.4335705225
21
-21.2102415472
31
0.0000000000
11
-26.4358804411
21
-21.2107174876
31
0.0000000000
0
SPLINE
5
338
100
AcDbEntity
8
0
100
AcDbSpline
62
9
6
CONTINUOUS
70
0
71
3
72
24
73
20
74
18
42
0.0000001000
43
0.0000001000
44
0.0000000001
12
0.1020315407
22
-0.6765441356
32
0.0000000000
13
0.6832567443
23
-0.0358137421
33
0.0000000000
40
0.0000000000
40
0.0000000000
40
0.0000000000
40
0.0000000000
40
0.0588109529
40
0.1176344825
40
0.1764588689
40
0.2352830481
40
0.2941076902
40
0.3529326429
40
0.4117578364
40
0.4705831033
40
0.5294087083
40
0.5882343131
40
0.6470602209
40
0.7058863008
40
0.7647124471
40
0.8235384502
40
0.8823649382
40
0.9411908136
40
1.0000000000
40
1.0000000000
40
1.0000000000
40
1.0000000000
10
-25.9501970453
20
-21.1361579495
30
0.0000000000
10
-25.9481968546
20
-21.1494206846
30
0.0000000000
10
-25.9431259374
20
-21.1758002928
30
0.0000000000
10
-25.9323633808
20
-21.2146215090
30
0.0000000000
10
-25.9185118727
20
-21.2524568494
30
0.0000000000
10
-25.9016621639
20
-21.2890550545
30
0.0000000000
10
-25.8819233816
20
-21.3241797887
30
0.0000000000
10
-25.8594233406
20
-21.3576032765
30
0.0000000000
10
-25.8343078401
20
-21.3891089191
30
0.0000000000
10
-25.8067395890
20
-21.4184925399
30
0.0000000000
10
-25.7768972329
20
-21.4455636889
30
0.0000000000
10
-25.7449740835
20
-21.4701469671
30
0.0000000000
10
-25.7111769993
20
-21.4920830368
30
0.0000000000
10
-25.6757249650
20
-21.5112297427
30
0.0000000000
10
-25.6388477126
20
-21.5274629452
30
0.0000000000
10
-25.6007843850
20
-21.5406775035
30
0.0000000000
10
-25.5617808305
20
-21.5507876744
30
0.0000000000
10
-25.5220969599
20
-21.5577273849
30
0.0000000000
10
-25.4953493254
20
-21.5602111163
30
0.0000000000
10
-25.4819554010
20
-21.5609131753
30
0.0000000000
11
-25.9501970453
21
-21.1361579495
31
0.0000000000
11
-25.9426006345
21
-21.1756725378
31
0.0000000000
11
-25.9318487504
21
-21.2144565255
31
0.0000000000
11
-25.9180121702
21
-21.2522506645
31
0.0000000000
11
-25.9011807101
21
-21.2888093631
31
0.0000000000
11
-25.8814632289
21
-21.3238961543
31
0.0000000000
11
-25.8589874769
21
-21.3572835720
31
0.0000000000
11
-25.8338990756
21
-21.3887552174
31
0.0000000000
11
-25.8063606376
21
-21.4181070628
31
0.0000000000
11
-25.7765504526
21
-21.4451490281
31
0.0000000000
11
-25.7446618324
21
-21.4697057155
31
0.0000000000
11
-25.7109012256
21
-21.4916181120
31
0.0000000000
11
-25.6754874453
21
-21.5107441501
31
0.0000000000
11
-25.6386500176
21
-21.5269598447
31
0.0000000000
11
-25.6006277763
21
-21.5401600758
31
0.0000000000
11
-25.5616666774
21
-21.5502594036
31
0.0000000000
11
-25.5220199200
21
-21.5571922624
31
0.0000000000
11
-25.4819554010
21
-21.5609131753
31
0.0000000000
0
SPLINE
5
339
100
AcDbEntity
8
0
100
AcDbSpline
62
9
6
CONTINUOUS
70
0
71
3
72
23
73
19
74
17
42
0.0000001000
43
0.0000001000
44
0.0000000001
12
-0.0261516865
22
-0.4991559418
32
0.0000000000
13
0.4991555254
23
-0.0261596326
33
0.0000000000
40
0.0000000000
40
0.0000000000
40
0.0000000000
40
0.0000000000
40
0.0979871817
40
0.1950232916
40
0.2901752017
40
0.3825279267
40
0.4711934375
40
0.5553192191
40
0.6340964926
40
0.7067680292
40
0.7726354882
40
0.8310662277
40
0.8814995662
40
0.9234525413
40
0.9565254334
40
0.9804082146
40
0.9948946581
40
1.0000000000
40
1.0000000000
40
1.0000000000
40
1.0000000000
10
-25.4819554010
20
-21.5609131753
30
0.0000000000
10
-25.4828095776
20
-21.5772168033
30
0.0000000000
10
-25.4844820080
20
-21.6096672693
30
0.0000000000
10
-25.4868873760
20
-21.6579545303
30
0.0000000000
10
-25.4891622091
20
-21.7053082770
30
0.0000000000
10
-25.4912846990
20
-21.7512730180
30
0.0000000000
10
-25.4932344946
20
-21.7954065308
30
0.0000000000
10
-25.4949931102
20
-21.8372845387
30
0.0000000000
10
-25.4965434397
20
-21.8765033323
30
0.0000000000
10
-25.4978722709
20
-21.9126885766
30
0.0000000000
10
-25.4989628751
20
-21.9454827152
30
0.0000000000
10
-25.4998196872
20
-21.9746003477
30
0.0000000000
10
-25.5003929124
20
-21.9996699382
30
0.0000000000
10
-25.5008046711
20
-22.0207166737
30
0.0000000000
10
-25.5007166088
20
-22.0368147116
30
0.0000000000
10
-25.5009803091
20
-22.0495943147
30
0.0000000000
10
-25.4999028969
20
-22.0552678061
30
0.0000000000
10
-25.5002466291
20
-22.0601834247
30
0.0000000000
10
-25.4993971759
20
-22.0602279426
30
0.0000000000
11
-25.4819554010
21
-21.5609131753
31
0.0000000000
11
-25.4844760747
21
-21.6098262342
31
0.0000000000
11
-25.4868885608
21
-21.6582687809
31
0.0000000000
11
-25.4891696525
21
-21.7057748290
31
0.0000000000
11
-25.4912974072
21
-21.7518874009
31
0.0000000000
11
-25.4932513574
21
-21.7961629232
31
0.0000000000
11
-25.4950127072
21
-21.8381754937
31
0.0000000000
11
-25.4965645136
21
-21.8775209785
31
0.0000000000
11
-25.4978918493
21
-21.9138208991
31
0.0000000000
11
-25.4989819460
21
-21.9467260737
31
0.0000000000
11
-25.4998243178
21
-21.9759199755
31
0.0000000000
11
-25.5004108616
21
-22.0011217780
31
0.0000000000
11
-25.5007359353
21
-22.0220890559
31
0.0000000000
11
-25.5007964117
21
-22.0386201175
31
0.0000000000
11
-25.5005917093
21
-22.0505559445
31
0.0000000000
11
-25.5001237970
21
-22.0577817220
31
0.0000000000
11
-25.4993971759
21
-22.0602279426
31
0.0000000000
0
ENDSEC
0
SECTION
2
OBJECTS
0
DICTIONARY
5
33A
100
AcDbDictionary
3
ACAD_GROUP
350
33B
3
ACAD_MLINESTYLE
350
33C
0
DICTIONARY
5
33B
102
{ACAD_REACTORS
330
33A
102
}
100
AcDbDictionary
0
DICTIONARY
5
33C
102
{ACAD_REACTORS
330
33A
102
}
100
AcDbDictionary
3
STANDARD
350
33D
0
MLINESTYLE
5
33D
102
{ACAD_REACTORS
330
33C
102
}
100
AcDbMlineStyle
2
STANDARD
70
0
3

62
256
51
90.0
52
90.0
71
2
49
0.5
62
256
6
BYLAYER
49
-0.5
62
256
6
BYLAYER
0
ENDSEC
0
EOF
