  0
SECTION
  2
HEADER
  9
$ACADVER
  1
AC1015
  9
$DWGCODEPAGE
  3
ANSI_1252
  9
$EXTMAX
 10
210.0
 20
297.0
 30
0.0
  9
$EXTMIN
 10
0.0
 20
0.0
 30
0.0
  9
$LIMMIN
 10
0.0
 20
0.0
  9
$LIMMAX
 10
210.0
 20
297.0
  9
$VIEWCTR
 10
105.0
 20
148.5
  9
$VIEWSIZE
 40
297.0
  9
$CLAYER
  8
0
  9
$LTSCALE
 40
19.36
  9
$CELTYPE
  6
BYLAYER
  9
$DIMSCALE
 40
1.0
  9
$DIMASZ
 40
3.0
  9
$DIMEXO
 40
0.5
  9
$DIMDLI
 40
13.376
  9
$DIMEXE
 40
1.5
  9
$DIMCEN
 40
3.168
  9
$DIMLFAC
 40
1.0
  9
$DIMBLK
  1
_FILLED
  9
$DIMTXT
 40
3.0
  9
$DIMTOL
 70
1
  9
$DIMLIM
 70
0
  9
$DIMTFAC
 40
1.0
  9
$DIMTP
 40
0.01
  9
$DIMTM
 40
0.01
  9
$DIMGAP
 40
0.625
  9
$DIMDSEP
 70
44
  9
$PDMODE
 70
3
  9
$PDSIZE
 40
3.0
  9
$HANDSEED
  5
3E7
  9
$TILEMODE
 70
1
  9
$MEASUREMENT
 70
1
  9
$INSUNITS
 70
4
  0
ENDSEC
  0
SECTION
  2
CLASSES
  0
CLASS
  1
ACDBDICTIONARYWDFLT
  2
AcDbDictionaryWithDefault
  3
AutoCAD 2000
 90
0
280
0
281
0
  0
CLASS
  1
ACDBPLACEHOLDER
  2
AcDbPlaceHolder
  3
AutoCAD 2000
 90
0
280
0
281
0
  0
CLASS
  1
LAYOUT
  2
AcDbLayout
  3
AutoCAD 2000
 90
0
280
0
281
0
  0
ENDSEC
  0
SECTION
  2
TABLES
  0
TABLE
  2
VPORT
  5
8
100
AcDbSymbolTable
 70
2
  0
VPORT
  5
1F4
100
AcDbSymbolTableRecord
100
AcDbViewportTableRecord
  2
*ACTIVE
 70
0
 10
0.0
 20
0.0
 11
1.0
 21
1.0
 12
105.0
 22
148.5
 13
0.0
 23
0.0
 14
1.0
 24
1.0
 15
0.0
 25
0.0
 16
0.0
 26
0.0
 36
1.0
 17
0.0
 27
0.0
 37
0.0
 40
297.0
 41
0.7070707071
 42
50.0
 43
0.0
 44
0.0
 50
0.0
 51
0.0
 71
0
 72
100
 73
1
 74
1
 75
0
 76
0
 77
0
 78
0
  0
ENDTAB
  0
TABLE
  2
LTYPE
  5
5
100
AcDbSymbolTable
 70
6
  0
LTYPE
  5
14
100
AcDbSymbolTableRecord
100
AcDbLinetypeTableRecord
  2
BYBLOCK
 70
0
  3

 72
65
 73
0
 40
0.0
  0
LTYPE
  5
15
100
AcDbSymbolTableRecord
100
AcDbLinetypeTableRecord
  2
BYLAYER
 70
0
  3

 72
65
 73
0
 40
0.0
  0
LTYPE
  5
16
100
AcDbSymbolTableRecord
100
AcDbLinetypeTableRecord
  2
CONTINUOUS
 70
64
  3
Solid line
 72
65
 73
0
 40
0.0
  0
LTYPE
  5
1F5
100
AcDbSymbolTableRecord
100
AcDbLinetypeTableRecord
  2
CENTER
 70
64
  3
____ _ ____ _ ____ _ ____ _ ____ _ ____ _ ____
 72
65
 73
4
 40
0.6
 49
0.375
 74
0
 49
-0.075
 74
0
 49
0.075
 74
0
 49
-0.075
 74
0
  0
LTYPE
  5
1F6
100
AcDbSymbolTableRecord
100
AcDbLinetypeTableRecord
  2
HIDDEN
 70
64
  3
- - - - - - - - - - - - - - - - - - - -
 72
65
 73
2
 40
0.2
 49
0.1
 74
0
 49
-0.1
 74
0
  0
LTYPE
  5
1F7
100
AcDbSymbolTableRecord
100
AcDbLinetypeTableRecord
  2
PHANTOM
 70
64
  3
_____ _ _ _____ _ _ _____ _ _ _____
 72
65
 73
6
 40
0.8
 49
0.45
 74
0
 49
-0.05
 74
0
 49
0.1
 74
0
 49
-0.05
 74
0
 49
0.1
 74
0
 49
-0.05
 74
0
  0
LTYPE
  5
1F8
100
AcDbSymbolTableRecord
100
AcDbLinetypeTableRecord
  2
DOT
 70
64
  3
. . . . . . . . . . . . . . . . . . . .
 72
65
 73
2
 40
0.2
 49
0.1
 74
0
 49
-0.1
 74
0
  0
LTYPE
  5
1F9
100
AcDbSymbolTableRecord
100
AcDbLinetypeTableRecord
  2
DASHED
 70
64
  3
- - - - - - - - - - - - - - - - - - - -
 72
65
 73
2
 40
0.2
 49
0.1
 74
0
 49
-0.1
 74
0
  0
ENDTAB
  0
TABLE
  2
LAYER
  5
2
100
AcDbSymbolTable
 70
36
  0
LAYER
  5
10
100
AcDbSymbolTableRecord
100
AcDbLayerTableRecord
  2
0
 70
0
 62
7
  6
CONTINUOUS
370
-3
390
F
  0
LAYER
  5
1FA
100
AcDbSymbolTableRecord
100
AcDbLayerTableRecord
  2
DEFAULT_1
 70
0
 62
7
  6
CENTER
370
-3
390
F
  0
LAYER
  5
1FB
100
AcDbSymbolTableRecord
100
AcDbLayerTableRecord
  2
DEFAULT_2
 70
0
 62
7
  6
HIDDEN
370
-3
390
F
  0
LAYER
  5
1FC
100
AcDbSymbolTableRecord
100
AcDbLayerTableRecord
  2
DEFAULT_3
 70
0
 62
7
  6
PHANTOM
370
-3
390
F
  0
LAYER
  5
1FD
100
AcDbSymbolTableRecord
100
AcDbLayerTableRecord
  2
ASSI
 70
0
 62
7
  6
CONTINUOUS
370
-3
390
F
  0
LAYER
  5
1FE
100
AcDbSymbolTableRecord
100
AcDbLayerTableRecord
  2
COLOR9
 70
0
 62
7
  6
CONTINUOUS
370
-3
390
F
  0
LAYER
  5
1FF
100
AcDbSymbolTableRecord
100
AcDbLayerTableRecord
  2
COORDINATE
 70
0
 62
7
  6
CONTINUOUS
370
-3
390
F
  0
LAYER
  5
200
100
AcDbSymbolTableRecord
100
AcDbLayerTableRecord
  2
COORD_ORIGINE
 70
0
 62
7
  6
CONTINUOUS
370
-3
390
F
  0
LAYER
  5
201
100
AcDbSymbolTableRecord
100
AcDbLayerTableRecord
  2
COPY_GEOMETRY
 70
0
 62
7
  6
CONTINUOUS
370
-3
390
F
  0
LAYER
  5
202
100
AcDbSymbolTableRecord
100
AcDbLayerTableRecord
  2
COPY_PUBLISH
 70
0
 62
7
  6
CONTINUOUS
370
-3
390
F
  0
LAYER
  5
203
100
AcDbSymbolTableRecord
100
AcDbLayerTableRecord
  2
COSMETIC
 70
0
 62
7
  6
CONTINUOUS
370
-3
390
F
  0
LAYER
  5
204
100
AcDbSymbolTableRecord
100
AcDbLayerTableRecord
  2
COSMETICI
 70
0
 62
7
  6
CONTINUOUS
370
-3
390
F
  0
LAYER
  5
205
100
AcDbSymbolTableRecord
100
AcDbLayerTableRecord
  2
CURVE
 70
0
 62
7
  6
CONTINUOUS
370
-3
390
F
  0
LAYER
  5
206
100
AcDbSymbolTableRecord
100
AcDbLayerTableRecord
  2
DRAFT
 70
0
 62
7
  6
CONTINUOUS
370
-3
390
F
  0
LAYER
  5
207
100
AcDbSymbolTableRecord
100
AcDbLayerTableRecord
  2
IGES
 70
0
 62
7
  6
CONTINUOUS
370
-3
390
F
  0
LAYER
  5
208
100
AcDbSymbolTableRecord
100
AcDbLayerTableRecord
  2
IGS_SCRITTE
 70
0
 62
7
  6
CONTINUOUS
370
-3
390
F
  0
LAYER
  5
209
100
AcDbSymbolTableRecord
100
AcDbLayerTableRecord
  2
IMPORT_IGES
 70
0
 62
7
  6
CONTINUOUS
370
-3
390
F
  0
LAYER
  5
20A
100
AcDbSymbolTableRecord
100
AcDbLayerTableRecord
  2
INTFCLR_13457
 70
0
 62
7
  6
CONTINUOUS
370
-3
390
F
  0
LAYER
  5
20B
100
AcDbSymbolTableRecord
100
AcDbLayerTableRecord
  2
INTFCLR_20107
 70
0
 62
7
  6
CONTINUOUS
370
-3
390
F
  0
LAYER
  5
20C
100
AcDbSymbolTableRecord
100
AcDbLayerTableRecord
  2
INTFCLR_35047
 70
0
 62
7
  6
CONTINUOUS
370
-3
390
F
  0
LAYER
  5
20D
100
AcDbSymbolTableRecord
100
AcDbLayerTableRecord
  2
INTF_11
 70
0
 62
7
  6
CONTINUOUS
370
-3
390
F
  0
LAYER
  5
20E
100
AcDbSymbolTableRecord
100
AcDbLayerTableRecord
  2
INTF_20
 70
0
 62
7
  6
CONTINUOUS
370
-3
390
F
  0
LAYER
  5
20F
100
AcDbSymbolTableRecord
100
AcDbLayerTableRecord
  2
INTF_25
 70
0
 62
7
  6
CONTINUOUS
370
-3
390
F
  0
LAYER
  5
210
100
AcDbSymbolTableRecord
100
AcDbLayerTableRecord
  2
INTF_YELLOW
 70
0
 62
7
  6
CONTINUOUS
370
-3
390
F
  0
LAYER
  5
211
100
AcDbSymbolTableRecord
100
AcDbLayerTableRecord
  2
NOTE
 70
0
 62
7
  6
CONTINUOUS
370
-3
390
F
  0
LAYER
  5
212
100
AcDbSymbolTableRecord
100
AcDbLayerTableRecord
  2
PIANI
 70
0
 62
7
  6
CONTINUOUS
370
-3
390
F
  0
LAYER
  5
213
100
AcDbSymbolTableRecord
100
AcDbLayerTableRecord
  2
PIANI_ORIGINE
 70
0
 62
7
  6
CONTINUOUS
370
-3
390
F
  0
LAYER
  5
214
100
AcDbSymbolTableRecord
100
AcDbLayerTableRecord
  2
PIANI_RIFERIMENTO
 70
0
 62
7
  6
CONTINUOUS
370
-3
390
F
  0
LAYER
  5
215
100
AcDbSymbolTableRecord
100
AcDbLayerTableRecord
  2
PUBLISH_GEOMETRY
 70
0
 62
7
  6
CONTINUOUS
370
-3
390
F
  0
LAYER
  5
216
100
AcDbSymbolTableRecord
100
AcDbLayerTableRecord
  2
PUNTI
 70
0
 62
7
  6
CONTINUOUS
370
-3
390
F
  0
LAYER
  5
217
100
AcDbSymbolTableRecord
100
AcDbLayerTableRecord
  2
RACCORDO
 70
0
 62
7
  6
CONTINUOUS
370
-3
390
F
  0
LAYER
  5
218
100
AcDbSymbolTableRecord
100
AcDbLayerTableRecord
  2
SIMBOLI
 70
0
 62
7
  6
CONTINUOUS
370
-3
390
F
  0
LAYER
  5
219
100
AcDbSymbolTableRecord
100
AcDbLayerTableRecord
  2
SMUSSO
 70
0
 62
7
  6
CONTINUOUS
370
-3
390
F
  0
LAYER
  5
21A
100
AcDbSymbolTableRecord
100
AcDbLayerTableRecord
  2
SNAPLINE
 70
0
 62
7
  6
CONTINUOUS
370
-3
390
F
  0
LAYER
  5
21B
100
AcDbSymbolTableRecord
100
AcDbLayerTableRecord
  2
SOLIDO
 70
0
 62
7
  6
CONTINUOUS
370
-3
390
F
  0
LAYER
  5
21C
100
AcDbSymbolTableRecord
100
AcDbLayerTableRecord
  2
SUPERFICI
 70
0
 62
7
  6
CONTINUOUS
370
-3
390
F
  0
LAYER
  5
21D
100
AcDbSymbolTableRecord
100
AcDbLayerTableRecord
  2
TRASH
 70
0
 62
7
  6
CONTINUOUS
370
-3
390
F
  0
LAYER
  5
21E
100
AcDbSymbolTableRecord
100
AcDbLayerTableRecord
  2
WHITE
 70
0
 62
7
  6
CONTINUOUS
370
-3
390
F
  0
LAYER
  5
21F
100
AcDbSymbolTableRecord
100
AcDbLayerTableRecord
  2
XSEC_DATUMS
 70
0
 62
7
  6
CONTINUOUS
370
-3
390
F
  0
ENDTAB
  0
TABLE
  2
STYLE
  5
3
100
AcDbSymbolTable
 70
1
  0
STYLE
  5
11
100
AcDbSymbolTableRecord
100
AcDbTextStyleTableRecord
  2
STANDARD
 70
0
 40
0.0
 41
0.8
 50
0.0
 71
0
 42
0.2
  3
txt
  4

  0
STYLE
  5
220
100
AcDbSymbolTableRecord
100
AcDbTextStyleTableRecord
  2
TEXTSTYLE_1
 70
0
 40
0.0
 41
0.8
 50
0.0
 71
0
 42
0.2
  3
gdt
  4

  0
ENDTAB
  0
TABLE
  2
VIEW
  5
6
100
AcDbSymbolTable
 70
0
  0
ENDTAB
  0
TABLE
  2
UCS
  5
7
100
AcDbSymbolTable
 70
0
  0
ENDTAB
  0
TABLE
  2
APPID
  5
9
100
AcDbSymbolTable
 70
1
  0
APPID
  5
221
100
AcDbSymbolTableRecord
100
AcDbRegAppTableRecord
  2
ACAD
 70
0
  0
ENDTAB
  0
TABLE
  2
BLOCK_RECORD
  5
1
100
AcDbSymbolTable
 70
0
  0
BLOCK_RECORD
  5
222
100
AcDbSymbolTableRecord
100
AcDbBlockTableRecord
  2
*Model_Space
  0
BLOCK_RECORD
  5
223
100
AcDbSymbolTableRecord
100
AcDbBlockTableRecord
  2
*Paper_Space
  0
BLOCK_RECORD
  5
224
100
AcDbSymbolTableRecord
100
AcDbBlockTableRecord
  2
_FILLED
  0
BLOCK_RECORD
  5
225
100
AcDbSymbolTableRecord
100
AcDbBlockTableRecord
  2
*D0
  0
BLOCK_RECORD
  5
226
100
AcDbSymbolTableRecord
100
AcDbBlockTableRecord
  2
*D1
  0
BLOCK_RECORD
  5
227
100
AcDbSymbolTableRecord
100
AcDbBlockTableRecord
  2
*D2
  0
ENDTAB
  0
TABLE
  2
DIMSTYLE
  5
A
100
AcDbSymbolTable
 70
1
100
AcDbDimStyleTable
 71
0
  0
DIMSTYLE
105
228
100
AcDbSymbolTableRecord
100
AcDbDimStyleTableRecord
  2
STANDARD
 70
0
  3

  4

 40
1.0
 41
3.0
 42
0.5
 43
0.38
 44
1.5
 45
0.0
 46
0.0
 47
0.01
 48
0.01
140
3.0
141
0.09
142
0.0
143
25.4
144
1.0
145
0.0
146
1.0
147
0.625
 71
1.0
 72
0.0
 73
0
 74
0
 75
0
 76
0
 77
1
 78
8
170
0
171
2
172
0
173
0
174
0
175
0
176
0
177
0
178
0
270
2
271
2
272
2
273
2
274
2
275
0
280
0
281
0
282
0
283
1
284
8
285
0
286
0
287
3
288
0
340
11
278
44
341
224
342
224
343
224
344
224
  0
DIMSTYLE
105
229
100
AcDbSymbolTableRecord
100
AcDbDimStyleTableRecord
  2
DIMSTYLE_1
 70
0
  3

  4

 40
1.0
 41
3.0
 42
0.5
 43
0.38
 44
1.5
 45
0.0
 46
0.0
 47
0.0
 48
0.0
140
3.0
141
0.09
142
0.0
143
25.4
144
1.0
145
0.0
146
1.0
147
0.75
 71
0.0
 72
0.0
 73
0
 74
0
 75
0
 76
0
 77
1
 78
8
170
0
171
2
172
0
173
0
174
0
175
0
176
0
177
0
178
0
270
2
271
1
272
1
273
2
274
2
275
0
280
0
281
0
282
0
283
1
284
8
285
0
286
0
287
3
288
0
340
11
278
44
341
224
342
224
343
224
344
224
  0
DIMSTYLE
105
22A
100
AcDbSymbolTableRecord
100
AcDbDimStyleTableRecord
  2
DIMSTYLE_2
 70
0
  3

  4

 40
1.0
 41
3.0
 42
0.5
 43
0.38
 44
1.5
 45
0.0
 46
0.0
 47
0.0
 48
0.0
140
3.0
141
0.09
142
0.0
143
25.4
144
1.0
145
0.0
146
1.0
147
0.75
 71
0.0
 72
0.0
 73
0
 74
0
 75
0
 76
0
 77
1
 78
8
170
0
171
2
172
0
173
0
174
0
175
0
176
0
177
0
178
0
270
2
271
2
272
2
273
2
274
2
275
0
280
0
281
0
282
0
283
1
284
8
285
0
286
0
287
3
288
0
340
11
278
44
341
224
342
224
343
224
344
224
  0
ENDTAB
  0
ENDSEC
  0
SECTION
  2
BLOCKS
  0
BLOCK
  5
20
100
AcDbEntity
  8
0
100
AcDbBlockBegin
  2
*Model_Space
 70
0
 10
0.0
 20
0.0
 30
0.0
  3
*Model_Space
  1

  0
ENDBLK
  5
21
100
AcDbEntity
  8
0
100
AcDbBlockEnd
  0
BLOCK
  5
1C
100
AcDbEntity
  8
0
100
AcDbBlockBegin
  2
*Paper_Space
 70
0
 10
0.0
 20
0.0
 30
0.0
  3
*Paper_Space
  1

  0
ENDBLK
  5
1D
100
AcDbEntity
  8
0
100
AcDbBlockEnd
  0
BLOCK
  5
22B
100
AcDbEntity
  8
0
100
AcDbBlockBegin
  2
_FILLED
 70
64
 10
0.0
 20
0.0
  3
_FILLED
  1

  0
SOLID
  5
22C
100
AcDbEntity
  8
0
  6
BYBLOCK
 62
0
100
AcDbTrace
 10
0.0
 20
0.0
 11
-1.0
 21
0.3166666667
 12
-1.0
 22
-0.3166666667
 13
-1.0
 23
-0.3166666667
  0
ENDBLK
  5
22D
100
AcDbEntity
  8
0
  6
BYBLOCK
 62
0
100
AcDbBlockEnd
  0
BLOCK
  5
22E
100
AcDbEntity
  8
0
100
AcDbBlockBegin
 62
7
  6
CONTINUOUS
  2
*D0
 70
65
 10
0.0
 20
0.0
  3
*D0
  1

  0
LINE
  5
22F
100
AcDbEntity
  8
0
100
AcDbLine
 62
7
  6
CONTINUOUS
 10
0.8782129148
 20
23.3068891336
 11
10.4165857796
 21
23.3068891336
  0
LINE
  5
230
100
AcDbEntity
  8
0
100
AcDbLine
 62
7
  6
CONTINUOUS
 10
0.8782129148
 20
-21.0761057279
 11
10.4165857796
 21
-21.0761057279
  0
LINE
  5
231
100
AcDbEntity
  8
0
100
AcDbLine
 62
7
  6
CONTINUOUS
 10
8.9165857796
 20
23.3068891336
 11
8.9165857796
 21
1.1153917029
  0
LINE
  5
232
100
AcDbEntity
  8
0
100
AcDbLine
 62
7
  6
CONTINUOUS
 10
8.9165857796
 20
-21.0761057279
 11
8.9165857796
 21
1.1153917029
  0
INSERT
  5
233
100
AcDbEntity
  8
0
100
AcDbBlockReference
 62
7
  6
CONTINUOUS
  2
_FILLED
 10
8.9165857796
 20
23.3068891336
 41
3.0
 42
3.0
 43
3.0
 50
90.0
  0
INSERT
  5
234
100
AcDbEntity
  8
0
100
AcDbBlockReference
 62
7
  6
CONTINUOUS
  2
_FILLED
 10
8.9165857796
 20
-21.0761057279
 41
3.0
 42
3.0
 43
3.0
 50
270.0
  0
ENDBLK
  5
235
100
AcDbEntity
  8
0
  6
BYBLOCK
 62
0
100
AcDbBlockEnd
  0
BLOCK
  5
236
100
AcDbEntity
  8
0
100
AcDbBlockBegin
 62
7
  6
CONTINUOUS
  2
*D1
 70
65
 10
0.0
 20
0.0
  3
*D1
  1

  0
LINE
  5
237
100
AcDbEntity
  8
0
100
AcDbLine
 62
7
  6
CONTINUOUS
 10
0.9165857796
 20
14.7153917029
 11
0.9165857796
 21
32.8068891336
  0
LINE
  5
238
100
AcDbEntity
  8
0
100
AcDbLine
 62
7
  6
CONTINUOUS
 10
-21.3834142204
 20
14.7153917029
 11
-21.3834142204
 21
32.8068891336
  0
LINE
  5
239
100
AcDbEntity
  8
0
100
AcDbLine
 62
7
  6
CONTINUOUS
 10
0.9165857796
 20
31.3068891336
 11
-10.2334142204
 21
31.3068891336
  0
LINE
  5
23A
100
AcDbEntity
  8
0
100
AcDbLine
 62
7
  6
CONTINUOUS
 10
-21.3834142204
 20
31.3068891336
 11
-10.2334142204
 21
31.3068891336
  0
INSERT
  5
23B
100
AcDbEntity
  8
0
100
AcDbBlockReference
 62
7
  6
CONTINUOUS
  2
_FILLED
 10
0.9165857796
 20
31.3068891336
 41
3.0
 42
3.0
 43
3.0
  0
INSERT
  5
23C
100
AcDbEntity
  8
0
100
AcDbBlockReference
 62
7
  6
CONTINUOUS
  2
_FILLED
 10
-21.3834142204
 20
31.3068891336
 41
3.0
 42
3.0
 43
3.0
 50
180.0
  0
ENDBLK
  5
23D
100
AcDbEntity
  8
0
  6
BYBLOCK
 62
0
100
AcDbBlockEnd
  0
BLOCK
  5
23E
100
AcDbEntity
  8
0
100
AcDbBlockBegin
 62
7
  6
CONTINUOUS
  2
*D2
 70
65
 10
0.0
 20
0.0
  3
*D2
  1

  0
LINE
  5
23F
100
AcDbEntity
  8
0
100
AcDbLine
 62
7
  6
CONTINUOUS
 10
-48.628746914
 20
14.7153917029
 11
-48.628746914
 21
30.5568891336
  0
LINE
  5
240
100
AcDbEntity
  8
0
100
AcDbLine
 62
7
  6
CONTINUOUS
 10
-54.3285886942
 20
2.0131601563
 11
-54.3285886942
 21
30.5568891336
  0
LINE
  5
241
100
AcDbEntity
  8
0
100
AcDbLine
 62
7
  6
CONTINUOUS
 10
-48.628746914
 20
31.3068891336
 11
-44.628746914
 21
31.3068891336
  0
LINE
  5
242
100
AcDbEntity
  8
0
100
AcDbLine
 62
7
  6
CONTINUOUS
 10
-44.628746914
 20
31.3068891336
 11
-51.4786678041
 21
31.3068891336
  0
LINE
  5
243
100
AcDbEntity
  8
0
100
AcDbLine
 62
7
  6
CONTINUOUS
 10
-54.3285886942
 20
31.3068891336
 11
-58.3285886942
 21
31.3068891336
  0
LINE
  5
244
100
AcDbEntity
  8
0
100
AcDbLine
 62
7
  6
CONTINUOUS
 10
-58.3285886942
 20
31.3068891336
 11
-51.4786678041
 21
31.3068891336
  0
INSERT
  5
245
100
AcDbEntity
  8
0
100
AcDbBlockReference
 62
7
  6
CONTINUOUS
  2
_FILLED
 10
-48.628746914
 20
31.3068891336
 41
3.0
 42
3.0
 43
3.0
 50
180.0
  0
INSERT
  5
246
100
AcDbEntity
  8
0
100
AcDbBlockReference
 62
7
  6
CONTINUOUS
  2
_FILLED
 10
-54.3285886942
 20
31.3068891336
 41
3.0
 42
3.0
 43
3.0
  0
ENDBLK
  5
247
100
AcDbEntity
  8
0
  6
BYBLOCK
 62
0
100
AcDbBlockEnd
  0
ENDSEC
  0
SECTION
  2
ENTITIES
  0
DIMENSION
  5
248
100
AcDbEntity
  8
0
100
AcDbDimension
 62
7
  6
CONTINUOUS
  2
*D0
 10
8.9165857796
 20
-21.0761057279
 11
8.9165857796
 21
-3.27746544
 70
160
 71
2
 42
44.3829948615
  3
DIMSTYLE_1
100
AcDbAlignedDimension
 13
0.3782129148
 23
23.3068891336
 14
0.3782129148
 24
-21.0761057279
 50
270.0
100
AcDbRotatedDimension
  0
DIMENSION
  5
249
100
AcDbEntity
  8
0
100
AcDbDimension
 62
7
  6
CONTINUOUS
  2
*D1
 10
-21.3834142204
 20
31.3068891336
 11
-14.5191285061
 21
31.3068891336
 70
160
 71
2
 42
22.3
  3
DIMSTYLE_2
100
AcDbAlignedDimension
 13
0.9165857796
 23
14.2153917029
 14
-21.3834142204
 24
14.2153917029
 50
180.0
100
AcDbRotatedDimension
  0
DIMENSION
  5
24A
100
AcDbEntity
  8
0
100
AcDbDimension
 62
7
  6
CONTINUOUS
  2
*D2
 10
-54.3285886942
 20
31.3068891336
 11
-54.5858106612
 21
31.3068891336
 70
160
 71
2
 42
5.6998417802
  3
DIMSTYLE_2
100
AcDbAlignedDimension
 13
-48.628746914
 23
14.2153917029
 14
-54.3285886942
 24
1.5131601563
 50
180.0
100
AcDbRotatedDimension
  0
LWPOLYLINE
  5
24B
100
AcDbEntity
  8
0
100
AcDbPolyline
 62
7
  6
CONTINUOUS
 90
5
 70
0
 43
0.3500000019
 10
-7.2334135742
 20
33.771173584
 10
-6.8762734375
 20
33.9854614258
 10
-6.8762734375
 20
34.6283168945
 10
-7.2334135742
 20
35.0568898926
 10
-8.0905595703
 20
35.0568898926
  0
LINE
  5
24C
100
AcDbEntity
  8
0
100
AcDbLine
 62
7
  6
CONTINUOUS
 10
-12.5411492473
 20
-21.0509774641
 11
-12.8176793924
 21
-21.0761057279
  0
LINE
  5
24D
100
AcDbEntity
  8
0
100
AcDbLine
 62
7
  6
CONTINUOUS
 10
0.3782129148
 20
-21.0761057279
 11
-7.6491490484
 21
-21.0761057279
  0
LINE
  5
24E
100
AcDbEntity
  8
0
100
AcDbLine
 62
7
  6
CONTINUOUS
 10
-12.8176793924
 20
-21.0761057279
 11
-20.8450413557
 21
-21.0761057279
  0
LINE
  5
24F
100
AcDbEntity
  8
0
100
AcDbLine
 62
7
  6
CONTINUOUS
 10
-8.0988842742
 20
-21.0457310886
 11
-12.3679441666
 21
-21.0457310886
  0
LINE
  5
250
100
AcDbEntity
  8
0
100
AcDbLine
 62
253
  6
CONTINUOUS
 10
-20.7553844885
 20
-20.9415520691
 11
0.2885560477
 21
-20.9415520691
  0
LINE
  5
251
100
AcDbEntity
  8
0
100
AcDbLine
 62
7
  6
CONTINUOUS
 10
-7.9256791935
 20
-21.0509774641
 11
-7.6491490484
 21
-21.0761057279
  0
LINE
  5
252
100
AcDbEntity
  8
0
100
AcDbLine
 62
253
  6
CONTINUOUS
 10
-20.7390330328
 20
-20.0920047167
 11
0.272204592
 21
-20.0920047167
  0
LINE
  5
253
100
AcDbEntity
  8
0
100
AcDbLine
 62
7
  6
CONTINUOUS
 10
-7.3918035002
 20
15.167142995
 11
-8.5466547459
 21
14.688787925
  0
LINE
  5
254
100
AcDbEntity
  8
ASSI
100
AcDbLine
 62
7
  6
CONTINUOUS
 10
-7.3918035002
 20
15.167142995
 11
-8.5466547459
 21
14.688787925
  0
LINE
  5
255
100
AcDbEntity
  8
0
100
AcDbLine
 62
7
  6
CONTINUOUS
 10
-12.1497820488
 20
13.1963236619
 11
-13.3046332964
 21
12.7179685911
  0
LINE
  5
256
100
AcDbEntity
  8
ASSI
100
AcDbLine
 62
7
  6
CONTINUOUS
 10
-13.3046332964
 20
12.7179685911
 11
-12.1497820488
 21
13.1963236619
  0
LINE
  5
257
100
AcDbEntity
  8
0
100
AcDbLine
 62
7
  6
CONTINUOUS
 10
-12.4834215066
 20
-11.7346081536
 11
-11.8834141749
 21
-11.7346081536
  0
LINE
  5
258
100
AcDbEntity
  8
ASSI
100
AcDbLine
 62
7
  6
CONTINUOUS
 10
-12.4834215066
 20
-11.7346081536
 11
-11.8834141749
 21
-11.7346081536
  0
LINE
  5
259
100
AcDbEntity
  8
0
100
AcDbLine
 62
7
  6
CONTINUOUS
 10
-8.5834142923
 20
-11.7346081536
 11
-7.9834141505
 21
-11.7346081536
  0
LINE
  5
25A
100
AcDbEntity
  8
ASSI
100
AcDbLine
 62
7
  6
CONTINUOUS
 10
-8.5834142923
 20
-11.7346081536
 11
-7.9834141505
 21
-11.7346081536
  0
LINE
  5
25B
100
AcDbEntity
  8
0
100
AcDbLine
 62
7
  6
CONTINUOUS
 10
-12.4834215066
 20
-11.1346084407
 11
-11.8834141749
 21
-11.1346084407
  0
LINE
  5
25C
100
AcDbEntity
  8
ASSI
100
AcDbLine
 62
7
  6
CONTINUOUS
 10
-12.4834215066
 20
-11.1346084407
 11
-11.8834141749
 21
-11.1346084407
  0
LINE
  5
25D
100
AcDbEntity
  8
0
100
AcDbLine
 62
7
  6
CONTINUOUS
 10
-8.5834142923
 20
-11.1346084409
 11
-7.9834141505
 21
-11.1346084409
  0
LINE
  5
25E
100
AcDbEntity
  8
ASSI
100
AcDbLine
 62
7
  6
CONTINUOUS
 10
-8.5834142923
 20
-11.1346084409
 11
-7.9834141505
 21
-11.1346084409
  0
LINE
  5
25F
100
AcDbEntity
  8
0
100
AcDbLine
 62
7
  6
CONTINUOUS
 10
-21.3465615075
 20
-20.5795294593
 11
-21.3834142204
 21
-11.9846082971
  0
LINE
  5
260
100
AcDbEntity
  8
0
100
AcDbLine
 62
7
  6
CONTINUOUS
 10
-21.3834142204
 20
0.7654583241
 11
-21.3834142204
 21
-11.9846082971
  0
LINE
  5
261
100
AcDbEntity
  8
0
100
AcDbLine
 62
7
  6
CONTINUOUS
 10
-21.3834142204
 20
1.4653250816
 11
-21.3834142204
 21
14.2153917029
  0
LINE
  5
262
100
AcDbEntity
  8
0
100
AcDbLine
 62
253
  6
CONTINUOUS
 10
-20.7015269665
 20
0.9678126146
 11
-20.7015269665
 21
0.7176232494
  0
LINE
  5
263
100
AcDbEntity
  8
0
100
AcDbLine
 62
253
  6
CONTINUOUS
 10
-20.7015269665
 20
1.2629707911
 11
-20.7015269665
 21
1.5131601565
  0
LINE
  5
264
100
AcDbEntity
  8
0
100
AcDbLine
 62
7
  6
CONTINUOUS
 10
-21.3465615075
 20
22.810312865
 11
-21.3834142204
 21
14.2153917029
  0
LINE
  5
265
100
AcDbEntity
  8
0
100
AcDbLine
 62
7
  6
CONTINUOUS
 10
-7.1621934319
 20
14.6128152794
 11
-8.3170446777
 21
14.1344602092
  0
LINE
  5
266
100
AcDbEntity
  8
ASSI
100
AcDbLine
 62
7
  6
CONTINUOUS
 10
-7.1621934319
 20
14.6128152794
 11
-8.3170446777
 21
14.1344602092
  0
LINE
  5
267
100
AcDbEntity
  8
0
100
AcDbLine
 62
7
  6
CONTINUOUS
 10
-11.9201719818
 20
12.6419959452
 11
-13.0750232283
 21
12.1636408753
  0
LINE
  5
268
100
AcDbEntity
  8
ASSI
100
AcDbLine
 62
7
  6
CONTINUOUS
 10
-11.9201719818
 20
12.6419959452
 11
-13.0750232283
 21
12.1636408753
  0
LWPOLYLINE
  5
269
100
AcDbEntity
  8
0
100
AcDbPolyline
 62
7
  6
CONTINUOUS
 90
3
 70
0
 43
0.3500000019
 10
-9.0905551758
 20
32.3426022949
 10
-9.1619853516
 20
32.1283171387
 10
-9.304840332
 20
31.8426044922
  0
LINE
  5
26A
100
AcDbEntity
  8
0
100
AcDbLine
 62
253
  6
CONTINUOUS
 10
0.2378417381
 20
-8.3846082971
 11
-20.7046701789
 21
-8.3846082971
  0
LINE
  5
26B
100
AcDbEntity
  8
0
100
AcDbLine
 62
7
  6
CONTINUOUS
 10
-9.3682198862
 20
-13.5331708023
 11
-9.6682238559
 21
-13.0135485851
  0
LINE
  5
26C
100
AcDbEntity
  8
ASSI
100
AcDbLine
 62
7
  6
CONTINUOUS
 10
-9.3682198862
 20
-13.5331708023
 11
-9.6682238559
 21
-13.0135485851
  0
LINE
  5
26D
100
AcDbEntity
  8
0
100
AcDbLine
 62
7
  6
CONTINUOUS
 10
-11.3182212759
 20
-10.1556686762
 11
-11.6182252457
 21
-9.6360464589
  0
LINE
  5
26E
100
AcDbEntity
  8
ASSI
100
AcDbLine
 62
7
  6
CONTINUOUS
 10
-11.3182212759
 20
-10.1556686762
 11
-11.6182252457
 21
-9.6360464589
  0
LINE
  5
26F
100
AcDbEntity
  8
0
100
AcDbLine
 62
253
  6
CONTINUOUS
 10
-15.131414049
 20
0.317045882
 11
-15.1314182287
 21
0.7176215958
  0
LINE
  5
270
100
AcDbEntity
  8
0
100
AcDbLine
 62
253
  6
CONTINUOUS
 10
-15.1314182287
 20
1.5131618099
 11
-15.131414049
 21
1.9137375237
  0
LINE
  5
271
100
AcDbEntity
  8
0
100
AcDbLine
 62
7
  6
CONTINUOUS
 10
-9.2859899889
 20
16.7366107989
 11
-9.7643448613
 21
15.5817600305
  0
LINE
  5
272
100
AcDbEntity
  8
ASSI
100
AcDbLine
 62
7
  6
CONTINUOUS
 10
-9.2859899889
 20
16.7366107989
 11
-9.7643448613
 21
15.5817600305
  0
LINE
  5
273
100
AcDbEntity
  8
0
100
AcDbLine
 62
7
  6
CONTINUOUS
 10
-11.2568095508
 20
11.9786316984
 11
-11.7351655925
 21
10.823778107
  0
LINE
  5
274
100
AcDbEntity
  8
ASSI
100
AcDbLine
 62
7
  6
CONTINUOUS
 10
-11.2568095508
 20
11.9786316984
 11
-11.7351655925
 21
10.823778107
  0
LINE
  5
275
100
AcDbEntity
  8
0
100
AcDbLine
 62
7
  6
CONTINUOUS
 10
-8.8486072675
 20
-13.2331668326
 11
-9.1486088376
 21
-12.7135487717
  0
LINE
  5
276
100
AcDbEntity
  8
ASSI
100
AcDbLine
 62
7
  6
CONTINUOUS
 10
-8.8486072675
 20
-13.2331668326
 11
-9.1486088376
 21
-12.7135487717
  0
LINE
  5
277
100
AcDbEntity
  8
0
100
AcDbLine
 62
7
  6
CONTINUOUS
 10
-10.7986062575
 20
-9.8556688627
 11
-11.0986102272
 21
-9.3360466454
  0
LINE
  5
278
100
AcDbEntity
  8
ASSI
100
AcDbLine
 62
7
  6
CONTINUOUS
 10
-10.7986062575
 20
-9.8556688627
 11
-11.0986102272
 21
-9.3360466454
  0
LINE
  5
279
100
AcDbEntity
  8
0
100
AcDbLine
 62
7
  6
CONTINUOUS
 10
-14.9196282006
 20
1.9016247216
 11
-14.9196282006
 21
1.4524859856
  0
LINE
  5
27A
100
AcDbEntity
  8
0
100
AcDbLine
 62
7
  6
CONTINUOUS
 10
-14.9196282006
 20
0.7782974202
 11
-14.9196282006
 21
0.3291586841
  0
LINE
  5
27B
100
AcDbEntity
  8
0
100
AcDbLine
 62
253
  6
CONTINUOUS
 10
-14.4314266722
 20
2.6139769348
 11
-14.4314266722
 21
2.4133851161
  0
LINE
  5
27C
100
AcDbEntity
  8
0
100
AcDbLine
 62
253
  6
CONTINUOUS
 10
-14.4314266722
 20
-0.3831935291
 11
-14.4314266722
 21
-0.1826017104
  0
LINE
  5
27D
100
AcDbEntity
  8
0
100
AcDbLine
 62
7
  6
CONTINUOUS
 10
-8.7316622734
 20
16.5070007308
 11
-9.2100171422
 21
15.352149971
  0
LINE
  5
27E
100
AcDbEntity
  8
ASSI
100
AcDbLine
 62
7
  6
CONTINUOUS
 10
-8.7316622734
 20
16.5070007308
 11
-9.2100171422
 21
15.352149971
  0
LINE
  5
27F
100
AcDbEntity
  8
0
100
AcDbLine
 62
7
  6
CONTINUOUS
 10
-10.7024818351
 20
11.7490216301
 11
-11.1808378767
 21
10.5941680388
  0
LINE
  5
280
100
AcDbEntity
  8
ASSI
100
AcDbLine
 62
7
  6
CONTINUOUS
 10
-10.7024818351
 20
11.7490216301
 11
-11.1808378767
 21
10.5941680388
  0
LINE
  5
281
100
AcDbEntity
  8
0
100
AcDbLine
 62
253
  6
CONTINUOUS
 10
0.3782129148
 20
23.3068891336
 11
0.2885560477
 21
23.1723354748
  0
LINE
  5
282
100
AcDbEntity
  8
0
100
AcDbLine
 62
253
  6
CONTINUOUS
 10
-15.1309856783
 20
0.9678126296
 11
-15.1200964106
 21
0.9787018973
  0
LINE
  5
283
100
AcDbEntity
  8
RACCORDO
100
AcDbLine
 62
253
  6
CONTINUOUS
 10
-20.2811099557
 20
1.2415723062
 11
-20.3334751505
 21
1.2153917029
  0
LINE
  5
284
100
AcDbEntity
  8
RACCORDO
100
AcDbLine
 62
7
  6
CONTINUOUS
 10
-20.2338843444
 20
1.2415723062
 11
-20.2440074169
 21
1.2365111554
  0
LWPOLYLINE
  5
285
100
AcDbEntity
  8
0
100
AcDbPolyline
 62
7
  6
CONTINUOUS
 90
2
 70
0
 43
0.3500000019
 10
8.1665864258
 20
-2.2774654388
 10
6.6665849609
 20
-2.2774654388
  0
LINE
  5
286
100
AcDbEntity
  8
DRAFT
100
AcDbLine
 62
7
  6
CONTINUOUS
 10
-20.1334142204
 20
1.0153917029
 11
-20.0810490256
 21
0.9892110995
  0
LINE
  5
287
100
AcDbEntity
  8
0
100
AcDbLine
 62
253
  6
CONTINUOUS
 10
-15.1200964106
 20
1.2520815084
 11
-15.1309856783
 21
1.2629707762
  0
LINE
  5
288
100
AcDbEntity
  8
0
100
AcDbLine
 62
253
  6
CONTINUOUS
 10
0.2885560477
 20
-20.9415520691
 11
0.3782129148
 21
-21.0761057279
  0
LINE
  5
289
100
AcDbEntity
  8
0
100
AcDbLine
 62
253
  6
CONTINUOUS
 10
0.8797330667
 20
22.810312865
 11
0.7882514612
 21
22.6730207074
  0
LINE
  5
28A
100
AcDbEntity
  8
0
100
AcDbLine
 62
253
  6
CONTINUOUS
 10
-14.9309933086
 20
0.76782023
 11
-14.9196282345
 21
0.7791853041
  0
LINE
  5
28B
100
AcDbEntity
  8
0
100
AcDbLine
 62
253
  6
CONTINUOUS
 10
-14.4196472391
 20
-0.1708222774
 11
-14.4314246308
 21
-0.1826017104
  0
LINE
  5
28C
100
AcDbEntity
  8
0
100
AcDbLine
 62
253
  6
CONTINUOUS
 10
-14.9196282006
 20
0.3291586841
 11
-14.9314216644
 21
0.3173670772
  0
LINE
  5
28D
100
AcDbEntity
  8
0
100
AcDbLine
 62
253
  6
CONTINUOUS
 10
0.734393952
 20
0.7199277125
 11
0.9165857796
 21
0.7654583241
  0
LINE
  5
28E
100
AcDbEntity
  8
0
100
AcDbLine
 62
253
  6
CONTINUOUS
 10
0.4845461796
 20
0.9699181769
 11
0.6665095779
 21
1.0153917029
  0
LINE
  5
28F
100
AcDbEntity
  8
0
100
AcDbLine
 62
253
  6
CONTINUOUS
 10
-6.0354017687
 20
-0.3831935291
 11
-14.4314266722
 21
-0.3831935291
  0
LINE
  5
290
100
AcDbEntity
  8
0
100
AcDbLine
 62
253
  6
CONTINUOUS
 10
-21.3834142204
 20
0.7654583241
 11
-21.2012223928
 21
0.7199277125
  0
LINE
  5
291
100
AcDbEntity
  8
0
100
AcDbLine
 62
253
  6
CONTINUOUS
 10
-21.1333380187
 20
1.0153917029
 11
-20.9513746205
 21
0.9699181769
  0
LINE
  5
292
100
AcDbEntity
  8
0
100
AcDbLine
 62
253
  6
CONTINUOUS
 10
-14.9196282345
 20
1.4515981016
 11
-14.9309933086
 21
1.4629631757
  0
LINE
  5
293
100
AcDbEntity
  8
0
100
AcDbLine
 62
253
  6
CONTINUOUS
 10
-14.9196282006
 20
1.9016247216
 11
-14.9314216644
 21
1.9134161437
  0
LINE
  5
294
100
AcDbEntity
  8
0
100
AcDbLine
 62
253
  6
CONTINUOUS
 10
-14.4196472391
 20
2.4016056831
 11
-14.4314248155
 21
2.4133851161
  0
LINE
  5
295
100
AcDbEntity
  8
0
100
AcDbLine
 62
253
  6
CONTINUOUS
 10
0.7882514612
 20
-20.4422373017
 11
0.8797330667
 21
-20.5795294593
  0
LINE
  5
296
100
AcDbEntity
  8
0
100
AcDbLine
 62
253
  6
CONTINUOUS
 10
-4.6514664592
 20
0.9892110995
 11
-4.6554955482
 21
0.9891806598
  0
LINE
  5
297
100
AcDbEntity
  8
0
100
AcDbLine
 62
7
  6
CONTINUOUS
 10
-4.6554955482
 20
0.9891806598
 11
-5.3502299631
 21
0.9786794863
  0
LINE
  5
298
100
AcDbEntity
  8
0
100
AcDbLine
 62
7
  6
CONTINUOUS
 10
-15.8113328926
 20
1.2416027459
 11
-15.1165984777
 21
1.2521039195
  0
LINE
  5
299
100
AcDbEntity
  8
0
100
AcDbLine
 62
253
  6
CONTINUOUS
 10
-15.8153619816
 20
1.2415723062
 11
-15.811333353
 21
1.2416332005
  0
LINE
  5
29A
100
AcDbEntity
  8
0
100
AcDbLine
 62
7
  6
CONTINUOUS
 10
-4.6555162471
 20
0.9891784206
 11
-4.6514664592
 21
0.9892110995
  0
LINE
  5
29B
100
AcDbEntity
  8
0
100
AcDbLine
 62
7
  6
CONTINUOUS
 10
-15.8113121938
 20
1.2416049851
 11
-15.8153619816
 21
1.2415723062
  0
LINE
  5
29C
100
AcDbEntity
  8
0
100
AcDbLine
 62
7
  6
CONTINUOUS
 10
-5.3502275314
 20
0.9786795377
 11
-5.3467320302
 21
0.9787018973
  0
LINE
  5
29D
100
AcDbEntity
  8
0
100
AcDbLine
 62
7
  6
CONTINUOUS
 10
-15.1166009094
 20
1.2521038681
 11
-15.1200964106
 21
1.2520815084
  0
LINE
  5
29E
100
AcDbEntity
  8
0
100
AcDbLine
 62
253
  6
CONTINUOUS
 10
-15.1314182287
 20
0.7176232497
 11
-14.9314258441
 21
0.717782357
  0
LINE
  5
29F
100
AcDbEntity
  8
0
100
AcDbLine
 62
253
  6
CONTINUOUS
 10
-6.0354036253
 20
-0.1826017104
 11
-14.4314246308
 21
-0.1826017104
  0
LINE
  5
2A0
100
AcDbEntity
  8
0
100
AcDbLine
 62
7
  6
CONTINUOUS
 10
-14.4196472391
 20
-0.1708222774
 11
-6.0471812017
 21
-0.1708222774
  0
LWPOLYLINE
  5
2A1
100
AcDbEntity
  8
0
100
AcDbPolyline
 62
7
  6
CONTINUOUS
 90
2
 70
0
 43
0.3500000019
 10
8.1665864258
 20
0.0796774168
 10
6.6665849609
 20
0.0796774168
  0
LINE
  5
2A2
100
AcDbEntity
  8
0
100
AcDbLine
 62
253
  6
CONTINUOUS
 10
-20.7015247334
 20
0.7176232494
 11
-15.1314182287
 21
0.7176215958
  0
LINE
  5
2A3
100
AcDbEntity
  8
0
100
AcDbLine
 62
253
  6
CONTINUOUS
 10
-5.3354102121
 20
0.7176215958
 11
0.2346962926
 21
0.7176232494
  0
LINE
  5
2A4
100
AcDbEntity
  8
0
100
AcDbLine
 62
253
  6
CONTINUOUS
 10
-20.7015269665
 20
0.9678126146
 11
-15.1309856783
 21
0.9678126296
  0
LINE
  5
2A5
100
AcDbEntity
  8
0
100
AcDbLine
 62
253
  6
CONTINUOUS
 10
-5.3358427625
 20
0.9678126296
 11
0.2346985257
 21
0.9678126146
  0
LINE
  5
2A6
100
AcDbEntity
  8
RACCORDO
100
AcDbLine
 62
7
  6
CONTINUOUS
 10
-0.1857184851
 20
0.9892110995
 11
-4.6514664592
 21
0.9892110995
  0
LINE
  5
2A7
100
AcDbEntity
  8
0
100
AcDbLine
 62
7
  6
CONTINUOUS
 10
-15.8153619816
 20
0.9892110995
 11
-20.0810490256
 21
0.9892110995
  0
LINE
  5
2A8
100
AcDbEntity
  8
RACCORDO
100
AcDbLine
 62
7
  6
CONTINUOUS
 10
0.6665095779
 20
1.0153917029
 11
-0.1333532904
 21
1.0153917029
  0
LINE
  5
2A9
100
AcDbEntity
  8
0
100
AcDbLine
 62
7
  6
CONTINUOUS
 10
-20.1334142204
 20
1.0153917029
 11
-21.1333380187
 21
1.0153917029
  0
LINE
  5
2AA
100
AcDbEntity
  8
RACCORDO
100
AcDbLine
 62
7
  6
CONTINUOUS
 10
-21.1333380187
 20
1.2153917029
 11
-20.3334751505
 21
1.2153917029
  0
LINE
  5
2AB
100
AcDbEntity
  8
0
100
AcDbLine
 62
7
  6
CONTINUOUS
 10
-0.3334142204
 20
1.2153917029
 11
0.6665095779
 21
1.2153917029
  0
LINE
  5
2AC
100
AcDbEntity
  8
RACCORDO
100
AcDbLine
 62
7
  6
CONTINUOUS
 10
-20.2811099557
 20
1.2415723062
 11
-15.8153619816
 21
1.2415723062
  0
LINE
  5
2AD
100
AcDbEntity
  8
0
100
AcDbLine
 62
7
  6
CONTINUOUS
 10
-4.6514664592
 20
1.2415723062
 11
-0.3857794152
 21
1.2415723062
  0
LINE
  5
2AE
100
AcDbEntity
  8
0
100
AcDbLine
 62
253
  6
CONTINUOUS
 10
0.2346985257
 20
1.2629707911
 11
-5.3358427625
 21
1.2629707762
  0
LINE
  5
2AF
100
AcDbEntity
  8
0
100
AcDbLine
 62
253
  6
CONTINUOUS
 10
-15.1309856783
 20
1.2629707762
 11
-20.7015269665
 21
1.2629707911
  0
LINE
  5
2B0
100
AcDbEntity
  8
0
100
AcDbLine
 62
253
  6
CONTINUOUS
 10
-5.3354102121
 20
0.7176232496
 11
-5.5354025967
 21
0.717782357
  0
LINE
  5
2B1
100
AcDbEntity
  8
0
100
AcDbLine
 62
7
  6
CONTINUOUS
 10
-15.1166000962
 20
0.9786795107
 11
-15.1200964106
 21
0.9787018973
  0
LINE
  5
2B2
100
AcDbEntity
  8
0
100
AcDbLine
 62
7
  6
CONTINUOUS
 10
-5.3502283446
 20
1.252103895
 11
-5.3467320302
 21
1.2520815084
  0
LINE
  5
2B3
100
AcDbEntity
  8
0
100
AcDbLine
 62
7
  6
CONTINUOUS
 10
-15.8153619816
 20
0.9892110995
 11
-15.8113121938
 21
0.9891784206
  0
LINE
  5
2B4
100
AcDbEntity
  8
0
100
AcDbLine
 62
7
  6
CONTINUOUS
 10
-4.6514664592
 20
1.2415723062
 11
-4.6555162471
 21
1.2416049851
  0
LINE
  5
2B5
100
AcDbEntity
  8
0
100
AcDbLine
 62
253
  6
CONTINUOUS
 10
-15.8113328926
 20
0.9891806598
 11
-15.8153619816
 21
0.9892110995
  0
LINE
  5
2B6
100
AcDbEntity
  8
0
100
AcDbLine
 62
7
  6
CONTINUOUS
 10
-15.1165984777
 20
0.9786794863
 11
-15.8113328926
 21
0.9891806598
  0
LINE
  5
2B7
100
AcDbEntity
  8
0
100
AcDbLine
 62
7
  6
CONTINUOUS
 10
-5.3502299631
 20
1.2521039195
 11
-4.6554955482
 21
1.2416027459
  0
LINE
  5
2B8
100
AcDbEntity
  8
0
100
AcDbLine
 62
253
  6
CONTINUOUS
 10
-4.6554950878
 20
1.2416332005
 11
-4.6514664592
 21
1.2415723062
  0
LINE
  5
2B9
100
AcDbEntity
  8
0
100
AcDbLine
 62
253
  6
CONTINUOUS
 10
-5.3354102121
 20
1.513160156
 11
-5.5354025967
 21
1.5130010487
  0
LINE
  5
2BA
100
AcDbEntity
  8
0
100
AcDbLine
 62
253
  6
CONTINUOUS
 10
0.2346962926
 20
1.5131601563
 11
-5.3354102121
 21
1.5131618099
  0
LINE
  5
2BB
100
AcDbEntity
  8
0
100
AcDbLine
 62
253
  6
CONTINUOUS
 10
-15.1314182287
 20
1.5131618099
 11
-20.7015247334
 21
1.5131601563
  0
LINE
  5
2BC
100
AcDbEntity
  8
0
100
AcDbLine
 62
7
  6
CONTINUOUS
 10
-6.0471812017
 20
2.4016056831
 11
-14.4196472391
 21
2.4016056831
  0
LINE
  5
2BD
100
AcDbEntity
  8
0
100
AcDbLine
 62
253
  6
CONTINUOUS
 10
-14.4314248155
 20
2.4133851161
 11
-6.03540381
 21
2.4133851161
  0
LINE
  5
2BE
100
AcDbEntity
  8
0
100
AcDbLine
 62
253
  6
CONTINUOUS
 10
-14.4314266722
 20
2.6139769348
 11
-6.0354017687
 21
2.6139769348
  0
LINE
  5
2BF
100
AcDbEntity
  8
0
100
AcDbLine
 62
253
  6
CONTINUOUS
 10
-15.1314182287
 20
1.5131601561
 11
-14.9314258441
 21
1.5130010487
  0
LINE
  5
2C0
100
AcDbEntity
  8
0
100
AcDbLine
 62
253
  6
CONTINUOUS
 10
-21.3465615075
 20
-20.5795294593
 11
-21.255079902
 21
-20.4422373017
  0
LINE
  5
2C1
100
AcDbEntity
  8
0
100
AcDbLine
 62
253
  6
CONTINUOUS
 10
-20.8450413557
 20
-21.0761057279
 11
-20.7553844885
 21
-20.9415520691
  0
LINE
  5
2C2
100
AcDbEntity
  8
0
100
AcDbLine
 62
253
  6
CONTINUOUS
 10
-6.0471812017
 20
2.4016056831
 11
-6.03540381
 21
2.4133851161
  0
LINE
  5
2C3
100
AcDbEntity
  8
0
100
AcDbLine
 62
253
  6
CONTINUOUS
 10
-5.5358351322
 20
1.4629631757
 11
-5.5472002063
 21
1.4515981016
  0
LINE
  5
2C4
100
AcDbEntity
  8
0
100
AcDbLine
 62
253
  6
CONTINUOUS
 10
-5.3358427625
 20
1.2629707762
 11
-5.3467320302
 21
1.2520815084
  0
LINE
  5
2C5
100
AcDbEntity
  8
0
100
AcDbLine
 62
253
  6
CONTINUOUS
 10
-5.5472002402
 20
1.9016247216
 11
-5.5354067764
 21
1.9134163285
  0
LINE
  5
2C6
100
AcDbEntity
  8
0
100
AcDbLine
 62
253
  6
CONTINUOUS
 10
-20.9513746205
 20
1.2608652288
 11
-21.1333380187
 21
1.2153917029
  0
LINE
  5
2C7
100
AcDbEntity
  8
0
100
AcDbLine
 62
253
  6
CONTINUOUS
 10
-21.2012223928
 20
1.5108556932
 11
-21.3834142204
 21
1.4653250816
  0
LWPOLYLINE
  5
2C8
100
AcDbEntity
  8
0
100
AcDbPolyline
 62
7
  6
CONTINUOUS
 90
2
 70
0
 43
0.3500000019
 10
8.1665864258
 20
4.1511058655
 10
6.6665849609
 20
4.1511058655
  0
LINE
  5
2C9
100
AcDbEntity
  8
0
100
AcDbLine
 62
253
  6
CONTINUOUS
 10
0.6665095779
 20
1.2153917029
 11
0.4845461796
 21
1.2608652288
  0
LINE
  5
2CA
100
AcDbEntity
  8
0
100
AcDbLine
 62
253
  6
CONTINUOUS
 10
0.9165857796
 20
1.4653250816
 11
0.734393952
 21
1.5108556932
  0
LINE
  5
2CB
100
AcDbEntity
  8
0
100
AcDbLine
 62
253
  6
CONTINUOUS
 10
-5.5472002402
 20
0.3291586841
 11
-5.5354067764
 21
0.317367262
  0
LINE
  5
2CC
100
AcDbEntity
  8
0
100
AcDbLine
 62
253
  6
CONTINUOUS
 10
-5.5472002063
 20
0.7791853041
 11
-5.5358351322
 21
0.76782023
  0
LINE
  5
2CD
100
AcDbEntity
  8
0
100
AcDbLine
 62
253
  6
CONTINUOUS
 10
-5.3467320302
 20
0.9787018973
 11
-5.3358427625
 21
0.9678126296
  0
LINE
  5
2CE
100
AcDbEntity
  8
0
100
AcDbLine
 62
253
  6
CONTINUOUS
 10
-6.0471812017
 20
-0.1708222774
 11
-6.0354036253
 21
-0.1826017104
  0
LINE
  5
2CF
100
AcDbEntity
  8
0
100
AcDbLine
 62
253
  6
CONTINUOUS
 10
-21.255079902
 20
22.6730207074
 11
-21.3465615075
 21
22.810312865
  0
LINE
  5
2D0
100
AcDbEntity
  8
0
100
AcDbLine
 62
253
  6
CONTINUOUS
 10
-20.7553844885
 20
23.1723354748
 11
-20.8450413557
 21
23.3068891336
  0
LINE
  5
2D1
100
AcDbEntity
  8
0
100
AcDbLine
 62
253
  6
CONTINUOUS
 10
-6.0354017687
 20
2.6139769348
 11
-6.0354017687
 21
2.4133851161
  0
LINE
  5
2D2
100
AcDbEntity
  8
0
100
AcDbLine
 62
253
  6
CONTINUOUS
 10
-6.0354017687
 20
-0.3831935291
 11
-6.0354017687
 21
-0.1826017104
  0
LINE
  5
2D3
100
AcDbEntity
  8
0
100
AcDbLine
 62
7
  6
CONTINUOUS
 10
-5.5472002402
 20
0.3291586841
 11
-5.5472002402
 21
0.7782974202
  0
LINE
  5
2D4
100
AcDbEntity
  8
0
100
AcDbLine
 62
7
  6
CONTINUOUS
 10
-5.5472002402
 20
1.4524859856
 11
-5.5472002402
 21
1.9016247216
  0
LINE
  5
2D5
100
AcDbEntity
  8
0
100
AcDbLine
 62
253
  6
CONTINUOUS
 10
-5.3354143918
 20
1.9137375237
 11
-5.3354102121
 21
1.5131618099
  0
LINE
  5
2D6
100
AcDbEntity
  8
0
100
AcDbLine
 62
253
  6
CONTINUOUS
 10
-5.3354102121
 20
0.7176215958
 11
-5.3354143918
 21
0.317045882
  0
LINE
  5
2D7
100
AcDbEntity
  8
RACCORDO
100
AcDbLine
 62
7
  6
CONTINUOUS
 10
-0.2329440964
 20
0.9892110995
 11
-0.2228210239
 21
0.9942722503
  0
LINE
  5
2D8
100
AcDbEntity
  8
RACCORDO
100
AcDbLine
 62
253
  6
CONTINUOUS
 10
-0.1857184851
 20
0.9892110995
 11
-0.1333532904
 21
1.0153917029
  0
LINE
  5
2D9
100
AcDbEntity
  8
DRAFT
100
AcDbLine
 62
7
  6
CONTINUOUS
 10
-0.3334142204
 20
1.2153917029
 11
-0.3857794152
 21
1.2415723062
  0
LINE
  5
2DA
100
AcDbEntity
  8
0
100
AcDbLine
 62
7
  6
CONTINUOUS
 10
-11.7351655926
 20
16.5070007307
 11
-11.2568095509
 21
15.3521471393
  0
LINE
  5
2DB
100
AcDbEntity
  8
ASSI
100
AcDbLine
 62
7
  6
CONTINUOUS
 10
-11.7351655926
 20
16.5070007307
 11
-11.2568095509
 21
15.3521471393
  0
LINE
  5
2DC
100
AcDbEntity
  8
0
100
AcDbLine
 62
7
  6
CONTINUOUS
 10
-9.7643460308
 20
11.7490216301
 11
-9.2859899891
 21
10.5941680386
  0
LINE
  5
2DD
100
AcDbEntity
  8
ASSI
100
AcDbLine
 62
7
  6
CONTINUOUS
 10
-9.7643460308
 20
11.7490216301
 11
-9.2859899891
 21
10.5941680386
  0
LINE
  5
2DE
100
AcDbEntity
  8
0
100
AcDbLine
 62
7
  6
CONTINUOUS
 10
-11.1808378767
 20
16.736610799
 11
-10.702481835
 21
15.5817572075
  0
LINE
  5
2DF
100
AcDbEntity
  8
ASSI
100
AcDbLine
 62
7
  6
CONTINUOUS
 10
-11.1808378767
 20
16.736610799
 11
-10.702481835
 21
15.5817572075
  0
LINE
  5
2E0
100
AcDbEntity
  8
0
100
AcDbLine
 62
7
  6
CONTINUOUS
 10
-9.210018315
 20
11.9786316984
 11
-8.7316622733
 21
10.8237781069
  0
LINE
  5
2E1
100
AcDbEntity
  8
ASSI
100
AcDbLine
 62
7
  6
CONTINUOUS
 10
-9.210018315
 20
11.9786316984
 11
-8.7316622733
 21
10.8237781069
  0
LINE
  5
2E2
100
AcDbEntity
  8
0
100
AcDbLine
 62
7
  6
CONTINUOUS
 10
-11.6182252457
 20
-13.2331709888
 11
-11.3182212759
 21
-12.7135487715
  0
LINE
  5
2E3
100
AcDbEntity
  8
ASSI
100
AcDbLine
 62
7
  6
CONTINUOUS
 10
-11.6182252457
 20
-13.2331709888
 11
-11.3182212759
 21
-12.7135487715
  0
LINE
  5
2E4
100
AcDbEntity
  8
0
100
AcDbLine
 62
7
  6
CONTINUOUS
 10
-9.668223856
 20
-9.8556688627
 11
-9.3682198862
 21
-9.3360466454
  0
LINE
  5
2E5
100
AcDbEntity
  8
ASSI
100
AcDbLine
 62
7
  6
CONTINUOUS
 10
-9.668223856
 20
-9.8556688627
 11
-9.3682198862
 21
-9.3360466454
  0
LINE
  5
2E6
100
AcDbEntity
  8
0
100
AcDbLine
 62
7
  6
CONTINUOUS
 10
-11.0986102272
 20
-13.5331708023
 11
-10.7986062574
 21
-13.0135485851
  0
LINE
  5
2E7
100
AcDbEntity
  8
ASSI
100
AcDbLine
 62
7
  6
CONTINUOUS
 10
-11.0986102272
 20
-13.5331708023
 11
-10.7986062574
 21
-13.0135485851
  0
LINE
  5
2E8
100
AcDbEntity
  8
0
100
AcDbLine
 62
7
  6
CONTINUOUS
 10
-9.1486088375
 20
-10.1556686762
 11
-8.8486048678
 21
-9.6360464589
  0
LINE
  5
2E9
100
AcDbEntity
  8
ASSI
100
AcDbLine
 62
7
  6
CONTINUOUS
 10
-9.1486088375
 20
-10.1556686762
 11
-8.8486048678
 21
-9.6360464589
  0
LWPOLYLINE
  5
2EA
100
AcDbEntity
  8
0
100
AcDbPolyline
 62
7
  6
CONTINUOUS
 90
3
 70
0
 43
0.3500000019
 10
7.8808710938
 20
2.1511059265
 10
8.09515625
 20
2.0796774292
 10
8.380871582
 20
1.9368202667
  0
LWPOLYLINE
  5
2EB
100
AcDbEntity
  8
0
100
AcDbPolyline
 62
7
  6
CONTINUOUS
 90
10
 70
0
 43
0.3500000019
 10
7.6665859375
 20
2.0796774292
 10
7.809440918
 20
2.1511059265
 10
7.8808710938
 20
2.1511059265
 10
8.0237260742
 20
2.008248764
 10
8.0237260742
 20
1.9368202667
 10
7.9523012695
 20
1.8653917694
 10
7.8808710938
 20
1.8653917694
 10
7.7380161133
 20
1.9368202667
 10
7.6665859375
 20
2.008248764
 10
7.6665859375
 20
2.0796774292
  0
LINE
  5
2EC
100
AcDbEntity
  8
0
100
AcDbLine
 62
253
  6
CONTINUOUS
 10
-20.7046701789
 20
10.6153917029
 11
-11.1720467468
 21
10.6153917029
  0
LINE
  5
2ED
100
AcDbEntity
  8
ASSI
100
AcDbLine
 62
253
  6
CONTINUOUS
 10
-11.1720467468
 20
10.6153917029
 11
-9.2947811191
 21
10.6153917029
  0
LINE
  5
2EE
100
AcDbEntity
  8
0
100
AcDbLine
 62
253
  6
CONTINUOUS
 10
-9.2947811191
 20
10.6153917029
 11
0.2378417381
 21
10.6153917029
  0
LINE
  5
2EF
100
AcDbEntity
  8
0
100
AcDbLine
 62
7
  6
CONTINUOUS
 10
0.8797330667
 20
22.810312865
 11
0.9165857796
 21
14.2153917029
  0
LINE
  5
2F0
100
AcDbEntity
  8
0
100
AcDbLine
 62
253
  6
CONTINUOUS
 10
0.2346985257
 20
0.9678126146
 11
0.2346985257
 21
0.7176232492
  0
LINE
  5
2F1
100
AcDbEntity
  8
0
100
AcDbLine
 62
253
  6
CONTINUOUS
 10
0.2346985257
 20
1.2629707911
 11
0.2346985257
 21
1.5131601563
  0
LINE
  5
2F2
100
AcDbEntity
  8
0
100
AcDbLine
 62
7
  6
CONTINUOUS
 10
0.9165857796
 20
0.7654583241
 11
0.9165857796
 21
-11.9846082971
  0
LINE
  5
2F3
100
AcDbEntity
  8
0
100
AcDbLine
 62
7
  6
CONTINUOUS
 10
0.9165857796
 20
1.4653250816
 11
0.9165857796
 21
14.2153917029
  0
LINE
  5
2F4
100
AcDbEntity
  8
0
100
AcDbLine
 62
7
  6
CONTINUOUS
 10
0.8797330667
 20
-20.5795294593
 11
0.9165857796
 21
-11.9846082971
  0
LINE
  5
2F5
100
AcDbEntity
  8
ASSI
100
AcDbLine
 62
7
  6
CONTINUOUS
 10
-12.1497820499
 20
14.134460209
 11
-13.3046332963
 21
14.6128152794
  0
LINE
  5
2F6
100
AcDbEntity
  8
0
100
AcDbLine
 62
7
  6
CONTINUOUS
 10
-13.3046332963
 20
14.6128152794
 11
-12.1497820499
 21
14.134460209
  0
LINE
  5
2F7
100
AcDbEntity
  8
0
100
AcDbLine
 62
7
  6
CONTINUOUS
 10
-8.5466547459
 20
12.6419959452
 11
-7.3918035001
 21
12.1636408754
  0
LINE
  5
2F8
100
AcDbEntity
  8
ASSI
100
AcDbLine
 62
7
  6
CONTINUOUS
 10
-8.5466547459
 20
12.6419959452
 11
-7.3918035001
 21
12.1636408754
  0
LINE
  5
2F9
100
AcDbEntity
  8
0
100
AcDbLine
 62
7
  6
CONTINUOUS
 10
-13.0750232282
 20
15.1671429951
 11
-11.9201719817
 21
14.6887879247
  0
LINE
  5
2FA
100
AcDbEntity
  8
ASSI
100
AcDbLine
 62
7
  6
CONTINUOUS
 10
-13.0750232282
 20
15.1671429951
 11
-11.9201719817
 21
14.6887879247
  0
LINE
  5
2FB
100
AcDbEntity
  8
0
100
AcDbLine
 62
7
  6
CONTINUOUS
 10
-8.3170446777
 20
13.196323661
 11
-7.162193432
 21
12.717968591
  0
LINE
  5
2FC
100
AcDbEntity
  8
ASSI
100
AcDbLine
 62
7
  6
CONTINUOUS
 10
-8.3170446777
 20
13.196323661
 11
-7.162193432
 21
12.717968591
  0
LWPOLYLINE
  5
2FD
100
AcDbEntity
  8
0
100
AcDbPolyline
 62
7
  6
CONTINUOUS
 90
10
 70
0
 43
0.3500000019
 10
-9.1619853516
 20
32.5568901367
 10
-9.0905551758
 20
32.4140324707
 10
-9.0905551758
 20
32.3426022949
 10
-9.2334155273
 20
32.1997473145
 10
-9.304840332
 20
32.1997473145
 10
-9.3762705078
 20
32.2711748047
 10
-9.3762705078
 20
32.3426022949
 10
-9.304840332
 20
32.4854599609
 10
-9.2334155273
 20
32.5568901367
 10
-9.1619853516
 20
32.5568901367
  0
LWPOLYLINE
  5
2FE
100
AcDbEntity
  8
0
100
AcDbPolyline
 62
7
  6
CONTINUOUS
 90
3
 70
0
 43
0.3500000019
 10
7.523730957
 20
4.6511060181
 10
7.523730957
 20
3.151105896
 10
5.1665834961
 20
3.7939630432
  0
LWPOLYLINE
  5
2FF
100
AcDbEntity
  8
0
100
AcDbPolyline
 62
7
  6
CONTINUOUS
 90
3
 70
0
 43
0.3500000019
 10
7.523730957
 20
0.579677433
 10
7.523730957
 20
-0.9203225632
 10
5.1665834961
 20
-0.2774654369
  0
LWPOLYLINE
  5
300
100
AcDbEntity
  8
0
100
AcDbPolyline
 62
7
  6
CONTINUOUS
 90
3
 70
0
 43
0.3500000019
 10
7.523730957
 20
-1.7774654541
 10
7.523730957
 20
-3.2774655762
 10
5.1665834961
 20
-2.6346082611
  0
LINE
  5
301
100
AcDbEntity
  8
0
100
AcDbLine
 62
253
  6
CONTINUOUS
 10
0.272204592
 20
22.3227881225
 11
-20.7390330328
 21
22.3227881225
  0
LINE
  5
302
100
AcDbEntity
  8
0
100
AcDbLine
 62
7
  6
CONTINUOUS
 10
-7.9256791935
 20
23.2817608698
 11
-7.6491490484
 21
23.3068891336
  0
LINE
  5
303
100
AcDbEntity
  8
0
100
AcDbLine
 62
253
  6
CONTINUOUS
 10
0.2885560477
 20
23.1723354748
 11
-20.7553844885
 21
23.1723354748
  0
LINE
  5
304
100
AcDbEntity
  8
0
100
AcDbLine
 62
7
  6
CONTINUOUS
 10
-12.3679441666
 20
23.2765144943
 11
-8.0988842742
 21
23.2765144943
  0
LINE
  5
305
100
AcDbEntity
  8
0
100
AcDbLine
 62
7
  6
CONTINUOUS
 10
-20.8450413557
 20
23.3068891336
 11
-12.8176793924
 21
23.3068891336
  0
LINE
  5
306
100
AcDbEntity
  8
0
100
AcDbLine
 62
7
  6
CONTINUOUS
 10
-7.6491490484
 20
23.3068891336
 11
0.3782129148
 21
23.3068891336
  0
LWPOLYLINE
  5
307
100
AcDbEntity
  8
0
100
AcDbPolyline
 62
7
  6
CONTINUOUS
 90
7
 70
0
 43
0.3500000019
 10
-10.6619868164
 20
32.0568896484
 10
-12.1619882812
 20
32.0568896484
 10
-10.6619868164
 20
34.199746582
 10
-10.6619868164
 20
34.6283168945
 10
-11.0905571289
 20
35.0568898926
 10
-11.7334125977
 20
35.0568898926
 10
-12.1619882812
 20
34.4140317383
  0
LWPOLYLINE
  5
308
100
AcDbEntity
  8
0
100
AcDbPolyline
 62
7
  6
CONTINUOUS
 90
7
 70
0
 43
0.3500000019
 10
-13.0191289062
 20
32.0568896484
 10
-14.5191303711
 20
32.0568896484
 10
-13.0191289062
 20
34.199746582
 10
-13.0191289062
 20
34.6283168945
 10
-13.4476992187
 20
35.0568898926
 10
-14.0905546875
 20
35.0568898926
 10
-14.5191303711
 20
34.4140317383
  0
LWPOLYLINE
  5
309
100
AcDbEntity
  8
0
100
AcDbPolyline
 62
7
  6
CONTINUOUS
 90
6
 70
0
 43
0.3500000019
 10
-8.0905595703
 20
32.0568896484
 10
-7.019128418
 20
32.0568896484
 10
-6.8048432617
 20
32.2711748047
 10
-6.8048432617
 20
33.3426032715
 10
-7.2334135742
 20
33.771173584
 10
-7.6619838867
 20
33.771173584
  0
LINE
  5
30A
100
AcDbEntity
  8
0
100
AcDbLine
 62
7
  6
CONTINUOUS
 10
-12.5411492473
 20
23.2817608698
 11
-12.8176793924
 21
23.3068891336
  0
LINE
  5
30B
100
AcDbEntity
  8
0
100
AcDbLine
 62
7
  6
CONTINUOUS
 10
-52.3124791904
 20
-20.9415520691
 11
-49.745042434
 21
-21.0761057279
  0
LINE
  5
30C
100
AcDbEntity
  8
0
100
AcDbLine
 62
253
  6
CONTINUOUS
 10
-52.3037609606
 20
-20.4422373017
 11
-49.6840705349
 21
-20.5795294593
  0
LWPOLYLINE
  5
30D
100
AcDbEntity
  8
0
100
AcDbPolyline
 62
7
  6
CONTINUOUS
 90
3
 70
0
 43
0.3500000019
 10
-51.7286673584
 20
32.3426022949
 10
-51.8000961914
 20
32.1283171387
 10
-51.9429538574
 20
31.8426044922
  0
LINE
  5
30E
100
AcDbEntity
  8
0
100
AcDbLine
 62
253
  6
CONTINUOUS
 10
-53.7560287739
 20
-8.3751082971
 11
-54.2384887673
 21
-8.3846082971
  0
LINE
  5
30F
100
AcDbEntity
  8
0
100
AcDbLine
 62
253
  6
CONTINUOUS
 10
-53.8460382354
 20
0.7199277125
 11
-48.628746914
 21
0.7654583241
  0
LINE
  5
310
100
AcDbEntity
  8
0
100
AcDbLine
 62
7
  6
CONTINUOUS
 10
-54.0807686986
 20
0.9678126296
 11
-48.628746914
 21
1.0153917029
  0
LINE
  5
311
100
AcDbEntity
  8
0
100
AcDbLine
 62
7
  6
CONTINUOUS
 10
-48.628746914
 20
1.2153917029
 11
-54.080770407
 21
1.2629707911
  0
LWPOLYLINE
  5
312
100
AcDbEntity
  8
0
100
AcDbPolyline
 62
7
  6
CONTINUOUS
 90
4
 70
0
 43
0.3500000019
 10
-50.7286677246
 20
34.4140317383
 10
-50.7286677246
 20
35.0568898926
 10
-49.2286676025
 20
35.0568898926
 10
-50.0858109131
 20
32.0568896484
  0
LINE
  5
313
100
AcDbEntity
  8
0
100
AcDbLine
 62
253
  6
CONTINUOUS
 10
-48.628746914
 20
1.4653250816
 11
-53.8460382354
 21
1.5108556932
  0
LINE
  5
314
100
AcDbEntity
  8
0
100
AcDbLine
 62
7
  6
CONTINUOUS
 10
-48.628746914
 20
1.0153917029
 11
-48.628746914
 21
-11.9846082971
  0
LINE
  5
315
100
AcDbEntity
  8
0
100
AcDbLine
 62
7
  6
CONTINUOUS
 10
-48.628746914
 20
1.2153917029
 11
-48.628746914
 21
14.2153917029
  0
LINE
  5
316
100
AcDbEntity
  8
0
100
AcDbLine
 62
7
  6
CONTINUOUS
 10
-48.628746914
 20
-11.9846082971
 11
-49.745042434
 21
-21.0761057279
  0
LINE
  5
317
100
AcDbEntity
  8
0
100
AcDbLine
 62
7
  6
CONTINUOUS
 10
-49.745042434
 20
23.3068891336
 11
-48.628746914
 21
14.2153917029
  0
LINE
  5
318
100
AcDbEntity
  8
0
100
AcDbLine
 62
253
  6
CONTINUOUS
 10
-53.7560287739
 20
10.6058917029
 11
-54.2384887674
 21
10.6153917029
  0
LWPOLYLINE
  5
319
100
AcDbEntity
  8
0
100
AcDbPolyline
 62
7
  6
CONTINUOUS
 90
10
 70
0
 43
0.3500000019
 10
-51.8000961914
 20
32.5568901367
 10
-51.7286673584
 20
32.4140324707
 10
-51.7286673584
 20
32.3426022949
 10
-51.8715250244
 20
32.1997473145
 10
-51.9429538574
 20
32.1997473145
 10
-52.0143826904
 20
32.2711748047
 10
-52.0143826904
 20
32.3426022949
 10
-51.9429538574
 20
32.4854599609
 10
-51.8715250244
 20
32.5568901367
 10
-51.8000961914
 20
32.5568901367
  0
LINE
  5
31A
100
AcDbEntity
  8
0
100
AcDbLine
 62
253
  6
CONTINUOUS
 10
-49.6840705349
 20
22.810312865
 11
-52.3037609606
 21
22.6730207074
  0
LINE
  5
31B
100
AcDbEntity
  8
0
100
AcDbLine
 62
7
  6
CONTINUOUS
 10
-49.745042434
 20
23.3068891336
 11
-52.3124791904
 21
23.1723354748
  0
LWPOLYLINE
  5
31C
100
AcDbEntity
  8
0
100
AcDbPolyline
 62
7
  6
CONTINUOUS
 90
8
 70
0
 43
0.3500000019
 10
-54.5858112793
 20
32.0568896484
 10
-53.7286679688
 20
32.0568896484
 10
-53.3000963135
 20
32.4854599609
 10
-53.3000963135
 20
33.3426032715
 10
-53.7286679688
 20
33.771173584
 10
-54.5858112793
 20
33.771173584
 10
-54.5858112793
 20
35.0568898926
 10
-53.3000963135
 20
35.0568898926
  0
ARC
  5
31D
100
AcDbEntity
  8
0
100
AcDbCircle
 62
253
  6
CONTINUOUS
 10
-2574.3762194787
 20
-6.7429720421
 40
2553.6720769653
100
AcDbArc
 50
359.7004914127
 51
359.9631672225
  0
ARC
  5
31E
100
AcDbEntity
  8
0
100
AcDbCircle
 62
253
  6
CONTINUOUS
 10
-2546.5811050051
 20
-6.7425913254
 40
2525.3772670788
100
AcDbArc
 50
359.6988182047
 51
359.9629614394
  0
ARC
  5
31F
100
AcDbEntity
  8
0
100
AcDbCircle
 62
253
  6
CONTINUOUS
 10
-14.4312894208
 20
0.3169012051
 40
0.7001093025
100
AcDbArc
 50
179.9881601398
 51
269.9887673404
  0
ARC
  5
320
100
AcDbEntity
  8
0
100
AcDbCircle
 62
253
  6
CONTINUOUS
 10
-14.4314638909
 20
0.3173582865
 40
0.4999584385
100
AcDbArc
 50
179.9989925632
 51
270.0044992459
  0
ARC
  5
321
100
AcDbEntity
  8
0
100
AcDbCircle
 62
7
  6
CONTINUOUS
 10
-14.4212337438
 20
0.3275721794
 40
0.4982662378
100
AcDbArc
 50
187.0850013286
 51
262.9149986714
  0
ARC
  5
322
100
AcDbEntity
  8
0
100
AcDbCircle
 62
7
  6
CONTINUOUS
 10
-11.3584177364
 20
-13.3831708956
 40
0.2999998565
100
AcDbArc
 50
150.0000047335
 51
330.0000047335
  0
ARC
  5
323
100
AcDbEntity
  8
0
100
AcDbCircle
 62
7
  6
CONTINUOUS
 10
-11.8834141749
 20
-11.4346082971
 40
0.2999998565
100
AcDbArc
 50
270.0
 51
90.0
  0
ARC
  5
324
100
AcDbEntity
  8
0
100
AcDbCircle
 62
7
  6
CONTINUOUS
 10
-12.4834215066
 20
-11.4346082971
 40
0.2999998565
100
AcDbArc
 50
90.0
 51
270.0
  0
ARC
  5
325
100
AcDbEntity
  8
0
100
AcDbCircle
 62
7
  6
CONTINUOUS
 10
-11.0584137667
 20
-10.0056687694
 40
0.2999998565
100
AcDbArc
 50
209.9999952614
 51
29.9999952646
  0
ARC
  5
326
100
AcDbEntity
  8
0
100
AcDbCircle
 62
7
  6
CONTINUOUS
 10
-11.3584177364
 20
-9.4860465521
 40
0.2999998565
100
AcDbArc
 50
29.9999952646
 51
209.9999952614
  0
ARC
  5
327
100
AcDbEntity
  8
ASSI
100
AcDbCircle
 62
7
  6
CONTINUOUS
 10
-11.3584177364
 20
-9.4860465521
 40
0.2999998565
100
AcDbArc
 50
29.9999952646
 51
209.9999952614
  0
ARC
  5
328
100
AcDbEntity
  8
ASSI
100
AcDbCircle
 62
7
  6
CONTINUOUS
 10
-12.4834215066
 20
-11.4346082971
 40
0.2999998565
100
AcDbArc
 50
90.0
 51
270.0
  0
ARC
  5
329
100
AcDbEntity
  8
ASSI
100
AcDbCircle
 62
7
  6
CONTINUOUS
 10
-11.3584177364
 20
-13.3831708956
 40
0.2999998565
100
AcDbArc
 50
150.0000047335
 51
330.0000047335
  0
ARC
  5
32A
100
AcDbEntity
  8
ASSI
100
AcDbCircle
 62
7
  6
CONTINUOUS
 10
-11.8834141749
 20
-11.4346082971
 40
0.2999998565
100
AcDbArc
 50
270.0
 51
90.0
  0
ARC
  5
32B
100
AcDbEntity
  8
ASSI
100
AcDbCircle
 62
7
  6
CONTINUOUS
 10
-11.0584137667
 20
-10.0056687694
 40
0.2999998565
100
AcDbArc
 50
209.9999952614
 51
29.9999952646
  0
ARC
  5
32C
100
AcDbEntity
  8
0
100
AcDbCircle
 62
7
  6
CONTINUOUS
 10
-11.0444538958
 20
-12.8696553862
 40
0.2848619209
100
AcDbArc
 50
329.6598077866
 51
335.1112857905
  0
ARC
  5
32D
100
AcDbEntity
  8
ASSI
100
AcDbCircle
 62
7
  6
CONTINUOUS
 10
-11.0767473931
 20
-12.8508247072
 40
0.2777666621
100
AcDbArc
 50
148.5338946399
 51
150.3821223973
  0
ARC
  5
32E
100
AcDbEntity
  8
0
100
AcDbCircle
 62
253
  6
CONTINUOUS
 10
-20.9512035688
 20
1.510867593
 40
0.2500112268
100
AcDbArc
 50
180.002723267
 51
269.9607982177
  0
ARC
  5
32F
100
AcDbEntity
  8
0
100
AcDbCircle
 62
253
  6
CONTINUOUS
 10
-20.9512035707
 20
0.7199158138
 40
0.2500112268
100
AcDbArc
 50
90.0392013437
 51
179.9972769707
  0
ARC
  5
330
100
AcDbEntity
  8
0
100
AcDbCircle
 62
253
  6
CONTINUOUS
 10
-15.1310040784
 20
1.4629815608
 40
0.2000107706
100
AcDbArc
 50
270.0052666638
 51
359.9947333361
  0
ARC
  5
331
100
AcDbEntity
  8
0
100
AcDbCircle
 62
253
  6
CONTINUOUS
 10
-15.1310040783
 20
0.7678018449
 40
0.2000107706
100
AcDbArc
 50
0.0052666627
 51
89.9947333373
  0
ARC
  5
332
100
AcDbEntity
  8
0
100
AcDbCircle
 62
253
  6
CONTINUOUS
 10
-2588.5128991611
 20
8.9322623061
 40
2567.8087806052
100
AcDbArc
 50
0.0375558408
 51
0.298785524
  0
ARC
  5
333
100
AcDbEntity
  8
0
100
AcDbCircle
 62
253
  6
CONTINUOUS
 10
-2560.5609580159
 20
8.9321126641
 40
2539.3571440467
100
AcDbArc
 50
0.0377656534
 51
0.3004547026
  0
ARC
  5
334
100
AcDbEntity
  8
0
100
AcDbCircle
 62
253
  6
CONTINUOUS
 10
-14.4312893204
 20
1.9138822642
 40
0.7001093025
100
AcDbArc
 50
90.0112408745
 51
180.0118450593
  0
ARC
  5
335
100
AcDbEntity
  8
0
100
AcDbCircle
 62
253
  6
CONTINUOUS
 10
-14.4314638877
 20
1.9134251162
 40
0.4999584385
100
AcDbArc
 50
89.9955222953
 51
180.0010282642
  0
ARC
  5
336
100
AcDbEntity
  8
0
100
AcDbCircle
 62
7
  6
CONTINUOUS
 10
-14.4212337438
 20
1.9032112263
 40
0.4982662378
100
AcDbArc
 50
97.0850013286
 51
172.9149986714
  0
ARC
  5
337
100
AcDbEntity
  8
0
100
AcDbCircle
 62
7
  6
CONTINUOUS
 10
-11.4580017346
 20
16.6218057648
 40
0.3
100
AcDbArc
 50
22.5000009118
 51
202.5000009125
  0
ARC
  5
338
100
AcDbEntity
  8
0
100
AcDbCircle
 62
7
  6
CONTINUOUS
 10
-10.979645693
 20
15.4669521734
 40
0.3
100
AcDbArc
 50
202.5000009125
 51
22.5000009118
  0
ARC
  5
339
100
AcDbEntity
  8
0
100
AcDbCircle
 62
7
  6
CONTINUOUS
 10
-13.1898282623
 20
14.8899791372
 40
0.3
100
AcDbArc
 50
67.4999990854
 51
247.4999990953
  0
ARC
  5
33A
100
AcDbEntity
  8
0
100
AcDbCircle
 62
7
  6
CONTINUOUS
 10
-12.0349770158
 20
14.4116240669
 40
0.3
100
AcDbArc
 50
247.4999990832
 51
67.4999990854
  0
ARC
  5
33B
100
AcDbEntity
  8
0
100
AcDbCircle
 62
7
  6
CONTINUOUS
 10
-13.1898282623
 20
12.4408047332
 40
0.3
100
AcDbArc
 50
112.5000009125
 51
292.5000008919
  0
ARC
  5
33C
100
AcDbEntity
  8
0
100
AcDbCircle
 62
7
  6
CONTINUOUS
 10
-12.0349770158
 20
12.9191598031
 40
0.3
100
AcDbArc
 50
292.5000008919
 51
112.5000006526
  0
ARC
  5
33D
100
AcDbEntity
  8
0
100
AcDbCircle
 62
7
  6
CONTINUOUS
 10
-11.4580017346
 20
10.7089730729
 40
0.3
100
AcDbArc
 50
157.4999990844
 51
337.4999990886
  0
ARC
  5
33E
100
AcDbEntity
  8
0
100
AcDbCircle
 62
7
  6
CONTINUOUS
 10
-10.979645693
 20
11.8638266642
 40
0.3
100
AcDbArc
 50
337.4999990886
 51
157.4999990844
  0
ARC
  5
33F
100
AcDbEntity
  8
ASSI
100
AcDbCircle
 62
7
  6
CONTINUOUS
 10
-10.979645693
 20
15.4669521734
 40
0.3
100
AcDbArc
 50
202.5000009125
 51
22.5000009118
  0
ARC
  5
340
100
AcDbEntity
  8
ASSI
100
AcDbCircle
 62
7
  6
CONTINUOUS
 10
-10.979645693
 20
11.8638266642
 40
0.3
100
AcDbArc
 50
337.4999990886
 51
157.4999990844
  0
ARC
  5
341
100
AcDbEntity
  8
ASSI
100
AcDbCircle
 62
7
  6
CONTINUOUS
 10
-11.4580017346
 20
10.7089730729
 40
0.3
100
AcDbArc
 50
157.4999991162
 51
337.4999990886
  0
ARC
  5
342
100
AcDbEntity
  8
ASSI
100
AcDbCircle
 62
7
  6
CONTINUOUS
 10
-11.4580017346
 20
16.6218057648
 40
0.3
100
AcDbArc
 50
22.5000009118
 51
202.5000009125
  0
ARC
  5
343
100
AcDbEntity
  8
ASSI
100
AcDbCircle
 62
7
  6
CONTINUOUS
 10
-13.1898282623
 20
14.8899791372
 40
0.3
100
AcDbArc
 50
67.4999990854
 51
247.4999990953
  0
ARC
  5
344
100
AcDbEntity
  8
ASSI
100
AcDbCircle
 62
7
  6
CONTINUOUS
 10
-12.0349770158
 20
14.4116240669
 40
0.3
100
AcDbArc
 50
247.4999990832
 51
67.4999990854
  0
ARC
  5
345
100
AcDbEntity
  8
ASSI
100
AcDbCircle
 62
7
  6
CONTINUOUS
 10
-13.1898282623
 20
12.4408047332
 40
0.3
100
AcDbArc
 50
112.5000009125
 51
292.5000008919
  0
ARC
  5
346
100
AcDbEntity
  8
ASSI
100
AcDbCircle
 62
7
  6
CONTINUOUS
 10
-12.0349770158
 20
12.9191598031
 40
0.3
100
AcDbArc
 50
292.5000008919
 51
112.5000006526
  0
CIRCLE
  5
347
100
AcDbEntity
  8
0
100
AcDbCircle
 62
7
  6
CONTINUOUS
 10
-10.2334142204
 20
-11.4346082971
 40
0.65
  0
CIRCLE
  5
348
100
AcDbEntity
  8
ASSI
100
AcDbCircle
 62
7
  6
CONTINUOUS
 10
-10.2334142204
 20
-11.4346082971
 40
0.65
  0
ARC
  5
349
100
AcDbEntity
  8
0
100
AcDbCircle
 62
7
  6
CONTINUOUS
 10
-7.9834141505
 20
-11.4346082972
 40
0.2999998564
100
AcDbArc
 50
270.0
 51
90.0
  0
ARC
  5
34A
100
AcDbEntity
  8
0
100
AcDbCircle
 62
7
  6
CONTINUOUS
 10
-8.5834142923
 20
-11.4346082972
 40
0.2999998565
100
AcDbArc
 50
90.0
 51
270.0
  0
ARC
  5
34B
100
AcDbEntity
  8
0
100
AcDbCircle
 62
7
  6
CONTINUOUS
 10
-9.108412377
 20
-13.3831708956
 40
0.2999998565
100
AcDbArc
 50
209.9999952646
 51
330.0008035041
  0
ARC
  5
34C
100
AcDbEntity
  8
0
100
AcDbCircle
 62
7
  6
CONTINUOUS
 10
-9.4084163468
 20
-12.8635486784
 40
0.2999998565
100
AcDbArc
 50
29.9999952646
 51
209.9999952646
  0
ARC
  5
34D
100
AcDbEntity
  8
0
100
AcDbCircle
 62
7
  6
CONTINUOUS
 10
-9.108412377
 20
-9.4860465521
 40
0.2999998565
100
AcDbArc
 50
330.0000047335
 51
150.0000047335
  0
ARC
  5
34E
100
AcDbEntity
  8
0
100
AcDbCircle
 62
7
  6
CONTINUOUS
 10
-9.4084163468
 20
-10.0056687694
 40
0.2999998565
100
AcDbArc
 50
150.0000047335
 51
330.0000047335
  0
ARC
  5
34F
100
AcDbEntity
  8
ASSI
100
AcDbCircle
 62
7
  6
CONTINUOUS
 10
-9.4084163468
 20
-10.0056687694
 40
0.2999998565
100
AcDbArc
 50
150.0000047335
 51
330.0000047335
  0
ARC
  5
350
100
AcDbEntity
  8
ASSI
100
AcDbCircle
 62
7
  6
CONTINUOUS
 10
-9.108412377
 20
-9.4860465521
 40
0.2999998565
100
AcDbArc
 50
330.0000047335
 51
150.0000047335
  0
ARC
  5
351
100
AcDbEntity
  8
ASSI
100
AcDbCircle
 62
7
  6
CONTINUOUS
 10
-9.108412377
 20
-13.3831708956
 40
0.2999998565
100
AcDbArc
 50
209.9999953813
 51
330.0008035041
  0
ARC
  5
352
100
AcDbEntity
  8
ASSI
100
AcDbCircle
 62
7
  6
CONTINUOUS
 10
-9.4084163468
 20
-12.8635486784
 40
0.2999998565
100
AcDbArc
 50
29.9999952646
 51
209.9999952646
  0
ARC
  5
353
100
AcDbEntity
  8
ASSI
100
AcDbCircle
 62
7
  6
CONTINUOUS
 10
-7.9834141505
 20
-11.4346082972
 40
0.2999998564
100
AcDbArc
 50
270.0
 51
90.0
  0
ARC
  5
354
100
AcDbEntity
  8
ASSI
100
AcDbCircle
 62
7
  6
CONTINUOUS
 10
-8.5834142923
 20
-11.4346082972
 40
0.2999998565
100
AcDbArc
 50
90.0
 51
270.0
  0
ARC
  5
355
100
AcDbEntity
  8
0
100
AcDbCircle
 62
7
  6
CONTINUOUS
 10
-9.0967570013
 20
-13.3888859511
 40
0.2870498081
100
AcDbArc
 50
329.8255277712
 51
331.5827766033
  0
ARC
  5
356
100
AcDbEntity
  8
0
100
AcDbCircle
 62
7
  6
CONTINUOUS
 10
-9.0963402769
 20
-13.377236072
 40
0.2865791159
100
AcDbArc
 50
28.4229101806
 51
30.1801609451
  0
ARC
  5
357
100
AcDbEntity
  8
0
100
AcDbCircle
 62
253
  6
CONTINUOUS
 10
-6.0355389708
 20
0.3169011445
 40
0.7001093025
100
AcDbArc
 50
270.0112286303
 51
0.0118448247
  0
ARC
  5
358
100
AcDbEntity
  8
0
100
AcDbCircle
 62
253
  6
CONTINUOUS
 10
-6.0353645025
 20
0.317358323
 40
0.4999584385
100
AcDbArc
 50
269.995516493
 51
0.0010244283
  0
ARC
  5
359
100
AcDbEntity
  8
0
100
AcDbCircle
 62
7
  6
CONTINUOUS
 10
-6.0455947331
 20
0.3275722155
 40
0.4982662378
100
AcDbArc
 50
277.0850049337
 51
352.9149950663
  0
ARC
  5
35A
100
AcDbEntity
  8
0
100
AcDbCircle
 62
253
  6
CONTINUOUS
 10
0.484375077
 20
1.5108676218
 40
0.2500112268
100
AcDbArc
 50
270.0392134671
 51
359.9972701262
  0
ARC
  5
35B
100
AcDbEntity
  8
0
100
AcDbCircle
 62
253
  6
CONTINUOUS
 10
0.4843750787
 20
0.7199157849
 40
0.2500112268
100
AcDbArc
 50
0.0027296367
 51
89.9607869365
  0
ARC
  5
35C
100
AcDbEntity
  8
0
100
AcDbCircle
 62
253
  6
CONTINUOUS
 10
-5.3358243625
 20
1.4629815608
 40
0.2000107706
100
AcDbArc
 50
180.0052666627
 51
269.9947333373
  0
ARC
  5
35D
100
AcDbEntity
  8
0
100
AcDbCircle
 62
253
  6
CONTINUOUS
 10
-5.3358243625
 20
0.7678018449
 40
0.2000107706
100
AcDbArc
 50
90.0052666638
 51
179.9947333361
  0
ARC
  5
35E
100
AcDbEntity
  8
0
100
AcDbCircle
 62
253
  6
CONTINUOUS
 10
2568.0460707203
 20
-6.7014789004
 40
2567.8087806052
100
AcDbArc
 50
180.0375558408
 51
180.298785524
  0
ARC
  5
35F
100
AcDbEntity
  8
0
100
AcDbCircle
 62
253
  6
CONTINUOUS
 10
2540.0941295763
 20
-6.7013292584
 40
2539.3571440479
100
AcDbArc
 50
180.0377656534
 51
180.3004547026
  0
ARC
  5
360
100
AcDbEntity
  8
0
100
AcDbCircle
 62
253
  6
CONTINUOUS
 10
-6.0355389654
 20
1.9138822556
 40
0.7001093025
100
AcDbArc
 50
359.9881556375
 51
89.9887718149
  0
ARC
  5
361
100
AcDbEntity
  8
0
100
AcDbCircle
 62
253
  6
CONTINUOUS
 10
-6.035364573
 20
1.9134250959
 40
0.4999584385
100
AcDbArc
 50
359.9989952389
 51
90.0044965956
  0
ARC
  5
362
100
AcDbEntity
  8
0
100
AcDbCircle
 62
7
  6
CONTINUOUS
 10
-6.0455947331
 20
1.9032111902
 40
0.4982662378
100
AcDbArc
 50
7.0850049337
 51
82.9149950663
  0
ARC
  5
363
100
AcDbEntity
  8
0
100
AcDbCircle
 62
7
  6
CONTINUOUS
 10
-9.0088261312
 20
10.7089730727
 40
0.3
100
AcDbArc
 50
202.5000009125
 51
22.5000009118
  0
ARC
  5
364
100
AcDbEntity
  8
0
100
AcDbCircle
 62
7
  6
CONTINUOUS
 10
-9.4871821729
 20
11.8638266642
 40
0.3
100
AcDbArc
 50
22.5000009118
 51
202.5000009125
  0
ARC
  5
365
100
AcDbEntity
  8
ASSI
100
AcDbCircle
 62
7
  6
CONTINUOUS
 10
-9.0088261312
 20
10.7089730727
 40
0.3
100
AcDbArc
 50
202.5000009125
 51
22.5000008829
  0
ARC
  5
366
100
AcDbEntity
  8
ASSI
100
AcDbCircle
 62
7
  6
CONTINUOUS
 10
-9.4871821729
 20
11.8638266642
 40
0.3
100
AcDbArc
 50
22.5000009118
 51
202.5000009125
  0
CIRCLE
  5
367
100
AcDbEntity
  8
0
100
AcDbCircle
 62
7
  6
CONTINUOUS
 10
-10.2334142204
 20
13.6653917029
 40
0.95
  0
CIRCLE
  5
368
100
AcDbEntity
  8
ASSI
100
AcDbCircle
 62
7
  6
CONTINUOUS
 10
-10.2334142204
 20
13.6653917029
 40
0.95
  0
ARC
  5
369
100
AcDbEntity
  8
0
100
AcDbCircle
 62
7
  6
CONTINUOUS
 10
-9.0088261312
 20
16.6218057648
 40
0.3
100
AcDbArc
 50
337.4999990886
 51
157.4999990854
  0
ARC
  5
36A
100
AcDbEntity
  8
ASSI
100
AcDbCircle
 62
7
  6
CONTINUOUS
 10
-9.0088261312
 20
16.6218057648
 40
0.3
100
AcDbArc
 50
337.4999990886
 51
157.4999990854
  0
ARC
  5
36B
100
AcDbEntity
  8
0
100
AcDbCircle
 62
7
  6
CONTINUOUS
 10
-9.5044656068
 20
15.4721772704
 40
0.2820383099
100
AcDbArc
 50
157.1364040603
 51
161.8507449749
  0
ARC
  5
36C
100
AcDbEntity
  8
ASSI
100
AcDbCircle
 62
7
  6
CONTINUOUS
 10
-9.4673611235
 20
15.4567414773
 40
0.2777864429
100
AcDbArc
 50
336.0339174233
 51
337.8818543428
  0
ARC
  5
36D
100
AcDbEntity
  8
0
100
AcDbCircle
 62
7
  6
CONTINUOUS
 10
-8.4318497118
 20
12.9191598031
 40
0.3
100
AcDbArc
 50
67.4999990854
 51
247.4999991
  0
ARC
  5
36E
100
AcDbEntity
  8
0
100
AcDbCircle
 62
7
  6
CONTINUOUS
 10
-7.2769984661
 20
12.4408047332
 40
0.3
100
AcDbArc
 50
247.4999991
 51
67.4999990854
  0
ARC
  5
36F
100
AcDbEntity
  8
ASSI
100
AcDbCircle
 62
7
  6
CONTINUOUS
 10
-7.2769984661
 20
12.4408047332
 40
0.3
100
AcDbArc
 50
247.4999991
 51
67.4999990854
  0
ARC
  5
370
100
AcDbEntity
  8
ASSI
100
AcDbCircle
 62
7
  6
CONTINUOUS
 10
-8.4318497118
 20
12.9191598031
 40
0.3
100
AcDbArc
 50
67.4999990854
 51
247.4999991
  0
ARC
  5
371
100
AcDbEntity
  8
0
100
AcDbCircle
 62
7
  6
CONTINUOUS
 10
-7.2769984661
 20
14.8899791372
 40
0.3
100
AcDbArc
 50
292.5000009188
 51
112.5000009125
  0
ARC
  5
372
100
AcDbEntity
  8
0
100
AcDbCircle
 62
7
  6
CONTINUOUS
 10
-8.4318497118
 20
14.4116240671
 40
0.3
100
AcDbArc
 50
112.5000009125
 51
292.5000009188
  0
ARC
  5
373
100
AcDbEntity
  8
ASSI
100
AcDbCircle
 62
7
  6
CONTINUOUS
 10
-7.2769984661
 20
14.8899791372
 40
0.3
100
AcDbArc
 50
292.5000009188
 51
112.5000009125
  0
ARC
  5
374
100
AcDbEntity
  8
ASSI
100
AcDbCircle
 62
7
  6
CONTINUOUS
 10
-8.4318497118
 20
14.4116240671
 40
0.3
100
AcDbArc
 50
112.5000009125
 51
292.5000009188
  0
ARC
  5
375
100
AcDbEntity
  8
0
100
AcDbCircle
 62
253
  6
CONTINUOUS
 10
2553.9093910379
 20
8.9737554478
 40
2553.6720769653
100
AcDbArc
 50
179.7004914127
 51
179.9631672225
  0
ARC
  5
376
100
AcDbEntity
  8
0
100
AcDbCircle
 62
253
  6
CONTINUOUS
 10
2526.1142765652
 20
8.9733747311
 40
2525.3772670797
100
AcDbArc
 50
179.6988182047
 51
179.9629614394
  0
ARC
  5
377
100
AcDbEntity
  8
0
100
AcDbCircle
 62
7
  6
CONTINUOUS
 10
35.7452647662
 20
-6.6746082971
 40
90.0
100
AcDbArc
 50
181.08868532
 51
188.5737414447
  0
ARC
  5
378
100
AcDbEntity
  8
0
100
AcDbCircle
 62
253
  6
CONTINUOUS
 10
35.7278204704
 20
-6.6746078363
 40
89.5000054603
100
AcDbArc
 50
181.0886855487
 51
188.5737412161
  0
ARC
  5
379
100
AcDbEntity
  8
0
100
AcDbCircle
 62
7
  6
CONTINUOUS
 10
-52.2601432341
 20
-19.9429225343
 40
1.0
100
AcDbArc
 50
188.5737414447
 51
267.0
  0
ARC
  5
37A
100
AcDbEntity
  8
0
100
AcDbCircle
 62
253
  6
CONTINUOUS
 10
-52.2775928776
 20
-19.9429224186
 40
0.500000121
100
AcDbArc
 50
188.5737527582
 51
266.9999886865
  0
ARC
  5
37B
100
AcDbEntity
  8
0
100
AcDbCircle
 62
7
  6
CONTINUOUS
 10
-54.0785887495
 20
0.7178221341
 40
0.25
100
AcDbArc
 50
90.5000054033
 51
180.0455810636
  0
ARC
  5
37C
100
AcDbEntity
  8
0
100
AcDbCircle
 62
7
  6
CONTINUOUS
 10
-54.0785887733
 20
1.5129612718
 40
0.25
100
AcDbArc
 50
179.9540400612
 51
269.5003915911
  0
ARC
  5
37D
100
AcDbEntity
  8
0
100
AcDbCircle
 62
7
  6
CONTINUOUS
 10
-52.2601432341
 20
22.17370594
 40
1.0
100
AcDbArc
 50
93.0
 51
171.4262585553
  0
ARC
  5
37E
100
AcDbEntity
  8
0
100
AcDbCircle
 62
253
  6
CONTINUOUS
 10
-52.2775928776
 20
22.1737058244
 40
0.500000121
100
AcDbArc
 50
93.0000113135
 51
171.4262472418
  0
ARC
  5
37F
100
AcDbEntity
  8
0
100
AcDbCircle
 62
7
  6
CONTINUOUS
 10
35.7452647662
 20
8.9053917029
 40
90.0
100
AcDbArc
 50
171.4262585553
 51
178.91131468
  0
ARC
  5
380
100
AcDbEntity
  8
0
100
AcDbCircle
 62
253
  6
CONTINUOUS
 10
35.7278204704
 20
8.905391242
 40
89.5000054603
100
AcDbArc
 50
171.4262587839
 51
178.9113144513
  0
ARC
  5
381
100
AcDbEntity
  8
0
100
AcDbCircle
 62
253
  6
CONTINUOUS
 10
445.6248433817
 20
1.1150019269
 40
499.471037866
100
AcDbArc
 50
180.0453201201
 51
181.0887037353
  0
ARC
  5
382
100
AcDbEntity
  8
0
100
AcDbCircle
 62
7
  6
CONTINUOUS
 10
445.671253086
 20
1.1153917029
 40
500.0
100
AcDbArc
 50
180.045580912
 51
181.08868532
  0
ARC
  5
383
100
AcDbEntity
  8
0
100
AcDbCircle
 62
7
  6
CONTINUOUS
 10
445.671253086
 20
1.1153917029
 40
500.0
100
AcDbArc
 50
178.91131468
 51
179.954419088
  0
ARC
  5
384
100
AcDbEntity
  8
0
100
AcDbCircle
 62
253
  6
CONTINUOUS
 10
445.6405175391
 20
1.1156263591
 40
499.4867121412
100
AcDbArc
 50
178.9113126363
 51
179.9546635084
  0
SPLINE
  5
385
100
AcDbEntity
  8
0
100
AcDbSpline
 62
7
  6
CONTINUOUS
 70
0
 71
3
 72
45
 73
41
 74
0
 42
0.0000001
 43
0.0000001
 44
0.0000000001
 40
0.0
 40
0.0
 40
0.0
 40
0.0
 40
0.0259800889
 40
0.0523496279
 40
0.0790958734
 40
0.1060767455
 40
0.1332114664
 40
0.1604130856
 40
0.1876342089
 40
0.2148436789
 40
0.2420085284
 40
0.269114921
 40
0.2961802741
 40
0.3232291803
 40
0.350277342
 40
0.377330842
 40
0.4043921836
 40
0.4314642365
 40
0.4585456301
 40
0.4856332459
 40
0.5127254201
 40
0.5398175528
 40
0.5669052049
 40
0.593986994
 40
0.6210603154
 40
0.6481233454
 40
0.6751779564
 40
0.7022255616
 40
0.7292718111
 40
0.7563345373
 40
0.7834412316
 40
0.8106122426
 40
0.8378301965
 40
0.8650531649
 40
0.8922409183
 40
0.9193433032
 40
0.9462795493
 40
0.9729763545
 40
0.9993003427
 40
1.0
 40
1.0
 40
1.0
 40
1.0
 10
-9.2100171408
 20
15.3521499745
 30
0.0
 10
-9.2130133034
 20
15.3447769145
 30
0.0
 10
-9.2196980638
 20
15.3301752665
 30
0.0
 10
-9.23159562
 20
15.3090373739
 30
0.0
 10
-9.2453839413
 20
15.2887070348
 30
0.0
 10
-9.2609507577
 20
15.2694029206
 30
0.0
 10
-9.2781488158
 20
15.2513433078
 30
0.0
 10
-9.2968273089
 20
15.2347085556
 30
0.0
 10
-9.3168326004
 20
15.2196565771
 30
0.0
 10
-9.3380108968
 20
15.2063263944
 30
0.0
 10
-9.3601875181
 20
15.1948097656
 30
0.0
 10
-9.3832004997
 20
15.1851840233
 30
0.0
 10
-9.4069045141
 20
15.1775277897
 30
0.0
 10
-9.431146664
 20
15.1718798068
 30
0.0
 10
-9.4557687456
 20
15.1682549076
 30
0.0
 10
-9.4806107061
 20
15.1666815424
 30
0.0
 10
-9.5055045953
 20
15.1671826646
 30
0.0
 10
-9.5302801672
 20
15.1697381683
 30
0.0
 10
-9.5547687217
 20
15.1743308686
 30
0.0
 10
-9.5787960233
 20
15.1809482226
 30
0.0
 10
-9.6021945491
 20
15.1895360356
 30
0.0
 10
-9.6248053091
 20
15.2000238638
 30
0.0
 10
-9.6464667123
 20
15.2123482069
 30
0.0
 10
-9.6670218029
 20
15.2264300009
 30
0.0
 10
-9.6863385411
 20
15.2421549591
 30
0.0
 10
-9.704285581
 20
15.259415382
 30
0.0
 10
-9.7207278298
 20
15.2781045647
 30
0.0
 10
-9.7355618655
 20
15.2980872251
 30
0.0
 10
-9.7486954975
 20
15.3192295757
 30
0.0
 10
-9.760028798
 20
15.3414101647
 30
0.0
 10
-9.7694805096
 20
15.3644964703
 30
0.0
 10
-9.7770036676
 20
15.3883306229
 30
0.0
 10
-9.7825378855
 20
15.4127404445
 30
0.0
 10
-9.7860239024
 20
15.437530909
 30
0.0
 10
-9.7874519787
 20
15.4624884807
 30
0.0
 10
-9.786828832
 20
15.4873911447
 30
0.0
 10
-9.7841785739
 20
15.5120087267
 30
0.0
 10
-9.7795526396
 20
15.5360905415
 30
0.0
 10
-9.7751120964
 20
15.5519550912
 30
0.0
 10
-9.7725388819
 20
15.5598266283
 30
0.0
 10
-9.7724720323
 20
15.560030353
 30
0.0
  0
SPLINE
  5
386
100
AcDbEntity
  8
0
100
AcDbSpline
 62
7
  6
CONTINUOUS
 70
0
 71
3
 72
20
 73
16
 74
0
 42
0.0000001
 43
0.0000001
 44
0.0000000001
 40
0.0
 40
0.0
 40
0.0
 40
0.0
 40
0.050265733
 40
0.1310260163
 40
0.2125300913
 40
0.2944722171
 40
0.3766543038
 40
0.4589171318
 40
0.5411875977
 40
0.6234317618
 40
0.7055795894
 40
0.7874854067
 40
0.8689662244
 40
0.94973377
 40
1.0
 40
1.0
 40
1.0
 40
1.0
 10
-8.844305889
 20
-13.2408313178
 30
0.0
 10
-8.8419405576
 20
-13.2452013846
 30
0.0
 10
-8.8360682785
 20
-13.2567539448
 30
0.0
 10
-8.8277992789
 20
-13.276085831
 30
0.0
 10
-8.8201198133
 20
-13.2989945082
 30
0.0
 10
-8.8142715816
 20
-13.3225819511
 30
0.0
 10
-8.8103254796
 20
-13.3466373314
 30
0.0
 10
-8.8083300686
 20
-13.3709655116
 30
0.0
 10
-8.8083301348
 20
-13.3953820769
 30
0.0
 10
-8.8103253352
 20
-13.4197050202
 30
0.0
 10
-8.8142699378
 20
-13.4437516837
 30
0.0
 10
-8.8201152313
 20
-13.4673302739
 30
0.0
 10
-8.8277917097
 20
-13.4902344615
 30
0.0
 10
-8.8360583753
 20
-13.5095656937
 30
0.0
 10
-8.8419301867
 20
-13.5211193348
 30
0.0
 10
-8.8442950996
 20
-13.5254896865
 30
0.0
  0
SPLINE
  5
387
100
AcDbEntity
  8
0
100
AcDbSpline
 62
7
  6
CONTINUOUS
 70
0
 71
3
 72
44
 73
40
 74
0
 42
0.0000001
 43
0.0000001
 44
0.0000000001
 40
0.0
 40
0.0
 40
0.0
 40
0.0
 40
0.0260865498
 40
0.0525645714
 40
0.0794213824
 40
0.1065142844
 40
0.1337621975
 40
0.1610777986
 40
0.1884134837
 40
0.2157379378
 40
0.2430180863
 40
0.2702400535
 40
0.2974213003
 40
0.3245865315
 40
0.3517515313
 40
0.3789223484
 40
0.4061014113
 40
0.4332915567
 40
0.4604913404
 40
0.4876975326
 40
0.514908371
 40
0.5421191569
 40
0.5693253605
 40
0.5965255148
 40
0.6237169107
 40
0.6508976548
 40
0.6780695836
 40
0.70523403
 40
0.7323966095
 40
0.7595752503
 40
0.7867975687
 40
0.8140839561
 40
0.8414169631
 40
0.868754513
 40
0.8960561809
 40
0.9232715859
 40
0.9503196186
 40
0.977126716
 40
1.0
 40
1.0
 40
1.0
 40
1.0
 10
-11.3182212776
 20
-12.7135487745
 30
0.0
 10
-11.3142890298
 20
-12.7066309537
 30
0.0
 10
-11.3057569628
 20
-12.6930287554
 30
0.0
 10
-11.2912045808
 20
-12.6736271247
 30
0.0
 10
-11.2748831221
 20
-12.6552722687
 30
0.0
 10
-11.2569323114
 20
-12.6381663098
 30
0.0
 10
-11.2375265195
 20
-12.6225064663
 30
0.0
 10
-11.216838692
 20
-12.6084519193
 30
0.0
 10
-11.1950416685
 20
-12.5961392653
 30
0.0
 10
-11.1723059767
 20
-12.5856863763
 30
0.0
 10
-11.1488167056
 20
-12.5771615307
 30
0.0
 10
-11.124744474
 20
-12.570620371
 30
0.0
 10
-11.1002435977
 20
-12.566122004
 30
0.0
 10
-11.0754707164
 20
-12.5636850097
 30
0.0
 10
-11.0505846399
 20
-12.563303574
 30
0.0
 10
-11.025747836
 20
-12.5649851227
 30
0.0
 10
-11.0011299152
 20
-12.5687305695
 30
0.0
 10
-10.9768971641
 20
-12.5744978486
 30
0.0
 10
-10.9532147301
 20
-12.5822479492
 30
0.0
 10
-10.9302538606
 20
-12.5919456828
 30
0.0
 10
-10.9081737111
 20
-12.603515422
 30
0.0
 10
-10.887122853
 20
-12.61686654
 30
0.0
 10
-10.8672533156
 20
-12.6319149067
 30
0.0
 10
-10.8487104615
 20
-12.6485615164
 30
0.0
 10
-10.8316103568
 20
-12.6666757183
 30
0.0
 10
-10.8160692035
 20
-12.6861334658
 30
0.0
 10
-10.8022069953
 20
-12.7068111842
 30
0.0
 10
-10.7901085734
 20
-12.7285611098
 30
0.0
 10
-10.7798478301
 20
-12.7512384621
 30
0.0
 10
-10.7715078999
 20
-12.7747097061
 30
0.0
 10
-10.7651519098
 20
-12.7988327781
 30
0.0
 10
-10.760805703
 20
-12.8234449867
 30
0.0
 10
-10.7585065626
 20
-12.8483677262
 30
0.0
 10
-10.7582876603
 20
-12.8733999061
 30
0.0
 10
-10.7601306203
 20
-12.8983285697
 30
0.0
 10
-10.763999678
 20
-12.9229345177
 30
0.0
 10
-10.7698407813
 20
-12.9469927695
 30
0.0
 10
-10.7772275098
 20
-12.9692301444
 30
0.0
 10
-10.7831100749
 20
-12.9832104867
 30
0.0
 10
-10.7860479761
 20
-12.9895415598
 30
0.0
  0
SPLINE
  5
388
100
AcDbEntity
  8
0
100
AcDbSpline
 62
7
  6
CONTINUOUS
 70
0
 71
3
 72
15
 73
11
 74
0
 42
0.0000001
 43
0.0000001
 44
0.0000000001
 40
0.0
 40
0.0
 40
0.0
 40
0.0
 40
0.1271211463
 40
0.2538605775
 40
0.3799630544
 40
0.5052845295
 40
0.6298065213
 40
0.7536278365
 40
0.8769405758
 40
1.0
 40
1.0
 40
1.0
 40
1.0
 10
-14.9196282345
 20
1.4515981016
 30
0.0
 10
-14.9196292382
 20
1.4384499422
 30
0.0
 10
-14.9222439644
 20
1.4121189952
 30
0.0
 10
-14.9338218299
 20
1.3743073068
 30
0.0
 10
-14.9524964264
 20
1.3396487635
 30
0.0
 10
-14.9774142402
 20
1.3094761285
 30
0.0
 10
-15.0075080121
 20
1.2848422756
 30
0.0
 10
-15.0415858805
 20
1.2665417741
 30
0.0
 10
-15.0783647465
 20
1.2551175649
 30
0.0
 10
-15.1038739014
 20
1.2522962246
 30
0.0
 10
-15.1166005032
 20
1.2521039089
 30
0.0
  0
SPLINE
  5
389
100
AcDbEntity
  8
ASSI
100
AcDbSpline
 62
7
  6
CONTINUOUS
 70
0
 71
3
 72
45
 73
41
 74
0
 42
0.0000001
 43
0.0000001
 44
0.0000000001
 40
0.0
 40
0.0
 40
0.0
 40
0.0
 40
0.0159849097
 40
0.0419520423
 40
0.0682901329
 40
0.0948592697
 40
0.1215799074
 40
0.1483664225
 40
0.1751721441
 40
0.2019663902
 40
0.2287166967
 40
0.2554094384
 40
0.282061767
 40
0.3086978995
 40
0.3353332989
 40
0.3619739552
 40
0.3886223334
 40
0.4152812594
 40
0.4419493837
 40
0.4686236352
 40
0.4953023754
 40
0.5219810748
 40
0.548655362
 40
0.5753238757
 40
0.6019840509
 40
0.6286340917
 40
0.6552758421
 40
0.6819106934
 40
0.7085442099
 40
0.7351939516
 40
0.7618869904
 40
0.7886433644
 40
0.815445965
 40
0.8422535034
 40
0.8690263644
 40
0.8957151596
 40
0.9222403513
 40
0.948529756
 40
0.974452033
 40
1.0
 40
1.0
 40
1.0
 40
1.0
 10
-9.2135237404
 20
15.3439057965
 30
0.0
 10
-9.2155439441
 20
15.3393604825
 30
0.0
 10
-9.2211642719
 20
15.3275703156
 30
0.0
 10
-9.23159562
 20
15.3090373739
 30
0.0
 10
-9.2453839413
 20
15.2887070348
 30
0.0
 10
-9.2609507577
 20
15.2694029206
 30
0.0
 10
-9.2781488158
 20
15.2513433078
 30
0.0
 10
-9.2968273089
 20
15.2347085556
 30
0.0
 10
-9.3168326004
 20
15.2196565771
 30
0.0
 10
-9.3380108968
 20
15.2063263944
 30
0.0
 10
-9.3601875181
 20
15.1948097656
 30
0.0
 10
-9.3832004997
 20
15.1851840233
 30
0.0
 10
-9.4069045141
 20
15.1775277897
 30
0.0
 10
-9.431146664
 20
15.1718798068
 30
0.0
 10
-9.4557687456
 20
15.1682549076
 30
0.0
 10
-9.4806107061
 20
15.1666815424
 30
0.0
 10
-9.5055045953
 20
15.1671826646
 30
0.0
 10
-9.5302801672
 20
15.1697381683
 30
0.0
 10
-9.5547687217
 20
15.1743308686
 30
0.0
 10
-9.5787960233
 20
15.1809482226
 30
0.0
 10
-9.6021945491
 20
15.1895360356
 30
0.0
 10
-9.6248053091
 20
15.2000238638
 30
0.0
 10
-9.6464667123
 20
15.2123482069
 30
0.0
 10
-9.6670218029
 20
15.2264300009
 30
0.0
 10
-9.6863385411
 20
15.2421549591
 30
0.0
 10
-9.704285581
 20
15.259415382
 30
0.0
 10
-9.7207278298
 20
15.2781045647
 30
0.0
 10
-9.7355618655
 20
15.2980872251
 30
0.0
 10
-9.7486954975
 20
15.3192295757
 30
0.0
 10
-9.760028798
 20
15.3414101647
 30
0.0
 10
-9.7694805096
 20
15.3644964703
 30
0.0
 10
-9.7770036676
 20
15.3883306229
 30
0.0
 10
-9.7825378855
 20
15.4127404445
 30
0.0
 10
-9.7860239024
 20
15.437530909
 30
0.0
 10
-9.7874519787
 20
15.4624884807
 30
0.0
 10
-9.786828832
 20
15.4873911447
 30
0.0
 10
-9.7841785739
 20
15.5120087267
 30
0.0
 10
-9.7795526396
 20
15.5360905415
 30
0.0
 10
-9.7730254041
 20
15.5594101327
 30
0.0
 10
-9.7674351247
 20
15.574437952
 30
0.0
 10
-9.7643448613
 20
15.5817600305
 30
0.0
  0
SPLINE
  5
38A
100
AcDbEntity
  8
0
100
AcDbSpline
 62
7
  6
CONTINUOUS
 70
0
 71
3
 72
15
 73
11
 74
0
 42
0.0000001
 43
0.0000001
 44
0.0000000001
 40
0.0
 40
0.0
 40
0.0
 40
0.0
 40
0.1271211463
 40
0.2538605775
 40
0.3799630544
 40
0.5052845295
 40
0.6298065213
 40
0.7536278365
 40
0.8769405758
 40
1.0
 40
1.0
 40
1.0
 40
1.0
 10
-5.5472002063
 20
1.4515981016
 30
0.0
 10
-5.5471992026
 20
1.4384499422
 30
0.0
 10
-5.5445844764
 20
1.4121189952
 30
0.0
 10
-5.5330066109
 20
1.3743073068
 30
0.0
 10
-5.5143320144
 20
1.3396487635
 30
0.0
 10
-5.4894142006
 20
1.3094761285
 30
0.0
 10
-5.4593204287
 20
1.2848422756
 30
0.0
 10
-5.4252425603
 20
1.2665417741
 30
0.0
 10
-5.3884636943
 20
1.2551175649
 30
0.0
 10
-5.3629545394
 20
1.2522962246
 30
0.0
 10
-5.3502279376
 20
1.2521039089
 30
0.0
  0
SPLINE
  5
38B
100
AcDbEntity
  8
0
100
AcDbSpline
 62
253
  6
CONTINUOUS
 70
0
 71
3
 72
15
 73
11
 74
0
 42
0.0000001
 43
0.0000001
 44
0.0000000001
 40
0.0
 40
0.0
 40
0.0
 40
0.0
 40
0.124902422
 40
0.2498533826
 40
0.3748487096
 40
0.499878145
 40
0.6249261152
 40
0.7499742381
 40
0.875004254
 40
1.0
 40
1.0
 40
1.0
 40
1.0
 10
0.7882514612
 20
22.6730207074
 30
0.0
 10
0.7881918796
 20
22.7056165413
 30
0.0
 10
0.7816413289
 20
22.7709892088
 30
0.0
 10
0.7529131167
 20
22.8651271132
 30
0.0
 10
0.7063834348
 20
22.9519362348
 30
0.0
 10
0.6438362418
 20
23.0280406918
 30
0.0
 10
0.5676728027
 20
23.090537314
 30
0.0
 10
0.4807991939
 20
23.1370278973
 30
0.0
 10
0.3865935335
 20
23.1657312684
 30
0.0
 10
0.3211762365
 20
23.1722759394
 30
0.0
 10
0.2885560477
 20
23.1723354748
 30
0.0
  0
SPLINE
  5
38C
100
AcDbEntity
  8
0
100
AcDbSpline
 62
253
  6
CONTINUOUS
 70
0
 71
3
 72
23
 73
19
 74
0
 42
0.0000001
 43
0.0000001
 44
0.0000000001
 40
0.0
 40
0.0
 40
0.0
 40
0.0
 40
0.0038095649
 40
0.0097242437
 40
0.0177527652
 40
0.0278880093
 40
0.0401149713
 40
0.0544135255
 40
0.0891209745
 40
0.1317630102
 40
0.1820311601
 40
0.239559901
 40
0.3039299426
 40
0.3746716061
 40
0.4512683699
 40
0.6197500333
 40
0.8044583899
 40
1.0
 40
1.0
 40
1.0
 40
1.0
 10
0.2885560477
 20
23.1723354748
 30
0.0
 10
0.2882149716
 20
23.1713114789
 30
0.0
 10
0.2876692636
 20
23.1685991547
 30
0.0
 10
0.2869583166
 20
23.1636240478
 30
0.0
 10
0.2862496446
 20
23.1568358422
 30
0.0
 10
0.28553232
 20
23.1482562219
 30
0.0
 10
0.2848193752
 20
23.1378935737
 30
0.0
 10
0.2838090141
 20
23.1205747581
 30
0.0
 10
0.2826133425
 20
23.0946361677
 30
0.0
 10
0.2812889352
 20
23.0585042677
 30
0.0
 10
0.2800170514
 20
23.0159014089
 30
0.0
 10
0.2788079401
 20
22.9671388417
 30
0.0
 10
0.2776729331
 20
22.9125726631
 30
0.0
 10
0.2766210274
 20
22.8526016897
 30
0.0
 10
0.2752986691
 20
22.7631349133
 30
0.0
 10
0.2739427881
 20
22.6413771543
 30
0.0
 10
0.2727942084
 20
22.4859174172
 30
0.0
 10
0.2723503991
 20
22.3781877327
 30
0.0
 10
0.272204592
 20
22.3227881225
 30
0.0
  0
SPLINE
  5
38D
100
AcDbEntity
  8
0
100
AcDbSpline
 62
253
  6
CONTINUOUS
 70
0
 71
3
 72
23
 73
19
 74
0
 42
0.0000001
 43
0.0000001
 44
0.0000000001
 40
0.0
 40
0.0
 40
0.0
 40
0.0
 40
0.004094032
 40
0.0101884554
 40
0.018342447
 40
0.0285692055
 40
0.0408638827
 40
0.0552122029
 40
0.0899782861
 40
0.1326387197
 40
0.1828949235
 40
0.2403879365
 40
0.3047033249
 40
0.375375258
 40
0.4518903753
 40
0.620182793
 40
0.8046803831
 40
1.0
 40
1.0
 40
1.0
 40
1.0
 10
0.7882514612
 20
22.6730207074
 30
0.0
 10
0.7879294559
 20
22.6725374052
 30
0.0
 10
0.7873706446
 20
22.6711863077
 30
0.0
 10
0.786660815
 20
22.6686867883
 30
0.0
 10
0.7859467044
 20
22.6652846777
 30
0.0
 10
0.7852297933
 20
22.6609930563
 30
0.0
 10
0.7845161033
 20
22.6558110198
 30
0.0
 10
0.7835064056
 20
22.6471584347
 30
0.0
 10
0.7823104946
 20
22.6341933046
 30
0.0
 10
0.7809859525
 20
22.6161292234
 30
0.0
 10
0.7797139178
 20
22.5948306501
 30
0.0
 10
0.7785047213
 20
22.5704525613
 30
0.0
 10
0.7773695963
 20
22.5431721347
 30
0.0
 10
0.7763175488
 20
22.5131882883
 30
0.0
 10
0.774994982
 20
22.4684561452
 30
0.0
 10
0.7736387433
 20
22.4075724667
 30
0.0
 10
0.7724897876
 20
22.3298297648
 30
0.0
 10
0.7720458803
 20
22.2759531969
 30
0.0
 10
0.7719000055
 20
22.2482470312
 30
0.0
  0
SPLINE
  5
38E
100
AcDbEntity
  8
0
100
AcDbSpline
 62
253
  6
CONTINUOUS
 70
0
 71
3
 72
22
 73
18
 74
0
 42
0.0000001
 43
0.0000001
 44
0.0000000001
 40
0.0
 40
0.0
 40
0.0
 40
0.0
 40
0.1940280159
 40
0.3806795334
 40
0.5528644827
 40
0.7040381632
 40
0.7699127421
 40
0.8284546912
 40
0.8791065484
 40
0.921385984
 40
0.9548904054
 40
0.9682490783
 40
0.979300748
 40
0.9880194331
 40
0.9943847331
 40
0.9983807968
 40
1.0
 40
1.0
 40
1.0
 40
1.0
 10
-5.3354143918
 20
1.9137375237
 30
0.0
 10
-5.3483491663
 20
1.9137373434
 30
0.0
 10
-5.3737269652
 20
1.9137330941
 30
0.0
 10
-5.4105833783
 20
1.9137151991
 30
0.0
 10
-5.4445829227
 20
1.9136865544
 30
0.0
 10
-5.4705309271
 20
1.9136535264
 30
0.0
 10
-5.4889029758
 20
1.9136215678
 30
0.0
 10
-5.5005737873
 20
1.9135968374
 30
0.0
 10
-5.5106716477
 20
1.9135706826
 30
0.0
 10
-5.5191003427
 20
1.9135429913
 30
0.0
 10
-5.5250430027
 20
1.9135184871
 30
0.0
 10
-5.5289036906
 20
1.9134963733
 30
0.0
 10
-5.5311124071
 20
1.9134831168
 30
0.0
 10
-5.5328540409
 20
1.9134640411
 30
0.0
 10
-5.5341273794
 20
1.9134594392
 30
0.0
 10
-5.5349232213
 20
1.9134272762
 30
0.0
 10
-5.5353005959
 20
1.9134376139
 30
0.0
 10
-5.5354067764
 20
1.9134181853
 30
0.0
  0
SPLINE
  5
38F
100
AcDbEntity
  8
0
100
AcDbSpline
 62
253
  6
CONTINUOUS
 70
0
 71
3
 72
23
 73
19
 74
0
 42
0.0000001
 43
0.0000001
 44
0.0000000001
 40
0.0
 40
0.0
 40
0.0
 40
0.0
 40
0.1939854716
 40
0.3806213949
 40
0.5528073597
 40
0.6314060534
 40
0.7039927143
 40
0.7698753266
 40
0.8284257925
 40
0.8790859219
 40
0.9213727571
 40
0.9548831853
 40
0.9682438382
 40
0.9792978104
 40
0.9880178537
 40
0.9943840956
 40
0.9983805793
 40
1.0
 40
1.0
 40
1.0
 40
1.0
 10
-5.335410212
 20
1.5131618099
 30
0.0
 10
-5.3354101924
 20
1.4969839032
 30
0.0
 10
-5.335415465
 20
1.4652410235
 30
0.0
 10
-5.3354392
 20
1.4191382674
 30
0.0
 10
-5.3354721321
 20
1.3826584905
 30
0.0
 10
-5.3355064823
 20
1.3556901467
 30
0.0
 10
-5.3355346283
 20
1.3375872393
 30
0.0
 10
-5.33556562
 20
1.3211563094
 30
0.0
 10
-5.3355991964
 20
1.306554014
 30
0.0
 10
-5.3356347551
 20
1.2939195379
 30
0.0
 10
-5.3356724524
 20
1.283373416
 30
0.0
 10
-5.3357058321
 20
1.2759378365
 30
0.0
 10
-5.3357359923
 20
1.2711072817
 30
0.0
 10
-5.3357540918
 20
1.268343655
 30
0.0
 10
-5.3357800895
 20
1.2661646393
 30
0.0
 10
-5.335786443
 20
1.2645711428
 30
0.0
 10
-5.3358302186
 20
1.2635760667
 30
0.0
 10
-5.3358162967
 20
1.2631032157
 30
0.0
 10
-5.3358427506
 20
1.2629707762
 30
0.0
  0
SPLINE
  5
390
100
AcDbEntity
  8
0
100
AcDbSpline
 62
253
  6
CONTINUOUS
 70
0
 71
3
 72
23
 73
19
 74
0
 42
0.0000001
 43
0.0000001
 44
0.0000000001
 40
0.0
 40
0.0
 40
0.0
 40
0.0
 40
0.0016194207
 40
0.0056159044
 40
0.0119821463
 40
0.0207021896
 40
0.0317561618
 40
0.0451168147
 40
0.0786272429
 40
0.1209140781
 40
0.1715742075
 40
0.2301246734
 40
0.2960072857
 40
0.3685939466
 40
0.4471926403
 40
0.6193786051
 40
0.8060145284
 40
1.0
 40
1.0
 40
1.0
 40
1.0
 10
-15.1309856903
 20
1.2629707762
 30
0.0
 10
-15.1310121441
 20
1.2631032157
 30
0.0
 10
-15.1309982222
 20
1.2635760667
 30
0.0
 10
-15.1310419978
 20
1.2645711428
 30
0.0
 10
-15.1310483513
 20
1.2661646393
 30
0.0
 10
-15.131074349
 20
1.268343655
 30
0.0
 10
-15.1310924486
 20
1.2711072817
 30
0.0
 10
-15.1311226087
 20
1.2759378365
 30
0.0
 10
-15.1311559884
 20
1.283373416
 30
0.0
 10
-15.1311936857
 20
1.2939195379
 30
0.0
 10
-15.1312292444
 20
1.306554014
 30
0.0
 10
-15.1312628208
 20
1.3211563094
 30
0.0
 10
-15.1312938125
 20
1.3375872394
 30
0.0
 10
-15.1313219586
 20
1.3556901467
 30
0.0
 10
-15.1313563087
 20
1.3826584905
 30
0.0
 10
-15.1313892408
 20
1.4191382674
 30
0.0
 10
-15.1314129759
 20
1.4652410235
 30
0.0
 10
-15.1314182484
 20
1.4969839032
 30
0.0
 10
-15.1314182289
 20
1.5131618099
 30
0.0
  0
SPLINE
  5
391
100
AcDbEntity
  8
0
100
AcDbSpline
 62
253
  6
CONTINUOUS
 70
0
 71
3
 72
22
 73
18
 74
0
 42
0.0000001
 43
0.0000001
 44
0.0000000001
 40
0.0
 40
0.0
 40
0.0
 40
0.0
 40
0.1940279989
 40
0.3806795082
 40
0.5528644564
 40
0.704038141
 40
0.7699127233
 40
0.828454676
 40
0.879106537
 40
0.9213859762
 40
0.9548904006
 40
0.9682490749
 40
0.9793007457
 40
0.9880194317
 40
0.9943847324
 40
0.9983807966
 40
1.0
 40
1.0
 40
1.0
 40
1.0
 10
-15.131414049
 20
1.9137375236
 30
0.0
 10
-15.1184792733
 20
1.9137373434
 30
0.0
 10
-15.0931014714
 20
1.913733094
 30
0.0
 10
-15.0562450534
 20
1.9137151991
 30
0.0
 10
-15.0222455032
 20
1.9136865544
 30
0.0
 10
-14.9962974936
 20
1.9136535264
 30
0.0
 10
-14.9779254408
 20
1.9136215678
 30
0.0
 10
-14.9662546265
 20
1.9135968374
 30
0.0
 10
-14.9561567635
 20
1.9135706826
 30
0.0
 10
-14.9477280663
 20
1.9135429913
 30
0.0
 10
-14.9417854046
 20
1.9135184871
 30
0.0
 10
-14.9379247156
 20
1.9134963733
 30
0.0
 10
-14.9357159985
 20
1.9134831168
 30
0.0
 10
-14.9339743642
 20
1.9134640411
 30
0.0
 10
-14.9327010254
 20
1.9134594392
 30
0.0
 10
-14.9319051832
 20
1.9134272762
 30
0.0
 10
-14.9315278085
 20
1.9134376139
 30
0.0
 10
-14.931421628
 20
1.9134181853
 30
0.0
  0
SPLINE
  5
392
100
AcDbEntity
  8
0
100
AcDbSpline
 62
253
  6
CONTINUOUS
 70
0
 71
3
 72
9
 73
5
 74
0
 42
0.0000001
 43
0.0000001
 44
0.0000000001
 40
0.0
 40
0.0
 40
0.0
 40
0.0
 40
0.2500142686
 40
1.0
 40
1.0
 40
1.0
 40
1.0
 10
-20.7015247334
 20
1.5131601563
 30
0.0
 10
-20.7015457858
 20
2.2717227961
 30
0.0
 10
-20.7018748489
 20
5.3058001749
 30
0.0
 10
-20.703161625
 20
8.339877451
 30
0.0
 10
-20.7046701789
 20
10.6153917029
 30
0.0
  0
SPLINE
  5
393
100
AcDbEntity
  8
0
100
AcDbSpline
 62
253
  6
CONTINUOUS
 70
0
 71
3
 72
9
 73
5
 74
0
 42
0.0000001
 43
0.0000001
 44
0.0000000001
 40
0.0
 40
0.0
 40
0.0
 40
0.0
 40
0.2500142682
 40
1.0
 40
1.0
 40
1.0
 40
1.0
 10
-21.2012223928
 20
1.5108556932
 30
0.0
 10
-21.2012433486
 20
2.2688186694
 30
0.0
 10
-21.2015680271
 20
5.3004975365
 30
0.0
 10
-21.2028567221
 20
8.3321763003
 30
0.0
 10
-21.2043655925
 20
10.6058917029
 30
0.0
  0
SPLINE
  5
394
100
AcDbEntity
  8
0
100
AcDbSpline
 62
253
  6
CONTINUOUS
 70
0
 71
3
 72
22
 73
18
 74
0
 42
0.0000001
 43
0.0000001
 44
0.0000000001
 40
0.0
 40
0.0
 40
0.0
 40
0.0
 40
0.1909195046
 40
0.3748241707
 40
0.5449555948
 40
0.6950625414
 40
0.7608487159
 40
0.8196294971
 40
0.8708637815
 40
0.9140799942
 40
0.9488804683
 40
0.9630217493
 40
0.9749452776
 40
0.9846238291
 40
0.9920355774
 40
0.9971639768
 40
1.0
 40
1.0
 40
1.0
 40
1.0
 10
-20.7015247334
 20
1.5131601569
 30
0.0
 10
-20.7333264854
 20
1.5131597124
 30
0.0
 10
-20.7957615204
 20
1.5131307249
 30
0.0
 10
-20.8865355277
 20
1.5130039378
 30
0.0
 10
-20.9705111653
 20
1.5127991133
 30
0.0
 10
-21.03481145
 20
1.5125620219
 30
0.0
 10
-21.0805637295
 20
1.5123321815
 30
0.0
 10
-21.1098466705
 20
1.5121537938
 30
0.0
 10
-21.1353699479
 20
1.5119639527
 30
0.0
 10
-21.1568985514
 20
1.511764406
 30
0.0
 10
-21.1722484404
 20
1.5115830714
 30
0.0
 10
-21.1823856431
 20
1.5114282179
 30
0.0
 10
-21.1883386045
 20
1.5113201139
 30
0.0
 10
-21.193169958
 20
1.5112095848
 30
0.0
 10
-21.196870226
 20
1.5111057685
 30
0.0
 10
-21.1994277089
 20
1.5109925949
 30
0.0
 10
-21.2007543178
 20
1.5109194833
 30
0.0
 10
-21.2012223928
 20
1.5108557007
 30
0.0
  0
SPLINE
  5
395
100
AcDbEntity
  8
0
100
AcDbSpline
 62
253
  6
CONTINUOUS
 70
0
 71
3
 72
22
 73
18
 74
0
 42
0.0000001
 43
0.0000001
 44
0.0000000001
 40
0.0
 40
0.0
 40
0.0
 40
0.0
 40
0.1939603484
 40
0.3805718694
 40
0.5527352364
 40
0.7039014889
 40
0.7697766006
 40
0.8283214137
 40
0.8789782191
 40
0.9212646913
 40
0.9547787324
 40
0.9681431699
 40
0.9792028394
 40
0.9879313266
 40
0.9943101698
 40
0.9983276824
 40
1.0
 40
1.0
 40
1.0
 40
1.0
 10
-5.5354025967
 20
1.5130010487
 30
0.0
 10
-5.5354025747
 20
1.5097654401
 30
0.0
 10
-5.53540786
 20
1.5034168133
 30
0.0
 10
-5.5354315706
 20
1.494196218
 30
0.0
 10
-5.5354700451
 20
1.48568956
 30
0.0
 10
-5.5355146742
 20
1.4791970697
 30
0.0
 10
-5.5355580059
 20
1.474599991
 30
0.0
 10
-5.5355915678
 20
1.4716795996
 30
0.0
 10
-5.5356271757
 20
1.4691527098
 30
0.0
 10
-5.5356647257
 20
1.4670436208
 30
0.0
 10
-5.5356984438
 20
1.4655562835
 30
0.0
 10
-5.5357280803
 20
1.4645906393
 30
0.0
 10
-5.5357472777
 20
1.4640370305
 30
0.0
 10
-5.5357703876
 20
1.4636034304
 30
0.0
 10
-5.5357835209
 20
1.4632792513
 30
0.0
 10
-5.5358148013
 20
1.4630895458
 30
0.0
 10
-5.535815425
 20
1.4629829212
 30
0.0
 10
-5.5358351322
 20
1.4629631757
 30
0.0
  0
LINE
  5
396
100
AcDbEntity
  8
0
100
AcDbLine
 62
253
  6
CONTINUOUS
 10
-5.5354067764
 20
1.9134163285
 11
-5.5354025967
 21
1.5130010487
  0
SPLINE
  5
397
100
AcDbEntity
  8
0
100
AcDbSpline
 62
253
  6
CONTINUOUS
 70
0
 71
3
 72
25
 73
21
 74
0
 42
0.0000001
 43
0.0000001
 44
0.0000000001
 40
0.0
 40
0.0
 40
0.0
 40
0.0
 40
0.0012140354
 40
0.0029742433
 40
0.0081752216
 40
0.0156348548
 40
0.0253475097
 40
0.0372960902
 40
0.051455801
 40
0.0677953521
 40
0.0862785467
 40
0.129502335
 40
0.1807330188
 40
0.2395010534
 40
0.3052667598
 40
0.3774256059
 40
0.4553139094
 40
0.6253661822
 40
0.8091789361
 40
1.0
 40
1.0
 40
1.0
 40
1.0
 10
-21.2043655925
 20
10.6058917029
 30
0.0
 10
-21.2041879249
 20
10.6059885051
 30
0.0
 10
-21.2037187268
 20
10.6061590624
 30
0.0
 10
-21.202399304
 20
10.6064962643
 30
0.0
 10
-21.200021727
 20
10.6068770952
 30
0.0
 10
-21.1963199028
 20
10.6073145788
 30
0.0
 10
-21.1914853012
 20
10.6077510226
 30
0.0
 10
-21.1855316664
 20
10.608189059
 30
0.0
 10
-21.1784705643
 20
10.6086233846
 30
0.0
 10
-21.1703185712
 20
10.6090532159
 30
0.0
 10
-21.157325145
 20
10.6096493219
 30
0.0
 10
-21.1385162244
 20
10.6103546319
 30
0.0
 10
-21.1129922153
 20
10.611128524
 30
0.0
 10
-21.083708802
 20
10.6118578201
 30
0.0
 10
-21.0509355253
 20
10.6125351618
 30
0.0
 10
-21.0149740508
 20
10.6131534649
 30
0.0
 10
-20.9616325834
 20
10.613913116
 30
0.0
 10
-20.8896814001
 20
10.6146556712
 30
0.0
 10
-20.798907176
 20
10.6152170977
 30
0.0
 10
-20.7364718414
 20
10.6153706064
 30
0.0
 10
-20.7046701789
 20
10.6153917029
 30
0.0
  0
SPLINE
  5
398
100
AcDbEntity
  8
0
100
AcDbSpline
 62
253
  6
CONTINUOUS
 70
0
 71
3
 72
22
 73
18
 74
0
 42
0.0000001
 43
0.0000001
 44
0.0000000001
 40
0.0
 40
0.0
 40
0.0
 40
0.0
 40
0.0016723176
 40
0.0056898302
 40
0.0120686734
 40
0.0207971606
 40
0.0318568301
 40
0.0452212676
 40
0.0787353087
 40
0.1210217809
 40
0.1716785863
 40
0.2302233994
 40
0.2960985111
 40
0.4472647636
 40
0.6194281306
 40
0.8060396516
 40
1.0
 40
1.0
 40
1.0
 40
1.0
 10
-14.9309933086
 20
1.4629631757
 30
0.0
 10
-14.9310130158
 20
1.4629829212
 30
0.0
 10
-14.9310136395
 20
1.4630895458
 30
0.0
 10
-14.9310449199
 20
1.4632792513
 30
0.0
 10
-14.9310580532
 20
1.4636034304
 30
0.0
 10
-14.9310811631
 20
1.4640370305
 30
0.0
 10
-14.9311003606
 20
1.4645906393
 30
0.0
 10
-14.9311299971
 20
1.4655562835
 30
0.0
 10
-14.9311637151
 20
1.4670436208
 30
0.0
 10
-14.9312012651
 20
1.4691527098
 30
0.0
 10
-14.931236873
 20
1.4716795996
 30
0.0
 10
-14.9312704349
 20
1.474599991
 30
0.0
 10
-14.9313137666
 20
1.4791970697
 30
0.0
 10
-14.9313583957
 20
1.48568956
 30
0.0
 10
-14.9313968702
 20
1.494196218
 30
0.0
 10
-14.9314205808
 20
1.5034168133
 30
0.0
 10
-14.9314258661
 20
1.5097654401
 30
0.0
 10
-14.9314258441
 20
1.5130010487
 30
0.0
  0
SPLINE
  5
399
100
AcDbEntity
  8
0
100
AcDbSpline
 62
253
  6
CONTINUOUS
 70
0
 71
3
 72
21
 73
17
 74
0
 42
0.0000001
 43
0.0000001
 44
0.0000000001
 40
0.0
 40
0.0
 40
0.0
 40
0.0
 40
0.0159230702
 40
0.025912876
 40
0.0375670013
 40
0.0510167674
 40
0.066333601
 40
0.1026684936
 40
0.1465990698
 40
0.1979110808
 40
0.2562502761
 40
0.3211593363
 40
0.468447867
 40
0.6346995992
 40
0.8140232221
 40
1.0
 40
1.0
 40
1.0
 40
1.0
 10
-21.2387284463
 20
22.2482470312
 30
0.0
 10
-21.2381145032
 20
22.2509009021
 30
0.0
 10
-21.2356219446
 20
22.2548432863
 30
0.0
 10
-21.2309384741
 20
22.2592211616
 30
0.0
 10
-21.2260467018
 20
22.2627403336
 30
0.0
 10
-21.2200598041
 20
22.2662101978
 30
0.0
 10
-21.2100283028
 20
22.2710682966
 30
0.0
 10
-21.1947039381
 20
22.2768508544
 30
0.0
 10
-21.1731068863
 20
22.2832325096
 30
0.0
 10
-21.1475380147
 20
22.2893197673
 30
0.0
 10
-21.1182255965
 20
22.2950544293
 30
0.0
 10
-21.0725351076
 20
22.3024625444
 30
0.0
 10
-21.0082315134
 20
22.3101991928
 30
0.0
 10
-20.9241781001
 20
22.3170180999
 30
0.0
 10
-20.8333379425
 20
22.3214208753
 30
0.0
 10
-20.7708476606
 20
22.3226243431
 30
0.0
 10
-20.7390330328
 20
22.3227881212
 30
0.0
  0
SPLINE
  5
39A
100
AcDbEntity
  8
0
100
AcDbSpline
 62
253
  6
CONTINUOUS
 70
0
 71
3
 72
23
 73
19
 74
0
 42
0.0000001
 43
0.0000001
 44
0.0000000001
 40
0.0
 40
0.0
 40
0.0
 40
0.0
 40
0.1955416101
 40
0.3802499667
 40
0.5487316301
 40
0.6253283939
 40
0.6960700574
 40
0.760440099
 40
0.8179688399
 40
0.8682369898
 40
0.9108790255
 40
0.9455864745
 40
0.9598850287
 40
0.9721119907
 40
0.9822472348
 40
0.9902757563
 40
0.9961904351
 40
1.0
 40
1.0
 40
1.0
 40
1.0
 10
-20.7390330328
 20
22.3227881225
 30
0.0
 10
-20.7391788399
 20
22.3781877327
 30
0.0
 10
-20.7396226492
 20
22.4859174172
 30
0.0
 10
-20.7407712289
 20
22.6413771543
 30
0.0
 10
-20.7421271099
 20
22.7631349133
 30
0.0
 10
-20.7434494683
 20
22.8526016897
 30
0.0
 10
-20.7445013739
 20
22.9125726631
 30
0.0
 10
-20.7456363809
 20
22.9671388417
 30
0.0
 10
-20.7468454922
 20
23.0159014089
 30
0.0
 10
-20.7481173761
 20
23.0585042677
 30
0.0
 10
-20.7494417833
 20
23.0946361677
 30
0.0
 10
-20.7506374549
 20
23.1205747581
 30
0.0
 10
-20.751647816
 20
23.1378935737
 30
0.0
 10
-20.7523607609
 20
23.1482562219
 30
0.0
 10
-20.7530780854
 20
23.1568358422
 30
0.0
 10
-20.7537867574
 20
23.1636240478
 30
0.0
 10
-20.7544977044
 20
23.1685991547
 30
0.0
 10
-20.7550434124
 20
23.1713114789
 30
0.0
 10
-20.7553844885
 20
23.1723354748
 30
0.0
  0
LINE
  5
39B
100
AcDbEntity
  8
0
100
AcDbLine
 62
253
  6
CONTINUOUS
 10
-14.9314258441
 20
1.5130010487
 11
-14.9314216644
 21
1.9134161437
  0
SPLINE
  5
39C
100
AcDbEntity
  8
0
100
AcDbSpline
 62
253
  6
CONTINUOUS
 70
0
 71
3
 72
21
 73
17
 74
0
 42
0.0000001
 43
0.0000001
 44
0.0000000001
 40
0.0
 40
0.0
 40
0.0
 40
0.0
 40
0.1909062916
 40
0.3747981057
 40
0.5449176683
 40
0.695014735
 40
0.7607971589
 40
0.8195752769
 40
0.8708082835
 40
0.9140249969
 40
0.9488283683
 40
0.9748994784
 40
0.9845833217
 40
0.9920026167
 40
0.9971424709
 40
1.0
 40
1.0
 40
1.0
 40
1.0
 10
-20.7015269665
 20
1.2629707911
 30
0.0
 10
-20.7174279292
 20
1.2629707896
 30
0.0
 10
-20.7486456111
 20
1.2629450235
 30
0.0
 10
-20.7940327607
 20
1.2628300287
 30
0.0
 10
-20.8360205608
 20
1.2626434351
 30
0.0
 10
-20.8681705056
 20
1.2624270392
 30
0.0
 10
-20.8910463236
 20
1.2622169812
 30
0.0
 10
-20.9056876306
 20
1.2620539659
 30
0.0
 10
-20.918449081
 20
1.2618800629
 30
0.0
 10
-20.9292134061
 20
1.2616981761
 30
0.0
 10
-20.937881111
 20
1.2615087327
 30
0.0
 10
-20.9437561997
 20
1.2613395529
 30
0.0
 10
-20.9473486061
 20
1.2611896951
 30
0.0
 10
-20.9491999361
 20
1.2610941138
 30
0.0
 10
-20.9504779112
 20
1.2609910643
 30
0.0
 10
-20.9511437087
 20
1.2609229191
 30
0.0
 10
-20.9513746205
 20
1.2608652288
 30
0.0
  0
SPLINE
  5
39D
100
AcDbEntity
  8
0
100
AcDbSpline
 62
253
  6
CONTINUOUS
 70
0
 71
3
 72
23
 73
19
 74
0
 42
0.0000001
 43
0.0000001
 44
0.0000000001
 40
0.0
 40
0.0
 40
0.0
 40
0.0
 40
0.1953196169
 40
0.379817207
 40
0.5481096247
 40
0.624624742
 40
0.6952966751
 40
0.7596120635
 40
0.8171050765
 40
0.8673612803
 40
0.9100217139
 40
0.9447877971
 40
0.9591361173
 40
0.9714307945
 40
0.981657553
 40
0.9898115446
 40
0.995905968
 40
1.0
 40
1.0
 40
1.0
 40
1.0
 10
-21.2387284463
 20
22.2482470312
 30
0.0
 10
-21.2388743211
 20
22.2759531969
 30
0.0
 10
-21.2393182284
 20
22.3298297648
 30
0.0
 10
-21.2404671841
 20
22.4075724667
 30
0.0
 10
-21.2418234228
 20
22.4684561452
 30
0.0
 10
-21.2431459896
 20
22.5131882883
 30
0.0
 10
-21.2441980371
 20
22.5431721347
 30
0.0
 10
-21.2453331621
 20
22.5704525613
 30
0.0
 10
-21.2465423586
 20
22.5948306501
 30
0.0
 10
-21.2478143934
 20
22.6161292234
 30
0.0
 10
-21.2491389355
 20
22.6341933046
 30
0.0
 10
-21.2503348464
 20
22.6471584347
 30
0.0
 10
-21.2513445441
 20
22.6558110198
 30
0.0
 10
-21.2520582341
 20
22.6609930563
 30
0.0
 10
-21.2527751452
 20
22.6652846777
 30
0.0
 10
-21.2534892558
 20
22.6686867883
 30
0.0
 10
-21.2541990854
 20
22.6711863077
 30
0.0
 10
-21.2547578967
 20
22.6725374052
 30
0.0
 10
-21.255079902
 20
22.6730207074
 30
0.0
  0
SPLINE
  5
39E
100
AcDbEntity
  8
0
100
AcDbSpline
 62
253
  6
CONTINUOUS
 70
0
 71
3
 72
15
 73
11
 74
0
 42
0.0000001
 43
0.0000001
 44
0.0000000001
 40
0.0
 40
0.0
 40
0.0
 40
0.0
 40
0.124902422
 40
0.2498533826
 40
0.3748487096
 40
0.499878145
 40
0.6249261152
 40
0.7499742381
 40
0.875004254
 40
1.0
 40
1.0
 40
1.0
 40
1.0
 10
-21.255079902
 20
22.6730207074
 30
0.0
 10
-21.2550203204
 20
22.7056165413
 30
0.0
 10
-21.2484697697
 20
22.7709892088
 30
0.0
 10
-21.2197415575
 20
22.8651271132
 30
0.0
 10
-21.1732118757
 20
22.9519362348
 30
0.0
 10
-21.1106646826
 20
23.0280406918
 30
0.0
 10
-21.0345012435
 20
23.090537314
 30
0.0
 10
-20.9476276347
 20
23.1370278973
 30
0.0
 10
-20.8534219743
 20
23.1657312684
 30
0.0
 10
-20.7880046773
 20
23.1722759394
 30
0.0
 10
-20.7553844885
 20
23.1723354748
 30
0.0
  0
SPLINE
  5
39F
100
AcDbEntity
  8
0
100
AcDbSpline
 62
253
  6
CONTINUOUS
 70
0
 71
3
 72
21
 73
17
 74
0
 42
0.0000001
 43
0.0000001
 44
0.0000000001
 40
0.0
 40
0.0
 40
0.0
 40
0.0
 40
0.0028575291
 40
0.0079973833
 40
0.0154166783
 40
0.0251005216
 40
0.0511716317
 40
0.0859750031
 40
0.1291917165
 40
0.1804247231
 40
0.2392028411
 40
0.304985265
 40
0.4550823317
 40
0.6252018943
 40
0.8090937084
 40
1.0
 40
1.0
 40
1.0
 40
1.0
 10
0.4845461796
 20
1.2608652288
 30
0.0
 10
0.4843152679
 20
1.2609229191
 30
0.0
 10
0.4836494703
 20
1.2609910643
 30
0.0
 10
0.4823714953
 20
1.2610941138
 30
0.0
 10
0.4805201653
 20
1.2611896951
 30
0.0
 10
0.4769277589
 20
1.2613395529
 30
0.0
 10
0.4710526702
 20
1.2615087327
 30
0.0
 10
0.4623849653
 20
1.2616981761
 30
0.0
 10
0.4516206402
 20
1.2618800629
 30
0.0
 10
0.4388591897
 20
1.2620539659
 30
0.0
 10
0.4242178828
 20
1.2622169812
 30
0.0
 10
0.4013420647
 20
1.2624270392
 30
0.0
 10
0.36919212
 20
1.2626434351
 30
0.0
 10
0.3272043199
 20
1.2628300287
 30
0.0
 10
0.2818171703
 20
1.2629450235
 30
0.0
 10
0.2505994884
 20
1.2629707896
 30
0.0
 10
0.2346985257
 20
1.2629707911
 30
0.0
  0
SPLINE
  5
3A0
100
AcDbEntity
  8
0
100
AcDbSpline
 62
253
  6
CONTINUOUS
 70
0
 71
3
 72
9
 73
5
 74
0
 42
0.0000001
 43
0.0000001
 44
0.0000000001
 40
0.0
 40
0.0
 40
0.0
 40
0.0
 40
0.2499804773
 40
1.0
 40
1.0
 40
1.0
 40
1.0
 10
0.7375371516
 20
10.6058917029
 30
0.0
 10
0.7370342246
 20
9.8480313363
 30
0.0
 10
0.7352634281
 20
6.816352969
 30
0.0
 10
0.7344568175
 20
3.7846740386
 30
0.0
 10
0.734393952
 20
1.5108556932
 30
0.0
  0
SPLINE
  5
3A1
100
AcDbEntity
  8
0
100
AcDbSpline
 62
253
  6
CONTINUOUS
 70
0
 71
3
 72
25
 73
21
 74
0
 42
0.0000001
 43
0.0000001
 44
0.0000000001
 40
0.0
 40
0.0
 40
0.0
 40
0.0
 40
0.0012140354
 40
0.0029742433
 40
0.0081752216
 40
0.0156348548
 40
0.0253475097
 40
0.0372960902
 40
0.0514558009
 40
0.0677953521
 40
0.0862785466
 40
0.129502335
 40
0.1807330187
 40
0.2395010534
 40
0.3052667597
 40
0.3774256058
 40
0.4553139093
 40
0.6253661821
 40
0.8091789361
 40
1.0
 40
1.0
 40
1.0
 40
1.0
 10
0.7375371516
 20
10.6058917029
 30
0.0
 10
0.7373594841
 20
10.6059885051
 30
0.0
 10
0.736890286
 20
10.6061590624
 30
0.0
 10
0.7355708632
 20
10.6064962643
 30
0.0
 10
0.7331932862
 20
10.6068770952
 30
0.0
 10
0.729491462
 20
10.6073145788
 30
0.0
 10
0.7246568604
 20
10.6077510226
 30
0.0
 10
0.7187032256
 20
10.608189059
 30
0.0
 10
0.7116421235
 20
10.6086233846
 30
0.0
 10
0.7034901304
 20
10.6090532159
 30
0.0
 10
0.6904967042
 20
10.6096493219
 30
0.0
 10
0.6716877836
 20
10.6103546319
 30
0.0
 10
0.6461637745
 20
10.611128524
 30
0.0
 10
0.6168803613
 20
10.6118578201
 30
0.0
 10
0.5841070845
 20
10.6125351618
 30
0.0
 10
0.54814561
 20
10.6131534649
 30
0.0
 10
0.4948041426
 20
10.613913116
 30
0.0
 10
0.4228529593
 20
10.6146556712
 30
0.0
 10
0.3320787352
 20
10.6152170977
 30
0.0
 10
0.2696434006
 20
10.6153706064
 30
0.0
 10
0.2378417381
 20
10.6153917029
 30
0.0
  0
SPLINE
  5
3A2
100
AcDbEntity
  8
0
100
AcDbSpline
 62
253
  6
CONTINUOUS
 70
0
 71
3
 72
9
 73
5
 74
0
 42
0.0000001
 43
0.0000001
 44
0.0000000001
 40
0.0
 40
0.0
 40
0.0
 40
0.0
 40
0.2499804789
 40
1.0
 40
1.0
 40
1.0
 40
1.0
 10
0.2378417381
 20
10.6153917029
 30
0.0
 10
0.2373389165
 20
9.8569317502
 30
0.0
 10
0.2355686514
 20
6.8228548699
 30
0.0
 10
0.234759448
 20
3.788777428
 30
0.0
 10
0.2346962926
 20
1.5131601563
 30
0.0
  0
SPLINE
  5
3A3
100
AcDbEntity
  8
0
100
AcDbSpline
 62
253
  6
CONTINUOUS
 70
0
 71
3
 72
22
 73
18
 74
0
 42
0.0000001
 43
0.0000001
 44
0.0000000001
 40
0.0
 40
0.0
 40
0.0
 40
0.0
 40
0.0028360232
 40
0.0079644226
 40
0.0153761709
 40
0.0250547224
 40
0.0369782507
 40
0.0511195317
 40
0.0859200058
 40
0.1291362185
 40
0.1803705028
 40
0.2391512841
 40
0.3049374586
 40
0.4550444052
 40
0.6251758293
 40
0.8090804954
 40
1.0
 40
1.0
 40
1.0
 40
1.0
 10
0.734393952
 20
1.5108557007
 30
0.0
 10
0.733925877
 20
1.5109194833
 30
0.0
 10
0.732599268
 20
1.5109925949
 30
0.0
 10
0.7300417852
 20
1.5111057685
 30
0.0
 10
0.7263415172
 20
1.5112095848
 30
0.0
 10
0.7215101637
 20
1.5113201139
 30
0.0
 10
0.7155572023
 20
1.5114282179
 30
0.0
 10
0.7054199996
 20
1.5115830714
 30
0.0
 10
0.6900701106
 20
1.511764406
 30
0.0
 10
0.6685415071
 20
1.5119639527
 30
0.0
 10
0.6430182297
 20
1.5121537938
 30
0.0
 10
0.6137352887
 20
1.5123321815
 30
0.0
 10
0.5679830091
 20
1.5125620219
 30
0.0
 10
0.5036827245
 20
1.5127991133
 30
0.0
 10
0.4197070869
 20
1.5130039378
 30
0.0
 10
0.3289330795
 20
1.5131307249
 30
0.0
 10
0.2664980445
 20
1.5131597124
 30
0.0
 10
0.2346962926
 20
1.5131601569
 30
0.0
  0
SPLINE
  5
3A4
100
AcDbEntity
  8
0
100
AcDbSpline
 62
253
  6
CONTINUOUS
 70
0
 71
3
 72
21
 73
17
 74
0
 42
0.0000001
 43
0.0000001
 44
0.0000000001
 40
0.0
 40
0.0
 40
0.0
 40
0.0
 40
0.0159230697
 40
0.0259128751
 40
0.037567
 40
0.0510167657
 40
0.066333599
 40
0.1026684908
 40
0.1465990664
 40
0.197911077
 40
0.2562502721
 40
0.3211593322
 40
0.4684478632
 40
0.6346995963
 40
0.8140232206
 40
1.0
 40
1.0
 40
1.0
 40
1.0
 10
0.7719000055
 20
22.2482470312
 30
0.0
 10
0.7712860627
 20
22.2509009021
 30
0.0
 10
0.7687935044
 20
22.2548432864
 30
0.0
 10
0.7641100343
 20
22.2592211617
 30
0.0
 10
0.7592182622
 20
22.2627403337
 30
0.0
 10
0.7532313648
 20
22.266210198
 30
0.0
 10
0.7431998637
 20
22.2710682969
 30
0.0
 10
0.7278754994
 20
22.2768508547
 30
0.0
 10
0.7062784478
 20
22.2832325101
 30
0.0
 10
0.6807095764
 20
22.2893197678
 30
0.0
 10
0.6513971583
 20
22.2950544299
 30
0.0
 10
0.6057066694
 20
22.3024625452
 30
0.0
 10
0.5414030749
 20
22.3101991938
 30
0.0
 10
0.457349661
 20
22.317018101
 30
0.0
 10
0.3665095026
 20
22.3214208765
 30
0.0
 10
0.3040192201
 20
22.3226243444
 30
0.0
 10
0.272204592
 20
22.3227881225
 30
0.0
  0
SPLINE
  5
3A5
100
AcDbEntity
  8
0
100
AcDbSpline
 62
7
  6
CONTINUOUS
 70
0
 71
3
 72
15
 73
11
 74
0
 42
0.0000001
 43
0.0000001
 44
0.0000000001
 40
0.0
 40
0.0
 40
0.0
 40
0.0
 40
0.1271211463
 40
0.2538605775
 40
0.3799630544
 40
0.5052845295
 40
0.6298065213
 40
0.7536278365
 40
0.8769405758
 40
1.0
 40
1.0
 40
1.0
 40
1.0
 10
-5.5472002063
 20
0.7791853041
 30
0.0
 10
-5.5471992026
 20
0.7923334635
 30
0.0
 10
-5.5445844764
 20
0.8186644105
 30
0.0
 10
-5.5330066109
 20
0.8564760989
 30
0.0
 10
-5.5143320144
 20
0.8911346423
 30
0.0
 10
-5.4894142006
 20
0.9213072772
 30
0.0
 10
-5.4593204287
 20
0.9459411301
 30
0.0
 10
-5.4252425603
 20
0.9642416316
 30
0.0
 10
-5.3884636943
 20
0.9756658408
 30
0.0
 10
-5.3629545394
 20
0.9784871811
 30
0.0
 10
-5.3502279376
 20
0.9786794968
 30
0.0
  0
SPLINE
  5
3A6
100
AcDbEntity
  8
ASSI
100
AcDbSpline
 62
7
  6
CONTINUOUS
 70
0
 71
3
 72
45
 73
41
 74
0
 42
0.0000001
 43
0.0000001
 44
0.0000000001
 40
0.0
 40
0.0
 40
0.0
 40
0.0
 40
0.0159800263
 40
0.0419434719
 40
0.0682783455
 40
0.0948447219
 40
0.1215630969
 40
0.1483478444
 40
0.1751522857
 40
0.2019457142
 40
0.228695698
 40
0.2553886314
 40
0.2820416357
 40
0.3086789357
 40
0.3353160087
 40
0.361958786
 40
0.3886096488
 40
0.4152713787
 40
0.4419425597
 40
0.4686200246
 40
0.4953020454
 40
0.5219840147
 40
0.5486614908
 40
0.5753330351
 40
0.6019959912
 40
0.6286485027
 40
0.65529237
 40
0.6819289003
 40
0.7085636002
 40
0.7352140491
 40
0.7619073267
 40
0.7886634283
 40
0.8154652435
 40
0.8422715133
 40
0.8690425985
 40
0.8957290971
 40
0.9222514762
 40
0.9485376023
 40
0.9744561284
 40
1.0
 40
1.0
 40
1.0
 40
1.0
 10
-11.3136682207
 20
-12.7058321555
 30
0.0
 10
-11.3110728128
 20
-12.7015907193
 30
0.0
 10
-11.3039631754
 20
-12.6906372294
 30
0.0
 10
-11.2912045808
 20
-12.6736271247
 30
0.0
 10
-11.2748831221
 20
-12.6552722687
 30
0.0
 10
-11.2569323114
 20
-12.6381663098
 30
0.0
 10
-11.2375265195
 20
-12.6225064663
 30
0.0
 10
-11.216838692
 20
-12.6084519193
 30
0.0
 10
-11.1950416685
 20
-12.5961392653
 30
0.0
 10
-11.1723059767
 20
-12.5856863763
 30
0.0
 10
-11.1488167056
 20
-12.5771615307
 30
0.0
 10
-11.124744474
 20
-12.570620371
 30
0.0
 10
-11.1002435977
 20
-12.566122004
 30
0.0
 10
-11.0754707164
 20
-12.5636850097
 30
0.0
 10
-11.0505846399
 20
-12.563303574
 30
0.0
 10
-11.025747836
 20
-12.5649851227
 30
0.0
 10
-11.0011299152
 20
-12.5687305695
 30
0.0
 10
-10.9768971641
 20
-12.5744978486
 30
0.0
 10
-10.9532147301
 20
-12.5822479492
 30
0.0
 10
-10.9302538606
 20
-12.5919456828
 30
0.0
 10
-10.9081737111
 20
-12.603515422
 30
0.0
 10
-10.887122853
 20
-12.61686654
 30
0.0
 10
-10.8672533156
 20
-12.6319149067
 30
0.0
 10
-10.8487104615
 20
-12.6485615164
 30
0.0
 10
-10.8316103568
 20
-12.6666757183
 30
0.0
 10
-10.8160692035
 20
-12.6861334658
 30
0.0
 10
-10.8022069953
 20
-12.7068111842
 30
0.0
 10
-10.7901085734
 20
-12.7285611098
 30
0.0
 10
-10.7798478301
 20
-12.7512384621
 30
0.0
 10
-10.7715078999
 20
-12.7747097061
 30
0.0
 10
-10.7651519098
 20
-12.7988327781
 30
0.0
 10
-10.760805703
 20
-12.8234449867
 30
0.0
 10
-10.7585065626
 20
-12.8483677262
 30
0.0
 10
-10.7582876603
 20
-12.8733999061
 30
0.0
 10
-10.7601306203
 20
-12.8983285697
 30
0.0
 10
-10.763999678
 20
-12.9229345177
 30
0.0
 10
-10.7698407813
 20
-12.9469927695
 30
0.0
 10
-10.7775701317
 20
-12.9702615904
 30
0.0
 10
-10.7870843917
 20
-12.9925263013
 30
0.0
 10
-10.7945873263
 20
-13.0066936349
 30
0.0
 10
-10.7986062574
 20
-13.0135485851
 30
0.0
  0
SPLINE
  5
3A7
100
AcDbEntity
  8
ASSI
100
AcDbSpline
 62
7
  6
CONTINUOUS
 70
0
 71
3
 72
20
 73
16
 74
0
 42
0.0000001
 43
0.0000001
 44
0.0000000001
 40
0.0
 40
0.0
 40
0.0
 40
0.0
 40
0.0754306124
 40
0.1516678317
 40
0.2286071859
 40
0.3059600574
 40
0.3835394505
 40
0.461195063
 40
0.5388578855
 40
0.6164958794
 40
0.6940429321
 40
0.7713615287
 40
0.8482789281
 40
0.924523003
 40
1.0
 40
1.0
 40
1.0
 40
1.0
 10
-8.8486072675
 20
-13.2331668326
 30
0.0
 10
-8.8446369846
 20
-13.239993365
 30
0.0
 10
-8.8372214981
 20
-13.2540578616
 30
0.0
 10
-8.8277992789
 20
-13.276085831
 30
0.0
 10
-8.8201198133
 20
-13.2989945082
 30
0.0
 10
-8.8142715816
 20
-13.3225819511
 30
0.0
 10
-8.8103254796
 20
-13.3466373314
 30
0.0
 10
-8.8083300686
 20
-13.3709655116
 30
0.0
 10
-8.8083301348
 20
-13.3953820769
 30
0.0
 10
-8.8103253352
 20
-13.4197050202
 30
0.0
 10
-8.8142699378
 20
-13.4437516837
 30
0.0
 10
-8.8201152313
 20
-13.4673302739
 30
0.0
 10
-8.8277917097
 20
-13.4902344615
 30
0.0
 10
-8.8372132456
 20
-13.5122663068
 30
0.0
 10
-8.8446307447
 20
-13.5263360473
 30
0.0
 10
-8.8486027766
 20
-13.5331671803
 30
0.0
  0
SPLINE
  5
3A8
100
AcDbEntity
  8
0
100
AcDbSpline
 62
7
  6
CONTINUOUS
 70
0
 71
3
 72
15
 73
11
 74
0
 42
0.0000001
 43
0.0000001
 44
0.0000000001
 40
0.0
 40
0.0
 40
0.0
 40
0.0
 40
0.1271211463
 40
0.2538605775
 40
0.3799630544
 40
0.5052845295
 40
0.6298065213
 40
0.7536278365
 40
0.8769405758
 40
1.0
 40
1.0
 40
1.0
 40
1.0
 10
-14.9196282345
 20
0.7791853041
 30
0.0
 10
-14.9196292382
 20
0.7923334635
 30
0.0
 10
-14.9222439644
 20
0.8186644105
 30
0.0
 10
-14.9338218299
 20
0.8564760989
 30
0.0
 10
-14.9524964264
 20
0.8911346423
 30
0.0
 10
-14.9774142402
 20
0.9213072772
 30
0.0
 10
-15.0075080121
 20
0.9459411301
 30
0.0
 10
-15.0415858805
 20
0.9642416316
 30
0.0
 10
-15.0783647465
 20
0.9756658408
 30
0.0
 10
-15.1038739014
 20
0.9784871811
 30
0.0
 10
-15.1166005032
 20
0.9786794968
 30
0.0
  0
SPLINE
  5
3A9
100
AcDbEntity
  8
0
100
AcDbSpline
 62
253
  6
CONTINUOUS
 70
0
 71
3
 72
22
 73
18
 74
0
 42
0.0000001
 43
0.0000001
 44
0.0000000001
 40
0.0
 40
0.0
 40
0.0
 40
0.0
 40
0.1909195046
 40
0.3748241707
 40
0.5449555948
 40
0.6950625414
 40
0.7608487159
 40
0.8196294971
 40
0.8708637815
 40
0.9140799942
 40
0.9488804683
 40
0.9630217493
 40
0.9749452776
 40
0.9846238291
 40
0.9920355774
 40
0.9971639768
 40
1.0
 40
1.0
 40
1.0
 40
1.0
 10
0.2346962926
 20
0.7176232488
 30
0.0
 10
0.2664980445
 20
0.7176236933
 30
0.0
 10
0.3289330795
 20
0.7176526808
 30
0.0
 10
0.4197070869
 20
0.717779468
 30
0.0
 10
0.5036827245
 20
0.7179842924
 30
0.0
 10
0.5679830091
 20
0.7182213838
 30
0.0
 10
0.6137352887
 20
0.7184512242
 30
0.0
 10
0.6430182297
 20
0.718629612
 30
0.0
 10
0.6685415071
 20
0.7188194531
 30
0.0
 10
0.6900701106
 20
0.7190189997
 30
0.0
 10
0.7054199996
 20
0.7192003343
 30
0.0
 10
0.7155572023
 20
0.7193551878
 30
0.0
 10
0.7215101637
 20
0.7194632918
 30
0.0
 10
0.7263415172
 20
0.7195738209
 30
0.0
 10
0.7300417852
 20
0.7196776372
 30
0.0
 10
0.732599268
 20
0.7197908108
 30
0.0
 10
0.733925877
 20
0.7198639224
 30
0.0
 10
0.734393952
 20
0.719927705
 30
0.0
  0
SPLINE
  5
3AA
100
AcDbEntity
  8
0
100
AcDbSpline
 62
253
  6
CONTINUOUS
 70
0
 71
3
 72
25
 73
21
 74
0
 42
0.0000001
 43
0.0000001
 44
0.0000000001
 40
0.0
 40
0.0
 40
0.0
 40
0.0
 40
0.0012140354
 40
0.0029742433
 40
0.0081752216
 40
0.0156348548
 40
0.0253475097
 40
0.0372960902
 40
0.051455801
 40
0.0677953521
 40
0.0862785467
 40
0.129502335
 40
0.1807330188
 40
0.2395010534
 40
0.3052667598
 40
0.3774256059
 40
0.4553139094
 40
0.6253661822
 40
0.8091789361
 40
1.0
 40
1.0
 40
1.0
 40
1.0
 10
0.7375371516
 20
-8.3751082971
 30
0.0
 10
0.7373594841
 20
-8.3752050994
 30
0.0
 10
0.736890286
 20
-8.3753756567
 30
0.0
 10
0.7355708631
 20
-8.3757128586
 30
0.0
 10
0.7331932862
 20
-8.3760936895
 30
0.0
 10
0.729491462
 20
-8.3765311731
 30
0.0
 10
0.7246568604
 20
-8.3769676169
 30
0.0
 10
0.7187032256
 20
-8.3774056533
 30
0.0
 10
0.7116421235
 20
-8.3778399789
 30
0.0
 10
0.7034901304
 20
-8.3782698102
 30
0.0
 10
0.6904967042
 20
-8.3788659162
 30
0.0
 10
0.6716877836
 20
-8.3795712262
 30
0.0
 10
0.6461637745
 20
-8.3803451183
 30
0.0
 10
0.6168803612
 20
-8.3810744144
 30
0.0
 10
0.5841070845
 20
-8.381751756
 30
0.0
 10
0.54814561
 20
-8.3823700592
 30
0.0
 10
0.4948041426
 20
-8.3831297103
 30
0.0
 10
0.4228529592
 20
-8.3838722655
 30
0.0
 10
0.3320787352
 20
-8.384433692
 30
0.0
 10
0.2696434006
 20
-8.3845872007
 30
0.0
 10
0.2378417381
 20
-8.3846082971
 30
0.0
  0
SPLINE
  5
3AB
100
AcDbEntity
  8
0
100
AcDbSpline
 62
253
  6
CONTINUOUS
 70
0
 71
3
 72
21
 73
17
 74
0
 42
0.0000001
 43
0.0000001
 44
0.0000000001
 40
0.0
 40
0.0
 40
0.0
 40
0.0
 40
0.0159230702
 40
0.025912876
 40
0.0375670013
 40
0.0510167674
 40
0.066333601
 40
0.1026684936
 40
0.1465990698
 40
0.1979110808
 40
0.2562502761
 40
0.3211593363
 40
0.468447867
 40
0.6346995992
 40
0.8140232221
 40
1.0
 40
1.0
 40
1.0
 40
1.0
 10
0.7719000055
 20
-20.0174636255
 30
0.0
 10
0.7712860624
 20
-20.0201174964
 30
0.0
 10
0.7687935037
 20
-20.0240598806
 30
0.0
 10
0.7641100333
 20
-20.0284377559
 30
0.0
 10
0.759218261
 20
-20.0319569279
 30
0.0
 10
0.7532313633
 20
-20.0354267921
 30
0.0
 10
0.7431998619
 20
-20.0402848909
 30
0.0
 10
0.7278754973
 20
-20.0460674486
 30
0.0
 10
0.7062784455
 20
-20.0524491039
 30
0.0
 10
0.6807095739
 20
-20.0585363616
 30
0.0
 10
0.6513971557
 20
-20.0642710236
 30
0.0
 10
0.6057066668
 20
-20.0716791387
 30
0.0
 10
0.5414030726
 20
-20.0794157871
 30
0.0
 10
0.4573496593
 20
-20.0862346941
 30
0.0
 10
0.3665095016
 20
-20.0906374696
 30
0.0
 10
0.3040192198
 20
-20.0918409374
 30
0.0
 10
0.272204592
 20
-20.0920047155
 30
0.0
  0
SPLINE
  5
3AC
100
AcDbEntity
  8
0
100
AcDbSpline
 62
253
  6
CONTINUOUS
 70
0
 71
3
 72
23
 73
19
 74
0
 42
0.0000001
 43
0.0000001
 44
0.0000000001
 40
0.0
 40
0.0
 40
0.0
 40
0.0
 40
0.1955416101
 40
0.3802499667
 40
0.5487316301
 40
0.6253283939
 40
0.6960700574
 40
0.760440099
 40
0.8179688399
 40
0.8682369898
 40
0.9108790255
 40
0.9455864745
 40
0.9598850287
 40
0.9721119907
 40
0.9822472348
 40
0.9902757563
 40
0.9961904351
 40
1.0
 40
1.0
 40
1.0
 40
1.0
 10
0.272204592
 20
-20.0920047167
 30
0.0
 10
0.2723503991
 20
-20.147404327
 30
0.0
 10
0.2727942084
 20
-20.2551340115
 30
0.0
 10
0.2739427881
 20
-20.4105937486
 30
0.0
 10
0.2752986691
 20
-20.5323515076
 30
0.0
 10
0.2766210274
 20
-20.621818284
 30
0.0
 10
0.2776729331
 20
-20.6817892573
 30
0.0
 10
0.2788079401
 20
-20.7363554359
 30
0.0
 10
0.2800170514
 20
-20.7851180032
 30
0.0
 10
0.2812889352
 20
-20.827720862
 30
0.0
 10
0.2826133425
 20
-20.863852762
 30
0.0
 10
0.2838090141
 20
-20.8897913524
 30
0.0
 10
0.2848193752
 20
-20.907110168
 30
0.0
 10
0.28553232
 20
-20.9174728162
 30
0.0
 10
0.2862496446
 20
-20.9260524365
 30
0.0
 10
0.2869583166
 20
-20.9328406421
 30
0.0
 10
0.2876692636
 20
-20.937815749
 30
0.0
 10
0.2882149716
 20
-20.9405280732
 30
0.0
 10
0.2885560477
 20
-20.9415520691
 30
0.0
  0
SPLINE
  5
3AD
100
AcDbEntity
  8
0
100
AcDbSpline
 62
253
  6
CONTINUOUS
 70
0
 71
3
 72
23
 73
19
 74
0
 42
0.0000001
 43
0.0000001
 44
0.0000000001
 40
0.0
 40
0.0
 40
0.0
 40
0.0
 40
0.1953196169
 40
0.379817207
 40
0.5481096247
 40
0.624624742
 40
0.6952966751
 40
0.7596120635
 40
0.8171050765
 40
0.8673612803
 40
0.9100217139
 40
0.9447877971
 40
0.9591361173
 40
0.9714307945
 40
0.981657553
 40
0.9898115446
 40
0.995905968
 40
1.0
 40
1.0
 40
1.0
 40
1.0
 10
0.7719000055
 20
-20.0174636255
 30
0.0
 10
0.7720458803
 20
-20.0451697912
 30
0.0
 10
0.7724897876
 20
-20.0990463591
 30
0.0
 10
0.7736387433
 20
-20.176789061
 30
0.0
 10
0.774994982
 20
-20.2376727395
 30
0.0
 10
0.7763175488
 20
-20.2824048825
 30
0.0
 10
0.7773695963
 20
-20.312388729
 30
0.0
 10
0.7785047213
 20
-20.3396691555
 30
0.0
 10
0.7797139178
 20
-20.3640472444
 30
0.0
 10
0.7809859525
 20
-20.3853458176
 30
0.0
 10
0.7823104946
 20
-20.4034098989
 30
0.0
 10
0.7835064056
 20
-20.416375029
 30
0.0
 10
0.7845161033
 20
-20.425027614
 30
0.0
 10
0.7852297933
 20
-20.4302096506
 30
0.0
 10
0.7859467044
 20
-20.4345012719
 30
0.0
 10
0.786660815
 20
-20.4379033826
 30
0.0
 10
0.7873706446
 20
-20.440402902
 30
0.0
 10
0.7879294559
 20
-20.4417539995
 30
0.0
 10
0.7882514612
 20
-20.4422373017
 30
0.0
  0
SPLINE
  5
3AE
100
AcDbEntity
  8
0
100
AcDbSpline
 62
253
  6
CONTINUOUS
 70
0
 71
3
 72
15
 73
11
 74
0
 42
0.0000001
 43
0.0000001
 44
0.0000000001
 40
0.0
 40
0.0
 40
0.0
 40
0.0
 40
0.124902422
 40
0.2498533826
 40
0.3748487096
 40
0.499878145
 40
0.6249261152
 40
0.7499742381
 40
0.875004254
 40
1.0
 40
1.0
 40
1.0
 40
1.0
 10
0.7882514612
 20
-20.4422373017
 30
0.0
 10
0.7881918796
 20
-20.4748331356
 30
0.0
 10
0.7816413289
 20
-20.5402058031
 30
0.0
 10
0.7529131167
 20
-20.6343437075
 30
0.0
 10
0.7063834348
 20
-20.7211528291
 30
0.0
 10
0.6438362418
 20
-20.7972572861
 30
0.0
 10
0.5676728027
 20
-20.8597539083
 30
0.0
 10
0.4807991939
 20
-20.9062444916
 30
0.0
 10
0.3865935335
 20
-20.9349478627
 30
0.0
 10
0.3211762365
 20
-20.9414925337
 30
0.0
 10
0.2885560477
 20
-20.9415520691
 30
0.0
  0
SPLINE
  5
3AF
100
AcDbEntity
  8
0
100
AcDbSpline
 62
253
  6
CONTINUOUS
 70
0
 71
3
 72
9
 73
5
 74
0
 42
0.0000001
 43
0.0000001
 44
0.0000000001
 40
0.0
 40
0.0
 40
0.0
 40
0.0
 40
0.2499804773
 40
1.0
 40
1.0
 40
1.0
 40
1.0
 10
-21.2043655925
 20
-8.3751082971
 30
0.0
 10
-21.2038626654
 20
-7.6172479306
 30
0.0
 10
-21.2020918689
 20
-4.5855695633
 30
0.0
 10
-21.2012852584
 20
-1.5538906329
 30
0.0
 10
-21.2012223928
 20
0.7199277125
 30
0.0
  0
SPLINE
  5
3B0
100
AcDbEntity
  8
0
100
AcDbSpline
 62
253
  6
CONTINUOUS
 70
0
 71
3
 72
25
 73
21
 74
0
 42
0.0000001
 43
0.0000001
 44
0.0000000001
 40
0.0
 40
0.0
 40
0.0
 40
0.0
 40
0.0012140354
 40
0.0029742433
 40
0.0081752216
 40
0.0156348548
 40
0.0253475097
 40
0.0372960902
 40
0.0514558009
 40
0.0677953521
 40
0.0862785466
 40
0.129502335
 40
0.1807330187
 40
0.2395010534
 40
0.3052667597
 40
0.3774256058
 40
0.4553139093
 40
0.6253661821
 40
0.8091789361
 40
1.0
 40
1.0
 40
1.0
 40
1.0
 10
-21.2043655925
 20
-8.3751082971
 30
0.0
 10
-21.2041879249
 20
-8.3752050994
 30
0.0
 10
-21.2037187268
 20
-8.3753756567
 30
0.0
 10
-21.202399304
 20
-8.3757128586
 30
0.0
 10
-21.200021727
 20
-8.3760936895
 30
0.0
 10
-21.1963199029
 20
-8.3765311731
 30
0.0
 10
-21.1914853012
 20
-8.3769676169
 30
0.0
 10
-21.1855316664
 20
-8.3774056533
 30
0.0
 10
-21.1784705643
 20
-8.3778399789
 30
0.0
 10
-21.1703185712
 20
-8.3782698102
 30
0.0
 10
-21.157325145
 20
-8.3788659162
 30
0.0
 10
-21.1385162245
 20
-8.3795712262
 30
0.0
 10
-21.1129922153
 20
-8.3803451183
 30
0.0
 10
-21.0837088021
 20
-8.3810744144
 30
0.0
 10
-21.0509355253
 20
-8.381751756
 30
0.0
 10
-21.0149740508
 20
-8.3823700592
 30
0.0
 10
-20.9616325834
 20
-8.3831297103
 30
0.0
 10
-20.8896814001
 20
-8.3838722655
 30
0.0
 10
-20.7989071761
 20
-8.384433692
 30
0.0
 10
-20.7364718414
 20
-8.3845872007
 30
0.0
 10
-20.7046701789
 20
-8.3846082971
 30
0.0
  0
SPLINE
  5
3B1
100
AcDbEntity
  8
0
100
AcDbSpline
 62
253
  6
CONTINUOUS
 70
0
 71
3
 72
9
 73
5
 74
0
 42
0.0000001
 43
0.0000001
 44
0.0000000001
 40
0.0
 40
0.0
 40
0.0
 40
0.0
 40
0.2499804789
 40
1.0
 40
1.0
 40
1.0
 40
1.0
 10
-20.7046701789
 20
-8.3846082971
 30
0.0
 10
-20.7041673573
 20
-7.6261483444
 30
0.0
 10
-20.7023970922
 20
-4.5920714642
 30
0.0
 10
-20.7015878888
 20
-1.5579940223
 30
0.0
 10
-20.7015247334
 20
0.7176232494
 30
0.0
  0
SPLINE
  5
3B2
100
AcDbEntity
  8
0
100
AcDbSpline
 62
253
  6
CONTINUOUS
 70
0
 71
3
 72
22
 73
18
 74
0
 42
0.0000001
 43
0.0000001
 44
0.0000000001
 40
0.0
 40
0.0
 40
0.0
 40
0.0
 40
0.0028360232
 40
0.0079644226
 40
0.0153761709
 40
0.0250547224
 40
0.0369782507
 40
0.0511195317
 40
0.0859200058
 40
0.1291362185
 40
0.1803705028
 40
0.2391512841
 40
0.3049374586
 40
0.4550444052
 40
0.6251758293
 40
0.8090804954
 40
1.0
 40
1.0
 40
1.0
 40
1.0
 10
-21.2012223928
 20
0.719927705
 30
0.0
 10
-21.2007543178
 20
0.7198639224
 30
0.0
 10
-21.1994277089
 20
0.7197908108
 30
0.0
 10
-21.196870226
 20
0.7196776372
 30
0.0
 10
-21.193169958
 20
0.7195738209
 30
0.0
 10
-21.1883386045
 20
0.7194632918
 30
0.0
 10
-21.1823856431
 20
0.7193551878
 30
0.0
 10
-21.1722484404
 20
0.7192003343
 30
0.0
 10
-21.1568985514
 20
0.7190189997
 30
0.0
 10
-21.1353699479
 20
0.7188194531
 30
0.0
 10
-21.1098466705
 20
0.718629612
 30
0.0
 10
-21.0805637295
 20
0.7184512242
 30
0.0
 10
-21.03481145
 20
0.7182213838
 30
0.0
 10
-20.9705111653
 20
0.7179842924
 30
0.0
 10
-20.8865355277
 20
0.717779468
 30
0.0
 10
-20.7957615204
 20
0.7176526808
 30
0.0
 10
-20.7333264854
 20
0.7176236933
 30
0.0
 10
-20.7015247334
 20
0.7176232488
 30
0.0
  0
SPLINE
  5
3B3
100
AcDbEntity
  8
0
100
AcDbSpline
 62
253
  6
CONTINUOUS
 70
0
 71
3
 72
21
 73
17
 74
0
 42
0.0000001
 43
0.0000001
 44
0.0000000001
 40
0.0
 40
0.0
 40
0.0
 40
0.0
 40
0.0159230697
 40
0.0259128751
 40
0.037567
 40
0.0510167657
 40
0.066333599
 40
0.1026684908
 40
0.1465990664
 40
0.197911077
 40
0.2562502721
 40
0.3211593322
 40
0.4684478632
 40
0.6346995963
 40
0.8140232206
 40
1.0
 40
1.0
 40
1.0
 40
1.0
 10
-21.2387284463
 20
-20.0174636255
 30
0.0
 10
-21.2381145035
 20
-20.0201174964
 30
0.0
 10
-21.2356219452
 20
-20.0240598807
 30
0.0
 10
-21.2309384751
 20
-20.028437756
 30
0.0
 10
-21.226046703
 20
-20.031956928
 30
0.0
 10
-21.2200598056
 20
-20.0354267923
 30
0.0
 10
-21.2100283045
 20
-20.0402848911
 30
0.0
 10
-21.1947039402
 20
-20.046067449
 30
0.0
 10
-21.1731068886
 20
-20.0524491043
 30
0.0
 10
-21.1475380172
 20
-20.0585363621
 30
0.0
 10
-21.1182255992
 20
-20.0642710242
 30
0.0
 10
-21.0725351102
 20
-20.0716791395
 30
0.0
 10
-21.0082315157
 20
-20.0794157881
 30
0.0
 10
-20.9241781018
 20
-20.0862346953
 30
0.0
 10
-20.8333379434
 20
-20.0906374708
 30
0.0
 10
-20.7708476609
 20
-20.0918409387
 30
0.0
 10
-20.7390330328
 20
-20.0920047167
 30
0.0
  0
SPLINE
  5
3B4
100
AcDbEntity
  8
0
100
AcDbSpline
 62
253
  6
CONTINUOUS
 70
0
 71
3
 72
15
 73
11
 74
0
 42
0.0000001
 43
0.0000001
 44
0.0000000001
 40
0.0
 40
0.0
 40
0.0
 40
0.0
 40
0.124902422
 40
0.2498533826
 40
0.3748487096
 40
0.499878145
 40
0.6249261152
 40
0.7499742381
 40
0.875004254
 40
1.0
 40
1.0
 40
1.0
 40
1.0
 10
-21.255079902
 20
-20.4422373017
 30
0.0
 10
-21.2550203204
 20
-20.4748331356
 30
0.0
 10
-21.2484697697
 20
-20.5402058031
 30
0.0
 10
-21.2197415575
 20
-20.6343437075
 30
0.0
 10
-21.1732118757
 20
-20.721152829
 30
0.0
 10
-21.1106646826
 20
-20.7972572861
 30
0.0
 10
-21.0345012435
 20
-20.8597539083
 30
0.0
 10
-20.9476276347
 20
-20.9062444916
 30
0.0
 10
-20.8534219743
 20
-20.9349478627
 30
0.0
 10
-20.7880046773
 20
-20.9414925337
 30
0.0
 10
-20.7553844885
 20
-20.9415520691
 30
0.0
  0
SPLINE
  5
3B5
100
AcDbEntity
  8
0
100
AcDbSpline
 62
253
  6
CONTINUOUS
 70
0
 71
3
 72
23
 73
19
 74
0
 42
0.0000001
 43
0.0000001
 44
0.0000000001
 40
0.0
 40
0.0
 40
0.0
 40
0.0
 40
0.0038095649
 40
0.0097242437
 40
0.0177527652
 40
0.0278880093
 40
0.0401149713
 40
0.0544135255
 40
0.0891209745
 40
0.1317630102
 40
0.1820311601
 40
0.239559901
 40
0.3039299426
 40
0.3746716061
 40
0.4512683699
 40
0.6197500333
 40
0.8044583899
 40
1.0
 40
1.0
 40
1.0
 40
1.0
 10
-20.7553844885
 20
-20.9415520691
 30
0.0
 10
-20.7550434124
 20
-20.9405280732
 30
0.0
 10
-20.7544977044
 20
-20.937815749
 30
0.0
 10
-20.7537867574
 20
-20.9328406421
 30
0.0
 10
-20.7530780854
 20
-20.9260524365
 30
0.0
 10
-20.7523607609
 20
-20.9174728162
 30
0.0
 10
-20.751647816
 20
-20.907110168
 30
0.0
 10
-20.7506374549
 20
-20.8897913524
 30
0.0
 10
-20.7494417833
 20
-20.863852762
 30
0.0
 10
-20.7481173761
 20
-20.827720862
 30
0.0
 10
-20.7468454922
 20
-20.7851180032
 30
0.0
 10
-20.7456363809
 20
-20.7363554359
 30
0.0
 10
-20.7445013739
 20
-20.6817892573
 30
0.0
 10
-20.7434494683
 20
-20.621818284
 30
0.0
 10
-20.7421271099
 20
-20.5323515076
 30
0.0
 10
-20.7407712289
 20
-20.4105937486
 30
0.0
 10
-20.7396226492
 20
-20.2551340115
 30
0.0
 10
-20.7391788399
 20
-20.147404327
 30
0.0
 10
-20.7390330328
 20
-20.0920047167
 30
0.0
  0
SPLINE
  5
3B6
100
AcDbEntity
  8
0
100
AcDbSpline
 62
253
  6
CONTINUOUS
 70
0
 71
3
 72
23
 73
19
 74
0
 42
0.0000001
 43
0.0000001
 44
0.0000000001
 40
0.0
 40
0.0
 40
0.0
 40
0.0
 40
0.004094032
 40
0.0101884554
 40
0.018342447
 40
0.0285692055
 40
0.0408638827
 40
0.0552122029
 40
0.0899782861
 40
0.1326387197
 40
0.1828949235
 40
0.2403879365
 40
0.3047033249
 40
0.375375258
 40
0.4518903753
 40
0.620182793
 40
0.8046803831
 40
1.0
 40
1.0
 40
1.0
 40
1.0
 10
-21.255079902
 20
-20.4422373017
 30
0.0
 10
-21.2547578967
 20
-20.4417539995
 30
0.0
 10
-21.2541990854
 20
-20.440402902
 30
0.0
 10
-21.2534892558
 20
-20.4379033826
 30
0.0
 10
-21.2527751452
 20
-20.4345012719
 30
0.0
 10
-21.2520582341
 20
-20.4302096506
 30
0.0
 10
-21.2513445441
 20
-20.425027614
 30
0.0
 10
-21.2503348464
 20
-20.416375029
 30
0.0
 10
-21.2491389355
 20
-20.4034098989
 30
0.0
 10
-21.2478143934
 20
-20.3853458176
 30
0.0
 10
-21.2465423586
 20
-20.3640472444
 30
0.0
 10
-21.2453331621
 20
-20.3396691555
 30
0.0
 10
-21.2441980371
 20
-20.312388729
 30
0.0
 10
-21.2431459896
 20
-20.2824048825
 30
0.0
 10
-21.2418234228
 20
-20.2376727395
 30
0.0
 10
-21.2404671841
 20
-20.176789061
 30
0.0
 10
-21.2393182284
 20
-20.0990463591
 30
0.0
 10
-21.2388743211
 20
-20.0451697912
 30
0.0
 10
-21.2387284463
 20
-20.0174636255
 30
0.0
  0
SPLINE
  5
3B7
100
AcDbEntity
  8
0
100
AcDbSpline
 62
253
  6
CONTINUOUS
 70
0
 71
3
 72
22
 73
18
 74
0
 42
0.0000001
 43
0.0000001
 44
0.0000000001
 40
0.0
 40
0.0
 40
0.0
 40
0.0
 40
0.1940279989
 40
0.3806795082
 40
0.5528644564
 40
0.704038141
 40
0.7699127233
 40
0.828454676
 40
0.879106537
 40
0.9213859762
 40
0.9548904006
 40
0.9682490749
 40
0.9793007457
 40
0.9880194317
 40
0.9943847324
 40
0.9983807966
 40
1.0
 40
1.0
 40
1.0
 40
1.0
 10
-5.3354143918
 20
0.3170458821
 30
0.0
 10
-5.3483491675
 20
0.3170460623
 30
0.0
 10
-5.3737269694
 20
0.3170503117
 30
0.0
 10
-5.4105833874
 20
0.3170682066
 30
0.0
 10
-5.4445829376
 20
0.3170968514
 30
0.0
 10
-5.4705309472
 20
0.3171298793
 30
0.0
 10
-5.488903
 20
0.3171618379
 30
0.0
 10
-5.5005738143
 20
0.3171865684
 30
0.0
 10
-5.5106716773
 20
0.3172127231
 30
0.0
 10
-5.5191003745
 20
0.3172404144
 30
0.0
 10
-5.5250430362
 20
0.3172649186
 30
0.0
 10
-5.5289037252
 20
0.3172870324
 30
0.0
 10
-5.5311124423
 20
0.3173002889
 30
0.0
 10
-5.5328540766
 20
0.3173193646
 30
0.0
 10
-5.5341274155
 20
0.3173239665
 30
0.0
 10
-5.5349232576
 20
0.3173561295
 30
0.0
 10
-5.5353006324
 20
0.3173457918
 30
0.0
 10
-5.5354068129
 20
0.3173652204
 30
0.0
  0
SPLINE
  5
3B8
100
AcDbEntity
  8
0
100
AcDbSpline
 62
253
  6
CONTINUOUS
 70
0
 71
3
 72
22
 73
18
 74
0
 42
0.0000001
 43
0.0000001
 44
0.0000000001
 40
0.0
 40
0.0
 40
0.0
 40
0.0
 40
0.1939603484
 40
0.3805718694
 40
0.5527352364
 40
0.7039014889
 40
0.7697766006
 40
0.8283214137
 40
0.8789782191
 40
0.9212646913
 40
0.9547787324
 40
0.9681431699
 40
0.9792028394
 40
0.9879313266
 40
0.9943101698
 40
0.9983276824
 40
1.0
 40
1.0
 40
1.0
 40
1.0
 10
-14.9314258441
 20
0.717782357
 30
0.0
 10
-14.9314258661
 20
0.7210179656
 30
0.0
 10
-14.9314205808
 20
0.7273665924
 30
0.0
 10
-14.9313968702
 20
0.7365871877
 30
0.0
 10
-14.9313583957
 20
0.7450938457
 30
0.0
 10
-14.9313137666
 20
0.7515863361
 30
0.0
 10
-14.9312704349
 20
0.7561834147
 30
0.0
 10
-14.931236873
 20
0.7591038061
 30
0.0
 10
-14.9312012651
 20
0.7616306959
 30
0.0
 10
-14.9311637151
 20
0.7637397849
 30
0.0
 10
-14.9311299971
 20
0.7652271222
 30
0.0
 10
-14.9311003606
 20
0.7661927664
 30
0.0
 10
-14.9310811631
 20
0.7667463752
 30
0.0
 10
-14.9310580532
 20
0.7671799753
 30
0.0
 10
-14.9310449199
 20
0.7675041544
 30
0.0
 10
-14.9310136395
 20
0.7676938599
 30
0.0
 10
-14.9310130158
 20
0.7678004846
 30
0.0
 10
-14.9309933086
 20
0.76782023
 30
0.0
  0
LINE
  5
3B9
100
AcDbEntity
  8
0
100
AcDbLine
 62
253
  6
CONTINUOUS
 10
-14.9314216644
 20
0.3173670772
 11
-14.9314258441
 21
0.717782357
  0
SPLINE
  5
3BA
100
AcDbEntity
  8
0
100
AcDbSpline
 62
253
  6
CONTINUOUS
 70
0
 71
3
 72
22
 73
18
 74
0
 42
0.0000001
 43
0.0000001
 44
0.0000000001
 40
0.0
 40
0.0
 40
0.0
 40
0.0
 40
0.0016723176
 40
0.0056898302
 40
0.0120686734
 40
0.0207971606
 40
0.0318568301
 40
0.0452212676
 40
0.0787353087
 40
0.1210217809
 40
0.1716785863
 40
0.2302233994
 40
0.2960985111
 40
0.4472647636
 40
0.6194281306
 40
0.8060396516
 40
1.0
 40
1.0
 40
1.0
 40
1.0
 10
-5.5358351322
 20
0.76782023
 30
0.0
 10
-5.535815425
 20
0.7678004846
 30
0.0
 10
-5.5358148013
 20
0.7676938599
 30
0.0
 10
-5.5357835209
 20
0.7675041544
 30
0.0
 10
-5.5357703876
 20
0.7671799753
 30
0.0
 10
-5.5357472777
 20
0.7667463752
 30
0.0
 10
-5.5357280803
 20
0.7661927664
 30
0.0
 10
-5.5356984438
 20
0.7652271222
 30
0.0
 10
-5.5356647257
 20
0.7637397849
 30
0.0
 10
-5.5356271757
 20
0.7616306959
 30
0.0
 10
-5.5355915678
 20
0.7591038061
 30
0.0
 10
-5.5355580059
 20
0.7561834147
 30
0.0
 10
-5.5355146742
 20
0.7515863361
 30
0.0
 10
-5.5354700451
 20
0.7450938457
 30
0.0
 10
-5.5354315706
 20
0.7365871877
 30
0.0
 10
-5.53540786
 20
0.7273665924
 30
0.0
 10
-5.5354025747
 20
0.7210179656
 30
0.0
 10
-5.5354025967
 20
0.717782357
 30
0.0
  0
SPLINE
  5
3BB
100
AcDbEntity
  8
0
100
AcDbSpline
 62
253
  6
CONTINUOUS
 70
0
 71
3
 72
23
 73
19
 74
0
 42
0.0000001
 43
0.0000001
 44
0.0000000001
 40
0.0
 40
0.0
 40
0.0
 40
0.0
 40
0.1939854716
 40
0.3806213949
 40
0.5528073597
 40
0.6314060534
 40
0.7039927143
 40
0.7698753266
 40
0.8284257925
 40
0.8790859219
 40
0.9213727571
 40
0.9548831853
 40
0.9682438382
 40
0.9792978104
 40
0.9880178537
 40
0.9943840956
 40
0.9983805793
 40
1.0
 40
1.0
 40
1.0
 40
1.0
 10
-15.1314182289
 20
0.7176215958
 30
0.0
 10
-15.1314182484
 20
0.7337995025
 30
0.0
 10
-15.1314129759
 20
0.7655423822
 30
0.0
 10
-15.1313892408
 20
0.8116451383
 30
0.0
 10
-15.1313563087
 20
0.8481249152
 30
0.0
 10
-15.1313219586
 20
0.875093259
 30
0.0
 10
-15.1312938125
 20
0.8931961664
 30
0.0
 10
-15.1312628208
 20
0.9096270963
 30
0.0
 10
-15.1312292444
 20
0.9242293917
 30
0.0
 10
-15.1311936857
 20
0.9368638678
 30
0.0
 10
-15.1311559884
 20
0.9474099897
 30
0.0
 10
-15.1311226087
 20
0.9548455692
 30
0.0
 10
-15.1310924486
 20
0.959676124
 30
0.0
 10
-15.131074349
 20
0.9624397507
 30
0.0
 10
-15.1310483513
 20
0.9646187664
 30
0.0
 10
-15.1310419978
 20
0.966212263
 30
0.0
 10
-15.1309982222
 20
0.967207339
 30
0.0
 10
-15.1310121441
 20
0.96768019
 30
0.0
 10
-15.1309856903
 20
0.9678126295
 30
0.0
  0
SPLINE
  5
3BC
100
AcDbEntity
  8
0
100
AcDbSpline
 62
253
  6
CONTINUOUS
 70
0
 71
3
 72
23
 73
19
 74
0
 42
0.0000001
 43
0.0000001
 44
0.0000000001
 40
0.0
 40
0.0
 40
0.0
 40
0.0
 40
0.0016194207
 40
0.0056159044
 40
0.0119821463
 40
0.0207021896
 40
0.0317561618
 40
0.0451168147
 40
0.0786272429
 40
0.1209140781
 40
0.1715742075
 40
0.2301246734
 40
0.2960072857
 40
0.3685939466
 40
0.4471926403
 40
0.6193786051
 40
0.8060145284
 40
1.0
 40
1.0
 40
1.0
 40
1.0
 10
-5.3358427506
 20
0.9678126295
 30
0.0
 10
-5.3358162967
 20
0.96768019
 30
0.0
 10
-5.3358302186
 20
0.967207339
 30
0.0
 10
-5.335786443
 20
0.966212263
 30
0.0
 10
-5.3357800895
 20
0.9646187664
 30
0.0
 10
-5.3357540918
 20
0.9624397507
 30
0.0
 10
-5.3357359923
 20
0.959676124
 30
0.0
 10
-5.3357058321
 20
0.9548455692
 30
0.0
 10
-5.3356724524
 20
0.9474099897
 30
0.0
 10
-5.3356347551
 20
0.9368638678
 30
0.0
 10
-5.3355991964
 20
0.9242293917
 30
0.0
 10
-5.33556562
 20
0.9096270963
 30
0.0
 10
-5.3355346283
 20
0.8931961664
 30
0.0
 10
-5.3355064823
 20
0.875093259
 30
0.0
 10
-5.3354721321
 20
0.8481249152
 30
0.0
 10
-5.3354392
 20
0.8116451383
 30
0.0
 10
-5.335415465
 20
0.7655423822
 30
0.0
 10
-5.3354101924
 20
0.7337995025
 30
0.0
 10
-5.335410212
 20
0.7176215958
 30
0.0
  0
LINE
  5
3BD
100
AcDbEntity
  8
0
100
AcDbLine
 62
253
  6
CONTINUOUS
 10
-5.5354025967
 20
0.717782357
 11
-5.5354067764
 21
0.317367262
  0
SPLINE
  5
3BE
100
AcDbEntity
  8
0
100
AcDbSpline
 62
253
  6
CONTINUOUS
 70
0
 71
3
 72
21
 73
17
 74
0
 42
0.0000001
 43
0.0000001
 44
0.0000000001
 40
0.0
 40
0.0
 40
0.0
 40
0.0
 40
0.1909062916
 40
0.3747981057
 40
0.5449176683
 40
0.695014735
 40
0.7607971589
 40
0.8195752769
 40
0.8708082835
 40
0.9140249969
 40
0.9488283683
 40
0.9748994784
 40
0.9845833217
 40
0.9920026167
 40
0.9971424709
 40
1.0
 40
1.0
 40
1.0
 40
1.0
 10
0.2346985257
 20
0.9678126146
 30
0.0
 10
0.2505994884
 20
0.9678126161
 30
0.0
 10
0.2818171703
 20
0.9678383822
 30
0.0
 10
0.3272043199
 20
0.9679533771
 30
0.0
 10
0.36919212
 20
0.9681399706
 30
0.0
 10
0.4013420647
 20
0.9683563665
 30
0.0
 10
0.4242178828
 20
0.9685664245
 30
0.0
 10
0.4388591897
 20
0.9687294398
 30
0.0
 10
0.4516206402
 20
0.9689033428
 30
0.0
 10
0.4623849653
 20
0.9690852296
 30
0.0
 10
0.4710526702
 20
0.9692746731
 30
0.0
 10
0.4769277589
 20
0.9694438528
 30
0.0
 10
0.4805201653
 20
0.9695937106
 30
0.0
 10
0.4823714953
 20
0.969689292
 30
0.0
 10
0.4836494703
 20
0.9697923414
 30
0.0
 10
0.4843152679
 20
0.9698604866
 30
0.0
 10
0.4845461796
 20
0.9699181769
 30
0.0
  0
SPLINE
  5
3BF
100
AcDbEntity
  8
0
100
AcDbSpline
 62
253
  6
CONTINUOUS
 70
0
 71
3
 72
21
 73
17
 74
0
 42
0.0000001
 43
0.0000001
 44
0.0000000001
 40
0.0
 40
0.0
 40
0.0
 40
0.0
 40
0.0028575291
 40
0.0079973833
 40
0.0154166783
 40
0.0251005216
 40
0.0511716317
 40
0.0859750031
 40
0.1291917165
 40
0.1804247231
 40
0.2392028411
 40
0.304985265
 40
0.4550823317
 40
0.6252018943
 40
0.8090937084
 40
1.0
 40
1.0
 40
1.0
 40
1.0
 10
-20.9513746205
 20
0.9699181769
 30
0.0
 10
-20.9511437087
 20
0.9698604866
 30
0.0
 10
-20.9504779112
 20
0.9697923414
 30
0.0
 10
-20.9491999361
 20
0.969689292
 30
0.0
 10
-20.9473486061
 20
0.9695937106
 30
0.0
 10
-20.9437561997
 20
0.9694438528
 30
0.0
 10
-20.937881111
 20
0.9692746731
 30
0.0
 10
-20.9292134061
 20
0.9690852296
 30
0.0
 10
-20.918449081
 20
0.9689033428
 30
0.0
 10
-20.9056876306
 20
0.9687294398
 30
0.0
 10
-20.8910463236
 20
0.9685664245
 30
0.0
 10
-20.8681705056
 20
0.9683563665
 30
0.0
 10
-20.8360205608
 20
0.9681399706
 30
0.0
 10
-20.7940327607
 20
0.9679533771
 30
0.0
 10
-20.7486456111
 20
0.9678383822
 30
0.0
 10
-20.7174279292
 20
0.9678126161
 30
0.0
 10
-20.7015269665
 20
0.9678126146
 30
0.0
  0
SPLINE
  5
3C0
100
AcDbEntity
  8
0
100
AcDbSpline
 62
253
  6
CONTINUOUS
 70
0
 71
3
 72
22
 73
18
 74
0
 42
0.0000001
 43
0.0000001
 44
0.0000000001
 40
0.0
 40
0.0
 40
0.0
 40
0.0
 40
0.1940280159
 40
0.3806795334
 40
0.5528644827
 40
0.7040381632
 40
0.7699127421
 40
0.8284546912
 40
0.8791065484
 40
0.921385984
 40
0.9548904054
 40
0.9682490783
 40
0.979300748
 40
0.9880194331
 40
0.9943847331
 40
0.9983807968
 40
1.0
 40
1.0
 40
1.0
 40
1.0
 10
-15.131414049
 20
0.317045882
 30
0.0
 10
-15.1184792745
 20
0.3170460623
 30
0.0
 10
-15.0931014756
 20
0.3170503117
 30
0.0
 10
-15.0562450625
 20
0.3170682066
 30
0.0
 10
-15.0222455182
 20
0.3170968514
 30
0.0
 10
-14.9962975137
 20
0.3171298793
 30
0.0
 10
-14.977925465
 20
0.3171618379
 30
0.0
 10
-14.9662546536
 20
0.3171865684
 30
0.0
 10
-14.9561567931
 20
0.3172127231
 30
0.0
 10
-14.9477280982
 20
0.3172404145
 30
0.0
 10
-14.9417854381
 20
0.3172649186
 30
0.0
 10
-14.9379247502
 20
0.3172870324
 30
0.0
 10
-14.9357160337
 20
0.3173002889
 30
0.0
 10
-14.9339743999
 20
0.3173193646
 30
0.0
 10
-14.9327010614
 20
0.3173239665
 30
0.0
 10
-14.9319052195
 20
0.3173561295
 30
0.0
 10
-14.9315278449
 20
0.3173457918
 30
0.0
 10
-14.9314216644
 20
0.3173652204
 30
0.0
  0
SPLINE
  5
3C1
100
AcDbEntity
  8
0
100
AcDbSpline
 62
253
  6
CONTINUOUS
 70
0
 71
3
 72
9
 73
5
 74
0
 42
0.0000001
 43
0.0000001
 44
0.0000000001
 40
0.0
 40
0.0
 40
0.0
 40
0.0
 40
0.2500142686
 40
1.0
 40
1.0
 40
1.0
 40
1.0
 10
0.2346962926
 20
0.7176232494
 30
0.0
 10
0.234717345
 20
-0.0409393903
 30
0.0
 10
0.2350464081
 20
-3.0750167692
 30
0.0
 10
0.2363331842
 20
-6.1090940453
 30
0.0
 10
0.2378417381
 20
-8.3846082971
 30
0.0
  0
SPLINE
  5
3C2
100
AcDbEntity
  8
0
100
AcDbSpline
 62
253
  6
CONTINUOUS
 70
0
 71
3
 72
9
 73
5
 74
0
 42
0.0000001
 43
0.0000001
 44
0.0000000001
 40
0.0
 40
0.0
 40
0.0
 40
0.0
 40
0.2500142682
 40
1.0
 40
1.0
 40
1.0
 40
1.0
 10
0.734393952
 20
0.7199277125
 30
0.0
 10
0.7344149078
 20
-0.0380352637
 30
0.0
 10
0.7347395863
 20
-3.0697141307
 30
0.0
 10
0.7360282813
 20
-6.1013928946
 30
0.0
 10
0.7375371516
 20
-8.3751082971
 30
0.0
  0
SPLINE
  5
3C3
100
AcDbEntity
  8
0
100
AcDbSpline
 62
253
  6
CONTINUOUS
 70
0
 71
3
 72
23
 73
19
 74
0
 42
0.0000001
 43
0.0000001
 44
0.0000000001
 40
0.0
 40
0.0
 40
0.0
 40
0.0
 40
0.0020884478
 40
0.0038149167
 40
0.0060810836
 40
0.0123095307
 40
0.0208466671
 40
0.0448603522
 40
0.0779931348
 40
0.11995809
 40
0.1703664859
 40
0.2287417083
 40
0.2945273131
 40
0.3670938406
 40
0.4457455412
 40
0.618232611
 40
0.8053764958
 40
1.0
 40
1.0
 40
1.0
 40
1.0
 10
-53.8394968732
 20
0.9699181769
 30
0.0
 10
-53.8396712842
 20
0.9699166548
 30
0.0
 10
-53.8399340737
 20
0.9696384457
 30
0.0
 10
-53.8401570348
 20
0.9692019359
 30
0.0
 10
-53.8404680301
 20
0.9683963578
 30
0.0
 10
-53.8408130199
 20
0.9670190351
 30
0.0
 10
-53.8414050539
 20
0.9638310669
 30
0.0
 10
-53.842052293
 20
0.9583816801
 30
0.0
 10
-53.8427594135
 20
0.9501339393
 30
0.0
 10
-53.8434184607
 20
0.9396722929
 30
0.0
 10
-53.8440287742
 20
0.9270970143
 30
0.0
 10
-53.8445778445
 20
0.9125278967
 30
0.0
 10
-53.8450603633
 20
0.8961050736
 30
0.0
 10
-53.8454704978
 20
0.8779864287
 30
0.0
 10
-53.8459289194
 20
0.8509558155
 30
0.0
 10
-53.8462754711
 20
0.8143535547
 30
0.0
 10
-53.8463522612
 20
0.7680644591
 30
0.0
 10
-53.8461817825
 20
0.736181144
 30
0.0
 10
-53.8460401135
 20
0.7199276961
 30
0.0
  0
LINE
  5
3C4
100
AcDbEntity
  8
0
100
AcDbLine
 62
253
  6
CONTINUOUS
 10
-54.3285886937
 20
0.7176232488
 11
-53.8460382354
 21
0.719927705
  0
SPLINE
  5
3C5
100
AcDbEntity
  8
0
100
AcDbSpline
 62
253
  6
CONTINUOUS
 70
0
 71
3
 72
34
 73
30
 74
0
 42
0.0000001
 43
0.0000001
 44
0.0000000001
 40
0.0
 40
0.0
 40
0.0
 40
0.0
 40
0.1968876822
 40
0.2925681581
 40
0.3852237683
 40
0.4740016105
 40
0.5580837092
 40
0.6366955494
 40
0.7091129575
 40
0.7746688432
 40
0.8327593906
 40
0.8588352008
 40
0.8828496122
 40
0.9047475833
 40
0.9244782812
 40
0.9419967728
 40
0.9572622726
 40
0.9702401291
 40
0.9809003435
 40
0.9853536736
 40
0.9892187945
 40
0.9924938403
 40
0.9951771557
 40
0.9972672694
 40
0.9987637201
 40
0.9992897175
 40
0.9996682423
 40
0.9999012345
 40
1.0
 40
1.0
 40
1.0
 40
1.0
 10
-52.772005387
 20
-20.0174636255
 30
0.0
 10
-52.8033352171
 20
-20.0221928912
 30
0.0
 10
-52.8498868014
 20
-20.029243232
 30
0.0
 10
-52.9111738039
 20
-20.0385747391
 30
0.0
 10
-52.9552573986
 20
-20.0453118392
 30
0.0
 10
-52.9974920624
 20
-20.0517920937
 30
0.0
 10
-53.0374888045
 20
-20.0579557818
 30
0.0
 10
-53.0748791484
 20
-20.0637460564
 30
0.0
 10
-53.1093186595
 20
-20.0691094643
 30
0.0
 10
-53.1404900816
 20
-20.0739965003
 30
0.0
 10
-53.1642891289
 20
-20.0777583638
 30
0.0
 10
-53.1814814587
 20
-20.0804985349
 30
0.0
 10
-53.1929201956
 20
-20.0823331501
 30
0.0
 10
-53.2033487681
 20
-20.0840181309
 30
0.0
 10
-53.2127432074
 20
-20.0855495711
 30
0.0
 10
-53.2210818112
 20
-20.0869238619
 30
0.0
 10
-53.2283454651
 20
-20.0881377054
 30
0.0
 10
-53.2345173821
 20
-20.0891882087
 30
0.0
 10
-53.2389708267
 20
-20.089965334
 30
0.0
 10
-53.2419767678
 20
-20.0905060036
 30
0.0
 10
-53.2438116309
 20
-20.0908443433
 30
0.0
 10
-53.2453644066
 20
-20.0911400608
 30
0.0
 10
-53.2466352765
 20
-20.0913930656
 30
0.0
 10
-53.2476209327
 20
-20.091602179
 30
0.0
 10
-53.2482682805
 20
-20.0917540105
 30
0.0
 10
-53.2486373029
 20
-20.0918545082
 30
0.0
 10
-53.2488177403
 20
-20.0919135135
 30
0.0
 10
-53.2489123452
 20
-20.0919515793
 30
0.0
 10
-53.2489704041
 20
-20.0919889989
 30
0.0
 10
-53.2489680346
 20
-20.0920047155
 30
0.0
  0
SPLINE
  5
3C6
100
AcDbEntity
  8
0
100
AcDbSpline
 62
253
  6
CONTINUOUS
 70
0
 71
3
 72
25
 73
21
 74
0
 42
0.0000001
 43
0.0000001
 44
0.0000000001
 40
0.0
 40
0.0
 40
0.0
 40
0.0
 40
0.1947034021
 40
0.3818817981
 40
0.470390652
 40
0.5543688964
 40
0.6330115108
 40
0.7055650786
 40
0.7713353078
 40
0.8296941128
 40
0.8800863144
 40
0.9220364045
 40
0.9551565697
 40
0.9791605975
 40
0.9876943494
 40
0.9910944605
 40
0.9939220622
 40
0.9961873267
 40
0.9979129111
 40
1.0
 40
1.0
 40
1.0
 40
1.0
 10
-52.3037609606
 20
-20.4422373017
 30
0.0
 10
-52.3054583488
 20
-20.4746648942
 30
0.0
 10
-52.3085734069
 20
-20.5382782021
 30
0.0
 10
-52.31186411
 20
-20.616660122
 30
0.0
 10
-52.3140185108
 20
-20.6766053936
 30
0.0
 10
-52.3153397202
 20
-20.71846728
 30
0.0
 10
-52.3163848515
 20
-20.7576751369
 30
0.0
 10
-52.3171444696
 20
-20.7938523369
 30
0.0
 10
-52.3176121573
 20
-20.8266513379
 30
0.0
 10
-52.3177855513
 20
-20.8557574195
 30
0.0
 10
-52.3176642822
 20
-20.8808908801
 30
0.0
 10
-52.3172591467
 20
-20.9018130487
 30
0.0
 10
-52.3165728469
 20
-20.9183219391
 30
0.0
 10
-52.3157457817
 20
-20.9292485155
 30
0.0
 10
-52.3149231021
 20
-20.9351872055
 30
0.0
 10
-52.3144436733
 20
-20.9376048113
 30
0.0
 10
-52.3141015613
 20
-20.9389754195
 30
0.0
 10
-52.313732633
 20
-20.9400664205
 30
0.0
 10
-52.3133266159
 20
-20.9409561707
 30
0.0
 10
-52.3128267911
 20
-20.9415338521
 30
0.0
 10
-52.3124791904
 20
-20.9415520691
 30
0.0
  0
SPLINE
  5
3C7
100
AcDbEntity
  8
0
100
AcDbSpline
 62
253
  6
CONTINUOUS
 70
0
 71
3
 72
23
 73
19
 74
0
 42
0.0000001
 43
0.0000001
 44
0.0000000001
 40
0.0
 40
0.0
 40
0.0
 40
0.0
 40
0.0020884478
 40
0.0038149168
 40
0.0060810837
 40
0.0123095308
 40
0.0208466672
 40
0.0448603522
 40
0.0779931349
 40
0.1199580901
 40
0.170366486
 40
0.2287417083
 40
0.2945273131
 40
0.3670938406
 40
0.4457455413
 40
0.618232611
 40
0.8053764958
 40
1.0
 40
1.0
 40
1.0
 40
1.0
 10
-53.8394968732
 20
1.2608652288
 30
0.0
 10
-53.8396712842
 20
1.2608667509
 30
0.0
 10
-53.8399340737
 20
1.26114496
 30
0.0
 10
-53.8401570348
 20
1.2615814698
 30
0.0
 10
-53.8404680301
 20
1.2623870479
 30
0.0
 10
-53.8408130199
 20
1.2637643706
 30
0.0
 10
-53.8414050539
 20
1.2669523388
 30
0.0
 10
-53.8420522931
 20
1.2724017256
 30
0.0
 10
-53.8427594135
 20
1.2806494664
 30
0.0
 10
-53.8434184608
 20
1.2911111128
 30
0.0
 10
-53.8440287743
 20
1.3036863914
 30
0.0
 10
-53.8445778445
 20
1.318255509
 30
0.0
 10
-53.8450603634
 20
1.3346783321
 30
0.0
 10
-53.8454704978
 20
1.3527969771
 30
0.0
 10
-53.8459289195
 20
1.3798275902
 30
0.0
 10
-53.8462754712
 20
1.416429851
 30
0.0
 10
-53.8463522612
 20
1.4627189466
 30
0.0
 10
-53.8461817825
 20
1.4946022617
 30
0.0
 10
-53.8460401135
 20
1.5108557096
 30
0.0
  0
LINE
  5
3C8
100
AcDbEntity
  8
0
100
AcDbLine
 62
253
  6
CONTINUOUS
 10
-53.8460382354
 20
1.5108557007
 11
-54.3285886937
 21
1.513160157
  0
SPLINE
  5
3C9
100
AcDbEntity
  8
0
100
AcDbSpline
 62
253
  6
CONTINUOUS
 70
0
 71
3
 72
34
 73
30
 74
0
 42
0.0000001
 43
0.0000001
 44
0.0000000001
 40
0.0
 40
0.0
 40
0.0
 40
0.0
 40
0.1968876812
 40
0.2925681567
 40
0.3852237666
 40
0.4740016087
 40
0.5580837075
 40
0.6366955477
 40
0.709112956
 40
0.7746688419
 40
0.8327593895
 40
0.8588351998
 40
0.8828496114
 40
0.9047475825
 40
0.9244782805
 40
0.9419967723
 40
0.9572622722
 40
0.9702401287
 40
0.9809003433
 40
0.9853536734
 40
0.9892187944
 40
0.9924938402
 40
0.9951771556
 40
0.9972672693
 40
0.99876372
 40
0.9992897174
 40
0.9996682423
 40
0.9999012345
 40
1.0
 40
1.0
 40
1.0
 40
1.0
 10
-52.772005387
 20
22.2482470312
 30
0.0
 10
-52.8033352175
 20
22.252976297
 30
0.0
 10
-52.8498868024
 20
22.2600266379
 30
0.0
 10
-52.9111738057
 20
22.269358145
 30
0.0
 10
-52.955257401
 20
22.2760952452
 30
0.0
 10
-52.9974920656
 20
22.2825754999
 30
0.0
 10
-53.0374888084
 20
22.2887391881
 30
0.0
 10
-53.074879153
 20
22.2945294628
 30
0.0
 10
-53.1093186647
 20
22.2998928708
 30
0.0
 10
-53.1404900875
 20
22.3047799068
 30
0.0
 10
-53.1642891353
 20
22.3085417704
 30
0.0
 10
-53.1814814655
 20
22.3112819416
 30
0.0
 10
-53.1929202026
 20
22.3131165568
 30
0.0
 10
-53.2033487754
 20
22.3148015377
 30
0.0
 10
-53.2127432149
 20
22.3163329779
 30
0.0
 10
-53.2210818189
 20
22.3177072687
 30
0.0
 10
-53.228345473
 20
22.3189211123
 30
0.0
 10
-53.2345173902
 20
22.3199716156
 30
0.0
 10
-53.2389708348
 20
22.320748741
 30
0.0
 10
-53.241976776
 20
22.3212894106
 30
0.0
 10
-53.2438116392
 20
22.3216277503
 30
0.0
 10
-53.2453644149
 20
22.3219234678
 30
0.0
 10
-53.2466352848
 20
22.3221764726
 30
0.0
 10
-53.2476209411
 20
22.322385586
 30
0.0
 10
-53.2482682889
 20
22.3225374175
 30
0.0
 10
-53.2486373113
 20
22.3226379151
 30
0.0
 10
-53.2488177487
 20
22.3226969205
 30
0.0
 10
-53.2489123536
 20
22.3227349863
 30
0.0
 10
-53.2489704126
 20
22.3227724059
 30
0.0
 10
-53.248968043
 20
22.3227881225
 30
0.0
  0
SPLINE
  5
3CA
100
AcDbEntity
  8
0
100
AcDbSpline
 62
253
  6
CONTINUOUS
 70
0
 71
3
 72
25
 73
21
 74
0
 42
0.0000001
 43
0.0000001
 44
0.0000000001
 40
0.0
 40
0.0
 40
0.0
 40
0.0
 40
0.1947034021
 40
0.3818817981
 40
0.470390652
 40
0.5543688964
 40
0.6330115108
 40
0.7055650786
 40
0.7713353078
 40
0.8296941128
 40
0.8800863143
 40
0.9220364044
 40
0.9551565697
 40
0.9791605975
 40
0.9876943494
 40
0.9910944605
 40
0.9939220622
 40
0.9961873267
 40
0.9979129111
 40
1.0
 40
1.0
 40
1.0
 40
1.0
 10
-52.3037609606
 20
22.6730207074
 30
0.0
 10
-52.3054583488
 20
22.7054482999
 30
0.0
 10
-52.308573407
 20
22.7690616079
 30
0.0
 10
-52.31186411
 20
22.8474435277
 30
0.0
 10
-52.3140185109
 20
22.9073887993
 30
0.0
 10
-52.3153397203
 20
22.9492506857
 30
0.0
 10
-52.3163848516
 20
22.9884585426
 30
0.0
 10
-52.3171444696
 20
23.0246357426
 30
0.0
 10
-52.3176121574
 20
23.0574347436
 30
0.0
 10
-52.3177855513
 20
23.0865408252
 30
0.0
 10
-52.3176642822
 20
23.1116742858
 30
0.0
 10
-52.3172591467
 20
23.1325964544
 30
0.0
 10
-52.3165728469
 20
23.1491053448
 30
0.0
 10
-52.3157457817
 20
23.1600319212
 30
0.0
 10
-52.3149231021
 20
23.1659706113
 30
0.0
 10
-52.3144436733
 20
23.1683882171
 30
0.0
 10
-52.3141015613
 20
23.1697588252
 30
0.0
 10
-52.313732633
 20
23.1708498262
 30
0.0
 10
-52.3133266159
 20
23.1717395764
 30
0.0
 10
-52.3128267911
 20
23.1723172578
 30
0.0
 10
-52.3124791904
 20
23.1723354748
 30
0.0
  0
ELLIPSE
  5
3CB
100
AcDbEntity
  8
RACCORDO
100
AcDbEllipse
 62
7
  6
CONTINUOUS
 10
-20.333444686
 20
1.4153993185
 30
0.0
 11
0.1789222233
 21
0.0894542984
 31
0.0
 40
0.9998096356
 41
-2.0344896259
 42
-1.5708031446
  0
ELLIPSE
  5
3CC
100
AcDbEntity
  8
0
100
AcDbEllipse
 62
7
  6
CONTINUOUS
 10
-12.3679441666
 20
23.2870072454
 30
0.0
 11
0.2
 21
0.0
 31
0.0
 40
0.0524637553
 41
-2.617993878
 42
-1.5707963268
  0
ELLIPSE
  5
3CD
100
AcDbEntity
  8
0
100
AcDbEllipse
 62
7
  6
CONTINUOUS
 10
-8.0988842742
 20
23.2870072454
 30
0.0
 11
0.2
 21
0.0
 31
0.0
 40
0.0524637553
 41
-1.5707963268
 42
-0.5235987756
  0
ELLIPSE
  5
3CE
100
AcDbEntity
  8
0
100
AcDbEllipse
 62
7
  6
CONTINUOUS
 10
0.6664333935
 20
1.4654012225
 30
0.0
 11
0.2426981267
 21
-0.0606514259
 31
0.0
 40
0.9993528196
 41
-1.3257549497
 42
0.2447368254
  0
ELLIPSE
  5
3CF
100
AcDbEntity
  8
0
100
AcDbEllipse
 62
7
  6
CONTINUOUS
 10
-21.1332618343
 20
1.4654012225
 30
0.0
 11
0.2426981267
 21
0.0606514259
 31
0.0
 40
0.9993528196
 41
2.8968558282
 42
4.4673476033
  0
ELLIPSE
  5
3D0
100
AcDbEntity
  8
0
100
AcDbEllipse
 62
7
  6
CONTINUOUS
 10
-6.039773843
 20
1.9090320803
 30
0.0
 11
0.4643386945
 21
-0.1896138901
 31
0.0
 40
0.9790602997
 41
1.8396428231
 42
1.9659448745
  0
ELLIPSE
  5
3D1
100
AcDbEntity
  8
0
100
AcDbEllipse
 62
7
  6
CONTINUOUS
 10
-14.4270545979
 20
1.9090320803
 30
0.0
 11
0.1896138901
 21
0.4643386945
 31
0.0
 40
0.9790602997
 41
-4.4435424841
 42
-4.3172404327
  0
ELLIPSE
  5
3D2
100
AcDbEntity
  8
0
100
AcDbEllipse
 62
7
  6
CONTINUOUS
 10
-20.8462606314
 20
22.8094042095
 30
0.0
 11
0.4901042491
 21
0.1011361035
 31
0.0
 40
0.9938624933
 41
1.3660744926
 42
2.9350443199
  0
ELLIPSE
  5
3D3
100
AcDbEntity
  8
0
100
AcDbEllipse
 62
7
  6
CONTINUOUS
 10
0.3794321906
 20
22.8094042095
 30
0.0
 11
0.4901042491
 21
-0.1011361035
 31
0.0
 40
0.9938624933
 41
0.2065483337
 42
1.775518161
  0
ELLIPSE
  5
3D4
100
AcDbEntity
  8
0
100
AcDbEllipse
 62
7
  6
CONTINUOUS
 10
-14.4270545979
 20
1.9090320803
 30
0.0
 11
0.4643386945
 21
0.1896138901
 31
0.0
 40
0.9790602997
 41
1.1756477791
 42
1.3019498305
  0
ELLIPSE
  5
3D5
100
AcDbEntity
  8
0
100
AcDbEllipse
 62
7
  6
CONTINUOUS
 10
-6.039773843
 20
1.9090320803
 30
0.0
 11
-0.1896138901
 21
0.4643386945
 31
0.0
 40
0.9790602997
 41
-1.9659448745
 42
-1.8396428231
  0
ELLIPSE
  5
3D6
100
AcDbEntity
  8
0
100
AcDbEllipse
 62
7
  6
CONTINUOUS
 10
-5.5437614713
 20
1.4550520676
 30
0.0
 11
0.000044129
 21
0.2000221726
 31
0.0
 40
0.0171905225
 41
-4.6995558479
 42
-4.6951164139
  0
ELLIPSE
  5
3D7
100
AcDbEntity
  8
0
100
AcDbEllipse
 62
7
  6
CONTINUOUS
 10
-14.9230669695
 20
1.4550520676
 30
0.0
 11
-0.000044129
 21
0.2000221726
 31
0.0
 40
0.0171905225
 41
-1.5880688933
 42
-1.5836294593
  0
ELLIPSE
  5
3D8
100
AcDbEntity
  8
RACCORDO
100
AcDbEllipse
 62
7
  6
CONTINUOUS
 10
-0.1333837548
 20
0.8153840872
 30
0.0
 11
0.1789222233
 21
0.0894542984
 31
0.0
 40
0.9998096356
 41
1.1071030277
 42
1.570789509
  0
ELLIPSE
  5
3D9
100
AcDbEntity
  8
0
100
AcDbEllipse
 62
7
  6
CONTINUOUS
 10
-8.0988842742
 20
-21.0562238396
 30
0.0
 11
0.2
 21
0.0
 31
0.0
 40
0.0524637553
 41
0.5235987756
 42
1.5707963268
  0
ELLIPSE
  5
3DA
100
AcDbEntity
  8
0
100
AcDbEllipse
 62
7
  6
CONTINUOUS
 10
-12.3679441666
 20
-21.0562238396
 30
0.0
 11
0.2
 21
-0.0
 31
0.0
 40
0.0524637553
 41
1.5707963268
 42
2.617993878
  0
ELLIPSE
  5
3DB
100
AcDbEntity
  8
0
100
AcDbEllipse
 62
7
  6
CONTINUOUS
 10
-21.1332618343
 20
0.7653821833
 30
0.0
 11
0.2426981267
 21
-0.0606514259
 31
0.0
 40
0.9993528196
 41
1.8158377039
 42
3.386329479
  0
ELLIPSE
  5
3DC
100
AcDbEntity
  8
0
100
AcDbEllipse
 62
7
  6
CONTINUOUS
 10
0.6664333935
 20
0.7653821833
 30
0.0
 11
0.2426981267
 21
0.0606514259
 31
0.0
 40
0.9993528196
 41
-0.2447368254
 42
1.3257549497
  0
ELLIPSE
  5
3DD
100
AcDbEntity
  8
0
100
AcDbEllipse
 62
7
  6
CONTINUOUS
 10
-14.4270545979
 20
0.3217513254
 30
0.0
 11
0.4643386945
 21
-0.1896138901
 31
0.0
 40
0.9790602997
 41
-1.3019498305
 42
-1.1756477791
  0
ELLIPSE
  5
3DE
100
AcDbEntity
  8
0
100
AcDbEllipse
 62
7
  6
CONTINUOUS
 10
-6.039773843
 20
0.3217513254
 30
0.0
 11
0.1896138901
 21
0.4643386945
 31
0.0
 40
0.9790602997
 41
-1.3019498305
 42
-1.1756477791
  0
ELLIPSE
  5
3DF
100
AcDbEntity
  8
0
100
AcDbEllipse
 62
7
  6
CONTINUOUS
 10
0.3794321906
 20
-20.5786208038
 30
0.0
 11
0.4901042491
 21
0.1011361035
 31
0.0
 40
0.9938624933
 41
-1.775518161
 42
-0.2065483337
  0
ELLIPSE
  5
3E0
100
AcDbEntity
  8
0
100
AcDbEllipse
 62
7
  6
CONTINUOUS
 10
-20.8462606314
 20
-20.5786208038
 30
0.0
 11
0.4901042491
 21
-0.1011361035
 31
0.0
 40
0.9938624933
 41
-2.9350443199
 42
-1.3660744926
  0
ELLIPSE
  5
3E1
100
AcDbEntity
  8
0
100
AcDbEllipse
 62
7
  6
CONTINUOUS
 10
-6.039773843
 20
0.3217513254
 30
0.0
 11
0.4643386945
 21
0.1896138901
 31
0.0
 40
0.9790602997
 41
-1.9659448745
 42
-1.8396428231
  0
ELLIPSE
  5
3E2
100
AcDbEntity
  8
0
100
AcDbEllipse
 62
7
  6
CONTINUOUS
 10
-14.4270545979
 20
0.3217513254
 30
0.0
 11
-0.1896138901
 21
0.4643386945
 31
0.0
 40
0.9790602997
 41
1.1756477791
 42
1.3019498305
  0
ELLIPSE
  5
3E3
100
AcDbEntity
  8
0
100
AcDbEllipse
 62
7
  6
CONTINUOUS
 10
-14.9230669695
 20
0.7757313381
 30
0.0
 11
0.000044129
 21
0.2000221726
 31
0.0
 40
0.0171905225
 41
-1.5579631943
 42
-1.5535237603
  0
ELLIPSE
  5
3E4
100
AcDbEntity
  8
0
100
AcDbEllipse
 62
7
  6
CONTINUOUS
 10
-5.5437614713
 20
0.7757313381
 30
0.0
 11
-0.000044129
 21
0.2000221726
 31
0.0
 40
0.0171905225
 41
1.5535237603
 42
1.5579631943
  0
ENDSEC
  0
SECTION
  2
OBJECTS
  0
DICTIONARY
  5
C
100
AcDbDictionary
280
0
281
1
  3
ACAD_GROUP
350
D
  3
ACAD_MLINESTYLE
350
17
  3
ACAD_LAYOUT
350
1A
  3
ACAD_PLOTSETTINGS
350
19
  3
ACAD_PLOTSTYLENAME
350
E
  0
DICTIONARY
  5
D
102
{ACAD_REACTORS
330
C
102
}
100
AcDbDictionary
280
0
281
1
  0
ACDBDICTIONARYWDFLT
  5
E
102
{ACAD_REACTORS
330
C
102
}
100
AcDbDictionary
281
1
  3
Normal
350
F
100
AcDbDictionaryWithDefault
340
F
  0
DICTIONARY
  5
17
102
{ACAD_REACTORS
330
C
102
}
100
AcDbDictionary
280
0
281
1
  3
Standard
350
18
  0
DICTIONARY
  5
19
102
{ACAD_REACTORS
330
C
102
}
100
AcDbDictionary
281
1
  0
DICTIONARY
  5
1A
102
{ACAD_REACTORS
330
C
102
}
100
AcDbDictionary
281
1
  3
Model
350
3E5
  3
Layout1
350
3E6
  0
ACDBPLACEHOLDER
  5
F
102
{ACAD_REACTORS
330
E
102
}
  0
MLINESTYLE
  5
18
102
{ACAD_REACTORS
330
17
102
}
100
AcDbMlineStyle
  2
STANDARD
 70
0
  3

 62
256
 51
90.0
 52
90.0
 71
2
 49
0.5
 62
256
  6
BYLAYER
 49
-0.5
 62
256
  6
BYLAYER
  0
LAYOUT
  5
3E5
102
{ACAD_REACTORS
330
1A
102
}
100
AcDbPlotSettings
  1

  2
none_device
  4

  6

 40
0.0
 41
0.0
 42
0.0
 43
0.0
 44
210.0
 45
297.0
 46
0.0
 47
0.0
 48
0.0
 49
0.0
140
0.0
141
0.0
142
1.0
143
1.0
 70
1024
 72
1
 73
0
 74
0
  7

 75
0
147
1.0
148
0.0
149
0.0
100
AcDbLayout
  1
Model
 70
0
 71
0
 10
0.0
 20
0.0
 11
210.0
 21
297.0
 12
0.0
 22
0.0
 32
0.0
 14
0.0
 24
0.0
 34
0.0
 15
0.0
 25
0.0
 35
0.0
146
0.0
 13
0.0
 23
0.0
 33
0.0
 16
1.0
 26
0.0
 36
0.0
 17
0.0
 27
1.0
 37
0.0
 76
0
330
222
345
0
346
0
  0
LAYOUT
  5
3E6
102
{ACAD_REACTORS
330
1A
102
}
100
AcDbPlotSettings
  1

  2
none_device
  4

  6

 40
0.0
 41
0.0
 42
0.0
 43
0.0
 44
210.0
 45
297.0
 46
0.0
 47
0.0
 48
0.0
 49
0.0
140
0.0
141
0.0
142
1.0
143
1.0
 70
0
 72
1
 73
0
 74
0
  7

 75
0
147
1.0
148
0.0
149
0.0
100
AcDbLayout
  1
Layout1
 70
0
 71
1
 10
0.0
 20
0.0
 11
210.0
 21
297.0
 12
0.0
 22
0.0
 32
0.0
 14
0.0
 24
0.0
 34
0.0
 15
0.0
 25
0.0
 35
0.0
146
0.0
 13
0.0
 23
0.0
 33
0.0
 16
1.0
 26
0.0
 36
0.0
 17
0.0
 27
1.0
 37
0.0
 76
0
330
223
345
0
346
0
  0
ENDSEC
  0
EOF
