0
SECTION
2
HEADER
9
$ACADVER
1
AC1014
9
$HANDSEED
5
       391
9
$EXTMAX
10
297.0000000000
20
210.0000000000
9
$EXTMIN
10
0.0000000000
20
0.0000000000
9
$LIMMIN
10
0.0000000000
20
0.0000000000
9
$LIMMAX
10
297.0000000000
20
210.0000000000
9
$VIEWCTR
10
148.5000000000
20
105.0000000000
9
$VIEWSIZE
40
210.0000000000
9
$CLAYER
8
0
9
$LTSCALE
40
16.3350000000
9
$CELTYPE
6
BYLAYER
9
$DIMSCALE
40
1
9
$DIMASZ
40
3.0000000000
9
$DIMEXO
40
1.8562500000
9
$DIMDLI
40
11.2860000000
9
$DIMEXE
40
5.3460000000
9
$DIMCEN
40
2.6730000000
9
$DIMLFAC
40
1.0000000000
9
$DIMTXT
40
3.0000000000
9
$DIMTOL
70
1
9
$DIMLIM
70
0
9
$DIMTFAC
40
1.0000000000
9
$DIMTP
40
0.0100000000
9
$DIMTM
40
0.0100000000
9
$MEASUREMENT
70
1
0
ENDSEC
0
SECTION
2
CLASSES
0
ENDSEC
0
SECTION
2
TABLES
0
TABLE
2
VPORT
5
8
100
AcDbSymbolTable
70
2
0
VPORT
5
1F4
100
AcDbSymbolTableRecord
100
AcDbViewportTableRecord
2
*ACTIVE
70
0
10
0.0
20
0.0
11
1.0
21
1.0
12
148.5000000000
22
105.0000000000
13
0.0
23
0.0
14
1.0
24
1.0
15
0.0
25
0.0
16
0.0
26
0.0
36
1.0
17
0.0
27
0.0
37
0.0
40
210.0000000000
41
1.4142857143
42
50.0
43
0.0
44
0.0
50
0.0
51
0.0
71
0
72
100
73
1
74
1
75
0
76
0
77
0
78
0
0
ENDTAB
0
TABLE
2
LTYPE
5
5
100
AcDbSymbolTable
70
6
0
LTYPE
5
14
100
AcDbSymbolTableRecord
100
AcDbLinetypeTableRecord
2
BYBLOCK
70
0
3

72
65
73
0
40
0.0
0
LTYPE
5
15
100
AcDbSymbolTableRecord
100
AcDbLinetypeTableRecord
2
BYLAYER
70
0
3

72
65
73
0
40
0.0
0
LTYPE
5
16
100
AcDbSymbolTableRecord
100
AcDbLinetypeTableRecord
2
CONTINUOUS
70
64
3
Solid line
72
65
73
0
40
0
0
LTYPE
5
1F5
100
AcDbSymbolTableRecord
100
AcDbLinetypeTableRecord
2
CENTER
70
64
3
____ _ ____ _ ____ _ ____ _ ____ _ ____ _ ____
72
65
73
4
40
0.6
49
0.375
74
0
49
-0.075
74
0
49
0.075
74
0
49
-0.075
74
0
0
LTYPE
5
1F6
100
AcDbSymbolTableRecord
100
AcDbLinetypeTableRecord
2
HIDDEN
70
64
3
- - - - - - - - - - - - - - - - - - - -
72
65
73
2
40
0.2
49
0.1
74
0
49
-0.1
74
0
0
LTYPE
5
1F7
100
AcDbSymbolTableRecord
100
AcDbLinetypeTableRecord
2
PHANTOM
70
64
3
_____ _ _ _____ _ _ _____ _ _ _____
72
65
73
6
40
0.8
49
0.45
74
0
49
-0.05
74
0
49
0.1
74
0
49
-0.05
74
0
49
0.1
74
0
49
-0.05
74
0
0
LTYPE
5
1F8
100
AcDbSymbolTableRecord
100
AcDbLinetypeTableRecord
2
DOT
70
64
3
. . . . . . . . . . . . . . . . . . . .
72
65
73
2
40
0.2
49
0.1
74
0
49
-0.1
74
0
0
LTYPE
5
1F9
100
AcDbSymbolTableRecord
100
AcDbLinetypeTableRecord
2
DASHED
70
64
3
- - - - - - - - - - - - - - - - - - - -
72
65
73
2
40
0.2
49
0.1
74
0
49
-0.1
74
0
0
ENDTAB
0
TABLE
2
LAYER
5
2
100
AcDbSymbolTable
70
36
0
LAYER
5
10
100
AcDbSymbolTableRecord
100
AcDbLayerTableRecord
2
0
70
0
62
7
6
CONTINUOUS
0
LAYER
5
1FA
100
AcDbSymbolTableRecord
100
AcDbLayerTableRecord
2
DEFAULT_1
70
0
62
7
6
CENTER
0
LAYER
5
1FB
100
AcDbSymbolTableRecord
100
AcDbLayerTableRecord
2
DEFAULT_2
70
0
62
8
6
HIDDEN
0
LAYER
5
1FC
100
AcDbSymbolTableRecord
100
AcDbLayerTableRecord
2
DEFAULT_3
70
0
62
7
6
PHANTOM
0
LAYER
5
1FD
100
AcDbSymbolTableRecord
100
AcDbLayerTableRecord
2
ASSI
70
0
62
7
6
CONTINUOUS
0
LAYER
5
1FE
100
AcDbSymbolTableRecord
100
AcDbLayerTableRecord
2
COLORE_MATERIALE
70
0
62
7
6
CONTINUOUS
0
LAYER
5
1FF
100
AcDbSymbolTableRecord
100
AcDbLayerTableRecord
2
COORDINATE
70
0
62
7
6
CONTINUOUS
0
LAYER
5
200
100
AcDbSymbolTableRecord
100
AcDbLayerTableRecord
2
COORD_ORIGINE
70
0
62
7
6
CONTINUOUS
0
LAYER
5
201
100
AcDbSymbolTableRecord
100
AcDbLayerTableRecord
2
COPY
70
0
62
7
6
CONTINUOUS
0
LAYER
5
202
100
AcDbSymbolTableRecord
100
AcDbLayerTableRecord
2
CURVE
70
0
62
7
6
CONTINUOUS
0
LAYER
5
203
100
AcDbSymbolTableRecord
100
AcDbLayerTableRecord
2
DRAFT
70
0
62
7
6
CONTINUOUS
0
LAYER
5
204
100
AcDbSymbolTableRecord
100
AcDbLayerTableRecord
2
IGS
70
0
62
7
6
CONTINUOUS
0
LAYER
5
205
100
AcDbSymbolTableRecord
100
AcDbLayerTableRecord
2
INC_LASER
70
0
62
7
6
CONTINUOUS
0
LAYER
5
206
100
AcDbSymbolTableRecord
100
AcDbLayerTableRecord
2
PIANI
70
0
62
7
6
CONTINUOUS
0
LAYER
5
207
100
AcDbSymbolTableRecord
100
AcDbLayerTableRecord
2
PIANI_ORIGINE
70
0
62
7
6
CONTINUOUS
0
LAYER
5
208
100
AcDbSymbolTableRecord
100
AcDbLayerTableRecord
2
PIANI_RIFERIMENTO
70
0
62
7
6
CONTINUOUS
0
LAYER
5
209
100
AcDbSymbolTableRecord
100
AcDbLayerTableRecord
2
RACCORDO
70
0
62
7
6
CONTINUOUS
0
LAYER
5
20A
100
AcDbSymbolTableRecord
100
AcDbLayerTableRecord
2
SMUSSO
70
0
62
7
6
CONTINUOUS
0
LAYER
5
20B
100
AcDbSymbolTableRecord
100
AcDbLayerTableRecord
2
SNAPLINE
70
0
62
7
6
CONTINUOUS
0
LAYER
5
20C
100
AcDbSymbolTableRecord
100
AcDbLayerTableRecord
2
SUPERFICI
70
0
62
7
6
CONTINUOUS
0
LAYER
5
20D
100
AcDbSymbolTableRecord
100
AcDbLayerTableRecord
2
TRASH
70
0
62
7
6
CONTINUOUS
0
ENDTAB
0
TABLE
2
STYLE
5
3
100
AcDbSymbolTable
70
1
0
STYLE
5
11
100
AcDbSymbolTableRecord
100
AcDbTextStyleTableRecord
2
STANDARD
70
0
40
0.0
41
0.8000000000
50
0.0
71
0
42
0.2
3
txt
4

0
ENDTAB
0
TABLE
2
VIEW
5
6
100
AcDbSymbolTable
70
0
0
ENDTAB
0
TABLE
2
UCS
5
7
100
AcDbSymbolTable
70
0
0
ENDTAB
0
TABLE
2
APPID
5
9
100
AcDbSymbolTable
70
1
0
APPID
5
20E
100
AcDbSymbolTableRecord
100
AcDbRegAppTableRecord
2
ACAD
70
0
0
ENDTAB
0
TABLE
2
DIMSTYLE
5
A
100
AcDbSymbolTable
70
1
0
DIMSTYLE
105
20F
100
AcDbSymbolTableRecord
100
AcDbDimStyleTableRecord
2
STANDARD
70
0
3

4

5

6

7

40
1.0
41
3.0000000000
42
0.0625
43
0.38
44
0.18
45
0.0
46
0.0
47
0.0100000000
48
0.0100000000
140
3.0000000000
141
0.09
142
0.0
143
25.4
144
1.0000000000
145
0.0
146
1.0000000000
147
0.09
71
1
72
0
73
0
74
0
75
0
76
0
77
1
78
8
170
0
171
2
172
0
173
0
174
0
175
0
176
0
177
0
178
0
270
2
271
2
272
2
273
2
274
2
340
11
275
0
280
0
281
0
282
0
283
1
284
8
285
0
286
0
287
3
288
0
0
DIMSTYLE
105
210
100
AcDbSymbolTableRecord
100
AcDbDimStyleTableRecord
2
DIMSTYLE_1
70
0
3

4

5

6

7

40
1.0
41
3.0000000000
42
0.0625
43
0.38
44
0.18
45
0.0
46
0.0
47
0.0000000000
48
0.0000000000
140
3.0000000000
141
0.09
142
0.0
143
25.4
144
1.0000000000
145
0.0
146
1.0000000000
147
0.09
71
0
72
0
73
0
74
0
75
0
76
0
77
1
78
8
170
0
171
2
172
0
173
0
174
0
175
0
176
0
177
0
178
0
270
2
271
1
272
1
273
2
274
2
340
11
275
0
280
0
281
0
282
0
283
1
284
8
285
0
286
0
287
3
288
0
0
DIMSTYLE
105
211
100
AcDbSymbolTableRecord
100
AcDbDimStyleTableRecord
2
DIMSTYLE_2
70
0
3

4

5

6

7

40
1.0
41
3.0000000000
42
0.0625
43
0.38
44
0.18
45
0.0
46
0.0
47
0.0000000000
48
0.0000000000
140
3.0000000000
141
0.09
142
0.0
143
25.4
144
1.0000000000
145
0.0
146
1.0000000000
147
0.09
71
0
72
0
73
0
74
0
75
0
76
0
77
1
78
8
170
0
171
2
172
0
173
0
174
0
175
0
176
0
177
0
178
0
270
2
271
2
272
2
273
2
274
2
340
11
275
0
280
0
281
0
282
0
283
1
284
8
285
0
286
0
287
3
288
0
0
ENDTAB
0
TABLE
2
BLOCK_RECORD
5
1
100
AcDbSymbolTable
70
0
0
BLOCK_RECORD
5
1B
100
AcDbSymbolTableRecord
100
AcDbBlockTableRecord
2
*MODEL_SPACE
0
BLOCK_RECORD
5
1C
100
AcDbSymbolTableRecord
100
AcDbBlockTableRecord
2
*PAPER_SPACE
0
BLOCK_RECORD
5
212
100
AcDbSymbolTableRecord
100
AcDbBlockTableRecord
2
*D0
0
BLOCK_RECORD
5
213
100
AcDbSymbolTableRecord
100
AcDbBlockTableRecord
2
*D1
0
BLOCK_RECORD
5
214
100
AcDbSymbolTableRecord
100
AcDbBlockTableRecord
2
*D2
0
ENDTAB
0
ENDSEC
0
SECTION
2
BLOCKS
0
BLOCK
5
1E
100
AcDbEntity
8
0
100
AcDbBlockBegin
2
*MODEL_SPACE
70
0
10
0.0
20
0.0
30
0.0
3
*MODEL_SPACE
1

0
ENDBLK
5
1F
100
AcDbEntity
8
0
100
AcDbBlockEnd
0
BLOCK
5
20
100
AcDbEntity
8
0
100
AcDbBlockBegin
2
*PAPER_SPACE
70
0
10
0.0
20
0.0
30
0.0
3
*PAPER_SPACE
1

0
ENDBLK
5
21
100
AcDbEntity
8
0
100
AcDbBlockEnd
0
BLOCK
5
215
100
AcDbEntity
8
0
100
AcDbBlockBegin
62
7
6
CONTINUOUS
2
*D0
70
65
10
0.0000000000
20
0.0000000000
3
*D0
1

0
TEXT
5
216
100
AcDbEntity
8
0
100
AcDbText
62
7
6
CONTINUOUS
10
-49.8771674046
20
31.1500000000
7
STANDARD
40
3.0000000000
1
9,7
41
0.7142857143
72
0
100
AcDbText
0
LINE
5
217
100
AcDbEntity
8
0
100
AcDbLine
62
7
6
CONTINUOUS
10
-33.7149265748
20
13.6650069390
11
-33.7149265748
21
31.9000000000
0
LINE
5
218
100
AcDbEntity
8
0
100
AcDbLine
62
7
6
CONTINUOUS
10
-43.4245759761
20
0.8977684534
11
-43.4245759761
21
31.9000000000
0
LINE
5
219
100
AcDbEntity
8
0
100
AcDbLine
62
7
6
CONTINUOUS
10
-33.7149265748
20
30.4000000000
11
-38.5697512754
21
30.4000000000
0
LINE
5
21A
100
AcDbEntity
8
0
100
AcDbLine
62
7
6
CONTINUOUS
10
-43.4245759761
20
30.4000000000
11
-38.5697512754
21
30.4000000000
0
LINE
5
21B
100
AcDbEntity
8
0
100
AcDbLine
62
7
6
CONTINUOUS
10
-38.5697512754
20
30.4000000000
11
-49.8771674046
21
30.4000000000
0
SOLID
5
21C
100
AcDbEntity
8
0
100
AcDbTrace
62
7
6
CONTINUOUS
10
-36.7149265748
20
29.4500000000
11
-33.7149265748
21
30.4000000000
12
-36.7149265748
22
31.3500000000
13
-36.7149265748
23
31.3500000000
0
SOLID
5
21D
100
AcDbEntity
8
0
100
AcDbTrace
62
7
6
CONTINUOUS
10
-40.4245759761
20
31.3500000000
11
-43.4245759761
21
30.4000000000
12
-40.4245759761
22
29.4500000000
13
-40.4245759761
23
29.4500000000
0
ENDBLK
5
21E
100
AcDbEntity
8
0
100
AcDbBlockEnd
0
BLOCK
5
21F
100
AcDbEntity
8
0
100
AcDbBlockBegin
62
7
6
CONTINUOUS
2
*D1
70
65
10
0.0000000000
20
0.0000000000
3
*D1
1

0
TEXT
5
220
100
AcDbEntity
8
0
100
AcDbText
62
7
6
CONTINUOUS
10
-4.7992319381
20
31.1500000000
7
STANDARD
40
3.0000000000
1
44,7
41
0.7321428571
72
0
100
AcDbText
0
LINE
5
221
100
AcDbEntity
8
0
100
AcDbLine
62
7
6
CONTINUOUS
10
-22.4250000000
20
22.2525720450
11
-22.4250000000
21
31.9000000000
0
LINE
5
222
100
AcDbEntity
8
0
100
AcDbLine
62
7
6
CONTINUOUS
10
22.2750000000
20
22.2525720450
11
22.2750000000
21
31.9000000000
0
LINE
5
223
100
AcDbEntity
8
0
100
AcDbLine
62
7
6
CONTINUOUS
10
-22.4250000000
20
30.4000000000
11
-0.0750000000
21
30.4000000000
0
LINE
5
224
100
AcDbEntity
8
0
100
AcDbLine
62
7
6
CONTINUOUS
10
22.2750000000
20
30.4000000000
11
-0.0750000000
21
30.4000000000
0
SOLID
5
225
100
AcDbEntity
8
0
100
AcDbTrace
62
7
6
CONTINUOUS
10
-19.4250000000
20
31.3500000000
11
-22.4250000000
21
30.4000000000
12
-19.4250000000
22
29.4500000000
13
-19.4250000000
23
29.4500000000
0
SOLID
5
226
100
AcDbEntity
8
0
100
AcDbTrace
62
7
6
CONTINUOUS
10
19.2750000000
20
29.4500000000
11
22.2750000000
21
30.4000000000
12
19.2750000000
22
31.3500000000
13
19.2750000000
23
31.3500000000
0
ENDBLK
5
227
100
AcDbEntity
8
0
100
AcDbBlockEnd
0
BLOCK
5
228
100
AcDbEntity
8
0
100
AcDbBlockBegin
62
7
6
CONTINUOUS
2
*D2
70
65
10
0.0000000000
20
0.0000000000
3
*D2
1

0
TEXT
5
229
100
AcDbEntity
8
0
100
AcDbText
62
7
6
CONTINUOUS
10
29.6750000000
20
-3.3427140547
7
STANDARD
40
3.0000000000
1
44,5
50
90.0000000000
41
0.7142857143
72
0
100
AcDbText
0
LINE
5
22A
100
AcDbEntity
8
0
100
AcDbLine
62
7
6
CONTINUOUS
10
22.2750000000
20
22.3213883311
11
31.9250000000
21
22.3213883311
0
LINE
5
22B
100
AcDbEntity
8
0
100
AcDbLine
62
7
6
CONTINUOUS
10
22.2558886505
20
-22.1947348166
11
31.9250000000
21
-22.1947348166
0
LINE
5
22C
100
AcDbEntity
8
0
100
AcDbLine
62
7
6
CONTINUOUS
10
30.4250000000
20
22.3213883311
11
30.4250000000
21
0.0633267572
0
LINE
5
22D
100
AcDbEntity
8
0
100
AcDbLine
62
7
6
CONTINUOUS
10
30.4250000000
20
-22.1947348166
11
30.4250000000
21
0.0633267572
0
SOLID
5
22E
100
AcDbEntity
8
0
100
AcDbTrace
62
7
6
CONTINUOUS
10
31.3750000000
20
19.3213883311
11
30.4250000000
21
22.3213883311
12
29.4750000000
22
19.3213883311
13
29.4750000000
23
19.3213883311
0
SOLID
5
22F
100
AcDbEntity
8
0
100
AcDbTrace
62
7
6
CONTINUOUS
10
29.4750000000
20
-19.1947348166
11
30.4250000000
21
-22.1947348166
12
31.3750000000
22
-19.1947348166
13
31.3750000000
23
-19.1947348166
0
ENDBLK
5
230
100
AcDbEntity
8
0
100
AcDbBlockEnd
0
ENDSEC
0
SECTION
2
ENTITIES
0
DIMENSION
5
231
100
AcDbEntity
8
0
100
AcDbDimension
62
7
6
CONTINUOUS
2
*D0
10
-43.4245759761
20
30.4000000000
11
-46.6628816904
21
32.6500000000
70
160
3
DIMSTYLE_1
100
AcDbAlignedDimension
13
-33.7149265748
23
13.6650069390
14
-43.4245759761
24
0.8977684534
50
180.000000
100
AcDbRotatedDimension
0
DIMENSION
5
232
100
AcDbEntity
8
0
100
AcDbDimension
62
7
6
CONTINUOUS
2
*D1
10
22.2750000000
20
30.4000000000
11
-0.4063747953
21
32.6500000000
70
160
3
DIMSTYLE_2
100
AcDbAlignedDimension
13
-22.4250000000
23
22.2525720450
14
22.2750000000
24
22.2525720450
100
AcDbRotatedDimension
0
DIMENSION
5
233
100
AcDbEntity
8
0
100
AcDbDimension
62
7
6
CONTINUOUS
2
*D2
10
30.4250000000
20
-22.1947348166
11
28.1750000000
21
0.9430002310
70
160
3
DIMSTYLE_1
100
AcDbAlignedDimension
13
22.2750000000
23
22.3213883311
14
22.2558886505
24
-22.1947348166
50
270.000000
100
AcDbRotatedDimension
0
LINE
5
234
100
AcDbEntity
8
0
100
AcDbLine
62
7
6
CONTINUOUS
10
-22.4065732928
20
-21.6977042895
11
-22.4250000000
21
-13.1000000000
0
LINE
5
235
100
AcDbEntity
8
0
100
AcDbLine
62
7
6
CONTINUOUS
10
-22.4250000000
20
-0.3499714434
11
-22.4250000000
21
-13.1000000000
0
LINE
5
236
100
AcDbEntity
8
0
100
AcDbLine
62
7
6
CONTINUOUS
10
-22.4250000000
20
0.3386645915
11
-22.4250000000
21
21.8207021581
0
LINE
5
237
100
AcDbEntity
8
0
100
AcDbLine
62
9
6
CONTINUOUS
10
-22.1750000000
20
0.0999999993
11
-22.1750000000
21
0.0886550719
0
LINE
5
238
100
AcDbEntity
8
0
100
AcDbLine
62
9
6
CONTINUOUS
10
-21.9250000000
20
22.2521154903
11
-21.9250000000
21
22.3213883311
0
LINE
5
239
100
AcDbEntity
8
0
100
AcDbLine
62
9
6
CONTINUOUS
10
-21.8341602573
20
-0.1475790882
11
-21.8341602573
21
-0.3977684534
0
LINE
5
23A
100
AcDbEntity
8
0
100
AcDbLine
62
9
6
CONTINUOUS
10
-21.8341602573
20
0.1475790882
11
-21.8341602573
21
0.3977684534
0
LINE
5
23B
100
AcDbEntity
8
0
100
AcDbLine
62
7
6
CONTINUOUS
10
8.5907348280
20
-22.1947348166
11
8.8672649731
21
-22.1696065528
0
LINE
5
23C
100
AcDbEntity
8
0
100
AcDbLine
62
7
6
CONTINUOUS
10
21.7558886505
20
-22.1947348166
11
13.7592651720
21
-22.1947348166
0
LINE
5
23D
100
AcDbEntity
8
0
100
AcDbLine
62
7
6
CONTINUOUS
10
8.5907348280
20
-22.1947348166
11
-8.7407348280
21
-22.1947348166
0
LINE
5
23E
100
AcDbEntity
8
0
100
AcDbLine
62
7
6
CONTINUOUS
10
-13.9092651720
20
-22.1947348166
11
-21.9058886505
21
-22.1947348166
0
LINE
5
23F
100
AcDbEntity
8
0
100
AcDbLine
62
7
6
CONTINUOUS
10
9.0404700538
20
-22.1643601773
11
13.3095299462
21
-22.1643601773
0
LINE
5
240
100
AcDbEntity
8
0
100
AcDbLine
62
7
6
CONTINUOUS
10
-9.1904700538
20
-22.1643601773
11
-13.4595299462
21
-22.1643601773
0
LINE
5
241
100
AcDbEntity
8
0
100
AcDbLine
62
9
6
CONTINUOUS
10
-21.8610894575
20
-22.0602279426
11
21.7110894575
21
-22.0602279426
0
LINE
5
242
100
AcDbEntity
8
0
100
AcDbLine
62
9
6
CONTINUOUS
10
-21.8529162692
20
-21.2107174911
11
21.7029162692
21
-21.2107174911
0
LINE
5
243
100
AcDbEntity
8
0
100
AcDbLine
62
7
6
CONTINUOUS
10
-8.7407348280
20
-22.1947348166
11
-9.0172649731
21
-22.1696065528
0
LINE
5
244
100
AcDbEntity
8
0
100
AcDbLine
62
7
6
CONTINUOUS
10
13.7592651720
20
-22.1947348166
11
13.4827350269
21
-22.1696065528
0
LINE
5
245
100
AcDbEntity
8
0
100
AcDbLine
62
7
6
CONTINUOUS
10
-13.9092651720
20
-22.1947348166
11
-13.6327350269
21
-22.1696065528
0
LINE
5
246
100
AcDbEntity
8
0
100
AcDbLine
62
9
6
CONTINUOUS
10
-16.2229998286
20
-0.7983458208
11
-16.2230040083
21
-0.3977684532
0
LINE
5
247
100
AcDbEntity
8
0
100
AcDbLine
62
9
6
CONTINUOUS
10
-16.2230040083
20
0.3977684532
11
-16.2229998282
21
0.7983458296
0
LINE
5
248
100
AcDbEntity
8
0
100
AcDbLine
62
7
6
CONTINUOUS
10
-16.0112139802
20
-0.7862330187
11
-16.0112139802
21
-0.3370942827
0
LINE
5
249
100
AcDbEntity
8
0
100
AcDbLine
62
7
6
CONTINUOUS
10
-16.0112139802
20
0.3370942827
11
-16.0112139802
21
0.7862330187
0
LINE
5
24A
100
AcDbEntity
8
0
100
AcDbLine
62
9
6
CONTINUOUS
10
-15.5230124517
20
1.4985852320
11
-15.5230124517
21
1.2979934133
0
LINE
5
24B
100
AcDbEntity
8
0
100
AcDbLine
62
9
6
CONTINUOUS
10
-15.5230124517
20
-1.4985852320
11
-15.5230124517
21
-1.2979934133
0
LINE
5
24C
100
AcDbEntity
8
0
100
AcDbLine
62
7
6
CONTINUOUS
10
-13.5750000000
20
22.3213883311
11
-13.5750000000
21
22.2060912167
0
LINE
5
24D
100
AcDbEntity
8
0
100
AcDbLine
62
9
6
CONTINUOUS
10
-22.4065732928
20
-21.6977042895
11
-22.3610133051
21
-21.5609131753
0
LINE
5
24E
100
AcDbEntity
8
0
100
AcDbLine
62
9
6
CONTINUOUS
10
-21.9058886505
20
-22.1947348166
11
-21.8610894575
21
-22.0602279426
0
LINE
5
24F
100
AcDbEntity
8
0
100
AcDbLine
62
9
6
CONTINUOUS
10
-22.3610133051
20
21.5609131753
11
-22.4250000000
21
21.7530293659
0
LINE
5
250
100
AcDbEntity
8
0
100
AcDbLine
62
9
6
CONTINUOUS
10
-21.8610894575
20
22.0602279426
11
-21.9250000000
21
22.2521154903
0
LINE
5
251
100
AcDbEntity
8
0
100
AcDbLine
62
9
6
CONTINUOUS
10
-16.2225714728
20
-0.1475790882
11
-16.2116821902
21
-0.1366898056
0
LINE
5
252
100
AcDbEntity
8
0
100
AcDbLine
62
9
6
CONTINUOUS
10
-16.0225790882
20
-0.3475714728
11
-16.0112140141
21
-0.3362063987
0
LINE
5
253
100
AcDbEntity
8
0
100
AcDbLine
62
9
6
CONTINUOUS
10
-16.0112139802
20
-0.7862330187
11
-16.0230074440
21
-0.7980264825
0
LINE
5
254
100
AcDbEntity
8
0
100
AcDbLine
62
9
6
CONTINUOUS
10
-22.3340840780
20
0.3954259424
11
-22.4250000000
21
0.3499714434
0
LINE
5
255
100
AcDbEntity
8
0
100
AcDbLine
62
9
6
CONTINUOUS
10
-22.4250000000
20
-0.3499714434
11
-22.3340840780
21
-0.3954259424
0
LINE
5
256
100
AcDbEntity
8
0
100
AcDbLine
62
9
6
CONTINUOUS
10
-16.2116821902
20
0.1366898056
11
-16.2225714728
21
0.1475790882
0
LINE
5
257
100
AcDbEntity
8
0
100
AcDbLine
62
9
6
CONTINUOUS
10
-16.0112140141
20
0.3362063987
11
-16.0225790882
21
0.3475714728
0
LINE
5
258
100
AcDbEntity
8
0
100
AcDbLine
62
9
6
CONTINUOUS
10
-16.0112139802
20
0.7862330187
11
-16.0230074437
21
0.7980264822
0
LINE
5
259
100
AcDbEntity
8
0
100
AcDbLine
62
7
6
CONTINUOUS
10
-9.0750000000
20
22.3213883311
11
-9.0750000000
21
22.2060912167
0
LINE
5
25A
100
AcDbEntity
8
0
100
AcDbLine
62
9
6
CONTINUOUS
10
-15.5112330187
20
-1.2862139802
11
-15.5230124517
21
-1.2979934133
0
LINE
5
25B
100
AcDbEntity
8
0
100
AcDbLine
62
9
6
CONTINUOUS
10
-22.0841221542
20
0.1454354616
11
-22.1750000000
21
0.0999999993
0
LINE
5
25C
100
AcDbEntity
8
0
100
AcDbLine
62
7
6
CONTINUOUS
10
-21.2476915844
20
0.0886550719
11
-21.1726348052
21
0.1261806034
0
LINE
5
25D
100
AcDbEntity
8
0
100
AcDbLine
62
9
6
CONTINUOUS
10
21.6857313847
20
-9.5000000000
11
-21.8357313847
21
-9.5000000000
0
LINE
5
25E
100
AcDbEntity
8
0
100
AcDbLine
62
9
6
CONTINUOUS
10
-22.1749999985
20
-0.1000000000
11
-22.0841221542
21
-0.1454354616
0
LINE
5
25F
100
AcDbEntity
8
0
100
AcDbLine
62
7
6
CONTINUOUS
10
-21.2250000000
20
-0.1000000000
11
-21.1726348052
21
-0.1261806034
0
LINE
5
260
100
AcDbEntity
8
0
100
AcDbLine
62
9
6
CONTINUOUS
10
-15.5112330187
20
1.2862139802
11
-15.5230124517
21
1.2979934133
0
LINE
5
261
100
AcDbEntity
8
0
100
AcDbLine
62
9
6
CONTINUOUS
10
-7.1269875483
20
1.4985852320
11
-7.1269875483
21
1.2979934133
0
LINE
5
262
100
AcDbEntity
8
0
100
AcDbLine
62
9
6
CONTINUOUS
10
-7.1269875483
20
-1.4985852320
11
-7.1269875483
21
-1.2979934133
0
LINE
5
263
100
AcDbEntity
8
0
100
AcDbLine
62
7
6
CONTINUOUS
10
-6.6387860198
20
0.7862330187
11
-6.6387860198
21
0.3370942827
0
LINE
5
264
100
AcDbEntity
8
0
100
AcDbLine
62
7
6
CONTINUOUS
10
-6.6387860198
20
-0.3370942827
11
-6.6387860198
21
-0.7862330187
0
LINE
5
265
100
AcDbEntity
8
0
100
AcDbLine
62
9
6
CONTINUOUS
10
-6.4270014432
20
-0.3977684532
11
-6.4270001714
21
-0.7983458208
0
LINE
5
266
100
AcDbEntity
8
0
100
AcDbLine
62
9
6
CONTINUOUS
10
-6.4270001718
20
0.7983458296
11
-6.4269959917
21
0.3977684532
0
LINE
5
267
100
AcDbEntity
8
0
100
AcDbLine
62
9
6
CONTINUOUS
10
-7.1387669813
20
1.2862139802
11
-7.1269875483
21
1.2979934133
0
LINE
5
268
100
AcDbEntity
8
0
100
AcDbLine
62
9
6
CONTINUOUS
10
-6.6387860198
20
0.7862330187
11
-6.6269925563
21
0.7980264822
0
LINE
5
269
100
AcDbEntity
8
0
100
AcDbLine
62
9
6
CONTINUOUS
10
-6.6274209118
20
0.3475714728
11
-6.6387859859
21
0.3362063987
0
LINE
5
26A
100
AcDbEntity
8
0
100
AcDbLine
62
9
6
CONTINUOUS
10
-6.4274285272
20
0.1475790882
11
-6.4383178098
21
0.1366898056
0
LINE
5
26B
100
AcDbEntity
8
0
100
AcDbLine
62
9
6
CONTINUOUS
10
-7.1387669813
20
-1.2862139802
11
-7.1269875483
21
-1.2979934133
0
LINE
5
26C
100
AcDbEntity
8
0
100
AcDbLine
62
9
6
CONTINUOUS
10
-6.6387860198
20
-0.7862330187
11
-6.6269925560
21
-0.7980264825
0
LINE
5
26D
100
AcDbEntity
8
0
100
AcDbLine
62
9
6
CONTINUOUS
10
-6.6387859859
20
-0.3362063987
11
-6.6269880534
21
-0.3480043312
0
LINE
5
26E
100
AcDbEntity
8
0
100
AcDbLine
62
9
6
CONTINUOUS
10
-6.4383178098
20
-0.1366898056
11
-6.4274285272
21
-0.1475790882
0
LINE
5
26F
100
AcDbEntity
8
0
100
AcDbLine
62
9
6
CONTINUOUS
10
16.7529192124
20
-0.1262110349
11
16.7569477612
21
-0.1261806034
0
LINE
5
270
100
AcDbEntity
8
0
100
AcDbLine
62
7
6
CONTINUOUS
10
16.0215107503
20
-0.1372665505
11
16.7529192124
21
-0.1262110349
0
LINE
5
271
100
AcDbEntity
8
0
100
AcDbLine
62
9
6
CONTINUOUS
10
-5.7470807876
20
-0.1262110349
11
-5.7430522388
21
-0.1261806034
0
LINE
5
272
100
AcDbEntity
8
0
100
AcDbLine
62
7
6
CONTINUOUS
10
-6.4418152131
20
-0.1367122086
11
-5.7470807876
21
-0.1262110349
0
LINE
5
273
100
AcDbEntity
8
0
100
AcDbLine
62
7
6
CONTINUOUS
10
6.3284892497
20
0.1372665505
11
5.5970807876
21
0.1262110349
0
LINE
5
274
100
AcDbEntity
8
0
100
AcDbLine
62
9
6
CONTINUOUS
10
5.5970803273
20
0.1262414895
11
5.5930522388
21
0.1261806034
0
LINE
5
275
100
AcDbEntity
8
0
100
AcDbLine
62
7
6
CONTINUOUS
10
16.7528928723
20
-0.1262140950
11
16.7569477612
21
-0.1261806034
0
LINE
5
276
100
AcDbEntity
8
0
100
AcDbLine
62
7
6
CONTINUOUS
10
-5.7471071277
20
-0.1262140950
11
-5.7430522388
21
-0.1261806034
0
LINE
5
277
100
AcDbEntity
8
0
100
AcDbLine
62
7
6
CONTINUOUS
10
5.5971071258
20
0.1262140946
11
5.5930522388
21
0.1261806034
0
LINE
5
278
100
AcDbEntity
8
0
100
AcDbLine
62
7
6
CONTINUOUS
10
-16.9028928742
20
0.1262140946
11
-16.9069477612
21
0.1261806034
0
LINE
5
279
100
AcDbEntity
8
0
100
AcDbLine
62
7
6
CONTINUOUS
10
16.0215123775
20
-0.1372665260
11
16.0250000000
21
-0.1372442708
0
LINE
5
27A
100
AcDbEntity
8
0
100
AcDbLine
62
7
6
CONTINUOUS
10
-6.4418134724
20
-0.1367121823
11
-6.4383178098
21
-0.1366898056
0
LINE
5
27B
100
AcDbEntity
8
0
100
AcDbLine
62
7
6
CONTINUOUS
10
6.3284876225
20
0.1372665260
11
6.3250000000
21
0.1372442708
0
LINE
5
27C
100
AcDbEntity
8
0
100
AcDbLine
62
7
6
CONTINUOUS
10
-16.2081865276
20
0.1367121823
11
-16.2116821902
21
0.1366898056
0
LINE
5
27D
100
AcDbEntity
8
0
100
AcDbLine
62
9
6
CONTINUOUS
10
-7.1269875483
20
-1.4985852320
11
-15.5230124517
21
-1.4985852320
0
LINE
5
27E
100
AcDbEntity
8
0
100
AcDbLine
62
9
6
CONTINUOUS
10
15.3250000000
20
-1.4505802321
11
7.0250000000
21
-1.4505802321
0
LINE
5
27F
100
AcDbEntity
8
0
100
AcDbLine
62
9
6
CONTINUOUS
10
-7.1269875483
20
-1.2979934133
11
-15.5230124517
21
-1.2979934133
0
LINE
5
280
100
AcDbEntity
8
0
100
AcDbLine
62
7
6
CONTINUOUS
10
-7.1387669813
20
-1.2862139802
11
-15.5112330187
21
-1.2862139802
0
LINE
5
281
100
AcDbEntity
8
0
100
AcDbLine
62
7
6
CONTINUOUS
10
15.3250000000
20
-1.2500000000
11
7.0250000000
21
-1.2500000000
0
LINE
5
282
100
AcDbEntity
8
0
100
AcDbLine
62
9
6
CONTINUOUS
10
-21.8341602573
20
-0.3977684534
11
-16.0230116237
21
-0.3976093458
0
LINE
5
283
100
AcDbEntity
8
0
100
AcDbLine
62
9
6
CONTINUOUS
10
-6.4270014432
20
-0.3977684532
11
6.3250000000
21
-0.3977684532
0
LINE
5
284
100
AcDbEntity
8
0
100
AcDbLine
62
9
6
CONTINUOUS
10
-21.8341602573
20
-0.1475790882
11
-16.2225714728
21
-0.1475790882
0
LINE
5
285
100
AcDbEntity
8
0
100
AcDbLine
62
9
6
CONTINUOUS
10
21.6841602573
20
-0.1475790882
11
16.0250000000
21
-0.1475790882
0
LINE
5
286
100
AcDbEntity
8
0
100
AcDbLine
62
9
6
CONTINUOUS
10
-6.4274285272
20
-0.1475790882
11
6.3250000000
21
-0.1475790882
0
LINE
5
287
100
AcDbEntity
8
0
100
AcDbLine
62
7
6
CONTINUOUS
10
-21.1726348052
20
-0.1261806034
11
-16.9069477612
21
-0.1261806034
0
LINE
5
288
100
AcDbEntity
8
0
100
AcDbLine
62
7
6
CONTINUOUS
10
-5.7430522388
20
-0.1261806034
11
5.5930522388
21
-0.1261806034
0
LINE
5
289
100
AcDbEntity
8
0
100
AcDbLine
62
7
6
CONTINUOUS
10
16.7569477612
20
-0.1261806034
11
21.0226348052
21
-0.1261806034
0
LINE
5
28A
100
AcDbEntity
8
0
100
AcDbLine
62
7
6
CONTINUOUS
10
22.0249999986
20
-0.1000000000
11
21.0750000000
21
-0.1000000000
0
LINE
5
28B
100
AcDbEntity
8
0
100
AcDbLine
62
7
6
CONTINUOUS
10
-21.2250000000
20
-0.1000000000
11
-22.1749999985
21
-0.1000000000
0
LINE
5
28C
100
AcDbEntity
8
0
100
AcDbLine
62
7
6
CONTINUOUS
10
-22.1750000000
20
0.0886550719
11
-21.2476915844
21
0.0886550719
0
LINE
5
28D
100
AcDbEntity
8
0
100
AcDbLine
62
7
6
CONTINUOUS
10
21.0976915844
20
0.0886550719
11
22.0250000000
21
0.0886550719
0
LINE
5
28E
100
AcDbEntity
8
0
100
AcDbLine
62
7
6
CONTINUOUS
10
21.0226348052
20
0.1261806034
11
16.7569477612
21
0.1261806034
0
LINE
5
28F
100
AcDbEntity
8
0
100
AcDbLine
62
7
6
CONTINUOUS
10
5.5930522388
20
0.1261806034
11
-5.7430522388
21
0.1261806034
0
LINE
5
290
100
AcDbEntity
8
0
100
AcDbLine
62
7
6
CONTINUOUS
10
-16.9069477612
20
0.1261806034
11
-21.1726348052
21
0.1261806034
0
LINE
5
291
100
AcDbEntity
8
0
100
AcDbLine
62
9
6
CONTINUOUS
10
21.6841602573
20
0.1475790882
11
16.0250000000
21
0.1475790882
0
LINE
5
292
100
AcDbEntity
8
0
100
AcDbLine
62
9
6
CONTINUOUS
10
6.3250000000
20
0.1475790882
11
-6.4274285272
21
0.1475790882
0
LINE
5
293
100
AcDbEntity
8
0
100
AcDbLine
62
9
6
CONTINUOUS
10
-16.2225714728
20
0.1475790882
11
-21.8341602573
21
0.1475790882
0
LINE
5
294
100
AcDbEntity
8
0
100
AcDbLine
62
9
6
CONTINUOUS
10
21.6841602573
20
-0.3977684534
11
15.8250000000
21
-0.3976093458
0
LINE
5
295
100
AcDbEntity
8
0
100
AcDbLine
62
7
6
CONTINUOUS
10
-16.2081865276
20
-0.1367121823
11
-16.2116821902
21
-0.1366898056
0
LINE
5
296
100
AcDbEntity
8
0
100
AcDbLine
62
7
6
CONTINUOUS
10
6.3284876225
20
-0.1372665260
11
6.3250000000
21
-0.1372442708
0
LINE
5
297
100
AcDbEntity
8
0
100
AcDbLine
62
7
6
CONTINUOUS
10
-6.4418134724
20
0.1367121823
11
-6.4383178098
21
0.1366898056
0
LINE
5
298
100
AcDbEntity
8
0
100
AcDbLine
62
7
6
CONTINUOUS
10
16.0215123775
20
0.1372665260
11
16.0250000000
21
0.1372442708
0
LINE
5
299
100
AcDbEntity
8
0
100
AcDbLine
62
7
6
CONTINUOUS
10
-16.9069477612
20
-0.1261806034
11
-16.9028928723
21
-0.1262140950
0
LINE
5
29A
100
AcDbEntity
8
0
100
AcDbLine
62
7
6
CONTINUOUS
10
5.5930522388
20
-0.1261806034
11
5.5971071277
21
-0.1262140950
0
LINE
5
29B
100
AcDbEntity
8
0
100
AcDbLine
62
7
6
CONTINUOUS
10
-5.7430522388
20
0.1261806034
11
-5.7471071258
21
0.1262140946
0
LINE
5
29C
100
AcDbEntity
8
0
100
AcDbLine
62
7
6
CONTINUOUS
10
16.7569477612
20
0.1261806034
11
16.7528928742
21
0.1262140946
0
LINE
5
29D
100
AcDbEntity
8
0
100
AcDbLine
62
9
6
CONTINUOUS
10
-16.9069477612
20
-0.1261806034
11
-16.9029192124
21
-0.1262110349
0
LINE
5
29E
100
AcDbEntity
8
0
100
AcDbLine
62
7
6
CONTINUOUS
10
-16.9029192124
20
-0.1262110349
11
-16.2081847869
21
-0.1367122086
0
LINE
5
29F
100
AcDbEntity
8
0
100
AcDbLine
62
9
6
CONTINUOUS
10
5.5930522388
20
-0.1261806034
11
5.5970807876
21
-0.1262110349
0
LINE
5
2A0
100
AcDbEntity
8
0
100
AcDbLine
62
7
6
CONTINUOUS
10
5.5970807876
20
-0.1262110349
11
6.3284892497
21
-0.1372665505
0
LINE
5
2A1
100
AcDbEntity
8
0
100
AcDbLine
62
7
6
CONTINUOUS
10
-5.7470807876
20
0.1262110349
11
-6.4418152131
21
0.1367122086
0
LINE
5
2A2
100
AcDbEntity
8
0
100
AcDbLine
62
9
6
CONTINUOUS
10
-5.7430522388
20
0.1261806034
11
-5.7470803273
21
0.1262414895
0
LINE
5
2A3
100
AcDbEntity
8
0
100
AcDbLine
62
7
6
CONTINUOUS
10
-16.2081847869
20
0.1367122086
11
-16.9029192124
21
0.1262110349
0
LINE
5
2A4
100
AcDbEntity
8
0
100
AcDbLine
62
9
6
CONTINUOUS
10
-16.9029196727
20
0.1262414895
11
-16.9069477612
21
0.1261806034
0
LINE
5
2A5
100
AcDbEntity
8
0
100
AcDbLine
62
9
6
CONTINUOUS
10
21.6841602573
20
0.3977684534
11
15.8250000000
21
0.3976093458
0
LINE
5
2A6
100
AcDbEntity
8
0
100
AcDbLine
62
9
6
CONTINUOUS
10
6.3250000000
20
0.3977684532
11
-6.6269883763
21
0.3976093458
0
LINE
5
2A7
100
AcDbEntity
8
0
100
AcDbLine
62
7
6
CONTINUOUS
10
7.0250000000
20
1.2500000000
11
15.3250000000
21
1.2500000000
0
LINE
5
2A8
100
AcDbEntity
8
0
100
AcDbLine
62
7
6
CONTINUOUS
10
-15.5112330187
20
1.2862139802
11
-7.1387669813
21
1.2862139802
0
LINE
5
2A9
100
AcDbEntity
8
0
100
AcDbLine
62
9
6
CONTINUOUS
10
-15.5230124517
20
1.2979934133
11
-7.1269875483
21
1.2979934133
0
LINE
5
2AA
100
AcDbEntity
8
0
100
AcDbLine
62
9
6
CONTINUOUS
10
7.0250000000
20
1.4505802321
11
15.3250000000
21
1.4505802321
0
LINE
5
2AB
100
AcDbEntity
8
0
100
AcDbLine
62
9
6
CONTINUOUS
10
-15.5230124518
20
1.4985852320
11
-7.1269875482
21
1.4985852320
0
LINE
5
2AC
100
AcDbEntity
8
0
100
AcDbLine
62
9
6
CONTINUOUS
10
-21.8341602573
20
0.3977684534
11
-16.0230116237
21
0.3976093458
0
LINE
5
2AD
100
AcDbEntity
8
0
100
AcDbLine
62
9
6
CONTINUOUS
10
6.3250000000
20
0.3977684532
11
6.5250000000
21
0.3976093458
0
LINE
5
2AE
100
AcDbEntity
8
0
100
AcDbLine
62
7
6
CONTINUOUS
10
16.7529192124
20
0.1262110349
11
16.0215107503
21
0.1372665505
0
LINE
5
2AF
100
AcDbEntity
8
0
100
AcDbLine
62
9
6
CONTINUOUS
10
16.7569477612
20
0.1261806034
11
16.7529196727
21
0.1262414895
0
LINE
5
2B0
100
AcDbEntity
8
0
100
AcDbLine
62
9
6
CONTINUOUS
10
6.3250000000
20
-0.7503001200
11
6.3250000000
21
-0.1372665505
0
LINE
5
2B1
100
AcDbEntity
8
0
100
AcDbLine
62
9
6
CONTINUOUS
10
6.3250000000
20
0.1372665505
11
6.3250000000
21
0.7503001200
0
LINE
5
2B2
100
AcDbEntity
8
0
100
AcDbLine
62
7
6
CONTINUOUS
10
6.5250000000
20
-0.7500000000
11
6.5250000000
21
-0.3367690172
0
LINE
5
2B3
100
AcDbEntity
8
0
100
AcDbLine
62
7
6
CONTINUOUS
10
6.5250000000
20
0.3367690172
11
6.5250000000
21
0.7500000000
0
LINE
5
2B4
100
AcDbEntity
8
0
100
AcDbLine
62
9
6
CONTINUOUS
10
7.0250000000
20
1.4505802321
11
7.0250000000
21
1.2500000000
0
LINE
5
2B5
100
AcDbEntity
8
0
100
AcDbLine
62
9
6
CONTINUOUS
10
7.0250000000
20
-1.4505802321
11
7.0250000000
21
-1.2500000000
0
LINE
5
2B6
100
AcDbEntity
8
0
100
AcDbLine
62
7
6
CONTINUOUS
10
8.9250000000
20
22.3213883311
11
8.9250000000
21
22.2060912167
0
LINE
5
2B7
100
AcDbEntity
8
0
100
AcDbLine
62
7
6
CONTINUOUS
10
21.0750000000
20
-0.1000000000
11
21.0226348052
21
-0.1261806034
0
LINE
5
2B8
100
AcDbEntity
8
0
100
AcDbLine
62
9
6
CONTINUOUS
10
22.0249999986
20
-0.1000000000
11
21.9341221542
21
-0.1454354616
0
LINE
5
2B9
100
AcDbEntity
8
0
100
AcDbLine
62
9
6
CONTINUOUS
10
22.2750000000
20
-0.3499714434
11
22.1840840780
21
-0.3954259424
0
LINE
5
2BA
100
AcDbEntity
8
0
100
AcDbLine
62
9
6
CONTINUOUS
10
-21.8357313847
20
9.5000000000
11
21.6857313847
21
9.5000000000
0
LINE
5
2BB
100
AcDbEntity
8
0
100
AcDbLine
62
7
6
CONTINUOUS
10
21.0976915844
20
0.0886550719
11
21.0226348052
21
0.1261806034
0
LINE
5
2BC
100
AcDbEntity
8
0
100
AcDbLine
62
9
6
CONTINUOUS
10
22.0250000000
20
0.0999999993
11
21.9341221542
21
0.1454354616
0
LINE
5
2BD
100
AcDbEntity
8
0
100
AcDbLine
62
9
6
CONTINUOUS
10
22.2750000000
20
0.3499714434
11
22.1840840780
21
0.3954259424
0
LINE
5
2BE
100
AcDbEntity
8
0
100
AcDbLine
62
7
6
CONTINUOUS
10
13.4250000000
20
22.3213883311
11
13.4250000000
21
22.2060912167
0
LINE
5
2BF
100
AcDbEntity
8
0
100
AcDbLine
62
9
6
CONTINUOUS
10
21.7750000000
20
22.2521154903
11
21.7110894575
21
22.0602279426
0
LINE
5
2C0
100
AcDbEntity
8
0
100
AcDbLine
62
9
6
CONTINUOUS
10
22.2750000000
20
21.7530293659
11
22.2110133051
21
21.5609131753
0
LINE
5
2C1
100
AcDbEntity
8
0
100
AcDbLine
62
9
6
CONTINUOUS
10
21.7110894575
20
-22.0602279426
11
21.7558886505
21
-22.1947348166
0
LINE
5
2C2
100
AcDbEntity
8
0
100
AcDbLine
62
9
6
CONTINUOUS
10
22.2110133051
20
-21.5609131753
11
22.2565732928
21
-21.6977042895
0
LINE
5
2C3
100
AcDbEntity
8
0
100
AcDbLine
62
9
6
CONTINUOUS
10
15.3250000000
20
1.4505802321
11
15.3250000000
21
1.2500000000
0
LINE
5
2C4
100
AcDbEntity
8
0
100
AcDbLine
62
9
6
CONTINUOUS
10
15.3250000000
20
-1.4505802321
11
15.3250000000
21
-1.2500000000
0
LINE
5
2C5
100
AcDbEntity
8
0
100
AcDbLine
62
7
6
CONTINUOUS
10
15.8250000000
20
0.7500000000
11
15.8250000000
21
0.3367690172
0
LINE
5
2C6
100
AcDbEntity
8
0
100
AcDbLine
62
7
6
CONTINUOUS
10
15.8250000000
20
-0.3367690172
11
15.8250000000
21
-0.7500000000
0
LINE
5
2C7
100
AcDbEntity
8
0
100
AcDbLine
62
9
6
CONTINUOUS
10
16.0250000000
20
0.7503001200
11
16.0250000000
21
0.1372665260
0
LINE
5
2C8
100
AcDbEntity
8
0
100
AcDbLine
62
9
6
CONTINUOUS
10
16.0250000000
20
-0.1372665260
11
16.0250000000
21
-0.7503001200
0
LINE
5
2C9
100
AcDbEntity
8
0
100
AcDbLine
62
9
6
CONTINUOUS
10
21.7029162692
20
21.2107174911
11
-21.8529162692
21
21.2107174911
0
LINE
5
2CA
100
AcDbEntity
8
0
100
AcDbLine
62
9
6
CONTINUOUS
10
21.6841602573
20
-0.3977684534
11
21.6841602573
21
-0.1475790882
0
LINE
5
2CB
100
AcDbEntity
8
0
100
AcDbLine
62
9
6
CONTINUOUS
10
21.6841602573
20
0.1475790882
11
21.6841602573
21
0.3977684534
0
LINE
5
2CC
100
AcDbEntity
8
0
100
AcDbLine
62
9
6
CONTINUOUS
10
21.7750000000
20
22.3213883311
11
21.7750000000
21
22.2521154903
0
LINE
5
2CD
100
AcDbEntity
8
0
100
AcDbLine
62
9
6
CONTINUOUS
10
22.0250000000
20
0.0886550719
11
22.0250000000
21
0.0999999993
0
LINE
5
2CE
100
AcDbEntity
8
0
100
AcDbLine
62
7
6
CONTINUOUS
10
22.2750000000
20
-0.3499714434
11
22.2750000000
21
-13.1000000000
0
LINE
5
2CF
100
AcDbEntity
8
0
100
AcDbLine
62
7
6
CONTINUOUS
10
22.2750000000
20
0.3386645915
11
22.2750000000
21
21.8207021581
0
LINE
5
2D0
100
AcDbEntity
8
0
100
AcDbLine
62
7
6
CONTINUOUS
10
22.2565732928
20
-21.6977042895
11
22.2750000000
21
-13.1000000000
0
LINE
5
2D1
100
AcDbEntity
8
0
100
AcDbLine
62
9
6
CONTINUOUS
10
21.7110894575
20
22.0602279426
11
-21.8610894575
21
22.0602279426
0
LINE
5
2D2
100
AcDbEntity
8
0
100
AcDbLine
62
7
6
CONTINUOUS
10
-13.3750000000
20
22.1956096608
11
-9.2750000000
21
22.1956096608
0
LINE
5
2D3
100
AcDbEntity
8
0
100
AcDbLine
62
7
6
CONTINUOUS
10
13.2250000000
20
22.1956096608
11
9.1250000000
21
22.1956096608
0
LINE
5
2D4
100
AcDbEntity
8
0
100
AcDbLine
62
7
6
CONTINUOUS
10
-21.9250000000
20
22.3213883311
11
-13.5750000000
21
22.3213883311
0
LINE
5
2D5
100
AcDbEntity
8
0
100
AcDbLine
62
7
6
CONTINUOUS
10
-9.0750000000
20
22.3213883311
11
8.9250000000
21
22.3213883311
0
LINE
5
2D6
100
AcDbEntity
8
0
100
AcDbLine
62
7
6
CONTINUOUS
10
13.4250000000
20
22.3213883311
11
21.7750000000
21
22.3213883311
0
LINE
5
2D7
100
AcDbEntity
8
0
100
AcDbLine
62
7
6
CONTINUOUS
10
-41.4079712650
20
-22.0602279426
11
-38.8414272169
21
-22.1947348166
0
LINE
5
2D8
100
AcDbEntity
8
0
100
AcDbLine
62
9
6
CONTINUOUS
10
-41.3905294901
20
-21.5609131753
11
-38.7803995418
21
-21.6977042895
0
LINE
5
2D9
100
AcDbEntity
8
0
100
AcDbLine
62
9
6
CONTINUOUS
10
-42.8432925107
20
-9.4905000000
11
-43.3344760488
21
-9.5000000000
0
LINE
5
2DA
100
AcDbEntity
8
0
100
AcDbLine
62
9
6
CONTINUOUS
10
-37.7247341959
20
-0.3499714434
11
-42.9333038804
21
-0.3954259424
0
LINE
5
2DB
100
AcDbEntity
8
0
100
AcDbLine
62
7
6
CONTINUOUS
10
-37.7247341959
20
-0.1000000000
11
-43.1767576891
21
-0.1475790882
0
LINE
5
2DC
100
AcDbEntity
8
0
100
AcDbLine
62
7
6
CONTINUOUS
10
-36.4247341959
20
0.0886550719
11
-43.1767576891
21
0.1475790882
0
LINE
5
2DD
100
AcDbEntity
8
0
100
AcDbLine
62
7
6
CONTINUOUS
10
-37.7247341959
20
-0.1000000000
11
-37.7247341959
21
-13.1000000000
0
LINE
5
2DE
100
AcDbEntity
8
0
100
AcDbLine
62
7
6
CONTINUOUS
10
-37.7247341959
20
0.3500095196
11
-37.7247341959
21
21.7525720450
0
LINE
5
2DF
100
AcDbEntity
8
0
100
AcDbLine
62
9
6
CONTINUOUS
10
-36.4247341959
20
0.3386645915
11
-42.9333038804
21
0.3954259424
0
LINE
5
2E0
100
AcDbEntity
8
0
100
AcDbLine
62
7
6
CONTINUOUS
10
-36.4247341959
20
0.0886550719
11
-36.4247341959
21
22.3213883311
0
LINE
5
2E1
100
AcDbEntity
8
0
100
AcDbLine
62
7
6
CONTINUOUS
10
-37.7247341959
20
-13.1000000000
11
-38.8414272169
21
-22.1947348166
0
LINE
5
2E2
100
AcDbEntity
8
0
100
AcDbLine
62
9
6
CONTINUOUS
10
-34.3417566505
20
13.1704772022
11
-34.3417566505
21
9.0295227978
0
LINE
5
2E3
100
AcDbEntity
8
0
100
AcDbLine
62
7
6
CONTINUOUS
10
-33.7149265748
20
13.1650069390
11
-33.7149265748
21
9.0349930610
0
LINE
5
2E4
100
AcDbEntity
8
0
100
AcDbLine
62
7
6
CONTINUOUS
10
-33.7149265748
20
9.0349930610
11
-36.4247341959
21
9.0113449281
0
LINE
5
2E5
100
AcDbEntity
8
0
100
AcDbLine
62
9
6
CONTINUOUS
10
-42.8432925107
20
9.4905000000
11
-43.3344760494
21
9.5000000000
0
LINE
5
2E6
100
AcDbEntity
8
0
100
AcDbLine
62
7
6
CONTINUOUS
10
-36.4247341959
20
13.1886550719
11
-33.7149265748
21
13.1650069390
0
LINE
5
2E7
100
AcDbEntity
8
0
100
AcDbLine
62
9
6
CONTINUOUS
10
-36.4247341959
20
21.8207021581
11
-37.7247341959
21
21.7525720450
0
LINE
5
2E8
100
AcDbEntity
8
0
100
AcDbLine
62
9
6
CONTINUOUS
10
-37.7247341959
20
21.7530293659
11
-41.3905294901
21
21.5609131753
0
LINE
5
2E9
100
AcDbEntity
8
0
100
AcDbLine
62
7
6
CONTINUOUS
10
-36.4247341959
20
22.3213883311
11
-41.4079712650
21
22.0602279426
0
ARC
5
2EA
100
AcDbEntity
8
0
100
AcDbCircle
62
7
6
CONTINUOUS
10
7.0250000000
20
-0.7500000000
40
0.5000000000
100
AcDbArc
50
180.0000000000
51
270.0000000000
0
ARC
5
2EB
100
AcDbEntity
8
0
100
AcDbCircle
62
7
6
CONTINUOUS
10
15.3250000000
20
-0.7500000000
40
0.5000000000
100
AcDbArc
50
270.0000000000
51
360.0000000000
0
ARC
5
2EC
100
AcDbEntity
8
0
100
AcDbCircle
62
7
6
CONTINUOUS
10
15.3250000000
20
0.7500000000
40
0.5000000000
100
AcDbArc
50
0.0000000000
51
90.0000000000
0
ARC
5
2ED
100
AcDbEntity
8
0
100
AcDbCircle
62
7
6
CONTINUOUS
10
7.0250000000
20
0.7500000000
40
0.5000000000
100
AcDbArc
50
90.0000000000
51
180.0000000000
0
ARC
5
2EE
100
AcDbEntity
8
0
100
AcDbCircle
62
7
6
CONTINUOUS
10
-43.1745760552
20
-0.3975695690
40
0.2500000000
100
AcDbArc
50
90.4999999467
51
180.0455809120
0
ARC
5
2EF
100
AcDbEntity
8
0
100
AcDbCircle
62
7
6
CONTINUOUS
10
456.5752658041
20
0.0000000000
40
500.0000000000
100
AcDbArc
50
180.0455809120
51
181.0886853200
0
ARC
5
2F0
100
AcDbEntity
8
0
100
AcDbCircle
62
7
6
CONTINUOUS
10
46.6492774843
20
-7.7900000000
40
90.0000000000
100
AcDbArc
50
181.0886853200
51
188.5758796048
0
ARC
5
2F1
100
AcDbEntity
8
0
100
AcDbCircle
62
7
6
CONTINUOUS
10
-41.3556353087
20
-21.0615984079
40
1.0000000000
100
AcDbArc
50
188.5758796048
51
267.0000000000
0
ARC
5
2F2
100
AcDbEntity
8
0
100
AcDbCircle
62
7
6
CONTINUOUS
10
-43.1745759720
20
0.3975695683
40
0.2500000000
100
AcDbArc
50
179.9544190880
51
269.4999809885
0
ARC
5
2F3
100
AcDbEntity
8
0
100
AcDbCircle
62
7
6
CONTINUOUS
10
456.5752658041
20
0.0000000000
40
500.0000000000
100
AcDbArc
50
178.9113146800
51
179.9544190880
0
ARC
5
2F4
100
AcDbEntity
8
0
100
AcDbCircle
62
7
6
CONTINUOUS
10
46.6492774843
20
7.7900000000
40
90.0000000000
100
AcDbArc
50
171.4241203952
51
178.9113146800
0
ARC
5
2F5
100
AcDbEntity
8
0
100
AcDbCircle
62
7
6
CONTINUOUS
10
-41.3556353087
20
21.0615984079
40
1.0000000000
100
AcDbArc
50
93.0000000000
51
171.4241203952
0
SPLINE
5
2F6
100
AcDbEntity
8
0
100
AcDbSpline
62
7
6
CONTINUOUS
70
0
71
3
72
20
73
16
74
14
42
0.0000001000
43
0.0000001000
44
0.0000000001
12
0.0000000000
22
0.3102409269
32
0.0000000000
13
0.3102891983
23
0.0046938343
33
0.0000000000
40
0.0000000000
40
0.0000000000
40
0.0000000000
40
0.0000000000
40
0.0796003205
40
0.1588721387
40
0.2378293324
40
0.3164780235
40
0.3948203310
40
0.4728571265
40
0.5505908106
40
0.6280269220
40
0.7051751597
40
0.7820499028
40
0.8586698517
40
0.9350579342
40
1.0000000000
40
1.0000000000
40
1.0000000000
40
1.0000000000
10
15.8250000000
20
-0.3367690172
30
0.0000000000
10
15.8250000000
20
-0.3285372581
30
0.0000000000
10
15.8260170030
20
-0.3120895633
30
0.0000000000
10
15.8305573938
20
-0.2878571740
30
0.0000000000
10
15.8380072113
20
-0.2644555483
30
0.0000000000
10
15.8482227757
20
-0.2422297400
30
0.0000000000
10
15.8610211422
20
-0.2214962209
30
0.0000000000
10
15.8761837025
20
-0.2025453375
30
0.0000000000
10
15.8934608070
20
-0.1856347321
30
0.0000000000
10
15.9125770076
20
-0.1709865535
30
0.0000000000
10
15.9332367180
20
-0.1587851636
30
0.0000000000
10
15.9551291443
20
-0.1491761365
30
0.0000000000
10
15.9779353221
20
-0.1422661051
30
0.0000000000
10
16.0001786141
20
-0.1383265002
30
0.0000000000
10
16.0147954378
20
-0.1373681877
30
0.0000000000
10
16.0215123783
20
-0.1372665786
30
0.0000000000
11
15.8250000000
21
-0.3367690172
31
0.0000000000
11
15.8265251970
21
-0.3121208836
31
0.0000000000
11
15.8310542383
21
-0.2879481457
31
0.0000000000
11
15.8384854822
21
-0.2646067976
31
0.0000000000
11
15.8486757136
21
-0.2424365186
31
0.0000000000
11
15.8614424756
21
-0.2217545860
31
0.0000000000
11
15.8765676509
21
-0.2028505328
31
0.0000000000
11
15.8938021581
21
-0.1859815841
31
0.0000000000
11
15.9128712164
21
-0.1713693826
31
0.0000000000
11
15.9334798681
21
-0.1591978702
31
0.0000000000
11
15.9553184502
21
-0.1496122498
31
0.0000000000
11
15.9780676338
21
-0.1427189078
31
0.0000000000
11
16.0014031747
21
-0.1385859474
31
0.0000000000
11
16.0215123783
21
-0.1372665786
31
0.0000000000
0
SPLINE
5
2F7
100
AcDbEntity
8
0
100
AcDbSpline
62
7
6
CONTINUOUS
70
0
71
3
72
16
73
12
74
10
42
0.0000001000
43
0.0000001000
44
0.0000000001
12
0.1726171324
22
0.0156856998
32
0.0000000000
13
0.1733283461
23
-0.0000000000
33
0.0000000000
40
0.0000000000
40
0.0000000000
40
0.0000000000
40
0.0000000000
40
0.0738484585
40
0.1604675888
40
0.2581385912
40
0.3658769979
40
0.4826115293
40
0.6058245174
40
0.7342076873
40
0.8665075761
40
1.0000000000
40
1.0000000000
40
1.0000000000
40
1.0000000000
10
8.8672649731
20
-22.1696065528
30
0.0000000000
10
8.8715141428
20
-22.1692204313
30
0.0000000000
10
8.8807579868
20
-22.1684989977
30
0.0000000000
10
8.8956444621
20
-22.1675826988
30
0.0000000000
10
8.9124970077
20
-22.1667590724
30
0.0000000000
10
8.9310956029
20
-22.1660401731
30
0.0000000000
10
8.9511747326
20
-22.1654378052
30
0.0000000000
10
8.9724502817
20
-22.1649607589
30
0.0000000000
10
8.9946277781
20
-22.1646154192
30
0.0000000000
10
9.0174008911
20
-22.1644066262
30
0.0000000000
10
9.0327573802
20
-22.1643601773
30
0.0000000000
10
9.0404700538
20
-22.1643601773
30
0.0000000000
11
8.8672649731
21
-22.1696065528
31
0.0000000000
11
8.8800244600
21
-22.1685885689
31
0.0000000000
11
8.8950087460
21
-22.1676516195
31
0.0000000000
11
8.9119172049
21
-22.1668148090
31
0.0000000000
11
8.9305770997
21
-22.1660860577
31
0.0000000000
11
8.9508012394
21
-22.1654738668
31
0.0000000000
11
8.9721520907
21
-22.1649913253
31
0.0000000000
11
8.9944017963
21
-22.1646423284
31
0.0000000000
11
9.0173321401
21
-22.1644306317
31
0.0000000000
11
9.0404700538
21
-22.1643601773
31
0.0000000000
0
SPLINE
5
2F8
100
AcDbEntity
8
0
100
AcDbSpline
62
7
6
CONTINUOUS
70
0
71
3
72
16
73
12
74
10
42
0.0000001000
43
0.0000001000
44
0.0000000001
12
0.1733283461
22
0.0000000000
32
0.0000000000
13
0.1726171324
23
-0.0156856998
33
0.0000000000
40
0.0000000000
40
0.0000000000
40
0.0000000000
40
0.0000000000
40
0.1334924239
40
0.2657923127
40
0.3941754826
40
0.5173884707
40
0.6341230021
40
0.7418614088
40
0.8395324112
40
0.9261515415
40
1.0000000000
40
1.0000000000
40
1.0000000000
40
1.0000000000
10
13.3095299462
20
-22.1643601773
30
0.0000000000
10
13.3172426198
20
-22.1643601773
30
0.0000000000
10
13.3325991089
20
-22.1644066262
30
0.0000000000
10
13.3553722219
20
-22.1646154192
30
0.0000000000
10
13.3775497183
20
-22.1649607589
30
0.0000000000
10
13.3988252674
20
-22.1654378052
30
0.0000000000
10
13.4189043971
20
-22.1660401731
30
0.0000000000
10
13.4375029923
20
-22.1667590724
30
0.0000000000
10
13.4543555379
20
-22.1675826988
30
0.0000000000
10
13.4692420132
20
-22.1684989977
30
0.0000000000
10
13.4784858572
20
-22.1692204313
30
0.0000000000
10
13.4827350269
20
-22.1696065528
30
0.0000000000
11
13.3095299462
21
-22.1643601773
31
0.0000000000
11
13.3326678599
21
-22.1644306317
31
0.0000000000
11
13.3555982037
21
-22.1646423284
31
0.0000000000
11
13.3778479093
21
-22.1649913253
31
0.0000000000
11
13.3991987606
21
-22.1654738668
31
0.0000000000
11
13.4194229003
21
-22.1660860577
31
0.0000000000
11
13.4380827951
21
-22.1668148090
31
0.0000000000
11
13.4549912540
21
-22.1676516195
31
0.0000000000
11
13.4699755400
21
-22.1685885689
31
0.0000000000
11
13.4827350269
21
-22.1696065528
31
0.0000000000
0
SPLINE
5
2F9
100
AcDbEntity
8
0
100
AcDbSpline
62
7
6
CONTINUOUS
70
0
71
3
72
20
73
16
74
14
42
0.0000001000
43
0.0000001000
44
0.0000000001
12
0.3143019541
22
-0.0000041133
32
0.0000000000
13
0.0000261719
23
-0.3143019530
33
0.0000000000
40
0.0000000000
40
0.0000000000
40
0.0000000000
40
0.0000000000
40
0.0752724972
40
0.1506797033
40
0.2265189215
40
0.3025107335
40
0.3788573249
40
0.4554640333
40
0.5324917028
40
0.6097981317
40
0.6875137852
40
0.7654544752
40
0.8436931858
40
0.9219605981
40
1.0000000000
40
1.0000000000
40
1.0000000000
40
1.0000000000
10
6.3250000000
20
-0.1475790882
30
0.0000000000
10
6.3328860976
20
-0.1475791914
30
0.0000000000
10
6.3486884041
20
-0.1485169311
30
0.0000000000
10
6.3720973927
20
-0.1527292663
30
0.0000000000
10
6.3949162063
20
-0.1597163168
30
0.0000000000
10
6.4168283361
20
-0.1694145853
30
0.0000000000
10
6.4374934919
20
-0.1817050053
30
0.0000000000
10
6.4566210380
20
-0.1964526495
30
0.0000000000
10
6.4739057009
20
-0.2134675357
30
0.0000000000
10
6.4890796047
20
-0.2325383222
30
0.0000000000
10
6.5018781359
20
-0.2533915020
30
0.0000000000
10
6.5120838193
20
-0.2757365805
30
0.0000000000
10
6.5195028967
20
-0.2992170728
30
0.0000000000
10
6.5239979518
20
-0.3234349127
30
0.0000000000
10
6.5249993192
20
-0.3398283522
30
0.0000000000
10
6.5250000000
20
-0.3480043310
30
0.0000000000
11
6.3250000000
21
-0.1475790882
31
0.0000000000
11
6.3486167003
21
-0.1489813330
31
0.0000000000
11
6.3719428062
21
-0.1531780881
31
0.0000000000
11
6.3947346970
21
-0.1601569396
31
0.0000000000
11
6.4165755962
21
-0.1698232985
31
0.0000000000
11
6.4371997346
21
-0.1820889949
31
0.0000000000
11
6.4562680033
21
-0.1967904842
31
0.0000000000
11
6.4735213919
21
-0.2137740680
31
0.0000000000
11
6.4886498836
21
-0.2327872277
31
0.0000000000
11
6.5014271397
21
-0.2536050105
31
0.0000000000
11
6.5116045085
21
-0.2758877352
31
0.0000000000
11
6.5190138654
21
-0.2993355077
31
0.0000000000
11
6.5235023045
21
-0.3235221624
31
0.0000000000
11
6.5250000000
21
-0.3480043310
31
0.0000000000
0
SPLINE
5
2FA
100
AcDbEntity
8
0
100
AcDbSpline
62
7
6
CONTINUOUS
70
0
71
3
72
20
73
16
74
14
42
0.0000001000
43
0.0000001000
44
0.0000000001
12
0.0000000000
22
0.3102409269
32
0.0000000000
13
-0.3102891983
23
0.0046938343
33
0.0000000000
40
0.0000000000
40
0.0000000000
40
0.0000000000
40
0.0000000000
40
0.0796003205
40
0.1588721387
40
0.2378293324
40
0.3164780235
40
0.3948203310
40
0.4728571265
40
0.5505908106
40
0.6280269220
40
0.7051751597
40
0.7820499028
40
0.8586698517
40
0.9350579342
40
1.0000000000
40
1.0000000000
40
1.0000000000
40
1.0000000000
10
6.5250000000
20
-0.3367690172
30
0.0000000000
10
6.5250000000
20
-0.3285372581
30
0.0000000000
10
6.5239829970
20
-0.3120895633
30
0.0000000000
10
6.5194426062
20
-0.2878571740
30
0.0000000000
10
6.5119927887
20
-0.2644555483
30
0.0000000000
10
6.5017772243
20
-0.2422297400
30
0.0000000000
10
6.4889788578
20
-0.2214962209
30
0.0000000000
10
6.4738162975
20
-0.2025453375
30
0.0000000000
10
6.4565391930
20
-0.1856347321
30
0.0000000000
10
6.4374229924
20
-0.1709865535
30
0.0000000000
10
6.4167632820
20
-0.1587851636
30
0.0000000000
10
6.3948708557
20
-0.1491761365
30
0.0000000000
10
6.3720646779
20
-0.1422661051
30
0.0000000000
10
6.3498213859
20
-0.1383265002
30
0.0000000000
10
6.3352045622
20
-0.1373681877
30
0.0000000000
10
6.3284876217
20
-0.1372665786
30
0.0000000000
11
6.5250000000
21
-0.3367690172
31
0.0000000000
11
6.5234748030
21
-0.3121208836
31
0.0000000000
11
6.5189457617
21
-0.2879481457
31
0.0000000000
11
6.5115145178
21
-0.2646067976
31
0.0000000000
11
6.5013242864
21
-0.2424365186
31
0.0000000000
11
6.4885575244
21
-0.2217545860
31
0.0000000000
11
6.4734323491
21
-0.2028505328
31
0.0000000000
11
6.4561978419
21
-0.1859815841
31
0.0000000000
11
6.4371287836
21
-0.1713693826
31
0.0000000000
11
6.4165201319
21
-0.1591978702
31
0.0000000000
11
6.3946815498
21
-0.1496122498
31
0.0000000000
11
6.3719323662
21
-0.1427189078
31
0.0000000000
11
6.3485968253
21
-0.1385859474
31
0.0000000000
11
6.3284876217
21
-0.1372665786
31
0.0000000000
0
SPLINE
5
2FB
100
AcDbEntity
8
0
100
AcDbSpline
62
7
6
CONTINUOUS
70
0
71
3
72
16
73
12
74
10
42
0.0000001000
43
0.0000001000
44
0.0000000001
12
0.1726171324
22
0.0156856998
32
0.0000000000
13
0.1733283461
23
0.0000000000
33
0.0000000000
40
0.0000000000
40
0.0000000000
40
0.0000000000
40
0.0000000000
40
0.0738484585
40
0.1604675888
40
0.2581385912
40
0.3658769979
40
0.4826115293
40
0.6058245174
40
0.7342076873
40
0.8665075761
40
1.0000000000
40
1.0000000000
40
1.0000000000
40
1.0000000000
10
-13.6327350269
20
-22.1696065528
30
0.0000000000
10
-13.6284858572
20
-22.1692204313
30
0.0000000000
10
-13.6192420132
20
-22.1684989977
30
0.0000000000
10
-13.6043555379
20
-22.1675826988
30
0.0000000000
10
-13.5875029923
20
-22.1667590724
30
0.0000000000
10
-13.5689043971
20
-22.1660401731
30
0.0000000000
10
-13.5488252674
20
-22.1654378052
30
0.0000000000
10
-13.5275497183
20
-22.1649607589
30
0.0000000000
10
-13.5053722219
20
-22.1646154192
30
0.0000000000
10
-13.4825991089
20
-22.1644066262
30
0.0000000000
10
-13.4672426198
20
-22.1643601773
30
0.0000000000
10
-13.4595299462
20
-22.1643601773
30
0.0000000000
11
-13.6327350269
21
-22.1696065528
31
0.0000000000
11
-13.6199755400
21
-22.1685885689
31
0.0000000000
11
-13.6049912540
21
-22.1676516195
31
0.0000000000
11
-13.5880827951
21
-22.1668148090
31
0.0000000000
11
-13.5694229003
21
-22.1660860577
31
0.0000000000
11
-13.5491987606
21
-22.1654738668
31
0.0000000000
11
-13.5278479093
21
-22.1649913253
31
0.0000000000
11
-13.5055982037
21
-22.1646423284
31
0.0000000000
11
-13.4826678599
21
-22.1644306317
31
0.0000000000
11
-13.4595299462
21
-22.1643601773
31
0.0000000000
0
SPLINE
5
2FC
100
AcDbEntity
8
0
100
AcDbSpline
62
7
6
CONTINUOUS
70
0
71
3
72
16
73
12
74
10
42
0.0000001000
43
0.0000001000
44
0.0000000001
12
0.1733283461
22
0.0000000000
32
0.0000000000
13
0.1726171324
23
-0.0156856998
33
0.0000000000
40
0.0000000000
40
0.0000000000
40
0.0000000000
40
0.0000000000
40
0.1334924239
40
0.2657923127
40
0.3941754826
40
0.5173884707
40
0.6341230021
40
0.7418614088
40
0.8395324112
40
0.9261515415
40
1.0000000000
40
1.0000000000
40
1.0000000000
40
1.0000000000
10
-9.1904700538
20
-22.1643601773
30
0.0000000000
10
-9.1827573802
20
-22.1643601773
30
0.0000000000
10
-9.1674008911
20
-22.1644066262
30
0.0000000000
10
-9.1446277781
20
-22.1646154192
30
0.0000000000
10
-9.1224502817
20
-22.1649607589
30
0.0000000000
10
-9.1011747326
20
-22.1654378052
30
0.0000000000
10
-9.0810956029
20
-22.1660401731
30
0.0000000000
10
-9.0624970077
20
-22.1667590724
30
0.0000000000
10
-9.0456444621
20
-22.1675826988
30
0.0000000000
10
-9.0307579868
20
-22.1684989977
30
0.0000000000
10
-9.0215141428
20
-22.1692204313
30
0.0000000000
10
-9.0172649731
20
-22.1696065528
30
0.0000000000
11
-9.1904700538
21
-22.1643601773
31
0.0000000000
11
-9.1673321401
21
-22.1644306317
31
0.0000000000
11
-9.1444017963
21
-22.1646423284
31
0.0000000000
11
-9.1221520907
21
-22.1649913253
31
0.0000000000
11
-9.1008012394
21
-22.1654738668
31
0.0000000000
11
-9.0805770997
21
-22.1660860577
31
0.0000000000
11
-9.0619172049
21
-22.1668148090
31
0.0000000000
11
-9.0450087460
21
-22.1676516195
31
0.0000000000
11
-9.0300244600
21
-22.1685885689
31
0.0000000000
11
-9.0172649731
21
-22.1696065528
31
0.0000000000
0
SPLINE
5
2FD
100
AcDbEntity
8
0
100
AcDbSpline
62
7
6
CONTINUOUS
70
0
71
3
72
20
73
16
74
14
42
0.0000001000
43
0.0000001000
44
0.0000000001
12
0.0000237084
22
0.3105890571
32
0.0000000000
13
0.3106369231
23
0.0046987873
33
0.0000000000
40
0.0000000000
40
0.0000000000
40
0.0000000000
40
0.0000000000
40
0.0795701838
40
0.1588067754
40
0.2377292296
40
0.3163482463
40
0.3946694030
40
0.4726958146
40
0.5504308891
40
0.6278799552
40
0.7050513657
40
0.7819571568
40
0.8586128639
40
0.9350376605
40
1.0000000000
40
1.0000000000
40
1.0000000000
40
1.0000000000
10
-6.6387859859
20
-0.3362063987
30
0.0000000000
10
-6.6387853570
20
-0.3279685226
30
0.0000000000
10
-6.6377631996
20
-0.3115091135
30
0.0000000000
10
-6.6332042107
20
-0.2872623008
30
0.0000000000
10
-6.6257267841
20
-0.2638510965
30
0.0000000000
10
-6.6154764260
20
-0.2416206189
30
0.0000000000
10
-6.6026379317
20
-0.2208870597
30
0.0000000000
10
-6.5874317077
20
-0.2019401930
30
0.0000000000
10
-6.5701090668
20
-0.1850368087
30
0.0000000000
10
-6.5509469102
20
-0.1703979787
30
0.0000000000
10
-6.5302420092
20
-0.1582068359
30
0.0000000000
10
-6.5083060387
20
-0.1486076550
30
0.0000000000
10
-6.4854585360
20
-0.1417057828
30
0.0000000000
10
-6.4631791132
20
-0.1377713424
30
0.0000000000
10
-6.4485400387
20
-0.1368139823
30
0.0000000000
10
-6.4418134716
20
-0.1367122343
30
0.0000000000
11
-6.6387859859
21
-0.3362063987
31
0.0000000000
11
-6.6372530958
21
-0.3115403557
31
0.0000000000
11
-6.6327058381
21
-0.2873540900
31
0.0000000000
11
-6.6252475340
21
-0.2640038450
31
0.0000000000
11
-6.6150231416
21
-0.2418292965
31
0.0000000000
11
-6.6022168784
21
-0.2211474439
31
0.0000000000
11
-6.5870485750
21
-0.2022472698
31
0.0000000000
11
-6.5697689051
21
-0.1853851970
31
0.0000000000
11
-6.5506540537
21
-0.1707818611
31
0.0000000000
11
-6.5300001422
21
-0.1586200553
31
0.0000000000
11
-6.5081177227
21
-0.1490437639
31
0.0000000000
11
-6.4853267266
21
-0.1421581601
31
0.0000000000
11
-6.4619517143
21
-0.1380302074
31
0.0000000000
11
-6.4418134716
21
-0.1367122343
31
0.0000000000
0
SPLINE
5
2FE
100
AcDbEntity
8
0
100
AcDbSpline
62
7
6
CONTINUOUS
70
0
71
3
72
20
73
16
74
14
42
0.0000001000
43
0.0000001000
44
0.0000000001
12
-0.0000237084
22
0.3105890571
32
0.0000000000
13
-0.3106369231
23
0.0046987873
33
0.0000000000
40
0.0000000000
40
0.0000000000
40
0.0000000000
40
0.0000000000
40
0.0795701838
40
0.1588067754
40
0.2377292296
40
0.3163482463
40
0.3946694030
40
0.4726958146
40
0.5504308891
40
0.6278799552
40
0.7050513657
40
0.7819571568
40
0.8586128639
40
0.9350376605
40
1.0000000000
40
1.0000000000
40
1.0000000000
40
1.0000000000
10
-16.0112140141
20
-0.3362063987
30
0.0000000000
10
-16.0112146430
20
-0.3279685226
30
0.0000000000
10
-16.0122368004
20
-0.3115091135
30
0.0000000000
10
-16.0167957893
20
-0.2872623008
30
0.0000000000
10
-16.0242732159
20
-0.2638510965
30
0.0000000000
10
-16.0345235740
20
-0.2416206189
30
0.0000000000
10
-16.0473620683
20
-0.2208870597
30
0.0000000000
10
-16.0625682923
20
-0.2019401930
30
0.0000000000
10
-16.0798909332
20
-0.1850368087
30
0.0000000000
10
-16.0990530898
20
-0.1703979787
30
0.0000000000
10
-16.1197579908
20
-0.1582068359
30
0.0000000000
10
-16.1416939613
20
-0.1486076550
30
0.0000000000
10
-16.1645414640
20
-0.1417057828
30
0.0000000000
10
-16.1868208868
20
-0.1377713424
30
0.0000000000
10
-16.2014599613
20
-0.1368139823
30
0.0000000000
10
-16.2081865284
20
-0.1367122343
30
0.0000000000
11
-16.0112140141
21
-0.3362063987
31
0.0000000000
11
-16.0127469042
21
-0.3115403557
31
0.0000000000
11
-16.0172941619
21
-0.2873540900
31
0.0000000000
11
-16.0247524660
21
-0.2640038450
31
0.0000000000
11
-16.0349768584
21
-0.2418292965
31
0.0000000000
11
-16.0477831216
21
-0.2211474439
31
0.0000000000
11
-16.0629514250
21
-0.2022472698
31
0.0000000000
11
-16.0802310949
21
-0.1853851970
31
0.0000000000
11
-16.0993459463
21
-0.1707818611
31
0.0000000000
11
-16.1199998578
21
-0.1586200553
31
0.0000000000
11
-16.1418822773
21
-0.1490437639
31
0.0000000000
11
-16.1646732734
21
-0.1421581601
31
0.0000000000
11
-16.1880482857
21
-0.1380302074
31
0.0000000000
11
-16.2081865284
21
-0.1367122343
31
0.0000000000
0
SPLINE
5
2FF
100
AcDbEntity
8
0
100
AcDbSpline
62
7
6
CONTINUOUS
70
0
71
3
72
10
73
6
74
4
42
0.0000001000
43
0.0000001000
44
0.0000000001
12
0.0627158223
22
-0.0078302189
32
0.0000000000
13
0.0632027428
23
0.0000000000
33
0.0000000000
40
0.0000000000
40
0.0000000000
40
0.0000000000
40
0.0000000000
40
0.3371715920
40
0.6698236531
40
1.0000000000
40
1.0000000000
40
1.0000000000
40
1.0000000000
10
-15.5742776800
20
-1.2822903819
30
0.0000000000
10
-15.5672290155
20
-1.2831704244
30
0.0000000000
10
-15.5531877849
20
-1.2846263273
30
0.0000000000
10
-15.5321549864
20
-1.2859268398
30
0.0000000000
10
-15.5181890356
20
-1.2862139802
30
0.0000000000
10
-15.5112330187
20
-1.2862139802
30
0.0000000000
11
-15.5742776800
21
-1.2822903819
31
0.0000000000
11
-15.5530811258
21
-1.2844879740
31
0.0000000000
11
-15.5320966652
21
-1.2857852648
31
0.0000000000
11
-15.5112330187
21
-1.2862139802
31
0.0000000000
0
SPLINE
5
300
100
AcDbEntity
8
0
100
AcDbSpline
62
7
6
CONTINUOUS
70
0
71
3
72
21
73
17
74
15
42
0.0000001000
43
0.0000001000
44
0.0000000001
12
-0.6541205412
22
0.0816684978
32
0.0000000000
13
-0.0816684978
23
0.6541205412
33
0.0000000000
40
0.0000000000
40
0.0000000000
40
0.0000000000
40
0.0000000000
40
0.0725908208
40
0.1446932362
40
0.2162634435
40
0.2875957322
40
0.3585074992
40
0.4293378329
40
0.5000000000
40
0.5706621671
40
0.6414925008
40
0.7124042678
40
0.7837365565
40
0.8553067638
40
0.9274091792
40
1.0000000000
40
1.0000000000
40
1.0000000000
40
1.0000000000
10
-15.5742776800
20
-1.2822903819
30
0.0000000000
10
-15.5901053957
20
-1.2803142541
30
0.0000000000
10
-15.6214866153
20
-1.2748615312
30
0.0000000000
10
-15.6673821401
20
-1.2622809291
30
0.0000000000
10
-15.7116234733
20
-1.2455053539
30
0.0000000000
10
-15.7538482470
20
-1.2247465910
30
0.0000000000
10
-15.7937960487
20
-1.2001969435
30
0.0000000000
10
-15.8311497608
20
-1.1721007190
30
0.0000000000
10
-15.8656697413
20
-1.1406697413
30
0.0000000000
10
-15.8971007190
20
-1.1061497608
30
0.0000000000
10
-15.9251969435
20
-1.0687960487
30
0.0000000000
10
-15.9497465910
20
-1.0288482470
30
0.0000000000
10
-15.9705053539
20
-0.9866234733
30
0.0000000000
10
-15.9872809291
20
-0.9423821401
30
0.0000000000
10
-15.9998615312
20
-0.8964866153
30
0.0000000000
10
-16.0053142541
20
-0.8651053957
30
0.0000000000
10
-16.0072903819
20
-0.8492776800
30
0.0000000000
11
-15.5742776800
21
-1.2822903819
31
0.0000000000
11
-15.6214228121
21
-1.2740970002
31
0.0000000000
11
-15.6672616394
21
-1.2615316450
31
0.0000000000
11
-15.7113754379
21
-1.2448034589
31
0.0000000000
11
-15.7535735578
21
-1.2240572786
31
0.0000000000
11
-15.7933990292
21
-1.1995823079
31
0.0000000000
11
-15.8307130714
21
-1.1715156215
31
0.0000000000
11
-15.8651553156
21
-1.1401553156
31
0.0000000000
11
-15.8965156215
21
-1.1057130714
31
0.0000000000
11
-15.9245823079
21
-1.0683990292
31
0.0000000000
11
-15.9490572786
21
-1.0285735578
31
0.0000000000
11
-15.9698034589
21
-0.9863754379
31
0.0000000000
11
-15.9865316450
21
-0.9422616394
31
0.0000000000
11
-15.9990970002
21
-0.8964228121
31
0.0000000000
11
-16.0072903819
21
-0.8492776800
31
0.0000000000
0
SPLINE
5
301
100
AcDbEntity
8
0
100
AcDbSpline
62
7
6
CONTINUOUS
70
0
71
3
72
21
73
17
74
15
42
0.0000001000
43
0.0000001000
44
0.0000000001
12
0.6541205412
22
0.0816684978
32
0.0000000000
13
0.0816684978
23
0.6541205412
33
0.0000000000
40
0.0000000000
40
0.0000000000
40
0.0000000000
40
0.0000000000
40
0.0725908208
40
0.1446932362
40
0.2162634435
40
0.2875957322
40
0.3585074992
40
0.4293378329
40
0.5000000000
40
0.5706621671
40
0.6414925008
40
0.7124042678
40
0.7837365565
40
0.8553067638
40
0.9274091792
40
1.0000000000
40
1.0000000000
40
1.0000000000
40
1.0000000000
10
-7.0757223200
20
-1.2822903819
30
0.0000000000
10
-7.0598946043
20
-1.2803142541
30
0.0000000000
10
-7.0285133847
20
-1.2748615312
30
0.0000000000
10
-6.9826178599
20
-1.2622809291
30
0.0000000000
10
-6.9383765267
20
-1.2455053539
30
0.0000000000
10
-6.8961517530
20
-1.2247465910
30
0.0000000000
10
-6.8562039513
20
-1.2001969435
30
0.0000000000
10
-6.8188502392
20
-1.1721007190
30
0.0000000000
10
-6.7843302587
20
-1.1406697413
30
0.0000000000
10
-6.7528992810
20
-1.1061497608
30
0.0000000000
10
-6.7248030565
20
-1.0687960487
30
0.0000000000
10
-6.7002534090
20
-1.0288482470
30
0.0000000000
10
-6.6794946461
20
-0.9866234733
30
0.0000000000
10
-6.6627190709
20
-0.9423821401
30
0.0000000000
10
-6.6501384688
20
-0.8964866153
30
0.0000000000
10
-6.6446857459
20
-0.8651053957
30
0.0000000000
10
-6.6427096181
20
-0.8492776800
30
0.0000000000
11
-7.0757223200
21
-1.2822903819
31
0.0000000000
11
-7.0285771879
21
-1.2740970002
31
0.0000000000
11
-6.9827383606
21
-1.2615316450
31
0.0000000000
11
-6.9386245621
21
-1.2448034589
31
0.0000000000
11
-6.8964264422
21
-1.2240572786
31
0.0000000000
11
-6.8566009708
21
-1.1995823079
31
0.0000000000
11
-6.8192869286
21
-1.1715156215
31
0.0000000000
11
-6.7848446844
21
-1.1401553156
31
0.0000000000
11
-6.7534843785
21
-1.1057130714
31
0.0000000000
11
-6.7254176921
21
-1.0683990292
31
0.0000000000
11
-6.7009427214
21
-1.0285735578
31
0.0000000000
11
-6.6801965411
21
-0.9863754379
31
0.0000000000
11
-6.6634683550
21
-0.9422616394
31
0.0000000000
11
-6.6509029998
21
-0.8964228121
31
0.0000000000
11
-6.6427096181
21
-0.8492776800
31
0.0000000000
0
SPLINE
5
302
100
AcDbEntity
8
0
100
AcDbSpline
62
7
6
CONTINUOUS
70
0
71
3
72
10
73
6
74
4
42
0.0000001000
43
0.0000001000
44
0.0000000001
12
-0.0627158223
22
-0.0078302189
32
0.0000000000
13
-0.0632027428
23
0.0000000000
33
0.0000000000
40
0.0000000000
40
0.0000000000
40
0.0000000000
40
0.0000000000
40
0.3371715920
40
0.6698236531
40
1.0000000000
40
1.0000000000
40
1.0000000000
40
1.0000000000
10
-7.0757223200
20
-1.2822903819
30
0.0000000000
10
-7.0827709845
20
-1.2831704244
30
0.0000000000
10
-7.0968122151
20
-1.2846263273
30
0.0000000000
10
-7.1178450136
20
-1.2859268398
30
0.0000000000
10
-7.1318109644
20
-1.2862139802
30
0.0000000000
10
-7.1387669813
20
-1.2862139802
30
0.0000000000
11
-7.0757223200
21
-1.2822903819
31
0.0000000000
11
-7.0969188742
21
-1.2844879740
31
0.0000000000
11
-7.1179033348
21
-1.2857852648
31
0.0000000000
11
-7.1387669813
21
-1.2862139802
31
0.0000000000
0
SPLINE
5
303
100
AcDbEntity
8
0
100
AcDbSpline
62
7
6
CONTINUOUS
70
0
71
3
72
23
73
19
74
17
42
0.0000001000
43
0.0000001000
44
0.0000000001
12
-0.0016781775
22
-0.7830196530
32
0.0000000000
13
-0.7830214514
23
0.0000000000
33
0.0000000000
40
0.0000000000
40
0.0000000000
40
0.0000000000
40
0.0000000000
40
0.0623789981
40
0.1247768651
40
0.1871961286
40
0.2496351476
40
0.3121005134
40
0.3745831819
40
0.4370912106
40
0.4996125463
40
0.5621526949
40
0.6247007933
40
0.6872583788
40
0.7498165396
40
0.8123751345
40
0.8749260664
40
0.9374708035
40
1.0000000000
40
1.0000000000
40
1.0000000000
40
1.0000000000
10
22.2565732928
20
-21.6977042895
30
0.0000000000
10
22.2565383985
20
-21.7139856166
30
0.0000000000
10
22.2548588042
20
-21.7465726080
30
0.0000000000
10
22.2475352954
20
-21.7949565377
30
0.0000000000
10
22.2354776981
20
-21.8424039312
30
0.0000000000
10
22.2188029165
20
-21.8884493696
30
0.0000000000
10
22.1976739646
20
-21.9326471111
30
0.0000000000
10
22.1722964228
20
-21.9745707770
30
0.0000000000
10
22.1429193587
20
-22.0138138740
30
0.0000000000
10
22.1098282330
20
-22.0500003543
30
0.0000000000
10
22.0733469688
20
-22.0827816029
30
0.0000000000
10
22.0338288838
20
-22.1118457317
30
0.0000000000
10
21.9916584085
20
-22.1369155683
30
0.0000000000
10
21.9472418156
20
-22.1577547830
30
0.0000000000
10
21.9010083897
20
-22.1741670450
30
0.0000000000
10
21.8533990392
20
-22.1859995867
30
0.0000000000
10
21.8048767372
20
-22.1931424992
30
0.0000000000
10
21.7722092179
20
-22.1947348166
30
0.0000000000
10
21.7558886505
20
-22.1947348166
30
0.0000000000
11
22.2565732928
21
-21.6977042895
31
0.0000000000
11
22.2540588151
21
-21.7464836179
31
0.0000000000
11
22.2467479077
21
-21.7947924127
31
0.0000000000
11
22.2347105558
21
-21.8421625364
31
0.0000000000
11
22.2180642740
21
-21.8881325278
31
0.0000000000
11
22.1969694381
21
-21.9322614795
31
0.0000000000
11
22.1716348939
21
-21.9741165019
31
0.0000000000
11
22.1423041494
21
-22.0132998263
31
0.0000000000
11
22.1092679289
21
-22.0494281216
31
0.0000000000
11
22.0728436531
21
-22.0821597616
31
0.0000000000
11
22.0333895284
21
-22.1111782018
31
0.0000000000
11
21.9912845829
21
-22.1362101633
31
0.0000000000
11
21.9469388405
21
-22.1570170083
31
0.0000000000
11
21.9007765895
21
-22.1734044898
31
0.0000000000
11
21.8532440354
21
-22.1852185264
31
0.0000000000
11
21.8047922668
21
-22.1923505765
31
0.0000000000
11
21.7558886505
21
-22.1947348166
31
0.0000000000
0
SPLINE
5
304
100
AcDbEntity
8
0
100
AcDbSpline
62
7
6
CONTINUOUS
70
0
71
3
72
23
73
19
74
17
42
0.0000001000
43
0.0000001000
44
0.0000000001
12
-0.7830214514
22
0.0000000000
32
0.0000000000
13
-0.0016781775
23
0.7830196530
33
0.0000000000
40
0.0000000000
40
0.0000000000
40
0.0000000000
40
0.0000000000
40
0.0625291965
40
0.1250739336
40
0.1876248655
40
0.2501834604
40
0.3127416212
40
0.3752992067
40
0.4378473051
40
0.5003874537
40
0.5629087894
40
0.6254168181
40
0.6878994866
40
0.7503648524
40
0.8128038714
40
0.8752231349
40
0.9376210019
40
1.0000000000
40
1.0000000000
40
1.0000000000
40
1.0000000000
10
-21.9058886505
20
-22.1947348166
30
0.0000000000
10
-21.9222092179
20
-22.1947348166
30
0.0000000000
10
-21.9548767372
20
-22.1931424992
30
0.0000000000
10
-22.0033990392
20
-22.1859995867
30
0.0000000000
10
-22.0510083897
20
-22.1741670450
30
0.0000000000
10
-22.0972418156
20
-22.1577547830
30
0.0000000000
10
-22.1416584085
20
-22.1369155683
30
0.0000000000
10
-22.1838288838
20
-22.1118457317
30
0.0000000000
10
-22.2233469688
20
-22.0827816029
30
0.0000000000
10
-22.2598282330
20
-22.0500003543
30
0.0000000000
10
-22.2929193587
20
-22.0138138740
30
0.0000000000
10
-22.3222964228
20
-21.9745707770
30
0.0000000000
10
-22.3476739646
20
-21.9326471111
30
0.0000000000
10
-22.3688029165
20
-21.8884493696
30
0.0000000000
10
-22.3854776981
20
-21.8424039312
30
0.0000000000
10
-22.3975352954
20
-21.7949565377
30
0.0000000000
10
-22.4048588042
20
-21.7465726080
30
0.0000000000
10
-22.4065383985
20
-21.7139856166
30
0.0000000000
10
-22.4065732928
20
-21.6977042895
30
0.0000000000
11
-21.9058886505
21
-22.1947348166
31
0.0000000000
11
-21.9547922668
21
-22.1923505765
31
0.0000000000
11
-22.0032440354
21
-22.1852185264
31
0.0000000000
11
-22.0507765895
21
-22.1734044898
31
0.0000000000
11
-22.0969388405
21
-22.1570170083
31
0.0000000000
11
-22.1412845829
21
-22.1362101633
31
0.0000000000
11
-22.1833895284
21
-22.1111782018
31
0.0000000000
11
-22.2228436531
21
-22.0821597616
31
0.0000000000
11
-22.2592679289
21
-22.0494281216
31
0.0000000000
11
-22.2923041494
21
-22.0132998263
31
0.0000000000
11
-22.3216348939
21
-21.9741165019
31
0.0000000000
11
-22.3469694381
21
-21.9322614795
31
0.0000000000
11
-22.3680642740
21
-21.8881325278
31
0.0000000000
11
-22.3847105558
21
-21.8421625364
31
0.0000000000
11
-22.3967479077
21
-21.7947924127
31
0.0000000000
11
-22.4040588151
21
-21.7464836179
31
0.0000000000
11
-22.4065732928
21
-21.6977042895
31
0.0000000000
0
SPLINE
5
305
100
AcDbEntity
8
0
100
AcDbSpline
62
7
6
CONTINUOUS
70
0
71
3
72
10
73
6
74
4
42
0.0000001000
43
0.0000001000
44
0.0000000001
12
-0.0078302189
22
0.0627158223
32
0.0000000000
13
-0.0000000000
23
0.0632027428
33
0.0000000000
40
0.0000000000
40
0.0000000000
40
0.0000000000
40
0.0000000000
40
0.3371715920
40
0.6698236531
40
1.0000000000
40
1.0000000000
40
1.0000000000
40
1.0000000000
10
-16.0072903819
20
-0.8492776800
30
0.0000000000
10
-16.0081704244
20
-0.8422290155
30
0.0000000000
10
-16.0096263273
20
-0.8281877849
30
0.0000000000
10
-16.0109268398
20
-0.8071549864
30
0.0000000000
10
-16.0112139802
20
-0.7931890356
30
0.0000000000
10
-16.0112139802
20
-0.7862330187
30
0.0000000000
11
-16.0072903819
21
-0.8492776800
31
0.0000000000
11
-16.0094879740
21
-0.8280811258
31
0.0000000000
11
-16.0107852648
21
-0.8070966652
31
0.0000000000
11
-16.0112139802
21
-0.7862330187
31
0.0000000000
0
SPLINE
5
306
100
AcDbEntity
8
0
100
AcDbSpline
62
7
6
CONTINUOUS
70
0
71
3
72
10
73
6
74
4
42
0.0000001000
43
0.0000001000
44
0.0000000001
12
0.0078302189
22
0.0627158223
32
0.0000000000
13
0.0000000000
23
0.0632027428
33
0.0000000000
40
0.0000000000
40
0.0000000000
40
0.0000000000
40
0.0000000000
40
0.3371715920
40
0.6698236531
40
1.0000000000
40
1.0000000000
40
1.0000000000
40
1.0000000000
10
-6.6427096181
20
-0.8492776800
30
0.0000000000
10
-6.6418295756
20
-0.8422290155
30
0.0000000000
10
-6.6403736727
20
-0.8281877849
30
0.0000000000
10
-6.6390731602
20
-0.8071549864
30
0.0000000000
10
-6.6387860198
20
-0.7931890356
30
0.0000000000
10
-6.6387860198
20
-0.7862330187
30
0.0000000000
11
-6.6427096181
21
-0.8492776800
31
0.0000000000
11
-6.6405120260
21
-0.8280811258
31
0.0000000000
11
-6.6392147352
21
-0.8070966652
31
0.0000000000
11
-6.6387860198
21
-0.7862330187
31
0.0000000000
0
SPLINE
5
307
100
AcDbEntity
8
0
100
AcDbSpline
62
7
6
CONTINUOUS
70
0
71
3
72
21
73
17
74
15
42
0.0000001000
43
0.0000001000
44
0.0000000001
12
0.3924734050
22
0.0000000000
32
0.0000000000
13
0.0000000000
23
-0.3924734050
33
0.0000000000
40
0.0000000000
40
0.0000000000
40
0.0000000000
40
0.0000000000
40
0.0712061031
40
0.1428002435
40
0.2142646353
40
0.2854439293
40
0.3570403704
40
0.4287335384
40
0.5000521553
40
0.5713646493
40
0.6430464088
40
0.7146385736
40
0.7858112753
40
0.8572465513
40
0.9288136740
40
1.0000000000
40
1.0000000000
40
1.0000000000
40
1.0000000000
10
22.0249999986
20
-0.1000000000
30
0.0000000000
10
22.0343154991
20
-0.1000000000
30
0.0000000000
10
22.0530140459
20
-0.1010460669
30
0.0000000000
10
22.0807057921
20
-0.1057439553
30
0.0000000000
10
22.1076963564
20
-0.1135157699
30
0.0000000000
10
22.1336478022
20
-0.1242557354
30
0.0000000000
10
22.1582618038
20
-0.1378469396
30
0.0000000000
10
22.1812087491
20
-0.1541270318
30
0.0000000000
10
22.2021579919
20
-0.1728513723
30
0.0000000000
10
22.2208815895
20
-0.1937992650
30
0.0000000000
10
22.2371604254
20
-0.2167435879
30
0.0000000000
10
22.2507505458
20
-0.2413548693
30
0.0000000000
10
22.2614884474
20
-0.2673015183
30
0.0000000000
10
22.2692578554
20
-0.2942842004
30
0.0000000000
10
22.2739542061
20
-0.3219661080
30
0.0000000000
10
22.2750000000
20
-0.3406585301
30
0.0000000000
10
22.2750000000
20
-0.3499714434
30
0.0000000000
11
22.0249999986
21
-0.1000000000
31
0.0000000000
11
22.0529028351
21
-0.1015616253
31
0.0000000000
11
22.0806058734
21
-0.1062609876
31
0.0000000000
11
22.1075585693
21
-0.1140221330
31
0.0000000000
11
22.1333713957
21
-0.1247046872
31
0.0000000000
11
22.1579701479
21
-0.1382875615
31
0.0000000000
11
22.1809188904
21
-0.1545689381
31
0.0000000000
11
22.2017884371
21
-0.1732220637
31
0.0000000000
11
22.2204401885
21
-0.1940896155
31
0.0000000000
11
22.2367193445
21
-0.2170344436
31
0.0000000000
11
22.2503016971
21
-0.2416315666
31
0.0000000000
11
22.2609831696
21
-0.2674420406
31
0.0000000000
11
22.2687410064
21
-0.2943837976
31
0.0000000000
11
22.2734387093
21
-0.3220763623
31
0.0000000000
11
22.2750000000
21
-0.3499714434
31
0.0000000000
0
SPLINE
5
308
100
AcDbEntity
8
0
100
AcDbSpline
62
7
6
CONTINUOUS
70
0
71
3
72
21
73
17
74
15
42
0.0000001000
43
0.0000001000
44
0.0000000001
12
0.0000000000
22
0.3924734050
32
0.0000000000
13
0.3924734050
23
-0.0000000000
33
0.0000000000
40
0.0000000000
40
0.0000000000
40
0.0000000000
40
0.0000000000
40
0.0711885173
40
0.1427664398
40
0.2142165951
40
0.2853838553
40
0.3569710252
40
0.4286585982
40
0.4999756426
40
0.5712897053
40
0.6429770453
40
0.7145784758
40
0.7857632227
40
0.8572127540
40
0.9287960992
40
1.0000000000
40
1.0000000000
40
1.0000000000
40
1.0000000000
10
-22.4250000000
20
-0.3499714434
30
0.0000000000
10
-22.4250000000
20
-0.3406582435
30
0.0000000000
10
-22.4239540788
20
-0.3219641201
30
0.0000000000
10
-22.4192567840
20
-0.2942786492
30
0.0000000000
10
-22.4114857667
20
-0.2672936405
30
0.0000000000
10
-22.4007466199
20
-0.2413468891
30
0.0000000000
10
-22.3871560259
20
-0.2167365718
30
0.0000000000
10
-22.3708760426
20
-0.1937921866
30
0.0000000000
10
-22.3521510909
20
-0.1728444718
30
0.0000000000
10
-22.3312016726
20
-0.1541214872
30
0.0000000000
10
-22.3082547926
20
-0.1378425437
30
0.0000000000
10
-22.2836398284
20
-0.1242518129
30
0.0000000000
10
-22.2576884823
20
-0.1135130905
30
0.0000000000
10
-22.2307002403
20
-0.1057428837
30
0.0000000000
10
-22.2030120557
20
-0.1010459393
30
0.0000000000
10
-22.1843152110
20
-0.1000000000
30
0.0000000000
10
-22.1749999985
20
-0.1000000000
30
0.0000000000
11
-22.4250000000
21
-0.3499714434
31
0.0000000000
11
-22.4234386132
21
-0.3220755063
31
0.0000000000
11
-22.4187398708
21
-0.2943788188
31
0.0000000000
11
-22.4109795522
21
-0.2674316994
31
0.0000000000
11
-22.4002978756
21
-0.2416236212
31
0.0000000000
11
-22.3867156996
21
-0.2170286400
31
0.0000000000
11
-22.3704344894
21
-0.1940824719
31
0.0000000000
11
-22.3517807102
21
-0.1732143372
31
0.0000000000
11
-22.3309117477
21
-0.1545632403
31
0.0000000000
11
-22.3079643502
21
-0.1382839208
31
0.0000000000
11
-22.2833634585
21
-0.1247008701
31
0.0000000000
11
-22.2575482325
21
-0.1140185175
31
0.0000000000
11
-22.2306008921
21
-0.1062598515
31
0.0000000000
11
-22.2029019748
21
-0.1015615287
31
0.0000000000
11
-22.1749999985
21
-0.1000000000
31
0.0000000000
0
SPLINE
5
309
100
AcDbEntity
8
0
100
AcDbSpline
62
7
6
CONTINUOUS
70
0
71
3
72
10
73
6
74
4
42
0.0000001000
43
0.0000001000
44
0.0000000001
12
0.0000000678
22
-0.0008878840
32
0.0000000000
13
0.0000000000
23
-0.0008878840
33
0.0000000000
40
0.0000000000
40
0.0000000000
40
0.0000000000
40
0.0000000000
40
0.3333222604
40
0.6666549605
40
1.0000000000
40
1.0000000000
40
1.0000000000
40
1.0000000000
10
-16.0112140141
20
-0.3362063987
30
0.0000000000
10
-16.0112140066
20
-0.3363050492
30
0.0000000000
10
-16.0112139940
20
-0.3365023533
30
0.0000000000
10
-16.0112139828
20
-0.3367983146
30
0.0000000000
10
-16.0112139802
20
-0.3369956255
30
0.0000000000
10
-16.0112139802
20
-0.3370942827
30
0.0000000000
11
-16.0112140141
21
-0.3362063987
31
0.0000000000
11
-16.0112139953
21
-0.3365023502
31
0.0000000000
11
-16.0112139840
21
-0.3367983110
31
0.0000000000
11
-16.0112139802
21
-0.3370942827
31
0.0000000000
0
SPLINE
5
30A
100
AcDbEntity
8
0
100
AcDbSpline
62
7
6
CONTINUOUS
70
0
71
3
72
10
73
6
74
4
42
0.0000001000
43
0.0000001000
44
0.0000000001
12
-0.0000000678
22
-0.0008878840
32
0.0000000000
13
0.0000000000
23
-0.0008878840
33
0.0000000000
40
0.0000000000
40
0.0000000000
40
0.0000000000
40
0.0000000000
40
0.3333222604
40
0.6666549605
40
1.0000000000
40
1.0000000000
40
1.0000000000
40
1.0000000000
10
-6.6387859859
20
-0.3362063987
30
0.0000000000
10
-6.6387859934
20
-0.3363050492
30
0.0000000000
10
-6.6387860060
20
-0.3365023533
30
0.0000000000
10
-6.6387860172
20
-0.3367983146
30
0.0000000000
10
-6.6387860198
20
-0.3369956255
30
0.0000000000
10
-6.6387860198
20
-0.3370942827
30
0.0000000000
11
-6.6387859859
21
-0.3362063987
31
0.0000000000
11
-6.6387860047
21
-0.3365023502
31
0.0000000000
11
-6.6387860160
21
-0.3367983110
31
0.0000000000
11
-6.6387860198
21
-0.3370942827
31
0.0000000000
0
SPLINE
5
30B
100
AcDbEntity
8
0
100
AcDbSpline
62
9
6
CONTINUOUS
70
0
71
3
72
19
73
15
74
13
42
0.0000001000
43
0.0000001000
44
0.0000000001
12
-0.2000008301
22
0.0000000000
32
0.0000000000
13
-0.0000000001
23
0.2000008301
33
0.0000000000
40
0.0000000000
40
0.0000000000
40
0.0000000000
40
0.0000000000
40
0.1305256965
40
0.2588180560
40
0.3826819658
40
0.4999980866
40
0.6087591156
40
0.7071041327
40
0.7933504420
40
0.8660223663
40
0.9238765022
40
0.9659230151
40
0.9914426590
40
1.0000000000
40
1.0000000000
40
1.0000000000
40
1.0000000000
10
16.0250000000
20
-0.7503001200
30
0.0000000000
10
16.0162982508
20
-0.7503001200
30
0.0000000000
10
15.9990436669
20
-0.7502984137
30
0.0000000000
10
15.9735313219
20
-0.7502909697
30
0.0000000000
10
15.9489001081
20
-0.7502781798
30
0.0000000000
10
15.9255693171
20
-0.7502623342
30
0.0000000000
10
15.9039454012
20
-0.7502367982
30
0.0000000000
10
15.8843747185
20
-0.7502246112
30
0.0000000000
10
15.8672659808
20
-0.7501555349
30
0.0000000000
10
15.8526928712
20
-0.7502400252
30
0.0000000000
10
15.8415100660
20
-0.7498989383
30
0.0000000000
10
15.8324033473
20
-0.7505762536
30
0.0000000000
10
15.8286550668
20
-0.7492771824
30
0.0000000000
10
15.8250000000
20
-0.7505704918
30
0.0000000000
10
15.8250000000
20
-0.7500000000
30
0.0000000000
11
16.0250000000
21
-0.7503001200
31
0.0000000000
11
15.9988947525
21
-0.7502975525
31
0.0000000000
11
15.9732361752
21
-0.7502898937
31
0.0000000000
11
15.9484632937
21
-0.7502772748
31
0.0000000000
11
15.9249999785
21
-0.7502599116
31
0.0000000000
11
15.9032476934
21
-0.7502381012
31
0.0000000000
11
15.8835786253
21
-0.7502122169
31
0.0000000000
11
15.8663293171
21
-0.7501827015
31
0.0000000000
11
15.8517949086
21
-0.7501500600
31
0.0000000000
11
15.8402240870
21
-0.7501148509
31
0.0000000000
11
15.8318148317
21
-0.7500776768
31
0.0000000000
11
15.8267110269
21
-0.7500391735
31
0.0000000000
11
15.8250000000
21
-0.7500000000
31
0.0000000000
0
SPLINE
5
30C
100
AcDbEntity
8
0
100
AcDbSpline
62
9
6
CONTINUOUS
70
0
71
3
72
19
73
15
74
13
42
0.0000001000
43
0.0000001000
44
0.0000000001
12
-0.3052058311
22
-0.0000000000
32
0.0000000000
13
-0.0133319213
23
-0.3051134243
33
0.0000000000
40
0.0000000000
40
0.0000000000
40
0.0000000000
40
0.0000000000
40
0.0857167807
40
0.1714334482
40
0.2571498970
40
0.3428660362
40
0.4285817965
40
0.5142971338
40
0.6000120333
40
0.6857265094
40
0.7714406058
40
0.8571543916
40
0.9428679572
40
1.0000000000
40
1.0000000000
40
1.0000000000
40
1.0000000000
10
16.0250000000
20
-0.1475790882
30
0.0000000000
10
16.0162795796
20
-0.1475790882
30
0.0000000000
10
15.9988172232
20
-0.1487229915
30
0.0000000000
10
15.9730889322
20
-0.1538411986
30
0.0000000000
10
15.9482442298
20
-0.1622741838
30
0.0000000000
10
15.9247140779
20
-0.1738776572
30
0.0000000000
10
15.9028995131
20
-0.1884530782
30
0.0000000000
10
15.8831742097
20
-0.2057510660
30
0.0000000000
10
15.8658755605
20
-0.2254756170
30
0.0000000000
10
15.8512995807
20
-0.2472893517
30
0.0000000000
10
15.8396956616
20
-0.2708186101
30
0.0000000000
10
15.8312623520
20
-0.2956623708
30
0.0000000000
10
15.8267128626
20
-0.3185300749
30
0.0000000000
10
15.8254445066
20
-0.3330373595
30
0.0000000000
10
15.8251906133
20
-0.3388479439
30
0.0000000000
11
16.0250000000
21
-0.1475790882
31
0.0000000000
11
15.9988947478
21
-0.1492900526
31
0.0000000000
11
15.9732361650
21
-0.1543936704
31
0.0000000000
11
15.9484632783
21
-0.1628026166
31
0.0000000000
11
15.9249999594
21
-0.1743730106
31
0.0000000000
11
15.9032476726
21
-0.1889068784
31
0.0000000000
11
15.8835786051
21
-0.2061555401
31
0.0000000000
11
15.8663292996
21
-0.2258238651
31
0.0000000000
11
15.8517948952
21
-0.2475753221
31
0.0000000000
11
15.8402240783
21
-0.2710377372
31
0.0000000000
11
15.8318148274
21
-0.2958096622
31
0.0000000000
11
15.8267110258
21
-0.3214672432
31
0.0000000000
11
15.8251906133
21
-0.3388479439
31
0.0000000000
0
SPLINE
5
30D
100
AcDbEntity
8
0
100
AcDbSpline
62
9
6
CONTINUOUS
70
0
71
3
72
8
73
4
74
2
42
0.0000001000
43
0.0000001000
44
0.0000000001
12
-0.0003810451
22
-0.0087205712
32
0.0000000000
13
0.0000000000
23
-0.0087232123
33
0.0000000000
40
0.0000000000
40
0.0000000000
40
0.0000000000
40
0.0000000000
40
1.0000000000
40
1.0000000000
40
1.0000000000
40
1.0000000000
10
15.8251906133
20
-0.3388479439
30
0.0000000000
10
15.8250635983
20
-0.3417548010
30
0.0000000000
10
15.8250000000
20
-0.3446637354
30
0.0000000000
10
15.8250000000
20
-0.3475714728
30
0.0000000000
11
15.8251906133
21
-0.3388479439
31
0.0000000000
11
15.8250000000
21
-0.3475714728
31
0.0000000000
0
SPLINE
5
30E
100
AcDbEntity
8
0
100
AcDbSpline
62
9
6
CONTINUOUS
70
0
71
3
72
25
73
21
74
19
42
0.0000001000
43
0.0000001000
44
0.0000000001
12
-1.0993875931
22
0.0000112115
32
0.0000000000
13
-0.0000274464
23
1.0993875929
33
0.0000000000
40
0.0000000000
40
0.0000000000
40
0.0000000000
40
0.0000000000
40
0.0550513991
40
0.1105051375
40
0.1661718905
40
0.2218958160
40
0.2775409437
40
0.3330964673
40
0.3886521129
40
0.4442572516
40
0.4998907616
40
0.5555276008
40
0.6111428213
40
0.6667169884
40
0.7223032102
40
0.7779893467
40
0.8337541782
40
0.8894531056
40
0.9449297238
40
1.0000000000
40
1.0000000000
40
1.0000000000
40
1.0000000000
10
-15.5230124517
20
-1.4985852320
30
0.0000000000
10
-15.5431867268
20
-1.4985850262
30
0.0000000000
10
-15.5837045001
20
-1.4968319647
30
0.0000000000
10
-15.6441584758
20
-1.4889218684
30
0.0000000000
10
-15.7039386276
20
-1.4757167760
30
0.0000000000
10
-15.7624014343
20
-1.4573152591
30
0.0000000000
10
-15.8189947857
20
-1.4338906015
30
0.0000000000
10
-15.8732731842
20
-1.4056457090
30
0.0000000000
10
-15.9248701478
20
-1.3727842061
30
0.0000000000
10
-15.9734273672
20
-1.3355304901
30
0.0000000000
10
-16.0185703683
20
-1.2941613255
30
0.0000000000
10
-16.0599327685
20
-1.2490071173
30
0.0000000000
10
-16.0971839517
20
-1.2004332093
30
0.0000000000
10
-16.1300474265
20
-1.1488117310
30
0.0000000000
10
-16.1582979183
20
-1.0944989412
30
0.0000000000
10
-16.1817286535
20
-1.0378633924
30
0.0000000000
10
-16.2001332816
20
-0.9793577079
30
0.0000000000
10
-16.2133379990
20
-0.9195414859
30
0.0000000000
10
-16.2212464568
20
-0.8590600376
30
0.0000000000
10
-16.2229993248
20
-0.8185270136
30
0.0000000000
10
-16.2229998286
20
-0.7983458208
30
0.0000000000
11
-15.5230124517
21
-1.4985852320
31
0.0000000000
11
-15.5834786576
21
-1.4959679225
31
0.0000000000
11
-15.6439286343
21
-1.4880590615
31
0.0000000000
11
-15.7036873239
21
-1.4748583818
31
0.0000000000
11
-15.7621232582
21
-1.4564655085
31
0.0000000000
11
-15.8186481403
21
-1.4330692008
31
0.0000000000
11
-15.8728285412
21
-1.4048753964
31
0.0000000000
11
-15.9243448006
21
-1.3720653697
31
0.0000000000
11
-15.9728464842
21
-1.3348543612
31
0.0000000000
11
-16.0179388754
21
-1.2935316891
31
0.0000000000
11
-16.0592548975
21
-1.2484282413
31
0.0000000000
11
-16.0964631419
21
-1.1999104684
31
0.0000000000
11
-16.1292745484
21
-1.1483709476
31
0.0000000000
11
-16.1574744007
21
-1.0941556499
31
0.0000000000
11
-16.1808783483
21
-1.0375851370
31
0.0000000000
11
-16.1992753900
21
-0.9791033688
31
0.0000000000
11
-16.2124758025
21
-0.9193083959
31
0.0000000000
11
-16.2203828456
21
-0.8588328135
31
0.0000000000
11
-16.2229998286
21
-0.7983458208
31
0.0000000000
0
SPLINE
5
30F
100
AcDbEntity
8
0
100
AcDbSpline
62
9
6
CONTINUOUS
70
0
71
3
72
25
73
21
74
19
42
0.0000001000
43
0.0000001000
44
0.0000000001
12
-0.0000265199
22
-1.0993875929
32
0.0000000000
13
-1.0993875932
23
-0.0000121421
33
0.0000000000
40
0.0000000000
40
0.0000000000
40
0.0000000000
40
0.0000000000
40
0.0550985848
40
0.1105978349
40
0.1663070000
40
0.2220689848
40
0.2777467506
40
0.3333288327
40
0.3889041683
40
0.4445213501
40
0.5001589074
40
0.5557917065
40
0.6113948885
40
0.6669493747
40
0.7225090599
40
0.7781625734
40
0.8338893383
40
0.8895458446
40
0.9449769416
40
1.0000000000
40
1.0000000000
40
1.0000000000
40
1.0000000000
10
-6.4270001714
20
-0.7983458208
30
0.0000000000
10
-6.4270006584
20
-0.8185373877
30
0.0000000000
10
-6.4287552629
20
-0.8590891139
30
0.0000000000
10
-6.4366704470
20
-0.9195923785
30
0.0000000000
10
-6.4498827802
20
-0.9794182311
30
0.0000000000
10
-6.4682928064
20
-1.0379218313
30
0.0000000000
10
-6.4917261851
20
-1.0945501606
30
0.0000000000
10
-6.5199788383
20
-1.1488571224
30
0.0000000000
10
-6.5528458761
20
-1.2004758974
30
0.0000000000
10
-6.5901015804
20
-1.2490481245
30
0.0000000000
10
-6.6314679654
20
-1.2941996645
30
0.0000000000
10
-6.6766136406
20
-1.3355648492
30
0.0000000000
10
-6.7251725485
20
-1.3728140478
30
0.0000000000
10
-6.7767722279
20
-1.4056719932
30
0.0000000000
10
-6.8310564715
20
-1.4339147295
30
0.0000000000
10
-6.8876570552
20
-1.4573367430
30
0.0000000000
10
-6.9461219480
20
-1.4757328554
30
0.0000000000
10
-7.0058924616
20
-1.4889303235
30
0.0000000000
10
-7.0663246033
20
-1.4968336863
30
0.0000000000
10
-7.1068236590
20
-1.4985850093
30
0.0000000000
10
-7.1269875483
20
-1.4985852320
30
0.0000000000
11
-6.4270001714
21
-0.7983458208
31
0.0000000000
11
-6.4296198536
21
-0.8588638480
31
0.0000000000
11
-6.4375339162
21
-0.9193636055
31
0.0000000000
11
-6.4507420084
21
-0.9791684089
31
0.0000000000
11
-6.4691436038
21
-1.0376454634
31
0.0000000000
11
-6.4925488409
21
-1.0942054835
31
0.0000000000
11
-6.5207506706
21
-1.1484146228
31
0.0000000000
11
-6.5535665220
21
-1.1999528363
31
0.0000000000
11
-6.5907797326
21
-1.2484695177
31
0.0000000000
11
-6.6320997797
21
-1.2935703491
31
0.0000000000
11
-6.6771947940
21
-1.3348890016
31
0.0000000000
11
-6.7256975745
21
-1.3720950461
31
0.0000000000
11
-6.7772151510
21
-1.4049006316
31
0.0000000000
11
-6.8314017339
21
-1.4330924671
31
0.0000000000
11
-6.8879371265
21
-1.4564874870
31
0.0000000000
11
-6.9463777691
21
-1.4748757981
31
0.0000000000
11
-7.0061266201
21
-1.4880687899
31
0.0000000000
11
-7.0665524120
21
-1.4959706251
31
0.0000000000
11
-7.1269875483
21
-1.4985852320
31
0.0000000000
0
SPLINE
5
310
100
AcDbEntity
8
0
100
AcDbSpline
62
9
6
CONTINUOUS
70
0
71
3
72
20
73
16
74
14
42
0.0000001000
43
0.0000001000
44
0.0000000001
12
-0.2138639108
22
0.0004696624
32
0.0000000000
13
-0.0078909768
23
0.2137187998
33
0.0000000000
40
0.0000000000
40
0.0000000000
40
0.0000000000
40
0.0000000000
40
0.1098504560
40
0.2184939487
40
0.3247162776
40
0.4270335388
40
0.5240365780
40
0.6145374773
40
0.6975210960
40
0.7716902224
40
0.8363246057
40
0.8907869324
40
0.9352405215
40
0.9706161836
40
1.0000000000
40
1.0000000000
40
1.0000000000
40
1.0000000000
10
-6.4270014432
20
-0.3977667143
30
0.0000000000
10
-6.4348324592
20
-0.3977495167
30
0.0000000000
10
-6.4504089440
20
-0.3974883334
30
0.0000000000
10
-6.4735357962
20
-0.3964152358
30
0.0000000000
10
-6.4960838609
20
-0.3946734596
30
0.0000000000
10
-6.5177376885
20
-0.3922782741
30
0.0000000000
10
-6.5381821512
20
-0.3892609847
30
0.0000000000
10
-6.5571314246
20
-0.3856564500
30
0.0000000000
10
-6.5743008777
20
-0.3815101338
30
0.0000000000
10
-6.5894317591
20
-0.3768802176
30
0.0000000000
10
-6.6022666914
20
-0.3718261314
30
0.0000000000
10
-6.6126420928
20
-0.3664360891
30
0.0000000000
10
-6.6203836191
20
-0.3607196026
30
0.0000000000
10
-6.6254918750
20
-0.3546891033
30
0.0000000000
10
-6.6269107644
20
-0.3500976225
30
0.0000000000
10
-6.6269880534
20
-0.3480043312
30
0.0000000000
11
-6.4270014432
21
-0.3977667143
31
0.0000000000
11
-6.4504912048
21
-0.3973703944
31
0.0000000000
11
-6.4737009165
21
-0.3962871124
31
0.0000000000
11
-6.4963496488
21
-0.3945249897
31
0.0000000000
11
-6.5180970578
21
-0.3921015406
31
0.0000000000
11
-6.5386164512
21
-0.3890469971
31
0.0000000000
11
-6.5576237090
21
-0.3853949850
31
0.0000000000
11
-6.5748635116
21
-0.3811814498
31
0.0000000000
11
-6.5900104393
21
-0.3764720981
31
0.0000000000
11
-6.6028379695
21
-0.3713214022
31
0.0000000000
11
-6.6131033676
21
-0.3658180286
31
0.0000000000
11
-6.6206377607
21
-0.3600200328
31
0.0000000000
11
-6.6252916680
21
-0.3540551870
31
0.0000000000
11
-6.6269880534
21
-0.3480043312
31
0.0000000000
0
SPLINE
5
311
100
AcDbEntity
8
0
100
AcDbSpline
62
9
6
CONTINUOUS
70
0
71
3
72
19
73
15
74
13
42
0.0000001000
43
0.0000001000
44
0.0000000001
12
-0.1999933720
22
0.0000027865
32
0.0000000000
13
-0.1967272248
23
0.0359964979
33
0.0000000000
40
0.0000000000
40
0.0000000000
40
0.0000000000
40
0.0000000000
40
0.1298095061
40
0.2574225285
40
0.3806797363
40
0.4974955036
40
0.6058932014
40
0.7040386447
40
0.7902711298
40
0.8631315388
40
0.9213870357
40
0.9640519479
40
0.9904045296
40
1.0000000000
40
1.0000000000
40
1.0000000000
40
1.0000000000
10
-6.4270001714
20
-0.7983458207
30
0.0000000000
10
-6.4356538517
20
-0.7983457001
30
0.0000000000
10
-6.4528147845
20
-0.7983436868
30
0.0000000000
10
-6.4781925930
20
-0.7983354033
30
0.0000000000
10
-6.5027041713
20
-0.7983219283
30
0.0000000000
10
-6.5259347923
20
-0.7983037908
30
0.0000000000
10
-6.5474912612
20
-0.7982803525
30
0.0000000000
10
-6.5670091813
20
-0.7982552092
30
0.0000000000
10
-6.5841571641
20
-0.7982189558
30
0.0000000000
10
-6.5986484043
20
-0.7982017958
30
0.0000000000
10
-6.6102283821
20
-0.7981224482
30
0.0000000000
10
-6.6187245336
20
-0.7981881706
30
0.0000000000
10
-6.6239438672
20
-0.7979667470
30
0.0000000000
10
-6.6263634433
20
-0.7981416169
30
0.0000000000
10
-6.6269926734
20
-0.7980264825
30
0.0000000000
11
-6.4270001714
21
-0.7983458207
31
0.0000000000
11
-6.4529612120
21
-0.7983427572
31
0.0000000000
11
-6.4784829693
21
-0.7983343421
31
0.0000000000
11
-6.5031335902
21
-0.7983207176
31
0.0000000000
11
-6.5264959620
21
-0.7983021145
31
0.0000000000
11
-6.5481747706
21
-0.7982788473
31
0.0000000000
11
-6.5678031894
21
-0.7982513099
31
0.0000000000
11
-6.5850490864
21
-0.7982199682
31
0.0000000000
11
-6.5996206442
21
-0.7981853526
31
0.0000000000
11
-6.6112712977
21
-0.7981480487
31
0.0000000000
11
-6.6198039066
21
-0.7981086877
31
0.0000000000
11
-6.6250740907
21
-0.7980679358
31
0.0000000000
11
-6.6269926734
21
-0.7980264825
31
0.0000000000
0
SPLINE
5
312
100
AcDbEntity
8
0
100
AcDbSpline
62
9
6
CONTINUOUS
70
0
71
3
72
19
73
15
74
13
42
0.0000001000
43
0.0000001000
44
0.0000000001
12
0.1999932546
22
0.0000027867
32
0.0000000000
13
0.1967271021
23
0.0359965161
33
0.0000000000
40
0.0000000000
40
0.0000000000
40
0.0000000000
40
0.0000000000
40
0.1298095386
40
0.2574225814
40
0.3806797992
40
0.4974955683
40
0.6058932617
40
0.7040386962
40
0.7902711703
40
0.8631315675
40
0.9213870534
40
0.9640519565
40
0.9904045322
40
1.0000000000
40
1.0000000000
40
1.0000000000
40
1.0000000000
10
-16.2229998286
20
-0.7983458208
30
0.0000000000
10
-16.2143461513
20
-0.7983457002
30
0.0000000000
10
-16.1971852250
20
-0.7983436869
30
0.0000000000
10
-16.1718074272
20
-0.7983354034
30
0.0000000000
10
-16.1472958611
20
-0.7983219283
30
0.0000000000
10
-16.1240652532
20
-0.7983037908
30
0.0000000000
10
-16.1025087978
20
-0.7982803525
30
0.0000000000
10
-16.0829908907
20
-0.7982552092
30
0.0000000000
10
-16.0658429202
20
-0.7982189557
30
0.0000000000
10
-16.0513516907
20
-0.7982017957
30
0.0000000000
10
-16.0397717218
20
-0.7981224482
30
0.0000000000
10
-16.0312755771
20
-0.7981881706
30
0.0000000000
10
-16.0260562477
20
-0.7979667469
30
0.0000000000
10
-16.0236366735
20
-0.7981416170
30
0.0000000000
10
-16.0230074440
20
-0.7980264825
30
0.0000000000
11
-16.2229998286
21
-0.7983458208
31
0.0000000000
11
-16.1970387967
21
-0.7983427573
31
0.0000000000
11
-16.1715170503
21
-0.7983343421
31
0.0000000000
11
-16.1468664420
21
-0.7983207177
31
0.0000000000
11
-16.1235040835
21
-0.7983021145
31
0.0000000000
11
-16.1018252885
21
-0.7982788473
31
0.0000000000
11
-16.0821968830
21
-0.7982513099
31
0.0000000000
11
-16.0649509983
21
-0.7982199682
31
0.0000000000
11
-16.0503794514
21
-0.7981853526
31
0.0000000000
11
-16.0387288070
21
-0.7981480487
31
0.0000000000
11
-16.0301962049
21
-0.7981086877
31
0.0000000000
11
-16.0249260251
21
-0.7980679358
31
0.0000000000
11
-16.0230074440
21
-0.7980264825
31
0.0000000000
0
SPLINE
5
313
100
AcDbEntity
8
0
100
AcDbSpline
62
9
6
CONTINUOUS
70
0
71
3
72
19
73
15
74
13
42
0.0000001000
43
0.0000001000
44
0.0000000001
12
0.3139155005
22
-0.0000239054
32
0.0000000000
13
0.0000239054
23
-0.3139155005
33
0.0000000000
40
0.0000000000
40
0.0000000000
40
0.0000000000
40
0.0000000000
40
0.0833317219
40
0.1666642438
40
0.2499974830
40
0.3333313078
40
0.4166655467
40
0.5000000000
40
0.5833344533
40
0.6666686922
40
0.7500025170
40
0.8333357562
40
0.9166682781
40
1.0000000000
40
1.0000000000
40
1.0000000000
40
1.0000000000
10
-16.2225714728
20
-0.1475790882
30
0.0000000000
10
-16.2138517664
20
-0.1475797522
30
0.0000000000
10
-16.1963908336
20
-0.1487248914
30
0.0000000000
10
-16.1706647391
20
-0.1538445779
30
0.0000000000
10
-16.1458220805
20
-0.1622786582
30
0.0000000000
10
-16.1222937404
20
-0.1738828351
30
0.0000000000
10
-16.1004806819
20
-0.1884585744
30
0.0000000000
10
-16.0807565140
20
-0.2057565140
30
0.0000000000
10
-16.0634585744
20
-0.2254806819
30
0.0000000000
10
-16.0488828351
20
-0.2472937404
30
0.0000000000
10
-16.0372786582
20
-0.2708220805
30
0.0000000000
10
-16.0288445779
20
-0.2956647391
30
0.0000000000
10
-16.0237248914
20
-0.3213908336
30
0.0000000000
10
-16.0225797522
20
-0.3388517664
30
0.0000000000
10
-16.0225790882
20
-0.3475714728
30
0.0000000000
11
-16.2225714728
21
-0.1475790882
31
0.0000000000
11
-16.1964684866
21
-0.1492918729
31
0.0000000000
11
-16.1708120865
21
-0.1543969481
31
0.0000000000
11
-16.1460412181
21
-0.1628069730
31
0.0000000000
11
-16.1225796768
21
-0.1743780635
31
0.0000000000
11
-16.1008288571
21
-0.1889122545
31
0.0000000000
11
-16.0811608858
21
-0.2061608858
31
0.0000000000
11
-16.0639122545
21
-0.2258288571
31
0.0000000000
11
-16.0493780635
21
-0.2475796768
31
0.0000000000
11
-16.0378069730
21
-0.2710412181
31
0.0000000000
11
-16.0293969481
21
-0.2958120865
31
0.0000000000
11
-16.0242918729
21
-0.3214684866
31
0.0000000000
11
-16.0225790882
21
-0.3475714728
31
0.0000000000
0
SPLINE
5
314
100
AcDbEntity
8
0
100
AcDbSpline
62
9
6
CONTINUOUS
70
0
71
3
72
20
73
16
74
14
42
0.0000001000
43
0.0000001000
44
0.0000000001
12
-0.3140720596
22
-0.0000888754
32
0.0000000000
13
0.0006007659
23
-0.3140714976
33
0.0000000000
40
0.0000000000
40
0.0000000000
40
0.0000000000
40
0.0000000000
40
0.0753273185
40
0.1507748544
40
0.2265173619
40
0.3025173901
40
0.3787416682
40
0.4552645698
40
0.5322843653
40
0.6095831688
40
0.6872825337
40
0.7652225070
40
0.8434601524
40
0.9217934574
40
1.0000000000
40
1.0000000000
40
1.0000000000
40
1.0000000000
10
-6.4274285158
20
-0.1475790996
30
0.0000000000
10
-6.4353145845
20
-0.1475813312
30
0.0000000000
10
-6.4511152554
20
-0.1485181574
30
0.0000000000
10
-6.4745063734
20
-0.1527322230
30
0.0000000000
10
-6.4973021493
20
-0.1597171807
30
0.0000000000
10
-6.5191752904
20
-0.1694062323
30
0.0000000000
10
-6.5398020796
20
-0.1816861698
30
0.0000000000
10
-6.5588898528
20
-0.1964199344
30
0.0000000000
10
-6.5761415101
20
-0.2134285986
30
0.0000000000
10
-6.5912823542
20
-0.2324989796
30
0.0000000000
10
-6.6040430414
20
-0.2533515810
30
0.0000000000
10
-6.6142067859
20
-0.2756941871
30
0.0000000000
10
-6.6215827410
20
-0.2991765260
30
0.0000000000
10
-6.6260355088
20
-0.3234088229
30
0.0000000000
10
-6.6270037149
20
-0.3398168490
30
0.0000000000
10
-6.6269880536
20
-0.3480043310
30
0.0000000000
11
-6.4274285158
21
-0.1475790996
31
0.0000000000
11
-6.4510449899
21
-0.1489837027
31
0.0000000000
11
-6.4743657406
21
-0.1531838565
31
0.0000000000
11
-6.4971103712
21
-0.1601537611
31
0.0000000000
11
-6.5189346115
21
-0.1698209692
31
0.0000000000
11
-6.5395051466
21
-0.1820673037
31
0.0000000000
11
-6.5585304788
21
-0.1967525267
31
0.0000000000
11
-6.5757563768
21
-0.2137352606
31
0.0000000000
11
-6.5908523790
21
-0.2327484835
31
0.0000000000
11
-6.6035906150
21
-0.2535632269
31
0.0000000000
11
-6.6137269009
21
-0.2758447402
31
0.0000000000
11
-6.6210915698
21
-0.2992873848
31
0.0000000000
11
-6.6255369241
21
-0.3234847433
31
0.0000000000
11
-6.6269880536
21
-0.3480043310
31
0.0000000000
0
SPLINE
5
315
100
AcDbEntity
8
0
100
AcDbSpline
62
9
6
CONTINUOUS
70
0
71
3
72
20
73
16
74
14
42
0.0000001000
43
0.0000001000
44
0.0000000001
12
-0.0000597559
22
0.3924039430
32
0.0000000000
13
-0.3924039430
23
0.0000597696
33
0.0000000000
40
0.0000000000
40
0.0000000000
40
0.0000000000
40
0.0000000000
40
0.0769244174
40
0.1538499511
40
0.2307762414
40
0.3077028846
40
0.3846294565
40
0.4615555369
40
0.5384807340
40
0.6154047073
40
0.6923271873
40
0.7692479911
40
0.8461670332
40
0.9230843302
40
1.0000000000
40
1.0000000000
40
1.0000000000
40
1.0000000000
10
22.1840840780
20
-0.3954259424
30
0.0000000000
10
22.1840825457
20
-0.3853641275
30
0.0000000000
10
22.1828617232
20
-0.3652193771
30
0.0000000000
10
22.1774040431
20
-0.3354598851
30
0.0000000000
10
22.1683994708
20
-0.3065701213
30
0.0000000000
10
22.1559792890
20
-0.2789770406
30
0.0000000000
10
22.1403245739
20
-0.2530813825
30
0.0000000000
10
22.1216635602
20
-0.2292610993
30
0.0000000000
10
22.1002683007
20
-0.2078633626
30
0.0000000000
10
22.0764507488
20
-0.1892001677
30
0.0000000000
10
22.0505580329
20
-0.1735436065
30
0.0000000000
10
22.0229680623
20
-0.1611219488
30
0.0000000000
10
21.9940815333
20
-0.1521162999
30
0.0000000000
10
21.9643253607
20
-0.1466579648
30
0.0000000000
10
21.9441828249
20
-0.1454369940
30
0.0000000000
10
21.9341221542
20
-0.1454354616
30
0.0000000000
11
22.1840840780
21
-0.3954259424
31
0.0000000000
11
22.1822573383
21
-0.3652958227
31
0.0000000000
11
22.1768129288
21
-0.3356049833
31
0.0000000000
11
22.1678302259
21
-0.3067862999
31
0.0000000000
11
22.1554401926
21
-0.2792599326
31
0.0000000000
11
22.1398234688
21
-0.2534272000
31
0.0000000000
11
22.1212077376
21
-0.2296647288
31
0.0000000000
11
22.0998644061
21
-0.2083189619
31
0.0000000000
11
22.0761046481
21
-0.1897011083
31
0.0000000000
11
22.0502748675
21
-0.1740826054
31
0.0000000000
11
22.0227516479
21
-0.1616911618
31
0.0000000000
11
21.9939362623
21
-0.1527074372
31
0.0000000000
11
21.9642488224
21
-0.1472624088
31
0.0000000000
11
21.9341221542
21
-0.1454354616
31
0.0000000000
0
SPLINE
5
316
100
AcDbEntity
8
0
100
AcDbSpline
62
9
6
CONTINUOUS
70
0
71
3
72
20
73
16
74
14
42
0.0000001000
43
0.0000001000
44
0.0000000001
12
-0.3924039430
22
-0.0000597696
32
0.0000000000
13
-0.0000597559
23
-0.3924039430
33
0.0000000000
40
0.0000000000
40
0.0000000000
40
0.0000000000
40
0.0000000000
40
0.0769156706
40
0.1538329682
40
0.2307520108
40
0.3076728150
40
0.3845952952
40
0.4615192686
40
0.5384444656
40
0.6153705458
40
0.6922971174
40
0.7692237603
40
0.8461500501
40
0.9230755832
40
1.0000000000
40
1.0000000000
40
1.0000000000
40
1.0000000000
10
-22.0841221542
20
-0.1454354616
30
0.0000000000
10
-22.0941828250
20
-0.1454369940
30
0.0000000000
10
-22.1143253610
20
-0.1466579648
30
0.0000000000
10
-22.1440815339
20
-0.1521163001
30
0.0000000000
10
-22.1729680630
20
-0.1611219491
30
0.0000000000
10
-22.2005580337
20
-0.1735436069
30
0.0000000000
10
-22.2264507496
20
-0.1892001682
30
0.0000000000
10
-22.2502683015
20
-0.2078633633
30
0.0000000000
10
-22.2716635609
20
-0.2292611001
30
0.0000000000
10
-22.2903245744
20
-0.2530813833
30
0.0000000000
10
-22.3059792893
20
-0.2789770413
30
0.0000000000
10
-22.3183994710
20
-0.3065701219
30
0.0000000000
10
-22.3274040432
20
-0.3354598855
30
0.0000000000
10
-22.3328617232
20
-0.3652193773
30
0.0000000000
10
-22.3340825457
20
-0.3853641276
30
0.0000000000
10
-22.3340840780
20
-0.3954259424
30
0.0000000000
11
-22.0841221542
21
-0.1454354616
31
0.0000000000
11
-22.1142488227
21
-0.1472624089
31
0.0000000000
11
-22.1439362628
21
-0.1527074373
31
0.0000000000
11
-22.1727516487
21
-0.1616911621
31
0.0000000000
11
-22.2002748683
21
-0.1740826059
31
0.0000000000
11
-22.2261046489
21
-0.1897011089
31
0.0000000000
11
-22.2498644069
21
-0.2083189626
31
0.0000000000
11
-22.2712077383
21
-0.2296647295
31
0.0000000000
11
-22.2898234693
21
-0.2534272008
31
0.0000000000
11
-22.3054401930
21
-0.2792599333
31
0.0000000000
11
-22.3178302261
21
-0.3067863005
31
0.0000000000
11
-22.3268129289
21
-0.3356049837
31
0.0000000000
11
-22.3322573383
21
-0.3652958229
31
0.0000000000
11
-22.3340840780
21
-0.3954259424
31
0.0000000000
0
SPLINE
5
317
100
AcDbEntity
8
0
100
AcDbSpline
62
9
6
CONTINUOUS
70
0
71
3
72
21
73
17
74
15
42
0.0000001000
43
0.0000001000
44
0.0000000001
12
-0.0000002809
22
0.2501906996
32
0.0000000000
13
0.0490677374
23
0.2453319044
33
0.0000000000
40
0.0000000000
40
0.0000000000
40
0.0000000000
40
0.0000000000
40
0.1113217651
40
0.2212666517
40
0.3284677312
40
0.4315892650
40
0.5293479440
40
0.6205268822
40
0.7039906865
40
0.7787004268
40
0.8437261181
40
0.8982580700
40
0.9416175587
40
0.9732650090
40
0.9928063835
40
1.0000000000
40
1.0000000000
40
1.0000000000
40
1.0000000000
10
-16.2230040083
20
-0.3977684532
30
0.0000000000
10
-16.2230040187
20
-0.3884845631
30
0.0000000000
10
-16.2230022594
20
-0.3700316103
30
0.0000000000
10
-16.2229942723
20
-0.3426384206
30
0.0000000000
10
-16.2229810371
20
-0.3159291077
30
0.0000000000
10
-16.2229627598
20
-0.2902360873
30
0.0000000000
10
-16.2229395806
20
-0.2658792771
30
0.0000000000
10
-16.2229121140
20
-0.2431618365
30
0.0000000000
10
-16.2228797285
20
-0.2223667116
30
0.0000000000
10
-16.2228460722
20
-0.2037523832
30
0.0000000000
10
-16.2228017795
20
-0.1875518495
30
0.0000000000
10
-16.2227765653
20
-0.1739630700
30
0.0000000000
10
-16.2226911553
20
-0.1631654527
30
0.0000000000
10
-16.2227465940
20
-0.1552678493
30
0.0000000000
10
-16.2225250310
20
-0.1504222452
30
0.0000000000
10
-16.2226891310
20
-0.1481673628
30
0.0000000000
10
-16.2225714728
20
-0.1475790882
30
0.0000000000
11
-16.2230040083
21
-0.3977684532
31
0.0000000000
11
-16.2230013319
21
-0.3699167830
31
0.0000000000
11
-16.2229932588
21
-0.3424095961
31
0.0000000000
11
-16.2229798850
21
-0.3155888864
31
0.0000000000
11
-16.2229613809
21
-0.2897888443
31
0.0000000000
11
-16.2229379726
21
-0.2653305433
31
0.0000000000
11
-16.2229099533
21
-0.2425184381
31
0.0000000000
11
-16.2228776705
21
-0.2216365955
31
0.0000000000
11
-16.2228415279
21
-0.2029449482
31
0.0000000000
11
-16.2228019769
21
-0.1866761731
31
0.0000000000
11
-16.2227595084
21
-0.1730328520
31
0.0000000000
11
-16.2227146563
21
-0.1621848039
31
0.0000000000
11
-16.2226679663
21
-0.1542670439
31
0.0000000000
11
-16.2226200482
21
-0.1493782085
31
0.0000000000
11
-16.2225714728
21
-0.1475790882
31
0.0000000000
0
SPLINE
5
318
100
AcDbEntity
8
0
100
AcDbSpline
62
9
6
CONTINUOUS
70
0
71
3
72
25
73
21
74
19
42
0.0000001000
43
0.0000001000
44
0.0000000001
12
-0.7851276571
22
-0.0000196023
32
0.0000000000
13
0.0000039413
23
0.7851276574
33
0.0000000000
40
0.0000000000
40
0.0000000000
40
0.0000000000
40
0.0000000000
40
0.0550931772
40
0.1105562534
40
0.1662311592
40
0.2219616913
40
0.2776116638
40
0.3331701643
40
0.3887267735
40
0.4443306956
40
0.4999607261
40
0.5555918310
40
0.6111991928
40
0.6667639272
40
0.7223393774
40
0.7780136081
40
0.8337657402
40
0.8894515847
40
0.9449151157
40
1.0000000000
40
1.0000000000
40
1.0000000000
40
1.0000000000
10
-15.5230124517
20
-1.2979934133
30
0.0000000000
10
-15.5374308441
20
-1.2979937733
30
0.0000000000
10
-15.5663800400
20
-1.2967418212
30
0.0000000000
10
-15.6095688277
20
-1.2910926415
30
0.0000000000
10
-15.6522676250
20
-1.2816639132
30
0.0000000000
10
-15.6940251157
20
-1.2685254505
30
0.0000000000
10
-15.7344469950
20
-1.2518007914
30
0.0000000000
10
-15.7732151804
20
-1.2316348991
30
0.0000000000
10
-15.8100679658
20
-1.2081731250
30
0.0000000000
10
-15.8447494717
20
-1.1815757062
30
0.0000000000
10
-15.8769922719
20
-1.1520402562
30
0.0000000000
10
-15.9065347482
20
-1.1198026663
30
0.0000000000
10
-15.9331408975
20
-1.0851236698
30
0.0000000000
10
-15.9566133473
20
-1.0482687982
30
0.0000000000
10
-15.9767912422
20
-1.0094922378
30
0.0000000000
10
-15.9935268989
20
-0.9690570334
30
0.0000000000
10
-16.0066728401
20
-0.9272862354
30
0.0000000000
10
-16.0161050362
20
-0.8845793163
30
0.0000000000
10
-16.0217551700
20
-0.8413898209
30
0.0000000000
10
-16.0230075164
20
-0.8124427045
30
0.0000000000
10
-16.0230074440
20
-0.7980264825
30
0.0000000000
11
-15.5230124517
21
-1.2979934133
31
0.0000000000
11
-15.5662272092
21
-1.2961238993
31
0.0000000000
11
-15.6094050497
21
-1.2904765147
31
0.0000000000
11
-15.6520886487
21
-1.2810509483
31
0.0000000000
11
-15.6938270130
21
-1.2679185487
31
0.0000000000
11
-15.7342000279
21
-1.2512140709
31
0.0000000000
11
-15.7728982484
21
-1.2310845630
31
0.0000000000
11
-15.8096934111
21
-1.2076594521
31
0.0000000000
11
-15.8443352368
21
-1.1810924479
31
0.0000000000
11
-15.8765418457
21
-1.1515901372
31
0.0000000000
11
-15.9060511231
21
-1.1193887675
31
0.0000000000
11
-15.9326264605
21
-1.0847499302
31
0.0000000000
11
-15.9560616274
21
-1.0479536080
31
0.0000000000
11
-15.9762032738
21
-1.0092467018
31
0.0000000000
11
-15.9929197033
21
-0.9688580204
31
0.0000000000
11
-16.0060601820
21
-0.9271044199
31
0.0000000000
11
-16.0154891959
21
-0.8844127870
31
0.0000000000
11
-16.0211374718
21
-0.8412347031
31
0.0000000000
11
-16.0230074440
21
-0.7980264825
31
0.0000000000
0
SPLINE
5
319
100
AcDbEntity
8
0
100
AcDbSpline
62
9
6
CONTINUOUS
70
0
71
3
72
23
73
19
74
17
42
0.0000001000
43
0.0000001000
44
0.0000000001
12
0.2236471242
22
-0.1117076539
32
0.0000000000
13
0.2499932721
23
-0.0000000359
33
0.0000000000
40
0.0000000000
40
0.0000000000
40
0.0000000000
40
0.0000000000
40
0.0064500493
40
0.0222255514
40
0.0472021102
40
0.0811490559
40
0.1237486453
40
0.1746009520
40
0.2332271732
40
0.2990746684
40
0.3715233433
40
0.4498911345
40
0.5334398169
40
0.6213817634
40
0.7128890355
40
0.8071008145
40
0.9031271624
40
1.0000000000
40
1.0000000000
40
1.0000000000
40
1.0000000000
10
-22.0841221542
20
-0.1454354616
30
0.0000000000
10
-22.0836413092
20
-0.1456756349
30
0.0000000000
10
-22.0816960334
20
-0.1455860819
30
0.0000000000
10
-22.0778505094
20
-0.1459749783
30
0.0000000000
10
-22.0715841247
20
-0.1460568721
30
0.0000000000
10
-22.0631450416
20
-0.1462941268
30
0.0000000000
10
-22.0525232444
20
-0.1464618939
30
0.0000000000
10
-22.0398541070
20
-0.1466448389
30
0.0000000000
10
-22.0252441061
20
-0.1468089209
30
0.0000000000
10
-22.0088353209
20
-0.1469630917
30
0.0000000000
10
-21.9907809258
20
-0.1471021864
30
0.0000000000
10
-21.9712514330
20
-0.1472258878
30
0.0000000000
10
-21.9504307203
20
-0.1473326147
30
0.0000000000
10
-21.9285149964
20
-0.1474214125
30
0.0000000000
10
-21.9057106304
20
-0.1474913814
30
0.0000000000
10
-21.8822325302
20
-0.1475418459
30
0.0000000000
10
-21.8583072769
20
-0.1475723106
30
0.0000000000
10
-21.8422327765
20
-0.1475790871
30
0.0000000000
10
-21.8341602573
20
-0.1475790882
30
0.0000000000
11
-22.0841221542
21
-0.1454354616
31
0.0000000000
11
-22.0825235712
21
-0.1456466212
31
0.0000000000
11
-22.0785853400
21
-0.1458555521
31
0.0000000000
11
-22.0723447220
21
-0.1460601724
31
0.0000000000
11
-22.0638605329
21
-0.1462585487
31
0.0000000000
11
-22.0532126219
21
-0.1464488144
31
0.0000000000
11
-22.0405011669
21
-0.1466291781
31
0.0000000000
11
-22.0258459777
21
-0.1467979390
31
0.0000000000
11
-22.0093852820
21
-0.1469535056
31
0.0000000000
11
-21.9912741488
21
-0.1470944131
31
0.0000000000
11
-21.9716831265
21
-0.1472193350
31
0.0000000000
11
-21.9507967960
21
-0.1473270946
31
0.0000000000
11
-21.9288120836
21
-0.1474166765
31
0.0000000000
11
-21.9059359900
21
-0.1474872378
31
0.0000000000
11
-21.8823837341
21
-0.1475381147
31
0.0000000000
11
-21.8583778128
21
-0.1475688278
31
0.0000000000
11
-21.8341602573
21
-0.1475790882
31
0.0000000000
0
SPLINE
5
31A
100
AcDbEntity
8
0
100
AcDbSpline
62
9
6
CONTINUOUS
70
0
71
3
72
25
73
21
74
19
42
0.0000001000
43
0.0000001000
44
0.0000000001
12
0.0000042838
22
-0.7851276573
32
0.0000000000
13
-0.7851276571
23
0.0000192586
33
0.0000000000
40
0.0000000000
40
0.0000000000
40
0.0000000000
40
0.0000000000
40
0.0551181228
40
0.1106049013
40
0.1663016397
40
0.2220515874
40
0.2777181132
40
0.3332901361
40
0.3888568219
40
0.4444668901
40
0.5000989801
40
0.5557280316
40
0.6113292519
40
0.6668839207
40
0.7224458737
40
0.7781035707
40
0.8338362830
40
0.8895002838
40
0.9449400952
40
1.0000000000
40
1.0000000000
40
1.0000000000
40
1.0000000000
10
-6.6269925560
20
-0.7980264825
30
0.0000000000
10
-6.6269924773
20
-0.8124514034
30
0.0000000000
10
-6.6282462312
20
-0.8414133308
30
0.0000000000
10
-6.6339017047
20
-0.8846199760
30
0.0000000000
10
-6.6433398713
20
-0.9273341761
30
0.0000000000
10
-6.6564902424
20
-0.9691038499
30
0.0000000000
10
-6.6732284570
20
-1.0095342011
30
0.0000000000
10
-6.6934086375
20
-1.0483068522
30
0.0000000000
10
-6.7168844513
20
-1.0851599686
30
0.0000000000
10
-6.7434946314
20
-1.1198377432
30
0.0000000000
10
-6.7730405899
20
-1.1520731085
30
0.0000000000
10
-6.8052856169
20
-1.1816050787
30
0.0000000000
10
-6.8399683481
20
-1.2081984697
30
0.0000000000
10
-6.8768228970
20
-1.2316568849
30
0.0000000000
10
-6.9155950046
20
-1.2518204964
30
0.0000000000
10
-6.9560217473
20
-1.2685425985
30
0.0000000000
10
-6.9977803632
20
-1.2816766291
30
0.0000000000
10
-7.0404718708
20
-1.2910993844
30
0.0000000000
10
-7.0836434922
20
-1.2967432226
30
0.0000000000
10
-7.1125778636
20
-1.2979937667
30
0.0000000000
10
-7.1269875483
20
-1.2979934133
30
0.0000000000
11
-6.6269925560
21
-0.7980264825
31
0.0000000000
11
-6.6288647859
21
-0.8412607262
31
0.0000000000
11
-6.6345184752
21
-0.8844565097
31
0.0000000000
11
-6.6439534904
21
-0.9271555761
31
0.0000000000
11
-6.6570978047
21
-0.9689061713
31
0.0000000000
11
-6.6738158146
21
-1.0092876514
31
0.0000000000
11
-6.6939596122
21
-1.0479904046
31
0.0000000000
11
-6.7173987857
21
-1.0847859913
31
0.0000000000
11
-6.7439785403
21
-1.1194241176
31
0.0000000000
11
-6.7734913375
21
-1.1516233106
31
0.0000000000
11
-6.8057001255
21
-1.1811221041
31
0.0000000000
11
-6.8403426638
21
-1.2076846932
31
0.0000000000
11
-6.8771385682
21
-1.2311058017
31
0.0000000000
11
-6.9158409594
21
-1.2512331654
31
0.0000000000
11
-6.9562211905
21
-1.2679360651
31
0.0000000000
11
-6.9979625568
21
-1.2810646254
31
0.0000000000
11
-7.0406387135
21
-1.2904841878
31
0.0000000000
11
-7.0837988406
21
-1.2961261575
31
0.0000000000
11
-7.1269875483
21
-1.2979934133
31
0.0000000000
0
SPLINE
5
31B
100
AcDbEntity
8
0
100
AcDbSpline
62
9
6
CONTINUOUS
70
0
71
3
72
10
73
6
74
4
42
0.0000001000
43
0.0000001000
44
0.0000000001
12
0.0001262690
22
-9.1022317153
32
0.0000000000
13
0.0030162464
23
-9.1022312164
33
0.0000000000
40
0.0000000000
40
0.0000000000
40
0.0000000000
40
0.0000000000
40
0.3333526958
40
0.6666869330
40
1.0000000000
40
1.0000000000
40
1.0000000000
40
1.0000000000
10
21.6841602573
20
-0.3977684534
30
0.0000000000
10
21.6841742880
20
-1.4091862800
30
0.0000000000
10
21.6843093731
20
-3.4319659288
30
0.0000000000
10
21.6848330725
20
-6.4660431274
30
0.0000000000
10
21.6853962666
20
-8.4887024656
30
0.0000000000
10
21.6857313847
20
-9.5000000000
30
0.0000000000
11
21.6841602573
21
-0.3977684534
31
0.0000000000
11
21.6843628944
21
-3.4320219267
31
0.0000000000
11
21.6848866048
21
-6.4661073477
31
0.0000000000
11
21.6857313847
21
-9.5000000000
31
0.0000000000
0
SPLINE
5
31C
100
AcDbEntity
8
0
100
AcDbSpline
62
9
6
CONTINUOUS
70
0
71
3
72
10
73
6
74
4
42
0.0000001000
43
0.0000001000
44
0.0000000001
12
0.0001256780
22
-9.0950742265
32
0.0000000000
13
0.0030168915
23
-9.0950737270
33
0.0000000000
40
0.0000000000
40
0.0000000000
40
0.0000000000
40
0.0000000000
40
0.3333523826
40
0.6666867781
40
1.0000000000
40
1.0000000000
40
1.0000000000
40
1.0000000000
10
22.1840840780
20
-0.3954259424
30
0.0000000000
10
22.1840980430
20
-1.4060474968
30
0.0000000000
10
22.1842330424
20
-3.4272360746
30
0.0000000000
10
22.1847567505
20
-6.4589274435
30
0.0000000000
10
22.1853200423
20
-8.4799972242
30
0.0000000000
10
22.1856552323
20
-9.4905000000
30
0.0000000000
11
22.1840840780
21
-0.3954259424
31
0.0000000000
11
22.1842865864
21
-3.4272905992
31
0.0000000000
11
22.1848103057
21
-6.4589916235
31
0.0000000000
11
22.1856552323
21
-9.4905000000
31
0.0000000000
0
SPLINE
5
31D
100
AcDbEntity
8
0
100
AcDbSpline
62
9
6
CONTINUOUS
70
0
71
3
72
23
73
19
74
17
42
0.0000001000
43
0.0000001000
44
0.0000000001
12
-0.4823510276
22
-0.1314534964
32
0.0000000000
13
-0.4999425323
23
-0.0000035395
33
0.0000000000
40
0.0000000000
40
0.0000000000
40
0.0000000000
40
0.0000000000
40
0.0064178635
40
0.0221823777
40
0.0471536312
40
0.0810970082
40
0.1236936813
40
0.1745429946
40
0.2331658355
40
0.2990099999
40
0.3714556312
40
0.4498207821
40
0.5333673360
40
0.6213078087
40
0.7128143666
40
0.8070265379
40
0.9030529224
40
1.0000000000
40
1.0000000000
40
1.0000000000
40
1.0000000000
10
22.1840840780
20
-0.3954259424
30
0.0000000000
10
22.1830521903
20
-0.3957071593
30
0.0000000000
10
22.1792915090
20
-0.3955680467
30
0.0000000000
10
22.1714932088
20
-0.3960278781
30
0.0000000000
10
22.1590193686
20
-0.3960982299
30
0.0000000000
10
22.1421169152
20
-0.3963652451
30
0.0000000000
10
22.1208838806
20
-0.3965453813
30
0.0000000000
10
22.0955444135
20
-0.3967462251
30
0.0000000000
10
22.0663283773
20
-0.3969251122
30
0.0000000000
10
22.0335139803
20
-0.3970936875
30
0.0000000000
10
21.9974092340
20
-0.3972456979
30
0.0000000000
10
21.9583544150
20
-0.3973809850
30
0.0000000000
10
21.9167173278
20
-0.3974977586
30
0.0000000000
10
21.8728902086
20
-0.3975949905
30
0.0000000000
10
21.8272856458
20
-0.3976716852
30
0.0000000000
10
21.7803335549
20
-0.3977271074
30
0.0000000000
10
21.7324747940
20
-0.3977607130
30
0.0000000000
10
21.7003162465
20
-0.3977683393
30
0.0000000000
10
21.6841602573
20
-0.3977684537
30
0.0000000000
11
22.1840840780
21
-0.3954259424
31
0.0000000000
11
22.1808838032
21
-0.3956564146
31
0.0000000000
11
22.1730057488
21
-0.3958843500
31
0.0000000000
11
22.1605235542
21
-0.3961076474
31
0.0000000000
11
22.1435551978
21
-0.3963241740
31
0.0000000000
11
22.1222603223
21
-0.3965318996
31
0.0000000000
11
22.0968393509
21
-0.3967288636
31
0.0000000000
11
22.0675318792
21
-0.3969132080
31
0.0000000000
11
22.0346140197
21
-0.3970831934
31
0.0000000000
11
21.9983956949
21
-0.3972372169
31
0.0000000000
11
21.9592178611
21
-0.3973738257
31
0.0000000000
11
21.9174495518
21
-0.3974917300
31
0.0000000000
11
21.8734844786
21
-0.3975898168
31
0.0000000000
11
21.8277365236
21
-0.3976671602
31
0.0000000000
11
21.7806358853
21
-0.3977230323
31
0.0000000000
11
21.7326282234
21
-0.3977569022
31
0.0000000000
11
21.6841602573
21
-0.3977684537
31
0.0000000000
0
SPLINE
5
31E
100
AcDbEntity
8
0
100
AcDbSpline
62
9
6
CONTINUOUS
70
0
71
3
72
22
73
18
74
16
42
0.0000001000
43
0.0000001000
44
0.0000000001
12
-0.3383259846
22
-0.3684496650
32
0.0000000000
13
-0.5002195517
23
-0.0001658660
33
0.0000000000
40
0.0000000000
40
0.0000000000
40
0.0000000000
40
0.0000000000
40
0.0074214242
40
0.0253154709
40
0.0536084287
40
0.0920197829
40
0.1401463892
40
0.1974767512
40
0.2633990287
40
0.3372084836
40
0.4181154124
40
0.5052537950
40
0.5976906748
40
0.6944362151
40
0.7944543416
40
0.8966738698
40
1.0000000000
40
1.0000000000
40
1.0000000000
40
1.0000000000
10
22.1856552323
20
-9.4905000000
30
0.0000000000
10
22.1848182787
20
-9.4914114738
30
0.0000000000
10
22.1800146338
20
-9.4914365540
30
0.0000000000
10
22.1716496552
20
-9.4928695013
30
0.0000000000
10
22.1572877209
20
-9.4934503773
30
0.0000000000
10
22.1382804977
20
-9.4944651569
30
0.0000000000
10
22.1142618616
20
-9.4952711913
30
0.0000000000
10
22.0857131525
20
-9.4960999078
30
0.0000000000
10
22.0528584453
20
-9.4968507727
30
0.0000000000
10
22.0160772547
20
-9.4975444637
30
0.0000000000
10
21.9757545997
20
-9.4981628659
30
0.0000000000
10
21.9323252764
20
-9.4987018799
30
0.0000000000
10
21.8862537171
20
-9.4991544429
30
0.0000000000
10
21.8380337848
20
-9.4995157501
30
0.0000000000
10
21.7881820377
20
-9.4997816959
30
0.0000000000
10
21.7372326194
20
-9.4999493561
30
0.0000000000
10
21.7029599682
20
-9.4999942872
30
0.0000000000
10
21.6857313847
20
-9.5000000000
30
0.0000000000
11
22.1856552323
21
-9.4905000000
31
0.0000000000
11
22.1820751754
21
-9.4914821781
31
0.0000000000
11
22.1731771173
21
-9.4924538327
31
0.0000000000
11
22.1590563948
21
-9.4934045533
31
0.0000000000
11
22.1398643023
21
-9.4943241535
31
0.0000000000
11
22.1158064705
21
-9.4952027804
31
0.0000000000
11
22.0871406636
21
-9.4960310200
31
0.0000000000
11
22.0541740171
21
-9.4967999984
31
0.0000000000
11
22.0172597471
21
-9.4975014764
31
0.0000000000
11
21.9767933660
21
-9.4981279381
31
0.0000000000
11
21.9332084449
21
-9.4986726714
31
0.0000000000
11
21.8869719679
21
-9.4991298398
31
0.0000000000
11
21.8385793287
21
-9.4994945451
31
0.0000000000
11
21.7885490231
21
-9.4997628797
31
0.0000000000
11
21.7374170933
21
-9.4999319685
31
0.0000000000
11
21.6857313847
21
-9.5000000000
31
0.0000000000
0
SPLINE
5
31F
100
AcDbEntity
8
0
100
AcDbSpline
62
9
6
CONTINUOUS
70
0
71
3
72
14
73
10
74
8
42
0.0000001000
43
0.0000001000
44
0.0000000001
12
0.0038629501
22
-11.7107319604
32
0.0000000000
13
0.0306549600
23
-11.7106924750
33
0.0000000000
40
0.0000000000
40
0.0000000000
40
0.0000000000
40
0.0000000000
40
0.1434088633
40
0.2867169135
40
0.4298742344
40
0.5728309521
40
0.7155372777
40
0.8579434943
40
1.0000000000
40
1.0000000000
40
1.0000000000
40
1.0000000000
10
21.6857313847
20
-9.5000000000
30
0.0000000000
10
21.6859160451
20
-10.0598075864
30
0.0000000000
10
21.6864665785
20
-11.1790291761
30
0.0000000000
10
21.6878364426
20
-12.8570760482
30
0.0000000000
10
21.6897496972
20
-14.5333574041
30
0.0000000000
10
21.6922056756
20
-16.2072891708
30
0.0000000000
10
21.6952035216
20
-17.8782880572
30
0.0000000000
10
21.6987421894
20
-19.5457718288
30
0.0000000000
10
21.7014646904
20
-20.6561908070
30
0.0000000000
10
21.7029162692
20
-21.2107174911
30
0.0000000000
11
21.6857313847
21
-9.5000000000
31
0.0000000000
11
21.6865576201
21
-11.1794226474
31
0.0000000000
11
21.6879278821
21
-12.8576643428
31
0.0000000000
11
21.6898416937
21
-14.5341403548
31
0.0000000000
11
21.6922983881
21
-16.2082664463
31
0.0000000000
11
21.6952971100
21
-17.8794593742
31
0.0000000000
11
21.6988368146
21
-19.5471367410
31
0.0000000000
11
21.7029162692
21
-21.2107174911
31
0.0000000000
0
SPLINE
5
320
100
AcDbEntity
8
0
100
AcDbSpline
62
9
6
CONTINUOUS
70
0
71
3
72
14
73
10
74
8
42
0.0000001000
43
0.0000001000
44
0.0000000001
12
0.0038629502
22
-11.6456724996
32
0.0000000000
13
0.0306549592
23
-11.6456327936
33
0.0000000000
40
0.0000000000
40
0.0000000000
40
0.0000000000
40
0.0000000000
40
0.1434087316
40
0.2867168220
40
0.4298741837
40
0.5728309429
40
0.7155373107
40
0.8579435704
40
1.0000000000
40
1.0000000000
40
1.0000000000
40
1.0000000000
10
22.1856552323
20
-9.4905000000
30
0.0000000000
10
22.1858398925
20
-10.0471970406
30
0.0000000000
10
22.1863904255
20
-11.1602003920
30
0.0000000000
10
22.1877602891
20
-12.8289246029
30
0.0000000000
10
22.1896735440
20
-14.4958937726
30
0.0000000000
10
22.1921295231
20
-16.1605264064
30
0.0000000000
10
22.1951273700
20
-17.8222424522
30
0.0000000000
10
22.1986660381
20
-19.4804624432
30
0.0000000000
10
22.2013885388
20
-20.5847122777
30
0.0000000000
10
22.2028401168
20
-21.1361579495
30
0.0000000000
11
22.1856552323
21
-9.4905000000
31
0.0000000000
11
22.1864814667
21
-11.1605910092
31
0.0000000000
11
22.1878517287
21
-12.8295096259
31
0.0000000000
11
22.1897655406
21
-14.4966723695
31
0.0000000000
11
22.1922222356
21
-16.1614982481
31
0.0000000000
11
22.1952209584
21
-17.8234072572
31
0.0000000000
11
22.1987606643
21
-19.4818202323
31
0.0000000000
11
22.2028401168
21
-21.1361579495
31
0.0000000000
0
SPLINE
5
321
100
AcDbEntity
8
0
100
AcDbSpline
62
9
6
CONTINUOUS
70
0
71
3
72
22
73
18
74
16
42
0.0000001000
43
0.0000001000
44
0.0000000001
12
-0.0591138678
22
-0.5108754439
32
0.0000000000
13
-0.5142824288
23
-0.0013236500
33
0.0000000000
40
0.0000000000
40
0.0000000000
40
0.0000000000
40
0.0000000000
40
0.0165205715
40
0.0392968720
40
0.0703415218
40
0.1102029685
40
0.1588601991
40
0.2160113716
40
0.2811781018
40
0.3537518401
40
0.4330195652
40
0.5181813029
40
0.6083642356
40
0.7026353871
40
0.8000137619
40
0.8994823277
40
1.0000000000
40
1.0000000000
40
1.0000000000
40
1.0000000000
10
22.2028401168
20
-21.1361579495
30
0.0000000000
10
22.2025145852
20
-21.1389712676
30
0.0000000000
10
22.1990649365
20
-21.1452475349
30
0.0000000000
10
22.1893971436
20
-21.1526229966
30
0.0000000000
10
22.1750181630
20
-21.1599005705
30
0.0000000000
10
22.1557257493
20
-21.1669100715
30
0.0000000000
10
22.1316698663
20
-21.1736672968
30
0.0000000000
10
22.1030530118
20
-21.1800537753
30
0.0000000000
10
22.0701698995
20
-21.1860023531
30
0.0000000000
10
22.0333625073
20
-21.1914381942
30
0.0000000000
10
21.9930213070
20
-21.1962994730
30
0.0000000000
10
21.9495758141
20
-21.2005304339
30
0.0000000000
10
21.9034900695
20
-21.2040836165
30
0.0000000000
10
21.8552569136
20
-21.2069193711
30
0.0000000000
10
21.8053924928
20
-21.2090062779
30
0.0000000000
10
21.7544308173
20
-21.2103212990
30
0.0000000000
10
21.7201477601
20
-21.2106731351
30
0.0000000000
10
21.7029162692
20
-21.2107174852
30
0.0000000000
11
22.2028401168
21
-21.1361579495
31
0.0000000000
11
22.1992692114
21
-21.1438673724
31
0.0000000000
11
22.1903788934
21
-21.1514941733
31
0.0000000000
11
22.1762644403
21
-21.1589566159
31
0.0000000000
11
22.1570771167
21
-21.1661747253
31
0.0000000000
11
22.1330225530
21
-21.1730711449
31
0.0000000000
11
22.1043585419
21
-21.1795719659
31
0.0000000000
11
22.0713922755
21
-21.1856075190
31
0.0000000000
11
22.0344770531
21
-21.1911131213
31
0.0000000000
11
21.9940084950
21
-21.1960297691
31
0.0000000000
11
21.9504203027
21
-21.2003047707
31
0.0000000000
11
21.9041796106
21
-21.2038923111
31
0.0000000000
11
21.8557819801
21
-21.2067539426
31
0.0000000000
11
21.8057460883
21
-21.2088589970
31
0.0000000000
11
21.7546081697
21
-21.2101849145
31
0.0000000000
11
21.7029162692
21
-21.2107174852
31
0.0000000000
0
SPLINE
5
322
100
AcDbEntity
8
0
100
AcDbSpline
62
9
6
CONTINUOUS
70
0
71
3
72
23
73
19
74
17
42
0.0000001000
43
0.0000001000
44
0.0000000001
12
0.0011180576
22
-0.8496070319
32
0.0000000000
13
0.1395305939
23
-0.8380719373
33
0.0000000000
40
0.0000000000
40
0.0000000000
40
0.0000000000
40
0.0000000000
40
0.0988005715
40
0.1955925439
40
0.2896728023
40
0.3803505693
40
0.4669636684
40
0.5488791748
40
0.6254973164
40
0.6962576544
40
0.7606430516
40
0.8181829482
40
0.8684565290
40
0.9110960839
40
0.9457907463
40
0.9722883955
40
0.9903979432
40
1.0000000000
40
1.0000000000
40
1.0000000000
40
1.0000000000
10
21.7029162692
20
-21.2107174911
30
0.0000000000
10
21.7029530908
20
-21.2386980445
30
0.0000000000
10
21.7030469507
20
-21.2940902864
30
0.0000000000
10
21.7032504552
20
-21.3761261301
30
0.0000000000
10
21.7035141196
20
-21.4558613922
30
0.0000000000
10
21.7038359100
20
-21.5327137344
30
0.0000000000
10
21.7042134295
20
-21.6061206914
30
0.0000000000
10
21.7046437829
20
-21.6755455667
30
0.0000000000
10
21.7051237084
20
-21.7404804571
30
0.0000000000
10
21.7056493550
20
-21.8004502676
30
0.0000000000
10
21.7062169023
20
-21.8550163706
30
0.0000000000
10
21.7068205202
20
-21.9037799807
30
0.0000000000
10
21.7074584798
20
-21.9463835342
30
0.0000000000
10
21.7081139483
20
-21.9825177371
30
0.0000000000
10
21.7088090645
20
-22.0119119407
30
0.0000000000
10
21.7094533824
20
-22.0343692159
30
0.0000000000
10
21.7102060808
20
-22.0496887841
30
0.0000000000
10
21.7106428640
20
-22.0575455379
30
0.0000000000
10
21.7110894575
20
-22.0602279426
30
0.0000000000
11
21.7029162692
21
-21.2107174911
31
0.0000000000
11
21.7030590269
21
-21.2946591027
31
0.0000000000
11
21.7032638430
21
-21.3768940592
31
0.0000000000
11
21.7035292500
21
-21.4568249369
31
0.0000000000
11
21.7038532821
21
-21.5338647907
31
0.0000000000
11
21.7042335831
21
-21.6074509697
31
0.0000000000
11
21.7046673703
21
-21.6770456683
31
0.0000000000
11
21.7051514705
21
-21.7421392365
31
0.0000000000
11
21.7056823412
21
-21.8022554254
31
0.0000000000
11
21.7062561020
21
-21.8569547499
31
0.0000000000
11
21.7068685593
21
-21.9058372563
31
0.0000000000
11
21.7075152321
21
-21.9485451855
31
0.0000000000
11
21.7081913877
21
-21.9847657719
31
0.0000000000
11
21.7088920750
21
-22.0142342975
31
0.0000000000
11
21.7096122009
21
-22.0367353855
31
0.0000000000
11
21.7103464177
21
-22.0521038696
31
0.0000000000
11
21.7110894575
21
-22.0602279426
31
0.0000000000
0
SPLINE
5
323
100
AcDbEntity
8
0
100
AcDbSpline
62
9
6
CONTINUOUS
70
0
71
3
72
23
73
19
74
17
42
0.0000001000
43
0.0000001000
44
0.0000000001
12
0.0011186693
22
-0.4249478805
32
0.0000000000
13
0.1342578023
23
-0.4031833269
33
0.0000000000
40
0.0000000000
40
0.0000000000
40
0.0000000000
40
0.0000000000
40
0.0987421881
40
0.1955064217
40
0.2895606032
40
0.3802142499
40
0.4668055372
40
0.5487018874
40
0.6253038913
40
0.6960513846
40
0.7604277490
40
0.8179631298
40
0.8682376571
40
0.9108849915
40
0.9455965263
40
0.9721243013
40
0.9902873897
40
1.0000000000
40
1.0000000000
40
1.0000000000
40
1.0000000000
10
22.2028401168
20
-21.1361579495
30
0.0000000000
10
22.2028769368
20
-21.1501447107
30
0.0000000000
10
22.2029707652
20
-21.1778380072
30
0.0000000000
10
22.2031742655
20
-21.2188537163
30
0.0000000000
10
22.2034379157
20
-21.2587233208
30
0.0000000000
10
22.2037597201
20
-21.2971514562
30
0.0000000000
10
22.2041372468
20
-21.3338568456
30
0.0000000000
10
22.2045676198
20
-21.3685711039
30
0.0000000000
10
22.2050475638
20
-21.4010402094
30
0.0000000000
10
22.2055732482
20
-21.4310265933
30
0.0000000000
10
22.2061407964
20
-21.4583108097
30
0.0000000000
10
22.2067445556
20
-21.4826938109
30
0.0000000000
10
22.2073822571
20
-21.5039958789
30
0.0000000000
10
22.2080387016
20
-21.5220655168
30
0.0000000000
10
22.2087314762
20
-21.5367593415
30
0.0000000000
10
22.2093822618
20
-21.5480022546
30
0.0000000000
10
22.2101233066
20
-21.5556472993
30
0.0000000000
10
22.2105786406
20
-21.5596078544
30
0.0000000000
10
22.2110133051
20
-21.5609131753
30
0.0000000000
11
22.2028401168
21
-21.1361579495
31
0.0000000000
11
22.2029828289
21
-21.1781181358
31
0.0000000000
11
22.2031876471
21
-21.2192375241
31
0.0000000000
11
22.2034530491
21
-21.2592049065
31
0.0000000000
11
22.2037770888
21
-21.2977267521
31
0.0000000000
11
22.2041573991
21
-21.3345216983
31
0.0000000000
11
22.2045912023
21
-21.3693207955
31
0.0000000000
11
22.2050753228
21
-21.4018691673
31
0.0000000000
11
22.2056062175
21
-21.4319285810
31
0.0000000000
11
22.2061800051
21
-21.4592792573
31
0.0000000000
11
22.2067924912
21
-21.4837212073
31
0.0000000000
11
22.2074391949
21
-21.5050755449
31
0.0000000000
11
22.2081153800
21
-21.5231858831
31
0.0000000000
11
22.2088161035
21
-21.5379198741
31
0.0000000000
11
22.2095362473
21
-21.5491698092
31
0.0000000000
11
22.2102705221
21
-21.5568531955
31
0.0000000000
11
22.2110133051
21
-21.5609131753
31
0.0000000000
0
SPLINE
5
324
100
AcDbEntity
8
0
100
AcDbSpline
62
9
6
CONTINUOUS
70
0
71
3
72
22
73
18
74
16
42
0.0000001000
43
0.0000001000
44
0.0000000001
12
-0.0007171661
22
-0.7842144221
32
0.0000000000
13
-0.7842144237
23
-0.0007154196
33
0.0000000000
40
0.0000000000
40
0.0000000000
40
0.0000000000
40
0.0000000000
40
0.0666100513
40
0.1332280974
40
0.1998554123
40
0.2664928652
40
0.3331408822
40
0.3997994284
40
0.4664680092
40
0.5331456922
40
0.5998311483
40
0.6665227095
40
0.7332184418
40
0.7999162294
40
0.8666138671
40
0.9333091561
40
1.0000000000
40
1.0000000000
40
1.0000000000
40
1.0000000000
10
22.2110133051
20
-21.5609131753
30
0.0000000000
10
22.2109973816
20
-21.5783253629
30
0.0000000000
10
22.2091382249
20
-21.6131777045
30
0.0000000000
10
22.2008991609
20
-21.6648592824
30
0.0000000000
10
22.1872998143
20
-21.7154090806
30
0.0000000000
10
22.1684890724
20
-21.7642663845
30
0.0000000000
10
22.1446728446
20
-21.8108985494
30
0.0000000000
10
22.1161118143
20
-21.8547947440
30
0.0000000000
10
22.0831185773
20
-21.8954747767
30
0.0000000000
10
22.0460542223
20
-21.9324934786
30
0.0000000000
10
22.0053243600
20
-21.9654458030
30
0.0000000000
10
21.9613747456
20
-21.9939711899
30
0.0000000000
10
21.9146861703
20
-22.0177575231
30
0.0000000000
10
21.8657700666
20
-22.0365445363
30
0.0000000000
10
21.8151596898
20
-22.0501266609
30
0.0000000000
10
21.7634163250
20
-22.0583552628
30
0.0000000000
10
21.7285227648
20
-22.0602120387
30
0.0000000000
10
21.7110894575
20
-22.0602279426
30
0.0000000000
11
22.2110133051
21
-21.5609131753
31
0.0000000000
11
22.2082301484
21
-21.6130755643
31
0.0000000000
11
22.2000065411
21
-21.6646671150
31
0.0000000000
11
22.1864324780
21
-21.7151232363
31
0.0000000000
11
22.1676565066
21
-21.7638917625
31
0.0000000000
11
22.1438841016
21
-21.8104389959
31
0.0000000000
11
22.1153754157
21
-21.8542555477
31
0.0000000000
11
22.0824424333
21
-21.8948619124
31
0.0000000000
11
22.0454455560
21
-21.9318137147
31
0.0000000000
11
22.0047896585
21
-21.9647065732
31
0.0000000000
11
21.9609196578
21
-21.9931805257
31
0.0000000000
11
21.9143156445
21
-22.0169239677
31
0.0000000000
11
21.8654876290
21
-22.0356770634
31
0.0000000000
11
21.8149699597
21
-22.0492345886
31
0.0000000000
11
21.7633154759
21
-22.0574481768
31
0.0000000000
11
21.7110894575
21
-22.0602279426
31
0.0000000000
0
SPLINE
5
325
100
AcDbEntity
8
0
100
AcDbSpline
62
9
6
CONTINUOUS
70
0
71
3
72
10
73
6
74
4
42
0.0000001000
43
0.0000001000
44
0.0000000001
12
0.0030168915
22
9.0950737270
32
0.0000000000
13
0.0001256780
23
9.0950742265
33
0.0000000000
40
0.0000000000
40
0.0000000000
40
0.0000000000
40
0.0000000000
40
0.3333132219
40
0.6666476174
40
1.0000000000
40
1.0000000000
40
1.0000000000
40
1.0000000000
10
-22.3356552323
20
-9.4905000000
30
0.0000000000
10
-22.3353200423
20
-8.4799972242
30
0.0000000000
10
-22.3347567505
20
-6.4589274435
30
0.0000000000
10
-22.3342330424
20
-3.4272360746
30
0.0000000000
10
-22.3340980430
20
-1.4060474968
30
0.0000000000
10
-22.3340840780
20
-0.3954259424
30
0.0000000000
11
-22.3356552323
21
-9.4905000000
31
0.0000000000
11
-22.3348103057
21
-6.4589916235
31
0.0000000000
11
-22.3342865864
21
-3.4272905992
31
0.0000000000
11
-22.3340840780
21
-0.3954259424
31
0.0000000000
0
SPLINE
5
326
100
AcDbEntity
8
0
100
AcDbSpline
62
9
6
CONTINUOUS
70
0
71
3
72
22
73
18
74
16
42
0.0000001000
43
0.0000001000
44
0.0000000001
12
0.3383259739
22
-0.3684496748
32
0.0000000000
13
0.5002195518
23
-0.0001658660
33
0.0000000000
40
0.0000000000
40
0.0000000000
40
0.0000000000
40
0.0000000000
40
0.0074214241
40
0.0253154708
40
0.0536084284
40
0.0920197827
40
0.1401463889
40
0.1974767508
40
0.2633990283
40
0.3372084832
40
0.4181154121
40
0.5052537947
40
0.5976906746
40
0.6944362149
40
0.7944543415
40
0.8966738698
40
1.0000000000
40
1.0000000000
40
1.0000000000
40
1.0000000000
10
-22.3356552323
20
-9.4905000000
30
0.0000000000
10
-22.3348182788
20
-9.4914114738
30
0.0000000000
10
-22.3300146338
20
-9.4914365540
30
0.0000000000
10
-22.3216496553
20
-9.4928695013
30
0.0000000000
10
-22.3072877210
20
-9.4934503773
30
0.0000000000
10
-22.2882804979
20
-9.4944651569
30
0.0000000000
10
-22.2642618618
20
-9.4952711913
30
0.0000000000
10
-22.2357131526
20
-9.4960999078
30
0.0000000000
10
-22.2028584455
20
-9.4968507727
30
0.0000000000
10
-22.1660772549
20
-9.4975444637
30
0.0000000000
10
-22.1257545999
20
-9.4981628659
30
0.0000000000
10
-22.0823252765
20
-9.4987018799
30
0.0000000000
10
-22.0362537173
20
-9.4991544429
30
0.0000000000
10
-21.9880337849
20
-9.4995157502
30
0.0000000000
10
-21.9381820378
20
-9.4997816959
30
0.0000000000
10
-21.8872326194
20
-9.4999493561
30
0.0000000000
10
-21.8529599682
20
-9.4999942872
30
0.0000000000
10
-21.8357313847
20
-9.5000000000
30
0.0000000000
11
-22.3356552323
21
-9.4905000000
31
0.0000000000
11
-22.3320751755
21
-9.4914821781
31
0.0000000000
11
-22.3231771174
21
-9.4924538327
31
0.0000000000
11
-22.3090563949
21
-9.4934045533
31
0.0000000000
11
-22.2898643024
21
-9.4943241535
31
0.0000000000
11
-22.2658064707
21
-9.4952027804
31
0.0000000000
11
-22.2371406638
21
-9.4960310200
31
0.0000000000
11
-22.2041740173
21
-9.4967999984
31
0.0000000000
11
-22.1672597472
21
-9.4975014764
31
0.0000000000
11
-22.1267933662
21
-9.4981279381
31
0.0000000000
11
-22.0832084450
21
-9.4986726714
31
0.0000000000
11
-22.0369719680
21
-9.4991298398
31
0.0000000000
11
-21.9885793288
21
-9.4994945451
31
0.0000000000
11
-21.9385490232
21
-9.4997628797
31
0.0000000000
11
-21.8874170933
21
-9.4999319686
31
0.0000000000
11
-21.8357313847
21
-9.5000000000
31
0.0000000000
0
SPLINE
5
327
100
AcDbEntity
8
0
100
AcDbSpline
62
9
6
CONTINUOUS
70
0
71
3
72
10
73
6
74
4
42
0.0000001000
43
0.0000001000
44
0.0000000001
12
0.0030162464
22
9.1022312164
32
0.0000000000
13
0.0001262690
23
9.1022317153
33
0.0000000000
40
0.0000000000
40
0.0000000000
40
0.0000000000
40
0.0000000000
40
0.3333130670
40
0.6666473043
40
1.0000000000
40
1.0000000000
40
1.0000000000
40
1.0000000000
10
-21.8357313847
20
-9.5000000000
30
0.0000000000
10
-21.8353962666
20
-8.4887024655
30
0.0000000000
10
-21.8348330725
20
-6.4660431273
30
0.0000000000
10
-21.8343093731
20
-3.4319659287
30
0.0000000000
10
-21.8341742880
20
-1.4091862800
30
0.0000000000
10
-21.8341602573
20
-0.3977684534
30
0.0000000000
11
-21.8357313847
21
-9.5000000000
31
0.0000000000
11
-21.8348866048
21
-6.4661073476
31
0.0000000000
11
-21.8343628944
21
-3.4320219265
31
0.0000000000
11
-21.8341602573
21
-0.3977684534
31
0.0000000000
0
SPLINE
5
328
100
AcDbEntity
8
0
100
AcDbSpline
62
9
6
CONTINUOUS
70
0
71
3
72
23
73
19
74
17
42
0.0000001000
43
0.0000001000
44
0.0000000001
12
0.4823517018
22
-0.1314510227
32
0.0000000000
13
0.4999425323
23
-0.0000035447
33
0.0000000000
40
0.0000000000
40
0.0000000000
40
0.0000000000
40
0.0000000000
40
0.0064178508
40
0.0221823495
40
0.0471535726
40
0.0810969176
40
0.1236935390
40
0.1745428040
40
0.2331655984
40
0.2990097079
40
0.3714552700
40
0.4498203490
40
0.5333668490
40
0.6213072866
40
0.7128137385
40
0.8070259395
40
0.9030519774
40
1.0000000000
40
1.0000000000
40
1.0000000000
40
1.0000000000
10
-22.3340840780
20
-0.3954259424
30
0.0000000000
10
-22.3330521909
20
-0.3957071534
30
0.0000000000
10
-22.3292915177
20
-0.3955680541
30
0.0000000000
10
-22.3214932244
20
-0.3960278735
30
0.0000000000
10
-22.3090193987
20
-0.3960982324
30
0.0000000000
10
-22.2921169637
20
-0.3963652447
30
0.0000000000
10
-22.2708839513
20
-0.3965453825
30
0.0000000000
10
-22.2455445085
20
-0.3967462262
30
0.0000000000
10
-22.2163284973
20
-0.3969251138
30
0.0000000000
10
-22.1835141287
20
-0.3970936889
30
0.0000000000
10
-22.1474094151
20
-0.3972456990
30
0.0000000000
10
-22.1083546286
20
-0.3973809857
30
0.0000000000
10
-22.0667175681
20
-0.3974977590
30
0.0000000000
10
-22.0228904814
20
-0.3975949904
30
0.0000000000
10
-21.9772859372
20
-0.3976716854
30
0.0000000000
10
-21.9303339168
20
-0.3977271064
30
0.0000000000
10
-21.8824750512
20
-0.3977607134
30
0.0000000000
10
-21.8503164040
20
-0.3977683391
30
0.0000000000
10
-21.8341602573
20
-0.3977684537
30
0.0000000000
11
-22.3340840780
21
-0.3954259424
31
0.0000000000
11
-22.3308838096
21
-0.3956564149
31
0.0000000000
11
-22.3230057629
21
-0.3958843499
31
0.0000000000
11
-22.3105235836
21
-0.3961076478
31
0.0000000000
11
-22.2935552431
21
-0.3963241745
31
0.0000000000
11
-22.2722603935
21
-0.3965319004
31
0.0000000000
11
-22.2468394462
21
-0.3967288648
31
0.0000000000
11
-22.2175319977
21
-0.3969132095
31
0.0000000000
11
-22.1846141658
21
-0.3970831949
31
0.0000000000
11
-22.1483958755
21
-0.3972372180
31
0.0000000000
11
-22.1092180776
21
-0.3973738264
31
0.0000000000
11
-22.0674497953
21
-0.3974917304
31
0.0000000000
11
-22.0234847396
21
-0.3975898169
31
0.0000000000
11
-21.9777368377
21
-0.3976671601
31
0.0000000000
11
-21.9306361845
21
-0.3977230318
31
0.0000000000
11
-21.8826286959
21
-0.3977569021
31
0.0000000000
11
-21.8341602573
21
-0.3977684537
31
0.0000000000
0
SPLINE
5
329
100
AcDbEntity
8
0
100
AcDbSpline
62
9
6
CONTINUOUS
70
0
71
3
72
22
73
18
74
16
42
0.0000001000
43
0.0000001000
44
0.0000000001
12
0.0591136699
22
-0.5108754711
32
0.0000000000
13
0.5142824330
23
-0.0013236504
33
0.0000000000
40
0.0000000000
40
0.0000000000
40
0.0000000000
40
0.0000000000
40
0.0165205698
40
0.0392968673
40
0.0703415139
40
0.1102029580
40
0.1588601866
40
0.2160113579
40
0.2811780875
40
0.3537518259
40
0.4330195517
40
0.5181812907
40
0.6083642252
40
0.7026353789
40
0.8000137562
40
0.8994823248
40
1.0000000000
40
1.0000000000
40
1.0000000000
40
1.0000000000
10
-22.3528401168
20
-21.1361579495
30
0.0000000000
10
-22.3525145863
20
-21.1389712675
30
0.0000000000
10
-22.3490649400
20
-21.1452475354
30
0.0000000000
10
-22.3393971489
20
-21.1526229977
30
0.0000000000
10
-22.3250181700
20
-21.1599005721
30
0.0000000000
10
-22.3057257577
20
-21.1669100736
30
0.0000000000
10
-22.2816698757
20
-21.1736672993
30
0.0000000000
10
-22.2530530217
20
-21.1800537783
30
0.0000000000
10
-22.2201699096
20
-21.1860023566
30
0.0000000000
10
-22.1833625170
20
-21.1914381982
30
0.0000000000
10
-22.1430213161
20
-21.1962994774
30
0.0000000000
10
-22.0995758222
20
-21.2005304387
30
0.0000000000
10
-22.0534900764
20
-21.2040836216
30
0.0000000000
10
-22.0052569190
20
-21.2069193765
30
0.0000000000
10
-21.9553924965
20
-21.2090062836
30
0.0000000000
10
-21.9044308191
20
-21.2103213048
30
0.0000000000
10
-21.8701477608
20
-21.2106731410
30
0.0000000000
10
-21.8529162692
20
-21.2107174911
30
0.0000000000
11
-22.3528401168
21
-21.1361579495
31
0.0000000000
11
-22.3492692142
21
-21.1438673728
31
0.0000000000
11
-22.3403788986
21
-21.1514941742
31
0.0000000000
11
-22.3262644474
21
-21.1589566173
31
0.0000000000
11
-22.3070771252
21
-21.1661747272
31
0.0000000000
11
-22.2830225625
21
-21.1730711474
31
0.0000000000
11
-22.2543585519
21
-21.1795719689
31
0.0000000000
11
-22.2213922856
21
-21.1856075225
31
0.0000000000
11
-22.1844770630
21
-21.1911131252
31
0.0000000000
11
-22.1440085043
21
-21.1960297734
31
0.0000000000
11
-22.1004203110
21
-21.2003047755
31
0.0000000000
11
-22.0541796176
21
-21.2038923162
31
0.0000000000
11
-22.0057819855
21
-21.2067539480
31
0.0000000000
11
-21.9557460920
21
-21.2088590026
31
0.0000000000
11
-21.9046081716
21
-21.2101849202
31
0.0000000000
11
-21.8529162692
21
-21.2107174911
31
0.0000000000
0
SPLINE
5
32A
100
AcDbEntity
8
0
100
AcDbSpline
62
9
6
CONTINUOUS
70
0
71
3
72
14
73
10
74
8
42
0.0000001000
43
0.0000001000
44
0.0000000001
12
0.0306549600
22
11.7106924750
32
0.0000000000
13
0.0038629501
23
11.7107319604
33
0.0000000000
40
0.0000000000
40
0.0000000000
40
0.0000000000
40
0.0000000000
40
0.1420565057
40
0.2844627223
40
0.4271690479
40
0.5701257656
40
0.7132830865
40
0.8565911367
40
1.0000000000
40
1.0000000000
40
1.0000000000
40
1.0000000000
10
-21.8529162692
20
-21.2107174911
30
0.0000000000
10
-21.8514646904
20
-20.6561908070
30
0.0000000000
10
-21.8487421894
20
-19.5457718288
30
0.0000000000
10
-21.8452035216
20
-17.8782880572
30
0.0000000000
10
-21.8422056756
20
-16.2072891708
30
0.0000000000
10
-21.8397496972
20
-14.5333574041
30
0.0000000000
10
-21.8378364426
20
-12.8570760482
30
0.0000000000
10
-21.8364665785
20
-11.1790291761
30
0.0000000000
10
-21.8359160451
20
-10.0598075864
30
0.0000000000
10
-21.8357313847
20
-9.5000000000
30
0.0000000000
11
-21.8529162692
21
-21.2107174911
31
0.0000000000
11
-21.8488368146
21
-19.5471367410
31
0.0000000000
11
-21.8452971100
21
-17.8794593742
31
0.0000000000
11
-21.8422983881
21
-16.2082664463
31
0.0000000000
11
-21.8398416937
21
-14.5341403548
31
0.0000000000
11
-21.8379278821
21
-12.8576643428
31
0.0000000000
11
-21.8365576201
21
-11.1794226474
31
0.0000000000
11
-21.8357313847
21
-9.5000000000
31
0.0000000000
0
SPLINE
5
32B
100
AcDbEntity
8
0
100
AcDbSpline
62
9
6
CONTINUOUS
70
0
71
3
72
14
73
10
74
8
42
0.0000001000
43
0.0000001000
44
0.0000000001
12
0.0306549592
22
11.6456327936
32
0.0000000000
13
0.0038629502
23
11.6456724996
33
0.0000000000
40
0.0000000000
40
0.0000000000
40
0.0000000000
40
0.0000000000
40
0.1420564296
40
0.2844626893
40
0.4271690571
40
0.5701258163
40
0.7132831780
40
0.8565912684
40
1.0000000000
40
1.0000000000
40
1.0000000000
40
1.0000000000
10
-22.3528401168
20
-21.1361579495
30
0.0000000000
10
-22.3513885388
20
-20.5847122777
30
0.0000000000
10
-22.3486660381
20
-19.4804624432
30
0.0000000000
10
-22.3451273700
20
-17.8222424522
30
0.0000000000
10
-22.3421295231
20
-16.1605264064
30
0.0000000000
10
-22.3396735440
20
-14.4958937726
30
0.0000000000
10
-22.3377602891
20
-12.8289246029
30
0.0000000000
10
-22.3363904255
20
-11.1602003920
30
0.0000000000
10
-22.3358398925
20
-10.0471970406
30
0.0000000000
10
-22.3356552323
20
-9.4905000000
30
0.0000000000
11
-22.3528401168
21
-21.1361579495
31
0.0000000000
11
-22.3487606643
21
-19.4818202323
31
0.0000000000
11
-22.3452209584
21
-17.8234072572
31
0.0000000000
11
-22.3422222356
21
-16.1614982481
31
0.0000000000
11
-22.3397655406
21
-14.4966723695
31
0.0000000000
11
-22.3378517287
21
-12.8295096259
31
0.0000000000
11
-22.3364814667
21
-11.1605910092
31
0.0000000000
11
-22.3356552323
21
-9.4905000000
31
0.0000000000
0
SPLINE
5
32C
100
AcDbEntity
8
0
100
AcDbSpline
62
9
6
CONTINUOUS
70
0
71
3
72
22
73
18
74
16
42
0.0000001000
43
0.0000001000
44
0.0000000001
12
0.0007171661
22
-0.7842144221
32
0.0000000000
13
0.7842144237
23
-0.0007154197
33
0.0000000000
40
0.0000000000
40
0.0000000000
40
0.0000000000
40
0.0000000000
40
0.0666100448
40
0.1332280852
40
0.1998553953
40
0.2664928444
40
0.3331408586
40
0.3997994030
40
0.4664679832
40
0.5331456666
40
0.5998311242
40
0.6665226878
40
0.7332184233
40
0.7999162149
40
0.8666138571
40
0.9333091510
40
1.0000000000
40
1.0000000000
40
1.0000000000
40
1.0000000000
10
-22.3610133051
20
-21.5609131753
30
0.0000000000
10
-22.3609973816
20
-21.5783253612
30
0.0000000000
10
-22.3591382252
20
-21.6131776996
30
0.0000000000
10
-22.3508991627
20
-21.6648592733
30
0.0000000000
10
-22.3372998182
20
-21.7154090681
30
0.0000000000
10
-22.3184890789
20
-21.7642663697
30
0.0000000000
10
-22.2946728537
20
-21.8108985335
30
0.0000000000
10
-22.2661118258
20
-21.8547947280
30
0.0000000000
10
-22.2331185908
20
-21.8954747617
30
0.0000000000
10
-22.1960542371
20
-21.9324934654
30
0.0000000000
10
-22.1553243752
20
-21.9654457921
30
0.0000000000
10
-22.1113747602
20
-21.9939711815
30
0.0000000000
10
-22.0646861834
20
-22.0177575174
30
0.0000000000
10
-22.0157700774
20
-22.0365445329
30
0.0000000000
10
-21.9651596973
20
-22.0501266594
30
0.0000000000
10
-21.9134163290
20
-22.0583552625
30
0.0000000000
10
-21.8785227661
20
-22.0602120387
30
0.0000000000
10
-21.8610894575
20
-22.0602279426
30
0.0000000000
11
-22.3610133051
21
-21.5609131753
31
0.0000000000
11
-22.3582301490
21
-21.6130755592
31
0.0000000000
11
-22.3500065431
21
-21.6646671057
31
0.0000000000
11
-22.3364324821
21
-21.7151232236
31
0.0000000000
11
-22.3176565133
21
-21.7638917475
31
0.0000000000
11
-22.2938841108
21
-21.8104389798
31
0.0000000000
11
-22.2653754274
21
-21.8542555316
31
0.0000000000
11
-22.2324424470
21
-21.8948618972
31
0.0000000000
11
-22.1954455710
21
-21.9318137012
31
0.0000000000
11
-22.1547896738
21
-21.9647065621
31
0.0000000000
11
-22.1109196725
21
-21.9931805172
31
0.0000000000
11
-22.0643156578
21
-22.0169239618
31
0.0000000000
11
-22.0154876398
21
-22.0356770599
31
0.0000000000
11
-21.9649699673
21
-22.0492345870
31
0.0000000000
11
-21.9133154799
21
-22.0574481764
31
0.0000000000
11
-21.8610894575
21
-22.0602279426
31
0.0000000000
0
SPLINE
5
32D
100
AcDbEntity
8
0
100
AcDbSpline
62
9
6
CONTINUOUS
70
0
71
3
72
23
73
19
74
17
42
0.0000001000
43
0.0000001000
44
0.0000000001
12
0.1395305944
22
0.8380719372
32
0.0000000000
13
0.0011180576
23
0.8496070319
33
0.0000000000
40
0.0000000000
40
0.0000000000
40
0.0000000000
40
0.0000000000
40
0.0096020568
40
0.0277116045
40
0.0542092537
40
0.0889039161
40
0.1315434710
40
0.1818170518
40
0.2393569484
40
0.3037423456
40
0.3745026836
40
0.4511208252
40
0.5330363316
40
0.6196494307
40
0.7103271977
40
0.8044074561
40
0.9011994285
40
1.0000000000
40
1.0000000000
40
1.0000000000
40
1.0000000000
10
-21.8610894575
20
-22.0602279426
30
0.0000000000
10
-21.8606428640
20
-22.0575455379
30
0.0000000000
10
-21.8602060808
20
-22.0496887841
30
0.0000000000
10
-21.8594533824
20
-22.0343692159
30
0.0000000000
10
-21.8588090645
20
-22.0119119407
30
0.0000000000
10
-21.8581139483
20
-21.9825177371
30
0.0000000000
10
-21.8574584798
20
-21.9463835342
30
0.0000000000
10
-21.8568205202
20
-21.9037799807
30
0.0000000000
10
-21.8562169023
20
-21.8550163706
30
0.0000000000
10
-21.8556493550
20
-21.8004502676
30
0.0000000000
10
-21.8551237084
20
-21.7404804571
30
0.0000000000
10
-21.8546437829
20
-21.6755455667
30
0.0000000000
10
-21.8542134295
20
-21.6061206914
30
0.0000000000
10
-21.8538359100
20
-21.5327137344
30
0.0000000000
10
-21.8535141196
20
-21.4558613922
30
0.0000000000
10
-21.8532504552
20
-21.3761261301
30
0.0000000000
10
-21.8530469507
20
-21.2940902864
30
0.0000000000
10
-21.8529530908
20
-21.2386980445
30
0.0000000000
10
-21.8529162692
20
-21.2107174911
30
0.0000000000
11
-21.8610894575
21
-22.0602279426
31
0.0000000000
11
-21.8603464177
21
-22.0521038696
31
0.0000000000
11
-21.8596122009
21
-22.0367353855
31
0.0000000000
11
-21.8588920750
21
-22.0142342975
31
0.0000000000
11
-21.8581913877
21
-21.9847657719
31
0.0000000000
11
-21.8575152321
21
-21.9485451855
31
0.0000000000
11
-21.8568685593
21
-21.9058372563
31
0.0000000000
11
-21.8562561020
21
-21.8569547499
31
0.0000000000
11
-21.8556823412
21
-21.8022554254
31
0.0000000000
11
-21.8551514705
21
-21.7421392365
31
0.0000000000
11
-21.8546673703
21
-21.6770456683
31
0.0000000000
11
-21.8542335831
21
-21.6074509697
31
0.0000000000
11
-21.8538532821
21
-21.5338647907
31
0.0000000000
11
-21.8535292500
21
-21.4568249369
31
0.0000000000
11
-21.8532638430
21
-21.3768940592
31
0.0000000000
11
-21.8530590269
21
-21.2946591027
31
0.0000000000
11
-21.8529162692
21
-21.2107174911
31
0.0000000000
0
SPLINE
5
32E
100
AcDbEntity
8
0
100
AcDbSpline
62
9
6
CONTINUOUS
70
0
71
3
72
23
73
19
74
17
42
0.0000001000
43
0.0000001000
44
0.0000000001
12
0.1342578020
22
0.4031833270
32
0.0000000000
13
0.0011186693
23
0.4249478805
33
0.0000000000
40
0.0000000000
40
0.0000000000
40
0.0000000000
40
0.0000000000
40
0.0097126103
40
0.0278756987
40
0.0544034737
40
0.0891150085
40
0.1317623429
40
0.1820368702
40
0.2395722510
40
0.3039486154
40
0.3746961087
40
0.4512981126
40
0.5331944628
40
0.6197857501
40
0.7104393968
40
0.8044935783
40
0.9012578119
40
1.0000000000
40
1.0000000000
40
1.0000000000
40
1.0000000000
10
-22.3610133051
20
-21.5609131753
30
0.0000000000
10
-22.3605786406
20
-21.5596078544
30
0.0000000000
10
-22.3601233066
20
-21.5556472993
30
0.0000000000
10
-22.3593822618
20
-21.5480022546
30
0.0000000000
10
-22.3587314762
20
-21.5367593415
30
0.0000000000
10
-22.3580387016
20
-21.5220655168
30
0.0000000000
10
-22.3573822571
20
-21.5039958789
30
0.0000000000
10
-22.3567445556
20
-21.4826938109
30
0.0000000000
10
-22.3561407964
20
-21.4583108097
30
0.0000000000
10
-22.3555732482
20
-21.4310265933
30
0.0000000000
10
-22.3550475638
20
-21.4010402094
30
0.0000000000
10
-22.3545676198
20
-21.3685711039
30
0.0000000000
10
-22.3541372468
20
-21.3338568456
30
0.0000000000
10
-22.3537597201
20
-21.2971514562
30
0.0000000000
10
-22.3534379157
20
-21.2587233208
30
0.0000000000
10
-22.3531742655
20
-21.2188537163
30
0.0000000000
10
-22.3529707652
20
-21.1778380072
30
0.0000000000
10
-22.3528769368
20
-21.1501447107
30
0.0000000000
10
-22.3528401168
20
-21.1361579495
30
0.0000000000
11
-22.3610133051
21
-21.5609131753
31
0.0000000000
11
-22.3602705221
21
-21.5568531955
31
0.0000000000
11
-22.3595362473
21
-21.5491698092
31
0.0000000000
11
-22.3588161035
21
-21.5379198741
31
0.0000000000
11
-22.3581153800
21
-21.5231858831
31
0.0000000000
11
-22.3574391949
21
-21.5050755449
31
0.0000000000
11
-22.3567924912
21
-21.4837212073
31
0.0000000000
11
-22.3561800051
21
-21.4592792573
31
0.0000000000
11
-22.3556062175
21
-21.4319285810
31
0.0000000000
11
-22.3550753228
21
-21.4018691673
31
0.0000000000
11
-22.3545912023
21
-21.3693207955
31
0.0000000000
11
-22.3541573991
21
-21.3345216983
31
0.0000000000
11
-22.3537770888
21
-21.2977267521
31
0.0000000000
11
-22.3534530491
21
-21.2592049065
31
0.0000000000
11
-22.3531876471
21
-21.2192375241
31
0.0000000000
11
-22.3529828289
21
-21.1781181358
31
0.0000000000
11
-22.3528401168
21
-21.1361579495
31
0.0000000000
0
SPLINE
5
32F
100
AcDbEntity
8
0
100
AcDbSpline
62
9
6
CONTINUOUS
70
0
71
3
72
23
73
19
74
17
42
0.0000001000
43
0.0000001000
44
0.0000000001
12
-0.2236468124
22
-0.1117082783
32
0.0000000000
13
-0.2499932722
23
-0.0000000360
33
0.0000000000
40
0.0000000000
40
0.0000000000
40
0.0000000000
40
0.0000000000
40
0.0064498117
40
0.0222248908
40
0.0472007356
40
0.0811466785
40
0.1237449319
40
0.1745955306
40
0.2332197060
40
0.2990654776
40
0.3715129794
40
0.4498797934
40
0.5334276626
40
0.6213689832
40
0.7128758814
40
0.8070874700
40
0.9031137784
40
1.0000000000
40
1.0000000000
40
1.0000000000
40
1.0000000000
10
21.9341221542
20
-0.1454354616
30
0.0000000000
10
21.9336413276
20
-0.1456756274
30
0.0000000000
10
21.9316961092
20
-0.1455860810
30
0.0000000000
10
21.9278506982
20
-0.1459749684
30
0.0000000000
10
21.9215844926
20
-0.1460568633
30
0.0000000000
10
21.9131456635
20
-0.1462941137
30
0.0000000000
10
21.9025242037
20
-0.1464618788
30
0.0000000000
10
21.8898554904
20
-0.1466448212
30
0.0000000000
10
21.8752459460
20
-0.1468089018
30
0.0000000000
10
21.8588375726
20
-0.1469630725
30
0.0000000000
10
21.8407835004
20
-0.1471021684
30
0.0000000000
10
21.8212542545
20
-0.1472258717
30
0.0000000000
10
21.8004337431
20
-0.1473326010
30
0.0000000000
10
21.7785181704
20
-0.1474214013
30
0.0000000000
10
21.7557139035
20
-0.1474913729
30
0.0000000000
10
21.7322358537
20
-0.1475418405
30
0.0000000000
10
21.7083095042
20
-0.1475723091
30
0.0000000000
10
21.6922338919
20
-0.1475790871
30
0.0000000000
10
21.6841602573
20
-0.1475790882
30
0.0000000000
11
21.9341221542
21
-0.1454354616
31
0.0000000000
11
21.9325236305
21
-0.1456466167
31
0.0000000000
11
21.9285855051
21
-0.1458555453
31
0.0000000000
11
21.9223450656
21
-0.1460601629
31
0.0000000000
11
21.9138611271
21
-0.1462585365
31
0.0000000000
11
21.9032135502
21
-0.1464487996
31
0.0000000000
11
21.8905025222
21
-0.1466291608
31
0.0000000000
11
21.8758478444
21
-0.1467979195
31
0.0000000000
11
21.8593875796
21
-0.1469534859
31
0.0000000000
11
21.8412767397
21
-0.1470943948
31
0.0000000000
11
21.8216859617
21
-0.1472193187
31
0.0000000000
11
21.8007998345
21
-0.1473270807
31
0.0000000000
11
21.7788152785
21
-0.1474166651
31
0.0000000000
11
21.7559392785
21
-0.1474872293
31
0.0000000000
11
21.7323870701
21
-0.1475381091
31
0.0000000000
11
21.7083811587
21
-0.1475688250
31
0.0000000000
11
21.6841602573
21
-0.1475790882
31
0.0000000000
0
SPLINE
5
330
100
AcDbEntity
8
0
100
AcDbSpline
62
9
6
CONTINUOUS
70
0
71
3
72
20
73
16
74
14
42
0.0000001000
43
0.0000001000
44
0.0000000001
12
0.0418326002
22
-0.2466680899
32
0.0000000000
13
0.0003701519
23
-0.2501898799
33
0.0000000000
40
0.0000000000
40
0.0000000000
40
0.0000000000
40
0.0000000000
40
0.0082596098
40
0.0308226564
40
0.0673648238
40
0.1173588260
40
0.1800828741
40
0.2546313259
40
0.3399278484
40
0.4347410396
40
0.5377022598
40
0.6473252363
40
0.7620274334
40
0.8801529217
40
1.0000000000
40
1.0000000000
40
1.0000000000
40
1.0000000000
10
-6.4274285272
20
-0.1475790882
30
0.0000000000
10
-6.4273133535
20
-0.1482582156
30
0.0000000000
10
-6.4274891128
20
-0.1508501539
30
0.0000000000
10
-6.4272795165
20
-0.1564484969
30
0.0000000000
10
-6.4273522538
20
-0.1655577158
30
0.0000000000
10
-6.4272797568
20
-0.1780008925
30
0.0000000000
10
-6.4272643969
20
-0.1936200060
30
0.0000000000
10
-6.4272256839
20
-0.2121809000
30
0.0000000000
10
-6.4271938432
20
-0.2334187266
30
0.0000000000
10
-6.4271600747
20
-0.2570258279
30
0.0000000000
10
-6.4271284012
20
-0.2826617604
30
0.0000000000
10
-6.4270982084
20
-0.3099563493
30
0.0000000000
10
-6.4270687596
20
-0.3385155969
30
0.0000000000
10
-6.4270378460
20
-0.3679274982
30
0.0000000000
10
-6.4270107789
20
-0.3877736112
30
0.0000000000
10
-6.4269959917
20
-0.3977684532
30
0.0000000000
11
-6.4274285272
21
-0.1475790882
31
0.0000000000
11
-6.4273880430
21
-0.1496451647
31
0.0000000000
11
-6.4273555523
21
-0.1552901233
31
0.0000000000
11
-6.4273255026
21
-0.1644325643
31
0.0000000000
11
-6.4272948912
21
-0.1769405340
31
0.0000000000
11
-6.4272627324
21
-0.1926334403
31
0.0000000000
11
-6.4272292537
21
-0.2112846988
31
0.0000000000
11
-6.4271952650
21
-0.2326250218
31
0.0000000000
11
-6.4271617856
21
-0.2563463251
31
0.0000000000
11
-6.4271296255
21
-0.2821061885
31
0.0000000000
11
-6.4270990122
21
-0.3095327608
31
0.0000000000
11
-6.4270689602
21
-0.3382301054
31
0.0000000000
11
-6.4270364674
21
-0.3677839216
31
0.0000000000
11
-6.4269959917
21
-0.3977684532
31
0.0000000000
0
SPLINE
5
331
100
AcDbEntity
8
0
100
AcDbSpline
62
9
6
CONTINUOUS
70
0
71
3
72
21
73
17
74
15
42
0.0000001000
43
0.0000001000
44
0.0000000001
12
-0.0000003367
22
0.0500445334
32
0.0000000000
13
0.0353399994
23
0.0354335966
33
0.0000000000
40
0.0000000000
40
0.0000000000
40
0.0000000000
40
0.0000000000
40
0.1112068742
40
0.2211523687
40
0.3283566623
40
0.4314836174
40
0.5292496303
40
0.6204372760
40
0.7039103755
40
0.7786270613
40
0.8436570003
40
0.8981913868
40
0.9415529256
40
0.9732040650
40
0.9927572478
40
1.0000000000
40
1.0000000000
40
1.0000000000
40
1.0000000000
10
-16.0230116237
20
-0.3976093458
30
0.0000000000
10
-16.0230116362
20
-0.3957542471
30
0.0000000000
10
-16.0230098761
20
-0.3920650912
30
0.0000000000
10
-16.0230018912
20
-0.3865876104
30
0.0000000000
10
-16.0229886609
20
-0.3812449274
30
0.0000000000
10
-16.0229703744
20
-0.3761054252
30
0.0000000000
10
-16.0229472157
20
-0.3712331527
30
0.0000000000
10
-16.0229196788
20
-0.3666886782
30
0.0000000000
10
-16.0228875132
20
-0.3625290242
30
0.0000000000
10
-16.0228531581
20
-0.3588048579
30
0.0000000000
10
-16.0228109702
20
-0.3555662737
30
0.0000000000
10
-16.0227797129
20
-0.3528427477
30
0.0000000000
10
-16.0227102741
20
-0.3506979492
30
0.0000000000
10
-16.0227284644
20
-0.3490841307
30
0.0000000000
10
-16.0225747225
20
-0.3481773688
30
0.0000000000
10
-16.0226644078
20
-0.3476570184
30
0.0000000000
10
-16.0225790882
20
-0.3475714728
30
0.0000000000
11
-16.0230116237
21
-0.3976093458
31
0.0000000000
11
-16.0230089513
21
-0.3920440503
31
0.0000000000
11
-16.0230008787
21
-0.3865418853
31
0.0000000000
11
-16.0229875065
21
-0.3811769131
31
0.0000000000
11
-16.0229690009
21
-0.3760160059
31
0.0000000000
11
-16.0229455918
21
-0.3711234074
31
0.0000000000
11
-16.0229175706
21
-0.3665600503
31
0.0000000000
11
-16.0228852860
21
-0.3623828027
31
0.0000000000
11
-16.0228491409
21
-0.3586438157
31
0.0000000000
11
-16.0228095859
21
-0.3553896632
31
0.0000000000
11
-16.0227671140
21
-0.3526608457
31
0.0000000000
11
-16.0227222540
21
-0.3504913015
31
0.0000000000
11
-16.0226755644
21
-0.3489080233
31
0.0000000000
11
-16.0226276270
21
-0.3479306682
31
0.0000000000
11
-16.0225790882
21
-0.3475714728
31
0.0000000000
0
SPLINE
5
332
100
AcDbEntity
8
0
100
AcDbSpline
62
9
6
CONTINUOUS
70
0
71
3
72
9
73
5
74
3
42
0.0000001000
43
0.0000001000
44
0.0000000001
12
-0.0000055795
22
0.4004171366
32
0.0000000000
13
-0.0000027799
23
0.4004171367
33
0.0000000000
40
0.0000000000
40
0.0000000000
40
0.0000000000
40
0.0000000000
40
0.4999998961
40
1.0000000000
40
1.0000000000
40
1.0000000000
40
1.0000000000
10
-16.0230074440
20
-0.7980264825
30
0.0000000000
10
-16.0230083739
20
-0.7312903069
30
0.0000000000
10
-16.0230100004
20
-0.5978179280
30
0.0000000000
10
-16.0230111604
20
-0.4643455491
30
0.0000000000
10
-16.0230116237
20
-0.3976093458
30
0.0000000000
11
-16.0230074440
21
-0.7980264825
31
0.0000000000
11
-16.0230098838
21
-0.5978179558
31
0.0000000000
11
-16.0230116237
21
-0.3976093458
31
0.0000000000
0
SPLINE
5
333
100
AcDbEntity
8
0
100
AcDbSpline
62
9
6
CONTINUOUS
70
0
71
3
72
25
73
21
74
19
42
0.0000001000
43
0.0000001000
44
0.0000000001
12
-1.0994284664
22
0.0000120894
32
0.0000000000
13
-0.0000111512
23
1.0994284664
33
0.0000000000
40
0.0000000000
40
0.0000000000
40
0.0000000000
40
0.0000000000
40
0.0550194735
40
0.1104475681
40
0.1661017090
40
0.2218267750
40
0.2774792608
40
0.3330385550
40
0.3885932523
40
0.4441971949
40
0.4998312063
40
0.5554703107
40
0.6110892603
40
0.6666664609
40
0.7222503245
40
0.7779295866
40
0.8336926521
40
0.8894024309
40
0.9449018018
40
1.0000000000
40
1.0000000000
40
1.0000000000
40
1.0000000000
10
7.0250000000
20
-1.4505802321
30
0.0000000000
10
7.0048366749
20
-1.4505800104
30
0.0000000000
10
6.9643385281
20
-1.4488286613
30
0.0000000000
10
6.9039074248
20
-1.4409251880
30
0.0000000000
10
6.8441372992
20
-1.4277274181
30
0.0000000000
10
6.7856721593
20
-1.4093307148
30
0.0000000000
10
6.7290707473
20
-1.3859077327
30
0.0000000000
10
6.6747851745
20
-1.3576635787
30
0.0000000000
10
6.6231837663
20
-1.3248037153
30
0.0000000000
10
6.5746228527
20
-1.2875520754
30
0.0000000000
10
6.5294750381
20
-1.2461839437
30
0.0000000000
10
6.4881065278
20
-1.2010290105
30
0.0000000000
10
6.4508488475
20
-1.1524530358
30
0.0000000000
10
6.4179801093
20
-1.1008302915
30
0.0000000000
10
6.3897261411
20
-1.0465193215
30
0.0000000000
10
6.3662918995
20
-0.9898871530
30
0.0000000000
10
6.3478814704
20
-0.9313800619
30
0.0000000000
10
6.3346691545
20
-0.8715511899
30
0.0000000000
10
6.3267543565
20
-0.8110454569
30
0.0000000000
10
6.3250002048
20
-0.7704922959
30
0.0000000000
10
6.3250000000
20
-0.7503001200
30
0.0000000000
11
7.0250000000
21
-1.4505802321
31
0.0000000000
11
6.9645665582
21
-1.4479656152
31
0.0000000000
11
6.9041418228
21
-1.4400636844
31
0.0000000000
11
6.8443933684
21
-1.4268704075
31
0.0000000000
11
6.7859524774
21
-1.4084815203
31
0.0000000000
11
6.7294162423
21
-1.3850855421
31
0.0000000000
11
6.6752283168
21
-1.3568922983
31
0.0000000000
11
6.6237089922
21
-1.3240847984
31
0.0000000000
11
6.5752041739
21
-1.2868763024
31
0.0000000000
11
6.5301069855
21
-1.2455546839
31
0.0000000000
11
6.4887847828
21
-1.2004504365
31
0.0000000000
11
6.4515695684
21
-1.1519299776
31
0.0000000000
11
6.4187519831
21
-1.1003877442
31
0.0000000000
11
6.3905488090
21
-1.0461745359
31
0.0000000000
11
6.3671426977
21
-0.9896106342
31
0.0000000000
11
6.3487407030
21
-0.9311300705
31
0.0000000000
11
6.3355326391
21
-0.8713222379
31
0.0000000000
11
6.3276189755
21
-0.8108200065
31
0.0000000000
11
6.3250000000
21
-0.7503001200
31
0.0000000000
0
SPLINE
5
334
100
AcDbEntity
8
0
100
AcDbSpline
62
9
6
CONTINUOUS
70
0
71
3
72
10
73
6
74
4
42
0.0000001000
43
0.0000001000
44
0.0000000001
12
-0.0000027345
22
-0.4500221513
32
0.0000000000
13
-0.0000062707
23
-0.4500221512
33
0.0000000000
40
0.0000000000
40
0.0000000000
40
0.0000000000
40
0.0000000000
40
0.3333334336
40
0.6666667687
40
1.0000000000
40
1.0000000000
40
1.0000000000
40
1.0000000000
10
-6.6269880534
20
-0.3480043312
30
0.0000000000
10
-6.6269883572
20
-0.3980068075
30
0.0000000000
10
-6.6269890959
20
-0.4980117453
30
0.0000000000
10
-6.6269905967
20
-0.6480191291
30
0.0000000000
10
-6.6269918592
20
-0.7480240365
30
0.0000000000
10
-6.6269925560
20
-0.7980264825
30
0.0000000000
11
-6.6269880534
21
-0.3480043312
31
0.0000000000
11
-6.6269891614
21
-0.4980117601
31
0.0000000000
11
-6.6269906622
21
-0.6480191446
31
0.0000000000
11
-6.6269925560
21
-0.7980264825
31
0.0000000000
0
SPLINE
5
335
100
AcDbEntity
8
0
100
AcDbSpline
62
9
6
CONTINUOUS
70
0
71
3
72
25
73
21
74
19
42
0.0000001000
43
0.0000001000
44
0.0000000001
12
-0.0000120779
22
-1.0994284663
32
0.0000000000
13
-1.0994284663
23
-0.0000111582
33
0.0000000000
40
0.0000000000
40
0.0000000000
40
0.0000000000
40
0.0000000000
40
0.0550699132
40
0.1105466666
40
0.1662462131
40
0.2220121219
40
0.2776997473
40
0.3332877460
40
0.3888637775
40
0.4444807649
40
0.5001191488
40
0.5557538686
40
0.6113597658
40
0.6669156203
40
0.7224707502
40
0.7781148483
40
0.8338370744
40
0.8895014604
40
0.9449521924
40
1.0000000000
40
1.0000000000
40
1.0000000000
40
1.0000000000
10
16.0250000000
20
-0.7503001200
30
0.0000000000
10
16.0249997783
20
-0.7704819301
30
0.0000000000
10
16.0232473618
20
-0.8110164021
30
0.0000000000
10
16.0153392844
20
-0.8715003333
30
0.0000000000
10
16.0021345800
20
-0.9313195794
30
0.0000000000
10
15.9837295457
20
-0.9898287515
30
0.0000000000
10
15.9602979468
20
-1.0464681334
30
0.0000000000
10
15.9320461396
20
-1.1007849261
30
0.0000000000
10
15.8991809635
20
-1.1524103705
30
0.0000000000
10
15.8619278034
20
-1.2009880234
30
0.0000000000
10
15.8205632777
20
-1.2461456216
30
0.0000000000
10
15.7754181378
20
-1.2875177300
30
0.0000000000
10
15.7268589136
20
-1.3247738843
30
0.0000000000
10
15.6752602226
20
-1.3576373025
30
0.0000000000
10
15.6209804967
20
-1.3858836103
30
0.0000000000
10
15.5643863187
20
-1.4093092348
30
0.0000000000
10
15.5059232660
20
-1.4277113409
30
0.0000000000
10
15.4461435039
20
-1.4409167346
30
0.0000000000
10
15.3856905701
20
-1.4488269397
30
0.0000000000
10
15.3451737089
20
-1.4505800273
30
0.0000000000
10
15.3250000000
20
-1.4505802321
30
0.0000000000
11
16.0250000000
21
-0.7503001200
31
0.0000000000
11
16.0223837213
21
-0.8107889967
31
0.0000000000
11
16.0144770718
21
-0.8712670673
31
0.0000000000
11
16.0012766829
21
-0.9310650739
31
0.0000000000
11
15.9828792393
21
-0.9895503466
31
0.0000000000
11
15.9594744178
21
-1.0461247326
31
0.0000000000
11
15.9312732207
21
-1.1003440940
31
0.0000000000
11
15.8984600787
21
-1.1518876324
31
0.0000000000
11
15.8612498292
21
-1.2004091805
31
0.0000000000
11
15.8199316517
21
-1.2455160409
31
0.0000000000
11
15.7748370872
21
-1.2868416756
31
0.0000000000
11
15.7263333665
21
-1.3240551329
31
0.0000000000
11
15.6748153603
21
-1.3568670714
31
0.0000000000
11
15.6206336190
21
-1.3850622813
31
0.0000000000
11
15.5641078964
21
-1.4084595455
31
0.0000000000
11
15.5056717139
21
-1.4268529937
31
0.0000000000
11
15.4459134222
21
-1.4400539577
31
0.0000000000
11
15.3854645054
21
-1.4479629129
31
0.0000000000
11
15.3250000000
21
-1.4505802321
31
0.0000000000
0
SPLINE
5
336
100
AcDbEntity
8
0
100
AcDbSpline
62
9
6
CONTINUOUS
70
0
71
3
72
19
73
15
74
13
42
0.0000001000
43
0.0000001000
44
0.0000000001
12
0.2000008301
22
0.0000000000
32
0.0000000000
13
0.0000000000
23
0.2000008301
33
0.0000000000
40
0.0000000000
40
0.0000000000
40
0.0000000000
40
0.0000000000
40
0.1305256511
40
0.2588179772
40
0.3826818664
40
0.4999979792
40
0.6087590115
40
0.7071040406
40
0.7933503680
40
0.8660223132
40
0.9238764696
40
0.9659229997
40
0.9914426550
40
1.0000000000
40
1.0000000000
40
1.0000000000
40
1.0000000000
10
6.3250000000
20
-0.7503001200
30
0.0000000000
10
6.3337017462
20
-0.7503001200
30
0.0000000000
10
6.3509563248
20
-0.7502984137
30
0.0000000000
10
6.3764686632
20
-0.7502909697
30
0.0000000000
10
6.4010998728
20
-0.7502781798
30
0.0000000000
10
6.4244306622
20
-0.7502623342
30
0.0000000000
10
6.4460545786
20
-0.7502367982
30
0.0000000000
10
6.4656252635
20
-0.7502246113
30
0.0000000000
10
6.4827340046
20
-0.7501555349
30
0.0000000000
10
6.4973071181
20
-0.7502400253
30
0.0000000000
10
6.5084899272
20
-0.7498989383
30
0.0000000000
10
6.5175966494
20
-0.7505762538
30
0.0000000000
10
6.5213449316
20
-0.7492771821
30
0.0000000000
10
6.5250000000
20
-0.7505704920
30
0.0000000000
10
6.5250000000
20
-0.7500000000
30
0.0000000000
11
6.3250000000
21
-0.7503001200
31
0.0000000000
11
6.3511052384
21
-0.7502975525
31
0.0000000000
11
6.3767638090
21
-0.7502898937
31
0.0000000000
11
6.4015366865
21
-0.7502772748
31
0.0000000000
11
6.4250000000
21
-0.7502599116
31
0.0000000000
11
6.4467522858
21
-0.7502381012
31
0.0000000000
11
6.4664213562
21
-0.7502122169
31
0.0000000000
11
6.4836706681
21
-0.7501827015
31
0.0000000000
11
6.4982050808
21
-0.7501500600
31
0.0000000000
11
6.5097759065
21
-0.7501148510
31
0.0000000000
11
6.5181851653
21
-0.7500776768
31
0.0000000000
11
6.5232889723
21
-0.7500391735
31
0.0000000000
11
6.5250000000
21
-0.7500000000
31
0.0000000000
0
SPLINE
5
337
100
AcDbEntity
8
0
100
AcDbSpline
62
9
6
CONTINUOUS
70
0
71
3
72
20
73
16
74
14
42
0.0000001000
43
0.0000001000
44
0.0000000001
12
0.2142145112
22
0.0000451660
32
0.0000000000
13
0.0000750390
23
0.2142145028
33
0.0000000000
40
0.0000000000
40
0.0000000000
40
0.0000000000
40
0.0000000000
40
0.1102596660
40
0.2192587650
40
0.3259626321
40
0.4285346153
40
0.5258567627
40
0.6164889600
40
0.6994045295
40
0.7733889062
40
0.8377380256
40
0.8918071071
40
0.9358190324
40
0.9707785275
40
1.0000000000
40
1.0000000000
40
1.0000000000
40
1.0000000000
10
6.3250000000
20
-0.3977684532
30
0.0000000000
10
6.3328730735
20
-0.3977667932
30
0.0000000000
10
6.3485301184
20
-0.3975272258
30
0.0000000000
10
6.3717853772
20
-0.3964873528
30
0.0000000000
10
6.3944517825
20
-0.3947854170
30
0.0000000000
10
6.4162207255
20
-0.3924207425
30
0.0000000000
10
6.4367533822
20
-0.3894234502
30
0.0000000000
10
6.4557635595
20
-0.3858225585
30
0.0000000000
10
6.4729524414
20
-0.3816694159
30
0.0000000000
10
6.4880666997
20
-0.3770263999
30
0.0000000000
10
6.5008520723
20
-0.3719516167
30
0.0000000000
10
6.5111476267
20
-0.3665369663
30
0.0000000000
10
6.5187767004
20
-0.3607881191
30
0.0000000000
10
6.5237385602
20
-0.3547019021
30
0.0000000000
10
6.5249992691
20
-0.3500909059
30
0.0000000000
10
6.5250000000
20
-0.3480043515
30
0.0000000000
11
6.3250000000
21
-0.3977684532
31
0.0000000000
11
6.3486164939
21
-0.3974095468
31
0.0000000000
11
6.3719421372
21
-0.3963612123
31
0.0000000000
11
6.3947343517
21
-0.3946346404
31
0.0000000000
11
6.4165762303
21
-0.3922431888
31
0.0000000000
11
6.4372013917
21
-0.3892044094
31
0.0000000000
11
6.4562700582
21
-0.3855550553
31
0.0000000000
11
6.4735232197
21
-0.3813352135
31
0.0000000000
11
6.4886512323
21
-0.3766109085
31
0.0000000000
11
6.5014279594
21
-0.3714371178
31
0.0000000000
11
6.5116050470
21
-0.3659073381
31
0.0000000000
11
6.5190141482
21
-0.3600770484
31
0.0000000000
11
6.5235024528
21
-0.3540822409
31
0.0000000000
11
6.5250000000
21
-0.3480043515
31
0.0000000000
0
SPLINE
5
338
100
AcDbEntity
8
0
100
AcDbSpline
62
7
6
CONTINUOUS
70
0
71
3
72
20
73
16
74
14
42
0.0000001000
43
0.0000001000
44
0.0000000001
12
0.0000000000
22
-0.2009543027
32
0.0000000000
13
-0.2009543027
23
0.0000000000
33
0.0000000000
40
0.0000000000
40
0.0000000000
40
0.0000000000
40
0.0000000000
40
0.0095622420
40
0.0321298774
40
0.0683792543
40
0.1179308303
40
0.1806016048
40
0.2551131077
40
0.3399532996
40
0.4348830477
40
0.5381829602
40
0.6475159839
40
0.7621577138
40
0.8805327907
40
1.0000000000
40
1.0000000000
40
1.0000000000
40
1.0000000000
10
13.4250000000
20
22.2060912167
30
0.0000000000
10
13.4250000000
20
22.2054506921
30
0.0000000000
10
13.4224637995
20
22.2043038358
30
0.0000000000
10
13.4184821837
20
22.2033770981
30
0.0000000000
10
13.4110521696
20
22.2021649999
30
0.0000000000
10
13.4012759331
20
22.2010954812
30
0.0000000000
10
13.3887695693
20
22.2000285251
30
0.0000000000
10
13.3739431445
20
22.1990597648
30
0.0000000000
10
13.3569276805
20
22.1981797789
30
0.0000000000
10
13.3379830661
20
22.1974118244
30
0.0000000000
10
13.3173904467
20
22.1967666223
30
0.0000000000
10
13.2954739280
20
22.1962550764
30
0.0000000000
10
13.2725444831
20
22.1958841089
30
0.0000000000
10
13.2489343425
20
22.1956595956
30
0.0000000000
10
13.2330024832
20
22.1956096608
30
0.0000000000
10
13.2250000000
20
22.1956096608
30
0.0000000000
11
13.4250000000
21
22.2060912167
31
0.0000000000
11
13.4235493219
21
22.2048310664
31
0.0000000000
11
13.4191893673
21
22.2035830296
31
0.0000000000
11
13.4120058055
21
22.2023747591
31
0.0000000000
11
13.4021150861
21
22.2012225801
31
0.0000000000
11
13.3895681860
21
22.2001348444
31
0.0000000000
11
13.3746281125
21
22.1991362822
31
0.0000000000
11
13.3576024431
21
22.1982446340
31
0.0000000000
11
13.3385419423
21
22.1974624978
31
0.0000000000
11
13.3177937604
21
22.1968061143
31
0.0000000000
11
13.2958289060
21
22.1962889631
31
0.0000000000
11
13.2727942194
21
22.1959133463
31
0.0000000000
11
13.2490073301
21
22.1956854481
31
0.0000000000
11
13.2250000000
21
22.1956096608
31
0.0000000000
0
SPLINE
5
339
100
AcDbEntity
8
0
100
AcDbSpline
62
7
6
CONTINUOUS
70
0
71
3
72
20
73
16
74
14
42
0.0000001000
43
0.0000001000
44
0.0000000001
12
0.0000000000
22
-0.3102409269
32
0.0000000000
13
0.3102891983
23
-0.0046938343
33
0.0000000000
40
0.0000000000
40
0.0000000000
40
0.0000000000
40
0.0000000000
40
0.0796003205
40
0.1588721387
40
0.2378293324
40
0.3164780235
40
0.3948203310
40
0.4728571265
40
0.5505908106
40
0.6280269220
40
0.7051751597
40
0.7820499028
40
0.8586698517
40
0.9350579342
40
1.0000000000
40
1.0000000000
40
1.0000000000
40
1.0000000000
10
15.8250000000
20
0.3367690172
30
0.0000000000
10
15.8250000000
20
0.3285372581
30
0.0000000000
10
15.8260170030
20
0.3120895633
30
0.0000000000
10
15.8305573938
20
0.2878571740
30
0.0000000000
10
15.8380072113
20
0.2644555483
30
0.0000000000
10
15.8482227757
20
0.2422297400
30
0.0000000000
10
15.8610211422
20
0.2214962209
30
0.0000000000
10
15.8761837025
20
0.2025453375
30
0.0000000000
10
15.8934608070
20
0.1856347321
30
0.0000000000
10
15.9125770076
20
0.1709865535
30
0.0000000000
10
15.9332367180
20
0.1587851636
30
0.0000000000
10
15.9551291443
20
0.1491761365
30
0.0000000000
10
15.9779353221
20
0.1422661051
30
0.0000000000
10
16.0001786141
20
0.1383265002
30
0.0000000000
10
16.0147954378
20
0.1373681877
30
0.0000000000
10
16.0215123783
20
0.1372665786
30
0.0000000000
11
15.8250000000
21
0.3367690172
31
0.0000000000
11
15.8265251970
21
0.3121208836
31
0.0000000000
11
15.8310542383
21
0.2879481457
31
0.0000000000
11
15.8384854822
21
0.2646067976
31
0.0000000000
11
15.8486757136
21
0.2424365186
31
0.0000000000
11
15.8614424756
21
0.2217545860
31
0.0000000000
11
15.8765676509
21
0.2028505328
31
0.0000000000
11
15.8938021581
21
0.1859815841
31
0.0000000000
11
15.9128712164
21
0.1713693826
31
0.0000000000
11
15.9334798681
21
0.1591978702
31
0.0000000000
11
15.9553184502
21
0.1496122498
31
0.0000000000
11
15.9780676338
21
0.1427189078
31
0.0000000000
11
16.0014031747
21
0.1385859474
31
0.0000000000
11
16.0215123783
21
0.1372665786
31
0.0000000000
0
SPLINE
5
33A
100
AcDbEntity
8
0
100
AcDbSpline
62
7
6
CONTINUOUS
70
0
71
3
72
20
73
16
74
14
42
0.0000001000
43
0.0000001000
44
0.0000000001
12
0.0000000000
22
-0.2009543027
32
0.0000000000
13
-0.2009543027
23
0.0000000000
33
0.0000000000
40
0.0000000000
40
0.0000000000
40
0.0000000000
40
0.0000000000
40
0.0095622420
40
0.0321298774
40
0.0683792543
40
0.1179308303
40
0.1806016048
40
0.2551131077
40
0.3399532996
40
0.4348830477
40
0.5381829602
40
0.6475159839
40
0.7621577138
40
0.8805327907
40
1.0000000000
40
1.0000000000
40
1.0000000000
40
1.0000000000
10
-9.0750000000
20
22.2060912167
30
0.0000000000
10
-9.0750000000
20
22.2054506921
30
0.0000000000
10
-9.0775362005
20
22.2043038358
30
0.0000000000
10
-9.0815178163
20
22.2033770981
30
0.0000000000
10
-9.0889478304
20
22.2021649999
30
0.0000000000
10
-9.0987240669
20
22.2010954812
30
0.0000000000
10
-9.1112304307
20
22.2000285251
30
0.0000000000
10
-9.1260568555
20
22.1990597648
30
0.0000000000
10
-9.1430723195
20
22.1981797789
30
0.0000000000
10
-9.1620169339
20
22.1974118244
30
0.0000000000
10
-9.1826095533
20
22.1967666223
30
0.0000000000
10
-9.2045260720
20
22.1962550764
30
0.0000000000
10
-9.2274555169
20
22.1958841089
30
0.0000000000
10
-9.2510656575
20
22.1956595956
30
0.0000000000
10
-9.2669975168
20
22.1956096608
30
0.0000000000
10
-9.2750000000
20
22.1956096608
30
0.0000000000
11
-9.0750000000
21
22.2060912167
31
0.0000000000
11
-9.0764506781
21
22.2048310664
31
0.0000000000
11
-9.0808106327
21
22.2035830296
31
0.0000000000
11
-9.0879941945
21
22.2023747591
31
0.0000000000
11
-9.0978849139
21
22.2012225801
31
0.0000000000
11
-9.1104318140
21
22.2001348444
31
0.0000000000
11
-9.1253718875
21
22.1991362822
31
0.0000000000
11
-9.1423975569
21
22.1982446340
31
0.0000000000
11
-9.1614580577
21
22.1974624978
31
0.0000000000
11
-9.1822062396
21
22.1968061143
31
0.0000000000
11
-9.2041710940
21
22.1962889631
31
0.0000000000
11
-9.2272057806
21
22.1959133463
31
0.0000000000
11
-9.2509926699
21
22.1956854481
31
0.0000000000
11
-9.2750000000
21
22.1956096608
31
0.0000000000
0
SPLINE
5
33B
100
AcDbEntity
8
0
100
AcDbSpline
62
7
6
CONTINUOUS
70
0
71
3
72
20
73
16
74
14
42
0.0000001000
43
0.0000001000
44
0.0000000001
12
-0.2009543027
22
0.0000000000
32
0.0000000000
13
0.0000000000
23
0.2009543027
33
0.0000000000
40
0.0000000000
40
0.0000000000
40
0.0000000000
40
0.0000000000
40
0.1194672093
40
0.2378422862
40
0.3524840161
40
0.4618170398
40
0.5651169523
40
0.6600467004
40
0.7448868923
40
0.8193983952
40
0.8820691697
40
0.9316207457
40
0.9678701226
40
0.9904377580
40
1.0000000000
40
1.0000000000
40
1.0000000000
40
1.0000000000
10
9.1250000000
20
22.1956096608
30
0.0000000000
10
9.1169975168
20
22.1956096608
30
0.0000000000
10
9.1010656575
20
22.1956595956
30
0.0000000000
10
9.0774555169
20
22.1958841089
30
0.0000000000
10
9.0545260720
20
22.1962550764
30
0.0000000000
10
9.0326095533
20
22.1967666223
30
0.0000000000
10
9.0120169339
20
22.1974118244
30
0.0000000000
10
8.9930723195
20
22.1981797789
30
0.0000000000
10
8.9760568555
20
22.1990597648
30
0.0000000000
10
8.9612304307
20
22.2000285251
30
0.0000000000
10
8.9487240669
20
22.2010954812
30
0.0000000000
10
8.9389478304
20
22.2021649999
30
0.0000000000
10
8.9315178163
20
22.2033770981
30
0.0000000000
10
8.9275362005
20
22.2043038358
30
0.0000000000
10
8.9250000000
20
22.2054506921
30
0.0000000000
10
8.9250000000
20
22.2060912167
30
0.0000000000
11
9.1250000000
21
22.1956096608
31
0.0000000000
11
9.1009926699
21
22.1956854481
31
0.0000000000
11
9.0772057806
21
22.1959133463
31
0.0000000000
11
9.0541710940
21
22.1962889631
31
0.0000000000
11
9.0322062396
21
22.1968061143
31
0.0000000000
11
9.0114580577
21
22.1974624978
31
0.0000000000
11
8.9923975569
21
22.1982446340
31
0.0000000000
11
8.9753718875
21
22.1991362822
31
0.0000000000
11
8.9604318140
21
22.2001348444
31
0.0000000000
11
8.9478849139
21
22.2012225801
31
0.0000000000
11
8.9379941945
21
22.2023747591
31
0.0000000000
11
8.9308106327
21
22.2035830296
31
0.0000000000
11
8.9264506781
21
22.2048310664
31
0.0000000000
11
8.9250000000
21
22.2060912167
31
0.0000000000
0
SPLINE
5
33C
100
AcDbEntity
8
0
100
AcDbSpline
62
7
6
CONTINUOUS
70
0
71
3
72
20
73
16
74
14
42
0.0000001000
43
0.0000001000
44
0.0000000001
12
0.0000000000
22
-0.3102409269
32
0.0000000000
13
-0.3102891983
23
-0.0046938343
33
0.0000000000
40
0.0000000000
40
0.0000000000
40
0.0000000000
40
0.0000000000
40
0.0796003205
40
0.1588721387
40
0.2378293324
40
0.3164780235
40
0.3948203310
40
0.4728571265
40
0.5505908106
40
0.6280269220
40
0.7051751597
40
0.7820499028
40
0.8586698517
40
0.9350579342
40
1.0000000000
40
1.0000000000
40
1.0000000000
40
1.0000000000
10
6.5250000000
20
0.3367690172
30
0.0000000000
10
6.5250000000
20
0.3285372581
30
0.0000000000
10
6.5239829970
20
0.3120895633
30
0.0000000000
10
6.5194426062
20
0.2878571740
30
0.0000000000
10
6.5119927887
20
0.2644555483
30
0.0000000000
10
6.5017772243
20
0.2422297400
30
0.0000000000
10
6.4889788578
20
0.2214962209
30
0.0000000000
10
6.4738162975
20
0.2025453375
30
0.0000000000
10
6.4565391930
20
0.1856347321
30
0.0000000000
10
6.4374229924
20
0.1709865535
30
0.0000000000
10
6.4167632820
20
0.1587851636
30
0.0000000000
10
6.3948708557
20
0.1491761365
30
0.0000000000
10
6.3720646779
20
0.1422661051
30
0.0000000000
10
6.3498213859
20
0.1383265002
30
0.0000000000
10
6.3352045622
20
0.1373681877
30
0.0000000000
10
6.3284876217
20
0.1372665786
30
0.0000000000
11
6.5250000000
21
0.3367690172
31
0.0000000000
11
6.5234748030
21
0.3121208836
31
0.0000000000
11
6.5189457617
21
0.2879481457
31
0.0000000000
11
6.5115145178
21
0.2646067976
31
0.0000000000
11
6.5013242864
21
0.2424365186
31
0.0000000000
11
6.4885575244
21
0.2217545860
31
0.0000000000
11
6.4734323491
21
0.2028505328
31
0.0000000000
11
6.4561978419
21
0.1859815841
31
0.0000000000
11
6.4371287836
21
0.1713693826
31
0.0000000000
11
6.4165201319
21
0.1591978702
31
0.0000000000
11
6.3946815498
21
0.1496122498
31
0.0000000000
11
6.3719323662
21
0.1427189078
31
0.0000000000
11
6.3485968253
21
0.1385859474
31
0.0000000000
11
6.3284876217
21
0.1372665786
31
0.0000000000
0
SPLINE
5
33D
100
AcDbEntity
8
0
100
AcDbSpline
62
7
6
CONTINUOUS
70
0
71
3
72
20
73
16
74
14
42
0.0000001000
43
0.0000001000
44
0.0000000001
12
-0.2009543027
22
0.0000000000
32
0.0000000000
13
0.0000000000
23
0.2009543027
33
0.0000000000
40
0.0000000000
40
0.0000000000
40
0.0000000000
40
0.0000000000
40
0.1194672093
40
0.2378422862
40
0.3524840161
40
0.4618170398
40
0.5651169523
40
0.6600467004
40
0.7448868923
40
0.8193983952
40
0.8820691697
40
0.9316207457
40
0.9678701226
40
0.9904377580
40
1.0000000000
40
1.0000000000
40
1.0000000000
40
1.0000000000
10
-13.3750000000
20
22.1956096608
30
0.0000000000
10
-13.3830024832
20
22.1956096608
30
0.0000000000
10
-13.3989343425
20
22.1956595956
30
0.0000000000
10
-13.4225444831
20
22.1958841089
30
0.0000000000
10
-13.4454739280
20
22.1962550764
30
0.0000000000
10
-13.4673904467
20
22.1967666223
30
0.0000000000
10
-13.4879830661
20
22.1974118244
30
0.0000000000
10
-13.5069276805
20
22.1981797789
30
0.0000000000
10
-13.5239431445
20
22.1990597648
30
0.0000000000
10
-13.5387695693
20
22.2000285251
30
0.0000000000
10
-13.5512759331
20
22.2010954812
30
0.0000000000
10
-13.5610521696
20
22.2021649999
30
0.0000000000
10
-13.5684821837
20
22.2033770981
30
0.0000000000
10
-13.5724637995
20
22.2043038358
30
0.0000000000
10
-13.5750000000
20
22.2054506921
30
0.0000000000
10
-13.5750000000
20
22.2060912167
30
0.0000000000
11
-13.3750000000
21
22.1956096608
31
0.0000000000
11
-13.3990073301
21
22.1956854481
31
0.0000000000
11
-13.4227942194
21
22.1959133463
31
0.0000000000
11
-13.4458289060
21
22.1962889631
31
0.0000000000
11
-13.4677937604
21
22.1968061143
31
0.0000000000
11
-13.4885419423
21
22.1974624978
31
0.0000000000
11
-13.5076024431
21
22.1982446340
31
0.0000000000
11
-13.5246281125
21
22.1991362822
31
0.0000000000
11
-13.5395681860
21
22.2001348444
31
0.0000000000
11
-13.5521150861
21
22.2012225801
31
0.0000000000
11
-13.5620058055
21
22.2023747591
31
0.0000000000
11
-13.5691893673
21
22.2035830296
31
0.0000000000
11
-13.5735493219
21
22.2048310664
31
0.0000000000
11
-13.5750000000
21
22.2060912167
31
0.0000000000
0
SPLINE
5
33E
100
AcDbEntity
8
0
100
AcDbSpline
62
7
6
CONTINUOUS
70
0
71
3
72
20
73
16
74
14
42
0.0000001000
43
0.0000001000
44
0.0000000001
12
0.0000237084
22
-0.3105890571
32
0.0000000000
13
0.3106369231
23
-0.0046987873
33
0.0000000000
40
0.0000000000
40
0.0000000000
40
0.0000000000
40
0.0000000000
40
0.0795701838
40
0.1588067754
40
0.2377292296
40
0.3163482463
40
0.3946694030
40
0.4726958146
40
0.5504308891
40
0.6278799552
40
0.7050513657
40
0.7819571568
40
0.8586128639
40
0.9350376605
40
1.0000000000
40
1.0000000000
40
1.0000000000
40
1.0000000000
10
-6.6387859859
20
0.3362063987
30
0.0000000000
10
-6.6387853570
20
0.3279685226
30
0.0000000000
10
-6.6377631996
20
0.3115091135
30
0.0000000000
10
-6.6332042107
20
0.2872623008
30
0.0000000000
10
-6.6257267841
20
0.2638510965
30
0.0000000000
10
-6.6154764260
20
0.2416206189
30
0.0000000000
10
-6.6026379317
20
0.2208870597
30
0.0000000000
10
-6.5874317077
20
0.2019401930
30
0.0000000000
10
-6.5701090668
20
0.1850368087
30
0.0000000000
10
-6.5509469102
20
0.1703979787
30
0.0000000000
10
-6.5302420092
20
0.1582068359
30
0.0000000000
10
-6.5083060387
20
0.1486076550
30
0.0000000000
10
-6.4854585360
20
0.1417057828
30
0.0000000000
10
-6.4631791132
20
0.1377713424
30
0.0000000000
10
-6.4485400387
20
0.1368139823
30
0.0000000000
10
-6.4418134716
20
0.1367122343
30
0.0000000000
11
-6.6387859859
21
0.3362063987
31
0.0000000000
11
-6.6372530958
21
0.3115403557
31
0.0000000000
11
-6.6327058381
21
0.2873540900
31
0.0000000000
11
-6.6252475340
21
0.2640038450
31
0.0000000000
11
-6.6150231416
21
0.2418292965
31
0.0000000000
11
-6.6022168784
21
0.2211474439
31
0.0000000000
11
-6.5870485750
21
0.2022472698
31
0.0000000000
11
-6.5697689051
21
0.1853851970
31
0.0000000000
11
-6.5506540537
21
0.1707818611
31
0.0000000000
11
-6.5300001422
21
0.1586200553
31
0.0000000000
11
-6.5081177227
21
0.1490437639
31
0.0000000000
11
-6.4853267266
21
0.1421581601
31
0.0000000000
11
-6.4619517143
21
0.1380302074
31
0.0000000000
11
-6.4418134716
21
0.1367122343
31
0.0000000000
0
SPLINE
5
33F
100
AcDbEntity
8
0
100
AcDbSpline
62
7
6
CONTINUOUS
70
0
71
3
72
20
73
16
74
14
42
0.0000001000
43
0.0000001000
44
0.0000000001
12
-0.0000237084
22
-0.3105890571
32
0.0000000000
13
-0.3106369231
23
-0.0046987873
33
0.0000000000
40
0.0000000000
40
0.0000000000
40
0.0000000000
40
0.0000000000
40
0.0795701838
40
0.1588067754
40
0.2377292296
40
0.3163482463
40
0.3946694030
40
0.4726958146
40
0.5504308891
40
0.6278799552
40
0.7050513657
40
0.7819571568
40
0.8586128639
40
0.9350376605
40
1.0000000000
40
1.0000000000
40
1.0000000000
40
1.0000000000
10
-16.0112140141
20
0.3362063987
30
0.0000000000
10
-16.0112146430
20
0.3279685226
30
0.0000000000
10
-16.0122368004
20
0.3115091135
30
0.0000000000
10
-16.0167957893
20
0.2872623008
30
0.0000000000
10
-16.0242732159
20
0.2638510965
30
0.0000000000
10
-16.0345235740
20
0.2416206189
30
0.0000000000
10
-16.0473620683
20
0.2208870597
30
0.0000000000
10
-16.0625682923
20
0.2019401930
30
0.0000000000
10
-16.0798909332
20
0.1850368087
30
0.0000000000
10
-16.0990530898
20
0.1703979787
30
0.0000000000
10
-16.1197579908
20
0.1582068359
30
0.0000000000
10
-16.1416939613
20
0.1486076550
30
0.0000000000
10
-16.1645414640
20
0.1417057828
30
0.0000000000
10
-16.1868208868
20
0.1377713424
30
0.0000000000
10
-16.2014599613
20
0.1368139823
30
0.0000000000
10
-16.2081865284
20
0.1367122343
30
0.0000000000
11
-16.0112140141
21
0.3362063987
31
0.0000000000
11
-16.0127469042
21
0.3115403557
31
0.0000000000
11
-16.0172941619
21
0.2873540900
31
0.0000000000
11
-16.0247524660
21
0.2640038450
31
0.0000000000
11
-16.0349768584
21
0.2418292965
31
0.0000000000
11
-16.0477831216
21
0.2211474439
31
0.0000000000
11
-16.0629514250
21
0.2022472698
31
0.0000000000
11
-16.0802310949
21
0.1853851970
31
0.0000000000
11
-16.0993459463
21
0.1707818611
31
0.0000000000
11
-16.1199998578
21
0.1586200553
31
0.0000000000
11
-16.1418822773
21
0.1490437639
31
0.0000000000
11
-16.1646732734
21
0.1421581601
31
0.0000000000
11
-16.1880482857
21
0.1380302074
31
0.0000000000
11
-16.2081865284
21
0.1367122343
31
0.0000000000
0
SPLINE
5
340
100
AcDbEntity
8
0
100
AcDbSpline
62
7
6
CONTINUOUS
70
0
71
3
72
10
73
6
74
4
42
0.0000001000
43
0.0000001000
44
0.0000000001
12
-0.0078302189
22
-0.0627158223
32
0.0000000000
13
0.0000000000
23
-0.0632027428
33
0.0000000000
40
0.0000000000
40
0.0000000000
40
0.0000000000
40
0.0000000000
40
0.3371715920
40
0.6698236531
40
1.0000000000
40
1.0000000000
40
1.0000000000
40
1.0000000000
10
-16.0072903819
20
0.8492776800
30
0.0000000000
10
-16.0081704244
20
0.8422290155
30
0.0000000000
10
-16.0096263273
20
0.8281877849
30
0.0000000000
10
-16.0109268398
20
0.8071549864
30
0.0000000000
10
-16.0112139802
20
0.7931890356
30
0.0000000000
10
-16.0112139802
20
0.7862330187
30
0.0000000000
11
-16.0072903819
21
0.8492776800
31
0.0000000000
11
-16.0094879740
21
0.8280811258
31
0.0000000000
11
-16.0107852648
21
0.8070966652
31
0.0000000000
11
-16.0112139802
21
0.7862330187
31
0.0000000000
0
SPLINE
5
341
100
AcDbEntity
8
0
100
AcDbSpline
62
7
6
CONTINUOUS
70
0
71
3
72
21
73
17
74
15
42
0.0000001000
43
0.0000001000
44
0.0000000001
12
0.0816684978
22
0.6541205412
32
0.0000000000
13
0.6541205412
23
0.0816684978
33
0.0000000000
40
0.0000000000
40
0.0000000000
40
0.0000000000
40
0.0000000000
40
0.0725908208
40
0.1446932362
40
0.2162634435
40
0.2875957322
40
0.3585074992
40
0.4293378329
40
0.5000000000
40
0.5706621671
40
0.6414925008
40
0.7124042678
40
0.7837365565
40
0.8553067638
40
0.9274091792
40
1.0000000000
40
1.0000000000
40
1.0000000000
40
1.0000000000
10
-16.0072903819
20
0.8492776800
30
0.0000000000
10
-16.0053142541
20
0.8651053957
30
0.0000000000
10
-15.9998615312
20
0.8964866153
30
0.0000000000
10
-15.9872809291
20
0.9423821401
30
0.0000000000
10
-15.9705053539
20
0.9866234733
30
0.0000000000
10
-15.9497465910
20
1.0288482470
30
0.0000000000
10
-15.9251969435
20
1.0687960487
30
0.0000000000
10
-15.8971007190
20
1.1061497608
30
0.0000000000
10
-15.8656697413
20
1.1406697413
30
0.0000000000
10
-15.8311497608
20
1.1721007190
30
0.0000000000
10
-15.7937960487
20
1.2001969435
30
0.0000000000
10
-15.7538482470
20
1.2247465910
30
0.0000000000
10
-15.7116234733
20
1.2455053539
30
0.0000000000
10
-15.6673821401
20
1.2622809291
30
0.0000000000
10
-15.6214866153
20
1.2748615312
30
0.0000000000
10
-15.5901053957
20
1.2803142541
30
0.0000000000
10
-15.5742776800
20
1.2822903819
30
0.0000000000
11
-16.0072903819
21
0.8492776800
31
0.0000000000
11
-15.9990970002
21
0.8964228121
31
0.0000000000
11
-15.9865316450
21
0.9422616394
31
0.0000000000
11
-15.9698034589
21
0.9863754379
31
0.0000000000
11
-15.9490572786
21
1.0285735578
31
0.0000000000
11
-15.9245823079
21
1.0683990292
31
0.0000000000
11
-15.8965156215
21
1.1057130714
31
0.0000000000
11
-15.8651553156
21
1.1401553156
31
0.0000000000
11
-15.8307130714
21
1.1715156215
31
0.0000000000
11
-15.7933990292
21
1.1995823079
31
0.0000000000
11
-15.7535735578
21
1.2240572786
31
0.0000000000
11
-15.7113754379
21
1.2448034589
31
0.0000000000
11
-15.6672616394
21
1.2615316450
31
0.0000000000
11
-15.6214228121
21
1.2740970002
31
0.0000000000
11
-15.5742776800
21
1.2822903819
31
0.0000000000
0
SPLINE
5
342
100
AcDbEntity
8
0
100
AcDbSpline
62
7
6
CONTINUOUS
70
0
71
3
72
21
73
17
74
15
42
0.0000001000
43
0.0000001000
44
0.0000000001
12
0.6541205412
22
-0.0816684978
32
0.0000000000
13
0.0816684978
23
-0.6541205412
33
0.0000000000
40
0.0000000000
40
0.0000000000
40
0.0000000000
40
0.0000000000
40
0.0725908208
40
0.1446932362
40
0.2162634435
40
0.2875957322
40
0.3585074992
40
0.4293378329
40
0.5000000000
40
0.5706621671
40
0.6414925008
40
0.7124042678
40
0.7837365565
40
0.8553067638
40
0.9274091792
40
1.0000000000
40
1.0000000000
40
1.0000000000
40
1.0000000000
10
-7.0757223200
20
1.2822903819
30
0.0000000000
10
-7.0598946043
20
1.2803142541
30
0.0000000000
10
-7.0285133847
20
1.2748615312
30
0.0000000000
10
-6.9826178599
20
1.2622809291
30
0.0000000000
10
-6.9383765267
20
1.2455053539
30
0.0000000000
10
-6.8961517530
20
1.2247465910
30
0.0000000000
10
-6.8562039513
20
1.2001969435
30
0.0000000000
10
-6.8188502392
20
1.1721007190
30
0.0000000000
10
-6.7843302587
20
1.1406697413
30
0.0000000000
10
-6.7528992810
20
1.1061497608
30
0.0000000000
10
-6.7248030565
20
1.0687960487
30
0.0000000000
10
-6.7002534090
20
1.0288482470
30
0.0000000000
10
-6.6794946461
20
0.9866234733
30
0.0000000000
10
-6.6627190709
20
0.9423821401
30
0.0000000000
10
-6.6501384688
20
0.8964866153
30
0.0000000000
10
-6.6446857459
20
0.8651053957
30
0.0000000000
10
-6.6427096181
20
0.8492776800
30
0.0000000000
11
-7.0757223200
21
1.2822903819
31
0.0000000000
11
-7.0285771879
21
1.2740970002
31
0.0000000000
11
-6.9827383606
21
1.2615316450
31
0.0000000000
11
-6.9386245621
21
1.2448034589
31
0.0000000000
11
-6.8964264422
21
1.2240572786
31
0.0000000000
11
-6.8566009708
21
1.1995823079
31
0.0000000000
11
-6.8192869286
21
1.1715156215
31
0.0000000000
11
-6.7848446844
21
1.1401553156
31
0.0000000000
11
-6.7534843785
21
1.1057130714
31
0.0000000000
11
-6.7254176921
21
1.0683990292
31
0.0000000000
11
-6.7009427214
21
1.0285735578
31
0.0000000000
11
-6.6801965411
21
0.9863754379
31
0.0000000000
11
-6.6634683550
21
0.9422616394
31
0.0000000000
11
-6.6509029998
21
0.8964228121
31
0.0000000000
11
-6.6427096181
21
0.8492776800
31
0.0000000000
0
SPLINE
5
343
100
AcDbEntity
8
0
100
AcDbSpline
62
7
6
CONTINUOUS
70
0
71
3
72
10
73
6
74
4
42
0.0000001000
43
0.0000001000
44
0.0000000001
12
-0.0627158223
22
0.0078302189
32
0.0000000000
13
-0.0632027428
23
0.0000000000
33
0.0000000000
40
0.0000000000
40
0.0000000000
40
0.0000000000
40
0.0000000000
40
0.3371715920
40
0.6698236531
40
1.0000000000
40
1.0000000000
40
1.0000000000
40
1.0000000000
10
-7.0757223200
20
1.2822903819
30
0.0000000000
10
-7.0827709845
20
1.2831704244
30
0.0000000000
10
-7.0968122151
20
1.2846263273
30
0.0000000000
10
-7.1178450136
20
1.2859268398
30
0.0000000000
10
-7.1318109644
20
1.2862139802
30
0.0000000000
10
-7.1387669813
20
1.2862139802
30
0.0000000000
11
-7.0757223200
21
1.2822903819
31
0.0000000000
11
-7.0969188742
21
1.2844879740
31
0.0000000000
11
-7.1179033348
21
1.2857852648
31
0.0000000000
11
-7.1387669813
21
1.2862139802
31
0.0000000000
0
SPLINE
5
344
100
AcDbEntity
8
0
100
AcDbSpline
62
7
6
CONTINUOUS
70
0
71
3
72
23
73
19
74
17
42
0.0000001000
43
0.0000001000
44
0.0000000001
12
0.0000000000
22
0.7856215844
32
0.0000000000
13
0.7856215844
23
0.0000000000
33
0.0000000000
40
0.0000000000
40
0.0000000000
40
0.0000000000
40
0.0000000000
40
0.0625945066
40
0.1251848284
40
0.1877682570
40
0.2503395945
40
0.3129011664
40
0.3754438804
40
0.4379735847
40
0.5004819823
40
0.5629742399
40
0.6254466794
40
0.6879023416
40
0.7503419100
40
0.8127684860
40
0.8751838684
40
0.9375942187
40
1.0000000000
40
1.0000000000
40
1.0000000000
40
1.0000000000
10
-22.4250000000
20
21.8207021581
30
0.0000000000
10
-22.4250000000
20
21.8370940232
30
0.0000000000
10
-22.4233897389
20
21.8698994145
30
0.0000000000
10
-22.4161671154
20
21.9186136355
30
0.0000000000
10
-22.4042079643
20
21.9663849462
30
0.0000000000
10
-22.3876288102
20
22.0127463961
30
0.0000000000
10
-22.3665915307
20
22.0572510976
30
0.0000000000
10
-22.3413002409
20
22.0994707977
30
0.0000000000
10
-22.3120015824
20
22.1389976681
30
0.0000000000
10
-22.2789789240
20
22.1754529390
30
0.0000000000
10
-22.2425531272
20
22.2084857897
30
0.0000000000
10
-22.2030756899
20
22.2377805199
30
0.0000000000
10
-22.1609282895
20
22.2630567338
30
0.0000000000
10
-22.1165164697
20
22.2840735783
30
0.0000000000
10
-22.0702681478
20
22.3006307867
30
0.0000000000
10
-22.0226252213
20
22.3125711375
30
0.0000000000
10
-21.9740512615
20
22.3197810273
30
0.0000000000
10
-21.9413424429
20
22.3213883311
30
0.0000000000
10
-21.9250000000
20
22.3213883311
30
0.0000000000
11
-22.4250000000
21
21.8207021581
31
0.0000000000
11
-22.4225883686
21
21.8698185833
31
0.0000000000
11
-22.4153771281
21
21.9184592438
31
0.0000000000
11
-22.4034366746
21
21.9661542003
31
0.0000000000
11
-22.3868841173
21
22.0124409388
31
0.0000000000
11
-22.3658793384
21
22.0568762217
31
0.0000000000
11
-22.3406291596
21
22.0990267550
31
0.0000000000
11
-22.3113759735
21
22.1384917498
31
0.0000000000
11
-22.2784069800
21
22.1748872971
31
0.0000000000
11
-22.2420387275
21
22.2078675246
31
0.0000000000
11
-22.2026251340
21
22.2371144953
31
0.0000000000
11
-22.1605454063
21
22.2623497788
31
0.0000000000
11
-22.1162056209
21
22.2833322919
31
0.0000000000
11
-22.0700316918
21
22.2998625490
31
0.0000000000
11
-22.0224678685
21
22.3117831759
31
0.0000000000
11
-21.9739682091
21
22.3189813693
31
0.0000000000
11
-21.9250000000
21
22.3213883311
31
0.0000000000
0
SPLINE
5
345
100
AcDbEntity
8
0
100
AcDbSpline
62
7
6
CONTINUOUS
70
0
71
3
72
21
73
17
74
15
42
0.0000001000
43
0.0000001000
44
0.0000000001
12
-0.3925005991
22
0.0000000000
32
0.0000000000
13
0.0000000000
23
0.3925005991
33
0.0000000000
40
0.0000000000
40
0.0000000000
40
0.0000000000
40
0.0000000000
40
0.0711861212
40
0.1427550138
40
0.2141937077
40
0.2853713092
40
0.3569690553
40
0.4286562388
40
0.4999733329
40
0.5712955134
40
0.6429904000
40
0.7145862365
40
0.7857623820
40
0.8572207282
40
0.9288058454
40
1.0000000000
40
1.0000000000
40
1.0000000000
40
1.0000000000
10
-22.1750000000
20
0.0886550719
30
0.0000000000
10
-22.1843135317
20
0.0886550719
30
0.0000000000
10
-22.2030074528
20
0.0897009787
30
0.0000000000
10
-22.2306919168
20
0.0943977872
30
0.0000000000
10
-22.2576777484
20
0.1021680572
30
0.0000000000
10
-22.2836279272
20
0.1129072744
30
0.0000000000
10
-22.3082428498
20
0.1264991366
30
0.0000000000
10
-22.3311906270
20
0.1427800015
30
0.0000000000
10
-22.3521415963
20
0.1615057458
30
0.0000000000
10
-22.3708684943
20
0.1824570486
30
0.0000000000
10
-22.3871505457
20
0.2054057447
30
0.0000000000
10
-22.4007430845
20
0.2300209306
30
0.0000000000
10
-22.4114838203
20
0.2559727760
30
0.0000000000
10
-22.4192559668
20
0.2829627889
30
0.0000000000
10
-22.4239539175
20
0.3106529119
30
0.0000000000
10
-22.4250000000
20
0.3293500087
30
0.0000000000
10
-22.4250000000
20
0.3386645915
30
0.0000000000
11
-22.1750000000
21
0.0886550719
31
0.0000000000
11
-22.2028969327
21
0.0902164847
31
0.0000000000
11
-22.2305921005
21
0.0949146317
31
0.0000000000
11
-22.2575370298
21
0.1026733209
31
0.0000000000
11
-22.2833511238
21
0.1133561368
31
0.0000000000
11
-22.3079519840
21
0.1269402810
31
0.0000000000
11
-22.3309003350
21
0.1432215194
31
0.0000000000
11
-22.3517709706
21
0.1618754401
31
0.0000000000
11
-22.3704267052
21
0.1827471320
31
0.0000000000
11
-22.3867100594
21
0.2056976890
31
0.0000000000
11
-22.4002942587
21
0.2302976626
31
0.0000000000
11
-22.4109775680
21
0.2561109339
31
0.0000000000
11
-22.4187390183
21
0.2830630951
31
0.0000000000
11
-22.4234384124
21
0.3107645105
31
0.0000000000
11
-22.4250000000
21
0.3386645915
31
0.0000000000
0
SPLINE
5
346
100
AcDbEntity
8
0
100
AcDbSpline
62
7
6
CONTINUOUS
70
0
71
3
72
21
73
17
74
15
42
0.0000001000
43
0.0000001000
44
0.0000000001
12
0.0000000000
22
-0.3925005991
32
0.0000000000
13
-0.3925005991
23
0.0000000000
33
0.0000000000
40
0.0000000000
40
0.0000000000
40
0.0000000000
40
0.0000000000
40
0.0711941546
40
0.1427792718
40
0.2142376180
40
0.2854137635
40
0.3570096000
40
0.4287044866
40
0.5000266671
40
0.5713437612
40
0.6430309447
40
0.7146286908
40
0.7858062923
40
0.8572449862
40
0.9288138788
40
1.0000000000
40
1.0000000000
40
1.0000000000
40
1.0000000000
10
22.2750000000
20
0.3386645915
30
0.0000000000
10
22.2750000000
20
0.3293500087
30
0.0000000000
10
22.2739539175
20
0.3106529119
30
0.0000000000
10
22.2692559668
20
0.2829627889
30
0.0000000000
10
22.2614838203
20
0.2559727760
30
0.0000000000
10
22.2507430845
20
0.2300209306
30
0.0000000000
10
22.2371505457
20
0.2054057447
30
0.0000000000
10
22.2208684943
20
0.1824570486
30
0.0000000000
10
22.2021415963
20
0.1615057458
30
0.0000000000
10
22.1811906270
20
0.1427800015
30
0.0000000000
10
22.1582428498
20
0.1264991366
30
0.0000000000
10
22.1336279272
20
0.1129072744
30
0.0000000000
10
22.1076777484
20
0.1021680572
30
0.0000000000
10
22.0806919168
20
0.0943977872
30
0.0000000000
10
22.0530074528
20
0.0897009787
30
0.0000000000
10
22.0343135317
20
0.0886550719
30
0.0000000000
10
22.0250000000
20
0.0886550719
30
0.0000000000
11
22.2750000000
21
0.3386645915
31
0.0000000000
11
22.2734384124
21
0.3107645105
31
0.0000000000
11
22.2687390183
21
0.2830630951
31
0.0000000000
11
22.2609775680
21
0.2561109339
31
0.0000000000
11
22.2502942587
21
0.2302976626
31
0.0000000000
11
22.2367100594
21
0.2056976890
31
0.0000000000
11
22.2204267052
21
0.1827471320
31
0.0000000000
11
22.2017709706
21
0.1618754401
31
0.0000000000
11
22.1809003350
21
0.1432215194
31
0.0000000000
11
22.1579519840
21
0.1269402810
31
0.0000000000
11
22.1333511238
21
0.1133561368
31
0.0000000000
11
22.1075370298
21
0.1026733209
31
0.0000000000
11
22.0805921005
21
0.0949146317
31
0.0000000000
11
22.0528969327
21
0.0902164847
31
0.0000000000
11
22.0250000000
21
0.0886550719
31
0.0000000000
0
SPLINE
5
347
100
AcDbEntity
8
0
100
AcDbSpline
62
7
6
CONTINUOUS
70
0
71
3
72
23
73
19
74
17
42
0.0000001000
43
0.0000001000
44
0.0000000001
12
0.7856215844
22
0.0000000000
32
0.0000000000
13
0.0000000000
23
-0.7856215844
33
0.0000000000
40
0.0000000000
40
0.0000000000
40
0.0000000000
40
0.0000000000
40
0.0624057813
40
0.1248161316
40
0.1872315140
40
0.2496580900
40
0.3120976584
40
0.3745533206
40
0.4370257601
40
0.4995180177
40
0.5620264153
40
0.6245561196
40
0.6870988336
40
0.7496604055
40
0.8122317430
40
0.8748151716
40
0.9374054934
40
1.0000000000
40
1.0000000000
40
1.0000000000
40
1.0000000000
10
21.7750000000
20
22.3213883311
30
0.0000000000
10
21.7913424429
20
22.3213883311
30
0.0000000000
10
21.8240512615
20
22.3197810273
30
0.0000000000
10
21.8726252213
20
22.3125711375
30
0.0000000000
10
21.9202681478
20
22.3006307867
30
0.0000000000
10
21.9665164697
20
22.2840735783
30
0.0000000000
10
22.0109282895
20
22.2630567338
30
0.0000000000
10
22.0530756899
20
22.2377805199
30
0.0000000000
10
22.0925531272
20
22.2084857897
30
0.0000000000
10
22.1289789240
20
22.1754529390
30
0.0000000000
10
22.1620015824
20
22.1389976681
30
0.0000000000
10
22.1913002409
20
22.0994707977
30
0.0000000000
10
22.2165915307
20
22.0572510976
30
0.0000000000
10
22.2376288102
20
22.0127463961
30
0.0000000000
10
22.2542079643
20
21.9663849462
30
0.0000000000
10
22.2661671154
20
21.9186136355
30
0.0000000000
10
22.2733897389
20
21.8698994145
30
0.0000000000
10
22.2750000000
20
21.8370940232
30
0.0000000000
10
22.2750000000
20
21.8207021581
30
0.0000000000
11
21.7750000000
21
22.3213883311
31
0.0000000000
11
21.8239682091
21
22.3189813693
31
0.0000000000
11
21.8724678685
21
22.3117831759
31
0.0000000000
11
21.9200316918
21
22.2998625490
31
0.0000000000
11
21.9662056209
21
22.2833322919
31
0.0000000000
11
22.0105454063
21
22.2623497788
31
0.0000000000
11
22.0526251340
21
22.2371144953
31
0.0000000000
11
22.0920387275
21
22.2078675246
31
0.0000000000
11
22.1284069800
21
22.1748872971
31
0.0000000000
11
22.1613759735
21
22.1384917498
31
0.0000000000
11
22.1906291596
21
22.0990267550
31
0.0000000000
11
22.2158793384
21
22.0568762217
31
0.0000000000
11
22.2368841173
21
22.0124409388
31
0.0000000000
11
22.2534366746
21
21.9661542003
31
0.0000000000
11
22.2653771281
21
21.9184592438
31
0.0000000000
11
22.2725883686
21
21.8698185833
31
0.0000000000
11
22.2750000000
21
21.8207021581
31
0.0000000000
0
SPLINE
5
348
100
AcDbEntity
8
0
100
AcDbSpline
62
7
6
CONTINUOUS
70
0
71
3
72
10
73
6
74
4
42
0.0000001000
43
0.0000001000
44
0.0000000001
12
0.0627158223
22
0.0078302189
32
0.0000000000
13
0.0632027428
23
-0.0000000000
33
0.0000000000
40
0.0000000000
40
0.0000000000
40
0.0000000000
40
0.0000000000
40
0.3371715920
40
0.6698236531
40
1.0000000000
40
1.0000000000
40
1.0000000000
40
1.0000000000
10
-15.5742776800
20
1.2822903819
30
0.0000000000
10
-15.5672290155
20
1.2831704244
30
0.0000000000
10
-15.5531877849
20
1.2846263273
30
0.0000000000
10
-15.5321549864
20
1.2859268398
30
0.0000000000
10
-15.5181890356
20
1.2862139802
30
0.0000000000
10
-15.5112330187
20
1.2862139802
30
0.0000000000
11
-15.5742776800
21
1.2822903819
31
0.0000000000
11
-15.5530811258
21
1.2844879740
31
0.0000000000
11
-15.5320966652
21
1.2857852648
31
0.0000000000
11
-15.5112330187
21
1.2862139802
31
0.0000000000
0
SPLINE
5
349
100
AcDbEntity
8
0
100
AcDbSpline
62
7
6
CONTINUOUS
70
0
71
3
72
10
73
6
74
4
42
0.0000001000
43
0.0000001000
44
0.0000000001
12
0.0078302189
22
-0.0627158223
32
0.0000000000
13
0.0000000000
23
-0.0632027428
33
0.0000000000
40
0.0000000000
40
0.0000000000
40
0.0000000000
40
0.0000000000
40
0.3371715920
40
0.6698236531
40
1.0000000000
40
1.0000000000
40
1.0000000000
40
1.0000000000
10
-6.6427096181
20
0.8492776800
30
0.0000000000
10
-6.6418295756
20
0.8422290155
30
0.0000000000
10
-6.6403736727
20
0.8281877849
30
0.0000000000
10
-6.6390731602
20
0.8071549864
30
0.0000000000
10
-6.6387860198
20
0.7931890356
30
0.0000000000
10
-6.6387860198
20
0.7862330187
30
0.0000000000
11
-6.6427096181
21
0.8492776800
31
0.0000000000
11
-6.6405120260
21
0.8280811258
31
0.0000000000
11
-6.6392147352
21
0.8070966652
31
0.0000000000
11
-6.6387860198
21
0.7862330187
31
0.0000000000
0
SPLINE
5
34A
100
AcDbEntity
8
0
100
AcDbSpline
62
7
6
CONTINUOUS
70
0
71
3
72
10
73
6
74
4
42
0.0000001000
43
0.0000001000
44
0.0000000001
12
-0.0000000678
22
0.0008878840
32
0.0000000000
13
0.0000000000
23
0.0008878840
33
0.0000000000
40
0.0000000000
40
0.0000000000
40
0.0000000000
40
0.0000000000
40
0.3333222604
40
0.6666549605
40
1.0000000000
40
1.0000000000
40
1.0000000000
40
1.0000000000
10
-6.6387859859
20
0.3362063987
30
0.0000000000
10
-6.6387859934
20
0.3363050492
30
0.0000000000
10
-6.6387860060
20
0.3365023533
30
0.0000000000
10
-6.6387860172
20
0.3367983146
30
0.0000000000
10
-6.6387860198
20
0.3369956255
30
0.0000000000
10
-6.6387860198
20
0.3370942827
30
0.0000000000
11
-6.6387859859
21
0.3362063987
31
0.0000000000
11
-6.6387860047
21
0.3365023502
31
0.0000000000
11
-6.6387860160
21
0.3367983110
31
0.0000000000
11
-6.6387860198
21
0.3370942827
31
0.0000000000
0
SPLINE
5
34B
100
AcDbEntity
8
0
100
AcDbSpline
62
7
6
CONTINUOUS
70
0
71
3
72
10
73
6
74
4
42
0.0000001000
43
0.0000001000
44
0.0000000001
12
0.0000000678
22
0.0008878840
32
0.0000000000
13
0.0000000000
23
0.0008878840
33
0.0000000000
40
0.0000000000
40
0.0000000000
40
0.0000000000
40
0.0000000000
40
0.3333222602
40
0.6666549601
40
1.0000000000
40
1.0000000000
40
1.0000000000
40
1.0000000000
10
-16.0112140141
20
0.3362063987
30
0.0000000000
10
-16.0112140066
20
0.3363050492
30
0.0000000000
10
-16.0112139940
20
0.3365023533
30
0.0000000000
10
-16.0112139828
20
0.3367983146
30
0.0000000000
10
-16.0112139802
20
0.3369956255
30
0.0000000000
10
-16.0112139802
20
0.3370942827
30
0.0000000000
11
-16.0112140141
21
0.3362063987
31
0.0000000000
11
-16.0112139953
21
0.3365023502
31
0.0000000000
11
-16.0112139840
21
0.3367983110
31
0.0000000000
11
-16.0112139802
21
0.3370942827
31
0.0000000000
0
SPLINE
5
34C
100
AcDbEntity
8
0
100
AcDbSpline
62
9
6
CONTINUOUS
70
0
71
3
72
23
73
19
74
17
42
0.0000001000
43
0.0000001000
44
0.0000000001
12
-0.2236471421
22
0.1117076180
32
0.0000000000
13
-0.2499932721
23
0.0000000359
33
0.0000000000
40
0.0000000000
40
0.0000000000
40
0.0000000000
40
0.0000000000
40
0.0064500406
40
0.0222255372
40
0.0472020920
40
0.0811490363
40
0.1237486275
40
0.1746009397
40
0.2332271702
40
0.2990746762
40
0.3715233621
40
0.4498911639
40
0.5334398562
40
0.6213818113
40
0.7128890904
40
0.8071008750
40
0.9031272271
40
1.0000000000
40
1.0000000000
40
1.0000000000
40
1.0000000000
10
21.9341221542
20
0.1454354616
30
0.0000000000
10
21.9336413098
20
0.1456756345
30
0.0000000000
10
21.9316960353
20
0.1455860820
30
0.0000000000
10
21.9278505128
20
0.1459749781
30
0.0000000000
10
21.9215841291
20
0.1460568720
30
0.0000000000
10
21.9131450462
20
0.1462941267
30
0.0000000000
10
21.9025232485
20
0.1464618938
30
0.0000000000
10
21.8898541097
20
0.1466448389
30
0.0000000000
10
21.8752441067
20
0.1468089209
30
0.0000000000
10
21.8588353189
20
0.1469630918
30
0.0000000000
10
21.8407809212
20
0.1471021865
30
0.0000000000
10
21.8212514257
20
0.1472258878
30
0.0000000000
10
21.8004307105
20
0.1473326148
30
0.0000000000
10
21.7785149846
20
0.1474214125
30
0.0000000000
10
21.7557106168
20
0.1474913814
30
0.0000000000
10
21.7322325152
20
0.1475418459
30
0.0000000000
10
21.7083072665
20
0.1475723106
30
0.0000000000
10
21.6922327712
20
0.1475790871
30
0.0000000000
10
21.6841602573
20
0.1475790882
30
0.0000000000
11
21.9341221542
21
0.1454354616
31
0.0000000000
11
21.9325235733
21
0.1456466211
31
0.0000000000
11
21.9285853435
21
0.1458555520
31
0.0000000000
11
21.9223447266
21
0.1460601723
31
0.0000000000
11
21.9138605378
21
0.1462585486
31
0.0000000000
11
21.9032126263
21
0.1464488143
31
0.0000000000
11
21.8905011700
21
0.1466291780
31
0.0000000000
11
21.8758459784
21
0.1467979390
31
0.0000000000
11
21.8593852800
21
0.1469535056
31
0.0000000000
11
21.8412741441
21
0.1470944131
31
0.0000000000
11
21.8216831192
21
0.1472193350
31
0.0000000000
11
21.8007967862
21
0.1473270947
31
0.0000000000
11
21.7788120716
21
0.1474166765
31
0.0000000000
11
21.7559359763
21
0.1474872379
31
0.0000000000
11
21.7323837190
21
0.1475381147
31
0.0000000000
11
21.7083777966
21
0.1475688278
31
0.0000000000
11
21.6841602573
21
0.1475790882
31
0.0000000000
0
SPLINE
5
34D
100
AcDbEntity
8
0
100
AcDbSpline
62
9
6
CONTINUOUS
70
0
71
3
72
19
73
15
74
13
42
0.0000001000
43
0.0000001000
44
0.0000000001
12
0.2000008301
22
-0.0000000000
32
0.0000000000
13
0.0000000000
23
-0.2000008301
33
0.0000000000
40
0.0000000000
40
0.0000000000
40
0.0000000000
40
0.0000000000
40
0.1305256966
40
0.2588180563
40
0.3826819661
40
0.4999980869
40
0.6087591160
40
0.7071041330
40
0.7933504423
40
0.8660223664
40
0.9238765023
40
0.9659230152
40
0.9914426591
40
1.0000000000
40
1.0000000000
40
1.0000000000
40
1.0000000000
10
6.3250000000
20
0.7503001200
30
0.0000000000
10
6.3337017492
20
0.7503001200
30
0.0000000000
10
6.3509563331
20
0.7502984137
30
0.0000000000
10
6.3764686781
20
0.7502909697
30
0.0000000000
10
6.4010998919
20
0.7502781798
30
0.0000000000
10
6.4244306830
20
0.7502623342
30
0.0000000000
10
6.4460545989
20
0.7502367982
30
0.0000000000
10
6.4656252815
20
0.7502246112
30
0.0000000000
10
6.4827340192
20
0.7501555349
30
0.0000000000
10
6.4973071288
20
0.7502400252
30
0.0000000000
10
6.5084899341
20
0.7498989383
30
0.0000000000
10
6.5175966527
20
0.7505762536
30
0.0000000000
10
6.5213449332
20
0.7492771824
30
0.0000000000
10
6.5250000000
20
0.7505704918
30
0.0000000000
10
6.5250000000
20
0.7500000000
30
0.0000000000
11
6.3250000000
21
0.7503001200
31
0.0000000000
11
6.3511052476
21
0.7502975525
31
0.0000000000
11
6.3767638248
21
0.7502898937
31
0.0000000000
11
6.4015367064
21
0.7502772748
31
0.0000000000
11
6.4250000215
21
0.7502599116
31
0.0000000000
11
6.4467523067
21
0.7502381012
31
0.0000000000
11
6.4664213747
21
0.7502122169
31
0.0000000000
11
6.4836706829
21
0.7501827015
31
0.0000000000
11
6.4982050914
21
0.7501500600
31
0.0000000000
11
6.5097759130
21
0.7501148509
31
0.0000000000
11
6.5181851684
21
0.7500776768
31
0.0000000000
11
6.5232889731
21
0.7500391735
31
0.0000000000
11
6.5250000000
21
0.7500000000
31
0.0000000000
0
SPLINE
5
34E
100
AcDbEntity
8
0
100
AcDbSpline
62
9
6
CONTINUOUS
70
0
71
3
72
20
73
16
74
14
42
0.0000001000
43
0.0000001000
44
0.0000000001
12
-0.3924039430
22
0.0000597696
32
0.0000000000
13
-0.0000597559
23
0.3924039430
33
0.0000000000
40
0.0000000000
40
0.0000000000
40
0.0000000000
40
0.0000000000
40
0.0769156840
40
0.1538329925
40
0.2307520434
40
0.3076728535
40
0.3845953371
40
0.4615193115
40
0.5384445074
40
0.6153705844
40
0.6922971510
40
0.7692237872
40
0.8461500690
40
0.9230755931
40
1.0000000000
40
1.0000000000
40
1.0000000000
40
1.0000000000
10
-22.0841221542
20
0.1454354616
30
0.0000000000
10
-22.0941828267
20
0.1454369940
30
0.0000000000
10
-22.1143253660
20
0.1466579652
30
0.0000000000
10
-22.1440815429
20
0.1521163021
30
0.0000000000
10
-22.1729680748
20
0.1611219534
30
0.0000000000
10
-22.2005580469
20
0.1735436138
30
0.0000000000
10
-22.2264507629
20
0.1892001774
30
0.0000000000
10
-22.2502683139
20
0.2078633743
30
0.0000000000
10
-22.2716635716
20
0.2292611122
30
0.0000000000
10
-22.2903245829
20
0.2530813956
30
0.0000000000
10
-22.3059792953
20
0.2789770529
30
0.0000000000
10
-22.3183994746
20
0.3065701317
30
0.0000000000
10
-22.3274040449
20
0.3354598926
30
0.0000000000
10
-22.3328617235
20
0.3652193811
30
0.0000000000
10
-22.3340825457
20
0.3853641289
30
0.0000000000
10
-22.3340840780
20
0.3954259424
30
0.0000000000
11
-22.0841221542
21
0.1454354616
31
0.0000000000
11
-22.1142488280
21
0.1472624095
31
0.0000000000
11
-22.1439362721
21
0.1527074396
31
0.0000000000
11
-22.1727516607
21
0.1616911666
31
0.0000000000
11
-22.2002748817
21
0.1740826129
31
0.0000000000
11
-22.2261046625
21
0.1897011182
31
0.0000000000
11
-22.2498644195
21
0.2083189738
31
0.0000000000
11
-22.2712077492
21
0.2296647418
31
0.0000000000
11
-22.2898234779
21
0.2534272133
31
0.0000000000
11
-22.3054401991
21
0.2792599450
31
0.0000000000
11
-22.3178302299
21
0.3067863104
31
0.0000000000
11
-22.3268129307
21
0.3356049910
31
0.0000000000
11
-22.3322573388
21
0.3652958268
31
0.0000000000
11
-22.3340840780
21
0.3954259424
31
0.0000000000
0
SPLINE
5
34F
100
AcDbEntity
8
0
100
AcDbSpline
62
7
6
CONTINUOUS
70
0
71
3
72
20
73
16
74
14
42
0.0000001000
43
0.0000001000
44
0.0000000001
12
-0.3924242919
22
0.0000298841
32
0.0000000000
13
-0.0000000000
23
0.3924242930
33
0.0000000000
40
0.0000000000
40
0.0000000000
40
0.0000000000
40
0.0000000000
40
0.0769313053
40
0.1538602671
40
0.2307873597
40
0.3077130228
40
0.3846376701
40
0.4615617001
40
0.5384855082
40
0.6154094983
40
0.6923340960
40
0.7692597596
40
0.8461869908
40
0.9231163428
40
1.0000000000
40
1.0000000000
40
1.0000000000
40
1.0000000000
10
-22.1750000000
20
0.0999999993
30
0.0000000000
10
-22.1850632377
20
0.1000007656
30
0.0000000000
10
-22.2052104856
20
0.1012204201
30
0.0000000000
10
-22.2349732135
20
0.1066773633
30
0.0000000000
10
-22.2638651201
20
0.1156818388
30
0.0000000000
10
-22.2914594912
20
0.1281023492
30
0.0000000000
10
-22.3173558478
20
0.1437577158
30
0.0000000000
10
-22.3411764802
20
0.1624197077
30
0.0000000000
10
-22.3625744158
20
0.1838163688
30
0.0000000000
10
-22.3812377766
20
0.2076359156
30
0.0000000000
10
-22.3968945314
20
0.2335314386
30
0.0000000000
10
-22.4093162326
20
0.2611252705
30
0.0000000000
10
-22.4183219768
20
0.2900169415
30
0.0000000000
10
-22.4237775582
20
0.3197735012
30
0.0000000000
10
-22.4250000000
20
0.3399144384
30
0.0000000000
10
-22.4250000000
20
0.3499714434
30
0.0000000000
11
-22.1750000000
21
0.0999999993
31
0.0000000000
11
-22.2051344982
21
0.1018250460
31
0.0000000000
11
-22.2348284339
21
0.1072687056
31
0.0000000000
11
-22.2636491275
21
0.1162512767
31
0.0000000000
11
-22.2911766661
21
0.1286415838
31
0.0000000000
11
-22.3170099941
21
0.1442588880
31
0.0000000000
11
-22.3407727306
21
0.1628755139
31
0.0000000000
11
-22.3621186301
21
0.1842201552
31
0.0000000000
11
-22.3807366084
21
0.2079818122
31
0.0000000000
11
-22.3963552592
21
0.2338143033
31
0.0000000000
11
-22.4087467982
21
0.2613412877
31
0.0000000000
11
-22.4177303753
21
0.2901617247
31
0.0000000000
11
-22.4231747085
21
0.3198556926
31
0.0000000000
11
-22.4250000000
21
0.3499714434
31
0.0000000000
0
SPLINE
5
350
100
AcDbEntity
8
0
100
AcDbSpline
62
9
6
CONTINUOUS
70
0
71
3
72
24
73
20
74
18
42
0.0000001000
43
0.0000001000
44
0.0000000001
12
-0.7850974795
22
0.0000184535
32
0.0000000000
13
0.0000031638
23
-0.7850974797
33
0.0000000000
40
0.0000000000
40
0.0000000000
40
0.0000000000
40
0.0000000000
40
0.0583232778
40
0.1170595720
40
0.1760225616
40
0.2350281805
40
0.2939262982
40
0.3527466936
40
0.4115911929
40
0.4704831628
40
0.5293914664
40
0.5882875918
40
0.6471406680
40
0.7059745594
40
0.7648908593
40
0.8239172793
40
0.8829010287
40
0.9416573766
40
1.0000000000
40
1.0000000000
40
1.0000000000
40
1.0000000000
10
-15.5230124517
20
1.2979934133
30
0.0000000000
10
-15.5382756046
20
1.2979937720
30
0.0000000000
10
-15.5689285049
20
1.2965903253
30
0.0000000000
10
-15.6146190869
20
1.2902582409
30
0.0000000000
10
-15.6597087271
20
1.2796947092
30
0.0000000000
10
-15.7036669321
20
1.2649915292
30
0.0000000000
10
-15.7460430827
20
1.2463017765
30
0.0000000000
10
-15.7864755648
20
1.2238000638
30
0.0000000000
10
-15.8246576506
20
1.1976638842
30
0.0000000000
10
-15.8602808683
20
1.1680986914
30
0.0000000000
10
-15.8930295906
20
1.1353589321
30
0.0000000000
10
-15.9226065166
20
1.0997411018
30
0.0000000000
10
-15.9487563689
20
1.0615600163
30
0.0000000000
10
-15.9712726675
20
1.0211235350
30
0.0000000000
10
-15.9899765306
20
0.9787385200
30
0.0000000000
10
-16.0046918418
20
0.9347678008
30
0.0000000000
10
-16.0152645144
20
0.8896636550
30
0.0000000000
10
-16.0216023890
20
0.8439579039
30
0.0000000000
10
-16.0230075055
20
0.8132946980
30
0.0000000000
10
-16.0230074440
20
0.7980264825
30
0.0000000000
11
-15.5230124517
21
1.2979934133
31
0.0000000000
11
-15.5687539552
21
1.2958983327
31
0.0000000000
11
-15.6144311797
21
1.2895685605
31
0.0000000000
11
-15.6595024409
21
1.2790090908
31
0.0000000000
11
-15.7034352189
21
1.2643144756
31
0.0000000000
11
-15.7457437679
21
1.2456544939
31
0.0000000000
11
-15.7860954935
21
1.2231977130
31
0.0000000000
11
-15.8242181819
21
1.1971021662
31
0.0000000000
11
-15.8597968790
21
1.1675739052
31
0.0000000000
11
-15.8925041606
21
1.1348755628
31
0.0000000000
11
-15.9220440741
21
1.0993022990
31
0.0000000000
11
-15.9481531720
21
1.0611807283
31
0.0000000000
11
-15.9706245119
21
1.0208249804
31
0.0000000000
11
-15.9892987704
21
0.9785071277
31
0.0000000000
11
-16.0040057014
21
0.9345612495
31
0.0000000000
11
-16.0145743280
21
0.8894753942
31
0.0000000000
11
-16.0209098800
21
0.8437830763
31
0.0000000000
11
-16.0230074440
21
0.7980264825
31
0.0000000000
0
SPLINE
5
351
100
AcDbEntity
8
0
100
AcDbSpline
62
9
6
CONTINUOUS
70
0
71
3
72
19
73
15
74
13
42
0.0000001000
43
0.0000001000
44
0.0000000001
12
-0.2000008301
22
-0.0000000000
32
0.0000000000
13
-0.0000000001
23
-0.2000008301
33
0.0000000000
40
0.0000000000
40
0.0000000000
40
0.0000000000
40
0.0000000000
40
0.1305256511
40
0.2588179772
40
0.3826818664
40
0.4999979792
40
0.6087590115
40
0.7071040406
40
0.7933503680
40
0.8660223132
40
0.9238764696
40
0.9659229997
40
0.9914426550
40
1.0000000000
40
1.0000000000
40
1.0000000000
40
1.0000000000
10
16.0250000000
20
0.7503001200
30
0.0000000000
10
16.0162982538
20
0.7503001200
30
0.0000000000
10
15.9990436752
20
0.7502984137
30
0.0000000000
10
15.9735313368
20
0.7502909697
30
0.0000000000
10
15.9489001272
20
0.7502781798
30
0.0000000000
10
15.9255693378
20
0.7502623342
30
0.0000000000
10
15.9039454214
20
0.7502367982
30
0.0000000000
10
15.8843747365
20
0.7502246113
30
0.0000000000
10
15.8672659954
20
0.7501555349
30
0.0000000000
10
15.8526928819
20
0.7502400253
30
0.0000000000
10
15.8415100728
20
0.7498989383
30
0.0000000000
10
15.8324033506
20
0.7505762538
30
0.0000000000
10
15.8286550684
20
0.7492771821
30
0.0000000000
10
15.8250000000
20
0.7505704920
30
0.0000000000
10
15.8250000000
20
0.7500000000
30
0.0000000000
11
16.0250000000
21
0.7503001200
31
0.0000000000
11
15.9988947616
21
0.7502975525
31
0.0000000000
11
15.9732361910
21
0.7502898937
31
0.0000000000
11
15.9484633135
21
0.7502772748
31
0.0000000000
11
15.9250000000
21
0.7502599116
31
0.0000000000
11
15.9032477142
21
0.7502381012
31
0.0000000000
11
15.8835786438
21
0.7502122169
31
0.0000000000
11
15.8663293319
21
0.7501827015
31
0.0000000000
11
15.8517949192
21
0.7501500600
31
0.0000000000
11
15.8402240935
21
0.7501148510
31
0.0000000000
11
15.8318148347
21
0.7500776768
31
0.0000000000
11
15.8267110277
21
0.7500391735
31
0.0000000000
11
15.8250000000
21
0.7500000000
31
0.0000000000
0
SPLINE
5
352
100
AcDbEntity
8
0
100
AcDbSpline
62
9
6
CONTINUOUS
70
0
71
3
72
19
73
15
74
13
42
0.0000001000
43
0.0000001000
44
0.0000000001
12
-0.3052058260
22
-0.0000000000
32
0.0000000000
13
-0.0133319290
23
0.3051134190
33
0.0000000000
40
0.0000000000
40
0.0000000000
40
0.0000000000
40
0.0000000000
40
0.0857167367
40
0.1714333632
40
0.2571497766
40
0.3428658888
40
0.4285816321
40
0.5142969639
40
0.6000118696
40
0.6857263639
40
0.7714404892
40
0.8571543133
40
0.9428679243
40
1.0000000000
40
1.0000000000
40
1.0000000000
40
1.0000000000
10
16.0250000000
20
0.1475790882
30
0.0000000000
10
16.0162795842
20
0.1475790882
30
0.0000000000
10
15.9988172368
20
0.1487229903
30
0.0000000000
10
15.9730889578
20
0.1538411923
30
0.0000000000
10
15.9482442645
20
0.1622741699
30
0.0000000000
10
15.9247141179
20
0.1738776345
30
0.0000000000
10
15.9028995541
20
0.1884530470
30
0.0000000000
10
15.8831742476
20
0.2057510281
30
0.0000000000
10
15.8658755921
20
0.2254755756
30
0.0000000000
10
15.8512996039
20
0.2472893108
30
0.0000000000
10
15.8396956760
20
0.2708185741
30
0.0000000000
10
15.8312623587
20
0.2956623439
30
0.0000000000
10
15.8267128645
20
0.3185300588
30
0.0000000000
10
15.8254445071
20
0.3330373512
30
0.0000000000
10
15.8251906135
20
0.3388479388
30
0.0000000000
11
16.0250000000
21
0.1475790882
31
0.0000000000
11
15.9988947616
21
0.1492900508
31
0.0000000000
11
15.9732361910
21
0.1543936635
31
0.0000000000
11
15.9484633135
21
0.1628026020
31
0.0000000000
11
15.9250000000
21
0.1743729872
31
0.0000000000
11
15.9032477142
21
0.1889068465
31
0.0000000000
11
15.8835786438
21
0.2061555015
31
0.0000000000
11
15.8663293319
21
0.2258238230
31
0.0000000000
11
15.8517949192
21
0.2475752805
31
0.0000000000
11
15.8402240935
21
0.2710377006
31
0.0000000000
11
15.8318148347
21
0.2958096348
31
0.0000000000
11
15.8267110277
21
0.3214672284
31
0.0000000000
11
15.8251906135
21
0.3388479388
31
0.0000000000
0
SPLINE
5
353
100
AcDbEntity
8
0
100
AcDbSpline
62
9
6
CONTINUOUS
70
0
71
3
72
8
73
4
74
2
42
0.0000001000
43
0.0000001000
44
0.0000000001
12
-0.0003810455
22
0.0087205763
32
0.0000000000
13
0.0000000000
23
0.0087232175
33
0.0000000000
40
0.0000000000
40
0.0000000000
40
0.0000000000
40
0.0000000000
40
1.0000000000
40
1.0000000000
40
1.0000000000
40
1.0000000000
10
15.8251906135
20
0.3388479388
30
0.0000000000
10
15.8250635983
20
0.3417547976
30
0.0000000000
10
15.8250000000
20
0.3446637337
30
0.0000000000
10
15.8250000000
20
0.3475714728
30
0.0000000000
11
15.8251906135
21
0.3388479388
31
0.0000000000
11
15.8250000000
21
0.3475714728
31
0.0000000000
0
SPLINE
5
354
100
AcDbEntity
8
0
100
AcDbSpline
62
9
6
CONTINUOUS
70
0
71
3
72
24
73
20
74
18
42
0.0000001000
43
0.0000001000
44
0.0000000001
12
0.0000031366
22
0.7850974797
32
0.0000000000
13
-0.7850974795
23
-0.0000184805
33
0.0000000000
40
0.0000000000
40
0.0000000000
40
0.0000000000
40
0.0000000000
40
0.0583496867
40
0.1171109429
40
0.1760967183
40
0.2351223062
40
0.2940371088
40
0.3528706794
40
0.4117243036
40
0.4706208761
40
0.5295291806
40
0.5884207045
40
0.6472646576
40
0.7060853787
40
0.7649849987
40
0.8239914499
40
0.8829524113
40
0.9416837936
40
1.0000000000
40
1.0000000000
40
1.0000000000
40
1.0000000000
10
-6.6269925560
20
0.7980264825
30
0.0000000000
10
-6.6269924950
20
0.8132965465
30
0.0000000000
10
-6.6283979251
20
0.8439628920
30
0.0000000000
10
-6.6347369894
20
0.8896721917
30
0.0000000000
10
-6.6453109487
20
0.9347776834
30
0.0000000000
10
-6.6600271729
20
0.9787480110
30
0.0000000000
10
-6.6787315814
20
1.0211320222
30
0.0000000000
10
-6.7012484493
20
1.0615678047
30
0.0000000000
10
-6.7273990997
20
1.0997485594
30
0.0000000000
10
-6.7569768717
20
1.1353660278
30
0.0000000000
10
-6.7897262296
20
1.1681051520
30
0.0000000000
10
-6.8253498100
20
1.1976694995
30
0.0000000000
10
-6.8635322281
20
1.2238048820
30
0.0000000000
10
-6.9039654115
20
1.2463060266
30
0.0000000000
10
-6.9463425684
20
1.2649952343
30
0.0000000000
10
-6.9903011659
20
1.2796975009
30
0.0000000000
10
-7.0353894586
20
1.2902597452
30
0.0000000000
10
-7.0810764884
20
1.2965906395
30
0.0000000000
10
-7.1117262460
20
1.2979937725
30
0.0000000000
10
-7.1269875483
20
1.2979934133
30
0.0000000000
11
-6.6269925560
21
0.7980264825
31
0.0000000000
11
-6.6290906280
21
0.8437886042
31
0.0000000000
11
-6.6354273928
21
0.8894846443
31
0.0000000000
11
-6.6459973028
21
0.9345718325
31
0.0000000000
11
-6.6607049647
21
0.9785167772
31
0.0000000000
11
-6.6793795746
21
1.0208331899
31
0.0000000000
11
-6.7018515220
21
1.0611883112
31
0.0000000000
11
-6.7279615595
21
1.0993097599
31
0.0000000000
11
-6.7575023750
21
1.1348827309
31
0.0000000000
11
-6.7902102915
21
1.1675804392
31
0.0000000000
11
-6.8257892818
21
1.1971077986
31
0.0000000000
11
-6.8639120932
21
1.2232024066
31
0.0000000000
11
-6.9042644488
21
1.2456585815
31
0.0000000000
11
-6.9465744414
21
1.2643182126
31
0.0000000000
11
-6.9905081531
21
1.2790120962
31
0.0000000000
11
-7.0355780796
21
1.2895702819
31
0.0000000000
11
-7.0812515791
21
1.2958988409
31
0.0000000000
11
-7.1269875483
21
1.2979934133
31
0.0000000000
0
SPLINE
5
355
100
AcDbEntity
8
0
100
AcDbSpline
62
9
6
CONTINUOUS
70
0
71
3
72
23
73
19
74
17
42
0.0000001000
43
0.0000001000
44
0.0000000001
12
-0.4999425323
22
-0.0000035447
32
0.0000000000
13
-0.4823516864
23
-0.1314510793
33
0.0000000000
40
0.0000000000
40
0.0000000000
40
0.0000000000
40
0.0000000000
40
0.0969480272
40
0.1929740629
40
0.2871862638
40
0.3786927149
40
0.4666331520
40
0.5501796516
40
0.6285447301
40
0.7009902918
40
0.7668344010
40
0.8254571952
40
0.8763064601
40
0.9189030814
40
0.9528464265
40
0.9778176499
40
0.9935821485
40
1.0000000000
40
1.0000000000
40
1.0000000000
40
1.0000000000
10
-21.8341602573
20
0.3977684537
30
0.0000000000
10
-21.8503164047
20
0.3977683391
30
0.0000000000
10
-21.8824750524
20
0.3977607134
30
0.0000000000
10
-21.9303339183
20
0.3977271064
30
0.0000000000
10
-21.9772859383
20
0.3976716854
30
0.0000000000
10
-22.0228904822
20
0.3975949904
30
0.0000000000
10
-22.0667175687
20
0.3974977590
30
0.0000000000
10
-22.1083546289
20
0.3973809857
30
0.0000000000
10
-22.1474094152
20
0.3972456990
30
0.0000000000
10
-22.1835141285
20
0.3970936890
30
0.0000000000
10
-22.2163284970
20
0.3969251138
30
0.0000000000
10
-22.2455445081
20
0.3967462262
30
0.0000000000
10
-22.2708839508
20
0.3965453825
30
0.0000000000
10
-22.2921169632
20
0.3963652447
30
0.0000000000
10
-22.3090193982
20
0.3960982324
30
0.0000000000
10
-22.3214932241
20
0.3960278736
30
0.0000000000
10
-22.3292915174
20
0.3955680539
30
0.0000000000
10
-22.3330521908
20
0.3957071536
30
0.0000000000
10
-22.3340840780
20
0.3954259424
30
0.0000000000
11
-21.8341602573
21
0.3977684537
31
0.0000000000
11
-21.8826286982
21
0.3977569021
31
0.0000000000
11
-21.9306361857
21
0.3977230318
31
0.0000000000
11
-21.9777368388
21
0.3976671601
31
0.0000000000
11
-22.0234847404
21
0.3975898169
31
0.0000000000
11
-22.0674497958
21
0.3974917304
31
0.0000000000
11
-22.1092180779
21
0.3973738264
31
0.0000000000
11
-22.1483958756
21
0.3972372180
31
0.0000000000
11
-22.1846141656
21
0.3970831949
31
0.0000000000
11
-22.2175319974
21
0.3969132095
31
0.0000000000
11
-22.2468394458
21
0.3967288648
31
0.0000000000
11
-22.2722603931
21
0.3965319004
31
0.0000000000
11
-22.2935552427
21
0.3963241745
31
0.0000000000
11
-22.3105235831
21
0.3961076478
31
0.0000000000
11
-22.3230057626
21
0.3958843499
31
0.0000000000
11
-22.3308838092
21
0.3956564149
31
0.0000000000
11
-22.3340840780
21
0.3954259424
31
0.0000000000
0
SPLINE
5
356
100
AcDbEntity
8
0
100
AcDbSpline
62
9
6
CONTINUOUS
70
0
71
3
72
10
73
6
74
4
42
0.0000001000
43
0.0000001000
44
0.0000000001
12
-0.0001262690
22
9.1022317153
32
0.0000000000
13
-0.0030162464
23
9.1022312164
33
0.0000000000
40
0.0000000000
40
0.0000000000
40
0.0000000000
40
0.0000000000
40
0.3333526957
40
0.6666869330
40
1.0000000000
40
1.0000000000
40
1.0000000000
40
1.0000000000
10
-21.8341602573
20
0.3977684534
30
0.0000000000
10
-21.8341742880
20
1.4091862800
30
0.0000000000
10
-21.8343093731
20
3.4319659287
30
0.0000000000
10
-21.8348330725
20
6.4660431273
30
0.0000000000
10
-21.8353962666
20
8.4887024655
30
0.0000000000
10
-21.8357313847
20
9.5000000000
30
0.0000000000
11
-21.8341602573
21
0.3977684534
31
0.0000000000
11
-21.8343628944
21
3.4320219266
31
0.0000000000
11
-21.8348866048
21
6.4661073474
31
0.0000000000
11
-21.8357313847
21
9.5000000000
31
0.0000000000
0
SPLINE
5
357
100
AcDbEntity
8
0
100
AcDbSpline
62
9
6
CONTINUOUS
70
0
71
3
72
10
73
6
74
4
42
0.0000001000
43
0.0000001000
44
0.0000000001
12
-0.0001256780
22
9.0950742265
32
0.0000000000
13
-0.0030168915
23
9.0950737270
33
0.0000000000
40
0.0000000000
40
0.0000000000
40
0.0000000000
40
0.0000000000
40
0.3333523826
40
0.6666867781
40
1.0000000000
40
1.0000000000
40
1.0000000000
40
1.0000000000
10
-22.3340840780
20
0.3954259424
30
0.0000000000
10
-22.3340980430
20
1.4060474968
30
0.0000000000
10
-22.3342330424
20
3.4272360745
30
0.0000000000
10
-22.3347567505
20
6.4589274435
30
0.0000000000
10
-22.3353200423
20
8.4799972242
30
0.0000000000
10
-22.3356552323
20
9.4905000000
30
0.0000000000
11
-22.3340840780
21
0.3954259424
31
0.0000000000
11
-22.3342865864
21
3.4272905991
31
0.0000000000
11
-22.3348103057
21
6.4589916235
31
0.0000000000
11
-22.3356552323
21
9.4905000000
31
0.0000000000
0
SPLINE
5
358
100
AcDbEntity
8
0
100
AcDbSpline
62
9
6
CONTINUOUS
70
0
71
3
72
22
73
18
74
16
42
0.0000001000
43
0.0000001000
44
0.0000000001
12
0.3383259846
22
0.3684496650
32
0.0000000000
13
0.5002195517
23
0.0001658660
33
0.0000000000
40
0.0000000000
40
0.0000000000
40
0.0000000000
40
0.0000000000
40
0.0074214242
40
0.0253154709
40
0.0536084287
40
0.0920197829
40
0.1401463892
40
0.1974767512
40
0.2633990287
40
0.3372084836
40
0.4181154124
40
0.5052537950
40
0.5976906748
40
0.6944362151
40
0.7944543416
40
0.8966738698
40
1.0000000000
40
1.0000000000
40
1.0000000000
40
1.0000000000
10
-22.3356552323
20
9.4905000000
30
0.0000000000
10
-22.3348182787
20
9.4914114738
30
0.0000000000
10
-22.3300146338
20
9.4914365540
30
0.0000000000
10
-22.3216496552
20
9.4928695013
30
0.0000000000
10
-22.3072877209
20
9.4934503773
30
0.0000000000
10
-22.2882804977
20
9.4944651569
30
0.0000000000
10
-22.2642618616
20
9.4952711913
30
0.0000000000
10
-22.2357131525
20
9.4960999078
30
0.0000000000
10
-22.2028584453
20
9.4968507727
30
0.0000000000
10
-22.1660772547
20
9.4975444637
30
0.0000000000
10
-22.1257545997
20
9.4981628659
30
0.0000000000
10
-22.0823252764
20
9.4987018799
30
0.0000000000
10
-22.0362537171
20
9.4991544429
30
0.0000000000
10
-21.9880337848
20
9.4995157501
30
0.0000000000
10
-21.9381820377
20
9.4997816959
30
0.0000000000
10
-21.8872326194
20
9.4999493561
30
0.0000000000
10
-21.8529599682
20
9.4999942872
30
0.0000000000
10
-21.8357313847
20
9.5000000000
30
0.0000000000
11
-22.3356552323
21
9.4905000000
31
0.0000000000
11
-22.3320751754
21
9.4914821781
31
0.0000000000
11
-22.3231771173
21
9.4924538327
31
0.0000000000
11
-22.3090563948
21
9.4934045533
31
0.0000000000
11
-22.2898643023
21
9.4943241535
31
0.0000000000
11
-22.2658064705
21
9.4952027804
31
0.0000000000
11
-22.2371406636
21
9.4960310200
31
0.0000000000
11
-22.2041740171
21
9.4967999984
31
0.0000000000
11
-22.1672597471
21
9.4975014764
31
0.0000000000
11
-22.1267933660
21
9.4981279381
31
0.0000000000
11
-22.0832084449
21
9.4986726714
31
0.0000000000
11
-22.0369719679
21
9.4991298398
31
0.0000000000
11
-21.9885793287
21
9.4994945451
31
0.0000000000
11
-21.9385490231
21
9.4997628797
31
0.0000000000
11
-21.8874170933
21
9.4999319685
31
0.0000000000
11
-21.8357313847
21
9.5000000000
31
0.0000000000
0
SPLINE
5
359
100
AcDbEntity
8
0
100
AcDbSpline
62
9
6
CONTINUOUS
70
0
71
3
72
14
73
10
74
8
42
0.0000001000
43
0.0000001000
44
0.0000000001
12
-0.0038629501
22
11.7107319604
32
0.0000000000
13
-0.0306549600
23
11.7106924750
33
0.0000000000
40
0.0000000000
40
0.0000000000
40
0.0000000000
40
0.0000000000
40
0.1434088633
40
0.2867169135
40
0.4298742344
40
0.5728309521
40
0.7155372777
40
0.8579434943
40
1.0000000000
40
1.0000000000
40
1.0000000000
40
1.0000000000
10
-21.8357313847
20
9.5000000000
30
0.0000000000
10
-21.8359160451
20
10.0598075864
30
0.0000000000
10
-21.8364665785
20
11.1790291761
30
0.0000000000
10
-21.8378364426
20
12.8570760482
30
0.0000000000
10
-21.8397496972
20
14.5333574041
30
0.0000000000
10
-21.8422056756
20
16.2072891708
30
0.0000000000
10
-21.8452035216
20
17.8782880572
30
0.0000000000
10
-21.8487421894
20
19.5457718288
30
0.0000000000
10
-21.8514646904
20
20.6561908070
30
0.0000000000
10
-21.8529162692
20
21.2107174911
30
0.0000000000
11
-21.8357313847
21
9.5000000000
31
0.0000000000
11
-21.8365576201
21
11.1794226474
31
0.0000000000
11
-21.8379278821
21
12.8576643428
31
0.0000000000
11
-21.8398416937
21
14.5341403548
31
0.0000000000
11
-21.8422983881
21
16.2082664463
31
0.0000000000
11
-21.8452971100
21
17.8794593742
31
0.0000000000
11
-21.8488368146
21
19.5471367410
31
0.0000000000
11
-21.8529162692
21
21.2107174911
31
0.0000000000
0
SPLINE
5
35A
100
AcDbEntity
8
0
100
AcDbSpline
62
9
6
CONTINUOUS
70
0
71
3
72
14
73
10
74
8
42
0.0000001000
43
0.0000001000
44
0.0000000001
12
-0.0038629502
22
11.6456724996
32
0.0000000000
13
-0.0306549592
23
11.6456327936
33
0.0000000000
40
0.0000000000
40
0.0000000000
40
0.0000000000
40
0.0000000000
40
0.1434087314
40
0.2867168218
40
0.4298741836
40
0.5728309429
40
0.7155373108
40
0.8579435705
40
1.0000000000
40
1.0000000000
40
1.0000000000
40
1.0000000000
10
-22.3356552323
20
9.4905000000
30
0.0000000000
10
-22.3358398925
20
10.0471970397
30
0.0000000000
10
-22.3363904255
20
11.1602003905
30
0.0000000000
10
-22.3377602891
20
12.8289246011
30
0.0000000000
10
-22.3396735440
20
14.4958937718
30
0.0000000000
10
-22.3421295231
20
16.1605264066
30
0.0000000000
10
-22.3451273700
20
17.8222424533
30
0.0000000000
10
-22.3486660381
20
19.4804624442
30
0.0000000000
10
-22.3513885388
20
20.5847122784
30
0.0000000000
10
-22.3528401168
20
21.1361579495
30
0.0000000000
11
-22.3356552323
21
9.4905000000
31
0.0000000000
11
-22.3364814667
21
11.1605910065
31
0.0000000000
11
-22.3378517287
21
12.8295096241
31
0.0000000000
11
-22.3397655406
21
14.4966723687
31
0.0000000000
11
-22.3422222356
21
16.1614982482
31
0.0000000000
11
-22.3452209584
21
17.8234072583
31
0.0000000000
11
-22.3487606643
21
19.4818202344
31
0.0000000000
11
-22.3528401168
21
21.1361579495
31
0.0000000000
0
SPLINE
5
35B
100
AcDbEntity
8
0
100
AcDbSpline
62
9
6
CONTINUOUS
70
0
71
3
72
22
73
18
74
16
42
0.0000001000
43
0.0000001000
44
0.0000000001
12
0.0591138684
22
0.5108754439
32
0.0000000000
13
0.5142824287
23
0.0013236500
33
0.0000000000
40
0.0000000000
40
0.0000000000
40
0.0000000000
40
0.0000000000
40
0.0165205715
40
0.0392968720
40
0.0703415218
40
0.1102029685
40
0.1588601991
40
0.2160113717
40
0.2811781018
40
0.3537518402
40
0.4330195652
40
0.5181813030
40
0.6083642356
40
0.7026353871
40
0.8000137619
40
0.8994823277
40
1.0000000000
40
1.0000000000
40
1.0000000000
40
1.0000000000
10
-22.3528401168
20
21.1361579495
30
0.0000000000
10
-22.3525145852
20
21.1389712676
30
0.0000000000
10
-22.3490649365
20
21.1452475349
30
0.0000000000
10
-22.3393971436
20
21.1526229966
30
0.0000000000
10
-22.3250181629
20
21.1599005705
30
0.0000000000
10
-22.3057257493
20
21.1669100715
30
0.0000000000
10
-22.2816698663
20
21.1736672968
30
0.0000000000
10
-22.2530530117
20
21.1800537753
30
0.0000000000
10
-22.2201698995
20
21.1860023531
30
0.0000000000
10
-22.1833625072
20
21.1914381942
30
0.0000000000
10
-22.1430213069
20
21.1962994730
30
0.0000000000
10
-22.0995758140
20
21.2005304339
30
0.0000000000
10
-22.0534900695
20
21.2040836164
30
0.0000000000
10
-22.0052569136
20
21.2069193710
30
0.0000000000
10
-21.9553924928
20
21.2090062779
30
0.0000000000
10
-21.9044308172
20
21.2103212990
30
0.0000000000
10
-21.8701477601
20
21.2106731351
30
0.0000000000
10
-21.8529162692
20
21.2107174852
30
0.0000000000
11
-22.3528401168
21
21.1361579495
31
0.0000000000
11
-22.3492692114
21
21.1438673723
31
0.0000000000
11
-22.3403788934
21
21.1514941733
31
0.0000000000
11
-22.3262644403
21
21.1589566159
31
0.0000000000
11
-22.3070771167
21
21.1661747253
31
0.0000000000
11
-22.2830225530
21
21.1730711449
31
0.0000000000
11
-22.2543585418
21
21.1795719659
31
0.0000000000
11
-22.2213922754
21
21.1856075190
31
0.0000000000
11
-22.1844770530
21
21.1911131212
31
0.0000000000
11
-22.1440084950
21
21.1960297690
31
0.0000000000
11
-22.1004203027
21
21.2003047707
31
0.0000000000
11
-22.0541796106
21
21.2038923111
31
0.0000000000
11
-22.0057819801
21
21.2067539425
31
0.0000000000
11
-21.9557460883
21
21.2088589969
31
0.0000000000
11
-21.9046081697
21
21.2101849144
31
0.0000000000
11
-21.8529162692
21
21.2107174852
31
0.0000000000
0
SPLINE
5
35C
100
AcDbEntity
8
0
100
AcDbSpline
62
9
6
CONTINUOUS
70
0
71
3
72
23
73
19
74
17
42
0.0000001000
43
0.0000001000
44
0.0000000001
12
-0.0011180583
22
0.8496070319
32
0.0000000000
13
-0.1395306679
23
0.8380719250
33
0.0000000000
40
0.0000000000
40
0.0000000000
40
0.0000000000
40
0.0000000000
40
0.0988005711
40
0.1955925435
40
0.2896728020
40
0.3803505691
40
0.4669636683
40
0.5488791748
40
0.6254973164
40
0.6962576545
40
0.7606430518
40
0.8181829484
40
0.8684565293
40
0.9110960841
40
0.9457907465
40
0.9722883956
40
0.9903979433
40
1.0000000000
40
1.0000000000
40
1.0000000000
40
1.0000000000
10
-21.8529162692
20
21.2107174911
30
0.0000000000
10
-21.8529530908
20
21.2386980444
30
0.0000000000
10
-21.8530469507
20
21.2940902862
30
0.0000000000
10
-21.8532504552
20
21.3761261298
30
0.0000000000
10
-21.8535141196
20
21.4558613920
30
0.0000000000
10
-21.8538359100
20
21.5327137342
30
0.0000000000
10
-21.8542134295
20
21.6061206913
30
0.0000000000
10
-21.8546437829
20
21.6755455667
30
0.0000000000
10
-21.8551237084
20
21.7404804571
30
0.0000000000
10
-21.8556493550
20
21.8004502677
30
0.0000000000
10
-21.8562169023
20
21.8550163707
30
0.0000000000
10
-21.8568205202
20
21.9037799808
30
0.0000000000
10
-21.8574584798
20
21.9463835344
30
0.0000000000
10
-21.8581139483
20
21.9825177373
30
0.0000000000
10
-21.8588090646
20
22.0119119409
30
0.0000000000
10
-21.8594533823
20
22.0343692160
30
0.0000000000
10
-21.8602060811
20
22.0496887841
30
0.0000000000
10
-21.8606428638
20
22.0575455379
30
0.0000000000
10
-21.8610894575
20
22.0602279426
30
0.0000000000
11
-21.8529162692
21
21.2107174911
31
0.0000000000
11
-21.8530590269
21
21.2946591024
31
0.0000000000
11
-21.8532638430
21
21.3768940589
31
0.0000000000
11
-21.8535292499
21
21.4568249367
31
0.0000000000
11
-21.8538532821
21
21.5338647905
31
0.0000000000
11
-21.8542335831
21
21.6074509696
31
0.0000000000
11
-21.8546673703
21
21.6770456683
31
0.0000000000
11
-21.8551514705
21
21.7421392365
31
0.0000000000
11
-21.8556823412
21
21.8022554255
31
0.0000000000
11
-21.8562561020
21
21.8569547500
31
0.0000000000
11
-21.8568685593
21
21.9058372564
31
0.0000000000
11
-21.8575152321
21
21.9485451857
31
0.0000000000
11
-21.8581913877
21
21.9847657721
31
0.0000000000
11
-21.8588920750
21
22.0142342976
31
0.0000000000
11
-21.8596122009
21
22.0367353856
31
0.0000000000
11
-21.8603464177
21
22.0521038697
31
0.0000000000
11
-21.8610894575
21
22.0602279426
31
0.0000000000
0
SPLINE
5
35D
100
AcDbEntity
8
0
100
AcDbSpline
62
9
6
CONTINUOUS
70
0
71
3
72
23
73
19
74
17
42
0.0000001000
43
0.0000001000
44
0.0000000001
12
-0.0011186693
22
0.4249478805
32
0.0000000000
13
-0.1342577873
23
0.4031833319
33
0.0000000000
40
0.0000000000
40
0.0000000000
40
0.0000000000
40
0.0000000000
40
0.0987421428
40
0.1955063834
40
0.2895605726
40
0.3802142272
40
0.4668055224
40
0.5487018804
40
0.6253038916
40
0.6960513909
40
0.7604277596
40
0.8179631433
40
0.8682376721
40
0.9108850065
40
0.9455965400
40
0.9721243124
40
0.9902873974
40
1.0000000000
40
1.0000000000
40
1.0000000000
40
1.0000000000
10
-22.3528401168
20
21.1361579495
30
0.0000000000
10
-22.3528769368
20
21.1501447043
30
0.0000000000
10
-22.3529707651
20
21.1778379954
30
0.0000000000
10
-22.3531742654
20
21.2188537001
30
0.0000000000
10
-22.3534379156
20
21.2587233078
30
0.0000000000
10
-22.3537597200
20
21.2971514465
30
0.0000000000
10
-22.3541372467
20
21.3338568393
30
0.0000000000
10
-22.3545676197
20
21.3685711008
30
0.0000000000
10
-22.3550475638
20
21.4010402093
30
0.0000000000
10
-22.3555732483
20
21.4310265958
30
0.0000000000
10
-22.3561407965
20
21.4583108141
30
0.0000000000
10
-22.3567445557
20
21.4826938164
30
0.0000000000
10
-22.3573822573
20
21.5039958850
30
0.0000000000
10
-22.3580387019
20
21.5220655229
30
0.0000000000
10
-22.3587314765
20
21.5367593472
30
0.0000000000
10
-22.3593822622
20
21.5480022592
30
0.0000000000
10
-22.3601233068
20
21.5556473020
30
0.0000000000
10
-22.3605786409
20
21.5596078554
30
0.0000000000
10
-22.3610133051
20
21.5609131753
30
0.0000000000
11
-22.3528401168
21
21.1361579495
31
0.0000000000
11
-22.3529828288
21
21.1781181165
31
0.0000000000
11
-22.3531876470
21
21.2192375078
31
0.0000000000
11
-22.3534530490
21
21.2592048935
31
0.0000000000
11
-22.3537770887
21
21.2977267425
31
0.0000000000
11
-22.3541573990
21
21.3345216920
31
0.0000000000
11
-22.3545912022
21
21.3693207926
31
0.0000000000
11
-22.3550753228
21
21.4018691675
31
0.0000000000
11
-22.3556062176
21
21.4319285837
31
0.0000000000
11
-22.3561800052
21
21.4592792619
31
0.0000000000
11
-22.3567924914
21
21.4837212130
31
0.0000000000
11
-22.3574391951
21
21.5050755512
31
0.0000000000
11
-22.3581153802
21
21.5231858894
31
0.0000000000
11
-22.3588161038
21
21.5379198799
31
0.0000000000
11
-22.3595362477
21
21.5491698139
31
0.0000000000
11
-22.3602705225
21
21.5568531988
31
0.0000000000
11
-22.3610133051
21
21.5609131753
31
0.0000000000
0
SPLINE
5
35E
100
AcDbEntity
8
0
100
AcDbSpline
62
7
6
CONTINUOUS
70
0
71
3
72
25
73
21
74
19
42
0.0000001000
43
0.0000001000
44
0.0000000001
12
0.0000000000
22
0.7847257664
32
0.0000000000
13
0.7847256847
23
0.0003579158
33
0.0000000000
40
0.0000000000
40
0.0000000000
40
0.0000000000
40
0.0000000000
40
0.0557571654
40
0.1112369082
40
0.1667300381
40
0.2222361309
40
0.2777546003
40
0.3332846765
40
0.3888253903
40
0.4443755632
40
0.4999338037
40
0.5554985104
40
0.6110678811
40
0.6666399283
40
0.7222125001
40
0.7777833063
40
0.8333499483
40
0.8889099526
40
0.9444608061
40
1.0000000000
40
1.0000000000
40
1.0000000000
40
1.0000000000
10
-22.4250000000
20
21.7525720450
30
0.0000000000
10
-22.4250000000
20
21.7671567398
30
0.0000000000
10
-22.4237218067
20
21.7962697738
30
0.0000000000
10
-22.4179989151
20
21.8395582589
30
0.0000000000
10
-22.4085367532
20
21.8821220775
30
0.0000000000
10
-22.3953958156
20
21.9237073009
30
0.0000000000
10
-22.3786749968
20
21.9639974160
30
0.0000000000
10
-22.3585008220
20
22.0026841861
30
0.0000000000
10
-22.3350264836
20
22.0394719997
30
0.0000000000
10
-22.3084306537
20
22.0740796740
30
0.0000000000
10
-22.2789160949
20
22.1062427980
30
0.0000000000
10
-22.2467080768
20
22.1357157678
30
0.0000000000
10
-22.2120526166
20
22.1622737179
30
0.0000000000
10
-22.1752145411
20
22.1857142736
30
0.0000000000
10
-22.1364754461
20
22.2058591270
30
0.0000000000
10
-22.0961313527
20
22.2225554187
30
0.0000000000
10
-22.0544908854
20
22.2356769157
30
0.0000000000
10
-22.0118709841
20
22.2451249768
30
0.0000000000
10
-21.9686013862
20
22.2508292937
30
0.0000000000
10
-21.9395276773
20
22.2521088641
30
0.0000000000
10
-21.9250000000
20
22.2521154903
30
0.0000000000
11
-22.4250000000
21
21.7525720450
31
0.0000000000
11
-22.4230804638
21
21.7962840031
31
0.0000000000
11
-22.4173749510
21
21.8394449093
31
0.0000000000
11
-22.4079249400
21
21.8819540710
31
0.0000000000
11
-22.3948008280
21
21.9234868926
31
0.0000000000
11
-22.3781013589
21
21.9637260709
31
0.0000000000
11
-22.3579528768
21
22.0023640849
31
0.0000000000
11
-22.3345083574
21
22.0391056084
31
0.0000000000
11
-22.3079462258
21
22.0736698281
31
0.0000000000
11
-22.2784689701
21
22.1057926473
31
0.0000000000
11
-22.2463015620
21
22.1352287551
31
0.0000000000
11
-22.2116896978
21
22.1617535478
31
0.0000000000
11
-22.1748978734
21
22.1851648827
31
0.0000000000
11
-22.1362073101
21
22.2052846532
31
0.0000000000
11
-22.0959137482
21
22.2219601706
31
0.0000000000
11
-22.0543251258
21
22.2350653417
31
0.0000000000
11
-22.0117591630
21
22.2445016339
31
0.0000000000
11
-21.9685408710
21
22.2501988190
31
0.0000000000
11
-21.9250000000
21
22.2521154903
31
0.0000000000
0
SPLINE
5
35F
100
AcDbEntity
8
0
100
AcDbSpline
62
7
6
CONTINUOUS
70
0
71
3
72
20
73
16
74
14
42
0.0000001000
43
0.0000001000
44
0.0000000001
12
0.3924242919
22
0.0000298841
32
0.0000000000
13
0.0000000000
23
0.3924242930
33
0.0000000000
40
0.0000000000
40
0.0000000000
40
0.0000000000
40
0.0000000000
40
0.0769313053
40
0.1538602671
40
0.2307873597
40
0.3077130228
40
0.3846376701
40
0.4615617001
40
0.5384855082
40
0.6154094983
40
0.6923340960
40
0.7692597596
40
0.8461869908
40
0.9231163428
40
1.0000000000
40
1.0000000000
40
1.0000000000
40
1.0000000000
10
22.0250000000
20
0.0999999993
30
0.0000000000
10
22.0350632377
20
0.1000007656
30
0.0000000000
10
22.0552104856
20
0.1012204201
30
0.0000000000
10
22.0849732135
20
0.1066773633
30
0.0000000000
10
22.1138651201
20
0.1156818388
30
0.0000000000
10
22.1414594912
20
0.1281023492
30
0.0000000000
10
22.1673558478
20
0.1437577158
30
0.0000000000
10
22.1911764802
20
0.1624197077
30
0.0000000000
10
22.2125744158
20
0.1838163688
30
0.0000000000
10
22.2312377766
20
0.2076359156
30
0.0000000000
10
22.2468945314
20
0.2335314386
30
0.0000000000
10
22.2593162326
20
0.2611252705
30
0.0000000000
10
22.2683219768
20
0.2900169415
30
0.0000000000
10
22.2737775582
20
0.3197735012
30
0.0000000000
10
22.2750000000
20
0.3399144384
30
0.0000000000
10
22.2750000000
20
0.3499714434
30
0.0000000000
11
22.0250000000
21
0.0999999993
31
0.0000000000
11
22.0551344982
21
0.1018250460
31
0.0000000000
11
22.0848284339
21
0.1072687056
31
0.0000000000
11
22.1136491275
21
0.1162512767
31
0.0000000000
11
22.1411766661
21
0.1286415838
31
0.0000000000
11
22.1670099941
21
0.1442588880
31
0.0000000000
11
22.1907727306
21
0.1628755139
31
0.0000000000
11
22.2121186301
21
0.1842201552
31
0.0000000000
11
22.2307366084
21
0.2079818122
31
0.0000000000
11
22.2463552592
21
0.2338143033
31
0.0000000000
11
22.2587467982
21
0.2613412877
31
0.0000000000
11
22.2677303753
21
0.2901617247
31
0.0000000000
11
22.2731747085
21
0.3198556926
31
0.0000000000
11
22.2750000000
21
0.3499714434
31
0.0000000000
0
SPLINE
5
360
100
AcDbEntity
8
0
100
AcDbSpline
62
9
6
CONTINUOUS
70
0
71
3
72
20
73
16
74
14
42
0.0000001000
43
0.0000001000
44
0.0000000001
12
0.3924039430
22
0.0000597696
32
0.0000000000
13
0.0000597559
23
0.3924039430
33
0.0000000000
40
0.0000000000
40
0.0000000000
40
0.0000000000
40
0.0000000000
40
0.0769156661
40
0.1538329592
40
0.2307519976
40
0.3076727983
40
0.3845952761
40
0.4615192481
40
0.5384444452
40
0.6153705267
40
0.6922971008
40
0.7692237471
40
0.8461500411
40
0.9230755788
40
1.0000000000
40
1.0000000000
40
1.0000000000
40
1.0000000000
10
21.9341221542
20
0.1454354616
30
0.0000000000
10
21.9441828244
20
0.1454369940
30
0.0000000000
10
21.9643253593
20
0.1466579646
30
0.0000000000
10
21.9940815305
20
0.1521162993
30
0.0000000000
10
22.0229680582
20
0.1611219473
30
0.0000000000
10
22.0505580280
20
0.1735436040
30
0.0000000000
10
22.0764507435
20
0.1892001640
30
0.0000000000
10
22.1002682955
20
0.2078633581
30
0.0000000000
10
22.1216635557
20
0.2292610942
30
0.0000000000
10
22.1403245703
20
0.2530813772
30
0.0000000000
10
22.1559792864
20
0.2789770356
30
0.0000000000
10
22.1683994692
20
0.3065701171
30
0.0000000000
10
22.1774040425
20
0.3354598821
30
0.0000000000
10
22.1828617231
20
0.3652193756
30
0.0000000000
10
22.1840825457
20
0.3853641270
30
0.0000000000
10
22.1840840780
20
0.3954259424
30
0.0000000000
11
21.9341221542
21
0.1454354616
31
0.0000000000
11
21.9642488210
21
0.1472624086
31
0.0000000000
11
21.9939362594
21
0.1527074365
31
0.0000000000
11
22.0227516438
21
0.1616911602
31
0.0000000000
11
22.0502748625
21
0.1740826028
31
0.0000000000
11
22.0761046427
21
0.1897011046
31
0.0000000000
11
22.0998644009
21
0.2083189572
31
0.0000000000
11
22.1212077330
21
0.2296647235
31
0.0000000000
11
22.1398234651
21
0.2534271946
31
0.0000000000
11
22.1554401900
21
0.2792599275
31
0.0000000000
11
22.1678302243
21
0.3067862957
31
0.0000000000
11
22.1768129280
21
0.3356049803
31
0.0000000000
11
22.1822573381
21
0.3652958212
31
0.0000000000
11
22.1840840780
21
0.3954259424
31
0.0000000000
0
SPLINE
5
361
100
AcDbEntity
8
0
100
AcDbSpline
62
9
6
CONTINUOUS
70
0
71
3
72
22
73
18
74
16
42
0.0000001000
43
0.0000001000
44
0.0000000001
12
0.0007171661
22
0.7842144221
32
0.0000000000
13
0.7842144237
23
0.0007154196
33
0.0000000000
40
0.0000000000
40
0.0000000000
40
0.0000000000
40
0.0000000000
40
0.0666100513
40
0.1332280974
40
0.1998554123
40
0.2664928652
40
0.3331408822
40
0.3997994284
40
0.4664680092
40
0.5331456922
40
0.5998311483
40
0.6665227095
40
0.7332184418
40
0.7999162294
40
0.8666138671
40
0.9333091561
40
1.0000000000
40
1.0000000000
40
1.0000000000
40
1.0000000000
10
-22.3610133051
20
21.5609131753
30
0.0000000000
10
-22.3609973816
20
21.5783253629
30
0.0000000000
10
-22.3591382249
20
21.6131777045
30
0.0000000000
10
-22.3508991609
20
21.6648592824
30
0.0000000000
10
-22.3372998143
20
21.7154090806
30
0.0000000000
10
-22.3184890724
20
21.7642663845
30
0.0000000000
10
-22.2946728446
20
21.8108985494
30
0.0000000000
10
-22.2661118143
20
21.8547947440
30
0.0000000000
10
-22.2331185773
20
21.8954747767
30
0.0000000000
10
-22.1960542223
20
21.9324934786
30
0.0000000000
10
-22.1553243600
20
21.9654458030
30
0.0000000000
10
-22.1113747456
20
21.9939711899
30
0.0000000000
10
-22.0646861703
20
22.0177575231
30
0.0000000000
10
-22.0157700666
20
22.0365445363
30
0.0000000000
10
-21.9651596898
20
22.0501266609
30
0.0000000000
10
-21.9134163250
20
22.0583552628
30
0.0000000000
10
-21.8785227648
20
22.0602120387
30
0.0000000000
10
-21.8610894575
20
22.0602279426
30
0.0000000000
11
-22.3610133051
21
21.5609131753
31
0.0000000000
11
-22.3582301484
21
21.6130755643
31
0.0000000000
11
-22.3500065411
21
21.6646671150
31
0.0000000000
11
-22.3364324780
21
21.7151232363
31
0.0000000000
11
-22.3176565066
21
21.7638917625
31
0.0000000000
11
-22.2938841016
21
21.8104389959
31
0.0000000000
11
-22.2653754157
21
21.8542555477
31
0.0000000000
11
-22.2324424333
21
21.8948619124
31
0.0000000000
11
-22.1954455560
21
21.9318137147
31
0.0000000000
11
-22.1547896585
21
21.9647065732
31
0.0000000000
11
-22.1109196578
21
21.9931805257
31
0.0000000000
11
-22.0643156445
21
22.0169239677
31
0.0000000000
11
-22.0154876290
21
22.0356770634
31
0.0000000000
11
-21.9649699597
21
22.0492345886
31
0.0000000000
11
-21.9133154759
21
22.0574481768
31
0.0000000000
11
-21.8610894575
21
22.0602279426
31
0.0000000000
0
SPLINE
5
362
100
AcDbEntity
8
0
100
AcDbSpline
62
9
6
CONTINUOUS
70
0
71
3
72
19
73
15
74
13
42
0.0000001000
43
0.0000001000
44
0.0000000001
12
-0.3139155005
22
0.0000239054
32
0.0000000000
13
-0.0000239054
23
0.3139155005
33
0.0000000000
40
0.0000000000
40
0.0000000000
40
0.0000000000
40
0.0000000000
40
0.0833317219
40
0.1666642438
40
0.2499974830
40
0.3333313078
40
0.4166655467
40
0.5000000000
40
0.5833344533
40
0.6666686922
40
0.7500025170
40
0.8333357562
40
0.9166682781
40
1.0000000000
40
1.0000000000
40
1.0000000000
40
1.0000000000
10
-6.4274285272
20
0.1475790882
30
0.0000000000
10
-6.4361482336
20
0.1475797522
30
0.0000000000
10
-6.4536091664
20
0.1487248914
30
0.0000000000
10
-6.4793352609
20
0.1538445779
30
0.0000000000
10
-6.5041779195
20
0.1622786582
30
0.0000000000
10
-6.5277062596
20
0.1738828351
30
0.0000000000
10
-6.5495193181
20
0.1884585744
30
0.0000000000
10
-6.5692434860
20
0.2057565140
30
0.0000000000
10
-6.5865414256
20
0.2254806819
30
0.0000000000
10
-6.6011171649
20
0.2472937404
30
0.0000000000
10
-6.6127213418
20
0.2708220805
30
0.0000000000
10
-6.6211554221
20
0.2956647391
30
0.0000000000
10
-6.6262751086
20
0.3213908336
30
0.0000000000
10
-6.6274202478
20
0.3388517664
30
0.0000000000
10
-6.6274209118
20
0.3475714728
30
0.0000000000
11
-6.4274285272
21
0.1475790882
31
0.0000000000
11
-6.4535315134
21
0.1492918729
31
0.0000000000
11
-6.4791879135
21
0.1543969481
31
0.0000000000
11
-6.5039587819
21
0.1628069730
31
0.0000000000
11
-6.5274203232
21
0.1743780635
31
0.0000000000
11
-6.5491711429
21
0.1889122545
31
0.0000000000
11
-6.5688391142
21
0.2061608858
31
0.0000000000
11
-6.5860877455
21
0.2258288571
31
0.0000000000
11
-6.6006219365
21
0.2475796768
31
0.0000000000
11
-6.6121930270
21
0.2710412181
31
0.0000000000
11
-6.6206030519
21
0.2958120865
31
0.0000000000
11
-6.6257081271
21
0.3214684866
31
0.0000000000
11
-6.6274209118
21
0.3475714728
31
0.0000000000
0
SPLINE
5
363
100
AcDbEntity
8
0
100
AcDbSpline
62
9
6
CONTINUOUS
70
0
71
3
72
20
73
16
74
14
42
0.0000001000
43
0.0000001000
44
0.0000000001
12
-0.1999932692
22
-0.0000042573
32
0.0000000000
13
-0.1967290701
23
-0.0359858408
33
0.0000000000
40
0.0000000000
40
0.0000000000
40
0.0000000000
40
0.0000000000
40
0.1198743484
40
0.2380200079
40
0.3527332150
40
0.4623597042
40
0.5653185699
40
0.6601250644
40
0.7454120075
40
0.8199495032
40
0.8826626788
40
0.9326471919
40
0.9691822920
40
0.9917412974
40
1.0000000000
40
1.0000000000
40
1.0000000000
40
1.0000000000
10
-6.4270001714
20
0.7983458208
30
0.0000000000
10
-6.4349915257
20
0.7983456507
30
0.0000000000
10
-6.4508589923
20
0.7983438383
30
0.0000000000
10
-6.4743737472
20
0.7983368083
30
0.0000000000
10
-6.4972053346
20
0.7983253185
30
0.0000000000
10
-6.5190244938
20
0.7983095448
30
0.0000000000
10
-6.5395166023
20
0.7982899648
30
0.0000000000
10
-6.5583860491
20
0.7982660499
30
0.0000000000
10
-6.5753610352
20
0.7982408967
30
0.0000000000
10
-6.5901957924
20
0.7982064966
30
0.0000000000
10
-6.6026792760
20
0.7981884064
30
0.0000000000
10
-6.6126234980
20
0.7981181980
30
0.0000000000
10
-6.6199049872
20
0.7981697974
30
0.0000000000
10
-6.6243768441
20
0.7979812213
30
0.0000000000
10
-6.6264509804
20
0.7981255479
30
0.0000000000
10
-6.6269925560
20
0.7980264825
30
0.0000000000
11
-6.4270001714
21
0.7983458208
31
0.0000000000
11
-6.4509742341
21
0.7983430816
31
0.0000000000
11
-6.4746025697
21
0.7983359236
31
0.0000000000
11
-6.4975444360
21
0.7983242888
31
0.0000000000
11
-6.5194689902
21
0.7983083470
31
0.0000000000
11
-6.5400600606
21
0.7982883310
31
0.0000000000
11
-6.5590207065
21
0.7982645322
31
0.0000000000
11
-6.5760774993
21
0.7982372954
31
0.0000000000
11
-6.5909844660
21
0.7982070151
31
0.0000000000
11
-6.6035266359
21
0.7981741301
31
0.0000000000
11
-6.6135231408
21
0.7981391166
31
0.0000000000
11
-6.6208298230
21
0.7981024814
31
0.0000000000
11
-6.6253413145
21
0.7980647546
31
0.0000000000
11
-6.6269925560
21
0.7980264825
31
0.0000000000
0
SPLINE
5
364
100
AcDbEntity
8
0
100
AcDbSpline
62
9
6
CONTINUOUS
70
0
71
3
72
19
73
15
74
13
42
0.0000001000
43
0.0000001000
44
0.0000000001
12
0.3139155005
22
0.0000239054
32
0.0000000000
13
0.0000239054
23
0.3139155005
33
0.0000000000
40
0.0000000000
40
0.0000000000
40
0.0000000000
40
0.0000000000
40
0.0833317717
40
0.1666643402
40
0.2499976195
40
0.3333314756
40
0.4166657346
40
0.5000001956
40
0.5833346434
40
0.6666688641
40
0.7500026587
40
0.8333358576
40
0.9166683314
40
1.0000000000
40
1.0000000000
40
1.0000000000
40
1.0000000000
10
-16.2225714728
20
0.1475790882
30
0.0000000000
10
-16.2138517612
20
0.1475797522
30
0.0000000000
10
-16.1963908182
20
0.1487248928
30
0.0000000000
10
-16.1706647103
20
0.1538445850
30
0.0000000000
10
-16.1458220414
20
0.1622786738
30
0.0000000000
10
-16.1222936953
20
0.1738828606
30
0.0000000000
10
-16.1004806358
20
0.1884586095
30
0.0000000000
10
-16.0807564714
20
0.2057565567
30
0.0000000000
10
-16.0634585388
20
0.2254807286
30
0.0000000000
10
-16.0488828089
20
0.2472937864
30
0.0000000000
10
-16.0372786419
20
0.2708221211
30
0.0000000000
10
-16.0288445704
20
0.2956647694
30
0.0000000000
10
-16.0237248900
20
0.3213908498
30
0.0000000000
10
-16.0225797522
20
0.3388517720
30
0.0000000000
10
-16.0225790882
20
0.3475714728
30
0.0000000000
11
-16.2225714728
21
0.1475790882
31
0.0000000000
11
-16.1964684711
21
0.1492918750
31
0.0000000000
11
-16.1708120572
21
0.1543969560
31
0.0000000000
11
-16.1460411784
21
0.1628069894
31
0.0000000000
11
-16.1225796311
21
0.1743780899
31
0.0000000000
11
-16.1008288103
21
0.1889122905
31
0.0000000000
11
-16.0811608423
21
0.2061609293
31
0.0000000000
11
-16.0639122180
21
0.2258289046
31
0.0000000000
11
-16.0493780365
21
0.2475797236
31
0.0000000000
11
-16.0378069559
21
0.2710412593
31
0.0000000000
11
-16.0293969399
21
0.2958121173
31
0.0000000000
11
-16.0242918708
21
0.3214685032
31
0.0000000000
11
-16.0225790882
21
0.3475714728
31
0.0000000000
0
SPLINE
5
365
100
AcDbEntity
8
0
100
AcDbSpline
62
9
6
CONTINUOUS
70
0
71
3
72
20
73
16
74
14
42
0.0000001000
43
0.0000001000
44
0.0000000001
12
0.1999932683
22
-0.0000052254
32
0.0000000000
13
0.1967299645
23
-0.0359809457
33
0.0000000000
40
0.0000000000
40
0.0000000000
40
0.0000000000
40
0.0000000000
40
0.1198743440
40
0.2380199996
40
0.3527332031
40
0.4623596897
40
0.5653185546
40
0.6601250500
40
0.7454119953
40
0.8199494940
40
0.8826626729
40
0.9326471891
40
0.9691822914
40
0.9917412979
40
1.0000000000
40
1.0000000000
40
1.0000000000
40
1.0000000000
10
-16.2229998286
20
0.7983458208
30
0.0000000000
10
-16.2150084747
20
0.7983456120
30
0.0000000000
10
-16.1991410087
20
0.7983437336
30
0.0000000000
10
-16.1756262547
20
0.7983366396
30
0.0000000000
10
-16.1527946680
20
0.7983251134
30
0.0000000000
10
-16.1309755094
20
0.7983093263
30
0.0000000000
10
-16.1104834012
20
0.7982897511
30
0.0000000000
10
-16.0916139543
20
0.7982658544
30
0.0000000000
10
-16.0746389678
20
0.7982407287
30
0.0000000000
10
-16.0598042099
20
0.7982063622
30
0.0000000000
10
-16.0473207261
20
0.7981883055
30
0.0000000000
10
-16.0373765024
20
0.7981181349
30
0.0000000000
10
-16.0300950152
20
0.7981697532
30
0.0000000000
10
-16.0256231532
20
0.7979812163
30
0.0000000000
10
-16.0235490221
20
0.7981255344
30
0.0000000000
10
-16.0230074440
20
0.7980264825
30
0.0000000000
11
-16.2229998286
21
0.7983458208
31
0.0000000000
11
-16.1990257669
21
0.7983429822
31
0.0000000000
11
-16.1753974322
21
0.7983357587
31
0.0000000000
11
-16.1524555667
21
0.7983240870
31
0.0000000000
11
-16.1305310132
21
0.7983081314
31
0.0000000000
11
-16.1099399430
21
0.7982881200
31
0.0000000000
11
-16.0909792970
21
0.7982643395
31
0.0000000000
11
-16.0739225038
21
0.7982371305
31
0.0000000000
11
-16.0590155365
21
0.7982068836
31
0.0000000000
11
-16.0464733659
21
0.7981740340
31
0.0000000000
11
-16.0364768603
21
0.7981390546
31
0.0000000000
11
-16.0291701775
21
0.7981024488
31
0.0000000000
11
-16.0246586856
21
0.7980647438
31
0.0000000000
11
-16.0230074440
21
0.7980264825
31
0.0000000000
0
SPLINE
5
366
100
AcDbEntity
8
0
100
AcDbSpline
62
7
6
CONTINUOUS
70
0
71
3
72
25
73
21
74
19
42
0.0000001000
43
0.0000001000
44
0.0000000001
12
0.0000000000
22
0.7847257664
32
0.0000000000
13
-0.7847256847
23
0.0003579158
33
0.0000000000
40
0.0000000000
40
0.0000000000
40
0.0000000000
40
0.0000000000
40
0.0557571654
40
0.1112369082
40
0.1667300381
40
0.2222361309
40
0.2777546003
40
0.3332846765
40
0.3888253903
40
0.4443755632
40
0.4999338037
40
0.5554985104
40
0.6110678811
40
0.6666399283
40
0.7222125001
40
0.7777833063
40
0.8333499483
40
0.8889099526
40
0.9444608061
40
1.0000000000
40
1.0000000000
40
1.0000000000
40
1.0000000000
10
22.2750000000
20
21.7525720450
30
0.0000000000
10
22.2750000000
20
21.7671567398
30
0.0000000000
10
22.2737218067
20
21.7962697738
30
0.0000000000
10
22.2679989151
20
21.8395582589
30
0.0000000000
10
22.2585367532
20
21.8821220775
30
0.0000000000
10
22.2453958156
20
21.9237073009
30
0.0000000000
10
22.2286749968
20
21.9639974160
30
0.0000000000
10
22.2085008220
20
22.0026841861
30
0.0000000000
10
22.1850264836
20
22.0394719997
30
0.0000000000
10
22.1584306537
20
22.0740796740
30
0.0000000000
10
22.1289160949
20
22.1062427980
30
0.0000000000
10
22.0967080768
20
22.1357157678
30
0.0000000000
10
22.0620526166
20
22.1622737179
30
0.0000000000
10
22.0252145411
20
22.1857142736
30
0.0000000000
10
21.9864754461
20
22.2058591270
30
0.0000000000
10
21.9461313527
20
22.2225554187
30
0.0000000000
10
21.9044908854
20
22.2356769157
30
0.0000000000
10
21.8618709841
20
22.2451249768
30
0.0000000000
10
21.8186013862
20
22.2508292937
30
0.0000000000
10
21.7895276773
20
22.2521088641
30
0.0000000000
10
21.7750000000
20
22.2521154903
30
0.0000000000
11
22.2750000000
21
21.7525720450
31
0.0000000000
11
22.2730804638
21
21.7962840031
31
0.0000000000
11
22.2673749510
21
21.8394449093
31
0.0000000000
11
22.2579249400
21
21.8819540710
31
0.0000000000
11
22.2448008280
21
21.9234868926
31
0.0000000000
11
22.2281013589
21
21.9637260709
31
0.0000000000
11
22.2079528768
21
22.0023640849
31
0.0000000000
11
22.1845083574
21
22.0391056084
31
0.0000000000
11
22.1579462258
21
22.0736698281
31
0.0000000000
11
22.1284689701
21
22.1057926473
31
0.0000000000
11
22.0963015620
21
22.1352287551
31
0.0000000000
11
22.0616896978
21
22.1617535478
31
0.0000000000
11
22.0248978734
21
22.1851648827
31
0.0000000000
11
21.9862073101
21
22.2052846532
31
0.0000000000
11
21.9459137482
21
22.2219601706
31
0.0000000000
11
21.9043251258
21
22.2350653417
31
0.0000000000
11
21.8617591630
21
22.2445016339
31
0.0000000000
11
21.8185408710
21
22.2501988190
31
0.0000000000
11
21.7750000000
21
22.2521154903
31
0.0000000000
0
SPLINE
5
367
100
AcDbEntity
8
0
100
AcDbSpline
62
9
6
CONTINUOUS
70
0
71
3
72
21
73
17
74
15
42
0.0000001000
43
0.0000001000
44
0.0000000001
12
0.0000002809
22
-0.2501906996
32
0.0000000000
13
-0.0490682570
23
-0.2453318005
33
0.0000000000
40
0.0000000000
40
0.0000000000
40
0.0000000000
40
0.0000000000
40
0.1113217644
40
0.2212666512
40
0.3284677309
40
0.4315892647
40
0.5293479438
40
0.6205268822
40
0.7039906865
40
0.7787004269
40
0.8437261182
40
0.8982580701
40
0.9416175588
40
0.9732650091
40
0.9928063836
40
1.0000000000
40
1.0000000000
40
1.0000000000
40
1.0000000000
10
-6.4269959917
20
0.3977684532
30
0.0000000000
10
-6.4269959813
20
0.3884845632
30
0.0000000000
10
-6.4269977406
20
0.3700316104
30
0.0000000000
10
-6.4270057277
20
0.3426384208
30
0.0000000000
10
-6.4270189629
20
0.3159291078
30
0.0000000000
10
-6.4270372402
20
0.2902360873
30
0.0000000000
10
-6.4270604194
20
0.2658792771
30
0.0000000000
10
-6.4270878860
20
0.2431618365
30
0.0000000000
10
-6.4271202715
20
0.2223667116
30
0.0000000000
10
-6.4271539278
20
0.2037523832
30
0.0000000000
10
-6.4271982206
20
0.1875518495
30
0.0000000000
10
-6.4272234345
20
0.1739630699
30
0.0000000000
10
-6.4273088451
20
0.1631654527
30
0.0000000000
10
-6.4272534050
20
0.1552678491
30
0.0000000000
10
-6.4274749706
20
0.1504222455
30
0.0000000000
10
-6.4273108678
20
0.1481673625
30
0.0000000000
10
-6.4274285272
20
0.1475790882
30
0.0000000000
11
-6.4269959917
21
0.3977684532
31
0.0000000000
11
-6.4269986681
21
0.3699167832
31
0.0000000000
11
-6.4270067412
21
0.3424095963
31
0.0000000000
11
-6.4270201150
21
0.3155888865
31
0.0000000000
11
-6.4270386191
21
0.2897888444
31
0.0000000000
11
-6.4270620274
21
0.2653305433
31
0.0000000000
11
-6.4270900467
21
0.2425184381
31
0.0000000000
11
-6.4271223295
21
0.2216365955
31
0.0000000000
11
-6.4271584721
21
0.2029449482
31
0.0000000000
11
-6.4271980231
21
0.1866761731
31
0.0000000000
11
-6.4272404916
21
0.1730328520
31
0.0000000000
11
-6.4272853437
21
0.1621848039
31
0.0000000000
11
-6.4273320337
21
0.1542670438
31
0.0000000000
11
-6.4273799518
21
0.1493782085
31
0.0000000000
11
-6.4274285272
21
0.1475790882
31
0.0000000000
0
SPLINE
5
368
100
AcDbEntity
8
0
100
AcDbSpline
62
9
6
CONTINUOUS
70
0
71
3
72
10
73
6
74
4
42
0.0000001000
43
0.0000001000
44
0.0000000001
12
-0.0030168915
22
-9.0950737270
32
0.0000000000
13
-0.0001256780
23
-9.0950742265
33
0.0000000000
40
0.0000000000
40
0.0000000000
40
0.0000000000
40
0.0000000000
40
0.3333132219
40
0.6666476174
40
1.0000000000
40
1.0000000000
40
1.0000000000
40
1.0000000000
10
22.1856552323
20
9.4905000000
30
0.0000000000
10
22.1853200423
20
8.4799972242
30
0.0000000000
10
22.1847567505
20
6.4589274435
30
0.0000000000
10
22.1842330424
20
3.4272360745
30
0.0000000000
10
22.1840980430
20
1.4060474968
30
0.0000000000
10
22.1840840780
20
0.3954259424
30
0.0000000000
11
22.1856552323
21
9.4905000000
31
0.0000000000
11
22.1848103057
21
6.4589916235
31
0.0000000000
11
22.1842865864
21
3.4272905991
31
0.0000000000
11
22.1840840780
21
0.3954259424
31
0.0000000000
0
SPLINE
5
369
100
AcDbEntity
8
0
100
AcDbSpline
62
9
6
CONTINUOUS
70
0
71
3
72
22
73
18
74
16
42
0.0000001000
43
0.0000001000
44
0.0000000001
12
-0.3383259739
22
0.3684496748
32
0.0000000000
13
-0.5002195518
23
0.0001658660
33
0.0000000000
40
0.0000000000
40
0.0000000000
40
0.0000000000
40
0.0000000000
40
0.0074214241
40
0.0253154708
40
0.0536084284
40
0.0920197827
40
0.1401463889
40
0.1974767508
40
0.2633990283
40
0.3372084832
40
0.4181154121
40
0.5052537947
40
0.5976906746
40
0.6944362149
40
0.7944543415
40
0.8966738698
40
1.0000000000
40
1.0000000000
40
1.0000000000
40
1.0000000000
10
22.1856552323
20
9.4905000000
30
0.0000000000
10
22.1848182788
20
9.4914114738
30
0.0000000000
10
22.1800146338
20
9.4914365540
30
0.0000000000
10
22.1716496553
20
9.4928695013
30
0.0000000000
10
22.1572877210
20
9.4934503773
30
0.0000000000
10
22.1382804979
20
9.4944651569
30
0.0000000000
10
22.1142618618
20
9.4952711913
30
0.0000000000
10
22.0857131526
20
9.4960999078
30
0.0000000000
10
22.0528584455
20
9.4968507727
30
0.0000000000
10
22.0160772549
20
9.4975444637
30
0.0000000000
10
21.9757545999
20
9.4981628659
30
0.0000000000
10
21.9323252765
20
9.4987018799
30
0.0000000000
10
21.8862537173
20
9.4991544429
30
0.0000000000
10
21.8380337849
20
9.4995157502
30
0.0000000000
10
21.7881820378
20
9.4997816959
30
0.0000000000
10
21.7372326194
20
9.4999493561
30
0.0000000000
10
21.7029599682
20
9.4999942872
30
0.0000000000
10
21.6857313847
20
9.5000000000
30
0.0000000000
11
22.1856552323
21
9.4905000000
31
0.0000000000
11
22.1820751755
21
9.4914821781
31
0.0000000000
11
22.1731771174
21
9.4924538327
31
0.0000000000
11
22.1590563949
21
9.4934045533
31
0.0000000000
11
22.1398643024
21
9.4943241535
31
0.0000000000
11
22.1158064707
21
9.4952027804
31
0.0000000000
11
22.0871406638
21
9.4960310200
31
0.0000000000
11
22.0541740173
21
9.4967999984
31
0.0000000000
11
22.0172597472
21
9.4975014764
31
0.0000000000
11
21.9767933662
21
9.4981279381
31
0.0000000000
11
21.9332084450
21
9.4986726714
31
0.0000000000
11
21.8869719680
21
9.4991298398
31
0.0000000000
11
21.8385793288
21
9.4994945451
31
0.0000000000
11
21.7885490232
21
9.4997628797
31
0.0000000000
11
21.7374170933
21
9.4999319686
31
0.0000000000
11
21.6857313847
21
9.5000000000
31
0.0000000000
0
SPLINE
5
36A
100
AcDbEntity
8
0
100
AcDbSpline
62
9
6
CONTINUOUS
70
0
71
3
72
10
73
6
74
4
42
0.0000001000
43
0.0000001000
44
0.0000000001
12
-0.0030162464
22
-9.1022312164
32
0.0000000000
13
-0.0001262690
23
-9.1022317153
33
0.0000000000
40
0.0000000000
40
0.0000000000
40
0.0000000000
40
0.0000000000
40
0.3333130670
40
0.6666473043
40
1.0000000000
40
1.0000000000
40
1.0000000000
40
1.0000000000
10
21.6857313847
20
9.5000000000
30
0.0000000000
10
21.6853962666
20
8.4887024655
30
0.0000000000
10
21.6848330725
20
6.4660431273
30
0.0000000000
10
21.6843093731
20
3.4319659287
30
0.0000000000
10
21.6841742880
20
1.4091862800
30
0.0000000000
10
21.6841602573
20
0.3977684534
30
0.0000000000
11
21.6857313847
21
9.5000000000
31
0.0000000000
11
21.6848866048
21
6.4661073474
31
0.0000000000
11
21.6843628944
21
3.4320219266
31
0.0000000000
11
21.6841602573
21
0.3977684534
31
0.0000000000
0
SPLINE
5
36B
100
AcDbEntity
8
0
100
AcDbSpline
62
9
6
CONTINUOUS
70
0
71
3
72
23
73
19
74
17
42
0.0000001000
43
0.0000001000
44
0.0000000001
12
-0.4823516863
22
0.1314510797
32
0.0000000000
13
-0.4999425323
23
0.0000035447
33
0.0000000000
40
0.0000000000
40
0.0000000000
40
0.0000000000
40
0.0000000000
40
0.0064178515
40
0.0221823501
40
0.0471535735
40
0.0810969186
40
0.1236935399
40
0.1745428048
40
0.2331655989
40
0.2990097082
40
0.3714552698
40
0.4498203483
40
0.5333668479
40
0.6213072850
40
0.7128137362
40
0.8070259370
40
0.9030519727
40
1.0000000000
40
1.0000000000
40
1.0000000000
40
1.0000000000
10
22.1840840780
20
0.3954259424
30
0.0000000000
10
22.1830521908
20
0.3957071536
30
0.0000000000
10
22.1792915174
20
0.3955680539
30
0.0000000000
10
22.1714932241
20
0.3960278736
30
0.0000000000
10
22.1590193983
20
0.3960982324
30
0.0000000000
10
22.1421169632
20
0.3963652447
30
0.0000000000
10
22.1208839508
20
0.3965453825
30
0.0000000000
10
22.0955445081
20
0.3967462262
30
0.0000000000
10
22.0663284970
20
0.3969251138
30
0.0000000000
10
22.0335141286
20
0.3970936890
30
0.0000000000
10
21.9974094152
20
0.3972456990
30
0.0000000000
10
21.9583546289
20
0.3973809857
30
0.0000000000
10
21.9167175687
20
0.3974977590
30
0.0000000000
10
21.8728904822
20
0.3975949904
30
0.0000000000
10
21.8272859383
20
0.3976716854
30
0.0000000000
10
21.7803339183
20
0.3977271064
30
0.0000000000
10
21.7324750524
20
0.3977607134
30
0.0000000000
10
21.7003164048
20
0.3977683391
30
0.0000000000
10
21.6841602573
20
0.3977684537
30
0.0000000000
11
22.1840840780
21
0.3954259424
31
0.0000000000
11
22.1808838092
21
0.3956564149
31
0.0000000000
11
22.1730057626
21
0.3958843499
31
0.0000000000
11
22.1605235831
21
0.3961076478
31
0.0000000000
11
22.1435552427
21
0.3963241745
31
0.0000000000
11
22.1222603931
21
0.3965319004
31
0.0000000000
11
22.0968394458
21
0.3967288648
31
0.0000000000
11
22.0675319974
21
0.3969132095
31
0.0000000000
11
22.0346141656
21
0.3970831949
31
0.0000000000
11
21.9983958756
21
0.3972372180
31
0.0000000000
11
21.9592180780
21
0.3973738264
31
0.0000000000
11
21.9174497958
21
0.3974917304
31
0.0000000000
11
21.8734847404
21
0.3975898169
31
0.0000000000
11
21.8277368389
21
0.3976671601
31
0.0000000000
11
21.7806361857
21
0.3977230318
31
0.0000000000
11
21.7326286982
21
0.3977569021
31
0.0000000000
11
21.6841602573
21
0.3977684537
31
0.0000000000
0
SPLINE
5
36C
100
AcDbEntity
8
0
100
AcDbSpline
62
9
6
CONTINUOUS
70
0
71
3
72
22
73
18
74
16
42
0.0000001000
43
0.0000001000
44
0.0000000001
12
-0.0591136699
22
0.5108754711
32
0.0000000000
13
-0.5142824330
23
0.0013236504
33
0.0000000000
40
0.0000000000
40
0.0000000000
40
0.0000000000
40
0.0000000000
40
0.0165205698
40
0.0392968673
40
0.0703415139
40
0.1102029580
40
0.1588601866
40
0.2160113579
40
0.2811780875
40
0.3537518259
40
0.4330195517
40
0.5181812907
40
0.6083642252
40
0.7026353789
40
0.8000137562
40
0.8994823248
40
1.0000000000
40
1.0000000000
40
1.0000000000
40
1.0000000000
10
22.2028401168
20
21.1361579495
30
0.0000000000
10
22.2025145863
20
21.1389712675
30
0.0000000000
10
22.1990649400
20
21.1452475354
30
0.0000000000
10
22.1893971489
20
21.1526229977
30
0.0000000000
10
22.1750181700
20
21.1599005721
30
0.0000000000
10
22.1557257577
20
21.1669100736
30
0.0000000000
10
22.1316698757
20
21.1736672993
30
0.0000000000
10
22.1030530217
20
21.1800537783
30
0.0000000000
10
22.0701699096
20
21.1860023566
30
0.0000000000
10
22.0333625170
20
21.1914381982
30
0.0000000000
10
21.9930213161
20
21.1962994774
30
0.0000000000
10
21.9495758222
20
21.2005304387
30
0.0000000000
10
21.9034900764
20
21.2040836216
30
0.0000000000
10
21.8552569190
20
21.2069193765
30
0.0000000000
10
21.8053924965
20
21.2090062836
30
0.0000000000
10
21.7544308191
20
21.2103213048
30
0.0000000000
10
21.7201477608
20
21.2106731410
30
0.0000000000
10
21.7029162692
20
21.2107174911
30
0.0000000000
11
22.2028401168
21
21.1361579495
31
0.0000000000
11
22.1992692142
21
21.1438673728
31
0.0000000000
11
22.1903788986
21
21.1514941742
31
0.0000000000
11
22.1762644474
21
21.1589566173
31
0.0000000000
11
22.1570771252
21
21.1661747272
31
0.0000000000
11
22.1330225625
21
21.1730711474
31
0.0000000000
11
22.1043585519
21
21.1795719689
31
0.0000000000
11
22.0713922856
21
21.1856075225
31
0.0000000000
11
22.0344770630
21
21.1911131252
31
0.0000000000
11
21.9940085043
21
21.1960297734
31
0.0000000000
11
21.9504203110
21
21.2003047755
31
0.0000000000
11
21.9041796176
21
21.2038923162
31
0.0000000000
11
21.8557819855
21
21.2067539480
31
0.0000000000
11
21.8057460920
21
21.2088590026
31
0.0000000000
11
21.7546081716
21
21.2101849202
31
0.0000000000
11
21.7029162692
21
21.2107174911
31
0.0000000000
0
SPLINE
5
36D
100
AcDbEntity
8
0
100
AcDbSpline
62
9
6
CONTINUOUS
70
0
71
3
72
14
73
10
74
8
42
0.0000001000
43
0.0000001000
44
0.0000000001
12
-0.0306549600
22
-11.7106924750
32
0.0000000000
13
-0.0038629501
23
-11.7107319604
33
0.0000000000
40
0.0000000000
40
0.0000000000
40
0.0000000000
40
0.0000000000
40
0.1420565057
40
0.2844627223
40
0.4271690479
40
0.5701257656
40
0.7132830865
40
0.8565911367
40
1.0000000000
40
1.0000000000
40
1.0000000000
40
1.0000000000
10
21.7029162692
20
21.2107174911
30
0.0000000000
10
21.7014646904
20
20.6561908070
30
0.0000000000
10
21.6987421894
20
19.5457718288
30
0.0000000000
10
21.6952035216
20
17.8782880572
30
0.0000000000
10
21.6922056756
20
16.2072891708
30
0.0000000000
10
21.6897496972
20
14.5333574041
30
0.0000000000
10
21.6878364426
20
12.8570760482
30
0.0000000000
10
21.6864665785
20
11.1790291761
30
0.0000000000
10
21.6859160451
20
10.0598075864
30
0.0000000000
10
21.6857313847
20
9.5000000000
30
0.0000000000
11
21.7029162692
21
21.2107174911
31
0.0000000000
11
21.6988368146
21
19.5471367410
31
0.0000000000
11
21.6952971100
21
17.8794593742
31
0.0000000000
11
21.6922983881
21
16.2082664463
31
0.0000000000
11
21.6898416937
21
14.5341403548
31
0.0000000000
11
21.6879278821
21
12.8576643428
31
0.0000000000
11
21.6865576201
21
11.1794226474
31
0.0000000000
11
21.6857313847
21
9.5000000000
31
0.0000000000
0
SPLINE
5
36E
100
AcDbEntity
8
0
100
AcDbSpline
62
9
6
CONTINUOUS
70
0
71
3
72
14
73
10
74
8
42
0.0000001000
43
0.0000001000
44
0.0000000001
12
-0.0306549592
22
-11.6456327936
32
0.0000000000
13
-0.0038629502
23
-11.6456724996
33
0.0000000000
40
0.0000000000
40
0.0000000000
40
0.0000000000
40
0.0000000000
40
0.1420564295
40
0.2844626892
40
0.4271690571
40
0.5701258164
40
0.7132831782
40
0.8565912686
40
1.0000000000
40
1.0000000000
40
1.0000000000
40
1.0000000000
10
22.2028401168
20
21.1361579495
30
0.0000000000
10
22.2013885388
20
20.5847122784
30
0.0000000000
10
22.1986660381
20
19.4804624442
30
0.0000000000
10
22.1951273700
20
17.8222424533
30
0.0000000000
10
22.1921295231
20
16.1605264066
30
0.0000000000
10
22.1896735440
20
14.4958937718
30
0.0000000000
10
22.1877602891
20
12.8289246011
30
0.0000000000
10
22.1863904255
20
11.1602003905
30
0.0000000000
10
22.1858398925
20
10.0471970397
30
0.0000000000
10
22.1856552323
20
9.4905000000
30
0.0000000000
11
22.2028401168
21
21.1361579495
31
0.0000000000
11
22.1987606643
21
19.4818202344
31
0.0000000000
11
22.1952209584
21
17.8234072583
31
0.0000000000
11
22.1922222356
21
16.1614982482
31
0.0000000000
11
22.1897655406
21
14.4966723687
31
0.0000000000
11
22.1878517287
21
12.8295096241
31
0.0000000000
11
22.1864814667
21
11.1605910065
31
0.0000000000
11
22.1856552323
21
9.4905000000
31
0.0000000000
0
SPLINE
5
36F
100
AcDbEntity
8
0
100
AcDbSpline
62
9
6
CONTINUOUS
70
0
71
3
72
22
73
18
74
16
42
0.0000001000
43
0.0000001000
44
0.0000000001
12
-0.0007171661
22
0.7842144221
32
0.0000000000
13
-0.7842144237
23
0.0007154197
33
0.0000000000
40
0.0000000000
40
0.0000000000
40
0.0000000000
40
0.0000000000
40
0.0666100463
40
0.1332280881
40
0.1998553997
40
0.2664928500
40
0.3331408653
40
0.3997994104
40
0.4664679909
40
0.5331456744
40
0.5998311316
40
0.6665226945
40
0.7332184290
40
0.7999162193
40
0.8666138600
40
0.9333091524
40
1.0000000000
40
1.0000000000
40
1.0000000000
40
1.0000000000
10
22.2110133051
20
21.5609131753
30
0.0000000000
10
22.2109973816
20
21.5783253616
30
0.0000000000
10
22.2091382251
20
21.6131777008
30
0.0000000000
10
22.2008991622
20
21.6648592755
30
0.0000000000
10
22.1872998172
20
21.7154090713
30
0.0000000000
10
22.1684890771
20
21.7642663737
30
0.0000000000
10
22.1446728511
20
21.8108985380
30
0.0000000000
10
22.1161118225
20
21.8547947327
30
0.0000000000
10
22.0831185868
20
21.8954747661
30
0.0000000000
10
22.0460542326
20
21.9324934694
30
0.0000000000
10
22.0053243705
20
21.9654457954
30
0.0000000000
10
21.9613747557
20
21.9939711841
30
0.0000000000
10
21.9146861794
20
22.0177575191
30
0.0000000000
10
21.8657700741
20
22.0365445340
30
0.0000000000
10
21.8151596951
20
22.0501266599
30
0.0000000000
10
21.7634163278
20
22.0583552626
30
0.0000000000
10
21.7285227657
20
22.0602120387
30
0.0000000000
10
21.7110894575
20
22.0602279426
30
0.0000000000
11
22.2110133051
21
21.5609131753
31
0.0000000000
11
22.2082301489
21
21.6130755603
31
0.0000000000
11
22.2000065426
21
21.6646671079
31
0.0000000000
11
22.1864324810
21
21.7151232269
31
0.0000000000
11
22.1676565115
21
21.7638917516
31
0.0000000000
11
22.1438841082
21
21.8104389843
31
0.0000000000
11
22.1153754240
21
21.8542555363
31
0.0000000000
11
22.0824424429
21
21.8948619017
31
0.0000000000
11
22.0454455664
21
21.9318137053
31
0.0000000000
11
22.0047896691
21
21.9647065655
31
0.0000000000
11
21.9609196680
21
21.9931805198
31
0.0000000000
11
21.9143156537
21
22.0169239636
31
0.0000000000
11
21.8654876365
21
22.0356770610
31
0.0000000000
11
21.8149699651
21
22.0492345875
31
0.0000000000
11
21.7633154787
21
22.0574481765
31
0.0000000000
11
21.7110894575
21
22.0602279426
31
0.0000000000
0
SPLINE
5
370
100
AcDbEntity
8
0
100
AcDbSpline
62
9
6
CONTINUOUS
70
0
71
3
72
23
73
19
74
17
42
0.0000001000
43
0.0000001000
44
0.0000000001
12
-0.1395306683
22
-0.8380719249
32
0.0000000000
13
-0.0011180583
23
-0.8496070319
33
0.0000000000
40
0.0000000000
40
0.0000000000
40
0.0000000000
40
0.0000000000
40
0.0096020567
40
0.0277116044
40
0.0542092535
40
0.0889039159
40
0.1315434707
40
0.1818170516
40
0.2393569482
40
0.3037423455
40
0.3745026836
40
0.4511208252
40
0.5330363317
40
0.6196494309
40
0.7103271980
40
0.8044074565
40
0.9011994289
40
1.0000000000
40
1.0000000000
40
1.0000000000
40
1.0000000000
10
21.7110894575
20
22.0602279426
30
0.0000000000
10
21.7106428638
20
22.0575455379
30
0.0000000000
10
21.7102060811
20
22.0496887841
30
0.0000000000
10
21.7094533823
20
22.0343692160
30
0.0000000000
10
21.7088090646
20
22.0119119409
30
0.0000000000
10
21.7081139483
20
21.9825177373
30
0.0000000000
10
21.7074584798
20
21.9463835344
30
0.0000000000
10
21.7068205202
20
21.9037799808
30
0.0000000000
10
21.7062169023
20
21.8550163707
30
0.0000000000
10
21.7056493550
20
21.8004502677
30
0.0000000000
10
21.7051237084
20
21.7404804571
30
0.0000000000
10
21.7046437829
20
21.6755455667
30
0.0000000000
10
21.7042134295
20
21.6061206913
30
0.0000000000
10
21.7038359100
20
21.5327137342
30
0.0000000000
10
21.7035141196
20
21.4558613920
30
0.0000000000
10
21.7032504552
20
21.3761261298
30
0.0000000000
10
21.7030469507
20
21.2940902862
30
0.0000000000
10
21.7029530908
20
21.2386980444
30
0.0000000000
10
21.7029162692
20
21.2107174911
30
0.0000000000
11
21.7110894575
21
22.0602279426
31
0.0000000000
11
21.7103464177
21
22.0521038697
31
0.0000000000
11
21.7096122009
21
22.0367353856
31
0.0000000000
11
21.7088920750
21
22.0142342976
31
0.0000000000
11
21.7081913877
21
21.9847657721
31
0.0000000000
11
21.7075152321
21
21.9485451857
31
0.0000000000
11
21.7068685593
21
21.9058372564
31
0.0000000000
11
21.7062561020
21
21.8569547500
31
0.0000000000
11
21.7056823412
21
21.8022554255
31
0.0000000000
11
21.7051514705
21
21.7421392365
31
0.0000000000
11
21.7046673703
21
21.6770456683
31
0.0000000000
11
21.7042335831
21
21.6074509696
31
0.0000000000
11
21.7038532821
21
21.5338647905
31
0.0000000000
11
21.7035292499
21
21.4568249367
31
0.0000000000
11
21.7032638430
21
21.3768940589
31
0.0000000000
11
21.7030590269
21
21.2946591024
31
0.0000000000
11
21.7029162692
21
21.2107174911
31
0.0000000000
0
SPLINE
5
371
100
AcDbEntity
8
0
100
AcDbSpline
62
9
6
CONTINUOUS
70
0
71
3
72
23
73
19
74
17
42
0.0000001000
43
0.0000001000
44
0.0000000001
12
-0.1342577870
22
-0.4031833320
32
0.0000000000
13
-0.0011186693
23
-0.4249478805
33
0.0000000000
40
0.0000000000
40
0.0000000000
40
0.0000000000
40
0.0000000000
40
0.0097126026
40
0.0278756876
40
0.0544034600
40
0.0891149935
40
0.1317623279
40
0.1820368567
40
0.2395722404
40
0.3039486091
40
0.3746961084
40
0.4512981196
40
0.5331944776
40
0.6197857728
40
0.7104394274
40
0.8044936166
40
0.9012578572
40
1.0000000000
40
1.0000000000
40
1.0000000000
40
1.0000000000
10
22.2110133051
20
21.5609131753
30
0.0000000000
10
22.2105786409
20
21.5596078554
30
0.0000000000
10
22.2101233068
20
21.5556473020
30
0.0000000000
10
22.2093822622
20
21.5480022592
30
0.0000000000
10
22.2087314765
20
21.5367593472
30
0.0000000000
10
22.2080387019
20
21.5220655229
30
0.0000000000
10
22.2073822573
20
21.5039958850
30
0.0000000000
10
22.2067445557
20
21.4826938164
30
0.0000000000
10
22.2061407965
20
21.4583108141
30
0.0000000000
10
22.2055732483
20
21.4310265958
30
0.0000000000
10
22.2050475638
20
21.4010402093
30
0.0000000000
10
22.2045676197
20
21.3685711008
30
0.0000000000
10
22.2041372467
20
21.3338568393
30
0.0000000000
10
22.2037597200
20
21.2971514465
30
0.0000000000
10
22.2034379156
20
21.2587233078
30
0.0000000000
10
22.2031742654
20
21.2188537001
30
0.0000000000
10
22.2029707651
20
21.1778379954
30
0.0000000000
10
22.2028769368
20
21.1501447043
30
0.0000000000
10
22.2028401168
20
21.1361579495
30
0.0000000000
11
22.2110133051
21
21.5609131753
31
0.0000000000
11
22.2102705225
21
21.5568531988
31
0.0000000000
11
22.2095362477
21
21.5491698139
31
0.0000000000
11
22.2088161038
21
21.5379198799
31
0.0000000000
11
22.2081153802
21
21.5231858894
31
0.0000000000
11
22.2074391951
21
21.5050755512
31
0.0000000000
11
22.2067924914
21
21.4837212130
31
0.0000000000
11
22.2061800052
21
21.4592792619
31
0.0000000000
11
22.2056062176
21
21.4319285837
31
0.0000000000
11
22.2050753228
21
21.4018691675
31
0.0000000000
11
22.2045912022
21
21.3693207926
31
0.0000000000
11
22.2041573990
21
21.3345216920
31
0.0000000000
11
22.2037770887
21
21.2977267425
31
0.0000000000
11
22.2034530490
21
21.2592048935
31
0.0000000000
11
22.2031876470
21
21.2192375078
31
0.0000000000
11
22.2029828288
21
21.1781181165
31
0.0000000000
11
22.2028401168
21
21.1361579495
31
0.0000000000
0
SPLINE
5
372
100
AcDbEntity
8
0
100
AcDbSpline
62
9
6
CONTINUOUS
70
0
71
3
72
21
73
17
74
15
42
0.0000001000
43
0.0000001000
44
0.0000000001
12
-0.0490682571
22
0.2453318005
32
0.0000000000
13
0.0000002809
23
0.2501906996
33
0.0000000000
40
0.0000000000
40
0.0000000000
40
0.0000000000
40
0.0000000000
40
0.0071936164
40
0.0267349909
40
0.0583824412
40
0.1017419299
40
0.1562738818
40
0.2212995731
40
0.2960093135
40
0.3794731178
40
0.4706520562
40
0.5684107353
40
0.6715322691
40
0.7787333488
40
0.8886782356
40
1.0000000000
40
1.0000000000
40
1.0000000000
40
1.0000000000
10
-16.2225714728
20
0.1475790882
30
0.0000000000
10
-16.2226891322
20
0.1481673625
30
0.0000000000
10
-16.2225250294
20
0.1504222455
30
0.0000000000
10
-16.2227465950
20
0.1552678491
30
0.0000000000
10
-16.2226911549
20
0.1631654527
30
0.0000000000
10
-16.2227765655
20
0.1739630699
30
0.0000000000
10
-16.2228017794
20
0.1875518495
30
0.0000000000
10
-16.2228460722
20
0.2037523832
30
0.0000000000
10
-16.2228797285
20
0.2223667116
30
0.0000000000
10
-16.2229121140
20
0.2431618365
30
0.0000000000
10
-16.2229395806
20
0.2658792771
30
0.0000000000
10
-16.2229627598
20
0.2902360873
30
0.0000000000
10
-16.2229810371
20
0.3159291078
30
0.0000000000
10
-16.2229942723
20
0.3426384208
30
0.0000000000
10
-16.2230022594
20
0.3700316104
30
0.0000000000
10
-16.2230040187
20
0.3884845632
30
0.0000000000
10
-16.2230040083
20
0.3977684532
30
0.0000000000
11
-16.2225714728
21
0.1475790882
31
0.0000000000
11
-16.2226200482
21
0.1493782085
31
0.0000000000
11
-16.2226679663
21
0.1542670438
31
0.0000000000
11
-16.2227146563
21
0.1621848039
31
0.0000000000
11
-16.2227595084
21
0.1730328520
31
0.0000000000
11
-16.2228019769
21
0.1866761731
31
0.0000000000
11
-16.2228415279
21
0.2029449482
31
0.0000000000
11
-16.2228776705
21
0.2216365955
31
0.0000000000
11
-16.2229099533
21
0.2425184381
31
0.0000000000
11
-16.2229379726
21
0.2653305433
31
0.0000000000
11
-16.2229613809
21
0.2897888444
31
0.0000000000
11
-16.2229798850
21
0.3155888865
31
0.0000000000
11
-16.2229932588
21
0.3424095963
31
0.0000000000
11
-16.2230013319
21
0.3699167832
31
0.0000000000
11
-16.2230040083
21
0.3977684532
31
0.0000000000
0
SPLINE
5
373
100
AcDbEntity
8
0
100
AcDbSpline
62
9
6
CONTINUOUS
70
0
71
3
72
25
73
21
74
19
42
0.0000001000
43
0.0000001000
44
0.0000000001
12
1.0994284663
22
-0.0000120915
32
0.0000000000
13
0.0000111401
23
-1.0994284663
33
0.0000000000
40
0.0000000000
40
0.0000000000
40
0.0000000000
40
0.0000000000
40
0.0550195076
40
0.1104476523
40
0.1661018112
40
0.2218268621
40
0.2774793141
40
0.3330385738
40
0.3885932428
40
0.4441971624
40
0.4998311519
40
0.5554702353
40
0.6110891647
40
0.6666663394
40
0.7222501598
40
0.7779293669
40
0.8336924046
40
0.8894022182
40
0.9449016832
40
1.0000000000
40
1.0000000000
40
1.0000000000
40
1.0000000000
10
15.3250000000
20
1.4505802321
30
0.0000000000
10
15.3451633376
20
1.4505800103
30
0.0000000000
10
15.3856615153
20
1.4488286590
30
0.0000000000
10
15.4460926552
20
1.4409251749
30
0.0000000000
10
15.5058627979
20
1.4277273922
30
0.0000000000
10
15.5643279242
20
1.4093306836
30
0.0000000000
10
15.6209293052
20
1.3859077070
30
0.0000000000
10
15.6752148449
20
1.3576635663
30
0.0000000000
10
15.7268162262
20
1.3248037196
30
0.0000000000
10
15.7753771197
20
1.2875520976
30
0.0000000000
10
15.8205249192
20
1.2461839854
30
0.0000000000
10
15.8618934184
20
1.2010290735
30
0.0000000000
10
15.8991510902
20
1.1524531235
30
0.0000000000
10
15.9320198196
20
1.1008304124
30
0.0000000000
10
15.9602737789
20
1.0465194893
30
0.0000000000
10
15.9837080198
20
0.9898873707
30
0.0000000000
10
16.0021184652
20
0.9313803032
30
0.0000000000
10
16.0153308105
20
0.8715513997
30
0.0000000000
10
16.0232456363
20
0.8110455784
30
0.0000000000
10
16.0249997954
20
0.7704923393
30
0.0000000000
10
16.0250000000
20
0.7503001200
30
0.0000000000
11
15.3250000000
21
1.4505802321
31
0.0000000000
11
15.3854334793
21
1.4479656119
31
0.0000000000
11
15.4458582685
21
1.4400636682
31
0.0000000000
11
15.5056067402
21
1.4268703785
31
0.0000000000
11
15.5640476127
21
1.4084814876
31
0.0000000000
11
15.6205838109
21
1.3850855172
31
0.0000000000
11
15.6747717011
21
1.3568922880
31
0.0000000000
11
15.7262909992
21
1.3240848044
31
0.0000000000
11
15.7747957987
21
1.2868763254
31
0.0000000000
11
15.8198929721
21
1.2455547262
31
0.0000000000
11
15.8612151638
21
1.2004505000
31
0.0000000000
11
15.8984303712
21
1.1519300639
31
0.0000000000
11
15.9312479500
21
1.1003878601
31
0.0000000000
11
15.9594511144
21
1.0461747001
31
0.0000000000
11
15.9828572195
21
0.9896108615
31
0.0000000000
11
16.0012592266
21
0.9311303336
31
0.0000000000
11
16.0144673203
21
0.8713224684
31
0.0000000000
11
16.0223810132
21
0.8108201365
31
0.0000000000
11
16.0250000000
21
0.7503001200
31
0.0000000000
0
SPLINE
5
374
100
AcDbEntity
8
0
100
AcDbSpline
62
9
6
CONTINUOUS
70
0
71
3
72
25
73
21
74
19
42
0.0000001000
43
0.0000001000
44
0.0000000001
12
0.0000120800
22
1.0994284662
32
0.0000000000
13
1.0994284662
23
0.0000111470
33
0.0000000000
40
0.0000000000
40
0.0000000000
40
0.0000000000
40
0.0000000000
40
0.0550699470
40
0.1105467502
40
0.1662463146
40
0.2220122081
40
0.2776997998
40
0.3332877639
40
0.3888637671
40
0.4444807316
40
0.5001190935
40
0.5557537923
40
0.6113596693
40
0.6669154979
40
0.7224705846
40
0.7781146276
40
0.8338368261
40
0.8895012470
40
0.9449520734
40
1.0000000000
40
1.0000000000
40
1.0000000000
40
1.0000000000
10
6.3250000000
20
0.7503001200
30
0.0000000000
10
6.3250002217
20
0.7704819425
30
0.0000000000
10
6.3267526405
20
0.8110164452
30
0.0000000000
10
6.3346607287
20
0.8715004127
30
0.0000000000
10
6.3478654457
20
0.9313196757
30
0.0000000000
10
6.3662704853
20
0.9898288342
30
0.0000000000
10
6.3897020785
20
1.0464681851
30
0.0000000000
10
6.4179538723
20
1.1007849447
30
0.0000000000
10
6.4508190317
20
1.1524103622
30
0.0000000000
10
6.4880721737
20
1.2009879950
30
0.0000000000
10
6.5294366800
20
1.2461455782
30
0.0000000000
10
6.5745817984
20
1.2875176756
30
0.0000000000
10
6.6231409980
20
1.3247738215
30
0.0000000000
10
6.6747396556
20
1.3576372308
30
0.0000000000
10
6.7290193346
20
1.3858835298
30
0.0000000000
10
6.7856134627
20
1.4093091538
30
0.0000000000
10
6.8440764918
20
1.4277112762
30
0.0000000000
10
6.9038562856
20
1.4409166995
30
0.0000000000
10
6.9643093080
20
1.4488269324
30
0.0000000000
10
7.0048262475
20
1.4505800276
30
0.0000000000
10
7.0250000000
20
1.4505802321
30
0.0000000000
11
6.3250000000
21
0.7503001200
31
0.0000000000
11
6.3276162819
21
0.8107890338
31
0.0000000000
11
6.3355229442
21
0.8712671580
31
0.0000000000
11
6.3487233460
21
0.9310651818
31
0.0000000000
11
6.3671207931
21
0.9895504358
31
0.0000000000
11
6.3905256067
21
1.0461247849
31
0.0000000000
11
6.4187267891
21
1.1003441110
31
0.0000000000
11
6.4515399148
21
1.1518876231
31
0.0000000000
11
6.4887501472
21
1.2004091523
31
0.0000000000
11
6.5300683053
21
1.2455159978
31
0.0000000000
11
6.5751628485
21
1.2868416216
31
0.0000000000
11
6.6236665464
21
1.3240550719
31
0.0000000000
11
6.6751845230
21
1.3568670040
31
0.0000000000
11
6.7293662159
21
1.3850622043
31
0.0000000000
11
6.7858918754
21
1.4084594624
31
0.0000000000
11
6.8443280221
21
1.4268529230
31
0.0000000000
11
6.9040863466
21
1.4400539169
31
0.0000000000
11
6.9645353641
21
1.4479629016
31
0.0000000000
11
7.0250000000
21
1.4505802321
31
0.0000000000
0
SPLINE
5
375
100
AcDbEntity
8
0
100
AcDbSpline
62
9
6
CONTINUOUS
70
0
71
3
72
24
73
20
74
18
42
0.0000001000
43
0.0000001000
44
0.0000000001
12
-0.0000295417
22
1.0993453380
32
0.0000000000
13
-1.0993453383
23
0.0000141811
33
0.0000000000
40
0.0000000000
40
0.0000000000
40
0.0000000000
40
0.0000000000
40
0.0583311295
40
0.1171061655
40
0.1761056174
40
0.2351443274
40
0.2940711940
40
0.3529153790
40
0.4117779467
40
0.4706816322
40
0.5295950872
40
0.5884894540
40
0.6473338019
40
0.7061526108
40
0.7650482042
40
0.8240486764
40
0.8830019230
40
0.9417242235
40
1.0000000000
40
1.0000000000
40
1.0000000000
40
1.0000000000
10
-6.4270001718
20
0.7983458296
30
0.0000000000
10
-6.4270007462
20
0.8197211814
30
0.0000000000
10
-6.4289676320
20
0.8626603744
30
0.0000000000
10
-6.4378398391
20
0.9266693879
30
0.0000000000
10
-6.4526425237
20
0.9898451525
30
0.0000000000
10
-6.4732451288
20
1.0514316417
30
0.0000000000
10
-6.4994317026
20
1.1107968554
30
0.0000000000
10
-6.5309563547
20
1.1674337071
30
0.0000000000
10
-6.5675689122
20
1.2209123893
30
0.0000000000
10
-6.6089800874
20
1.2708010503
30
0.0000000000
10
-6.6548320592
20
1.3166582225
30
0.0000000000
10
-6.7047083449
20
1.3580684969
30
0.0000000000
10
-6.7581671848
20
1.3946756930
30
0.0000000000
10
-6.8147771215
20
1.4261922663
30
0.0000000000
10
-6.8741085384
20
1.4523692822
30
0.0000000000
10
-6.9356537000
20
1.4729617177
30
0.0000000000
10
-6.9987800243
20
1.4877549207
30
0.0000000000
10
-7.0627328852
20
1.4966201106
30
0.0000000000
10
-7.1056324805
20
1.4985849565
30
0.0000000000
10
-7.1269875482
20
1.4985852320
30
0.0000000000
11
-6.4270001718
21
0.7983458296
31
0.0000000000
11
-6.4299359679
21
0.8624046469
31
0.0000000000
11
-6.4388064256
21
0.9264069278
31
0.0000000000
11
-6.4536036327
21
0.9895572442
31
0.0000000000
11
-6.4741943286
21
1.0511083892
31
0.0000000000
11
-6.5003393480
21
1.1103790635
31
0.0000000000
11
-6.5318012409
21
1.1669030036
31
0.0000000000
11
-6.5683570710
21
1.2202986292
31
0.0000000000
11
-6.6097166250
21
1.2701249380
31
0.0000000000
11
-6.6555107424
21
1.3159241042
31
0.0000000000
11
-6.7053246970
21
1.3572825014
31
0.0000000000
11
-6.7587000760
21
1.3938324481
31
0.0000000000
11
-6.8151967980
21
1.4252858798
31
0.0000000000
11
-6.8744341070
21
1.4514213525
31
0.0000000000
11
-6.9359443269
21
1.4720018807
31
0.0000000000
11
-6.9990447440
21
1.4867893912
31
0.0000000000
11
-7.0629895025
21
1.4956525886
31
0.0000000000
11
-7.1269875482
21
1.4985852320
31
0.0000000000
0
SPLINE
5
376
100
AcDbEntity
8
0
100
AcDbSpline
62
9
6
CONTINUOUS
70
0
71
3
72
24
73
20
74
18
42
0.0000001000
43
0.0000001000
44
0.0000000001
12
-1.0993453382
22
-0.0000142397
32
0.0000000000
13
-0.0000294825
23
-1.0993453379
33
0.0000000000
40
0.0000000000
40
0.0000000000
40
0.0000000000
40
0.0000000000
40
0.0582811860
40
0.1170082560
40
0.1759633885
40
0.2349628935
40
0.2938568511
40
0.3526751887
40
0.4115199241
40
0.4704145711
40
0.5293280247
40
0.5882314290
40
0.6470936075
40
0.7059382594
40
0.7648667578
40
0.8239064353
40
0.8829040031
40
0.9416742715
40
1.0000000000
40
1.0000000000
40
1.0000000000
40
1.0000000000
10
-15.5230124518
20
1.4985852320
30
0.0000000000
10
-15.5443695018
20
1.4985849553
30
0.0000000000
10
-15.5872728348
20
1.4966197594
30
0.0000000000
10
-15.6512299842
20
1.4877531595
30
0.0000000000
10
-15.7143580903
20
1.4729583855
30
0.0000000000
10
-15.7759026227
20
1.4523649089
30
0.0000000000
10
-15.8352325804
20
1.4261873945
30
0.0000000000
10
-15.8918415073
20
1.3946703074
30
0.0000000000
10
-15.9452998798
20
1.3580622989
30
0.0000000000
10
-15.9951757353
20
1.3166511222
30
0.0000000000
10
-16.0410270112
20
1.2707932555
30
0.0000000000
10
-16.0824372829
20
1.2209041660
30
0.0000000000
10
-16.1190490268
20
1.1674250190
30
0.0000000000
10
-16.1505731639
20
1.1107871612
30
0.0000000000
10
-16.1767592390
20
1.0514204916
30
0.0000000000
10
-16.1973608041
20
0.9898333744
30
0.0000000000
10
-16.2121619198
20
0.9266593907
30
0.0000000000
10
-16.2210327188
20
0.8626546614
30
0.0000000000
10
-16.2229992550
20
0.8197192022
30
0.0000000000
10
-16.2229998282
20
0.7983458296
30
0.0000000000
11
-15.5230124518
21
1.4985852320
31
0.0000000000
11
-15.5870164257
21
1.4956520432
31
0.0000000000
11
-15.6509662681
21
1.4867873343
31
0.0000000000
11
-15.7140684460
21
1.4719982509
31
0.0000000000
11
-15.7755772826
21
1.4514169391
31
0.0000000000
11
-15.8348125242
21
1.4252812359
31
0.0000000000
11
-15.8913083374
21
1.3938272371
31
0.0000000000
11
-15.9446835406
21
1.3572762798
31
0.0000000000
11
-15.9944971140
21
1.3159169413
31
0.0000000000
11
-16.0402905359
21
1.2701170818
31
0.0000000000
11
-16.0816491481
21
1.2202903929
31
0.0000000000
11
-16.1182039668
21
1.1668945934
31
0.0000000000
11
-16.1496652908
21
1.1103697492
31
0.0000000000
11
-16.1758100789
21
1.0510970123
31
0.0000000000
11
-16.1963999926
21
0.9895444840
31
0.0000000000
11
-16.2111956289
21
0.9263959269
31
0.0000000000
11
-16.2200645765
21
0.8623987280
31
0.0000000000
11
-16.2229998282
21
0.7983458296
31
0.0000000000
0
SPLINE
5
377
100
AcDbEntity
8
0
100
AcDbSpline
62
9
6
CONTINUOUS
70
0
71
3
72
19
73
15
74
13
42
0.0000001000
43
0.0000001000
44
0.0000000001
12
0.3139290435
22
0.0000000000
32
0.0000000000
13
0.0000000000
23
0.3139290435
33
0.0000000000
40
0.0000000000
40
0.0000000000
40
0.0000000000
40
0.0000000000
40
0.0833349562
40
0.1666698018
40
0.2500044341
40
0.3333387645
40
0.4166727251
40
0.5000062732
40
0.5833393941
40
0.6666721020
40
0.7500044393
40
0.8333364736
40
0.9166682930
40
1.0000000000
40
1.0000000000
40
1.0000000000
40
1.0000000000
10
6.3250000000
20
0.1475790882
30
0.0000000000
10
6.3337204210
20
0.1475790882
30
0.0000000000
10
6.3511827785
20
0.1487229916
30
0.0000000000
10
6.3769110711
20
0.1538411994
30
0.0000000000
10
6.4017557746
20
0.1622741856
30
0.0000000000
10
6.4252859271
20
0.1738776601
30
0.0000000000
10
6.4471004920
20
0.1884530822
30
0.0000000000
10
6.4668257951
20
0.2057510708
30
0.0000000000
10
6.4841244435
20
0.2254756222
30
0.0000000000
10
6.4987004223
20
0.2472893569
30
0.0000000000
10
6.5103043402
20
0.2708186146
30
0.0000000000
10
6.5187376488
20
0.2956623742
30
0.0000000000
10
6.5238560523
20
0.3213896887
30
0.0000000000
10
6.5250000000
20
0.3388513918
30
0.0000000000
10
6.5250000000
20
0.3475714728
30
0.0000000000
11
6.3250000000
21
0.1475790882
31
0.0000000000
11
6.3511052540
21
0.1492900528
31
0.0000000000
11
6.3767638383
21
0.1543936713
31
0.0000000000
11
6.4015367262
21
0.1628026185
31
0.0000000000
11
6.4250000457
21
0.1743730136
31
0.0000000000
11
6.4467523327
21
0.1889068825
31
0.0000000000
11
6.4664213998
21
0.2061555450
31
0.0000000000
11
6.4836707045
21
0.2258238705
31
0.0000000000
11
6.4982051078
21
0.2475753274
31
0.0000000000
11
6.5097759236
21
0.2710377419
31
0.0000000000
11
6.5181851735
21
0.2958096657
31
0.0000000000
11
6.5232889745
21
0.3214672450
31
0.0000000000
11
6.5250000000
21
0.3475714728
31
0.0000000000
0
SPLINE
5
378
100
AcDbEntity
8
0
100
AcDbSpline
62
9
6
CONTINUOUS
70
0
71
3
72
21
73
17
74
15
42
0.0000001000
43
0.0000001000
44
0.0000000001
12
0.0000003367
22
-0.0500445334
32
0.0000000000
13
-0.0353400724
23
-0.0354335238
33
0.0000000000
40
0.0000000000
40
0.0000000000
40
0.0000000000
40
0.0000000000
40
0.1112067809
40
0.2211522766
40
0.3283565774
40
0.4314835459
40
0.5292495787
40
0.6204372497
40
0.7039103776
40
0.7786270827
40
0.8436570301
40
0.8981914170
40
0.9415529508
40
0.9732040819
40
0.9927572565
40
1.0000000000
40
1.0000000000
40
1.0000000000
40
1.0000000000
10
-6.6269883763
20
0.3976093458
30
0.0000000000
10
-6.6269883638
20
0.3957542487
30
0.0000000000
10
-6.6269901239
20
0.3920650943
30
0.0000000000
10
-6.6269981088
20
0.3865876149
30
0.0000000000
10
-6.6270113391
20
0.3812449315
30
0.0000000000
10
-6.6270296256
20
0.3761054286
30
0.0000000000
10
-6.6270527842
20
0.3712331552
30
0.0000000000
10
-6.6270803212
20
0.3666886795
30
0.0000000000
10
-6.6271124868
20
0.3625290242
30
0.0000000000
10
-6.6271468419
20
0.3588048570
30
0.0000000000
10
-6.6271890298
20
0.3555662724
30
0.0000000000
10
-6.6272202871
20
0.3528427462
30
0.0000000000
10
-6.6272897260
20
0.3506979480
30
0.0000000000
10
-6.6272715355
20
0.3490841297
30
0.0000000000
10
-6.6274252777
20
0.3481773685
30
0.0000000000
10
-6.6273355921
20
0.3476570181
30
0.0000000000
10
-6.6274209118
20
0.3475714728
30
0.0000000000
11
-6.6269883763
21
0.3976093458
31
0.0000000000
11
-6.6269910487
21
0.3920440550
31
0.0000000000
11
-6.6269991213
21
0.3865418899
31
0.0000000000
11
-6.6270124934
21
0.3811769173
31
0.0000000000
11
-6.6270309991
21
0.3760160095
31
0.0000000000
11
-6.6270544081
21
0.3711234100
31
0.0000000000
11
-6.6270824294
21
0.3665600516
31
0.0000000000
11
-6.6271147140
21
0.3623828026
31
0.0000000000
11
-6.6271508592
21
0.3586438146
31
0.0000000000
11
-6.6271904141
21
0.3553896617
31
0.0000000000
11
-6.6272328860
21
0.3526608442
31
0.0000000000
11
-6.6272777460
21
0.3504913002
31
0.0000000000
11
-6.6273244357
21
0.3489080224
31
0.0000000000
11
-6.6273723730
21
0.3479306678
31
0.0000000000
11
-6.6274209118
21
0.3475714728
31
0.0000000000
0
SPLINE
5
379
100
AcDbEntity
8
0
100
AcDbSpline
62
9
6
CONTINUOUS
70
0
71
3
72
9
73
5
74
3
42
0.0000001000
43
0.0000001000
44
0.0000000001
12
0.0000055795
22
-0.4004171363
32
0.0000000000
13
0.0000027799
23
-0.4004171363
33
0.0000000000
40
0.0000000000
40
0.0000000000
40
0.0000000000
40
0.0000000000
40
0.4999991337
40
1.0000000000
40
1.0000000000
40
1.0000000000
40
1.0000000000
10
-6.6269925563
20
0.7980264822
30
0.0000000000
10
-6.6269916264
20
0.7312904084
30
0.0000000000
10
-6.6269899994
20
0.5978180296
30
0.0000000000
10
-6.6269888396
20
0.4643456508
30
0.0000000000
10
-6.6269883763
20
0.3976093458
30
0.0000000000
11
-6.6269925563
21
0.7980264822
31
0.0000000000
11
-6.6269901162
21
0.5978182609
31
0.0000000000
11
-6.6269883763
21
0.3976093458
31
0.0000000000
0
SPLINE
5
37A
100
AcDbEntity
8
0
100
AcDbSpline
62
9
6
CONTINUOUS
70
0
71
3
72
23
73
19
74
17
42
0.0000001000
43
0.0000001000
44
0.0000000001
12
-0.2499932721
22
-0.0000000359
32
0.0000000000
13
-0.2236471418
23
-0.1117076186
33
0.0000000000
40
0.0000000000
40
0.0000000000
40
0.0000000000
40
0.0000000000
40
0.0968727729
40
0.1928991250
40
0.2871109096
40
0.3786181887
40
0.4665601438
40
0.5501088361
40
0.6284766379
40
0.7009253238
40
0.7667728298
40
0.8253990603
40
0.8762513725
40
0.9188509637
40
0.9527979080
40
0.9777744628
40
0.9935499594
40
1.0000000000
40
1.0000000000
40
1.0000000000
40
1.0000000000
10
-21.8341602573
20
0.1475790882
30
0.0000000000
10
-21.8422327712
20
0.1475790871
30
0.0000000000
10
-21.8583072665
20
0.1475723106
30
0.0000000000
10
-21.8822325152
20
0.1475418459
30
0.0000000000
10
-21.9057106168
20
0.1474913814
30
0.0000000000
10
-21.9285149846
20
0.1474214125
30
0.0000000000
10
-21.9504307105
20
0.1473326148
30
0.0000000000
10
-21.9712514257
20
0.1472258878
30
0.0000000000
10
-21.9907809212
20
0.1471021865
30
0.0000000000
10
-22.0088353189
20
0.1469630918
30
0.0000000000
10
-22.0252441067
20
0.1468089209
30
0.0000000000
10
-22.0398541097
20
0.1466448389
30
0.0000000000
10
-22.0525232485
20
0.1464618938
30
0.0000000000
10
-22.0631450462
20
0.1462941267
30
0.0000000000
10
-22.0715841291
20
0.1460568720
30
0.0000000000
10
-22.0778505128
20
0.1459749781
30
0.0000000000
10
-22.0816960353
20
0.1455860820
30
0.0000000000
10
-22.0836413098
20
0.1456756345
30
0.0000000000
10
-22.0841221542
20
0.1454354616
30
0.0000000000
11
-21.8341602573
21
0.1475790882
31
0.0000000000
11
-21.8583777966
21
0.1475688278
31
0.0000000000
11
-21.8823837190
21
0.1475381147
31
0.0000000000
11
-21.9059359763
21
0.1474872379
31
0.0000000000
11
-21.9288120716
21
0.1474166765
31
0.0000000000
11
-21.9507967862
21
0.1473270947
31
0.0000000000
11
-21.9716831192
21
0.1472193350
31
0.0000000000
11
-21.9912741441
21
0.1470944131
31
0.0000000000
11
-22.0093852800
21
0.1469535056
31
0.0000000000
11
-22.0258459784
21
0.1467979390
31
0.0000000000
11
-22.0405011700
21
0.1466291780
31
0.0000000000
11
-22.0532126263
21
0.1464488143
31
0.0000000000
11
-22.0638605378
21
0.1462585486
31
0.0000000000
11
-22.0723447266
21
0.1460601723
31
0.0000000000
11
-22.0785853435
21
0.1458555520
31
0.0000000000
11
-22.0825235733
21
0.1456466211
31
0.0000000000
11
-22.0841221542
21
0.1454354616
31
0.0000000000
0
SPLINE
5
37B
100
AcDbEntity
8
0
100
AcDbSpline
62
9
6
CONTINUOUS
70
0
71
3
72
21
73
17
74
15
42
0.0000001000
43
0.0000001000
44
0.0000000001
12
-0.0353400724
22
0.0354335238
32
0.0000000000
13
0.0000003367
23
0.0500445334
33
0.0000000000
40
0.0000000000
40
0.0000000000
40
0.0000000000
40
0.0000000000
40
0.0072427435
40
0.0267959181
40
0.0584470492
40
0.1018085830
40
0.1563429699
40
0.2213729173
40
0.2960896224
40
0.3795627503
40
0.4707504213
40
0.5685164541
40
0.6716434226
40
0.7788477234
40
0.8887932191
40
1.0000000000
40
1.0000000000
40
1.0000000000
40
1.0000000000
10
-16.0225790882
20
0.3475714728
30
0.0000000000
10
-16.0226644079
20
0.3476570181
30
0.0000000000
10
-16.0225747223
20
0.3481773685
30
0.0000000000
10
-16.0227284645
20
0.3490841297
30
0.0000000000
10
-16.0227102740
20
0.3506979480
30
0.0000000000
10
-16.0227797129
20
0.3528427462
30
0.0000000000
10
-16.0228109702
20
0.3555662724
30
0.0000000000
10
-16.0228531581
20
0.3588048570
30
0.0000000000
10
-16.0228875132
20
0.3625290242
30
0.0000000000
10
-16.0229196788
20
0.3666886795
30
0.0000000000
10
-16.0229472158
20
0.3712331552
30
0.0000000000
10
-16.0229703744
20
0.3761054286
30
0.0000000000
10
-16.0229886609
20
0.3812449315
30
0.0000000000
10
-16.0230018912
20
0.3865876149
30
0.0000000000
10
-16.0230098761
20
0.3920650943
30
0.0000000000
10
-16.0230116362
20
0.3957542487
30
0.0000000000
10
-16.0230116237
20
0.3976093458
30
0.0000000000
11
-16.0225790882
21
0.3475714728
31
0.0000000000
11
-16.0226276270
21
0.3479306678
31
0.0000000000
11
-16.0226755643
21
0.3489080224
31
0.0000000000
11
-16.0227222540
21
0.3504913002
31
0.0000000000
11
-16.0227671140
21
0.3526608442
31
0.0000000000
11
-16.0228095859
21
0.3553896617
31
0.0000000000
11
-16.0228491408
21
0.3586438146
31
0.0000000000
11
-16.0228852860
21
0.3623828026
31
0.0000000000
11
-16.0229175706
21
0.3665600516
31
0.0000000000
11
-16.0229455919
21
0.3711234100
31
0.0000000000
11
-16.0229690009
21
0.3760160095
31
0.0000000000
11
-16.0229875066
21
0.3811769173
31
0.0000000000
11
-16.0230008787
21
0.3865418899
31
0.0000000000
11
-16.0230089513
21
0.3920440550
31
0.0000000000
11
-16.0230116237
21
0.3976093458
31
0.0000000000
0
SPLINE
5
37C
100
AcDbEntity
8
0
100
AcDbSpline
62
9
6
CONTINUOUS
70
0
71
3
72
9
73
5
74
3
42
0.0000001000
43
0.0000001000
44
0.0000000001
12
0.0000027799
22
0.4004171363
32
0.0000000000
13
0.0000055795
23
0.4004171363
33
0.0000000000
40
0.0000000000
40
0.0000000000
40
0.0000000000
40
0.0000000000
40
0.5000008663
40
1.0000000000
40
1.0000000000
40
1.0000000000
40
1.0000000000
10
-16.0230116237
20
0.3976093458
30
0.0000000000
10
-16.0230111604
20
0.4643456508
30
0.0000000000
10
-16.0230100006
20
0.5978180296
30
0.0000000000
10
-16.0230083736
20
0.7312904084
30
0.0000000000
10
-16.0230074437
20
0.7980264822
30
0.0000000000
11
-16.0230116237
21
0.3976093458
31
0.0000000000
11
-16.0230098838
21
0.5978182609
31
0.0000000000
11
-16.0230074437
21
0.7980264822
31
0.0000000000
0
SPLINE
5
37D
100
AcDbEntity
8
0
100
AcDbSpline
62
9
6
CONTINUOUS
70
0
71
3
72
20
73
16
74
14
42
0.0000001000
43
0.0000001000
44
0.0000000001
12
-0.0021818749
22
0.2500942423
32
0.0000000000
13
0.2500942365
23
0.0021825393
33
0.0000000000
40
0.0000000000
40
0.0000000000
40
0.0000000000
40
0.0000000000
40
0.1204740212
40
0.2391899204
40
0.3544174525
40
0.4644772844
40
0.5677655181
40
0.6627771330
40
0.7481280274
40
0.8225753784
40
0.8850361355
40
0.9346037017
40
0.9705637841
40
0.9924160493
40
1.0000000000
40
1.0000000000
40
1.0000000000
40
1.0000000000
10
-42.9333038804
20
-0.3954259424
30
0.0000000000
10
-42.9333915002
20
-0.3853826561
30
0.0000000000
10
-42.9335445702
20
-0.3654424528
30
0.0000000000
10
-42.9337085385
20
-0.3358958713
30
0.0000000000
10
-42.9338040729
20
-0.3072170589
30
0.0000000000
10
-42.9338295740
20
-0.2798247581
30
0.0000000000
10
-42.9337859730
20
-0.2541161703
30
0.0000000000
10
-42.9336705254
20
-0.2304732523
30
0.0000000000
10
-42.9334973371
20
-0.2092175816
30
0.0000000000
10
-42.9332329301
20
-0.1907305177
30
0.0000000000
10
-42.9329915411
20
-0.1750706502
30
0.0000000000
10
-42.9324813220
20
-0.1630453023
30
0.0000000000
10
-42.9324594023
20
-0.1533911879
30
0.0000000000
10
-42.9314124905
20
-0.1492209363
30
0.0000000000
10
-42.9317546468
20
-0.1454409791
30
0.0000000000
10
-42.9311224127
20
-0.1454354616
30
0.0000000000
11
-42.9333038804
21
-0.3954259424
31
0.0000000000
11
-42.9335349362
21
-0.3652958227
31
0.0000000000
11
-42.9336990117
21
-0.3356049833
31
0.0000000000
11
-42.9337937149
21
-0.3067862999
31
0.0000000000
11
-42.9338176651
21
-0.2792599326
31
0.0000000000
11
-42.9337705130
21
-0.2534272000
31
0.0000000000
11
-42.9336529462
21
-0.2296647288
31
0.0000000000
11
-42.9334666786
21
-0.2083189619
31
0.0000000000
11
-42.9332144260
21
-0.1897011083
31
0.0000000000
11
-42.9328998661
21
-0.1740826054
31
0.0000000000
11
-42.9325275850
21
-0.1616911618
31
0.0000000000
11
-42.9321030103
21
-0.1527074372
31
0.0000000000
11
-42.9316323322
21
-0.1472624088
31
0.0000000000
11
-42.9311224127
21
-0.1454354616
31
0.0000000000
0
SPLINE
5
37E
100
AcDbEntity
8
0
100
AcDbSpline
62
9
6
CONTINUOUS
70
0
71
3
72
10
73
6
74
4
42
0.0000001000
43
0.0000001000
44
0.0000000001
12
0.0072005237
22
-9.0956283078
32
0.0000000000
13
0.1728169920
23
-9.0939892483
33
0.0000000000
40
0.0000000000
40
0.0000000000
40
0.0000000000
40
0.0000000000
40
0.3333344109
40
0.6666647140
40
1.0000000000
40
1.0000000000
40
1.0000000000
40
1.0000000000
10
-42.9333038804
20
-0.3954259424
30
0.0000000000
10
-42.9325038197
20
-1.4060545771
30
0.0000000000
10
-42.9247693540
20
-3.4273001209
30
0.0000000000
10
-42.8947650500
20
-6.4590454604
30
0.0000000000
10
-42.8624945112
20
-8.4800508310
30
0.0000000000
10
-42.8432925107
20
-9.4905000000
30
0.0000000000
11
-42.9333038804
21
-0.3954259424
31
0.0000000000
11
-42.9217021823
21
-3.4272905992
31
0.0000000000
11
-42.8916983199
21
-6.4589916235
31
0.0000000000
11
-42.8432925107
21
-9.4905000000
31
0.0000000000
0
SPLINE
5
37F
100
AcDbEntity
8
0
100
AcDbSpline
62
9
6
CONTINUOUS
70
0
71
3
72
23
73
19
74
17
42
0.0000001000
43
0.0000001000
44
0.0000000001
12
-0.4912721170
22
-0.0023379484
32
0.0000000000
13
-0.4912716748
23
-0.0024293364
33
0.0000000000
40
0.0000000000
40
0.0000000000
40
0.0000000000
40
0.0000000000
40
0.0985602251
40
0.1960167833
40
0.2914631652
40
0.3839961174
40
0.4727455191
40
0.5568758523
40
0.6355940985
40
0.7081588021
40
0.7738868799
40
0.8321595372
40
0.8824278157
40
0.9242179874
40
0.9571367961
40
0.9808745532
40
0.9952069709
40
1.0000000000
40
1.0000000000
40
1.0000000000
40
1.0000000000
10
-42.9333038804
20
-0.3954259424
30
0.0000000000
10
-42.9494438439
20
-0.3955027520
30
0.0000000000
10
-42.9815430371
20
-0.3956555520
30
0.0000000000
10
-43.0292722788
20
-0.3958827685
30
0.0000000000
10
-43.0760145097
20
-0.3961053698
30
0.0000000000
10
-43.1213308795
20
-0.3963212125
30
0.0000000000
10
-43.1647941626
20
-0.3965282874
30
0.0000000000
10
-43.2059951856
20
-0.3967246306
30
0.0000000000
10
-43.2445458448
20
-0.3969083949
30
0.0000000000
10
-43.2800829989
20
-0.3970778451
30
0.0000000000
10
-43.3122720369
20
-0.3972313820
30
0.0000000000
10
-43.3408098709
20
-0.3973675606
30
0.0000000000
10
-43.3654276963
20
-0.3974850827
30
0.0000000000
10
-43.3858936419
20
-0.3975828731
30
0.0000000000
10
-43.4020150195
20
-0.3976599136
30
0.0000000000
10
-43.4136399867
20
-0.3977156962
30
0.0000000000
10
-43.4206591518
20
-0.3977492199
30
0.0000000000
10
-43.4237910825
20
-0.3977645724
30
0.0000000000
10
-43.4245759757
20
-0.3977684537
30
0.0000000000
11
-42.9333038804
21
-0.3954259424
31
0.0000000000
11
-42.9817237707
21
-0.3956564146
31
0.0000000000
11
-43.0296014599
21
-0.3958843500
31
0.0000000000
11
-43.0764916053
21
-0.3961076474
31
0.0000000000
11
-43.1219504637
21
-0.3963241740
31
0.0000000000
11
-43.1655505690
21
-0.3965318996
31
0.0000000000
11
-43.2068814547
21
-0.3967288636
31
0.0000000000
11
-43.2455535327
21
-0.3969132080
31
0.0000000000
11
-43.2812025466
21
-0.3970831934
31
0.0000000000
11
-43.3134929169
21
-0.3972372169
31
0.0000000000
11
-43.3421206468
21
-0.3973738257
31
0.0000000000
11
-43.3668160486
21
-0.3974917300
31
0.0000000000
11
-43.3873463929
21
-0.3975898168
31
0.0000000000
11
-43.4035184839
21
-0.3976671602
31
0.0000000000
11
-43.4151801803
21
-0.3977230323
31
0.0000000000
11
-43.4222212958
21
-0.3977569022
31
0.0000000000
11
-43.4245759757
21
-0.3977684537
31
0.0000000000
0
SPLINE
5
380
100
AcDbEntity
8
0
100
AcDbSpline
62
9
6
CONTINUOUS
70
0
71
3
72
14
73
10
74
8
42
0.0000001000
43
0.0000001000
44
0.0000000001
12
0.2222121841
22
-11.6932381474
32
0.0000000000
13
1.7439992525
23
-11.5645866003
33
0.0000000000
40
0.0000000000
40
0.0000000000
40
0.0000000000
40
0.0000000000
40
0.1428569275
40
0.2857140438
40
0.4285711875
40
0.5714283579
40
0.7142855692
40
0.8571428203
40
1.0000000000
40
1.0000000000
40
1.0000000000
40
1.0000000000
10
-42.8432925107
20
-9.4905000000
30
0.0000000000
10
-42.8327109941
20
-10.0473200247
30
0.0000000000
10
-42.8011523295
20
-11.1607912806
30
0.0000000000
10
-42.7226456166
20
-12.8298014241
30
0.0000000000
10
-42.6129970064
20
-14.4970623660
30
0.0000000000
10
-42.4722449180
20
-16.1619843203
30
0.0000000000
10
-42.3004380320
20
-17.8239912085
30
0.0000000000
10
-42.0976374170
20
-19.4824953524
30
0.0000000000
10
-41.9418187392
20
-20.5854632075
30
0.0000000000
10
-41.8587711344
20
-21.1361579495
30
0.0000000000
11
-42.8432925107
21
-9.4905000000
31
0.0000000000
11
-42.7959575749
21
-11.1605910092
31
0.0000000000
11
-42.7174553143
21
-12.8295096259
31
0.0000000000
11
-42.6078131059
21
-14.4966723695
31
0.0000000000
11
-42.4670691399
21
-16.1614982481
31
0.0000000000
11
-42.2952724279
21
-17.8234072572
31
0.0000000000
11
-42.0924828140
21
-19.4818202323
31
0.0000000000
11
-41.8587711344
21
-21.1361579495
31
0.0000000000
0
SPLINE
5
381
100
AcDbEntity
8
0
100
AcDbSpline
62
9
6
CONTINUOUS
70
0
71
3
72
22
73
18
74
16
42
0.0000001000
43
0.0000001000
44
0.0000000001
12
-0.4858806943
22
-0.0732956602
32
0.0000000000
13
0.0732741508
23
-0.4858839385
33
0.0000000000
40
0.0000000000
40
0.0000000000
40
0.0000000000
40
0.0000000000
40
0.1050884342
40
0.2088624530
40
0.3102099187
40
0.4080446996
40
0.5013183102
40
0.5890311488
40
0.6702432104
40
0.7440841626
40
0.8097626747
40
0.8665749025
40
0.9139120398
40
0.9512668630
40
0.9782392264
40
0.9945406075
40
1.0000000000
40
1.0000000000
40
1.0000000000
40
1.0000000000
10
-41.8587711344
20
-21.1361579495
30
0.0000000000
10
-41.8757912815
20
-21.1387254582
30
0.0000000000
10
-41.9096180097
20
-21.1438328977
30
0.0000000000
10
-41.9598565912
20
-21.1514323319
30
0.0000000000
10
-42.0089183691
20
-21.1588678963
30
0.0000000000
10
-42.0562774435
20
-21.1660599607
30
0.0000000000
10
-42.1014266463
20
-21.1729311770
30
0.0000000000
10
-42.1438808320
20
-21.1794087243
30
0.0000000000
10
-42.1831893462
20
-21.1854202735
30
0.0000000000
10
-42.2189168038
20
-21.1909106681
30
0.0000000000
10
-42.2507251948
20
-21.1957912548
30
0.0000000000
10
-42.2781364289
20
-21.2001003123
30
0.0000000000
10
-42.3012568511
20
-21.2035265425
30
0.0000000000
10
-42.3187483809
20
-21.2067538760
30
0.0000000000
10
-42.3331087239
20
-21.2079690861
30
0.0000000000
10
-42.3386471593
20
-21.2108170013
30
0.0000000000
10
-42.3445878585
20
-21.2098332748
30
0.0000000000
10
-42.3444545144
20
-21.2107174852
30
0.0000000000
11
-41.8587711344
21
-21.1361579495
31
0.0000000000
11
-41.9098305349
21
-21.1438673724
31
0.0000000000
11
-41.9602492130
21
-21.1514941733
31
0.0000000000
11
-42.0094868319
21
-21.1589566159
31
0.0000000000
11
-42.0570157122
21
-21.1661747253
31
0.0000000000
11
-42.1023264872
21
-21.1730711449
31
0.0000000000
11
-42.1449335614
21
-21.1795719659
31
0.0000000000
11
-42.1843803149
21
-21.1856075190
31
0.0000000000
11
-42.2202439971
21
-21.1911131213
31
0.0000000000
11
-42.2521402570
21
-21.1960297691
31
0.0000000000
11
-42.2797272624
21
-21.2003047707
31
0.0000000000
11
-42.3027093637
21
-21.2038923111
31
0.0000000000
11
-42.3208402616
21
-21.2067539426
31
0.0000000000
11
-42.3339256474
21
-21.2088589970
31
0.0000000000
11
-42.3418252852
21
-21.2101849145
31
0.0000000000
11
-42.3444545144
21
-21.2107174852
31
0.0000000000
0
SPLINE
5
382
100
AcDbEntity
8
0
100
AcDbSpline
62
9
6
CONTINUOUS
70
0
71
3
72
23
73
19
74
17
42
0.0000001000
43
0.0000001000
44
0.0000000001
12
0.1020294260
22
-0.6765203585
32
0.0000000000
13
0.6832328697
23
-0.0358140348
33
0.0000000000
40
0.0000000000
40
0.0000000000
40
0.0000000000
40
0.0000000000
40
0.0624833838
40
0.1249836525
40
0.1874854306
40
0.2499869196
40
0.3124887588
40
0.3749913460
40
0.4374941581
40
0.4999969126
40
0.5624998134
40
0.6250031048
40
0.6875066427
40
0.7500098723
40
0.8125131103
40
0.8750169775
40
0.9375196316
40
1.0000000000
40
1.0000000000
40
1.0000000000
40
1.0000000000
10
-41.8587711344
20
-21.1361579495
30
0.0000000000
10
-41.8566460864
20
-21.1502483766
30
0.0000000000
10
-41.8511873290
20
-21.1782660575
30
0.0000000000
10
-41.8394402109
20
-21.2194297104
30
0.0000000000
10
-41.8242168689
20
-21.2594461781
30
0.0000000000
10
-41.8056299367
20
-21.2980149861
30
0.0000000000
10
-41.7838153327
20
-21.3348549708
30
0.0000000000
10
-41.7589325027
20
-21.3696964320
30
0.0000000000
10
-41.7311634465
20
-21.4022844864
30
0.0000000000
10
-41.7007113488
20
-21.4323806216
30
0.0000000000
10
-41.6677989154
20
-21.4597647179
30
0.0000000000
10
-41.6326668018
20
-21.4842364821
30
0.0000000000
10
-41.5955720728
20
-21.5056168241
30
0.0000000000
10
-41.5567860552
20
-21.5237492921
30
0.0000000000
10
-41.5165926864
20
-21.5385013308
30
0.0000000000
10
-41.4752850291
20
-21.5497648628
30
0.0000000000
10
-41.4331744039
20
-21.5574567671
30
0.0000000000
10
-41.4047590372
20
-21.5601672839
30
0.0000000000
10
-41.3905294901
20
-21.5609131753
30
0.0000000000
11
-41.8587711344
21
-21.1361579495
31
0.0000000000
11
-41.8505951670
21
-21.1781181358
31
0.0000000000
11
-41.8388611393
21
-21.2192375241
31
0.0000000000
11
-41.8236562663
21
-21.2592049065
31
0.0000000000
11
-41.8050920451
21
-21.2977267521
31
0.0000000000
11
-41.7833040821
21
-21.3345216983
31
0.0000000000
11
-41.7584515169
21
-21.3693207955
31
0.0000000000
11
-41.7307162720
21
-21.4018691673
31
0.0000000000
11
-41.7003013316
21
-21.4319285810
31
0.0000000000
11
-41.6674290634
21
-21.4592792573
31
0.0000000000
11
-41.6323397566
21
-21.4837212073
31
0.0000000000
11
-41.5952901270
21
-21.5050755449
31
0.0000000000
11
-41.5565515105
21
-21.5231858831
31
0.0000000000
11
-41.5164070869
21
-21.5379198741
31
0.0000000000
11
-41.4751500751
21
-21.5491698092
31
0.0000000000
11
-41.4330835011
21
-21.5568531955
31
0.0000000000
11
-41.3905294901
21
-21.5609131753
31
0.0000000000
0
SPLINE
5
383
100
AcDbEntity
8
0
100
AcDbSpline
62
9
6
CONTINUOUS
70
0
71
3
72
22
73
18
74
16
42
0.0000001000
43
0.0000001000
44
0.0000000001
12
-0.0261514579
22
-0.4991515767
32
0.0000000000
13
0.4991511603
23
-0.0261594038
33
0.0000000000
40
0.0000000000
40
0.0000000000
40
0.0000000000
40
0.0000000000
40
0.1044971476
40
0.2078410869
40
0.3089012375
40
0.4065720369
40
0.4997850561
40
0.5875207150
40
0.6688194744
40
0.7427923923
40
0.8086309456
40
0.8656160558
40
0.9131263254
40
0.9506457188
40
0.9777718210
40
0.9942313976
40
1.0000000000
40
1.0000000000
40
1.0000000000
40
1.0000000000
10
-41.3905294901
20
-21.5609131753
30
0.0000000000
10
-41.3914404076
20
-21.5782998139
30
0.0000000000
10
-41.3932207967
20
-21.6128828702
30
0.0000000000
10
-41.3957725094
20
-21.6642862690
30
0.0000000000
10
-41.3981724676
20
-21.7145583802
30
0.0000000000
10
-41.4003944623
20
-21.7631489713
30
0.0000000000
10
-41.4024144733
20
-21.8095265808
30
0.0000000000
10
-41.4042101330
20
-21.8531827014
30
0.0000000000
10
-41.4057637986
20
-21.8936428797
30
0.0000000000
10
-41.4070535926
20
-21.9304535840
30
0.0000000000
10
-41.4080835229
20
-21.9632462468
30
0.0000000000
10
-41.4087910808
20
-21.9915572577
30
0.0000000000
10
-41.4093253515
20
-22.0153828557
30
0.0000000000
10
-41.4092664459
20
-22.0336285156
30
0.0000000000
10
-41.4096657702
20
-22.0481552738
30
0.0000000000
10
-41.4084180525
20
-22.0545652618
30
0.0000000000
10
-41.4089310665
20
-22.0601776416
30
0.0000000000
10
-41.4079712650
20
-22.0602279426
30
0.0000000000
11
-41.3905294901
21
-21.5609131753
31
0.0000000000
11
-41.3932146248
21
-21.6130755643
31
0.0000000000
11
-41.3957748798
21
-21.6646671150
31
0.0000000000
11
-41.3981822370
21
-21.7151232363
31
0.0000000000
11
-41.4004103513
21
-21.7638917625
31
0.0000000000
11
-41.4024348396
21
-21.8104389959
31
0.0000000000
11
-41.4042335468
21
-21.8542555477
31
0.0000000000
11
-41.4057867888
21
-21.8948619124
31
0.0000000000
11
-41.4070775678
21
-21.9318137147
31
0.0000000000
11
-41.4080917582
21
-21.9647065732
31
0.0000000000
11
-41.4088182611
21
-21.9931805257
31
0.0000000000
11
-41.4092491261
21
-22.0169239677
31
0.0000000000
11
-41.4093796380
21
-22.0356770634
31
0.0000000000
11
-41.4092083686
21
-22.0492345886
31
0.0000000000
11
-41.4087371921
21
-22.0574481768
31
0.0000000000
11
-41.4079712650
21
-22.0602279426
31
0.0000000000
0
SPLINE
5
384
100
AcDbEntity
8
0
100
AcDbSpline
62
9
6
CONTINUOUS
70
0
71
3
72
20
73
16
74
14
42
0.0000001000
43
0.0000001000
44
0.0000000001
12
-0.2500942365
22
0.0021825393
32
0.0000000000
13
0.0021818749
23
0.2500942423
33
0.0000000000
40
0.0000000000
40
0.0000000000
40
0.0000000000
40
0.0000000000
40
0.0075839501
40
0.0294362131
40
0.0653962920
40
0.1149638540
40
0.1774246068
40
0.2518719540
40
0.3372228459
40
0.4322344602
40
0.5355226953
40
0.6455825306
40
0.7608100677
40
0.8795259728
40
1.0000000000
40
1.0000000000
40
1.0000000000
40
1.0000000000
10
-42.9311224127
20
0.1454354616
30
0.0000000000
10
-42.9317546468
20
0.1454409791
30
0.0000000000
10
-42.9314124905
20
0.1492209359
30
0.0000000000
10
-42.9324594022
20
0.1533911872
30
0.0000000000
10
-42.9324813219
20
0.1630453007
30
0.0000000000
10
-42.9329915411
20
0.1750706476
30
0.0000000000
10
-42.9332329301
20
0.1907305140
30
0.0000000000
10
-42.9334973371
20
0.2092175770
30
0.0000000000
10
-42.9336705253
20
0.2304732472
30
0.0000000000
10
-42.9337859730
20
0.2541161650
30
0.0000000000
10
-42.9338295740
20
0.2798247532
30
0.0000000000
10
-42.9338040729
20
0.3072170548
30
0.0000000000
10
-42.9337085385
20
0.3358958685
30
0.0000000000
10
-42.9335445702
20
0.3654424513
30
0.0000000000
10
-42.9333915002
20
0.3853826556
30
0.0000000000
10
-42.9333038804
20
0.3954259424
30
0.0000000000
11
-42.9311224127
21
0.1454354616
31
0.0000000000
11
-42.9316323321
21
0.1472624086
31
0.0000000000
11
-42.9321030103
21
0.1527074365
31
0.0000000000
11
-42.9325275850
21
0.1616911602
31
0.0000000000
11
-42.9328998661
21
0.1740826028
31
0.0000000000
11
-42.9332144260
21
0.1897011046
31
0.0000000000
11
-42.9334666786
21
0.2083189572
31
0.0000000000
11
-42.9336529461
21
0.2296647235
31
0.0000000000
11
-42.9337705130
21
0.2534271946
31
0.0000000000
11
-42.9338176651
21
0.2792599275
31
0.0000000000
11
-42.9337937149
21
0.3067862957
31
0.0000000000
11
-42.9336990117
21
0.3356049803
31
0.0000000000
11
-42.9335349362
21
0.3652958212
31
0.0000000000
11
-42.9333038804
21
0.3954259424
31
0.0000000000
0
SPLINE
5
385
100
AcDbEntity
8
0
100
AcDbSpline
62
7
6
CONTINUOUS
70
0
71
3
72
20
73
16
74
14
42
0.0000001000
43
0.0000001000
44
0.0000000001
12
-0.2499881641
22
0.0021816137
32
0.0000000000
13
0.0000000000
23
0.2499976833
33
0.0000000000
40
0.0000000000
40
0.0000000000
40
0.0000000000
40
0.0000000000
40
0.0073668376
40
0.0291581262
40
0.0650954164
40
0.1146599211
40
0.1771307348
40
0.2515981450
40
0.3369775016
40
0.4320251798
40
0.5353567170
40
0.6454669424
40
0.7607518384
40
0.8795318271
40
1.0000000000
40
1.0000000000
40
1.0000000000
40
1.0000000000
10
-37.7247341128
20
0.0999999993
30
0.0000000000
10
-37.7253479869
20
0.1000053565
30
0.0000000000
10
-37.7244395613
20
0.1038648065
30
0.0000000000
10
-37.7256364248
20
0.1079168691
30
0.0000000000
10
-37.7252151599
20
0.1176269486
30
0.0000000000
10
-37.7255869208
20
0.1296235210
30
0.0000000000
10
-37.7255751315
20
0.1452917235
30
0.0000000000
10
-37.7256491030
20
0.1637737738
30
0.0000000000
10
-37.7256355396
20
0.1850293651
30
0.0000000000
10
-37.7255926290
20
0.2086710657
30
0.0000000000
10
-37.7255007566
20
0.2343795264
30
0.0000000000
10
-37.7253719446
20
0.2617724494
30
0.0000000000
10
-37.7251859805
20
0.2904529902
30
0.0000000000
10
-37.7250256605
20
0.3199965775
30
0.0000000000
10
-37.7247341959
20
0.3399325220
30
0.0000000000
10
-37.7247341959
20
0.3499714434
30
0.0000000000
11
-37.7247341128
21
0.0999999993
31
0.0000000000
11
-37.7249811657
21
0.1018250460
31
0.0000000000
11
-37.7251927946
21
0.1072687056
31
0.0000000000
11
-37.7253659193
21
0.1162512767
31
0.0000000000
11
-37.7254980199
21
0.1286415838
31
0.0000000000
11
-37.7255871738
21
0.1442588880
31
0.0000000000
11
-37.7256320832
21
0.1628755139
31
0.0000000000
11
-37.7256320942
21
0.1842201552
31
0.0000000000
11
-37.7255872060
21
0.2079818122
31
0.0000000000
11
-37.7254980712
21
0.2338143033
31
0.0000000000
11
-37.7253659861
21
0.2613412877
31
0.0000000000
11
-37.7251928725
21
0.2901617247
31
0.0000000000
11
-37.7249812491
21
0.3198556926
31
0.0000000000
11
-37.7247341959
21
0.3499714434
31
0.0000000000
0
SPLINE
5
386
100
AcDbEntity
8
0
100
AcDbSpline
62
7
6
CONTINUOUS
70
0
71
3
72
25
73
21
74
19
42
0.0000001000
43
0.0000001000
44
0.0000000001
12
0.0000000000
22
0.5000773652
32
0.0000000000
13
0.4993920266
23
0.0261720271
33
0.0000000000
40
0.0000000000
40
0.0000000000
40
0.0000000000
40
0.0000000000
40
0.0875273599
40
0.1739491091
40
0.2590624646
40
0.3422175622
40
0.4227791692
40
0.5001316701
40
0.5736838998
40
0.6428737870
40
0.7071727697
40
0.7660899460
40
0.8191759306
40
0.8660263887
40
0.9062852286
40
0.9396474557
40
0.9658617446
40
0.9847330141
40
0.9961267051
40
1.0000000000
40
1.0000000000
40
1.0000000000
40
1.0000000000
10
-37.7247341959
20
21.7525720450
30
0.0000000000
10
-37.7247341959
20
21.7671621955
30
0.0000000000
10
-37.7273368206
20
21.7960907857
30
0.0000000000
10
-37.7291126432
20
21.8392291365
30
0.0000000000
10
-37.7313666497
20
21.8816271628
30
0.0000000000
10
-37.7333945046
20
21.9230549683
30
0.0000000000
10
-37.7353607972
20
21.9631914261
30
0.0000000000
10
-37.7372041319
20
22.0017310370
30
0.0000000000
10
-37.7389222161
20
22.0383788719
30
0.0000000000
10
-37.7404991922
20
22.0728551678
30
0.0000000000
10
-37.7419232578
20
22.1048956892
30
0.0000000000
10
-37.7431854256
20
22.1342584393
30
0.0000000000
10
-37.7442701449
20
22.1607107825
30
0.0000000000
10
-37.7451889337
20
22.1840781288
30
0.0000000000
10
-37.7458766283
20
22.2041009954
30
0.0000000000
10
-37.7464992282
20
22.2208637044
30
0.0000000000
10
-37.7465941810
20
22.2335999375
30
0.0000000000
10
-37.7472951299
20
22.2437820228
30
0.0000000000
10
-37.7462940803
20
22.2481132129
30
0.0000000000
10
-37.7471835043
20
22.2520816996
30
0.0000000000
10
-37.7465387401
20
22.2521154903
30
0.0000000000
11
-37.7247341959
21
21.7525720450
31
0.0000000000
11
-37.7269963074
21
21.7962840031
31
0.0000000000
11
-37.7292084834
21
21.8394449093
31
0.0000000000
11
-37.7313538251
21
21.8819540710
31
0.0000000000
11
-37.7334159357
21
21.9234868926
31
0.0000000000
11
-37.7353790476
21
21.9637260709
31
0.0000000000
11
-37.7372281469
21
22.0023640849
31
0.0000000000
11
-37.7389490913
21
22.0391056084
31
0.0000000000
11
-37.7405287210
21
22.0736698281
31
0.0000000000
11
-37.7419549625
21
22.1057926473
31
0.0000000000
11
-37.7432169227
21
22.1352287551
31
0.0000000000
11
-37.7443049750
21
22.1617535478
31
0.0000000000
11
-37.7452108336
21
22.1851648827
31
0.0000000000
11
-37.7459276186
21
22.2052846532
31
0.0000000000
11
-37.7464499088
21
22.2219601706
31
0.0000000000
11
-37.7467737832
21
22.2350653417
31
0.0000000000
11
-37.7468968507
21
22.2445016339
31
0.0000000000
11
-37.7468182671
21
22.2501988190
31
0.0000000000
11
-37.7465387401
21
22.2521154903
31
0.0000000000
0
SPLINE
5
387
100
AcDbEntity
8
0
100
AcDbSpline
62
9
6
CONTINUOUS
70
0
71
3
72
10
73
6
74
4
42
0.0000001000
43
0.0000001000
44
0.0000000001
12
-0.1728169920
22
-9.0939892483
32
0.0000000000
13
-0.0072005237
23
-9.0956283078
33
0.0000000000
40
0.0000000000
40
0.0000000000
40
0.0000000000
40
0.0000000000
40
0.3333352860
40
0.6666655891
40
1.0000000000
40
1.0000000000
40
1.0000000000
40
1.0000000000
10
-42.8432925107
20
9.4905000000
30
0.0000000000
10
-42.8624945112
20
8.4800508310
30
0.0000000000
10
-42.8947650500
20
6.4590454604
30
0.0000000000
10
-42.9247693540
20
3.4273001209
30
0.0000000000
10
-42.9325038197
20
1.4060545771
30
0.0000000000
10
-42.9333038804
20
0.3954259424
30
0.0000000000
11
-42.8432925107
21
9.4905000000
31
0.0000000000
11
-42.8916983199
21
6.4589916235
31
0.0000000000
11
-42.9217021823
21
3.4272905991
31
0.0000000000
11
-42.9333038804
21
0.3954259424
31
0.0000000000
0
SPLINE
5
388
100
AcDbEntity
8
0
100
AcDbSpline
62
9
6
CONTINUOUS
70
0
71
3
72
23
73
19
74
17
42
0.0000001000
43
0.0000001000
44
0.0000000001
12
-0.4912721172
22
0.0023379026
32
0.0000000000
13
-0.4912716751
23
0.0024292801
33
0.0000000000
40
0.0000000000
40
0.0000000000
40
0.0000000000
40
0.0000000000
40
0.0985601183
40
0.1960166524
40
0.2914629810
40
0.3839959050
40
0.4727452573
40
0.5568755699
40
0.6355938110
40
0.7081585103
40
0.7738865828
40
0.8321592464
40
0.8824275537
40
0.9242177694
40
0.9571366037
40
0.9808744330
40
0.9952068768
40
1.0000000000
40
1.0000000000
40
1.0000000000
40
1.0000000000
10
-42.9333038804
20
0.3954259424
30
0.0000000000
10
-42.9494438264
20
0.3955027504
30
0.0000000000
10
-42.9815429981
20
0.3956555534
30
0.0000000000
10
-43.0292722097
20
0.3958827678
30
0.0000000000
10
-43.0760144233
20
0.3961053704
30
0.0000000000
10
-43.1213307717
20
0.3963212129
30
0.0000000000
10
-43.1647940387
20
0.3965282883
30
0.0000000000
10
-43.2059950494
20
0.3967246318
30
0.0000000000
10
-43.2445457036
20
0.3969083965
30
0.0000000000
10
-43.2800828553
20
0.3970778467
30
0.0000000000
10
-43.3122718928
20
0.3972313832
30
0.0000000000
10
-43.3408097317
20
0.3973675613
30
0.0000000000
10
-43.3654275701
20
0.3974850833
30
0.0000000000
10
-43.3858935318
20
0.3975828729
30
0.0000000000
10
-43.4020149326
20
0.3976599141
30
0.0000000000
10
-43.4136399201
20
0.3977156952
30
0.0000000000
10
-43.4206591167
20
0.3977492199
30
0.0000000000
10
-43.4237910671
20
0.3977645724
30
0.0000000000
10
-43.4245759757
20
0.3977684537
30
0.0000000000
11
-42.9333038804
21
0.3954259424
31
0.0000000000
11
-42.9817237182
21
0.3956564149
31
0.0000000000
11
-43.0296013956
21
0.3958843499
31
0.0000000000
11
-43.0764915148
21
0.3961076478
31
0.0000000000
11
-43.1219503594
21
0.3963241745
31
0.0000000000
11
-43.1655504404
21
0.3965319004
31
0.0000000000
11
-43.2068813159
21
0.3967288648
31
0.0000000000
11
-43.2455533914
21
0.3969132095
31
0.0000000000
11
-43.2812024033
21
0.3970831949
31
0.0000000000
11
-43.3134927709
21
0.3972372180
31
0.0000000000
11
-43.3421205039
21
0.3973738264
31
0.0000000000
11
-43.3668159199
21
0.3974917304
31
0.0000000000
11
-43.3873462858
21
0.3975898169
31
0.0000000000
11
-43.4035183894
21
0.3976671601
31
0.0000000000
11
-43.4151801213
21
0.3977230318
31
0.0000000000
11
-43.4222212496
21
0.3977569021
31
0.0000000000
11
-43.4245759757
21
0.3977684537
31
0.0000000000
0
SPLINE
5
389
100
AcDbEntity
8
0
100
AcDbSpline
62
9
6
CONTINUOUS
70
0
71
3
72
22
73
18
74
16
42
0.0000001000
43
0.0000001000
44
0.0000000001
12
-0.4858807332
22
0.0732956657
32
0.0000000000
13
0.0732738396
23
0.4858840252
33
0.0000000000
40
0.0000000000
40
0.0000000000
40
0.0000000000
40
0.0000000000
40
0.1050884321
40
0.2088624495
40
0.3102099143
40
0.4080446947
40
0.5013183052
40
0.5890311439
40
0.6702432060
40
0.7440841587
40
0.8097626715
40
0.8665749000
40
0.9139120380
40
0.9512668618
40
0.9782392258
40
0.9945406072
40
1.0000000000
40
1.0000000000
40
1.0000000000
40
1.0000000000
10
-41.8587711344
20
21.1361579495
30
0.0000000000
10
-41.8757912825
20
21.1387254584
30
0.0000000000
10
-41.9096180129
20
21.1438328982
30
0.0000000000
10
-41.9598565977
20
21.1514323328
30
0.0000000000
10
-42.0089183790
20
21.1588678977
30
0.0000000000
10
-42.0562774570
20
21.1660599626
30
0.0000000000
10
-42.1014266633
20
21.1729311795
30
0.0000000000
10
-42.1438808525
20
21.1794087272
30
0.0000000000
10
-42.1831893701
20
21.1854202769
30
0.0000000000
10
-42.2189168307
20
21.1909106720
30
0.0000000000
10
-42.2507252247
20
21.1957912591
30
0.0000000000
10
-42.2781364613
20
21.2001003171
30
0.0000000000
10
-42.3012568855
20
21.2035265476
30
0.0000000000
10
-42.3187484174
20
21.2067538815
30
0.0000000000
10
-42.3331087610
20
21.2079690916
30
0.0000000000
10
-42.3386471983
20
21.2108170073
30
0.0000000000
10
-42.3445878968
20
21.2098332805
30
0.0000000000
10
-42.3444545532
20
21.2107174911
30
0.0000000000
11
-41.8587711344
21
21.1361579495
31
0.0000000000
11
-41.9098305380
21
21.1438673728
31
0.0000000000
11
-41.9602492194
21
21.1514941742
31
0.0000000000
11
-42.0094868418
21
21.1589566173
31
0.0000000000
11
-42.0570157257
21
21.1661747272
31
0.0000000000
11
-42.1023265043
21
21.1730711474
31
0.0000000000
11
-42.1449335820
21
21.1795719689
31
0.0000000000
11
-42.1843803388
21
21.1856075225
31
0.0000000000
11
-42.2202440242
21
21.1911131252
31
0.0000000000
11
-42.2521402869
21
21.1960297734
31
0.0000000000
11
-42.2797272949
21
21.2003047755
31
0.0000000000
11
-42.3027093983
21
21.2038923162
31
0.0000000000
11
-42.3208402980
21
21.2067539480
31
0.0000000000
11
-42.3339256851
21
21.2088590026
31
0.0000000000
11
-42.3418253237
21
21.2101849202
31
0.0000000000
11
-42.3444545532
21
21.2107174911
31
0.0000000000
0
SPLINE
5
38A
100
AcDbEntity
8
0
100
AcDbSpline
62
9
6
CONTINUOUS
70
0
71
3
72
14
73
10
74
8
42
0.0000001000
43
0.0000001000
44
0.0000000001
12
-1.7439992524
22
-11.5645866003
32
0.0000000000
13
-0.2222121843
23
-11.6932381474
33
0.0000000000
40
0.0000000000
40
0.0000000000
40
0.0000000000
40
0.0000000000
40
0.1428571795
40
0.2857144307
40
0.4285716420
40
0.5714288126
40
0.7142859564
40
0.8571430728
40
1.0000000000
40
1.0000000000
40
1.0000000000
40
1.0000000000
10
-41.8587711344
20
21.1361579495
30
0.0000000000
10
-41.9418187391
20
20.5854632082
30
0.0000000000
10
-42.0976374169
20
19.4824953535
30
0.0000000000
10
-42.3004380319
20
17.8239912095
30
0.0000000000
10
-42.4722449180
20
16.1619843204
30
0.0000000000
10
-42.6129970065
20
14.4970623651
30
0.0000000000
10
-42.7226456167
20
12.8298014223
30
0.0000000000
10
-42.8011523296
20
11.1607912791
30
0.0000000000
10
-42.8327109941
20
10.0473200238
30
0.0000000000
10
-42.8432925107
20
9.4905000000
30
0.0000000000
11
-41.8587711344
21
21.1361579495
31
0.0000000000
11
-42.0924828138
21
19.4818202344
31
0.0000000000
11
-42.2952724278
21
17.8234072583
31
0.0000000000
11
-42.4670691399
21
16.1614982482
31
0.0000000000
11
-42.6078131059
21
14.4966723687
31
0.0000000000
11
-42.7174553144
21
12.8295096241
31
0.0000000000
11
-42.7959575750
21
11.1605910065
31
0.0000000000
11
-42.8432925107
21
9.4905000000
31
0.0000000000
0
SPLINE
5
38B
100
AcDbEntity
8
0
100
AcDbSpline
62
9
6
CONTINUOUS
70
0
71
3
72
22
73
18
74
16
42
0.0000001000
43
0.0000001000
44
0.0000000001
12
-0.0261514582
22
0.4991515766
32
0.0000000000
13
0.4991511603
23
0.0261594038
33
0.0000000000
40
0.0000000000
40
0.0000000000
40
0.0000000000
40
0.0000000000
40
0.1044971398
40
0.2078410727
40
0.3089012186
40
0.4065720150
40
0.4997850330
40
0.5875206921
40
0.6688194531
40
0.7427923735
40
0.8086309301
40
0.8656160440
40
0.9131263172
40
0.9506457139
40
0.9777718187
40
0.9942313970
40
1.0000000000
40
1.0000000000
40
1.0000000000
40
1.0000000000
10
-41.3905294901
20
21.5609131753
30
0.0000000000
10
-41.3914404076
20
21.5782998126
30
0.0000000000
10
-41.3932207965
20
21.6128828665
30
0.0000000000
10
-41.3957725092
20
21.6642862622
30
0.0000000000
10
-41.3981724672
20
21.7145583711
30
0.0000000000
10
-41.4003944620
20
21.7631489607
30
0.0000000000
10
-41.4024144729
20
21.8095265695
30
0.0000000000
10
-41.4042101327
20
21.8531826902
30
0.0000000000
10
-41.4057637983
20
21.8936428693
30
0.0000000000
10
-41.4070535925
20
21.9304535748
30
0.0000000000
10
-41.4080835228
20
21.9632462392
30
0.0000000000
10
-41.4087910808
20
21.9915572518
30
0.0000000000
10
-41.4093253515
20
22.0153828516
30
0.0000000000
10
-41.4092664460
20
22.0336285130
30
0.0000000000
10
-41.4096657704
20
22.0481552726
30
0.0000000000
10
-41.4084180525
20
22.0545652612
30
0.0000000000
10
-41.4089310666
20
22.0601776416
30
0.0000000000
10
-41.4079712650
20
22.0602279426
30
0.0000000000
11
-41.3905294901
21
21.5609131753
31
0.0000000000
11
-41.3932146247
21
21.6130755603
31
0.0000000000
11
-41.3957748796
21
21.6646671079
31
0.0000000000
11
-41.3981822366
21
21.7151232269
31
0.0000000000
11
-41.4004103509
21
21.7638917516
31
0.0000000000
11
-41.4024348392
21
21.8104389843
31
0.0000000000
11
-41.4042335465
21
21.8542555363
31
0.0000000000
11
-41.4057867886
21
21.8948619017
31
0.0000000000
11
-41.4070775677
21
21.9318137053
31
0.0000000000
11
-41.4080917581
21
21.9647065655
31
0.0000000000
11
-41.4088182611
21
21.9931805198
31
0.0000000000
11
-41.4092491261
21
22.0169239636
31
0.0000000000
11
-41.4093796381
21
22.0356770610
31
0.0000000000
11
-41.4092083687
21
22.0492345875
31
0.0000000000
11
-41.4087371922
21
22.0574481765
31
0.0000000000
11
-41.4079712650
21
22.0602279426
31
0.0000000000
0
SPLINE
5
38C
100
AcDbEntity
8
0
100
AcDbSpline
62
9
6
CONTINUOUS
70
0
71
3
72
23
73
19
74
17
42
0.0000001000
43
0.0000001000
44
0.0000000001
12
-0.6832328694
22
-0.0358140393
32
0.0000000000
13
-0.1020294313
23
-0.6765203577
33
0.0000000000
40
0.0000000000
40
0.0000000000
40
0.0000000000
40
0.0000000000
40
0.0624803339
40
0.1249829911
40
0.1874868618
40
0.2499901034
40
0.3124933371
40
0.3749968795
40
0.4375001756
40
0.5000030816
40
0.5625058416
40
0.6250086595
40
0.6875112522
40
0.7500130964
40
0.8125145900
40
0.8750163725
40
0.9375166451
40
1.0000000000
40
1.0000000000
40
1.0000000000
40
1.0000000000
10
-41.3905294901
20
21.5609131753
30
0.0000000000
10
-41.4047590293
20
21.5601672842
30
0.0000000000
10
-41.4331743889
20
21.5574567689
30
0.0000000000
10
-41.4752850082
20
21.5497648675
30
0.0000000000
10
-41.5165926682
20
21.5385013367
30
0.0000000000
10
-41.5567860399
20
21.5237492984
30
0.0000000000
10
-41.5955720606
20
21.5056168306
30
0.0000000000
10
-41.6326667928
20
21.4842364879
30
0.0000000000
10
-41.6677989096
20
21.4597647225
30
0.0000000000
10
-41.7007113460
20
21.4323806243
30
0.0000000000
10
-41.7311634465
20
21.4022844866
30
0.0000000000
10
-41.7589325051
20
21.3696964291
30
0.0000000000
10
-41.7838153368
20
21.3348549646
30
0.0000000000
10
-41.8056299419
20
21.2980149766
30
0.0000000000
10
-41.8242168746
20
21.2594461652
30
0.0000000000
10
-41.8394402163
20
21.2194296943
30
0.0000000000
10
-41.8511873318
20
21.1782660454
30
0.0000000000
10
-41.8566460873
20
21.1502483700
30
0.0000000000
10
-41.8587711344
20
21.1361579495
30
0.0000000000
11
-41.3905294901
21
21.5609131753
31
0.0000000000
11
-41.4330834777
21
21.5568531988
31
0.0000000000
11
-41.4751500541
21
21.5491698139
31
0.0000000000
11
-41.5164070687
21
21.5379198799
31
0.0000000000
11
-41.5565514952
21
21.5231858894
31
0.0000000000
11
-41.5952901147
21
21.5050755512
31
0.0000000000
11
-41.6323397476
21
21.4837212130
31
0.0000000000
11
-41.6674290574
21
21.4592792619
31
0.0000000000
11
-41.7003013286
21
21.4319285837
31
0.0000000000
11
-41.7307162719
21
21.4018691675
31
0.0000000000
11
-41.7584515193
21
21.3693207926
31
0.0000000000
11
-41.7833040862
21
21.3345216920
31
0.0000000000
11
-41.8050920503
21
21.2977267425
31
0.0000000000
11
-41.8236562719
21
21.2592048935
31
0.0000000000
11
-41.8388611447
21
21.2192375078
31
0.0000000000
11
-41.8505951716
21
21.1781181165
31
0.0000000000
11
-41.8587711344
21
21.1361579495
31
0.0000000000
0
ENDSEC
0
SECTION
2
OBJECTS
0
DICTIONARY
5
38D
100
AcDbDictionary
3
ACAD_GROUP
350
38E
3
ACAD_MLINESTYLE
350
38F
0
DICTIONARY
5
38E
102
{ACAD_REACTORS
330
38D
102
}
100
AcDbDictionary
0
DICTIONARY
5
38F
102
{ACAD_REACTORS
330
38D
102
}
100
AcDbDictionary
3
STANDARD
350
390
0
MLINESTYLE
5
390
102
{ACAD_REACTORS
330
38F
102
}
100
AcDbMlineStyle
2
STANDARD
70
0
3

62
256
51
90.0
52
90.0
71
2
49
0.5
62
256
6
BYLAYER
49
-0.5
62
256
6
BYLAYER
0
ENDSEC
0
EOF
