0
SECTION
2
HEADER
9
$ACADVER
1
AC1014
9
$HANDSEED
5
       384
9
$EXTMAX
10
297.0000000000
20
210.0000000000
9
$EXTMIN
10
0.0000000000
20
0.0000000000
9
$LIMMIN
10
0.0000000000
20
0.0000000000
9
$LIMMAX
10
297.0000000000
20
210.0000000000
9
$VIEWCTR
10
148.5000000000
20
105.0000000000
9
$VIEWSIZE
40
210.0000000000
9
$CLAYER
8
0
9
$LTSCALE
40
16.3350000000
9
$CELTYPE
6
BYLAYER
9
$DIMSCALE
40
1
9
$DIMASZ
40
3.0000000000
9
$DIMEXO
40
1.8562500000
9
$DIMDLI
40
11.2860000000
9
$DIMEXE
40
5.3460000000
9
$DIMCEN
40
2.6730000000
9
$DIMLFAC
40
1.0000000000
9
$DIMTXT
40
3.0000000000
9
$DIMTOL
70
1
9
$DIMLIM
70
0
9
$DIMTFAC
40
1.0000000000
9
$DIMTP
40
0.0100000000
9
$DIMTM
40
0.0100000000
9
$MEASUREMENT
70
1
0
ENDSEC
0
SECTION
2
CLASSES
0
ENDSEC
0
SECTION
2
TABLES
0
TABLE
2
VPORT
5
8
100
AcDbSymbolTable
70
2
0
VPORT
5
1F4
100
AcDbSymbolTableRecord
100
AcDbViewportTableRecord
2
*ACTIVE
70
0
10
0.0
20
0.0
11
1.0
21
1.0
12
148.5000000000
22
105.0000000000
13
0.0
23
0.0
14
1.0
24
1.0
15
0.0
25
0.0
16
0.0
26
0.0
36
1.0
17
0.0
27
0.0
37
0.0
40
210.0000000000
41
1.4142857143
42
50.0
43
0.0
44
0.0
50
0.0
51
0.0
71
0
72
100
73
1
74
1
75
0
76
0
77
0
78
0
0
ENDTAB
0
TABLE
2
LTYPE
5
5
100
AcDbSymbolTable
70
6
0
LTYPE
5
14
100
AcDbSymbolTableRecord
100
AcDbLinetypeTableRecord
2
BYBLOCK
70
0
3

72
65
73
0
40
0.0
0
LTYPE
5
15
100
AcDbSymbolTableRecord
100
AcDbLinetypeTableRecord
2
BYLAYER
70
0
3

72
65
73
0
40
0.0
0
LTYPE
5
16
100
AcDbSymbolTableRecord
100
AcDbLinetypeTableRecord
2
CONTINUOUS
70
64
3
Solid line
72
65
73
0
40
0
0
LTYPE
5
1F5
100
AcDbSymbolTableRecord
100
AcDbLinetypeTableRecord
2
CENTER
70
64
3
____ _ ____ _ ____ _ ____ _ ____ _ ____ _ ____
72
65
73
4
40
0.6
49
0.375
74
0
49
-0.075
74
0
49
0.075
74
0
49
-0.075
74
0
0
LTYPE
5
1F6
100
AcDbSymbolTableRecord
100
AcDbLinetypeTableRecord
2
HIDDEN
70
64
3
- - - - - - - - - - - - - - - - - - - -
72
65
73
2
40
0.2
49
0.1
74
0
49
-0.1
74
0
0
LTYPE
5
1F7
100
AcDbSymbolTableRecord
100
AcDbLinetypeTableRecord
2
PHANTOM
70
64
3
_____ _ _ _____ _ _ _____ _ _ _____
72
65
73
6
40
0.8
49
0.45
74
0
49
-0.05
74
0
49
0.1
74
0
49
-0.05
74
0
49
0.1
74
0
49
-0.05
74
0
0
LTYPE
5
1F8
100
AcDbSymbolTableRecord
100
AcDbLinetypeTableRecord
2
DOT
70
64
3
. . . . . . . . . . . . . . . . . . . .
72
65
73
2
40
0.2
49
0.1
74
0
49
-0.1
74
0
0
LTYPE
5
1F9
100
AcDbSymbolTableRecord
100
AcDbLinetypeTableRecord
2
DASHED
70
64
3
- - - - - - - - - - - - - - - - - - - -
72
65
73
2
40
0.2
49
0.1
74
0
49
-0.1
74
0
0
ENDTAB
0
TABLE
2
LAYER
5
2
100
AcDbSymbolTable
70
36
0
LAYER
5
10
100
AcDbSymbolTableRecord
100
AcDbLayerTableRecord
2
0
70
0
62
7
6
CONTINUOUS
0
LAYER
5
1FA
100
AcDbSymbolTableRecord
100
AcDbLayerTableRecord
2
DEFAULT_1
70
0
62
7
6
CENTER
0
LAYER
5
1FB
100
AcDbSymbolTableRecord
100
AcDbLayerTableRecord
2
DEFAULT_2
70
0
62
8
6
HIDDEN
0
LAYER
5
1FC
100
AcDbSymbolTableRecord
100
AcDbLayerTableRecord
2
DEFAULT_3
70
0
62
7
6
PHANTOM
0
LAYER
5
1FD
100
AcDbSymbolTableRecord
100
AcDbLayerTableRecord
2
ASSI
70
0
62
7
6
CONTINUOUS
0
LAYER
5
1FE
100
AcDbSymbolTableRecord
100
AcDbLayerTableRecord
2
COORDINATE
70
0
62
7
6
CONTINUOUS
0
LAYER
5
1FF
100
AcDbSymbolTableRecord
100
AcDbLayerTableRecord
2
COORD_ORIGINE
70
0
62
7
6
CONTINUOUS
0
LAYER
5
200
100
AcDbSymbolTableRecord
100
AcDbLayerTableRecord
2
COPY
70
0
62
7
6
CONTINUOUS
0
LAYER
5
201
100
AcDbSymbolTableRecord
100
AcDbLayerTableRecord
2
CURVE
70
0
62
7
6
CONTINUOUS
0
LAYER
5
202
100
AcDbSymbolTableRecord
100
AcDbLayerTableRecord
2
DRAFT
70
0
62
7
6
CONTINUOUS
0
LAYER
5
203
100
AcDbSymbolTableRecord
100
AcDbLayerTableRecord
2
IGS
70
0
62
7
6
CONTINUOUS
0
LAYER
5
204
100
AcDbSymbolTableRecord
100
AcDbLayerTableRecord
2
INC_LASER
70
0
62
7
6
CONTINUOUS
0
LAYER
5
205
100
AcDbSymbolTableRecord
100
AcDbLayerTableRecord
2
PIANI
70
0
62
7
6
CONTINUOUS
0
LAYER
5
206
100
AcDbSymbolTableRecord
100
AcDbLayerTableRecord
2
PIANI_ORIGINE
70
0
62
7
6
CONTINUOUS
0
LAYER
5
207
100
AcDbSymbolTableRecord
100
AcDbLayerTableRecord
2
PIANI_RIFERIMENTO
70
0
62
7
6
CONTINUOUS
0
LAYER
5
208
100
AcDbSymbolTableRecord
100
AcDbLayerTableRecord
2
RACCORDO
70
0
62
7
6
CONTINUOUS
0
LAYER
5
209
100
AcDbSymbolTableRecord
100
AcDbLayerTableRecord
2
SMUSSO
70
0
62
7
6
CONTINUOUS
0
LAYER
5
20A
100
AcDbSymbolTableRecord
100
AcDbLayerTableRecord
2
SNAPLINE
70
0
62
7
6
CONTINUOUS
0
LAYER
5
20B
100
AcDbSymbolTableRecord
100
AcDbLayerTableRecord
2
SUPERFICI
70
0
62
7
6
CONTINUOUS
0
LAYER
5
20C
100
AcDbSymbolTableRecord
100
AcDbLayerTableRecord
2
TRASH
70
0
62
7
6
CONTINUOUS
0
ENDTAB
0
TABLE
2
STYLE
5
3
100
AcDbSymbolTable
70
1
0
STYLE
5
11
100
AcDbSymbolTableRecord
100
AcDbTextStyleTableRecord
2
STANDARD
70
0
40
0.0
41
0.8000000000
50
0.0
71
0
42
0.2
3
txt
4

0
ENDTAB
0
TABLE
2
VIEW
5
6
100
AcDbSymbolTable
70
0
0
ENDTAB
0
TABLE
2
UCS
5
7
100
AcDbSymbolTable
70
0
0
ENDTAB
0
TABLE
2
APPID
5
9
100
AcDbSymbolTable
70
1
0
APPID
5
20D
100
AcDbSymbolTableRecord
100
AcDbRegAppTableRecord
2
ACAD
70
0
0
ENDTAB
0
TABLE
2
DIMSTYLE
5
A
100
AcDbSymbolTable
70
1
0
DIMSTYLE
105
20E
100
AcDbSymbolTableRecord
100
AcDbDimStyleTableRecord
2
STANDARD
70
0
3

4

5

6

7

40
1.0
41
3.0000000000
42
0.0625
43
0.38
44
0.18
45
0.0
46
0.0
47
0.0100000000
48
0.0100000000
140
3.0000000000
141
0.09
142
0.0
143
25.4
144
1.0000000000
145
0.0
146
1.0000000000
147
0.09
71
1
72
0
73
0
74
0
75
0
76
0
77
1
78
8
170
0
171
2
172
0
173
0
174
0
175
0
176
0
177
0
178
0
270
2
271
2
272
2
273
2
274
2
340
11
275
0
280
0
281
0
282
0
283
1
284
8
285
0
286
0
287
3
288
0
0
DIMSTYLE
105
20F
100
AcDbSymbolTableRecord
100
AcDbDimStyleTableRecord
2
DIMSTYLE_1
70
0
3

4

5

6

7

40
1.0
41
3.0000000000
42
0.0625
43
0.38
44
0.18
45
0.0
46
0.0
47
0.0000000000
48
0.0000000000
140
3.0000000000
141
0.09
142
0.0
143
25.4
144
1.0000000000
145
0.0
146
1.0000000000
147
0.09
71
0
72
0
73
0
74
0
75
0
76
0
77
1
78
8
170
0
171
2
172
0
173
0
174
0
175
0
176
0
177
0
178
0
270
2
271
2
272
2
273
2
274
2
340
11
275
0
280
0
281
0
282
0
283
1
284
8
285
0
286
0
287
3
288
0
0
DIMSTYLE
105
210
100
AcDbSymbolTableRecord
100
AcDbDimStyleTableRecord
2
DIMSTYLE_2
70
0
3

4

5

6

7

40
1.0
41
3.0000000000
42
0.0625
43
0.38
44
0.18
45
0.0
46
0.0
47
0.0000000000
48
0.0000000000
140
3.0000000000
141
0.09
142
0.0
143
25.4
144
1.0000000000
145
0.0
146
1.0000000000
147
0.09
71
0
72
0
73
0
74
0
75
0
76
0
77
1
78
8
170
0
171
2
172
0
173
0
174
0
175
0
176
0
177
0
178
0
270
2
271
1
272
1
273
2
274
2
340
11
275
0
280
0
281
0
282
0
283
1
284
8
285
0
286
0
287
3
288
0
0
ENDTAB
0
TABLE
2
BLOCK_RECORD
5
1
100
AcDbSymbolTable
70
0
0
BLOCK_RECORD
5
1B
100
AcDbSymbolTableRecord
100
AcDbBlockTableRecord
2
*MODEL_SPACE
0
BLOCK_RECORD
5
1C
100
AcDbSymbolTableRecord
100
AcDbBlockTableRecord
2
*PAPER_SPACE
0
BLOCK_RECORD
5
211
100
AcDbSymbolTableRecord
100
AcDbBlockTableRecord
2
*D0
0
BLOCK_RECORD
5
212
100
AcDbSymbolTableRecord
100
AcDbBlockTableRecord
2
*D1
0
BLOCK_RECORD
5
213
100
AcDbSymbolTableRecord
100
AcDbBlockTableRecord
2
*D2
0
ENDTAB
0
ENDSEC
0
SECTION
2
BLOCKS
0
BLOCK
5
1E
100
AcDbEntity
8
0
100
AcDbBlockBegin
2
*MODEL_SPACE
70
0
10
0.0
20
0.0
30
0.0
3
*MODEL_SPACE
1

0
ENDBLK
5
1F
100
AcDbEntity
8
0
100
AcDbBlockEnd
0
BLOCK
5
20
100
AcDbEntity
8
0
100
AcDbBlockBegin
2
*PAPER_SPACE
70
0
10
0.0
20
0.0
30
0.0
3
*PAPER_SPACE
1

0
ENDBLK
5
21
100
AcDbEntity
8
0
100
AcDbBlockEnd
0
BLOCK
5
214
100
AcDbEntity
8
0
100
AcDbBlockBegin
62
7
6
CONTINUOUS
2
*D0
70
65
10
0.0000000000
20
0.0000000000
3
*D0
1

0
TEXT
5
215
100
AcDbEntity
8
0
100
AcDbText
62
7
6
CONTINUOUS
10
-36.4836111009
20
31.1500000000
7
STANDARD
40
3.0000000000
1
5,7
41
0.6904761905
72
0
100
AcDbText
0
LINE
5
216
100
AcDbEntity
8
0
100
AcDbLine
62
7
6
CONTINUOUS
10
-30.9875827431
20
13.6000000000
11
-30.9875827431
21
31.9000000000
0
LINE
5
217
100
AcDbEntity
8
0
100
AcDbLine
62
7
6
CONTINUOUS
10
-36.6874245233
20
0.8977684534
11
-36.6874245233
21
31.9000000000
0
LINE
5
218
100
AcDbEntity
8
0
100
AcDbLine
62
7
6
CONTINUOUS
10
-30.9875827431
20
30.4000000000
11
-26.9875827431
21
30.4000000000
0
LINE
5
219
100
AcDbEntity
8
0
100
AcDbLine
62
7
6
CONTINUOUS
10
-26.9875827431
20
30.4000000000
11
-33.8375036332
21
30.4000000000
0
LINE
5
21A
100
AcDbEntity
8
0
100
AcDbLine
62
7
6
CONTINUOUS
10
-36.6874245233
20
30.4000000000
11
-40.6874245233
21
30.4000000000
0
LINE
5
21B
100
AcDbEntity
8
0
100
AcDbLine
62
7
6
CONTINUOUS
10
-40.6874245233
20
30.4000000000
11
-33.8375036332
21
30.4000000000
0
SOLID
5
21C
100
AcDbEntity
8
0
100
AcDbTrace
62
7
6
CONTINUOUS
10
-27.9875827431
20
31.3500000000
11
-30.9875827431
21
30.4000000000
12
-27.9875827431
22
29.4500000000
13
-27.9875827431
23
29.4500000000
0
SOLID
5
21D
100
AcDbEntity
8
0
100
AcDbTrace
62
7
6
CONTINUOUS
10
-39.6874245233
20
29.4500000000
11
-36.6874245233
21
30.4000000000
12
-39.6874245233
22
31.3500000000
13
-39.6874245233
23
31.3500000000
0
ENDBLK
5
21E
100
AcDbEntity
8
0
100
AcDbBlockEnd
0
BLOCK
5
21F
100
AcDbEntity
8
0
100
AcDbBlockBegin
62
7
6
CONTINUOUS
2
*D1
70
65
10
0.0000000000
20
0.0000000000
3
*D1
1

0
TEXT
5
220
100
AcDbEntity
8
0
100
AcDbText
62
7
6
CONTINUOUS
10
-4.3142424193
20
31.1500000000
7
STANDARD
40
3.0000000000
1
44,7
41
0.7321428571
72
0
100
AcDbText
0
LINE
5
221
100
AcDbEntity
8
0
100
AcDbLine
62
7
6
CONTINUOUS
10
-22.3500000000
20
13.6000000000
11
-22.3500000000
21
31.9000000000
0
LINE
5
222
100
AcDbEntity
8
0
100
AcDbLine
62
7
6
CONTINUOUS
10
22.3500000000
20
13.6000000000
11
22.3500000000
21
31.9000000000
0
LINE
5
223
100
AcDbEntity
8
0
100
AcDbLine
62
7
6
CONTINUOUS
10
-22.3500000000
20
30.4000000000
11
-0.0000000000
21
30.4000000000
0
LINE
5
224
100
AcDbEntity
8
0
100
AcDbLine
62
7
6
CONTINUOUS
10
22.3500000000
20
30.4000000000
11
-0.0000000000
21
30.4000000000
0
SOLID
5
225
100
AcDbEntity
8
0
100
AcDbTrace
62
7
6
CONTINUOUS
10
-19.3500000000
20
31.3500000000
11
-22.3500000000
21
30.4000000000
12
-19.3500000000
22
29.4500000000
13
-19.3500000000
23
29.4500000000
0
SOLID
5
226
100
AcDbEntity
8
0
100
AcDbTrace
62
7
6
CONTINUOUS
10
19.3500000000
20
29.4500000000
11
22.3500000000
21
30.4000000000
12
19.3500000000
22
31.3500000000
13
19.3500000000
23
31.3500000000
0
ENDBLK
5
227
100
AcDbEntity
8
0
100
AcDbBlockEnd
0
BLOCK
5
228
100
AcDbEntity
8
0
100
AcDbBlockBegin
62
7
6
CONTINUOUS
2
*D2
70
65
10
0.0000000000
20
0.0000000000
3
*D2
1

0
TEXT
5
229
100
AcDbEntity
8
0
100
AcDbText
62
7
6
CONTINUOUS
10
29.6000000000
20
-3.3388812295
7
STANDARD
40
3.0000000000
1
44,4
50
90.0000000000
41
0.7321428571
72
0
100
AcDbText
0
LINE
5
22A
100
AcDbEntity
8
0
100
AcDbLine
62
7
6
CONTINUOUS
10
22.3308886505
20
22.1947348166
11
31.8500000000
21
22.1947348166
0
LINE
5
22B
100
AcDbEntity
8
0
100
AcDbLine
62
7
6
CONTINUOUS
10
22.3308886505
20
-22.1947348166
11
31.8500000000
21
-22.1947348166
0
LINE
5
22C
100
AcDbEntity
8
0
100
AcDbLine
62
7
6
CONTINUOUS
10
30.3500000000
20
22.1947348166
11
30.3500000000
21
0.0000000000
0
LINE
5
22D
100
AcDbEntity
8
0
100
AcDbLine
62
7
6
CONTINUOUS
10
30.3500000000
20
-22.1947348166
11
30.3500000000
21
0.0000000000
0
SOLID
5
22E
100
AcDbEntity
8
0
100
AcDbTrace
62
7
6
CONTINUOUS
10
31.3000000000
20
19.1947348166
11
30.3500000000
21
22.1947348166
12
29.4000000000
22
19.1947348166
13
29.4000000000
23
19.1947348166
0
SOLID
5
22F
100
AcDbEntity
8
0
100
AcDbTrace
62
7
6
CONTINUOUS
10
29.4000000000
20
-19.1947348166
11
30.3500000000
21
-22.1947348166
12
31.3000000000
22
-19.1947348166
13
31.3000000000
23
-19.1947348166
0
ENDBLK
5
230
100
AcDbEntity
8
0
100
AcDbBlockEnd
0
ENDSEC
0
SECTION
2
ENTITIES
0
DIMENSION
5
231
100
AcDbEntity
8
0
100
AcDbDimension
62
7
6
CONTINUOUS
2
*D0
10
-36.6874245233
20
30.4000000000
11
-33.3764682438
21
32.6500000000
70
160
3
DIMSTYLE_1
100
AcDbAlignedDimension
13
-30.9875827431
23
13.6000000000
14
-36.6874245233
24
0.8977684534
50
180.000000
100
AcDbRotatedDimension
0
DIMENSION
5
232
100
AcDbEntity
8
0
100
AcDbDimension
62
7
6
CONTINUOUS
2
*D1
10
22.3500000000
20
30.4000000000
11
0.0786147235
21
32.6500000000
70
160
3
DIMSTYLE_1
100
AcDbAlignedDimension
13
-22.3500000000
23
13.6000000000
14
22.3500000000
24
13.6000000000
100
AcDbRotatedDimension
0
DIMENSION
5
233
100
AcDbEntity
8
0
100
AcDbDimension
62
7
6
CONTINUOUS
2
*D2
10
30.3500000000
20
-22.1947348166
11
28.1000000000
21
1.0539759134
70
160
3
DIMSTYLE_2
100
AcDbAlignedDimension
13
22.3308886505
23
22.1947348166
14
22.3308886505
24
-22.1947348166
50
270.000000
100
AcDbRotatedDimension
0
LINE
5
234
100
AcDbEntity
8
0
100
AcDbLine
62
7
6
CONTINUOUS
10
-22.3315732928
20
-21.6977042895
11
-22.3500000000
21
-13.1000000000
0
LINE
5
235
100
AcDbEntity
8
0
100
AcDbLine
62
7
6
CONTINUOUS
10
-22.3500000000
20
-0.3499714434
11
-22.3500000000
21
-13.1000000000
0
LINE
5
236
100
AcDbEntity
8
0
100
AcDbLine
62
7
6
CONTINUOUS
10
-22.3500000000
20
0.3499714434
11
-22.3500000000
21
13.1000000000
0
LINE
5
237
100
AcDbEntity
8
0
100
AcDbLine
62
9
6
CONTINUOUS
10
-21.7591602573
20
0.3977684534
11
-21.7591602573
21
0.1475790882
0
LINE
5
238
100
AcDbEntity
8
0
100
AcDbLine
62
9
6
CONTINUOUS
10
-21.7591602573
20
-0.1475790882
11
-21.7591602573
21
-0.3977684534
0
LINE
5
239
100
AcDbEntity
8
0
100
AcDbLine
62
7
6
CONTINUOUS
10
-22.3315732928
20
21.6977042895
11
-22.3500000000
21
13.1000000000
0
LINE
5
23A
100
AcDbEntity
8
0
100
AcDbLine
62
7
6
CONTINUOUS
10
8.6657348280
20
-22.1947348166
11
8.9422649731
21
-22.1696065528
0
LINE
5
23B
100
AcDbEntity
8
0
100
AcDbLine
62
7
6
CONTINUOUS
10
-13.8342651720
20
-22.1947348166
11
-13.5577350269
21
-22.1696065528
0
LINE
5
23C
100
AcDbEntity
8
0
100
AcDbLine
62
7
6
CONTINUOUS
10
21.8308886505
20
-22.1947348166
11
13.8342651720
21
-22.1947348166
0
LINE
5
23D
100
AcDbEntity
8
0
100
AcDbLine
62
7
6
CONTINUOUS
10
8.6657348280
20
-22.1947348166
11
-8.6657348280
21
-22.1947348166
0
LINE
5
23E
100
AcDbEntity
8
0
100
AcDbLine
62
7
6
CONTINUOUS
10
-13.8342651720
20
-22.1947348166
11
-21.8308886505
21
-22.1947348166
0
LINE
5
23F
100
AcDbEntity
8
0
100
AcDbLine
62
7
6
CONTINUOUS
10
9.1154700538
20
-22.1643601773
11
13.3845299462
21
-22.1643601773
0
LINE
5
240
100
AcDbEntity
8
0
100
AcDbLine
62
7
6
CONTINUOUS
10
-9.1154700538
20
-22.1643601773
11
-13.3845299462
21
-22.1643601773
0
LINE
5
241
100
AcDbEntity
8
0
100
AcDbLine
62
9
6
CONTINUOUS
10
-21.7860894575
20
-22.0602279426
11
21.7860894575
21
-22.0602279426
0
LINE
5
242
100
AcDbEntity
8
0
100
AcDbLine
62
9
6
CONTINUOUS
10
-21.7779162692
20
-21.2107174911
11
21.7779162692
21
-21.2107174911
0
LINE
5
243
100
AcDbEntity
8
0
100
AcDbLine
62
7
6
CONTINUOUS
10
-8.6657348280
20
-22.1947348166
11
-8.9422649731
21
-22.1696065528
0
LINE
5
244
100
AcDbEntity
8
0
100
AcDbLine
62
7
6
CONTINUOUS
10
13.8342651720
20
-22.1947348166
11
13.5577350269
21
-22.1696065528
0
LINE
5
245
100
AcDbEntity
8
0
100
AcDbLine
62
9
6
CONTINUOUS
10
-16.1479998286
20
-0.7983458208
11
-16.1480040083
21
-0.3977684532
0
LINE
5
246
100
AcDbEntity
8
0
100
AcDbLine
62
9
6
CONTINUOUS
10
-16.1000000000
20
0.1372665260
11
-16.1000000000
21
0.7503001200
0
LINE
5
247
100
AcDbEntity
8
0
100
AcDbLine
62
7
6
CONTINUOUS
10
-15.9362139802
20
-0.7862330187
11
-15.9362139802
21
-0.3370942827
0
LINE
5
248
100
AcDbEntity
8
0
100
AcDbLine
62
7
6
CONTINUOUS
10
-15.9000000000
20
0.3367690172
11
-15.9000000000
21
0.7500000000
0
LINE
5
249
100
AcDbEntity
8
0
100
AcDbLine
62
9
6
CONTINUOUS
10
-15.4480124517
20
-1.4985852320
11
-15.4480124517
21
-1.2979934133
0
LINE
5
24A
100
AcDbEntity
8
0
100
AcDbLine
62
9
6
CONTINUOUS
10
-15.4000000000
20
1.4505802321
11
-15.4000000000
21
1.2500000000
0
LINE
5
24B
100
AcDbEntity
8
0
100
AcDbLine
62
9
6
CONTINUOUS
10
-22.3315732928
20
-21.6977042895
11
-22.2860133051
21
-21.5609131753
0
LINE
5
24C
100
AcDbEntity
8
0
100
AcDbLine
62
9
6
CONTINUOUS
10
-21.8308886505
20
-22.1947348166
11
-21.7860894575
21
-22.0602279426
0
LINE
5
24D
100
AcDbEntity
8
0
100
AcDbLine
62
9
6
CONTINUOUS
10
-22.2860133051
20
21.5609131753
11
-22.3315732928
21
21.6977042895
0
LINE
5
24E
100
AcDbEntity
8
0
100
AcDbLine
62
9
6
CONTINUOUS
10
-21.7860894575
20
22.0602279426
11
-21.8308886505
21
22.1947348166
0
LINE
5
24F
100
AcDbEntity
8
0
100
AcDbLine
62
9
6
CONTINUOUS
10
-16.1475714728
20
-0.1475790882
11
-16.1366821902
21
-0.1366898056
0
LINE
5
250
100
AcDbEntity
8
0
100
AcDbLine
62
9
6
CONTINUOUS
10
-15.9475790882
20
-0.3475714728
11
-15.9362140141
21
-0.3362063987
0
LINE
5
251
100
AcDbEntity
8
0
100
AcDbLine
62
9
6
CONTINUOUS
10
-15.9362139802
20
-0.7862330187
11
-15.9480074440
21
-0.7980264825
0
LINE
5
252
100
AcDbEntity
8
0
100
AcDbLine
62
9
6
CONTINUOUS
10
-22.3500000000
20
0.3499714434
11
-22.2590840780
21
0.3954259424
0
LINE
5
253
100
AcDbEntity
8
0
100
AcDbLine
62
9
6
CONTINUOUS
10
-22.3500000000
20
-0.3499714434
11
-22.2590840780
21
-0.3954259424
0
LINE
5
254
100
AcDbEntity
8
0
100
AcDbLine
62
9
6
CONTINUOUS
10
-15.4362330187
20
-1.2862139802
11
-15.4480124517
21
-1.2979934133
0
LINE
5
255
100
AcDbEntity
8
0
100
AcDbLine
62
9
6
CONTINUOUS
10
-22.0999999985
20
0.1000000000
11
-22.0091221542
21
0.1454354616
0
LINE
5
256
100
AcDbEntity
8
0
100
AcDbLine
62
7
6
CONTINUOUS
10
-21.1500000000
20
0.1000000000
11
-21.0976348052
21
0.1261806034
0
LINE
5
257
100
AcDbEntity
8
0
100
AcDbLine
62
9
6
CONTINUOUS
10
21.7607313847
20
-9.5000000000
11
-21.7607313847
21
-9.5000000000
0
LINE
5
258
100
AcDbEntity
8
0
100
AcDbLine
62
9
6
CONTINUOUS
10
-22.0999999985
20
-0.1000000000
11
-22.0091221542
21
-0.1454354616
0
LINE
5
259
100
AcDbEntity
8
0
100
AcDbLine
62
7
6
CONTINUOUS
10
-21.1500000000
20
-0.1000000000
11
-21.0976348052
21
-0.1261806034
0
LINE
5
25A
100
AcDbEntity
8
0
100
AcDbLine
62
9
6
CONTINUOUS
10
-7.1000000000
20
1.4505802321
11
-7.1000000000
21
1.2500000000
0
LINE
5
25B
100
AcDbEntity
8
0
100
AcDbLine
62
9
6
CONTINUOUS
10
-7.0519875483
20
-1.4985852320
11
-7.0519875483
21
-1.2979934133
0
LINE
5
25C
100
AcDbEntity
8
0
100
AcDbLine
62
7
6
CONTINUOUS
10
-6.6000000000
20
0.7500000000
11
-6.6000000000
21
0.3367690172
0
LINE
5
25D
100
AcDbEntity
8
0
100
AcDbLine
62
7
6
CONTINUOUS
10
-6.5637860198
20
-0.3370942827
11
-6.5637860198
21
-0.7862330187
0
LINE
5
25E
100
AcDbEntity
8
0
100
AcDbLine
62
9
6
CONTINUOUS
10
-6.4000000000
20
0.1372665505
11
-6.4000000000
21
0.7503001200
0
LINE
5
25F
100
AcDbEntity
8
0
100
AcDbLine
62
9
6
CONTINUOUS
10
-6.3520014432
20
-0.3977684532
11
-6.3520001714
21
-0.7983458208
0
LINE
5
260
100
AcDbEntity
8
0
100
AcDbLine
62
9
6
CONTINUOUS
10
-7.0637669813
20
-1.2862139802
11
-7.0519875483
21
-1.2979934133
0
LINE
5
261
100
AcDbEntity
8
0
100
AcDbLine
62
9
6
CONTINUOUS
10
-6.5637860198
20
-0.7862330187
11
-6.5519925560
21
-0.7980264825
0
LINE
5
262
100
AcDbEntity
8
0
100
AcDbLine
62
9
6
CONTINUOUS
10
-6.5637859859
20
-0.3362063987
11
-6.5519880534
21
-0.3480043312
0
LINE
5
263
100
AcDbEntity
8
0
100
AcDbLine
62
9
6
CONTINUOUS
10
-6.3633178098
20
-0.1366898056
11
-6.3524285272
21
-0.1475790882
0
LINE
5
264
100
AcDbEntity
8
0
100
AcDbLine
62
9
6
CONTINUOUS
10
16.8279192124
20
-0.1262110349
11
16.8319477612
21
-0.1261806034
0
LINE
5
265
100
AcDbEntity
8
0
100
AcDbLine
62
7
6
CONTINUOUS
10
16.0965107503
20
-0.1372665505
11
16.8279192124
21
-0.1262110349
0
LINE
5
266
100
AcDbEntity
8
0
100
AcDbLine
62
9
6
CONTINUOUS
10
-5.6720807876
20
-0.1262110349
11
-5.6680522388
21
-0.1261806034
0
LINE
5
267
100
AcDbEntity
8
0
100
AcDbLine
62
7
6
CONTINUOUS
10
-6.3668152131
20
-0.1367122086
11
-5.6720807876
21
-0.1262110349
0
LINE
5
268
100
AcDbEntity
8
0
100
AcDbLine
62
7
6
CONTINUOUS
10
6.3668152131
20
0.1367122086
11
5.6720807876
21
0.1262110349
0
LINE
5
269
100
AcDbEntity
8
0
100
AcDbLine
62
9
6
CONTINUOUS
10
5.6720803272
20
0.1262414895
11
5.6680522388
21
0.1261806034
0
LINE
5
26A
100
AcDbEntity
8
0
100
AcDbLine
62
7
6
CONTINUOUS
10
16.8278928723
20
-0.1262140950
11
16.8319477612
21
-0.1261806034
0
LINE
5
26B
100
AcDbEntity
8
0
100
AcDbLine
62
7
6
CONTINUOUS
10
-5.6721071277
20
-0.1262140950
11
-5.6680522388
21
-0.1261806034
0
LINE
5
26C
100
AcDbEntity
8
0
100
AcDbLine
62
7
6
CONTINUOUS
10
5.6721071277
20
0.1262140950
11
5.6680522388
21
0.1261806034
0
LINE
5
26D
100
AcDbEntity
8
0
100
AcDbLine
62
7
6
CONTINUOUS
10
-16.8278928723
20
0.1262140950
11
-16.8319477612
21
0.1261806034
0
LINE
5
26E
100
AcDbEntity
8
0
100
AcDbLine
62
7
6
CONTINUOUS
10
16.0965123775
20
-0.1372665260
11
16.1000000000
21
-0.1372442708
0
LINE
5
26F
100
AcDbEntity
8
0
100
AcDbLine
62
7
6
CONTINUOUS
10
-6.3668134724
20
-0.1367121823
11
-6.3633178098
21
-0.1366898056
0
LINE
5
270
100
AcDbEntity
8
0
100
AcDbLine
62
7
6
CONTINUOUS
10
6.3668134724
20
0.1367121823
11
6.3633178098
21
0.1366898056
0
LINE
5
271
100
AcDbEntity
8
0
100
AcDbLine
62
7
6
CONTINUOUS
10
-16.0965123775
20
0.1372665260
11
-16.1000000000
21
0.1372442708
0
LINE
5
272
100
AcDbEntity
8
0
100
AcDbLine
62
9
6
CONTINUOUS
10
-7.0519875483
20
-1.4985852320
11
-15.4480124517
21
-1.4985852320
0
LINE
5
273
100
AcDbEntity
8
0
100
AcDbLine
62
9
6
CONTINUOUS
10
15.4000000000
20
-1.4505802321
11
7.1000000000
21
-1.4505802321
0
LINE
5
274
100
AcDbEntity
8
0
100
AcDbLine
62
9
6
CONTINUOUS
10
-7.0519875483
20
-1.2979934133
11
-15.4480124517
21
-1.2979934133
0
LINE
5
275
100
AcDbEntity
8
0
100
AcDbLine
62
7
6
CONTINUOUS
10
-7.0637669813
20
-1.2862139802
11
-15.4362330187
21
-1.2862139802
0
LINE
5
276
100
AcDbEntity
8
0
100
AcDbLine
62
7
6
CONTINUOUS
10
15.4000000000
20
-1.2500000000
11
7.1000000000
21
-1.2500000000
0
LINE
5
277
100
AcDbEntity
8
0
100
AcDbLine
62
9
6
CONTINUOUS
10
-21.7591602573
20
-0.3977684534
11
-15.9480116237
21
-0.3976093458
0
LINE
5
278
100
AcDbEntity
8
0
100
AcDbLine
62
9
6
CONTINUOUS
10
-6.3520014432
20
-0.3977684532
11
6.4000000000
21
-0.3977684532
0
LINE
5
279
100
AcDbEntity
8
0
100
AcDbLine
62
9
6
CONTINUOUS
10
-21.7591602573
20
-0.1475790882
11
-16.1475714728
21
-0.1475790882
0
LINE
5
27A
100
AcDbEntity
8
0
100
AcDbLine
62
9
6
CONTINUOUS
10
21.7591602573
20
-0.1475790882
11
16.1000000000
21
-0.1475790882
0
LINE
5
27B
100
AcDbEntity
8
0
100
AcDbLine
62
9
6
CONTINUOUS
10
-6.3524285272
20
-0.1475790882
11
6.4000000000
21
-0.1475790882
0
LINE
5
27C
100
AcDbEntity
8
0
100
AcDbLine
62
7
6
CONTINUOUS
10
-21.0976348052
20
-0.1261806034
11
-16.8319477612
21
-0.1261806034
0
LINE
5
27D
100
AcDbEntity
8
0
100
AcDbLine
62
7
6
CONTINUOUS
10
-5.6680522388
20
-0.1261806034
11
5.6680522388
21
-0.1261806034
0
LINE
5
27E
100
AcDbEntity
8
0
100
AcDbLine
62
7
6
CONTINUOUS
10
16.8319477612
20
-0.1261806034
11
21.0976348052
21
-0.1261806034
0
LINE
5
27F
100
AcDbEntity
8
0
100
AcDbLine
62
7
6
CONTINUOUS
10
22.0999999985
20
-0.1000000000
11
21.1500000000
21
-0.1000000000
0
LINE
5
280
100
AcDbEntity
8
0
100
AcDbLine
62
7
6
CONTINUOUS
10
-21.1500000000
20
-0.1000000000
11
-22.0999999985
21
-0.1000000000
0
LINE
5
281
100
AcDbEntity
8
0
100
AcDbLine
62
7
6
CONTINUOUS
10
-22.0999999985
20
0.1000000000
11
-21.1500000000
21
0.1000000000
0
LINE
5
282
100
AcDbEntity
8
0
100
AcDbLine
62
7
6
CONTINUOUS
10
21.1500000000
20
0.1000000000
11
22.0999999985
21
0.1000000000
0
LINE
5
283
100
AcDbEntity
8
0
100
AcDbLine
62
7
6
CONTINUOUS
10
21.0976348052
20
0.1261806034
11
16.8319477612
21
0.1261806034
0
LINE
5
284
100
AcDbEntity
8
0
100
AcDbLine
62
7
6
CONTINUOUS
10
5.6680522388
20
0.1261806034
11
-5.6680522388
21
0.1261806034
0
LINE
5
285
100
AcDbEntity
8
0
100
AcDbLine
62
7
6
CONTINUOUS
10
-16.8319477612
20
0.1261806034
11
-21.0976348052
21
0.1261806034
0
LINE
5
286
100
AcDbEntity
8
0
100
AcDbLine
62
9
6
CONTINUOUS
10
-21.7591602573
20
0.1475790882
11
-16.1000000000
21
0.1475790882
0
LINE
5
287
100
AcDbEntity
8
0
100
AcDbLine
62
9
6
CONTINUOUS
10
21.7591602573
20
0.1475790882
11
16.1475714728
21
0.1475790882
0
LINE
5
288
100
AcDbEntity
8
0
100
AcDbLine
62
9
6
CONTINUOUS
10
6.3524285272
20
0.1475790882
11
-6.4000000000
21
0.1475790882
0
LINE
5
289
100
AcDbEntity
8
0
100
AcDbLine
62
9
6
CONTINUOUS
10
21.7591602573
20
-0.3977684534
11
15.9000000000
21
-0.3976093458
0
LINE
5
28A
100
AcDbEntity
8
0
100
AcDbLine
62
7
6
CONTINUOUS
10
-16.1331865276
20
-0.1367121823
11
-16.1366821902
21
-0.1366898056
0
LINE
5
28B
100
AcDbEntity
8
0
100
AcDbLine
62
7
6
CONTINUOUS
10
6.4034876225
20
-0.1372665260
11
6.4000000000
21
-0.1372442708
0
LINE
5
28C
100
AcDbEntity
8
0
100
AcDbLine
62
7
6
CONTINUOUS
10
-6.4034876225
20
0.1372665260
11
-6.4000000000
21
0.1372442708
0
LINE
5
28D
100
AcDbEntity
8
0
100
AcDbLine
62
7
6
CONTINUOUS
10
16.1331865276
20
0.1367121823
11
16.1366821902
21
0.1366898056
0
LINE
5
28E
100
AcDbEntity
8
0
100
AcDbLine
62
7
6
CONTINUOUS
10
-16.8319477612
20
-0.1261806034
11
-16.8278928723
21
-0.1262140950
0
LINE
5
28F
100
AcDbEntity
8
0
100
AcDbLine
62
7
6
CONTINUOUS
10
5.6680522388
20
-0.1261806034
11
5.6721071277
21
-0.1262140950
0
LINE
5
290
100
AcDbEntity
8
0
100
AcDbLine
62
7
6
CONTINUOUS
10
-5.6680522388
20
0.1261806034
11
-5.6721071277
21
0.1262140950
0
LINE
5
291
100
AcDbEntity
8
0
100
AcDbLine
62
7
6
CONTINUOUS
10
16.8319477612
20
0.1261806034
11
16.8278928723
21
0.1262140950
0
LINE
5
292
100
AcDbEntity
8
0
100
AcDbLine
62
9
6
CONTINUOUS
10
-16.8319477612
20
-0.1261806034
11
-16.8279192124
21
-0.1262110349
0
LINE
5
293
100
AcDbEntity
8
0
100
AcDbLine
62
7
6
CONTINUOUS
10
-16.8279192124
20
-0.1262110349
11
-16.1331847869
21
-0.1367122086
0
LINE
5
294
100
AcDbEntity
8
0
100
AcDbLine
62
9
6
CONTINUOUS
10
5.6680522388
20
-0.1261806034
11
5.6720807876
21
-0.1262110349
0
LINE
5
295
100
AcDbEntity
8
0
100
AcDbLine
62
7
6
CONTINUOUS
10
5.6720807876
20
-0.1262110349
11
6.4034892497
21
-0.1372665505
0
LINE
5
296
100
AcDbEntity
8
0
100
AcDbLine
62
7
6
CONTINUOUS
10
-5.6720807876
20
0.1262110349
11
-6.4034892497
21
0.1372665505
0
LINE
5
297
100
AcDbEntity
8
0
100
AcDbLine
62
9
6
CONTINUOUS
10
-5.6680522388
20
0.1261806034
11
-5.6720803272
21
0.1262414895
0
LINE
5
298
100
AcDbEntity
8
0
100
AcDbLine
62
7
6
CONTINUOUS
10
-16.0965107503
20
0.1372665505
11
-16.8279192124
21
0.1262110349
0
LINE
5
299
100
AcDbEntity
8
0
100
AcDbLine
62
9
6
CONTINUOUS
10
-16.8279196728
20
0.1262414895
11
-16.8319477612
21
0.1261806034
0
LINE
5
29A
100
AcDbEntity
8
0
100
AcDbLine
62
9
6
CONTINUOUS
10
21.7591602573
20
0.3977684534
11
15.9480116237
21
0.3976093458
0
LINE
5
29B
100
AcDbEntity
8
0
100
AcDbLine
62
9
6
CONTINUOUS
10
6.3520014432
20
0.3977684532
11
-6.4000000000
21
0.3977684532
0
LINE
5
29C
100
AcDbEntity
8
0
100
AcDbLine
62
7
6
CONTINUOUS
10
-15.4000000000
20
1.2500000000
11
-7.1000000000
21
1.2500000000
0
LINE
5
29D
100
AcDbEntity
8
0
100
AcDbLine
62
7
6
CONTINUOUS
10
7.0637669813
20
1.2862139802
11
15.4362330187
21
1.2862139802
0
LINE
5
29E
100
AcDbEntity
8
0
100
AcDbLine
62
9
6
CONTINUOUS
10
7.0519875483
20
1.2979934133
11
15.4480124517
21
1.2979934133
0
LINE
5
29F
100
AcDbEntity
8
0
100
AcDbLine
62
9
6
CONTINUOUS
10
-15.4000000000
20
1.4505802321
11
-7.1000000000
21
1.4505802321
0
LINE
5
2A0
100
AcDbEntity
8
0
100
AcDbLine
62
9
6
CONTINUOUS
10
7.0519875483
20
1.4985852320
11
15.4480124517
21
1.4985852320
0
LINE
5
2A1
100
AcDbEntity
8
0
100
AcDbLine
62
9
6
CONTINUOUS
10
-21.7591602573
20
0.3977684534
11
-15.9000000000
21
0.3976093458
0
LINE
5
2A2
100
AcDbEntity
8
0
100
AcDbLine
62
7
6
CONTINUOUS
10
16.8279192124
20
0.1262110349
11
16.1331847869
21
0.1367122086
0
LINE
5
2A3
100
AcDbEntity
8
0
100
AcDbLine
62
9
6
CONTINUOUS
10
16.8319477612
20
0.1261806034
11
16.8279196728
21
0.1262414895
0
LINE
5
2A4
100
AcDbEntity
8
0
100
AcDbLine
62
9
6
CONTINUOUS
10
6.3520014432
20
0.3977684532
11
6.3520001714
21
0.7983458208
0
LINE
5
2A5
100
AcDbEntity
8
0
100
AcDbLine
62
9
6
CONTINUOUS
10
6.4000000000
20
-0.7503001200
11
6.4000000000
21
-0.1372665505
0
LINE
5
2A6
100
AcDbEntity
8
0
100
AcDbLine
62
7
6
CONTINUOUS
10
6.5637860198
20
0.3370942827
11
6.5637860198
21
0.7862330187
0
LINE
5
2A7
100
AcDbEntity
8
0
100
AcDbLine
62
7
6
CONTINUOUS
10
6.6000000000
20
-0.7500000000
11
6.6000000000
21
-0.3367690172
0
LINE
5
2A8
100
AcDbEntity
8
0
100
AcDbLine
62
9
6
CONTINUOUS
10
6.3633178098
20
0.1366898056
11
6.3524285272
21
0.1475790882
0
LINE
5
2A9
100
AcDbEntity
8
0
100
AcDbLine
62
9
6
CONTINUOUS
10
6.5637859859
20
0.3362063987
11
6.5519880534
21
0.3480043312
0
LINE
5
2AA
100
AcDbEntity
8
0
100
AcDbLine
62
9
6
CONTINUOUS
10
6.5637860198
20
0.7862330187
11
6.5519925560
21
0.7980264825
0
LINE
5
2AB
100
AcDbEntity
8
0
100
AcDbLine
62
9
6
CONTINUOUS
10
7.0637669813
20
1.2862139802
11
7.0519875483
21
1.2979934133
0
LINE
5
2AC
100
AcDbEntity
8
0
100
AcDbLine
62
9
6
CONTINUOUS
10
7.0519875483
20
1.4985852320
11
7.0519875483
21
1.2979934133
0
LINE
5
2AD
100
AcDbEntity
8
0
100
AcDbLine
62
9
6
CONTINUOUS
10
7.1000000000
20
-1.4505802321
11
7.1000000000
21
-1.2500000000
0
LINE
5
2AE
100
AcDbEntity
8
0
100
AcDbLine
62
9
6
CONTINUOUS
10
15.4362330187
20
1.2862139802
11
15.4480124517
21
1.2979934133
0
LINE
5
2AF
100
AcDbEntity
8
0
100
AcDbLine
62
9
6
CONTINUOUS
10
15.9362139802
20
0.7862330187
11
15.9480074440
21
0.7980264825
0
LINE
5
2B0
100
AcDbEntity
8
0
100
AcDbLine
62
7
6
CONTINUOUS
10
21.1500000000
20
-0.1000000000
11
21.0976348052
21
-0.1261806034
0
LINE
5
2B1
100
AcDbEntity
8
0
100
AcDbLine
62
9
6
CONTINUOUS
10
22.0999999985
20
-0.1000000000
11
22.0091221542
21
-0.1454354616
0
LINE
5
2B2
100
AcDbEntity
8
0
100
AcDbLine
62
9
6
CONTINUOUS
10
22.3500000000
20
-0.3499714434
11
22.2590840780
21
-0.3954259424
0
LINE
5
2B3
100
AcDbEntity
8
0
100
AcDbLine
62
9
6
CONTINUOUS
10
-21.7607313847
20
9.5000000000
11
21.7607313847
21
9.5000000000
0
LINE
5
2B4
100
AcDbEntity
8
0
100
AcDbLine
62
7
6
CONTINUOUS
10
21.1500000000
20
0.1000000000
11
21.0976348052
21
0.1261806034
0
LINE
5
2B5
100
AcDbEntity
8
0
100
AcDbLine
62
9
6
CONTINUOUS
10
22.0999999985
20
0.1000000000
11
22.0091221542
21
0.1454354616
0
LINE
5
2B6
100
AcDbEntity
8
0
100
AcDbLine
62
9
6
CONTINUOUS
10
22.3500000000
20
0.3499714434
11
22.2590840780
21
0.3954259424
0
LINE
5
2B7
100
AcDbEntity
8
0
100
AcDbLine
62
9
6
CONTINUOUS
10
15.9475790882
20
0.3475714728
11
15.9362140141
21
0.3362063987
0
LINE
5
2B8
100
AcDbEntity
8
0
100
AcDbLine
62
9
6
CONTINUOUS
10
16.1475714728
20
0.1475790882
11
16.1366821902
21
0.1366898056
0
LINE
5
2B9
100
AcDbEntity
8
0
100
AcDbLine
62
9
6
CONTINUOUS
10
21.8308886505
20
22.1947348166
11
21.7860894575
21
22.0602279426
0
LINE
5
2BA
100
AcDbEntity
8
0
100
AcDbLine
62
9
6
CONTINUOUS
10
22.3315732928
20
21.6977042895
11
22.2860133051
21
21.5609131753
0
LINE
5
2BB
100
AcDbEntity
8
0
100
AcDbLine
62
9
6
CONTINUOUS
10
21.7860894575
20
-22.0602279426
11
21.8308886505
21
-22.1947348166
0
LINE
5
2BC
100
AcDbEntity
8
0
100
AcDbLine
62
9
6
CONTINUOUS
10
22.2860133051
20
-21.5609131753
11
22.3315732928
21
-21.6977042895
0
LINE
5
2BD
100
AcDbEntity
8
0
100
AcDbLine
62
9
6
CONTINUOUS
10
15.4000000000
20
-1.4505802321
11
15.4000000000
21
-1.2500000000
0
LINE
5
2BE
100
AcDbEntity
8
0
100
AcDbLine
62
9
6
CONTINUOUS
10
15.4480124517
20
1.4985852320
11
15.4480124517
21
1.2979934133
0
LINE
5
2BF
100
AcDbEntity
8
0
100
AcDbLine
62
7
6
CONTINUOUS
10
15.9000000000
20
-0.3367690172
11
15.9000000000
21
-0.7500000000
0
LINE
5
2C0
100
AcDbEntity
8
0
100
AcDbLine
62
7
6
CONTINUOUS
10
15.9362139802
20
0.7862330187
11
15.9362139802
21
0.3370942827
0
LINE
5
2C1
100
AcDbEntity
8
0
100
AcDbLine
62
9
6
CONTINUOUS
10
16.1000000000
20
-0.1372665260
11
16.1000000000
21
-0.7503001200
0
LINE
5
2C2
100
AcDbEntity
8
0
100
AcDbLine
62
9
6
CONTINUOUS
10
16.1479998286
20
0.7983458208
11
16.1480040083
21
0.3977684532
0
LINE
5
2C3
100
AcDbEntity
8
0
100
AcDbLine
62
7
6
CONTINUOUS
10
13.8342651720
20
22.1947348166
11
13.5577350269
21
22.1696065528
0
LINE
5
2C4
100
AcDbEntity
8
0
100
AcDbLine
62
9
6
CONTINUOUS
10
21.7779162692
20
21.2107174911
11
-21.7779162692
21
21.2107174911
0
LINE
5
2C5
100
AcDbEntity
8
0
100
AcDbLine
62
7
6
CONTINUOUS
10
-13.8342651720
20
22.1947348166
11
-13.5577350269
21
22.1696065528
0
LINE
5
2C6
100
AcDbEntity
8
0
100
AcDbLine
62
7
6
CONTINUOUS
10
22.3315732928
20
21.6977042895
11
22.3500000000
21
13.1000000000
0
LINE
5
2C7
100
AcDbEntity
8
0
100
AcDbLine
62
9
6
CONTINUOUS
10
21.7591602573
20
-0.3977684534
11
21.7591602573
21
-0.1475790882
0
LINE
5
2C8
100
AcDbEntity
8
0
100
AcDbLine
62
9
6
CONTINUOUS
10
21.7591602573
20
0.1475790882
11
21.7591602573
21
0.3977684534
0
LINE
5
2C9
100
AcDbEntity
8
0
100
AcDbLine
62
7
6
CONTINUOUS
10
22.3500000000
20
-0.3499714434
11
22.3500000000
21
-13.1000000000
0
LINE
5
2CA
100
AcDbEntity
8
0
100
AcDbLine
62
7
6
CONTINUOUS
10
22.3500000000
20
0.3499714434
11
22.3500000000
21
13.1000000000
0
LINE
5
2CB
100
AcDbEntity
8
0
100
AcDbLine
62
7
6
CONTINUOUS
10
22.3315732928
20
-21.6977042895
11
22.3500000000
21
-13.1000000000
0
LINE
5
2CC
100
AcDbEntity
8
0
100
AcDbLine
62
7
6
CONTINUOUS
10
-8.6657348280
20
22.1947348166
11
-8.9422649731
21
22.1696065528
0
LINE
5
2CD
100
AcDbEntity
8
0
100
AcDbLine
62
9
6
CONTINUOUS
10
21.7860894575
20
22.0602279426
11
-21.7860894575
21
22.0602279426
0
LINE
5
2CE
100
AcDbEntity
8
0
100
AcDbLine
62
7
6
CONTINUOUS
10
9.1154700538
20
22.1643601773
11
13.3845299462
21
22.1643601773
0
LINE
5
2CF
100
AcDbEntity
8
0
100
AcDbLine
62
7
6
CONTINUOUS
10
-9.1154700538
20
22.1643601773
11
-13.3845299462
21
22.1643601773
0
LINE
5
2D0
100
AcDbEntity
8
0
100
AcDbLine
62
7
6
CONTINUOUS
10
-21.8308886505
20
22.1947348166
11
-13.8342651720
21
22.1947348166
0
LINE
5
2D1
100
AcDbEntity
8
0
100
AcDbLine
62
7
6
CONTINUOUS
10
-8.6657348280
20
22.1947348166
11
8.6657348280
21
22.1947348166
0
LINE
5
2D2
100
AcDbEntity
8
0
100
AcDbLine
62
7
6
CONTINUOUS
10
13.8342651720
20
22.1947348166
11
21.8308886505
21
22.1947348166
0
LINE
5
2D3
100
AcDbEntity
8
0
100
AcDbLine
62
7
6
CONTINUOUS
10
8.6657348280
20
22.1947348166
11
8.9422649731
21
22.1696065528
0
LINE
5
2D4
100
AcDbEntity
8
0
100
AcDbLine
62
7
6
CONTINUOUS
10
-34.6708198122
20
-22.0602279426
11
-32.1042757641
21
-22.1947348166
0
LINE
5
2D5
100
AcDbEntity
8
0
100
AcDbLine
62
9
6
CONTINUOUS
10
-34.6533780373
20
-21.5609131753
11
-32.0432480891
21
-21.6977042895
0
LINE
5
2D6
100
AcDbEntity
8
0
100
AcDbLine
62
9
6
CONTINUOUS
10
-36.1061410579
20
-9.4905000000
11
-36.5973245961
21
-9.5000000000
0
LINE
5
2D7
100
AcDbEntity
8
0
100
AcDbLine
62
9
6
CONTINUOUS
10
-30.9875827431
20
-0.3499714434
11
-36.1961524276
21
-0.3954259424
0
LINE
5
2D8
100
AcDbEntity
8
0
100
AcDbLine
62
7
6
CONTINUOUS
10
-30.9875827431
20
-0.1000000000
11
-36.4396062363
21
-0.1475790882
0
LINE
5
2D9
100
AcDbEntity
8
0
100
AcDbLine
62
7
6
CONTINUOUS
10
-30.9875827431
20
0.1000000000
11
-36.4396062363
21
0.1475790882
0
LINE
5
2DA
100
AcDbEntity
8
0
100
AcDbLine
62
7
6
CONTINUOUS
10
-30.9875827431
20
-0.1000000000
11
-30.9875827431
21
-13.1000000000
0
LINE
5
2DB
100
AcDbEntity
8
0
100
AcDbLine
62
7
6
CONTINUOUS
10
-30.9875827431
20
0.1000000000
11
-30.9875827431
21
13.1000000000
0
LINE
5
2DC
100
AcDbEntity
8
0
100
AcDbLine
62
9
6
CONTINUOUS
10
-30.9875827431
20
0.3499714434
11
-36.1961524276
21
0.3954259424
0
LINE
5
2DD
100
AcDbEntity
8
0
100
AcDbLine
62
7
6
CONTINUOUS
10
-30.9875827431
20
-13.1000000000
11
-32.1042757641
21
-22.1947348166
0
LINE
5
2DE
100
AcDbEntity
8
0
100
AcDbLine
62
7
6
CONTINUOUS
10
-32.1042757641
20
22.1947348166
11
-30.9875827431
21
13.1000000000
0
LINE
5
2DF
100
AcDbEntity
8
0
100
AcDbLine
62
9
6
CONTINUOUS
10
-36.1061410579
20
9.4905000000
11
-36.5973245966
21
9.5000000000
0
LINE
5
2E0
100
AcDbEntity
8
0
100
AcDbLine
62
9
6
CONTINUOUS
10
-32.0432480891
20
21.6977042895
11
-34.6533780373
21
21.5609131753
0
LINE
5
2E1
100
AcDbEntity
8
0
100
AcDbLine
62
7
6
CONTINUOUS
10
-32.1042757641
20
22.1947348166
11
-34.6708198122
21
22.0602279426
0
ARC
5
2E2
100
AcDbEntity
8
0
100
AcDbCircle
62
7
6
CONTINUOUS
10
-7.1000000000
20
0.7500000000
40
0.5000000000
100
AcDbArc
50
0.0000000000
51
90.0000000000
0
ARC
5
2E3
100
AcDbEntity
8
0
100
AcDbCircle
62
7
6
CONTINUOUS
10
-15.4000000000
20
0.7500000000
40
0.5000000000
100
AcDbArc
50
90.0000000000
51
180.0000000000
0
ARC
5
2E4
100
AcDbEntity
8
0
100
AcDbCircle
62
7
6
CONTINUOUS
10
7.1000000000
20
-0.7500000000
40
0.5000000000
100
AcDbArc
50
180.0000000000
51
270.0000000000
0
ARC
5
2E5
100
AcDbEntity
8
0
100
AcDbCircle
62
7
6
CONTINUOUS
10
15.4000000000
20
-0.7500000000
40
0.5000000000
100
AcDbArc
50
270.0000000000
51
360.0000000000
0
ARC
5
2E6
100
AcDbEntity
8
0
100
AcDbCircle
62
7
6
CONTINUOUS
10
-36.4374246024
20
-0.3975695690
40
0.2500000000
100
AcDbArc
50
90.4999999467
51
180.0455809120
0
ARC
5
2E7
100
AcDbEntity
8
0
100
AcDbCircle
62
7
6
CONTINUOUS
10
463.3124172569
20
0.0000000000
40
500.0000000000
100
AcDbArc
50
180.0455809120
51
181.0886853200
0
ARC
5
2E8
100
AcDbEntity
8
0
100
AcDbCircle
62
7
6
CONTINUOUS
10
53.3864289371
20
-7.7900000000
40
90.0000000000
100
AcDbArc
50
181.0886853200
51
188.5758796048
0
ARC
5
2E9
100
AcDbEntity
8
0
100
AcDbCircle
62
7
6
CONTINUOUS
10
-34.6184838559
20
-21.0615984079
40
1.0000000000
100
AcDbArc
50
188.5758796048
51
267.0000000000
0
ARC
5
2EA
100
AcDbEntity
8
0
100
AcDbCircle
62
7
6
CONTINUOUS
10
-36.4374246024
20
0.3975695690
40
0.2500000000
100
AcDbArc
50
179.9544190880
51
269.5000000000
0
ARC
5
2EB
100
AcDbEntity
8
0
100
AcDbCircle
62
7
6
CONTINUOUS
10
463.3124172569
20
0.0000000000
40
500.0000000000
100
AcDbArc
50
178.9113146800
51
179.9544190880
0
ARC
5
2EC
100
AcDbEntity
8
0
100
AcDbCircle
62
7
6
CONTINUOUS
10
53.3864289371
20
7.7900000000
40
90.0000000000
100
AcDbArc
50
171.4241203952
51
178.9113146800
0
ARC
5
2ED
100
AcDbEntity
8
0
100
AcDbCircle
62
7
6
CONTINUOUS
10
-34.6184838559
20
21.0615984079
40
1.0000000000
100
AcDbArc
50
93.0000000000
51
171.4241203952
0
SPLINE
5
2EE
100
AcDbEntity
8
0
100
AcDbSpline
62
7
6
CONTINUOUS
70
0
71
3
72
20
73
16
74
14
42
0.0000001000
43
0.0000001000
44
0.0000000001
12
0.0000000000
22
-0.3102409269
32
0.0000000000
13
-0.3102891983
23
-0.0046938343
33
0.0000000000
40
0.0000000000
40
0.0000000000
40
0.0000000000
40
0.0000000000
40
0.0796003205
40
0.1588721387
40
0.2378293324
40
0.3164780235
40
0.3948203310
40
0.4728571265
40
0.5505908106
40
0.6280269220
40
0.7051751597
40
0.7820499028
40
0.8586698517
40
0.9350579342
40
1.0000000000
40
1.0000000000
40
1.0000000000
40
1.0000000000
10
-15.9000000000
20
0.3367690172
30
0.0000000000
10
-15.9000000000
20
0.3285372581
30
0.0000000000
10
-15.9010170030
20
0.3120895633
30
0.0000000000
10
-15.9055573938
20
0.2878571740
30
0.0000000000
10
-15.9130072113
20
0.2644555483
30
0.0000000000
10
-15.9232227757
20
0.2422297400
30
0.0000000000
10
-15.9360211422
20
0.2214962209
30
0.0000000000
10
-15.9511837025
20
0.2025453375
30
0.0000000000
10
-15.9684608070
20
0.1856347321
30
0.0000000000
10
-15.9875770076
20
0.1709865535
30
0.0000000000
10
-16.0082367180
20
0.1587851636
30
0.0000000000
10
-16.0301291443
20
0.1491761365
30
0.0000000000
10
-16.0529353221
20
0.1422661051
30
0.0000000000
10
-16.0751786141
20
0.1383265002
30
0.0000000000
10
-16.0897954378
20
0.1373681877
30
0.0000000000
10
-16.0965123783
20
0.1372665786
30
0.0000000000
11
-15.9000000000
21
0.3367690172
31
0.0000000000
11
-15.9015251970
21
0.3121208836
31
0.0000000000
11
-15.9060542383
21
0.2879481457
31
0.0000000000
11
-15.9134854822
21
0.2646067976
31
0.0000000000
11
-15.9236757136
21
0.2424365186
31
0.0000000000
11
-15.9364424756
21
0.2217545860
31
0.0000000000
11
-15.9515676509
21
0.2028505328
31
0.0000000000
11
-15.9688021581
21
0.1859815841
31
0.0000000000
11
-15.9878712164
21
0.1713693826
31
0.0000000000
11
-16.0084798681
21
0.1591978702
31
0.0000000000
11
-16.0303184502
21
0.1496122498
31
0.0000000000
11
-16.0530676338
21
0.1427189078
31
0.0000000000
11
-16.0764031747
21
0.1385859474
31
0.0000000000
11
-16.0965123783
21
0.1372665786
31
0.0000000000
0
SPLINE
5
2EF
100
AcDbEntity
8
0
100
AcDbSpline
62
7
6
CONTINUOUS
70
0
71
3
72
16
73
12
74
10
42
0.0000001000
43
0.0000001000
44
0.0000000001
12
-0.1726171324
22
-0.0156856998
32
0.0000000000
13
-0.1733283461
23
-0.0000000000
33
0.0000000000
40
0.0000000000
40
0.0000000000
40
0.0000000000
40
0.0000000000
40
0.0738484585
40
0.1604675888
40
0.2581385912
40
0.3658769979
40
0.4826115293
40
0.6058245174
40
0.7342076873
40
0.8665075761
40
1.0000000000
40
1.0000000000
40
1.0000000000
40
1.0000000000
10
-8.9422649731
20
22.1696065528
30
0.0000000000
10
-8.9465141428
20
22.1692204313
30
0.0000000000
10
-8.9557579868
20
22.1684989977
30
0.0000000000
10
-8.9706444621
20
22.1675826988
30
0.0000000000
10
-8.9874970077
20
22.1667590724
30
0.0000000000
10
-9.0060956029
20
22.1660401731
30
0.0000000000
10
-9.0261747326
20
22.1654378052
30
0.0000000000
10
-9.0474502817
20
22.1649607589
30
0.0000000000
10
-9.0696277781
20
22.1646154192
30
0.0000000000
10
-9.0924008911
20
22.1644066262
30
0.0000000000
10
-9.1077573802
20
22.1643601773
30
0.0000000000
10
-9.1154700538
20
22.1643601773
30
0.0000000000
11
-8.9422649731
21
22.1696065528
31
0.0000000000
11
-8.9550244600
21
22.1685885689
31
0.0000000000
11
-8.9700087460
21
22.1676516195
31
0.0000000000
11
-8.9869172049
21
22.1668148090
31
0.0000000000
11
-9.0055770997
21
22.1660860577
31
0.0000000000
11
-9.0258012394
21
22.1654738668
31
0.0000000000
11
-9.0471520907
21
22.1649913253
31
0.0000000000
11
-9.0694017963
21
22.1646423284
31
0.0000000000
11
-9.0923321401
21
22.1644306317
31
0.0000000000
11
-9.1154700538
21
22.1643601773
31
0.0000000000
0
SPLINE
5
2F0
100
AcDbEntity
8
0
100
AcDbSpline
62
7
6
CONTINUOUS
70
0
71
3
72
16
73
12
74
10
42
0.0000001000
43
0.0000001000
44
0.0000000001
12
-0.1733283461
22
0.0000000000
32
0.0000000000
13
-0.1726171324
23
0.0156856998
33
0.0000000000
40
0.0000000000
40
0.0000000000
40
0.0000000000
40
0.0000000000
40
0.1334924239
40
0.2657923127
40
0.3941754826
40
0.5173884707
40
0.6341230021
40
0.7418614088
40
0.8395324112
40
0.9261515415
40
1.0000000000
40
1.0000000000
40
1.0000000000
40
1.0000000000
10
-13.3845299462
20
22.1643601773
30
0.0000000000
10
-13.3922426198
20
22.1643601773
30
0.0000000000
10
-13.4075991089
20
22.1644066262
30
0.0000000000
10
-13.4303722219
20
22.1646154192
30
0.0000000000
10
-13.4525497183
20
22.1649607589
30
0.0000000000
10
-13.4738252674
20
22.1654378052
30
0.0000000000
10
-13.4939043971
20
22.1660401731
30
0.0000000000
10
-13.5125029923
20
22.1667590724
30
0.0000000000
10
-13.5293555379
20
22.1675826988
30
0.0000000000
10
-13.5442420132
20
22.1684989977
30
0.0000000000
10
-13.5534858572
20
22.1692204313
30
0.0000000000
10
-13.5577350269
20
22.1696065528
30
0.0000000000
11
-13.3845299462
21
22.1643601773
31
0.0000000000
11
-13.4076678599
21
22.1644306317
31
0.0000000000
11
-13.4305982037
21
22.1646423284
31
0.0000000000
11
-13.4528479093
21
22.1649913253
31
0.0000000000
11
-13.4741987606
21
22.1654738668
31
0.0000000000
11
-13.4944229003
21
22.1660860577
31
0.0000000000
11
-13.5130827951
21
22.1668148090
31
0.0000000000
11
-13.5299912540
21
22.1676516195
31
0.0000000000
11
-13.5449755400
21
22.1685885689
31
0.0000000000
11
-13.5577350269
21
22.1696065528
31
0.0000000000
0
SPLINE
5
2F1
100
AcDbEntity
8
0
100
AcDbSpline
62
7
6
CONTINUOUS
70
0
71
3
72
20
73
16
74
14
42
0.0000001000
43
0.0000001000
44
0.0000000001
12
-0.3143019541
22
0.0000041133
32
0.0000000000
13
-0.0000261719
23
0.3143019530
33
0.0000000000
40
0.0000000000
40
0.0000000000
40
0.0000000000
40
0.0000000000
40
0.0752724972
40
0.1506797033
40
0.2265189215
40
0.3025107335
40
0.3788573249
40
0.4554640333
40
0.5324917028
40
0.6097981317
40
0.6875137852
40
0.7654544752
40
0.8436931858
40
0.9219605981
40
1.0000000000
40
1.0000000000
40
1.0000000000
40
1.0000000000
10
-6.4000000000
20
0.1475790882
30
0.0000000000
10
-6.4078860976
20
0.1475791914
30
0.0000000000
10
-6.4236884041
20
0.1485169311
30
0.0000000000
10
-6.4470973927
20
0.1527292663
30
0.0000000000
10
-6.4699162063
20
0.1597163168
30
0.0000000000
10
-6.4918283361
20
0.1694145853
30
0.0000000000
10
-6.5124934919
20
0.1817050053
30
0.0000000000
10
-6.5316210380
20
0.1964526495
30
0.0000000000
10
-6.5489057009
20
0.2134675357
30
0.0000000000
10
-6.5640796047
20
0.2325383222
30
0.0000000000
10
-6.5768781359
20
0.2533915020
30
0.0000000000
10
-6.5870838193
20
0.2757365805
30
0.0000000000
10
-6.5945028967
20
0.2992170728
30
0.0000000000
10
-6.5989979518
20
0.3234349127
30
0.0000000000
10
-6.5999993192
20
0.3398283522
30
0.0000000000
10
-6.6000000000
20
0.3480043310
30
0.0000000000
11
-6.4000000000
21
0.1475790882
31
0.0000000000
11
-6.4236167003
21
0.1489813330
31
0.0000000000
11
-6.4469428062
21
0.1531780881
31
0.0000000000
11
-6.4697346970
21
0.1601569396
31
0.0000000000
11
-6.4915755962
21
0.1698232985
31
0.0000000000
11
-6.5121997346
21
0.1820889949
31
0.0000000000
11
-6.5312680033
21
0.1967904842
31
0.0000000000
11
-6.5485213919
21
0.2137740680
31
0.0000000000
11
-6.5636498836
21
0.2327872277
31
0.0000000000
11
-6.5764271397
21
0.2536050105
31
0.0000000000
11
-6.5866045085
21
0.2758877352
31
0.0000000000
11
-6.5940138654
21
0.2993355077
31
0.0000000000
11
-6.5985023045
21
0.3235221624
31
0.0000000000
11
-6.6000000000
21
0.3480043310
31
0.0000000000
0
SPLINE
5
2F2
100
AcDbEntity
8
0
100
AcDbSpline
62
7
6
CONTINUOUS
70
0
71
3
72
20
73
16
74
14
42
0.0000001000
43
0.0000001000
44
0.0000000001
12
0.0000000000
22
-0.3102409269
32
0.0000000000
13
0.3102891983
23
-0.0046938343
33
0.0000000000
40
0.0000000000
40
0.0000000000
40
0.0000000000
40
0.0000000000
40
0.0796003205
40
0.1588721387
40
0.2378293324
40
0.3164780235
40
0.3948203310
40
0.4728571265
40
0.5505908106
40
0.6280269220
40
0.7051751597
40
0.7820499028
40
0.8586698517
40
0.9350579342
40
1.0000000000
40
1.0000000000
40
1.0000000000
40
1.0000000000
10
-6.6000000000
20
0.3367690172
30
0.0000000000
10
-6.6000000000
20
0.3285372581
30
0.0000000000
10
-6.5989829970
20
0.3120895633
30
0.0000000000
10
-6.5944426062
20
0.2878571740
30
0.0000000000
10
-6.5869927887
20
0.2644555483
30
0.0000000000
10
-6.5767772243
20
0.2422297400
30
0.0000000000
10
-6.5639788578
20
0.2214962209
30
0.0000000000
10
-6.5488162975
20
0.2025453375
30
0.0000000000
10
-6.5315391930
20
0.1856347321
30
0.0000000000
10
-6.5124229924
20
0.1709865535
30
0.0000000000
10
-6.4917632820
20
0.1587851636
30
0.0000000000
10
-6.4698708557
20
0.1491761365
30
0.0000000000
10
-6.4470646779
20
0.1422661051
30
0.0000000000
10
-6.4248213859
20
0.1383265002
30
0.0000000000
10
-6.4102045622
20
0.1373681877
30
0.0000000000
10
-6.4034876217
20
0.1372665786
30
0.0000000000
11
-6.6000000000
21
0.3367690172
31
0.0000000000
11
-6.5984748030
21
0.3121208836
31
0.0000000000
11
-6.5939457617
21
0.2879481457
31
0.0000000000
11
-6.5865145178
21
0.2646067976
31
0.0000000000
11
-6.5763242864
21
0.2424365186
31
0.0000000000
11
-6.5635575244
21
0.2217545860
31
0.0000000000
11
-6.5484323491
21
0.2028505328
31
0.0000000000
11
-6.5311978419
21
0.1859815841
31
0.0000000000
11
-6.5121287836
21
0.1713693826
31
0.0000000000
11
-6.4915201319
21
0.1591978702
31
0.0000000000
11
-6.4696815498
21
0.1496122498
31
0.0000000000
11
-6.4469323662
21
0.1427189078
31
0.0000000000
11
-6.4235968253
21
0.1385859474
31
0.0000000000
11
-6.4034876217
21
0.1372665786
31
0.0000000000
0
SPLINE
5
2F3
100
AcDbEntity
8
0
100
AcDbSpline
62
7
6
CONTINUOUS
70
0
71
3
72
16
73
12
74
10
42
0.0000001000
43
0.0000001000
44
0.0000000001
12
-0.1726171324
22
-0.0156856998
32
0.0000000000
13
-0.1733283461
23
0.0000000000
33
0.0000000000
40
0.0000000000
40
0.0000000000
40
0.0000000000
40
0.0000000000
40
0.0738484585
40
0.1604675888
40
0.2581385912
40
0.3658769979
40
0.4826115293
40
0.6058245174
40
0.7342076873
40
0.8665075761
40
1.0000000000
40
1.0000000000
40
1.0000000000
40
1.0000000000
10
13.5577350269
20
22.1696065528
30
0.0000000000
10
13.5534858572
20
22.1692204313
30
0.0000000000
10
13.5442420132
20
22.1684989977
30
0.0000000000
10
13.5293555379
20
22.1675826988
30
0.0000000000
10
13.5125029923
20
22.1667590724
30
0.0000000000
10
13.4939043971
20
22.1660401731
30
0.0000000000
10
13.4738252674
20
22.1654378052
30
0.0000000000
10
13.4525497183
20
22.1649607589
30
0.0000000000
10
13.4303722219
20
22.1646154192
30
0.0000000000
10
13.4075991089
20
22.1644066262
30
0.0000000000
10
13.3922426198
20
22.1643601773
30
0.0000000000
10
13.3845299462
20
22.1643601773
30
0.0000000000
11
13.5577350269
21
22.1696065528
31
0.0000000000
11
13.5449755400
21
22.1685885689
31
0.0000000000
11
13.5299912540
21
22.1676516195
31
0.0000000000
11
13.5130827951
21
22.1668148090
31
0.0000000000
11
13.4944229003
21
22.1660860577
31
0.0000000000
11
13.4741987606
21
22.1654738668
31
0.0000000000
11
13.4528479093
21
22.1649913253
31
0.0000000000
11
13.4305982037
21
22.1646423284
31
0.0000000000
11
13.4076678599
21
22.1644306317
31
0.0000000000
11
13.3845299462
21
22.1643601773
31
0.0000000000
0
SPLINE
5
2F4
100
AcDbEntity
8
0
100
AcDbSpline
62
7
6
CONTINUOUS
70
0
71
3
72
16
73
12
74
10
42
0.0000001000
43
0.0000001000
44
0.0000000001
12
-0.1733283461
22
0.0000000000
32
0.0000000000
13
-0.1726171324
23
0.0156856998
33
0.0000000000
40
0.0000000000
40
0.0000000000
40
0.0000000000
40
0.0000000000
40
0.1334924239
40
0.2657923127
40
0.3941754826
40
0.5173884707
40
0.6341230021
40
0.7418614088
40
0.8395324112
40
0.9261515415
40
1.0000000000
40
1.0000000000
40
1.0000000000
40
1.0000000000
10
9.1154700538
20
22.1643601773
30
0.0000000000
10
9.1077573802
20
22.1643601773
30
0.0000000000
10
9.0924008911
20
22.1644066262
30
0.0000000000
10
9.0696277781
20
22.1646154192
30
0.0000000000
10
9.0474502817
20
22.1649607589
30
0.0000000000
10
9.0261747326
20
22.1654378052
30
0.0000000000
10
9.0060956029
20
22.1660401731
30
0.0000000000
10
8.9874970077
20
22.1667590724
30
0.0000000000
10
8.9706444621
20
22.1675826988
30
0.0000000000
10
8.9557579868
20
22.1684989977
30
0.0000000000
10
8.9465141428
20
22.1692204313
30
0.0000000000
10
8.9422649731
20
22.1696065528
30
0.0000000000
11
9.1154700538
21
22.1643601773
31
0.0000000000
11
9.0923321401
21
22.1644306317
31
0.0000000000
11
9.0694017963
21
22.1646423284
31
0.0000000000
11
9.0471520907
21
22.1649913253
31
0.0000000000
11
9.0258012394
21
22.1654738668
31
0.0000000000
11
9.0055770997
21
22.1660860577
31
0.0000000000
11
8.9869172049
21
22.1668148090
31
0.0000000000
11
8.9700087460
21
22.1676516195
31
0.0000000000
11
8.9550244600
21
22.1685885689
31
0.0000000000
11
8.9422649731
21
22.1696065528
31
0.0000000000
0
SPLINE
5
2F5
100
AcDbEntity
8
0
100
AcDbSpline
62
7
6
CONTINUOUS
70
0
71
3
72
20
73
16
74
14
42
0.0000001000
43
0.0000001000
44
0.0000000001
12
-0.0000237084
22
-0.3105890571
32
0.0000000000
13
-0.3106369231
23
-0.0046987873
33
0.0000000000
40
0.0000000000
40
0.0000000000
40
0.0000000000
40
0.0000000000
40
0.0795701838
40
0.1588067754
40
0.2377292296
40
0.3163482463
40
0.3946694030
40
0.4726958146
40
0.5504308891
40
0.6278799552
40
0.7050513657
40
0.7819571568
40
0.8586128639
40
0.9350376605
40
1.0000000000
40
1.0000000000
40
1.0000000000
40
1.0000000000
10
6.5637859859
20
0.3362063987
30
0.0000000000
10
6.5637853570
20
0.3279685226
30
0.0000000000
10
6.5627631996
20
0.3115091135
30
0.0000000000
10
6.5582042107
20
0.2872623008
30
0.0000000000
10
6.5507267841
20
0.2638510965
30
0.0000000000
10
6.5404764260
20
0.2416206189
30
0.0000000000
10
6.5276379317
20
0.2208870597
30
0.0000000000
10
6.5124317077
20
0.2019401930
30
0.0000000000
10
6.4951090668
20
0.1850368087
30
0.0000000000
10
6.4759469102
20
0.1703979787
30
0.0000000000
10
6.4552420092
20
0.1582068359
30
0.0000000000
10
6.4333060387
20
0.1486076550
30
0.0000000000
10
6.4104585360
20
0.1417057828
30
0.0000000000
10
6.3881791132
20
0.1377713424
30
0.0000000000
10
6.3735400387
20
0.1368139823
30
0.0000000000
10
6.3668134716
20
0.1367122343
30
0.0000000000
11
6.5637859859
21
0.3362063987
31
0.0000000000
11
6.5622530958
21
0.3115403557
31
0.0000000000
11
6.5577058381
21
0.2873540900
31
0.0000000000
11
6.5502475340
21
0.2640038450
31
0.0000000000
11
6.5400231416
21
0.2418292965
31
0.0000000000
11
6.5272168784
21
0.2211474439
31
0.0000000000
11
6.5120485750
21
0.2022472698
31
0.0000000000
11
6.4947689051
21
0.1853851970
31
0.0000000000
11
6.4756540537
21
0.1707818611
31
0.0000000000
11
6.4550001422
21
0.1586200553
31
0.0000000000
11
6.4331177227
21
0.1490437639
31
0.0000000000
11
6.4103267266
21
0.1421581601
31
0.0000000000
11
6.3869517143
21
0.1380302074
31
0.0000000000
11
6.3668134716
21
0.1367122343
31
0.0000000000
0
SPLINE
5
2F6
100
AcDbEntity
8
0
100
AcDbSpline
62
7
6
CONTINUOUS
70
0
71
3
72
20
73
16
74
14
42
0.0000001000
43
0.0000001000
44
0.0000000001
12
0.0000237084
22
-0.3105890571
32
0.0000000000
13
0.3106369231
23
-0.0046987873
33
0.0000000000
40
0.0000000000
40
0.0000000000
40
0.0000000000
40
0.0000000000
40
0.0795701838
40
0.1588067754
40
0.2377292296
40
0.3163482463
40
0.3946694030
40
0.4726958146
40
0.5504308891
40
0.6278799552
40
0.7050513657
40
0.7819571568
40
0.8586128639
40
0.9350376605
40
1.0000000000
40
1.0000000000
40
1.0000000000
40
1.0000000000
10
15.9362140141
20
0.3362063987
30
0.0000000000
10
15.9362146430
20
0.3279685226
30
0.0000000000
10
15.9372368004
20
0.3115091135
30
0.0000000000
10
15.9417957893
20
0.2872623008
30
0.0000000000
10
15.9492732159
20
0.2638510965
30
0.0000000000
10
15.9595235740
20
0.2416206189
30
0.0000000000
10
15.9723620683
20
0.2208870597
30
0.0000000000
10
15.9875682923
20
0.2019401930
30
0.0000000000
10
16.0048909332
20
0.1850368087
30
0.0000000000
10
16.0240530898
20
0.1703979787
30
0.0000000000
10
16.0447579908
20
0.1582068359
30
0.0000000000
10
16.0666939613
20
0.1486076550
30
0.0000000000
10
16.0895414640
20
0.1417057828
30
0.0000000000
10
16.1118208868
20
0.1377713424
30
0.0000000000
10
16.1264599613
20
0.1368139823
30
0.0000000000
10
16.1331865284
20
0.1367122343
30
0.0000000000
11
15.9362140141
21
0.3362063987
31
0.0000000000
11
15.9377469042
21
0.3115403557
31
0.0000000000
11
15.9422941619
21
0.2873540900
31
0.0000000000
11
15.9497524660
21
0.2640038450
31
0.0000000000
11
15.9599768584
21
0.2418292965
31
0.0000000000
11
15.9727831216
21
0.2211474439
31
0.0000000000
11
15.9879514250
21
0.2022472698
31
0.0000000000
11
16.0052310949
21
0.1853851970
31
0.0000000000
11
16.0243459463
21
0.1707818611
31
0.0000000000
11
16.0449998578
21
0.1586200553
31
0.0000000000
11
16.0668822773
21
0.1490437639
31
0.0000000000
11
16.0896732734
21
0.1421581601
31
0.0000000000
11
16.1130482857
21
0.1380302074
31
0.0000000000
11
16.1331865284
21
0.1367122343
31
0.0000000000
0
SPLINE
5
2F7
100
AcDbEntity
8
0
100
AcDbSpline
62
7
6
CONTINUOUS
70
0
71
3
72
10
73
6
74
4
42
0.0000001000
43
0.0000001000
44
0.0000000001
12
-0.0627158223
22
0.0078302189
32
0.0000000000
13
-0.0632027428
23
0.0000000000
33
0.0000000000
40
0.0000000000
40
0.0000000000
40
0.0000000000
40
0.0000000000
40
0.3371715920
40
0.6698236531
40
1.0000000000
40
1.0000000000
40
1.0000000000
40
1.0000000000
10
15.4992776800
20
1.2822903819
30
0.0000000000
10
15.4922290155
20
1.2831704244
30
0.0000000000
10
15.4781877849
20
1.2846263273
30
0.0000000000
10
15.4571549864
20
1.2859268398
30
0.0000000000
10
15.4431890356
20
1.2862139802
30
0.0000000000
10
15.4362330187
20
1.2862139802
30
0.0000000000
11
15.4992776800
21
1.2822903819
31
0.0000000000
11
15.4780811258
21
1.2844879740
31
0.0000000000
11
15.4570966652
21
1.2857852648
31
0.0000000000
11
15.4362330187
21
1.2862139802
31
0.0000000000
0
SPLINE
5
2F8
100
AcDbEntity
8
0
100
AcDbSpline
62
7
6
CONTINUOUS
70
0
71
3
72
21
73
17
74
15
42
0.0000001000
43
0.0000001000
44
0.0000000001
12
0.6541205412
22
-0.0816684978
32
0.0000000000
13
0.0816684978
23
-0.6541205412
33
0.0000000000
40
0.0000000000
40
0.0000000000
40
0.0000000000
40
0.0000000000
40
0.0725908208
40
0.1446932362
40
0.2162634435
40
0.2875957322
40
0.3585074992
40
0.4293378329
40
0.5000000000
40
0.5706621671
40
0.6414925008
40
0.7124042678
40
0.7837365565
40
0.8553067638
40
0.9274091792
40
1.0000000000
40
1.0000000000
40
1.0000000000
40
1.0000000000
10
15.4992776800
20
1.2822903819
30
0.0000000000
10
15.5151053957
20
1.2803142541
30
0.0000000000
10
15.5464866153
20
1.2748615312
30
0.0000000000
10
15.5923821401
20
1.2622809291
30
0.0000000000
10
15.6366234733
20
1.2455053539
30
0.0000000000
10
15.6788482470
20
1.2247465910
30
0.0000000000
10
15.7187960487
20
1.2001969435
30
0.0000000000
10
15.7561497608
20
1.1721007190
30
0.0000000000
10
15.7906697413
20
1.1406697413
30
0.0000000000
10
15.8221007190
20
1.1061497608
30
0.0000000000
10
15.8501969435
20
1.0687960487
30
0.0000000000
10
15.8747465910
20
1.0288482470
30
0.0000000000
10
15.8955053539
20
0.9866234733
30
0.0000000000
10
15.9122809291
20
0.9423821401
30
0.0000000000
10
15.9248615312
20
0.8964866153
30
0.0000000000
10
15.9303142541
20
0.8651053957
30
0.0000000000
10
15.9322903819
20
0.8492776800
30
0.0000000000
11
15.4992776800
21
1.2822903819
31
0.0000000000
11
15.5464228121
21
1.2740970002
31
0.0000000000
11
15.5922616394
21
1.2615316450
31
0.0000000000
11
15.6363754379
21
1.2448034589
31
0.0000000000
11
15.6785735578
21
1.2240572786
31
0.0000000000
11
15.7183990292
21
1.1995823079
31
0.0000000000
11
15.7557130714
21
1.1715156215
31
0.0000000000
11
15.7901553156
21
1.1401553156
31
0.0000000000
11
15.8215156215
21
1.1057130714
31
0.0000000000
11
15.8495823079
21
1.0683990292
31
0.0000000000
11
15.8740572786
21
1.0285735578
31
0.0000000000
11
15.8948034589
21
0.9863754379
31
0.0000000000
11
15.9115316450
21
0.9422616394
31
0.0000000000
11
15.9240970002
21
0.8964228121
31
0.0000000000
11
15.9322903819
21
0.8492776800
31
0.0000000000
0
SPLINE
5
2F9
100
AcDbEntity
8
0
100
AcDbSpline
62
7
6
CONTINUOUS
70
0
71
3
72
21
73
17
74
15
42
0.0000001000
43
0.0000001000
44
0.0000000001
12
-0.6541205412
22
-0.0816684978
32
0.0000000000
13
-0.0816684978
23
-0.6541205412
33
0.0000000000
40
0.0000000000
40
0.0000000000
40
0.0000000000
40
0.0000000000
40
0.0725908208
40
0.1446932362
40
0.2162634435
40
0.2875957322
40
0.3585074992
40
0.4293378329
40
0.5000000000
40
0.5706621671
40
0.6414925008
40
0.7124042678
40
0.7837365565
40
0.8553067638
40
0.9274091792
40
1.0000000000
40
1.0000000000
40
1.0000000000
40
1.0000000000
10
7.0007223200
20
1.2822903819
30
0.0000000000
10
6.9848946043
20
1.2803142541
30
0.0000000000
10
6.9535133847
20
1.2748615312
30
0.0000000000
10
6.9076178599
20
1.2622809291
30
0.0000000000
10
6.8633765267
20
1.2455053539
30
0.0000000000
10
6.8211517530
20
1.2247465910
30
0.0000000000
10
6.7812039513
20
1.2001969435
30
0.0000000000
10
6.7438502392
20
1.1721007190
30
0.0000000000
10
6.7093302587
20
1.1406697413
30
0.0000000000
10
6.6778992810
20
1.1061497608
30
0.0000000000
10
6.6498030565
20
1.0687960487
30
0.0000000000
10
6.6252534090
20
1.0288482470
30
0.0000000000
10
6.6044946461
20
0.9866234733
30
0.0000000000
10
6.5877190709
20
0.9423821401
30
0.0000000000
10
6.5751384688
20
0.8964866153
30
0.0000000000
10
6.5696857459
20
0.8651053957
30
0.0000000000
10
6.5677096181
20
0.8492776800
30
0.0000000000
11
7.0007223200
21
1.2822903819
31
0.0000000000
11
6.9535771879
21
1.2740970002
31
0.0000000000
11
6.9077383606
21
1.2615316450
31
0.0000000000
11
6.8636245621
21
1.2448034589
31
0.0000000000
11
6.8214264422
21
1.2240572786
31
0.0000000000
11
6.7816009708
21
1.1995823079
31
0.0000000000
11
6.7442869286
21
1.1715156215
31
0.0000000000
11
6.7098446844
21
1.1401553156
31
0.0000000000
11
6.6784843785
21
1.1057130714
31
0.0000000000
11
6.6504176921
21
1.0683990292
31
0.0000000000
11
6.6259427214
21
1.0285735578
31
0.0000000000
11
6.6051965411
21
0.9863754379
31
0.0000000000
11
6.5884683550
21
0.9422616394
31
0.0000000000
11
6.5759029998
21
0.8964228121
31
0.0000000000
11
6.5677096181
21
0.8492776800
31
0.0000000000
0
SPLINE
5
2FA
100
AcDbEntity
8
0
100
AcDbSpline
62
7
6
CONTINUOUS
70
0
71
3
72
10
73
6
74
4
42
0.0000001000
43
0.0000001000
44
0.0000000001
12
0.0627158223
22
0.0078302189
32
0.0000000000
13
0.0632027428
23
0.0000000000
33
0.0000000000
40
0.0000000000
40
0.0000000000
40
0.0000000000
40
0.0000000000
40
0.3371715920
40
0.6698236531
40
1.0000000000
40
1.0000000000
40
1.0000000000
40
1.0000000000
10
7.0007223200
20
1.2822903819
30
0.0000000000
10
7.0077709845
20
1.2831704244
30
0.0000000000
10
7.0218122151
20
1.2846263273
30
0.0000000000
10
7.0428450136
20
1.2859268398
30
0.0000000000
10
7.0568109644
20
1.2862139802
30
0.0000000000
10
7.0637669813
20
1.2862139802
30
0.0000000000
11
7.0007223200
21
1.2822903819
31
0.0000000000
11
7.0219188742
21
1.2844879740
31
0.0000000000
11
7.0429033348
21
1.2857852648
31
0.0000000000
11
7.0637669813
21
1.2862139802
31
0.0000000000
0
SPLINE
5
2FB
100
AcDbEntity
8
0
100
AcDbSpline
62
7
6
CONTINUOUS
70
0
71
3
72
23
73
19
74
17
42
0.0000001000
43
0.0000001000
44
0.0000000001
12
0.0016781775
22
0.7830196530
32
0.0000000000
13
0.7830214514
23
0.0000000000
33
0.0000000000
40
0.0000000000
40
0.0000000000
40
0.0000000000
40
0.0000000000
40
0.0623789981
40
0.1247768651
40
0.1871961286
40
0.2496351476
40
0.3121005134
40
0.3745831819
40
0.4370912106
40
0.4996125463
40
0.5621526949
40
0.6247007933
40
0.6872583788
40
0.7498165396
40
0.8123751345
40
0.8749260664
40
0.9374708035
40
1.0000000000
40
1.0000000000
40
1.0000000000
40
1.0000000000
10
-22.3315732928
20
21.6977042895
30
0.0000000000
10
-22.3315383985
20
21.7139856166
30
0.0000000000
10
-22.3298588042
20
21.7465726080
30
0.0000000000
10
-22.3225352954
20
21.7949565377
30
0.0000000000
10
-22.3104776981
20
21.8424039312
30
0.0000000000
10
-22.2938029165
20
21.8884493696
30
0.0000000000
10
-22.2726739646
20
21.9326471111
30
0.0000000000
10
-22.2472964228
20
21.9745707770
30
0.0000000000
10
-22.2179193587
20
22.0138138740
30
0.0000000000
10
-22.1848282330
20
22.0500003543
30
0.0000000000
10
-22.1483469688
20
22.0827816029
30
0.0000000000
10
-22.1088288838
20
22.1118457317
30
0.0000000000
10
-22.0666584085
20
22.1369155683
30
0.0000000000
10
-22.0222418156
20
22.1577547830
30
0.0000000000
10
-21.9760083897
20
22.1741670450
30
0.0000000000
10
-21.9283990392
20
22.1859995867
30
0.0000000000
10
-21.8798767372
20
22.1931424992
30
0.0000000000
10
-21.8472092179
20
22.1947348166
30
0.0000000000
10
-21.8308886505
20
22.1947348166
30
0.0000000000
11
-22.3315732928
21
21.6977042895
31
0.0000000000
11
-22.3290588151
21
21.7464836179
31
0.0000000000
11
-22.3217479077
21
21.7947924127
31
0.0000000000
11
-22.3097105558
21
21.8421625364
31
0.0000000000
11
-22.2930642740
21
21.8881325278
31
0.0000000000
11
-22.2719694381
21
21.9322614795
31
0.0000000000
11
-22.2466348939
21
21.9741165019
31
0.0000000000
11
-22.2173041494
21
22.0132998263
31
0.0000000000
11
-22.1842679289
21
22.0494281216
31
0.0000000000
11
-22.1478436531
21
22.0821597616
31
0.0000000000
11
-22.1083895284
21
22.1111782018
31
0.0000000000
11
-22.0662845829
21
22.1362101633
31
0.0000000000
11
-22.0219388405
21
22.1570170083
31
0.0000000000
11
-21.9757765895
21
22.1734044898
31
0.0000000000
11
-21.9282440354
21
22.1852185264
31
0.0000000000
11
-21.8797922668
21
22.1923505765
31
0.0000000000
11
-21.8308886505
21
22.1947348166
31
0.0000000000
0
SPLINE
5
2FC
100
AcDbEntity
8
0
100
AcDbSpline
62
7
6
CONTINUOUS
70
0
71
3
72
23
73
19
74
17
42
0.0000001000
43
0.0000001000
44
0.0000000001
12
0.7830214514
22
0.0000000000
32
0.0000000000
13
0.0016781775
23
-0.7830196530
33
0.0000000000
40
0.0000000000
40
0.0000000000
40
0.0000000000
40
0.0000000000
40
0.0625291965
40
0.1250739336
40
0.1876248655
40
0.2501834604
40
0.3127416212
40
0.3752992067
40
0.4378473051
40
0.5003874537
40
0.5629087894
40
0.6254168181
40
0.6878994866
40
0.7503648524
40
0.8128038714
40
0.8752231349
40
0.9376210019
40
1.0000000000
40
1.0000000000
40
1.0000000000
40
1.0000000000
10
21.8308886505
20
22.1947348166
30
0.0000000000
10
21.8472092179
20
22.1947348166
30
0.0000000000
10
21.8798767372
20
22.1931424992
30
0.0000000000
10
21.9283990392
20
22.1859995867
30
0.0000000000
10
21.9760083897
20
22.1741670450
30
0.0000000000
10
22.0222418156
20
22.1577547830
30
0.0000000000
10
22.0666584085
20
22.1369155683
30
0.0000000000
10
22.1088288838
20
22.1118457317
30
0.0000000000
10
22.1483469688
20
22.0827816029
30
0.0000000000
10
22.1848282330
20
22.0500003543
30
0.0000000000
10
22.2179193587
20
22.0138138740
30
0.0000000000
10
22.2472964228
20
21.9745707770
30
0.0000000000
10
22.2726739646
20
21.9326471111
30
0.0000000000
10
22.2938029165
20
21.8884493696
30
0.0000000000
10
22.3104776981
20
21.8424039312
30
0.0000000000
10
22.3225352954
20
21.7949565377
30
0.0000000000
10
22.3298588042
20
21.7465726080
30
0.0000000000
10
22.3315383985
20
21.7139856166
30
0.0000000000
10
22.3315732928
20
21.6977042895
30
0.0000000000
11
21.8308886505
21
22.1947348166
31
0.0000000000
11
21.8797922668
21
22.1923505765
31
0.0000000000
11
21.9282440354
21
22.1852185264
31
0.0000000000
11
21.9757765895
21
22.1734044898
31
0.0000000000
11
22.0219388405
21
22.1570170083
31
0.0000000000
11
22.0662845829
21
22.1362101633
31
0.0000000000
11
22.1083895284
21
22.1111782018
31
0.0000000000
11
22.1478436531
21
22.0821597616
31
0.0000000000
11
22.1842679289
21
22.0494281216
31
0.0000000000
11
22.2173041494
21
22.0132998263
31
0.0000000000
11
22.2466348939
21
21.9741165019
31
0.0000000000
11
22.2719694381
21
21.9322614795
31
0.0000000000
11
22.2930642740
21
21.8881325278
31
0.0000000000
11
22.3097105558
21
21.8421625364
31
0.0000000000
11
22.3217479077
21
21.7947924127
31
0.0000000000
11
22.3290588151
21
21.7464836179
31
0.0000000000
11
22.3315732928
21
21.6977042895
31
0.0000000000
0
SPLINE
5
2FD
100
AcDbEntity
8
0
100
AcDbSpline
62
7
6
CONTINUOUS
70
0
71
3
72
10
73
6
74
4
42
0.0000001000
43
0.0000001000
44
0.0000000001
12
0.0078302189
22
-0.0627158223
32
0.0000000000
13
0.0000000000
23
-0.0632027428
33
0.0000000000
40
0.0000000000
40
0.0000000000
40
0.0000000000
40
0.0000000000
40
0.3371715920
40
0.6698236531
40
1.0000000000
40
1.0000000000
40
1.0000000000
40
1.0000000000
10
15.9322903819
20
0.8492776800
30
0.0000000000
10
15.9331704244
20
0.8422290155
30
0.0000000000
10
15.9346263273
20
0.8281877849
30
0.0000000000
10
15.9359268398
20
0.8071549864
30
0.0000000000
10
15.9362139802
20
0.7931890356
30
0.0000000000
10
15.9362139802
20
0.7862330187
30
0.0000000000
11
15.9322903819
21
0.8492776800
31
0.0000000000
11
15.9344879740
21
0.8280811258
31
0.0000000000
11
15.9357852648
21
0.8070966652
31
0.0000000000
11
15.9362139802
21
0.7862330187
31
0.0000000000
0
SPLINE
5
2FE
100
AcDbEntity
8
0
100
AcDbSpline
62
7
6
CONTINUOUS
70
0
71
3
72
10
73
6
74
4
42
0.0000001000
43
0.0000001000
44
0.0000000001
12
-0.0078302189
22
-0.0627158223
32
0.0000000000
13
0.0000000000
23
-0.0632027428
33
0.0000000000
40
0.0000000000
40
0.0000000000
40
0.0000000000
40
0.0000000000
40
0.3371715920
40
0.6698236531
40
1.0000000000
40
1.0000000000
40
1.0000000000
40
1.0000000000
10
6.5677096181
20
0.8492776800
30
0.0000000000
10
6.5668295756
20
0.8422290155
30
0.0000000000
10
6.5653736727
20
0.8281877849
30
0.0000000000
10
6.5640731602
20
0.8071549864
30
0.0000000000
10
6.5637860198
20
0.7931890356
30
0.0000000000
10
6.5637860198
20
0.7862330187
30
0.0000000000
11
6.5677096181
21
0.8492776800
31
0.0000000000
11
6.5655120260
21
0.8280811258
31
0.0000000000
11
6.5642147352
21
0.8070966652
31
0.0000000000
11
6.5637860198
21
0.7862330187
31
0.0000000000
0
SPLINE
5
2FF
100
AcDbEntity
8
0
100
AcDbSpline
62
7
6
CONTINUOUS
70
0
71
3
72
21
73
17
74
15
42
0.0000001000
43
0.0000001000
44
0.0000000001
12
-0.3924734050
22
0.0000000000
32
0.0000000000
13
0.0000000000
23
0.3924734050
33
0.0000000000
40
0.0000000000
40
0.0000000000
40
0.0000000000
40
0.0000000000
40
0.0712061031
40
0.1428002435
40
0.2142646353
40
0.2854439293
40
0.3570403704
40
0.4287335384
40
0.5000521553
40
0.5713646493
40
0.6430464088
40
0.7146385736
40
0.7858112753
40
0.8572465513
40
0.9288136740
40
1.0000000000
40
1.0000000000
40
1.0000000000
40
1.0000000000
10
-22.0999999985
20
0.1000000000
30
0.0000000000
10
-22.1093154991
20
0.1000000000
30
0.0000000000
10
-22.1280140459
20
0.1010460669
30
0.0000000000
10
-22.1557057921
20
0.1057439553
30
0.0000000000
10
-22.1826963564
20
0.1135157699
30
0.0000000000
10
-22.2086478022
20
0.1242557354
30
0.0000000000
10
-22.2332618038
20
0.1378469396
30
0.0000000000
10
-22.2562087491
20
0.1541270318
30
0.0000000000
10
-22.2771579919
20
0.1728513723
30
0.0000000000
10
-22.2958815895
20
0.1937992650
30
0.0000000000
10
-22.3121604254
20
0.2167435879
30
0.0000000000
10
-22.3257505458
20
0.2413548693
30
0.0000000000
10
-22.3364884474
20
0.2673015183
30
0.0000000000
10
-22.3442578554
20
0.2942842004
30
0.0000000000
10
-22.3489542061
20
0.3219661080
30
0.0000000000
10
-22.3500000000
20
0.3406585301
30
0.0000000000
10
-22.3500000000
20
0.3499714434
30
0.0000000000
11
-22.0999999985
21
0.1000000000
31
0.0000000000
11
-22.1279028351
21
0.1015616253
31
0.0000000000
11
-22.1556058734
21
0.1062609876
31
0.0000000000
11
-22.1825585693
21
0.1140221330
31
0.0000000000
11
-22.2083713957
21
0.1247046872
31
0.0000000000
11
-22.2329701479
21
0.1382875615
31
0.0000000000
11
-22.2559188904
21
0.1545689381
31
0.0000000000
11
-22.2767884371
21
0.1732220637
31
0.0000000000
11
-22.2954401885
21
0.1940896155
31
0.0000000000
11
-22.3117193445
21
0.2170344436
31
0.0000000000
11
-22.3253016971
21
0.2416315666
31
0.0000000000
11
-22.3359831696
21
0.2674420406
31
0.0000000000
11
-22.3437410064
21
0.2943837976
31
0.0000000000
11
-22.3484387093
21
0.3220763623
31
0.0000000000
11
-22.3500000000
21
0.3499714434
31
0.0000000000
0
SPLINE
5
300
100
AcDbEntity
8
0
100
AcDbSpline
62
7
6
CONTINUOUS
70
0
71
3
72
21
73
17
74
15
42
0.0000001000
43
0.0000001000
44
0.0000000001
12
0.0000000000
22
-0.3924734050
32
0.0000000000
13
-0.3924734050
23
0.0000000000
33
0.0000000000
40
0.0000000000
40
0.0000000000
40
0.0000000000
40
0.0000000000
40
0.0711885173
40
0.1427664398
40
0.2142165951
40
0.2853838553
40
0.3569710252
40
0.4286585982
40
0.4999756426
40
0.5712897053
40
0.6429770453
40
0.7145784758
40
0.7857632227
40
0.8572127540
40
0.9287960992
40
1.0000000000
40
1.0000000000
40
1.0000000000
40
1.0000000000
10
22.3500000000
20
0.3499714434
30
0.0000000000
10
22.3500000000
20
0.3406582435
30
0.0000000000
10
22.3489540788
20
0.3219641201
30
0.0000000000
10
22.3442567840
20
0.2942786492
30
0.0000000000
10
22.3364857667
20
0.2672936405
30
0.0000000000
10
22.3257466199
20
0.2413468891
30
0.0000000000
10
22.3121560259
20
0.2167365718
30
0.0000000000
10
22.2958760426
20
0.1937921866
30
0.0000000000
10
22.2771510909
20
0.1728444718
30
0.0000000000
10
22.2562016726
20
0.1541214872
30
0.0000000000
10
22.2332547926
20
0.1378425437
30
0.0000000000
10
22.2086398284
20
0.1242518129
30
0.0000000000
10
22.1826884823
20
0.1135130905
30
0.0000000000
10
22.1557002403
20
0.1057428837
30
0.0000000000
10
22.1280120557
20
0.1010459393
30
0.0000000000
10
22.1093152110
20
0.1000000000
30
0.0000000000
10
22.0999999985
20
0.1000000000
30
0.0000000000
11
22.3500000000
21
0.3499714434
31
0.0000000000
11
22.3484386132
21
0.3220755063
31
0.0000000000
11
22.3437398708
21
0.2943788188
31
0.0000000000
11
22.3359795522
21
0.2674316994
31
0.0000000000
11
22.3252978756
21
0.2416236212
31
0.0000000000
11
22.3117156996
21
0.2170286400
31
0.0000000000
11
22.2954344894
21
0.1940824719
31
0.0000000000
11
22.2767807102
21
0.1732143372
31
0.0000000000
11
22.2559117477
21
0.1545632403
31
0.0000000000
11
22.2329643502
21
0.1382839208
31
0.0000000000
11
22.2083634585
21
0.1247008701
31
0.0000000000
11
22.1825482325
21
0.1140185175
31
0.0000000000
11
22.1556008921
21
0.1062598515
31
0.0000000000
11
22.1279019748
21
0.1015615287
31
0.0000000000
11
22.0999999985
21
0.1000000000
31
0.0000000000
0
SPLINE
5
301
100
AcDbEntity
8
0
100
AcDbSpline
62
7
6
CONTINUOUS
70
0
71
3
72
10
73
6
74
4
42
0.0000001000
43
0.0000001000
44
0.0000000001
12
-0.0000000678
22
0.0008878840
32
0.0000000000
13
0.0000000000
23
0.0008878840
33
0.0000000000
40
0.0000000000
40
0.0000000000
40
0.0000000000
40
0.0000000000
40
0.3333222604
40
0.6666549605
40
1.0000000000
40
1.0000000000
40
1.0000000000
40
1.0000000000
10
15.9362140141
20
0.3362063987
30
0.0000000000
10
15.9362140066
20
0.3363050492
30
0.0000000000
10
15.9362139940
20
0.3365023533
30
0.0000000000
10
15.9362139828
20
0.3367983146
30
0.0000000000
10
15.9362139802
20
0.3369956255
30
0.0000000000
10
15.9362139802
20
0.3370942827
30
0.0000000000
11
15.9362140141
21
0.3362063987
31
0.0000000000
11
15.9362139953
21
0.3365023502
31
0.0000000000
11
15.9362139840
21
0.3367983110
31
0.0000000000
11
15.9362139802
21
0.3370942827
31
0.0000000000
0
SPLINE
5
302
100
AcDbEntity
8
0
100
AcDbSpline
62
7
6
CONTINUOUS
70
0
71
3
72
10
73
6
74
4
42
0.0000001000
43
0.0000001000
44
0.0000000001
12
0.0000000678
22
0.0008878840
32
0.0000000000
13
0.0000000000
23
0.0008878840
33
0.0000000000
40
0.0000000000
40
0.0000000000
40
0.0000000000
40
0.0000000000
40
0.3333222604
40
0.6666549605
40
1.0000000000
40
1.0000000000
40
1.0000000000
40
1.0000000000
10
6.5637859859
20
0.3362063987
30
0.0000000000
10
6.5637859934
20
0.3363050492
30
0.0000000000
10
6.5637860060
20
0.3365023533
30
0.0000000000
10
6.5637860172
20
0.3367983146
30
0.0000000000
10
6.5637860198
20
0.3369956255
30
0.0000000000
10
6.5637860198
20
0.3370942827
30
0.0000000000
11
6.5637859859
21
0.3362063987
31
0.0000000000
11
6.5637860047
21
0.3365023502
31
0.0000000000
11
6.5637860160
21
0.3367983110
31
0.0000000000
11
6.5637860198
21
0.3370942827
31
0.0000000000
0
SPLINE
5
303
100
AcDbEntity
8
0
100
AcDbSpline
62
9
6
CONTINUOUS
70
0
71
3
72
19
73
15
74
13
42
0.0000001000
43
0.0000001000
44
0.0000000001
12
0.2000008301
22
-0.0000000000
32
0.0000000000
13
0.0000000001
23
-0.2000008301
33
0.0000000000
40
0.0000000000
40
0.0000000000
40
0.0000000000
40
0.0000000000
40
0.1305256965
40
0.2588180560
40
0.3826819658
40
0.4999980866
40
0.6087591156
40
0.7071041327
40
0.7933504420
40
0.8660223663
40
0.9238765022
40
0.9659230151
40
0.9914426590
40
1.0000000000
40
1.0000000000
40
1.0000000000
40
1.0000000000
10
-16.1000000000
20
0.7503001200
30
0.0000000000
10
-16.0912982508
20
0.7503001200
30
0.0000000000
10
-16.0740436669
20
0.7502984137
30
0.0000000000
10
-16.0485313219
20
0.7502909697
30
0.0000000000
10
-16.0239001081
20
0.7502781798
30
0.0000000000
10
-16.0005693171
20
0.7502623342
30
0.0000000000
10
-15.9789454012
20
0.7502367982
30
0.0000000000
10
-15.9593747185
20
0.7502246112
30
0.0000000000
10
-15.9422659808
20
0.7501555349
30
0.0000000000
10
-15.9276928712
20
0.7502400252
30
0.0000000000
10
-15.9165100660
20
0.7498989383
30
0.0000000000
10
-15.9074033473
20
0.7505762536
30
0.0000000000
10
-15.9036550668
20
0.7492771824
30
0.0000000000
10
-15.9000000000
20
0.7505704918
30
0.0000000000
10
-15.9000000000
20
0.7500000000
30
0.0000000000
11
-16.1000000000
21
0.7503001200
31
0.0000000000
11
-16.0738947525
21
0.7502975525
31
0.0000000000
11
-16.0482361752
21
0.7502898937
31
0.0000000000
11
-16.0234632937
21
0.7502772748
31
0.0000000000
11
-15.9999999785
21
0.7502599116
31
0.0000000000
11
-15.9782476934
21
0.7502381012
31
0.0000000000
11
-15.9585786253
21
0.7502122169
31
0.0000000000
11
-15.9413293171
21
0.7501827015
31
0.0000000000
11
-15.9267949086
21
0.7501500600
31
0.0000000000
11
-15.9152240870
21
0.7501148509
31
0.0000000000
11
-15.9068148317
21
0.7500776768
31
0.0000000000
11
-15.9017110269
21
0.7500391735
31
0.0000000000
11
-15.9000000000
21
0.7500000000
31
0.0000000000
0
SPLINE
5
304
100
AcDbEntity
8
0
100
AcDbSpline
62
9
6
CONTINUOUS
70
0
71
3
72
19
73
15
74
13
42
0.0000001000
43
0.0000001000
44
0.0000000001
12
0.3052058311
22
0.0000000000
32
0.0000000000
13
0.0133319213
23
0.3051134243
33
0.0000000000
40
0.0000000000
40
0.0000000000
40
0.0000000000
40
0.0000000000
40
0.0857167807
40
0.1714334482
40
0.2571498970
40
0.3428660362
40
0.4285817965
40
0.5142971338
40
0.6000120333
40
0.6857265094
40
0.7714406058
40
0.8571543916
40
0.9428679572
40
1.0000000000
40
1.0000000000
40
1.0000000000
40
1.0000000000
10
-16.1000000000
20
0.1475790882
30
0.0000000000
10
-16.0912795796
20
0.1475790882
30
0.0000000000
10
-16.0738172232
20
0.1487229915
30
0.0000000000
10
-16.0480889322
20
0.1538411986
30
0.0000000000
10
-16.0232442298
20
0.1622741838
30
0.0000000000
10
-15.9997140779
20
0.1738776572
30
0.0000000000
10
-15.9778995131
20
0.1884530782
30
0.0000000000
10
-15.9581742097
20
0.2057510660
30
0.0000000000
10
-15.9408755605
20
0.2254756170
30
0.0000000000
10
-15.9262995807
20
0.2472893517
30
0.0000000000
10
-15.9146956616
20
0.2708186101
30
0.0000000000
10
-15.9062623520
20
0.2956623708
30
0.0000000000
10
-15.9017128626
20
0.3185300749
30
0.0000000000
10
-15.9004445066
20
0.3330373595
30
0.0000000000
10
-15.9001906133
20
0.3388479439
30
0.0000000000
11
-16.1000000000
21
0.1475790882
31
0.0000000000
11
-16.0738947478
21
0.1492900526
31
0.0000000000
11
-16.0482361650
21
0.1543936704
31
0.0000000000
11
-16.0234632783
21
0.1628026166
31
0.0000000000
11
-15.9999999594
21
0.1743730106
31
0.0000000000
11
-15.9782476726
21
0.1889068784
31
0.0000000000
11
-15.9585786051
21
0.2061555401
31
0.0000000000
11
-15.9413292996
21
0.2258238651
31
0.0000000000
11
-15.9267948952
21
0.2475753221
31
0.0000000000
11
-15.9152240783
21
0.2710377372
31
0.0000000000
11
-15.9068148274
21
0.2958096622
31
0.0000000000
11
-15.9017110258
21
0.3214672432
31
0.0000000000
11
-15.9001906133
21
0.3388479439
31
0.0000000000
0
SPLINE
5
305
100
AcDbEntity
8
0
100
AcDbSpline
62
9
6
CONTINUOUS
70
0
71
3
72
8
73
4
74
2
42
0.0000001000
43
0.0000001000
44
0.0000000001
12
0.0003810451
22
0.0087205712
32
0.0000000000
13
0.0000000000
23
0.0087232123
33
0.0000000000
40
0.0000000000
40
0.0000000000
40
0.0000000000
40
0.0000000000
40
1.0000000000
40
1.0000000000
40
1.0000000000
40
1.0000000000
10
-15.9001906133
20
0.3388479439
30
0.0000000000
10
-15.9000635983
20
0.3417548010
30
0.0000000000
10
-15.9000000000
20
0.3446637354
30
0.0000000000
10
-15.9000000000
20
0.3475714728
30
0.0000000000
11
-15.9001906133
21
0.3388479439
31
0.0000000000
11
-15.9000000000
21
0.3475714728
31
0.0000000000
0
SPLINE
5
306
100
AcDbEntity
8
0
100
AcDbSpline
62
9
6
CONTINUOUS
70
0
71
3
72
25
73
21
74
19
42
0.0000001000
43
0.0000001000
44
0.0000000001
12
1.0993875931
22
-0.0000112115
32
0.0000000000
13
0.0000274464
23
-1.0993875929
33
0.0000000000
40
0.0000000000
40
0.0000000000
40
0.0000000000
40
0.0000000000
40
0.0550513991
40
0.1105051375
40
0.1661718905
40
0.2218958160
40
0.2775409437
40
0.3330964673
40
0.3886521129
40
0.4442572516
40
0.4998907616
40
0.5555276008
40
0.6111428213
40
0.6667169884
40
0.7223032102
40
0.7779893467
40
0.8337541782
40
0.8894531056
40
0.9449297238
40
1.0000000000
40
1.0000000000
40
1.0000000000
40
1.0000000000
10
15.4480124517
20
1.4985852320
30
0.0000000000
10
15.4681867268
20
1.4985850262
30
0.0000000000
10
15.5087045001
20
1.4968319647
30
0.0000000000
10
15.5691584758
20
1.4889218684
30
0.0000000000
10
15.6289386276
20
1.4757167760
30
0.0000000000
10
15.6874014343
20
1.4573152591
30
0.0000000000
10
15.7439947857
20
1.4338906015
30
0.0000000000
10
15.7982731842
20
1.4056457090
30
0.0000000000
10
15.8498701478
20
1.3727842061
30
0.0000000000
10
15.8984273672
20
1.3355304901
30
0.0000000000
10
15.9435703683
20
1.2941613255
30
0.0000000000
10
15.9849327685
20
1.2490071173
30
0.0000000000
10
16.0221839517
20
1.2004332093
30
0.0000000000
10
16.0550474265
20
1.1488117310
30
0.0000000000
10
16.0832979183
20
1.0944989412
30
0.0000000000
10
16.1067286535
20
1.0378633924
30
0.0000000000
10
16.1251332816
20
0.9793577079
30
0.0000000000
10
16.1383379990
20
0.9195414859
30
0.0000000000
10
16.1462464568
20
0.8590600376
30
0.0000000000
10
16.1479993248
20
0.8185270136
30
0.0000000000
10
16.1479998286
20
0.7983458208
30
0.0000000000
11
15.4480124517
21
1.4985852320
31
0.0000000000
11
15.5084786576
21
1.4959679225
31
0.0000000000
11
15.5689286343
21
1.4880590615
31
0.0000000000
11
15.6286873239
21
1.4748583818
31
0.0000000000
11
15.6871232582
21
1.4564655085
31
0.0000000000
11
15.7436481403
21
1.4330692008
31
0.0000000000
11
15.7978285412
21
1.4048753964
31
0.0000000000
11
15.8493448006
21
1.3720653697
31
0.0000000000
11
15.8978464842
21
1.3348543612
31
0.0000000000
11
15.9429388754
21
1.2935316891
31
0.0000000000
11
15.9842548975
21
1.2484282413
31
0.0000000000
11
16.0214631419
21
1.1999104684
31
0.0000000000
11
16.0542745484
21
1.1483709476
31
0.0000000000
11
16.0824744007
21
1.0941556499
31
0.0000000000
11
16.1058783483
21
1.0375851370
31
0.0000000000
11
16.1242753900
21
0.9791033688
31
0.0000000000
11
16.1374758025
21
0.9193083959
31
0.0000000000
11
16.1453828456
21
0.8588328135
31
0.0000000000
11
16.1479998286
21
0.7983458208
31
0.0000000000
0
SPLINE
5
307
100
AcDbEntity
8
0
100
AcDbSpline
62
9
6
CONTINUOUS
70
0
71
3
72
25
73
21
74
19
42
0.0000001000
43
0.0000001000
44
0.0000000001
12
0.0000265199
22
1.0993875929
32
0.0000000000
13
1.0993875932
23
0.0000121421
33
0.0000000000
40
0.0000000000
40
0.0000000000
40
0.0000000000
40
0.0000000000
40
0.0550985848
40
0.1105978349
40
0.1663070000
40
0.2220689848
40
0.2777467506
40
0.3333288327
40
0.3889041683
40
0.4445213501
40
0.5001589074
40
0.5557917065
40
0.6113948885
40
0.6669493747
40
0.7225090599
40
0.7781625734
40
0.8338893383
40
0.8895458446
40
0.9449769416
40
1.0000000000
40
1.0000000000
40
1.0000000000
40
1.0000000000
10
6.3520001714
20
0.7983458208
30
0.0000000000
10
6.3520006584
20
0.8185373877
30
0.0000000000
10
6.3537552629
20
0.8590891139
30
0.0000000000
10
6.3616704470
20
0.9195923785
30
0.0000000000
10
6.3748827802
20
0.9794182311
30
0.0000000000
10
6.3932928064
20
1.0379218313
30
0.0000000000
10
6.4167261851
20
1.0945501606
30
0.0000000000
10
6.4449788383
20
1.1488571224
30
0.0000000000
10
6.4778458761
20
1.2004758974
30
0.0000000000
10
6.5151015804
20
1.2490481245
30
0.0000000000
10
6.5564679654
20
1.2941996645
30
0.0000000000
10
6.6016136406
20
1.3355648492
30
0.0000000000
10
6.6501725485
20
1.3728140478
30
0.0000000000
10
6.7017722279
20
1.4056719932
30
0.0000000000
10
6.7560564715
20
1.4339147295
30
0.0000000000
10
6.8126570552
20
1.4573367430
30
0.0000000000
10
6.8711219480
20
1.4757328554
30
0.0000000000
10
6.9308924616
20
1.4889303235
30
0.0000000000
10
6.9913246033
20
1.4968336863
30
0.0000000000
10
7.0318236590
20
1.4985850093
30
0.0000000000
10
7.0519875483
20
1.4985852320
30
0.0000000000
11
6.3520001714
21
0.7983458208
31
0.0000000000
11
6.3546198536
21
0.8588638480
31
0.0000000000
11
6.3625339162
21
0.9193636055
31
0.0000000000
11
6.3757420084
21
0.9791684089
31
0.0000000000
11
6.3941436038
21
1.0376454634
31
0.0000000000
11
6.4175488409
21
1.0942054835
31
0.0000000000
11
6.4457506706
21
1.1484146228
31
0.0000000000
11
6.4785665220
21
1.1999528363
31
0.0000000000
11
6.5157797326
21
1.2484695177
31
0.0000000000
11
6.5570997797
21
1.2935703491
31
0.0000000000
11
6.6021947940
21
1.3348890016
31
0.0000000000
11
6.6506975745
21
1.3720950461
31
0.0000000000
11
6.7022151510
21
1.4049006316
31
0.0000000000
11
6.7564017339
21
1.4330924671
31
0.0000000000
11
6.8129371265
21
1.4564874870
31
0.0000000000
11
6.8713777691
21
1.4748757981
31
0.0000000000
11
6.9311266201
21
1.4880687899
31
0.0000000000
11
6.9915524120
21
1.4959706251
31
0.0000000000
11
7.0519875483
21
1.4985852320
31
0.0000000000
0
SPLINE
5
308
100
AcDbEntity
8
0
100
AcDbSpline
62
9
6
CONTINUOUS
70
0
71
3
72
20
73
16
74
14
42
0.0000001000
43
0.0000001000
44
0.0000000001
12
0.2138639108
22
-0.0004696624
32
0.0000000000
13
0.0078909768
23
-0.2137187998
33
0.0000000000
40
0.0000000000
40
0.0000000000
40
0.0000000000
40
0.0000000000
40
0.1098504560
40
0.2184939487
40
0.3247162776
40
0.4270335388
40
0.5240365780
40
0.6145374773
40
0.6975210960
40
0.7716902224
40
0.8363246057
40
0.8907869324
40
0.9352405215
40
0.9706161836
40
1.0000000000
40
1.0000000000
40
1.0000000000
40
1.0000000000
10
6.3520014432
20
0.3977667143
30
0.0000000000
10
6.3598324592
20
0.3977495167
30
0.0000000000
10
6.3754089440
20
0.3974883334
30
0.0000000000
10
6.3985357962
20
0.3964152358
30
0.0000000000
10
6.4210838609
20
0.3946734596
30
0.0000000000
10
6.4427376885
20
0.3922782741
30
0.0000000000
10
6.4631821512
20
0.3892609847
30
0.0000000000
10
6.4821314246
20
0.3856564500
30
0.0000000000
10
6.4993008777
20
0.3815101338
30
0.0000000000
10
6.5144317591
20
0.3768802176
30
0.0000000000
10
6.5272666914
20
0.3718261314
30
0.0000000000
10
6.5376420928
20
0.3664360891
30
0.0000000000
10
6.5453836191
20
0.3607196026
30
0.0000000000
10
6.5504918750
20
0.3546891033
30
0.0000000000
10
6.5519107644
20
0.3500976225
30
0.0000000000
10
6.5519880534
20
0.3480043312
30
0.0000000000
11
6.3520014432
21
0.3977667143
31
0.0000000000
11
6.3754912048
21
0.3973703944
31
0.0000000000
11
6.3987009165
21
0.3962871124
31
0.0000000000
11
6.4213496488
21
0.3945249897
31
0.0000000000
11
6.4430970578
21
0.3921015406
31
0.0000000000
11
6.4636164512
21
0.3890469971
31
0.0000000000
11
6.4826237090
21
0.3853949850
31
0.0000000000
11
6.4998635116
21
0.3811814498
31
0.0000000000
11
6.5150104393
21
0.3764720981
31
0.0000000000
11
6.5278379695
21
0.3713214022
31
0.0000000000
11
6.5381033676
21
0.3658180286
31
0.0000000000
11
6.5456377607
21
0.3600200328
31
0.0000000000
11
6.5502916680
21
0.3540551870
31
0.0000000000
11
6.5519880534
21
0.3480043312
31
0.0000000000
0
SPLINE
5
309
100
AcDbEntity
8
0
100
AcDbSpline
62
9
6
CONTINUOUS
70
0
71
3
72
19
73
15
74
13
42
0.0000001000
43
0.0000001000
44
0.0000000001
12
0.1999933720
22
-0.0000027865
32
0.0000000000
13
0.1967272248
23
-0.0359964979
33
0.0000000000
40
0.0000000000
40
0.0000000000
40
0.0000000000
40
0.0000000000
40
0.1298095061
40
0.2574225285
40
0.3806797363
40
0.4974955036
40
0.6058932014
40
0.7040386447
40
0.7902711298
40
0.8631315388
40
0.9213870357
40
0.9640519479
40
0.9904045296
40
1.0000000000
40
1.0000000000
40
1.0000000000
40
1.0000000000
10
6.3520001714
20
0.7983458207
30
0.0000000000
10
6.3606538517
20
0.7983457001
30
0.0000000000
10
6.3778147845
20
0.7983436868
30
0.0000000000
10
6.4031925930
20
0.7983354033
30
0.0000000000
10
6.4277041713
20
0.7983219283
30
0.0000000000
10
6.4509347923
20
0.7983037908
30
0.0000000000
10
6.4724912612
20
0.7982803525
30
0.0000000000
10
6.4920091813
20
0.7982552092
30
0.0000000000
10
6.5091571641
20
0.7982189558
30
0.0000000000
10
6.5236484043
20
0.7982017958
30
0.0000000000
10
6.5352283821
20
0.7981224482
30
0.0000000000
10
6.5437245336
20
0.7981881706
30
0.0000000000
10
6.5489438672
20
0.7979667470
30
0.0000000000
10
6.5513634433
20
0.7981416169
30
0.0000000000
10
6.5519926734
20
0.7980264825
30
0.0000000000
11
6.3520001714
21
0.7983458207
31
0.0000000000
11
6.3779612120
21
0.7983427572
31
0.0000000000
11
6.4034829693
21
0.7983343421
31
0.0000000000
11
6.4281335902
21
0.7983207176
31
0.0000000000
11
6.4514959620
21
0.7983021145
31
0.0000000000
11
6.4731747706
21
0.7982788473
31
0.0000000000
11
6.4928031894
21
0.7982513099
31
0.0000000000
11
6.5100490864
21
0.7982199682
31
0.0000000000
11
6.5246206442
21
0.7981853526
31
0.0000000000
11
6.5362712977
21
0.7981480487
31
0.0000000000
11
6.5448039066
21
0.7981086877
31
0.0000000000
11
6.5500740907
21
0.7980679358
31
0.0000000000
11
6.5519926734
21
0.7980264825
31
0.0000000000
0
SPLINE
5
30A
100
AcDbEntity
8
0
100
AcDbSpline
62
9
6
CONTINUOUS
70
0
71
3
72
19
73
15
74
13
42
0.0000001000
43
0.0000001000
44
0.0000000001
12
-0.1999932546
22
-0.0000027867
32
0.0000000000
13
-0.1967271021
23
-0.0359965161
33
0.0000000000
40
0.0000000000
40
0.0000000000
40
0.0000000000
40
0.0000000000
40
0.1298095386
40
0.2574225814
40
0.3806797992
40
0.4974955683
40
0.6058932617
40
0.7040386962
40
0.7902711703
40
0.8631315675
40
0.9213870534
40
0.9640519565
40
0.9904045322
40
1.0000000000
40
1.0000000000
40
1.0000000000
40
1.0000000000
10
16.1479998286
20
0.7983458208
30
0.0000000000
10
16.1393461513
20
0.7983457002
30
0.0000000000
10
16.1221852250
20
0.7983436869
30
0.0000000000
10
16.0968074272
20
0.7983354034
30
0.0000000000
10
16.0722958611
20
0.7983219283
30
0.0000000000
10
16.0490652532
20
0.7983037908
30
0.0000000000
10
16.0275087978
20
0.7982803525
30
0.0000000000
10
16.0079908907
20
0.7982552092
30
0.0000000000
10
15.9908429202
20
0.7982189557
30
0.0000000000
10
15.9763516907
20
0.7982017957
30
0.0000000000
10
15.9647717218
20
0.7981224482
30
0.0000000000
10
15.9562755771
20
0.7981881706
30
0.0000000000
10
15.9510562477
20
0.7979667469
30
0.0000000000
10
15.9486366735
20
0.7981416170
30
0.0000000000
10
15.9480074440
20
0.7980264825
30
0.0000000000
11
16.1479998286
21
0.7983458208
31
0.0000000000
11
16.1220387967
21
0.7983427573
31
0.0000000000
11
16.0965170503
21
0.7983343421
31
0.0000000000
11
16.0718664420
21
0.7983207177
31
0.0000000000
11
16.0485040835
21
0.7983021145
31
0.0000000000
11
16.0268252885
21
0.7982788473
31
0.0000000000
11
16.0071968830
21
0.7982513099
31
0.0000000000
11
15.9899509983
21
0.7982199682
31
0.0000000000
11
15.9753794514
21
0.7981853526
31
0.0000000000
11
15.9637288070
21
0.7981480487
31
0.0000000000
11
15.9551962049
21
0.7981086877
31
0.0000000000
11
15.9499260251
21
0.7980679358
31
0.0000000000
11
15.9480074440
21
0.7980264825
31
0.0000000000
0
SPLINE
5
30B
100
AcDbEntity
8
0
100
AcDbSpline
62
9
6
CONTINUOUS
70
0
71
3
72
19
73
15
74
13
42
0.0000001000
43
0.0000001000
44
0.0000000001
12
-0.3139155005
22
0.0000239054
32
0.0000000000
13
-0.0000239054
23
0.3139155005
33
0.0000000000
40
0.0000000000
40
0.0000000000
40
0.0000000000
40
0.0000000000
40
0.0833317219
40
0.1666642438
40
0.2499974830
40
0.3333313078
40
0.4166655467
40
0.5000000000
40
0.5833344533
40
0.6666686922
40
0.7500025170
40
0.8333357562
40
0.9166682781
40
1.0000000000
40
1.0000000000
40
1.0000000000
40
1.0000000000
10
16.1475714728
20
0.1475790882
30
0.0000000000
10
16.1388517664
20
0.1475797522
30
0.0000000000
10
16.1213908336
20
0.1487248914
30
0.0000000000
10
16.0956647391
20
0.1538445779
30
0.0000000000
10
16.0708220805
20
0.1622786582
30
0.0000000000
10
16.0472937404
20
0.1738828351
30
0.0000000000
10
16.0254806819
20
0.1884585744
30
0.0000000000
10
16.0057565140
20
0.2057565140
30
0.0000000000
10
15.9884585744
20
0.2254806819
30
0.0000000000
10
15.9738828351
20
0.2472937404
30
0.0000000000
10
15.9622786582
20
0.2708220805
30
0.0000000000
10
15.9538445779
20
0.2956647391
30
0.0000000000
10
15.9487248914
20
0.3213908336
30
0.0000000000
10
15.9475797522
20
0.3388517664
30
0.0000000000
10
15.9475790882
20
0.3475714728
30
0.0000000000
11
16.1475714728
21
0.1475790882
31
0.0000000000
11
16.1214684866
21
0.1492918729
31
0.0000000000
11
16.0958120865
21
0.1543969481
31
0.0000000000
11
16.0710412181
21
0.1628069730
31
0.0000000000
11
16.0475796768
21
0.1743780635
31
0.0000000000
11
16.0258288571
21
0.1889122545
31
0.0000000000
11
16.0061608858
21
0.2061608858
31
0.0000000000
11
15.9889122545
21
0.2258288571
31
0.0000000000
11
15.9743780635
21
0.2475796768
31
0.0000000000
11
15.9628069730
21
0.2710412181
31
0.0000000000
11
15.9543969481
21
0.2958120865
31
0.0000000000
11
15.9492918729
21
0.3214684866
31
0.0000000000
11
15.9475790882
21
0.3475714728
31
0.0000000000
0
SPLINE
5
30C
100
AcDbEntity
8
0
100
AcDbSpline
62
9
6
CONTINUOUS
70
0
71
3
72
20
73
16
74
14
42
0.0000001000
43
0.0000001000
44
0.0000000001
12
0.3140720596
22
0.0000888754
32
0.0000000000
13
-0.0006007659
23
0.3140714976
33
0.0000000000
40
0.0000000000
40
0.0000000000
40
0.0000000000
40
0.0000000000
40
0.0753273185
40
0.1507748544
40
0.2265173619
40
0.3025173901
40
0.3787416682
40
0.4552645698
40
0.5322843653
40
0.6095831688
40
0.6872825337
40
0.7652225070
40
0.8434601524
40
0.9217934574
40
1.0000000000
40
1.0000000000
40
1.0000000000
40
1.0000000000
10
6.3524285158
20
0.1475790996
30
0.0000000000
10
6.3603145845
20
0.1475813312
30
0.0000000000
10
6.3761152554
20
0.1485181574
30
0.0000000000
10
6.3995063734
20
0.1527322230
30
0.0000000000
10
6.4223021493
20
0.1597171807
30
0.0000000000
10
6.4441752904
20
0.1694062323
30
0.0000000000
10
6.4648020796
20
0.1816861698
30
0.0000000000
10
6.4838898528
20
0.1964199344
30
0.0000000000
10
6.5011415101
20
0.2134285986
30
0.0000000000
10
6.5162823542
20
0.2324989796
30
0.0000000000
10
6.5290430414
20
0.2533515810
30
0.0000000000
10
6.5392067859
20
0.2756941871
30
0.0000000000
10
6.5465827410
20
0.2991765260
30
0.0000000000
10
6.5510355088
20
0.3234088229
30
0.0000000000
10
6.5520037149
20
0.3398168490
30
0.0000000000
10
6.5519880536
20
0.3480043310
30
0.0000000000
11
6.3524285158
21
0.1475790996
31
0.0000000000
11
6.3760449899
21
0.1489837027
31
0.0000000000
11
6.3993657406
21
0.1531838565
31
0.0000000000
11
6.4221103712
21
0.1601537611
31
0.0000000000
11
6.4439346115
21
0.1698209692
31
0.0000000000
11
6.4645051466
21
0.1820673037
31
0.0000000000
11
6.4835304788
21
0.1967525267
31
0.0000000000
11
6.5007563768
21
0.2137352606
31
0.0000000000
11
6.5158523790
21
0.2327484835
31
0.0000000000
11
6.5285906150
21
0.2535632269
31
0.0000000000
11
6.5387269009
21
0.2758447402
31
0.0000000000
11
6.5460915698
21
0.2992873848
31
0.0000000000
11
6.5505369241
21
0.3234847433
31
0.0000000000
11
6.5519880536
21
0.3480043310
31
0.0000000000
0
SPLINE
5
30D
100
AcDbEntity
8
0
100
AcDbSpline
62
9
6
CONTINUOUS
70
0
71
3
72
20
73
16
74
14
42
0.0000001000
43
0.0000001000
44
0.0000000001
12
0.0000597559
22
-0.3924039430
32
0.0000000000
13
0.3924039430
23
-0.0000597696
33
0.0000000000
40
0.0000000000
40
0.0000000000
40
0.0000000000
40
0.0000000000
40
0.0769244174
40
0.1538499511
40
0.2307762414
40
0.3077028846
40
0.3846294565
40
0.4615555369
40
0.5384807340
40
0.6154047073
40
0.6923271873
40
0.7692479911
40
0.8461670332
40
0.9230843302
40
1.0000000000
40
1.0000000000
40
1.0000000000
40
1.0000000000
10
-22.2590840780
20
0.3954259424
30
0.0000000000
10
-22.2590825457
20
0.3853641275
30
0.0000000000
10
-22.2578617232
20
0.3652193771
30
0.0000000000
10
-22.2524040431
20
0.3354598851
30
0.0000000000
10
-22.2433994708
20
0.3065701213
30
0.0000000000
10
-22.2309792890
20
0.2789770406
30
0.0000000000
10
-22.2153245739
20
0.2530813825
30
0.0000000000
10
-22.1966635602
20
0.2292610993
30
0.0000000000
10
-22.1752683007
20
0.2078633626
30
0.0000000000
10
-22.1514507488
20
0.1892001677
30
0.0000000000
10
-22.1255580329
20
0.1735436065
30
0.0000000000
10
-22.0979680623
20
0.1611219488
30
0.0000000000
10
-22.0690815333
20
0.1521162999
30
0.0000000000
10
-22.0393253607
20
0.1466579648
30
0.0000000000
10
-22.0191828249
20
0.1454369940
30
0.0000000000
10
-22.0091221542
20
0.1454354616
30
0.0000000000
11
-22.2590840780
21
0.3954259424
31
0.0000000000
11
-22.2572573383
21
0.3652958227
31
0.0000000000
11
-22.2518129288
21
0.3356049833
31
0.0000000000
11
-22.2428302259
21
0.3067862999
31
0.0000000000
11
-22.2304401926
21
0.2792599326
31
0.0000000000
11
-22.2148234688
21
0.2534272000
31
0.0000000000
11
-22.1962077376
21
0.2296647288
31
0.0000000000
11
-22.1748644061
21
0.2083189619
31
0.0000000000
11
-22.1511046481
21
0.1897011083
31
0.0000000000
11
-22.1252748675
21
0.1740826054
31
0.0000000000
11
-22.0977516479
21
0.1616911618
31
0.0000000000
11
-22.0689362623
21
0.1527074372
31
0.0000000000
11
-22.0392488224
21
0.1472624088
31
0.0000000000
11
-22.0091221542
21
0.1454354616
31
0.0000000000
0
SPLINE
5
30E
100
AcDbEntity
8
0
100
AcDbSpline
62
9
6
CONTINUOUS
70
0
71
3
72
20
73
16
74
14
42
0.0000001000
43
0.0000001000
44
0.0000000001
12
0.3924039430
22
0.0000597696
32
0.0000000000
13
0.0000597559
23
0.3924039430
33
0.0000000000
40
0.0000000000
40
0.0000000000
40
0.0000000000
40
0.0000000000
40
0.0769156706
40
0.1538329682
40
0.2307520108
40
0.3076728150
40
0.3845952952
40
0.4615192686
40
0.5384444656
40
0.6153705458
40
0.6922971174
40
0.7692237603
40
0.8461500501
40
0.9230755832
40
1.0000000000
40
1.0000000000
40
1.0000000000
40
1.0000000000
10
22.0091221542
20
0.1454354616
30
0.0000000000
10
22.0191828250
20
0.1454369940
30
0.0000000000
10
22.0393253610
20
0.1466579648
30
0.0000000000
10
22.0690815339
20
0.1521163001
30
0.0000000000
10
22.0979680630
20
0.1611219491
30
0.0000000000
10
22.1255580337
20
0.1735436069
30
0.0000000000
10
22.1514507496
20
0.1892001682
30
0.0000000000
10
22.1752683015
20
0.2078633633
30
0.0000000000
10
22.1966635609
20
0.2292611001
30
0.0000000000
10
22.2153245744
20
0.2530813833
30
0.0000000000
10
22.2309792893
20
0.2789770413
30
0.0000000000
10
22.2433994710
20
0.3065701219
30
0.0000000000
10
22.2524040432
20
0.3354598855
30
0.0000000000
10
22.2578617232
20
0.3652193773
30
0.0000000000
10
22.2590825457
20
0.3853641276
30
0.0000000000
10
22.2590840780
20
0.3954259424
30
0.0000000000
11
22.0091221542
21
0.1454354616
31
0.0000000000
11
22.0392488227
21
0.1472624089
31
0.0000000000
11
22.0689362628
21
0.1527074373
31
0.0000000000
11
22.0977516487
21
0.1616911621
31
0.0000000000
11
22.1252748683
21
0.1740826059
31
0.0000000000
11
22.1511046489
21
0.1897011089
31
0.0000000000
11
22.1748644069
21
0.2083189626
31
0.0000000000
11
22.1962077383
21
0.2296647295
31
0.0000000000
11
22.2148234693
21
0.2534272008
31
0.0000000000
11
22.2304401930
21
0.2792599333
31
0.0000000000
11
22.2428302261
21
0.3067863005
31
0.0000000000
11
22.2518129289
21
0.3356049837
31
0.0000000000
11
22.2572573383
21
0.3652958229
31
0.0000000000
11
22.2590840780
21
0.3954259424
31
0.0000000000
0
SPLINE
5
30F
100
AcDbEntity
8
0
100
AcDbSpline
62
9
6
CONTINUOUS
70
0
71
3
72
21
73
17
74
15
42
0.0000001000
43
0.0000001000
44
0.0000000001
12
0.0000002809
22
-0.2501906996
32
0.0000000000
13
-0.0490677374
23
-0.2453319044
33
0.0000000000
40
0.0000000000
40
0.0000000000
40
0.0000000000
40
0.0000000000
40
0.1113217651
40
0.2212666517
40
0.3284677312
40
0.4315892650
40
0.5293479440
40
0.6205268822
40
0.7039906865
40
0.7787004268
40
0.8437261181
40
0.8982580700
40
0.9416175587
40
0.9732650090
40
0.9928063835
40
1.0000000000
40
1.0000000000
40
1.0000000000
40
1.0000000000
10
16.1480040083
20
0.3977684532
30
0.0000000000
10
16.1480040187
20
0.3884845631
30
0.0000000000
10
16.1480022594
20
0.3700316103
30
0.0000000000
10
16.1479942723
20
0.3426384206
30
0.0000000000
10
16.1479810371
20
0.3159291077
30
0.0000000000
10
16.1479627598
20
0.2902360873
30
0.0000000000
10
16.1479395806
20
0.2658792771
30
0.0000000000
10
16.1479121140
20
0.2431618365
30
0.0000000000
10
16.1478797285
20
0.2223667116
30
0.0000000000
10
16.1478460722
20
0.2037523832
30
0.0000000000
10
16.1478017795
20
0.1875518495
30
0.0000000000
10
16.1477765653
20
0.1739630700
30
0.0000000000
10
16.1476911553
20
0.1631654527
30
0.0000000000
10
16.1477465940
20
0.1552678493
30
0.0000000000
10
16.1475250310
20
0.1504222452
30
0.0000000000
10
16.1476891310
20
0.1481673628
30
0.0000000000
10
16.1475714728
20
0.1475790882
30
0.0000000000
11
16.1480040083
21
0.3977684532
31
0.0000000000
11
16.1480013319
21
0.3699167830
31
0.0000000000
11
16.1479932588
21
0.3424095961
31
0.0000000000
11
16.1479798850
21
0.3155888864
31
0.0000000000
11
16.1479613809
21
0.2897888443
31
0.0000000000
11
16.1479379726
21
0.2653305433
31
0.0000000000
11
16.1479099533
21
0.2425184381
31
0.0000000000
11
16.1478776705
21
0.2216365955
31
0.0000000000
11
16.1478415279
21
0.2029449482
31
0.0000000000
11
16.1478019769
21
0.1866761731
31
0.0000000000
11
16.1477595084
21
0.1730328520
31
0.0000000000
11
16.1477146563
21
0.1621848039
31
0.0000000000
11
16.1476679663
21
0.1542670439
31
0.0000000000
11
16.1476200482
21
0.1493782085
31
0.0000000000
11
16.1475714728
21
0.1475790882
31
0.0000000000
0
SPLINE
5
310
100
AcDbEntity
8
0
100
AcDbSpline
62
9
6
CONTINUOUS
70
0
71
3
72
25
73
21
74
19
42
0.0000001000
43
0.0000001000
44
0.0000000001
12
0.7851276571
22
0.0000196023
32
0.0000000000
13
-0.0000039413
23
-0.7851276574
33
0.0000000000
40
0.0000000000
40
0.0000000000
40
0.0000000000
40
0.0000000000
40
0.0550931772
40
0.1105562534
40
0.1662311592
40
0.2219616913
40
0.2776116638
40
0.3331701643
40
0.3887267735
40
0.4443306956
40
0.4999607261
40
0.5555918310
40
0.6111991928
40
0.6667639272
40
0.7223393774
40
0.7780136081
40
0.8337657402
40
0.8894515847
40
0.9449151157
40
1.0000000000
40
1.0000000000
40
1.0000000000
40
1.0000000000
10
15.4480124517
20
1.2979934133
30
0.0000000000
10
15.4624308441
20
1.2979937733
30
0.0000000000
10
15.4913800400
20
1.2967418212
30
0.0000000000
10
15.5345688277
20
1.2910926415
30
0.0000000000
10
15.5772676250
20
1.2816639132
30
0.0000000000
10
15.6190251157
20
1.2685254505
30
0.0000000000
10
15.6594469950
20
1.2518007914
30
0.0000000000
10
15.6982151804
20
1.2316348991
30
0.0000000000
10
15.7350679658
20
1.2081731250
30
0.0000000000
10
15.7697494717
20
1.1815757062
30
0.0000000000
10
15.8019922719
20
1.1520402562
30
0.0000000000
10
15.8315347482
20
1.1198026663
30
0.0000000000
10
15.8581408975
20
1.0851236698
30
0.0000000000
10
15.8816133473
20
1.0482687982
30
0.0000000000
10
15.9017912422
20
1.0094922378
30
0.0000000000
10
15.9185268989
20
0.9690570334
30
0.0000000000
10
15.9316728401
20
0.9272862354
30
0.0000000000
10
15.9411050362
20
0.8845793163
30
0.0000000000
10
15.9467551700
20
0.8413898209
30
0.0000000000
10
15.9480075164
20
0.8124427045
30
0.0000000000
10
15.9480074440
20
0.7980264825
30
0.0000000000
11
15.4480124517
21
1.2979934133
31
0.0000000000
11
15.4912272092
21
1.2961238993
31
0.0000000000
11
15.5344050497
21
1.2904765147
31
0.0000000000
11
15.5770886487
21
1.2810509483
31
0.0000000000
11
15.6188270130
21
1.2679185487
31
0.0000000000
11
15.6592000279
21
1.2512140709
31
0.0000000000
11
15.6978982484
21
1.2310845630
31
0.0000000000
11
15.7346934111
21
1.2076594521
31
0.0000000000
11
15.7693352368
21
1.1810924479
31
0.0000000000
11
15.8015418457
21
1.1515901372
31
0.0000000000
11
15.8310511231
21
1.1193887675
31
0.0000000000
11
15.8576264605
21
1.0847499302
31
0.0000000000
11
15.8810616274
21
1.0479536080
31
0.0000000000
11
15.9012032738
21
1.0092467018
31
0.0000000000
11
15.9179197033
21
0.9688580204
31
0.0000000000
11
15.9310601820
21
0.9271044199
31
0.0000000000
11
15.9404891959
21
0.8844127870
31
0.0000000000
11
15.9461374718
21
0.8412347031
31
0.0000000000
11
15.9480074440
21
0.7980264825
31
0.0000000000
0
SPLINE
5
311
100
AcDbEntity
8
0
100
AcDbSpline
62
9
6
CONTINUOUS
70
0
71
3
72
23
73
19
74
17
42
0.0000001000
43
0.0000001000
44
0.0000000001
12
-0.2236471242
22
0.1117076539
32
0.0000000000
13
-0.2499932721
23
0.0000000359
33
0.0000000000
40
0.0000000000
40
0.0000000000
40
0.0000000000
40
0.0000000000
40
0.0064500493
40
0.0222255514
40
0.0472021102
40
0.0811490559
40
0.1237486453
40
0.1746009520
40
0.2332271732
40
0.2990746684
40
0.3715233433
40
0.4498911345
40
0.5334398169
40
0.6213817634
40
0.7128890355
40
0.8071008145
40
0.9031271624
40
1.0000000000
40
1.0000000000
40
1.0000000000
40
1.0000000000
10
22.0091221542
20
0.1454354616
30
0.0000000000
10
22.0086413092
20
0.1456756349
30
0.0000000000
10
22.0066960334
20
0.1455860819
30
0.0000000000
10
22.0028505094
20
0.1459749783
30
0.0000000000
10
21.9965841247
20
0.1460568721
30
0.0000000000
10
21.9881450416
20
0.1462941268
30
0.0000000000
10
21.9775232444
20
0.1464618939
30
0.0000000000
10
21.9648541070
20
0.1466448389
30
0.0000000000
10
21.9502441061
20
0.1468089209
30
0.0000000000
10
21.9338353209
20
0.1469630917
30
0.0000000000
10
21.9157809258
20
0.1471021864
30
0.0000000000
10
21.8962514330
20
0.1472258878
30
0.0000000000
10
21.8754307203
20
0.1473326147
30
0.0000000000
10
21.8535149964
20
0.1474214125
30
0.0000000000
10
21.8307106304
20
0.1474913814
30
0.0000000000
10
21.8072325302
20
0.1475418459
30
0.0000000000
10
21.7833072769
20
0.1475723106
30
0.0000000000
10
21.7672327765
20
0.1475790871
30
0.0000000000
10
21.7591602573
20
0.1475790882
30
0.0000000000
11
22.0091221542
21
0.1454354616
31
0.0000000000
11
22.0075235712
21
0.1456466212
31
0.0000000000
11
22.0035853400
21
0.1458555521
31
0.0000000000
11
21.9973447220
21
0.1460601724
31
0.0000000000
11
21.9888605329
21
0.1462585487
31
0.0000000000
11
21.9782126219
21
0.1464488144
31
0.0000000000
11
21.9655011669
21
0.1466291781
31
0.0000000000
11
21.9508459777
21
0.1467979390
31
0.0000000000
11
21.9343852820
21
0.1469535056
31
0.0000000000
11
21.9162741488
21
0.1470944131
31
0.0000000000
11
21.8966831265
21
0.1472193350
31
0.0000000000
11
21.8757967960
21
0.1473270946
31
0.0000000000
11
21.8538120836
21
0.1474166765
31
0.0000000000
11
21.8309359900
21
0.1474872378
31
0.0000000000
11
21.8073837341
21
0.1475381147
31
0.0000000000
11
21.7833778128
21
0.1475688278
31
0.0000000000
11
21.7591602573
21
0.1475790882
31
0.0000000000
0
SPLINE
5
312
100
AcDbEntity
8
0
100
AcDbSpline
62
9
6
CONTINUOUS
70
0
71
3
72
25
73
21
74
19
42
0.0000001000
43
0.0000001000
44
0.0000000001
12
-0.0000042838
22
0.7851276573
32
0.0000000000
13
0.7851276571
23
-0.0000192586
33
0.0000000000
40
0.0000000000
40
0.0000000000
40
0.0000000000
40
0.0000000000
40
0.0551181228
40
0.1106049013
40
0.1663016397
40
0.2220515874
40
0.2777181132
40
0.3332901361
40
0.3888568219
40
0.4444668901
40
0.5000989801
40
0.5557280316
40
0.6113292519
40
0.6668839207
40
0.7224458737
40
0.7781035707
40
0.8338362830
40
0.8895002838
40
0.9449400952
40
1.0000000000
40
1.0000000000
40
1.0000000000
40
1.0000000000
10
6.5519925560
20
0.7980264825
30
0.0000000000
10
6.5519924773
20
0.8124514034
30
0.0000000000
10
6.5532462312
20
0.8414133308
30
0.0000000000
10
6.5589017047
20
0.8846199760
30
0.0000000000
10
6.5683398713
20
0.9273341761
30
0.0000000000
10
6.5814902424
20
0.9691038499
30
0.0000000000
10
6.5982284570
20
1.0095342011
30
0.0000000000
10
6.6184086375
20
1.0483068522
30
0.0000000000
10
6.6418844513
20
1.0851599686
30
0.0000000000
10
6.6684946314
20
1.1198377432
30
0.0000000000
10
6.6980405899
20
1.1520731085
30
0.0000000000
10
6.7302856169
20
1.1816050787
30
0.0000000000
10
6.7649683481
20
1.2081984697
30
0.0000000000
10
6.8018228970
20
1.2316568849
30
0.0000000000
10
6.8405950046
20
1.2518204964
30
0.0000000000
10
6.8810217473
20
1.2685425985
30
0.0000000000
10
6.9227803632
20
1.2816766291
30
0.0000000000
10
6.9654718708
20
1.2910993844
30
0.0000000000
10
7.0086434922
20
1.2967432226
30
0.0000000000
10
7.0375778636
20
1.2979937667
30
0.0000000000
10
7.0519875483
20
1.2979934133
30
0.0000000000
11
6.5519925560
21
0.7980264825
31
0.0000000000
11
6.5538647859
21
0.8412607262
31
0.0000000000
11
6.5595184752
21
0.8844565097
31
0.0000000000
11
6.5689534904
21
0.9271555761
31
0.0000000000
11
6.5820978047
21
0.9689061713
31
0.0000000000
11
6.5988158146
21
1.0092876514
31
0.0000000000
11
6.6189596122
21
1.0479904046
31
0.0000000000
11
6.6423987857
21
1.0847859913
31
0.0000000000
11
6.6689785403
21
1.1194241176
31
0.0000000000
11
6.6984913375
21
1.1516233106
31
0.0000000000
11
6.7307001255
21
1.1811221041
31
0.0000000000
11
6.7653426638
21
1.2076846932
31
0.0000000000
11
6.8021385682
21
1.2311058017
31
0.0000000000
11
6.8408409594
21
1.2512331654
31
0.0000000000
11
6.8812211905
21
1.2679360651
31
0.0000000000
11
6.9229625568
21
1.2810646254
31
0.0000000000
11
6.9656387135
21
1.2904841878
31
0.0000000000
11
7.0087988406
21
1.2961261575
31
0.0000000000
11
7.0519875483
21
1.2979934133
31
0.0000000000
0
SPLINE
5
313
100
AcDbEntity
8
0
100
AcDbSpline
62
9
6
CONTINUOUS
70
0
71
3
72
10
73
6
74
4
42
0.0000001000
43
0.0000001000
44
0.0000000001
12
-0.0001262690
22
9.1022317153
32
0.0000000000
13
-0.0030162464
23
9.1022312164
33
0.0000000000
40
0.0000000000
40
0.0000000000
40
0.0000000000
40
0.0000000000
40
0.3333526958
40
0.6666869330
40
1.0000000000
40
1.0000000000
40
1.0000000000
40
1.0000000000
10
-21.7591602573
20
0.3977684534
30
0.0000000000
10
-21.7591742880
20
1.4091862800
30
0.0000000000
10
-21.7593093731
20
3.4319659288
30
0.0000000000
10
-21.7598330725
20
6.4660431274
30
0.0000000000
10
-21.7603962666
20
8.4887024656
30
0.0000000000
10
-21.7607313847
20
9.5000000000
30
0.0000000000
11
-21.7591602573
21
0.3977684534
31
0.0000000000
11
-21.7593628944
21
3.4320219267
31
0.0000000000
11
-21.7598866048
21
6.4661073477
31
0.0000000000
11
-21.7607313847
21
9.5000000000
31
0.0000000000
0
SPLINE
5
314
100
AcDbEntity
8
0
100
AcDbSpline
62
9
6
CONTINUOUS
70
0
71
3
72
10
73
6
74
4
42
0.0000001000
43
0.0000001000
44
0.0000000001
12
-0.0001256780
22
9.0950742265
32
0.0000000000
13
-0.0030168915
23
9.0950737270
33
0.0000000000
40
0.0000000000
40
0.0000000000
40
0.0000000000
40
0.0000000000
40
0.3333523826
40
0.6666867781
40
1.0000000000
40
1.0000000000
40
1.0000000000
40
1.0000000000
10
-22.2590840780
20
0.3954259424
30
0.0000000000
10
-22.2590980430
20
1.4060474968
30
0.0000000000
10
-22.2592330424
20
3.4272360746
30
0.0000000000
10
-22.2597567505
20
6.4589274435
30
0.0000000000
10
-22.2603200423
20
8.4799972242
30
0.0000000000
10
-22.2606552323
20
9.4905000000
30
0.0000000000
11
-22.2590840780
21
0.3954259424
31
0.0000000000
11
-22.2592865864
21
3.4272905992
31
0.0000000000
11
-22.2598103057
21
6.4589916235
31
0.0000000000
11
-22.2606552323
21
9.4905000000
31
0.0000000000
0
SPLINE
5
315
100
AcDbEntity
8
0
100
AcDbSpline
62
9
6
CONTINUOUS
70
0
71
3
72
23
73
19
74
17
42
0.0000001000
43
0.0000001000
44
0.0000000001
12
0.4823510276
22
0.1314534964
32
0.0000000000
13
0.4999425323
23
0.0000035395
33
0.0000000000
40
0.0000000000
40
0.0000000000
40
0.0000000000
40
0.0000000000
40
0.0064178635
40
0.0221823777
40
0.0471536312
40
0.0810970082
40
0.1236936813
40
0.1745429946
40
0.2331658355
40
0.2990099999
40
0.3714556312
40
0.4498207821
40
0.5333673360
40
0.6213078087
40
0.7128143666
40
0.8070265379
40
0.9030529224
40
1.0000000000
40
1.0000000000
40
1.0000000000
40
1.0000000000
10
-22.2590840780
20
0.3954259424
30
0.0000000000
10
-22.2580521903
20
0.3957071593
30
0.0000000000
10
-22.2542915090
20
0.3955680467
30
0.0000000000
10
-22.2464932088
20
0.3960278781
30
0.0000000000
10
-22.2340193686
20
0.3960982299
30
0.0000000000
10
-22.2171169152
20
0.3963652451
30
0.0000000000
10
-22.1958838806
20
0.3965453813
30
0.0000000000
10
-22.1705444135
20
0.3967462251
30
0.0000000000
10
-22.1413283773
20
0.3969251122
30
0.0000000000
10
-22.1085139803
20
0.3970936875
30
0.0000000000
10
-22.0724092340
20
0.3972456979
30
0.0000000000
10
-22.0333544150
20
0.3973809850
30
0.0000000000
10
-21.9917173278
20
0.3974977586
30
0.0000000000
10
-21.9478902086
20
0.3975949905
30
0.0000000000
10
-21.9022856458
20
0.3976716852
30
0.0000000000
10
-21.8553335549
20
0.3977271074
30
0.0000000000
10
-21.8074747940
20
0.3977607130
30
0.0000000000
10
-21.7753162465
20
0.3977683393
30
0.0000000000
10
-21.7591602573
20
0.3977684537
30
0.0000000000
11
-22.2590840780
21
0.3954259424
31
0.0000000000
11
-22.2558838032
21
0.3956564146
31
0.0000000000
11
-22.2480057488
21
0.3958843500
31
0.0000000000
11
-22.2355235542
21
0.3961076474
31
0.0000000000
11
-22.2185551978
21
0.3963241740
31
0.0000000000
11
-22.1972603223
21
0.3965318996
31
0.0000000000
11
-22.1718393509
21
0.3967288636
31
0.0000000000
11
-22.1425318792
21
0.3969132080
31
0.0000000000
11
-22.1096140197
21
0.3970831934
31
0.0000000000
11
-22.0733956949
21
0.3972372169
31
0.0000000000
11
-22.0342178611
21
0.3973738257
31
0.0000000000
11
-21.9924495518
21
0.3974917300
31
0.0000000000
11
-21.9484844786
21
0.3975898168
31
0.0000000000
11
-21.9027365236
21
0.3976671602
31
0.0000000000
11
-21.8556358853
21
0.3977230323
31
0.0000000000
11
-21.8076282234
21
0.3977569022
31
0.0000000000
11
-21.7591602573
21
0.3977684537
31
0.0000000000
0
SPLINE
5
316
100
AcDbEntity
8
0
100
AcDbSpline
62
9
6
CONTINUOUS
70
0
71
3
72
22
73
18
74
16
42
0.0000001000
43
0.0000001000
44
0.0000000001
12
0.3383259846
22
0.3684496650
32
0.0000000000
13
0.5002195517
23
0.0001658660
33
0.0000000000
40
0.0000000000
40
0.0000000000
40
0.0000000000
40
0.0000000000
40
0.0074214242
40
0.0253154709
40
0.0536084287
40
0.0920197829
40
0.1401463892
40
0.1974767512
40
0.2633990287
40
0.3372084836
40
0.4181154124
40
0.5052537950
40
0.5976906748
40
0.6944362151
40
0.7944543416
40
0.8966738698
40
1.0000000000
40
1.0000000000
40
1.0000000000
40
1.0000000000
10
-22.2606552323
20
9.4905000000
30
0.0000000000
10
-22.2598182787
20
9.4914114738
30
0.0000000000
10
-22.2550146338
20
9.4914365540
30
0.0000000000
10
-22.2466496552
20
9.4928695013
30
0.0000000000
10
-22.2322877209
20
9.4934503773
30
0.0000000000
10
-22.2132804977
20
9.4944651569
30
0.0000000000
10
-22.1892618616
20
9.4952711913
30
0.0000000000
10
-22.1607131525
20
9.4960999078
30
0.0000000000
10
-22.1278584453
20
9.4968507727
30
0.0000000000
10
-22.0910772547
20
9.4975444637
30
0.0000000000
10
-22.0507545997
20
9.4981628659
30
0.0000000000
10
-22.0073252764
20
9.4987018799
30
0.0000000000
10
-21.9612537171
20
9.4991544429
30
0.0000000000
10
-21.9130337848
20
9.4995157501
30
0.0000000000
10
-21.8631820377
20
9.4997816959
30
0.0000000000
10
-21.8122326194
20
9.4999493561
30
0.0000000000
10
-21.7779599682
20
9.4999942872
30
0.0000000000
10
-21.7607313847
20
9.5000000000
30
0.0000000000
11
-22.2606552323
21
9.4905000000
31
0.0000000000
11
-22.2570751754
21
9.4914821781
31
0.0000000000
11
-22.2481771173
21
9.4924538327
31
0.0000000000
11
-22.2340563948
21
9.4934045533
31
0.0000000000
11
-22.2148643023
21
9.4943241535
31
0.0000000000
11
-22.1908064705
21
9.4952027804
31
0.0000000000
11
-22.1621406636
21
9.4960310200
31
0.0000000000
11
-22.1291740171
21
9.4967999984
31
0.0000000000
11
-22.0922597471
21
9.4975014764
31
0.0000000000
11
-22.0517933660
21
9.4981279381
31
0.0000000000
11
-22.0082084449
21
9.4986726714
31
0.0000000000
11
-21.9619719679
21
9.4991298398
31
0.0000000000
11
-21.9135793287
21
9.4994945451
31
0.0000000000
11
-21.8635490231
21
9.4997628797
31
0.0000000000
11
-21.8124170933
21
9.4999319685
31
0.0000000000
11
-21.7607313847
21
9.5000000000
31
0.0000000000
0
SPLINE
5
317
100
AcDbEntity
8
0
100
AcDbSpline
62
9
6
CONTINUOUS
70
0
71
3
72
14
73
10
74
8
42
0.0000001000
43
0.0000001000
44
0.0000000001
12
-0.0038629501
22
11.7107319604
32
0.0000000000
13
-0.0306549600
23
11.7106924750
33
0.0000000000
40
0.0000000000
40
0.0000000000
40
0.0000000000
40
0.0000000000
40
0.1434088633
40
0.2867169135
40
0.4298742344
40
0.5728309521
40
0.7155372777
40
0.8579434943
40
1.0000000000
40
1.0000000000
40
1.0000000000
40
1.0000000000
10
-21.7607313847
20
9.5000000000
30
0.0000000000
10
-21.7609160451
20
10.0598075864
30
0.0000000000
10
-21.7614665785
20
11.1790291761
30
0.0000000000
10
-21.7628364426
20
12.8570760482
30
0.0000000000
10
-21.7647496972
20
14.5333574041
30
0.0000000000
10
-21.7672056756
20
16.2072891708
30
0.0000000000
10
-21.7702035216
20
17.8782880572
30
0.0000000000
10
-21.7737421894
20
19.5457718288
30
0.0000000000
10
-21.7764646904
20
20.6561908070
30
0.0000000000
10
-21.7779162692
20
21.2107174911
30
0.0000000000
11
-21.7607313847
21
9.5000000000
31
0.0000000000
11
-21.7615576201
21
11.1794226474
31
0.0000000000
11
-21.7629278821
21
12.8576643428
31
0.0000000000
11
-21.7648416937
21
14.5341403548
31
0.0000000000
11
-21.7672983881
21
16.2082664463
31
0.0000000000
11
-21.7702971100
21
17.8794593742
31
0.0000000000
11
-21.7738368146
21
19.5471367410
31
0.0000000000
11
-21.7779162692
21
21.2107174911
31
0.0000000000
0
SPLINE
5
318
100
AcDbEntity
8
0
100
AcDbSpline
62
9
6
CONTINUOUS
70
0
71
3
72
14
73
10
74
8
42
0.0000001000
43
0.0000001000
44
0.0000000001
12
-0.0038629502
22
11.6456724996
32
0.0000000000
13
-0.0306549592
23
11.6456327936
33
0.0000000000
40
0.0000000000
40
0.0000000000
40
0.0000000000
40
0.0000000000
40
0.1434087316
40
0.2867168220
40
0.4298741837
40
0.5728309429
40
0.7155373107
40
0.8579435704
40
1.0000000000
40
1.0000000000
40
1.0000000000
40
1.0000000000
10
-22.2606552323
20
9.4905000000
30
0.0000000000
10
-22.2608398925
20
10.0471970406
30
0.0000000000
10
-22.2613904255
20
11.1602003920
30
0.0000000000
10
-22.2627602891
20
12.8289246029
30
0.0000000000
10
-22.2646735440
20
14.4958937726
30
0.0000000000
10
-22.2671295231
20
16.1605264064
30
0.0000000000
10
-22.2701273700
20
17.8222424522
30
0.0000000000
10
-22.2736660381
20
19.4804624432
30
0.0000000000
10
-22.2763885388
20
20.5847122777
30
0.0000000000
10
-22.2778401168
20
21.1361579495
30
0.0000000000
11
-22.2606552323
21
9.4905000000
31
0.0000000000
11
-22.2614814667
21
11.1605910092
31
0.0000000000
11
-22.2628517287
21
12.8295096259
31
0.0000000000
11
-22.2647655406
21
14.4966723695
31
0.0000000000
11
-22.2672222356
21
16.1614982481
31
0.0000000000
11
-22.2702209584
21
17.8234072572
31
0.0000000000
11
-22.2737606643
21
19.4818202323
31
0.0000000000
11
-22.2778401168
21
21.1361579495
31
0.0000000000
0
SPLINE
5
319
100
AcDbEntity
8
0
100
AcDbSpline
62
9
6
CONTINUOUS
70
0
71
3
72
22
73
18
74
16
42
0.0000001000
43
0.0000001000
44
0.0000000001
12
0.0591138678
22
0.5108754439
32
0.0000000000
13
0.5142824288
23
0.0013236500
33
0.0000000000
40
0.0000000000
40
0.0000000000
40
0.0000000000
40
0.0000000000
40
0.0165205715
40
0.0392968720
40
0.0703415218
40
0.1102029685
40
0.1588601991
40
0.2160113716
40
0.2811781018
40
0.3537518401
40
0.4330195652
40
0.5181813029
40
0.6083642356
40
0.7026353871
40
0.8000137619
40
0.8994823277
40
1.0000000000
40
1.0000000000
40
1.0000000000
40
1.0000000000
10
-22.2778401168
20
21.1361579495
30
0.0000000000
10
-22.2775145852
20
21.1389712676
30
0.0000000000
10
-22.2740649365
20
21.1452475349
30
0.0000000000
10
-22.2643971436
20
21.1526229966
30
0.0000000000
10
-22.2500181630
20
21.1599005705
30
0.0000000000
10
-22.2307257493
20
21.1669100715
30
0.0000000000
10
-22.2066698663
20
21.1736672968
30
0.0000000000
10
-22.1780530118
20
21.1800537753
30
0.0000000000
10
-22.1451698995
20
21.1860023531
30
0.0000000000
10
-22.1083625073
20
21.1914381942
30
0.0000000000
10
-22.0680213070
20
21.1962994730
30
0.0000000000
10
-22.0245758141
20
21.2005304339
30
0.0000000000
10
-21.9784900695
20
21.2040836165
30
0.0000000000
10
-21.9302569136
20
21.2069193711
30
0.0000000000
10
-21.8803924928
20
21.2090062779
30
0.0000000000
10
-21.8294308173
20
21.2103212990
30
0.0000000000
10
-21.7951477601
20
21.2106731351
30
0.0000000000
10
-21.7779162692
20
21.2107174852
30
0.0000000000
11
-22.2778401168
21
21.1361579495
31
0.0000000000
11
-22.2742692114
21
21.1438673724
31
0.0000000000
11
-22.2653788934
21
21.1514941733
31
0.0000000000
11
-22.2512644403
21
21.1589566159
31
0.0000000000
11
-22.2320771167
21
21.1661747253
31
0.0000000000
11
-22.2080225530
21
21.1730711449
31
0.0000000000
11
-22.1793585419
21
21.1795719659
31
0.0000000000
11
-22.1463922755
21
21.1856075190
31
0.0000000000
11
-22.1094770531
21
21.1911131213
31
0.0000000000
11
-22.0690084950
21
21.1960297691
31
0.0000000000
11
-22.0254203027
21
21.2003047707
31
0.0000000000
11
-21.9791796106
21
21.2038923111
31
0.0000000000
11
-21.9307819801
21
21.2067539426
31
0.0000000000
11
-21.8807460883
21
21.2088589970
31
0.0000000000
11
-21.8296081697
21
21.2101849145
31
0.0000000000
11
-21.7779162692
21
21.2107174852
31
0.0000000000
0
SPLINE
5
31A
100
AcDbEntity
8
0
100
AcDbSpline
62
9
6
CONTINUOUS
70
0
71
3
72
23
73
19
74
17
42
0.0000001000
43
0.0000001000
44
0.0000000001
12
-0.0011180576
22
0.8496070319
32
0.0000000000
13
-0.1395305939
23
0.8380719373
33
0.0000000000
40
0.0000000000
40
0.0000000000
40
0.0000000000
40
0.0000000000
40
0.0988005715
40
0.1955925439
40
0.2896728023
40
0.3803505693
40
0.4669636684
40
0.5488791748
40
0.6254973164
40
0.6962576544
40
0.7606430516
40
0.8181829482
40
0.8684565290
40
0.9110960839
40
0.9457907463
40
0.9722883955
40
0.9903979432
40
1.0000000000
40
1.0000000000
40
1.0000000000
40
1.0000000000
10
-21.7779162692
20
21.2107174911
30
0.0000000000
10
-21.7779530908
20
21.2386980445
30
0.0000000000
10
-21.7780469507
20
21.2940902864
30
0.0000000000
10
-21.7782504552
20
21.3761261301
30
0.0000000000
10
-21.7785141196
20
21.4558613922
30
0.0000000000
10
-21.7788359100
20
21.5327137344
30
0.0000000000
10
-21.7792134295
20
21.6061206914
30
0.0000000000
10
-21.7796437829
20
21.6755455667
30
0.0000000000
10
-21.7801237084
20
21.7404804571
30
0.0000000000
10
-21.7806493550
20
21.8004502676
30
0.0000000000
10
-21.7812169023
20
21.8550163706
30
0.0000000000
10
-21.7818205202
20
21.9037799807
30
0.0000000000
10
-21.7824584798
20
21.9463835342
30
0.0000000000
10
-21.7831139483
20
21.9825177371
30
0.0000000000
10
-21.7838090645
20
22.0119119407
30
0.0000000000
10
-21.7844533824
20
22.0343692159
30
0.0000000000
10
-21.7852060808
20
22.0496887841
30
0.0000000000
10
-21.7856428640
20
22.0575455379
30
0.0000000000
10
-21.7860894575
20
22.0602279426
30
0.0000000000
11
-21.7779162692
21
21.2107174911
31
0.0000000000
11
-21.7780590269
21
21.2946591027
31
0.0000000000
11
-21.7782638430
21
21.3768940592
31
0.0000000000
11
-21.7785292500
21
21.4568249369
31
0.0000000000
11
-21.7788532821
21
21.5338647907
31
0.0000000000
11
-21.7792335831
21
21.6074509697
31
0.0000000000
11
-21.7796673703
21
21.6770456683
31
0.0000000000
11
-21.7801514705
21
21.7421392365
31
0.0000000000
11
-21.7806823412
21
21.8022554254
31
0.0000000000
11
-21.7812561020
21
21.8569547499
31
0.0000000000
11
-21.7818685593
21
21.9058372563
31
0.0000000000
11
-21.7825152321
21
21.9485451855
31
0.0000000000
11
-21.7831913877
21
21.9847657719
31
0.0000000000
11
-21.7838920750
21
22.0142342975
31
0.0000000000
11
-21.7846122009
21
22.0367353855
31
0.0000000000
11
-21.7853464177
21
22.0521038696
31
0.0000000000
11
-21.7860894575
21
22.0602279426
31
0.0000000000
0
SPLINE
5
31B
100
AcDbEntity
8
0
100
AcDbSpline
62
9
6
CONTINUOUS
70
0
71
3
72
23
73
19
74
17
42
0.0000001000
43
0.0000001000
44
0.0000000001
12
-0.0011186693
22
0.4249478805
32
0.0000000000
13
-0.1342578023
23
0.4031833269
33
0.0000000000
40
0.0000000000
40
0.0000000000
40
0.0000000000
40
0.0000000000
40
0.0987421881
40
0.1955064217
40
0.2895606032
40
0.3802142499
40
0.4668055372
40
0.5487018874
40
0.6253038913
40
0.6960513846
40
0.7604277490
40
0.8179631298
40
0.8682376571
40
0.9108849915
40
0.9455965263
40
0.9721243013
40
0.9902873897
40
1.0000000000
40
1.0000000000
40
1.0000000000
40
1.0000000000
10
-22.2778401168
20
21.1361579495
30
0.0000000000
10
-22.2778769368
20
21.1501447107
30
0.0000000000
10
-22.2779707652
20
21.1778380072
30
0.0000000000
10
-22.2781742655
20
21.2188537163
30
0.0000000000
10
-22.2784379157
20
21.2587233208
30
0.0000000000
10
-22.2787597201
20
21.2971514562
30
0.0000000000
10
-22.2791372468
20
21.3338568456
30
0.0000000000
10
-22.2795676198
20
21.3685711039
30
0.0000000000
10
-22.2800475638
20
21.4010402094
30
0.0000000000
10
-22.2805732482
20
21.4310265933
30
0.0000000000
10
-22.2811407964
20
21.4583108097
30
0.0000000000
10
-22.2817445556
20
21.4826938109
30
0.0000000000
10
-22.2823822571
20
21.5039958789
30
0.0000000000
10
-22.2830387016
20
21.5220655168
30
0.0000000000
10
-22.2837314762
20
21.5367593415
30
0.0000000000
10
-22.2843822618
20
21.5480022546
30
0.0000000000
10
-22.2851233066
20
21.5556472993
30
0.0000000000
10
-22.2855786406
20
21.5596078544
30
0.0000000000
10
-22.2860133051
20
21.5609131753
30
0.0000000000
11
-22.2778401168
21
21.1361579495
31
0.0000000000
11
-22.2779828289
21
21.1781181358
31
0.0000000000
11
-22.2781876471
21
21.2192375241
31
0.0000000000
11
-22.2784530491
21
21.2592049065
31
0.0000000000
11
-22.2787770888
21
21.2977267521
31
0.0000000000
11
-22.2791573991
21
21.3345216983
31
0.0000000000
11
-22.2795912023
21
21.3693207955
31
0.0000000000
11
-22.2800753228
21
21.4018691673
31
0.0000000000
11
-22.2806062175
21
21.4319285810
31
0.0000000000
11
-22.2811800051
21
21.4592792573
31
0.0000000000
11
-22.2817924912
21
21.4837212073
31
0.0000000000
11
-22.2824391949
21
21.5050755449
31
0.0000000000
11
-22.2831153800
21
21.5231858831
31
0.0000000000
11
-22.2838161035
21
21.5379198741
31
0.0000000000
11
-22.2845362473
21
21.5491698092
31
0.0000000000
11
-22.2852705221
21
21.5568531955
31
0.0000000000
11
-22.2860133051
21
21.5609131753
31
0.0000000000
0
SPLINE
5
31C
100
AcDbEntity
8
0
100
AcDbSpline
62
9
6
CONTINUOUS
70
0
71
3
72
22
73
18
74
16
42
0.0000001000
43
0.0000001000
44
0.0000000001
12
0.0007171661
22
0.7842144221
32
0.0000000000
13
0.7842144237
23
0.0007154196
33
0.0000000000
40
0.0000000000
40
0.0000000000
40
0.0000000000
40
0.0000000000
40
0.0666100513
40
0.1332280974
40
0.1998554123
40
0.2664928652
40
0.3331408822
40
0.3997994284
40
0.4664680092
40
0.5331456922
40
0.5998311483
40
0.6665227095
40
0.7332184418
40
0.7999162294
40
0.8666138671
40
0.9333091561
40
1.0000000000
40
1.0000000000
40
1.0000000000
40
1.0000000000
10
-22.2860133051
20
21.5609131753
30
0.0000000000
10
-22.2859973816
20
21.5783253629
30
0.0000000000
10
-22.2841382249
20
21.6131777045
30
0.0000000000
10
-22.2758991609
20
21.6648592824
30
0.0000000000
10
-22.2622998143
20
21.7154090806
30
0.0000000000
10
-22.2434890724
20
21.7642663845
30
0.0000000000
10
-22.2196728446
20
21.8108985494
30
0.0000000000
10
-22.1911118143
20
21.8547947440
30
0.0000000000
10
-22.1581185773
20
21.8954747767
30
0.0000000000
10
-22.1210542223
20
21.9324934786
30
0.0000000000
10
-22.0803243600
20
21.9654458030
30
0.0000000000
10
-22.0363747456
20
21.9939711899
30
0.0000000000
10
-21.9896861703
20
22.0177575231
30
0.0000000000
10
-21.9407700666
20
22.0365445363
30
0.0000000000
10
-21.8901596898
20
22.0501266609
30
0.0000000000
10
-21.8384163250
20
22.0583552628
30
0.0000000000
10
-21.8035227648
20
22.0602120387
30
0.0000000000
10
-21.7860894575
20
22.0602279426
30
0.0000000000
11
-22.2860133051
21
21.5609131753
31
0.0000000000
11
-22.2832301484
21
21.6130755643
31
0.0000000000
11
-22.2750065411
21
21.6646671150
31
0.0000000000
11
-22.2614324780
21
21.7151232363
31
0.0000000000
11
-22.2426565066
21
21.7638917625
31
0.0000000000
11
-22.2188841016
21
21.8104389959
31
0.0000000000
11
-22.1903754157
21
21.8542555477
31
0.0000000000
11
-22.1574424333
21
21.8948619124
31
0.0000000000
11
-22.1204455560
21
21.9318137147
31
0.0000000000
11
-22.0797896585
21
21.9647065732
31
0.0000000000
11
-22.0359196578
21
21.9931805257
31
0.0000000000
11
-21.9893156445
21
22.0169239677
31
0.0000000000
11
-21.9404876290
21
22.0356770634
31
0.0000000000
11
-21.8899699597
21
22.0492345886
31
0.0000000000
11
-21.8383154759
21
22.0574481768
31
0.0000000000
11
-21.7860894575
21
22.0602279426
31
0.0000000000
0
SPLINE
5
31D
100
AcDbEntity
8
0
100
AcDbSpline
62
9
6
CONTINUOUS
70
0
71
3
72
10
73
6
74
4
42
0.0000001000
43
0.0000001000
44
0.0000000001
12
-0.0030168915
22
-9.0950737270
32
0.0000000000
13
-0.0001256780
23
-9.0950742265
33
0.0000000000
40
0.0000000000
40
0.0000000000
40
0.0000000000
40
0.0000000000
40
0.3333132219
40
0.6666476174
40
1.0000000000
40
1.0000000000
40
1.0000000000
40
1.0000000000
10
22.2606552323
20
9.4905000000
30
0.0000000000
10
22.2603200423
20
8.4799972242
30
0.0000000000
10
22.2597567505
20
6.4589274435
30
0.0000000000
10
22.2592330424
20
3.4272360746
30
0.0000000000
10
22.2590980430
20
1.4060474968
30
0.0000000000
10
22.2590840780
20
0.3954259424
30
0.0000000000
11
22.2606552323
21
9.4905000000
31
0.0000000000
11
22.2598103057
21
6.4589916235
31
0.0000000000
11
22.2592865864
21
3.4272905992
31
0.0000000000
11
22.2590840780
21
0.3954259424
31
0.0000000000
0
SPLINE
5
31E
100
AcDbEntity
8
0
100
AcDbSpline
62
9
6
CONTINUOUS
70
0
71
3
72
22
73
18
74
16
42
0.0000001000
43
0.0000001000
44
0.0000000001
12
-0.3383259739
22
0.3684496748
32
0.0000000000
13
-0.5002195518
23
0.0001658660
33
0.0000000000
40
0.0000000000
40
0.0000000000
40
0.0000000000
40
0.0000000000
40
0.0074214241
40
0.0253154708
40
0.0536084284
40
0.0920197827
40
0.1401463889
40
0.1974767508
40
0.2633990283
40
0.3372084832
40
0.4181154121
40
0.5052537947
40
0.5976906746
40
0.6944362149
40
0.7944543415
40
0.8966738698
40
1.0000000000
40
1.0000000000
40
1.0000000000
40
1.0000000000
10
22.2606552323
20
9.4905000000
30
0.0000000000
10
22.2598182788
20
9.4914114738
30
0.0000000000
10
22.2550146338
20
9.4914365540
30
0.0000000000
10
22.2466496553
20
9.4928695013
30
0.0000000000
10
22.2322877210
20
9.4934503773
30
0.0000000000
10
22.2132804979
20
9.4944651569
30
0.0000000000
10
22.1892618618
20
9.4952711913
30
0.0000000000
10
22.1607131526
20
9.4960999078
30
0.0000000000
10
22.1278584455
20
9.4968507727
30
0.0000000000
10
22.0910772549
20
9.4975444637
30
0.0000000000
10
22.0507545999
20
9.4981628659
30
0.0000000000
10
22.0073252765
20
9.4987018799
30
0.0000000000
10
21.9612537173
20
9.4991544429
30
0.0000000000
10
21.9130337849
20
9.4995157502
30
0.0000000000
10
21.8631820378
20
9.4997816959
30
0.0000000000
10
21.8122326194
20
9.4999493561
30
0.0000000000
10
21.7779599682
20
9.4999942872
30
0.0000000000
10
21.7607313847
20
9.5000000000
30
0.0000000000
11
22.2606552323
21
9.4905000000
31
0.0000000000
11
22.2570751755
21
9.4914821781
31
0.0000000000
11
22.2481771174
21
9.4924538327
31
0.0000000000
11
22.2340563949
21
9.4934045533
31
0.0000000000
11
22.2148643024
21
9.4943241535
31
0.0000000000
11
22.1908064707
21
9.4952027804
31
0.0000000000
11
22.1621406638
21
9.4960310200
31
0.0000000000
11
22.1291740173
21
9.4967999984
31
0.0000000000
11
22.0922597472
21
9.4975014764
31
0.0000000000
11
22.0517933662
21
9.4981279381
31
0.0000000000
11
22.0082084450
21
9.4986726714
31
0.0000000000
11
21.9619719680
21
9.4991298398
31
0.0000000000
11
21.9135793288
21
9.4994945451
31
0.0000000000
11
21.8635490232
21
9.4997628797
31
0.0000000000
11
21.8124170933
21
9.4999319686
31
0.0000000000
11
21.7607313847
21
9.5000000000
31
0.0000000000
0
SPLINE
5
31F
100
AcDbEntity
8
0
100
AcDbSpline
62
9
6
CONTINUOUS
70
0
71
3
72
10
73
6
74
4
42
0.0000001000
43
0.0000001000
44
0.0000000001
12
-0.0030162464
22
-9.1022312164
32
0.0000000000
13
-0.0001262690
23
-9.1022317153
33
0.0000000000
40
0.0000000000
40
0.0000000000
40
0.0000000000
40
0.0000000000
40
0.3333130670
40
0.6666473043
40
1.0000000000
40
1.0000000000
40
1.0000000000
40
1.0000000000
10
21.7607313847
20
9.5000000000
30
0.0000000000
10
21.7603962666
20
8.4887024655
30
0.0000000000
10
21.7598330725
20
6.4660431273
30
0.0000000000
10
21.7593093731
20
3.4319659287
30
0.0000000000
10
21.7591742880
20
1.4091862800
30
0.0000000000
10
21.7591602573
20
0.3977684534
30
0.0000000000
11
21.7607313847
21
9.5000000000
31
0.0000000000
11
21.7598866048
21
6.4661073476
31
0.0000000000
11
21.7593628944
21
3.4320219265
31
0.0000000000
11
21.7591602573
21
0.3977684534
31
0.0000000000
0
SPLINE
5
320
100
AcDbEntity
8
0
100
AcDbSpline
62
9
6
CONTINUOUS
70
0
71
3
72
23
73
19
74
17
42
0.0000001000
43
0.0000001000
44
0.0000000001
12
-0.4823517018
22
0.1314510227
32
0.0000000000
13
-0.4999425323
23
0.0000035447
33
0.0000000000
40
0.0000000000
40
0.0000000000
40
0.0000000000
40
0.0000000000
40
0.0064178508
40
0.0221823495
40
0.0471535726
40
0.0810969176
40
0.1236935390
40
0.1745428040
40
0.2331655984
40
0.2990097079
40
0.3714552700
40
0.4498203490
40
0.5333668490
40
0.6213072866
40
0.7128137385
40
0.8070259395
40
0.9030519774
40
1.0000000000
40
1.0000000000
40
1.0000000000
40
1.0000000000
10
22.2590840780
20
0.3954259424
30
0.0000000000
10
22.2580521909
20
0.3957071534
30
0.0000000000
10
22.2542915177
20
0.3955680541
30
0.0000000000
10
22.2464932244
20
0.3960278735
30
0.0000000000
10
22.2340193987
20
0.3960982324
30
0.0000000000
10
22.2171169637
20
0.3963652447
30
0.0000000000
10
22.1958839513
20
0.3965453825
30
0.0000000000
10
22.1705445085
20
0.3967462262
30
0.0000000000
10
22.1413284973
20
0.3969251138
30
0.0000000000
10
22.1085141287
20
0.3970936889
30
0.0000000000
10
22.0724094151
20
0.3972456990
30
0.0000000000
10
22.0333546286
20
0.3973809857
30
0.0000000000
10
21.9917175681
20
0.3974977590
30
0.0000000000
10
21.9478904814
20
0.3975949904
30
0.0000000000
10
21.9022859372
20
0.3976716854
30
0.0000000000
10
21.8553339168
20
0.3977271064
30
0.0000000000
10
21.8074750512
20
0.3977607134
30
0.0000000000
10
21.7753164040
20
0.3977683391
30
0.0000000000
10
21.7591602573
20
0.3977684537
30
0.0000000000
11
22.2590840780
21
0.3954259424
31
0.0000000000
11
22.2558838096
21
0.3956564149
31
0.0000000000
11
22.2480057629
21
0.3958843499
31
0.0000000000
11
22.2355235836
21
0.3961076478
31
0.0000000000
11
22.2185552431
21
0.3963241745
31
0.0000000000
11
22.1972603935
21
0.3965319004
31
0.0000000000
11
22.1718394462
21
0.3967288648
31
0.0000000000
11
22.1425319977
21
0.3969132095
31
0.0000000000
11
22.1096141658
21
0.3970831949
31
0.0000000000
11
22.0733958755
21
0.3972372180
31
0.0000000000
11
22.0342180776
21
0.3973738264
31
0.0000000000
11
21.9924497953
21
0.3974917304
31
0.0000000000
11
21.9484847396
21
0.3975898169
31
0.0000000000
11
21.9027368377
21
0.3976671601
31
0.0000000000
11
21.8556361845
21
0.3977230318
31
0.0000000000
11
21.8076286959
21
0.3977569021
31
0.0000000000
11
21.7591602573
21
0.3977684537
31
0.0000000000
0
SPLINE
5
321
100
AcDbEntity
8
0
100
AcDbSpline
62
9
6
CONTINUOUS
70
0
71
3
72
22
73
18
74
16
42
0.0000001000
43
0.0000001000
44
0.0000000001
12
-0.0591136699
22
0.5108754711
32
0.0000000000
13
-0.5142824330
23
0.0013236504
33
0.0000000000
40
0.0000000000
40
0.0000000000
40
0.0000000000
40
0.0000000000
40
0.0165205698
40
0.0392968673
40
0.0703415139
40
0.1102029580
40
0.1588601866
40
0.2160113579
40
0.2811780875
40
0.3537518259
40
0.4330195517
40
0.5181812907
40
0.6083642252
40
0.7026353789
40
0.8000137562
40
0.8994823248
40
1.0000000000
40
1.0000000000
40
1.0000000000
40
1.0000000000
10
22.2778401168
20
21.1361579495
30
0.0000000000
10
22.2775145863
20
21.1389712675
30
0.0000000000
10
22.2740649400
20
21.1452475354
30
0.0000000000
10
22.2643971489
20
21.1526229977
30
0.0000000000
10
22.2500181700
20
21.1599005721
30
0.0000000000
10
22.2307257577
20
21.1669100736
30
0.0000000000
10
22.2066698757
20
21.1736672993
30
0.0000000000
10
22.1780530217
20
21.1800537783
30
0.0000000000
10
22.1451699096
20
21.1860023566
30
0.0000000000
10
22.1083625170
20
21.1914381982
30
0.0000000000
10
22.0680213161
20
21.1962994774
30
0.0000000000
10
22.0245758222
20
21.2005304387
30
0.0000000000
10
21.9784900764
20
21.2040836216
30
0.0000000000
10
21.9302569190
20
21.2069193765
30
0.0000000000
10
21.8803924965
20
21.2090062836
30
0.0000000000
10
21.8294308191
20
21.2103213048
30
0.0000000000
10
21.7951477608
20
21.2106731410
30
0.0000000000
10
21.7779162692
20
21.2107174911
30
0.0000000000
11
22.2778401168
21
21.1361579495
31
0.0000000000
11
22.2742692142
21
21.1438673728
31
0.0000000000
11
22.2653788986
21
21.1514941742
31
0.0000000000
11
22.2512644474
21
21.1589566173
31
0.0000000000
11
22.2320771252
21
21.1661747272
31
0.0000000000
11
22.2080225625
21
21.1730711474
31
0.0000000000
11
22.1793585519
21
21.1795719689
31
0.0000000000
11
22.1463922856
21
21.1856075225
31
0.0000000000
11
22.1094770630
21
21.1911131252
31
0.0000000000
11
22.0690085043
21
21.1960297734
31
0.0000000000
11
22.0254203110
21
21.2003047755
31
0.0000000000
11
21.9791796176
21
21.2038923162
31
0.0000000000
11
21.9307819855
21
21.2067539480
31
0.0000000000
11
21.8807460920
21
21.2088590026
31
0.0000000000
11
21.8296081716
21
21.2101849202
31
0.0000000000
11
21.7779162692
21
21.2107174911
31
0.0000000000
0
SPLINE
5
322
100
AcDbEntity
8
0
100
AcDbSpline
62
9
6
CONTINUOUS
70
0
71
3
72
14
73
10
74
8
42
0.0000001000
43
0.0000001000
44
0.0000000001
12
-0.0306549600
22
-11.7106924750
32
0.0000000000
13
-0.0038629501
23
-11.7107319604
33
0.0000000000
40
0.0000000000
40
0.0000000000
40
0.0000000000
40
0.0000000000
40
0.1420565057
40
0.2844627223
40
0.4271690479
40
0.5701257656
40
0.7132830865
40
0.8565911367
40
1.0000000000
40
1.0000000000
40
1.0000000000
40
1.0000000000
10
21.7779162692
20
21.2107174911
30
0.0000000000
10
21.7764646904
20
20.6561908070
30
0.0000000000
10
21.7737421894
20
19.5457718288
30
0.0000000000
10
21.7702035216
20
17.8782880572
30
0.0000000000
10
21.7672056756
20
16.2072891708
30
0.0000000000
10
21.7647496972
20
14.5333574041
30
0.0000000000
10
21.7628364426
20
12.8570760482
30
0.0000000000
10
21.7614665785
20
11.1790291761
30
0.0000000000
10
21.7609160451
20
10.0598075864
30
0.0000000000
10
21.7607313847
20
9.5000000000
30
0.0000000000
11
21.7779162692
21
21.2107174911
31
0.0000000000
11
21.7738368146
21
19.5471367410
31
0.0000000000
11
21.7702971100
21
17.8794593742
31
0.0000000000
11
21.7672983881
21
16.2082664463
31
0.0000000000
11
21.7648416937
21
14.5341403548
31
0.0000000000
11
21.7629278821
21
12.8576643428
31
0.0000000000
11
21.7615576201
21
11.1794226474
31
0.0000000000
11
21.7607313847
21
9.5000000000
31
0.0000000000
0
SPLINE
5
323
100
AcDbEntity
8
0
100
AcDbSpline
62
9
6
CONTINUOUS
70
0
71
3
72
14
73
10
74
8
42
0.0000001000
43
0.0000001000
44
0.0000000001
12
-0.0306549592
22
-11.6456327936
32
0.0000000000
13
-0.0038629502
23
-11.6456724996
33
0.0000000000
40
0.0000000000
40
0.0000000000
40
0.0000000000
40
0.0000000000
40
0.1420564296
40
0.2844626893
40
0.4271690571
40
0.5701258163
40
0.7132831780
40
0.8565912684
40
1.0000000000
40
1.0000000000
40
1.0000000000
40
1.0000000000
10
22.2778401168
20
21.1361579495
30
0.0000000000
10
22.2763885388
20
20.5847122777
30
0.0000000000
10
22.2736660381
20
19.4804624432
30
0.0000000000
10
22.2701273700
20
17.8222424522
30
0.0000000000
10
22.2671295231
20
16.1605264064
30
0.0000000000
10
22.2646735440
20
14.4958937726
30
0.0000000000
10
22.2627602891
20
12.8289246029
30
0.0000000000
10
22.2613904255
20
11.1602003920
30
0.0000000000
10
22.2608398925
20
10.0471970406
30
0.0000000000
10
22.2606552323
20
9.4905000000
30
0.0000000000
11
22.2778401168
21
21.1361579495
31
0.0000000000
11
22.2737606643
21
19.4818202323
31
0.0000000000
11
22.2702209584
21
17.8234072572
31
0.0000000000
11
22.2672222356
21
16.1614982481
31
0.0000000000
11
22.2647655406
21
14.4966723695
31
0.0000000000
11
22.2628517287
21
12.8295096259
31
0.0000000000
11
22.2614814667
21
11.1605910092
31
0.0000000000
11
22.2606552323
21
9.4905000000
31
0.0000000000
0
SPLINE
5
324
100
AcDbEntity
8
0
100
AcDbSpline
62
9
6
CONTINUOUS
70
0
71
3
72
22
73
18
74
16
42
0.0000001000
43
0.0000001000
44
0.0000000001
12
-0.0007171661
22
0.7842144221
32
0.0000000000
13
-0.7842144237
23
0.0007154197
33
0.0000000000
40
0.0000000000
40
0.0000000000
40
0.0000000000
40
0.0000000000
40
0.0666100448
40
0.1332280852
40
0.1998553953
40
0.2664928444
40
0.3331408586
40
0.3997994030
40
0.4664679832
40
0.5331456666
40
0.5998311242
40
0.6665226878
40
0.7332184233
40
0.7999162149
40
0.8666138571
40
0.9333091510
40
1.0000000000
40
1.0000000000
40
1.0000000000
40
1.0000000000
10
22.2860133051
20
21.5609131753
30
0.0000000000
10
22.2859973816
20
21.5783253612
30
0.0000000000
10
22.2841382252
20
21.6131776996
30
0.0000000000
10
22.2758991627
20
21.6648592733
30
0.0000000000
10
22.2622998182
20
21.7154090681
30
0.0000000000
10
22.2434890789
20
21.7642663697
30
0.0000000000
10
22.2196728537
20
21.8108985335
30
0.0000000000
10
22.1911118258
20
21.8547947280
30
0.0000000000
10
22.1581185908
20
21.8954747617
30
0.0000000000
10
22.1210542371
20
21.9324934654
30
0.0000000000
10
22.0803243752
20
21.9654457921
30
0.0000000000
10
22.0363747602
20
21.9939711815
30
0.0000000000
10
21.9896861834
20
22.0177575174
30
0.0000000000
10
21.9407700774
20
22.0365445329
30
0.0000000000
10
21.8901596973
20
22.0501266594
30
0.0000000000
10
21.8384163290
20
22.0583552625
30
0.0000000000
10
21.8035227661
20
22.0602120387
30
0.0000000000
10
21.7860894575
20
22.0602279426
30
0.0000000000
11
22.2860133051
21
21.5609131753
31
0.0000000000
11
22.2832301490
21
21.6130755592
31
0.0000000000
11
22.2750065431
21
21.6646671057
31
0.0000000000
11
22.2614324821
21
21.7151232236
31
0.0000000000
11
22.2426565133
21
21.7638917475
31
0.0000000000
11
22.2188841108
21
21.8104389798
31
0.0000000000
11
22.1903754274
21
21.8542555316
31
0.0000000000
11
22.1574424470
21
21.8948618972
31
0.0000000000
11
22.1204455710
21
21.9318137012
31
0.0000000000
11
22.0797896738
21
21.9647065621
31
0.0000000000
11
22.0359196725
21
21.9931805172
31
0.0000000000
11
21.9893156578
21
22.0169239618
31
0.0000000000
11
21.9404876398
21
22.0356770599
31
0.0000000000
11
21.8899699673
21
22.0492345870
31
0.0000000000
11
21.8383154799
21
22.0574481764
31
0.0000000000
11
21.7860894575
21
22.0602279426
31
0.0000000000
0
SPLINE
5
325
100
AcDbEntity
8
0
100
AcDbSpline
62
9
6
CONTINUOUS
70
0
71
3
72
23
73
19
74
17
42
0.0000001000
43
0.0000001000
44
0.0000000001
12
-0.1395305944
22
-0.8380719372
32
0.0000000000
13
-0.0011180576
23
-0.8496070319
33
0.0000000000
40
0.0000000000
40
0.0000000000
40
0.0000000000
40
0.0000000000
40
0.0096020568
40
0.0277116045
40
0.0542092537
40
0.0889039161
40
0.1315434710
40
0.1818170518
40
0.2393569484
40
0.3037423456
40
0.3745026836
40
0.4511208252
40
0.5330363316
40
0.6196494307
40
0.7103271977
40
0.8044074561
40
0.9011994285
40
1.0000000000
40
1.0000000000
40
1.0000000000
40
1.0000000000
10
21.7860894575
20
22.0602279426
30
0.0000000000
10
21.7856428640
20
22.0575455379
30
0.0000000000
10
21.7852060808
20
22.0496887841
30
0.0000000000
10
21.7844533824
20
22.0343692159
30
0.0000000000
10
21.7838090645
20
22.0119119407
30
0.0000000000
10
21.7831139483
20
21.9825177371
30
0.0000000000
10
21.7824584798
20
21.9463835342
30
0.0000000000
10
21.7818205202
20
21.9037799807
30
0.0000000000
10
21.7812169023
20
21.8550163706
30
0.0000000000
10
21.7806493550
20
21.8004502676
30
0.0000000000
10
21.7801237084
20
21.7404804571
30
0.0000000000
10
21.7796437829
20
21.6755455667
30
0.0000000000
10
21.7792134295
20
21.6061206914
30
0.0000000000
10
21.7788359100
20
21.5327137344
30
0.0000000000
10
21.7785141196
20
21.4558613922
30
0.0000000000
10
21.7782504552
20
21.3761261301
30
0.0000000000
10
21.7780469507
20
21.2940902864
30
0.0000000000
10
21.7779530908
20
21.2386980445
30
0.0000000000
10
21.7779162692
20
21.2107174911
30
0.0000000000
11
21.7860894575
21
22.0602279426
31
0.0000000000
11
21.7853464177
21
22.0521038696
31
0.0000000000
11
21.7846122009
21
22.0367353855
31
0.0000000000
11
21.7838920750
21
22.0142342975
31
0.0000000000
11
21.7831913877
21
21.9847657719
31
0.0000000000
11
21.7825152321
21
21.9485451855
31
0.0000000000
11
21.7818685593
21
21.9058372563
31
0.0000000000
11
21.7812561020
21
21.8569547499
31
0.0000000000
11
21.7806823412
21
21.8022554254
31
0.0000000000
11
21.7801514705
21
21.7421392365
31
0.0000000000
11
21.7796673703
21
21.6770456683
31
0.0000000000
11
21.7792335831
21
21.6074509697
31
0.0000000000
11
21.7788532821
21
21.5338647907
31
0.0000000000
11
21.7785292500
21
21.4568249369
31
0.0000000000
11
21.7782638430
21
21.3768940592
31
0.0000000000
11
21.7780590269
21
21.2946591027
31
0.0000000000
11
21.7779162692
21
21.2107174911
31
0.0000000000
0
SPLINE
5
326
100
AcDbEntity
8
0
100
AcDbSpline
62
9
6
CONTINUOUS
70
0
71
3
72
23
73
19
74
17
42
0.0000001000
43
0.0000001000
44
0.0000000001
12
-0.1342578020
22
-0.4031833270
32
0.0000000000
13
-0.0011186693
23
-0.4249478805
33
0.0000000000
40
0.0000000000
40
0.0000000000
40
0.0000000000
40
0.0000000000
40
0.0097126103
40
0.0278756987
40
0.0544034737
40
0.0891150085
40
0.1317623429
40
0.1820368702
40
0.2395722510
40
0.3039486154
40
0.3746961087
40
0.4512981126
40
0.5331944628
40
0.6197857501
40
0.7104393968
40
0.8044935783
40
0.9012578119
40
1.0000000000
40
1.0000000000
40
1.0000000000
40
1.0000000000
10
22.2860133051
20
21.5609131753
30
0.0000000000
10
22.2855786406
20
21.5596078544
30
0.0000000000
10
22.2851233066
20
21.5556472993
30
0.0000000000
10
22.2843822618
20
21.5480022546
30
0.0000000000
10
22.2837314762
20
21.5367593415
30
0.0000000000
10
22.2830387016
20
21.5220655168
30
0.0000000000
10
22.2823822571
20
21.5039958789
30
0.0000000000
10
22.2817445556
20
21.4826938109
30
0.0000000000
10
22.2811407964
20
21.4583108097
30
0.0000000000
10
22.2805732482
20
21.4310265933
30
0.0000000000
10
22.2800475638
20
21.4010402094
30
0.0000000000
10
22.2795676198
20
21.3685711039
30
0.0000000000
10
22.2791372468
20
21.3338568456
30
0.0000000000
10
22.2787597201
20
21.2971514562
30
0.0000000000
10
22.2784379157
20
21.2587233208
30
0.0000000000
10
22.2781742655
20
21.2188537163
30
0.0000000000
10
22.2779707652
20
21.1778380072
30
0.0000000000
10
22.2778769368
20
21.1501447107
30
0.0000000000
10
22.2778401168
20
21.1361579495
30
0.0000000000
11
22.2860133051
21
21.5609131753
31
0.0000000000
11
22.2852705221
21
21.5568531955
31
0.0000000000
11
22.2845362473
21
21.5491698092
31
0.0000000000
11
22.2838161035
21
21.5379198741
31
0.0000000000
11
22.2831153800
21
21.5231858831
31
0.0000000000
11
22.2824391949
21
21.5050755449
31
0.0000000000
11
22.2817924912
21
21.4837212073
31
0.0000000000
11
22.2811800051
21
21.4592792573
31
0.0000000000
11
22.2806062175
21
21.4319285810
31
0.0000000000
11
22.2800753228
21
21.4018691673
31
0.0000000000
11
22.2795912023
21
21.3693207955
31
0.0000000000
11
22.2791573991
21
21.3345216983
31
0.0000000000
11
22.2787770888
21
21.2977267521
31
0.0000000000
11
22.2784530491
21
21.2592049065
31
0.0000000000
11
22.2781876471
21
21.2192375241
31
0.0000000000
11
22.2779828289
21
21.1781181358
31
0.0000000000
11
22.2778401168
21
21.1361579495
31
0.0000000000
0
SPLINE
5
327
100
AcDbEntity
8
0
100
AcDbSpline
62
9
6
CONTINUOUS
70
0
71
3
72
23
73
19
74
17
42
0.0000001000
43
0.0000001000
44
0.0000000001
12
0.2236468124
22
0.1117082783
32
0.0000000000
13
0.2499932722
23
0.0000000360
33
0.0000000000
40
0.0000000000
40
0.0000000000
40
0.0000000000
40
0.0000000000
40
0.0064498117
40
0.0222248908
40
0.0472007356
40
0.0811466785
40
0.1237449319
40
0.1745955306
40
0.2332197060
40
0.2990654776
40
0.3715129794
40
0.4498797934
40
0.5334276626
40
0.6213689832
40
0.7128758814
40
0.8070874700
40
0.9031137784
40
1.0000000000
40
1.0000000000
40
1.0000000000
40
1.0000000000
10
-22.0091221542
20
0.1454354616
30
0.0000000000
10
-22.0086413276
20
0.1456756274
30
0.0000000000
10
-22.0066961092
20
0.1455860810
30
0.0000000000
10
-22.0028506982
20
0.1459749684
30
0.0000000000
10
-21.9965844926
20
0.1460568633
30
0.0000000000
10
-21.9881456635
20
0.1462941137
30
0.0000000000
10
-21.9775242037
20
0.1464618788
30
0.0000000000
10
-21.9648554904
20
0.1466448212
30
0.0000000000
10
-21.9502459460
20
0.1468089018
30
0.0000000000
10
-21.9338375726
20
0.1469630725
30
0.0000000000
10
-21.9157835004
20
0.1471021684
30
0.0000000000
10
-21.8962542545
20
0.1472258717
30
0.0000000000
10
-21.8754337431
20
0.1473326010
30
0.0000000000
10
-21.8535181704
20
0.1474214013
30
0.0000000000
10
-21.8307139035
20
0.1474913729
30
0.0000000000
10
-21.8072358537
20
0.1475418405
30
0.0000000000
10
-21.7833095042
20
0.1475723091
30
0.0000000000
10
-21.7672338919
20
0.1475790871
30
0.0000000000
10
-21.7591602573
20
0.1475790882
30
0.0000000000
11
-22.0091221542
21
0.1454354616
31
0.0000000000
11
-22.0075236305
21
0.1456466167
31
0.0000000000
11
-22.0035855051
21
0.1458555453
31
0.0000000000
11
-21.9973450656
21
0.1460601629
31
0.0000000000
11
-21.9888611271
21
0.1462585365
31
0.0000000000
11
-21.9782135502
21
0.1464487996
31
0.0000000000
11
-21.9655025222
21
0.1466291608
31
0.0000000000
11
-21.9508478444
21
0.1467979195
31
0.0000000000
11
-21.9343875796
21
0.1469534859
31
0.0000000000
11
-21.9162767397
21
0.1470943948
31
0.0000000000
11
-21.8966859617
21
0.1472193187
31
0.0000000000
11
-21.8757998345
21
0.1473270807
31
0.0000000000
11
-21.8538152785
21
0.1474166651
31
0.0000000000
11
-21.8309392785
21
0.1474872293
31
0.0000000000
11
-21.8073870701
21
0.1475381091
31
0.0000000000
11
-21.7833811587
21
0.1475688250
31
0.0000000000
11
-21.7591602573
21
0.1475790882
31
0.0000000000
0
SPLINE
5
328
100
AcDbEntity
8
0
100
AcDbSpline
62
9
6
CONTINUOUS
70
0
71
3
72
20
73
16
74
14
42
0.0000001000
43
0.0000001000
44
0.0000000001
12
-0.0418326002
22
0.2466680899
32
0.0000000000
13
-0.0003701519
23
0.2501898799
33
0.0000000000
40
0.0000000000
40
0.0000000000
40
0.0000000000
40
0.0000000000
40
0.0082596098
40
0.0308226564
40
0.0673648238
40
0.1173588260
40
0.1800828741
40
0.2546313259
40
0.3399278484
40
0.4347410396
40
0.5377022598
40
0.6473252363
40
0.7620274334
40
0.8801529217
40
1.0000000000
40
1.0000000000
40
1.0000000000
40
1.0000000000
10
6.3524285272
20
0.1475790882
30
0.0000000000
10
6.3523133535
20
0.1482582156
30
0.0000000000
10
6.3524891128
20
0.1508501539
30
0.0000000000
10
6.3522795165
20
0.1564484969
30
0.0000000000
10
6.3523522538
20
0.1655577158
30
0.0000000000
10
6.3522797568
20
0.1780008925
30
0.0000000000
10
6.3522643969
20
0.1936200060
30
0.0000000000
10
6.3522256839
20
0.2121809000
30
0.0000000000
10
6.3521938432
20
0.2334187266
30
0.0000000000
10
6.3521600747
20
0.2570258279
30
0.0000000000
10
6.3521284012
20
0.2826617604
30
0.0000000000
10
6.3520982084
20
0.3099563493
30
0.0000000000
10
6.3520687596
20
0.3385155969
30
0.0000000000
10
6.3520378460
20
0.3679274982
30
0.0000000000
10
6.3520107789
20
0.3877736112
30
0.0000000000
10
6.3519959917
20
0.3977684532
30
0.0000000000
11
6.3524285272
21
0.1475790882
31
0.0000000000
11
6.3523880430
21
0.1496451647
31
0.0000000000
11
6.3523555523
21
0.1552901233
31
0.0000000000
11
6.3523255026
21
0.1644325643
31
0.0000000000
11
6.3522948912
21
0.1769405340
31
0.0000000000
11
6.3522627324
21
0.1926334403
31
0.0000000000
11
6.3522292537
21
0.2112846988
31
0.0000000000
11
6.3521952650
21
0.2326250218
31
0.0000000000
11
6.3521617856
21
0.2563463251
31
0.0000000000
11
6.3521296255
21
0.2821061885
31
0.0000000000
11
6.3520990122
21
0.3095327608
31
0.0000000000
11
6.3520689602
21
0.3382301054
31
0.0000000000
11
6.3520364674
21
0.3677839216
31
0.0000000000
11
6.3519959917
21
0.3977684532
31
0.0000000000
0
SPLINE
5
329
100
AcDbEntity
8
0
100
AcDbSpline
62
9
6
CONTINUOUS
70
0
71
3
72
21
73
17
74
15
42
0.0000001000
43
0.0000001000
44
0.0000000001
12
0.0000003367
22
-0.0500445334
32
0.0000000000
13
-0.0353399994
23
-0.0354335966
33
0.0000000000
40
0.0000000000
40
0.0000000000
40
0.0000000000
40
0.0000000000
40
0.1112068742
40
0.2211523687
40
0.3283566623
40
0.4314836174
40
0.5292496303
40
0.6204372760
40
0.7039103755
40
0.7786270613
40
0.8436570003
40
0.8981913868
40
0.9415529256
40
0.9732040650
40
0.9927572478
40
1.0000000000
40
1.0000000000
40
1.0000000000
40
1.0000000000
10
15.9480116237
20
0.3976093458
30
0.0000000000
10
15.9480116362
20
0.3957542471
30
0.0000000000
10
15.9480098761
20
0.3920650912
30
0.0000000000
10
15.9480018912
20
0.3865876104
30
0.0000000000
10
15.9479886609
20
0.3812449274
30
0.0000000000
10
15.9479703744
20
0.3761054252
30
0.0000000000
10
15.9479472157
20
0.3712331527
30
0.0000000000
10
15.9479196788
20
0.3666886782
30
0.0000000000
10
15.9478875132
20
0.3625290242
30
0.0000000000
10
15.9478531581
20
0.3588048579
30
0.0000000000
10
15.9478109702
20
0.3555662737
30
0.0000000000
10
15.9477797129
20
0.3528427477
30
0.0000000000
10
15.9477102741
20
0.3506979492
30
0.0000000000
10
15.9477284644
20
0.3490841307
30
0.0000000000
10
15.9475747225
20
0.3481773688
30
0.0000000000
10
15.9476644078
20
0.3476570184
30
0.0000000000
10
15.9475790882
20
0.3475714728
30
0.0000000000
11
15.9480116237
21
0.3976093458
31
0.0000000000
11
15.9480089513
21
0.3920440503
31
0.0000000000
11
15.9480008787
21
0.3865418853
31
0.0000000000
11
15.9479875065
21
0.3811769131
31
0.0000000000
11
15.9479690009
21
0.3760160059
31
0.0000000000
11
15.9479455918
21
0.3711234074
31
0.0000000000
11
15.9479175706
21
0.3665600503
31
0.0000000000
11
15.9478852860
21
0.3623828027
31
0.0000000000
11
15.9478491409
21
0.3586438157
31
0.0000000000
11
15.9478095859
21
0.3553896632
31
0.0000000000
11
15.9477671140
21
0.3526608457
31
0.0000000000
11
15.9477222540
21
0.3504913015
31
0.0000000000
11
15.9476755644
21
0.3489080233
31
0.0000000000
11
15.9476276270
21
0.3479306682
31
0.0000000000
11
15.9475790882
21
0.3475714728
31
0.0000000000
0
SPLINE
5
32A
100
AcDbEntity
8
0
100
AcDbSpline
62
9
6
CONTINUOUS
70
0
71
3
72
9
73
5
74
3
42
0.0000001000
43
0.0000001000
44
0.0000000001
12
0.0000055795
22
-0.4004171366
32
0.0000000000
13
0.0000027799
23
-0.4004171367
33
0.0000000000
40
0.0000000000
40
0.0000000000
40
0.0000000000
40
0.0000000000
40
0.4999998961
40
1.0000000000
40
1.0000000000
40
1.0000000000
40
1.0000000000
10
15.9480074440
20
0.7980264825
30
0.0000000000
10
15.9480083739
20
0.7312903069
30
0.0000000000
10
15.9480100004
20
0.5978179280
30
0.0000000000
10
15.9480111604
20
0.4643455491
30
0.0000000000
10
15.9480116237
20
0.3976093458
30
0.0000000000
11
15.9480074440
21
0.7980264825
31
0.0000000000
11
15.9480098838
21
0.5978179558
31
0.0000000000
11
15.9480116237
21
0.3976093458
31
0.0000000000
0
SPLINE
5
32B
100
AcDbEntity
8
0
100
AcDbSpline
62
9
6
CONTINUOUS
70
0
71
3
72
25
73
21
74
19
42
0.0000001000
43
0.0000001000
44
0.0000000001
12
1.0994284664
22
-0.0000120894
32
0.0000000000
13
0.0000111512
23
-1.0994284664
33
0.0000000000
40
0.0000000000
40
0.0000000000
40
0.0000000000
40
0.0000000000
40
0.0550194735
40
0.1104475681
40
0.1661017090
40
0.2218267750
40
0.2774792608
40
0.3330385550
40
0.3885932523
40
0.4441971949
40
0.4998312063
40
0.5554703107
40
0.6110892603
40
0.6666664609
40
0.7222503245
40
0.7779295866
40
0.8336926521
40
0.8894024309
40
0.9449018018
40
1.0000000000
40
1.0000000000
40
1.0000000000
40
1.0000000000
10
-7.1000000000
20
1.4505802321
30
0.0000000000
10
-7.0798366749
20
1.4505800104
30
0.0000000000
10
-7.0393385281
20
1.4488286613
30
0.0000000000
10
-6.9789074248
20
1.4409251880
30
0.0000000000
10
-6.9191372992
20
1.4277274181
30
0.0000000000
10
-6.8606721593
20
1.4093307148
30
0.0000000000
10
-6.8040707473
20
1.3859077327
30
0.0000000000
10
-6.7497851745
20
1.3576635787
30
0.0000000000
10
-6.6981837663
20
1.3248037153
30
0.0000000000
10
-6.6496228527
20
1.2875520754
30
0.0000000000
10
-6.6044750381
20
1.2461839437
30
0.0000000000
10
-6.5631065278
20
1.2010290105
30
0.0000000000
10
-6.5258488475
20
1.1524530358
30
0.0000000000
10
-6.4929801093
20
1.1008302915
30
0.0000000000
10
-6.4647261411
20
1.0465193215
30
0.0000000000
10
-6.4412918995
20
0.9898871530
30
0.0000000000
10
-6.4228814704
20
0.9313800619
30
0.0000000000
10
-6.4096691545
20
0.8715511899
30
0.0000000000
10
-6.4017543565
20
0.8110454569
30
0.0000000000
10
-6.4000002048
20
0.7704922959
30
0.0000000000
10
-6.4000000000
20
0.7503001200
30
0.0000000000
11
-7.1000000000
21
1.4505802321
31
0.0000000000
11
-7.0395665582
21
1.4479656152
31
0.0000000000
11
-6.9791418228
21
1.4400636844
31
0.0000000000
11
-6.9193933684
21
1.4268704075
31
0.0000000000
11
-6.8609524774
21
1.4084815203
31
0.0000000000
11
-6.8044162423
21
1.3850855421
31
0.0000000000
11
-6.7502283168
21
1.3568922983
31
0.0000000000
11
-6.6987089922
21
1.3240847984
31
0.0000000000
11
-6.6502041739
21
1.2868763024
31
0.0000000000
11
-6.6051069855
21
1.2455546839
31
0.0000000000
11
-6.5637847828
21
1.2004504365
31
0.0000000000
11
-6.5265695684
21
1.1519299776
31
0.0000000000
11
-6.4937519831
21
1.1003877442
31
0.0000000000
11
-6.4655488090
21
1.0461745359
31
0.0000000000
11
-6.4421426977
21
0.9896106342
31
0.0000000000
11
-6.4237407030
21
0.9311300705
31
0.0000000000
11
-6.4105326391
21
0.8713222379
31
0.0000000000
11
-6.4026189755
21
0.8108200065
31
0.0000000000
11
-6.4000000000
21
0.7503001200
31
0.0000000000
0
SPLINE
5
32C
100
AcDbEntity
8
0
100
AcDbSpline
62
9
6
CONTINUOUS
70
0
71
3
72
10
73
6
74
4
42
0.0000001000
43
0.0000001000
44
0.0000000001
12
0.0000027345
22
0.4500221513
32
0.0000000000
13
0.0000062707
23
0.4500221512
33
0.0000000000
40
0.0000000000
40
0.0000000000
40
0.0000000000
40
0.0000000000
40
0.3333334336
40
0.6666667687
40
1.0000000000
40
1.0000000000
40
1.0000000000
40
1.0000000000
10
6.5519880534
20
0.3480043312
30
0.0000000000
10
6.5519883572
20
0.3980068075
30
0.0000000000
10
6.5519890959
20
0.4980117453
30
0.0000000000
10
6.5519905967
20
0.6480191291
30
0.0000000000
10
6.5519918592
20
0.7480240365
30
0.0000000000
10
6.5519925560
20
0.7980264825
30
0.0000000000
11
6.5519880534
21
0.3480043312
31
0.0000000000
11
6.5519891614
21
0.4980117601
31
0.0000000000
11
6.5519906622
21
0.6480191446
31
0.0000000000
11
6.5519925560
21
0.7980264825
31
0.0000000000
0
SPLINE
5
32D
100
AcDbEntity
8
0
100
AcDbSpline
62
9
6
CONTINUOUS
70
0
71
3
72
25
73
21
74
19
42
0.0000001000
43
0.0000001000
44
0.0000000001
12
0.0000120779
22
1.0994284663
32
0.0000000000
13
1.0994284663
23
0.0000111582
33
0.0000000000
40
0.0000000000
40
0.0000000000
40
0.0000000000
40
0.0000000000
40
0.0550699132
40
0.1105466666
40
0.1662462131
40
0.2220121219
40
0.2776997473
40
0.3332877460
40
0.3888637775
40
0.4444807649
40
0.5001191488
40
0.5557538686
40
0.6113597658
40
0.6669156203
40
0.7224707502
40
0.7781148483
40
0.8338370744
40
0.8895014604
40
0.9449521924
40
1.0000000000
40
1.0000000000
40
1.0000000000
40
1.0000000000
10
-16.1000000000
20
0.7503001200
30
0.0000000000
10
-16.0999997783
20
0.7704819301
30
0.0000000000
10
-16.0982473618
20
0.8110164021
30
0.0000000000
10
-16.0903392844
20
0.8715003333
30
0.0000000000
10
-16.0771345800
20
0.9313195794
30
0.0000000000
10
-16.0587295457
20
0.9898287515
30
0.0000000000
10
-16.0352979468
20
1.0464681334
30
0.0000000000
10
-16.0070461396
20
1.1007849261
30
0.0000000000
10
-15.9741809635
20
1.1524103705
30
0.0000000000
10
-15.9369278034
20
1.2009880234
30
0.0000000000
10
-15.8955632777
20
1.2461456216
30
0.0000000000
10
-15.8504181378
20
1.2875177300
30
0.0000000000
10
-15.8018589136
20
1.3247738843
30
0.0000000000
10
-15.7502602226
20
1.3576373025
30
0.0000000000
10
-15.6959804967
20
1.3858836103
30
0.0000000000
10
-15.6393863187
20
1.4093092348
30
0.0000000000
10
-15.5809232660
20
1.4277113409
30
0.0000000000
10
-15.5211435039
20
1.4409167346
30
0.0000000000
10
-15.4606905701
20
1.4488269397
30
0.0000000000
10
-15.4201737089
20
1.4505800273
30
0.0000000000
10
-15.4000000000
20
1.4505802321
30
0.0000000000
11
-16.1000000000
21
0.7503001200
31
0.0000000000
11
-16.0973837213
21
0.8107889967
31
0.0000000000
11
-16.0894770718
21
0.8712670673
31
0.0000000000
11
-16.0762766829
21
0.9310650739
31
0.0000000000
11
-16.0578792393
21
0.9895503466
31
0.0000000000
11
-16.0344744178
21
1.0461247326
31
0.0000000000
11
-16.0062732207
21
1.1003440940
31
0.0000000000
11
-15.9734600787
21
1.1518876324
31
0.0000000000
11
-15.9362498292
21
1.2004091805
31
0.0000000000
11
-15.8949316517
21
1.2455160409
31
0.0000000000
11
-15.8498370872
21
1.2868416756
31
0.0000000000
11
-15.8013333665
21
1.3240551329
31
0.0000000000
11
-15.7498153603
21
1.3568670714
31
0.0000000000
11
-15.6956336190
21
1.3850622813
31
0.0000000000
11
-15.6391078964
21
1.4084595455
31
0.0000000000
11
-15.5806717139
21
1.4268529937
31
0.0000000000
11
-15.5209134222
21
1.4400539577
31
0.0000000000
11
-15.4604645054
21
1.4479629129
31
0.0000000000
11
-15.4000000000
21
1.4505802321
31
0.0000000000
0
SPLINE
5
32E
100
AcDbEntity
8
0
100
AcDbSpline
62
9
6
CONTINUOUS
70
0
71
3
72
19
73
15
74
13
42
0.0000001000
43
0.0000001000
44
0.0000000001
12
-0.2000008301
22
-0.0000000000
32
0.0000000000
13
-0.0000000000
23
-0.2000008301
33
0.0000000000
40
0.0000000000
40
0.0000000000
40
0.0000000000
40
0.0000000000
40
0.1305256511
40
0.2588179772
40
0.3826818664
40
0.4999979792
40
0.6087590115
40
0.7071040406
40
0.7933503680
40
0.8660223132
40
0.9238764696
40
0.9659229997
40
0.9914426550
40
1.0000000000
40
1.0000000000
40
1.0000000000
40
1.0000000000
10
-6.4000000000
20
0.7503001200
30
0.0000000000
10
-6.4087017462
20
0.7503001200
30
0.0000000000
10
-6.4259563248
20
0.7502984137
30
0.0000000000
10
-6.4514686632
20
0.7502909697
30
0.0000000000
10
-6.4760998728
20
0.7502781798
30
0.0000000000
10
-6.4994306622
20
0.7502623342
30
0.0000000000
10
-6.5210545786
20
0.7502367982
30
0.0000000000
10
-6.5406252635
20
0.7502246113
30
0.0000000000
10
-6.5577340046
20
0.7501555349
30
0.0000000000
10
-6.5723071181
20
0.7502400253
30
0.0000000000
10
-6.5834899272
20
0.7498989383
30
0.0000000000
10
-6.5925966494
20
0.7505762538
30
0.0000000000
10
-6.5963449316
20
0.7492771821
30
0.0000000000
10
-6.6000000000
20
0.7505704920
30
0.0000000000
10
-6.6000000000
20
0.7500000000
30
0.0000000000
11
-6.4000000000
21
0.7503001200
31
0.0000000000
11
-6.4261052384
21
0.7502975525
31
0.0000000000
11
-6.4517638090
21
0.7502898937
31
0.0000000000
11
-6.4765366865
21
0.7502772748
31
0.0000000000
11
-6.5000000000
21
0.7502599116
31
0.0000000000
11
-6.5217522858
21
0.7502381012
31
0.0000000000
11
-6.5414213562
21
0.7502122169
31
0.0000000000
11
-6.5586706681
21
0.7501827015
31
0.0000000000
11
-6.5732050808
21
0.7501500600
31
0.0000000000
11
-6.5847759065
21
0.7501148510
31
0.0000000000
11
-6.5931851653
21
0.7500776768
31
0.0000000000
11
-6.5982889723
21
0.7500391735
31
0.0000000000
11
-6.6000000000
21
0.7500000000
31
0.0000000000
0
SPLINE
5
32F
100
AcDbEntity
8
0
100
AcDbSpline
62
9
6
CONTINUOUS
70
0
71
3
72
20
73
16
74
14
42
0.0000001000
43
0.0000001000
44
0.0000000001
12
-0.2142145112
22
-0.0000451660
32
0.0000000000
13
-0.0000750390
23
-0.2142145028
33
0.0000000000
40
0.0000000000
40
0.0000000000
40
0.0000000000
40
0.0000000000
40
0.1102596660
40
0.2192587650
40
0.3259626321
40
0.4285346153
40
0.5258567627
40
0.6164889600
40
0.6994045295
40
0.7733889062
40
0.8377380256
40
0.8918071071
40
0.9358190324
40
0.9707785275
40
1.0000000000
40
1.0000000000
40
1.0000000000
40
1.0000000000
10
-6.4000000000
20
0.3977684532
30
0.0000000000
10
-6.4078730735
20
0.3977667932
30
0.0000000000
10
-6.4235301184
20
0.3975272258
30
0.0000000000
10
-6.4467853772
20
0.3964873528
30
0.0000000000
10
-6.4694517825
20
0.3947854170
30
0.0000000000
10
-6.4912207255
20
0.3924207425
30
0.0000000000
10
-6.5117533822
20
0.3894234502
30
0.0000000000
10
-6.5307635595
20
0.3858225585
30
0.0000000000
10
-6.5479524414
20
0.3816694159
30
0.0000000000
10
-6.5630666997
20
0.3770263999
30
0.0000000000
10
-6.5758520723
20
0.3719516167
30
0.0000000000
10
-6.5861476267
20
0.3665369663
30
0.0000000000
10
-6.5937767004
20
0.3607881191
30
0.0000000000
10
-6.5987385602
20
0.3547019021
30
0.0000000000
10
-6.5999992691
20
0.3500909059
30
0.0000000000
10
-6.6000000000
20
0.3480043515
30
0.0000000000
11
-6.4000000000
21
0.3977684532
31
0.0000000000
11
-6.4236164939
21
0.3974095468
31
0.0000000000
11
-6.4469421372
21
0.3963612123
31
0.0000000000
11
-6.4697343517
21
0.3946346404
31
0.0000000000
11
-6.4915762303
21
0.3922431888
31
0.0000000000
11
-6.5122013917
21
0.3892044094
31
0.0000000000
11
-6.5312700582
21
0.3855550553
31
0.0000000000
11
-6.5485232197
21
0.3813352135
31
0.0000000000
11
-6.5636512323
21
0.3766109085
31
0.0000000000
11
-6.5764279594
21
0.3714371178
31
0.0000000000
11
-6.5866050470
21
0.3659073381
31
0.0000000000
11
-6.5940141482
21
0.3600770484
31
0.0000000000
11
-6.5985024528
21
0.3540822409
31
0.0000000000
11
-6.6000000000
21
0.3480043515
31
0.0000000000
0
SPLINE
5
330
100
AcDbEntity
8
0
100
AcDbSpline
62
7
6
CONTINUOUS
70
0
71
3
72
20
73
16
74
14
42
0.0000001000
43
0.0000001000
44
0.0000000001
12
0.0000000000
22
0.3102409269
32
0.0000000000
13
0.3102891983
23
0.0046938343
33
0.0000000000
40
0.0000000000
40
0.0000000000
40
0.0000000000
40
0.0000000000
40
0.0796003205
40
0.1588721387
40
0.2378293324
40
0.3164780235
40
0.3948203310
40
0.4728571265
40
0.5505908106
40
0.6280269220
40
0.7051751597
40
0.7820499028
40
0.8586698517
40
0.9350579342
40
1.0000000000
40
1.0000000000
40
1.0000000000
40
1.0000000000
10
15.9000000000
20
-0.3367690172
30
0.0000000000
10
15.9000000000
20
-0.3285372581
30
0.0000000000
10
15.9010170030
20
-0.3120895633
30
0.0000000000
10
15.9055573938
20
-0.2878571740
30
0.0000000000
10
15.9130072113
20
-0.2644555483
30
0.0000000000
10
15.9232227757
20
-0.2422297400
30
0.0000000000
10
15.9360211422
20
-0.2214962209
30
0.0000000000
10
15.9511837025
20
-0.2025453375
30
0.0000000000
10
15.9684608070
20
-0.1856347321
30
0.0000000000
10
15.9875770076
20
-0.1709865535
30
0.0000000000
10
16.0082367180
20
-0.1587851636
30
0.0000000000
10
16.0301291443
20
-0.1491761365
30
0.0000000000
10
16.0529353221
20
-0.1422661051
30
0.0000000000
10
16.0751786141
20
-0.1383265002
30
0.0000000000
10
16.0897954378
20
-0.1373681877
30
0.0000000000
10
16.0965123783
20
-0.1372665786
30
0.0000000000
11
15.9000000000
21
-0.3367690172
31
0.0000000000
11
15.9015251970
21
-0.3121208836
31
0.0000000000
11
15.9060542383
21
-0.2879481457
31
0.0000000000
11
15.9134854822
21
-0.2646067976
31
0.0000000000
11
15.9236757136
21
-0.2424365186
31
0.0000000000
11
15.9364424756
21
-0.2217545860
31
0.0000000000
11
15.9515676509
21
-0.2028505328
31
0.0000000000
11
15.9688021581
21
-0.1859815841
31
0.0000000000
11
15.9878712164
21
-0.1713693826
31
0.0000000000
11
16.0084798681
21
-0.1591978702
31
0.0000000000
11
16.0303184502
21
-0.1496122498
31
0.0000000000
11
16.0530676338
21
-0.1427189078
31
0.0000000000
11
16.0764031747
21
-0.1385859474
31
0.0000000000
11
16.0965123783
21
-0.1372665786
31
0.0000000000
0
SPLINE
5
331
100
AcDbEntity
8
0
100
AcDbSpline
62
7
6
CONTINUOUS
70
0
71
3
72
16
73
12
74
10
42
0.0000001000
43
0.0000001000
44
0.0000000001
12
0.1726171324
22
0.0156856998
32
0.0000000000
13
0.1733283461
23
-0.0000000000
33
0.0000000000
40
0.0000000000
40
0.0000000000
40
0.0000000000
40
0.0000000000
40
0.0738484585
40
0.1604675888
40
0.2581385912
40
0.3658769979
40
0.4826115293
40
0.6058245174
40
0.7342076873
40
0.8665075761
40
1.0000000000
40
1.0000000000
40
1.0000000000
40
1.0000000000
10
8.9422649731
20
-22.1696065528
30
0.0000000000
10
8.9465141428
20
-22.1692204313
30
0.0000000000
10
8.9557579868
20
-22.1684989977
30
0.0000000000
10
8.9706444621
20
-22.1675826988
30
0.0000000000
10
8.9874970077
20
-22.1667590724
30
0.0000000000
10
9.0060956029
20
-22.1660401731
30
0.0000000000
10
9.0261747326
20
-22.1654378052
30
0.0000000000
10
9.0474502817
20
-22.1649607589
30
0.0000000000
10
9.0696277781
20
-22.1646154192
30
0.0000000000
10
9.0924008911
20
-22.1644066262
30
0.0000000000
10
9.1077573802
20
-22.1643601773
30
0.0000000000
10
9.1154700538
20
-22.1643601773
30
0.0000000000
11
8.9422649731
21
-22.1696065528
31
0.0000000000
11
8.9550244600
21
-22.1685885689
31
0.0000000000
11
8.9700087460
21
-22.1676516195
31
0.0000000000
11
8.9869172049
21
-22.1668148090
31
0.0000000000
11
9.0055770997
21
-22.1660860577
31
0.0000000000
11
9.0258012394
21
-22.1654738668
31
0.0000000000
11
9.0471520907
21
-22.1649913253
31
0.0000000000
11
9.0694017963
21
-22.1646423284
31
0.0000000000
11
9.0923321401
21
-22.1644306317
31
0.0000000000
11
9.1154700538
21
-22.1643601773
31
0.0000000000
0
SPLINE
5
332
100
AcDbEntity
8
0
100
AcDbSpline
62
7
6
CONTINUOUS
70
0
71
3
72
16
73
12
74
10
42
0.0000001000
43
0.0000001000
44
0.0000000001
12
0.1733283461
22
0.0000000000
32
0.0000000000
13
0.1726171324
23
-0.0156856998
33
0.0000000000
40
0.0000000000
40
0.0000000000
40
0.0000000000
40
0.0000000000
40
0.1334924239
40
0.2657923127
40
0.3941754826
40
0.5173884707
40
0.6341230021
40
0.7418614088
40
0.8395324112
40
0.9261515415
40
1.0000000000
40
1.0000000000
40
1.0000000000
40
1.0000000000
10
13.3845299462
20
-22.1643601773
30
0.0000000000
10
13.3922426198
20
-22.1643601773
30
0.0000000000
10
13.4075991089
20
-22.1644066262
30
0.0000000000
10
13.4303722219
20
-22.1646154192
30
0.0000000000
10
13.4525497183
20
-22.1649607589
30
0.0000000000
10
13.4738252674
20
-22.1654378052
30
0.0000000000
10
13.4939043971
20
-22.1660401731
30
0.0000000000
10
13.5125029923
20
-22.1667590724
30
0.0000000000
10
13.5293555379
20
-22.1675826988
30
0.0000000000
10
13.5442420132
20
-22.1684989977
30
0.0000000000
10
13.5534858572
20
-22.1692204313
30
0.0000000000
10
13.5577350269
20
-22.1696065528
30
0.0000000000
11
13.3845299462
21
-22.1643601773
31
0.0000000000
11
13.4076678599
21
-22.1644306317
31
0.0000000000
11
13.4305982037
21
-22.1646423284
31
0.0000000000
11
13.4528479093
21
-22.1649913253
31
0.0000000000
11
13.4741987606
21
-22.1654738668
31
0.0000000000
11
13.4944229003
21
-22.1660860577
31
0.0000000000
11
13.5130827951
21
-22.1668148090
31
0.0000000000
11
13.5299912540
21
-22.1676516195
31
0.0000000000
11
13.5449755400
21
-22.1685885689
31
0.0000000000
11
13.5577350269
21
-22.1696065528
31
0.0000000000
0
SPLINE
5
333
100
AcDbEntity
8
0
100
AcDbSpline
62
7
6
CONTINUOUS
70
0
71
3
72
20
73
16
74
14
42
0.0000001000
43
0.0000001000
44
0.0000000001
12
0.3143019541
22
-0.0000041133
32
0.0000000000
13
0.0000261719
23
-0.3143019530
33
0.0000000000
40
0.0000000000
40
0.0000000000
40
0.0000000000
40
0.0000000000
40
0.0752724972
40
0.1506797033
40
0.2265189215
40
0.3025107335
40
0.3788573249
40
0.4554640333
40
0.5324917028
40
0.6097981317
40
0.6875137852
40
0.7654544752
40
0.8436931858
40
0.9219605981
40
1.0000000000
40
1.0000000000
40
1.0000000000
40
1.0000000000
10
6.4000000000
20
-0.1475790882
30
0.0000000000
10
6.4078860976
20
-0.1475791914
30
0.0000000000
10
6.4236884041
20
-0.1485169311
30
0.0000000000
10
6.4470973927
20
-0.1527292663
30
0.0000000000
10
6.4699162063
20
-0.1597163168
30
0.0000000000
10
6.4918283361
20
-0.1694145853
30
0.0000000000
10
6.5124934919
20
-0.1817050053
30
0.0000000000
10
6.5316210380
20
-0.1964526495
30
0.0000000000
10
6.5489057009
20
-0.2134675357
30
0.0000000000
10
6.5640796047
20
-0.2325383222
30
0.0000000000
10
6.5768781359
20
-0.2533915020
30
0.0000000000
10
6.5870838193
20
-0.2757365805
30
0.0000000000
10
6.5945028967
20
-0.2992170728
30
0.0000000000
10
6.5989979518
20
-0.3234349127
30
0.0000000000
10
6.5999993192
20
-0.3398283522
30
0.0000000000
10
6.6000000000
20
-0.3480043310
30
0.0000000000
11
6.4000000000
21
-0.1475790882
31
0.0000000000
11
6.4236167003
21
-0.1489813330
31
0.0000000000
11
6.4469428062
21
-0.1531780881
31
0.0000000000
11
6.4697346970
21
-0.1601569396
31
0.0000000000
11
6.4915755962
21
-0.1698232985
31
0.0000000000
11
6.5121997346
21
-0.1820889949
31
0.0000000000
11
6.5312680033
21
-0.1967904842
31
0.0000000000
11
6.5485213919
21
-0.2137740680
31
0.0000000000
11
6.5636498836
21
-0.2327872277
31
0.0000000000
11
6.5764271397
21
-0.2536050105
31
0.0000000000
11
6.5866045085
21
-0.2758877352
31
0.0000000000
11
6.5940138654
21
-0.2993355077
31
0.0000000000
11
6.5985023045
21
-0.3235221624
31
0.0000000000
11
6.6000000000
21
-0.3480043310
31
0.0000000000
0
SPLINE
5
334
100
AcDbEntity
8
0
100
AcDbSpline
62
7
6
CONTINUOUS
70
0
71
3
72
20
73
16
74
14
42
0.0000001000
43
0.0000001000
44
0.0000000001
12
0.0000000000
22
0.3102409269
32
0.0000000000
13
-0.3102891983
23
0.0046938343
33
0.0000000000
40
0.0000000000
40
0.0000000000
40
0.0000000000
40
0.0000000000
40
0.0796003205
40
0.1588721387
40
0.2378293324
40
0.3164780235
40
0.3948203310
40
0.4728571265
40
0.5505908106
40
0.6280269220
40
0.7051751597
40
0.7820499028
40
0.8586698517
40
0.9350579342
40
1.0000000000
40
1.0000000000
40
1.0000000000
40
1.0000000000
10
6.6000000000
20
-0.3367690172
30
0.0000000000
10
6.6000000000
20
-0.3285372581
30
0.0000000000
10
6.5989829970
20
-0.3120895633
30
0.0000000000
10
6.5944426062
20
-0.2878571740
30
0.0000000000
10
6.5869927887
20
-0.2644555483
30
0.0000000000
10
6.5767772243
20
-0.2422297400
30
0.0000000000
10
6.5639788578
20
-0.2214962209
30
0.0000000000
10
6.5488162975
20
-0.2025453375
30
0.0000000000
10
6.5315391930
20
-0.1856347321
30
0.0000000000
10
6.5124229924
20
-0.1709865535
30
0.0000000000
10
6.4917632820
20
-0.1587851636
30
0.0000000000
10
6.4698708557
20
-0.1491761365
30
0.0000000000
10
6.4470646779
20
-0.1422661051
30
0.0000000000
10
6.4248213859
20
-0.1383265002
30
0.0000000000
10
6.4102045622
20
-0.1373681877
30
0.0000000000
10
6.4034876217
20
-0.1372665786
30
0.0000000000
11
6.6000000000
21
-0.3367690172
31
0.0000000000
11
6.5984748030
21
-0.3121208836
31
0.0000000000
11
6.5939457617
21
-0.2879481457
31
0.0000000000
11
6.5865145178
21
-0.2646067976
31
0.0000000000
11
6.5763242864
21
-0.2424365186
31
0.0000000000
11
6.5635575244
21
-0.2217545860
31
0.0000000000
11
6.5484323491
21
-0.2028505328
31
0.0000000000
11
6.5311978419
21
-0.1859815841
31
0.0000000000
11
6.5121287836
21
-0.1713693826
31
0.0000000000
11
6.4915201319
21
-0.1591978702
31
0.0000000000
11
6.4696815498
21
-0.1496122498
31
0.0000000000
11
6.4469323662
21
-0.1427189078
31
0.0000000000
11
6.4235968253
21
-0.1385859474
31
0.0000000000
11
6.4034876217
21
-0.1372665786
31
0.0000000000
0
SPLINE
5
335
100
AcDbEntity
8
0
100
AcDbSpline
62
7
6
CONTINUOUS
70
0
71
3
72
16
73
12
74
10
42
0.0000001000
43
0.0000001000
44
0.0000000001
12
0.1726171324
22
0.0156856998
32
0.0000000000
13
0.1733283461
23
0.0000000000
33
0.0000000000
40
0.0000000000
40
0.0000000000
40
0.0000000000
40
0.0000000000
40
0.0738484585
40
0.1604675888
40
0.2581385912
40
0.3658769979
40
0.4826115293
40
0.6058245174
40
0.7342076873
40
0.8665075761
40
1.0000000000
40
1.0000000000
40
1.0000000000
40
1.0000000000
10
-13.5577350269
20
-22.1696065528
30
0.0000000000
10
-13.5534858572
20
-22.1692204313
30
0.0000000000
10
-13.5442420132
20
-22.1684989977
30
0.0000000000
10
-13.5293555379
20
-22.1675826988
30
0.0000000000
10
-13.5125029923
20
-22.1667590724
30
0.0000000000
10
-13.4939043971
20
-22.1660401731
30
0.0000000000
10
-13.4738252674
20
-22.1654378052
30
0.0000000000
10
-13.4525497183
20
-22.1649607589
30
0.0000000000
10
-13.4303722219
20
-22.1646154192
30
0.0000000000
10
-13.4075991089
20
-22.1644066262
30
0.0000000000
10
-13.3922426198
20
-22.1643601773
30
0.0000000000
10
-13.3845299462
20
-22.1643601773
30
0.0000000000
11
-13.5577350269
21
-22.1696065528
31
0.0000000000
11
-13.5449755400
21
-22.1685885689
31
0.0000000000
11
-13.5299912540
21
-22.1676516195
31
0.0000000000
11
-13.5130827951
21
-22.1668148090
31
0.0000000000
11
-13.4944229003
21
-22.1660860577
31
0.0000000000
11
-13.4741987606
21
-22.1654738668
31
0.0000000000
11
-13.4528479093
21
-22.1649913253
31
0.0000000000
11
-13.4305982037
21
-22.1646423284
31
0.0000000000
11
-13.4076678599
21
-22.1644306317
31
0.0000000000
11
-13.3845299462
21
-22.1643601773
31
0.0000000000
0
SPLINE
5
336
100
AcDbEntity
8
0
100
AcDbSpline
62
7
6
CONTINUOUS
70
0
71
3
72
16
73
12
74
10
42
0.0000001000
43
0.0000001000
44
0.0000000001
12
0.1733283461
22
0.0000000000
32
0.0000000000
13
0.1726171324
23
-0.0156856998
33
0.0000000000
40
0.0000000000
40
0.0000000000
40
0.0000000000
40
0.0000000000
40
0.1334924239
40
0.2657923127
40
0.3941754826
40
0.5173884707
40
0.6341230021
40
0.7418614088
40
0.8395324112
40
0.9261515415
40
1.0000000000
40
1.0000000000
40
1.0000000000
40
1.0000000000
10
-9.1154700538
20
-22.1643601773
30
0.0000000000
10
-9.1077573802
20
-22.1643601773
30
0.0000000000
10
-9.0924008911
20
-22.1644066262
30
0.0000000000
10
-9.0696277781
20
-22.1646154192
30
0.0000000000
10
-9.0474502817
20
-22.1649607589
30
0.0000000000
10
-9.0261747326
20
-22.1654378052
30
0.0000000000
10
-9.0060956029
20
-22.1660401731
30
0.0000000000
10
-8.9874970077
20
-22.1667590724
30
0.0000000000
10
-8.9706444621
20
-22.1675826988
30
0.0000000000
10
-8.9557579868
20
-22.1684989977
30
0.0000000000
10
-8.9465141428
20
-22.1692204313
30
0.0000000000
10
-8.9422649731
20
-22.1696065528
30
0.0000000000
11
-9.1154700538
21
-22.1643601773
31
0.0000000000
11
-9.0923321401
21
-22.1644306317
31
0.0000000000
11
-9.0694017963
21
-22.1646423284
31
0.0000000000
11
-9.0471520907
21
-22.1649913253
31
0.0000000000
11
-9.0258012394
21
-22.1654738668
31
0.0000000000
11
-9.0055770997
21
-22.1660860577
31
0.0000000000
11
-8.9869172049
21
-22.1668148090
31
0.0000000000
11
-8.9700087460
21
-22.1676516195
31
0.0000000000
11
-8.9550244600
21
-22.1685885689
31
0.0000000000
11
-8.9422649731
21
-22.1696065528
31
0.0000000000
0
SPLINE
5
337
100
AcDbEntity
8
0
100
AcDbSpline
62
7
6
CONTINUOUS
70
0
71
3
72
20
73
16
74
14
42
0.0000001000
43
0.0000001000
44
0.0000000001
12
0.0000237084
22
0.3105890571
32
0.0000000000
13
0.3106369231
23
0.0046987873
33
0.0000000000
40
0.0000000000
40
0.0000000000
40
0.0000000000
40
0.0000000000
40
0.0795701838
40
0.1588067754
40
0.2377292296
40
0.3163482463
40
0.3946694030
40
0.4726958146
40
0.5504308891
40
0.6278799552
40
0.7050513657
40
0.7819571568
40
0.8586128639
40
0.9350376605
40
1.0000000000
40
1.0000000000
40
1.0000000000
40
1.0000000000
10
-6.5637859859
20
-0.3362063987
30
0.0000000000
10
-6.5637853570
20
-0.3279685226
30
0.0000000000
10
-6.5627631996
20
-0.3115091135
30
0.0000000000
10
-6.5582042107
20
-0.2872623008
30
0.0000000000
10
-6.5507267841
20
-0.2638510965
30
0.0000000000
10
-6.5404764260
20
-0.2416206189
30
0.0000000000
10
-6.5276379317
20
-0.2208870597
30
0.0000000000
10
-6.5124317077
20
-0.2019401930
30
0.0000000000
10
-6.4951090668
20
-0.1850368087
30
0.0000000000
10
-6.4759469102
20
-0.1703979787
30
0.0000000000
10
-6.4552420092
20
-0.1582068359
30
0.0000000000
10
-6.4333060387
20
-0.1486076550
30
0.0000000000
10
-6.4104585360
20
-0.1417057828
30
0.0000000000
10
-6.3881791132
20
-0.1377713424
30
0.0000000000
10
-6.3735400387
20
-0.1368139823
30
0.0000000000
10
-6.3668134716
20
-0.1367122343
30
0.0000000000
11
-6.5637859859
21
-0.3362063987
31
0.0000000000
11
-6.5622530958
21
-0.3115403557
31
0.0000000000
11
-6.5577058381
21
-0.2873540900
31
0.0000000000
11
-6.5502475340
21
-0.2640038450
31
0.0000000000
11
-6.5400231416
21
-0.2418292965
31
0.0000000000
11
-6.5272168784
21
-0.2211474439
31
0.0000000000
11
-6.5120485750
21
-0.2022472698
31
0.0000000000
11
-6.4947689051
21
-0.1853851970
31
0.0000000000
11
-6.4756540537
21
-0.1707818611
31
0.0000000000
11
-6.4550001422
21
-0.1586200553
31
0.0000000000
11
-6.4331177227
21
-0.1490437639
31
0.0000000000
11
-6.4103267266
21
-0.1421581601
31
0.0000000000
11
-6.3869517143
21
-0.1380302074
31
0.0000000000
11
-6.3668134716
21
-0.1367122343
31
0.0000000000
0
SPLINE
5
338
100
AcDbEntity
8
0
100
AcDbSpline
62
7
6
CONTINUOUS
70
0
71
3
72
20
73
16
74
14
42
0.0000001000
43
0.0000001000
44
0.0000000001
12
-0.0000237084
22
0.3105890571
32
0.0000000000
13
-0.3106369231
23
0.0046987873
33
0.0000000000
40
0.0000000000
40
0.0000000000
40
0.0000000000
40
0.0000000000
40
0.0795701838
40
0.1588067754
40
0.2377292296
40
0.3163482463
40
0.3946694030
40
0.4726958146
40
0.5504308891
40
0.6278799552
40
0.7050513657
40
0.7819571568
40
0.8586128639
40
0.9350376605
40
1.0000000000
40
1.0000000000
40
1.0000000000
40
1.0000000000
10
-15.9362140141
20
-0.3362063987
30
0.0000000000
10
-15.9362146430
20
-0.3279685226
30
0.0000000000
10
-15.9372368004
20
-0.3115091135
30
0.0000000000
10
-15.9417957893
20
-0.2872623008
30
0.0000000000
10
-15.9492732159
20
-0.2638510965
30
0.0000000000
10
-15.9595235740
20
-0.2416206189
30
0.0000000000
10
-15.9723620683
20
-0.2208870597
30
0.0000000000
10
-15.9875682923
20
-0.2019401930
30
0.0000000000
10
-16.0048909332
20
-0.1850368087
30
0.0000000000
10
-16.0240530898
20
-0.1703979787
30
0.0000000000
10
-16.0447579908
20
-0.1582068359
30
0.0000000000
10
-16.0666939613
20
-0.1486076550
30
0.0000000000
10
-16.0895414640
20
-0.1417057828
30
0.0000000000
10
-16.1118208868
20
-0.1377713424
30
0.0000000000
10
-16.1264599613
20
-0.1368139823
30
0.0000000000
10
-16.1331865284
20
-0.1367122343
30
0.0000000000
11
-15.9362140141
21
-0.3362063987
31
0.0000000000
11
-15.9377469042
21
-0.3115403557
31
0.0000000000
11
-15.9422941619
21
-0.2873540900
31
0.0000000000
11
-15.9497524660
21
-0.2640038450
31
0.0000000000
11
-15.9599768584
21
-0.2418292965
31
0.0000000000
11
-15.9727831216
21
-0.2211474439
31
0.0000000000
11
-15.9879514250
21
-0.2022472698
31
0.0000000000
11
-16.0052310949
21
-0.1853851970
31
0.0000000000
11
-16.0243459463
21
-0.1707818611
31
0.0000000000
11
-16.0449998578
21
-0.1586200553
31
0.0000000000
11
-16.0668822773
21
-0.1490437639
31
0.0000000000
11
-16.0896732734
21
-0.1421581601
31
0.0000000000
11
-16.1130482857
21
-0.1380302074
31
0.0000000000
11
-16.1331865284
21
-0.1367122343
31
0.0000000000
0
SPLINE
5
339
100
AcDbEntity
8
0
100
AcDbSpline
62
7
6
CONTINUOUS
70
0
71
3
72
10
73
6
74
4
42
0.0000001000
43
0.0000001000
44
0.0000000001
12
0.0627158223
22
-0.0078302189
32
0.0000000000
13
0.0632027428
23
-0.0000000000
33
0.0000000000
40
0.0000000000
40
0.0000000000
40
0.0000000000
40
0.0000000000
40
0.3371715920
40
0.6698236531
40
1.0000000000
40
1.0000000000
40
1.0000000000
40
1.0000000000
10
-15.4992776800
20
-1.2822903819
30
0.0000000000
10
-15.4922290155
20
-1.2831704244
30
0.0000000000
10
-15.4781877849
20
-1.2846263273
30
0.0000000000
10
-15.4571549864
20
-1.2859268398
30
0.0000000000
10
-15.4431890356
20
-1.2862139802
30
0.0000000000
10
-15.4362330187
20
-1.2862139802
30
0.0000000000
11
-15.4992776800
21
-1.2822903819
31
0.0000000000
11
-15.4780811258
21
-1.2844879740
31
0.0000000000
11
-15.4570966652
21
-1.2857852648
31
0.0000000000
11
-15.4362330187
21
-1.2862139802
31
0.0000000000
0
SPLINE
5
33A
100
AcDbEntity
8
0
100
AcDbSpline
62
7
6
CONTINUOUS
70
0
71
3
72
21
73
17
74
15
42
0.0000001000
43
0.0000001000
44
0.0000000001
12
-0.6541205412
22
0.0816684978
32
0.0000000000
13
-0.0816684978
23
0.6541205412
33
0.0000000000
40
0.0000000000
40
0.0000000000
40
0.0000000000
40
0.0000000000
40
0.0725908208
40
0.1446932362
40
0.2162634435
40
0.2875957322
40
0.3585074992
40
0.4293378329
40
0.5000000000
40
0.5706621671
40
0.6414925008
40
0.7124042678
40
0.7837365565
40
0.8553067638
40
0.9274091792
40
1.0000000000
40
1.0000000000
40
1.0000000000
40
1.0000000000
10
-15.4992776800
20
-1.2822903819
30
0.0000000000
10
-15.5151053957
20
-1.2803142541
30
0.0000000000
10
-15.5464866153
20
-1.2748615312
30
0.0000000000
10
-15.5923821401
20
-1.2622809291
30
0.0000000000
10
-15.6366234733
20
-1.2455053539
30
0.0000000000
10
-15.6788482470
20
-1.2247465910
30
0.0000000000
10
-15.7187960487
20
-1.2001969435
30
0.0000000000
10
-15.7561497608
20
-1.1721007190
30
0.0000000000
10
-15.7906697413
20
-1.1406697413
30
0.0000000000
10
-15.8221007190
20
-1.1061497608
30
0.0000000000
10
-15.8501969435
20
-1.0687960487
30
0.0000000000
10
-15.8747465910
20
-1.0288482470
30
0.0000000000
10
-15.8955053539
20
-0.9866234733
30
0.0000000000
10
-15.9122809291
20
-0.9423821401
30
0.0000000000
10
-15.9248615312
20
-0.8964866153
30
0.0000000000
10
-15.9303142541
20
-0.8651053957
30
0.0000000000
10
-15.9322903819
20
-0.8492776800
30
0.0000000000
11
-15.4992776800
21
-1.2822903819
31
0.0000000000
11
-15.5464228121
21
-1.2740970002
31
0.0000000000
11
-15.5922616394
21
-1.2615316450
31
0.0000000000
11
-15.6363754379
21
-1.2448034589
31
0.0000000000
11
-15.6785735578
21
-1.2240572786
31
0.0000000000
11
-15.7183990292
21
-1.1995823079
31
0.0000000000
11
-15.7557130714
21
-1.1715156215
31
0.0000000000
11
-15.7901553156
21
-1.1401553156
31
0.0000000000
11
-15.8215156215
21
-1.1057130714
31
0.0000000000
11
-15.8495823079
21
-1.0683990292
31
0.0000000000
11
-15.8740572786
21
-1.0285735578
31
0.0000000000
11
-15.8948034589
21
-0.9863754379
31
0.0000000000
11
-15.9115316450
21
-0.9422616394
31
0.0000000000
11
-15.9240970002
21
-0.8964228121
31
0.0000000000
11
-15.9322903819
21
-0.8492776800
31
0.0000000000
0
SPLINE
5
33B
100
AcDbEntity
8
0
100
AcDbSpline
62
7
6
CONTINUOUS
70
0
71
3
72
21
73
17
74
15
42
0.0000001000
43
0.0000001000
44
0.0000000001
12
0.6541205412
22
0.0816684978
32
0.0000000000
13
0.0816684978
23
0.6541205412
33
0.0000000000
40
0.0000000000
40
0.0000000000
40
0.0000000000
40
0.0000000000
40
0.0725908208
40
0.1446932362
40
0.2162634435
40
0.2875957322
40
0.3585074992
40
0.4293378329
40
0.5000000000
40
0.5706621671
40
0.6414925008
40
0.7124042678
40
0.7837365565
40
0.8553067638
40
0.9274091792
40
1.0000000000
40
1.0000000000
40
1.0000000000
40
1.0000000000
10
-7.0007223200
20
-1.2822903819
30
0.0000000000
10
-6.9848946043
20
-1.2803142541
30
0.0000000000
10
-6.9535133847
20
-1.2748615312
30
0.0000000000
10
-6.9076178599
20
-1.2622809291
30
0.0000000000
10
-6.8633765267
20
-1.2455053539
30
0.0000000000
10
-6.8211517530
20
-1.2247465910
30
0.0000000000
10
-6.7812039513
20
-1.2001969435
30
0.0000000000
10
-6.7438502392
20
-1.1721007190
30
0.0000000000
10
-6.7093302587
20
-1.1406697413
30
0.0000000000
10
-6.6778992810
20
-1.1061497608
30
0.0000000000
10
-6.6498030565
20
-1.0687960487
30
0.0000000000
10
-6.6252534090
20
-1.0288482470
30
0.0000000000
10
-6.6044946461
20
-0.9866234733
30
0.0000000000
10
-6.5877190709
20
-0.9423821401
30
0.0000000000
10
-6.5751384688
20
-0.8964866153
30
0.0000000000
10
-6.5696857459
20
-0.8651053957
30
0.0000000000
10
-6.5677096181
20
-0.8492776800
30
0.0000000000
11
-7.0007223200
21
-1.2822903819
31
0.0000000000
11
-6.9535771879
21
-1.2740970002
31
0.0000000000
11
-6.9077383606
21
-1.2615316450
31
0.0000000000
11
-6.8636245621
21
-1.2448034589
31
0.0000000000
11
-6.8214264422
21
-1.2240572786
31
0.0000000000
11
-6.7816009708
21
-1.1995823079
31
0.0000000000
11
-6.7442869286
21
-1.1715156215
31
0.0000000000
11
-6.7098446844
21
-1.1401553156
31
0.0000000000
11
-6.6784843785
21
-1.1057130714
31
0.0000000000
11
-6.6504176921
21
-1.0683990292
31
0.0000000000
11
-6.6259427214
21
-1.0285735578
31
0.0000000000
11
-6.6051965411
21
-0.9863754379
31
0.0000000000
11
-6.5884683550
21
-0.9422616394
31
0.0000000000
11
-6.5759029998
21
-0.8964228121
31
0.0000000000
11
-6.5677096181
21
-0.8492776800
31
0.0000000000
0
SPLINE
5
33C
100
AcDbEntity
8
0
100
AcDbSpline
62
7
6
CONTINUOUS
70
0
71
3
72
10
73
6
74
4
42
0.0000001000
43
0.0000001000
44
0.0000000001
12
-0.0627158223
22
-0.0078302189
32
0.0000000000
13
-0.0632027428
23
0.0000000000
33
0.0000000000
40
0.0000000000
40
0.0000000000
40
0.0000000000
40
0.0000000000
40
0.3371715920
40
0.6698236531
40
1.0000000000
40
1.0000000000
40
1.0000000000
40
1.0000000000
10
-7.0007223200
20
-1.2822903819
30
0.0000000000
10
-7.0077709845
20
-1.2831704244
30
0.0000000000
10
-7.0218122151
20
-1.2846263273
30
0.0000000000
10
-7.0428450136
20
-1.2859268398
30
0.0000000000
10
-7.0568109644
20
-1.2862139802
30
0.0000000000
10
-7.0637669813
20
-1.2862139802
30
0.0000000000
11
-7.0007223200
21
-1.2822903819
31
0.0000000000
11
-7.0219188742
21
-1.2844879740
31
0.0000000000
11
-7.0429033348
21
-1.2857852648
31
0.0000000000
11
-7.0637669813
21
-1.2862139802
31
0.0000000000
0
SPLINE
5
33D
100
AcDbEntity
8
0
100
AcDbSpline
62
7
6
CONTINUOUS
70
0
71
3
72
23
73
19
74
17
42
0.0000001000
43
0.0000001000
44
0.0000000001
12
-0.0016781775
22
-0.7830196530
32
0.0000000000
13
-0.7830214514
23
0.0000000000
33
0.0000000000
40
0.0000000000
40
0.0000000000
40
0.0000000000
40
0.0000000000
40
0.0623789981
40
0.1247768651
40
0.1871961286
40
0.2496351476
40
0.3121005134
40
0.3745831819
40
0.4370912106
40
0.4996125463
40
0.5621526949
40
0.6247007933
40
0.6872583788
40
0.7498165396
40
0.8123751345
40
0.8749260664
40
0.9374708035
40
1.0000000000
40
1.0000000000
40
1.0000000000
40
1.0000000000
10
22.3315732928
20
-21.6977042895
30
0.0000000000
10
22.3315383985
20
-21.7139856166
30
0.0000000000
10
22.3298588042
20
-21.7465726080
30
0.0000000000
10
22.3225352954
20
-21.7949565377
30
0.0000000000
10
22.3104776981
20
-21.8424039312
30
0.0000000000
10
22.2938029165
20
-21.8884493696
30
0.0000000000
10
22.2726739646
20
-21.9326471111
30
0.0000000000
10
22.2472964228
20
-21.9745707770
30
0.0000000000
10
22.2179193587
20
-22.0138138740
30
0.0000000000
10
22.1848282330
20
-22.0500003543
30
0.0000000000
10
22.1483469688
20
-22.0827816029
30
0.0000000000
10
22.1088288838
20
-22.1118457317
30
0.0000000000
10
22.0666584085
20
-22.1369155683
30
0.0000000000
10
22.0222418156
20
-22.1577547830
30
0.0000000000
10
21.9760083897
20
-22.1741670450
30
0.0000000000
10
21.9283990392
20
-22.1859995867
30
0.0000000000
10
21.8798767372
20
-22.1931424992
30
0.0000000000
10
21.8472092179
20
-22.1947348166
30
0.0000000000
10
21.8308886505
20
-22.1947348166
30
0.0000000000
11
22.3315732928
21
-21.6977042895
31
0.0000000000
11
22.3290588151
21
-21.7464836179
31
0.0000000000
11
22.3217479077
21
-21.7947924127
31
0.0000000000
11
22.3097105558
21
-21.8421625364
31
0.0000000000
11
22.2930642740
21
-21.8881325278
31
0.0000000000
11
22.2719694381
21
-21.9322614795
31
0.0000000000
11
22.2466348939
21
-21.9741165019
31
0.0000000000
11
22.2173041494
21
-22.0132998263
31
0.0000000000
11
22.1842679289
21
-22.0494281216
31
0.0000000000
11
22.1478436531
21
-22.0821597616
31
0.0000000000
11
22.1083895284
21
-22.1111782018
31
0.0000000000
11
22.0662845829
21
-22.1362101633
31
0.0000000000
11
22.0219388405
21
-22.1570170083
31
0.0000000000
11
21.9757765895
21
-22.1734044898
31
0.0000000000
11
21.9282440354
21
-22.1852185264
31
0.0000000000
11
21.8797922668
21
-22.1923505765
31
0.0000000000
11
21.8308886505
21
-22.1947348166
31
0.0000000000
0
SPLINE
5
33E
100
AcDbEntity
8
0
100
AcDbSpline
62
7
6
CONTINUOUS
70
0
71
3
72
23
73
19
74
17
42
0.0000001000
43
0.0000001000
44
0.0000000001
12
-0.7830214514
22
0.0000000000
32
0.0000000000
13
-0.0016781775
23
0.7830196530
33
0.0000000000
40
0.0000000000
40
0.0000000000
40
0.0000000000
40
0.0000000000
40
0.0625291965
40
0.1250739336
40
0.1876248655
40
0.2501834604
40
0.3127416212
40
0.3752992067
40
0.4378473051
40
0.5003874537
40
0.5629087894
40
0.6254168181
40
0.6878994866
40
0.7503648524
40
0.8128038714
40
0.8752231349
40
0.9376210019
40
1.0000000000
40
1.0000000000
40
1.0000000000
40
1.0000000000
10
-21.8308886505
20
-22.1947348166
30
0.0000000000
10
-21.8472092179
20
-22.1947348166
30
0.0000000000
10
-21.8798767372
20
-22.1931424992
30
0.0000000000
10
-21.9283990392
20
-22.1859995867
30
0.0000000000
10
-21.9760083897
20
-22.1741670450
30
0.0000000000
10
-22.0222418156
20
-22.1577547830
30
0.0000000000
10
-22.0666584085
20
-22.1369155683
30
0.0000000000
10
-22.1088288838
20
-22.1118457317
30
0.0000000000
10
-22.1483469688
20
-22.0827816029
30
0.0000000000
10
-22.1848282330
20
-22.0500003543
30
0.0000000000
10
-22.2179193587
20
-22.0138138740
30
0.0000000000
10
-22.2472964228
20
-21.9745707770
30
0.0000000000
10
-22.2726739646
20
-21.9326471111
30
0.0000000000
10
-22.2938029165
20
-21.8884493696
30
0.0000000000
10
-22.3104776981
20
-21.8424039312
30
0.0000000000
10
-22.3225352954
20
-21.7949565377
30
0.0000000000
10
-22.3298588042
20
-21.7465726080
30
0.0000000000
10
-22.3315383985
20
-21.7139856166
30
0.0000000000
10
-22.3315732928
20
-21.6977042895
30
0.0000000000
11
-21.8308886505
21
-22.1947348166
31
0.0000000000
11
-21.8797922668
21
-22.1923505765
31
0.0000000000
11
-21.9282440354
21
-22.1852185264
31
0.0000000000
11
-21.9757765895
21
-22.1734044898
31
0.0000000000
11
-22.0219388405
21
-22.1570170083
31
0.0000000000
11
-22.0662845829
21
-22.1362101633
31
0.0000000000
11
-22.1083895284
21
-22.1111782018
31
0.0000000000
11
-22.1478436531
21
-22.0821597616
31
0.0000000000
11
-22.1842679289
21
-22.0494281216
31
0.0000000000
11
-22.2173041494
21
-22.0132998263
31
0.0000000000
11
-22.2466348939
21
-21.9741165019
31
0.0000000000
11
-22.2719694381
21
-21.9322614795
31
0.0000000000
11
-22.2930642740
21
-21.8881325278
31
0.0000000000
11
-22.3097105558
21
-21.8421625364
31
0.0000000000
11
-22.3217479077
21
-21.7947924127
31
0.0000000000
11
-22.3290588151
21
-21.7464836179
31
0.0000000000
11
-22.3315732928
21
-21.6977042895
31
0.0000000000
0
SPLINE
5
33F
100
AcDbEntity
8
0
100
AcDbSpline
62
7
6
CONTINUOUS
70
0
71
3
72
10
73
6
74
4
42
0.0000001000
43
0.0000001000
44
0.0000000001
12
-0.0078302189
22
0.0627158223
32
0.0000000000
13
0.0000000000
23
0.0632027428
33
0.0000000000
40
0.0000000000
40
0.0000000000
40
0.0000000000
40
0.0000000000
40
0.3371715920
40
0.6698236531
40
1.0000000000
40
1.0000000000
40
1.0000000000
40
1.0000000000
10
-15.9322903819
20
-0.8492776800
30
0.0000000000
10
-15.9331704244
20
-0.8422290155
30
0.0000000000
10
-15.9346263273
20
-0.8281877849
30
0.0000000000
10
-15.9359268398
20
-0.8071549864
30
0.0000000000
10
-15.9362139802
20
-0.7931890356
30
0.0000000000
10
-15.9362139802
20
-0.7862330187
30
0.0000000000
11
-15.9322903819
21
-0.8492776800
31
0.0000000000
11
-15.9344879740
21
-0.8280811258
31
0.0000000000
11
-15.9357852648
21
-0.8070966652
31
0.0000000000
11
-15.9362139802
21
-0.7862330187
31
0.0000000000
0
SPLINE
5
340
100
AcDbEntity
8
0
100
AcDbSpline
62
7
6
CONTINUOUS
70
0
71
3
72
10
73
6
74
4
42
0.0000001000
43
0.0000001000
44
0.0000000001
12
0.0078302189
22
0.0627158223
32
0.0000000000
13
-0.0000000000
23
0.0632027428
33
0.0000000000
40
0.0000000000
40
0.0000000000
40
0.0000000000
40
0.0000000000
40
0.3371715920
40
0.6698236531
40
1.0000000000
40
1.0000000000
40
1.0000000000
40
1.0000000000
10
-6.5677096181
20
-0.8492776800
30
0.0000000000
10
-6.5668295756
20
-0.8422290155
30
0.0000000000
10
-6.5653736727
20
-0.8281877849
30
0.0000000000
10
-6.5640731602
20
-0.8071549864
30
0.0000000000
10
-6.5637860198
20
-0.7931890356
30
0.0000000000
10
-6.5637860198
20
-0.7862330187
30
0.0000000000
11
-6.5677096181
21
-0.8492776800
31
0.0000000000
11
-6.5655120260
21
-0.8280811258
31
0.0000000000
11
-6.5642147352
21
-0.8070966652
31
0.0000000000
11
-6.5637860198
21
-0.7862330187
31
0.0000000000
0
SPLINE
5
341
100
AcDbEntity
8
0
100
AcDbSpline
62
7
6
CONTINUOUS
70
0
71
3
72
21
73
17
74
15
42
0.0000001000
43
0.0000001000
44
0.0000000001
12
0.3924734050
22
0.0000000000
32
0.0000000000
13
0.0000000000
23
-0.3924734050
33
0.0000000000
40
0.0000000000
40
0.0000000000
40
0.0000000000
40
0.0000000000
40
0.0712061031
40
0.1428002435
40
0.2142646353
40
0.2854439293
40
0.3570403704
40
0.4287335384
40
0.5000521553
40
0.5713646493
40
0.6430464088
40
0.7146385736
40
0.7858112753
40
0.8572465513
40
0.9288136740
40
1.0000000000
40
1.0000000000
40
1.0000000000
40
1.0000000000
10
22.0999999985
20
-0.1000000000
30
0.0000000000
10
22.1093154991
20
-0.1000000000
30
0.0000000000
10
22.1280140459
20
-0.1010460669
30
0.0000000000
10
22.1557057921
20
-0.1057439553
30
0.0000000000
10
22.1826963564
20
-0.1135157699
30
0.0000000000
10
22.2086478022
20
-0.1242557354
30
0.0000000000
10
22.2332618038
20
-0.1378469396
30
0.0000000000
10
22.2562087491
20
-0.1541270318
30
0.0000000000
10
22.2771579919
20
-0.1728513723
30
0.0000000000
10
22.2958815895
20
-0.1937992650
30
0.0000000000
10
22.3121604254
20
-0.2167435879
30
0.0000000000
10
22.3257505458
20
-0.2413548693
30
0.0000000000
10
22.3364884474
20
-0.2673015183
30
0.0000000000
10
22.3442578554
20
-0.2942842004
30
0.0000000000
10
22.3489542061
20
-0.3219661080
30
0.0000000000
10
22.3500000000
20
-0.3406585301
30
0.0000000000
10
22.3500000000
20
-0.3499714434
30
0.0000000000
11
22.0999999985
21
-0.1000000000
31
0.0000000000
11
22.1279028351
21
-0.1015616253
31
0.0000000000
11
22.1556058734
21
-0.1062609876
31
0.0000000000
11
22.1825585693
21
-0.1140221330
31
0.0000000000
11
22.2083713957
21
-0.1247046872
31
0.0000000000
11
22.2329701479
21
-0.1382875615
31
0.0000000000
11
22.2559188904
21
-0.1545689381
31
0.0000000000
11
22.2767884371
21
-0.1732220637
31
0.0000000000
11
22.2954401885
21
-0.1940896155
31
0.0000000000
11
22.3117193445
21
-0.2170344436
31
0.0000000000
11
22.3253016971
21
-0.2416315666
31
0.0000000000
11
22.3359831696
21
-0.2674420406
31
0.0000000000
11
22.3437410064
21
-0.2943837976
31
0.0000000000
11
22.3484387093
21
-0.3220763623
31
0.0000000000
11
22.3500000000
21
-0.3499714434
31
0.0000000000
0
SPLINE
5
342
100
AcDbEntity
8
0
100
AcDbSpline
62
7
6
CONTINUOUS
70
0
71
3
72
21
73
17
74
15
42
0.0000001000
43
0.0000001000
44
0.0000000001
12
0.0000000000
22
0.3924734050
32
0.0000000000
13
0.3924734050
23
0.0000000000
33
0.0000000000
40
0.0000000000
40
0.0000000000
40
0.0000000000
40
0.0000000000
40
0.0711885173
40
0.1427664398
40
0.2142165951
40
0.2853838553
40
0.3569710252
40
0.4286585982
40
0.4999756426
40
0.5712897053
40
0.6429770453
40
0.7145784758
40
0.7857632227
40
0.8572127540
40
0.9287960992
40
1.0000000000
40
1.0000000000
40
1.0000000000
40
1.0000000000
10
-22.3500000000
20
-0.3499714434
30
0.0000000000
10
-22.3500000000
20
-0.3406582435
30
0.0000000000
10
-22.3489540788
20
-0.3219641201
30
0.0000000000
10
-22.3442567840
20
-0.2942786492
30
0.0000000000
10
-22.3364857667
20
-0.2672936405
30
0.0000000000
10
-22.3257466199
20
-0.2413468891
30
0.0000000000
10
-22.3121560259
20
-0.2167365718
30
0.0000000000
10
-22.2958760426
20
-0.1937921866
30
0.0000000000
10
-22.2771510909
20
-0.1728444718
30
0.0000000000
10
-22.2562016726
20
-0.1541214872
30
0.0000000000
10
-22.2332547926
20
-0.1378425437
30
0.0000000000
10
-22.2086398284
20
-0.1242518129
30
0.0000000000
10
-22.1826884823
20
-0.1135130905
30
0.0000000000
10
-22.1557002403
20
-0.1057428837
30
0.0000000000
10
-22.1280120557
20
-0.1010459393
30
0.0000000000
10
-22.1093152110
20
-0.1000000000
30
0.0000000000
10
-22.0999999985
20
-0.1000000000
30
0.0000000000
11
-22.3500000000
21
-0.3499714434
31
0.0000000000
11
-22.3484386132
21
-0.3220755063
31
0.0000000000
11
-22.3437398708
21
-0.2943788188
31
0.0000000000
11
-22.3359795522
21
-0.2674316994
31
0.0000000000
11
-22.3252978756
21
-0.2416236212
31
0.0000000000
11
-22.3117156996
21
-0.2170286400
31
0.0000000000
11
-22.2954344894
21
-0.1940824719
31
0.0000000000
11
-22.2767807102
21
-0.1732143372
31
0.0000000000
11
-22.2559117477
21
-0.1545632403
31
0.0000000000
11
-22.2329643502
21
-0.1382839208
31
0.0000000000
11
-22.2083634585
21
-0.1247008701
31
0.0000000000
11
-22.1825482325
21
-0.1140185175
31
0.0000000000
11
-22.1556008921
21
-0.1062598515
31
0.0000000000
11
-22.1279019748
21
-0.1015615287
31
0.0000000000
11
-22.0999999985
21
-0.1000000000
31
0.0000000000
0
SPLINE
5
343
100
AcDbEntity
8
0
100
AcDbSpline
62
7
6
CONTINUOUS
70
0
71
3
72
10
73
6
74
4
42
0.0000001000
43
0.0000001000
44
0.0000000001
12
0.0000000678
22
-0.0008878840
32
0.0000000000
13
0.0000000000
23
-0.0008878840
33
0.0000000000
40
0.0000000000
40
0.0000000000
40
0.0000000000
40
0.0000000000
40
0.3333222604
40
0.6666549605
40
1.0000000000
40
1.0000000000
40
1.0000000000
40
1.0000000000
10
-15.9362140141
20
-0.3362063987
30
0.0000000000
10
-15.9362140066
20
-0.3363050492
30
0.0000000000
10
-15.9362139940
20
-0.3365023533
30
0.0000000000
10
-15.9362139828
20
-0.3367983146
30
0.0000000000
10
-15.9362139802
20
-0.3369956255
30
0.0000000000
10
-15.9362139802
20
-0.3370942827
30
0.0000000000
11
-15.9362140141
21
-0.3362063987
31
0.0000000000
11
-15.9362139953
21
-0.3365023502
31
0.0000000000
11
-15.9362139840
21
-0.3367983110
31
0.0000000000
11
-15.9362139802
21
-0.3370942827
31
0.0000000000
0
SPLINE
5
344
100
AcDbEntity
8
0
100
AcDbSpline
62
7
6
CONTINUOUS
70
0
71
3
72
10
73
6
74
4
42
0.0000001000
43
0.0000001000
44
0.0000000001
12
-0.0000000678
22
-0.0008878840
32
0.0000000000
13
-0.0000000000
23
-0.0008878840
33
0.0000000000
40
0.0000000000
40
0.0000000000
40
0.0000000000
40
0.0000000000
40
0.3333222604
40
0.6666549605
40
1.0000000000
40
1.0000000000
40
1.0000000000
40
1.0000000000
10
-6.5637859859
20
-0.3362063987
30
0.0000000000
10
-6.5637859934
20
-0.3363050492
30
0.0000000000
10
-6.5637860060
20
-0.3365023533
30
0.0000000000
10
-6.5637860172
20
-0.3367983146
30
0.0000000000
10
-6.5637860198
20
-0.3369956255
30
0.0000000000
10
-6.5637860198
20
-0.3370942827
30
0.0000000000
11
-6.5637859859
21
-0.3362063987
31
0.0000000000
11
-6.5637860047
21
-0.3365023502
31
0.0000000000
11
-6.5637860160
21
-0.3367983110
31
0.0000000000
11
-6.5637860198
21
-0.3370942827
31
0.0000000000
0
SPLINE
5
345
100
AcDbEntity
8
0
100
AcDbSpline
62
9
6
CONTINUOUS
70
0
71
3
72
19
73
15
74
13
42
0.0000001000
43
0.0000001000
44
0.0000000001
12
-0.2000008301
22
0.0000000000
32
0.0000000000
13
-0.0000000001
23
0.2000008301
33
0.0000000000
40
0.0000000000
40
0.0000000000
40
0.0000000000
40
0.0000000000
40
0.1305256965
40
0.2588180560
40
0.3826819658
40
0.4999980866
40
0.6087591156
40
0.7071041327
40
0.7933504420
40
0.8660223663
40
0.9238765022
40
0.9659230151
40
0.9914426590
40
1.0000000000
40
1.0000000000
40
1.0000000000
40
1.0000000000
10
16.1000000000
20
-0.7503001200
30
0.0000000000
10
16.0912982508
20
-0.7503001200
30
0.0000000000
10
16.0740436669
20
-0.7502984137
30
0.0000000000
10
16.0485313219
20
-0.7502909697
30
0.0000000000
10
16.0239001081
20
-0.7502781798
30
0.0000000000
10
16.0005693171
20
-0.7502623342
30
0.0000000000
10
15.9789454012
20
-0.7502367982
30
0.0000000000
10
15.9593747185
20
-0.7502246112
30
0.0000000000
10
15.9422659808
20
-0.7501555349
30
0.0000000000
10
15.9276928712
20
-0.7502400252
30
0.0000000000
10
15.9165100660
20
-0.7498989383
30
0.0000000000
10
15.9074033473
20
-0.7505762536
30
0.0000000000
10
15.9036550668
20
-0.7492771824
30
0.0000000000
10
15.9000000000
20
-0.7505704918
30
0.0000000000
10
15.9000000000
20
-0.7500000000
30
0.0000000000
11
16.1000000000
21
-0.7503001200
31
0.0000000000
11
16.0738947525
21
-0.7502975525
31
0.0000000000
11
16.0482361752
21
-0.7502898937
31
0.0000000000
11
16.0234632937
21
-0.7502772748
31
0.0000000000
11
15.9999999785
21
-0.7502599116
31
0.0000000000
11
15.9782476934
21
-0.7502381012
31
0.0000000000
11
15.9585786253
21
-0.7502122169
31
0.0000000000
11
15.9413293171
21
-0.7501827015
31
0.0000000000
11
15.9267949086
21
-0.7501500600
31
0.0000000000
11
15.9152240870
21
-0.7501148509
31
0.0000000000
11
15.9068148317
21
-0.7500776768
31
0.0000000000
11
15.9017110269
21
-0.7500391735
31
0.0000000000
11
15.9000000000
21
-0.7500000000
31
0.0000000000
0
SPLINE
5
346
100
AcDbEntity
8
0
100
AcDbSpline
62
9
6
CONTINUOUS
70
0
71
3
72
19
73
15
74
13
42
0.0000001000
43
0.0000001000
44
0.0000000001
12
-0.3052058311
22
-0.0000000000
32
0.0000000000
13
-0.0133319213
23
-0.3051134243
33
0.0000000000
40
0.0000000000
40
0.0000000000
40
0.0000000000
40
0.0000000000
40
0.0857167807
40
0.1714334482
40
0.2571498970
40
0.3428660362
40
0.4285817965
40
0.5142971338
40
0.6000120333
40
0.6857265094
40
0.7714406058
40
0.8571543916
40
0.9428679572
40
1.0000000000
40
1.0000000000
40
1.0000000000
40
1.0000000000
10
16.1000000000
20
-0.1475790882
30
0.0000000000
10
16.0912795796
20
-0.1475790882
30
0.0000000000
10
16.0738172232
20
-0.1487229915
30
0.0000000000
10
16.0480889322
20
-0.1538411986
30
0.0000000000
10
16.0232442298
20
-0.1622741838
30
0.0000000000
10
15.9997140779
20
-0.1738776572
30
0.0000000000
10
15.9778995131
20
-0.1884530782
30
0.0000000000
10
15.9581742097
20
-0.2057510660
30
0.0000000000
10
15.9408755605
20
-0.2254756170
30
0.0000000000
10
15.9262995807
20
-0.2472893517
30
0.0000000000
10
15.9146956616
20
-0.2708186101
30
0.0000000000
10
15.9062623520
20
-0.2956623708
30
0.0000000000
10
15.9017128626
20
-0.3185300749
30
0.0000000000
10
15.9004445066
20
-0.3330373595
30
0.0000000000
10
15.9001906133
20
-0.3388479439
30
0.0000000000
11
16.1000000000
21
-0.1475790882
31
0.0000000000
11
16.0738947478
21
-0.1492900526
31
0.0000000000
11
16.0482361650
21
-0.1543936704
31
0.0000000000
11
16.0234632783
21
-0.1628026166
31
0.0000000000
11
15.9999999594
21
-0.1743730106
31
0.0000000000
11
15.9782476726
21
-0.1889068784
31
0.0000000000
11
15.9585786051
21
-0.2061555401
31
0.0000000000
11
15.9413292996
21
-0.2258238651
31
0.0000000000
11
15.9267948952
21
-0.2475753221
31
0.0000000000
11
15.9152240783
21
-0.2710377372
31
0.0000000000
11
15.9068148274
21
-0.2958096622
31
0.0000000000
11
15.9017110258
21
-0.3214672432
31
0.0000000000
11
15.9001906133
21
-0.3388479439
31
0.0000000000
0
SPLINE
5
347
100
AcDbEntity
8
0
100
AcDbSpline
62
9
6
CONTINUOUS
70
0
71
3
72
8
73
4
74
2
42
0.0000001000
43
0.0000001000
44
0.0000000001
12
-0.0003810451
22
-0.0087205712
32
0.0000000000
13
0.0000000000
23
-0.0087232123
33
0.0000000000
40
0.0000000000
40
0.0000000000
40
0.0000000000
40
0.0000000000
40
1.0000000000
40
1.0000000000
40
1.0000000000
40
1.0000000000
10
15.9001906133
20
-0.3388479439
30
0.0000000000
10
15.9000635983
20
-0.3417548010
30
0.0000000000
10
15.9000000000
20
-0.3446637354
30
0.0000000000
10
15.9000000000
20
-0.3475714728
30
0.0000000000
11
15.9001906133
21
-0.3388479439
31
0.0000000000
11
15.9000000000
21
-0.3475714728
31
0.0000000000
0
SPLINE
5
348
100
AcDbEntity
8
0
100
AcDbSpline
62
9
6
CONTINUOUS
70
0
71
3
72
25
73
21
74
19
42
0.0000001000
43
0.0000001000
44
0.0000000001
12
-1.0993875931
22
0.0000112115
32
0.0000000000
13
-0.0000274464
23
1.0993875929
33
0.0000000000
40
0.0000000000
40
0.0000000000
40
0.0000000000
40
0.0000000000
40
0.0550513991
40
0.1105051375
40
0.1661718905
40
0.2218958160
40
0.2775409437
40
0.3330964673
40
0.3886521129
40
0.4442572516
40
0.4998907616
40
0.5555276008
40
0.6111428213
40
0.6667169884
40
0.7223032102
40
0.7779893467
40
0.8337541782
40
0.8894531056
40
0.9449297238
40
1.0000000000
40
1.0000000000
40
1.0000000000
40
1.0000000000
10
-15.4480124517
20
-1.4985852320
30
0.0000000000
10
-15.4681867268
20
-1.4985850262
30
0.0000000000
10
-15.5087045001
20
-1.4968319647
30
0.0000000000
10
-15.5691584758
20
-1.4889218684
30
0.0000000000
10
-15.6289386276
20
-1.4757167760
30
0.0000000000
10
-15.6874014343
20
-1.4573152591
30
0.0000000000
10
-15.7439947857
20
-1.4338906015
30
0.0000000000
10
-15.7982731842
20
-1.4056457090
30
0.0000000000
10
-15.8498701478
20
-1.3727842061
30
0.0000000000
10
-15.8984273672
20
-1.3355304901
30
0.0000000000
10
-15.9435703683
20
-1.2941613255
30
0.0000000000
10
-15.9849327685
20
-1.2490071173
30
0.0000000000
10
-16.0221839517
20
-1.2004332093
30
0.0000000000
10
-16.0550474265
20
-1.1488117310
30
0.0000000000
10
-16.0832979183
20
-1.0944989412
30
0.0000000000
10
-16.1067286535
20
-1.0378633924
30
0.0000000000
10
-16.1251332816
20
-0.9793577079
30
0.0000000000
10
-16.1383379990
20
-0.9195414859
30
0.0000000000
10
-16.1462464568
20
-0.8590600376
30
0.0000000000
10
-16.1479993248
20
-0.8185270136
30
0.0000000000
10
-16.1479998286
20
-0.7983458208
30
0.0000000000
11
-15.4480124517
21
-1.4985852320
31
0.0000000000
11
-15.5084786576
21
-1.4959679225
31
0.0000000000
11
-15.5689286343
21
-1.4880590615
31
0.0000000000
11
-15.6286873239
21
-1.4748583818
31
0.0000000000
11
-15.6871232582
21
-1.4564655085
31
0.0000000000
11
-15.7436481403
21
-1.4330692008
31
0.0000000000
11
-15.7978285412
21
-1.4048753964
31
0.0000000000
11
-15.8493448006
21
-1.3720653697
31
0.0000000000
11
-15.8978464842
21
-1.3348543612
31
0.0000000000
11
-15.9429388754
21
-1.2935316891
31
0.0000000000
11
-15.9842548975
21
-1.2484282413
31
0.0000000000
11
-16.0214631419
21
-1.1999104684
31
0.0000000000
11
-16.0542745484
21
-1.1483709476
31
0.0000000000
11
-16.0824744007
21
-1.0941556499
31
0.0000000000
11
-16.1058783483
21
-1.0375851370
31
0.0000000000
11
-16.1242753900
21
-0.9791033688
31
0.0000000000
11
-16.1374758025
21
-0.9193083959
31
0.0000000000
11
-16.1453828456
21
-0.8588328135
31
0.0000000000
11
-16.1479998286
21
-0.7983458208
31
0.0000000000
0
SPLINE
5
349
100
AcDbEntity
8
0
100
AcDbSpline
62
9
6
CONTINUOUS
70
0
71
3
72
25
73
21
74
19
42
0.0000001000
43
0.0000001000
44
0.0000000001
12
-0.0000265199
22
-1.0993875929
32
0.0000000000
13
-1.0993875932
23
-0.0000121421
33
0.0000000000
40
0.0000000000
40
0.0000000000
40
0.0000000000
40
0.0000000000
40
0.0550985848
40
0.1105978349
40
0.1663070000
40
0.2220689848
40
0.2777467506
40
0.3333288327
40
0.3889041683
40
0.4445213501
40
0.5001589074
40
0.5557917065
40
0.6113948885
40
0.6669493747
40
0.7225090599
40
0.7781625734
40
0.8338893383
40
0.8895458446
40
0.9449769416
40
1.0000000000
40
1.0000000000
40
1.0000000000
40
1.0000000000
10
-6.3520001714
20
-0.7983458208
30
0.0000000000
10
-6.3520006584
20
-0.8185373877
30
0.0000000000
10
-6.3537552629
20
-0.8590891139
30
0.0000000000
10
-6.3616704470
20
-0.9195923785
30
0.0000000000
10
-6.3748827802
20
-0.9794182311
30
0.0000000000
10
-6.3932928064
20
-1.0379218313
30
0.0000000000
10
-6.4167261851
20
-1.0945501606
30
0.0000000000
10
-6.4449788383
20
-1.1488571224
30
0.0000000000
10
-6.4778458761
20
-1.2004758974
30
0.0000000000
10
-6.5151015804
20
-1.2490481245
30
0.0000000000
10
-6.5564679654
20
-1.2941996645
30
0.0000000000
10
-6.6016136406
20
-1.3355648492
30
0.0000000000
10
-6.6501725485
20
-1.3728140478
30
0.0000000000
10
-6.7017722279
20
-1.4056719932
30
0.0000000000
10
-6.7560564715
20
-1.4339147295
30
0.0000000000
10
-6.8126570552
20
-1.4573367430
30
0.0000000000
10
-6.8711219480
20
-1.4757328554
30
0.0000000000
10
-6.9308924616
20
-1.4889303235
30
0.0000000000
10
-6.9913246033
20
-1.4968336863
30
0.0000000000
10
-7.0318236590
20
-1.4985850093
30
0.0000000000
10
-7.0519875483
20
-1.4985852320
30
0.0000000000
11
-6.3520001714
21
-0.7983458208
31
0.0000000000
11
-6.3546198536
21
-0.8588638480
31
0.0000000000
11
-6.3625339162
21
-0.9193636055
31
0.0000000000
11
-6.3757420084
21
-0.9791684089
31
0.0000000000
11
-6.3941436038
21
-1.0376454634
31
0.0000000000
11
-6.4175488409
21
-1.0942054835
31
0.0000000000
11
-6.4457506706
21
-1.1484146228
31
0.0000000000
11
-6.4785665220
21
-1.1999528363
31
0.0000000000
11
-6.5157797326
21
-1.2484695177
31
0.0000000000
11
-6.5570997797
21
-1.2935703491
31
0.0000000000
11
-6.6021947940
21
-1.3348890016
31
0.0000000000
11
-6.6506975745
21
-1.3720950461
31
0.0000000000
11
-6.7022151510
21
-1.4049006316
31
0.0000000000
11
-6.7564017339
21
-1.4330924671
31
0.0000000000
11
-6.8129371265
21
-1.4564874870
31
0.0000000000
11
-6.8713777691
21
-1.4748757981
31
0.0000000000
11
-6.9311266201
21
-1.4880687899
31
0.0000000000
11
-6.9915524120
21
-1.4959706251
31
0.0000000000
11
-7.0519875483
21
-1.4985852320
31
0.0000000000
0
SPLINE
5
34A
100
AcDbEntity
8
0
100
AcDbSpline
62
9
6
CONTINUOUS
70
0
71
3
72
20
73
16
74
14
42
0.0000001000
43
0.0000001000
44
0.0000000001
12
-0.2138639108
22
0.0004696624
32
0.0000000000
13
-0.0078909768
23
0.2137187998
33
0.0000000000
40
0.0000000000
40
0.0000000000
40
0.0000000000
40
0.0000000000
40
0.1098504560
40
0.2184939487
40
0.3247162776
40
0.4270335388
40
0.5240365780
40
0.6145374773
40
0.6975210960
40
0.7716902224
40
0.8363246057
40
0.8907869324
40
0.9352405215
40
0.9706161836
40
1.0000000000
40
1.0000000000
40
1.0000000000
40
1.0000000000
10
-6.3520014432
20
-0.3977667143
30
0.0000000000
10
-6.3598324592
20
-0.3977495167
30
0.0000000000
10
-6.3754089440
20
-0.3974883334
30
0.0000000000
10
-6.3985357962
20
-0.3964152358
30
0.0000000000
10
-6.4210838609
20
-0.3946734596
30
0.0000000000
10
-6.4427376885
20
-0.3922782741
30
0.0000000000
10
-6.4631821512
20
-0.3892609847
30
0.0000000000
10
-6.4821314246
20
-0.3856564500
30
0.0000000000
10
-6.4993008777
20
-0.3815101338
30
0.0000000000
10
-6.5144317591
20
-0.3768802176
30
0.0000000000
10
-6.5272666914
20
-0.3718261314
30
0.0000000000
10
-6.5376420928
20
-0.3664360891
30
0.0000000000
10
-6.5453836191
20
-0.3607196026
30
0.0000000000
10
-6.5504918750
20
-0.3546891033
30
0.0000000000
10
-6.5519107644
20
-0.3500976225
30
0.0000000000
10
-6.5519880534
20
-0.3480043312
30
0.0000000000
11
-6.3520014432
21
-0.3977667143
31
0.0000000000
11
-6.3754912048
21
-0.3973703944
31
0.0000000000
11
-6.3987009165
21
-0.3962871124
31
0.0000000000
11
-6.4213496488
21
-0.3945249897
31
0.0000000000
11
-6.4430970578
21
-0.3921015406
31
0.0000000000
11
-6.4636164512
21
-0.3890469971
31
0.0000000000
11
-6.4826237090
21
-0.3853949850
31
0.0000000000
11
-6.4998635116
21
-0.3811814498
31
0.0000000000
11
-6.5150104393
21
-0.3764720981
31
0.0000000000
11
-6.5278379695
21
-0.3713214022
31
0.0000000000
11
-6.5381033676
21
-0.3658180286
31
0.0000000000
11
-6.5456377607
21
-0.3600200328
31
0.0000000000
11
-6.5502916680
21
-0.3540551870
31
0.0000000000
11
-6.5519880534
21
-0.3480043312
31
0.0000000000
0
SPLINE
5
34B
100
AcDbEntity
8
0
100
AcDbSpline
62
9
6
CONTINUOUS
70
0
71
3
72
19
73
15
74
13
42
0.0000001000
43
0.0000001000
44
0.0000000001
12
-0.1999933720
22
0.0000027865
32
0.0000000000
13
-0.1967272248
23
0.0359964979
33
0.0000000000
40
0.0000000000
40
0.0000000000
40
0.0000000000
40
0.0000000000
40
0.1298095061
40
0.2574225285
40
0.3806797363
40
0.4974955036
40
0.6058932014
40
0.7040386447
40
0.7902711298
40
0.8631315388
40
0.9213870357
40
0.9640519479
40
0.9904045296
40
1.0000000000
40
1.0000000000
40
1.0000000000
40
1.0000000000
10
-6.3520001714
20
-0.7983458207
30
0.0000000000
10
-6.3606538517
20
-0.7983457001
30
0.0000000000
10
-6.3778147845
20
-0.7983436868
30
0.0000000000
10
-6.4031925930
20
-0.7983354033
30
0.0000000000
10
-6.4277041713
20
-0.7983219283
30
0.0000000000
10
-6.4509347923
20
-0.7983037908
30
0.0000000000
10
-6.4724912612
20
-0.7982803525
30
0.0000000000
10
-6.4920091813
20
-0.7982552092
30
0.0000000000
10
-6.5091571641
20
-0.7982189558
30
0.0000000000
10
-6.5236484043
20
-0.7982017958
30
0.0000000000
10
-6.5352283821
20
-0.7981224482
30
0.0000000000
10
-6.5437245336
20
-0.7981881706
30
0.0000000000
10
-6.5489438672
20
-0.7979667470
30
0.0000000000
10
-6.5513634433
20
-0.7981416169
30
0.0000000000
10
-6.5519926734
20
-0.7980264825
30
0.0000000000
11
-6.3520001714
21
-0.7983458207
31
0.0000000000
11
-6.3779612120
21
-0.7983427572
31
0.0000000000
11
-6.4034829693
21
-0.7983343421
31
0.0000000000
11
-6.4281335902
21
-0.7983207176
31
0.0000000000
11
-6.4514959620
21
-0.7983021145
31
0.0000000000
11
-6.4731747706
21
-0.7982788473
31
0.0000000000
11
-6.4928031894
21
-0.7982513099
31
0.0000000000
11
-6.5100490864
21
-0.7982199682
31
0.0000000000
11
-6.5246206442
21
-0.7981853526
31
0.0000000000
11
-6.5362712977
21
-0.7981480487
31
0.0000000000
11
-6.5448039066
21
-0.7981086877
31
0.0000000000
11
-6.5500740907
21
-0.7980679358
31
0.0000000000
11
-6.5519926734
21
-0.7980264825
31
0.0000000000
0
SPLINE
5
34C
100
AcDbEntity
8
0
100
AcDbSpline
62
9
6
CONTINUOUS
70
0
71
3
72
19
73
15
74
13
42
0.0000001000
43
0.0000001000
44
0.0000000001
12
0.1999932546
22
0.0000027867
32
0.0000000000
13
0.1967271021
23
0.0359965161
33
0.0000000000
40
0.0000000000
40
0.0000000000
40
0.0000000000
40
0.0000000000
40
0.1298095386
40
0.2574225814
40
0.3806797992
40
0.4974955683
40
0.6058932617
40
0.7040386962
40
0.7902711703
40
0.8631315675
40
0.9213870534
40
0.9640519565
40
0.9904045322
40
1.0000000000
40
1.0000000000
40
1.0000000000
40
1.0000000000
10
-16.1479998286
20
-0.7983458208
30
0.0000000000
10
-16.1393461513
20
-0.7983457002
30
0.0000000000
10
-16.1221852250
20
-0.7983436869
30
0.0000000000
10
-16.0968074272
20
-0.7983354034
30
0.0000000000
10
-16.0722958611
20
-0.7983219283
30
0.0000000000
10
-16.0490652532
20
-0.7983037908
30
0.0000000000
10
-16.0275087978
20
-0.7982803525
30
0.0000000000
10
-16.0079908907
20
-0.7982552092
30
0.0000000000
10
-15.9908429202
20
-0.7982189557
30
0.0000000000
10
-15.9763516907
20
-0.7982017957
30
0.0000000000
10
-15.9647717218
20
-0.7981224482
30
0.0000000000
10
-15.9562755771
20
-0.7981881706
30
0.0000000000
10
-15.9510562477
20
-0.7979667469
30
0.0000000000
10
-15.9486366735
20
-0.7981416170
30
0.0000000000
10
-15.9480074440
20
-0.7980264825
30
0.0000000000
11
-16.1479998286
21
-0.7983458208
31
0.0000000000
11
-16.1220387967
21
-0.7983427573
31
0.0000000000
11
-16.0965170503
21
-0.7983343421
31
0.0000000000
11
-16.0718664420
21
-0.7983207177
31
0.0000000000
11
-16.0485040835
21
-0.7983021145
31
0.0000000000
11
-16.0268252885
21
-0.7982788473
31
0.0000000000
11
-16.0071968830
21
-0.7982513099
31
0.0000000000
11
-15.9899509983
21
-0.7982199682
31
0.0000000000
11
-15.9753794514
21
-0.7981853526
31
0.0000000000
11
-15.9637288070
21
-0.7981480487
31
0.0000000000
11
-15.9551962049
21
-0.7981086877
31
0.0000000000
11
-15.9499260251
21
-0.7980679358
31
0.0000000000
11
-15.9480074440
21
-0.7980264825
31
0.0000000000
0
SPLINE
5
34D
100
AcDbEntity
8
0
100
AcDbSpline
62
9
6
CONTINUOUS
70
0
71
3
72
19
73
15
74
13
42
0.0000001000
43
0.0000001000
44
0.0000000001
12
0.3139155005
22
-0.0000239054
32
0.0000000000
13
0.0000239054
23
-0.3139155005
33
0.0000000000
40
0.0000000000
40
0.0000000000
40
0.0000000000
40
0.0000000000
40
0.0833317219
40
0.1666642438
40
0.2499974830
40
0.3333313078
40
0.4166655467
40
0.5000000000
40
0.5833344533
40
0.6666686922
40
0.7500025170
40
0.8333357562
40
0.9166682781
40
1.0000000000
40
1.0000000000
40
1.0000000000
40
1.0000000000
10
-16.1475714728
20
-0.1475790882
30
0.0000000000
10
-16.1388517664
20
-0.1475797522
30
0.0000000000
10
-16.1213908336
20
-0.1487248914
30
0.0000000000
10
-16.0956647391
20
-0.1538445779
30
0.0000000000
10
-16.0708220805
20
-0.1622786582
30
0.0000000000
10
-16.0472937404
20
-0.1738828351
30
0.0000000000
10
-16.0254806819
20
-0.1884585744
30
0.0000000000
10
-16.0057565140
20
-0.2057565140
30
0.0000000000
10
-15.9884585744
20
-0.2254806819
30
0.0000000000
10
-15.9738828351
20
-0.2472937404
30
0.0000000000
10
-15.9622786582
20
-0.2708220805
30
0.0000000000
10
-15.9538445779
20
-0.2956647391
30
0.0000000000
10
-15.9487248914
20
-0.3213908336
30
0.0000000000
10
-15.9475797522
20
-0.3388517664
30
0.0000000000
10
-15.9475790882
20
-0.3475714728
30
0.0000000000
11
-16.1475714728
21
-0.1475790882
31
0.0000000000
11
-16.1214684866
21
-0.1492918729
31
0.0000000000
11
-16.0958120865
21
-0.1543969481
31
0.0000000000
11
-16.0710412181
21
-0.1628069730
31
0.0000000000
11
-16.0475796768
21
-0.1743780635
31
0.0000000000
11
-16.0258288571
21
-0.1889122545
31
0.0000000000
11
-16.0061608858
21
-0.2061608858
31
0.0000000000
11
-15.9889122545
21
-0.2258288571
31
0.0000000000
11
-15.9743780635
21
-0.2475796768
31
0.0000000000
11
-15.9628069730
21
-0.2710412181
31
0.0000000000
11
-15.9543969481
21
-0.2958120865
31
0.0000000000
11
-15.9492918729
21
-0.3214684866
31
0.0000000000
11
-15.9475790882
21
-0.3475714728
31
0.0000000000
0
SPLINE
5
34E
100
AcDbEntity
8
0
100
AcDbSpline
62
9
6
CONTINUOUS
70
0
71
3
72
20
73
16
74
14
42
0.0000001000
43
0.0000001000
44
0.0000000001
12
-0.3140720596
22
-0.0000888754
32
0.0000000000
13
0.0006007659
23
-0.3140714976
33
0.0000000000
40
0.0000000000
40
0.0000000000
40
0.0000000000
40
0.0000000000
40
0.0753273185
40
0.1507748544
40
0.2265173619
40
0.3025173901
40
0.3787416682
40
0.4552645698
40
0.5322843653
40
0.6095831688
40
0.6872825337
40
0.7652225070
40
0.8434601524
40
0.9217934574
40
1.0000000000
40
1.0000000000
40
1.0000000000
40
1.0000000000
10
-6.3524285158
20
-0.1475790996
30
0.0000000000
10
-6.3603145845
20
-0.1475813312
30
0.0000000000
10
-6.3761152554
20
-0.1485181574
30
0.0000000000
10
-6.3995063734
20
-0.1527322230
30
0.0000000000
10
-6.4223021493
20
-0.1597171807
30
0.0000000000
10
-6.4441752904
20
-0.1694062323
30
0.0000000000
10
-6.4648020796
20
-0.1816861698
30
0.0000000000
10
-6.4838898528
20
-0.1964199344
30
0.0000000000
10
-6.5011415101
20
-0.2134285986
30
0.0000000000
10
-6.5162823542
20
-0.2324989796
30
0.0000000000
10
-6.5290430414
20
-0.2533515810
30
0.0000000000
10
-6.5392067859
20
-0.2756941871
30
0.0000000000
10
-6.5465827410
20
-0.2991765260
30
0.0000000000
10
-6.5510355088
20
-0.3234088229
30
0.0000000000
10
-6.5520037149
20
-0.3398168490
30
0.0000000000
10
-6.5519880536
20
-0.3480043310
30
0.0000000000
11
-6.3524285158
21
-0.1475790996
31
0.0000000000
11
-6.3760449899
21
-0.1489837027
31
0.0000000000
11
-6.3993657406
21
-0.1531838565
31
0.0000000000
11
-6.4221103712
21
-0.1601537611
31
0.0000000000
11
-6.4439346115
21
-0.1698209692
31
0.0000000000
11
-6.4645051466
21
-0.1820673037
31
0.0000000000
11
-6.4835304788
21
-0.1967525267
31
0.0000000000
11
-6.5007563768
21
-0.2137352606
31
0.0000000000
11
-6.5158523790
21
-0.2327484835
31
0.0000000000
11
-6.5285906150
21
-0.2535632269
31
0.0000000000
11
-6.5387269009
21
-0.2758447402
31
0.0000000000
11
-6.5460915698
21
-0.2992873848
31
0.0000000000
11
-6.5505369241
21
-0.3234847433
31
0.0000000000
11
-6.5519880536
21
-0.3480043310
31
0.0000000000
0
SPLINE
5
34F
100
AcDbEntity
8
0
100
AcDbSpline
62
9
6
CONTINUOUS
70
0
71
3
72
20
73
16
74
14
42
0.0000001000
43
0.0000001000
44
0.0000000001
12
-0.0000597559
22
0.3924039430
32
0.0000000000
13
-0.3924039430
23
0.0000597696
33
0.0000000000
40
0.0000000000
40
0.0000000000
40
0.0000000000
40
0.0000000000
40
0.0769244174
40
0.1538499511
40
0.2307762414
40
0.3077028846
40
0.3846294565
40
0.4615555369
40
0.5384807340
40
0.6154047073
40
0.6923271873
40
0.7692479911
40
0.8461670332
40
0.9230843302
40
1.0000000000
40
1.0000000000
40
1.0000000000
40
1.0000000000
10
22.2590840780
20
-0.3954259424
30
0.0000000000
10
22.2590825457
20
-0.3853641275
30
0.0000000000
10
22.2578617232
20
-0.3652193771
30
0.0000000000
10
22.2524040431
20
-0.3354598851
30
0.0000000000
10
22.2433994708
20
-0.3065701213
30
0.0000000000
10
22.2309792890
20
-0.2789770406
30
0.0000000000
10
22.2153245739
20
-0.2530813825
30
0.0000000000
10
22.1966635602
20
-0.2292610993
30
0.0000000000
10
22.1752683007
20
-0.2078633626
30
0.0000000000
10
22.1514507488
20
-0.1892001677
30
0.0000000000
10
22.1255580329
20
-0.1735436065
30
0.0000000000
10
22.0979680623
20
-0.1611219488
30
0.0000000000
10
22.0690815333
20
-0.1521162999
30
0.0000000000
10
22.0393253607
20
-0.1466579648
30
0.0000000000
10
22.0191828249
20
-0.1454369940
30
0.0000000000
10
22.0091221542
20
-0.1454354616
30
0.0000000000
11
22.2590840780
21
-0.3954259424
31
0.0000000000
11
22.2572573383
21
-0.3652958227
31
0.0000000000
11
22.2518129288
21
-0.3356049833
31
0.0000000000
11
22.2428302259
21
-0.3067862999
31
0.0000000000
11
22.2304401926
21
-0.2792599326
31
0.0000000000
11
22.2148234688
21
-0.2534272000
31
0.0000000000
11
22.1962077376
21
-0.2296647288
31
0.0000000000
11
22.1748644061
21
-0.2083189619
31
0.0000000000
11
22.1511046481
21
-0.1897011083
31
0.0000000000
11
22.1252748675
21
-0.1740826054
31
0.0000000000
11
22.0977516479
21
-0.1616911618
31
0.0000000000
11
22.0689362623
21
-0.1527074372
31
0.0000000000
11
22.0392488224
21
-0.1472624088
31
0.0000000000
11
22.0091221542
21
-0.1454354616
31
0.0000000000
0
SPLINE
5
350
100
AcDbEntity
8
0
100
AcDbSpline
62
9
6
CONTINUOUS
70
0
71
3
72
20
73
16
74
14
42
0.0000001000
43
0.0000001000
44
0.0000000001
12
-0.3924039430
22
-0.0000597696
32
0.0000000000
13
-0.0000597559
23
-0.3924039430
33
0.0000000000
40
0.0000000000
40
0.0000000000
40
0.0000000000
40
0.0000000000
40
0.0769156706
40
0.1538329682
40
0.2307520108
40
0.3076728150
40
0.3845952952
40
0.4615192686
40
0.5384444656
40
0.6153705458
40
0.6922971174
40
0.7692237603
40
0.8461500501
40
0.9230755832
40
1.0000000000
40
1.0000000000
40
1.0000000000
40
1.0000000000
10
-22.0091221542
20
-0.1454354616
30
0.0000000000
10
-22.0191828250
20
-0.1454369940
30
0.0000000000
10
-22.0393253610
20
-0.1466579648
30
0.0000000000
10
-22.0690815339
20
-0.1521163001
30
0.0000000000
10
-22.0979680630
20
-0.1611219491
30
0.0000000000
10
-22.1255580337
20
-0.1735436069
30
0.0000000000
10
-22.1514507496
20
-0.1892001682
30
0.0000000000
10
-22.1752683015
20
-0.2078633633
30
0.0000000000
10
-22.1966635609
20
-0.2292611001
30
0.0000000000
10
-22.2153245744
20
-0.2530813833
30
0.0000000000
10
-22.2309792893
20
-0.2789770413
30
0.0000000000
10
-22.2433994710
20
-0.3065701219
30
0.0000000000
10
-22.2524040432
20
-0.3354598855
30
0.0000000000
10
-22.2578617232
20
-0.3652193773
30
0.0000000000
10
-22.2590825457
20
-0.3853641276
30
0.0000000000
10
-22.2590840780
20
-0.3954259424
30
0.0000000000
11
-22.0091221542
21
-0.1454354616
31
0.0000000000
11
-22.0392488227
21
-0.1472624089
31
0.0000000000
11
-22.0689362628
21
-0.1527074373
31
0.0000000000
11
-22.0977516487
21
-0.1616911621
31
0.0000000000
11
-22.1252748683
21
-0.1740826059
31
0.0000000000
11
-22.1511046489
21
-0.1897011089
31
0.0000000000
11
-22.1748644069
21
-0.2083189626
31
0.0000000000
11
-22.1962077383
21
-0.2296647295
31
0.0000000000
11
-22.2148234693
21
-0.2534272008
31
0.0000000000
11
-22.2304401930
21
-0.2792599333
31
0.0000000000
11
-22.2428302261
21
-0.3067863005
31
0.0000000000
11
-22.2518129289
21
-0.3356049837
31
0.0000000000
11
-22.2572573383
21
-0.3652958229
31
0.0000000000
11
-22.2590840780
21
-0.3954259424
31
0.0000000000
0
SPLINE
5
351
100
AcDbEntity
8
0
100
AcDbSpline
62
9
6
CONTINUOUS
70
0
71
3
72
21
73
17
74
15
42
0.0000001000
43
0.0000001000
44
0.0000000001
12
-0.0000002809
22
0.2501906996
32
0.0000000000
13
0.0490677374
23
0.2453319044
33
0.0000000000
40
0.0000000000
40
0.0000000000
40
0.0000000000
40
0.0000000000
40
0.1113217651
40
0.2212666517
40
0.3284677312
40
0.4315892650
40
0.5293479440
40
0.6205268822
40
0.7039906865
40
0.7787004268
40
0.8437261181
40
0.8982580700
40
0.9416175587
40
0.9732650090
40
0.9928063835
40
1.0000000000
40
1.0000000000
40
1.0000000000
40
1.0000000000
10
-16.1480040083
20
-0.3977684532
30
0.0000000000
10
-16.1480040187
20
-0.3884845631
30
0.0000000000
10
-16.1480022594
20
-0.3700316103
30
0.0000000000
10
-16.1479942723
20
-0.3426384206
30
0.0000000000
10
-16.1479810371
20
-0.3159291077
30
0.0000000000
10
-16.1479627598
20
-0.2902360873
30
0.0000000000
10
-16.1479395806
20
-0.2658792771
30
0.0000000000
10
-16.1479121140
20
-0.2431618365
30
0.0000000000
10
-16.1478797285
20
-0.2223667116
30
0.0000000000
10
-16.1478460722
20
-0.2037523832
30
0.0000000000
10
-16.1478017795
20
-0.1875518495
30
0.0000000000
10
-16.1477765653
20
-0.1739630700
30
0.0000000000
10
-16.1476911553
20
-0.1631654527
30
0.0000000000
10
-16.1477465940
20
-0.1552678493
30
0.0000000000
10
-16.1475250310
20
-0.1504222452
30
0.0000000000
10
-16.1476891310
20
-0.1481673628
30
0.0000000000
10
-16.1475714728
20
-0.1475790882
30
0.0000000000
11
-16.1480040083
21
-0.3977684532
31
0.0000000000
11
-16.1480013319
21
-0.3699167830
31
0.0000000000
11
-16.1479932588
21
-0.3424095961
31
0.0000000000
11
-16.1479798850
21
-0.3155888864
31
0.0000000000
11
-16.1479613809
21
-0.2897888443
31
0.0000000000
11
-16.1479379726
21
-0.2653305433
31
0.0000000000
11
-16.1479099533
21
-0.2425184381
31
0.0000000000
11
-16.1478776705
21
-0.2216365955
31
0.0000000000
11
-16.1478415279
21
-0.2029449482
31
0.0000000000
11
-16.1478019769
21
-0.1866761731
31
0.0000000000
11
-16.1477595084
21
-0.1730328520
31
0.0000000000
11
-16.1477146563
21
-0.1621848039
31
0.0000000000
11
-16.1476679663
21
-0.1542670439
31
0.0000000000
11
-16.1476200482
21
-0.1493782085
31
0.0000000000
11
-16.1475714728
21
-0.1475790882
31
0.0000000000
0
SPLINE
5
352
100
AcDbEntity
8
0
100
AcDbSpline
62
9
6
CONTINUOUS
70
0
71
3
72
25
73
21
74
19
42
0.0000001000
43
0.0000001000
44
0.0000000001
12
-0.7851276571
22
-0.0000196023
32
0.0000000000
13
0.0000039413
23
0.7851276574
33
0.0000000000
40
0.0000000000
40
0.0000000000
40
0.0000000000
40
0.0000000000
40
0.0550931772
40
0.1105562534
40
0.1662311592
40
0.2219616913
40
0.2776116638
40
0.3331701643
40
0.3887267735
40
0.4443306956
40
0.4999607261
40
0.5555918310
40
0.6111991928
40
0.6667639272
40
0.7223393774
40
0.7780136081
40
0.8337657402
40
0.8894515847
40
0.9449151157
40
1.0000000000
40
1.0000000000
40
1.0000000000
40
1.0000000000
10
-15.4480124517
20
-1.2979934133
30
0.0000000000
10
-15.4624308441
20
-1.2979937733
30
0.0000000000
10
-15.4913800400
20
-1.2967418212
30
0.0000000000
10
-15.5345688277
20
-1.2910926415
30
0.0000000000
10
-15.5772676250
20
-1.2816639132
30
0.0000000000
10
-15.6190251157
20
-1.2685254505
30
0.0000000000
10
-15.6594469950
20
-1.2518007914
30
0.0000000000
10
-15.6982151804
20
-1.2316348991
30
0.0000000000
10
-15.7350679658
20
-1.2081731250
30
0.0000000000
10
-15.7697494717
20
-1.1815757062
30
0.0000000000
10
-15.8019922719
20
-1.1520402562
30
0.0000000000
10
-15.8315347482
20
-1.1198026663
30
0.0000000000
10
-15.8581408975
20
-1.0851236698
30
0.0000000000
10
-15.8816133473
20
-1.0482687982
30
0.0000000000
10
-15.9017912422
20
-1.0094922378
30
0.0000000000
10
-15.9185268989
20
-0.9690570334
30
0.0000000000
10
-15.9316728401
20
-0.9272862354
30
0.0000000000
10
-15.9411050362
20
-0.8845793163
30
0.0000000000
10
-15.9467551700
20
-0.8413898209
30
0.0000000000
10
-15.9480075164
20
-0.8124427045
30
0.0000000000
10
-15.9480074440
20
-0.7980264825
30
0.0000000000
11
-15.4480124517
21
-1.2979934133
31
0.0000000000
11
-15.4912272092
21
-1.2961238993
31
0.0000000000
11
-15.5344050497
21
-1.2904765147
31
0.0000000000
11
-15.5770886487
21
-1.2810509483
31
0.0000000000
11
-15.6188270130
21
-1.2679185487
31
0.0000000000
11
-15.6592000279
21
-1.2512140709
31
0.0000000000
11
-15.6978982484
21
-1.2310845630
31
0.0000000000
11
-15.7346934111
21
-1.2076594521
31
0.0000000000
11
-15.7693352368
21
-1.1810924479
31
0.0000000000
11
-15.8015418457
21
-1.1515901372
31
0.0000000000
11
-15.8310511231
21
-1.1193887675
31
0.0000000000
11
-15.8576264605
21
-1.0847499302
31
0.0000000000
11
-15.8810616274
21
-1.0479536080
31
0.0000000000
11
-15.9012032738
21
-1.0092467018
31
0.0000000000
11
-15.9179197033
21
-0.9688580204
31
0.0000000000
11
-15.9310601820
21
-0.9271044199
31
0.0000000000
11
-15.9404891959
21
-0.8844127870
31
0.0000000000
11
-15.9461374718
21
-0.8412347031
31
0.0000000000
11
-15.9480074440
21
-0.7980264825
31
0.0000000000
0
SPLINE
5
353
100
AcDbEntity
8
0
100
AcDbSpline
62
9
6
CONTINUOUS
70
0
71
3
72
23
73
19
74
17
42
0.0000001000
43
0.0000001000
44
0.0000000001
12
0.2236471242
22
-0.1117076539
32
0.0000000000
13
0.2499932721
23
-0.0000000359
33
0.0000000000
40
0.0000000000
40
0.0000000000
40
0.0000000000
40
0.0000000000
40
0.0064500493
40
0.0222255514
40
0.0472021102
40
0.0811490559
40
0.1237486453
40
0.1746009520
40
0.2332271732
40
0.2990746684
40
0.3715233433
40
0.4498911345
40
0.5334398169
40
0.6213817634
40
0.7128890355
40
0.8071008145
40
0.9031271624
40
1.0000000000
40
1.0000000000
40
1.0000000000
40
1.0000000000
10
-22.0091221542
20
-0.1454354616
30
0.0000000000
10
-22.0086413092
20
-0.1456756349
30
0.0000000000
10
-22.0066960334
20
-0.1455860819
30
0.0000000000
10
-22.0028505094
20
-0.1459749783
30
0.0000000000
10
-21.9965841247
20
-0.1460568721
30
0.0000000000
10
-21.9881450416
20
-0.1462941268
30
0.0000000000
10
-21.9775232444
20
-0.1464618939
30
0.0000000000
10
-21.9648541070
20
-0.1466448389
30
0.0000000000
10
-21.9502441061
20
-0.1468089209
30
0.0000000000
10
-21.9338353209
20
-0.1469630917
30
0.0000000000
10
-21.9157809258
20
-0.1471021864
30
0.0000000000
10
-21.8962514330
20
-0.1472258878
30
0.0000000000
10
-21.8754307203
20
-0.1473326147
30
0.0000000000
10
-21.8535149964
20
-0.1474214125
30
0.0000000000
10
-21.8307106304
20
-0.1474913814
30
0.0000000000
10
-21.8072325302
20
-0.1475418459
30
0.0000000000
10
-21.7833072769
20
-0.1475723106
30
0.0000000000
10
-21.7672327765
20
-0.1475790871
30
0.0000000000
10
-21.7591602573
20
-0.1475790882
30
0.0000000000
11
-22.0091221542
21
-0.1454354616
31
0.0000000000
11
-22.0075235712
21
-0.1456466212
31
0.0000000000
11
-22.0035853400
21
-0.1458555521
31
0.0000000000
11
-21.9973447220
21
-0.1460601724
31
0.0000000000
11
-21.9888605329
21
-0.1462585487
31
0.0000000000
11
-21.9782126219
21
-0.1464488144
31
0.0000000000
11
-21.9655011669
21
-0.1466291781
31
0.0000000000
11
-21.9508459777
21
-0.1467979390
31
0.0000000000
11
-21.9343852820
21
-0.1469535056
31
0.0000000000
11
-21.9162741488
21
-0.1470944131
31
0.0000000000
11
-21.8966831265
21
-0.1472193350
31
0.0000000000
11
-21.8757967960
21
-0.1473270946
31
0.0000000000
11
-21.8538120836
21
-0.1474166765
31
0.0000000000
11
-21.8309359900
21
-0.1474872378
31
0.0000000000
11
-21.8073837341
21
-0.1475381147
31
0.0000000000
11
-21.7833778128
21
-0.1475688278
31
0.0000000000
11
-21.7591602573
21
-0.1475790882
31
0.0000000000
0
SPLINE
5
354
100
AcDbEntity
8
0
100
AcDbSpline
62
9
6
CONTINUOUS
70
0
71
3
72
25
73
21
74
19
42
0.0000001000
43
0.0000001000
44
0.0000000001
12
0.0000042838
22
-0.7851276573
32
0.0000000000
13
-0.7851276571
23
0.0000192586
33
0.0000000000
40
0.0000000000
40
0.0000000000
40
0.0000000000
40
0.0000000000
40
0.0551181228
40
0.1106049013
40
0.1663016397
40
0.2220515874
40
0.2777181132
40
0.3332901361
40
0.3888568219
40
0.4444668901
40
0.5000989801
40
0.5557280316
40
0.6113292519
40
0.6668839207
40
0.7224458737
40
0.7781035707
40
0.8338362830
40
0.8895002838
40
0.9449400952
40
1.0000000000
40
1.0000000000
40
1.0000000000
40
1.0000000000
10
-6.5519925560
20
-0.7980264825
30
0.0000000000
10
-6.5519924773
20
-0.8124514034
30
0.0000000000
10
-6.5532462312
20
-0.8414133308
30
0.0000000000
10
-6.5589017047
20
-0.8846199760
30
0.0000000000
10
-6.5683398713
20
-0.9273341761
30
0.0000000000
10
-6.5814902424
20
-0.9691038499
30
0.0000000000
10
-6.5982284570
20
-1.0095342011
30
0.0000000000
10
-6.6184086375
20
-1.0483068522
30
0.0000000000
10
-6.6418844513
20
-1.0851599686
30
0.0000000000
10
-6.6684946314
20
-1.1198377432
30
0.0000000000
10
-6.6980405899
20
-1.1520731085
30
0.0000000000
10
-6.7302856169
20
-1.1816050787
30
0.0000000000
10
-6.7649683481
20
-1.2081984697
30
0.0000000000
10
-6.8018228970
20
-1.2316568849
30
0.0000000000
10
-6.8405950046
20
-1.2518204964
30
0.0000000000
10
-6.8810217473
20
-1.2685425985
30
0.0000000000
10
-6.9227803632
20
-1.2816766291
30
0.0000000000
10
-6.9654718708
20
-1.2910993844
30
0.0000000000
10
-7.0086434922
20
-1.2967432226
30
0.0000000000
10
-7.0375778636
20
-1.2979937667
30
0.0000000000
10
-7.0519875483
20
-1.2979934133
30
0.0000000000
11
-6.5519925560
21
-0.7980264825
31
0.0000000000
11
-6.5538647859
21
-0.8412607262
31
0.0000000000
11
-6.5595184752
21
-0.8844565097
31
0.0000000000
11
-6.5689534904
21
-0.9271555761
31
0.0000000000
11
-6.5820978047
21
-0.9689061713
31
0.0000000000
11
-6.5988158146
21
-1.0092876514
31
0.0000000000
11
-6.6189596122
21
-1.0479904046
31
0.0000000000
11
-6.6423987857
21
-1.0847859913
31
0.0000000000
11
-6.6689785403
21
-1.1194241176
31
0.0000000000
11
-6.6984913375
21
-1.1516233106
31
0.0000000000
11
-6.7307001255
21
-1.1811221041
31
0.0000000000
11
-6.7653426638
21
-1.2076846932
31
0.0000000000
11
-6.8021385682
21
-1.2311058017
31
0.0000000000
11
-6.8408409594
21
-1.2512331654
31
0.0000000000
11
-6.8812211905
21
-1.2679360651
31
0.0000000000
11
-6.9229625568
21
-1.2810646254
31
0.0000000000
11
-6.9656387135
21
-1.2904841878
31
0.0000000000
11
-7.0087988406
21
-1.2961261575
31
0.0000000000
11
-7.0519875483
21
-1.2979934133
31
0.0000000000
0
SPLINE
5
355
100
AcDbEntity
8
0
100
AcDbSpline
62
9
6
CONTINUOUS
70
0
71
3
72
10
73
6
74
4
42
0.0000001000
43
0.0000001000
44
0.0000000001
12
0.0001262690
22
-9.1022317153
32
0.0000000000
13
0.0030162464
23
-9.1022312164
33
0.0000000000
40
0.0000000000
40
0.0000000000
40
0.0000000000
40
0.0000000000
40
0.3333526958
40
0.6666869330
40
1.0000000000
40
1.0000000000
40
1.0000000000
40
1.0000000000
10
21.7591602573
20
-0.3977684534
30
0.0000000000
10
21.7591742880
20
-1.4091862800
30
0.0000000000
10
21.7593093731
20
-3.4319659288
30
0.0000000000
10
21.7598330725
20
-6.4660431274
30
0.0000000000
10
21.7603962666
20
-8.4887024656
30
0.0000000000
10
21.7607313847
20
-9.5000000000
30
0.0000000000
11
21.7591602573
21
-0.3977684534
31
0.0000000000
11
21.7593628944
21
-3.4320219267
31
0.0000000000
11
21.7598866048
21
-6.4661073477
31
0.0000000000
11
21.7607313847
21
-9.5000000000
31
0.0000000000
0
SPLINE
5
356
100
AcDbEntity
8
0
100
AcDbSpline
62
9
6
CONTINUOUS
70
0
71
3
72
10
73
6
74
4
42
0.0000001000
43
0.0000001000
44
0.0000000001
12
0.0001256780
22
-9.0950742265
32
0.0000000000
13
0.0030168915
23
-9.0950737270
33
0.0000000000
40
0.0000000000
40
0.0000000000
40
0.0000000000
40
0.0000000000
40
0.3333523826
40
0.6666867781
40
1.0000000000
40
1.0000000000
40
1.0000000000
40
1.0000000000
10
22.2590840780
20
-0.3954259424
30
0.0000000000
10
22.2590980430
20
-1.4060474968
30
0.0000000000
10
22.2592330424
20
-3.4272360746
30
0.0000000000
10
22.2597567505
20
-6.4589274435
30
0.0000000000
10
22.2603200423
20
-8.4799972242
30
0.0000000000
10
22.2606552323
20
-9.4905000000
30
0.0000000000
11
22.2590840780
21
-0.3954259424
31
0.0000000000
11
22.2592865864
21
-3.4272905992
31
0.0000000000
11
22.2598103057
21
-6.4589916235
31
0.0000000000
11
22.2606552323
21
-9.4905000000
31
0.0000000000
0
SPLINE
5
357
100
AcDbEntity
8
0
100
AcDbSpline
62
9
6
CONTINUOUS
70
0
71
3
72
23
73
19
74
17
42
0.0000001000
43
0.0000001000
44
0.0000000001
12
-0.4823510276
22
-0.1314534964
32
0.0000000000
13
-0.4999425323
23
-0.0000035395
33
0.0000000000
40
0.0000000000
40
0.0000000000
40
0.0000000000
40
0.0000000000
40
0.0064178635
40
0.0221823777
40
0.0471536312
40
0.0810970082
40
0.1236936813
40
0.1745429946
40
0.2331658355
40
0.2990099999
40
0.3714556312
40
0.4498207821
40
0.5333673360
40
0.6213078087
40
0.7128143666
40
0.8070265379
40
0.9030529224
40
1.0000000000
40
1.0000000000
40
1.0000000000
40
1.0000000000
10
22.2590840780
20
-0.3954259424
30
0.0000000000
10
22.2580521903
20
-0.3957071593
30
0.0000000000
10
22.2542915090
20
-0.3955680467
30
0.0000000000
10
22.2464932088
20
-0.3960278781
30
0.0000000000
10
22.2340193686
20
-0.3960982299
30
0.0000000000
10
22.2171169152
20
-0.3963652451
30
0.0000000000
10
22.1958838806
20
-0.3965453813
30
0.0000000000
10
22.1705444135
20
-0.3967462251
30
0.0000000000
10
22.1413283773
20
-0.3969251122
30
0.0000000000
10
22.1085139803
20
-0.3970936875
30
0.0000000000
10
22.0724092340
20
-0.3972456979
30
0.0000000000
10
22.0333544150
20
-0.3973809850
30
0.0000000000
10
21.9917173278
20
-0.3974977586
30
0.0000000000
10
21.9478902086
20
-0.3975949905
30
0.0000000000
10
21.9022856458
20
-0.3976716852
30
0.0000000000
10
21.8553335549
20
-0.3977271074
30
0.0000000000
10
21.8074747940
20
-0.3977607130
30
0.0000000000
10
21.7753162465
20
-0.3977683393
30
0.0000000000
10
21.7591602573
20
-0.3977684537
30
0.0000000000
11
22.2590840780
21
-0.3954259424
31
0.0000000000
11
22.2558838032
21
-0.3956564146
31
0.0000000000
11
22.2480057488
21
-0.3958843500
31
0.0000000000
11
22.2355235542
21
-0.3961076474
31
0.0000000000
11
22.2185551978
21
-0.3963241740
31
0.0000000000
11
22.1972603223
21
-0.3965318996
31
0.0000000000
11
22.1718393509
21
-0.3967288636
31
0.0000000000
11
22.1425318792
21
-0.3969132080
31
0.0000000000
11
22.1096140197
21
-0.3970831934
31
0.0000000000
11
22.0733956949
21
-0.3972372169
31
0.0000000000
11
22.0342178611
21
-0.3973738257
31
0.0000000000
11
21.9924495518
21
-0.3974917300
31
0.0000000000
11
21.9484844786
21
-0.3975898168
31
0.0000000000
11
21.9027365236
21
-0.3976671602
31
0.0000000000
11
21.8556358853
21
-0.3977230323
31
0.0000000000
11
21.8076282234
21
-0.3977569022
31
0.0000000000
11
21.7591602573
21
-0.3977684537
31
0.0000000000
0
SPLINE
5
358
100
AcDbEntity
8
0
100
AcDbSpline
62
9
6
CONTINUOUS
70
0
71
3
72
22
73
18
74
16
42
0.0000001000
43
0.0000001000
44
0.0000000001
12
-0.3383259846
22
-0.3684496650
32
0.0000000000
13
-0.5002195517
23
-0.0001658660
33
0.0000000000
40
0.0000000000
40
0.0000000000
40
0.0000000000
40
0.0000000000
40
0.0074214242
40
0.0253154709
40
0.0536084287
40
0.0920197829
40
0.1401463892
40
0.1974767512
40
0.2633990287
40
0.3372084836
40
0.4181154124
40
0.5052537950
40
0.5976906748
40
0.6944362151
40
0.7944543416
40
0.8966738698
40
1.0000000000
40
1.0000000000
40
1.0000000000
40
1.0000000000
10
22.2606552323
20
-9.4905000000
30
0.0000000000
10
22.2598182787
20
-9.4914114738
30
0.0000000000
10
22.2550146338
20
-9.4914365540
30
0.0000000000
10
22.2466496552
20
-9.4928695013
30
0.0000000000
10
22.2322877209
20
-9.4934503773
30
0.0000000000
10
22.2132804977
20
-9.4944651569
30
0.0000000000
10
22.1892618616
20
-9.4952711913
30
0.0000000000
10
22.1607131525
20
-9.4960999078
30
0.0000000000
10
22.1278584453
20
-9.4968507727
30
0.0000000000
10
22.0910772547
20
-9.4975444637
30
0.0000000000
10
22.0507545997
20
-9.4981628659
30
0.0000000000
10
22.0073252764
20
-9.4987018799
30
0.0000000000
10
21.9612537171
20
-9.4991544429
30
0.0000000000
10
21.9130337848
20
-9.4995157501
30
0.0000000000
10
21.8631820377
20
-9.4997816959
30
0.0000000000
10
21.8122326194
20
-9.4999493561
30
0.0000000000
10
21.7779599682
20
-9.4999942872
30
0.0000000000
10
21.7607313847
20
-9.5000000000
30
0.0000000000
11
22.2606552323
21
-9.4905000000
31
0.0000000000
11
22.2570751754
21
-9.4914821781
31
0.0000000000
11
22.2481771173
21
-9.4924538327
31
0.0000000000
11
22.2340563948
21
-9.4934045533
31
0.0000000000
11
22.2148643023
21
-9.4943241535
31
0.0000000000
11
22.1908064705
21
-9.4952027804
31
0.0000000000
11
22.1621406636
21
-9.4960310200
31
0.0000000000
11
22.1291740171
21
-9.4967999984
31
0.0000000000
11
22.0922597471
21
-9.4975014764
31
0.0000000000
11
22.0517933660
21
-9.4981279381
31
0.0000000000
11
22.0082084449
21
-9.4986726714
31
0.0000000000
11
21.9619719679
21
-9.4991298398
31
0.0000000000
11
21.9135793287
21
-9.4994945451
31
0.0000000000
11
21.8635490231
21
-9.4997628797
31
0.0000000000
11
21.8124170933
21
-9.4999319685
31
0.0000000000
11
21.7607313847
21
-9.5000000000
31
0.0000000000
0
SPLINE
5
359
100
AcDbEntity
8
0
100
AcDbSpline
62
9
6
CONTINUOUS
70
0
71
3
72
14
73
10
74
8
42
0.0000001000
43
0.0000001000
44
0.0000000001
12
0.0038629501
22
-11.7107319604
32
0.0000000000
13
0.0306549600
23
-11.7106924750
33
0.0000000000
40
0.0000000000
40
0.0000000000
40
0.0000000000
40
0.0000000000
40
0.1434088633
40
0.2867169135
40
0.4298742344
40
0.5728309521
40
0.7155372777
40
0.8579434943
40
1.0000000000
40
1.0000000000
40
1.0000000000
40
1.0000000000
10
21.7607313847
20
-9.5000000000
30
0.0000000000
10
21.7609160451
20
-10.0598075864
30
0.0000000000
10
21.7614665785
20
-11.1790291761
30
0.0000000000
10
21.7628364426
20
-12.8570760482
30
0.0000000000
10
21.7647496972
20
-14.5333574041
30
0.0000000000
10
21.7672056756
20
-16.2072891708
30
0.0000000000
10
21.7702035216
20
-17.8782880572
30
0.0000000000
10
21.7737421894
20
-19.5457718288
30
0.0000000000
10
21.7764646904
20
-20.6561908070
30
0.0000000000
10
21.7779162692
20
-21.2107174911
30
0.0000000000
11
21.7607313847
21
-9.5000000000
31
0.0000000000
11
21.7615576201
21
-11.1794226474
31
0.0000000000
11
21.7629278821
21
-12.8576643428
31
0.0000000000
11
21.7648416937
21
-14.5341403548
31
0.0000000000
11
21.7672983881
21
-16.2082664463
31
0.0000000000
11
21.7702971100
21
-17.8794593742
31
0.0000000000
11
21.7738368146
21
-19.5471367410
31
0.0000000000
11
21.7779162692
21
-21.2107174911
31
0.0000000000
0
SPLINE
5
35A
100
AcDbEntity
8
0
100
AcDbSpline
62
9
6
CONTINUOUS
70
0
71
3
72
14
73
10
74
8
42
0.0000001000
43
0.0000001000
44
0.0000000001
12
0.0038629502
22
-11.6456724996
32
0.0000000000
13
0.0306549592
23
-11.6456327936
33
0.0000000000
40
0.0000000000
40
0.0000000000
40
0.0000000000
40
0.0000000000
40
0.1434087316
40
0.2867168220
40
0.4298741837
40
0.5728309429
40
0.7155373107
40
0.8579435704
40
1.0000000000
40
1.0000000000
40
1.0000000000
40
1.0000000000
10
22.2606552323
20
-9.4905000000
30
0.0000000000
10
22.2608398925
20
-10.0471970406
30
0.0000000000
10
22.2613904255
20
-11.1602003920
30
0.0000000000
10
22.2627602891
20
-12.8289246029
30
0.0000000000
10
22.2646735440
20
-14.4958937726
30
0.0000000000
10
22.2671295231
20
-16.1605264064
30
0.0000000000
10
22.2701273700
20
-17.8222424522
30
0.0000000000
10
22.2736660381
20
-19.4804624432
30
0.0000000000
10
22.2763885388
20
-20.5847122777
30
0.0000000000
10
22.2778401168
20
-21.1361579495
30
0.0000000000
11
22.2606552323
21
-9.4905000000
31
0.0000000000
11
22.2614814667
21
-11.1605910092
31
0.0000000000
11
22.2628517287
21
-12.8295096259
31
0.0000000000
11
22.2647655406
21
-14.4966723695
31
0.0000000000
11
22.2672222356
21
-16.1614982481
31
0.0000000000
11
22.2702209584
21
-17.8234072572
31
0.0000000000
11
22.2737606643
21
-19.4818202323
31
0.0000000000
11
22.2778401168
21
-21.1361579495
31
0.0000000000
0
SPLINE
5
35B
100
AcDbEntity
8
0
100
AcDbSpline
62
9
6
CONTINUOUS
70
0
71
3
72
22
73
18
74
16
42
0.0000001000
43
0.0000001000
44
0.0000000001
12
-0.0591138678
22
-0.5108754439
32
0.0000000000
13
-0.5142824288
23
-0.0013236500
33
0.0000000000
40
0.0000000000
40
0.0000000000
40
0.0000000000
40
0.0000000000
40
0.0165205715
40
0.0392968720
40
0.0703415218
40
0.1102029685
40
0.1588601991
40
0.2160113716
40
0.2811781018
40
0.3537518401
40
0.4330195652
40
0.5181813029
40
0.6083642356
40
0.7026353871
40
0.8000137619
40
0.8994823277
40
1.0000000000
40
1.0000000000
40
1.0000000000
40
1.0000000000
10
22.2778401168
20
-21.1361579495
30
0.0000000000
10
22.2775145852
20
-21.1389712676
30
0.0000000000
10
22.2740649365
20
-21.1452475349
30
0.0000000000
10
22.2643971436
20
-21.1526229966
30
0.0000000000
10
22.2500181630
20
-21.1599005705
30
0.0000000000
10
22.2307257493
20
-21.1669100715
30
0.0000000000
10
22.2066698663
20
-21.1736672968
30
0.0000000000
10
22.1780530118
20
-21.1800537753
30
0.0000000000
10
22.1451698995
20
-21.1860023531
30
0.0000000000
10
22.1083625073
20
-21.1914381942
30
0.0000000000
10
22.0680213070
20
-21.1962994730
30
0.0000000000
10
22.0245758141
20
-21.2005304339
30
0.0000000000
10
21.9784900695
20
-21.2040836165
30
0.0000000000
10
21.9302569136
20
-21.2069193711
30
0.0000000000
10
21.8803924928
20
-21.2090062779
30
0.0000000000
10
21.8294308173
20
-21.2103212990
30
0.0000000000
10
21.7951477601
20
-21.2106731351
30
0.0000000000
10
21.7779162692
20
-21.2107174852
30
0.0000000000
11
22.2778401168
21
-21.1361579495
31
0.0000000000
11
22.2742692114
21
-21.1438673724
31
0.0000000000
11
22.2653788934
21
-21.1514941733
31
0.0000000000
11
22.2512644403
21
-21.1589566159
31
0.0000000000
11
22.2320771167
21
-21.1661747253
31
0.0000000000
11
22.2080225530
21
-21.1730711449
31
0.0000000000
11
22.1793585419
21
-21.1795719659
31
0.0000000000
11
22.1463922755
21
-21.1856075190
31
0.0000000000
11
22.1094770531
21
-21.1911131213
31
0.0000000000
11
22.0690084950
21
-21.1960297691
31
0.0000000000
11
22.0254203027
21
-21.2003047707
31
0.0000000000
11
21.9791796106
21
-21.2038923111
31
0.0000000000
11
21.9307819801
21
-21.2067539426
31
0.0000000000
11
21.8807460883
21
-21.2088589970
31
0.0000000000
11
21.8296081697
21
-21.2101849145
31
0.0000000000
11
21.7779162692
21
-21.2107174852
31
0.0000000000
0
SPLINE
5
35C
100
AcDbEntity
8
0
100
AcDbSpline
62
9
6
CONTINUOUS
70
0
71
3
72
23
73
19
74
17
42
0.0000001000
43
0.0000001000
44
0.0000000001
12
0.0011180576
22
-0.8496070319
32
0.0000000000
13
0.1395305939
23
-0.8380719373
33
0.0000000000
40
0.0000000000
40
0.0000000000
40
0.0000000000
40
0.0000000000
40
0.0988005715
40
0.1955925439
40
0.2896728023
40
0.3803505693
40
0.4669636684
40
0.5488791748
40
0.6254973164
40
0.6962576544
40
0.7606430516
40
0.8181829482
40
0.8684565290
40
0.9110960839
40
0.9457907463
40
0.9722883955
40
0.9903979432
40
1.0000000000
40
1.0000000000
40
1.0000000000
40
1.0000000000
10
21.7779162692
20
-21.2107174911
30
0.0000000000
10
21.7779530908
20
-21.2386980445
30
0.0000000000
10
21.7780469507
20
-21.2940902864
30
0.0000000000
10
21.7782504552
20
-21.3761261301
30
0.0000000000
10
21.7785141196
20
-21.4558613922
30
0.0000000000
10
21.7788359100
20
-21.5327137344
30
0.0000000000
10
21.7792134295
20
-21.6061206914
30
0.0000000000
10
21.7796437829
20
-21.6755455667
30
0.0000000000
10
21.7801237084
20
-21.7404804571
30
0.0000000000
10
21.7806493550
20
-21.8004502676
30
0.0000000000
10
21.7812169023
20
-21.8550163706
30
0.0000000000
10
21.7818205202
20
-21.9037799807
30
0.0000000000
10
21.7824584798
20
-21.9463835342
30
0.0000000000
10
21.7831139483
20
-21.9825177371
30
0.0000000000
10
21.7838090645
20
-22.0119119407
30
0.0000000000
10
21.7844533824
20
-22.0343692159
30
0.0000000000
10
21.7852060808
20
-22.0496887841
30
0.0000000000
10
21.7856428640
20
-22.0575455379
30
0.0000000000
10
21.7860894575
20
-22.0602279426
30
0.0000000000
11
21.7779162692
21
-21.2107174911
31
0.0000000000
11
21.7780590269
21
-21.2946591027
31
0.0000000000
11
21.7782638430
21
-21.3768940592
31
0.0000000000
11
21.7785292500
21
-21.4568249369
31
0.0000000000
11
21.7788532821
21
-21.5338647907
31
0.0000000000
11
21.7792335831
21
-21.6074509697
31
0.0000000000
11
21.7796673703
21
-21.6770456683
31
0.0000000000
11
21.7801514705
21
-21.7421392365
31
0.0000000000
11
21.7806823412
21
-21.8022554254
31
0.0000000000
11
21.7812561020
21
-21.8569547499
31
0.0000000000
11
21.7818685593
21
-21.9058372563
31
0.0000000000
11
21.7825152321
21
-21.9485451855
31
0.0000000000
11
21.7831913877
21
-21.9847657719
31
0.0000000000
11
21.7838920750
21
-22.0142342975
31
0.0000000000
11
21.7846122009
21
-22.0367353855
31
0.0000000000
11
21.7853464177
21
-22.0521038696
31
0.0000000000
11
21.7860894575
21
-22.0602279426
31
0.0000000000
0
SPLINE
5
35D
100
AcDbEntity
8
0
100
AcDbSpline
62
9
6
CONTINUOUS
70
0
71
3
72
23
73
19
74
17
42
0.0000001000
43
0.0000001000
44
0.0000000001
12
0.0011186693
22
-0.4249478805
32
0.0000000000
13
0.1342578023
23
-0.4031833269
33
0.0000000000
40
0.0000000000
40
0.0000000000
40
0.0000000000
40
0.0000000000
40
0.0987421881
40
0.1955064217
40
0.2895606032
40
0.3802142499
40
0.4668055372
40
0.5487018874
40
0.6253038913
40
0.6960513846
40
0.7604277490
40
0.8179631298
40
0.8682376571
40
0.9108849915
40
0.9455965263
40
0.9721243013
40
0.9902873897
40
1.0000000000
40
1.0000000000
40
1.0000000000
40
1.0000000000
10
22.2778401168
20
-21.1361579495
30
0.0000000000
10
22.2778769368
20
-21.1501447107
30
0.0000000000
10
22.2779707652
20
-21.1778380072
30
0.0000000000
10
22.2781742655
20
-21.2188537163
30
0.0000000000
10
22.2784379157
20
-21.2587233208
30
0.0000000000
10
22.2787597201
20
-21.2971514562
30
0.0000000000
10
22.2791372468
20
-21.3338568456
30
0.0000000000
10
22.2795676198
20
-21.3685711039
30
0.0000000000
10
22.2800475638
20
-21.4010402094
30
0.0000000000
10
22.2805732482
20
-21.4310265933
30
0.0000000000
10
22.2811407964
20
-21.4583108097
30
0.0000000000
10
22.2817445556
20
-21.4826938109
30
0.0000000000
10
22.2823822571
20
-21.5039958789
30
0.0000000000
10
22.2830387016
20
-21.5220655168
30
0.0000000000
10
22.2837314762
20
-21.5367593415
30
0.0000000000
10
22.2843822618
20
-21.5480022546
30
0.0000000000
10
22.2851233066
20
-21.5556472993
30
0.0000000000
10
22.2855786406
20
-21.5596078544
30
0.0000000000
10
22.2860133051
20
-21.5609131753
30
0.0000000000
11
22.2778401168
21
-21.1361579495
31
0.0000000000
11
22.2779828289
21
-21.1781181358
31
0.0000000000
11
22.2781876471
21
-21.2192375241
31
0.0000000000
11
22.2784530491
21
-21.2592049065
31
0.0000000000
11
22.2787770888
21
-21.2977267521
31
0.0000000000
11
22.2791573991
21
-21.3345216983
31
0.0000000000
11
22.2795912023
21
-21.3693207955
31
0.0000000000
11
22.2800753228
21
-21.4018691673
31
0.0000000000
11
22.2806062175
21
-21.4319285810
31
0.0000000000
11
22.2811800051
21
-21.4592792573
31
0.0000000000
11
22.2817924912
21
-21.4837212073
31
0.0000000000
11
22.2824391949
21
-21.5050755449
31
0.0000000000
11
22.2831153800
21
-21.5231858831
31
0.0000000000
11
22.2838161035
21
-21.5379198741
31
0.0000000000
11
22.2845362473
21
-21.5491698092
31
0.0000000000
11
22.2852705221
21
-21.5568531955
31
0.0000000000
11
22.2860133051
21
-21.5609131753
31
0.0000000000
0
SPLINE
5
35E
100
AcDbEntity
8
0
100
AcDbSpline
62
9
6
CONTINUOUS
70
0
71
3
72
22
73
18
74
16
42
0.0000001000
43
0.0000001000
44
0.0000000001
12
-0.0007171661
22
-0.7842144221
32
0.0000000000
13
-0.7842144237
23
-0.0007154196
33
0.0000000000
40
0.0000000000
40
0.0000000000
40
0.0000000000
40
0.0000000000
40
0.0666100513
40
0.1332280974
40
0.1998554123
40
0.2664928652
40
0.3331408822
40
0.3997994284
40
0.4664680092
40
0.5331456922
40
0.5998311483
40
0.6665227095
40
0.7332184418
40
0.7999162294
40
0.8666138671
40
0.9333091561
40
1.0000000000
40
1.0000000000
40
1.0000000000
40
1.0000000000
10
22.2860133051
20
-21.5609131753
30
0.0000000000
10
22.2859973816
20
-21.5783253629
30
0.0000000000
10
22.2841382249
20
-21.6131777045
30
0.0000000000
10
22.2758991609
20
-21.6648592824
30
0.0000000000
10
22.2622998143
20
-21.7154090806
30
0.0000000000
10
22.2434890724
20
-21.7642663845
30
0.0000000000
10
22.2196728446
20
-21.8108985494
30
0.0000000000
10
22.1911118143
20
-21.8547947440
30
0.0000000000
10
22.1581185773
20
-21.8954747767
30
0.0000000000
10
22.1210542223
20
-21.9324934786
30
0.0000000000
10
22.0803243600
20
-21.9654458030
30
0.0000000000
10
22.0363747456
20
-21.9939711899
30
0.0000000000
10
21.9896861703
20
-22.0177575231
30
0.0000000000
10
21.9407700666
20
-22.0365445363
30
0.0000000000
10
21.8901596898
20
-22.0501266609
30
0.0000000000
10
21.8384163250
20
-22.0583552628
30
0.0000000000
10
21.8035227648
20
-22.0602120387
30
0.0000000000
10
21.7860894575
20
-22.0602279426
30
0.0000000000
11
22.2860133051
21
-21.5609131753
31
0.0000000000
11
22.2832301484
21
-21.6130755643
31
0.0000000000
11
22.2750065411
21
-21.6646671150
31
0.0000000000
11
22.2614324780
21
-21.7151232363
31
0.0000000000
11
22.2426565066
21
-21.7638917625
31
0.0000000000
11
22.2188841016
21
-21.8104389959
31
0.0000000000
11
22.1903754157
21
-21.8542555477
31
0.0000000000
11
22.1574424333
21
-21.8948619124
31
0.0000000000
11
22.1204455560
21
-21.9318137147
31
0.0000000000
11
22.0797896585
21
-21.9647065732
31
0.0000000000
11
22.0359196578
21
-21.9931805257
31
0.0000000000
11
21.9893156445
21
-22.0169239677
31
0.0000000000
11
21.9404876290
21
-22.0356770634
31
0.0000000000
11
21.8899699597
21
-22.0492345886
31
0.0000000000
11
21.8383154759
21
-22.0574481768
31
0.0000000000
11
21.7860894575
21
-22.0602279426
31
0.0000000000
0
SPLINE
5
35F
100
AcDbEntity
8
0
100
AcDbSpline
62
9
6
CONTINUOUS
70
0
71
3
72
10
73
6
74
4
42
0.0000001000
43
0.0000001000
44
0.0000000001
12
0.0030168915
22
9.0950737270
32
0.0000000000
13
0.0001256780
23
9.0950742265
33
0.0000000000
40
0.0000000000
40
0.0000000000
40
0.0000000000
40
0.0000000000
40
0.3333132219
40
0.6666476174
40
1.0000000000
40
1.0000000000
40
1.0000000000
40
1.0000000000
10
-22.2606552323
20
-9.4905000000
30
0.0000000000
10
-22.2603200423
20
-8.4799972242
30
0.0000000000
10
-22.2597567505
20
-6.4589274435
30
0.0000000000
10
-22.2592330424
20
-3.4272360746
30
0.0000000000
10
-22.2590980430
20
-1.4060474968
30
0.0000000000
10
-22.2590840780
20
-0.3954259424
30
0.0000000000
11
-22.2606552323
21
-9.4905000000
31
0.0000000000
11
-22.2598103057
21
-6.4589916235
31
0.0000000000
11
-22.2592865864
21
-3.4272905992
31
0.0000000000
11
-22.2590840780
21
-0.3954259424
31
0.0000000000
0
SPLINE
5
360
100
AcDbEntity
8
0
100
AcDbSpline
62
9
6
CONTINUOUS
70
0
71
3
72
22
73
18
74
16
42
0.0000001000
43
0.0000001000
44
0.0000000001
12
0.3383259739
22
-0.3684496748
32
0.0000000000
13
0.5002195518
23
-0.0001658660
33
0.0000000000
40
0.0000000000
40
0.0000000000
40
0.0000000000
40
0.0000000000
40
0.0074214241
40
0.0253154708
40
0.0536084284
40
0.0920197827
40
0.1401463889
40
0.1974767508
40
0.2633990283
40
0.3372084832
40
0.4181154121
40
0.5052537947
40
0.5976906746
40
0.6944362149
40
0.7944543415
40
0.8966738698
40
1.0000000000
40
1.0000000000
40
1.0000000000
40
1.0000000000
10
-22.2606552323
20
-9.4905000000
30
0.0000000000
10
-22.2598182788
20
-9.4914114738
30
0.0000000000
10
-22.2550146338
20
-9.4914365540
30
0.0000000000
10
-22.2466496553
20
-9.4928695013
30
0.0000000000
10
-22.2322877210
20
-9.4934503773
30
0.0000000000
10
-22.2132804979
20
-9.4944651569
30
0.0000000000
10
-22.1892618618
20
-9.4952711913
30
0.0000000000
10
-22.1607131526
20
-9.4960999078
30
0.0000000000
10
-22.1278584455
20
-9.4968507727
30
0.0000000000
10
-22.0910772549
20
-9.4975444637
30
0.0000000000
10
-22.0507545999
20
-9.4981628659
30
0.0000000000
10
-22.0073252765
20
-9.4987018799
30
0.0000000000
10
-21.9612537173
20
-9.4991544429
30
0.0000000000
10
-21.9130337849
20
-9.4995157502
30
0.0000000000
10
-21.8631820378
20
-9.4997816959
30
0.0000000000
10
-21.8122326194
20
-9.4999493561
30
0.0000000000
10
-21.7779599682
20
-9.4999942872
30
0.0000000000
10
-21.7607313847
20
-9.5000000000
30
0.0000000000
11
-22.2606552323
21
-9.4905000000
31
0.0000000000
11
-22.2570751755
21
-9.4914821781
31
0.0000000000
11
-22.2481771174
21
-9.4924538327
31
0.0000000000
11
-22.2340563949
21
-9.4934045533
31
0.0000000000
11
-22.2148643024
21
-9.4943241535
31
0.0000000000
11
-22.1908064707
21
-9.4952027804
31
0.0000000000
11
-22.1621406638
21
-9.4960310200
31
0.0000000000
11
-22.1291740173
21
-9.4967999984
31
0.0000000000
11
-22.0922597472
21
-9.4975014764
31
0.0000000000
11
-22.0517933662
21
-9.4981279381
31
0.0000000000
11
-22.0082084450
21
-9.4986726714
31
0.0000000000
11
-21.9619719680
21
-9.4991298398
31
0.0000000000
11
-21.9135793288
21
-9.4994945451
31
0.0000000000
11
-21.8635490232
21
-9.4997628797
31
0.0000000000
11
-21.8124170933
21
-9.4999319686
31
0.0000000000
11
-21.7607313847
21
-9.5000000000
31
0.0000000000
0
SPLINE
5
361
100
AcDbEntity
8
0
100
AcDbSpline
62
9
6
CONTINUOUS
70
0
71
3
72
10
73
6
74
4
42
0.0000001000
43
0.0000001000
44
0.0000000001
12
0.0030162464
22
9.1022312164
32
0.0000000000
13
0.0001262690
23
9.1022317153
33
0.0000000000
40
0.0000000000
40
0.0000000000
40
0.0000000000
40
0.0000000000
40
0.3333130670
40
0.6666473043
40
1.0000000000
40
1.0000000000
40
1.0000000000
40
1.0000000000
10
-21.7607313847
20
-9.5000000000
30
0.0000000000
10
-21.7603962666
20
-8.4887024655
30
0.0000000000
10
-21.7598330725
20
-6.4660431273
30
0.0000000000
10
-21.7593093731
20
-3.4319659287
30
0.0000000000
10
-21.7591742880
20
-1.4091862800
30
0.0000000000
10
-21.7591602573
20
-0.3977684534
30
0.0000000000
11
-21.7607313847
21
-9.5000000000
31
0.0000000000
11
-21.7598866048
21
-6.4661073476
31
0.0000000000
11
-21.7593628944
21
-3.4320219265
31
0.0000000000
11
-21.7591602573
21
-0.3977684534
31
0.0000000000
0
SPLINE
5
362
100
AcDbEntity
8
0
100
AcDbSpline
62
9
6
CONTINUOUS
70
0
71
3
72
23
73
19
74
17
42
0.0000001000
43
0.0000001000
44
0.0000000001
12
0.4823517018
22
-0.1314510227
32
0.0000000000
13
0.4999425323
23
-0.0000035447
33
0.0000000000
40
0.0000000000
40
0.0000000000
40
0.0000000000
40
0.0000000000
40
0.0064178508
40
0.0221823495
40
0.0471535726
40
0.0810969176
40
0.1236935390
40
0.1745428040
40
0.2331655984
40
0.2990097079
40
0.3714552700
40
0.4498203490
40
0.5333668490
40
0.6213072866
40
0.7128137385
40
0.8070259395
40
0.9030519774
40
1.0000000000
40
1.0000000000
40
1.0000000000
40
1.0000000000
10
-22.2590840780
20
-0.3954259424
30
0.0000000000
10
-22.2580521909
20
-0.3957071534
30
0.0000000000
10
-22.2542915177
20
-0.3955680541
30
0.0000000000
10
-22.2464932244
20
-0.3960278735
30
0.0000000000
10
-22.2340193987
20
-0.3960982324
30
0.0000000000
10
-22.2171169637
20
-0.3963652447
30
0.0000000000
10
-22.1958839513
20
-0.3965453825
30
0.0000000000
10
-22.1705445085
20
-0.3967462262
30
0.0000000000
10
-22.1413284973
20
-0.3969251138
30
0.0000000000
10
-22.1085141287
20
-0.3970936889
30
0.0000000000
10
-22.0724094151
20
-0.3972456990
30
0.0000000000
10
-22.0333546286
20
-0.3973809857
30
0.0000000000
10
-21.9917175681
20
-0.3974977590
30
0.0000000000
10
-21.9478904814
20
-0.3975949904
30
0.0000000000
10
-21.9022859372
20
-0.3976716854
30
0.0000000000
10
-21.8553339168
20
-0.3977271064
30
0.0000000000
10
-21.8074750512
20
-0.3977607134
30
0.0000000000
10
-21.7753164040
20
-0.3977683391
30
0.0000000000
10
-21.7591602573
20
-0.3977684537
30
0.0000000000
11
-22.2590840780
21
-0.3954259424
31
0.0000000000
11
-22.2558838096
21
-0.3956564149
31
0.0000000000
11
-22.2480057629
21
-0.3958843499
31
0.0000000000
11
-22.2355235836
21
-0.3961076478
31
0.0000000000
11
-22.2185552431
21
-0.3963241745
31
0.0000000000
11
-22.1972603935
21
-0.3965319004
31
0.0000000000
11
-22.1718394462
21
-0.3967288648
31
0.0000000000
11
-22.1425319977
21
-0.3969132095
31
0.0000000000
11
-22.1096141658
21
-0.3970831949
31
0.0000000000
11
-22.0733958755
21
-0.3972372180
31
0.0000000000
11
-22.0342180776
21
-0.3973738264
31
0.0000000000
11
-21.9924497953
21
-0.3974917304
31
0.0000000000
11
-21.9484847396
21
-0.3975898169
31
0.0000000000
11
-21.9027368377
21
-0.3976671601
31
0.0000000000
11
-21.8556361845
21
-0.3977230318
31
0.0000000000
11
-21.8076286959
21
-0.3977569021
31
0.0000000000
11
-21.7591602573
21
-0.3977684537
31
0.0000000000
0
SPLINE
5
363
100
AcDbEntity
8
0
100
AcDbSpline
62
9
6
CONTINUOUS
70
0
71
3
72
22
73
18
74
16
42
0.0000001000
43
0.0000001000
44
0.0000000001
12
0.0591136699
22
-0.5108754711
32
0.0000000000
13
0.5142824330
23
-0.0013236504
33
0.0000000000
40
0.0000000000
40
0.0000000000
40
0.0000000000
40
0.0000000000
40
0.0165205698
40
0.0392968673
40
0.0703415139
40
0.1102029580
40
0.1588601866
40
0.2160113579
40
0.2811780875
40
0.3537518259
40
0.4330195517
40
0.5181812907
40
0.6083642252
40
0.7026353789
40
0.8000137562
40
0.8994823248
40
1.0000000000
40
1.0000000000
40
1.0000000000
40
1.0000000000
10
-22.2778401168
20
-21.1361579495
30
0.0000000000
10
-22.2775145863
20
-21.1389712675
30
0.0000000000
10
-22.2740649400
20
-21.1452475354
30
0.0000000000
10
-22.2643971489
20
-21.1526229977
30
0.0000000000
10
-22.2500181700
20
-21.1599005721
30
0.0000000000
10
-22.2307257577
20
-21.1669100736
30
0.0000000000
10
-22.2066698757
20
-21.1736672993
30
0.0000000000
10
-22.1780530217
20
-21.1800537783
30
0.0000000000
10
-22.1451699096
20
-21.1860023566
30
0.0000000000
10
-22.1083625170
20
-21.1914381982
30
0.0000000000
10
-22.0680213161
20
-21.1962994774
30
0.0000000000
10
-22.0245758222
20
-21.2005304387
30
0.0000000000
10
-21.9784900764
20
-21.2040836216
30
0.0000000000
10
-21.9302569190
20
-21.2069193765
30
0.0000000000
10
-21.8803924965
20
-21.2090062836
30
0.0000000000
10
-21.8294308191
20
-21.2103213048
30
0.0000000000
10
-21.7951477608
20
-21.2106731410
30
0.0000000000
10
-21.7779162692
20
-21.2107174911
30
0.0000000000
11
-22.2778401168
21
-21.1361579495
31
0.0000000000
11
-22.2742692142
21
-21.1438673728
31
0.0000000000
11
-22.2653788986
21
-21.1514941742
31
0.0000000000
11
-22.2512644474
21
-21.1589566173
31
0.0000000000
11
-22.2320771252
21
-21.1661747272
31
0.0000000000
11
-22.2080225625
21
-21.1730711474
31
0.0000000000
11
-22.1793585519
21
-21.1795719689
31
0.0000000000
11
-22.1463922856
21
-21.1856075225
31
0.0000000000
11
-22.1094770630
21
-21.1911131252
31
0.0000000000
11
-22.0690085043
21
-21.1960297734
31
0.0000000000
11
-22.0254203110
21
-21.2003047755
31
0.0000000000
11
-21.9791796176
21
-21.2038923162
31
0.0000000000
11
-21.9307819855
21
-21.2067539480
31
0.0000000000
11
-21.8807460920
21
-21.2088590026
31
0.0000000000
11
-21.8296081716
21
-21.2101849202
31
0.0000000000
11
-21.7779162692
21
-21.2107174911
31
0.0000000000
0
SPLINE
5
364
100
AcDbEntity
8
0
100
AcDbSpline
62
9
6
CONTINUOUS
70
0
71
3
72
14
73
10
74
8
42
0.0000001000
43
0.0000001000
44
0.0000000001
12
0.0306549600
22
11.7106924750
32
0.0000000000
13
0.0038629501
23
11.7107319604
33
0.0000000000
40
0.0000000000
40
0.0000000000
40
0.0000000000
40
0.0000000000
40
0.1420565057
40
0.2844627223
40
0.4271690479
40
0.5701257656
40
0.7132830865
40
0.8565911367
40
1.0000000000
40
1.0000000000
40
1.0000000000
40
1.0000000000
10
-21.7779162692
20
-21.2107174911
30
0.0000000000
10
-21.7764646904
20
-20.6561908070
30
0.0000000000
10
-21.7737421894
20
-19.5457718288
30
0.0000000000
10
-21.7702035216
20
-17.8782880572
30
0.0000000000
10
-21.7672056756
20
-16.2072891708
30
0.0000000000
10
-21.7647496972
20
-14.5333574041
30
0.0000000000
10
-21.7628364426
20
-12.8570760482
30
0.0000000000
10
-21.7614665785
20
-11.1790291761
30
0.0000000000
10
-21.7609160451
20
-10.0598075864
30
0.0000000000
10
-21.7607313847
20
-9.5000000000
30
0.0000000000
11
-21.7779162692
21
-21.2107174911
31
0.0000000000
11
-21.7738368146
21
-19.5471367410
31
0.0000000000
11
-21.7702971100
21
-17.8794593742
31
0.0000000000
11
-21.7672983881
21
-16.2082664463
31
0.0000000000
11
-21.7648416937
21
-14.5341403548
31
0.0000000000
11
-21.7629278821
21
-12.8576643428
31
0.0000000000
11
-21.7615576201
21
-11.1794226474
31
0.0000000000
11
-21.7607313847
21
-9.5000000000
31
0.0000000000
0
SPLINE
5
365
100
AcDbEntity
8
0
100
AcDbSpline
62
9
6
CONTINUOUS
70
0
71
3
72
14
73
10
74
8
42
0.0000001000
43
0.0000001000
44
0.0000000001
12
0.0306549592
22
11.6456327936
32
0.0000000000
13
0.0038629502
23
11.6456724996
33
0.0000000000
40
0.0000000000
40
0.0000000000
40
0.0000000000
40
0.0000000000
40
0.1420564296
40
0.2844626893
40
0.4271690571
40
0.5701258163
40
0.7132831780
40
0.8565912684
40
1.0000000000
40
1.0000000000
40
1.0000000000
40
1.0000000000
10
-22.2778401168
20
-21.1361579495
30
0.0000000000
10
-22.2763885388
20
-20.5847122777
30
0.0000000000
10
-22.2736660381
20
-19.4804624432
30
0.0000000000
10
-22.2701273700
20
-17.8222424522
30
0.0000000000
10
-22.2671295231
20
-16.1605264064
30
0.0000000000
10
-22.2646735440
20
-14.4958937726
30
0.0000000000
10
-22.2627602891
20
-12.8289246029
30
0.0000000000
10
-22.2613904255
20
-11.1602003920
30
0.0000000000
10
-22.2608398925
20
-10.0471970406
30
0.0000000000
10
-22.2606552323
20
-9.4905000000
30
0.0000000000
11
-22.2778401168
21
-21.1361579495
31
0.0000000000
11
-22.2737606643
21
-19.4818202323
31
0.0000000000
11
-22.2702209584
21
-17.8234072572
31
0.0000000000
11
-22.2672222356
21
-16.1614982481
31
0.0000000000
11
-22.2647655406
21
-14.4966723695
31
0.0000000000
11
-22.2628517287
21
-12.8295096259
31
0.0000000000
11
-22.2614814667
21
-11.1605910092
31
0.0000000000
11
-22.2606552323
21
-9.4905000000
31
0.0000000000
0
SPLINE
5
366
100
AcDbEntity
8
0
100
AcDbSpline
62
9
6
CONTINUOUS
70
0
71
3
72
22
73
18
74
16
42
0.0000001000
43
0.0000001000
44
0.0000000001
12
0.0007171661
22
-0.7842144221
32
0.0000000000
13
0.7842144237
23
-0.0007154197
33
0.0000000000
40
0.0000000000
40
0.0000000000
40
0.0000000000
40
0.0000000000
40
0.0666100448
40
0.1332280852
40
0.1998553953
40
0.2664928444
40
0.3331408586
40
0.3997994030
40
0.4664679832
40
0.5331456666
40
0.5998311242
40
0.6665226878
40
0.7332184233
40
0.7999162149
40
0.8666138571
40
0.9333091510
40
1.0000000000
40
1.0000000000
40
1.0000000000
40
1.0000000000
10
-22.2860133051
20
-21.5609131753
30
0.0000000000
10
-22.2859973816
20
-21.5783253612
30
0.0000000000
10
-22.2841382252
20
-21.6131776996
30
0.0000000000
10
-22.2758991627
20
-21.6648592733
30
0.0000000000
10
-22.2622998182
20
-21.7154090681
30
0.0000000000
10
-22.2434890789
20
-21.7642663697
30
0.0000000000
10
-22.2196728537
20
-21.8108985335
30
0.0000000000
10
-22.1911118258
20
-21.8547947280
30
0.0000000000
10
-22.1581185908
20
-21.8954747617
30
0.0000000000
10
-22.1210542371
20
-21.9324934654
30
0.0000000000
10
-22.0803243752
20
-21.9654457921
30
0.0000000000
10
-22.0363747602
20
-21.9939711815
30
0.0000000000
10
-21.9896861834
20
-22.0177575174
30
0.0000000000
10
-21.9407700774
20
-22.0365445329
30
0.0000000000
10
-21.8901596973
20
-22.0501266594
30
0.0000000000
10
-21.8384163290
20
-22.0583552625
30
0.0000000000
10
-21.8035227661
20
-22.0602120387
30
0.0000000000
10
-21.7860894575
20
-22.0602279426
30
0.0000000000
11
-22.2860133051
21
-21.5609131753
31
0.0000000000
11
-22.2832301490
21
-21.6130755592
31
0.0000000000
11
-22.2750065431
21
-21.6646671057
31
0.0000000000
11
-22.2614324821
21
-21.7151232236
31
0.0000000000
11
-22.2426565133
21
-21.7638917475
31
0.0000000000
11
-22.2188841108
21
-21.8104389798
31
0.0000000000
11
-22.1903754274
21
-21.8542555316
31
0.0000000000
11
-22.1574424470
21
-21.8948618972
31
0.0000000000
11
-22.1204455710
21
-21.9318137012
31
0.0000000000
11
-22.0797896738
21
-21.9647065621
31
0.0000000000
11
-22.0359196725
21
-21.9931805172
31
0.0000000000
11
-21.9893156578
21
-22.0169239618
31
0.0000000000
11
-21.9404876398
21
-22.0356770599
31
0.0000000000
11
-21.8899699673
21
-22.0492345870
31
0.0000000000
11
-21.8383154799
21
-22.0574481764
31
0.0000000000
11
-21.7860894575
21
-22.0602279426
31
0.0000000000
0
SPLINE
5
367
100
AcDbEntity
8
0
100
AcDbSpline
62
9
6
CONTINUOUS
70
0
71
3
72
23
73
19
74
17
42
0.0000001000
43
0.0000001000
44
0.0000000001
12
0.1395305944
22
0.8380719372
32
0.0000000000
13
0.0011180576
23
0.8496070319
33
0.0000000000
40
0.0000000000
40
0.0000000000
40
0.0000000000
40
0.0000000000
40
0.0096020568
40
0.0277116045
40
0.0542092537
40
0.0889039161
40
0.1315434710
40
0.1818170518
40
0.2393569484
40
0.3037423456
40
0.3745026836
40
0.4511208252
40
0.5330363316
40
0.6196494307
40
0.7103271977
40
0.8044074561
40
0.9011994285
40
1.0000000000
40
1.0000000000
40
1.0000000000
40
1.0000000000
10
-21.7860894575
20
-22.0602279426
30
0.0000000000
10
-21.7856428640
20
-22.0575455379
30
0.0000000000
10
-21.7852060808
20
-22.0496887841
30
0.0000000000
10
-21.7844533824
20
-22.0343692159
30
0.0000000000
10
-21.7838090645
20
-22.0119119407
30
0.0000000000
10
-21.7831139483
20
-21.9825177371
30
0.0000000000
10
-21.7824584798
20
-21.9463835342
30
0.0000000000
10
-21.7818205202
20
-21.9037799807
30
0.0000000000
10
-21.7812169023
20
-21.8550163706
30
0.0000000000
10
-21.7806493550
20
-21.8004502676
30
0.0000000000
10
-21.7801237084
20
-21.7404804571
30
0.0000000000
10
-21.7796437829
20
-21.6755455667
30
0.0000000000
10
-21.7792134295
20
-21.6061206914
30
0.0000000000
10
-21.7788359100
20
-21.5327137344
30
0.0000000000
10
-21.7785141196
20
-21.4558613922
30
0.0000000000
10
-21.7782504552
20
-21.3761261301
30
0.0000000000
10
-21.7780469507
20
-21.2940902864
30
0.0000000000
10
-21.7779530908
20
-21.2386980445
30
0.0000000000
10
-21.7779162692
20
-21.2107174911
30
0.0000000000
11
-21.7860894575
21
-22.0602279426
31
0.0000000000
11
-21.7853464177
21
-22.0521038696
31
0.0000000000
11
-21.7846122009
21
-22.0367353855
31
0.0000000000
11
-21.7838920750
21
-22.0142342975
31
0.0000000000
11
-21.7831913877
21
-21.9847657719
31
0.0000000000
11
-21.7825152321
21
-21.9485451855
31
0.0000000000
11
-21.7818685593
21
-21.9058372563
31
0.0000000000
11
-21.7812561020
21
-21.8569547499
31
0.0000000000
11
-21.7806823412
21
-21.8022554254
31
0.0000000000
11
-21.7801514705
21
-21.7421392365
31
0.0000000000
11
-21.7796673703
21
-21.6770456683
31
0.0000000000
11
-21.7792335831
21
-21.6074509697
31
0.0000000000
11
-21.7788532821
21
-21.5338647907
31
0.0000000000
11
-21.7785292500
21
-21.4568249369
31
0.0000000000
11
-21.7782638430
21
-21.3768940592
31
0.0000000000
11
-21.7780590269
21
-21.2946591027
31
0.0000000000
11
-21.7779162692
21
-21.2107174911
31
0.0000000000
0
SPLINE
5
368
100
AcDbEntity
8
0
100
AcDbSpline
62
9
6
CONTINUOUS
70
0
71
3
72
23
73
19
74
17
42
0.0000001000
43
0.0000001000
44
0.0000000001
12
0.1342578020
22
0.4031833270
32
0.0000000000
13
0.0011186693
23
0.4249478805
33
0.0000000000
40
0.0000000000
40
0.0000000000
40
0.0000000000
40
0.0000000000
40
0.0097126103
40
0.0278756987
40
0.0544034737
40
0.0891150085
40
0.1317623429
40
0.1820368702
40
0.2395722510
40
0.3039486154
40
0.3746961087
40
0.4512981126
40
0.5331944628
40
0.6197857501
40
0.7104393968
40
0.8044935783
40
0.9012578119
40
1.0000000000
40
1.0000000000
40
1.0000000000
40
1.0000000000
10
-22.2860133051
20
-21.5609131753
30
0.0000000000
10
-22.2855786406
20
-21.5596078544
30
0.0000000000
10
-22.2851233066
20
-21.5556472993
30
0.0000000000
10
-22.2843822618
20
-21.5480022546
30
0.0000000000
10
-22.2837314762
20
-21.5367593415
30
0.0000000000
10
-22.2830387016
20
-21.5220655168
30
0.0000000000
10
-22.2823822571
20
-21.5039958789
30
0.0000000000
10
-22.2817445556
20
-21.4826938109
30
0.0000000000
10
-22.2811407964
20
-21.4583108097
30
0.0000000000
10
-22.2805732482
20
-21.4310265933
30
0.0000000000
10
-22.2800475638
20
-21.4010402094
30
0.0000000000
10
-22.2795676198
20
-21.3685711039
30
0.0000000000
10
-22.2791372468
20
-21.3338568456
30
0.0000000000
10
-22.2787597201
20
-21.2971514562
30
0.0000000000
10
-22.2784379157
20
-21.2587233208
30
0.0000000000
10
-22.2781742655
20
-21.2188537163
30
0.0000000000
10
-22.2779707652
20
-21.1778380072
30
0.0000000000
10
-22.2778769368
20
-21.1501447107
30
0.0000000000
10
-22.2778401168
20
-21.1361579495
30
0.0000000000
11
-22.2860133051
21
-21.5609131753
31
0.0000000000
11
-22.2852705221
21
-21.5568531955
31
0.0000000000
11
-22.2845362473
21
-21.5491698092
31
0.0000000000
11
-22.2838161035
21
-21.5379198741
31
0.0000000000
11
-22.2831153800
21
-21.5231858831
31
0.0000000000
11
-22.2824391949
21
-21.5050755449
31
0.0000000000
11
-22.2817924912
21
-21.4837212073
31
0.0000000000
11
-22.2811800051
21
-21.4592792573
31
0.0000000000
11
-22.2806062175
21
-21.4319285810
31
0.0000000000
11
-22.2800753228
21
-21.4018691673
31
0.0000000000
11
-22.2795912023
21
-21.3693207955
31
0.0000000000
11
-22.2791573991
21
-21.3345216983
31
0.0000000000
11
-22.2787770888
21
-21.2977267521
31
0.0000000000
11
-22.2784530491
21
-21.2592049065
31
0.0000000000
11
-22.2781876471
21
-21.2192375241
31
0.0000000000
11
-22.2779828289
21
-21.1781181358
31
0.0000000000
11
-22.2778401168
21
-21.1361579495
31
0.0000000000
0
SPLINE
5
369
100
AcDbEntity
8
0
100
AcDbSpline
62
9
6
CONTINUOUS
70
0
71
3
72
23
73
19
74
17
42
0.0000001000
43
0.0000001000
44
0.0000000001
12
-0.2236468124
22
-0.1117082783
32
0.0000000000
13
-0.2499932722
23
-0.0000000360
33
0.0000000000
40
0.0000000000
40
0.0000000000
40
0.0000000000
40
0.0000000000
40
0.0064498117
40
0.0222248908
40
0.0472007356
40
0.0811466785
40
0.1237449319
40
0.1745955306
40
0.2332197060
40
0.2990654776
40
0.3715129794
40
0.4498797934
40
0.5334276626
40
0.6213689832
40
0.7128758814
40
0.8070874700
40
0.9031137784
40
1.0000000000
40
1.0000000000
40
1.0000000000
40
1.0000000000
10
22.0091221542
20
-0.1454354616
30
0.0000000000
10
22.0086413276
20
-0.1456756274
30
0.0000000000
10
22.0066961092
20
-0.1455860810
30
0.0000000000
10
22.0028506982
20
-0.1459749684
30
0.0000000000
10
21.9965844926
20
-0.1460568633
30
0.0000000000
10
21.9881456635
20
-0.1462941137
30
0.0000000000
10
21.9775242037
20
-0.1464618788
30
0.0000000000
10
21.9648554904
20
-0.1466448212
30
0.0000000000
10
21.9502459460
20
-0.1468089018
30
0.0000000000
10
21.9338375726
20
-0.1469630725
30
0.0000000000
10
21.9157835004
20
-0.1471021684
30
0.0000000000
10
21.8962542545
20
-0.1472258717
30
0.0000000000
10
21.8754337431
20
-0.1473326010
30
0.0000000000
10
21.8535181704
20
-0.1474214013
30
0.0000000000
10
21.8307139035
20
-0.1474913729
30
0.0000000000
10
21.8072358537
20
-0.1475418405
30
0.0000000000
10
21.7833095042
20
-0.1475723091
30
0.0000000000
10
21.7672338919
20
-0.1475790871
30
0.0000000000
10
21.7591602573
20
-0.1475790882
30
0.0000000000
11
22.0091221542
21
-0.1454354616
31
0.0000000000
11
22.0075236305
21
-0.1456466167
31
0.0000000000
11
22.0035855051
21
-0.1458555453
31
0.0000000000
11
21.9973450656
21
-0.1460601629
31
0.0000000000
11
21.9888611271
21
-0.1462585365
31
0.0000000000
11
21.9782135502
21
-0.1464487996
31
0.0000000000
11
21.9655025222
21
-0.1466291608
31
0.0000000000
11
21.9508478444
21
-0.1467979195
31
0.0000000000
11
21.9343875796
21
-0.1469534859
31
0.0000000000
11
21.9162767397
21
-0.1470943948
31
0.0000000000
11
21.8966859617
21
-0.1472193187
31
0.0000000000
11
21.8757998345
21
-0.1473270807
31
0.0000000000
11
21.8538152785
21
-0.1474166651
31
0.0000000000
11
21.8309392785
21
-0.1474872293
31
0.0000000000
11
21.8073870701
21
-0.1475381091
31
0.0000000000
11
21.7833811587
21
-0.1475688250
31
0.0000000000
11
21.7591602573
21
-0.1475790882
31
0.0000000000
0
SPLINE
5
36A
100
AcDbEntity
8
0
100
AcDbSpline
62
9
6
CONTINUOUS
70
0
71
3
72
20
73
16
74
14
42
0.0000001000
43
0.0000001000
44
0.0000000001
12
0.0418326002
22
-0.2466680899
32
0.0000000000
13
0.0003701519
23
-0.2501898799
33
0.0000000000
40
0.0000000000
40
0.0000000000
40
0.0000000000
40
0.0000000000
40
0.0082596098
40
0.0308226564
40
0.0673648238
40
0.1173588260
40
0.1800828741
40
0.2546313259
40
0.3399278484
40
0.4347410396
40
0.5377022598
40
0.6473252363
40
0.7620274334
40
0.8801529217
40
1.0000000000
40
1.0000000000
40
1.0000000000
40
1.0000000000
10
-6.3524285272
20
-0.1475790882
30
0.0000000000
10
-6.3523133535
20
-0.1482582156
30
0.0000000000
10
-6.3524891128
20
-0.1508501539
30
0.0000000000
10
-6.3522795165
20
-0.1564484969
30
0.0000000000
10
-6.3523522538
20
-0.1655577158
30
0.0000000000
10
-6.3522797568
20
-0.1780008925
30
0.0000000000
10
-6.3522643969
20
-0.1936200060
30
0.0000000000
10
-6.3522256839
20
-0.2121809000
30
0.0000000000
10
-6.3521938432
20
-0.2334187266
30
0.0000000000
10
-6.3521600747
20
-0.2570258279
30
0.0000000000
10
-6.3521284012
20
-0.2826617604
30
0.0000000000
10
-6.3520982084
20
-0.3099563493
30
0.0000000000
10
-6.3520687596
20
-0.3385155969
30
0.0000000000
10
-6.3520378460
20
-0.3679274982
30
0.0000000000
10
-6.3520107789
20
-0.3877736112
30
0.0000000000
10
-6.3519959917
20
-0.3977684532
30
0.0000000000
11
-6.3524285272
21
-0.1475790882
31
0.0000000000
11
-6.3523880430
21
-0.1496451647
31
0.0000000000
11
-6.3523555523
21
-0.1552901233
31
0.0000000000
11
-6.3523255026
21
-0.1644325643
31
0.0000000000
11
-6.3522948912
21
-0.1769405340
31
0.0000000000
11
-6.3522627324
21
-0.1926334403
31
0.0000000000
11
-6.3522292537
21
-0.2112846988
31
0.0000000000
11
-6.3521952650
21
-0.2326250218
31
0.0000000000
11
-6.3521617856
21
-0.2563463251
31
0.0000000000
11
-6.3521296255
21
-0.2821061885
31
0.0000000000
11
-6.3520990122
21
-0.3095327608
31
0.0000000000
11
-6.3520689602
21
-0.3382301054
31
0.0000000000
11
-6.3520364674
21
-0.3677839216
31
0.0000000000
11
-6.3519959917
21
-0.3977684532
31
0.0000000000
0
SPLINE
5
36B
100
AcDbEntity
8
0
100
AcDbSpline
62
9
6
CONTINUOUS
70
0
71
3
72
21
73
17
74
15
42
0.0000001000
43
0.0000001000
44
0.0000000001
12
-0.0000003367
22
0.0500445334
32
0.0000000000
13
0.0353399994
23
0.0354335966
33
0.0000000000
40
0.0000000000
40
0.0000000000
40
0.0000000000
40
0.0000000000
40
0.1112068742
40
0.2211523687
40
0.3283566623
40
0.4314836174
40
0.5292496303
40
0.6204372760
40
0.7039103755
40
0.7786270613
40
0.8436570003
40
0.8981913868
40
0.9415529256
40
0.9732040650
40
0.9927572478
40
1.0000000000
40
1.0000000000
40
1.0000000000
40
1.0000000000
10
-15.9480116237
20
-0.3976093458
30
0.0000000000
10
-15.9480116362
20
-0.3957542471
30
0.0000000000
10
-15.9480098761
20
-0.3920650912
30
0.0000000000
10
-15.9480018912
20
-0.3865876104
30
0.0000000000
10
-15.9479886609
20
-0.3812449274
30
0.0000000000
10
-15.9479703744
20
-0.3761054252
30
0.0000000000
10
-15.9479472157
20
-0.3712331527
30
0.0000000000
10
-15.9479196788
20
-0.3666886782
30
0.0000000000
10
-15.9478875132
20
-0.3625290242
30
0.0000000000
10
-15.9478531581
20
-0.3588048579
30
0.0000000000
10
-15.9478109702
20
-0.3555662737
30
0.0000000000
10
-15.9477797129
20
-0.3528427477
30
0.0000000000
10
-15.9477102741
20
-0.3506979492
30
0.0000000000
10
-15.9477284644
20
-0.3490841307
30
0.0000000000
10
-15.9475747225
20
-0.3481773688
30
0.0000000000
10
-15.9476644078
20
-0.3476570184
30
0.0000000000
10
-15.9475790882
20
-0.3475714728
30
0.0000000000
11
-15.9480116237
21
-0.3976093458
31
0.0000000000
11
-15.9480089513
21
-0.3920440503
31
0.0000000000
11
-15.9480008787
21
-0.3865418853
31
0.0000000000
11
-15.9479875065
21
-0.3811769131
31
0.0000000000
11
-15.9479690009
21
-0.3760160059
31
0.0000000000
11
-15.9479455918
21
-0.3711234074
31
0.0000000000
11
-15.9479175706
21
-0.3665600503
31
0.0000000000
11
-15.9478852860
21
-0.3623828027
31
0.0000000000
11
-15.9478491409
21
-0.3586438157
31
0.0000000000
11
-15.9478095859
21
-0.3553896632
31
0.0000000000
11
-15.9477671140
21
-0.3526608457
31
0.0000000000
11
-15.9477222540
21
-0.3504913015
31
0.0000000000
11
-15.9476755644
21
-0.3489080233
31
0.0000000000
11
-15.9476276270
21
-0.3479306682
31
0.0000000000
11
-15.9475790882
21
-0.3475714728
31
0.0000000000
0
SPLINE
5
36C
100
AcDbEntity
8
0
100
AcDbSpline
62
9
6
CONTINUOUS
70
0
71
3
72
9
73
5
74
3
42
0.0000001000
43
0.0000001000
44
0.0000000001
12
-0.0000055795
22
0.4004171366
32
0.0000000000
13
-0.0000027799
23
0.4004171367
33
0.0000000000
40
0.0000000000
40
0.0000000000
40
0.0000000000
40
0.0000000000
40
0.4999998961
40
1.0000000000
40
1.0000000000
40
1.0000000000
40
1.0000000000
10
-15.9480074440
20
-0.7980264825
30
0.0000000000
10
-15.9480083739
20
-0.7312903069
30
0.0000000000
10
-15.9480100004
20
-0.5978179280
30
0.0000000000
10
-15.9480111604
20
-0.4643455491
30
0.0000000000
10
-15.9480116237
20
-0.3976093458
30
0.0000000000
11
-15.9480074440
21
-0.7980264825
31
0.0000000000
11
-15.9480098838
21
-0.5978179558
31
0.0000000000
11
-15.9480116237
21
-0.3976093458
31
0.0000000000
0
SPLINE
5
36D
100
AcDbEntity
8
0
100
AcDbSpline
62
9
6
CONTINUOUS
70
0
71
3
72
25
73
21
74
19
42
0.0000001000
43
0.0000001000
44
0.0000000001
12
-1.0994284664
22
0.0000120894
32
0.0000000000
13
-0.0000111512
23
1.0994284664
33
0.0000000000
40
0.0000000000
40
0.0000000000
40
0.0000000000
40
0.0000000000
40
0.0550194735
40
0.1104475681
40
0.1661017090
40
0.2218267750
40
0.2774792608
40
0.3330385550
40
0.3885932523
40
0.4441971949
40
0.4998312063
40
0.5554703107
40
0.6110892603
40
0.6666664609
40
0.7222503245
40
0.7779295866
40
0.8336926521
40
0.8894024309
40
0.9449018018
40
1.0000000000
40
1.0000000000
40
1.0000000000
40
1.0000000000
10
7.1000000000
20
-1.4505802321
30
0.0000000000
10
7.0798366749
20
-1.4505800104
30
0.0000000000
10
7.0393385281
20
-1.4488286613
30
0.0000000000
10
6.9789074248
20
-1.4409251880
30
0.0000000000
10
6.9191372992
20
-1.4277274181
30
0.0000000000
10
6.8606721593
20
-1.4093307148
30
0.0000000000
10
6.8040707473
20
-1.3859077327
30
0.0000000000
10
6.7497851745
20
-1.3576635787
30
0.0000000000
10
6.6981837663
20
-1.3248037153
30
0.0000000000
10
6.6496228527
20
-1.2875520754
30
0.0000000000
10
6.6044750381
20
-1.2461839437
30
0.0000000000
10
6.5631065278
20
-1.2010290105
30
0.0000000000
10
6.5258488475
20
-1.1524530358
30
0.0000000000
10
6.4929801093
20
-1.1008302915
30
0.0000000000
10
6.4647261411
20
-1.0465193215
30
0.0000000000
10
6.4412918995
20
-0.9898871530
30
0.0000000000
10
6.4228814704
20
-0.9313800619
30
0.0000000000
10
6.4096691545
20
-0.8715511899
30
0.0000000000
10
6.4017543565
20
-0.8110454569
30
0.0000000000
10
6.4000002048
20
-0.7704922959
30
0.0000000000
10
6.4000000000
20
-0.7503001200
30
0.0000000000
11
7.1000000000
21
-1.4505802321
31
0.0000000000
11
7.0395665582
21
-1.4479656152
31
0.0000000000
11
6.9791418228
21
-1.4400636844
31
0.0000000000
11
6.9193933684
21
-1.4268704075
31
0.0000000000
11
6.8609524774
21
-1.4084815203
31
0.0000000000
11
6.8044162423
21
-1.3850855421
31
0.0000000000
11
6.7502283168
21
-1.3568922983
31
0.0000000000
11
6.6987089922
21
-1.3240847984
31
0.0000000000
11
6.6502041739
21
-1.2868763024
31
0.0000000000
11
6.6051069855
21
-1.2455546839
31
0.0000000000
11
6.5637847828
21
-1.2004504365
31
0.0000000000
11
6.5265695684
21
-1.1519299776
31
0.0000000000
11
6.4937519831
21
-1.1003877442
31
0.0000000000
11
6.4655488090
21
-1.0461745359
31
0.0000000000
11
6.4421426977
21
-0.9896106342
31
0.0000000000
11
6.4237407030
21
-0.9311300705
31
0.0000000000
11
6.4105326391
21
-0.8713222379
31
0.0000000000
11
6.4026189755
21
-0.8108200065
31
0.0000000000
11
6.4000000000
21
-0.7503001200
31
0.0000000000
0
SPLINE
5
36E
100
AcDbEntity
8
0
100
AcDbSpline
62
9
6
CONTINUOUS
70
0
71
3
72
10
73
6
74
4
42
0.0000001000
43
0.0000001000
44
0.0000000001
12
-0.0000027345
22
-0.4500221513
32
0.0000000000
13
-0.0000062707
23
-0.4500221512
33
0.0000000000
40
0.0000000000
40
0.0000000000
40
0.0000000000
40
0.0000000000
40
0.3333334336
40
0.6666667687
40
1.0000000000
40
1.0000000000
40
1.0000000000
40
1.0000000000
10
-6.5519880534
20
-0.3480043312
30
0.0000000000
10
-6.5519883572
20
-0.3980068075
30
0.0000000000
10
-6.5519890959
20
-0.4980117453
30
0.0000000000
10
-6.5519905967
20
-0.6480191291
30
0.0000000000
10
-6.5519918592
20
-0.7480240365
30
0.0000000000
10
-6.5519925560
20
-0.7980264825
30
0.0000000000
11
-6.5519880534
21
-0.3480043312
31
0.0000000000
11
-6.5519891614
21
-0.4980117601
31
0.0000000000
11
-6.5519906622
21
-0.6480191446
31
0.0000000000
11
-6.5519925560
21
-0.7980264825
31
0.0000000000
0
SPLINE
5
36F
100
AcDbEntity
8
0
100
AcDbSpline
62
9
6
CONTINUOUS
70
0
71
3
72
25
73
21
74
19
42
0.0000001000
43
0.0000001000
44
0.0000000001
12
-0.0000120779
22
-1.0994284663
32
0.0000000000
13
-1.0994284663
23
-0.0000111582
33
0.0000000000
40
0.0000000000
40
0.0000000000
40
0.0000000000
40
0.0000000000
40
0.0550699132
40
0.1105466666
40
0.1662462131
40
0.2220121219
40
0.2776997473
40
0.3332877460
40
0.3888637775
40
0.4444807649
40
0.5001191488
40
0.5557538686
40
0.6113597658
40
0.6669156203
40
0.7224707502
40
0.7781148483
40
0.8338370744
40
0.8895014604
40
0.9449521924
40
1.0000000000
40
1.0000000000
40
1.0000000000
40
1.0000000000
10
16.1000000000
20
-0.7503001200
30
0.0000000000
10
16.0999997783
20
-0.7704819301
30
0.0000000000
10
16.0982473618
20
-0.8110164021
30
0.0000000000
10
16.0903392844
20
-0.8715003333
30
0.0000000000
10
16.0771345800
20
-0.9313195794
30
0.0000000000
10
16.0587295457
20
-0.9898287515
30
0.0000000000
10
16.0352979468
20
-1.0464681334
30
0.0000000000
10
16.0070461396
20
-1.1007849261
30
0.0000000000
10
15.9741809635
20
-1.1524103705
30
0.0000000000
10
15.9369278034
20
-1.2009880234
30
0.0000000000
10
15.8955632777
20
-1.2461456216
30
0.0000000000
10
15.8504181378
20
-1.2875177300
30
0.0000000000
10
15.8018589136
20
-1.3247738843
30
0.0000000000
10
15.7502602226
20
-1.3576373025
30
0.0000000000
10
15.6959804967
20
-1.3858836103
30
0.0000000000
10
15.6393863187
20
-1.4093092348
30
0.0000000000
10
15.5809232660
20
-1.4277113409
30
0.0000000000
10
15.5211435039
20
-1.4409167346
30
0.0000000000
10
15.4606905701
20
-1.4488269397
30
0.0000000000
10
15.4201737089
20
-1.4505800273
30
0.0000000000
10
15.4000000000
20
-1.4505802321
30
0.0000000000
11
16.1000000000
21
-0.7503001200
31
0.0000000000
11
16.0973837213
21
-0.8107889967
31
0.0000000000
11
16.0894770718
21
-0.8712670673
31
0.0000000000
11
16.0762766829
21
-0.9310650739
31
0.0000000000
11
16.0578792393
21
-0.9895503466
31
0.0000000000
11
16.0344744178
21
-1.0461247326
31
0.0000000000
11
16.0062732207
21
-1.1003440940
31
0.0000000000
11
15.9734600787
21
-1.1518876324
31
0.0000000000
11
15.9362498292
21
-1.2004091805
31
0.0000000000
11
15.8949316517
21
-1.2455160409
31
0.0000000000
11
15.8498370872
21
-1.2868416756
31
0.0000000000
11
15.8013333665
21
-1.3240551329
31
0.0000000000
11
15.7498153603
21
-1.3568670714
31
0.0000000000
11
15.6956336190
21
-1.3850622813
31
0.0000000000
11
15.6391078964
21
-1.4084595455
31
0.0000000000
11
15.5806717139
21
-1.4268529937
31
0.0000000000
11
15.5209134222
21
-1.4400539577
31
0.0000000000
11
15.4604645054
21
-1.4479629129
31
0.0000000000
11
15.4000000000
21
-1.4505802321
31
0.0000000000
0
SPLINE
5
370
100
AcDbEntity
8
0
100
AcDbSpline
62
9
6
CONTINUOUS
70
0
71
3
72
19
73
15
74
13
42
0.0000001000
43
0.0000001000
44
0.0000000001
12
0.2000008301
22
0.0000000000
32
0.0000000000
13
0.0000000000
23
0.2000008301
33
0.0000000000
40
0.0000000000
40
0.0000000000
40
0.0000000000
40
0.0000000000
40
0.1305256511
40
0.2588179772
40
0.3826818664
40
0.4999979792
40
0.6087590115
40
0.7071040406
40
0.7933503680
40
0.8660223132
40
0.9238764696
40
0.9659229997
40
0.9914426550
40
1.0000000000
40
1.0000000000
40
1.0000000000
40
1.0000000000
10
6.4000000000
20
-0.7503001200
30
0.0000000000
10
6.4087017462
20
-0.7503001200
30
0.0000000000
10
6.4259563248
20
-0.7502984137
30
0.0000000000
10
6.4514686632
20
-0.7502909697
30
0.0000000000
10
6.4760998728
20
-0.7502781798
30
0.0000000000
10
6.4994306622
20
-0.7502623342
30
0.0000000000
10
6.5210545786
20
-0.7502367982
30
0.0000000000
10
6.5406252635
20
-0.7502246113
30
0.0000000000
10
6.5577340046
20
-0.7501555349
30
0.0000000000
10
6.5723071181
20
-0.7502400253
30
0.0000000000
10
6.5834899272
20
-0.7498989383
30
0.0000000000
10
6.5925966494
20
-0.7505762538
30
0.0000000000
10
6.5963449316
20
-0.7492771821
30
0.0000000000
10
6.6000000000
20
-0.7505704920
30
0.0000000000
10
6.6000000000
20
-0.7500000000
30
0.0000000000
11
6.4000000000
21
-0.7503001200
31
0.0000000000
11
6.4261052384
21
-0.7502975525
31
0.0000000000
11
6.4517638090
21
-0.7502898937
31
0.0000000000
11
6.4765366865
21
-0.7502772748
31
0.0000000000
11
6.5000000000
21
-0.7502599116
31
0.0000000000
11
6.5217522858
21
-0.7502381012
31
0.0000000000
11
6.5414213562
21
-0.7502122169
31
0.0000000000
11
6.5586706681
21
-0.7501827015
31
0.0000000000
11
6.5732050808
21
-0.7501500600
31
0.0000000000
11
6.5847759065
21
-0.7501148510
31
0.0000000000
11
6.5931851653
21
-0.7500776768
31
0.0000000000
11
6.5982889723
21
-0.7500391735
31
0.0000000000
11
6.6000000000
21
-0.7500000000
31
0.0000000000
0
SPLINE
5
371
100
AcDbEntity
8
0
100
AcDbSpline
62
9
6
CONTINUOUS
70
0
71
3
72
20
73
16
74
14
42
0.0000001000
43
0.0000001000
44
0.0000000001
12
0.2142145112
22
0.0000451660
32
0.0000000000
13
0.0000750390
23
0.2142145028
33
0.0000000000
40
0.0000000000
40
0.0000000000
40
0.0000000000
40
0.0000000000
40
0.1102596660
40
0.2192587650
40
0.3259626321
40
0.4285346153
40
0.5258567627
40
0.6164889600
40
0.6994045295
40
0.7733889062
40
0.8377380256
40
0.8918071071
40
0.9358190324
40
0.9707785275
40
1.0000000000
40
1.0000000000
40
1.0000000000
40
1.0000000000
10
6.4000000000
20
-0.3977684532
30
0.0000000000
10
6.4078730735
20
-0.3977667932
30
0.0000000000
10
6.4235301184
20
-0.3975272258
30
0.0000000000
10
6.4467853772
20
-0.3964873528
30
0.0000000000
10
6.4694517825
20
-0.3947854170
30
0.0000000000
10
6.4912207255
20
-0.3924207425
30
0.0000000000
10
6.5117533822
20
-0.3894234502
30
0.0000000000
10
6.5307635595
20
-0.3858225585
30
0.0000000000
10
6.5479524414
20
-0.3816694159
30
0.0000000000
10
6.5630666997
20
-0.3770263999
30
0.0000000000
10
6.5758520723
20
-0.3719516167
30
0.0000000000
10
6.5861476267
20
-0.3665369663
30
0.0000000000
10
6.5937767004
20
-0.3607881191
30
0.0000000000
10
6.5987385602
20
-0.3547019021
30
0.0000000000
10
6.5999992691
20
-0.3500909059
30
0.0000000000
10
6.6000000000
20
-0.3480043515
30
0.0000000000
11
6.4000000000
21
-0.3977684532
31
0.0000000000
11
6.4236164939
21
-0.3974095468
31
0.0000000000
11
6.4469421372
21
-0.3963612123
31
0.0000000000
11
6.4697343517
21
-0.3946346404
31
0.0000000000
11
6.4915762303
21
-0.3922431888
31
0.0000000000
11
6.5122013917
21
-0.3892044094
31
0.0000000000
11
6.5312700582
21
-0.3855550553
31
0.0000000000
11
6.5485232197
21
-0.3813352135
31
0.0000000000
11
6.5636512323
21
-0.3766109085
31
0.0000000000
11
6.5764279594
21
-0.3714371178
31
0.0000000000
11
6.5866050470
21
-0.3659073381
31
0.0000000000
11
6.5940141482
21
-0.3600770484
31
0.0000000000
11
6.5985024528
21
-0.3540822409
31
0.0000000000
11
6.6000000000
21
-0.3480043515
31
0.0000000000
0
SPLINE
5
372
100
AcDbEntity
8
0
100
AcDbSpline
62
9
6
CONTINUOUS
70
0
71
3
72
20
73
16
74
14
42
0.0000001000
43
0.0000001000
44
0.0000000001
12
-0.0021818749
22
0.2500942423
32
0.0000000000
13
0.2500942365
23
0.0021825393
33
0.0000000000
40
0.0000000000
40
0.0000000000
40
0.0000000000
40
0.0000000000
40
0.1204740212
40
0.2391899204
40
0.3544174525
40
0.4644772844
40
0.5677655181
40
0.6627771330
40
0.7481280274
40
0.8225753784
40
0.8850361355
40
0.9346037017
40
0.9705637841
40
0.9924160493
40
1.0000000000
40
1.0000000000
40
1.0000000000
40
1.0000000000
10
-36.1961524276
20
-0.3954259424
30
0.0000000000
10
-36.1962400474
20
-0.3853826561
30
0.0000000000
10
-36.1963931174
20
-0.3654424528
30
0.0000000000
10
-36.1965570857
20
-0.3358958713
30
0.0000000000
10
-36.1966526201
20
-0.3072170589
30
0.0000000000
10
-36.1966781213
20
-0.2798247581
30
0.0000000000
10
-36.1966345202
20
-0.2541161703
30
0.0000000000
10
-36.1965190726
20
-0.2304732523
30
0.0000000000
10
-36.1963458843
20
-0.2092175816
30
0.0000000000
10
-36.1960814773
20
-0.1907305177
30
0.0000000000
10
-36.1958400883
20
-0.1750706502
30
0.0000000000
10
-36.1953298692
20
-0.1630453023
30
0.0000000000
10
-36.1953079495
20
-0.1533911879
30
0.0000000000
10
-36.1942610377
20
-0.1492209363
30
0.0000000000
10
-36.1946031940
20
-0.1454409791
30
0.0000000000
10
-36.1939709599
20
-0.1454354616
30
0.0000000000
11
-36.1961524276
21
-0.3954259424
31
0.0000000000
11
-36.1963834834
21
-0.3652958227
31
0.0000000000
11
-36.1965475589
21
-0.3356049833
31
0.0000000000
11
-36.1966422621
21
-0.3067862999
31
0.0000000000
11
-36.1966662123
21
-0.2792599326
31
0.0000000000
11
-36.1966190602
21
-0.2534272000
31
0.0000000000
11
-36.1965014934
21
-0.2296647288
31
0.0000000000
11
-36.1963152258
21
-0.2083189619
31
0.0000000000
11
-36.1960629732
21
-0.1897011083
31
0.0000000000
11
-36.1957484133
21
-0.1740826054
31
0.0000000000
11
-36.1953761322
21
-0.1616911618
31
0.0000000000
11
-36.1949515576
21
-0.1527074372
31
0.0000000000
11
-36.1944808794
21
-0.1472624088
31
0.0000000000
11
-36.1939709599
21
-0.1454354616
31
0.0000000000
0
SPLINE
5
373
100
AcDbEntity
8
0
100
AcDbSpline
62
9
6
CONTINUOUS
70
0
71
3
72
10
73
6
74
4
42
0.0000001000
43
0.0000001000
44
0.0000000001
12
0.0072005237
22
-9.0956283078
32
0.0000000000
13
0.1728169920
23
-9.0939892483
33
0.0000000000
40
0.0000000000
40
0.0000000000
40
0.0000000000
40
0.0000000000
40
0.3333344109
40
0.6666647140
40
1.0000000000
40
1.0000000000
40
1.0000000000
40
1.0000000000
10
-36.1961524276
20
-0.3954259424
30
0.0000000000
10
-36.1953523669
20
-1.4060545771
30
0.0000000000
10
-36.1876179012
20
-3.4273001209
30
0.0000000000
10
-36.1576135972
20
-6.4590454604
30
0.0000000000
10
-36.1253430584
20
-8.4800508310
30
0.0000000000
10
-36.1061410579
20
-9.4905000000
30
0.0000000000
11
-36.1961524276
21
-0.3954259424
31
0.0000000000
11
-36.1845507295
21
-3.4272905992
31
0.0000000000
11
-36.1545468671
21
-6.4589916235
31
0.0000000000
11
-36.1061410579
21
-9.4905000000
31
0.0000000000
0
SPLINE
5
374
100
AcDbEntity
8
0
100
AcDbSpline
62
9
6
CONTINUOUS
70
0
71
3
72
23
73
19
74
17
42
0.0000001000
43
0.0000001000
44
0.0000000001
12
-0.4912721170
22
-0.0023379484
32
0.0000000000
13
-0.4912716748
23
-0.0024293364
33
0.0000000000
40
0.0000000000
40
0.0000000000
40
0.0000000000
40
0.0000000000
40
0.0985602251
40
0.1960167833
40
0.2914631652
40
0.3839961174
40
0.4727455191
40
0.5568758523
40
0.6355940985
40
0.7081588021
40
0.7738868799
40
0.8321595372
40
0.8824278157
40
0.9242179874
40
0.9571367961
40
0.9808745532
40
0.9952069709
40
1.0000000000
40
1.0000000000
40
1.0000000000
40
1.0000000000
10
-36.1961524276
20
-0.3954259424
30
0.0000000000
10
-36.2122923911
20
-0.3955027520
30
0.0000000000
10
-36.2443915843
20
-0.3956555520
30
0.0000000000
10
-36.2921208260
20
-0.3958827685
30
0.0000000000
10
-36.3388630570
20
-0.3961053698
30
0.0000000000
10
-36.3841794267
20
-0.3963212125
30
0.0000000000
10
-36.4276427098
20
-0.3965282874
30
0.0000000000
10
-36.4688437328
20
-0.3967246306
30
0.0000000000
10
-36.5073943920
20
-0.3969083949
30
0.0000000000
10
-36.5429315461
20
-0.3970778451
30
0.0000000000
10
-36.5751205841
20
-0.3972313820
30
0.0000000000
10
-36.6036584181
20
-0.3973675606
30
0.0000000000
10
-36.6282762435
20
-0.3974850827
30
0.0000000000
10
-36.6487421892
20
-0.3975828731
30
0.0000000000
10
-36.6648635667
20
-0.3976599136
30
0.0000000000
10
-36.6764885339
20
-0.3977156962
30
0.0000000000
10
-36.6835076990
20
-0.3977492199
30
0.0000000000
10
-36.6866396297
20
-0.3977645724
30
0.0000000000
10
-36.6874245229
20
-0.3977684537
30
0.0000000000
11
-36.1961524276
21
-0.3954259424
31
0.0000000000
11
-36.2445723179
21
-0.3956564146
31
0.0000000000
11
-36.2924500071
21
-0.3958843500
31
0.0000000000
11
-36.3393401525
21
-0.3961076474
31
0.0000000000
11
-36.3847990109
21
-0.3963241740
31
0.0000000000
11
-36.4283991163
21
-0.3965318996
31
0.0000000000
11
-36.4697300019
21
-0.3967288636
31
0.0000000000
11
-36.5084020799
21
-0.3969132080
31
0.0000000000
11
-36.5440510938
21
-0.3970831934
31
0.0000000000
11
-36.5763414641
21
-0.3972372169
31
0.0000000000
11
-36.6049691940
21
-0.3973738257
31
0.0000000000
11
-36.6296645958
21
-0.3974917300
31
0.0000000000
11
-36.6501949401
21
-0.3975898168
31
0.0000000000
11
-36.6663670311
21
-0.3976671602
31
0.0000000000
11
-36.6780287275
21
-0.3977230323
31
0.0000000000
11
-36.6850698430
21
-0.3977569022
31
0.0000000000
11
-36.6874245229
21
-0.3977684537
31
0.0000000000
0
SPLINE
5
375
100
AcDbEntity
8
0
100
AcDbSpline
62
9
6
CONTINUOUS
70
0
71
3
72
14
73
10
74
8
42
0.0000001000
43
0.0000001000
44
0.0000000001
12
0.2222121841
22
-11.6932381474
32
0.0000000000
13
1.7439992525
23
-11.5645866003
33
0.0000000000
40
0.0000000000
40
0.0000000000
40
0.0000000000
40
0.0000000000
40
0.1428569275
40
0.2857140438
40
0.4285711875
40
0.5714283579
40
0.7142855692
40
0.8571428203
40
1.0000000000
40
1.0000000000
40
1.0000000000
40
1.0000000000
10
-36.1061410579
20
-9.4905000000
30
0.0000000000
10
-36.0955595413
20
-10.0473200247
30
0.0000000000
10
-36.0640008767
20
-11.1607912806
30
0.0000000000
10
-35.9854941638
20
-12.8298014241
30
0.0000000000
10
-35.8758455536
20
-14.4970623660
30
0.0000000000
10
-35.7350934652
20
-16.1619843203
30
0.0000000000
10
-35.5632865792
20
-17.8239912085
30
0.0000000000
10
-35.3604859642
20
-19.4824953524
30
0.0000000000
10
-35.2046672864
20
-20.5854632075
30
0.0000000000
10
-35.1216196816
20
-21.1361579495
30
0.0000000000
11
-36.1061410579
21
-9.4905000000
31
0.0000000000
11
-36.0588061222
21
-11.1605910092
31
0.0000000000
11
-35.9803038615
21
-12.8295096259
31
0.0000000000
11
-35.8706616531
21
-14.4966723695
31
0.0000000000
11
-35.7299176871
21
-16.1614982481
31
0.0000000000
11
-35.5581209752
21
-17.8234072572
31
0.0000000000
11
-35.3553313612
21
-19.4818202323
31
0.0000000000
11
-35.1216196816
21
-21.1361579495
31
0.0000000000
0
SPLINE
5
376
100
AcDbEntity
8
0
100
AcDbSpline
62
9
6
CONTINUOUS
70
0
71
3
72
22
73
18
74
16
42
0.0000001000
43
0.0000001000
44
0.0000000001
12
-0.4858806943
22
-0.0732956602
32
0.0000000000
13
0.0732741508
23
-0.4858839385
33
0.0000000000
40
0.0000000000
40
0.0000000000
40
0.0000000000
40
0.0000000000
40
0.1050884342
40
0.2088624530
40
0.3102099187
40
0.4080446996
40
0.5013183102
40
0.5890311488
40
0.6702432104
40
0.7440841626
40
0.8097626747
40
0.8665749025
40
0.9139120398
40
0.9512668630
40
0.9782392264
40
0.9945406075
40
1.0000000000
40
1.0000000000
40
1.0000000000
40
1.0000000000
10
-35.1216196816
20
-21.1361579495
30
0.0000000000
10
-35.1386398287
20
-21.1387254582
30
0.0000000000
10
-35.1724665570
20
-21.1438328977
30
0.0000000000
10
-35.2227051384
20
-21.1514323319
30
0.0000000000
10
-35.2717669163
20
-21.1588678963
30
0.0000000000
10
-35.3191259907
20
-21.1660599607
30
0.0000000000
10
-35.3642751935
20
-21.1729311770
30
0.0000000000
10
-35.4067293792
20
-21.1794087243
30
0.0000000000
10
-35.4460378935
20
-21.1854202735
30
0.0000000000
10
-35.4817653510
20
-21.1909106681
30
0.0000000000
10
-35.5135737421
20
-21.1957912548
30
0.0000000000
10
-35.5409849762
20
-21.2001003123
30
0.0000000000
10
-35.5641053983
20
-21.2035265425
30
0.0000000000
10
-35.5815969281
20
-21.2067538760
30
0.0000000000
10
-35.5959572711
20
-21.2079690861
30
0.0000000000
10
-35.6014957065
20
-21.2108170013
30
0.0000000000
10
-35.6074364057
20
-21.2098332748
30
0.0000000000
10
-35.6073030616
20
-21.2107174852
30
0.0000000000
11
-35.1216196816
21
-21.1361579495
31
0.0000000000
11
-35.1726790821
21
-21.1438673724
31
0.0000000000
11
-35.2230977602
21
-21.1514941733
31
0.0000000000
11
-35.2723353791
21
-21.1589566159
31
0.0000000000
11
-35.3198642595
21
-21.1661747253
31
0.0000000000
11
-35.3651750344
21
-21.1730711449
31
0.0000000000
11
-35.4077821086
21
-21.1795719659
31
0.0000000000
11
-35.4472288621
21
-21.1856075190
31
0.0000000000
11
-35.4830925443
21
-21.1911131213
31
0.0000000000
11
-35.5149888042
21
-21.1960297691
31
0.0000000000
11
-35.5425758096
21
-21.2003047707
31
0.0000000000
11
-35.5655579109
21
-21.2038923111
31
0.0000000000
11
-35.5836888088
21
-21.2067539426
31
0.0000000000
11
-35.5967741946
21
-21.2088589970
31
0.0000000000
11
-35.6046738324
21
-21.2101849145
31
0.0000000000
11
-35.6073030616
21
-21.2107174852
31
0.0000000000
0
SPLINE
5
377
100
AcDbEntity
8
0
100
AcDbSpline
62
9
6
CONTINUOUS
70
0
71
3
72
23
73
19
74
17
42
0.0000001000
43
0.0000001000
44
0.0000000001
12
0.1020294260
22
-0.6765203585
32
0.0000000000
13
0.6832328697
23
-0.0358140348
33
0.0000000000
40
0.0000000000
40
0.0000000000
40
0.0000000000
40
0.0000000000
40
0.0624833838
40
0.1249836525
40
0.1874854306
40
0.2499869196
40
0.3124887588
40
0.3749913460
40
0.4374941581
40
0.4999969126
40
0.5624998134
40
0.6250031048
40
0.6875066427
40
0.7500098723
40
0.8125131103
40
0.8750169775
40
0.9375196316
40
1.0000000000
40
1.0000000000
40
1.0000000000
40
1.0000000000
10
-35.1216196816
20
-21.1361579495
30
0.0000000000
10
-35.1194946336
20
-21.1502483766
30
0.0000000000
10
-35.1140358762
20
-21.1782660575
30
0.0000000000
10
-35.1022887581
20
-21.2194297104
30
0.0000000000
10
-35.0870654161
20
-21.2594461781
30
0.0000000000
10
-35.0684784839
20
-21.2980149861
30
0.0000000000
10
-35.0466638799
20
-21.3348549708
30
0.0000000000
10
-35.0217810499
20
-21.3696964320
30
0.0000000000
10
-34.9940119937
20
-21.4022844864
30
0.0000000000
10
-34.9635598961
20
-21.4323806216
30
0.0000000000
10
-34.9306474626
20
-21.4597647179
30
0.0000000000
10
-34.8955153490
20
-21.4842364821
30
0.0000000000
10
-34.8584206200
20
-21.5056168241
30
0.0000000000
10
-34.8196346024
20
-21.5237492921
30
0.0000000000
10
-34.7794412336
20
-21.5385013308
30
0.0000000000
10
-34.7381335763
20
-21.5497648628
30
0.0000000000
10
-34.6960229511
20
-21.5574567671
30
0.0000000000
10
-34.6676075844
20
-21.5601672839
30
0.0000000000
10
-34.6533780373
20
-21.5609131753
30
0.0000000000
11
-35.1216196816
21
-21.1361579495
31
0.0000000000
11
-35.1134437142
21
-21.1781181358
31
0.0000000000
11
-35.1017096865
21
-21.2192375241
31
0.0000000000
11
-35.0865048135
21
-21.2592049065
31
0.0000000000
11
-35.0679405923
21
-21.2977267521
31
0.0000000000
11
-35.0461526293
21
-21.3345216983
31
0.0000000000
11
-35.0213000642
21
-21.3693207955
31
0.0000000000
11
-34.9935648192
21
-21.4018691673
31
0.0000000000
11
-34.9631498788
21
-21.4319285810
31
0.0000000000
11
-34.9302776106
21
-21.4592792573
31
0.0000000000
11
-34.8951883039
21
-21.4837212073
31
0.0000000000
11
-34.8581386742
21
-21.5050755449
31
0.0000000000
11
-34.8194000577
21
-21.5231858831
31
0.0000000000
11
-34.7792556341
21
-21.5379198741
31
0.0000000000
11
-34.7379986223
21
-21.5491698092
31
0.0000000000
11
-34.6959320483
21
-21.5568531955
31
0.0000000000
11
-34.6533780373
21
-21.5609131753
31
0.0000000000
0
SPLINE
5
378
100
AcDbEntity
8
0
100
AcDbSpline
62
9
6
CONTINUOUS
70
0
71
3
72
22
73
18
74
16
42
0.0000001000
43
0.0000001000
44
0.0000000001
12
-0.0261514579
22
-0.4991515767
32
0.0000000000
13
0.4991511603
23
-0.0261594038
33
0.0000000000
40
0.0000000000
40
0.0000000000
40
0.0000000000
40
0.0000000000
40
0.1044971476
40
0.2078410869
40
0.3089012375
40
0.4065720369
40
0.4997850561
40
0.5875207150
40
0.6688194744
40
0.7427923923
40
0.8086309456
40
0.8656160558
40
0.9131263254
40
0.9506457188
40
0.9777718210
40
0.9942313976
40
1.0000000000
40
1.0000000000
40
1.0000000000
40
1.0000000000
10
-34.6533780373
20
-21.5609131753
30
0.0000000000
10
-34.6542889548
20
-21.5782998139
30
0.0000000000
10
-34.6560693439
20
-21.6128828702
30
0.0000000000
10
-34.6586210566
20
-21.6642862690
30
0.0000000000
10
-34.6610210148
20
-21.7145583802
30
0.0000000000
10
-34.6632430096
20
-21.7631489713
30
0.0000000000
10
-34.6652630205
20
-21.8095265808
30
0.0000000000
10
-34.6670586802
20
-21.8531827014
30
0.0000000000
10
-34.6686123458
20
-21.8936428797
30
0.0000000000
10
-34.6699021398
20
-21.9304535840
30
0.0000000000
10
-34.6709320701
20
-21.9632462468
30
0.0000000000
10
-34.6716396280
20
-21.9915572577
30
0.0000000000
10
-34.6721738987
20
-22.0153828557
30
0.0000000000
10
-34.6721149931
20
-22.0336285156
30
0.0000000000
10
-34.6725143174
20
-22.0481552738
30
0.0000000000
10
-34.6712665997
20
-22.0545652618
30
0.0000000000
10
-34.6717796137
20
-22.0601776416
30
0.0000000000
10
-34.6708198122
20
-22.0602279426
30
0.0000000000
11
-34.6533780373
21
-21.5609131753
31
0.0000000000
11
-34.6560631721
21
-21.6130755643
31
0.0000000000
11
-34.6586234271
21
-21.6646671150
31
0.0000000000
11
-34.6610307842
21
-21.7151232363
31
0.0000000000
11
-34.6632588985
21
-21.7638917625
31
0.0000000000
11
-34.6652833868
21
-21.8104389959
31
0.0000000000
11
-34.6670820940
21
-21.8542555477
31
0.0000000000
11
-34.6686353361
21
-21.8948619124
31
0.0000000000
11
-34.6699261151
21
-21.9318137147
31
0.0000000000
11
-34.6709403054
21
-21.9647065732
31
0.0000000000
11
-34.6716668083
21
-21.9931805257
31
0.0000000000
11
-34.6720976733
21
-22.0169239677
31
0.0000000000
11
-34.6722281852
21
-22.0356770634
31
0.0000000000
11
-34.6720569158
21
-22.0492345886
31
0.0000000000
11
-34.6715857394
21
-22.0574481768
31
0.0000000000
11
-34.6708198122
21
-22.0602279426
31
0.0000000000
0
SPLINE
5
379
100
AcDbEntity
8
0
100
AcDbSpline
62
9
6
CONTINUOUS
70
0
71
3
72
20
73
16
74
14
42
0.0000001000
43
0.0000001000
44
0.0000000001
12
-0.2500942365
22
0.0021825393
32
0.0000000000
13
0.0021818750
23
0.2500942423
33
0.0000000000
40
0.0000000000
40
0.0000000000
40
0.0000000000
40
0.0000000000
40
0.0075839509
40
0.0294362164
40
0.0653962993
40
0.1149638662
40
0.1774246239
40
0.2518719753
40
0.3372228699
40
0.4322344850
40
0.5355227184
40
0.6455825499
40
0.7608100814
40
0.8795259797
40
1.0000000000
40
1.0000000000
40
1.0000000000
40
1.0000000000
10
-36.1939709599
20
0.1454354616
30
0.0000000000
10
-36.1946031940
20
0.1454409791
30
0.0000000000
10
-36.1942610377
20
0.1492209363
30
0.0000000000
10
-36.1953079495
20
0.1533911881
30
0.0000000000
10
-36.1953298692
20
0.1630453026
30
0.0000000000
10
-36.1958400883
20
0.1750706506
30
0.0000000000
10
-36.1960814773
20
0.1907305182
30
0.0000000000
10
-36.1963458844
20
0.2092175822
30
0.0000000000
10
-36.1965190726
20
0.2304732531
30
0.0000000000
10
-36.1966345202
20
0.2541161711
30
0.0000000000
10
-36.1966781213
20
0.2798247588
30
0.0000000000
10
-36.1966526201
20
0.3072170595
30
0.0000000000
10
-36.1965570857
20
0.3358958718
30
0.0000000000
10
-36.1963931174
20
0.3654424530
30
0.0000000000
10
-36.1962400474
20
0.3853826561
30
0.0000000000
10
-36.1961524276
20
0.3954259424
30
0.0000000000
11
-36.1939709599
21
0.1454354616
31
0.0000000000
11
-36.1944808794
21
0.1472624089
31
0.0000000000
11
-36.1949515576
21
0.1527074373
31
0.0000000000
11
-36.1953761322
21
0.1616911621
31
0.0000000000
11
-36.1957484134
21
0.1740826059
31
0.0000000000
11
-36.1960629733
21
0.1897011089
31
0.0000000000
11
-36.1963152258
21
0.2083189626
31
0.0000000000
11
-36.1965014934
21
0.2296647295
31
0.0000000000
11
-36.1966190602
21
0.2534272008
31
0.0000000000
11
-36.1966662123
21
0.2792599333
31
0.0000000000
11
-36.1966422621
21
0.3067863005
31
0.0000000000
11
-36.1965475589
21
0.3356049837
31
0.0000000000
11
-36.1963834834
21
0.3652958229
31
0.0000000000
11
-36.1961524276
21
0.3954259424
31
0.0000000000
0
SPLINE
5
37A
100
AcDbEntity
8
0
100
AcDbSpline
62
9
6
CONTINUOUS
70
0
71
3
72
10
73
6
74
4
42
0.0000001000
43
0.0000001000
44
0.0000000001
12
-0.1728169920
22
-9.0939892483
32
0.0000000000
13
-0.0072005237
23
-9.0956283078
33
0.0000000000
40
0.0000000000
40
0.0000000000
40
0.0000000000
40
0.0000000000
40
0.3333352860
40
0.6666655891
40
1.0000000000
40
1.0000000000
40
1.0000000000
40
1.0000000000
10
-36.1061410579
20
9.4905000000
30
0.0000000000
10
-36.1253430584
20
8.4800508310
30
0.0000000000
10
-36.1576135972
20
6.4590454604
30
0.0000000000
10
-36.1876179012
20
3.4273001209
30
0.0000000000
10
-36.1953523669
20
1.4060545771
30
0.0000000000
10
-36.1961524276
20
0.3954259424
30
0.0000000000
11
-36.1061410579
21
9.4905000000
31
0.0000000000
11
-36.1545468671
21
6.4589916235
31
0.0000000000
11
-36.1845507295
21
3.4272905992
31
0.0000000000
11
-36.1961524276
21
0.3954259424
31
0.0000000000
0
SPLINE
5
37B
100
AcDbEntity
8
0
100
AcDbSpline
62
9
6
CONTINUOUS
70
0
71
3
72
23
73
19
74
17
42
0.0000001000
43
0.0000001000
44
0.0000000001
12
-0.4912721172
22
0.0023379008
32
0.0000000000
13
-0.4912716751
23
0.0024292803
33
0.0000000000
40
0.0000000000
40
0.0000000000
40
0.0000000000
40
0.0000000000
40
0.0985601126
40
0.1960166492
40
0.2914629779
40
0.3839959028
40
0.4727452556
40
0.5568755687
40
0.6355938102
40
0.7081585100
40
0.7738865829
40
0.8321592468
40
0.8824275542
40
0.9242177700
40
0.9571366045
40
0.9808744335
40
0.9952068773
40
1.0000000000
40
1.0000000000
40
1.0000000000
40
1.0000000000
10
-36.1961524276
20
0.3954259424
30
0.0000000000
10
-36.2122923727
20
0.3955027503
30
0.0000000000
10
-36.2443915439
20
0.3956555534
30
0.0000000000
10
-36.2921207550
20
0.3958827678
30
0.0000000000
10
-36.3388629692
20
0.3961053704
30
0.0000000000
10
-36.3841793177
20
0.3963212129
30
0.0000000000
10
-36.4276425851
20
0.3965282883
30
0.0000000000
10
-36.4688435960
20
0.3967246318
30
0.0000000000
10
-36.5073942505
20
0.3969083965
30
0.0000000000
10
-36.5429314024
20
0.3970778467
30
0.0000000000
10
-36.5751204401
20
0.3972313832
30
0.0000000000
10
-36.6036582791
20
0.3973675613
30
0.0000000000
10
-36.6282761176
20
0.3974850833
30
0.0000000000
10
-36.6487420794
20
0.3975828729
30
0.0000000000
10
-36.6648634801
20
0.3976599141
30
0.0000000000
10
-36.6764884676
20
0.3977156952
30
0.0000000000
10
-36.6835076640
20
0.3977492199
30
0.0000000000
10
-36.6866396144
20
0.3977645724
30
0.0000000000
10
-36.6874245229
20
0.3977684537
30
0.0000000000
11
-36.1961524276
21
0.3954259424
31
0.0000000000
11
-36.2445722626
21
0.3956564149
31
0.0000000000
11
-36.2924499413
21
0.3958843499
31
0.0000000000
11
-36.3393400605
21
0.3961076478
31
0.0000000000
11
-36.3847989055
21
0.3963241745
31
0.0000000000
11
-36.4283989868
21
0.3965319004
31
0.0000000000
11
-36.4697298625
21
0.3967288648
31
0.0000000000
11
-36.5084019383
21
0.3969132095
31
0.0000000000
11
-36.5440509503
21
0.3970831949
31
0.0000000000
11
-36.5763413182
21
0.3972372180
31
0.0000000000
11
-36.6049690514
21
0.3973738264
31
0.0000000000
11
-36.6296644674
21
0.3974917304
31
0.0000000000
11
-36.6501948333
21
0.3975898169
31
0.0000000000
11
-36.6663669370
21
0.3976671601
31
0.0000000000
11
-36.6780286687
21
0.3977230318
31
0.0000000000
11
-36.6850697970
21
0.3977569021
31
0.0000000000
11
-36.6874245229
21
0.3977684537
31
0.0000000000
0
SPLINE
5
37C
100
AcDbEntity
8
0
100
AcDbSpline
62
9
6
CONTINUOUS
70
0
71
3
72
22
73
18
74
16
42
0.0000001000
43
0.0000001000
44
0.0000000001
12
-0.4858807332
22
0.0732956657
32
0.0000000000
13
0.0732738395
23
0.4858840252
33
0.0000000000
40
0.0000000000
40
0.0000000000
40
0.0000000000
40
0.0000000000
40
0.1050884321
40
0.2088624495
40
0.3102099143
40
0.4080446947
40
0.5013183052
40
0.5890311439
40
0.6702432060
40
0.7440841587
40
0.8097626715
40
0.8665749000
40
0.9139120380
40
0.9512668618
40
0.9782392258
40
0.9945406072
40
1.0000000000
40
1.0000000000
40
1.0000000000
40
1.0000000000
10
-35.1216196816
20
21.1361579495
30
0.0000000000
10
-35.1386398297
20
21.1387254584
30
0.0000000000
10
-35.1724665601
20
21.1438328982
30
0.0000000000
10
-35.2227051449
20
21.1514323328
30
0.0000000000
10
-35.2717669263
20
21.1588678977
30
0.0000000000
10
-35.3191260042
20
21.1660599626
30
0.0000000000
10
-35.3642752105
20
21.1729311795
30
0.0000000000
10
-35.4067293997
20
21.1794087272
30
0.0000000000
10
-35.4460379173
20
21.1854202769
30
0.0000000000
10
-35.4817653780
20
21.1909106720
30
0.0000000000
10
-35.5135737719
20
21.1957912591
30
0.0000000000
10
-35.5409850085
20
21.2001003171
30
0.0000000000
10
-35.5641054327
20
21.2035265476
30
0.0000000000
10
-35.5815969646
20
21.2067538815
30
0.0000000000
10
-35.5959573082
20
21.2079690916
30
0.0000000000
10
-35.6014957456
20
21.2108170073
30
0.0000000000
10
-35.6074364440
20
21.2098332805
30
0.0000000000
10
-35.6073031004
20
21.2107174911
30
0.0000000000
11
-35.1216196816
21
21.1361579495
31
0.0000000000
11
-35.1726790852
21
21.1438673728
31
0.0000000000
11
-35.2230977666
21
21.1514941742
31
0.0000000000
11
-35.2723353890
21
21.1589566173
31
0.0000000000
11
-35.3198642730
21
21.1661747272
31
0.0000000000
11
-35.3651750515
21
21.1730711474
31
0.0000000000
11
-35.4077821292
21
21.1795719689
31
0.0000000000
11
-35.4472288861
21
21.1856075225
31
0.0000000000
11
-35.4830925714
21
21.1911131252
31
0.0000000000
11
-35.5149888341
21
21.1960297734
31
0.0000000000
11
-35.5425758421
21
21.2003047755
31
0.0000000000
11
-35.5655579455
21
21.2038923162
31
0.0000000000
11
-35.5836888452
21
21.2067539480
31
0.0000000000
11
-35.5967742324
21
21.2088590026
31
0.0000000000
11
-35.6046738709
21
21.2101849202
31
0.0000000000
11
-35.6073031004
21
21.2107174911
31
0.0000000000
0
SPLINE
5
37D
100
AcDbEntity
8
0
100
AcDbSpline
62
9
6
CONTINUOUS
70
0
71
3
72
14
73
10
74
8
42
0.0000001000
43
0.0000001000
44
0.0000000001
12
-1.7439992525
22
-11.5645866003
32
0.0000000000
13
-0.2222121841
23
-11.6932381474
33
0.0000000000
40
0.0000000000
40
0.0000000000
40
0.0000000000
40
0.0000000000
40
0.1428571797
40
0.2857144308
40
0.4285716421
40
0.5714288125
40
0.7142859562
40
0.8571430725
40
1.0000000000
40
1.0000000000
40
1.0000000000
40
1.0000000000
10
-35.1216196816
20
21.1361579495
30
0.0000000000
10
-35.2046672864
20
20.5854632075
30
0.0000000000
10
-35.3604859642
20
19.4824953524
30
0.0000000000
10
-35.5632865792
20
17.8239912085
30
0.0000000000
10
-35.7350934652
20
16.1619843203
30
0.0000000000
10
-35.8758455536
20
14.4970623660
30
0.0000000000
10
-35.9854941638
20
12.8298014241
30
0.0000000000
10
-36.0640008767
20
11.1607912806
30
0.0000000000
10
-36.0955595413
20
10.0473200247
30
0.0000000000
10
-36.1061410579
20
9.4905000000
30
0.0000000000
11
-35.1216196816
21
21.1361579495
31
0.0000000000
11
-35.3553313612
21
19.4818202323
31
0.0000000000
11
-35.5581209752
21
17.8234072572
31
0.0000000000
11
-35.7299176871
21
16.1614982481
31
0.0000000000
11
-35.8706616531
21
14.4966723695
31
0.0000000000
11
-35.9803038615
21
12.8295096259
31
0.0000000000
11
-36.0588061222
21
11.1605910092
31
0.0000000000
11
-36.1061410579
21
9.4905000000
31
0.0000000000
0
SPLINE
5
37E
100
AcDbEntity
8
0
100
AcDbSpline
62
9
6
CONTINUOUS
70
0
71
3
72
22
73
18
74
16
42
0.0000001000
43
0.0000001000
44
0.0000000001
12
-0.0261514582
22
0.4991515766
32
0.0000000000
13
0.4991511603
23
0.0261594038
33
0.0000000000
40
0.0000000000
40
0.0000000000
40
0.0000000000
40
0.0000000000
40
0.1044971375
40
0.2078410682
40
0.3089012121
40
0.4065720070
40
0.4997850239
40
0.5875206827
40
0.6688194441
40
0.7427923654
40
0.8086309233
40
0.8656160387
40
0.9131263136
40
0.9506457118
40
0.9777718177
40
0.9942313967
40
1.0000000000
40
1.0000000000
40
1.0000000000
40
1.0000000000
10
-34.6533780373
20
21.5609131753
30
0.0000000000
10
-34.6542889548
20
21.5782998122
30
0.0000000000
10
-34.6560693437
20
21.6128828654
30
0.0000000000
10
-34.6586210563
20
21.6642862600
30
0.0000000000
10
-34.6610210143
20
21.7145583679
30
0.0000000000
10
-34.6632430090
20
21.7631489567
30
0.0000000000
10
-34.6652630199
20
21.8095265651
30
0.0000000000
10
-34.6670586797
20
21.8531826856
30
0.0000000000
10
-34.6686123454
20
21.8936428648
30
0.0000000000
10
-34.6699021395
20
21.9304535708
30
0.0000000000
10
-34.6709320699
20
21.9632462358
30
0.0000000000
10
-34.6716396280
20
21.9915572491
30
0.0000000000
10
-34.6721738987
20
22.0153828497
30
0.0000000000
10
-34.6721149932
20
22.0336285118
30
0.0000000000
10
-34.6725143176
20
22.0481552721
30
0.0000000000
10
-34.6712665997
20
22.0545652609
30
0.0000000000
10
-34.6717796138
20
22.0601776416
30
0.0000000000
10
-34.6708198122
20
22.0602279426
30
0.0000000000
11
-34.6533780373
21
21.5609131753
31
0.0000000000
11
-34.6560631718
21
21.6130755592
31
0.0000000000
11
-34.6586234267
21
21.6646671057
31
0.0000000000
11
-34.6610307837
21
21.7151232236
31
0.0000000000
11
-34.6632588980
21
21.7638917475
31
0.0000000000
11
-34.6652833862
21
21.8104389798
31
0.0000000000
11
-34.6670820935
21
21.8542555316
31
0.0000000000
11
-34.6686353356
21
21.8948618972
31
0.0000000000
11
-34.6699261148
21
21.9318137012
31
0.0000000000
11
-34.6709403052
21
21.9647065621
31
0.0000000000
11
-34.6716668082
21
21.9931805172
31
0.0000000000
11
-34.6720976733
21
22.0169239618
31
0.0000000000
11
-34.6722281853
21
22.0356770599
31
0.0000000000
11
-34.6720569159
21
22.0492345870
31
0.0000000000
11
-34.6715857394
21
22.0574481764
31
0.0000000000
11
-34.6708198122
21
22.0602279426
31
0.0000000000
0
SPLINE
5
37F
100
AcDbEntity
8
0
100
AcDbSpline
62
9
6
CONTINUOUS
70
0
71
3
72
23
73
19
74
17
42
0.0000001000
43
0.0000001000
44
0.0000000001
12
-0.6832328697
22
-0.0358140348
32
0.0000000000
13
-0.1020294259
23
-0.6765203585
33
0.0000000000
40
0.0000000000
40
0.0000000000
40
0.0000000000
40
0.0000000000
40
0.0624803684
40
0.1249830225
40
0.1874868897
40
0.2499901277
40
0.3124933573
40
0.3749968952
40
0.4375001866
40
0.5000030874
40
0.5625058419
40
0.6250086540
40
0.6875112412
40
0.7500130804
40
0.8125145694
40
0.8750163475
40
0.9375166162
40
1.0000000000
40
1.0000000000
40
1.0000000000
40
1.0000000000
10
-34.6533780373
20
21.5609131753
30
0.0000000000
10
-34.6676075844
20
21.5601672839
30
0.0000000000
10
-34.6960229511
20
21.5574567671
30
0.0000000000
10
-34.7381335763
20
21.5497648628
30
0.0000000000
10
-34.7794412336
20
21.5385013308
30
0.0000000000
10
-34.8196346024
20
21.5237492921
30
0.0000000000
10
-34.8584206200
20
21.5056168241
30
0.0000000000
10
-34.8955153490
20
21.4842364821
30
0.0000000000
10
-34.9306474626
20
21.4597647179
30
0.0000000000
10
-34.9635598961
20
21.4323806216
30
0.0000000000
10
-34.9940119937
20
21.4022844864
30
0.0000000000
10
-35.0217810499
20
21.3696964320
30
0.0000000000
10
-35.0466638799
20
21.3348549708
30
0.0000000000
10
-35.0684784839
20
21.2980149861
30
0.0000000000
10
-35.0870654161
20
21.2594461781
30
0.0000000000
10
-35.1022887581
20
21.2194297104
30
0.0000000000
10
-35.1140358762
20
21.1782660575
30
0.0000000000
10
-35.1194946336
20
21.1502483766
30
0.0000000000
10
-35.1216196816
20
21.1361579495
30
0.0000000000
11
-34.6533780373
21
21.5609131753
31
0.0000000000
11
-34.6959320483
21
21.5568531955
31
0.0000000000
11
-34.7379986223
21
21.5491698092
31
0.0000000000
11
-34.7792556341
21
21.5379198741
31
0.0000000000
11
-34.8194000577
21
21.5231858831
31
0.0000000000
11
-34.8581386742
21
21.5050755449
31
0.0000000000
11
-34.8951883039
21
21.4837212073
31
0.0000000000
11
-34.9302776106
21
21.4592792573
31
0.0000000000
11
-34.9631498788
21
21.4319285810
31
0.0000000000
11
-34.9935648192
21
21.4018691673
31
0.0000000000
11
-35.0213000642
21
21.3693207955
31
0.0000000000
11
-35.0461526293
21
21.3345216983
31
0.0000000000
11
-35.0679405923
21
21.2977267521
31
0.0000000000
11
-35.0865048135
21
21.2592049065
31
0.0000000000
11
-35.1017096865
21
21.2192375241
31
0.0000000000
11
-35.1134437142
21
21.1781181358
31
0.0000000000
11
-35.1216196816
21
21.1361579495
31
0.0000000000
0
ENDSEC
0
SECTION
2
OBJECTS
0
DICTIONARY
5
380
100
AcDbDictionary
3
ACAD_GROUP
350
381
3
ACAD_MLINESTYLE
350
382
0
DICTIONARY
5
381
102
{ACAD_REACTORS
330
380
102
}
100
AcDbDictionary
0
DICTIONARY
5
382
102
{ACAD_REACTORS
330
380
102
}
100
AcDbDictionary
3
STANDARD
350
383
0
MLINESTYLE
5
383
102
{ACAD_REACTORS
330
382
102
}
100
AcDbMlineStyle
2
STANDARD
70
0
3

62
256
51
90.0
52
90.0
71
2
49
0.5
62
256
6
BYLAYER
49
-0.5
62
256
6
BYLAYER
0
ENDSEC
0
EOF
