  0
SECTION
  2
HEADER
  9
$ACADVER
  1
AC1015
  9
$DWGCODEPAGE
  3
ANSI_1252
  9
$EXTMAX
 10
210.0
 20
297.0
 30
0.0
  9
$EXTMIN
 10
0.0
 20
0.0
 30
0.0
  9
$LIMMIN
 10
0.0
 20
0.0
  9
$LIMMAX
 10
210.0
 20
297.0
  9
$VIEWCTR
 10
105.0
 20
148.5
  9
$VIEWSIZE
 40
297.0
  9
$CLAYER
  8
0
  9
$LTSCALE
 40
19.36
  9
$CELTYPE
  6
BYLAYER
  9
$DIMSCALE
 40
1.0
  9
$DIMASZ
 40
3.0
  9
$DIMEXO
 40
0.5
  9
$DIMDLI
 40
13.376
  9
$DIMEXE
 40
1.5
  9
$DIMCEN
 40
3.168
  9
$DIMLFAC
 40
1.0
  9
$DIMBLK
  1
_FILLED
  9
$DIMTXT
 40
3.0
  9
$DIMTOL
 70
1
  9
$DIMLIM
 70
0
  9
$DIMTFAC
 40
1.0
  9
$DIMTP
 40
0.01
  9
$DIMTM
 40
0.01
  9
$DIMGAP
 40
0.625
  9
$DIMDSEP
 70
44
  9
$PDMODE
 70
3
  9
$PDSIZE
 40
3.0
  9
$HANDSEED
  5
45C
  9
$TILEMODE
 70
1
  9
$MEASUREMENT
 70
1
  9
$INSUNITS
 70
4
  0
ENDSEC
  0
SECTION
  2
CLASSES
  0
CLASS
  1
ACDBDICTIONARYWDFLT
  2
AcDbDictionaryWithDefault
  3
AutoCAD 2000
 90
0
280
0
281
0
  0
CLASS
  1
ACDBPLACEHOLDER
  2
AcDbPlaceHolder
  3
AutoCAD 2000
 90
0
280
0
281
0
  0
CLASS
  1
LAYOUT
  2
AcDbLayout
  3
AutoCAD 2000
 90
0
280
0
281
0
  0
ENDSEC
  0
SECTION
  2
TABLES
  0
TABLE
  2
VPORT
  5
8
100
AcDbSymbolTable
 70
2
  0
VPORT
  5
1F4
100
AcDbSymbolTableRecord
100
AcDbViewportTableRecord
  2
*ACTIVE
 70
0
 10
0.0
 20
0.0
 11
1.0
 21
1.0
 12
105.0
 22
148.5
 13
0.0
 23
0.0
 14
1.0
 24
1.0
 15
0.0
 25
0.0
 16
0.0
 26
0.0
 36
1.0
 17
0.0
 27
0.0
 37
0.0
 40
297.0
 41
0.7070707071
 42
50.0
 43
0.0
 44
0.0
 50
0.0
 51
0.0
 71
0
 72
100
 73
1
 74
1
 75
0
 76
0
 77
0
 78
0
  0
ENDTAB
  0
TABLE
  2
LTYPE
  5
5
100
AcDbSymbolTable
 70
6
  0
LTYPE
  5
14
100
AcDbSymbolTableRecord
100
AcDbLinetypeTableRecord
  2
BYBLOCK
 70
0
  3

 72
65
 73
0
 40
0.0
  0
LTYPE
  5
15
100
AcDbSymbolTableRecord
100
AcDbLinetypeTableRecord
  2
BYLAYER
 70
0
  3

 72
65
 73
0
 40
0.0
  0
LTYPE
  5
16
100
AcDbSymbolTableRecord
100
AcDbLinetypeTableRecord
  2
CONTINUOUS
 70
64
  3
Solid line
 72
65
 73
0
 40
0.0
  0
LTYPE
  5
1F5
100
AcDbSymbolTableRecord
100
AcDbLinetypeTableRecord
  2
CENTER
 70
64
  3
____ _ ____ _ ____ _ ____ _ ____ _ ____ _ ____
 72
65
 73
4
 40
0.6
 49
0.375
 74
0
 49
-0.075
 74
0
 49
0.075
 74
0
 49
-0.075
 74
0
  0
LTYPE
  5
1F6
100
AcDbSymbolTableRecord
100
AcDbLinetypeTableRecord
  2
HIDDEN
 70
64
  3
- - - - - - - - - - - - - - - - - - - -
 72
65
 73
2
 40
0.2
 49
0.1
 74
0
 49
-0.1
 74
0
  0
LTYPE
  5
1F7
100
AcDbSymbolTableRecord
100
AcDbLinetypeTableRecord
  2
PHANTOM
 70
64
  3
_____ _ _ _____ _ _ _____ _ _ _____
 72
65
 73
6
 40
0.8
 49
0.45
 74
0
 49
-0.05
 74
0
 49
0.1
 74
0
 49
-0.05
 74
0
 49
0.1
 74
0
 49
-0.05
 74
0
  0
LTYPE
  5
1F8
100
AcDbSymbolTableRecord
100
AcDbLinetypeTableRecord
  2
DOT
 70
64
  3
. . . . . . . . . . . . . . . . . . . .
 72
65
 73
2
 40
0.2
 49
0.1
 74
0
 49
-0.1
 74
0
  0
LTYPE
  5
1F9
100
AcDbSymbolTableRecord
100
AcDbLinetypeTableRecord
  2
DASHED
 70
64
  3
- - - - - - - - - - - - - - - - - - - -
 72
65
 73
2
 40
0.2
 49
0.1
 74
0
 49
-0.1
 74
0
  0
ENDTAB
  0
TABLE
  2
LAYER
  5
2
100
AcDbSymbolTable
 70
36
  0
LAYER
  5
10
100
AcDbSymbolTableRecord
100
AcDbLayerTableRecord
  2
0
 70
0
 62
7
  6
CONTINUOUS
370
-3
390
F
  0
LAYER
  5
1FA
100
AcDbSymbolTableRecord
100
AcDbLayerTableRecord
  2
DEFAULT_1
 70
0
 62
7
  6
CENTER
370
-3
390
F
  0
LAYER
  5
1FB
100
AcDbSymbolTableRecord
100
AcDbLayerTableRecord
  2
DEFAULT_2
 70
0
 62
7
  6
HIDDEN
370
-3
390
F
  0
LAYER
  5
1FC
100
AcDbSymbolTableRecord
100
AcDbLayerTableRecord
  2
DEFAULT_3
 70
0
 62
7
  6
PHANTOM
370
-3
390
F
  0
LAYER
  5
1FD
100
AcDbSymbolTableRecord
100
AcDbLayerTableRecord
  2
ASSI
 70
0
 62
7
  6
CONTINUOUS
370
-3
390
F
  0
LAYER
  5
1FE
100
AcDbSymbolTableRecord
100
AcDbLayerTableRecord
  2
COLOR9
 70
0
 62
7
  6
CONTINUOUS
370
-3
390
F
  0
LAYER
  5
1FF
100
AcDbSymbolTableRecord
100
AcDbLayerTableRecord
  2
COORDINATE
 70
0
 62
7
  6
CONTINUOUS
370
-3
390
F
  0
LAYER
  5
200
100
AcDbSymbolTableRecord
100
AcDbLayerTableRecord
  2
COORD_ORIGINE
 70
0
 62
7
  6
CONTINUOUS
370
-3
390
F
  0
LAYER
  5
201
100
AcDbSymbolTableRecord
100
AcDbLayerTableRecord
  2
COPY_GEOMETRY
 70
0
 62
7
  6
CONTINUOUS
370
-3
390
F
  0
LAYER
  5
202
100
AcDbSymbolTableRecord
100
AcDbLayerTableRecord
  2
COPY_PUBLISH
 70
0
 62
7
  6
CONTINUOUS
370
-3
390
F
  0
LAYER
  5
203
100
AcDbSymbolTableRecord
100
AcDbLayerTableRecord
  2
COSMETIC
 70
0
 62
7
  6
CONTINUOUS
370
-3
390
F
  0
LAYER
  5
204
100
AcDbSymbolTableRecord
100
AcDbLayerTableRecord
  2
COSMETICI
 70
0
 62
7
  6
CONTINUOUS
370
-3
390
F
  0
LAYER
  5
205
100
AcDbSymbolTableRecord
100
AcDbLayerTableRecord
  2
CURVE
 70
0
 62
7
  6
CONTINUOUS
370
-3
390
F
  0
LAYER
  5
206
100
AcDbSymbolTableRecord
100
AcDbLayerTableRecord
  2
DRAFT
 70
0
 62
7
  6
CONTINUOUS
370
-3
390
F
  0
LAYER
  5
207
100
AcDbSymbolTableRecord
100
AcDbLayerTableRecord
  2
IGES
 70
0
 62
7
  6
CONTINUOUS
370
-3
390
F
  0
LAYER
  5
208
100
AcDbSymbolTableRecord
100
AcDbLayerTableRecord
  2
IGS_SCRITTE
 70
0
 62
7
  6
CONTINUOUS
370
-3
390
F
  0
LAYER
  5
209
100
AcDbSymbolTableRecord
100
AcDbLayerTableRecord
  2
IMPORT_IGES
 70
0
 62
7
  6
CONTINUOUS
370
-3
390
F
  0
LAYER
  5
20A
100
AcDbSymbolTableRecord
100
AcDbLayerTableRecord
  2
INTFCLR_13457
 70
0
 62
7
  6
CONTINUOUS
370
-3
390
F
  0
LAYER
  5
20B
100
AcDbSymbolTableRecord
100
AcDbLayerTableRecord
  2
INTFCLR_20107
 70
0
 62
7
  6
CONTINUOUS
370
-3
390
F
  0
LAYER
  5
20C
100
AcDbSymbolTableRecord
100
AcDbLayerTableRecord
  2
INTFCLR_35047
 70
0
 62
7
  6
CONTINUOUS
370
-3
390
F
  0
LAYER
  5
20D
100
AcDbSymbolTableRecord
100
AcDbLayerTableRecord
  2
INTF_11
 70
0
 62
7
  6
CONTINUOUS
370
-3
390
F
  0
LAYER
  5
20E
100
AcDbSymbolTableRecord
100
AcDbLayerTableRecord
  2
INTF_20
 70
0
 62
7
  6
CONTINUOUS
370
-3
390
F
  0
LAYER
  5
20F
100
AcDbSymbolTableRecord
100
AcDbLayerTableRecord
  2
INTF_25
 70
0
 62
7
  6
CONTINUOUS
370
-3
390
F
  0
LAYER
  5
210
100
AcDbSymbolTableRecord
100
AcDbLayerTableRecord
  2
INTF_YELLOW
 70
0
 62
7
  6
CONTINUOUS
370
-3
390
F
  0
LAYER
  5
211
100
AcDbSymbolTableRecord
100
AcDbLayerTableRecord
  2
NOTE
 70
0
 62
7
  6
CONTINUOUS
370
-3
390
F
  0
LAYER
  5
212
100
AcDbSymbolTableRecord
100
AcDbLayerTableRecord
  2
PIANI
 70
0
 62
7
  6
CONTINUOUS
370
-3
390
F
  0
LAYER
  5
213
100
AcDbSymbolTableRecord
100
AcDbLayerTableRecord
  2
PIANI_ORIGINE
 70
0
 62
7
  6
CONTINUOUS
370
-3
390
F
  0
LAYER
  5
214
100
AcDbSymbolTableRecord
100
AcDbLayerTableRecord
  2
PIANI_RIFERIMENTO
 70
0
 62
7
  6
CONTINUOUS
370
-3
390
F
  0
LAYER
  5
215
100
AcDbSymbolTableRecord
100
AcDbLayerTableRecord
  2
PUBLISH_GEOMETRY
 70
0
 62
7
  6
CONTINUOUS
370
-3
390
F
  0
LAYER
  5
216
100
AcDbSymbolTableRecord
100
AcDbLayerTableRecord
  2
PUNTI
 70
0
 62
7
  6
CONTINUOUS
370
-3
390
F
  0
LAYER
  5
217
100
AcDbSymbolTableRecord
100
AcDbLayerTableRecord
  2
RACCORDO
 70
0
 62
7
  6
CONTINUOUS
370
-3
390
F
  0
LAYER
  5
218
100
AcDbSymbolTableRecord
100
AcDbLayerTableRecord
  2
SIMBOLI
 70
0
 62
7
  6
CONTINUOUS
370
-3
390
F
  0
LAYER
  5
219
100
AcDbSymbolTableRecord
100
AcDbLayerTableRecord
  2
SMUSSO
 70
0
 62
7
  6
CONTINUOUS
370
-3
390
F
  0
LAYER
  5
21A
100
AcDbSymbolTableRecord
100
AcDbLayerTableRecord
  2
SNAPLINE
 70
0
 62
7
  6
CONTINUOUS
370
-3
390
F
  0
LAYER
  5
21B
100
AcDbSymbolTableRecord
100
AcDbLayerTableRecord
  2
SOLIDO
 70
0
 62
7
  6
CONTINUOUS
370
-3
390
F
  0
LAYER
  5
21C
100
AcDbSymbolTableRecord
100
AcDbLayerTableRecord
  2
SUPERFICI
 70
0
 62
7
  6
CONTINUOUS
370
-3
390
F
  0
LAYER
  5
21D
100
AcDbSymbolTableRecord
100
AcDbLayerTableRecord
  2
TRASH
 70
0
 62
7
  6
CONTINUOUS
370
-3
390
F
  0
LAYER
  5
21E
100
AcDbSymbolTableRecord
100
AcDbLayerTableRecord
  2
WHITE
 70
0
 62
7
  6
CONTINUOUS
370
-3
390
F
  0
LAYER
  5
21F
100
AcDbSymbolTableRecord
100
AcDbLayerTableRecord
  2
XSEC_DATUMS
 70
0
 62
7
  6
CONTINUOUS
370
-3
390
F
  0
ENDTAB
  0
TABLE
  2
STYLE
  5
3
100
AcDbSymbolTable
 70
1
  0
STYLE
  5
11
100
AcDbSymbolTableRecord
100
AcDbTextStyleTableRecord
  2
STANDARD
 70
0
 40
0.0
 41
0.8
 50
0.0
 71
0
 42
0.2
  3
txt
  4

  0
STYLE
  5
220
100
AcDbSymbolTableRecord
100
AcDbTextStyleTableRecord
  2
TEXTSTYLE_1
 70
0
 40
0.0
 41
0.8
 50
0.0
 71
0
 42
0.2
  3
gdt
  4

  0
ENDTAB
  0
TABLE
  2
VIEW
  5
6
100
AcDbSymbolTable
 70
0
  0
ENDTAB
  0
TABLE
  2
UCS
  5
7
100
AcDbSymbolTable
 70
0
  0
ENDTAB
  0
TABLE
  2
APPID
  5
9
100
AcDbSymbolTable
 70
1
  0
APPID
  5
221
100
AcDbSymbolTableRecord
100
AcDbRegAppTableRecord
  2
ACAD
 70
0
  0
ENDTAB
  0
TABLE
  2
BLOCK_RECORD
  5
1
100
AcDbSymbolTable
 70
0
  0
BLOCK_RECORD
  5
222
100
AcDbSymbolTableRecord
100
AcDbBlockTableRecord
  2
*Model_Space
  0
BLOCK_RECORD
  5
223
100
AcDbSymbolTableRecord
100
AcDbBlockTableRecord
  2
*Paper_Space
  0
BLOCK_RECORD
  5
224
100
AcDbSymbolTableRecord
100
AcDbBlockTableRecord
  2
_FILLED
  0
BLOCK_RECORD
  5
225
100
AcDbSymbolTableRecord
100
AcDbBlockTableRecord
  2
*D0
  0
BLOCK_RECORD
  5
226
100
AcDbSymbolTableRecord
100
AcDbBlockTableRecord
  2
*D1
  0
BLOCK_RECORD
  5
227
100
AcDbSymbolTableRecord
100
AcDbBlockTableRecord
  2
*D2
  0
ENDTAB
  0
TABLE
  2
DIMSTYLE
  5
A
100
AcDbSymbolTable
 70
1
100
AcDbDimStyleTable
 71
0
  0
DIMSTYLE
105
228
100
AcDbSymbolTableRecord
100
AcDbDimStyleTableRecord
  2
STANDARD
 70
0
  3

  4

 40
1.0
 41
3.0
 42
0.5
 43
0.38
 44
1.5
 45
0.0
 46
0.0
 47
0.01
 48
0.01
140
3.0
141
0.09
142
0.0
143
25.4
144
1.0
145
0.0
146
1.0
147
0.625
 71
1.0
 72
0.0
 73
0
 74
0
 75
0
 76
0
 77
1
 78
8
170
0
171
2
172
0
173
0
174
0
175
0
176
0
177
0
178
0
270
2
271
2
272
2
273
2
274
2
275
0
280
0
281
0
282
0
283
1
284
8
285
0
286
0
287
3
288
0
340
11
278
44
341
224
342
224
343
224
344
224
  0
DIMSTYLE
105
229
100
AcDbSymbolTableRecord
100
AcDbDimStyleTableRecord
  2
DIMSTYLE_1
 70
0
  3

  4

 40
1.0
 41
3.0
 42
0.5
 43
0.38
 44
1.5
 45
0.0
 46
0.0
 47
0.0
 48
0.0
140
3.0
141
0.09
142
0.0
143
25.4
144
1.0
145
0.0
146
1.0
147
0.75
 71
0.0
 72
0.0
 73
0
 74
0
 75
0
 76
0
 77
1
 78
8
170
0
171
2
172
0
173
0
174
0
175
0
176
0
177
0
178
0
270
2
271
1
272
1
273
2
274
2
275
0
280
0
281
0
282
0
283
1
284
8
285
0
286
0
287
3
288
0
340
11
278
44
341
224
342
224
343
224
344
224
  0
DIMSTYLE
105
22A
100
AcDbSymbolTableRecord
100
AcDbDimStyleTableRecord
  2
DIMSTYLE_2
 70
0
  3

  4

 40
1.0
 41
3.0
 42
0.5
 43
0.38
 44
1.5
 45
0.0
 46
0.0
 47
0.0
 48
0.0
140
3.0
141
0.09
142
0.0
143
25.4
144
1.0
145
0.0
146
1.0
147
0.75
 71
0.0
 72
0.0
 73
0
 74
0
 75
0
 76
0
 77
1
 78
8
170
0
171
2
172
0
173
0
174
0
175
0
176
0
177
0
178
0
270
2
271
2
272
2
273
2
274
2
275
0
280
0
281
0
282
0
283
1
284
8
285
0
286
0
287
3
288
0
340
11
278
44
341
224
342
224
343
224
344
224
  0
ENDTAB
  0
ENDSEC
  0
SECTION
  2
BLOCKS
  0
BLOCK
  5
20
100
AcDbEntity
  8
0
100
AcDbBlockBegin
  2
*Model_Space
 70
0
 10
0.0
 20
0.0
 30
0.0
  3
*Model_Space
  1

  0
ENDBLK
  5
21
100
AcDbEntity
  8
0
100
AcDbBlockEnd
  0
BLOCK
  5
1C
100
AcDbEntity
  8
0
100
AcDbBlockBegin
  2
*Paper_Space
 70
0
 10
0.0
 20
0.0
 30
0.0
  3
*Paper_Space
  1

  0
ENDBLK
  5
1D
100
AcDbEntity
  8
0
100
AcDbBlockEnd
  0
BLOCK
  5
22B
100
AcDbEntity
  8
0
100
AcDbBlockBegin
  2
_FILLED
 70
64
 10
0.0
 20
0.0
  3
_FILLED
  1

  0
SOLID
  5
22C
100
AcDbEntity
  8
0
  6
BYBLOCK
 62
0
100
AcDbTrace
 10
0.0
 20
0.0
 11
-1.0
 21
0.3166666667
 12
-1.0
 22
-0.3166666667
 13
-1.0
 23
-0.3166666667
  0
ENDBLK
  5
22D
100
AcDbEntity
  8
0
  6
BYBLOCK
 62
0
100
AcDbBlockEnd
  0
BLOCK
  5
22E
100
AcDbEntity
  8
0
100
AcDbBlockBegin
 62
7
  6
CONTINUOUS
  2
*D0
 70
65
 10
0.0
 20
0.0
  3
*D0
  1

  0
LINE
  5
22F
100
AcDbEntity
  8
0
100
AcDbLine
 62
7
  6
CONTINUOUS
 10
-3.0305822332
 20
0.9893727733
 11
19.7036829388
 21
0.9893727733
  0
LINE
  5
230
100
AcDbEntity
  8
0
100
AcDbLine
 62
7
  6
CONTINUOUS
 10
-3.0305822332
 20
45.3723676349
 11
19.7036829388
 21
45.3723676349
  0
LINE
  5
231
100
AcDbEntity
  8
0
100
AcDbLine
 62
7
  6
CONTINUOUS
 10
18.2036829388
 20
0.9893727733
 11
18.2036829388
 21
23.1808702041
  0
LINE
  5
232
100
AcDbEntity
  8
0
100
AcDbLine
 62
7
  6
CONTINUOUS
 10
18.2036829388
 20
45.3723676349
 11
18.2036829388
 21
23.1808702041
  0
INSERT
  5
233
100
AcDbEntity
  8
0
100
AcDbBlockReference
 62
7
  6
CONTINUOUS
  2
_FILLED
 10
18.2036829388
 20
0.9893727733
 41
3.0
 42
3.0
 43
3.0
 50
270.0
  0
INSERT
  5
234
100
AcDbEntity
  8
0
100
AcDbBlockReference
 62
7
  6
CONTINUOUS
  2
_FILLED
 10
18.2036829388
 20
45.3723676349
 41
3.0
 42
3.0
 43
3.0
 50
90.0
  0
ENDBLK
  5
235
100
AcDbEntity
  8
0
  6
BYBLOCK
 62
0
100
AcDbBlockEnd
  0
BLOCK
  5
236
100
AcDbEntity
  8
0
100
AcDbBlockBegin
 62
7
  6
CONTINUOUS
  2
*D1
 70
65
 10
0.0
 20
0.0
  3
*D1
  1

  0
LINE
  5
237
100
AcDbEntity
  8
0
100
AcDbLine
 62
7
  6
CONTINUOUS
 10
10.2036829388
 20
36.7808702041
 11
10.2036829388
 21
54.8723676349
  0
LINE
  5
238
100
AcDbEntity
  8
0
100
AcDbLine
 62
7
  6
CONTINUOUS
 10
-34.5963170612
 20
36.7808702041
 11
-34.5963170612
 21
54.8723676349
  0
LINE
  5
239
100
AcDbEntity
  8
0
100
AcDbLine
 62
7
  6
CONTINUOUS
 10
10.2036829388
 20
53.3723676349
 11
-12.1963170612
 21
53.3723676349
  0
LINE
  5
23A
100
AcDbEntity
  8
0
100
AcDbLine
 62
7
  6
CONTINUOUS
 10
-34.5963170612
 20
53.3723676349
 11
-12.1963170612
 21
53.3723676349
  0
INSERT
  5
23B
100
AcDbEntity
  8
0
100
AcDbBlockReference
 62
7
  6
CONTINUOUS
  2
_FILLED
 10
10.2036829388
 20
53.3723676349
 41
3.0
 42
3.0
 43
3.0
  0
INSERT
  5
23C
100
AcDbEntity
  8
0
100
AcDbBlockReference
 62
7
  6
CONTINUOUS
  2
_FILLED
 10
-34.5963170612
 20
53.3723676349
 41
3.0
 42
3.0
 43
3.0
 50
180.0
  0
ENDBLK
  5
23D
100
AcDbEntity
  8
0
  6
BYBLOCK
 62
0
100
AcDbBlockEnd
  0
BLOCK
  5
23E
100
AcDbEntity
  8
0
100
AcDbBlockBegin
 62
7
  6
CONTINUOUS
  2
*D2
 70
65
 10
0.0
 20
0.0
  3
*D2
  1

  0
LINE
  5
23F
100
AcDbEntity
  8
0
100
AcDbLine
 62
7
  6
CONTINUOUS
 10
-59.4794059513
 20
24.0786386575
 11
-59.4794059513
 21
52.5004118982
  0
LINE
  5
240
100
AcDbEntity
  8
0
100
AcDbLine
 62
7
  6
CONTINUOUS
 10
-53.7795641711
 20
36.7808702041
 11
-53.7795641711
 21
52.5004118982
  0
LINE
  5
241
100
AcDbEntity
  8
0
100
AcDbLine
 62
7
  6
CONTINUOUS
 10
-59.4794059513
 20
53.2504118982
 11
-63.4794059513
 21
53.2504118982
  0
LINE
  5
242
100
AcDbEntity
  8
0
100
AcDbLine
 62
7
  6
CONTINUOUS
 10
-63.4794059513
 20
53.2504118982
 11
-56.6294850612
 21
53.2504118982
  0
LINE
  5
243
100
AcDbEntity
  8
0
100
AcDbLine
 62
7
  6
CONTINUOUS
 10
-53.7795641711
 20
53.2504118982
 11
-49.7795641711
 21
53.2504118982
  0
LINE
  5
244
100
AcDbEntity
  8
0
100
AcDbLine
 62
7
  6
CONTINUOUS
 10
-49.7795641711
 20
53.2504118982
 11
-56.6294850612
 21
53.2504118982
  0
INSERT
  5
245
100
AcDbEntity
  8
0
100
AcDbBlockReference
 62
7
  6
CONTINUOUS
  2
_FILLED
 10
-59.4794059513
 20
53.2504118982
 41
3.0
 42
3.0
 43
3.0
  0
INSERT
  5
246
100
AcDbEntity
  8
0
100
AcDbBlockReference
 62
7
  6
CONTINUOUS
  2
_FILLED
 10
-53.7795641711
 20
53.2504118982
 41
3.0
 42
3.0
 43
3.0
 50
180.0
  0
ENDBLK
  5
247
100
AcDbEntity
  8
0
  6
BYBLOCK
 62
0
100
AcDbBlockEnd
  0
ENDSEC
  0
SECTION
  2
ENTITIES
  0
DIMENSION
  5
248
100
AcDbEntity
  8
0
100
AcDbDimension
 62
7
  6
CONTINUOUS
  2
*D0
 10
18.2036829388
 20
45.3723676349
 11
18.2036829388
 21
18.7880130612
 70
160
 71
2
 42
44.3829948615
  3
DIMSTYLE_1
100
AcDbAlignedDimension
 13
-3.5305822332
 23
0.9893727733
 14
-3.5305822332
 24
45.3723676349
 50
90.0
100
AcDbRotatedDimension
  0
DIMENSION
  5
249
100
AcDbEntity
  8
0
100
AcDbDimension
 62
7
  6
CONTINUOUS
  2
*D1
 10
-34.5963170612
 20
53.3723676349
 11
-16.5891742041
 21
53.3723676349
 70
160
 71
2
 42
44.8
  3
DIMSTYLE_2
100
AcDbAlignedDimension
 13
10.2036829388
 23
36.2808702041
 14
-34.5963170612
 24
36.2808702041
 50
180.0
100
AcDbRotatedDimension
  0
DIMENSION
  5
24A
100
AcDbEntity
  8
0
100
AcDbDimension
 62
7
  6
CONTINUOUS
  2
*D2
 10
-53.7795641711
 20
53.2504118982
 11
-59.7366279184
 21
53.2504118982
 70
160
 71
2
 42
5.6998417802
  3
DIMSTYLE_2
100
AcDbAlignedDimension
 13
-59.4794059513
 23
23.5786386575
 14
-53.7795641711
 24
36.2808702041
100
AcDbRotatedDimension
  0
LINE
  5
24B
100
AcDbEntity
  8
0
100
AcDbLine
 62
7
  6
CONTINUOUS
 10
-3.2540520881
 20
1.0145010371
 11
-3.5305822332
 21
0.9893727733
  0
LINE
  5
24C
100
AcDbEntity
  8
0
100
AcDbLine
 62
7
  6
CONTINUOUS
 10
-21.1385820343
 20
1.0145010371
 11
-20.8620518892
 21
0.9893727733
  0
LINE
  5
24D
100
AcDbEntity
  8
0
100
AcDbLine
 62
7
  6
CONTINUOUS
 10
-34.5594643483
 20
1.4859490419
 11
-34.5963170612
 21
10.0808702041
  0
LINE
  5
24E
100
AcDbEntity
  8
0
100
AcDbLine
 62
7
  6
CONTINUOUS
 10
-34.5963170612
 20
22.8309368253
 11
-34.5963170612
 21
10.0808702041
  0
LINE
  5
24F
100
AcDbEntity
  8
0
100
AcDbLine
 62
7
  6
CONTINUOUS
 10
-34.5963170612
 20
23.5308035829
 11
-34.5963170612
 21
36.2808702041
  0
LINE
  5
250
100
AcDbEntity
  8
0
100
AcDbLine
 62
253
  6
CONTINUOUS
 10
-33.9144298074
 20
23.0332911159
 11
-33.9144298074
 21
22.7831017506
  0
LINE
  5
251
100
AcDbEntity
  8
0
100
AcDbLine
 62
253
  6
CONTINUOUS
 10
-33.9144298074
 20
23.3284492923
 11
-33.9144298074
 21
23.5786386578
  0
LINE
  5
252
100
AcDbEntity
  8
0
100
AcDbLine
 62
7
  6
CONTINUOUS
 10
-34.5594643483
 20
44.8757913662
 11
-34.5963170612
 21
36.2808702041
  0
LINE
  5
253
100
AcDbEntity
  8
0
100
AcDbLine
 62
7
  6
CONTINUOUS
 10
-25.7540520881
 20
1.0145010371
 11
-26.0305822332
 21
0.9893727733
  0
LINE
  5
254
100
AcDbEntity
  8
0
100
AcDbLine
 62
7
  6
CONTINUOUS
 10
9.665310074
 20
0.9893727733
 11
1.6379481108
 21
0.9893727733
  0
LINE
  5
255
100
AcDbEntity
  8
0
100
AcDbLine
 62
7
  6
CONTINUOUS
 10
-3.5305822332
 20
0.9893727733
 11
-20.8620518892
 21
0.9893727733
  0
LINE
  5
256
100
AcDbEntity
  8
0
100
AcDbLine
 62
7
  6
CONTINUOUS
 10
-26.0305822332
 20
0.9893727733
 11
-34.0579441965
 21
0.9893727733
  0
LINE
  5
257
100
AcDbEntity
  8
0
100
AcDbLine
 62
7
  6
CONTINUOUS
 10
-21.3117871151
 20
1.0197474126
 11
-25.5808470074
 21
1.0197474126
  0
LINE
  5
258
100
AcDbEntity
  8
0
100
AcDbLine
 62
7
  6
CONTINUOUS
 10
-3.0808470074
 20
1.0197474126
 11
1.1882128849
 21
1.0197474126
  0
LINE
  5
259
100
AcDbEntity
  8
0
100
AcDbLine
 62
253
  6
CONTINUOUS
 10
-33.9682873293
 20
1.1239264322
 11
9.5756532069
 21
1.1239264322
  0
LINE
  5
25A
100
AcDbEntity
  8
0
100
AcDbLine
 62
253
  6
CONTINUOUS
 10
-33.9519358736
 20
1.9734737845
 11
9.5593017512
 21
1.9734737845
  0
LINE
  5
25B
100
AcDbEntity
  8
0
100
AcDbLine
 62
7
  6
CONTINUOUS
 10
1.3614179657
 20
1.0145010371
 11
1.6379481108
 21
0.9893727733
  0
LINE
  5
25C
100
AcDbEntity
  8
0
100
AcDbLine
 62
253
  6
CONTINUOUS
 10
-28.3443168899
 20
22.3825243833
 11
-28.3443210695
 21
22.7830989674
  0
LINE
  5
25D
100
AcDbEntity
  8
0
100
AcDbLine
 62
253
  6
CONTINUOUS
 10
-28.3443210695
 20
23.5786414408
 11
-28.3443168899
 21
23.9792160249
  0
LINE
  5
25E
100
AcDbEntity
  8
0
100
AcDbLine
 62
7
  6
CONTINUOUS
 10
-28.1325310415
 20
23.9671032228
 11
-28.1325310415
 21
23.5179644868
  0
LINE
  5
25F
100
AcDbEntity
  8
0
100
AcDbLine
 62
7
  6
CONTINUOUS
 10
-28.1325310415
 20
22.8437759214
 11
-28.1325310415
 21
22.3946371854
  0
LINE
  5
260
100
AcDbEntity
  8
0
100
AcDbLine
 62
253
  6
CONTINUOUS
 10
-27.644329513
 20
24.6794554361
 11
-27.644329513
 21
24.4788636174
  0
LINE
  5
261
100
AcDbEntity
  8
0
100
AcDbLine
 62
253
  6
CONTINUOUS
 10
-27.644329513
 20
21.6822849721
 11
-27.644329513
 21
21.8828767908
  0
LINE
  5
262
100
AcDbEntity
  8
0
100
AcDbLine
 62
7
  6
CONTINUOUS
 10
-14.4463243474
 20
10.3308703476
 11
-13.8463170157
 21
10.3308703476
  0
LINE
  5
263
100
AcDbEntity
  8
ASSI
100
AcDbLine
 62
7
  6
CONTINUOUS
 10
-14.4463243474
 20
10.3308703476
 11
-13.8463170157
 21
10.3308703476
  0
LINE
  5
264
100
AcDbEntity
  8
0
100
AcDbLine
 62
7
  6
CONTINUOUS
 10
-10.5463171331
 20
10.3308703476
 11
-9.9463169913
 21
10.3308703476
  0
LINE
  5
265
100
AcDbEntity
  8
ASSI
100
AcDbLine
 62
7
  6
CONTINUOUS
 10
-10.5463171331
 20
10.3308703476
 11
-9.9463169913
 21
10.3308703476
  0
LINE
  5
266
100
AcDbEntity
  8
0
100
AcDbLine
 62
253
  6
CONTINUOUS
 10
-28.3438885341
 20
23.0332911159
 11
-28.3329992514
 21
23.0441803985
  0
LINE
  5
267
100
AcDbEntity
  8
0
100
AcDbLine
 62
253
  6
CONTINUOUS
 10
-28.1438961494
 20
22.8332987313
 11
-28.1325310754
 21
22.8446638053
  0
LINE
  5
268
100
AcDbEntity
  8
0
100
AcDbLine
 62
253
  6
CONTINUOUS
 10
-28.1325310415
 20
22.3946371854
 11
-28.1443245053
 21
22.3828465804
  0
LINE
  5
269
100
AcDbEntity
  8
0
100
AcDbLine
 62
7
  6
CONTINUOUS
 10
-9.3547815665
 20
37.2326079302
 11
-10.5095259889
 21
36.7543000802
  0
LINE
  5
26A
100
AcDbEntity
  8
ASSI
100
AcDbLine
 62
7
  6
CONTINUOUS
 10
-9.3547815665
 20
37.2326079302
 11
-10.5095259889
 21
36.7543000802
  0
LINE
  5
26B
100
AcDbEntity
  8
0
100
AcDbLine
 62
7
  6
CONTINUOUS
 10
-14.1121136455
 20
35.2620686193
 11
-15.2675769922
 21
34.7834629829
  0
LINE
  5
26C
100
AcDbEntity
  8
ASSI
100
AcDbLine
 62
7
  6
CONTINUOUS
 10
-15.2675769922
 20
34.7834629829
 11
-14.1121136455
 21
35.2620686193
  0
LINE
  5
26D
100
AcDbEntity
  8
0
100
AcDbLine
 62
7
  6
CONTINUOUS
 10
-9.1251727189
 20
36.6782797246
 11
-10.2799171363
 21
36.1999718626
  0
LINE
  5
26E
100
AcDbEntity
  8
ASSI
100
AcDbLine
 62
7
  6
CONTINUOUS
 10
-9.1251727189
 20
36.6782797246
 11
-10.2799171363
 21
36.1999718626
  0
LINE
  5
26F
100
AcDbEntity
  8
0
100
AcDbLine
 62
7
  6
CONTINUOUS
 10
-13.8832236238
 20
34.7074426102
 11
-15.0379681577
 21
34.229134769
  0
LINE
  5
270
100
AcDbEntity
  8
ASSI
100
AcDbLine
 62
7
  6
CONTINUOUS
 10
-13.8832236238
 20
34.7074426102
 11
-15.0379681577
 21
34.229134769
  0
LINE
  5
271
100
AcDbEntity
  8
0
100
AcDbLine
 62
7
  6
CONTINUOUS
 10
-14.4463243474
 20
10.9308700605
 11
-13.8463170157
 21
10.9308700605
  0
LINE
  5
272
100
AcDbEntity
  8
ASSI
100
AcDbLine
 62
7
  6
CONTINUOUS
 10
-14.4463243474
 20
10.9308700605
 11
-13.8463170157
 21
10.9308700605
  0
LINE
  5
273
100
AcDbEntity
  8
0
100
AcDbLine
 62
7
  6
CONTINUOUS
 10
-10.5463171331
 20
10.9308700604
 11
-9.9463169913
 21
10.9308700604
  0
LINE
  5
274
100
AcDbEntity
  8
ASSI
100
AcDbLine
 62
7
  6
CONTINUOUS
 10
-10.5463171331
 20
10.9308700604
 11
-9.9463169913
 21
10.9308700604
  0
LINE
  5
275
100
AcDbEntity
  8
0
100
AcDbLine
 62
253
  6
CONTINUOUS
 10
-28.3329992514
 20
23.3175600097
 11
-28.3438885341
 21
23.3284492923
  0
LINE
  5
276
100
AcDbEntity
  8
0
100
AcDbLine
 62
253
  6
CONTINUOUS
 10
-28.1325310754
 20
23.5170766028
 11
-28.1438961494
 21
23.5284416769
  0
LINE
  5
277
100
AcDbEntity
  8
0
100
AcDbLine
 62
253
  6
CONTINUOUS
 10
-28.1325310415
 20
23.9671032228
 11
-28.1443245053
 21
23.9788937591
  0
LWPOLYLINE
  5
278
100
AcDbEntity
  8
0
100
AcDbPolyline
 62
7
  6
CONTINUOUS
 90
3
 70
0
 43
0.3500000019
 10
-11.1606015625
 20
54.4080839844
 10
-11.2320317383
 20
54.1937988281
 10
-11.3748867187
 20
53.9080834961
  0
LINE
  5
279
100
AcDbEntity
  8
0
100
AcDbLine
 62
253
  6
CONTINUOUS
 10
-27.6325500799
 20
21.8946562238
 11
-27.6443265861
 21
21.8828767908
  0
LINE
  5
27A
100
AcDbEntity
  8
RACCORDO
100
AcDbLine
 62
253
  6
CONTINUOUS
 10
-33.4940127965
 20
23.3070508075
 11
-33.5463779913
 21
23.2808702041
  0
LINE
  5
27B
100
AcDbEntity
  8
RACCORDO
100
AcDbLine
 62
7
  6
CONTINUOUS
 10
-33.4467871852
 20
23.3070508075
 11
-33.4569102555
 21
23.3019896578
  0
LINE
  5
27C
100
AcDbEntity
  8
0
100
AcDbLine
 62
253
  6
CONTINUOUS
 10
9.5249388973
 20
13.6808702041
 11
-33.9175730198
 21
13.6808702041
  0
LINE
  5
27D
100
AcDbEntity
  8
DRAFT
100
AcDbLine
 62
7
  6
CONTINUOUS
 10
-33.3463170612
 20
23.0808702041
 11
-33.2939518664
 21
23.0546896007
  0
LINE
  5
27E
100
AcDbEntity
  8
0
100
AcDbLine
 62
253
  6
CONTINUOUS
 10
-27.6325500799
 20
24.4670841843
 11
-27.6443266545
 21
24.4788636174
  0
LINE
  5
27F
100
AcDbEntity
  8
0
100
AcDbLine
 62
253
  6
CONTINUOUS
 10
-19.2483046095
 20
24.6794554361
 11
-19.2483046095
 21
24.4788636174
  0
LINE
  5
280
100
AcDbEntity
  8
0
100
AcDbLine
 62
253
  6
CONTINUOUS
 10
-19.2483046095
 20
21.6822849721
 11
-19.2483046095
 21
21.8828767908
  0
LINE
  5
281
100
AcDbEntity
  8
0
100
AcDbLine
 62
7
  6
CONTINUOUS
 10
-18.760103081
 20
22.3946371854
 11
-18.760103081
 21
22.8437759214
  0
LINE
  5
282
100
AcDbEntity
  8
0
100
AcDbLine
 62
7
  6
CONTINUOUS
 10
-18.760103081
 20
23.5179644868
 11
-18.760103081
 21
23.9671032228
  0
LINE
  5
283
100
AcDbEntity
  8
0
100
AcDbLine
 62
253
  6
CONTINUOUS
 10
-18.5483172326
 20
23.9792160249
 11
-18.5483130529
 21
23.5786414408
  0
LINE
  5
284
100
AcDbEntity
  8
0
100
AcDbLine
 62
253
  6
CONTINUOUS
 10
-18.5483130529
 20
22.7830989674
 11
-18.5483172326
 21
22.3825243833
  0
LINE
  5
285
100
AcDbEntity
  8
0
100
AcDbLine
 62
253
  6
CONTINUOUS
 10
-34.5594643483
 20
1.4859490419
 11
-34.4679827428
 21
1.6232411995
  0
LINE
  5
286
100
AcDbEntity
  8
0
100
AcDbLine
 62
253
  6
CONTINUOUS
 10
-34.4679827428
 20
44.7384992086
 11
-34.5594643483
 21
44.8757913662
  0
LINE
  5
287
100
AcDbEntity
  8
0
100
AcDbLine
 62
7
  6
CONTINUOUS
 10
-11.331122727
 20
8.5323076989
 11
-11.6311266967
 21
9.0519299161
  0
LINE
  5
288
100
AcDbEntity
  8
ASSI
100
AcDbLine
 62
7
  6
CONTINUOUS
 10
-11.331122727
 20
8.5323076989
 11
-11.6311266967
 21
9.0519299161
  0
LINE
  5
289
100
AcDbEntity
  8
0
100
AcDbLine
 62
7
  6
CONTINUOUS
 10
-13.2811241167
 20
11.9098098251
 11
-13.5811280865
 21
12.4294320423
  0
LINE
  5
28A
100
AcDbEntity
  8
ASSI
100
AcDbLine
 62
7
  6
CONTINUOUS
 10
-13.2811241167
 20
11.9098098251
 11
-13.5811280865
 21
12.4294320423
  0
LINE
  5
28B
100
AcDbEntity
  8
0
100
AcDbLine
 62
7
  6
CONTINUOUS
 10
-11.2489084713
 20
38.8020735562
 11
-11.7272449683
 21
37.647259978
  0
LINE
  5
28C
100
AcDbEntity
  8
ASSI
100
AcDbLine
 62
7
  6
CONTINUOUS
 10
-11.2489084713
 20
38.8020735562
 11
-11.7272449683
 21
37.647259978
  0
LINE
  5
28D
100
AcDbEntity
  8
0
100
AcDbLine
 62
7
  6
CONTINUOUS
 10
-13.2197127045
 20
34.0441019132
 11
-13.6980534623
 21
32.8892780307
  0
LINE
  5
28E
100
AcDbEntity
  8
ASSI
100
AcDbLine
 62
7
  6
CONTINUOUS
 10
-13.2197127045
 20
34.0441019132
 11
-13.6980534623
 21
32.8892780307
  0
LINE
  5
28F
100
AcDbEntity
  8
0
100
AcDbLine
 62
7
  6
CONTINUOUS
 10
-10.6945802564
 20
38.5724647076
 11
-11.1729235224
 21
37.417634784
  0
LINE
  5
290
100
AcDbEntity
  8
ASSI
100
AcDbLine
 62
7
  6
CONTINUOUS
 10
-10.6945802564
 20
38.5724647076
 11
-11.1729235224
 21
37.417634784
  0
LINE
  5
291
100
AcDbEntity
  8
0
100
AcDbLine
 62
7
  6
CONTINUOUS
 10
-12.665384484
 20
33.814493064
 11
-13.1437252469
 21
32.6596691835
  0
LINE
  5
292
100
AcDbEntity
  8
ASSI
100
AcDbLine
 62
7
  6
CONTINUOUS
 10
-12.665384484
 20
33.814493064
 11
-13.1437252469
 21
32.6596691835
  0
LINE
  5
293
100
AcDbEntity
  8
0
100
AcDbLine
 62
253
  6
CONTINUOUS
 10
-34.0579441965
 20
0.9893727733
 11
-33.9682873293
 21
1.1239264322
  0
LINE
  5
294
100
AcDbEntity
  8
0
100
AcDbLine
 62
253
  6
CONTINUOUS
 10
-19.2600840425
 20
24.4670841843
 11
-19.2483075364
 21
24.4788636174
  0
LINE
  5
295
100
AcDbEntity
  8
0
100
AcDbLine
 62
253
  6
CONTINUOUS
 10
-18.748737973
 20
23.5284416769
 11
-18.7601030471
 21
23.5170766028
  0
LINE
  5
296
100
AcDbEntity
  8
0
100
AcDbLine
 62
253
  6
CONTINUOUS
 10
-18.5487455884
 20
23.3284492923
 11
-18.559634871
 21
23.3175600097
  0
LINE
  5
297
100
AcDbEntity
  8
0
100
AcDbLine
 62
253
  6
CONTINUOUS
 10
-18.760103081
 20
23.9671032228
 11
-18.7483096172
 21
23.9788938278
  0
LINE
  5
298
100
AcDbEntity
  8
0
100
AcDbLine
 62
253
  6
CONTINUOUS
 10
10.0214911416
 20
22.7854062213
 11
10.2036829388
 21
22.8309368253
  0
LINE
  5
299
100
AcDbEntity
  8
0
100
AcDbLine
 62
253
  6
CONTINUOUS
 10
9.7716433388
 20
23.0353966781
 11
9.953606737
 21
23.0808702041
  0
LINE
  5
29A
100
AcDbEntity
  8
0
100
AcDbLine
 62
253
  6
CONTINUOUS
 10
-34.5963170612
 20
22.8309368253
 11
-34.414125264
 21
22.7854062213
  0
LINE
  5
29B
100
AcDbEntity
  8
0
100
AcDbLine
 62
253
  6
CONTINUOUS
 10
-34.3462408595
 20
23.0808702041
 11
-34.1642774613
 21
23.0353966781
  0
LINE
  5
29C
100
AcDbEntity
  8
0
100
AcDbLine
 62
253
  6
CONTINUOUS
 10
-18.760103081
 20
22.3946371854
 11
-18.7483096172
 21
22.3828466491
  0
LINE
  5
29D
100
AcDbEntity
  8
0
100
AcDbLine
 62
253
  6
CONTINUOUS
 10
-18.7601030471
 20
22.8446638053
 11
-18.748737973
 21
22.8332987313
  0
LINE
  5
29E
100
AcDbEntity
  8
0
100
AcDbLine
 62
253
  6
CONTINUOUS
 10
-18.559634871
 20
23.0441803985
 11
-18.5487455884
 21
23.0332911159
  0
LINE
  5
29F
100
AcDbEntity
  8
0
100
AcDbLine
 62
253
  6
CONTINUOUS
 10
-19.2600840425
 20
21.8946562238
 11
-19.2483074679
 21
21.8828767908
  0
LINE
  5
2A0
100
AcDbEntity
  8
0
100
AcDbLine
 62
253
  6
CONTINUOUS
 10
-33.9682873293
 20
45.237813976
 11
-34.0579441965
 21
45.3723676349
  0
LINE
  5
2A1
100
AcDbEntity
  8
0
100
AcDbLine
 62
7
  6
CONTINUOUS
 10
-10.8115101083
 20
8.8323116686
 11
-11.1115116784
 21
9.3519297296
  0
LINE
  5
2A2
100
AcDbEntity
  8
ASSI
100
AcDbLine
 62
7
  6
CONTINUOUS
 10
-10.8115101083
 20
8.8323116686
 11
-11.1115116784
 21
9.3519297296
  0
LINE
  5
2A3
100
AcDbEntity
  8
0
100
AcDbLine
 62
7
  6
CONTINUOUS
 10
-12.7615090983
 20
12.2098096386
 11
-13.061513068
 21
12.7294318558
  0
LINE
  5
2A4
100
AcDbEntity
  8
ASSI
100
AcDbLine
 62
7
  6
CONTINUOUS
 10
-12.7615090983
 20
12.2098096386
 11
-13.061513068
 21
12.7294318558
  0
LWPOLYLINE
  5
2A5
100
AcDbEntity
  8
0
100
AcDbPolyline
 62
7
  6
CONTINUOUS
 90
2
 70
0
 43
0.3500000019
 10
-15.5891757812
 20
54.1223686523
 10
-15.5891757812
 20
55.6223701172
  0
LWPOLYLINE
  5
2A6
100
AcDbEntity
  8
0
100
AcDbPolyline
 62
7
  6
CONTINUOUS
 90
2
 70
0
 43
0.3500000019
 10
17.4536855469
 20
19.7880130615
 10
15.953684082
 20
19.7880130615
  0
LWPOLYLINE
  5
2A7
100
AcDbEntity
  8
0
100
AcDbPolyline
 62
7
  6
CONTINUOUS
 90
2
 70
0
 43
0.3500000019
 10
-13.2320336914
 20
54.1223686523
 10
-13.2320336914
 20
55.6223701172
  0
LINE
  5
2A8
100
AcDbEntity
  8
0
100
AcDbLine
 62
253
  6
CONTINUOUS
 10
4.6356307
 20
23.0546896007
 11
4.6316018634
 21
23.0546591649
  0
LINE
  5
2A9
100
AcDbEntity
  8
0
100
AcDbLine
 62
7
  6
CONTINUOUS
 10
4.6316018634
 20
23.0546591649
 11
3.9368673494
 21
23.0441579898
  0
LINE
  5
2AA
100
AcDbEntity
  8
0
100
AcDbLine
 62
253
  6
CONTINUOUS
 10
-17.8643693
 20
23.0546896007
 11
-17.8683981366
 21
23.0546591649
  0
LINE
  5
2AB
100
AcDbEntity
  8
0
100
AcDbLine
 62
7
  6
CONTINUOUS
 10
-17.8683981366
 20
23.0546591649
 11
-18.5631326506
 21
23.0441579898
  0
LINE
  5
2AC
100
AcDbEntity
  8
0
100
AcDbLine
 62
7
  6
CONTINUOUS
 10
-6.5242359859
 20
23.3070812433
 11
-5.8295014719
 21
23.3175824184
  0
LINE
  5
2AD
100
AcDbEntity
  8
0
100
AcDbLine
 62
253
  6
CONTINUOUS
 10
-6.5282648224
 20
23.3070508075
 11
-6.5242364462
 21
23.3071116979
  0
LINE
  5
2AE
100
AcDbEntity
  8
0
100
AcDbLine
 62
7
  6
CONTINUOUS
 10
4.6315776474
 20
23.0546563614
 11
4.6356307
 21
23.0546896007
  0
LINE
  5
2AF
100
AcDbEntity
  8
0
100
AcDbLine
 62
7
  6
CONTINUOUS
 10
-17.8684223526
 20
23.0546563614
 11
-17.8643693
 21
23.0546896007
  0
LINE
  5
2B0
100
AcDbEntity
  8
0
100
AcDbLine
 62
7
  6
CONTINUOUS
 10
-6.5242117698
 20
23.3070840468
 11
-6.5282648224
 21
23.3070508075
  0
LINE
  5
2B1
100
AcDbEntity
  8
0
100
AcDbLine
 62
7
  6
CONTINUOUS
 10
-29.0242117698
 20
23.3070840468
 11
-29.0282648224
 21
23.3070508075
  0
LINE
  5
2B2
100
AcDbEntity
  8
0
100
AcDbLine
 62
7
  6
CONTINUOUS
 10
3.9368701277
 20
23.0441580511
 11
3.940365129
 21
23.0441803985
  0
LINE
  5
2B3
100
AcDbEntity
  8
0
100
AcDbLine
 62
7
  6
CONTINUOUS
 10
-18.5631298723
 20
23.0441580511
 11
-18.559634871
 21
23.0441803985
  0
LINE
  5
2B4
100
AcDbEntity
  8
0
100
AcDbLine
 62
7
  6
CONTINUOUS
 10
-5.8295042501
 20
23.3175823571
 11
-5.8329992514
 21
23.3175600097
  0
LINE
  5
2B5
100
AcDbEntity
  8
0
100
AcDbLine
 62
7
  6
CONTINUOUS
 10
-28.3295042501
 20
23.3175823571
 11
-28.3329992514
 21
23.3175600097
  0
LINE
  5
2B6
100
AcDbEntity
  8
0
100
AcDbLine
 62
253
  6
CONTINUOUS
 10
-5.8443210695
 20
22.7831017509
 11
-5.6443286849
 21
22.7832608583
  0
LINE
  5
2B7
100
AcDbEntity
  8
0
100
AcDbLine
 62
253
  6
CONTINUOUS
 10
-28.3443210695
 20
22.7831017509
 11
-28.1443286849
 21
22.7832608583
  0
LINE
  5
2B8
100
AcDbEntity
  8
0
100
AcDbLine
 62
253
  6
CONTINUOUS
 10
3.2516953905
 20
21.6822849721
 11
-5.144329513
 21
21.6822849721
  0
LINE
  5
2B9
100
AcDbEntity
  8
0
100
AcDbLine
 62
253
  6
CONTINUOUS
 10
-19.2483046095
 20
21.6822849721
 11
-27.644329513
 21
21.6822849721
  0
LINE
  5
2BA
100
AcDbEntity
  8
0
100
AcDbLine
 62
253
  6
CONTINUOUS
 10
3.2516925321
 20
21.8828767908
 11
-5.1443265861
 21
21.8828767908
  0
LINE
  5
2BB
100
AcDbEntity
  8
0
100
AcDbLine
 62
253
  6
CONTINUOUS
 10
-19.2483074679
 20
21.8828767908
 11
-27.6443265861
 21
21.8828767908
  0
LINE
  5
2BC
100
AcDbEntity
  8
0
100
AcDbLine
 62
7
  6
CONTINUOUS
 10
-27.6325500799
 20
21.8946562238
 11
-19.2600840425
 21
21.8946562238
  0
LINE
  5
2BD
100
AcDbEntity
  8
0
100
AcDbLine
 62
7
  6
CONTINUOUS
 10
-5.1325500799
 20
21.8946562238
 11
3.2399159575
 21
21.8946562238
  0
LWPOLYLINE
  5
2BE
100
AcDbEntity
  8
0
100
AcDbPolyline
 62
7
  6
CONTINUOUS
 90
2
 70
0
 43
0.3500000019
 10
17.4536855469
 20
22.1451564941
 10
15.953684082
 20
22.1451564941
  0
LINE
  5
2BF
100
AcDbEntity
  8
0
100
AcDbLine
 62
253
  6
CONTINUOUS
 10
-33.9144267934
 20
22.7831017506
 11
-28.3443210695
 21
22.7830989674
  0
LINE
  5
2C0
100
AcDbEntity
  8
0
100
AcDbLine
 62
253
  6
CONTINUOUS
 10
3.9516869471
 20
22.7830989674
 11
9.521792671
 21
22.7831017506
  0
LINE
  5
2C1
100
AcDbEntity
  8
0
100
AcDbLine
 62
253
  6
CONTINUOUS
 10
-18.5483130529
 20
22.7830989674
 11
-5.8443210695
 21
22.7830989674
  0
LINE
  5
2C2
100
AcDbEntity
  8
0
100
AcDbLine
 62
253
  6
CONTINUOUS
 10
-33.9144298074
 20
23.0332911159
 11
-28.3438885341
 21
23.0332911159
  0
LINE
  5
2C3
100
AcDbEntity
  8
0
100
AcDbLine
 62
253
  6
CONTINUOUS
 10
-18.5487455884
 20
23.0332911159
 11
-5.8438885341
 21
23.0332911159
  0
LINE
  5
2C4
100
AcDbEntity
  8
0
100
AcDbLine
 62
253
  6
CONTINUOUS
 10
3.9512544116
 20
23.0332911159
 11
9.5217956849
 21
23.0332911159
  0
LINE
  5
2C5
100
AcDbEntity
  8
0
100
AcDbLine
 62
7
  6
CONTINUOUS
 10
9.101378674
 20
23.0546896007
 11
4.6356307
 21
23.0546896007
  0
LINE
  5
2C6
100
AcDbEntity
  8
0
100
AcDbLine
 62
7
  6
CONTINUOUS
 10
-6.5282648224
 20
23.0546896007
 11
-17.8643693
 21
23.0546896007
  0
LINE
  5
2C7
100
AcDbEntity
  8
0
100
AcDbLine
 62
7
  6
CONTINUOUS
 10
-29.0282648224
 20
23.0546896007
 11
-33.2939518664
 21
23.0546896007
  0
LINE
  5
2C8
100
AcDbEntity
  8
0
100
AcDbLine
 62
7
  6
CONTINUOUS
 10
9.953606737
 20
23.0808702041
 11
9.1537438688
 21
23.0808702041
  0
LINE
  5
2C9
100
AcDbEntity
  8
0
100
AcDbLine
 62
7
  6
CONTINUOUS
 10
-33.3463170612
 20
23.0808702041
 11
-34.3462408595
 21
23.0808702041
  0
LINE
  5
2CA
100
AcDbEntity
  8
RACCORDO
100
AcDbLine
 62
7
  6
CONTINUOUS
 10
-34.3462408595
 20
23.2808702041
 11
-33.5463779913
 21
23.2808702041
  0
LINE
  5
2CB
100
AcDbEntity
  8
0
100
AcDbLine
 62
7
  6
CONTINUOUS
 10
8.9536829388
 20
23.2808702041
 11
9.953606737
 21
23.2808702041
  0
LINE
  5
2CC
100
AcDbEntity
  8
RACCORDO
100
AcDbLine
 62
7
  6
CONTINUOUS
 10
-33.4940127965
 20
23.3070508075
 11
-29.0282648224
 21
23.3070508075
  0
LINE
  5
2CD
100
AcDbEntity
  8
0
100
AcDbLine
 62
7
  6
CONTINUOUS
 10
-17.8643693
 20
23.3070508075
 11
-6.5282648224
 21
23.3070508075
  0
LINE
  5
2CE
100
AcDbEntity
  8
0
100
AcDbLine
 62
7
  6
CONTINUOUS
 10
4.6356307
 20
23.3070508075
 11
8.901317744
 21
23.3070508075
  0
LINE
  5
2CF
100
AcDbEntity
  8
0
100
AcDbLine
 62
253
  6
CONTINUOUS
 10
9.5217956849
 20
23.3284492923
 11
3.9512544116
 21
23.3284492923
  0
LINE
  5
2D0
100
AcDbEntity
  8
0
100
AcDbLine
 62
253
  6
CONTINUOUS
 10
-5.8438885341
 20
23.3284492923
 11
-18.5487455884
 21
23.3284492923
  0
LINE
  5
2D1
100
AcDbEntity
  8
0
100
AcDbLine
 62
253
  6
CONTINUOUS
 10
-28.3438885341
 20
23.3284492923
 11
-33.9144298074
 21
23.3284492923
  0
LINE
  5
2D2
100
AcDbEntity
  8
0
100
AcDbLine
 62
253
  6
CONTINUOUS
 10
-18.5483130529
 20
22.7831017509
 11
-18.7483054375
 21
22.7832608583
  0
LINE
  5
2D3
100
AcDbEntity
  8
0
100
AcDbLine
 62
253
  6
CONTINUOUS
 10
3.9516869471
 20
22.7831017509
 11
3.7516945625
 21
22.7832608583
  0
LINE
  5
2D4
100
AcDbEntity
  8
0
100
AcDbLine
 62
7
  6
CONTINUOUS
 10
-28.3295031775
 20
23.0441580155
 11
-28.3329992514
 21
23.0441803985
  0
LINE
  5
2D5
100
AcDbEntity
  8
0
100
AcDbLine
 62
7
  6
CONTINUOUS
 10
-5.8295031775
 20
23.0441580155
 11
-5.8329992514
 21
23.0441803985
  0
LINE
  5
2D6
100
AcDbEntity
  8
0
100
AcDbLine
 62
7
  6
CONTINUOUS
 10
-18.563130945
 20
23.3175823926
 11
-18.559634871
 21
23.3175600097
  0
LINE
  5
2D7
100
AcDbEntity
  8
0
100
AcDbLine
 62
7
  6
CONTINUOUS
 10
3.936869055
 20
23.3175823926
 11
3.940365129
 21
23.3175600097
  0
LINE
  5
2D8
100
AcDbEntity
  8
0
100
AcDbLine
 62
7
  6
CONTINUOUS
 10
-29.0282648224
 20
23.0546896007
 11
-29.0242117698
 21
23.0546563614
  0
LINE
  5
2D9
100
AcDbEntity
  8
0
100
AcDbLine
 62
7
  6
CONTINUOUS
 10
-6.5282648224
 20
23.0546896007
 11
-6.5242117698
 21
23.0546563614
  0
LINE
  5
2DA
100
AcDbEntity
  8
0
100
AcDbLine
 62
7
  6
CONTINUOUS
 10
-17.8643693
 20
23.3070508075
 11
-17.8684223526
 21
23.3070840468
  0
LINE
  5
2DB
100
AcDbEntity
  8
0
100
AcDbLine
 62
7
  6
CONTINUOUS
 10
4.6356307
 20
23.3070508075
 11
4.6315776474
 21
23.3070840468
  0
LINE
  5
2DC
100
AcDbEntity
  8
0
100
AcDbLine
 62
253
  6
CONTINUOUS
 10
-29.0242359859
 20
23.0546591649
 11
-29.0282648224
 21
23.0546896007
  0
LINE
  5
2DD
100
AcDbEntity
  8
0
100
AcDbLine
 62
7
  6
CONTINUOUS
 10
-28.3295014719
 20
23.0441579898
 11
-29.0242359859
 21
23.0546591649
  0
LINE
  5
2DE
100
AcDbEntity
  8
0
100
AcDbLine
 62
253
  6
CONTINUOUS
 10
-6.5242359859
 20
23.0546591649
 11
-6.5282648224
 21
23.0546896007
  0
LINE
  5
2DF
100
AcDbEntity
  8
0
100
AcDbLine
 62
7
  6
CONTINUOUS
 10
-5.8295014719
 20
23.0441579898
 11
-6.5242359859
 21
23.0546591649
  0
LINE
  5
2E0
100
AcDbEntity
  8
0
100
AcDbLine
 62
7
  6
CONTINUOUS
 10
-18.5631326506
 20
23.3175824184
 11
-17.8683981366
 21
23.3070812433
  0
LINE
  5
2E1
100
AcDbEntity
  8
0
100
AcDbLine
 62
253
  6
CONTINUOUS
 10
-17.8683976762
 20
23.3071116979
 11
-17.8643693
 21
23.3070508075
  0
LWPOLYLINE
  5
2E2
100
AcDbEntity
  8
0
100
AcDbPolyline
 62
7
  6
CONTINUOUS
 90
4
 70
0
 43
0.3500000019
 10
-10.1606005859
 20
54.5509389648
 10
-10.1606005859
 20
55.4080795898
 10
-9.7320302734
 20
55.8366552734
 10
-9.0891748047
 20
55.8366552734
  0
LINE
  5
2E3
100
AcDbEntity
  8
0
100
AcDbLine
 62
7
  6
CONTINUOUS
 10
-29.0242359859
 20
23.3070812433
 11
-28.3295014719
 21
23.3175824184
  0
LINE
  5
2E4
100
AcDbEntity
  8
0
100
AcDbLine
 62
253
  6
CONTINUOUS
 10
-29.0282648224
 20
23.3070508075
 11
-29.0242364462
 21
23.3071116979
  0
LINE
  5
2E5
100
AcDbEntity
  8
0
100
AcDbLine
 62
253
  6
CONTINUOUS
 10
3.9516869471
 20
23.5786386572
 11
3.7516945625
 21
23.5784795499
  0
LINE
  5
2E6
100
AcDbEntity
  8
0
100
AcDbLine
 62
253
  6
CONTINUOUS
 10
-18.5483130529
 20
23.5786386572
 11
-18.7483054375
 21
23.5784795499
  0
LINE
  5
2E7
100
AcDbEntity
  8
0
100
AcDbLine
 62
253
  6
CONTINUOUS
 10
-5.8443210695
 20
23.5786414408
 11
-18.5483130529
 21
23.5786414408
  0
LINE
  5
2E8
100
AcDbEntity
  8
0
100
AcDbLine
 62
253
  6
CONTINUOUS
 10
9.5217926709
 20
23.5786386575
 11
3.9516869471
 21
23.5786414408
  0
LINE
  5
2E9
100
AcDbEntity
  8
0
100
AcDbLine
 62
253
  6
CONTINUOUS
 10
-28.3443210695
 20
23.5786414408
 11
-33.9144267934
 21
23.5786386575
  0
LINE
  5
2EA
100
AcDbEntity
  8
0
100
AcDbLine
 62
7
  6
CONTINUOUS
 10
3.2399159575
 20
24.4670841843
 11
-5.1325500799
 21
24.4670841843
  0
LINE
  5
2EB
100
AcDbEntity
  8
0
100
AcDbLine
 62
7
  6
CONTINUOUS
 10
-19.2600840425
 20
24.4670841843
 11
-27.6325500799
 21
24.4670841843
  0
LINE
  5
2EC
100
AcDbEntity
  8
0
100
AcDbLine
 62
253
  6
CONTINUOUS
 10
-27.6443266545
 20
24.4788636174
 11
-19.2483075364
 21
24.4788636174
  0
LINE
  5
2ED
100
AcDbEntity
  8
0
100
AcDbLine
 62
253
  6
CONTINUOUS
 10
-5.1443266545
 20
24.4788636174
 11
3.2516924636
 21
24.4788636174
  0
LINE
  5
2EE
100
AcDbEntity
  8
0
100
AcDbLine
 62
253
  6
CONTINUOUS
 10
-27.644329513
 20
24.6794554361
 11
-19.2483046095
 21
24.6794554361
  0
LINE
  5
2EF
100
AcDbEntity
  8
0
100
AcDbLine
 62
253
  6
CONTINUOUS
 10
-5.144329513
 20
24.6794554361
 11
3.2516953905
 21
24.6794554361
  0
LINE
  5
2F0
100
AcDbEntity
  8
0
100
AcDbLine
 62
253
  6
CONTINUOUS
 10
-28.3443210695
 20
23.5786386573
 11
-28.1443286849
 21
23.5784795499
  0
LINE
  5
2F1
100
AcDbEntity
  8
0
100
AcDbLine
 62
253
  6
CONTINUOUS
 10
-5.8443210695
 20
23.5786386573
 11
-5.6443286849
 21
23.5784795499
  0
LINE
  5
2F2
100
AcDbEntity
  8
0
100
AcDbLine
 62
7
  6
CONTINUOUS
 10
3.9368673494
 20
23.3175824184
 11
4.6316018634
 21
23.3070812433
  0
LINE
  5
2F3
100
AcDbEntity
  8
0
100
AcDbLine
 62
253
  6
CONTINUOUS
 10
4.6316023238
 20
23.3071116979
 11
4.6356307
 21
23.3070508075
  0
LWPOLYLINE
  5
2F4
100
AcDbEntity
  8
0
100
AcDbPolyline
 62
7
  6
CONTINUOUS
 90
2
 70
0
 43
0.3500000019
 10
17.4536855469
 20
26.2165852051
 10
15.953684082
 20
26.2165852051
  0
LINE
  5
2F5
100
AcDbEntity
  8
0
100
AcDbLine
 62
253
  6
CONTINUOUS
 10
-5.8443168899
 20
22.3825243833
 11
-5.8443210695
 21
22.7830989674
  0
LINE
  5
2F6
100
AcDbEntity
  8
0
100
AcDbLine
 62
253
  6
CONTINUOUS
 10
-5.8443210695
 20
23.5786414408
 11
-5.8443168899
 21
23.9792160249
  0
LINE
  5
2F7
100
AcDbEntity
  8
0
100
AcDbLine
 62
7
  6
CONTINUOUS
 10
-5.6325310415
 20
23.9671032228
 11
-5.6325310415
 21
23.5179644868
  0
LINE
  5
2F8
100
AcDbEntity
  8
0
100
AcDbLine
 62
7
  6
CONTINUOUS
 10
-5.6325310415
 20
22.8437759214
 11
-5.6325310415
 21
22.3946371854
  0
LINE
  5
2F9
100
AcDbEntity
  8
0
100
AcDbLine
 62
7
  6
CONTINUOUS
 10
-13.5811280865
 20
8.8323075124
 11
-13.2811241167
 21
9.3519297297
  0
LINE
  5
2FA
100
AcDbEntity
  8
ASSI
100
AcDbLine
 62
7
  6
CONTINUOUS
 10
-13.5811280865
 20
8.8323075124
 11
-13.2811241167
 21
9.3519297297
  0
LINE
  5
2FB
100
AcDbEntity
  8
0
100
AcDbLine
 62
7
  6
CONTINUOUS
 10
-11.6311266968
 20
12.2098096386
 11
-11.331122727
 21
12.7294318558
  0
LINE
  5
2FC
100
AcDbEntity
  8
ASSI
100
AcDbLine
 62
7
  6
CONTINUOUS
 10
-11.6311266968
 20
12.2098096386
 11
-11.331122727
 21
12.7294318558
  0
LINE
  5
2FD
100
AcDbEntity
  8
0
100
AcDbLine
 62
7
  6
CONTINUOUS
 10
-13.061513068
 20
8.5323076989
 11
-12.7615090982
 21
9.0519299162
  0
LINE
  5
2FE
100
AcDbEntity
  8
ASSI
100
AcDbLine
 62
7
  6
CONTINUOUS
 10
-13.061513068
 20
8.5323076989
 11
-12.7615090982
 21
9.0519299162
  0
LINE
  5
2FF
100
AcDbEntity
  8
0
100
AcDbLine
 62
7
  6
CONTINUOUS
 10
-11.1115116784
 20
11.909809825
 11
-10.8115077086
 21
12.4294320423
  0
LINE
  5
300
100
AcDbEntity
  8
ASSI
100
AcDbLine
 62
7
  6
CONTINUOUS
 10
-11.1115116784
 20
11.909809825
 11
-10.8115077086
 21
12.4294320423
  0
LINE
  5
301
100
AcDbEntity
  8
0
100
AcDbLine
 62
253
  6
CONTINUOUS
 10
9.665310074
 20
45.3723676349
 11
9.5756532069
 21
45.237813976
  0
LINE
  5
302
100
AcDbEntity
  8
0
100
AcDbLine
 62
253
  6
CONTINUOUS
 10
10.1668302259
 20
44.8757913662
 11
10.0753486204
 21
44.7384992086
  0
LINE
  5
303
100
AcDbEntity
  8
0
100
AcDbLine
 62
253
  6
CONTINUOUS
 10
-5.8438885341
 20
23.0332911159
 11
-5.8329992514
 21
23.0441803985
  0
LINE
  5
304
100
AcDbEntity
  8
0
100
AcDbLine
 62
253
  6
CONTINUOUS
 10
-5.6438961494
 20
22.8332987313
 11
-5.6325310754
 21
22.8446638053
  0
LINE
  5
305
100
AcDbEntity
  8
0
100
AcDbLine
 62
253
  6
CONTINUOUS
 10
-5.1325500799
 20
21.8946562238
 11
-5.1443265861
 21
21.8828767908
  0
LINE
  5
306
100
AcDbEntity
  8
0
100
AcDbLine
 62
253
  6
CONTINUOUS
 10
-5.6325310415
 20
22.3946371854
 11
-5.6443245053
 21
22.3828465804
  0
LINE
  5
307
100
AcDbEntity
  8
0
100
AcDbLine
 62
253
  6
CONTINUOUS
 10
-34.1642774613
 20
23.3263437301
 11
-34.3462408595
 21
23.2808702041
  0
LINE
  5
308
100
AcDbEntity
  8
0
100
AcDbLine
 62
253
  6
CONTINUOUS
 10
-34.414125264
 20
23.5763341868
 11
-34.5963170612
 21
23.5308035829
  0
LINE
  5
309
100
AcDbEntity
  8
0
100
AcDbLine
 62
253
  6
CONTINUOUS
 10
9.953606737
 20
23.2808702041
 11
9.7716433388
 21
23.3263437301
  0
LINE
  5
30A
100
AcDbEntity
  8
0
100
AcDbLine
 62
253
  6
CONTINUOUS
 10
10.2036829388
 20
23.5308035829
 11
10.0214911416
 21
23.5763341868
  0
LINE
  5
30B
100
AcDbEntity
  8
0
100
AcDbLine
 62
253
  6
CONTINUOUS
 10
-5.8329992514
 20
23.3175600097
 11
-5.8438885341
 21
23.3284492923
  0
LINE
  5
30C
100
AcDbEntity
  8
0
100
AcDbLine
 62
253
  6
CONTINUOUS
 10
-5.6325310754
 20
23.5170766028
 11
-5.6438961494
 21
23.5284416769
  0
LINE
  5
30D
100
AcDbEntity
  8
0
100
AcDbLine
 62
253
  6
CONTINUOUS
 10
-5.6325310415
 20
23.9671032228
 11
-5.6443245053
 21
23.9788937591
  0
LINE
  5
30E
100
AcDbEntity
  8
0
100
AcDbLine
 62
253
  6
CONTINUOUS
 10
-5.1325500799
 20
24.4670841843
 11
-5.1443266545
 21
24.4788636174
  0
LINE
  5
30F
100
AcDbEntity
  8
0
100
AcDbLine
 62
253
  6
CONTINUOUS
 10
9.5756532069
 20
1.1239264322
 11
9.665310074
 21
0.9893727733
  0
LINE
  5
310
100
AcDbEntity
  8
0
100
AcDbLine
 62
253
  6
CONTINUOUS
 10
10.0753486204
 20
1.6232411995
 11
10.1668302259
 21
1.4859490419
  0
LINE
  5
311
100
AcDbEntity
  8
0
100
AcDbLine
 62
7
  6
CONTINUOUS
 10
-13.6980534636
 20
38.572464707
 11
-13.2197127041
 21
37.4176408337
  0
LINE
  5
312
100
AcDbEntity
  8
ASSI
100
AcDbLine
 62
7
  6
CONTINUOUS
 10
-13.6980534636
 20
38.572464707
 11
-13.2197127041
 21
37.4176408337
  0
LINE
  5
313
100
AcDbEntity
  8
0
100
AcDbLine
 62
7
  6
CONTINUOUS
 10
-11.7272492382
 20
33.814493064
 11
-11.2489084752
 21
32.6596691822
  0
LINE
  5
314
100
AcDbEntity
  8
ASSI
100
AcDbLine
 62
7
  6
CONTINUOUS
 10
-11.7272492382
 20
33.814493064
 11
-11.2489084752
 21
32.6596691822
  0
LINE
  5
315
100
AcDbEntity
  8
0
100
AcDbLine
 62
7
  6
CONTINUOUS
 10
-13.1437252433
 20
38.8020735574
 11
-12.6653844838
 21
37.647249684
  0
LINE
  5
316
100
AcDbEntity
  8
ASSI
100
AcDbLine
 62
7
  6
CONTINUOUS
 10
-13.1437252433
 20
38.8020735574
 11
-12.6653844838
 21
37.647249684
  0
LINE
  5
317
100
AcDbEntity
  8
0
100
AcDbLine
 62
7
  6
CONTINUOUS
 10
-11.1729210179
 20
34.0441019143
 11
-10.6945802549
 21
32.8892780325
  0
LINE
  5
318
100
AcDbEntity
  8
ASSI
100
AcDbLine
 62
7
  6
CONTINUOUS
 10
-11.1729210179
 20
34.0441019143
 11
-10.6945802549
 21
32.8892780325
  0
LINE
  5
319
100
AcDbEntity
  8
0
100
AcDbLine
 62
253
  6
CONTINUOUS
 10
-5.144329513
 20
24.6794554361
 11
-5.144329513
 21
24.4788636174
  0
LINE
  5
31A
100
AcDbEntity
  8
0
100
AcDbLine
 62
253
  6
CONTINUOUS
 10
-5.144329513
 20
21.6822849721
 11
-5.144329513
 21
21.8828767908
  0
LINE
  5
31B
100
AcDbEntity
  8
0
100
AcDbLine
 62
253
  6
CONTINUOUS
 10
3.2399159575
 20
24.4670841843
 11
3.2516924636
 21
24.4788636174
  0
LINE
  5
31C
100
AcDbEntity
  8
0
100
AcDbLine
 62
253
  6
CONTINUOUS
 10
3.739896919
 20
23.9671032228
 11
3.7516903828
 21
23.9788938278
  0
LINE
  5
31D
100
AcDbEntity
  8
RACCORDO
100
AcDbLine
 62
7
  6
CONTINUOUS
 10
9.0541530627
 20
23.0546896007
 11
9.064276133
 21
23.0597507504
  0
LINE
  5
31E
100
AcDbEntity
  8
RACCORDO
100
AcDbLine
 62
253
  6
CONTINUOUS
 10
9.101378674
 20
23.0546896007
 11
9.1537438688
 21
23.0808702041
  0
LINE
  5
31F
100
AcDbEntity
  8
0
100
AcDbLine
 62
253
  6
CONTINUOUS
 10
-33.9175730198
 20
32.6808702041
 11
-13.1349435508
 21
32.6808702041
  0
LINE
  5
320
100
AcDbEntity
  8
ASSI
100
AcDbLine
 62
253
  6
CONTINUOUS
 10
-13.1349435508
 20
32.6808702041
 11
-11.2576901718
 21
32.6808702041
  0
LINE
  5
321
100
AcDbEntity
  8
0
100
AcDbLine
 62
253
  6
CONTINUOUS
 10
-11.2576901718
 20
32.6808702041
 11
9.5249388973
 21
32.6808702041
  0
LWPOLYLINE
  5
322
100
AcDbEntity
  8
0
100
AcDbPolyline
 62
7
  6
CONTINUOUS
 90
3
 70
0
 43
0.3500000019
 10
17.1679702148
 20
24.216583252
 10
17.3822553711
 20
24.1451557617
 10
17.6679707031
 20
24.0022980957
  0
LINE
  5
323
100
AcDbEntity
  8
DRAFT
100
AcDbLine
 62
7
  6
CONTINUOUS
 10
8.9536829388
 20
23.2808702041
 11
8.901317744
 21
23.3070508075
  0
LINE
  5
324
100
AcDbEntity
  8
0
100
AcDbLine
 62
253
  6
CONTINUOUS
 10
3.739896919
 20
22.3946371854
 11
3.7516903828
 21
22.3828466491
  0
LINE
  5
325
100
AcDbEntity
  8
0
100
AcDbLine
 62
253
  6
CONTINUOUS
 10
3.2399159575
 20
21.8946562238
 11
3.2516925321
 21
21.8828767908
  0
LINE
  5
326
100
AcDbEntity
  8
0
100
AcDbLine
 62
253
  6
CONTINUOUS
 10
3.751262027
 20
23.5284416769
 11
3.7398969529
 21
23.5170766028
  0
LINE
  5
327
100
AcDbEntity
  8
0
100
AcDbLine
 62
253
  6
CONTINUOUS
 10
3.9512544116
 20
23.3284492923
 11
3.940365129
 21
23.3175600097
  0
LWPOLYLINE
  5
328
100
AcDbEntity
  8
0
100
AcDbPolyline
 62
7
  6
CONTINUOUS
 90
10
 70
0
 43
0.3500000019
 10
16.9536850586
 20
24.1451557617
 10
17.0965400391
 20
24.216583252
 10
17.1679702148
 20
24.216583252
 10
17.3108251953
 20
24.0737282715
 10
17.3108251953
 20
24.0022980957
 10
17.2393950195
 20
23.9308706055
 10
17.1679702148
 20
23.9308706055
 10
17.0251098633
 20
24.0022980957
 10
16.9536850586
 20
24.0737282715
 10
16.9536850586
 20
24.1451557617
  0
LINE
  5
329
100
AcDbEntity
  8
ASSI
100
AcDbLine
 62
7
  6
CONTINUOUS
 10
-14.1128324656
 20
36.1999718624
 11
-15.2675769611
 21
36.6782797558
  0
LINE
  5
32A
100
AcDbEntity
  8
0
100
AcDbLine
 62
7
  6
CONTINUOUS
 10
-15.2675769611
 20
36.6782797558
 11
-14.1128324656
 21
36.1999718624
  0
LINE
  5
32B
100
AcDbEntity
  8
0
100
AcDbLine
 62
7
  6
CONTINUOUS
 10
-10.509525987
 20
34.7074426168
 11
-9.3547815625
 21
34.2291347728
  0
LINE
  5
32C
100
AcDbEntity
  8
ASSI
100
AcDbLine
 62
7
  6
CONTINUOUS
 10
-10.509525987
 20
34.7074426168
 11
-9.3547815625
 21
34.2291347728
  0
LINE
  5
32D
100
AcDbEntity
  8
0
100
AcDbLine
 62
7
  6
CONTINUOUS
 10
-15.0379681423
 20
37.2326079329
 11
-13.8830775048
 21
36.7542395171
  0
LINE
  5
32E
100
AcDbEntity
  8
ASSI
100
AcDbLine
 62
7
  6
CONTINUOUS
 10
-15.0379681423
 20
37.2326079329
 11
-13.8830775048
 21
36.7542395171
  0
LINE
  5
32F
100
AcDbEntity
  8
0
100
AcDbLine
 62
7
  6
CONTINUOUS
 10
-10.2799171414
 20
35.2617708287
 11
-9.12517272
 21
34.7834629772
  0
LINE
  5
330
100
AcDbEntity
  8
ASSI
100
AcDbLine
 62
7
  6
CONTINUOUS
 10
-10.2799171414
 20
35.2617708287
 11
-9.12517272
 21
34.7834629772
  0
LINE
  5
331
100
AcDbEntity
  8
0
100
AcDbLine
 62
253
  6
CONTINUOUS
 10
3.7398969529
 20
22.8446638053
 11
3.751262027
 21
22.8332987313
  0
LINE
  5
332
100
AcDbEntity
  8
0
100
AcDbLine
 62
253
  6
CONTINUOUS
 10
3.940365129
 20
23.0441803985
 11
3.9512544116
 21
23.0332911159
  0
LWPOLYLINE
  5
333
100
AcDbEntity
  8
0
100
AcDbPolyline
 62
7
  6
CONTINUOUS
 90
10
 70
0
 43
0.3500000019
 10
-11.2320317383
 20
54.6223691406
 10
-11.1606015625
 20
54.4795087891
 10
-11.1606015625
 20
54.4080839844
 10
-11.3034619141
 20
54.2652236328
 10
-11.3748867187
 20
54.2652236328
 10
-11.4463168945
 20
54.3366538086
 10
-11.4463168945
 20
54.4080839844
 10
-11.3748867187
 20
54.5509389648
 10
-11.3034619141
 20
54.6223691406
 10
-11.2320317383
 20
54.6223691406
  0
LINE
  5
334
100
AcDbEntity
  8
0
100
AcDbLine
 62
253
  6
CONTINUOUS
 10
3.2516953905
 20
24.6794554361
 11
3.2516953905
 21
24.4788636174
  0
LINE
  5
335
100
AcDbEntity
  8
0
100
AcDbLine
 62
253
  6
CONTINUOUS
 10
3.2516953905
 20
21.6822849721
 11
3.2516953905
 21
21.8828767908
  0
LINE
  5
336
100
AcDbEntity
  8
0
100
AcDbLine
 62
7
  6
CONTINUOUS
 10
3.739896919
 20
22.3946371854
 11
3.739896919
 21
22.8437759214
  0
LINE
  5
337
100
AcDbEntity
  8
0
100
AcDbLine
 62
7
  6
CONTINUOUS
 10
3.739896919
 20
23.5179644868
 11
3.739896919
 21
23.9671032228
  0
LINE
  5
338
100
AcDbEntity
  8
0
100
AcDbLine
 62
253
  6
CONTINUOUS
 10
3.9516827674
 20
23.9792160249
 11
3.9516869471
 21
23.5786414408
  0
LINE
  5
339
100
AcDbEntity
  8
0
100
AcDbLine
 62
253
  6
CONTINUOUS
 10
3.9516869471
 20
22.7830989674
 11
3.9516827674
 21
22.3825243833
  0
LINE
  5
33A
100
AcDbEntity
  8
0
100
AcDbLine
 62
7
  6
CONTINUOUS
 10
1.3614179657
 20
45.3472393711
 11
1.6379481108
 21
45.3723676349
  0
LINE
  5
33B
100
AcDbEntity
  8
0
100
AcDbLine
 62
253
  6
CONTINUOUS
 10
9.5593017512
 20
44.3882666237
 11
-33.9519358736
 21
44.3882666237
  0
LINE
  5
33C
100
AcDbEntity
  8
0
100
AcDbLine
 62
7
  6
CONTINUOUS
 10
-25.7540520881
 20
45.3472393711
 11
-26.0305822332
 21
45.3723676349
  0
LINE
  5
33D
100
AcDbEntity
  8
0
100
AcDbLine
 62
7
  6
CONTINUOUS
 10
10.1668302259
 20
44.8757913662
 11
10.2036829388
 21
36.2808702041
  0
LINE
  5
33E
100
AcDbEntity
  8
0
100
AcDbLine
 62
253
  6
CONTINUOUS
 10
9.5217956849
 20
23.0332911159
 11
9.5217956849
 21
22.7831017504
  0
LINE
  5
33F
100
AcDbEntity
  8
0
100
AcDbLine
 62
253
  6
CONTINUOUS
 10
9.5217956849
 20
23.3284492923
 11
9.5217956849
 21
23.5786386575
  0
LINE
  5
340
100
AcDbEntity
  8
0
100
AcDbLine
 62
7
  6
CONTINUOUS
 10
10.2036829388
 20
22.8309368253
 11
10.2036829388
 21
10.0808702041
  0
LINE
  5
341
100
AcDbEntity
  8
0
100
AcDbLine
 62
7
  6
CONTINUOUS
 10
10.2036829388
 20
23.5308035829
 11
10.2036829388
 21
36.2808702041
  0
LINE
  5
342
100
AcDbEntity
  8
0
100
AcDbLine
 62
7
  6
CONTINUOUS
 10
10.1668302259
 20
1.4859490419
 11
10.2036829388
 21
10.0808702041
  0
LINE
  5
343
100
AcDbEntity
  8
0
100
AcDbLine
 62
7
  6
CONTINUOUS
 10
-21.1385820343
 20
45.3472393711
 11
-20.8620518892
 21
45.3723676349
  0
LINE
  5
344
100
AcDbEntity
  8
0
100
AcDbLine
 62
253
  6
CONTINUOUS
 10
9.5756532069
 20
45.237813976
 11
-33.9682873293
 21
45.237813976
  0
LINE
  5
345
100
AcDbEntity
  8
0
100
AcDbLine
 62
7
  6
CONTINUOUS
 10
-21.3117871151
 20
45.3419929955
 11
-25.5808470074
 21
45.3419929955
  0
LINE
  5
346
100
AcDbEntity
  8
0
100
AcDbLine
 62
7
  6
CONTINUOUS
 10
-3.0808470074
 20
45.3419929955
 11
1.1882128849
 21
45.3419929955
  0
LINE
  5
347
100
AcDbEntity
  8
0
100
AcDbLine
 62
7
  6
CONTINUOUS
 10
-34.0579441965
 20
45.3723676349
 11
-26.0305822332
 21
45.3723676349
  0
LINE
  5
348
100
AcDbEntity
  8
0
100
AcDbLine
 62
7
  6
CONTINUOUS
 10
-20.8620518892
 20
45.3723676349
 11
-3.5305822332
 21
45.3723676349
  0
LINE
  5
349
100
AcDbEntity
  8
0
100
AcDbLine
 62
7
  6
CONTINUOUS
 10
1.6379481108
 20
45.3723676349
 11
9.665310074
 21
45.3723676349
  0
LINE
  5
34A
100
AcDbEntity
  8
0
100
AcDbLine
 62
7
  6
CONTINUOUS
 10
-3.2540520881
 20
45.3472393711
 11
-3.5305822332
 21
45.3723676349
  0
LWPOLYLINE
  5
34B
100
AcDbEntity
  8
0
100
AcDbPolyline
 62
7
  6
CONTINUOUS
 90
13
 70
0
 43
0.3500000019
 10
-9.7320302734
 20
55.8366552734
 10
-10.0177456055
 20
56.0509404297
 10
-10.0177456055
 20
56.6937958984
 10
-9.7320302734
 20
57.1223662109
 10
-9.0891748047
 20
57.1223662109
 10
-8.8034594727
 20
56.6937958984
 10
-8.8034594727
 20
56.0509404297
 10
-9.0891748047
 20
55.8366552734
 10
-8.6606044922
 20
55.4080795898
 10
-8.6606044922
 20
54.5509389648
 10
-9.0891748047
 20
54.1223686523
 10
-9.7320302734
 20
54.1223686523
 10
-10.1606005859
 20
54.5509389648
  0
LWPOLYLINE
  5
34C
100
AcDbEntity
  8
0
100
AcDbPolyline
 62
7
  6
CONTINUOUS
 90
3
 70
0
 43
0.3500000019
 10
16.810824707
 20
26.7165856934
 10
16.810824707
 20
25.2165842285
 10
14.4536826172
 20
25.8594423828
  0
LWPOLYLINE
  5
34D
100
AcDbEntity
  8
0
100
AcDbPolyline
 62
7
  6
CONTINUOUS
 90
3
 70
0
 43
0.3500000019
 10
16.810824707
 20
22.6451569824
 10
16.810824707
 20
21.1451555176
 10
14.4536826172
 20
21.7880136719
  0
LWPOLYLINE
  5
34E
100
AcDbEntity
  8
0
100
AcDbPolyline
 62
7
  6
CONTINUOUS
 90
3
 70
0
 43
0.3500000019
 10
16.810824707
 20
20.2880135498
 10
16.810824707
 20
18.7880134277
 10
14.4536826172
 20
19.4308702393
  0
LWPOLYLINE
  5
34F
100
AcDbEntity
  8
0
100
AcDbPolyline
 62
7
  6
CONTINUOUS
 90
3
 70
0
 43
0.3500000019
 10
-12.7320332031
 20
54.7652241211
 10
-14.2320292969
 20
54.7652241211
 10
-13.5891738281
 20
57.1223662109
  0
LWPOLYLINE
  5
350
100
AcDbEntity
  8
0
100
AcDbPolyline
 62
7
  6
CONTINUOUS
 90
3
 70
0
 43
0.3500000019
 10
-15.089175293
 20
54.7652241211
 10
-16.5891767578
 20
54.7652241211
 10
-15.946315918
 20
57.1223662109
  0
LINE
  5
351
100
AcDbEntity
  8
0
100
AcDbLine
 62
7
  6
CONTINUOUS
 10
-57.4632964475
 20
1.1239264322
 11
-54.8958596911
 21
0.9893727733
  0
LINE
  5
352
100
AcDbEntity
  8
0
100
AcDbLine
 62
253
  6
CONTINUOUS
 10
-57.4545782177
 20
1.6232411995
 11
-54.834887792
 21
1.4859490419
  0
LWPOLYLINE
  5
353
100
AcDbEntity
  8
0
100
AcDbPolyline
 62
7
  6
CONTINUOUS
 90
3
 70
0
 43
0.3500000019
 10
-56.8794844971
 20
54.2861279297
 10
-56.9509133301
 20
54.0718427734
 10
-57.0937709961
 20
53.7861274414
  0
LINE
  5
354
100
AcDbEntity
  8
0
100
AcDbLine
 62
253
  6
CONTINUOUS
 10
-58.9068460311
 20
13.6903702041
 11
-59.3893060242
 21
13.6808702041
  0
LINE
  5
355
100
AcDbEntity
  8
0
100
AcDbLine
 62
253
  6
CONTINUOUS
 10
-58.9968546212
 20
22.7854062213
 11
-53.7795641711
 21
22.8309368253
  0
LINE
  5
356
100
AcDbEntity
  8
0
100
AcDbLine
 62
7
  6
CONTINUOUS
 10
-59.2315876643
 20
23.0332911159
 11
-53.7795641711
 21
23.0808702041
  0
LINE
  5
357
100
AcDbEntity
  8
0
100
AcDbLine
 62
7
  6
CONTINUOUS
 10
-53.7795641711
 20
23.2808702041
 11
-59.2315876641
 21
23.3284492923
  0
LWPOLYLINE
  5
358
100
AcDbEntity
  8
0
100
AcDbPolyline
 62
7
  6
CONTINUOUS
 90
4
 70
0
 43
0.3500000019
 10
-55.8794848633
 20
56.3575546875
 10
-55.8794848633
 20
57.0004101563
 10
-54.3794847412
 20
57.0004101563
 10
-55.2366280518
 20
54.0004125977
  0
LINE
  5
359
100
AcDbEntity
  8
0
100
AcDbLine
 62
253
  6
CONTINUOUS
 10
-53.7795641711
 20
23.5308035829
 11
-58.9968546212
 21
23.5763341868
  0
LINE
  5
35A
100
AcDbEntity
  8
0
100
AcDbLine
 62
7
  6
CONTINUOUS
 10
-53.7795641711
 20
23.0808702041
 11
-53.7795641711
 21
10.0808702041
  0
LINE
  5
35B
100
AcDbEntity
  8
0
100
AcDbLine
 62
7
  6
CONTINUOUS
 10
-53.7795641711
 20
23.2808702041
 11
-53.7795641711
 21
36.2808702041
  0
LINE
  5
35C
100
AcDbEntity
  8
0
100
AcDbLine
 62
7
  6
CONTINUOUS
 10
-54.8958596911
 20
0.9893727733
 11
-53.7795641711
 21
10.0808702041
  0
LINE
  5
35D
100
AcDbEntity
  8
0
100
AcDbLine
 62
7
  6
CONTINUOUS
 10
-54.8958596911
 20
45.3723676349
 11
-53.7795641711
 21
36.2808702041
  0
LINE
  5
35E
100
AcDbEntity
  8
0
100
AcDbLine
 62
253
  6
CONTINUOUS
 10
-58.9068460311
 20
32.6713702041
 11
-59.3893060246
 21
32.6808702041
  0
LWPOLYLINE
  5
35F
100
AcDbEntity
  8
0
100
AcDbPolyline
 62
7
  6
CONTINUOUS
 90
10
 70
0
 43
0.3500000019
 10
-56.9509133301
 20
54.5004130859
 10
-56.8794844971
 20
54.3575527344
 10
-56.8794844971
 20
54.2861279297
 10
-57.0223421631
 20
54.1432675781
 10
-57.0937709961
 20
54.1432675781
 10
-57.1651998291
 20
54.2146977539
 10
-57.1651998291
 20
54.2861279297
 10
-57.0937709961
 20
54.4289829102
 10
-57.0223421631
 20
54.5004130859
 10
-56.9509133301
 20
54.5004130859
  0
LINE
  5
360
100
AcDbEntity
  8
0
100
AcDbLine
 62
253
  6
CONTINUOUS
 10
-54.834887792
 20
44.8757913662
 11
-57.4545782177
 21
44.7384992086
  0
LINE
  5
361
100
AcDbEntity
  8
0
100
AcDbLine
 62
7
  6
CONTINUOUS
 10
-54.8958596911
 20
45.3723676349
 11
-57.4632964475
 21
45.237813976
  0
LWPOLYLINE
  5
362
100
AcDbEntity
  8
0
100
AcDbPolyline
 62
7
  6
CONTINUOUS
 90
8
 70
0
 43
0.3500000019
 10
-59.7366277466
 20
54.0004125977
 10
-58.8794851074
 20
54.0004125977
 10
-58.4509134521
 20
54.4289829102
 10
-58.4509134521
 20
55.2861235352
 10
-58.8794851074
 20
55.7146992188
 10
-59.7366277466
 20
55.7146992188
 10
-59.7366277466
 20
57.0004101563
 10
-58.4509134521
 20
57.0004101563
  0
ARC
  5
363
100
AcDbEntity
  8
0
100
AcDbCircle
 62
253
  6
CONTINUOUS
 10
-2587.5888649636
 20
15.3225057038
 40
2553.671819609
100
AcDbArc
 50
359.7004913995
 51
359.9631672357
  0
ARC
  5
364
100
AcDbEntity
  8
0
100
AcDbCircle
 62
253
  6
CONTINUOUS
 10
-2559.7937530292
 20
15.3228864237
 40
2525.3770122616
100
AcDbArc
 50
359.6988181913
 51
359.9629614527
  0
ARC
  5
365
100
AcDbEntity
  8
0
100
AcDbCircle
 62
253
  6
CONTINUOUS
 10
-19.2484418474
 20
22.3823796711
 40
0.7001093051
100
AcDbArc
 50
270.0112315594
 51
0.0118427401
  0
ARC
  5
366
100
AcDbEntity
  8
0
100
AcDbCircle
 62
253
  6
CONTINUOUS
 10
-27.6441922365
 20
22.3823797422
 40
0.7001093052
100
AcDbArc
 50
179.9881630788
 51
269.9887652861
  0
ARC
  5
367
100
AcDbEntity
  8
0
100
AcDbCircle
 62
253
  6
CONTINUOUS
 10
-33.967403965
 20
1.6245495619
 40
0.5006091383
100
AcDbArc
 50
180.149753588
 51
269.8989000102
  0
ARC
  5
368
100
AcDbEntity
  8
0
100
AcDbCircle
 62
253
  6
CONTINUOUS
 10
-27.6443666733
 20
22.382836846
 40
0.4999584386
100
AcDbArc
 50
179.9988844208
 51
270.0045940329
  0
ARC
  5
369
100
AcDbEntity
  8
0
100
AcDbCircle
 62
253
  6
CONTINUOUS
 10
-19.248267449
 20
22.3828368461
 40
0.4999584386
100
AcDbArc
 50
269.995413797
 51
0.0011234425
  0
ARC
  5
36A
100
AcDbEntity
  8
0
100
AcDbCircle
 62
7
  6
CONTINUOUS
 10
-27.6341362058
 20
22.3930510595
 40
0.4982666755
100
AcDbArc
 50
187.0850391879
 51
262.9149608121
  0
ARC
  5
36B
100
AcDbEntity
  8
0
100
AcDbCircle
 62
7
  6
CONTINUOUS
 10
-19.2584979527
 20
22.3930510956
 40
0.4982666755
100
AcDbArc
 50
277.0850427896
 51
352.9149572104
  0
ARC
  5
36C
100
AcDbEntity
  8
0
100
AcDbCircle
 62
7
  6
CONTINUOUS
 10
-13.3213205773
 20
8.6823076057
 40
0.2999998565
100
AcDbArc
 50
150.0000047335
 51
330.0000047335
  0
ARC
  5
36D
100
AcDbEntity
  8
0
100
AcDbCircle
 62
7
  6
CONTINUOUS
 10
-13.8463170157
 20
10.6308702041
 40
0.2999998565
100
AcDbArc
 50
270.0
 51
90.0
  0
ARC
  5
36E
100
AcDbEntity
  8
0
100
AcDbCircle
 62
7
  6
CONTINUOUS
 10
-14.4463243474
 20
10.6308702041
 40
0.2999998565
100
AcDbArc
 50
90.0
 51
270.0
  0
ARC
  5
36F
100
AcDbEntity
  8
0
100
AcDbCircle
 62
7
  6
CONTINUOUS
 10
-13.0213166075
 20
12.0598097318
 40
0.2999998565
100
AcDbArc
 50
209.9999952614
 51
29.9999952646
  0
ARC
  5
370
100
AcDbEntity
  8
0
100
AcDbCircle
 62
7
  6
CONTINUOUS
 10
-13.3213205773
 20
12.5794319491
 40
0.2999998565
100
AcDbArc
 50
29.9999952646
 51
209.9999952614
  0
ARC
  5
371
100
AcDbEntity
  8
ASSI
100
AcDbCircle
 62
7
  6
CONTINUOUS
 10
-13.3213205773
 20
12.5794319491
 40
0.2999998565
100
AcDbArc
 50
29.9999953237
 51
209.9999952023
  0
ARC
  5
372
100
AcDbEntity
  8
ASSI
100
AcDbCircle
 62
7
  6
CONTINUOUS
 10
-14.4463243474
 20
10.6308702041
 40
0.2999998565
100
AcDbArc
 50
90.0
 51
270.0
  0
ARC
  5
373
100
AcDbEntity
  8
ASSI
100
AcDbCircle
 62
7
  6
CONTINUOUS
 10
-13.3213205773
 20
8.6823076057
 40
0.2999998565
100
AcDbArc
 50
150.0000047335
 51
330.0000047335
  0
ARC
  5
374
100
AcDbEntity
  8
ASSI
100
AcDbCircle
 62
7
  6
CONTINUOUS
 10
-13.8463170157
 20
10.6308702041
 40
0.2999998565
100
AcDbArc
 50
270.0
 51
90.0
  0
ARC
  5
375
100
AcDbEntity
  8
ASSI
100
AcDbCircle
 62
7
  6
CONTINUOUS
 10
-13.0213166075
 20
12.0598097318
 40
0.2999998565
100
AcDbArc
 50
209.9999952614
 51
29.9999952646
  0
ARC
  5
376
100
AcDbEntity
  8
0
100
AcDbCircle
 62
253
  6
CONTINUOUS
 10
-34.1641065596
 20
22.7853944653
 40
0.2500110379
100
AcDbArc
 50
90.0391674314
 51
179.9973114136
  0
ARC
  5
377
100
AcDbEntity
  8
0
100
AcDbCircle
 62
253
  6
CONTINUOUS
 10
-28.3439070359
 20
22.8332802294
 40
0.2000110425
100
AcDbArc
 50
0.0053001107
 51
89.9946998893
  0
ARC
  5
378
100
AcDbEntity
  8
0
100
AcDbCircle
 62
253
  6
CONTINUOUS
 10
-18.5487270786
 20
22.8332802215
 40
0.2000110425
100
AcDbArc
 50
90.0053023696
 51
179.9946976304
  0
ARC
  5
379
100
AcDbEntity
  8
0
100
AcDbCircle
 62
253
  6
CONTINUOUS
 10
-2601.7255405346
 20
30.9977415748
 40
2567.8085191374
100
AcDbArc
 50
0.0375558275
 51
0.2987855373
  0
ARC
  5
37A
100
AcDbEntity
  8
0
100
AcDbCircle
 62
253
  6
CONTINUOUS
 10
-2573.7736020988
 20
30.9975919291
 40
2539.3568852883
100
AcDbArc
 50
0.03776564
 51
0.3004547159
  0
ARC
  5
37B
100
AcDbEntity
  8
0
100
AcDbCircle
 62
253
  6
CONTINUOUS
 10
-19.2484418315
 20
23.9793607207
 40
0.7001093052
100
AcDbArc
 50
359.9881585924
 51
89.9887697445
  0
ARC
  5
37C
100
AcDbEntity
  8
0
100
AcDbCircle
 62
253
  6
CONTINUOUS
 10
-27.6441921094
 20
23.9793607496
 40
0.7001093051
100
AcDbArc
 50
90.0112451102
 51
180.0118437686
  0
ARC
  5
37D
100
AcDbEntity
  8
0
100
AcDbCircle
 62
253
  6
CONTINUOUS
 10
-27.6443666677
 20
23.9789035565
 40
0.4999584386
100
AcDbArc
 50
89.9954144552
 51
180.0011228095
  0
ARC
  5
37E
100
AcDbEntity
  8
0
100
AcDbCircle
 62
253
  6
CONTINUOUS
 10
-19.2482674547
 20
23.9789035564
 40
0.4999584386
100
AcDbArc
 50
359.9988850781
 51
90.0045934009
  0
ARC
  5
37F
100
AcDbEntity
  8
0
100
AcDbCircle
 62
7
  6
CONTINUOUS
 10
-27.6341361697
 20
23.9686893126
 40
0.4982666755
100
AcDbArc
 50
97.0850427896
 51
172.9149572104
  0
ARC
  5
380
100
AcDbEntity
  8
0
100
AcDbCircle
 62
7
  6
CONTINUOUS
 10
-19.2584979527
 20
23.9686893126
 40
0.4982666755
100
AcDbArc
 50
7.0850427896
 51
82.9149572104
  0
ARC
  5
381
100
AcDbEntity
  8
0
100
AcDbCircle
 62
7
  6
CONTINUOUS
 10
-13.4208893534
 20
32.7744736073
 40
0.3
100
AcDbArc
 50
157.5001252039
 51
337.5001249522
  0
ARC
  5
382
100
AcDbEntity
  8
0
100
AcDbCircle
 62
7
  6
CONTINUOUS
 10
-12.942548594
 20
33.9292974892
 40
0.3
100
AcDbArc
 50
337.5001249522
 51
157.5001252039
  0
ARC
  5
383
100
AcDbEntity
  8
ASSI
100
AcDbCircle
 62
7
  6
CONTINUOUS
 10
-12.942548594
 20
33.9292974892
 40
0.3
100
AcDbArc
 50
337.5001255597
 51
157.5001250706
  0
ARC
  5
384
100
AcDbEntity
  8
ASSI
100
AcDbCircle
 62
7
  6
CONTINUOUS
 10
-13.4208893534
 20
32.7744736073
 40
0.3
100
AcDbArc
 50
157.5001321338
 51
337.500110999
  0
ARC
  5
385
100
AcDbEntity
  8
0
100
AcDbCircle
 62
253
  6
CONTINUOUS
 10
-34.1641065578
 20
23.5763459439
 40
0.2500110379
100
AcDbArc
 50
180.002688815
 51
269.9608321626
  0
ARC
  5
386
100
AcDbEntity
  8
0
100
AcDbCircle
 62
253
  6
CONTINUOUS
 10
-28.3439070359
 20
23.5284601788
 40
0.2000110425
100
AcDbArc
 50
270.0053001126
 51
359.9946998874
  0
ARC
  5
387
100
AcDbEntity
  8
0
100
AcDbCircle
 62
253
  6
CONTINUOUS
 10
-18.5487270786
 20
23.5284601867
 40
0.2000110425
100
AcDbArc
 50
180.0053023677
 51
269.9946976323
  0
ARC
  5
388
100
AcDbEntity
  8
0
100
AcDbCircle
 62
253
  6
CONTINUOUS
 10
-33.9674039276
 20
44.7371908088
 40
0.5006091383
100
AcDbArc
 50
90.1011042687
 51
179.8502421292
  0
ARC
  5
389
100
AcDbEntity
  8
0
100
AcDbCircle
 62
7
  6
CONTINUOUS
 10
-13.4208893534
 20
38.6872691322
 40
0.3
100
AcDbArc
 50
22.4998750279
 51
202.499875028
  0
ARC
  5
38A
100
AcDbEntity
  8
0
100
AcDbCircle
 62
7
  6
CONTINUOUS
 10
-12.942548594
 20
37.5324452588
 40
0.3
100
AcDbArc
 50
202.499875028
 51
22.4998750279
  0
ARC
  5
38B
100
AcDbEntity
  8
0
100
AcDbCircle
 62
7
  6
CONTINUOUS
 10
-15.1527725671
 20
36.9554438247
 40
0.3
100
AcDbArc
 50
67.5001248915
 51
247.5001274526
  0
ARC
  5
38C
100
AcDbEntity
  8
0
100
AcDbCircle
 62
7
  6
CONTINUOUS
 10
-13.9980280377
 20
36.4771359715
 40
0.3
100
AcDbArc
 50
247.5001244189
 51
67.4699180548
  0
ARC
  5
38D
100
AcDbEntity
  8
0
100
AcDbCircle
 62
7
  6
CONTINUOUS
 10
-15.152772567
 20
34.5062988728
 40
0.3
100
AcDbArc
 50
112.499875028
 51
292.4998726984
  0
ARC
  5
38E
100
AcDbEntity
  8
0
100
AcDbCircle
 62
7
  6
CONTINUOUS
 10
-13.9980280377
 20
34.984606725
 40
0.3
100
AcDbArc
 50
292.4998726984
 51
112.3512767813
  0
ARC
  5
38F
100
AcDbEntity
  8
ASSI
100
AcDbCircle
 62
7
  6
CONTINUOUS
 10
-12.942548594
 20
37.5324452588
 40
0.3
100
AcDbArc
 50
202.4998750515
 51
22.4998750279
  0
ARC
  5
390
100
AcDbEntity
  8
ASSI
100
AcDbCircle
 62
7
  6
CONTINUOUS
 10
-13.4208893534
 20
38.6872691322
 40
0.3
100
AcDbArc
 50
22.4998750279
 51
202.499875028
  0
ARC
  5
391
100
AcDbEntity
  8
ASSI
100
AcDbCircle
 62
7
  6
CONTINUOUS
 10
-15.1527725671
 20
36.9554438247
 40
0.3
100
AcDbArc
 50
67.5001248915
 51
247.5001274526
  0
ARC
  5
392
100
AcDbEntity
  8
ASSI
100
AcDbCircle
 62
7
  6
CONTINUOUS
 10
-13.9980280377
 20
36.4771359715
 40
0.3
100
AcDbArc
 50
247.5001244189
 51
67.4699180548
  0
ARC
  5
393
100
AcDbEntity
  8
ASSI
100
AcDbCircle
 62
7
  6
CONTINUOUS
 10
-15.152772567
 20
34.5062988728
 40
0.3
100
AcDbArc
 50
112.499875028
 51
292.4998726984
  0
ARC
  5
394
100
AcDbEntity
  8
ASSI
100
AcDbCircle
 62
7
  6
CONTINUOUS
 10
-13.9980280377
 20
34.984606725
 40
0.3
100
AcDbArc
 50
292.4998726984
 51
112.3512767813
  0
CIRCLE
  5
395
100
AcDbEntity
  8
0
100
AcDbCircle
 62
7
  6
CONTINUOUS
 10
-12.1963170612
 20
10.6308702041
 40
0.65
  0
CIRCLE
  5
396
100
AcDbEntity
  8
ASSI
100
AcDbCircle
 62
7
  6
CONTINUOUS
 10
-12.1963170612
 20
10.6308702041
 40
0.65
  0
ARC
  5
397
100
AcDbEntity
  8
0
100
AcDbCircle
 62
253
  6
CONTINUOUS
 10
9.5747698426
 20
1.6245495618
 40
0.5006091383
100
AcDbArc
 50
270.1010999863
 51
359.8502464132
  0
ARC
  5
398
100
AcDbEntity
  8
0
100
AcDbCircle
 62
7
  6
CONTINUOUS
 10
-9.9463169913
 20
10.630870204
 40
0.2999998564
100
AcDbArc
 50
270.0
 51
90.0
  0
ARC
  5
399
100
AcDbEntity
  8
0
100
AcDbCircle
 62
7
  6
CONTINUOUS
 10
-10.5463171331
 20
10.6308702041
 40
0.2999998565
100
AcDbArc
 50
90.0
 51
270.0
  0
ARC
  5
39A
100
AcDbEntity
  8
0
100
AcDbCircle
 62
7
  6
CONTINUOUS
 10
-11.0713152178
 20
8.6823076057
 40
0.2999998565
100
AcDbArc
 50
209.9999952646
 51
330.0008035041
  0
ARC
  5
39B
100
AcDbEntity
  8
0
100
AcDbCircle
 62
7
  6
CONTINUOUS
 10
-11.3713191876
 20
9.2019298229
 40
0.2999998565
100
AcDbArc
 50
29.9999952646
 51
209.9999952646
  0
ARC
  5
39C
100
AcDbEntity
  8
0
100
AcDbCircle
 62
7
  6
CONTINUOUS
 10
-11.3713191876
 20
12.0598097318
 40
0.2999998565
100
AcDbArc
 50
150.0000047335
 51
330.0000047335
  0
ARC
  5
39D
100
AcDbEntity
  8
ASSI
100
AcDbCircle
 62
7
  6
CONTINUOUS
 10
-11.3713191876
 20
12.0598097318
 40
0.2999998565
100
AcDbArc
 50
150.0000047335
 51
330.0000047335
  0
ARC
  5
39E
100
AcDbEntity
  8
ASSI
100
AcDbCircle
 62
7
  6
CONTINUOUS
 10
-11.0713152178
 20
8.6823076057
 40
0.2999998565
100
AcDbArc
 50
209.9999952646
 51
330.0008035041
  0
ARC
  5
39F
100
AcDbEntity
  8
ASSI
100
AcDbCircle
 62
7
  6
CONTINUOUS
 10
-11.3713191876
 20
9.2019298229
 40
0.2999998565
100
AcDbArc
 50
29.9999956371
 51
209.9999949473
  0
ARC
  5
3A0
100
AcDbEntity
  8
ASSI
100
AcDbCircle
 62
7
  6
CONTINUOUS
 10
-9.9463169913
 20
10.630870204
 40
0.2999998564
100
AcDbArc
 50
270.0
 51
90.0
  0
ARC
  5
3A1
100
AcDbEntity
  8
ASSI
100
AcDbCircle
 62
7
  6
CONTINUOUS
 10
-10.5463171331
 20
10.6308702041
 40
0.2999998565
100
AcDbArc
 50
90.0
 51
270.0
  0
ARC
  5
3A2
100
AcDbEntity
  8
0
100
AcDbCircle
 62
7
  6
CONTINUOUS
 10
-11.0638152398
 20
8.685753803
 40
0.2917826028
100
AcDbArc
 50
24.1645281121
 51
30.1512543979
  0
ARC
  5
3A3
100
AcDbEntity
  8
0
100
AcDbCircle
 62
253
  6
CONTINUOUS
 10
-5.1441922365
 20
22.3823797422
 40
0.7001093052
100
AcDbArc
 50
179.9881630788
 51
269.9887652861
  0
ARC
  5
3A4
100
AcDbEntity
  8
0
100
AcDbCircle
 62
253
  6
CONTINUOUS
 10
3.2515581526
 20
22.3823796711
 40
0.7001093051
100
AcDbArc
 50
270.0112315594
 51
0.0118427401
  0
ARC
  5
3A5
100
AcDbEntity
  8
0
100
AcDbCircle
 62
253
  6
CONTINUOUS
 10
-5.1443666733
 20
22.382836846
 40
0.4999584386
100
AcDbArc
 50
179.9988844208
 51
270.0045940329
  0
ARC
  5
3A6
100
AcDbEntity
  8
0
100
AcDbCircle
 62
253
  6
CONTINUOUS
 10
3.251732551
 20
22.3828368461
 40
0.4999584386
100
AcDbArc
 50
269.9954137976
 51
0.0011234431
  0
ARC
  5
3A7
100
AcDbEntity
  8
0
100
AcDbCircle
 62
7
  6
CONTINUOUS
 10
-5.1341362058
 20
22.3930510595
 40
0.4982666755
100
AcDbArc
 50
187.0850391879
 51
262.9149608121
  0
ARC
  5
3A8
100
AcDbEntity
  8
0
100
AcDbCircle
 62
7
  6
CONTINUOUS
 10
3.2415020473
 20
22.3930510956
 40
0.4982666755
100
AcDbArc
 50
277.0850427896
 51
352.9149572104
  0
ARC
  5
3A9
100
AcDbEntity
  8
0
100
AcDbCircle
 62
7
  6
CONTINUOUS
 10
-11.0713152178
 20
12.5794319491
 40
0.2999998565
100
AcDbArc
 50
330.0000047335
 51
150.0000047335
  0
ARC
  5
3AA
100
AcDbEntity
  8
ASSI
100
AcDbCircle
 62
7
  6
CONTINUOUS
 10
-11.0713152178
 20
12.5794319491
 40
0.2999998565
100
AcDbArc
 50
330.0000047335
 51
150.0000047335
  0
ARC
  5
3AB
100
AcDbEntity
  8
0
100
AcDbCircle
 62
253
  6
CONTINUOUS
 10
9.7714723862
 20
22.7853944355
 40
0.2500110379
100
AcDbArc
 50
0.0026954226
 51
89.9608209041
  0
ARC
  5
3AC
100
AcDbEntity
  8
0
100
AcDbCircle
 62
253
  6
CONTINUOUS
 10
3.9512729214
 20
22.8332802215
 40
0.2000110425
100
AcDbArc
 50
90.0053023696
 51
179.9946976304
  0
ARC
  5
3AD
100
AcDbEntity
  8
0
100
AcDbCircle
 62
253
  6
CONTINUOUS
 10
-5.8439070359
 20
22.8332802294
 40
0.2000110425
100
AcDbArc
 50
0.0053001107
 51
89.9946998893
  0
ARC
  5
3AE
100
AcDbEntity
  8
0
100
AcDbCircle
 62
253
  6
CONTINUOUS
 10
2577.3329064077
 20
15.3639988334
 40
2567.808519133
100
AcDbArc
 50
180.0375558275
 51
180.2987855373
  0
ARC
  5
3AF
100
AcDbEntity
  8
0
100
AcDbCircle
 62
253
  6
CONTINUOUS
 10
2549.3809679789
 20
15.3641484791
 40
2539.3568852908
100
AcDbArc
 50
180.03776564
 51
180.3004547159
  0
ARC
  5
3B0
100
AcDbEntity
  8
0
100
AcDbCircle
 62
253
  6
CONTINUOUS
 10
3.2515581685
 20
23.9793607207
 40
0.7001093052
100
AcDbArc
 50
359.9881585924
 51
89.9887697445
  0
ARC
  5
3B1
100
AcDbEntity
  8
0
100
AcDbCircle
 62
253
  6
CONTINUOUS
 10
-5.1441921094
 20
23.9793607496
 40
0.7001093051
100
AcDbArc
 50
90.0112451102
 51
180.0118437686
  0
ARC
  5
3B2
100
AcDbEntity
  8
0
100
AcDbCircle
 62
253
  6
CONTINUOUS
 10
-5.1443666677
 20
23.9789035565
 40
0.4999584386
100
AcDbArc
 50
89.9954144552
 51
180.0011228095
  0
ARC
  5
3B3
100
AcDbEntity
  8
0
100
AcDbCircle
 62
253
  6
CONTINUOUS
 10
3.2517325453
 20
23.9789035564
 40
0.4999584386
100
AcDbArc
 50
359.9988850787
 51
90.0045934014
  0
ARC
  5
3B4
100
AcDbEntity
  8
0
100
AcDbCircle
 62
7
  6
CONTINUOUS
 10
3.2415020473
 20
23.9686893126
 40
0.4982666755
100
AcDbArc
 50
7.0850427896
 51
82.9149572104
  0
ARC
  5
3B5
100
AcDbEntity
  8
0
100
AcDbCircle
 62
7
  6
CONTINUOUS
 10
-5.1341361697
 20
23.9686893126
 40
0.4982666755
100
AcDbArc
 50
97.0850427896
 51
172.9149572104
  0
ARC
  5
3B6
100
AcDbEntity
  8
0
100
AcDbCircle
 62
7
  6
CONTINUOUS
 10
-10.971744365
 20
32.7744736073
 40
0.3
100
AcDbArc
 50
202.499875028
 51
22.4998750279
  0
ARC
  5
3B7
100
AcDbEntity
  8
0
100
AcDbCircle
 62
7
  6
CONTINUOUS
 10
-11.450085128
 20
33.9292974892
 40
0.3
100
AcDbArc
 50
22.4998750279
 51
202.499875028
  0
ARC
  5
3B8
100
AcDbEntity
  8
ASSI
100
AcDbCircle
 62
7
  6
CONTINUOUS
 10
-10.971744365
 20
32.7744736073
 40
0.3
100
AcDbArc
 50
202.4998750594
 51
22.4998750275
  0
ARC
  5
3B9
100
AcDbEntity
  8
ASSI
100
AcDbCircle
 62
7
  6
CONTINUOUS
 10
-11.450085128
 20
33.9292974892
 40
0.3
100
AcDbArc
 50
22.4998750279
 51
202.499875028
  0
ARC
  5
3BA
100
AcDbEntity
  8
0
100
AcDbCircle
 62
253
  6
CONTINUOUS
 10
9.7714723846
 20
23.5763459737
 40
0.2500110379
100
AcDbArc
 50
270.0391794687
 51
359.9973043497
  0
ARC
  5
3BB
100
AcDbEntity
  8
0
100
AcDbCircle
 62
253
  6
CONTINUOUS
 10
3.9512729214
 20
23.5284601867
 40
0.2000110425
100
AcDbArc
 50
180.0053023677
 51
269.9946976323
  0
ARC
  5
3BC
100
AcDbEntity
  8
0
100
AcDbCircle
 62
253
  6
CONTINUOUS
 10
-5.8439070359
 20
23.5284601788
 40
0.2000110425
100
AcDbArc
 50
270.0053001126
 51
359.9946998874
  0
CIRCLE
  5
3BD
100
AcDbEntity
  8
0
100
AcDbCircle
 62
7
  6
CONTINUOUS
 10
-12.1963170612
 20
35.7308702041
 40
0.95
  0
CIRCLE
  5
3BE
100
AcDbEntity
  8
ASSI
100
AcDbCircle
 62
7
  6
CONTINUOUS
 10
-12.1963170612
 20
35.7308702041
 40
0.95
  0
ARC
  5
3BF
100
AcDbEntity
  8
0
100
AcDbCircle
 62
253
  6
CONTINUOUS
 10
9.5747698051
 20
44.7371908088
 40
0.5006091383
100
AcDbArc
 50
0.1497578727
 51
89.8988957306
  0
ARC
  5
3C0
100
AcDbEntity
  8
0
100
AcDbCircle
 62
7
  6
CONTINUOUS
 10
-10.971744365
 20
38.6872691322
 40
0.3
100
AcDbArc
 50
337.5001249522
 51
157.5001248915
  0
ARC
  5
3C1
100
AcDbEntity
  8
0
100
AcDbCircle
 62
7
  6
CONTINUOUS
 10
-9.2399771432
 20
36.9554438247
 40
0.3
100
AcDbArc
 50
292.4998756225
 51
112.499875028
  0
ARC
  5
3C2
100
AcDbEntity
  8
0
100
AcDbCircle
 62
7
  6
CONTINUOUS
 10
-10.3947215643
 20
34.984606725
 40
0.3
100
AcDbArc
 50
67.5001248915
 51
247.5001252659
  0
ARC
  5
3C3
100
AcDbEntity
  8
0
100
AcDbCircle
 62
7
  6
CONTINUOUS
 10
-10.3947215643
 20
36.4771359715
 40
0.3
100
AcDbArc
 50
112.499875028
 51
292.4998756225
  0
ARC
  5
3C4
100
AcDbEntity
  8
0
100
AcDbCircle
 62
7
  6
CONTINUOUS
 10
-9.2399771432
 20
34.5062988728
 40
0.3
100
AcDbArc
 50
247.5001252659
 51
67.5001248915
  0
ARC
  5
3C5
100
AcDbEntity
  8
ASSI
100
AcDbCircle
 62
7
  6
CONTINUOUS
 10
-10.971744365
 20
38.6872691322
 40
0.3
100
AcDbArc
 50
337.5001307363
 51
157.5001107311
  0
ARC
  5
3C6
100
AcDbEntity
  8
ASSI
100
AcDbCircle
 62
7
  6
CONTINUOUS
 10
-9.2399771432
 20
36.9554438247
 40
0.3
100
AcDbArc
 50
292.4999095661
 51
112.499857532
  0
ARC
  5
3C7
100
AcDbEntity
  8
ASSI
100
AcDbCircle
 62
7
  6
CONTINUOUS
 10
-9.2399771432
 20
34.5062988728
 40
0.3
100
AcDbArc
 50
247.5001665076
 51
67.5001038145
  0
ARC
  5
3C8
100
AcDbEntity
  8
ASSI
100
AcDbCircle
 62
7
  6
CONTINUOUS
 10
-10.3947215643
 20
34.984606725
 40
0.3
100
AcDbArc
 50
67.5001248915
 51
247.5001252659
  0
ARC
  5
3C9
100
AcDbEntity
  8
ASSI
100
AcDbCircle
 62
7
  6
CONTINUOUS
 10
-10.3947215643
 20
36.4771359715
 40
0.3
100
AcDbArc
 50
112.499875028
 51
292.4998756225
  0
ARC
  5
3CA
100
AcDbEntity
  8
0
100
AcDbCircle
 62
253
  6
CONTINUOUS
 10
2563.196230836
 20
31.0392347044
 40
2553.6718196039
100
AcDbArc
 50
179.7004913995
 51
179.9631672357
  0
ARC
  5
3CB
100
AcDbEntity
  8
0
100
AcDbCircle
 62
253
  6
CONTINUOUS
 10
2535.4011189118
 20
31.0388539844
 40
2525.3770122666
100
AcDbArc
 50
179.6988181913
 51
179.9629614527
  0
ARC
  5
3CC
100
AcDbEntity
  8
0
100
AcDbCircle
 62
7
  6
CONTINUOUS
 10
-57.4109604913
 20
2.1225559669
 40
1.0
100
AcDbArc
 50
188.5737414447
 51
267.0
  0
ARC
  5
3CD
100
AcDbEntity
  8
0
100
AcDbCircle
 62
253
  6
CONTINUOUS
 10
-57.4284100752
 20
2.1225561482
 40
0.5000001896
100
AcDbArc
 50
188.5737591768
 51
266.9999822679
  0
ARC
  5
3CE
100
AcDbEntity
  8
0
100
AcDbCircle
 62
7
  6
CONTINUOUS
 10
-59.2294059802
 20
22.7833006355
 40
0.25
100
AcDbArc
 50
90.500011468
 51
180.0455811127
  0
ARC
  5
3CF
100
AcDbEntity
  8
0
100
AcDbCircle
 62
7
  6
CONTINUOUS
 10
30.5944475091
 20
15.3908702041
 40
90.0
100
AcDbArc
 50
181.08868532
 51
188.5737414447
  0
ARC
  5
3D0
100
AcDbEntity
  8
0
100
AcDbCircle
 62
253
  6
CONTINUOUS
 10
30.5770062749
 20
15.3908709237
 40
89.5000085263
100
AcDbArc
 50
181.0886856771
 51
188.5737410877
  0
ARC
  5
3D1
100
AcDbEntity
  8
0
100
AcDbCircle
 62
7
  6
CONTINUOUS
 10
-59.2294059802
 20
23.5784397726
 40
0.25
100
AcDbArc
 50
179.9544188873
 51
269.499988532
  0
ARC
  5
3D2
100
AcDbEntity
  8
0
100
AcDbCircle
 62
7
  6
CONTINUOUS
 10
-57.4109604913
 20
44.2391844412
 40
1.0
100
AcDbArc
 50
93.0
 51
171.4262585553
  0
ARC
  5
3D3
100
AcDbEntity
  8
0
100
AcDbCircle
 62
253
  6
CONTINUOUS
 10
-57.4284100752
 20
44.23918426
 40
0.5000001896
100
AcDbArc
 50
93.0000177321
 51
171.4262408232
  0
ARC
  5
3D4
100
AcDbEntity
  8
0
100
AcDbCircle
 62
7
  6
CONTINUOUS
 10
30.5944475091
 20
30.9708702041
 40
90.0
100
AcDbArc
 50
171.4262585553
 51
178.91131468
  0
ARC
  5
3D5
100
AcDbEntity
  8
0
100
AcDbCircle
 62
253
  6
CONTINUOUS
 10
30.5770062749
 20
30.9708694845
 40
89.5000085263
100
AcDbArc
 50
171.4262589123
 51
178.9113143229
  0
ARC
  5
3D6
100
AcDbEntity
  8
0
100
AcDbCircle
 62
253
  6
CONTINUOUS
 10
440.5134179026
 20
23.1808224158
 40
499.5104290311
100
AcDbArc
 50
180.0453557727
 51
181.0886571047
  0
ARC
  5
3D7
100
AcDbEntity
  8
0
100
AcDbCircle
 62
7
  6
CONTINUOUS
 10
440.5204358289
 20
23.1808702041
 40
500.0
100
AcDbArc
 50
180.045580912
 51
181.08868532
  0
ARC
  5
3D8
100
AcDbEntity
  8
0
100
AcDbCircle
 62
7
  6
CONTINUOUS
 10
440.5204358289
 20
23.1808702041
 40
500.0
100
AcDbArc
 50
178.91131468
 51
179.954419088
  0
ARC
  5
3D9
100
AcDbEntity
  8
0
100
AcDbCircle
 62
253
  6
CONTINUOUS
 10
440.5134179018
 20
23.1809179927
 40
499.5104290302
100
AcDbArc
 50
178.9113428954
 51
179.9546442274
  0
SPLINE
  5
3DA
100
AcDbEntity
  8
0
100
AcDbSpline
 62
7
  6
CONTINUOUS
 70
0
 71
3
 72
19
 73
15
 74
0
 42
0.0000001
 43
0.0000001
 44
0.0000000001
 40
0.0
 40
0.0
 40
0.0
 40
0.0
 40
0.0604965907
 40
0.1457047058
 40
0.2313707796
 40
0.3172877195
 40
0.4032890701
 40
0.4892984057
 40
0.5752802441
 40
0.661161368
 40
0.7467894832
 40
0.8319732841
 40
0.9164113976
 40
1.0
 40
1.0
 40
1.0
 40
1.0
 10
-10.7976004595
 20
8.8051974218
 30
0.0
 10
-10.7952580519
 20
8.7999783318
 30
0.0
 10
-10.7899821964
 20
8.7872450613
 30
0.0
 10
-10.7830226541
 20
8.766483993
 30
0.0
 10
-10.7771744224
 20
8.7428965501
 30
0.0
 10
-10.7732283204
 20
8.7188411699
 30
0.0
 10
-10.7712329095
 20
8.6945129896
 30
0.0
 10
-10.7712329756
 20
8.6700964244
 30
0.0
 10
-10.7732281761
 20
8.645773481
 30
0.0
 10
-10.7771727786
 20
8.6217268176
 30
0.0
 10
-10.7830180721
 20
8.5981482274
 30
0.0
 10
-10.7906945506
 20
8.5752440398
 30
0.0
 10
-10.8001160866
 20
8.5532121939
 30
0.0
 10
-10.807533586
 20
8.5391424529
 30
0.0
 10
-10.8115056182
 20
8.5323113196
 30
0.0
  0
SPLINE
  5
3DB
100
AcDbEntity
  8
0
100
AcDbSpline
 62
7
  6
CONTINUOUS
 70
0
 71
3
 72
45
 73
41
 74
0
 42
0.0000001
 43
0.0000001
 44
0.0000000001
 40
0.0
 40
0.0
 40
0.0
 40
0.0
 40
0.0253363656
 40
0.0510529433
 40
0.0771374174
 40
0.103451193
 40
0.129915522
 40
0.1564455924
 40
0.1829951693
 40
0.2095338382
 40
0.2360294755
 40
0.2624686048
 40
0.2888681846
 40
0.3152522095
 40
0.3416360095
 40
0.3680254596
 40
0.3944229184
 40
0.4208311409
 40
0.4472487245
 40
0.4736725325
 40
0.5001008529
 40
0.5265291223
 40
0.5529529414
 40
0.5793708849
 40
0.605780322
 40
0.6321794137
 40
0.6585699434
 40
0.684953206
 40
0.7113346554
 40
0.7377317042
 40
0.7641711745
 40
0.7906728714
 40
0.8172198472
 40
0.8437712352
 40
0.8702877732
 40
0.8967205289
 40
0.9229907256
 40
0.9490269156
 40
0.974699001
 40
1.0
 40
1.0
 40
1.0
 40
1.0
 10
-13.2811241193
 20
9.3519297252
 30
0.0
 10
-13.2771918712
 20
9.3588475465
 30
0.0
 10
-13.268659804
 20
9.3724497453
 30
0.0
 10
-13.2541074217
 20
9.3918513765
 30
0.0
 10
-13.2377859629
 20
9.4102062326
 30
0.0
 10
-13.2198351523
 20
9.4273121914
 30
0.0
 10
-13.2004293603
 20
9.4429720349
 30
0.0
 10
-13.1797415328
 20
9.4570265819
 30
0.0
 10
-13.1579445093
 20
9.469339236
 30
0.0
 10
-13.1352088175
 20
9.4797921249
 30
0.0
 10
-13.1117195464
 20
9.4883169705
 30
0.0
 10
-13.0876473148
 20
9.4948581302
 30
0.0
 10
-13.0631464385
 20
9.4993564972
 30
0.0
 10
-13.0383735572
 20
9.5017934915
 30
0.0
 10
-13.0134874807
 20
9.5021749273
 30
0.0
 10
-12.9886506768
 20
9.5004933785
 30
0.0
 10
-12.964032756
 20
9.4967479317
 30
0.0
 10
-12.9398000049
 20
9.4909806526
 30
0.0
 10
-12.9161175709
 20
9.4832305521
 30
0.0
 10
-12.8931567014
 20
9.4735328184
 30
0.0
 10
-12.8710765519
 20
9.4619630792
 30
0.0
 10
-12.8500256939
 20
9.4486119612
 30
0.0
 10
-12.8301561564
 20
9.4335635945
 30
0.0
 10
-12.8116133023
 20
9.4169169849
 30
0.0
 10
-12.7945131977
 20
9.398802783
 30
0.0
 10
-12.7789720443
 20
9.3793450354
 30
0.0
 10
-12.7651098361
 20
9.3586673171
 30
0.0
 10
-12.7530114142
 20
9.3369173914
 30
0.0
 10
-12.7427506709
 20
9.3142400391
 30
0.0
 10
-12.7344107408
 20
9.2907687951
 30
0.0
 10
-12.7280547506
 20
9.2666457231
 30
0.0
 10
-12.7237085438
 20
9.2420335145
 30
0.0
 10
-12.7214094034
 20
9.217110775
 30
0.0
 10
-12.7211905011
 20
9.1920785952
 30
0.0
 10
-12.7230334611
 20
9.1671499315
 30
0.0
 10
-12.7269025188
 20
9.1425439835
 30
0.0
 10
-12.7327436221
 20
9.1184857317
 30
0.0
 10
-12.7404729725
 20
9.0952169109
 30
0.0
 10
-12.7499872333
 20
9.0729521982
 30
0.0
 10
-12.7574901689
 20
9.058784863
 30
0.0
 10
-12.7615091011
 20
9.0519299113
 30
0.0
  0
SPLINE
  5
3DC
100
AcDbEntity
  8
0
100
AcDbSpline
 62
7
  6
CONTINUOUS
 70
0
 71
3
 72
45
 73
41
 74
0
 42
0.0000001
 43
0.0000001
 44
0.0000000001
 40
0.0
 40
0.0
 40
0.0
 40
0.0
 40
0.0253403919
 40
0.051060643
 40
0.0771483251
 40
0.1034648568
 40
0.129931449
 40
0.1564632922
 40
0.1830141594
 40
0.2095536602
 40
0.2360496391
 40
0.2624886006
 40
0.288887533
 40
0.3152704235
 40
0.3416525878
 40
0.3680399591
 40
0.3944349787
 40
0.420840446
 40
0.447255024
 40
0.473675671
 40
0.500100764
 40
0.5265258167
 40
0.5529464991
 40
0.5793614628
 40
0.6057681673
 40
0.6321648338
 40
0.6585532887
 40
0.6849349102
 40
0.7113152095
 40
0.7377115797
 40
0.7641508354
 40
0.7906528241
 40
0.8172006
 40
0.8437532667
 40
0.8702715856
 40
0.8967066381
 40
0.9229796425
 40
0.9490191016
 40
0.9746949235
 40
1.0
 40
1.0
 40
1.0
 40
1.0
 10
-11.1729235205
 20
37.4176347888
 30
0.0
 10
-11.1759198846
 20
37.4102618102
 30
0.0
 10
-11.1826050437
 20
37.3956603444
 30
0.0
 10
-11.1945031773
 20
37.3745227764
 30
0.0
 10
-11.2082920537
 20
37.3541928139
 30
0.0
 10
-11.223859397
 20
37.3348891248
 30
0.0
 10
-11.2410579481
 20
37.3168299818
 30
0.0
 10
-11.2597368953
 20
37.3001957397
 30
0.0
 10
-11.2797425977
 20
37.2851443076
 30
0.0
 10
-11.3009212579
 20
37.2718147032
 30
0.0
 10
-11.3230981936
 20
37.26029868
 30
0.0
 10
-11.3461114379
 20
37.2506735661
 30
0.0
 10
-11.3698156611
 20
37.2430179799
 30
0.0
 10
-11.3940579651
 20
37.2373706589
 30
0.0
 10
-11.4186801455
 20
37.2337464321
 30
0.0
 10
-11.4435221488
 20
37.2321737452
 30
0.0
 10
-11.4684160242
 20
37.2326755471
 30
0.0
 10
-11.4931915261
 20
37.2352317273
 30
0.0
 10
-11.517679955
 20
37.2398250962
 30
0.0
 10
-11.5417070758
 20
37.2464431063
 30
0.0
 10
-11.565105367
 20
37.2550315581
 30
0.0
 10
-11.5877158404
 20
37.2655200036
 30
0.0
 10
-11.6093769069
 20
37.2778449381
 30
0.0
 10
-11.6299316129
 20
37.2919272933
 30
0.0
 10
-11.6492479217
 20
37.3076527788
 30
0.0
 10
-11.6671944901
 20
37.3249136917
 30
0.0
 10
-11.6836362285
 20
37.3436033232
 30
0.0
 10
-11.6984697185
 20
37.3635863885
 30
0.0
 10
-11.7116027731
 20
37.3847290976
 30
0.0
 10
-11.7229354678
 20
37.4069099959
 30
0.0
 10
-11.732386549
 20
37.4299965595
 30
0.0
 10
-11.7399090562
 20
37.4538309172
 30
0.0
 10
-11.7454426075
 20
37.4782408898
 30
0.0
 10
-11.7489279474
 20
37.5030314493
 30
0.0
 10
-11.7503553423
 20
37.5279890599
 30
0.0
 10
-11.7497315156
 20
37.5528917067
 30
0.0
 10
-11.7470805854
 20
37.5775092162
 30
0.0
 10
-11.7424539936
 20
37.6015909045
 30
0.0
 10
-11.7359261208
 20
37.6249103191
 30
0.0
 10
-11.7303354304
 20
37.6399379873
 30
0.0
 10
-11.7272449662
 20
37.6472599831
 30
0.0
  0
SPLINE
  5
3DD
100
AcDbEntity
  8
0
100
AcDbSpline
 62
7
  6
CONTINUOUS
 70
0
 71
3
 72
15
 73
11
 74
0
 42
0.0000001
 43
0.0000001
 44
0.0000000001
 40
0.0
 40
0.0
 40
0.0
 40
0.0
 40
0.127122604
 40
0.2538626983
 40
0.3799656506
 40
0.505287163
 40
0.6298087868
 40
0.7536293827
 40
0.8769411034
 40
1.0
 40
1.0
 40
1.0
 40
1.0
 10
-18.7601030471
 20
22.8446638053
 30
0.0
 10
-18.7601020434
 20
22.8578121319
 30
0.0
 10
-18.7574873065
 20
22.8841433384
 30
0.0
 10
-18.7459092153
 20
22.9219552991
 30
0.0
 10
-18.7272343808
 20
22.9566139124
 30
0.0
 10
-18.7023163523
 20
22.9867864537
 30
0.0
 10
-18.6722225099
 20
23.0114201213
 30
0.0
 10
-18.6381447251
 20
23.0297204053
 30
0.0
 10
-18.6013660059
 20
23.041144476
 30
0.0
 10
-18.575856971
 20
23.0439656622
 30
0.0
 10
-18.5631304081
 20
23.044157997
 30
0.0
  0
SPLINE
  5
3DE
100
AcDbEntity
  8
ASSI
100
AcDbSpline
 62
7
  6
CONTINUOUS
 70
0
 71
3
 72
45
 73
41
 74
0
 42
0.0000001
 43
0.0000001
 44
0.0000000001
 40
0.0
 40
0.0
 40
0.0
 40
0.0
 40
0.0253363604
 40
0.0510529384
 40
0.0771374127
 40
0.1034511886
 40
0.1299155179
 40
0.1564455886
 40
0.1829951659
 40
0.209533835
 40
0.2360294726
 40
0.2624686022
 40
0.2888681824
 40
0.3152522075
 40
0.3416360079
 40
0.3680254583
 40
0.3944229173
 40
0.4208311402
 40
0.4472487241
 40
0.4736725324
 40
0.5001008531
 40
0.5265291228
 40
0.5529529422
 40
0.579370886
 40
0.6057803234
 40
0.6321794154
 40
0.6585699454
 40
0.6849532083
 40
0.7113346581
 40
0.7377317071
 40
0.7641711777
 40
0.7906728749
 40
0.817219851
 40
0.8437712394
 40
0.8702877777
 40
0.8967205337
 40
0.9229907307
 40
0.949026921
 40
0.9746990066
 40
1.0
 40
1.0
 40
1.0
 40
1.0
 10
-13.2811241167
 20
9.3519297297
 30
0.0
 10
-13.2771918694
 20
9.3588475494
 30
0.0
 10
-13.2686598029
 20
9.3724497467
 30
0.0
 10
-13.2541074217
 20
9.3918513765
 30
0.0
 10
-13.2377859629
 20
9.4102062326
 30
0.0
 10
-13.2198351523
 20
9.4273121914
 30
0.0
 10
-13.2004293603
 20
9.4429720349
 30
0.0
 10
-13.1797415328
 20
9.4570265819
 30
0.0
 10
-13.1579445093
 20
9.469339236
 30
0.0
 10
-13.1352088175
 20
9.4797921249
 30
0.0
 10
-13.1117195464
 20
9.4883169705
 30
0.0
 10
-13.0876473148
 20
9.4948581302
 30
0.0
 10
-13.0631464385
 20
9.4993564972
 30
0.0
 10
-13.0383735572
 20
9.5017934915
 30
0.0
 10
-13.0134874807
 20
9.5021749273
 30
0.0
 10
-12.9886506768
 20
9.5004933785
 30
0.0
 10
-12.964032756
 20
9.4967479317
 30
0.0
 10
-12.9398000049
 20
9.4909806526
 30
0.0
 10
-12.9161175709
 20
9.4832305521
 30
0.0
 10
-12.8931567014
 20
9.4735328184
 30
0.0
 10
-12.8710765519
 20
9.4619630792
 30
0.0
 10
-12.8500256939
 20
9.4486119612
 30
0.0
 10
-12.8301561564
 20
9.4335635945
 30
0.0
 10
-12.8116133023
 20
9.4169169849
 30
0.0
 10
-12.7945131977
 20
9.398802783
 30
0.0
 10
-12.7789720443
 20
9.3793450354
 30
0.0
 10
-12.7651098361
 20
9.3586673171
 30
0.0
 10
-12.7530114142
 20
9.3369173914
 30
0.0
 10
-12.7427506709
 20
9.3142400391
 30
0.0
 10
-12.7344107408
 20
9.2907687951
 30
0.0
 10
-12.7280547506
 20
9.2666457231
 30
0.0
 10
-12.7237085438
 20
9.2420335145
 30
0.0
 10
-12.7214094034
 20
9.217110775
 30
0.0
 10
-12.7211905011
 20
9.1920785952
 30
0.0
 10
-12.7230334611
 20
9.1671499315
 30
0.0
 10
-12.7269025188
 20
9.1425439835
 30
0.0
 10
-12.7327436221
 20
9.1184857317
 30
0.0
 10
-12.7404729725
 20
9.0952169109
 30
0.0
 10
-12.7499872325
 20
9.0729521999
 30
0.0
 10
-12.7574901671
 20
9.0587848663
 30
0.0
 10
-12.7615090982
 20
9.0519299162
 30
0.0
  0
SPLINE
  5
3DF
100
AcDbEntity
  8
ASSI
100
AcDbSpline
 62
7
  6
CONTINUOUS
 70
0
 71
3
 72
20
 73
16
 74
0
 42
0.0000001
 43
0.0000001
 44
0.0000000001
 40
0.0
 40
0.0
 40
0.0
 40
0.0
 40
0.0754306124
 40
0.1516678317
 40
0.2286071859
 40
0.3059600574
 40
0.3835394505
 40
0.461195063
 40
0.5388578855
 40
0.6164958794
 40
0.6940429321
 40
0.7713615287
 40
0.8482789281
 40
0.924523003
 40
1.0
 40
1.0
 40
1.0
 40
1.0
 10
-10.8115101083
 20
8.8323116686
 30
0.0
 10
-10.8075398254
 20
8.8254851362
 30
0.0
 10
-10.8001243389
 20
8.8114206397
 30
0.0
 10
-10.7907021197
 20
8.7893926703
 30
0.0
 10
-10.7830226541
 20
8.766483993
 30
0.0
 10
-10.7771744224
 20
8.7428965501
 30
0.0
 10
-10.7732283204
 20
8.7188411699
 30
0.0
 10
-10.7712329095
 20
8.6945129896
 30
0.0
 10
-10.7712329756
 20
8.6700964244
 30
0.0
 10
-10.7732281761
 20
8.645773481
 30
0.0
 10
-10.7771727786
 20
8.6217268176
 30
0.0
 10
-10.7830180721
 20
8.5981482274
 30
0.0
 10
-10.7906945506
 20
8.5752440398
 30
0.0
 10
-10.8001160864
 20
8.5532121944
 30
0.0
 10
-10.8075335855
 20
8.5391424539
 30
0.0
 10
-10.8115056174
 20
8.5323113209
 30
0.0
  0
SPLINE
  5
3E0
100
AcDbEntity
  8
0
100
AcDbSpline
 62
7
  6
CONTINUOUS
 70
0
 71
3
 72
15
 73
11
 74
0
 42
0.0000001
 43
0.0000001
 44
0.0000000001
 40
0.0
 40
0.0
 40
0.0
 40
0.0
 40
0.127122604
 40
0.2538626983
 40
0.3799656506
 40
0.505287163
 40
0.6298087868
 40
0.7536293827
 40
0.8769411034
 40
1.0
 40
1.0
 40
1.0
 40
1.0
 10
-28.1325310754
 20
22.8446638053
 30
0.0
 10
-28.132532079
 20
22.8578121319
 30
0.0
 10
-28.135146816
 20
22.8841433384
 30
0.0
 10
-28.1467249071
 20
22.9219552991
 30
0.0
 10
-28.1653997417
 20
22.9566139124
 30
0.0
 10
-28.1903177702
 20
22.9867864537
 30
0.0
 10
-28.2204116125
 20
23.0114201213
 30
0.0
 10
-28.2544893973
 20
23.0297204053
 30
0.0
 10
-28.2912681166
 20
23.041144476
 30
0.0
 10
-28.3167771515
 20
23.0439656622
 30
0.0
 10
-28.3295037144
 20
23.044157997
 30
0.0
  0
SPLINE
  5
3E1
100
AcDbEntity
  8
0
100
AcDbSpline
 62
7
  6
CONTINUOUS
 70
0
 71
3
 72
15
 73
11
 74
0
 42
0.0000001
 43
0.0000001
 44
0.0000000001
 40
0.0
 40
0.0
 40
0.0
 40
0.0
 40
0.127122604
 40
0.2538626983
 40
0.3799656506
 40
0.505287163
 40
0.6298087868
 40
0.7536293827
 40
0.8769411034
 40
1.0
 40
1.0
 40
1.0
 40
1.0
 10
3.7398969529
 20
22.8446638053
 30
0.0
 10
3.7398979566
 20
22.8578121319
 30
0.0
 10
3.7425126935
 20
22.8841433384
 30
0.0
 10
3.7540907847
 20
22.9219552991
 30
0.0
 10
3.7727656192
 20
22.9566139124
 30
0.0
 10
3.7976836477
 20
22.9867864537
 30
0.0
 10
3.8277774901
 20
23.0114201213
 30
0.0
 10
3.8618552749
 20
23.0297204053
 30
0.0
 10
3.8986339941
 20
23.041144476
 30
0.0
 10
3.924143029
 20
23.0439656622
 30
0.0
 10
3.9368695919
 20
23.044157997
 30
0.0
  0
SPLINE
  5
3E2
100
AcDbEntity
  8
0
100
AcDbSpline
 62
7
  6
CONTINUOUS
 70
0
 71
3
 72
15
 73
11
 74
0
 42
0.0000001
 43
0.0000001
 44
0.0000000001
 40
0.0
 40
0.0
 40
0.0
 40
0.0
 40
0.127122604
 40
0.2538626983
 40
0.3799656506
 40
0.505287163
 40
0.6298087868
 40
0.7536293827
 40
0.8769411034
 40
1.0
 40
1.0
 40
1.0
 40
1.0
 10
-5.6325310754
 20
22.8446638053
 30
0.0
 10
-5.632532079
 20
22.8578121319
 30
0.0
 10
-5.635146816
 20
22.8841433384
 30
0.0
 10
-5.6467249071
 20
22.9219552991
 30
0.0
 10
-5.6653997417
 20
22.9566139124
 30
0.0
 10
-5.6903177702
 20
22.9867864537
 30
0.0
 10
-5.7204116125
 20
23.0114201213
 30
0.0
 10
-5.7544893973
 20
23.0297204053
 30
0.0
 10
-5.7912681166
 20
23.041144476
 30
0.0
 10
-5.8167771515
 20
23.0439656622
 30
0.0
 10
-5.8295037144
 20
23.044157997
 30
0.0
  0
SPLINE
  5
3E3
100
AcDbEntity
  8
0
100
AcDbSpline
 62
253
  6
CONTINUOUS
 70
0
 71
3
 72
9
 73
5
 74
0
 42
0.0000001
 43
0.0000001
 44
0.0000000001
 40
0.0
 40
0.0
 40
0.0
 40
0.0
 40
0.2500142686
 40
1.0
 40
1.0
 40
1.0
 40
1.0
 10
9.521792671
 20
22.7831017506
 30
0.0
 10
9.5218137234
 20
22.0245391109
 30
0.0
 10
9.5221441789
 20
18.9904617321
 30
0.0
 10
9.5234303434
 20
15.9563844559
 30
0.0
 10
9.5249388973
 20
13.6808702041
 30
0.0
  0
SPLINE
  5
3E4
100
AcDbEntity
  8
0
100
AcDbSpline
 62
253
  6
CONTINUOUS
 70
0
 71
3
 72
9
 73
5
 74
0
 42
0.0000001
 43
0.0000001
 44
0.0000000001
 40
0.0
 40
0.0
 40
0.0
 40
0.0
 40
0.2500142684
 40
1.0
 40
1.0
 40
1.0
 40
1.0
 10
10.0214911416
 20
22.7854062213
 30
0.0
 10
10.0215120974
 20
22.027443244
 30
0.0
 10
10.0218367216
 20
18.9957643744
 30
0.0
 10
10.0231254405
 20
15.964085608
 30
0.0
 10
10.0246343108
 20
13.6903702041
 30
0.0
  0
SPLINE
  5
3E5
100
AcDbEntity
  8
0
100
AcDbSpline
 62
253
  6
CONTINUOUS
 70
0
 71
3
 72
21
 73
17
 74
0
 42
0.0000001
 43
0.0000001
 44
0.0000000001
 40
0.0
 40
0.0
 40
0.0
 40
0.0
 40
0.1909197107
 40
0.374824463
 40
0.544955972
 40
0.695062942
 40
0.7608491553
 40
0.8196299865
 40
0.8708643051
 40
0.9140805134
 40
0.948880932
 40
0.9749455967
 40
0.984623989
 40
0.9920357527
 40
0.9971640065
 40
1.0
 40
1.0
 40
1.0
 40
1.0
 10
9.521792671
 20
22.7831017498
 30
0.0
 10
9.5535945079
 20
22.7831021954
 30
0.0
 10
9.6160296909
 20
22.7831311813
 30
0.0
 10
9.7068039059
 20
22.7832579659
 30
0.0
 10
9.7907797087
 20
22.7834627984
 30
0.0
 10
9.8550801224
 20
22.7836998695
 30
0.0
 10
9.9008324897
 20
22.7839297478
 30
0.0
 10
9.9301155071
 20
22.7841080445
 30
0.0
 10
9.9556388101
 20
22.7842981671
 30
0.0
 10
9.9771675257
 20
22.7844969023
 30
0.0
 10
9.994503177
 20
22.7847038907
 30
0.0
 10
10.006252644
 20
22.7848884721
 30
0.0
 10
10.0134388088
 20
22.7850522632
 30
0.0
 10
10.0171390279
 20
22.7851561516
 30
0.0
 10
10.0196964886
 20
22.7852693196
 30
0.0
 10
10.0210230711
 20
22.7853424255
 30
0.0
 10
10.0214911416
 20
22.7854062104
 30
0.0
  0
SPLINE
  5
3E6
100
AcDbEntity
  8
0
100
AcDbSpline
 62
253
  6
CONTINUOUS
 70
0
 71
3
 72
23
 73
19
 74
0
 42
0.0000001
 43
0.0000001
 44
0.0000000001
 40
0.0
 40
0.0
 40
0.0
 40
0.0
 40
0.002968815
 40
0.0081697644
 40
0.0156296374
 40
0.0253421366
 40
0.0372910006
 40
0.0514505226
 40
0.0862732478
 40
0.1294972993
 40
0.1807283145
 40
0.2394967258
 40
0.3052628263
 40
0.3774220668
 40
0.4553107854
 40
0.6253639882
 40
0.8091775529
 40
1.0
 40
1.0
 40
1.0
 40
1.0
 10
10.0246343108
 20
13.6903702041
 30
0.0
 10
10.0241998433
 20
13.6901334841
 30
0.0
 10
10.0228516865
 20
13.6898157884
 30
0.0
 10
10.0202979373
 20
13.6893760413
 30
0.0
 10
10.0165855529
 20
13.6889509041
 30
0.0
 10
10.0117551168
 20
13.6885095564
 30
0.0
 10
10.0058000027
 20
13.6880732496
 30
0.0
 10
9.9956649755
 20
13.6874495532
 30
0.0
 10
9.9803148425
 20
13.6867161194
 30
0.0
 10
9.9587850885
 20
13.6859067506
 30
0.0
 10
9.9332609341
 20
13.6851335569
 30
0.0
 10
9.9039775451
 20
13.6844040311
 30
0.0
 10
9.8712042464
 20
13.6837267627
 30
0.0
 10
9.835242779
 20
13.6831084367
 30
0.0
 10
9.7819013223
 20
13.6823487933
 30
0.0
 10
9.7099501879
 20
13.6816062335
 30
0.0
 10
9.6191759569
 20
13.6810448082
 30
0.0
 10
9.5567406103
 20
13.6808913005
 30
0.0
 10
9.5249388973
 20
13.6808702041
 30
0.0
  0
SPLINE
  5
3E7
100
AcDbEntity
  8
0
100
AcDbSpline
 62
253
  6
CONTINUOUS
 70
0
 71
3
 72
20
 73
16
 74
0
 42
0.0000001
 43
0.0000001
 44
0.0000000001
 40
0.0
 40
0.0
 40
0.0
 40
0.0
 40
0.0159232899
 40
0.0259135898
 40
0.0375677482
 40
0.0663141742
 40
0.1026498183
 40
0.1465813204
 40
0.1978944324
 40
0.2562348761
 40
0.3211452999
 40
0.468436839
 40
0.6346919774
 40
0.814019083
 40
1.0
 40
1.0
 40
1.0
 40
1.0
 10
10.0589971647
 20
2.0480148757
 30
0.0
 10
10.0583832255
 20
2.0453610232
 30
0.0
 10
10.0558905003
 20
2.041418941
 30
0.0
 10
10.0512074958
 20
2.0370400187
 30
0.0
 10
10.0441810009
 20
2.0319929167
 30
0.0
 10
10.0324357808
 20
2.0260157284
 30
0.0
 10
10.014977878
 20
2.0194075509
 30
0.0
 10
9.9933738858
 20
2.0130305882
 30
0.0
 10
9.967807339
 20
2.0069417467
 30
0.0
 10
9.9384941459
 20
2.0012076004
 30
0.0
 10
9.8928039547
 20
1.993799284
 30
0.0
 10
9.8285001981
 20
1.986062742
 30
0.0
 10
9.7444469002
 20
1.9792437918
 30
0.0
 10
9.6536067175
 20
1.9748410252
 30
0.0
 10
9.5911164289
 20
1.9736375663
 30
0.0
 10
9.5593017512
 20
1.9734737879
 30
0.0
  0
SPLINE
  5
3E8
100
AcDbEntity
  8
0
100
AcDbSpline
 62
253
  6
CONTINUOUS
 70
0
 71
3
 72
23
 73
19
 74
0
 42
0.0000001
 43
0.0000001
 44
0.0000000001
 40
0.0
 40
0.0
 40
0.0
 40
0.0
 40
0.1955416664
 40
0.380249941
 40
0.548731572
 40
0.625328356
 40
0.6960700277
 40
0.7604400526
 40
0.817968763
 40
0.8682369159
 40
0.910879009
 40
0.9455865103
 40
0.9598849415
 40
0.9721120399
 40
0.9822471358
 40
0.9902757963
 40
0.9961904387
 40
1.0
 40
1.0
 40
1.0
 40
1.0
 10
9.5593017512
 20
1.9734737845
 30
0.0
 10
9.5594475621
 20
1.9180741585
 30
0.0
 10
9.5598913571
 20
1.8103444817
 30
0.0
 10
9.5610399444
 20
1.6548847617
 30
0.0
 10
9.5623958282
 20
1.5331270299
 30
0.0
 10
9.5637181879
 20
1.4436602549
 30
0.0
 10
9.5647700952
 20
1.3836892786
 30
0.0
 10
9.5659051018
 20
1.3291231112
 30
0.0
 10
9.5671142217
 20
1.280360557
 30
0.0
 10
9.5683860935
 20
1.2377576894
 30
0.0
 10
9.5697105319
 20
1.2016257592
 30
0.0
 10
9.5709061466
 20
1.1756871693
 30
0.0
 10
9.571916576
 20
1.1583683394
 30
0.0
 10
9.572629488
 20
1.1480057271
 30
0.0
 10
9.5733468048
 20
1.1394260707
 30
0.0
 10
9.5740554619
 20
1.1326378745
 30
0.0
 10
9.5747664742
 20
1.127662751
 30
0.0
 10
9.5753121341
 20
1.124950428
 30
0.0
 10
9.5756532069
 20
1.1239264322
 30
0.0
  0
SPLINE
  5
3E9
100
AcDbEntity
  8
0
100
AcDbSpline
 62
253
  6
CONTINUOUS
 70
0
 71
3
 72
22
 73
18
 74
0
 42
0.0000001
 43
0.0000001
 44
0.0000000001
 40
0.0
 40
0.0
 40
0.0
 40
0.0
 40
0.1953199683
 40
0.3798177671
 40
0.5481104127
 40
0.6246256669
 40
0.6952977144
 40
0.7596131818
 40
0.817106248
 40
0.8673625297
 40
0.9100230766
 40
0.9447892697
 40
0.9714307852
 40
0.9816574449
 40
0.9898115878
 40
0.9959059558
 40
1.0
 40
1.0
 40
1.0
 40
1.0
 10
10.0589971647
 20
2.0480148757
 30
0.0
 10
10.0591430423
 20
2.0203087023
 30
0.0
 10
10.0595869439
 20
1.9664321366
 30
0.0
 10
10.0607359046
 20
1.8886894418
 30
0.0
 10
10.0620921396
 20
1.8278057726
 30
0.0
 10
10.0634147144
 20
1.7830736331
 30
0.0
 10
10.0644667369
 20
1.7530897758
 30
0.0
 10
10.0656019425
 20
1.725809387
 30
0.0
 10
10.066810886
 20
1.7014312069
 30
0.0
 10
10.0680836956
 20
1.6801329319
 30
0.0
 10
10.0694059764
 20
1.6620679589
 30
0.0
 10
10.0707682854
 20
1.6473685533
 30
0.0
 10
10.0719932902
 20
1.637276454
 30
0.0
 10
10.0730436641
 20
1.6309771799
 30
0.0
 10
10.0737579917
 20
1.6275751305
 30
0.0
 10
10.0744678343
 20
1.6250756038
 30
0.0
 10
10.0750266279
 20
1.6237245113
 30
0.0
 10
10.0753486204
 20
1.6232411995
 30
0.0
  0
SPLINE
  5
3EA
100
AcDbEntity
  8
0
100
AcDbSpline
 62
253
  6
CONTINUOUS
 70
0
 71
3
 72
9
 73
5
 74
0
 42
0.0000001
 43
0.0000001
 44
0.0000000001
 40
0.0
 40
0.0
 40
0.0
 40
0.0
 40
0.2499804772
 40
1.0
 40
1.0
 40
1.0
 40
1.0
 10
-34.4172684333
 20
13.6903702041
 30
0.0
 10
-34.4167655062
 20
14.448230571
 30
0.0
 10
-34.4149947069
 20
17.4799089408
 30
0.0
 10
-34.4141881296
 20
20.5115878738
 30
0.0
 10
-34.414125264
 20
22.7854062213
 30
0.0
  0
SPLINE
  5
3EB
100
AcDbEntity
  8
0
100
AcDbSpline
 62
253
  6
CONTINUOUS
 70
0
 71
3
 72
23
 73
19
 74
0
 42
0.0000001
 43
0.0000001
 44
0.0000000001
 40
0.0
 40
0.0
 40
0.0
 40
0.0
 40
0.002968815
 40
0.0081697643
 40
0.0156296373
 40
0.0253421364
 40
0.0372910005
 40
0.0514505225
 40
0.0862732476
 40
0.1294972991
 40
0.1807283142
 40
0.2394967255
 40
0.3052628261
 40
0.3774220666
 40
0.4553107852
 40
0.625363988
 40
0.8091775528
 40
1.0
 40
1.0
 40
1.0
 40
1.0
 10
-34.4172684333
 20
13.6903702041
 30
0.0
 10
-34.4168339657
 20
13.6901334841
 30
0.0
 10
-34.4154858089
 20
13.6898157884
 30
0.0
 10
-34.4129320598
 20
13.6893760413
 30
0.0
 10
-34.4092196754
 20
13.6889509041
 30
0.0
 10
-34.4043892393
 20
13.6885095564
 30
0.0
 10
-34.3984341253
 20
13.6880732496
 30
0.0
 10
-34.388299098
 20
13.6874495532
 30
0.0
 10
-34.3729489651
 20
13.6867161194
 30
0.0
 10
-34.3514192111
 20
13.6859067506
 30
0.0
 10
-34.3258950567
 20
13.6851335569
 30
0.0
 10
-34.2966116677
 20
13.6844040311
 30
0.0
 10
-34.263838369
 20
13.6837267627
 30
0.0
 10
-34.2278769016
 20
13.6831084367
 30
0.0
 10
-34.1745354448
 20
13.6823487933
 30
0.0
 10
-34.1025843104
 20
13.6816062335
 30
0.0
 10
-34.0118100794
 20
13.6810448082
 30
0.0
 10
-33.9493747327
 20
13.6808913005
 30
0.0
 10
-33.9175730198
 20
13.6808702041
 30
0.0
  0
SPLINE
  5
3EC
100
AcDbEntity
  8
0
100
AcDbSpline
 62
253
  6
CONTINUOUS
 70
0
 71
3
 72
9
 73
5
 74
0
 42
0.0000001
 43
0.0000001
 44
0.0000000001
 40
0.0
 40
0.0
 40
0.0
 40
0.0
 40
0.2499804789
 40
1.0
 40
1.0
 40
1.0
 40
1.0
 10
-33.9175730198
 20
13.6808702041
 30
0.0
 10
-33.9170701981
 20
14.4393301568
 30
0.0
 10
-33.9153000045
 20
17.4734070371
 30
0.0
 10
-33.9144899488
 20
20.5074844788
 30
0.0
 10
-33.9144267934
 20
22.7831017506
 30
0.0
  0
SPLINE
  5
3ED
100
AcDbEntity
  8
0
100
AcDbSpline
 62
253
  6
CONTINUOUS
 70
0
 71
3
 72
21
 73
17
 74
0
 42
0.0000001
 43
0.0000001
 44
0.0000000001
 40
0.0
 40
0.0
 40
0.0
 40
0.0
 40
0.0028359935
 40
0.0079642473
 40
0.015376011
 40
0.0250544033
 40
0.051119068
 40
0.0859194866
 40
0.1291356949
 40
0.1803700135
 40
0.2391508447
 40
0.304937058
 40
0.455044028
 40
0.625175537
 40
0.8090802893
 40
1.0
 40
1.0
 40
1.0
 40
1.0
 10
-34.414125264
 20
22.7854062104
 30
0.0
 10
-34.4136571936
 20
22.7853424255
 30
0.0
 10
-34.4123306111
 20
22.7852693196
 30
0.0
 10
-34.4097731503
 20
22.7851561516
 30
0.0
 10
-34.4060729312
 20
22.7850522632
 30
0.0
 10
-34.3988867665
 20
22.7848884721
 30
0.0
 10
-34.3871372994
 20
22.7847038907
 30
0.0
 10
-34.3698016482
 20
22.7844969023
 30
0.0
 10
-34.3482729325
 20
22.7842981671
 30
0.0
 10
-34.3227496296
 20
22.7841080445
 30
0.0
 10
-34.2934666121
 20
22.7839297478
 30
0.0
 10
-34.2477142449
 20
22.7836998695
 30
0.0
 10
-34.1834138312
 20
22.7834627984
 30
0.0
 10
-34.0994380283
 20
22.7832579659
 30
0.0
 10
-34.0086638134
 20
22.7831311813
 30
0.0
 10
-33.9462286303
 20
22.7831021954
 30
0.0
 10
-33.9144267934
 20
22.7831017498
 30
0.0
  0
SPLINE
  5
3EE
100
AcDbEntity
  8
0
100
AcDbSpline
 62
253
  6
CONTINUOUS
 70
0
 71
3
 72
20
 73
16
 74
0
 42
0.0000001
 43
0.0000001
 44
0.0000000001
 40
0.0
 40
0.0
 40
0.0
 40
0.0
 40
0.0159232887
 40
0.0259135877
 40
0.037567745
 40
0.0663141691
 40
0.1026498113
 40
0.1465813119
 40
0.1978944228
 40
0.2562348658
 40
0.3211452892
 40
0.4684368291
 40
0.6346919697
 40
0.8140190788
 40
1.0
 40
1.0
 40
1.0
 40
1.0
 10
-34.4516312871
 20
2.0480148757
 30
0.0
 10
-34.4510173486
 20
2.0453610232
 30
0.0
 10
-34.4485246243
 20
2.0414189409
 30
0.0
 10
-34.4438416206
 20
2.0370400184
 30
0.0
 10
-34.4368151267
 20
2.0319929162
 30
0.0
 10
-34.4250699075
 20
2.0260157277
 30
0.0
 10
-34.4076120057
 20
2.0194075499
 30
0.0
 10
-34.3860080142
 20
2.013030587
 30
0.0
 10
-34.3604414679
 20
2.0069417452
 30
0.0
 10
-34.3311282752
 20
2.0012075986
 30
0.0
 10
-34.2854380839
 20
1.9937992819
 30
0.0
 10
-34.2211343265
 20
1.9860627394
 30
0.0
 10
-34.1370810272
 20
1.9792437888
 30
0.0
 10
-34.0462408424
 20
1.9748410219
 30
0.0
 10
-33.9837505522
 20
1.9736375628
 30
0.0
 10
-33.9519358736
 20
1.9734737845
 30
0.0
  0
SPLINE
  5
3EF
100
AcDbEntity
  8
0
100
AcDbSpline
 62
253
  6
CONTINUOUS
 70
0
 71
3
 72
23
 73
19
 74
0
 42
0.0000001
 43
0.0000001
 44
0.0000000001
 40
0.0
 40
0.0
 40
0.0
 40
0.0
 40
0.0038095613
 40
0.0097242037
 40
0.0177528642
 40
0.0278879601
 40
0.0401150585
 40
0.0544134897
 40
0.089120991
 40
0.1317630841
 40
0.182031237
 40
0.2395599474
 40
0.3039299723
 40
0.374671644
 40
0.451268428
 40
0.619750059
 40
0.8044583336
 40
1.0
 40
1.0
 40
1.0
 40
1.0
 10
-33.9682873293
 20
1.1239264322
 30
0.0
 10
-33.9679462565
 20
1.124950428
 30
0.0
 10
-33.9674005966
 20
1.127662751
 30
0.0
 10
-33.9666895844
 20
1.1326378745
 30
0.0
 10
-33.9659809273
 20
1.1394260707
 30
0.0
 10
-33.9652636105
 20
1.1480057271
 30
0.0
 10
-33.9645506984
 20
1.1583683394
 30
0.0
 10
-33.963540269
 20
1.1756871693
 30
0.0
 10
-33.9623446544
 20
1.2016257592
 30
0.0
 10
-33.961020216
 20
1.2377576894
 30
0.0
 10
-33.9597483441
 20
1.280360557
 30
0.0
 10
-33.9585392243
 20
1.3291231112
 30
0.0
 10
-33.9574042176
 20
1.3836892786
 30
0.0
 10
-33.9563523103
 20
1.4436602549
 30
0.0
 10
-33.9550299506
 20
1.5331270299
 30
0.0
 10
-33.9536740668
 20
1.6548847617
 30
0.0
 10
-33.9525254796
 20
1.8103444817
 30
0.0
 10
-33.9520816846
 20
1.9180741585
 30
0.0
 10
-33.9519358736
 20
1.9734737845
 30
0.0
  0
SPLINE
  5
3F0
100
AcDbEntity
  8
0
100
AcDbSpline
 62
253
  6
CONTINUOUS
 70
0
 71
3
 72
22
 73
18
 74
0
 42
0.0000001
 43
0.0000001
 44
0.0000000001
 40
0.0
 40
0.0
 40
0.0
 40
0.0
 40
0.0040940442
 40
0.0101884122
 40
0.0183425551
 40
0.0285692148
 40
0.0552107303
 40
0.0899769234
 40
0.1326374703
 40
0.182893752
 40
0.2403868182
 40
0.3047022856
 40
0.3753743331
 40
0.4518895873
 40
0.6201822329
 40
0.8046800317
 40
1.0
 40
1.0
 40
1.0
 40
1.0
 10
-34.4679827428
 20
1.6232411995
 30
0.0
 10
-34.4676607504
 20
1.6237245113
 30
0.0
 10
-34.4671019567
 20
1.6250756038
 30
0.0
 10
-34.4663921141
 20
1.6275751305
 30
0.0
 10
-34.4656777865
 20
1.6309771799
 30
0.0
 10
-34.4646274126
 20
1.637276454
 30
0.0
 10
-34.4634024079
 20
1.6473685533
 30
0.0
 10
-34.4620400989
 20
1.6620679589
 30
0.0
 10
-34.460717818
 20
1.6801329319
 30
0.0
 10
-34.4594450084
 20
1.7014312069
 30
0.0
 10
-34.458236065
 20
1.725809387
 30
0.0
 10
-34.4571008594
 20
1.7530897758
 30
0.0
 10
-34.4560488369
 20
1.7830736331
 30
0.0
 10
-34.454726262
 20
1.8278057726
 30
0.0
 10
-34.453370027
 20
1.8886894418
 30
0.0
 10
-34.4522210663
 20
1.9664321366
 30
0.0
 10
-34.4517771648
 20
2.0203087023
 30
0.0
 10
-34.4516312871
 20
2.0480148757
 30
0.0
  0
SPLINE
  5
3F1
100
AcDbEntity
  8
0
100
AcDbSpline
 62
253
  6
CONTINUOUS
 70
0
 71
3
 72
21
 73
17
 74
0
 42
0.0000001
 43
0.0000001
 44
0.0000000001
 40
0.0
 40
0.0
 40
0.0
 40
0.0
 40
0.1939615758
 40
0.3805719175
 40
0.5527351836
 40
0.7039016014
 40
0.7697766691
 40
0.8283213629
 40
0.878978009
 40
0.9212644716
 40
0.9547783946
 40
0.9792026025
 40
0.9879313518
 40
0.9943100637
 40
0.9983273805
 40
1.0
 40
1.0
 40
1.0
 40
1.0
 10
-28.1443286849
 20
22.7832608583
 30
0.0
 10
-28.1443287067
 20
22.7864964868
 30
0.0
 10
-28.1443234212
 20
22.792845113
 30
0.0
 10
-28.1442997126
 20
22.8020657078
 30
0.0
 10
-28.1442612303
 20
22.81057234
 30
0.0
 10
-28.1442166227
 20
22.8170648451
 30
0.0
 10
-28.1441732541
 20
22.8216618964
 30
0.0
 10
-28.1441397824
 20
22.8245823472
 30
0.0
 10
-28.1441039017
 20
22.8271090349
 30
0.0
 10
-28.1440671279
 20
22.8292186791
 30
0.0
 10
-28.1440271842
 20
22.8308890235
 30
0.0
 10
-28.1439953221
 20
22.8320030618
 30
0.0
 10
-28.1439609488
 20
22.8326585106
 30
0.0
 10
-28.1439477498
 20
22.8329826374
 30
0.0
 10
-28.1439164836
 20
22.8331723637
 30
0.0
 10
-28.1439158504
 20
22.8332789725
 30
0.0
 10
-28.1438961494
 20
22.8332987313
 30
0.0
  0
LINE
  5
3F2
100
AcDbEntity
  8
0
100
AcDbLine
 62
253
  6
CONTINUOUS
 10
-28.1443245053
 20
22.3828465804
 11
-28.1443286849
 21
22.7832608583
  0
SPLINE
  5
3F3
100
AcDbEntity
  8
0
100
AcDbSpline
 62
253
  6
CONTINUOUS
 70
0
 71
3
 72
21
 73
17
 74
0
 42
0.0000001
 43
0.0000001
 44
0.0000000001
 40
0.0
 40
0.0
 40
0.0
 40
0.0
 40
0.0016726195
 40
0.0056899363
 40
0.0120686482
 40
0.0207973975
 40
0.0452216054
 40
0.0787355284
 40
0.121021991
 40
0.1716786371
 40
0.2302233309
 40
0.2960983986
 40
0.4472648164
 40
0.6194280825
 40
0.8060384242
 40
1.0
 40
1.0
 40
1.0
 40
1.0
 10
-18.748737973
 20
22.8332987313
 30
0.0
 10
-18.748718272
 20
22.8332789725
 30
0.0
 10
-18.7487176388
 20
22.8331723637
 30
0.0
 10
-18.7486863727
 20
22.8329826374
 30
0.0
 10
-18.7486731736
 20
22.8326585106
 30
0.0
 10
-18.7486388004
 20
22.8320030618
 30
0.0
 10
-18.7486069383
 20
22.8308890235
 30
0.0
 10
-18.7485669946
 20
22.8292186791
 30
0.0
 10
-18.7485302208
 20
22.8271090349
 30
0.0
 10
-18.74849434
 20
22.8245823472
 30
0.0
 10
-18.7484608684
 20
22.8216618964
 30
0.0
 10
-18.7484174998
 20
22.8170648451
 30
0.0
 10
-18.7483728922
 20
22.81057234
 30
0.0
 10
-18.7483344098
 20
22.8020657078
 30
0.0
 10
-18.7483107012
 20
22.792845113
 30
0.0
 10
-18.7483054158
 20
22.7864964868
 30
0.0
 10
-18.7483054375
 20
22.7832608583
 30
0.0
  0
SPLINE
  5
3F4
100
AcDbEntity
  8
0
100
AcDbSpline
 62
253
  6
CONTINUOUS
 70
0
 71
3
 72
21
 73
17
 74
0
 42
0.0000001
 43
0.0000001
 44
0.0000000001
 40
0.0
 40
0.0
 40
0.0
 40
0.0
 40
0.1940290739
 40
0.3806795265
 40
0.5528644843
 40
0.7040377222
 40
0.7699124299
 40
0.8284547424
 40
0.879106809
 40
0.9213860669
 40
0.9548902416
 40
0.9793004863
 40
0.988019473
 40
0.9943846256
 40
0.9983807046
 40
1.0
 40
1.0
 40
1.0
 40
1.0
 10
-18.5483172326
 20
22.3825243834
 30
0.0
 10
-18.5612520833
 20
22.3825245636
 30
0.0
 10
-18.5866298927
 20
22.3825288138
 30
0.0
 10
-18.6234863224
 20
22.3825467053
 30
0.0
 10
-18.6574857802
 20
22.3825753607
 30
0.0
 10
-18.6834337794
 20
22.3826083602
 30
0.0
 10
-18.7018058328
 20
22.3826403686
 30
0.0
 10
-18.7134767126
 20
22.3826649765
 30
0.0
 10
-18.7235745539
 20
22.3826915009
 30
0.0
 10
-18.73200338
 20
22.3827181398
 30
0.0
 10
-18.7386823912
 20
22.3827484535
 30
0.0
 10
-18.7431250218
 20
22.3827696952
 30
0.0
 10
-18.7457569563
 20
22.3827977947
 30
0.0
 10
-18.7470302958
 20
22.382802478
 30
0.0
 10
-18.7478261367
 20
22.3828346328
 30
0.0
 10
-18.7482035188
 20
22.3828242919
 30
0.0
 10
-18.7483097054
 20
22.3828437216
 30
0.0
  0
LINE
  5
3F5
100
AcDbEntity
  8
0
100
AcDbLine
 62
253
  6
CONTINUOUS
 10
-18.7483054375
 20
22.7832608583
 11
-18.7483096172
 21
22.3828466491
  0
SPLINE
  5
3F6
100
AcDbEntity
  8
0
100
AcDbSpline
 62
253
  6
CONTINUOUS
 70
0
 71
3
 72
21
 73
17
 74
0
 42
0.0000001
 43
0.0000001
 44
0.0000000001
 40
0.0
 40
0.0
 40
0.0
 40
0.0
 40
0.0028575849
 40
0.0079973461
 40
0.0154167334
 40
0.0251005055
 40
0.0511715755
 40
0.0859749674
 40
0.1291917158
 40
0.1804247773
 40
0.239202943
 40
0.3049853847
 40
0.4550823845
 40
0.6252018994
 40
0.8090936562
 40
1.0
 40
1.0
 40
1.0
 40
1.0
 10
-34.1642774613
 20
23.0353966781
 30
0.0
 10
-34.1640465437
 20
23.0353389921
 30
0.0
 10
-34.1633807505
 20
23.0352708454
 30
0.0
 10
-34.1621027704
 20
23.0351677912
 30
0.0
 10
-34.1602514467
 20
23.0350722124
 30
0.0
 10
-34.1566590417
 20
23.0349223531
 30
0.0
 10
-34.1507839606
 20
23.0347531744
 30
0.0
 10
-34.1421162544
 20
23.0345637307
 30
0.0
 10
-34.1313519201
 20
23.0343818441
 30
0.0
 10
-34.1185904582
 20
23.0342079412
 30
0.0
 10
-34.1039491413
 20
23.034044926
 30
0.0
 10
-34.0810733234
 20
23.0338348681
 30
0.0
 10
-34.0489233867
 20
23.0336184719
 30
0.0
 10
-34.006935601
 20
23.0334318782
 30
0.0
 10
-33.9615484558
 20
23.0333168832
 30
0.0
 10
-33.9303307744
 20
23.0332911177
 30
0.0
 10
-33.9144298074
 20
23.0332911159
 30
0.0
  0
SPLINE
  5
3F7
100
AcDbEntity
  8
0
100
AcDbSpline
 62
253
  6
CONTINUOUS
 70
0
 71
3
 72
21
 73
17
 74
0
 42
0.0000001
 43
0.0000001
 44
0.0000000001
 40
0.0
 40
0.0
 40
0.0
 40
0.0
 40
0.1909063438
 40
0.3747981006
 40
0.5449176155
 40
0.6950146153
 40
0.760797057
 40
0.8195752227
 40
0.8708082842
 40
0.9140250326
 40
0.9488284245
 40
0.9748994945
 40
0.9845832666
 40
0.9920026539
 40
0.9971424151
 40
1.0
 40
1.0
 40
1.0
 40
1.0
 10
9.5217956849
 20
23.0332911159
 30
0.0
 10
9.5376966519
 20
23.0332911177
 30
0.0
 10
9.5689143334
 20
23.0333168832
 30
0.0
 10
9.6143014785
 20
23.0334318782
 30
0.0
 10
9.6562892643
 20
23.0336184719
 30
0.0
 10
9.6884392009
 20
23.0338348681
 30
0.0
 10
9.7113150189
 20
23.034044926
 30
0.0
 10
9.7259563358
 20
23.0342079412
 30
0.0
 10
9.7387177977
 20
23.0343818441
 30
0.0
 10
9.749482132
 20
23.0345637307
 30
0.0
 10
9.7581498382
 20
23.0347531744
 30
0.0
 10
9.7640249193
 20
23.0349223531
 30
0.0
 10
9.7676173242
 20
23.0350722124
 30
0.0
 10
9.7694686479
 20
23.0351677912
 30
0.0
 10
9.7707466281
 20
23.0352708454
 30
0.0
 10
9.7714124212
 20
23.0353389921
 30
0.0
 10
9.7716433388
 20
23.0353966781
 30
0.0
  0
SPLINE
  5
3F8
100
AcDbEntity
  8
0
100
AcDbSpline
 62
253
  6
CONTINUOUS
 70
0
 71
3
 72
21
 73
17
 74
0
 42
0.0000001
 43
0.0000001
 44
0.0000000001
 40
0.0
 40
0.0
 40
0.0
 40
0.0
 40
0.1940291165
 40
0.3806795904
 40
0.5528645513
 40
0.7040377789
 40
0.7699124783
 40
0.8284547814
 40
0.8791068384
 40
0.9213860871
 40
0.9548902538
 40
0.9793004922
 40
0.9880194765
 40
0.9943846274
 40
0.9983807051
 40
1.0
 40
1.0
 40
1.0
 40
1.0
 10
-28.3443168899
 20
22.3825243833
 30
0.0
 10
-28.331382042
 20
22.3825245635
 30
0.0
 10
-28.3060042396
 20
22.3825288137
 30
0.0
 10
-28.2691478216
 20
22.3825467053
 30
0.0
 10
-28.2351483779
 20
22.3825753607
 30
0.0
 10
-28.2092003911
 20
22.3826083602
 30
0.0
 10
-28.1908283477
 20
22.3826403686
 30
0.0
 10
-28.1791574749
 20
22.3826649765
 30
0.0
 10
-28.1690596399
 20
22.3826915009
 30
0.0
 10
-28.1606308193
 20
22.3827181399
 30
0.0
 10
-28.1539518127
 20
22.3827484535
 30
0.0
 10
-28.1495091851
 20
22.3827696952
 30
0.0
 10
-28.1468772525
 20
22.3827977947
 30
0.0
 10
-28.1456039139
 20
22.382802478
 30
0.0
 10
-28.1448080736
 20
22.3828346328
 30
0.0
 10
-28.1444306917
 20
22.3828242919
 30
0.0
 10
-28.1443245052
 20
22.3828437216
 30
0.0
  0
SPLINE
  5
3F9
100
AcDbEntity
  8
0
100
AcDbSpline
 62
253
  6
CONTINUOUS
 70
0
 71
3
 72
21
 73
17
 74
0
 42
0.0000001
 43
0.0000001
 44
0.0000000001
 40
0.0
 40
0.0
 40
0.0
 40
0.0
 40
0.1940290739
 40
0.3806795265
 40
0.5528644843
 40
0.7040377222
 40
0.7699124299
 40
0.8284547424
 40
0.879106809
 40
0.9213860669
 40
0.9548902416
 40
0.9793004863
 40
0.988019473
 40
0.9943846256
 40
0.9983807046
 40
1.0
 40
1.0
 40
1.0
 40
1.0
 10
3.9516827674
 20
22.3825243834
 30
0.0
 10
3.9387479167
 20
22.3825245636
 30
0.0
 10
3.9133701073
 20
22.3825288138
 30
0.0
 10
3.8765136776
 20
22.3825467053
 30
0.0
 10
3.8425142198
 20
22.3825753607
 30
0.0
 10
3.8165662206
 20
22.3826083602
 30
0.0
 10
3.7981941672
 20
22.3826403686
 30
0.0
 10
3.7865232874
 20
22.3826649765
 30
0.0
 10
3.7764254461
 20
22.3826915009
 30
0.0
 10
3.76799662
 20
22.3827181398
 30
0.0
 10
3.7613176088
 20
22.3827484535
 30
0.0
 10
3.7568749782
 20
22.3827696952
 30
0.0
 10
3.7542430437
 20
22.3827977947
 30
0.0
 10
3.7529697042
 20
22.382802478
 30
0.0
 10
3.7521738633
 20
22.3828346328
 30
0.0
 10
3.7517964812
 20
22.3828242919
 30
0.0
 10
3.7516902946
 20
22.3828437216
 30
0.0
  0
SPLINE
  5
3FA
100
AcDbEntity
  8
0
100
AcDbSpline
 62
253
  6
CONTINUOUS
 70
0
 71
3
 72
21
 73
17
 74
0
 42
0.0000001
 43
0.0000001
 44
0.0000000001
 40
0.0
 40
0.0
 40
0.0
 40
0.0
 40
0.1940291165
 40
0.3806795904
 40
0.5528645513
 40
0.7040377789
 40
0.7699124783
 40
0.8284547814
 40
0.8791068384
 40
0.9213860871
 40
0.9548902538
 40
0.9793004922
 40
0.9880194765
 40
0.9943846274
 40
0.9983807051
 40
1.0
 40
1.0
 40
1.0
 40
1.0
 10
-5.8443168899
 20
22.3825243833
 30
0.0
 10
-5.831382042
 20
22.3825245635
 30
0.0
 10
-5.8060042396
 20
22.3825288137
 30
0.0
 10
-5.7691478216
 20
22.3825467053
 30
0.0
 10
-5.7351483779
 20
22.3825753607
 30
0.0
 10
-5.7092003911
 20
22.3826083602
 30
0.0
 10
-5.6908283477
 20
22.3826403686
 30
0.0
 10
-5.6791574749
 20
22.3826649765
 30
0.0
 10
-5.6690596399
 20
22.3826915009
 30
0.0
 10
-5.6606308193
 20
22.3827181399
 30
0.0
 10
-5.6539518127
 20
22.3827484535
 30
0.0
 10
-5.6495091851
 20
22.3827696952
 30
0.0
 10
-5.6468772525
 20
22.3827977947
 30
0.0
 10
-5.6456039139
 20
22.382802478
 30
0.0
 10
-5.6448080736
 20
22.3828346328
 30
0.0
 10
-5.6444306917
 20
22.3828242919
 30
0.0
 10
-5.6443245052
 20
22.3828437216
 30
0.0
  0
SPLINE
  5
3FB
100
AcDbEntity
  8
0
100
AcDbSpline
 62
253
  6
CONTINUOUS
 70
0
 71
3
 72
21
 73
17
 74
0
 42
0.0000001
 43
0.0000001
 44
0.0000000001
 40
0.0
 40
0.0
 40
0.0
 40
0.0
 40
0.1939615758
 40
0.3805719175
 40
0.5527351836
 40
0.7039016014
 40
0.7697766691
 40
0.8283213629
 40
0.878978009
 40
0.9212644716
 40
0.9547783946
 40
0.9792026025
 40
0.9879313518
 40
0.9943100637
 40
0.9983273805
 40
1.0
 40
1.0
 40
1.0
 40
1.0
 10
-5.6443286849
 20
22.7832608583
 30
0.0
 10
-5.6443287067
 20
22.7864964868
 30
0.0
 10
-5.6443234212
 20
22.792845113
 30
0.0
 10
-5.6442997126
 20
22.8020657078
 30
0.0
 10
-5.6442612303
 20
22.81057234
 30
0.0
 10
-5.6442166227
 20
22.8170648451
 30
0.0
 10
-5.6441732541
 20
22.8216618964
 30
0.0
 10
-5.6441397824
 20
22.8245823472
 30
0.0
 10
-5.6441039017
 20
22.8271090349
 30
0.0
 10
-5.6440671279
 20
22.8292186791
 30
0.0
 10
-5.6440271842
 20
22.8308890235
 30
0.0
 10
-5.6439953221
 20
22.8320030618
 30
0.0
 10
-5.6439609488
 20
22.8326585106
 30
0.0
 10
-5.6439477498
 20
22.8329826374
 30
0.0
 10
-5.6439164836
 20
22.8331723637
 30
0.0
 10
-5.6439158504
 20
22.8332789725
 30
0.0
 10
-5.6438961494
 20
22.8332987313
 30
0.0
  0
LINE
  5
3FC
100
AcDbEntity
  8
0
100
AcDbLine
 62
253
  6
CONTINUOUS
 10
-5.6443245053
 20
22.3828465804
 11
-5.6443286849
 21
22.7832608583
  0
SPLINE
  5
3FD
100
AcDbEntity
  8
0
100
AcDbSpline
 62
253
  6
CONTINUOUS
 70
0
 71
3
 72
21
 73
17
 74
0
 42
0.0000001
 43
0.0000001
 44
0.0000000001
 40
0.0
 40
0.0
 40
0.0
 40
0.0
 40
0.0016726195
 40
0.0056899363
 40
0.0120686482
 40
0.0207973975
 40
0.0452216054
 40
0.0787355284
 40
0.121021991
 40
0.1716786371
 40
0.2302233309
 40
0.2960983986
 40
0.4472648164
 40
0.6194280825
 40
0.8060384242
 40
1.0
 40
1.0
 40
1.0
 40
1.0
 10
3.751262027
 20
22.8332987313
 30
0.0
 10
3.751281728
 20
22.8332789725
 30
0.0
 10
3.7512823612
 20
22.8331723637
 30
0.0
 10
3.7513136273
 20
22.8329826374
 30
0.0
 10
3.7513268264
 20
22.8326585106
 30
0.0
 10
3.7513611996
 20
22.8320030618
 30
0.0
 10
3.7513930617
 20
22.8308890235
 30
0.0
 10
3.7514330054
 20
22.8292186791
 30
0.0
 10
3.7514697792
 20
22.8271090349
 30
0.0
 10
3.75150566
 20
22.8245823472
 30
0.0
 10
3.7515391316
 20
22.8216618964
 30
0.0
 10
3.7515825002
 20
22.8170648451
 30
0.0
 10
3.7516271078
 20
22.81057234
 30
0.0
 10
3.7516655902
 20
22.8020657078
 30
0.0
 10
3.7516892988
 20
22.792845113
 30
0.0
 10
3.7516945842
 20
22.7864964868
 30
0.0
 10
3.7516945625
 20
22.7832608583
 30
0.0
  0
SPLINE
  5
3FE
100
AcDbEntity
  8
0
100
AcDbSpline
 62
253
  6
CONTINUOUS
 70
0
 71
3
 72
22
 73
18
 74
0
 42
0.0000001
 43
0.0000001
 44
0.0000000001
 40
0.0
 40
0.0
 40
0.0
 40
0.0
 40
0.1939856959
 40
0.3806195316
 40
0.5528048055
 40
0.7039900671
 40
0.7698726489
 40
0.8284230988
 40
0.8790833023
 40
0.9213703676
 40
0.9548811978
 40
0.968242511
 40
0.9792964291
 40
0.988016891
 40
0.9943833641
 40
0.9983800842
 40
1.0
 40
1.0
 40
1.0
 40
1.0
 10
-28.3443210698
 20
22.7830989674
 30
0.0
 10
-28.3443210873
 20
22.7992769648
 30
0.0
 10
-28.3443158144
 20
22.8310198305
 30
0.0
 10
-28.3442921013
 20
22.8771225789
 30
0.0
 10
-28.3442536305
 20
22.9196558508
 30
0.0
 10
-28.3442089951
 20
22.952118709
 30
0.0
 10
-28.3441656639
 20
22.9751046545
 30
0.0
 10
-28.3441320849
 20
22.9897070173
 30
0.0
 10
-28.3440965192
 20
23.0023415737
 30
0.0
 10
-28.3440588314
 20
23.0128878015
 30
0.0
 10
-28.3440254412
 20
23.0203235219
 30
0.0
 10
-28.3439952819
 20
23.0251541822
 30
0.0
 10
-28.3439771866
 20
23.0279179069
 30
0.0
 10
-28.3439511899
 20
23.0300969817
 30
0.0
 10
-28.3439448366
 20
23.0316905599
 30
0.0
 10
-28.3439010636
 20
23.0326857192
 30
0.0
 10
-28.3439150002
 20
23.0331586361
 30
0.0
 10
-28.3438885341
 20
23.0332911159
 30
0.0
  0
SPLINE
  5
3FF
100
AcDbEntity
  8
0
100
AcDbSpline
 62
253
  6
CONTINUOUS
 70
0
 71
3
 72
22
 73
18
 74
0
 42
0.0000001
 43
0.0000001
 44
0.0000000001
 40
0.0
 40
0.0
 40
0.0
 40
0.0
 40
0.1939856959
 40
0.3806195316
 40
0.5528048055
 40
0.7039900671
 40
0.7698726489
 40
0.8284230988
 40
0.8790833023
 40
0.9213703676
 40
0.9548811978
 40
0.968242511
 40
0.9792964291
 40
0.988016891
 40
0.9943833641
 40
0.9983800842
 40
1.0
 40
1.0
 40
1.0
 40
1.0
 10
-5.8443210698
 20
22.7830989674
 30
0.0
 10
-5.8443210873
 20
22.7992769648
 30
0.0
 10
-5.8443158144
 20
22.8310198305
 30
0.0
 10
-5.8442921013
 20
22.8771225789
 30
0.0
 10
-5.8442536305
 20
22.9196558508
 30
0.0
 10
-5.8442089951
 20
22.952118709
 30
0.0
 10
-5.8441656639
 20
22.9751046545
 30
0.0
 10
-5.8441320849
 20
22.9897070173
 30
0.0
 10
-5.8440965192
 20
23.0023415737
 30
0.0
 10
-5.8440588314
 20
23.0128878015
 30
0.0
 10
-5.8440254412
 20
23.0203235219
 30
0.0
 10
-5.8439952819
 20
23.0251541822
 30
0.0
 10
-5.8439771866
 20
23.0279179069
 30
0.0
 10
-5.8439511899
 20
23.0300969817
 30
0.0
 10
-5.8439448366
 20
23.0316905599
 30
0.0
 10
-5.8439010636
 20
23.0326857192
 30
0.0
 10
-5.8439150002
 20
23.0331586361
 30
0.0
 10
-5.8438885341
 20
23.0332911159
 30
0.0
  0
LINE
  5
400
100
AcDbEntity
  8
0
100
AcDbLine
 62
253
  6
CONTINUOUS
 10
3.7516945625
 20
22.7832608583
 11
3.7516903828
 21
22.3828466491
  0
SPLINE
  5
401
100
AcDbEntity
  8
0
100
AcDbSpline
 62
253
  6
CONTINUOUS
 70
0
 71
3
 72
22
 73
18
 74
0
 42
0.0000001
 43
0.0000001
 44
0.0000000001
 40
0.0
 40
0.0
 40
0.0
 40
0.0
 40
0.0016199158
 40
0.0056166359
 40
0.011983109
 40
0.0207035709
 40
0.031757489
 40
0.0451188022
 40
0.0786296324
 40
0.1209166977
 40
0.1715769012
 40
0.2301273511
 40
0.2960099329
 40
0.4471951945
 40
0.6193804684
 40
0.8060143041
 40
1.0
 40
1.0
 40
1.0
 40
1.0
 10
-18.5487455884
 20
23.0332911159
 30
0.0
 10
-18.5487191223
 20
23.0331586361
 30
0.0
 10
-18.5487330589
 20
23.0326857192
 30
0.0
 10
-18.5486892858
 20
23.0316905599
 30
0.0
 10
-18.5486829325
 20
23.0300969817
 30
0.0
 10
-18.5486569358
 20
23.0279179069
 30
0.0
 10
-18.5486388405
 20
23.0251541822
 30
0.0
 10
-18.5486086813
 20
23.0203235219
 30
0.0
 10
-18.548575291
 20
23.0128878015
 30
0.0
 10
-18.5485376033
 20
23.0023415737
 30
0.0
 10
-18.5485020375
 20
22.9897070173
 30
0.0
 10
-18.5484684585
 20
22.9751046545
 30
0.0
 10
-18.5484251274
 20
22.952118709
 30
0.0
 10
-18.5483804919
 20
22.9196558508
 30
0.0
 10
-18.5483420212
 20
22.8771225789
 30
0.0
 10
-18.5483183081
 20
22.8310198305
 30
0.0
 10
-18.5483130351
 20
22.7992769648
 30
0.0
 10
-18.5483130526
 20
22.7830989674
 30
0.0
  0
SPLINE
  5
402
100
AcDbEntity
  8
0
100
AcDbSpline
 62
253
  6
CONTINUOUS
 70
0
 71
3
 72
22
 73
18
 74
0
 42
0.0000001
 43
0.0000001
 44
0.0000000001
 40
0.0
 40
0.0
 40
0.0
 40
0.0
 40
0.0016199158
 40
0.0056166359
 40
0.011983109
 40
0.0207035709
 40
0.031757489
 40
0.0451188022
 40
0.0786296324
 40
0.1209166977
 40
0.1715769012
 40
0.2301273511
 40
0.2960099329
 40
0.4471951945
 40
0.6193804684
 40
0.8060143041
 40
1.0
 40
1.0
 40
1.0
 40
1.0
 10
3.9512544116
 20
23.0332911159
 30
0.0
 10
3.9512808777
 20
23.0331586361
 30
0.0
 10
3.9512669411
 20
23.0326857192
 30
0.0
 10
3.9513107142
 20
23.0316905599
 30
0.0
 10
3.9513170675
 20
23.0300969817
 30
0.0
 10
3.9513430642
 20
23.0279179069
 30
0.0
 10
3.9513611595
 20
23.0251541822
 30
0.0
 10
3.9513913187
 20
23.0203235219
 30
0.0
 10
3.951424709
 20
23.0128878015
 30
0.0
 10
3.9514623967
 20
23.0023415737
 30
0.0
 10
3.9514979625
 20
22.9897070173
 30
0.0
 10
3.9515315415
 20
22.9751046545
 30
0.0
 10
3.9515748726
 20
22.952118709
 30
0.0
 10
3.9516195081
 20
22.9196558508
 30
0.0
 10
3.9516579788
 20
22.8771225789
 30
0.0
 10
3.9516816919
 20
22.8310198305
 30
0.0
 10
3.9516869649
 20
22.7992769648
 30
0.0
 10
3.9516869474
 20
22.7830989674
 30
0.0
  0
SPLINE
  5
403
100
AcDbEntity
  8
0
100
AcDbSpline
 62
7
  6
CONTINUOUS
 70
0
 71
3
 72
15
 73
11
 74
0
 42
0.0000001
 43
0.0000001
 44
0.0000000001
 40
0.0
 40
0.0
 40
0.0
 40
0.0
 40
0.127122604
 40
0.2538626983
 40
0.3799656506
 40
0.505287163
 40
0.6298087868
 40
0.7536293827
 40
0.8769411034
 40
1.0
 40
1.0
 40
1.0
 40
1.0
 10
-5.6325310754
 20
23.5170766028
 30
0.0
 10
-5.632532079
 20
23.5039282763
 30
0.0
 10
-5.635146816
 20
23.4775970698
 30
0.0
 10
-5.6467249071
 20
23.4397851091
 30
0.0
 10
-5.6653997417
 20
23.4051264958
 30
0.0
 10
-5.6903177702
 20
23.3749539545
 30
0.0
 10
-5.7204116125
 20
23.3503202869
 30
0.0
 10
-5.7544893973
 20
23.3320200029
 30
0.0
 10
-5.7912681166
 20
23.3205959322
 30
0.0
 10
-5.8167771515
 20
23.317774746
 30
0.0
 10
-5.8295037144
 20
23.3175824112
 30
0.0
  0
SPLINE
  5
404
100
AcDbEntity
  8
ASSI
100
AcDbSpline
 62
7
  6
CONTINUOUS
 70
0
 71
3
 72
45
 73
41
 74
0
 42
0.0000001
 43
0.0000001
 44
0.0000000001
 40
0.0
 40
0.0
 40
0.0
 40
0.0
 40
0.0253403867
 40
0.051060638
 40
0.0771483205
 40
0.1034648524
 40
0.1299314449
 40
0.1564632885
 40
0.183014156
 40
0.209553657
 40
0.2360496363
 40
0.262488598
 40
0.2888875308
 40
0.3152704215
 40
0.3416525862
 40
0.3680399577
 40
0.3944349777
 40
0.4208404452
 40
0.4472550236
 40
0.4736756708
 40
0.5001007642
 40
0.5265258171
 40
0.5529464998
 40
0.5793614639
 40
0.6057681687
 40
0.6321648355
 40
0.6585532907
 40
0.6849349125
 40
0.7113152121
 40
0.7377115826
 40
0.7641508386
 40
0.7906528276
 40
0.8172006038
 40
0.8437532708
 40
0.87027159
 40
0.8967066428
 40
0.9229796475
 40
0.9490191069
 40
0.9746949291
 40
1.0
 40
1.0
 40
1.0
 40
1.0
 10
-11.1729235224
 20
37.417634784
 30
0.0
 10
-11.175919886
 20
37.4102618071
 30
0.0
 10
-11.1826050446
 20
37.3956603429
 30
0.0
 10
-11.1945031773
 20
37.3745227764
 30
0.0
 10
-11.2082920537
 20
37.3541928139
 30
0.0
 10
-11.223859397
 20
37.3348891248
 30
0.0
 10
-11.2410579481
 20
37.3168299818
 30
0.0
 10
-11.2597368953
 20
37.3001957397
 30
0.0
 10
-11.2797425977
 20
37.2851443076
 30
0.0
 10
-11.3009212579
 20
37.2718147032
 30
0.0
 10
-11.3230981936
 20
37.26029868
 30
0.0
 10
-11.3461114379
 20
37.2506735661
 30
0.0
 10
-11.3698156611
 20
37.2430179799
 30
0.0
 10
-11.3940579651
 20
37.2373706589
 30
0.0
 10
-11.4186801455
 20
37.2337464321
 30
0.0
 10
-11.4435221488
 20
37.2321737452
 30
0.0
 10
-11.4684160242
 20
37.2326755471
 30
0.0
 10
-11.4931915261
 20
37.2352317273
 30
0.0
 10
-11.517679955
 20
37.2398250962
 30
0.0
 10
-11.5417070758
 20
37.2464431063
 30
0.0
 10
-11.565105367
 20
37.2550315581
 30
0.0
 10
-11.5877158404
 20
37.2655200036
 30
0.0
 10
-11.6093769069
 20
37.2778449381
 30
0.0
 10
-11.6299316129
 20
37.2919272933
 30
0.0
 10
-11.6492479217
 20
37.3076527788
 30
0.0
 10
-11.6671944901
 20
37.3249136917
 30
0.0
 10
-11.6836362285
 20
37.3436033232
 30
0.0
 10
-11.6984697185
 20
37.3635863885
 30
0.0
 10
-11.7116027731
 20
37.3847290976
 30
0.0
 10
-11.7229354678
 20
37.4069099959
 30
0.0
 10
-11.732386549
 20
37.4299965595
 30
0.0
 10
-11.7399090562
 20
37.4538309172
 30
0.0
 10
-11.7454426075
 20
37.4782408898
 30
0.0
 10
-11.7489279474
 20
37.5030314493
 30
0.0
 10
-11.7503553423
 20
37.5279890599
 30
0.0
 10
-11.7497315156
 20
37.5528917067
 30
0.0
 10
-11.7470805854
 20
37.5775092162
 30
0.0
 10
-11.7424539936
 20
37.6015909045
 30
0.0
 10
-11.7359261213
 20
37.6249103173
 30
0.0
 10
-11.7303354316
 20
37.6399379839
 30
0.0
 10
-11.7272449683
 20
37.647259978
 30
0.0
  0
SPLINE
  5
405
100
AcDbEntity
  8
0
100
AcDbSpline
 62
7
  6
CONTINUOUS
 70
0
 71
3
 72
15
 73
11
 74
0
 42
0.0000001
 43
0.0000001
 44
0.0000000001
 40
0.0
 40
0.0
 40
0.0
 40
0.0
 40
0.127122604
 40
0.2538626983
 40
0.3799656506
 40
0.505287163
 40
0.6298087868
 40
0.7536293827
 40
0.8769411034
 40
1.0
 40
1.0
 40
1.0
 40
1.0
 10
3.7398969529
 20
23.5170766028
 30
0.0
 10
3.7398979566
 20
23.5039282763
 30
0.0
 10
3.7425126935
 20
23.4775970698
 30
0.0
 10
3.7540907847
 20
23.4397851091
 30
0.0
 10
3.7727656192
 20
23.4051264958
 30
0.0
 10
3.7976836477
 20
23.3749539545
 30
0.0
 10
3.8277774901
 20
23.3503202869
 30
0.0
 10
3.8618552749
 20
23.3320200029
 30
0.0
 10
3.8986339941
 20
23.3205959322
 30
0.0
 10
3.924143029
 20
23.317774746
 30
0.0
 10
3.9368695919
 20
23.3175824112
 30
0.0
  0
SPLINE
  5
406
100
AcDbEntity
  8
0
100
AcDbSpline
 62
7
  6
CONTINUOUS
 70
0
 71
3
 72
15
 73
11
 74
0
 42
0.0000001
 43
0.0000001
 44
0.0000000001
 40
0.0
 40
0.0
 40
0.0
 40
0.0
 40
0.127122604
 40
0.2538626983
 40
0.3799656506
 40
0.505287163
 40
0.6298087868
 40
0.7536293827
 40
0.8769411034
 40
1.0
 40
1.0
 40
1.0
 40
1.0
 10
-28.1325310754
 20
23.5170766028
 30
0.0
 10
-28.132532079
 20
23.5039282763
 30
0.0
 10
-28.135146816
 20
23.4775970698
 30
0.0
 10
-28.1467249071
 20
23.4397851091
 30
0.0
 10
-28.1653997417
 20
23.4051264958
 30
0.0
 10
-28.1903177702
 20
23.3749539545
 30
0.0
 10
-28.2204116125
 20
23.3503202869
 30
0.0
 10
-28.2544893973
 20
23.3320200029
 30
0.0
 10
-28.2912681166
 20
23.3205959322
 30
0.0
 10
-28.3167771515
 20
23.317774746
 30
0.0
 10
-28.3295037144
 20
23.3175824112
 30
0.0
  0
SPLINE
  5
407
100
AcDbEntity
  8
0
100
AcDbSpline
 62
7
  6
CONTINUOUS
 70
0
 71
3
 72
15
 73
11
 74
0
 42
0.0000001
 43
0.0000001
 44
0.0000000001
 40
0.0
 40
0.0
 40
0.0
 40
0.0
 40
0.127122604
 40
0.2538626983
 40
0.3799656506
 40
0.505287163
 40
0.6298087868
 40
0.7536293827
 40
0.8769411034
 40
1.0
 40
1.0
 40
1.0
 40
1.0
 10
-18.7601030471
 20
23.5170766028
 30
0.0
 10
-18.7601020434
 20
23.5039282763
 30
0.0
 10
-18.7574873065
 20
23.4775970698
 30
0.0
 10
-18.7459092153
 20
23.4397851091
 30
0.0
 10
-18.7272343808
 20
23.4051264958
 30
0.0
 10
-18.7023163523
 20
23.3749539545
 30
0.0
 10
-18.6722225099
 20
23.3503202869
 30
0.0
 10
-18.6381447251
 20
23.3320200029
 30
0.0
 10
-18.6013660059
 20
23.3205959322
 30
0.0
 10
-18.575856971
 20
23.317774746
 30
0.0
 10
-18.5631304081
 20
23.3175824112
 30
0.0
  0
SPLINE
  5
408
100
AcDbEntity
  8
0
100
AcDbSpline
 62
253
  6
CONTINUOUS
 70
0
 71
3
 72
9
 73
5
 74
0
 42
0.0000001
 43
0.0000001
 44
0.0000000001
 40
0.0
 40
0.0
 40
0.0
 40
0.0
 40
0.2500142686
 40
1.0
 40
1.0
 40
1.0
 40
1.0
 10
-33.9144267934
 20
23.5786386575
 30
0.0
 10
-33.9144478459
 20
24.3372012973
 30
0.0
 10
-33.9147783013
 20
27.3712786761
 30
0.0
 10
-33.9160644658
 20
30.4053559522
 30
0.0
 10
-33.9175730198
 20
32.6808702041
 30
0.0
  0
SPLINE
  5
409
100
AcDbEntity
  8
0
100
AcDbSpline
 62
253
  6
CONTINUOUS
 70
0
 71
3
 72
9
 73
5
 74
0
 42
0.0000001
 43
0.0000001
 44
0.0000000001
 40
0.0
 40
0.0
 40
0.0
 40
0.0
 40
0.2500142684
 40
1.0
 40
1.0
 40
1.0
 40
1.0
 10
-34.414125264
 20
23.5763341868
 30
0.0
 10
-34.4141462199
 20
24.3342971642
 30
0.0
 10
-34.4144708441
 20
27.3659760338
 30
0.0
 10
-34.415759563
 20
30.3976548002
 30
0.0
 10
-34.4172684333
 20
32.6713702041
 30
0.0
  0
SPLINE
  5
40A
100
AcDbEntity
  8
0
100
AcDbSpline
 62
253
  6
CONTINUOUS
 70
0
 71
3
 72
21
 73
17
 74
0
 42
0.0000001
 43
0.0000001
 44
0.0000000001
 40
0.0
 40
0.0
 40
0.0
 40
0.0
 40
0.1909197107
 40
0.374824463
 40
0.544955972
 40
0.695062942
 40
0.7608491553
 40
0.8196299865
 40
0.8708643051
 40
0.9140805134
 40
0.948880932
 40
0.9749455967
 40
0.984623989
 40
0.9920357527
 40
0.9971640065
 40
1.0
 40
1.0
 40
1.0
 40
1.0
 10
-33.9144267934
 20
23.5786386584
 30
0.0
 10
-33.9462286303
 20
23.5786382127
 30
0.0
 10
-34.0086638134
 20
23.5786092269
 30
0.0
 10
-34.0994380283
 20
23.5784824423
 30
0.0
 10
-34.1834138312
 20
23.5782776097
 30
0.0
 10
-34.2477142449
 20
23.5780405386
 30
0.0
 10
-34.2934666121
 20
23.5778106604
 30
0.0
 10
-34.3227496296
 20
23.5776323636
 30
0.0
 10
-34.3482729325
 20
23.577442241
 30
0.0
 10
-34.3698016482
 20
23.5772435059
 30
0.0
 10
-34.3871372994
 20
23.5770365175
 30
0.0
 10
-34.3988867665
 20
23.576851936
 30
0.0
 10
-34.4060729312
 20
23.576688145
 30
0.0
 10
-34.4097731503
 20
23.5765842565
 30
0.0
 10
-34.4123306111
 20
23.5764710886
 30
0.0
 10
-34.4136571936
 20
23.5763979827
 30
0.0
 10
-34.414125264
 20
23.5763341978
 30
0.0
  0
SPLINE
  5
40B
100
AcDbEntity
  8
0
100
AcDbSpline
 62
253
  6
CONTINUOUS
 70
0
 71
3
 72
23
 73
19
 74
0
 42
0.0000001
 43
0.0000001
 44
0.0000000001
 40
0.0
 40
0.0
 40
0.0
 40
0.0
 40
0.002968815
 40
0.0081697644
 40
0.0156296374
 40
0.0253421366
 40
0.0372910006
 40
0.0514505226
 40
0.0862732478
 40
0.1294972993
 40
0.1807283145
 40
0.2394967258
 40
0.3052628263
 40
0.3774220668
 40
0.4553107854
 40
0.6253639882
 40
0.8091775529
 40
1.0
 40
1.0
 40
1.0
 40
1.0
 10
-34.4172684333
 20
32.6713702041
 30
0.0
 10
-34.4168339657
 20
32.671606924
 30
0.0
 10
-34.4154858089
 20
32.6719246198
 30
0.0
 10
-34.4129320598
 20
32.6723643669
 30
0.0
 10
-34.4092196754
 20
32.672789504
 30
0.0
 10
-34.4043892392
 20
32.6732308517
 30
0.0
 10
-34.3984341252
 20
32.6736671585
 30
0.0
 10
-34.3882990979
 20
32.674290855
 30
0.0
 10
-34.372948965
 20
32.6750242887
 30
0.0
 10
-34.3514192109
 20
32.6758336575
 30
0.0
 10
-34.3258950566
 20
32.6766068513
 30
0.0
 10
-34.2966116676
 20
32.677336377
 30
0.0
 10
-34.2638383689
 20
32.6780136455
 30
0.0
 10
-34.2278769015
 20
32.6786319714
 30
0.0
 10
-34.1745354447
 20
32.6793916148
 30
0.0
 10
-34.1025843104
 20
32.6801341746
 30
0.0
 10
-34.0118100794
 20
32.6806956
 30
0.0
 10
-33.9493747327
 20
32.6808491076
 30
0.0
 10
-33.9175730198
 20
32.6808702041
 30
0.0
  0
SPLINE
  5
40C
100
AcDbEntity
  8
0
100
AcDbSpline
 62
253
  6
CONTINUOUS
 70
0
 71
3
 72
20
 73
16
 74
0
 42
0.0000001
 43
0.0000001
 44
0.0000000001
 40
0.0
 40
0.0
 40
0.0
 40
0.0
 40
0.0159232899
 40
0.0259135898
 40
0.0375677482
 40
0.0663141742
 40
0.1026498183
 40
0.1465813204
 40
0.1978944324
 40
0.2562348761
 40
0.3211452999
 40
0.468436839
 40
0.6346919774
 40
0.814019083
 40
1.0
 40
1.0
 40
1.0
 40
1.0
 10
-34.4516312871
 20
44.3137255325
 30
0.0
 10
-34.4510173479
 20
44.316379385
 30
0.0
 10
-34.4485246227
 20
44.3203214671
 30
0.0
 10
-34.4438416182
 20
44.3247003894
 30
0.0
 10
-34.4368151234
 20
44.3297474914
 30
0.0
 10
-34.4250699032
 20
44.3357246797
 30
0.0
 10
-34.4076120005
 20
44.3423328573
 30
0.0
 10
-34.3860080083
 20
44.3487098199
 30
0.0
 10
-34.3604414615
 20
44.3547986615
 30
0.0
 10
-34.3311282684
 20
44.3605328078
 30
0.0
 10
-34.2854380772
 20
44.3679411242
 30
0.0
 10
-34.2211343206
 20
44.3756776661
 30
0.0
 10
-34.1370810226
 20
44.3824966163
 30
0.0
 10
-34.0462408399
 20
44.386899383
 30
0.0
 10
-33.9837505513
 20
44.3881028419
 30
0.0
 10
-33.9519358736
 20
44.3882666202
 30
0.0
  0
SPLINE
  5
40D
100
AcDbEntity
  8
0
100
AcDbSpline
 62
253
  6
CONTINUOUS
 70
0
 71
3
 72
23
 73
19
 74
0
 42
0.0000001
 43
0.0000001
 44
0.0000000001
 40
0.0
 40
0.0
 40
0.0
 40
0.0
 40
0.1955416664
 40
0.380249941
 40
0.548731572
 40
0.625328356
 40
0.6960700277
 40
0.7604400526
 40
0.817968763
 40
0.8682369159
 40
0.910879009
 40
0.9455865103
 40
0.9598849415
 40
0.9721120399
 40
0.9822471358
 40
0.9902757963
 40
0.9961904387
 40
1.0
 40
1.0
 40
1.0
 40
1.0
 10
-33.9519358736
 20
44.3882666237
 30
0.0
 10
-33.9520816846
 20
44.4436662497
 30
0.0
 10
-33.9525254796
 20
44.5513959265
 30
0.0
 10
-33.9536740668
 20
44.7068556465
 30
0.0
 10
-33.9550299506
 20
44.8286133783
 30
0.0
 10
-33.9563523103
 20
44.9180801532
 30
0.0
 10
-33.9574042176
 20
44.9780511296
 30
0.0
 10
-33.9585392243
 20
45.032617297
 30
0.0
 10
-33.9597483441
 20
45.0813798512
 30
0.0
 10
-33.961020216
 20
45.1239827188
 30
0.0
 10
-33.9623446544
 20
45.160114649
 30
0.0
 10
-33.963540269
 20
45.1860532388
 30
0.0
 10
-33.9645506984
 20
45.2033720688
 30
0.0
 10
-33.9652636105
 20
45.2137346811
 30
0.0
 10
-33.9659809273
 20
45.2223143374
 30
0.0
 10
-33.9666895843
 20
45.2291025336
 30
0.0
 10
-33.9674005966
 20
45.2340776572
 30
0.0
 10
-33.9679462565
 20
45.2367899801
 30
0.0
 10
-33.9682873293
 20
45.237813976
 30
0.0
  0
SPLINE
  5
40E
100
AcDbEntity
  8
0
100
AcDbSpline
 62
253
  6
CONTINUOUS
 70
0
 71
3
 72
22
 73
18
 74
0
 42
0.0000001
 43
0.0000001
 44
0.0000000001
 40
0.0
 40
0.0
 40
0.0
 40
0.0
 40
0.1953199683
 40
0.3798177671
 40
0.5481104127
 40
0.6246256669
 40
0.6952977144
 40
0.7596131818
 40
0.817106248
 40
0.8673625297
 40
0.9100230766
 40
0.9447892697
 40
0.9714307852
 40
0.9816574449
 40
0.9898115878
 40
0.9959059558
 40
1.0
 40
1.0
 40
1.0
 40
1.0
 10
-34.4516312871
 20
44.3137255325
 30
0.0
 10
-34.4517771648
 20
44.3414317058
 30
0.0
 10
-34.4522210663
 20
44.3953082716
 30
0.0
 10
-34.453370027
 20
44.4730509664
 30
0.0
 10
-34.454726262
 20
44.5339346356
 30
0.0
 10
-34.4560488369
 20
44.578666775
 30
0.0
 10
-34.4571008594
 20
44.6086506324
 30
0.0
 10
-34.458236065
 20
44.6359310212
 30
0.0
 10
-34.4594450084
 20
44.6603092012
 30
0.0
 10
-34.460717818
 20
44.6816074763
 30
0.0
 10
-34.4620400989
 20
44.6996724493
 30
0.0
 10
-34.4634024079
 20
44.7143718548
 30
0.0
 10
-34.4646274126
 20
44.7244639542
 30
0.0
 10
-34.4656777865
 20
44.7307632282
 30
0.0
 10
-34.4663921141
 20
44.7341652777
 30
0.0
 10
-34.4671019567
 20
44.7366648044
 30
0.0
 10
-34.4676607504
 20
44.7380158969
 30
0.0
 10
-34.4679827428
 20
44.7384992086
 30
0.0
  0
SPLINE
  5
40F
100
AcDbEntity
  8
0
100
AcDbSpline
 62
253
  6
CONTINUOUS
 70
0
 71
3
 72
9
 73
5
 74
0
 42
0.0000001
 43
0.0000001
 44
0.0000000001
 40
0.0
 40
0.0
 40
0.0
 40
0.0
 40
0.2499804772
 40
1.0
 40
1.0
 40
1.0
 40
1.0
 10
10.0246343108
 20
32.6713702041
 30
0.0
 10
10.0241313838
 20
31.9135098372
 30
0.0
 10
10.0223605845
 20
28.8818314673
 30
0.0
 10
10.0215540071
 20
25.8501525344
 30
0.0
 10
10.0214911416
 20
23.5763341868
 30
0.0
  0
SPLINE
  5
410
100
AcDbEntity
  8
0
100
AcDbSpline
 62
253
  6
CONTINUOUS
 70
0
 71
3
 72
23
 73
19
 74
0
 42
0.0000001
 43
0.0000001
 44
0.0000000001
 40
0.0
 40
0.0
 40
0.0
 40
0.0
 40
0.002968815
 40
0.0081697643
 40
0.0156296373
 40
0.0253421364
 40
0.0372910005
 40
0.0514505225
 40
0.0862732476
 40
0.1294972991
 40
0.1807283142
 40
0.2394967255
 40
0.3052628261
 40
0.3774220666
 40
0.4553107852
 40
0.625363988
 40
0.8091775528
 40
1.0
 40
1.0
 40
1.0
 40
1.0
 10
10.0246343108
 20
32.6713702041
 30
0.0
 10
10.0241998433
 20
32.671606924
 30
0.0
 10
10.0228516865
 20
32.6719246198
 30
0.0
 10
10.0202979374
 20
32.6723643669
 30
0.0
 10
10.016585553
 20
32.672789504
 30
0.0
 10
10.0117551168
 20
32.6732308517
 30
0.0
 10
10.0058000028
 20
32.6736671585
 30
0.0
 10
9.9956649756
 20
32.674290855
 30
0.0
 10
9.9803148426
 20
32.6750242887
 30
0.0
 10
9.9587850886
 20
32.6758336575
 30
0.0
 10
9.9332609342
 20
32.6766068513
 30
0.0
 10
9.9039775453
 20
32.677336377
 30
0.0
 10
9.8712042466
 20
32.6780136455
 30
0.0
 10
9.8352427792
 20
32.6786319714
 30
0.0
 10
9.7819013224
 20
32.6793916148
 30
0.0
 10
9.709950188
 20
32.6801341746
 30
0.0
 10
9.619175957
 20
32.6806956
 30
0.0
 10
9.5567406103
 20
32.6808491076
 30
0.0
 10
9.5249388973
 20
32.6808702041
 30
0.0
  0
SPLINE
  5
411
100
AcDbEntity
  8
0
100
AcDbSpline
 62
253
  6
CONTINUOUS
 70
0
 71
3
 72
9
 73
5
 74
0
 42
0.0000001
 43
0.0000001
 44
0.0000000001
 40
0.0
 40
0.0
 40
0.0
 40
0.0
 40
0.2499804789
 40
1.0
 40
1.0
 40
1.0
 40
1.0
 10
9.5249388973
 20
32.6808702041
 30
0.0
 10
9.5244360757
 20
31.9224102514
 30
0.0
 10
9.5226658821
 20
28.8883333711
 30
0.0
 10
9.5218558264
 20
25.8542559293
 30
0.0
 10
9.5217926709
 20
23.5786386575
 30
0.0
  0
SPLINE
  5
412
100
AcDbEntity
  8
0
100
AcDbSpline
 62
253
  6
CONTINUOUS
 70
0
 71
3
 72
21
 73
17
 74
0
 42
0.0000001
 43
0.0000001
 44
0.0000000001
 40
0.0
 40
0.0
 40
0.0
 40
0.0
 40
0.0028359935
 40
0.0079642473
 40
0.015376011
 40
0.0250544033
 40
0.051119068
 40
0.0859194866
 40
0.1291356949
 40
0.1803700135
 40
0.2391508447
 40
0.304937058
 40
0.455044028
 40
0.625175537
 40
0.8090802893
 40
1.0
 40
1.0
 40
1.0
 40
1.0
 10
10.0214911416
 20
23.5763341978
 30
0.0
 10
10.0210230711
 20
23.5763979827
 30
0.0
 10
10.0196964886
 20
23.5764710886
 30
0.0
 10
10.0171390279
 20
23.5765842565
 30
0.0
 10
10.0134388088
 20
23.576688145
 30
0.0
 10
10.006252644
 20
23.576851936
 30
0.0
 10
9.994503177
 20
23.5770365175
 30
0.0
 10
9.9771675257
 20
23.5772435059
 30
0.0
 10
9.9556388101
 20
23.577442241
 30
0.0
 10
9.9301155071
 20
23.5776323636
 30
0.0
 10
9.9008324897
 20
23.5778106604
 30
0.0
 10
9.8550801224
 20
23.5780405386
 30
0.0
 10
9.7907797087
 20
23.5782776097
 30
0.0
 10
9.7068039059
 20
23.5784824423
 30
0.0
 10
9.6160296909
 20
23.5786092269
 30
0.0
 10
9.5535945079
 20
23.5786382127
 30
0.0
 10
9.5217926709
 20
23.5786386584
 30
0.0
  0
SPLINE
  5
413
100
AcDbEntity
  8
0
100
AcDbSpline
 62
253
  6
CONTINUOUS
 70
0
 71
3
 72
20
 73
16
 74
0
 42
0.0000001
 43
0.0000001
 44
0.0000000001
 40
0.0
 40
0.0
 40
0.0
 40
0.0
 40
0.0159232887
 40
0.0259135877
 40
0.037567745
 40
0.0663141691
 40
0.1026498113
 40
0.1465813119
 40
0.1978944228
 40
0.2562348658
 40
0.3211452892
 40
0.4684368291
 40
0.6346919697
 40
0.8140190788
 40
1.0
 40
1.0
 40
1.0
 40
1.0
 10
10.0589971647
 20
44.3137255325
 30
0.0
 10
10.0583832261
 20
44.316379385
 30
0.0
 10
10.0558905018
 20
44.3203214673
 30
0.0
 10
10.0512074981
 20
44.3247003897
 30
0.0
 10
10.0441810042
 20
44.3297474919
 30
0.0
 10
10.032435785
 20
44.3357246805
 30
0.0
 10
10.0149778832
 20
44.3423328583
 30
0.0
 10
9.9933738918
 20
44.3487098212
 30
0.0
 10
9.9678073455
 20
44.354798663
 30
0.0
 10
9.9384941527
 20
44.3605328096
 30
0.0
 10
9.8928039614
 20
44.3679411263
 30
0.0
 10
9.8285002041
 20
44.3756776687
 30
0.0
 10
9.7444469047
 20
44.3824966194
 30
0.0
 10
9.6536067199
 20
44.3868993863
 30
0.0
 10
9.5911164298
 20
44.3881028453
 30
0.0
 10
9.5593017512
 20
44.3882666236
 30
0.0
  0
SPLINE
  5
414
100
AcDbEntity
  8
0
100
AcDbSpline
 62
253
  6
CONTINUOUS
 70
0
 71
3
 72
23
 73
19
 74
0
 42
0.0000001
 43
0.0000001
 44
0.0000000001
 40
0.0
 40
0.0
 40
0.0
 40
0.0
 40
0.0038095613
 40
0.0097242037
 40
0.0177528642
 40
0.0278879601
 40
0.0401150585
 40
0.0544134897
 40
0.089120991
 40
0.1317630841
 40
0.182031237
 40
0.2395599474
 40
0.3039299723
 40
0.374671644
 40
0.451268428
 40
0.619750059
 40
0.8044583336
 40
1.0
 40
1.0
 40
1.0
 40
1.0
 10
9.5756532069
 20
45.237813976
 30
0.0
 10
9.575312134
 20
45.2367899801
 30
0.0
 10
9.5747664742
 20
45.2340776572
 30
0.0
 10
9.5740554619
 20
45.2291025336
 30
0.0
 10
9.5733468048
 20
45.2223143374
 30
0.0
 10
9.572629488
 20
45.2137346811
 30
0.0
 10
9.571916576
 20
45.2033720688
 30
0.0
 10
9.5709061466
 20
45.1860532388
 30
0.0
 10
9.5697105319
 20
45.160114649
 30
0.0
 10
9.5683860935
 20
45.1239827188
 30
0.0
 10
9.5671142217
 20
45.0813798512
 30
0.0
 10
9.5659051018
 20
45.032617297
 30
0.0
 10
9.5647700952
 20
44.9780511296
 30
0.0
 10
9.5637181879
 20
44.9180801532
 30
0.0
 10
9.5623958282
 20
44.8286133783
 30
0.0
 10
9.5610399444
 20
44.7068556465
 30
0.0
 10
9.5598913571
 20
44.5513959265
 30
0.0
 10
9.5594475621
 20
44.4436662497
 30
0.0
 10
9.5593017512
 20
44.3882666237
 30
0.0
  0
SPLINE
  5
415
100
AcDbEntity
  8
0
100
AcDbSpline
 62
253
  6
CONTINUOUS
 70
0
 71
3
 72
22
 73
18
 74
0
 42
0.0000001
 43
0.0000001
 44
0.0000000001
 40
0.0
 40
0.0
 40
0.0
 40
0.0
 40
0.0040940442
 40
0.0101884122
 40
0.0183425551
 40
0.0285692148
 40
0.0552107303
 40
0.0899769234
 40
0.1326374703
 40
0.182893752
 40
0.2403868182
 40
0.3047022856
 40
0.3753743331
 40
0.4518895873
 40
0.6201822329
 40
0.8046800317
 40
1.0
 40
1.0
 40
1.0
 40
1.0
 10
10.0753486204
 20
44.7384992086
 30
0.0
 10
10.0750266279
 20
44.7380158969
 30
0.0
 10
10.0744678343
 20
44.7366648044
 30
0.0
 10
10.0737579917
 20
44.7341652777
 30
0.0
 10
10.0730436641
 20
44.7307632282
 30
0.0
 10
10.0719932902
 20
44.7244639542
 30
0.0
 10
10.0707682854
 20
44.7143718548
 30
0.0
 10
10.0694059764
 20
44.6996724493
 30
0.0
 10
10.0680836956
 20
44.6816074763
 30
0.0
 10
10.066810886
 20
44.6603092012
 30
0.0
 10
10.0656019425
 20
44.6359310212
 30
0.0
 10
10.0644667369
 20
44.6086506324
 30
0.0
 10
10.0634147144
 20
44.578666775
 30
0.0
 10
10.0620921396
 20
44.5339346356
 30
0.0
 10
10.0607359046
 20
44.4730509664
 30
0.0
 10
10.0595869439
 20
44.3953082716
 30
0.0
 10
10.0591430423
 20
44.3414317058
 30
0.0
 10
10.0589971647
 20
44.3137255325
 30
0.0
  0
SPLINE
  5
416
100
AcDbEntity
  8
0
100
AcDbSpline
 62
253
  6
CONTINUOUS
 70
0
 71
3
 72
21
 73
17
 74
0
 42
0.0000001
 43
0.0000001
 44
0.0000000001
 40
0.0
 40
0.0
 40
0.0
 40
0.0
 40
0.1939615758
 40
0.3805719175
 40
0.5527351836
 40
0.7039016014
 40
0.7697766691
 40
0.8283213629
 40
0.878978009
 40
0.9212644716
 40
0.9547783946
 40
0.9792026025
 40
0.9879313518
 40
0.9943100637
 40
0.9983273805
 40
1.0
 40
1.0
 40
1.0
 40
1.0
 10
3.7516945625
 20
23.5784795499
 30
0.0
 10
3.7516945842
 20
23.5752439214
 30
0.0
 10
3.7516892988
 20
23.5688952951
 30
0.0
 10
3.7516655902
 20
23.5596747004
 30
0.0
 10
3.7516271078
 20
23.5511680681
 30
0.0
 10
3.7515825002
 20
23.5446755631
 30
0.0
 10
3.7515391316
 20
23.5400785118
 30
0.0
 10
3.75150566
 20
23.537158061
 30
0.0
 10
3.7514697792
 20
23.5346313733
 30
0.0
 10
3.7514330054
 20
23.5325217291
 30
0.0
 10
3.7513930617
 20
23.5308513847
 30
0.0
 10
3.7513611996
 20
23.5297373463
 30
0.0
 10
3.7513268264
 20
23.5290818975
 30
0.0
 10
3.7513136273
 20
23.5287577708
 30
0.0
 10
3.7512823612
 20
23.5285680444
 30
0.0
 10
3.751281728
 20
23.5284614357
 30
0.0
 10
3.751262027
 20
23.5284416769
 30
0.0
  0
LINE
  5
417
100
AcDbEntity
  8
0
100
AcDbLine
 62
253
  6
CONTINUOUS
 10
3.7516903828
 20
23.9788938278
 11
3.7516945625
 21
23.5784795499
  0
SPLINE
  5
418
100
AcDbEntity
  8
0
100
AcDbSpline
 62
253
  6
CONTINUOUS
 70
0
 71
3
 72
21
 73
17
 74
0
 42
0.0000001
 43
0.0000001
 44
0.0000000001
 40
0.0
 40
0.0
 40
0.0
 40
0.0
 40
0.0016726195
 40
0.0056899363
 40
0.0120686482
 40
0.0207973975
 40
0.0452216054
 40
0.0787355284
 40
0.121021991
 40
0.1716786371
 40
0.2302233309
 40
0.2960983986
 40
0.4472648164
 40
0.6194280825
 40
0.8060384242
 40
1.0
 40
1.0
 40
1.0
 40
1.0
 10
-5.6438961494
 20
23.5284416769
 30
0.0
 10
-5.6439158504
 20
23.5284614357
 30
0.0
 10
-5.6439164836
 20
23.5285680444
 30
0.0
 10
-5.6439477498
 20
23.5287577708
 30
0.0
 10
-5.6439609488
 20
23.5290818975
 30
0.0
 10
-5.6439953221
 20
23.5297373463
 30
0.0
 10
-5.6440271842
 20
23.5308513847
 30
0.0
 10
-5.6440671279
 20
23.5325217291
 30
0.0
 10
-5.6441039017
 20
23.5346313733
 30
0.0
 10
-5.6441397824
 20
23.537158061
 30
0.0
 10
-5.6441732541
 20
23.5400785118
 30
0.0
 10
-5.6442166227
 20
23.5446755631
 30
0.0
 10
-5.6442612303
 20
23.5511680681
 30
0.0
 10
-5.6442997126
 20
23.5596747004
 30
0.0
 10
-5.6443234212
 20
23.5688952951
 30
0.0
 10
-5.6443287067
 20
23.5752439214
 30
0.0
 10
-5.6443286849
 20
23.5784795499
 30
0.0
  0
LINE
  5
419
100
AcDbEntity
  8
0
100
AcDbLine
 62
253
  6
CONTINUOUS
 10
-5.6443286849
 20
23.5784795499
 11
-5.6443245053
 21
23.9788937591
  0
SPLINE
  5
41A
100
AcDbEntity
  8
0
100
AcDbSpline
 62
253
  6
CONTINUOUS
 70
0
 71
3
 72
21
 73
17
 74
0
 42
0.0000001
 43
0.0000001
 44
0.0000000001
 40
0.0
 40
0.0
 40
0.0
 40
0.0
 40
0.1909063438
 40
0.3747981006
 40
0.5449176155
 40
0.6950146153
 40
0.760797057
 40
0.8195752227
 40
0.8708082842
 40
0.9140250326
 40
0.9488284245
 40
0.9748994945
 40
0.9845832666
 40
0.9920026539
 40
0.9971424151
 40
1.0
 40
1.0
 40
1.0
 40
1.0
 10
-33.9144298074
 20
23.3284492923
 30
0.0
 10
-33.9303307744
 20
23.3284492904
 30
0.0
 10
-33.9615484558
 20
23.3284235249
 30
0.0
 10
-34.006935601
 20
23.3283085299
 30
0.0
 10
-34.0489233867
 20
23.3281219363
 30
0.0
 10
-34.0810733234
 20
23.32790554
 30
0.0
 10
-34.1039491413
 20
23.3276954822
 30
0.0
 10
-34.1185904582
 20
23.3275324669
 30
0.0
 10
-34.1313519201
 20
23.3273585641
 30
0.0
 10
-34.1421162544
 20
23.3271766774
 30
0.0
 10
-34.1507839606
 20
23.3269872338
 30
0.0
 10
-34.1566590417
 20
23.326818055
 30
0.0
 10
-34.1602514467
 20
23.3266681958
 30
0.0
 10
-34.1621027704
 20
23.326572617
 30
0.0
 10
-34.1633807505
 20
23.3264695628
 30
0.0
 10
-34.1640465437
 20
23.3264014161
 30
0.0
 10
-34.1642774613
 20
23.3263437301
 30
0.0
  0
SPLINE
  5
41B
100
AcDbEntity
  8
0
100
AcDbSpline
 62
253
  6
CONTINUOUS
 70
0
 71
3
 72
21
 73
17
 74
0
 42
0.0000001
 43
0.0000001
 44
0.0000000001
 40
0.0
 40
0.0
 40
0.0
 40
0.0
 40
0.0028575849
 40
0.0079973461
 40
0.0154167334
 40
0.0251005055
 40
0.0511715755
 40
0.0859749674
 40
0.1291917158
 40
0.1804247773
 40
0.239202943
 40
0.3049853847
 40
0.4550823845
 40
0.6252018994
 40
0.8090936562
 40
1.0
 40
1.0
 40
1.0
 40
1.0
 10
9.7716433388
 20
23.3263437301
 30
0.0
 10
9.7714124212
 20
23.3264014161
 30
0.0
 10
9.7707466281
 20
23.3264695628
 30
0.0
 10
9.7694686479
 20
23.326572617
 30
0.0
 10
9.7676173242
 20
23.3266681958
 30
0.0
 10
9.7640249193
 20
23.326818055
 30
0.0
 10
9.7581498382
 20
23.3269872338
 30
0.0
 10
9.749482132
 20
23.3271766774
 30
0.0
 10
9.7387177977
 20
23.3273585641
 30
0.0
 10
9.7259563358
 20
23.3275324669
 30
0.0
 10
9.7113150189
 20
23.3276954822
 30
0.0
 10
9.6884392009
 20
23.32790554
 30
0.0
 10
9.6562892643
 20
23.3281219363
 30
0.0
 10
9.6143014785
 20
23.3283085299
 30
0.0
 10
9.5689143334
 20
23.3284235249
 30
0.0
 10
9.5376966519
 20
23.3284492904
 30
0.0
 10
9.5217956849
 20
23.3284492923
 30
0.0
  0
SPLINE
  5
41C
100
AcDbEntity
  8
0
100
AcDbSpline
 62
253
  6
CONTINUOUS
 70
0
 71
3
 72
21
 73
17
 74
0
 42
0.0000001
 43
0.0000001
 44
0.0000000001
 40
0.0
 40
0.0
 40
0.0
 40
0.0
 40
0.1940290739
 40
0.3806795265
 40
0.5528644843
 40
0.7040377222
 40
0.7699124299
 40
0.8284547424
 40
0.879106809
 40
0.9213860669
 40
0.9548902416
 40
0.9793004863
 40
0.988019473
 40
0.9943846256
 40
0.9983807046
 40
1.0
 40
1.0
 40
1.0
 40
1.0
 10
-5.8443168899
 20
23.9792160248
 30
0.0
 10
-5.8313820391
 20
23.9792158446
 30
0.0
 10
-5.8060042298
 20
23.9792115944
 30
0.0
 10
-5.7691478
 20
23.9791937028
 30
0.0
 10
-5.7351483423
 20
23.9791650475
 30
0.0
 10
-5.709200343
 20
23.9791320479
 30
0.0
 10
-5.6908282897
 20
23.9791000395
 30
0.0
 10
-5.6791574099
 20
23.9790754317
 30
0.0
 10
-5.6690595685
 20
23.9790489072
 30
0.0
 10
-5.6606307425
 20
23.9790222683
 30
0.0
 10
-5.6539517313
 20
23.9789919547
 30
0.0
 10
-5.6495091006
 20
23.978970713
 30
0.0
 10
-5.6468771662
 20
23.9789426134
 30
0.0
 10
-5.6456038267
 20
23.9789379302
 30
0.0
 10
-5.6448079858
 20
23.9789057754
 30
0.0
 10
-5.6444306036
 20
23.9789161162
 30
0.0
 10
-5.6443244171
 20
23.9788966866
 30
0.0
  0
SPLINE
  5
41D
100
AcDbEntity
  8
0
100
AcDbSpline
 62
253
  6
CONTINUOUS
 70
0
 71
3
 72
21
 73
17
 74
0
 42
0.0000001
 43
0.0000001
 44
0.0000000001
 40
0.0
 40
0.0
 40
0.0
 40
0.0
 40
0.1940291165
 40
0.3806795904
 40
0.5528645513
 40
0.7040377789
 40
0.7699124783
 40
0.8284547814
 40
0.8791068384
 40
0.9213860871
 40
0.9548902538
 40
0.9793004922
 40
0.9880194765
 40
0.9943846274
 40
0.9983807051
 40
1.0
 40
1.0
 40
1.0
 40
1.0
 10
3.9516827674
 20
23.9792160249
 30
0.0
 10
3.9387479196
 20
23.9792158447
 30
0.0
 10
3.9133701171
 20
23.9792115944
 30
0.0
 10
3.8765136992
 20
23.9791937029
 30
0.0
 10
3.8425142554
 20
23.9791650475
 30
0.0
 10
3.8165662686
 20
23.9791320479
 30
0.0
 10
3.7981942253
 20
23.9791000395
 30
0.0
 10
3.7865233525
 20
23.9790754317
 30
0.0
 10
3.7764255175
 20
23.9790489072
 30
0.0
 10
3.7679966969
 20
23.9790222683
 30
0.0
 10
3.7613176902
 20
23.9789919547
 30
0.0
 10
3.7568750626
 20
23.978970713
 30
0.0
 10
3.75424313
 20
23.9789426134
 30
0.0
 10
3.7529697915
 20
23.9789379302
 30
0.0
 10
3.7521739511
 20
23.9789057754
 30
0.0
 10
3.7517965693
 20
23.9789161162
 30
0.0
 10
3.7516903828
 20
23.9788966866
 30
0.0
  0
SPLINE
  5
41E
100
AcDbEntity
  8
0
100
AcDbSpline
 62
253
  6
CONTINUOUS
 70
0
 71
3
 72
21
 73
17
 74
0
 42
0.0000001
 43
0.0000001
 44
0.0000000001
 40
0.0
 40
0.0
 40
0.0
 40
0.0
 40
0.1940290739
 40
0.3806795265
 40
0.5528644843
 40
0.7040377222
 40
0.7699124299
 40
0.8284547424
 40
0.879106809
 40
0.9213860669
 40
0.9548902416
 40
0.9793004863
 40
0.988019473
 40
0.9943846256
 40
0.9983807046
 40
1.0
 40
1.0
 40
1.0
 40
1.0
 10
-28.3443168899
 20
23.9792160248
 30
0.0
 10
-28.3313820391
 20
23.9792158446
 30
0.0
 10
-28.3060042298
 20
23.9792115944
 30
0.0
 10
-28.2691478
 20
23.9791937028
 30
0.0
 10
-28.2351483423
 20
23.9791650475
 30
0.0
 10
-28.209200343
 20
23.9791320479
 30
0.0
 10
-28.1908282897
 20
23.9791000395
 30
0.0
 10
-28.1791574099
 20
23.9790754317
 30
0.0
 10
-28.1690595685
 20
23.9790489072
 30
0.0
 10
-28.1606307425
 20
23.9790222683
 30
0.0
 10
-28.1539517313
 20
23.9789919547
 30
0.0
 10
-28.1495091006
 20
23.978970713
 30
0.0
 10
-28.1468771662
 20
23.9789426134
 30
0.0
 10
-28.1456038267
 20
23.9789379302
 30
0.0
 10
-28.1448079858
 20
23.9789057754
 30
0.0
 10
-28.1444306036
 20
23.9789161162
 30
0.0
 10
-28.1443244171
 20
23.9788966866
 30
0.0
  0
SPLINE
  5
41F
100
AcDbEntity
  8
0
100
AcDbSpline
 62
253
  6
CONTINUOUS
 70
0
 71
3
 72
21
 73
17
 74
0
 42
0.0000001
 43
0.0000001
 44
0.0000000001
 40
0.0
 40
0.0
 40
0.0
 40
0.0
 40
0.1940291165
 40
0.3806795904
 40
0.5528645513
 40
0.7040377789
 40
0.7699124783
 40
0.8284547814
 40
0.8791068384
 40
0.9213860871
 40
0.9548902538
 40
0.9793004922
 40
0.9880194765
 40
0.9943846274
 40
0.9983807051
 40
1.0
 40
1.0
 40
1.0
 40
1.0
 10
-18.5483172326
 20
23.9792160249
 30
0.0
 10
-18.5612520804
 20
23.9792158447
 30
0.0
 10
-18.5866298829
 20
23.9792115944
 30
0.0
 10
-18.6234863008
 20
23.9791937029
 30
0.0
 10
-18.6574857446
 20
23.9791650475
 30
0.0
 10
-18.6834337314
 20
23.9791320479
 30
0.0
 10
-18.7018057747
 20
23.9791000395
 30
0.0
 10
-18.7134766475
 20
23.9790754317
 30
0.0
 10
-18.7235744825
 20
23.9790489072
 30
0.0
 10
-18.7320033031
 20
23.9790222683
 30
0.0
 10
-18.7386823098
 20
23.9789919547
 30
0.0
 10
-18.7431249374
 20
23.978970713
 30
0.0
 10
-18.74575687
 20
23.9789426134
 30
0.0
 10
-18.7470302085
 20
23.9789379302
 30
0.0
 10
-18.7478260489
 20
23.9789057754
 30
0.0
 10
-18.7482034307
 20
23.9789161162
 30
0.0
 10
-18.7483096172
 20
23.9788966866
 30
0.0
  0
SPLINE
  5
420
100
AcDbEntity
  8
0
100
AcDbSpline
 62
253
  6
CONTINUOUS
 70
0
 71
3
 72
21
 73
17
 74
0
 42
0.0000001
 43
0.0000001
 44
0.0000000001
 40
0.0
 40
0.0
 40
0.0
 40
0.0
 40
0.1939615758
 40
0.3805719175
 40
0.5527351836
 40
0.7039016014
 40
0.7697766691
 40
0.8283213629
 40
0.878978009
 40
0.9212644716
 40
0.9547783946
 40
0.9792026025
 40
0.9879313518
 40
0.9943100637
 40
0.9983273805
 40
1.0
 40
1.0
 40
1.0
 40
1.0
 10
-18.7483054375
 20
23.5784795499
 30
0.0
 10
-18.7483054158
 20
23.5752439214
 30
0.0
 10
-18.7483107012
 20
23.5688952951
 30
0.0
 10
-18.7483344098
 20
23.5596747004
 30
0.0
 10
-18.7483728922
 20
23.5511680681
 30
0.0
 10
-18.7484174998
 20
23.5446755631
 30
0.0
 10
-18.7484608684
 20
23.5400785118
 30
0.0
 10
-18.74849434
 20
23.537158061
 30
0.0
 10
-18.7485302208
 20
23.5346313733
 30
0.0
 10
-18.7485669946
 20
23.5325217291
 30
0.0
 10
-18.7486069383
 20
23.5308513847
 30
0.0
 10
-18.7486388004
 20
23.5297373463
 30
0.0
 10
-18.7486731736
 20
23.5290818975
 30
0.0
 10
-18.7486863727
 20
23.5287577708
 30
0.0
 10
-18.7487176388
 20
23.5285680444
 30
0.0
 10
-18.748718272
 20
23.5284614357
 30
0.0
 10
-18.748737973
 20
23.5284416769
 30
0.0
  0
LINE
  5
421
100
AcDbEntity
  8
0
100
AcDbLine
 62
253
  6
CONTINUOUS
 10
-18.7483096172
 20
23.9788938278
 11
-18.7483054375
 21
23.5784795499
  0
SPLINE
  5
422
100
AcDbEntity
  8
0
100
AcDbSpline
 62
253
  6
CONTINUOUS
 70
0
 71
3
 72
21
 73
17
 74
0
 42
0.0000001
 43
0.0000001
 44
0.0000000001
 40
0.0
 40
0.0
 40
0.0
 40
0.0
 40
0.0016726195
 40
0.0056899363
 40
0.0120686482
 40
0.0207973975
 40
0.0452216054
 40
0.0787355284
 40
0.121021991
 40
0.1716786371
 40
0.2302233309
 40
0.2960983986
 40
0.4472648164
 40
0.6194280825
 40
0.8060384242
 40
1.0
 40
1.0
 40
1.0
 40
1.0
 10
-28.1438961494
 20
23.5284416769
 30
0.0
 10
-28.1439158504
 20
23.5284614357
 30
0.0
 10
-28.1439164836
 20
23.5285680444
 30
0.0
 10
-28.1439477498
 20
23.5287577708
 30
0.0
 10
-28.1439609488
 20
23.5290818975
 30
0.0
 10
-28.1439953221
 20
23.5297373463
 30
0.0
 10
-28.1440271842
 20
23.5308513847
 30
0.0
 10
-28.1440671279
 20
23.5325217291
 30
0.0
 10
-28.1441039017
 20
23.5346313733
 30
0.0
 10
-28.1441397824
 20
23.537158061
 30
0.0
 10
-28.1441732541
 20
23.5400785118
 30
0.0
 10
-28.1442166227
 20
23.5446755631
 30
0.0
 10
-28.1442612303
 20
23.5511680681
 30
0.0
 10
-28.1442997126
 20
23.5596747004
 30
0.0
 10
-28.1443234212
 20
23.5688952951
 30
0.0
 10
-28.1443287067
 20
23.5752439214
 30
0.0
 10
-28.1443286849
 20
23.5784795499
 30
0.0
  0
SPLINE
  5
423
100
AcDbEntity
  8
0
100
AcDbSpline
 62
253
  6
CONTINUOUS
 70
0
 71
3
 72
22
 73
18
 74
0
 42
0.0000001
 43
0.0000001
 44
0.0000000001
 40
0.0
 40
0.0
 40
0.0
 40
0.0
 40
0.1939856959
 40
0.3806195316
 40
0.5528048055
 40
0.7039900671
 40
0.7698726489
 40
0.8284230988
 40
0.8790833023
 40
0.9213703676
 40
0.9548811978
 40
0.968242511
 40
0.9792964291
 40
0.988016891
 40
0.9943833641
 40
0.9983800842
 40
1.0
 40
1.0
 40
1.0
 40
1.0
 10
3.9516869474
 20
23.5786414408
 30
0.0
 10
3.9516869649
 20
23.5624634433
 30
0.0
 10
3.9516816919
 20
23.5307205777
 30
0.0
 10
3.9516579788
 20
23.4846178293
 30
0.0
 10
3.9516195081
 20
23.4420845574
 30
0.0
 10
3.9515748726
 20
23.4096216992
 30
0.0
 10
3.9515315415
 20
23.3866357536
 30
0.0
 10
3.9514979625
 20
23.3720333908
 30
0.0
 10
3.9514623967
 20
23.3593988345
 30
0.0
 10
3.951424709
 20
23.3488526067
 30
0.0
 10
3.9513913187
 20
23.3414168863
 30
0.0
 10
3.9513611594
 20
23.3365862259
 30
0.0
 10
3.9513430642
 20
23.3338225013
 30
0.0
 10
3.9513170675
 20
23.3316434265
 30
0.0
 10
3.9513107142
 20
23.3300498482
 30
0.0
 10
3.9512669411
 20
23.329054689
 30
0.0
 10
3.9512808777
 20
23.3285817721
 30
0.0
 10
3.9512544116
 20
23.3284492923
 30
0.0
  0
SPLINE
  5
424
100
AcDbEntity
  8
0
100
AcDbSpline
 62
253
  6
CONTINUOUS
 70
0
 71
3
 72
22
 73
18
 74
0
 42
0.0000001
 43
0.0000001
 44
0.0000000001
 40
0.0
 40
0.0
 40
0.0
 40
0.0
 40
0.1939856959
 40
0.3806195316
 40
0.5528048055
 40
0.7039900671
 40
0.7698726489
 40
0.8284230988
 40
0.8790833023
 40
0.9213703676
 40
0.9548811978
 40
0.968242511
 40
0.9792964291
 40
0.988016891
 40
0.9943833641
 40
0.9983800842
 40
1.0
 40
1.0
 40
1.0
 40
1.0
 10
-18.5483130526
 20
23.5786414408
 30
0.0
 10
-18.5483130351
 20
23.5624634433
 30
0.0
 10
-18.5483183081
 20
23.5307205777
 30
0.0
 10
-18.5483420212
 20
23.4846178293
 30
0.0
 10
-18.5483804919
 20
23.4420845574
 30
0.0
 10
-18.5484251274
 20
23.4096216992
 30
0.0
 10
-18.5484684585
 20
23.3866357536
 30
0.0
 10
-18.5485020375
 20
23.3720333908
 30
0.0
 10
-18.5485376033
 20
23.3593988345
 30
0.0
 10
-18.548575291
 20
23.3488526067
 30
0.0
 10
-18.5486086813
 20
23.3414168863
 30
0.0
 10
-18.5486388406
 20
23.3365862259
 30
0.0
 10
-18.5486569358
 20
23.3338225013
 30
0.0
 10
-18.5486829325
 20
23.3316434265
 30
0.0
 10
-18.5486892858
 20
23.3300498482
 30
0.0
 10
-18.5487330589
 20
23.329054689
 30
0.0
 10
-18.5487191223
 20
23.3285817721
 30
0.0
 10
-18.5487455884
 20
23.3284492923
 30
0.0
  0
LINE
  5
425
100
AcDbEntity
  8
0
100
AcDbLine
 62
253
  6
CONTINUOUS
 10
-28.1443286849
 20
23.5784795499
 11
-28.1443245053
 21
23.9788937591
  0
SPLINE
  5
426
100
AcDbEntity
  8
0
100
AcDbSpline
 62
253
  6
CONTINUOUS
 70
0
 71
3
 72
22
 73
18
 74
0
 42
0.0000001
 43
0.0000001
 44
0.0000000001
 40
0.0
 40
0.0
 40
0.0
 40
0.0
 40
0.0016199158
 40
0.0056166359
 40
0.011983109
 40
0.0207035709
 40
0.031757489
 40
0.0451188022
 40
0.0786296324
 40
0.1209166977
 40
0.1715769012
 40
0.2301273511
 40
0.2960099329
 40
0.4471951945
 40
0.6193804684
 40
0.8060143041
 40
1.0
 40
1.0
 40
1.0
 40
1.0
 10
-5.8438885341
 20
23.3284492923
 30
0.0
 10
-5.8439150002
 20
23.3285817721
 30
0.0
 10
-5.8439010636
 20
23.329054689
 30
0.0
 10
-5.8439448366
 20
23.3300498482
 30
0.0
 10
-5.8439511899
 20
23.3316434265
 30
0.0
 10
-5.8439771866
 20
23.3338225013
 30
0.0
 10
-5.8439952819
 20
23.3365862259
 30
0.0
 10
-5.8440254412
 20
23.3414168863
 30
0.0
 10
-5.8440588314
 20
23.3488526067
 30
0.0
 10
-5.8440965192
 20
23.3593988345
 30
0.0
 10
-5.8441320849
 20
23.3720333908
 30
0.0
 10
-5.8441656639
 20
23.3866357536
 30
0.0
 10
-5.8442089951
 20
23.4096216992
 30
0.0
 10
-5.8442536305
 20
23.4420845574
 30
0.0
 10
-5.8442921013
 20
23.4846178293
 30
0.0
 10
-5.8443158144
 20
23.5307205777
 30
0.0
 10
-5.8443210873
 20
23.5624634433
 30
0.0
 10
-5.8443210698
 20
23.5786414408
 30
0.0
  0
SPLINE
  5
427
100
AcDbEntity
  8
0
100
AcDbSpline
 62
253
  6
CONTINUOUS
 70
0
 71
3
 72
22
 73
18
 74
0
 42
0.0000001
 43
0.0000001
 44
0.0000000001
 40
0.0
 40
0.0
 40
0.0
 40
0.0
 40
0.0016199158
 40
0.0056166359
 40
0.011983109
 40
0.0207035709
 40
0.031757489
 40
0.0451188022
 40
0.0786296324
 40
0.1209166977
 40
0.1715769012
 40
0.2301273511
 40
0.2960099329
 40
0.4471951945
 40
0.6193804684
 40
0.8060143041
 40
1.0
 40
1.0
 40
1.0
 40
1.0
 10
-28.3438885341
 20
23.3284492923
 30
0.0
 10
-28.3439150002
 20
23.3285817721
 30
0.0
 10
-28.3439010636
 20
23.329054689
 30
0.0
 10
-28.3439448366
 20
23.3300498482
 30
0.0
 10
-28.3439511899
 20
23.3316434265
 30
0.0
 10
-28.3439771866
 20
23.3338225013
 30
0.0
 10
-28.3439952819
 20
23.3365862259
 30
0.0
 10
-28.3440254412
 20
23.3414168863
 30
0.0
 10
-28.3440588314
 20
23.3488526067
 30
0.0
 10
-28.3440965192
 20
23.3593988345
 30
0.0
 10
-28.3441320849
 20
23.3720333908
 30
0.0
 10
-28.3441656639
 20
23.3866357536
 30
0.0
 10
-28.3442089951
 20
23.4096216992
 30
0.0
 10
-28.3442536305
 20
23.4420845574
 30
0.0
 10
-28.3442921013
 20
23.4846178293
 30
0.0
 10
-28.3443158144
 20
23.5307205777
 30
0.0
 10
-28.3443210873
 20
23.5624634433
 30
0.0
 10
-28.3443210698
 20
23.5786414408
 30
0.0
  0
SPLINE
  5
428
100
AcDbEntity
  8
0
100
AcDbSpline
 62
253
  6
CONTINUOUS
 70
0
 71
3
 72
22
 73
18
 74
0
 42
0.0000001
 43
0.0000001
 44
0.0000000001
 40
0.0
 40
0.0
 40
0.0
 40
0.0
 40
0.0020884594
 40
0.006072636
 40
0.0123011058
 40
0.0208384728
 40
0.0448524224
 40
0.0779854685
 40
0.1199506746
 40
0.1703593474
 40
0.2287349334
 40
0.294521063
 40
0.3670882998
 40
0.445740794
 40
0.6182293469
 40
0.8053740338
 40
1.0
 40
1.0
 40
1.0
 40
1.0
 10
-58.9903141304
 20
23.0353966781
 30
0.0
 10
-58.9904885408
 20
23.035395156
 30
0.0
 10
-58.9908950104
 20
23.0349583313
 30
0.0
 10
-58.9912266643
 20
23.0340244822
 30
0.0
 10
-58.9916406368
 20
23.0324928691
 30
0.0
 10
-58.9922126907
 20
23.0293138542
 30
0.0
 10
-58.9928745128
 20
23.023857895
 30
0.0
 10
-58.9935747289
 20
23.0156132675
 30
0.0
 10
-58.9942364114
 20
23.0051504581
 30
0.0
 10
-58.9948457972
 20
22.9925756317
 30
0.0
 10
-58.9953951797
 20
22.9780064014
 30
0.0
 10
-58.9958775999
 20
22.9615836303
 30
0.0
 10
-58.996287764
 20
22.943464957
 30
0.0
 10
-58.9967461713
 20
22.9164343307
 30
0.0
 10
-58.9970927264
 20
22.8798321228
 30
0.0
 10
-58.9971695186
 20
22.8335430273
 30
0.0
 10
-58.9969990402
 20
22.8016597119
 30
0.0
 10
-58.9968573707
 20
22.7854061973
 30
0.0
  0
LINE
  5
429
100
AcDbEntity
  8
0
100
AcDbLine
 62
253
  6
CONTINUOUS
 10
-59.4794059509
 20
22.7831017498
 11
-58.9968546212
 21
22.7854062104
  0
SPLINE
  5
42A
100
AcDbEntity
  8
0
100
AcDbSpline
 62
253
  6
CONTINUOUS
 70
0
 71
3
 72
30
 73
26
 74
0
 42
0.0000001
 43
0.0000001
 44
0.0000000001
 40
0.0
 40
0.0
 40
0.0
 40
0.0
 40
0.1968893275
 40
0.3852264402
 40
0.4740048558
 40
0.5580875102
 40
0.6366998516
 40
0.7091177319
 40
0.7746740822
 40
0.8327650671
 40
0.882855663
 40
0.9047534662
 40
0.9244846319
 40
0.9420028995
 40
0.957268831
 40
0.9702464841
 40
0.9809070191
 40
0.9853601743
 40
0.9892253254
 40
0.9925005201
 40
0.995183876
 40
0.9972738879
 40
0.9987703475
 40
0.9996746713
 40
1.0
 40
1.0
 40
1.0
 40
1.0
 10
-57.9228226441
 20
2.0480148757
 30
0.0
 10
-57.9541525239
 20
2.0432856025
 30
0.0
 10
-58.0154468728
 20
2.0340023399
 30
0.0
 10
-58.0908551479
 20
2.0225018164
 30
0.0
 10
-58.148309344
 20
2.0136864118
 30
0.0
 10
-58.188306073
 20
2.0075227149
 30
0.0
 10
-58.2256964081
 20
2.0017324486
 30
0.0
 10
-58.2601359118
 20
1.9963690251
 30
0.0
 10
-58.2913073506
 20
1.9914820382
 30
0.0
 10
-58.3189235879
 20
1.9871166402
 30
0.0
 10
-58.3395948252
 20
1.9838146428
 30
0.0
 10
-58.3541660196
 20
1.9814603751
 30
0.0
 10
-58.3635604109
 20
1.9799289415
 30
0.0
 10
-58.3718990522
 20
1.9785546347
 30
0.0
 10
-58.3791626966
 20
1.9773408136
 30
0.0
 10
-58.385334547
 20
1.9762902736
 30
0.0
 10
-58.389788223
 20
1.9755132102
 30
0.0
 10
-58.3927937304
 20
1.9749724626
 30
0.0
 10
-58.3946296113
 20
1.9746342946
 30
0.0
 10
-58.3961793939
 20
1.9743380777
 30
0.0
 10
-58.3974586309
 20
1.9740864477
 30
0.0
 10
-58.3984227831
 20
1.9738737931
 30
0.0
 10
-58.399178433
 20
1.9737160217
 30
0.0
 10
-58.3995087212
 20
1.9735851165
 30
0.0
 10
-58.3997930823
 20
1.9735255571
 30
0.0
 10
-58.3997852772
 20
1.9734737879
 30
0.0
  0
SPLINE
  5
42B
100
AcDbEntity
  8
0
100
AcDbSpline
 62
253
  6
CONTINUOUS
 70
0
 71
3
 72
24
 73
20
 74
0
 42
0.0000001
 43
0.0000001
 44
0.0000000001
 40
0.0
 40
0.0
 40
0.0
 40
0.0
 40
0.1947041663
 40
0.3818827425
 40
0.4703917716
 40
0.5543701954
 40
0.6330129591
 40
0.7055666752
 40
0.7713370774
 40
0.8296960628
 40
0.8800884236
 40
0.9220386296
 40
0.955158857
 40
0.9791628941
 40
0.9876964555
 40
0.9939221508
 40
0.9961873229
 40
0.9979129152
 40
1.0
 40
1.0
 40
1.0
 40
1.0
 10
-57.4545782177
 20
1.6232411995
 30
0.0
 10
-57.4562756088
 20
1.5908135531
 30
0.0
 10
-57.4593906705
 20
1.5272002319
 30
0.0
 10
-57.4626813735
 20
1.448818303
 30
0.0
 10
-57.4648357711
 20
1.3888730776
 30
0.0
 10
-57.4661569815
 20
1.3470112025
 30
0.0
 10
-57.4672021039
 20
1.307803353
 30
0.0
 10
-57.4679617448
 20
1.2716261619
 30
0.0
 10
-57.4684293567
 20
1.2388271335
 30
0.0
 10
-57.4686029918
 20
1.2097210882
 30
0.0
 10
-57.4684810084
 20
1.1845874413
 30
0.0
 10
-57.4680779018
 20
1.1636657373
 30
0.0
 10
-57.4673862921
 20
1.1471556128
 30
0.0
 10
-57.4665704246
 20
1.1362316983
 30
0.0
 10
-57.4656677601
 20
1.1298225457
 30
0.0
 10
-57.4650999475
 20
1.1270458251
 30
0.0
 10
-57.4645501553
 20
1.1254122154
 30
0.0
 10
-57.4641437233
 20
1.1245223625
 30
0.0
 10
-57.4636440468
 20
1.1239446491
 30
0.0
 10
-57.4632964475
 20
1.1239264322
 30
0.0
  0
LINE
  5
42C
100
AcDbEntity
  8
0
100
AcDbLine
 62
253
  6
CONTINUOUS
 10
-58.9968546212
 20
23.5763341978
 11
-59.4794059509
 21
23.5786386584
  0
SPLINE
  5
42D
100
AcDbEntity
  8
0
100
AcDbSpline
 62
253
  6
CONTINUOUS
 70
0
 71
3
 72
30
 73
26
 74
0
 42
0.0000001
 43
0.0000001
 44
0.0000000001
 40
0.0
 40
0.0
 40
0.0
 40
0.0
 40
0.1968893244
 40
0.3852264355
 40
0.4740048507
 40
0.558087505
 40
0.6366998466
 40
0.7091177273
 40
0.7746740782
 40
0.8327650637
 40
0.8828556603
 40
0.904753464
 40
0.92448463
 40
0.9420028979
 40
0.9572688297
 40
0.9702464831
 40
0.9809070183
 40
0.9853601737
 40
0.989225325
 40
0.9925005198
 40
0.9951838757
 40
0.9972738877
 40
0.9987703474
 40
0.9996746712
 40
1.0
 40
1.0
 40
1.0
 40
1.0
 10
-57.9228226441
 20
44.3137255325
 30
0.0
 10
-57.9541525249
 20
44.3184548058
 30
0.0
 10
-58.015446876
 20
44.3277380687
 30
0.0
 10
-58.0908551538
 20
44.3392385926
 30
0.0
 10
-58.1483093523
 20
44.3480539975
 30
0.0
 10
-58.1883060833
 20
44.3542176947
 30
0.0
 10
-58.2256964202
 20
44.3600079613
 30
0.0
 10
-58.2601359257
 20
44.365371385
 30
0.0
 10
-58.2913073663
 20
44.3702583722
 30
0.0
 10
-58.3189236052
 20
44.3746237704
 30
0.0
 10
-58.3395948437
 20
44.3779257681
 30
0.0
 10
-58.3541660391
 20
44.380280036
 30
0.0
 10
-58.363560431
 20
44.3818114696
 30
0.0
 10
-58.3718990729
 20
44.3831857765
 30
0.0
 10
-58.3791627178
 20
44.3843995976
 30
0.0
 10
-58.3853345686
 20
44.3854501378
 30
0.0
 10
-58.3897882449
 20
44.3862272012
 30
0.0
 10
-58.3927937526
 20
44.3867679489
 30
0.0
 10
-58.3946296336
 20
44.3871061169
 30
0.0
 10
-58.3961794163
 20
44.3874023338
 30
0.0
 10
-58.3974586534
 20
44.3876539639
 30
0.0
 10
-58.3984228057
 20
44.3878666185
 30
0.0
 10
-58.3991784557
 20
44.3880243898
 30
0.0
 10
-58.399508744
 20
44.3881552951
 30
0.0
 10
-58.3997931051
 20
44.3882148545
 30
0.0
 10
-58.3997853
 20
44.3882666236
 30
0.0
  0
SPLINE
  5
42E
100
AcDbEntity
  8
0
100
AcDbSpline
 62
253
  6
CONTINUOUS
 70
0
 71
3
 72
24
 73
20
 74
0
 42
0.0000001
 43
0.0000001
 44
0.0000000001
 40
0.0
 40
0.0
 40
0.0
 40
0.0
 40
0.1947041663
 40
0.3818827424
 40
0.4703917715
 40
0.5543701953
 40
0.633012959
 40
0.7055666751
 40
0.7713370774
 40
0.8296960627
 40
0.8800884236
 40
0.9220386295
 40
0.9551588569
 40
0.9791628941
 40
0.9876964555
 40
0.9939221508
 40
0.9961873229
 40
0.9979129152
 40
1.0
 40
1.0
 40
1.0
 40
1.0
 10
-57.4545782177
 20
44.7384992086
 30
0.0
 10
-57.4562756088
 20
44.770926855
 30
0.0
 10
-57.4593906706
 20
44.8345401762
 30
0.0
 10
-57.4626813736
 20
44.9129221052
 30
0.0
 10
-57.4648357712
 20
44.9728673305
 30
0.0
 10
-57.4661569816
 20
45.0147292057
 30
0.0
 10
-57.4672021041
 20
45.0539370551
 30
0.0
 10
-57.4679617449
 20
45.0901142463
 30
0.0
 10
-57.4684293568
 20
45.1229132746
 30
0.0
 10
-57.4686029919
 20
45.15201932
 30
0.0
 10
-57.4684810085
 20
45.1771529668
 30
0.0
 10
-57.4680779019
 20
45.1980746708
 30
0.0
 10
-57.4673862922
 20
45.2145847953
 30
0.0
 10
-57.4665704246
 20
45.2255087099
 30
0.0
 10
-57.4656677601
 20
45.2319178625
 30
0.0
 10
-57.4650999476
 20
45.2346945831
 30
0.0
 10
-57.4645501553
 20
45.2363281927
 30
0.0
 10
-57.4641437233
 20
45.2372180456
 30
0.0
 10
-57.4636440468
 20
45.2377957591
 30
0.0
 10
-57.4632964475
 20
45.237813976
 30
0.0
  0
SPLINE
  5
42F
100
AcDbEntity
  8
0
100
AcDbSpline
 62
253
  6
CONTINUOUS
 70
0
 71
3
 72
22
 73
18
 74
0
 42
0.0000001
 43
0.0000001
 44
0.0000000001
 40
0.0
 40
0.0
 40
0.0
 40
0.0
 40
0.0020884594
 40
0.0060726361
 40
0.0123011059
 40
0.0208384729
 40
0.0448524225
 40
0.0779854686
 40
0.1199506747
 40
0.1703593474
 40
0.2287349334
 40
0.2945210631
 40
0.3670882998
 40
0.445740794
 40
0.6182293469
 40
0.8053740338
 40
1.0
 40
1.0
 40
1.0
 40
1.0
 10
-58.9903141304
 20
23.3263437301
 30
0.0
 10
-58.9904885408
 20
23.3263452521
 30
0.0
 10
-58.9908950104
 20
23.3267820768
 30
0.0
 10
-58.9912266644
 20
23.327715926
 30
0.0
 10
-58.9916406368
 20
23.3292475391
 30
0.0
 10
-58.9922126907
 20
23.332426554
 30
0.0
 10
-58.9928745129
 20
23.3378825131
 30
0.0
 10
-58.993574729
 20
23.3461271407
 30
0.0
 10
-58.9942364115
 20
23.35658995
 30
0.0
 10
-58.9948457973
 20
23.3691647765
 30
0.0
 10
-58.9953951798
 20
23.3837340067
 30
0.0
 10
-58.9958776
 20
23.4001567779
 30
0.0
 10
-58.9962877641
 20
23.4182754512
 30
0.0
 10
-58.9967461714
 20
23.4453060774
 30
0.0
 10
-58.9970927265
 20
23.4819082854
 30
0.0
 10
-58.9971695187
 20
23.5281973808
 30
0.0
 10
-58.9969990402
 20
23.5600806963
 30
0.0
 10
-58.9968573707
 20
23.5763342108
 30
0.0
  0
ELLIPSE
  5
430
100
AcDbEntity
  8
RACCORDO
100
AcDbEllipse
 62
7
  6
CONTINUOUS
 10
9.1537134044
 20
22.8808625884
 30
0.0
 11
0.1789222233
 21
0.0894542984
 31
0.0
 40
0.9998096356
 41
1.1071030277
 42
1.5708233876
  0
ELLIPSE
  5
431
100
AcDbEntity
  8
0
100
AcDbEllipse
 62
7
  6
CONTINUOUS
 10
1.1882128849
 20
1.0092546616
 30
0.0
 11
0.2
 21
-0.0
 31
0.0
 40
0.0524637553
 41
0.5235987756
 42
1.5707963268
  0
ELLIPSE
  5
432
100
AcDbEntity
  8
0
100
AcDbEllipse
 62
7
  6
CONTINUOUS
 10
-3.0808470074
 20
1.0092546616
 30
0.0
 11
0.2
 21
-0.0
 31
0.0
 40
0.0524637553
 41
1.5707963268
 42
2.617993878
  0
ELLIPSE
  5
433
100
AcDbEntity
  8
0
100
AcDbEllipse
 62
7
  6
CONTINUOUS
 10
-21.3117871151
 20
1.0092546616
 30
0.0
 11
0.2
 21
0.0
 31
0.0
 40
0.0524637553
 41
0.5235987756
 42
1.5707963268
  0
ELLIPSE
  5
434
100
AcDbEntity
  8
0
100
AcDbEllipse
 62
7
  6
CONTINUOUS
 10
9.9535305527
 20
22.8308606845
 30
0.0
 11
0.2426981267
 21
0.0606514259
 31
0.0
 40
0.9993528196
 41
-0.2447368254
 42
1.3257549497
  0
ELLIPSE
  5
435
100
AcDbEntity
  8
0
100
AcDbEllipse
 62
7
  6
CONTINUOUS
 10
-25.5808470074
 20
1.0092546616
 30
0.0
 11
0.2
 21
-0.0
 31
0.0
 40
0.0524637553
 41
1.5707963268
 42
2.617993878
  0
ELLIPSE
  5
436
100
AcDbEntity
  8
0
100
AcDbEllipse
 62
7
  6
CONTINUOUS
 10
-34.3461646751
 20
22.8308606845
 30
0.0
 11
0.2426981267
 21
-0.0606514259
 31
0.0
 40
0.9993528196
 41
1.8158377039
 42
3.386329479
  0
ELLIPSE
  5
437
100
AcDbEntity
  8
0
100
AcDbEllipse
 62
7
  6
CONTINUOUS
 10
-5.1399574387
 20
22.3872298266
 30
0.0
 11
0.4643386945
 21
-0.1896138901
 31
0.0
 40
0.9790602997
 41
-1.3019498305
 42
-1.1756477791
  0
ELLIPSE
  5
438
100
AcDbEntity
  8
0
100
AcDbEllipse
 62
7
  6
CONTINUOUS
 10
3.2473233162
 20
22.3872298266
 30
0.0
 11
0.1896138901
 21
0.4643386945
 31
0.0
 40
0.9790602997
 41
-1.3019498305
 42
-1.1756477791
  0
ELLIPSE
  5
439
100
AcDbEntity
  8
0
100
AcDbEllipse
 62
7
  6
CONTINUOUS
 10
-27.6399574387
 20
22.3872298266
 30
0.0
 11
0.4643386945
 21
-0.1896138901
 31
0.0
 40
0.9790602997
 41
-1.3019498305
 42
-1.1756477791
  0
ELLIPSE
  5
43A
100
AcDbEntity
  8
0
100
AcDbEllipse
 62
7
  6
CONTINUOUS
 10
-19.2526766838
 20
22.3872298266
 30
0.0
 11
0.1896138901
 21
0.4643386945
 31
0.0
 40
0.9790602997
 41
-1.3019498305
 42
-1.1756477791
  0
ELLIPSE
  5
43B
100
AcDbEntity
  8
0
100
AcDbEllipse
 62
7
  6
CONTINUOUS
 10
9.6665293498
 20
1.4868576974
 30
0.0
 11
0.4901042491
 21
0.1011361035
 31
0.0
 40
0.9938624933
 41
-1.775518161
 42
-0.2065483337
  0
ELLIPSE
  5
43C
100
AcDbEntity
  8
0
100
AcDbEllipse
 62
7
  6
CONTINUOUS
 10
-34.0591634722
 20
1.4868576974
 30
0.0
 11
0.4901042491
 21
-0.1011361035
 31
0.0
 40
0.9938624933
 41
-2.9350443199
 42
-1.3660744926
  0
ELLIPSE
  5
43D
100
AcDbEntity
  8
0
100
AcDbEllipse
 62
7
  6
CONTINUOUS
 10
-28.1359698103
 20
22.8412098393
 30
0.0
 11
0.000044129
 21
0.2000221726
 31
0.0
 40
0.0171905225
 41
-1.5579631943
 42
-1.5535237603
  0
ELLIPSE
  5
43E
100
AcDbEntity
  8
0
100
AcDbEllipse
 62
7
  6
CONTINUOUS
 10
-18.7566643122
 20
22.8412098393
 30
0.0
 11
-0.000044129
 21
0.2000221726
 31
0.0
 40
0.0171905225
 41
1.5535237603
 42
1.5579631943
  0
ELLIPSE
  5
43F
100
AcDbEntity
  8
0
100
AcDbEllipse
 62
7
  6
CONTINUOUS
 10
3.2473233162
 20
22.3872298266
 30
0.0
 11
0.4643386945
 21
0.1896138901
 31
0.0
 40
0.9790602997
 41
-1.9659448745
 42
-1.8396428231
  0
ELLIPSE
  5
440
100
AcDbEntity
  8
0
100
AcDbEllipse
 62
7
  6
CONTINUOUS
 10
-5.1399574387
 20
22.3872298266
 30
0.0
 11
-0.1896138901
 21
0.4643386945
 31
0.0
 40
0.9790602997
 41
1.1756477791
 42
1.3019498305
  0
ELLIPSE
  5
441
100
AcDbEntity
  8
0
100
AcDbEllipse
 62
7
  6
CONTINUOUS
 10
-19.2526766838
 20
22.3872298266
 30
0.0
 11
0.4643386945
 21
0.1896138901
 31
0.0
 40
0.9790602997
 41
-1.9659448745
 42
-1.8396428231
  0
ELLIPSE
  5
442
100
AcDbEntity
  8
0
100
AcDbEllipse
 62
7
  6
CONTINUOUS
 10
-27.6399574387
 20
22.3872298266
 30
0.0
 11
-0.1896138901
 21
0.4643386945
 31
0.0
 40
0.9790602997
 41
1.1756477791
 42
1.3019498305
  0
ELLIPSE
  5
443
100
AcDbEntity
  8
0
100
AcDbEllipse
 62
7
  6
CONTINUOUS
 10
-5.6359698103
 20
22.8412098393
 30
0.0
 11
0.000044129
 21
0.2000221726
 31
0.0
 40
0.0171905225
 41
-1.5579631943
 42
-1.5535237603
  0
ELLIPSE
  5
444
100
AcDbEntity
  8
0
100
AcDbEllipse
 62
7
  6
CONTINUOUS
 10
3.7433356878
 20
22.8412098393
 30
0.0
 11
-0.000044129
 21
0.2000221726
 31
0.0
 40
0.0171905225
 41
1.5535237603
 42
1.5579631943
  0
ELLIPSE
  5
445
100
AcDbEntity
  8
RACCORDO
100
AcDbEllipse
 62
7
  6
CONTINUOUS
 10
-33.5463475268
 20
23.4808778198
 30
0.0
 11
0.1789222233
 21
0.0894542984
 31
0.0
 40
0.9998096356
 41
-2.0344896259
 42
-1.570769266
  0
ELLIPSE
  5
446
100
AcDbEntity
  8
0
100
AcDbEllipse
 62
7
  6
CONTINUOUS
 10
-25.5808470074
 20
45.3524857466
 30
0.0
 11
0.2
 21
0.0
 31
0.0
 40
0.0524637553
 41
-2.617993878
 42
-1.5707963268
  0
ELLIPSE
  5
447
100
AcDbEntity
  8
0
100
AcDbEllipse
 62
7
  6
CONTINUOUS
 10
-21.3117871151
 20
45.3524857466
 30
0.0
 11
0.2
 21
0.0
 31
0.0
 40
0.0524637553
 41
-1.5707963268
 42
-0.5235987756
  0
ELLIPSE
  5
448
100
AcDbEntity
  8
0
100
AcDbEllipse
 62
7
  6
CONTINUOUS
 10
-3.0808470074
 20
45.3524857466
 30
0.0
 11
0.2
 21
-0.0
 31
0.0
 40
0.0524637553
 41
-2.617993878
 42
-1.5707963268
  0
ELLIPSE
  5
449
100
AcDbEntity
  8
0
100
AcDbEllipse
 62
7
  6
CONTINUOUS
 10
9.9535305527
 20
23.5308797237
 30
0.0
 11
0.2426981267
 21
-0.0606514259
 31
0.0
 40
0.9993528196
 41
-1.3257549497
 42
0.2447368254
  0
ELLIPSE
  5
44A
100
AcDbEntity
  8
0
100
AcDbEllipse
 62
7
  6
CONTINUOUS
 10
1.1882128849
 20
45.3524857466
 30
0.0
 11
0.2
 21
-0.0
 31
0.0
 40
0.0524637553
 41
-1.5707963268
 42
-0.5235987756
  0
ELLIPSE
  5
44B
100
AcDbEntity
  8
0
100
AcDbEllipse
 62
7
  6
CONTINUOUS
 10
-34.3461646751
 20
23.5308797237
 30
0.0
 11
0.2426981267
 21
0.0606514259
 31
0.0
 40
0.9993528196
 41
2.8968558282
 42
4.4673476033
  0
ELLIPSE
  5
44C
100
AcDbEntity
  8
0
100
AcDbEllipse
 62
7
  6
CONTINUOUS
 10
-27.6399574387
 20
23.9745105815
 30
0.0
 11
0.1896138901
 21
0.4643386945
 31
0.0
 40
0.9790602997
 41
-4.4435424841
 42
-4.3172404327
  0
ELLIPSE
  5
44D
100
AcDbEntity
  8
0
100
AcDbEllipse
 62
7
  6
CONTINUOUS
 10
-19.2526766838
 20
23.9745105815
 30
0.0
 11
0.4643386945
 21
-0.1896138901
 31
0.0
 40
0.9790602997
 41
1.8396428231
 42
1.9659448745
  0
ELLIPSE
  5
44E
100
AcDbEntity
  8
0
100
AcDbEllipse
 62
7
  6
CONTINUOUS
 10
3.2473233162
 20
23.9745105815
 30
0.0
 11
0.4643386945
 21
-0.1896138901
 31
0.0
 40
0.9790602997
 41
1.8396428231
 42
1.9659448745
  0
ELLIPSE
  5
44F
100
AcDbEntity
  8
0
100
AcDbEllipse
 62
7
  6
CONTINUOUS
 10
-5.1399574387
 20
23.9745105815
 30
0.0
 11
0.1896138901
 21
0.4643386945
 31
0.0
 40
0.9790602997
 41
-4.4435424841
 42
-4.3172404327
  0
ELLIPSE
  5
450
100
AcDbEntity
  8
0
100
AcDbEllipse
 62
7
  6
CONTINUOUS
 10
-34.0591634722
 20
44.8748827108
 30
0.0
 11
0.4901042491
 21
0.1011361035
 31
0.0
 40
0.9938624933
 41
1.3660744926
 42
2.9350443199
  0
ELLIPSE
  5
451
100
AcDbEntity
  8
0
100
AcDbEllipse
 62
7
  6
CONTINUOUS
 10
9.6665293498
 20
44.8748827108
 30
0.0
 11
0.4901042491
 21
-0.1011361035
 31
0.0
 40
0.9938624933
 41
0.2065483337
 42
1.775518161
  0
ELLIPSE
  5
452
100
AcDbEntity
  8
0
100
AcDbEllipse
 62
7
  6
CONTINUOUS
 10
3.7433356878
 20
23.5205305688
 30
0.0
 11
0.000044129
 21
0.2000221726
 31
0.0
 40
0.0171905225
 41
-4.6995558479
 42
-4.6951164139
  0
ELLIPSE
  5
453
100
AcDbEntity
  8
0
100
AcDbEllipse
 62
7
  6
CONTINUOUS
 10
-5.6359698103
 20
23.5205305688
 30
0.0
 11
-0.000044129
 21
0.2000221726
 31
0.0
 40
0.0171905225
 41
-1.5880688933
 42
-1.5836294593
  0
ELLIPSE
  5
454
100
AcDbEntity
  8
0
100
AcDbEllipse
 62
7
  6
CONTINUOUS
 10
-27.6399574387
 20
23.9745105815
 30
0.0
 11
0.4643386945
 21
0.1896138901
 31
0.0
 40
0.9790602997
 41
1.1756477791
 42
1.3019498305
  0
ELLIPSE
  5
455
100
AcDbEntity
  8
0
100
AcDbEllipse
 62
7
  6
CONTINUOUS
 10
-19.2526766838
 20
23.9745105815
 30
0.0
 11
-0.1896138901
 21
0.4643386945
 31
0.0
 40
0.9790602997
 41
-1.9659448745
 42
-1.8396428231
  0
ELLIPSE
  5
456
100
AcDbEntity
  8
0
100
AcDbEllipse
 62
7
  6
CONTINUOUS
 10
-5.1399574387
 20
23.9745105815
 30
0.0
 11
0.4643386945
 21
0.1896138901
 31
0.0
 40
0.9790602997
 41
1.1756477791
 42
1.3019498305
  0
ELLIPSE
  5
457
100
AcDbEntity
  8
0
100
AcDbEllipse
 62
7
  6
CONTINUOUS
 10
3.2473233162
 20
23.9745105815
 30
0.0
 11
-0.1896138901
 21
0.4643386945
 31
0.0
 40
0.9790602997
 41
-1.9659448745
 42
-1.8396428231
  0
ELLIPSE
  5
458
100
AcDbEntity
  8
0
100
AcDbEllipse
 62
7
  6
CONTINUOUS
 10
-18.7566643122
 20
23.5205305688
 30
0.0
 11
0.000044129
 21
0.2000221726
 31
0.0
 40
0.0171905225
 41
-4.6995558479
 42
-4.6951164139
  0
ELLIPSE
  5
459
100
AcDbEntity
  8
0
100
AcDbEllipse
 62
7
  6
CONTINUOUS
 10
-28.1359698103
 20
23.5205305688
 30
0.0
 11
-0.000044129
 21
0.2000221726
 31
0.0
 40
0.0171905225
 41
-1.5880688933
 42
-1.5836294593
  0
ENDSEC
  0
SECTION
  2
OBJECTS
  0
DICTIONARY
  5
C
100
AcDbDictionary
280
0
281
1
  3
ACAD_GROUP
350
D
  3
ACAD_MLINESTYLE
350
17
  3
ACAD_LAYOUT
350
1A
  3
ACAD_PLOTSETTINGS
350
19
  3
ACAD_PLOTSTYLENAME
350
E
  0
DICTIONARY
  5
D
102
{ACAD_REACTORS
330
C
102
}
100
AcDbDictionary
280
0
281
1
  0
ACDBDICTIONARYWDFLT
  5
E
102
{ACAD_REACTORS
330
C
102
}
100
AcDbDictionary
281
1
  3
Normal
350
F
100
AcDbDictionaryWithDefault
340
F
  0
DICTIONARY
  5
17
102
{ACAD_REACTORS
330
C
102
}
100
AcDbDictionary
280
0
281
1
  3
Standard
350
18
  0
DICTIONARY
  5
19
102
{ACAD_REACTORS
330
C
102
}
100
AcDbDictionary
281
1
  0
DICTIONARY
  5
1A
102
{ACAD_REACTORS
330
C
102
}
100
AcDbDictionary
281
1
  3
Model
350
45A
  3
Layout1
350
45B
  0
ACDBPLACEHOLDER
  5
F
102
{ACAD_REACTORS
330
E
102
}
  0
MLINESTYLE
  5
18
102
{ACAD_REACTORS
330
17
102
}
100
AcDbMlineStyle
  2
STANDARD
 70
0
  3

 62
256
 51
90.0
 52
90.0
 71
2
 49
0.5
 62
256
  6
BYLAYER
 49
-0.5
 62
256
  6
BYLAYER
  0
LAYOUT
  5
45A
102
{ACAD_REACTORS
330
1A
102
}
100
AcDbPlotSettings
  1

  2
none_device
  4

  6

 40
0.0
 41
0.0
 42
0.0
 43
0.0
 44
210.0
 45
297.0
 46
0.0
 47
0.0
 48
0.0
 49
0.0
140
0.0
141
0.0
142
1.0
143
1.0
 70
1024
 72
1
 73
0
 74
0
  7

 75
0
147
1.0
148
0.0
149
0.0
100
AcDbLayout
  1
Model
 70
0
 71
0
 10
0.0
 20
0.0
 11
210.0
 21
297.0
 12
0.0
 22
0.0
 32
0.0
 14
0.0
 24
0.0
 34
0.0
 15
0.0
 25
0.0
 35
0.0
146
0.0
 13
0.0
 23
0.0
 33
0.0
 16
1.0
 26
0.0
 36
0.0
 17
0.0
 27
1.0
 37
0.0
 76
0
330
222
345
0
346
0
  0
LAYOUT
  5
45B
102
{ACAD_REACTORS
330
1A
102
}
100
AcDbPlotSettings
  1

  2
none_device
  4

  6

 40
0.0
 41
0.0
 42
0.0
 43
0.0
 44
210.0
 45
297.0
 46
0.0
 47
0.0
 48
0.0
 49
0.0
140
0.0
141
0.0
142
1.0
143
1.0
 70
0
 72
1
 73
0
 74
0
  7

 75
0
147
1.0
148
0.0
149
0.0
100
AcDbLayout
  1
Layout1
 70
0
 71
1
 10
0.0
 20
0.0
 11
210.0
 21
297.0
 12
0.0
 22
0.0
 32
0.0
 14
0.0
 24
0.0
 34
0.0
 15
0.0
 25
0.0
 35
0.0
146
0.0
 13
0.0
 23
0.0
 33
0.0
 16
1.0
 26
0.0
 36
0.0
 17
0.0
 27
1.0
 37
0.0
 76
0
330
223
345
0
346
0
  0
ENDSEC
  0
EOF
