0
SECTION
2
HEADER
9
$ACADVER
1
AC1015
9
$DWGCODEPAGE
3
ANSI_1252
9
$EXTMAX
10
431.8000000000
20
558.8000000000
30
0.0000000000
9
$EXTMIN
10
0.0000000000
20
0.0000000000
30
0.0000000000
9
$LIMMIN
10
0.0000000000
20
0.0000000000
9
$LIMMAX
10
431.8000000000
20
558.8000000000
9
$VIEWCTR
10
215.9000000000
20
279.4000000000
9
$VIEWSIZE
40
558.8000000000
9
$CLAYER
8
0
9
$LTSCALE
40
36.4254814815
9
$CELTYPE
6
BYLAYER
9
$DIMSCALE
40
1
9
$DIMASZ
40
3.0000000000
9
$DIMEXO
40
4.1392592593
9
$DIMDLI
40
25.1666962963
9
$DIMEXE
40
11.9210666667
9
$DIMCEN
40
5.9605333333
9
$DIMLFAC
40
1.0000000000
9
$DIMBLK
1
_FILLED
9
$DIMTXT
40
3.0000000000
9
$DIMTOL
70
1
9
$DIMLIM
70
0
9
$DIMTFAC
40
1.0000000000
9
$DIMTP
40
0.0100000000
9
$DIMTM
40
0.0100000000
9
$PDMODE
70
3
9
$PDSIZE
40
3.0000000000
9
$HANDSEED
5
3BB
9
$MEASUREMENT
70
1
9
$INSUNITS
70
4
0
ENDSEC
0
SECTION
2
CLASSES
0
CLASS
1
ACDBDICTIONARYWDFLT
2
AcDbDictionaryWithDefault
3
AutoCAD 2000
90
0
280
0
281
0
0
CLASS
1
ACDBPLACEHOLDER
2
AcDbPlaceHolder
3
AutoCAD 2000
90
0
280
0
281
0
0
CLASS
1
LAYOUT
2
AcDbLayout
3
AutoCAD 2000
90
0
280
0
281
0
0
ENDSEC
0
SECTION
2
TABLES
0
TABLE
2
VPORT
5
8
100
AcDbSymbolTable
70
2
0
VPORT
5
1F4
100
AcDbSymbolTableRecord
100
AcDbViewportTableRecord
2
*ACTIVE
70
0
10
0.0
20
0.0
11
1.0
21
1.0
12
215.9000000000
22
279.4000000000
13
0.0
23
0.0
14
1.0
24
1.0
15
0.0
25
0.0
16
0.0
26
0.0
36
1.0
17
0.0
27
0.0
37
0.0
40
558.8000000000
41
0.7727272727
42
50.0
43
0.0
44
0.0
50
0.0
51
0.0
71
0
72
100
73
1
74
1
75
0
76
0
77
0
78
0
0
ENDTAB
0
TABLE
2
LTYPE
5
5
100
AcDbSymbolTable
70
6
0
LTYPE
5
14
100
AcDbSymbolTableRecord
100
AcDbLinetypeTableRecord
2
BYBLOCK
70
0
3

72
65
73
0
40
0.0
0
LTYPE
5
15
100
AcDbSymbolTableRecord
100
AcDbLinetypeTableRecord
2
BYLAYER
70
0
3

72
65
73
0
40
0.0
0
LTYPE
5
16
100
AcDbSymbolTableRecord
100
AcDbLinetypeTableRecord
2
CONTINUOUS
70
64
3
Solid line
72
65
73
0
40
0
0
LTYPE
5
1F5
100
AcDbSymbolTableRecord
100
AcDbLinetypeTableRecord
2
CENTER
70
64
3
____ _ ____ _ ____ _ ____ _ ____ _ ____ _ ____
72
65
73
4
40
0.6
49
0.375
74
0
49
-0.075
74
0
49
0.075
74
0
49
-0.075
74
0
0
LTYPE
5
1F6
100
AcDbSymbolTableRecord
100
AcDbLinetypeTableRecord
2
HIDDEN
70
64
3
- - - - - - - - - - - - - - - - - - - -
72
65
73
2
40
0.2
49
0.1
74
0
49
-0.1
74
0
0
LTYPE
5
1F7
100
AcDbSymbolTableRecord
100
AcDbLinetypeTableRecord
2
PHANTOM
70
64
3
_____ _ _ _____ _ _ _____ _ _ _____
72
65
73
6
40
0.8
49
0.45
74
0
49
-0.05
74
0
49
0.1
74
0
49
-0.05
74
0
49
0.1
74
0
49
-0.05
74
0
0
LTYPE
5
1F8
100
AcDbSymbolTableRecord
100
AcDbLinetypeTableRecord
2
DOT
70
64
3
. . . . . . . . . . . . . . . . . . . .
72
65
73
2
40
0.2
49
0.1
74
0
49
-0.1
74
0
0
LTYPE
5
1F9
100
AcDbSymbolTableRecord
100
AcDbLinetypeTableRecord
2
DASHED
70
64
3
- - - - - - - - - - - - - - - - - - - -
72
65
73
2
40
0.2
49
0.1
74
0
49
-0.1
74
0
0
ENDTAB
0
TABLE
2
LAYER
5
2
100
AcDbSymbolTable
70
36
0
LAYER
5
10
100
AcDbSymbolTableRecord
100
AcDbLayerTableRecord
2
0
70
0
62
7
6
CONTINUOUS
370
-3
390
F
0
LAYER
5
1FA
100
AcDbSymbolTableRecord
100
AcDbLayerTableRecord
2
DEFAULT_1
70
0
62
7
6
CENTER
370
-3
390
F
0
LAYER
5
1FB
100
AcDbSymbolTableRecord
100
AcDbLayerTableRecord
2
DEFAULT_2
70
0
62
9
6
HIDDEN
370
-3
390
F
0
LAYER
5
1FC
100
AcDbSymbolTableRecord
100
AcDbLayerTableRecord
2
DEFAULT_3
70
0
62
7
6
PHANTOM
370
-3
390
F
0
LAYER
5
1FD
100
AcDbSymbolTableRecord
100
AcDbLayerTableRecord
2
_BLACK_HOLE
70
0
62
7
6
CONTINUOUS
370
-3
390
F
0
LAYER
5
1FE
100
AcDbSymbolTableRecord
100
AcDbLayerTableRecord
2
ASSI
70
0
62
7
6
CONTINUOUS
370
-3
390
F
0
LAYER
5
1FF
100
AcDbSymbolTableRecord
100
AcDbLayerTableRecord
2
COORDINATE
70
0
62
7
6
CONTINUOUS
370
-3
390
F
0
LAYER
5
200
100
AcDbSymbolTableRecord
100
AcDbLayerTableRecord
2
COORD_ORIGINE
70
0
62
7
6
CONTINUOUS
370
-3
390
F
0
LAYER
5
201
100
AcDbSymbolTableRecord
100
AcDbLayerTableRecord
2
COPIA_X_PUBLISH
70
0
62
7
6
CONTINUOUS
370
-3
390
F
0
LAYER
5
202
100
AcDbSymbolTableRecord
100
AcDbLayerTableRecord
2
COPY_PLACCA
70
0
62
7
6
CONTINUOUS
370
-3
390
F
0
LAYER
5
203
100
AcDbSymbolTableRecord
100
AcDbLayerTableRecord
2
COPY_SUPP
70
0
62
7
6
CONTINUOUS
370
-3
390
F
0
LAYER
5
204
100
AcDbSymbolTableRecord
100
AcDbLayerTableRecord
2
CURVE
70
0
62
7
6
CONTINUOUS
370
-3
390
F
0
LAYER
5
205
100
AcDbSymbolTableRecord
100
AcDbLayerTableRecord
2
DRAFT
70
0
62
7
6
CONTINUOUS
370
-3
390
F
0
LAYER
5
206
100
AcDbSymbolTableRecord
100
AcDbLayerTableRecord
2
IMPORT_SCRITTE
70
0
62
7
6
CONTINUOUS
370
-3
390
F
0
LAYER
5
207
100
AcDbSymbolTableRecord
100
AcDbLayerTableRecord
2
NOTE
70
0
62
7
6
CONTINUOUS
370
-3
390
F
0
LAYER
5
208
100
AcDbSymbolTableRecord
100
AcDbLayerTableRecord
2
PIANI
70
0
62
7
6
CONTINUOUS
370
-3
390
F
0
LAYER
5
209
100
AcDbSymbolTableRecord
100
AcDbLayerTableRecord
2
PIANI_ORIGINE
70
0
62
7
6
CONTINUOUS
370
-3
390
F
0
LAYER
5
20A
100
AcDbSymbolTableRecord
100
AcDbLayerTableRecord
2
PUNTI
70
0
62
7
6
CONTINUOUS
370
-3
390
F
0
LAYER
5
20B
100
AcDbSymbolTableRecord
100
AcDbLayerTableRecord
2
RACCORDO
70
0
62
7
6
CONTINUOUS
370
-3
390
F
0
LAYER
5
20C
100
AcDbSymbolTableRecord
100
AcDbLayerTableRecord
2
SMUSSO
70
0
62
7
6
CONTINUOUS
370
-3
390
F
0
LAYER
5
20D
100
AcDbSymbolTableRecord
100
AcDbLayerTableRecord
2
SUPERFICI
70
0
62
7
6
CONTINUOUS
370
-3
390
F
0
LAYER
5
20E
100
AcDbSymbolTableRecord
100
AcDbLayerTableRecord
2
TRASH
70
0
62
7
6
CONTINUOUS
370
-3
390
F
0
LAYER
5
20F
100
AcDbSymbolTableRecord
100
AcDbLayerTableRecord
2
XSEC_DATUMS
70
0
62
7
6
CONTINUOUS
370
-3
390
F
0
ENDTAB
0
TABLE
2
STYLE
5
3
100
AcDbSymbolTable
70
1
0
STYLE
5
11
100
AcDbSymbolTableRecord
100
AcDbTextStyleTableRecord
2
STANDARD
70
0
40
0.0
41
0.8000000000
50
0.0
71
0
42
0.2
3
txt
4

0
ENDTAB
0
TABLE
2
VIEW
5
6
100
AcDbSymbolTable
70
0
0
ENDTAB
0
TABLE
2
UCS
5
7
100
AcDbSymbolTable
70
0
0
ENDTAB
0
TABLE
2
APPID
5
9
100
AcDbSymbolTable
70
1
0
APPID
5
210
100
AcDbSymbolTableRecord
100
AcDbRegAppTableRecord
2
ACAD
70
0
0
ENDTAB
0
TABLE
2
BLOCK_RECORD
5
1
100
AcDbSymbolTable
70
0
0
BLOCK_RECORD
5
1F
100
AcDbSymbolTableRecord
100
AcDbBlockTableRecord
2
*MODEL_SPACE
0
BLOCK_RECORD
5
1B
100
AcDbSymbolTableRecord
100
AcDbBlockTableRecord
2
*PAPER_SPACE
0
BLOCK_RECORD
5
211
100
AcDbSymbolTableRecord
100
AcDbBlockTableRecord
2
_FILLED
0
BLOCK_RECORD
5
212
100
AcDbSymbolTableRecord
100
AcDbBlockTableRecord
2
*D0
0
BLOCK_RECORD
5
213
100
AcDbSymbolTableRecord
100
AcDbBlockTableRecord
2
*D1
0
BLOCK_RECORD
5
214
100
AcDbSymbolTableRecord
100
AcDbBlockTableRecord
2
*D2
0
ENDTAB
0
TABLE
2
DIMSTYLE
5
A
100
AcDbSymbolTable
70
1
100
AcDbDimStyleTable
71
0
0
DIMSTYLE
105
215
100
AcDbSymbolTableRecord
100
AcDbDimStyleTableRecord
2
STANDARD
70
0
3

4

40
1.0
41
3.0000000000
42
0.0625
43
0.38
44
0.18
45
0.0
46
0.0
47
0.0100000000
48
0.0100000000
140
3.0000000000
141
0.09
142
0.0
143
25.4
144
1.0000000000
145
0.0
146
1.0000000000
147
0.09
71
1
72
0
73
0
74
0
75
0
76
0
77
1
78
8
170
0
171
2
172
0
173
0
174
0
175
0
176
0
177
0
178
0
270
2
271
2
272
2
273
2
274
2
275
0
280
0
281
0
282
0
283
1
284
8
285
0
286
0
287
3
288
0
340
11
341
211
342
211
343
211
344
211
0
DIMSTYLE
105
216
100
AcDbSymbolTableRecord
100
AcDbDimStyleTableRecord
2
DIMSTYLE_1
70
0
3

4

40
1.0
41
3.0000000000
42
0.0625
43
0.38
44
0.18
45
0.0
46
0.0
47
0.0000000000
48
0.0000000000
140
3.0000000000
141
0.09
142
0.0
143
25.4
144
1.0000000000
145
0.0
146
1.0000000000
147
0.09
71
0
72
0
73
0
74
0
75
0
76
0
77
1
78
8
170
0
171
2
172
0
173
0
174
0
175
0
176
0
177
0
178
0
270
2
271
2
272
2
273
2
274
2
275
0
280
0
281
0
282
0
283
1
284
8
285
0
286
0
287
3
288
0
340
11
341
211
342
211
343
211
344
211
0
ENDTAB
0
ENDSEC
0
SECTION
2
BLOCKS
0
BLOCK
5
20
100
AcDbEntity
8
0
100
AcDbBlockBegin
2
*MODEL_SPACE
70
0
10
0.0
20
0.0
30
0.0
3
*MODEL_SPACE
1

0
ENDBLK
5
21
100
AcDbEntity
8
0
100
AcDbBlockEnd
0
BLOCK
5
1C
100
AcDbEntity
8
0
100
AcDbBlockBegin
2
*PAPER_SPACE
70
0
10
0.0
20
0.0
30
0.0
3
*PAPER_SPACE
1

0
ENDBLK
5
1D
100
AcDbEntity
8
0
100
AcDbBlockEnd
0
BLOCK
5
217
100
AcDbEntity
8
0
100
AcDbBlockBegin
62
0
6
CONTINUOUS
2
*D0
70
65
10
0.0000000000
20
0.0000000000
3
*D0
1

0
TEXT
5
218
100
AcDbEntity
8
0
100
AcDbText
62
0
6
CONTINUOUS
10
113.9325752574
20
-4.4365774222
7
STANDARD
40
3.0000000000
1
84,8
50
90.0000000000
41
0.7321428571
72
0
100
AcDbText
0
LINE
5
219
100
AcDbEntity
8
0
100
AcDbLine
62
0
6
CONTINUOUS
10
102.6301169605
20
43.2775290839
11
116.1825752574
21
43.2775290839
0
LINE
5
21A
100
AcDbEntity
8
0
100
AcDbLine
62
0
6
CONTINUOUS
10
103.3479220184
20
-41.5223736296
11
116.1825752574
21
-41.5223736296
0
LINE
5
21B
100
AcDbEntity
8
0
100
AcDbLine
62
0
6
CONTINUOUS
10
114.6825752574
20
43.2775290839
11
114.6825752574
21
0.8775777271
0
LINE
5
21C
100
AcDbEntity
8
0
100
AcDbLine
62
0
6
CONTINUOUS
10
114.6825752574
20
-41.5223736296
11
114.6825752574
21
0.8775777271
0
INSERT
5
21D
100
AcDbEntity
8
0
100
AcDbBlockReference
62
0
6
CONTINUOUS
2
_FILLED
10
114.6825752574
20
43.2775290839
41
  3.000000
42
  3.000000
43
  3.000000
50
 90.000000
0
INSERT
5
21E
100
AcDbEntity
8
0
100
AcDbBlockReference
62
0
6
CONTINUOUS
2
_FILLED
10
114.6825752574
20
-41.5223736296
41
  3.000000
42
  3.000000
43
  3.000000
50
270.000000
0
ENDBLK
5
21F
100
AcDbEntity
8
0
6
BYBLOCK
62
0
100
AcDbBlockEnd
0
BLOCK
5
220
100
AcDbEntity
8
0
100
AcDbBlockBegin
62
0
6
CONTINUOUS
2
*D1
70
65
10
0.0000000000
20
0.0000000000
3
*D1
1

0
TEXT
5
221
100
AcDbEntity
8
0
100
AcDbText
62
0
6
CONTINUOUS
10
57.8480069016
20
53.9568369648
7
STANDARD
40
3.0000000000
1
84,8
41
0.7321428571
72
0
100
AcDbText
0
LINE
5
222
100
AcDbEntity
8
0
100
AcDbLine
62
0
6
CONTINUOUS
10
103.2039361934
20
42.6046691126
11
103.2039361934
21
54.7068369648
0
LINE
5
223
100
AcDbEntity
8
0
100
AcDbLine
62
0
6
CONTINUOUS
10
18.4039361934
20
42.4123846422
11
18.4039361934
21
54.7068369648
0
LINE
5
224
100
AcDbEntity
8
0
100
AcDbLine
62
0
6
CONTINUOUS
10
103.2039361934
20
53.2068369648
11
60.8039361934
21
53.2068369648
0
LINE
5
225
100
AcDbEntity
8
0
100
AcDbLine
62
0
6
CONTINUOUS
10
18.4039361934
20
53.2068369648
11
60.8039361934
21
53.2068369648
0
INSERT
5
226
100
AcDbEntity
8
0
100
AcDbBlockReference
62
0
6
CONTINUOUS
2
_FILLED
10
103.2039361934
20
53.2068369648
41
  3.000000
42
  3.000000
43
  3.000000
0
INSERT
5
227
100
AcDbEntity
8
0
100
AcDbBlockReference
62
0
6
CONTINUOUS
2
_FILLED
10
18.4039361934
20
53.2068369648
41
  3.000000
42
  3.000000
43
  3.000000
50
180.000000
0
ENDBLK
5
228
100
AcDbEntity
8
0
6
BYBLOCK
62
0
100
AcDbBlockEnd
0
BLOCK
5
229
100
AcDbEntity
8
0
100
AcDbBlockBegin
62
0
6
CONTINUOUS
2
*D2
70
65
10
0.0000000000
20
0.0000000000
3
*D2
1

0
TEXT
5
22A
100
AcDbEntity
8
0
100
AcDbText
62
0
6
CONTINUOUS
10
-19.3816439387
20
53.8339821022
7
STANDARD
40
3.0000000000
1
9
41
0.7857142857
72
0
100
AcDbText
0
LINE
5
22B
100
AcDbEntity
8
0
100
AcDbLine
62
0
6
CONTINUOUS
10
-22.9081597103
20
42.9503027758
11
-22.9081597103
21
54.5839821022
0
LINE
5
22C
100
AcDbEntity
8
0
100
AcDbLine
62
0
6
CONTINUOUS
10
-13.9081597103
20
42.5739661976
11
-13.9081597103
21
54.5839821022
0
LINE
5
22D
100
AcDbEntity
8
0
100
AcDbLine
62
0
6
CONTINUOUS
10
-22.9081597103
20
53.0839821022
11
-18.4081597103
21
53.0839821022
0
LINE
5
22E
100
AcDbEntity
8
0
100
AcDbLine
62
0
6
CONTINUOUS
10
-13.9081597103
20
53.0839821022
11
-18.4081597103
21
53.0839821022
0
INSERT
5
22F
100
AcDbEntity
8
0
100
AcDbBlockReference
62
0
6
CONTINUOUS
2
_FILLED
10
-22.9081597103
20
53.0839821022
41
  3.000000
42
  3.000000
43
  3.000000
50
180.000000
0
INSERT
5
230
100
AcDbEntity
8
0
100
AcDbBlockReference
62
0
6
CONTINUOUS
2
_FILLED
10
-13.9081597103
20
53.0839821022
41
  3.000000
42
  3.000000
43
  3.000000
0
ENDBLK
5
231
100
AcDbEntity
8
0
6
BYBLOCK
62
0
100
AcDbBlockEnd
0
BLOCK
5
232
100
AcDbEntity
8
0
100
AcDbBlockBegin
2
_FILLED
70
64
10
0.0000000000
20
0.0000000000
3
_FILLED
1

0
SOLID
5
233
100
AcDbEntity
8
0
6
BYBLOCK
62
0
100
AcDbTrace
10
0.0000000000
20
0.0000000000
11
-1.0000000000
21
0.3166666667
12
-1.0000000000
22
-0.3166666667
13
-1.0000000000
23
-0.3166666667
0
ENDBLK
5
234
100
AcDbEntity
8
0
6
BYBLOCK
62
0
100
AcDbBlockEnd
0
ENDSEC
0
SECTION
2
ENTITIES
0
DIMENSION
5
235
100
AcDbEntity
8
0
100
AcDbDimension
62
0
6
CONTINUOUS
2
*D0
10
114.6825752574
20
-41.5223736296
11
112.4325752574
21
-0.0437202794
70
160
42
84.799903
3
DIMSTYLE_1
100
AcDbAlignedDimension
13
102.6301169605
23
43.2775290839
14
103.3479220184
24
-41.5223736296
50
270.000000
100
AcDbRotatedDimension
0
DIMENSION
5
236
100
AcDbEntity
8
0
100
AcDbDimension
62
0
6
CONTINUOUS
2
*D1
10
18.4039361934
20
53.2068369648
11
62.2408640445
21
55.4568369648
70
160
42
84.800000
3
DIMSTYLE_1
100
AcDbAlignedDimension
13
103.2039361934
23
42.6046691126
14
18.4039361934
24
42.4123846422
50
180.000000
100
AcDbRotatedDimension
0
DIMENSION
5
237
100
AcDbEntity
8
0
100
AcDbDimension
62
0
6
CONTINUOUS
2
*D2
10
-13.9081597103
20
53.0839821022
11
-18.2030725102
21
55.3339821022
70
160
42
9.000000
3
DIMSTYLE_1
100
AcDbAlignedDimension
13
-22.9081597103
23
42.9503027758
14
-13.9081597103
24
42.5739661976
100
AcDbRotatedDimension
0
LINE
5
238
100
AcDbEntity
8
0
100
AcDbLine
62
0
6
CONTINUOUS
10
18.4039361934
20
41.3888903174
11
18.4039361934
21
-39.6337348632
0
LINE
5
239
100
AcDbEntity
8
0
100
AcDbLine
62
9
6
CONTINUOUS
10
18.6270675104
20
41.1667592301
11
18.6270675104
21
-39.4116037758
0
LINE
5
23A
100
AcDbEntity
8
0
100
AcDbLine
62
9
6
CONTINUOUS
10
19.4522837217
20
41.1667592301
11
19.4522837217
21
-39.4116037758
0
LINE
5
23B
100
AcDbEntity
8
0
100
AcDbLine
62
9
6
CONTINUOUS
10
20.4524674996
20
-40.4060040866
11
101.1554048872
21
-40.4060040866
0
LINE
5
23C
100
AcDbEntity
8
0
100
AcDbLine
62
9
6
CONTINUOUS
10
19.4522837217
20
-39.4116037758
11
18.6270675104
21
-39.4116037770
0
LINE
5
23D
100
AcDbEntity
8
0
100
AcDbLine
62
9
6
CONTINUOUS
10
102.1555886651
20
-39.4116037758
11
102.9808048764
21
-39.4116037758
0
LINE
5
23E
100
AcDbEntity
8
0
100
AcDbLine
62
0
6
CONTINUOUS
10
57.1049431934
20
-24.2738492729
11
57.4908491934
21
-24.2738492729
0
LINE
5
23F
100
AcDbEntity
8
0
100
AcDbLine
62
0
6
CONTINUOUS
10
58.4472251934
20
-24.2738492729
11
58.8499101934
21
-24.2738492729
0
LINE
5
240
100
AcDbEntity
8
0
100
AcDbLine
62
0
6
CONTINUOUS
10
59.2022591934
20
-24.2738492729
11
59.6049431934
21
-24.2738492729
0
LINE
5
241
100
AcDbEntity
8
0
100
AcDbLine
62
0
6
CONTINUOUS
10
59.9908491934
20
-24.2738492729
11
60.3935341934
21
-24.2738492729
0
LINE
5
242
100
AcDbEntity
8
0
100
AcDbLine
62
0
6
CONTINUOUS
10
60.7794401934
20
-24.2738492729
11
61.1821241934
21
-24.2738492729
0
LINE
5
243
100
AcDbEntity
8
0
100
AcDbLine
62
0
6
CONTINUOUS
10
61.5009161934
20
-24.2738492729
11
61.9036011934
21
-24.2738492729
0
LINE
5
244
100
AcDbEntity
8
0
100
AcDbLine
62
0
6
CONTINUOUS
10
62.7928631934
20
-24.2738492729
11
63.1955471934
21
-24.2738492729
0
LINE
5
245
100
AcDbEntity
8
0
100
AcDbLine
62
0
6
CONTINUOUS
10
63.5143391934
20
-24.2738492729
11
63.9170241934
21
-24.2738492729
0
LINE
5
246
100
AcDbEntity
8
0
100
AcDbLine
62
0
6
CONTINUOUS
10
64.6720571934
20
-24.2738492729
11
65.1250771934
21
-24.2738492729
0
LINE
5
247
100
AcDbEntity
8
0
100
AcDbLine
62
9
6
CONTINUOUS
10
38.2081841850
20
23.6454833826
11
38.1836115538
21
24.6509863505
0
LINE
5
248
100
AcDbEntity
8
0
100
AcDbLine
62
9
6
CONTINUOUS
10
38.4079100920
20
23.7300070350
11
38.3833374608
21
24.7355100028
0
LINE
5
249
100
AcDbEntity
8
0
100
AcDbLine
62
9
6
CONTINUOUS
10
36.0912308613
20
-23.9553468902
11
36.0912308613
21
25.7105023448
0
LINE
5
24A
100
AcDbEntity
8
0
100
AcDbLine
62
0
6
CONTINUOUS
10
36.1961109874
20
-23.9553468902
11
36.1961109874
21
25.7105023448
0
LINE
5
24B
100
AcDbEntity
8
0
100
AcDbLine
62
9
6
CONTINUOUS
10
36.3133945937
20
25.6982264808
11
36.3133945937
21
-23.9430710265
0
LINE
5
24C
100
AcDbEntity
8
0
100
AcDbLine
62
9
6
CONTINUOUS
10
36.4096939728
20
-23.8550156976
11
36.4096939728
21
25.6101711519
0
LINE
5
24D
100
AcDbEntity
8
0
100
AcDbLine
62
9
6
CONTINUOUS
10
36.5047594580
20
-23.8550156976
11
36.5047594580
21
25.6101711519
0
LINE
5
24E
100
AcDbEntity
8
0
100
AcDbLine
62
9
6
CONTINUOUS
10
37.9748712086
20
25.5525727384
11
37.9748712086
21
-23.7974172759
0
LINE
5
24F
100
AcDbEntity
8
0
100
AcDbLine
62
9
6
CONTINUOUS
10
38.1836115538
20
24.6509863505
11
38.1836115538
21
-22.8958308962
0
LINE
5
250
100
AcDbEntity
8
0
100
AcDbLine
62
0
6
CONTINUOUS
10
38.3039361934
20
-21.4226963659
11
38.3039361934
21
23.1778518202
0
LINE
5
251
100
AcDbEntity
8
0
100
AcDbLine
62
9
6
CONTINUOUS
10
38.2081841850
20
-21.8903279283
11
38.1836115538
21
-22.8958308962
0
LINE
5
252
100
AcDbEntity
8
0
100
AcDbLine
62
9
6
CONTINUOUS
10
38.4079100920
20
-21.9748515807
11
38.3833374608
21
-22.9803545485
0
LINE
5
253
100
AcDbEntity
8
0
100
AcDbLine
62
9
6
CONTINUOUS
10
85.5166415255
20
-23.9553468905
11
85.4117613994
21
-23.9553468995
0
LINE
5
254
100
AcDbEntity
8
0
100
AcDbLine
62
9
6
CONTINUOUS
10
36.0912308613
20
-23.9553468902
11
36.1961109874
21
-23.9553468902
0
LINE
5
255
100
AcDbEntity
8
0
100
AcDbLine
62
9
6
CONTINUOUS
10
85.4039361934
20
-23.9430710265
11
85.2944777931
21
-23.9430710265
0
LINE
5
256
100
AcDbEntity
8
0
100
AcDbLine
62
9
6
CONTINUOUS
10
36.2039361934
20
-23.9430710265
11
36.3133945937
21
-23.9430710265
0
LINE
5
257
100
AcDbEntity
8
0
100
AcDbLine
62
0
6
CONTINUOUS
10
62.0210511934
20
-23.9240992729
11
62.6586341934
21
-23.9240992729
0
LINE
5
258
100
AcDbEntity
8
0
100
AcDbLine
62
9
6
CONTINUOUS
10
85.1981784140
20
-23.8550156976
11
85.1031129288
21
-23.8550156976
0
LINE
5
259
100
AcDbEntity
8
0
100
AcDbLine
62
9
6
CONTINUOUS
10
36.4096939728
20
-23.8550156976
11
36.5047594580
21
-23.8550156976
0
LINE
5
25A
100
AcDbEntity
8
0
100
AcDbLine
62
0
6
CONTINUOUS
10
62.5411851934
20
-23.5895562729
11
62.1552791934
21
-23.5895562729
0
LINE
5
25B
100
AcDbEntity
8
0
100
AcDbLine
62
0
6
CONTINUOUS
10
63.9170241934
20
-23.5895562729
11
64.2693731934
21
-23.5895562729
0
LINE
5
25C
100
AcDbEntity
8
0
100
AcDbLine
62
0
6
CONTINUOUS
10
64.4036027967
20
-23.2550133060
11
63.9002451934
21
-23.2550132729
0
LINE
5
25D
100
AcDbEntity
8
0
100
AcDbLine
62
0
6
CONTINUOUS
10
63.9002451934
20
-22.7988182729
11
64.4036007877
21
-22.7988182760
0
LINE
5
25E
100
AcDbEntity
8
0
100
AcDbLine
62
0
6
CONTINUOUS
10
64.4539378787
20
-22.4642752540
11
63.5143391934
21
-22.4642752729
0
LINE
5
25F
100
AcDbEntity
8
0
100
AcDbLine
62
0
6
CONTINUOUS
10
62.5411851934
20
-22.4642752729
11
62.1385001934
21
-22.4642752729
0
LINE
5
260
100
AcDbEntity
8
0
100
AcDbLine
62
0
6
CONTINUOUS
10
61.1821241934
20
-22.4642752729
11
60.5780981934
21
-22.4642752729
0
LINE
5
261
100
AcDbEntity
8
0
100
AcDbLine
62
0
6
CONTINUOUS
10
59.8230641934
20
-22.4642752729
11
59.2022591934
21
-22.4642752729
0
LINE
5
262
100
AcDbEntity
8
0
100
AcDbLine
62
0
6
CONTINUOUS
10
58.8499101934
20
-22.4642752729
11
58.4472251934
21
-22.4642752729
0
LINE
5
263
100
AcDbEntity
8
0
100
AcDbLine
62
0
6
CONTINUOUS
10
58.1452121934
20
-22.4642752729
11
57.7425271934
21
-22.4642752729
0
LINE
5
264
100
AcDbEntity
8
0
100
AcDbLine
62
0
6
CONTINUOUS
10
56.8532661934
20
-22.4642752729
11
56.4505811934
21
-22.4642752729
0
LINE
5
265
100
AcDbEntity
8
0
100
AcDbLine
62
9
6
CONTINUOUS
10
38.4079100920
20
-21.9748515807
11
83.1999622948
21
-21.9748515807
0
LINE
5
266
100
AcDbEntity
8
0
100
AcDbLine
62
9
6
CONTINUOUS
10
38.4392384290
20
-21.6868459442
11
83.1686339578
21
-21.6868459442
0
LINE
5
267
100
AcDbEntity
8
0
100
AcDbLine
62
0
6
CONTINUOUS
10
83.1042102864
20
-21.6224222729
11
38.5036621003
21
-21.6224222729
0
LINE
5
268
100
AcDbEntity
8
0
100
AcDbLine
62
0
6
CONTINUOUS
10
65.1250771934
20
-24.2738492729
11
64.6888360279
21
-23.5439369959
0
LINE
5
269
100
AcDbEntity
8
0
100
AcDbLine
62
0
6
CONTINUOUS
10
64.2693731934
20
-23.5895562729
11
64.6720571934
21
-24.2738492729
0
LINE
5
26A
100
AcDbEntity
8
0
100
AcDbLine
62
0
6
CONTINUOUS
10
56.4505811934
20
-22.4642752729
11
57.1049431934
21
-24.2738492729
0
LINE
5
26B
100
AcDbEntity
8
0
100
AcDbLine
62
0
6
CONTINUOUS
10
57.2895071934
20
-23.7264152729
11
56.8532661934
21
-22.4642752729
0
LINE
5
26C
100
AcDbEntity
8
0
100
AcDbLine
62
0
6
CONTINUOUS
10
59.6049431934
20
-23.0877422729
11
59.9908491934
21
-24.2738492729
0
LINE
5
26D
100
AcDbEntity
8
0
100
AcDbLine
62
0
6
CONTINUOUS
10
62.6586341934
20
-23.9240992729
11
62.7928631934
21
-24.2738492729
0
LINE
5
26E
100
AcDbEntity
8
0
100
AcDbLine
62
0
6
CONTINUOUS
10
63.1955471934
20
-24.2738492729
11
62.5411851934
21
-22.4642752729
0
LINE
5
26F
100
AcDbEntity
8
0
100
AcDbLine
62
0
6
CONTINUOUS
10
62.3398431934
20
-23.0269162729
11
62.5411851934
21
-23.5895562729
0
LINE
5
270
100
AcDbEntity
8
0
100
AcDbLine
62
0
6
CONTINUOUS
10
60.1921921934
20
-23.6503822729
11
59.8230641934
21
-22.4642752729
0
LINE
5
271
100
AcDbEntity
8
0
100
AcDbLine
62
0
6
CONTINUOUS
10
58.4472251934
20
-22.4642752729
11
58.4472251934
21
-24.2738492729
0
LINE
5
272
100
AcDbEntity
8
0
100
AcDbLine
62
0
6
CONTINUOUS
10
58.8499101934
20
-24.2738492729
11
58.8499101934
21
-22.4642752729
0
LINE
5
273
100
AcDbEntity
8
0
100
AcDbLine
62
0
6
CONTINUOUS
10
59.2022591934
20
-22.4642752729
11
59.2022591934
21
-24.2738492729
0
LINE
5
274
100
AcDbEntity
8
0
100
AcDbLine
62
0
6
CONTINUOUS
10
59.6049431934
20
-24.2738492729
11
59.6049431934
21
-23.0877422729
0
LINE
5
275
100
AcDbEntity
8
0
100
AcDbLine
62
0
6
CONTINUOUS
10
60.7794401934
20
-23.0877422729
11
60.7794401934
21
-24.2738492729
0
LINE
5
276
100
AcDbEntity
8
0
100
AcDbLine
62
0
6
CONTINUOUS
10
61.1821241934
20
-24.2738492729
11
61.1821241934
21
-22.4642752729
0
LINE
5
277
100
AcDbEntity
8
0
100
AcDbLine
62
9
6
CONTINUOUS
10
38.3039361934
20
-21.4226963659
11
38.2395125221
21
-21.4871200372
0
LINE
5
278
100
AcDbEntity
8
0
100
AcDbLine
62
9
6
CONTINUOUS
10
83.1042102864
20
23.3775777271
11
83.1686339578
21
23.4420013985
0
LINE
5
279
100
AcDbEntity
8
0
100
AcDbLine
62
9
6
CONTINUOUS
10
38.5036621003
20
-21.6224222729
11
38.4392384290
21
-21.6868459442
0
LINE
5
27A
100
AcDbEntity
8
0
100
AcDbLine
62
9
6
CONTINUOUS
10
83.3039361934
20
23.1778518202
11
83.3683598647
21
23.2422754915
0
LINE
5
27B
100
AcDbEntity
8
0
100
AcDbLine
62
9
6
CONTINUOUS
10
18.6270675104
20
-39.4116037758
11
18.4039361934
21
-39.6337348632
0
LINE
5
27C
100
AcDbEntity
8
0
100
AcDbLine
62
9
6
CONTINUOUS
10
101.0876501647
20
43.0599171713
11
101.3063367068
21
43.2775772143
0
LINE
5
27D
100
AcDbEntity
8
0
100
AcDbLine
62
9
6
CONTINUOUS
10
84.3996175089
20
26.7995404532
11
84.4075102344
21
26.8067477806
0
LINE
5
27E
100
AcDbEntity
8
0
100
AcDbLine
62
9
6
CONTINUOUS
10
84.3996175096
20
-25.0443849992
11
84.4075102351
21
-25.0515923266
0
LINE
5
27F
100
AcDbEntity
8
0
100
AcDbLine
62
9
6
CONTINUOUS
10
101.3063367068
20
-41.5224217600
11
101.0876501647
21
-41.3047617170
0
LINE
5
280
100
AcDbEntity
8
0
100
AcDbLine
62
9
6
CONTINUOUS
10
18.4039361934
20
41.3888903174
11
18.6270675104
21
41.1667592301
0
LINE
5
281
100
AcDbEntity
8
0
100
AcDbLine
62
9
6
CONTINUOUS
10
38.3039361934
20
23.1778518202
11
38.2395125221
21
23.2422754915
0
LINE
5
282
100
AcDbEntity
8
0
100
AcDbLine
62
9
6
CONTINUOUS
10
83.1042102864
20
-21.6224222729
11
83.1686339578
21
-21.6868459442
0
LINE
5
283
100
AcDbEntity
8
0
100
AcDbLine
62
9
6
CONTINUOUS
10
38.5036621003
20
23.3775777271
11
38.4392384290
21
23.4420013985
0
LINE
5
284
100
AcDbEntity
8
0
100
AcDbLine
62
9
6
CONTINUOUS
10
83.3039361934
20
-21.4226963659
11
83.3683598647
21
-21.4871200372
0
LINE
5
285
100
AcDbEntity
8
0
100
AcDbLine
62
0
6
CONTINUOUS
10
63.5143391934
20
-22.4642752729
11
63.5143391934
21
-24.2738492729
0
LINE
5
286
100
AcDbEntity
8
0
100
AcDbLine
62
0
6
CONTINUOUS
10
63.9002451934
20
-23.2550132729
11
63.9002451934
21
-22.7988182729
0
LINE
5
287
100
AcDbEntity
8
0
100
AcDbLine
62
0
6
CONTINUOUS
10
63.9170241934
20
-24.2738492729
11
63.9170241934
21
-23.5895562729
0
LINE
5
288
100
AcDbEntity
8
0
100
AcDbLine
62
9
6
CONTINUOUS
10
102.9808048764
20
41.1667592301
11
103.2039361934
21
41.3888903174
0
LINE
5
289
100
AcDbEntity
8
0
100
AcDbLine
62
9
6
CONTINUOUS
10
20.5202222221
20
-41.3047617170
11
20.3015356800
21
-41.5224217600
0
LINE
5
28A
100
AcDbEntity
8
0
100
AcDbLine
62
9
6
CONTINUOUS
10
37.2082548779
20
-25.0443849989
11
37.2003621524
21
-25.0515923263
0
LINE
5
28B
100
AcDbEntity
8
0
100
AcDbLine
62
9
6
CONTINUOUS
10
37.2082548772
20
26.7995404535
11
37.2003621517
21
26.8067477809
0
LINE
5
28C
100
AcDbEntity
8
0
100
AcDbLine
62
9
6
CONTINUOUS
10
103.2039361934
20
-39.6337348632
11
102.9808048764
21
-39.4116037758
0
LINE
5
28D
100
AcDbEntity
8
0
100
AcDbLine
62
9
6
CONTINUOUS
10
20.3015356800
20
43.2775772143
11
20.5202222221
21
43.0599171713
0
LINE
5
28E
100
AcDbEntity
8
0
100
AcDbLine
62
0
6
CONTINUOUS
10
60.5780981934
20
-22.4642752729
11
60.1921921934
21
-23.6503822729
0
LINE
5
28F
100
AcDbEntity
8
0
100
AcDbLine
62
0
6
CONTINUOUS
10
60.3935341934
20
-24.2738492729
11
60.7794401934
21
-23.0877422729
0
LINE
5
290
100
AcDbEntity
8
0
100
AcDbLine
62
0
6
CONTINUOUS
10
62.1552791934
20
-23.5895562729
11
62.3398431934
21
-23.0269162729
0
LINE
5
291
100
AcDbEntity
8
0
100
AcDbLine
62
0
6
CONTINUOUS
10
61.9036011934
20
-24.2738492729
11
62.0210511934
21
-23.9240992729
0
LINE
5
292
100
AcDbEntity
8
0
100
AcDbLine
62
0
6
CONTINUOUS
10
62.1385001934
20
-22.4642752729
11
61.5009161934
21
-24.2738492729
0
LINE
5
293
100
AcDbEntity
8
0
100
AcDbLine
62
0
6
CONTINUOUS
10
57.7425271934
20
-22.4642752729
11
57.2895071934
21
-23.7264152729
0
LINE
5
294
100
AcDbEntity
8
0
100
AcDbLine
62
0
6
CONTINUOUS
10
57.4908491934
20
-24.2738492729
11
58.1452121934
21
-22.4642752729
0
LINE
5
295
100
AcDbEntity
8
0
100
AcDbLine
62
9
6
CONTINUOUS
10
83.1999622948
20
-21.9748515807
11
83.2245349260
21
-22.9803545485
0
LINE
5
296
100
AcDbEntity
8
0
100
AcDbLine
62
9
6
CONTINUOUS
10
83.1999622948
20
23.7300070350
11
83.2245349260
21
24.7355100028
0
LINE
5
297
100
AcDbEntity
8
0
100
AcDbLine
62
9
6
CONTINUOUS
10
83.3996882018
20
-21.8903279283
11
83.4242608329
21
-22.8958308962
0
LINE
5
298
100
AcDbEntity
8
0
100
AcDbLine
62
0
6
CONTINUOUS
10
83.3039361934
20
23.1778518202
11
83.3039361934
21
-21.4226963659
0
LINE
5
299
100
AcDbEntity
8
0
100
AcDbLine
62
9
6
CONTINUOUS
10
83.4242608329
20
-22.8958308962
11
83.4242608329
21
24.6509863505
0
LINE
5
29A
100
AcDbEntity
8
0
100
AcDbLine
62
9
6
CONTINUOUS
10
83.6330011782
20
-23.7974172833
11
83.6330011782
21
25.5525727294
0
LINE
5
29B
100
AcDbEntity
8
0
100
AcDbLine
62
9
6
CONTINUOUS
10
85.1031129288
20
25.6101711519
11
85.1031129288
21
-23.8550156976
0
LINE
5
29C
100
AcDbEntity
8
0
100
AcDbLine
62
9
6
CONTINUOUS
10
85.1981784140
20
25.6101711519
11
85.1981784140
21
-23.8550156976
0
LINE
5
29D
100
AcDbEntity
8
0
100
AcDbLine
62
9
6
CONTINUOUS
10
85.2944777931
20
-23.9430710265
11
85.2944777931
21
25.6982264808
0
LINE
5
29E
100
AcDbEntity
8
0
100
AcDbLine
62
0
6
CONTINUOUS
10
85.4117613994
20
25.7105023444
11
85.4117613994
21
-23.9553468905
0
LINE
5
29F
100
AcDbEntity
8
0
100
AcDbLine
62
9
6
CONTINUOUS
10
85.5166415255
20
25.7105023444
11
85.5166415255
21
-23.9553468905
0
LINE
5
2A0
100
AcDbEntity
8
0
100
AcDbLine
62
9
6
CONTINUOUS
10
83.3996882018
20
23.6454833826
11
83.4242608329
21
24.6509863505
0
LINE
5
2A1
100
AcDbEntity
8
0
100
AcDbLine
62
0
6
CONTINUOUS
10
38.5036621003
20
23.3775777271
11
83.1042102864
21
23.3775777271
0
LINE
5
2A2
100
AcDbEntity
8
0
100
AcDbLine
62
9
6
CONTINUOUS
10
83.1686339578
20
23.4420013985
11
38.4392384290
21
23.4420013985
0
LINE
5
2A3
100
AcDbEntity
8
0
100
AcDbLine
62
9
6
CONTINUOUS
10
83.1999622948
20
23.7300070350
11
38.4079100920
21
23.7300070350
0
LINE
5
2A4
100
AcDbEntity
8
0
100
AcDbLine
62
9
6
CONTINUOUS
10
85.1981784140
20
25.6101711519
11
85.1031129288
21
25.6101711519
0
LINE
5
2A5
100
AcDbEntity
8
0
100
AcDbLine
62
9
6
CONTINUOUS
10
36.4096939728
20
25.6101711519
11
36.5047594580
21
25.6101711519
0
LINE
5
2A6
100
AcDbEntity
8
0
100
AcDbLine
62
9
6
CONTINUOUS
10
85.4039361934
20
25.6982264808
11
85.2944777931
21
25.6982264808
0
LINE
5
2A7
100
AcDbEntity
8
0
100
AcDbLine
62
9
6
CONTINUOUS
10
36.2039361934
20
25.6982264808
11
36.3133945937
21
25.6982264808
0
LINE
5
2A8
100
AcDbEntity
8
0
100
AcDbLine
62
9
6
CONTINUOUS
10
85.5166415255
20
25.7105023444
11
85.4117613994
21
25.7105023444
0
LINE
5
2A9
100
AcDbEntity
8
0
100
AcDbLine
62
9
6
CONTINUOUS
10
36.0912308613
20
25.7105023448
11
36.1961109874
21
25.7105023538
0
LINE
5
2AA
100
AcDbEntity
8
0
100
AcDbLine
62
9
6
CONTINUOUS
10
102.1555886651
20
-39.4116037758
11
102.1555886651
21
41.1667592301
0
LINE
5
2AB
100
AcDbEntity
8
0
100
AcDbLine
62
9
6
CONTINUOUS
10
102.9808048764
20
-39.4116037758
11
102.9808048764
21
41.1667592301
0
LINE
5
2AC
100
AcDbEntity
8
0
100
AcDbLine
62
0
6
CONTINUOUS
10
103.2039361934
20
41.3888903174
11
103.2039361934
21
-39.6337348632
0
LINE
5
2AD
100
AcDbEntity
8
0
100
AcDbLine
62
9
6
CONTINUOUS
10
19.4522837217
20
41.1667592301
11
18.6270675104
21
41.1667592301
0
LINE
5
2AE
100
AcDbEntity
8
0
100
AcDbLine
62
9
6
CONTINUOUS
10
102.1555886651
20
41.1667592301
11
102.9808048764
21
41.1667592312
0
LINE
5
2AF
100
AcDbEntity
8
0
100
AcDbLine
62
9
6
CONTINUOUS
10
101.1554048872
20
42.1611595409
11
20.4524674996
21
42.1611595409
0
LINE
5
2B0
100
AcDbEntity
8
0
100
AcDbLine
62
9
6
CONTINUOUS
10
-16.1747270738
20
-41.5224217600
11
-20.3466279478
21
-41.3047617170
0
LINE
5
2B1
100
AcDbEntity
8
0
100
AcDbLine
62
0
6
CONTINUOUS
10
-21.9552620709
20
-41.3102560553
11
-17.9081597103
21
-41.5223557025
0
LINE
5
2B2
100
AcDbEntity
8
0
100
AcDbLine
62
9
6
CONTINUOUS
10
-22.8081597103
20
-40.4114894740
11
-21.1966597520
21
-40.4060040866
0
LINE
5
2B3
100
AcDbEntity
8
0
100
AcDbLine
62
9
6
CONTINUOUS
10
-16.0081597103
20
-39.6224222729
11
-13.9081597103
21
-39.6224222729
0
LINE
5
2B4
100
AcDbEntity
8
0
100
AcDbLine
62
9
6
CONTINUOUS
10
-21.1156461091
20
-39.4116037758
11
-20.2657588694
21
-39.4116037758
0
LINE
5
2B5
100
AcDbEntity
8
0
100
AcDbLine
62
9
6
CONTINUOUS
10
-16.0081597103
20
-39.6337348632
11
-20.2657588694
21
-39.4116037758
0
LINE
5
2B6
100
AcDbEntity
8
0
100
AcDbLine
62
0
6
CONTINUOUS
10
-14.4081597103
20
-40.6224222729
11
-16.0289540839
21
-40.5374800391
0
LINE
5
2B7
100
AcDbEntity
8
0
100
AcDbLine
62
0
6
CONTINUOUS
10
-22.8133932548
20
-25.8673324358
11
-22.6581636309
21
-25.8754676757
0
LINE
5
2B8
100
AcDbEntity
8
0
100
AcDbLine
62
9
6
CONTINUOUS
10
-22.2043233238
20
-23.9553468905
11
-22.2044426590
21
-23.9553468906
0
LINE
5
2B9
100
AcDbEntity
8
0
100
AcDbLine
62
9
6
CONTINUOUS
10
-22.2303000380
20
-23.8550156976
11
-22.3249512976
21
-23.8550156976
0
LINE
5
2BA
100
AcDbEntity
8
0
100
AcDbLine
62
0
6
CONTINUOUS
10
-22.9081597103
20
27.5156456286
11
-22.9081597103
21
26.6494790560
0
LINE
5
2BB
100
AcDbEntity
8
0
100
AcDbLine
62
0
6
CONTINUOUS
10
-22.9081597103
20
-24.8943236017
11
-22.9081597103
21
-25.7604900495
0
LWPOLYLINE
5
2BC
100
AcDbEntity
8
0
100
AcDbPolyline
62
0
6
CONTINUOUS
90
4
70
0
10
-22.2375060718
20
26.7900273928
10
-22.2359500039
20
26.7742696397
10
-22.2343868429
20
26.7571522623
10
-22.2328222660
20
26.7386725947
0
LWPOLYLINE
5
2BD
100
AcDbEntity
8
0
100
AcDbPolyline
62
0
6
CONTINUOUS
90
4
70
0
10
-22.2328222660
20
26.7386725947
10
-22.2312595525
20
26.7188045207
10
-22.2297055250
20
26.6975727942
10
-22.2281641092
20
26.6749743313
0
LINE
5
2BE
100
AcDbEntity
8
0
100
AcDbLine
62
0
6
CONTINUOUS
10
-22.2281641092
20
26.6749743313
11
-22.2251315447
21
26.6256418697
0
LINE
5
2BF
100
AcDbEntity
8
0
100
AcDbLine
62
0
6
CONTINUOUS
10
-22.2251315447
20
26.6256418697
11
-22.2221922643
21
26.5708298902
0
LINE
5
2C0
100
AcDbEntity
8
0
100
AcDbLine
62
0
6
CONTINUOUS
10
-22.2221922643
20
26.5708298902
11
-22.2193786308
21
26.5106032411
0
LINE
5
2C1
100
AcDbEntity
8
0
100
AcDbLine
62
0
6
CONTINUOUS
10
-22.2193786308
20
26.5106032411
11
-22.2167199745
21
26.4450585644
0
LINE
5
2C2
100
AcDbEntity
8
0
100
AcDbLine
62
0
6
CONTINUOUS
10
-22.2167199745
20
26.4450585644
11
-22.2142440611
21
26.3743553161
0
LINE
5
2C3
100
AcDbEntity
8
0
100
AcDbLine
62
0
6
CONTINUOUS
10
-22.2142440611
20
26.3743553161
11
-22.2119832392
21
26.2987256611
0
LINE
5
2C4
100
AcDbEntity
8
0
100
AcDbLine
62
0
6
CONTINUOUS
10
-22.2119832392
20
26.2987256611
11
-22.2099679601
21
26.2184428336
0
LINE
5
2C5
100
AcDbEntity
8
0
100
AcDbLine
62
0
6
CONTINUOUS
10
-22.2099679601
20
26.2184428336
11
-22.2074612443
21
26.0899898743
0
LINE
5
2C6
100
AcDbEntity
8
0
100
AcDbLine
62
9
6
CONTINUOUS
10
-22.3936234105
20
-23.7810464912
11
-22.3934201596
21
-23.7974172833
0
LINE
5
2C7
100
AcDbEntity
8
0
100
AcDbLine
62
0
6
CONTINUOUS
10
-22.2074612443
20
26.0899898743
11
-22.2056579803
21
25.9530963158
0
LINE
5
2C8
100
AcDbEntity
8
0
100
AcDbLine
62
0
6
CONTINUOUS
10
-22.2056579803
20
25.9530963158
11
-22.2046411469
21
25.8093663130
0
LINE
5
2C9
100
AcDbEntity
8
0
100
AcDbLine
62
0
6
CONTINUOUS
10
-22.8081597103
20
42.1666449273
11
-22.8081597103
21
27.9352658018
0
LINE
5
2CA
100
AcDbEntity
8
0
100
AcDbLine
62
0
6
CONTINUOUS
10
-22.8081597103
20
-26.1801937173
11
-22.8081597103
21
-40.4114894739
0
LINE
5
2CB
100
AcDbEntity
8
0
100
AcDbLine
62
0
6
CONTINUOUS
10
-22.3936234131
20
-23.7811086886
11
-22.3936234131
21
25.5362644253
0
LINE
5
2CC
100
AcDbEntity
8
0
100
AcDbLine
62
9
6
CONTINUOUS
10
-22.3934201596
20
-23.7974172833
11
-22.3934201596
21
-23.7808459091
0
LINE
5
2CD
100
AcDbEntity
8
0
100
AcDbLine
62
9
6
CONTINUOUS
10
-22.3934201596
20
25.5359924590
11
-22.3934201596
21
25.5525727294
0
LINE
5
2CE
100
AcDbEntity
8
0
100
AcDbLine
62
0
6
CONTINUOUS
10
-22.3936233958
20
25.5359924590
11
-22.3936234102
21
25.5362058966
0
LINE
5
2CF
100
AcDbEntity
8
0
100
AcDbLine
62
9
6
CONTINUOUS
10
-22.3249512976
20
25.6101711519
11
-22.3249512976
21
-23.8550156976
0
LINE
5
2D0
100
AcDbEntity
8
0
100
AcDbLine
62
9
6
CONTINUOUS
10
-22.2303000380
20
25.6101711519
11
-22.2303000380
21
-23.8550156976
0
LINE
5
2D1
100
AcDbEntity
8
0
100
AcDbLine
62
0
6
CONTINUOUS
10
-22.2046411469
20
25.8093663130
11
-22.2044426590
21
-23.9553468907
0
LINE
5
2D2
100
AcDbEntity
8
0
100
AcDbLine
62
9
6
CONTINUOUS
10
-21.1156461091
20
-39.4116037758
11
-21.1156461091
21
41.1667592301
0
LINE
5
2D3
100
AcDbEntity
8
0
100
AcDbLine
62
9
6
CONTINUOUS
10
-20.2657588694
20
-39.4116037758
11
-20.2657588694
21
41.1667592301
0
LINE
5
2D4
100
AcDbEntity
8
0
100
AcDbLine
62
0
6
CONTINUOUS
10
-22.2044403770
20
-23.9553468908
11
-22.2048902439
21
-24.1030252084
0
LINE
5
2D5
100
AcDbEntity
8
0
100
AcDbLine
62
0
6
CONTINUOUS
10
-22.2048902439
20
-24.1030252084
11
-22.2059058743
21
-24.2213247825
0
LINE
5
2D6
100
AcDbEntity
8
0
100
AcDbLine
62
9
6
CONTINUOUS
10
-22.3936234102
20
25.5362058966
11
-22.3934201596
21
25.5525727294
0
LINE
5
2D7
100
AcDbEntity
8
0
100
AcDbLine
62
0
6
CONTINUOUS
10
-22.2059058743
20
-24.2213247825
11
-22.2074710173
21
-24.3353951145
0
LINE
5
2D8
100
AcDbEntity
8
0
100
AcDbLine
62
0
6
CONTINUOUS
10
-22.2074710173
20
-24.3353951145
11
-22.2095383615
21
-24.4440934897
0
LINE
5
2D9
100
AcDbEntity
8
0
100
AcDbLine
62
0
6
CONTINUOUS
10
-22.2095383615
20
-24.4440934897
11
-22.2120607859
21
-24.5463617885
0
LINE
5
2DA
100
AcDbEntity
8
0
100
AcDbLine
62
0
6
CONTINUOUS
10
-22.2120607859
20
-24.5463617885
11
-22.2149780334
21
-24.6412834673
0
LINE
5
2DB
100
AcDbEntity
8
0
100
AcDbLine
62
0
6
CONTINUOUS
10
-22.2149780334
20
-24.6412834673
11
-22.2182256959
21
-24.7281864090
0
LWPOLYLINE
5
2DC
100
AcDbEntity
8
0
100
AcDbPolyline
62
0
6
CONTINUOUS
90
4
70
0
10
-22.2182256959
20
-24.7281864090
10
-22.2217396587
20
-24.8065265605
10
-22.2235733367
20
-24.8423594417
10
-22.2254462489
20
-24.8759389512
0
LWPOLYLINE
5
2DD
100
AcDbEntity
8
0
100
AcDbPolyline
62
0
6
CONTINUOUS
90
13
70
0
10
-22.2254462489
20
-24.8759389512
10
-22.2273518151
20
-24.9072764444
10
-22.2292787863
20
-24.9363249053
10
-22.2312198052
20
-24.9631201020
10
-22.2331664691
20
-24.9876915427
10
-22.2351033959
20
-25.0100000447
10
-22.2370226211
20
-25.0301110396
10
-22.2389152255
20
-25.0480781158
10
-22.2407581774
20
-25.0638493840
10
-22.2425493364
20
-25.0775797290
10
-22.2442640553
20
-25.0892549454
10
-22.2458161277
20
-25.0985559985
10
-22.2464352247
20
-25.1019160138
0
LINE
5
2DE
100
AcDbEntity
8
0
100
AcDbLine
62
0
6
CONTINUOUS
10
-16.0081597103
20
-2.6047895748
11
-13.9081597103
21
-2.9750762343
0
LWPOLYLINE
5
2DF
100
AcDbEntity
8
0
100
AcDbPolyline
62
0
6
CONTINUOUS
90
9
70
0
10
-22.2481038173
20
26.8649982082
10
-22.2472128681
20
26.8609894691
10
-22.2461094737
20
26.8553299214
10
-22.2448265078
20
26.8479223594
10
-22.2434604878
20
26.8391187081
10
-22.2420369426
20
26.8289664280
10
-22.2405553136
20
26.8173482522
10
-22.2390422909
20
26.8043711260
10
-22.2375060718
20
26.7900273928
0
LINE
5
2E0
100
AcDbEntity
8
0
100
AcDbLine
62
0
6
CONTINUOUS
10
-16.0081597103
20
41.3888903174
11
-16.0081597103
21
-39.6337348632
0
LINE
5
2E1
100
AcDbEntity
8
0
100
AcDbLine
62
0
6
CONTINUOUS
10
-15.9081597103
20
4.3775777271
11
-15.9081597103
21
-2.6224222729
0
LINE
5
2E2
100
AcDbEntity
8
0
100
AcDbLine
62
0
6
CONTINUOUS
10
-14.4081597103
20
42.3775777271
11
-14.4081597103
21
4.6420681982
0
LINE
5
2E3
100
AcDbEntity
8
0
100
AcDbLine
62
0
6
CONTINUOUS
10
-14.4081597103
20
-2.8869127439
11
-14.4081597103
21
-40.6224222729
0
LINE
5
2E4
100
AcDbEntity
8
0
100
AcDbLine
62
0
6
CONTINUOUS
10
-13.9081597103
20
41.8775777271
11
-13.9081597103
21
4.7302316886
0
LINE
5
2E5
100
AcDbEntity
8
0
100
AcDbLine
62
0
6
CONTINUOUS
10
-13.9081597103
20
-2.9750762343
11
-13.9081597103
21
-40.1224222729
0
LWPOLYLINE
5
2E6
100
AcDbEntity
8
0
100
AcDbPolyline
62
0
6
CONTINUOUS
90
5
70
0
10
-22.7962953011
20
-26.1330349654
10
-22.8015141888
20
-26.1444341793
10
-22.8052657492
20
-26.1563968495
10
-22.8074910037
20
-26.1687349508
10
-22.8081597100
20
-26.1802802570
0
LINE
5
2E7
100
AcDbEntity
8
0
100
AcDbLine
62
0
6
CONTINUOUS
10
-22.3936234131
20
-23.7530786688
11
-22.8894940780
21
-24.8164767413
0
LINE
5
2E8
100
AcDbEntity
8
0
100
AcDbLine
62
0
6
CONTINUOUS
10
-22.3936234131
20
25.5082341231
11
-22.8894940788
21
26.5716321973
0
LINE
5
2E9
100
AcDbEntity
8
0
100
AcDbLine
62
0
6
CONTINUOUS
10
-22.2449968244
20
-25.1040372301
11
-22.6853939599
21
-25.9262571606
0
LINE
5
2EA
100
AcDbEntity
8
0
100
AcDbLine
62
0
6
CONTINUOUS
10
-22.6853939599
20
-25.9262571606
11
-22.7962879276
21
-26.1330212128
0
LINE
5
2EB
100
AcDbEntity
8
0
100
AcDbLine
62
0
6
CONTINUOUS
10
-16.0081597103
20
4.3599450291
11
-13.9081597103
21
4.7302316886
0
LINE
5
2EC
100
AcDbEntity
8
0
100
AcDbLine
62
0
6
CONTINUOUS
10
-22.7962881453
20
27.8881770764
11
-22.3535689983
21
27.0620635630
0
LINE
5
2ED
100
AcDbEntity
8
0
100
AcDbLine
62
0
6
CONTINUOUS
10
-22.3535689983
20
27.0620635630
11
-22.2481038173
21
26.8649982082
0
LINE
5
2EE
100
AcDbEntity
8
0
100
AcDbLine
62
9
6
CONTINUOUS
10
-22.2303000380
20
25.6101711519
11
-22.3249512976
21
25.6101711519
0
LINE
5
2EF
100
AcDbEntity
8
0
100
AcDbLine
62
9
6
CONTINUOUS
10
-22.2043233238
20
25.7105023444
11
-22.2044426590
21
25.7105023444
0
LINE
5
2F0
100
AcDbEntity
8
0
100
AcDbLine
62
0
6
CONTINUOUS
10
-13.9081597103
20
-40.1224222729
11
-14.4081597103
21
-40.6224222729
0
LINE
5
2F1
100
AcDbEntity
8
0
100
AcDbLine
62
0
6
CONTINUOUS
10
-22.6581636291
20
27.6306231301
11
-22.8133932548
21
27.6224878901
0
LINE
5
2F2
100
AcDbEntity
8
0
100
AcDbLine
62
0
6
CONTINUOUS
10
-14.4081597103
20
42.3775777271
11
-13.9081597103
21
41.8775777271
0
LINE
5
2F3
100
AcDbEntity
8
0
100
AcDbLine
62
0
6
CONTINUOUS
10
-16.0289540839
20
42.2926354933
11
-14.4081597103
21
42.3775777271
0
LINE
5
2F4
100
AcDbEntity
8
0
100
AcDbLine
62
0
6
CONTINUOUS
10
-17.9081597103
20
43.2775111568
11
-21.9552620709
21
43.0654115096
0
LINE
5
2F5
100
AcDbEntity
8
0
100
AcDbLine
62
9
6
CONTINUOUS
10
-20.2657588694
20
41.1667592301
11
-16.0081597103
21
41.3888903174
0
LINE
5
2F6
100
AcDbEntity
8
0
100
AcDbLine
62
9
6
CONTINUOUS
10
-20.3466279478
20
43.0599171713
11
-16.1747270738
21
43.2775772143
0
LINE
5
2F7
100
AcDbEntity
8
0
100
AcDbLine
62
9
6
CONTINUOUS
10
-21.1156461091
20
41.1667592301
11
-20.2657588699
21
41.1667592312
0
LINE
5
2F8
100
AcDbEntity
8
0
100
AcDbLine
62
9
6
CONTINUOUS
10
-16.0081597103
20
41.3775777271
11
-13.9081597103
21
41.3775777271
0
LINE
5
2F9
100
AcDbEntity
8
0
100
AcDbLine
62
9
6
CONTINUOUS
10
-21.1966597520
20
42.1611595409
11
-22.8081597103
21
42.1666449283
0
ARC
5
2FA
100
AcDbEntity
8
0
100
AcDbCircle
62
0
6
CONTINUOUS
10
-22.7081597103
20
27.9354357151
40
0.1000000000
100
AcDbArc
50
180.0000000000
51
208.1936386071
0
ARC
5
2FB
100
AcDbEntity
8
0
100
AcDbCircle
62
0
6
CONTINUOUS
10
-21.9081597103
20
-40.4114894740
40
0.9000000000
100
AcDbArc
50
180.0000000000
51
267.0000000000
0
ARC
5
2FC
100
AcDbEntity
8
0
100
AcDbCircle
62
0
6
CONTINUOUS
10
-21.9081597103
20
42.1666449283
40
0.9000000000
100
AcDbArc
50
93.0000000000
51
180.0000000000
0
ARC
5
2FD
100
AcDbEntity
8
0
100
AcDbCircle
62
0
6
CONTINUOUS
10
-22.8081596315
20
-25.7674689552
40
0.1000000000
100
AcDbArc
50
180.0000000000
51
266.9999999650
0
ARC
5
2FE
100
AcDbEntity
8
0
100
AcDbCircle
62
0
6
CONTINUOUS
10
-22.8081596315
20
27.5226244095
40
0.1000000000
100
AcDbArc
50
93.0000000350
51
180.0000000000
0
ARC
5
2FF
100
AcDbEntity
8
0
100
AcDbCircle
62
0
6
CONTINUOUS
10
-22.7081597103
20
-24.9008442515
40
0.2000000000
100
AcDbArc
50
155.0000000000
51
180.0000000000
0
ARC
5
300
100
AcDbEntity
8
0
100
AcDbCircle
62
0
6
CONTINUOUS
10
-22.7081597103
20
26.6559997058
40
0.2000000000
100
AcDbArc
50
180.0000000000
51
205.0000000000
0
SPLINE
5
301
100
AcDbEntity
8
0
100
AcDbSpline
62
0
6
CONTINUOUS
70
0
71
3
72
13
73
9
74
7
42
0.0000001000
43
0.0000001000
44
0.0000000001
12
1.5982000588
22
-0.0000033228
32
0.0000000000
13
-1.4979737410
23
-0.5570612349
33
0.0000000000
40
0.0000000000
40
0.0000000000
40
0.0000000000
40
0.0000000000
40
0.2256548510
40
0.3632762672
40
0.5068411657
40
0.6481249018
40
0.7809163760
40
1.0000000000
40
1.0000000000
40
1.0000000000
40
1.0000000000
10
64.4539378787
20
-22.4642751674
30
0.0000000000
10
64.5741517441
20
-22.4642754173
30
0.0000000000
10
64.7731441468
20
-22.5179931358
30
0.0000000000
10
64.9784466496
20
-22.7014245697
30
0.0000000000
10
65.0779791603
20
-22.9115441782
30
0.0000000000
10
65.0755188355
20
-23.1418959569
30
0.0000000000
10
64.9614204607
20
-23.3855362333
30
0.0000000000
10
64.7982298665
20
-23.5032559978
30
0.0000000000
10
64.6888360279
20
-23.5439369959
30
0.0000000000
11
64.4539378787
21
-22.4642751674
31
0.0000000000
11
64.8013629995
21
-22.5610125798
31
0.0000000000
11
64.9646245595
21
-22.7083968729
31
0.0000000000
11
65.0610432003
21
-22.9166002073
31
0.0000000000
11
65.0590475703
21
-23.1423910160
31
0.0000000000
11
64.9697383178
21
-23.3349118797
31
0.0000000000
11
64.6888360279
21
-23.5439369959
31
0.0000000000
0
SPLINE
5
302
100
AcDbEntity
8
0
100
AcDbSpline
62
0
6
CONTINUOUS
70
0
71
3
72
13
73
9
74
7
42
0.0000001000
43
0.0000001000
44
0.0000000001
12
0.7427837281
22
0.0000054052
32
0.0000000000
13
-0.7427828857
23
-0.0000005086
33
0.0000000000
40
0.0000000000
40
0.0000000000
40
0.0000000000
40
0.0000000000
40
0.2559134665
40
0.3844859318
40
0.4999986477
40
0.6155113636
40
0.7440838289
40
1.0000000000
40
1.0000000000
40
1.0000000000
40
1.0000000000
10
64.4036027967
20
-23.2550134583
30
0.0000000000
10
64.4669655829
20
-23.2550129972
30
0.0000000000
10
64.5672696059
20
-23.2191541676
30
0.0000000000
10
64.6421534382
20
-23.1165370520
30
0.0000000000
10
64.6614903425
20
-23.0269158744
30
0.0000000000
10
64.6421534382
20
-22.9372946968
30
0.0000000000
10
64.5672692008
20
-22.8346770261
30
0.0000000000
10
64.4669641718
20
-22.7988182471
30
0.0000000000
10
64.4036007877
20
-22.7988182905
30
0.0000000000
11
64.4036027967
21
-23.2550134583
31
0.0000000000
11
64.5815640661
21
-23.1882052228
31
0.0000000000
11
64.6376080695
21
-23.1108773883
31
0.0000000000
11
64.6552787980
21
-23.0269158744
31
0.0000000000
11
64.6376080695
21
-22.9429543605
31
0.0000000000
11
64.5815640661
21
-22.8656265260
31
0.0000000000
11
64.4036007877
21
-22.7988182905
31
0.0000000000
0
SPLINE
5
303
100
AcDbEntity
8
0
100
AcDbSpline
62
0
6
CONTINUOUS
70
0
71
3
72
18
73
14
74
12
42
0.0000001000
43
0.0000001000
44
0.0000000001
12
0.0000000000
22
-0.3135008667
32
0.0000000000
13
0.3135008667
23
0.0000000000
33
0.0000000000
40
0.0000000000
40
0.0000000000
40
0.0000000000
40
0.0000000000
40
0.0905965809
40
0.1818254497
40
0.2726484109
40
0.3630811275
40
0.4541684343
40
0.5458041970
40
0.6368360002
40
0.7272674904
40
0.8181534744
40
0.9094159311
40
1.0000000000
40
1.0000000000
40
1.0000000000
40
1.0000000000
10
38.3039361934
20
-21.4226963659
30
0.0000000000
10
38.3039361934
20
-21.4321637348
30
0.0000000000
10
38.3052880137
20
-21.4511920647
30
0.0000000000
10
38.3113474243
20
-21.4791273860
30
0.0000000000
10
38.3213186788
20
-21.5059036925
30
0.0000000000
10
38.3349820913
20
-21.5309781678
30
0.0000000000
10
38.3521252756
20
-21.5539241850
30
0.0000000000
10
38.3724236475
20
-21.5742234279
30
0.0000000000
10
38.3953633030
20
-21.5913649641
30
0.0000000000
10
38.4204365551
20
-21.6050319931
30
0.0000000000
10
38.4472215474
20
-21.6150090065
30
0.0000000000
10
38.4751655177
20
-21.6210704853
30
0.0000000000
10
38.4941960390
20
-21.6224222729
30
0.0000000000
10
38.5036621003
20
-21.6224222729
30
0.0000000000
11
38.3039361934
21
-21.4226963659
31
0.0000000000
11
38.3059509245
21
-21.4510269240
31
0.0000000000
11
38.3120133665
21
-21.4789773379
31
0.0000000000
11
38.3219507946
21
-21.5056599847
31
0.0000000000
11
38.3355164654
21
-21.5305544972
31
0.0000000000
11
38.3526079604
21
-21.5534307525
31
0.0000000000
11
38.3729212089
21
-21.5737448771
31
0.0000000000
11
38.3957820412
21
-21.5908279428
31
0.0000000000
11
38.4206744324
21
-21.6043967025
31
0.0000000000
11
38.4473747715
21
-21.6143432359
31
0.0000000000
11
38.4753354352
21
-21.6204080983
31
0.0000000000
11
38.5036621003
21
-21.6224222729
31
0.0000000000
0
SPLINE
5
304
100
AcDbEntity
8
0
100
AcDbSpline
62
0
6
CONTINUOUS
70
0
71
3
72
18
73
14
74
12
42
0.0000001000
43
0.0000001000
44
0.0000000001
12
0.3135008667
22
0.0000000000
32
0.0000000000
13
-0.0000000000
23
0.3135008667
33
0.0000000000
40
0.0000000000
40
0.0000000000
40
0.0000000000
40
0.0000000000
40
0.0905965809
40
0.1818254497
40
0.2726484109
40
0.3630811275
40
0.4541684343
40
0.5458041970
40
0.6368360002
40
0.7272674904
40
0.8181534744
40
0.9094159311
40
1.0000000000
40
1.0000000000
40
1.0000000000
40
1.0000000000
10
83.1042102864
20
-21.6224222729
30
0.0000000000
10
83.1136776553
20
-21.6224222729
30
0.0000000000
10
83.1327059853
20
-21.6210704526
30
0.0000000000
10
83.1606413066
20
-21.6150110420
30
0.0000000000
10
83.1874176131
20
-21.6050397875
30
0.0000000000
10
83.2124920884
20
-21.5913763750
30
0.0000000000
10
83.2354381056
20
-21.5742331907
30
0.0000000000
10
83.2557373485
20
-21.5539348187
30
0.0000000000
10
83.2728788846
20
-21.5309951633
30
0.0000000000
10
83.2865459136
20
-21.5059219111
30
0.0000000000
10
83.2965229271
20
-21.4791369188
30
0.0000000000
10
83.3025844059
20
-21.4511929486
30
0.0000000000
10
83.3039361934
20
-21.4321624273
30
0.0000000000
10
83.3039361934
20
-21.4226963659
30
0.0000000000
11
83.1042102864
21
-21.6224222729
31
0.0000000000
11
83.1325408445
21
-21.6204075418
31
0.0000000000
11
83.1604912585
21
-21.6143450998
31
0.0000000000
11
83.1871739053
21
-21.6044076717
31
0.0000000000
11
83.2120684177
21
-21.5908420008
31
0.0000000000
11
83.2349446731
21
-21.5737505059
31
0.0000000000
11
83.2552587977
21
-21.5534372574
31
0.0000000000
11
83.2723418634
21
-21.5305764250
31
0.0000000000
11
83.2859106230
21
-21.5056840338
31
0.0000000000
11
83.2958571565
21
-21.4789836948
31
0.0000000000
11
83.3019220189
21
-21.4510230311
31
0.0000000000
11
83.3039361934
21
-21.4226963659
31
0.0000000000
0
SPLINE
5
305
100
AcDbEntity
8
0
100
AcDbSpline
62
0
6
CONTINUOUS
70
0
71
3
72
18
73
14
74
12
42
0.0000001000
43
0.0000001000
44
0.0000000001
12
0.0000000000
22
0.3135008667
32
0.0000000000
13
-0.3135008667
23
-0.0000000000
33
0.0000000000
40
0.0000000000
40
0.0000000000
40
0.0000000000
40
0.0000000000
40
0.0905965809
40
0.1818254497
40
0.2726484109
40
0.3630811275
40
0.4541684343
40
0.5458041970
40
0.6368360002
40
0.7272674904
40
0.8181534744
40
0.9094159311
40
1.0000000000
40
1.0000000000
40
1.0000000000
40
1.0000000000
10
83.3039361934
20
23.1778518202
30
0.0000000000
10
83.3039361934
20
23.1873191891
30
0.0000000000
10
83.3025843731
20
23.2063475190
30
0.0000000000
10
83.2965249625
20
23.2342828403
30
0.0000000000
10
83.2865537080
20
23.2610591468
30
0.0000000000
10
83.2728902955
20
23.2861336221
30
0.0000000000
10
83.2557471112
20
23.3090796393
30
0.0000000000
10
83.2354487393
20
23.3293788822
30
0.0000000000
10
83.2125090838
20
23.3465204184
30
0.0000000000
10
83.1874358316
20
23.3601874474
30
0.0000000000
10
83.1606508394
20
23.3701644608
30
0.0000000000
10
83.1327068691
20
23.3762259396
30
0.0000000000
10
83.1136763478
20
23.3775777271
30
0.0000000000
10
83.1042102864
20
23.3775777271
30
0.0000000000
11
83.3039361934
21
23.1778518202
31
0.0000000000
11
83.3019214623
21
23.2061823782
31
0.0000000000
11
83.2958590203
21
23.2341327922
31
0.0000000000
11
83.2859215922
21
23.2608154390
31
0.0000000000
11
83.2723559214
21
23.2857099515
31
0.0000000000
11
83.2552644264
21
23.3085862068
31
0.0000000000
11
83.2349511779
21
23.3289003314
31
0.0000000000
11
83.2120903455
21
23.3459833971
31
0.0000000000
11
83.1871979543
21
23.3595521568
31
0.0000000000
11
83.1604976153
21
23.3694986902
31
0.0000000000
11
83.1325369516
21
23.3755635526
31
0.0000000000
11
83.1042102864
21
23.3775777271
31
0.0000000000
0
SPLINE
5
306
100
AcDbEntity
8
0
100
AcDbSpline
62
0
6
CONTINUOUS
70
0
71
3
72
18
73
14
74
12
42
0.0000001000
43
0.0000001000
44
0.0000000001
12
-0.3135008667
22
0.0000000000
32
0.0000000000
13
-0.0000000000
23
-0.3135008667
33
0.0000000000
40
0.0000000000
40
0.0000000000
40
0.0000000000
40
0.0000000000
40
0.0905965809
40
0.1818254497
40
0.2726484109
40
0.3630811275
40
0.4541684343
40
0.5458041970
40
0.6368360002
40
0.7272674904
40
0.8181534744
40
0.9094159311
40
1.0000000000
40
1.0000000000
40
1.0000000000
40
1.0000000000
10
38.5036621003
20
23.3775777271
30
0.0000000000
10
38.4941947315
20
23.3775777271
30
0.0000000000
10
38.4751664015
20
23.3762259069
30
0.0000000000
10
38.4472310802
20
23.3701664963
30
0.0000000000
10
38.4204547737
20
23.3601952418
30
0.0000000000
10
38.3953802984
20
23.3465318293
30
0.0000000000
10
38.3724342812
20
23.3293886449
30
0.0000000000
10
38.3521350383
20
23.3090902730
30
0.0000000000
10
38.3349935022
20
23.2861506175
30
0.0000000000
10
38.3213264732
20
23.2610773654
30
0.0000000000
10
38.3113494597
20
23.2342923731
30
0.0000000000
10
38.3052879809
20
23.2063484029
30
0.0000000000
10
38.3039361934
20
23.1873178816
30
0.0000000000
10
38.3039361934
20
23.1778518202
30
0.0000000000
11
38.5036621003
21
23.3775777271
31
0.0000000000
11
38.4753315423
21
23.3755629961
31
0.0000000000
11
38.4473811283
21
23.3695005541
31
0.0000000000
11
38.4206984815
21
23.3595631260
31
0.0000000000
11
38.3958039690
21
23.3459974551
31
0.0000000000
11
38.3729277137
21
23.3289059602
31
0.0000000000
11
38.3526135891
21
23.3085927117
31
0.0000000000
11
38.3355305234
21
23.2857318793
31
0.0000000000
11
38.3219617638
21
23.2608394881
31
0.0000000000
11
38.3120152303
21
23.2341391490
31
0.0000000000
11
38.3059503679
21
23.2061784854
31
0.0000000000
11
38.3039361934
21
23.1778518202
31
0.0000000000
0
SPLINE
5
307
100
AcDbEntity
8
0
100
AcDbSpline
62
9
6
CONTINUOUS
70
0
71
3
72
15
73
11
74
9
42
0.0000001000
43
0.0000001000
44
0.0000000001
12
-0.0591464814
22
-0.0802738478
32
0.0000000000
13
0.0086232554
23
-0.0993369839
33
0.0000000000
40
0.0000000000
40
0.0000000000
40
0.0000000000
40
0.0000000000
40
0.0290956722
40
0.0922042099
40
0.1876231429
40
0.3120714755
40
0.4611572893
40
0.6295850103
40
0.8113583914
40
1.0000000000
40
1.0000000000
40
1.0000000000
40
1.0000000000
10
37.3213954428
20
26.6029731256
30
0.0000000000
10
37.3208218073
20
26.6021945851
30
0.0000000000
10
37.3207741485
20
26.5988828068
30
0.0000000000
10
37.3203413399
20
26.5928500171
30
0.0000000000
10
37.3205811418
20
26.5833432065
30
0.0000000000
10
37.3209684326
20
26.5711278482
30
0.0000000000
10
37.3217417261
20
26.5564431866
30
0.0000000000
10
37.3227877991
20
26.5398861118
30
0.0000000000
10
37.3241021941
20
26.5220231772
30
0.0000000000
10
37.3251137125
20
26.5097535522
30
0.0000000000
10
37.3256559474
20
26.5035071894
30
0.0000000000
11
37.3213954428
21
26.6029731256
31
0.0000000000
11
37.3207752954
21
26.6001390358
31
0.0000000000
11
37.3204951171
21
26.5938526884
31
0.0000000000
11
37.3205649176
21
26.5843386686
31
0.0000000000
11
37.3209822032
21
26.5719368733
31
0.0000000000
11
37.3217320661
21
26.5570903673
31
0.0000000000
11
37.3227877166
21
26.5403295552
31
0.0000000000
11
37.3241114408
21
26.5222532317
31
0.0000000000
11
37.3256559474
21
26.5035071894
31
0.0000000000
0
SPLINE
5
308
100
AcDbEntity
8
0
100
AcDbSpline
62
9
6
CONTINUOUS
70
0
71
3
72
26
73
22
74
20
42
0.0000001000
43
0.0000001000
44
0.0000000001
12
46.8384745605
22
4.0739097634
32
0.0000000000
13
46.8384745621
23
-4.0739097453
33
0.0000000000
40
0.0000000000
40
0.0000000000
40
0.0000000000
40
0.0000000000
40
0.0309063564
40
0.0662619538
40
0.1060921540
40
0.1504208143
40
0.1992808571
40
0.2530832756
40
0.3130887011
40
0.3808526208
40
0.4588049718
40
0.5415332338
40
0.6194294079
40
0.6871335694
40
0.7470937287
40
0.8008595018
40
0.8496862233
40
0.8939814241
40
0.9337806436
40
0.9691106993
40
1.0000000000
40
1.0000000000
40
1.0000000000
40
1.0000000000
10
37.3256559474
20
26.5035071894
30
0.0000000000
10
37.8081914767
20
26.5454770917
30
0.0000000000
10
38.8429710316
20
26.6326849908
30
0.0000000000
10
40.5005350407
20
26.7627860651
30
0.0000000000
10
42.3687266016
20
26.8971633687
30
0.0000000000
10
44.4490533020
20
27.0315409151
30
0.0000000000
10
46.7490264500
20
27.1614437368
30
0.0000000000
10
49.2954803128
20
27.2825207466
30
0.0000000000
10
52.1390672208
20
27.3896005589
30
0.0000000000
10
55.3620275830
20
27.4752032156
30
0.0000000000
10
58.9419213413
20
27.5250055158
30
0.0000000000
10
62.6809718083
20
27.5248957956
30
0.0000000000
10
66.2590459280
20
27.4749262475
30
0.0000000000
10
69.4794769364
20
27.3892497447
30
0.0000000000
10
72.3208413761
20
27.2821550788
30
0.0000000000
10
74.8654879646
20
27.1610937684
30
0.0000000000
10
77.1638399765
20
27.0312330134
30
0.0000000000
10
79.2426356173
20
26.8969216596
30
0.0000000000
10
81.1094192485
20
26.7626267145
30
0.0000000000
10
82.7658329992
20
26.6326072968
30
0.0000000000
10
83.7999471973
20
26.5454539304
30
0.0000000000
10
84.2822164394
20
26.5035071894
30
0.0000000000
11
37.3256559474
21
26.5035071894
31
0.0000000000
11
38.7735949557
21
26.6255347098
31
0.0000000000
11
40.4307526604
21
26.7556039844
31
0.0000000000
11
42.2985562907
21
26.8899537526
31
0.0000000000
11
44.3783476566
21
27.0242964759
31
0.0000000000
11
46.6718625430
21
27.1538337379
31
0.0000000000
11
49.1985454250
21
27.2739719311
31
0.0000000000
11
52.0177210494
21
27.3801320565
31
0.0000000000
11
55.2025396460
21
27.4647209102
31
0.0000000000
11
58.8671390369
21
27.5157024599
31
0.0000000000
11
62.7566339786
21
27.5155883307
31
0.0000000000
11
66.4185897061
21
27.4644464706
31
0.0000000000
11
69.6005960397
21
27.3797929814
31
0.0000000000
11
72.4176412926
21
27.2736153650
31
0.0000000000
11
74.9425999171
21
27.1534894729
31
0.0000000000
11
77.2345479048
21
27.0239913535
31
0.0000000000
11
79.3127673320
21
26.8897174697
31
0.0000000000
11
81.1791167939
21
26.7554533909
31
0.0000000000
11
82.8350766567
21
26.6254695104
31
0.0000000000
11
84.2822164394
21
26.5035071894
31
0.0000000000
0
SPLINE
5
309
100
AcDbEntity
8
0
100
AcDbSpline
62
9
6
CONTINUOUS
70
0
71
3
72
26
73
22
74
20
42
0.0000001000
43
0.0000001000
44
0.0000000001
12
46.8469252567
22
4.0754929017
32
0.0000000000
13
46.8469252574
23
-4.0754928926
33
0.0000000000
40
0.0000000000
40
0.0000000000
40
0.0000000000
40
0.0000000000
40
0.0309064249
40
0.0662620491
40
0.1060922704
40
0.1504209437
40
0.1992809935
40
0.2530834092
40
0.3130888169
40
0.3808527092
40
0.4588050068
40
0.5415332007
40
0.6194293211
40
0.6871334548
40
0.7470935961
40
0.8008593662
40
0.8496860946
40
0.8939813083
40
0.9337805488
40
0.9691106313
40
1.0000000000
40
1.0000000000
40
1.0000000000
40
1.0000000000
10
37.3213954428
20
26.6029731256
30
0.0000000000
10
37.8040191017
20
26.6449594307
30
0.0000000000
10
38.8389869443
20
26.7322013443
30
0.0000000000
10
40.4968523181
20
26.8623531409
30
0.0000000000
10
42.3653828200
20
26.9967827790
30
0.0000000000
10
44.4460869620
20
27.1312126585
30
0.0000000000
10
46.7464774289
20
27.2611660697
30
0.0000000000
10
49.2933933172
20
27.3822902296
30
0.0000000000
10
52.1374961475
20
27.4894117360
30
0.0000000000
10
55.3610410566
20
27.5750477148
30
0.0000000000
10
58.9415838708
20
27.6248693956
30
0.0000000000
10
62.6813121000
20
27.6247596320
30
0.0000000000
10
66.2600349313
20
27.5747706371
30
0.0000000000
10
69.4810500098
20
27.4890607830
30
0.0000000000
10
72.3229299548
20
27.3819244173
30
0.0000000000
10
74.8680382320
20
27.2608159630
30
0.0000000000
10
77.1668072624
20
27.1309046348
30
0.0000000000
10
79.2459800614
20
26.9965409738
30
0.0000000000
10
81.1131023743
20
26.8621937262
30
0.0000000000
10
82.7698172711
20
26.7321236187
30
0.0000000000
10
83.8041196281
20
26.6449362598
30
0.0000000000
10
84.2864769440
20
26.6029731255
30
0.0000000000
11
37.3213954428
21
26.6029731256
31
0.0000000000
11
38.7695990389
21
26.7250483386
31
0.0000000000
11
40.4270574699
21
26.8551682769
31
0.0000000000
11
42.2952000035
21
26.9895703702
31
0.0000000000
11
44.3753686693
21
27.1239654086
31
0.0000000000
11
46.6692997549
21
27.2535531192
31
0.0000000000
11
49.1964411369
21
27.3737380971
31
0.0000000000
11
52.0161281462
21
27.4799395524
31
0.0000000000
11
55.2015245751
21
27.5645613367
31
0.0000000000
11
58.8667882180
21
27.6155627215
31
0.0000000000
11
62.7569877843
21
27.6154485472
31
0.0000000000
11
66.4196072643
21
27.5642867886
31
0.0000000000
11
69.6021908991
21
27.4796003433
31
0.0000000000
11
72.4197471378
21
27.3733813900
31
0.0000000000
11
74.9451639418
21
27.2532087180
31
0.0000000000
11
77.2375278381
21
27.1236601653
31
0.0000000000
11
79.3161242751
21
26.9893339932
31
0.0000000000
11
81.1828123714
21
26.8550176229
31
0.0000000000
11
82.8390727412
21
26.7249831120
31
0.0000000000
11
84.2864769440
21
26.6029731255
31
0.0000000000
0
SPLINE
5
30A
100
AcDbEntity
8
0
100
AcDbSpline
62
9
6
CONTINUOUS
70
0
71
3
72
22
73
18
74
16
42
0.0000001000
43
0.0000001000
44
0.0000000001
12
0.0000231164
22
1.3318472621
32
0.0000000000
13
1.3268358756
23
0.1154282864
33
0.0000000000
40
0.0000000000
40
0.0000000000
40
0.0000000000
40
0.0000000000
40
0.0665995148
40
0.1331844802
40
0.1997330346
40
0.2662539829
40
0.3327631061
40
0.3992761922
40
0.4658085498
40
0.5323732292
40
0.5989836511
40
0.6656503644
40
0.7323820387
40
0.7991844666
40
0.8660625859
40
0.9330137185
40
1.0000000000
40
1.0000000000
40
1.0000000000
40
1.0000000000
10
36.5047594580
20
25.6101711519
30
0.0000000000
10
36.5047599712
20
25.6397379457
30
0.0000000000
10
36.5076828048
20
25.6989068129
30
0.0000000000
10
36.5208051560
20
25.7867411525
30
0.0000000000
10
36.5425331875
20
25.8728244230
30
0.0000000000
10
36.5726520873
20
25.9563044360
30
0.0000000000
10
36.6108697319
20
26.0363843073
30
0.0000000000
10
36.6568209094
20
26.1122970417
30
0.0000000000
10
36.7100681760
20
26.1833137585
30
0.0000000000
10
36.7701056635
20
26.2487493986
30
0.0000000000
10
36.8363625449
20
26.3079689431
30
0.0000000000
10
36.9082078091
20
26.3603938219
30
0.0000000000
10
36.9849548082
20
26.4055071051
30
0.0000000000
10
37.0658664538
20
26.4428599578
30
0.0000000000
10
37.1501646239
20
26.4720752286
30
0.0000000000
10
37.2370041748
20
26.4928504038
30
0.0000000000
10
37.2960293469
20
26.5009298188
30
0.0000000000
10
37.3256559474
20
26.5035071894
30
0.0000000000
11
36.5047594580
21
25.6101711519
31
0.0000000000
11
36.5091402709
21
25.6987632855
31
0.0000000000
11
36.5222438031
21
25.7864708559
31
0.0000000000
11
36.5439368062
21
25.8724076667
31
0.0000000000
11
36.5740048080
21
25.9557450587
31
0.0000000000
11
36.6121573168
21
26.0356875465
31
0.0000000000
11
36.6580297478
21
26.1114705949
31
0.0000000000
11
36.7111860332
21
26.1823670526
31
0.0000000000
11
36.7711206309
21
26.2476921873
31
0.0000000000
11
36.8372648433
21
26.3068130641
31
0.0000000000
11
36.9089887359
21
26.3591516345
31
0.0000000000
11
36.9856071876
21
26.4041919158
31
0.0000000000
11
37.0663846235
21
26.4414850651
31
0.0000000000
11
37.1505440407
21
26.4706554944
31
0.0000000000
11
37.2372653357
21
26.4914032880
31
0.0000000000
11
37.3256559474
21
26.5035071894
31
0.0000000000
0
SPLINE
5
30B
100
AcDbEntity
8
0
100
AcDbSpline
62
9
6
CONTINUOUS
70
0
71
3
72
22
73
18
74
16
42
0.0000001000
43
0.0000001000
44
0.0000000001
12
0.0003824509
22
1.4795112860
32
0.0000000000
13
1.4738801560
23
0.1289615346
33
0.0000000000
40
0.0000000000
40
0.0000000000
40
0.0000000000
40
0.0000000000
40
0.0666361149
40
0.1332209932
40
0.1997732573
40
0.2662996455
40
0.3328150626
40
0.3993340985
40
0.4658709268
40
0.5324376914
40
0.5990471836
40
0.6657090851
40
0.7324313644
40
0.7992192360
40
0.8660775827
40
0.9330025099
40
1.0000000000
40
1.0000000000
40
1.0000000000
40
1.0000000000
10
36.4096941586
20
25.6101711519
30
0.0000000000
10
36.4097026536
20
25.6430341132
30
0.0000000000
10
36.4129672527
20
25.7087803475
30
0.0000000000
10
36.4275681073
20
25.8063692976
30
0.0000000000
10
36.4517188081
20
25.9019976581
30
0.0000000000
10
36.4851834888
20
25.9947386971
30
0.0000000000
10
36.5276374392
20
26.0837069422
30
0.0000000000
10
36.5786749826
20
26.1680505654
30
0.0000000000
10
36.6378103212
20
26.2469600154
30
0.0000000000
10
36.7044819118
20
26.3196745066
30
0.0000000000
10
36.7780562288
20
26.3854886987
30
0.0000000000
10
36.8578329561
20
26.4437597480
30
0.0000000000
10
36.9430498699
20
26.4939130526
30
0.0000000000
10
37.0328888483
20
26.5354496315
30
0.0000000000
10
37.1264857143
20
26.5679498785
30
0.0000000000
10
37.2229227477
20
26.5910821321
30
0.0000000000
10
37.2884800372
20
26.6000928901
30
0.0000000000
10
37.3213954609
20
26.6029729231
30
0.0000000000
11
36.4096941586
21
25.6101711519
31
0.0000000000
11
36.4145877884
21
25.7086385125
31
0.0000000000
11
36.4291645858
21
25.8060671752
31
0.0000000000
11
36.4532764587
21
25.9015341338
31
0.0000000000
11
36.4866847297
21
25.9941174599
31
0.0000000000
11
36.5290666798
21
26.0829339006
31
0.0000000000
11
36.5800172541
21
26.1671341537
31
0.0000000000
11
36.6390521046
21
26.2459104961
31
0.0000000000
11
36.7056099876
21
26.3185024799
31
0.0000000000
11
36.7790598773
21
26.3842072546
31
0.0000000000
11
36.8587024725
21
26.4423824197
31
0.0000000000
11
36.9437772193
21
26.4924544567
31
0.0000000000
11
37.0334674663
21
26.5339243277
31
0.0000000000
11
37.1269110069
21
26.5663744812
31
0.0000000000
11
37.2231958103
21
26.5894708492
31
0.0000000000
11
37.3213954609
21
26.6029729231
31
0.0000000000
0
SPLINE
5
30C
100
AcDbEntity
8
0
100
AcDbSpline
62
9
6
CONTINUOUS
70
0
71
3
72
17
73
13
74
11
42
0.0000001000
43
0.0000001000
44
0.0000000001
12
0.0008576935
22
-0.3131351290
32
0.0000000000
13
0.3131351290
23
-0.0008576935
33
0.0000000000
40
0.0000000000
40
0.0000000000
40
0.0000000000
40
0.0000000000
40
0.0999342740
40
0.1999091172
40
0.2999184371
40
0.3999527840
40
0.5000002724
40
0.6000477378
40
0.7000820165
40
0.8000912247
40
0.9000659154
40
1.0000000000
40
1.0000000000
40
1.0000000000
40
1.0000000000
10
38.2395125221
20
-21.4871200372
30
0.0000000000
10
38.2395410931
20
-21.4975510145
30
0.0000000000
10
38.2412396759
20
-21.5184495354
30
0.0000000000
10
38.2486450807
20
-21.5489918224
30
0.0000000000
10
38.2607266935
20
-21.5780234498
30
0.0000000000
10
38.2771879295
20
-21.6048222827
30
0.0000000000
10
38.2976248445
20
-21.6287337398
30
0.0000000000
10
38.3215363132
20
-21.6491706302
30
0.0000000000
10
38.3483351404
20
-21.6656318344
30
0.0000000000
10
38.3773667430
20
-21.6777134157
30
0.0000000000
10
38.4079089865
20
-21.6851187964
30
0.0000000000
10
38.4288074715
20
-21.6868173732
30
0.0000000000
10
38.4392384290
20
-21.6868459442
30
0.0000000000
11
38.2395125221
21
-21.4871200372
31
0.0000000000
11
38.2420483658
21
-21.5183101707
31
0.0000000000
11
38.2494228074
21
-21.5487349595
31
0.0000000000
11
38.2614548905
21
-21.5776478494
31
0.0000000000
11
38.2778493716
21
-21.6043393859
31
0.0000000000
11
38.2982039647
21
-21.6281546225
31
0.0000000000
11
38.3220192129
21
-21.6485091911
31
0.0000000000
11
38.3487107438
21
-21.6649036406
31
0.0000000000
11
38.3776236089
21
-21.6769356923
31
0.0000000000
11
38.4080483543
21
-21.6843101099
31
0.0000000000
11
38.4392384290
21
-21.6868459442
31
0.0000000000
0
SPLINE
5
30D
100
AcDbEntity
8
0
100
AcDbSpline
62
9
6
CONTINUOUS
70
0
71
3
72
17
73
13
74
11
42
0.0000001000
43
0.0000001000
44
0.0000000001
12
0.0255875783
22
-0.2282954007
32
0.0000000000
13
0.2296785976
23
-0.0046104175
33
0.0000000000
40
0.0000000000
40
0.0000000000
40
0.0000000000
40
0.0000000000
40
0.0582329540
40
0.1236839915
40
0.1994126385
40
0.2866502387
40
0.3853305144
40
0.4945141781
40
0.6126629382
40
0.7378198309
40
0.8677404718
40
1.0000000000
40
1.0000000000
40
1.0000000000
40
1.0000000000
10
38.2081841850
20
-21.8903279283
30
0.0000000000
10
38.2086808651
20
-21.8947593669
30
0.0000000000
10
38.2115293054
20
-21.9040131663
30
0.0000000000
10
38.2202909691
20
-21.9167173594
30
0.0000000000
10
38.2332474756
20
-21.9286279639
30
0.0000000000
10
38.2501013773
20
-21.9395881989
30
0.0000000000
10
38.2705032084
20
-21.9494163443
30
0.0000000000
10
38.2940180822
20
-21.9579057567
30
0.0000000000
10
38.3201263131
20
-21.9648674393
30
0.0000000000
10
38.3482403143
20
-21.9701409532
30
0.0000000000
10
38.3777187301
20
-21.9736036019
30
0.0000000000
10
38.3977843643
20
-21.9746483235
30
0.0000000000
10
38.4079100920
20
-21.9748515807
30
0.0000000000
11
38.2081841850
21
-21.8903279283
31
0.0000000000
11
38.2119362960
21
-21.9031685167
31
0.0000000000
11
38.2202273542
21
-21.9157117043
31
0.0000000000
11
38.2328653304
21
-21.9276669786
31
0.0000000000
11
38.2495575167
21
-21.9387574434
31
0.0000000000
11
38.2699173054
21
-21.9487262328
31
0.0000000000
11
38.2934731437
21
-21.9573424595
31
0.0000000000
11
38.3196794551
21
-21.9644065634
31
0.0000000000
11
38.3479292754
21
-21.9697549327
31
0.0000000000
11
38.3775683109
21
-21.9732636939
31
0.0000000000
11
38.4079100920
21
-21.9748515807
31
0.0000000000
0
SPLINE
5
30E
100
AcDbEntity
8
0
100
AcDbSpline
62
9
6
CONTINUOUS
70
0
71
3
72
17
73
13
74
11
42
0.0000001000
43
0.0000001000
44
0.0000000001
12
0.0255875777
22
-0.2282954010
32
0.0000000000
13
0.2296785979
23
-0.0046104156
33
0.0000000000
40
0.0000000000
40
0.0000000000
40
0.0000000000
40
0.0000000000
40
0.0582330152
40
0.1236841239
40
0.1994128504
40
0.2866505282
40
0.3853308656
40
0.4945145598
40
0.6126633064
40
0.7378201323
40
0.8677406496
40
1.0000000000
40
1.0000000000
40
1.0000000000
40
1.0000000000
10
38.1836115538
20
-22.8958308962
30
0.0000000000
10
38.1841082344
20
-22.9002623394
30
0.0000000000
10
38.1869566797
20
-22.9095161485
30
0.0000000000
10
38.1957183580
20
-22.9222203517
30
0.0000000000
10
38.2086748826
20
-22.9341309624
30
0.0000000000
10
38.2255288030
20
-22.9450911995
30
0.0000000000
10
38.2459306495
20
-22.9549193430
30
0.0000000000
10
38.2694455315
20
-22.9634087501
30
0.0000000000
10
38.2955537605
20
-22.9703704251
30
0.0000000000
10
38.3236677474
20
-22.9756439307
30
0.0000000000
10
38.3531461356
20
-22.9791065723
30
0.0000000000
10
38.3732117467
20
-22.9801512917
30
0.0000000000
10
38.3833374608
20
-22.9803545485
30
0.0000000000
11
38.1836115538
21
-22.8958308962
31
0.0000000000
11
38.1873636708
21
-22.9086714975
31
0.0000000000
11
38.1956547427
21
-22.9212146957
31
0.0000000000
11
38.2082927374
21
-22.9331699770
31
0.0000000000
11
38.2249849432
21
-22.9442604447
31
0.0000000000
11
38.2453447484
21
-22.9542292327
31
0.0000000000
11
38.2689005961
21
-22.9628454543
31
0.0000000000
11
38.2951069063
21
-22.9699095506
31
0.0000000000
11
38.3233567127
21
-22.9752579114
31
0.0000000000
11
38.3529957204
21
-22.9787666655
31
0.0000000000
11
38.3833374608
21
-22.9803545485
31
0.0000000000
0
SPLINE
5
30F
100
AcDbEntity
8
0
100
AcDbSpline
62
9
6
CONTINUOUS
70
0
71
3
72
11
73
7
74
5
42
0.0000001000
43
0.0000001000
44
0.0000000001
12
0.0691121534
22
-0.0909970196
32
0.0000000000
13
0.0839893111
23
-0.0774773706
33
0.0000000000
40
0.0000000000
40
0.0000000000
40
0.0000000000
40
0.0000000000
40
0.2491654948
40
0.5020973649
40
0.7539735386
40
1.0000000000
40
1.0000000000
40
1.0000000000
40
1.0000000000
10
38.0605811144
20
-23.6431614556
30
0.0000000000
10
38.0663212357
20
-23.6507192280
30
0.0000000000
10
38.0782396727
20
-23.6656850071
30
0.0000000000
10
38.0970850822
20
-23.6873658447
30
0.0000000000
10
38.1167539079
20
-23.7081382703
30
0.0000000000
10
38.1303881614
20
-23.7213312897
30
0.0000000000
10
38.1372760258
20
-23.7276851175
30
0.0000000000
11
38.0605811144
21
-23.6431614556
31
0.0000000000
11
38.0783057551
21
-23.6654427789
31
0.0000000000
11
38.0972636932
21
-23.6872581098
31
0.0000000000
11
38.1170584449
21
-23.7081512072
31
0.0000000000
11
38.1372760258
21
-23.7276851175
31
0.0000000000
0
SPLINE
5
310
100
AcDbEntity
8
0
100
AcDbSpline
62
9
6
CONTINUOUS
70
0
71
3
72
17
73
13
74
11
42
0.0000001000
43
0.0000001000
44
0.0000000001
12
0.3131351290
22
0.0008576935
32
0.0000000000
13
0.0008576935
23
0.3131351290
33
0.0000000000
40
0.0000000000
40
0.0000000000
40
0.0000000000
40
0.0000000000
40
0.0999340833
40
0.1999087728
40
0.2999179800
40
0.3999522580
40
0.4999997231
40
0.6000472115
40
0.7000815589
40
0.8000908797
40
0.9000657242
40
1.0000000000
40
1.0000000000
40
1.0000000000
40
1.0000000000
10
83.1686339578
20
-21.6868459442
30
0.0000000000
10
83.1790649151
20
-21.6868173732
30
0.0000000000
10
83.1999633999
20
-21.6851187965
30
0.0000000000
10
83.2305056431
20
-21.6777134159
30
0.0000000000
10
83.2595372454
20
-21.6656318349
30
0.0000000000
10
83.2863360725
20
-21.6491706310
30
0.0000000000
10
83.3102475413
20
-21.6287337408
30
0.0000000000
10
83.3306844565
20
-21.6048222838
30
0.0000000000
10
83.3471456927
20
-21.5780234509
30
0.0000000000
10
83.3592273058
20
-21.5489918233
30
0.0000000000
10
83.3666327108
20
-21.5184495359
30
0.0000000000
10
83.3683312937
20
-21.4975510147
30
0.0000000000
10
83.3683598647
20
-21.4871200372
30
0.0000000000
11
83.1686339578
21
-21.6868459442
31
0.0000000000
11
83.1998240320
21
-21.6843101100
31
0.0000000000
11
83.2302487772
21
-21.6769356925
31
0.0000000000
11
83.2591616421
21
-21.6649036411
31
0.0000000000
11
83.2858531728
21
-21.6485091918
31
0.0000000000
11
83.3096684211
21
-21.6281546235
31
0.0000000000
11
83.3300230144
21
-21.6043393870
31
0.0000000000
11
83.3464174957
21
-21.5776478505
31
0.0000000000
11
83.3584495791
21
-21.5487349604
31
0.0000000000
11
83.3658240209
21
-21.5183101712
31
0.0000000000
11
83.3683598647
21
-21.4871200372
31
0.0000000000
0
SPLINE
5
311
100
AcDbEntity
8
0
100
AcDbSpline
62
9
6
CONTINUOUS
70
0
71
3
72
17
73
13
74
11
42
0.0000001000
43
0.0000001000
44
0.0000000001
12
0.2296785976
22
0.0046104175
32
0.0000000000
13
0.0255875783
23
0.2282954007
33
0.0000000000
40
0.0000000000
40
0.0000000000
40
0.0000000000
40
0.0000000000
40
0.1322595282
40
0.2621801691
40
0.3873370618
40
0.5054858219
40
0.6146694856
40
0.7133497613
40
0.8005873615
40
0.8763160085
40
0.9417670460
40
1.0000000000
40
1.0000000000
40
1.0000000000
40
1.0000000000
10
83.1999622948
20
-21.9748515807
30
0.0000000000
10
83.2100880225
20
-21.9746483235
30
0.0000000000
10
83.2301536567
20
-21.9736036019
30
0.0000000000
10
83.2596320725
20
-21.9701409532
30
0.0000000000
10
83.2877460737
20
-21.9648674393
30
0.0000000000
10
83.3138543046
20
-21.9579057567
30
0.0000000000
10
83.3373691784
20
-21.9494163443
30
0.0000000000
10
83.3577710095
20
-21.9395881989
30
0.0000000000
10
83.3746249112
20
-21.9286279639
30
0.0000000000
10
83.3875814176
20
-21.9167173594
30
0.0000000000
10
83.3963430814
20
-21.9040131663
30
0.0000000000
10
83.3991915217
20
-21.8947593669
30
0.0000000000
10
83.3996882018
20
-21.8903279283
30
0.0000000000
11
83.1999622948
21
-21.9748515807
31
0.0000000000
11
83.2303040759
21
-21.9732636939
31
0.0000000000
11
83.2599431114
21
-21.9697549327
31
0.0000000000
11
83.2881929317
21
-21.9644065634
31
0.0000000000
11
83.3143992431
21
-21.9573424595
31
0.0000000000
11
83.3379550814
21
-21.9487262328
31
0.0000000000
11
83.3583148701
21
-21.9387574434
31
0.0000000000
11
83.3750070564
21
-21.9276669786
31
0.0000000000
11
83.3876450326
21
-21.9157117043
31
0.0000000000
11
83.3959360908
21
-21.9031685167
31
0.0000000000
11
83.3996882018
21
-21.8903279283
31
0.0000000000
0
SPLINE
5
312
100
AcDbEntity
8
0
100
AcDbSpline
62
9
6
CONTINUOUS
70
0
71
3
72
17
73
13
74
11
42
0.0000001000
43
0.0000001000
44
0.0000000001
12
0.2296785977
22
0.0046104172
32
0.0000000000
13
0.0255875782
23
0.2282954008
33
0.0000000000
40
0.0000000000
40
0.0000000000
40
0.0000000000
40
0.0000000000
40
0.1322595197
40
0.2621801546
40
0.3873370440
40
0.5054858035
40
0.6146694685
40
0.7133497472
40
0.8005873511
40
0.8763160020
40
0.9417670429
40
1.0000000000
40
1.0000000000
40
1.0000000000
40
1.0000000000
10
83.2245349260
20
-22.9803545485
30
0.0000000000
10
83.2346606530
20
-22.9801512913
30
0.0000000000
10
83.2547262861
20
-22.9791065699
30
0.0000000000
10
83.2842047006
20
-22.9756439216
30
0.0000000000
10
83.3123187011
20
-22.9703704081
30
0.0000000000
10
83.3384269319
20
-22.9634087259
30
0.0000000000
10
83.3619418061
20
-22.9549193137
30
0.0000000000
10
83.3823436379
20
-22.9450911685
30
0.0000000000
10
83.3991975406
20
-22.9341309333
30
0.0000000000
10
83.4121540479
20
-22.9222203285
30
0.0000000000
10
83.4209157123
20
-22.9095161349
30
0.0000000000
10
83.4237641528
20
-22.9002623349
30
0.0000000000
10
83.4242608329
20
-22.8958308962
30
0.0000000000
11
83.2245349260
21
-22.9803545485
31
0.0000000000
11
83.2548767052
21
-22.9787666620
31
0.0000000000
11
83.2845157393
21
-22.9752579011
31
0.0000000000
11
83.3127655589
21
-22.9699095322
31
0.0000000000
11
83.3389718702
21
-22.9628454288
31
0.0000000000
11
83.3625277090
21
-22.9542292022
31
0.0000000000
11
83.3828874985
21
-22.9442604130
31
0.0000000000
11
83.3995796857
21
-22.9331699480
31
0.0000000000
11
83.4122176629
21
-22.9212146734
31
0.0000000000
11
83.4205087217
21
-22.9086714852
31
0.0000000000
11
83.4242608329
21
-22.8958308962
31
0.0000000000
0
SPLINE
5
313
100
AcDbEntity
8
0
100
AcDbSpline
62
9
6
CONTINUOUS
70
0
71
3
72
11
73
7
74
5
42
0.0000001000
43
0.0000001000
44
0.0000000001
12
0.0839894067
22
0.0774773142
32
0.0000000000
13
0.0691121574
23
0.0909970568
33
0.0000000000
40
0.0000000000
40
0.0000000000
40
0.0000000000
40
0.0000000000
40
0.2460264501
40
0.4979026398
40
0.7508345238
40
1.0000000000
40
1.0000000000
40
1.0000000000
40
1.0000000000
10
83.4705963605
20
-23.7276851107
30
0.0000000000
10
83.4774842323
20
-23.7213312879
30
0.0000000000
10
83.4911185000
20
-23.7081382751
30
0.0000000000
10
83.5107873422
20
-23.6873658530
30
0.0000000000
10
83.5296327626
20
-23.6656850134
30
0.0000000000
10
83.5415512027
20
-23.6507192300
30
0.0000000000
10
83.5472913239
20
-23.6431614550
30
0.0000000000
11
83.4705963605
21
-23.7276851107
31
0.0000000000
11
83.4908139612
21
-23.7081512117
31
0.0000000000
11
83.5106087304
21
-23.6872581171
31
0.0000000000
11
83.5295666801
21
-23.6654427834
31
0.0000000000
11
83.5472913239
21
-23.6431614550
31
0.0000000000
0
SPLINE
5
314
100
AcDbEntity
8
0
100
AcDbSpline
62
9
6
CONTINUOUS
70
0
71
3
72
18
73
14
74
12
42
0.0000001000
43
0.0000001000
44
0.0000000001
12
-0.2867186402
22
-0.2868241953
32
0.0000000000
13
-0.0099092989
23
-0.4054349559
33
0.0000000000
40
0.0000000000
40
0.0000000000
40
0.0000000000
40
0.0000000000
40
0.0190679221
40
0.0537027974
40
0.1044035205
40
0.1707910773
40
0.2519839588
40
0.3471693770
40
0.4558431138
40
0.5771870423
40
0.7096655953
40
0.8513626783
40
1.0000000000
40
1.0000000000
40
1.0000000000
40
1.0000000000
10
38.2395125221
20
-21.4871200372
30
0.0000000000
10
38.2376901458
20
-21.4889430844
30
0.0000000000
10
38.2351002363
20
-21.4960830556
30
0.0000000000
10
38.2317649480
20
-21.5095952613
30
0.0000000000
10
38.2285145031
20
-21.5299630873
30
0.0000000000
10
38.2252646302
20
-21.5565306580
30
0.0000000000
10
38.2221637039
20
-21.5892207762
30
0.0000000000
10
38.2192212462
20
-21.6276392167
30
0.0000000000
10
38.2164789896
20
-21.6715192175
30
0.0000000000
10
38.2139645950
20
-21.7204590909
30
0.0000000000
10
38.2117123431
20
-21.7738808990
30
0.0000000000
10
38.2097521472
20
-21.8310058297
30
0.0000000000
10
38.2086751489
20
-21.8702403397
30
0.0000000000
10
38.2081841850
20
-21.8903279283
30
0.0000000000
11
38.2395125221
21
-21.4871200372
31
0.0000000000
11
38.2359612042
21
-21.4939894728
31
0.0000000000
11
38.2324261073
21
-21.5075837348
31
0.0000000000
11
38.2289610718
21
-21.5278516583
31
0.0000000000
11
38.2256153072
21
-21.5545668388
31
0.0000000000
11
38.2224340355
21
-21.5873410668
31
0.0000000000
11
38.2194444822
21
-21.6258281527
31
0.0000000000
11
38.2166626462
21
-21.6698135624
31
0.0000000000
11
38.2141138727
21
-21.7189592777
31
0.0000000000
11
38.2118325832
21
-21.7726383003
31
0.0000000000
11
38.2098483998
21
-21.8300701425
31
0.0000000000
11
38.2081841850
21
-21.8903279283
31
0.0000000000
0
SPLINE
5
315
100
AcDbEntity
8
0
100
AcDbSpline
62
9
6
CONTINUOUS
70
0
71
3
72
17
73
13
74
11
42
0.0000001000
43
0.0000001000
44
0.0000000001
12
-0.0008576935
22
0.3131351290
32
0.0000000000
13
-0.3131351290
23
0.0008576935
33
0.0000000000
40
0.0000000000
40
0.0000000000
40
0.0000000000
40
0.0000000000
40
0.0999342740
40
0.1999091172
40
0.2999184371
40
0.3999527840
40
0.5000002724
40
0.6000477378
40
0.7000820165
40
0.8000912247
40
0.9000659154
40
1.0000000000
40
1.0000000000
40
1.0000000000
40
1.0000000000
10
83.3683598647
20
23.2422754915
30
0.0000000000
10
83.3683312937
20
23.2527064688
30
0.0000000000
10
83.3666327109
20
23.2736049897
30
0.0000000000
10
83.3592273061
20
23.3041472767
30
0.0000000000
10
83.3471456932
20
23.3331789041
30
0.0000000000
10
83.3306844573
20
23.3599777370
30
0.0000000000
10
83.3102475423
20
23.3838891941
30
0.0000000000
10
83.2863360735
20
23.4043260845
30
0.0000000000
10
83.2595372464
20
23.4207872887
30
0.0000000000
10
83.2305056438
20
23.4328688700
30
0.0000000000
10
83.1999634003
20
23.4402742507
30
0.0000000000
10
83.1790649153
20
23.4419728275
30
0.0000000000
10
83.1686339578
20
23.4420013985
30
0.0000000000
11
83.3683598647
21
23.2422754915
31
0.0000000000
11
83.3658240210
21
23.2734656249
31
0.0000000000
11
83.3584495794
21
23.3038904137
31
0.0000000000
11
83.3464174963
21
23.3328033036
31
0.0000000000
11
83.3300230152
21
23.3594948402
31
0.0000000000
11
83.3096684221
21
23.3833100768
31
0.0000000000
11
83.2858531739
21
23.4036646454
31
0.0000000000
11
83.2591616430
21
23.4200590949
31
0.0000000000
11
83.2302487779
21
23.4320911466
31
0.0000000000
11
83.1998240325
21
23.4394655642
31
0.0000000000
11
83.1686339578
21
23.4420013985
31
0.0000000000
0
SPLINE
5
316
100
AcDbEntity
8
0
100
AcDbSpline
62
9
6
CONTINUOUS
70
0
71
3
72
17
73
13
74
11
42
0.0000001000
43
0.0000001000
44
0.0000000001
12
-0.0255875783
22
0.2282954007
32
0.0000000000
13
-0.2296785976
23
0.0046104175
33
0.0000000000
40
0.0000000000
40
0.0000000000
40
0.0000000000
40
0.0000000000
40
0.0582329540
40
0.1236839915
40
0.1994126385
40
0.2866502387
40
0.3853305144
40
0.4945141781
40
0.6126629382
40
0.7378198309
40
0.8677404718
40
1.0000000000
40
1.0000000000
40
1.0000000000
40
1.0000000000
10
83.3996882018
20
23.6454833826
30
0.0000000000
10
83.3991915217
20
23.6499148211
30
0.0000000000
10
83.3963430814
20
23.6591686206
30
0.0000000000
10
83.3875814176
20
23.6718728137
30
0.0000000000
10
83.3746249112
20
23.6837834182
30
0.0000000000
10
83.3577710095
20
23.6947436532
30
0.0000000000
10
83.3373691784
20
23.7045717986
30
0.0000000000
10
83.3138543046
20
23.7130612110
30
0.0000000000
10
83.2877460737
20
23.7200228936
30
0.0000000000
10
83.2596320725
20
23.7252964075
30
0.0000000000
10
83.2301536567
20
23.7287590562
30
0.0000000000
10
83.2100880225
20
23.7298037778
30
0.0000000000
10
83.1999622948
20
23.7300070350
30
0.0000000000
11
83.3996882018
21
23.6454833826
31
0.0000000000
11
83.3959360908
21
23.6583239710
31
0.0000000000
11
83.3876450326
21
23.6708671586
31
0.0000000000
11
83.3750070564
21
23.6828224329
31
0.0000000000
11
83.3583148701
21
23.6939128977
31
0.0000000000
11
83.3379550814
21
23.7038816871
31
0.0000000000
11
83.3143992431
21
23.7124979138
31
0.0000000000
11
83.2881929317
21
23.7195620177
31
0.0000000000
11
83.2599431114
21
23.7249103870
31
0.0000000000
11
83.2303040759
21
23.7284191482
31
0.0000000000
11
83.1999622948
21
23.7300070350
31
0.0000000000
0
SPLINE
5
317
100
AcDbEntity
8
0
100
AcDbSpline
62
9
6
CONTINUOUS
70
0
71
3
72
17
73
13
74
11
42
0.0000001000
43
0.0000001000
44
0.0000000001
12
-0.0255875776
22
0.2282954010
32
0.0000000000
13
-0.2296785979
23
0.0046104153
33
0.0000000000
40
0.0000000000
40
0.0000000000
40
0.0000000000
40
0.0000000000
40
0.0582330273
40
0.1236841500
40
0.1994128923
40
0.2866505855
40
0.3853309351
40
0.4945146354
40
0.6126633794
40
0.7378201921
40
0.8677406848
40
1.0000000000
40
1.0000000000
40
1.0000000000
40
1.0000000000
10
83.4242608329
20
24.6509863505
30
0.0000000000
10
83.4237641522
20
24.6554177946
30
0.0000000000
10
83.4209157060
20
24.6646716057
30
0.0000000000
10
83.4121540249
20
24.6773758108
30
0.0000000000
10
83.3991974966
20
24.6892864227
30
0.0000000000
10
83.3823435725
20
24.7002466603
30
0.0000000000
10
83.3619417230
20
24.7100748034
30
0.0000000000
10
83.3384268393
20
24.7185642094
30
0.0000000000
10
83.3123186107
20
24.7255258829
30
0.0000000000
10
83.2842046267
20
24.7307993868
30
0.0000000000
10
83.2547262439
20
24.7342620271
30
0.0000000000
10
83.2346606373
20
24.7353067460
30
0.0000000000
10
83.2245349260
20
24.7355100028
30
0.0000000000
11
83.4242608329
21
24.6509863505
31
0.0000000000
11
83.4205087148
21
24.6638269543
31
0.0000000000
11
83.4122176402
21
24.6763701546
31
0.0000000000
11
83.3995796418
21
24.6883254373
31
0.0000000000
11
83.3828874322
21
24.6994159056
31
0.0000000000
11
83.3625276237
21
24.7093846933
31
0.0000000000
11
83.3389717741
21
24.7180009139
31
0.0000000000
11
83.3127654641
21
24.7250650087
31
0.0000000000
11
83.2845156606
21
24.7304133678
31
0.0000000000
11
83.2548766584
21
24.7339221205
31
0.0000000000
11
83.2245349260
21
24.7355100028
31
0.0000000000
0
SPLINE
5
318
100
AcDbEntity
8
0
100
AcDbSpline
62
9
6
CONTINUOUS
70
0
71
3
72
11
73
7
74
5
42
0.0000001000
43
0.0000001000
44
0.0000000001
12
-0.0691121537
22
0.0909970197
32
0.0000000000
13
-0.0839893113
23
0.0774773706
33
0.0000000000
40
0.0000000000
40
0.0000000000
40
0.0000000000
40
0.0000000000
40
0.2491654948
40
0.5020973649
40
0.7539735385
40
1.0000000000
40
1.0000000000
40
1.0000000000
40
1.0000000000
10
83.5472912721
20
25.3983169094
30
0.0000000000
10
83.5415511508
20
25.4058746818
30
0.0000000000
10
83.5296327138
20
25.4208404609
30
0.0000000000
10
83.5107873042
20
25.4425212985
30
0.0000000000
10
83.4911184784
20
25.4632937241
30
0.0000000000
10
83.4774842248
20
25.4764867435
30
0.0000000000
10
83.4705963605
20
25.4828405713
30
0.0000000000
11
83.5472912721
21
25.3983169094
31
0.0000000000
11
83.5295666314
21
25.4205982327
31
0.0000000000
11
83.5106086932
21
25.4424135636
31
0.0000000000
11
83.4908139414
21
25.4633066610
31
0.0000000000
11
83.4705963605
21
25.4828405713
31
0.0000000000
0
SPLINE
5
319
100
AcDbEntity
8
0
100
AcDbSpline
62
9
6
CONTINUOUS
70
0
71
3
72
17
73
13
74
11
42
0.0000001000
43
0.0000001000
44
0.0000000001
12
-0.3131351290
22
-0.0008576935
32
0.0000000000
13
-0.0008576935
23
-0.3131351290
33
0.0000000000
40
0.0000000000
40
0.0000000000
40
0.0000000000
40
0.0000000000
40
0.0999340833
40
0.1999087728
40
0.2999179800
40
0.3999522580
40
0.4999997231
40
0.6000472115
40
0.7000815589
40
0.8000908797
40
0.9000657242
40
1.0000000000
40
1.0000000000
40
1.0000000000
40
1.0000000000
10
38.4392384290
20
23.4420013985
30
0.0000000000
10
38.4288074717
20
23.4419728275
30
0.0000000000
10
38.4079089869
20
23.4402742508
30
0.0000000000
10
38.3773667437
20
23.4328688702
30
0.0000000000
10
38.3483351414
20
23.4207872892
30
0.0000000000
10
38.3215363143
20
23.4043260853
30
0.0000000000
10
38.2976248455
20
23.3838891951
30
0.0000000000
10
38.2771879303
20
23.3599777381
30
0.0000000000
10
38.2607266941
20
23.3331789052
30
0.0000000000
10
38.2486450810
20
23.3041472776
30
0.0000000000
10
38.2412396760
20
23.2736049902
30
0.0000000000
10
38.2395410931
20
23.2527064690
30
0.0000000000
10
38.2395125221
20
23.2422754915
30
0.0000000000
11
38.4392384290
21
23.4420013985
31
0.0000000000
11
38.4080483547
21
23.4394655642
31
0.0000000000
11
38.3776236096
21
23.4320911468
31
0.0000000000
11
38.3487107447
21
23.4200590954
31
0.0000000000
11
38.3220192139
21
23.4036646461
31
0.0000000000
11
38.2982039657
21
23.3833100778
31
0.0000000000
11
38.2778493724
21
23.3594948413
31
0.0000000000
11
38.2614548911
21
23.3328033048
31
0.0000000000
11
38.2494228077
21
23.3038904147
31
0.0000000000
11
38.2420483659
21
23.2734656255
31
0.0000000000
11
38.2395125221
21
23.2422754915
31
0.0000000000
0
SPLINE
5
31A
100
AcDbEntity
8
0
100
AcDbSpline
62
9
6
CONTINUOUS
70
0
71
3
72
17
73
13
74
11
42
0.0000001000
43
0.0000001000
44
0.0000000001
12
-0.2296785976
22
-0.0046104175
32
0.0000000000
13
-0.0255875783
23
-0.2282954007
33
0.0000000000
40
0.0000000000
40
0.0000000000
40
0.0000000000
40
0.0000000000
40
0.1322595282
40
0.2621801691
40
0.3873370618
40
0.5054858219
40
0.6146694856
40
0.7133497613
40
0.8005873615
40
0.8763160085
40
0.9417670460
40
1.0000000000
40
1.0000000000
40
1.0000000000
40
1.0000000000
10
38.4079100920
20
23.7300070350
30
0.0000000000
10
38.3977843643
20
23.7298037778
30
0.0000000000
10
38.3777187301
20
23.7287590562
30
0.0000000000
10
38.3482403143
20
23.7252964075
30
0.0000000000
10
38.3201263131
20
23.7200228936
30
0.0000000000
10
38.2940180822
20
23.7130612110
30
0.0000000000
10
38.2705032084
20
23.7045717986
30
0.0000000000
10
38.2501013773
20
23.6947436532
30
0.0000000000
10
38.2332474756
20
23.6837834182
30
0.0000000000
10
38.2202909691
20
23.6718728137
30
0.0000000000
10
38.2115293054
20
23.6591686206
30
0.0000000000
10
38.2086808651
20
23.6499148211
30
0.0000000000
10
38.2081841850
20
23.6454833826
30
0.0000000000
11
38.4079100920
21
23.7300070350
31
0.0000000000
11
38.3775683109
21
23.7284191482
31
0.0000000000
11
38.3479292754
21
23.7249103870
31
0.0000000000
11
38.3196794551
21
23.7195620177
31
0.0000000000
11
38.2934731437
21
23.7124979138
31
0.0000000000
11
38.2699173054
21
23.7038816871
31
0.0000000000
11
38.2495575167
21
23.6939128977
31
0.0000000000
11
38.2328653304
21
23.6828224329
31
0.0000000000
11
38.2202273542
21
23.6708671586
31
0.0000000000
11
38.2119362960
21
23.6583239710
31
0.0000000000
11
38.2081841850
21
23.6454833826
31
0.0000000000
0
SPLINE
5
31B
100
AcDbEntity
8
0
100
AcDbSpline
62
9
6
CONTINUOUS
70
0
71
3
72
17
73
13
74
11
42
0.0000001000
43
0.0000001000
44
0.0000000001
12
-0.2296785977
22
-0.0046104172
32
0.0000000000
13
-0.0255875782
23
-0.2282954008
33
0.0000000000
40
0.0000000000
40
0.0000000000
40
0.0000000000
40
0.0000000000
40
0.1322595196
40
0.2621801544
40
0.3873370438
40
0.5054858032
40
0.6146694683
40
0.7133497470
40
0.8005873510
40
0.8763160019
40
0.9417670429
40
1.0000000000
40
1.0000000000
40
1.0000000000
40
1.0000000000
10
38.3833374608
20
24.7355100028
30
0.0000000000
10
38.3732117338
20
24.7353067456
30
0.0000000000
10
38.3531461007
20
24.7342620242
30
0.0000000000
10
38.3236676862
20
24.7307993759
30
0.0000000000
10
38.2955536857
20
24.7255258624
30
0.0000000000
10
38.2694454549
20
24.7185641802
30
0.0000000000
10
38.2459305808
20
24.7100747680
30
0.0000000000
10
38.2255287489
20
24.7002466228
30
0.0000000000
10
38.2086748462
20
24.6892863876
30
0.0000000000
10
38.1957183389
20
24.6773757828
30
0.0000000000
10
38.1869566745
20
24.6646715892
30
0.0000000000
10
38.1841082340
20
24.6554177892
30
0.0000000000
10
38.1836115538
20
24.6509863505
30
0.0000000000
11
38.3833374608
21
24.7355100028
31
0.0000000000
11
38.3529956816
21
24.7339221163
31
0.0000000000
11
38.3233566476
21
24.7304133554
31
0.0000000000
11
38.2951068279
21
24.7250649865
31
0.0000000000
11
38.2689005166
21
24.7180008831
31
0.0000000000
11
38.2453446778
21
24.7093846566
31
0.0000000000
11
38.2249848883
21
24.6994158673
31
0.0000000000
11
38.2082927011
21
24.6883254023
31
0.0000000000
11
38.1956547239
21
24.6763701277
31
0.0000000000
11
38.1873636651
21
24.6638269395
31
0.0000000000
11
38.1836115538
21
24.6509863505
31
0.0000000000
0
SPLINE
5
31C
100
AcDbEntity
8
0
100
AcDbSpline
62
9
6
CONTINUOUS
70
0
71
3
72
11
73
7
74
5
42
0.0000001000
43
0.0000001000
44
0.0000000001
12
-0.0839894064
22
-0.0774773142
32
0.0000000000
13
-0.0691121572
23
-0.0909970568
33
0.0000000000
40
0.0000000000
40
0.0000000000
40
0.0000000000
40
0.0000000000
40
0.2460264500
40
0.4979026398
40
0.7508345237
40
1.0000000000
40
1.0000000000
40
1.0000000000
40
1.0000000000
10
38.1372760258
20
25.4828405655
30
0.0000000000
10
38.1303881539
20
25.4764867427
30
0.0000000000
10
38.1167538863
20
25.4632937299
30
0.0000000000
10
38.0970850442
20
25.4425213078
30
0.0000000000
10
38.0782396238
20
25.4208404682
30
0.0000000000
10
38.0663211838
20
25.4058746848
30
0.0000000000
10
38.0605810627
20
25.3983169098
30
0.0000000000
11
38.1372760258
21
25.4828405655
31
0.0000000000
11
38.1170584251
21
25.4633066665
31
0.0000000000
11
38.0972636560
21
25.4424135718
31
0.0000000000
11
38.0783057064
21
25.4205982382
31
0.0000000000
11
38.0605810627
21
25.3983169098
31
0.0000000000
0
SPLINE
5
31D
100
AcDbEntity
8
0
100
AcDbSpline
62
9
6
CONTINUOUS
70
0
71
3
72
10
73
6
74
4
42
0.0000001000
43
0.0000001000
44
0.0000000001
12
-0.1625450088
22
-0.0694048848
32
0.0000000000
13
-0.1623107455
23
-0.0699509814
33
0.0000000000
40
0.0000000000
40
0.0000000000
40
0.0000000000
40
0.0000000000
40
0.3107166081
40
0.6475157133
40
1.0000000000
40
1.0000000000
40
1.0000000000
40
1.0000000000
10
38.1372760258
20
-23.7276851079
30
0.0000000000
10
38.1204408812
20
-23.7348735247
30
0.0000000000
10
38.0853700917
20
-23.7498834914
30
0.0000000000
10
38.0312301985
20
-23.7731161058
30
0.0000000000
10
37.9939419340
20
-23.7891984429
30
0.0000000000
10
37.9748712716
20
-23.7974173168
30
0.0000000000
11
38.1372760258
21
-23.7276851079
31
0.0000000000
11
38.0867860798
21
-23.7492865945
31
0.0000000000
11
38.0320864273
21
-23.7727680482
31
0.0000000000
11
37.9748712716
21
-23.7974173168
31
0.0000000000
0
SPLINE
5
31E
100
AcDbEntity
8
0
100
AcDbSpline
62
9
6
CONTINUOUS
70
0
71
3
72
20
73
16
74
14
42
0.0000001000
43
0.0000001000
44
0.0000000001
12
-45.5163456191
22
-4.4022336005
32
0.0000000000
13
-45.5163456276
23
4.4022335124
33
0.0000000000
40
0.0000000000
40
0.0000000000
40
0.0000000000
40
0.0000000000
40
0.0770870926
40
0.1541122418
40
0.2310758452
40
0.3079785631
40
0.3848212876
40
0.4616139664
40
0.5383863412
40
0.6151789468
40
0.6920216154
40
0.7689243181
40
0.8458878763
40
0.9229129522
40
1.0000000000
40
1.0000000000
40
1.0000000000
40
1.0000000000
10
83.6330011782
20
-23.7974173218
30
0.0000000000
10
82.4634269285
20
-23.9105357848
30
0.0000000000
10
80.1235124865
20
-24.1194319575
30
0.0000000000
10
76.6108238722
20
-24.3806975538
30
0.0000000000
10
73.0974455726
20
-24.5896977712
30
0.0000000000
10
69.5841320693
20
-24.7464032431
30
0.0000000000
10
66.0714821176
20
-24.8508275281
30
0.0000000000
10
62.5596551312
20
-24.9030174141
30
0.0000000000
10
59.0482043023
20
-24.9030173090
30
0.0000000000
10
55.5363792872
20
-24.8508272673
30
0.0000000000
10
52.0237315392
20
-24.7464029073
30
0.0000000000
10
48.5104198136
20
-24.5896973999
30
0.0000000000
10
44.9970435532
20
-24.3806972084
30
0.0000000000
10
41.4843574244
20
-24.1194317487
30
0.0000000000
10
39.1444447782
20
-23.9105357064
30
0.0000000000
10
37.9748712086
20
-23.7974173114
30
0.0000000000
11
83.6330011782
21
-23.7974173218
31
0.0000000000
11
80.1218675307
21
-24.1108466128
31
0.0000000000
11
76.6093055145
21
-24.3720806042
31
0.0000000000
11
73.0960667232
21
-24.5810543287
31
0.0000000000
11
69.5828948808
21
-24.7377400037
31
0.0000000000
11
66.0705255787
21
-24.8421469256
31
0.0000000000
11
62.5592810240
21
-24.8943236542
31
0.0000000000
11
59.0485772954
21
-24.8943235492
31
0.0000000000
11
55.5373360867
21
-24.8421466854
31
0.0000000000
11
52.0249693494
21
-24.7377396994
31
0.0000000000
11
48.5117982068
21
-24.5810539404
31
0.0000000000
11
44.9985614831
21
-24.3720802448
31
0.0000000000
11
41.4860028114
21
-24.1108464465
31
0.0000000000
11
37.9748712086
21
-23.7974173114
31
0.0000000000
0
SPLINE
5
31F
100
AcDbEntity
8
0
100
AcDbSpline
62
9
6
CONTINUOUS
70
0
71
3
72
10
73
6
74
4
42
0.0000001000
43
0.0000001000
44
0.0000000001
12
0.1625416268
22
-0.0694128869
32
0.0000000000
13
0.1623066953
23
-0.0699604601
33
0.0000000000
40
0.0000000000
40
0.0000000000
40
0.0000000000
40
0.0000000000
40
0.3104339845
40
0.6476439169
40
1.0000000000
40
1.0000000000
40
1.0000000000
40
1.0000000000
10
83.4705963605
20
-23.7276851074
30
0.0000000000
10
83.4874158421
20
-23.7348678138
30
0.0000000000
10
83.5224948444
20
-23.7498778037
30
0.0000000000
10
83.5766331957
20
-23.7731140389
30
0.0000000000
10
83.6139378952
20
-23.7892003264
30
0.0000000000
10
83.6330011456
20
-23.7974173243
30
0.0000000000
11
83.4705963605
21
-23.7276851074
31
0.0000000000
11
83.5210407308
21
-23.7492661545
31
0.0000000000
11
83.5758066873
21
-23.7727772534
31
0.0000000000
11
83.6330011456
21
-23.7974173243
31
0.0000000000
0
SPLINE
5
320
100
AcDbEntity
8
0
100
AcDbSpline
62
9
6
CONTINUOUS
70
0
71
3
72
20
73
16
74
14
42
0.0000001000
43
0.0000001000
44
0.0000000001
12
0.0093234612
22
0.7628209415
32
0.0000000000
13
0.3734202091
23
0.6652368475
33
0.0000000000
40
0.0000000000
40
0.0000000000
40
0.0000000000
40
0.0000000000
40
0.1279149272
40
0.2476122824
40
0.3583354487
40
0.4594593081
40
0.5504305031
40
0.6313435604
40
0.7032062749
40
0.7673463885
40
0.8249142216
40
0.8765767439
40
0.9227189003
40
0.9637644759
40
1.0000000000
40
1.0000000000
40
1.0000000000
40
1.0000000000
10
83.4242608329
20
24.6509863505
30
0.0000000000
10
83.4246583696
20
24.6835117455
30
0.0000000000
10
83.4262632276
20
24.7464663408
30
0.0000000000
10
83.4310101042
20
24.8374748283
30
0.0000000000
10
83.4376355924
20
24.9215335756
30
0.0000000000
10
83.4457534712
20
24.9981185280
30
0.0000000000
10
83.4549821622
20
25.0669356485
30
0.0000000000
10
83.4649856781
20
25.1281151891
30
0.0000000000
10
83.4755318651
20
25.1822668547
30
0.0000000000
10
83.4865083810
20
25.2302606320
30
0.0000000000
10
83.4978704084
20
25.2728690888
30
0.0000000000
10
83.5095845519
20
25.3106152993
30
0.0000000000
10
83.5216111452
20
25.3438288559
30
0.0000000000
10
83.5339004854
20
25.3727266244
30
0.0000000000
10
83.5427811912
20
25.3902818407
30
0.0000000000
10
83.5472915502
20
25.3983169093
30
0.0000000000
11
83.4242608329
21
24.6509863505
31
0.0000000000
11
83.4267635651
21
24.7485377245
31
0.0000000000
11
83.4315478705
21
24.8397267735
31
0.0000000000
11
83.4382223309
21
24.9239309199
31
0.0000000000
11
83.4463980662
21
25.0006416293
31
0.0000000000
11
83.4556705994
21
25.0694193032
31
0.0000000000
11
83.4656818595
21
25.1303288312
31
0.0000000000
11
83.4762143934
21
25.1841300377
31
0.0000000000
11
83.4871795575
21
25.2318166752
31
0.0000000000
11
83.4985565060
21
25.2742346903
31
0.0000000000
11
83.5103069841
21
25.3118544666
31
0.0000000000
11
83.5223689490
21
25.3449242049
31
0.0000000000
11
83.5347139189
21
25.3737007727
31
0.0000000000
11
83.5472915502
21
25.3983169093
31
0.0000000000
0
SPLINE
5
321
100
AcDbEntity
8
0
100
AcDbSpline
62
9
6
CONTINUOUS
70
0
71
3
72
19
73
15
74
13
42
0.0000001000
43
0.0000001000
44
0.0000000001
12
0.0093215779
22
-0.7628112926
32
0.0000000000
13
0.3735902480
23
-0.6651302779
33
0.0000000000
40
0.0000000000
40
0.0000000000
40
0.0000000000
40
0.0000000000
40
0.1061616340
40
0.2187843070
40
0.3327731693
40
0.4431298098
40
0.5448325758
40
0.6350484430
40
0.7145330641
40
0.7854020546
40
0.8490602910
40
0.9058779318
40
0.9559965269
40
1.0000000000
40
1.0000000000
40
1.0000000000
40
1.0000000000
10
83.4242608329
20
-22.8958308962
30
0.0000000000
10
83.4245906976
20
-22.9228246606
30
0.0000000000
10
83.4258838911
20
-22.9784495160
30
0.0000000000
10
83.4298245179
20
-23.0629866406
30
0.0000000000
10
83.4360043972
20
-23.1484613318
30
0.0000000000
10
83.4442799296
20
-23.2309696065
30
0.0000000000
10
83.4542330344
20
-23.3072002795
30
0.0000000000
10
83.4653381951
20
-23.3753283980
30
0.0000000000
10
83.4772210254
20
-23.4353502500
30
0.0000000000
10
83.4897648874
20
-23.4883202037
30
0.0000000000
10
83.5029661435
20
-23.5351690280
30
0.0000000000
10
83.5167931256
20
-23.5763103900
30
0.0000000000
10
83.5311873638
20
-23.6119175509
30
0.0000000000
10
83.5418117940
20
-23.6334054410
30
0.0000000000
10
83.5472915502
20
-23.6431614551
30
0.0000000000
11
83.4242608329
21
-22.8958308962
31
0.0000000000
11
83.4261512245
21
-22.9767961700
31
0.0000000000
11
83.4301720377
21
-23.0626182940
31
0.0000000000
11
83.4364788439
21
-23.1493477701
31
0.0000000000
11
83.4449329423
21
-23.2331097919
31
0.0000000000
11
83.4550419028
21
-23.3100342154
31
0.0000000000
11
83.4661838529
21
-23.3779491442
31
0.0000000000
11
83.4780339425
21
-23.4374162398
31
0.0000000000
11
83.4905750192
21
-23.4900052625
31
0.0000000000
11
83.5038437376
21
-23.5367202626
31
0.0000000000
11
83.5177681648
21
-23.5777671271
31
0.0000000000
11
83.5322379601
21
-23.6131571675
31
0.0000000000
11
83.5472915502
21
-23.6431614551
31
0.0000000000
0
SPLINE
5
322
100
AcDbEntity
8
0
100
AcDbSpline
62
9
6
CONTINUOUS
70
0
71
3
72
10
73
6
74
4
42
0.0000001000
43
0.0000001000
44
0.0000000001
12
0.0864184767
22
-0.1538603585
32
0.0000000000
13
0.0850236810
23
-0.1546354962
33
0.0000000000
40
0.0000000000
40
0.0000000000
40
0.0000000000
40
0.0000000000
40
0.3098498274
40
0.6470667233
40
1.0000000000
40
1.0000000000
40
1.0000000000
40
1.0000000000
10
83.5472915502
20
-23.6431614551
30
0.0000000000
10
83.5562171335
20
-23.6590526569
30
0.0000000000
10
83.5747973270
20
-23.6922719661
30
0.0000000000
10
83.6033651351
20
-23.7436919443
30
0.0000000000
10
83.6229986161
20
-23.7792252792
30
0.0000000000
10
83.6330011782
20
-23.7974172833
30
0.0000000000
11
83.5472915502
21
-23.6431614551
31
0.0000000000
11
83.5739897314
21
-23.6908791051
31
0.0000000000
11
83.6028964332
21
-23.7428947495
31
0.0000000000
11
83.6330011782
21
-23.7974172833
31
0.0000000000
0
SPLINE
5
323
100
AcDbEntity
8
0
100
AcDbSpline
62
9
6
CONTINUOUS
70
0
71
3
72
10
73
6
74
4
42
0.0000001000
43
0.0000001000
44
0.0000000001
12
0.0864174612
22
0.1538609215
32
0.0000000000
13
0.0850137767
23
0.1546409342
33
0.0000000000
40
0.0000000000
40
0.0000000000
40
0.0000000000
40
0.0000000000
40
0.3101465391
40
0.6469267736
40
1.0000000000
40
1.0000000000
40
1.0000000000
40
1.0000000000
10
83.5472915502
20
25.3983169093
30
0.0000000000
10
83.5562255757
20
25.4142233868
30
0.0000000000
10
83.5748031942
20
25.4474347045
30
0.0000000000
10
83.6033680910
20
25.4988562952
30
0.0000000000
10
83.6229958154
20
25.5343728715
30
0.0000000000
10
83.6330011782
20
25.5525727294
30
0.0000000000
11
83.5472915502
21
25.3983169093
31
0.0000000000
11
83.5740157865
21
25.4460799779
31
0.0000000000
11
83.6028841249
21
25.4980287828
31
0.0000000000
11
83.6330011782
21
25.5525727294
31
0.0000000000
0
SPLINE
5
324
100
AcDbEntity
8
0
100
AcDbSpline
62
9
6
CONTINUOUS
70
0
71
3
72
10
73
6
74
4
42
0.0000001000
43
0.0000001000
44
0.0000000001
12
0.1625450090
22
0.0694048852
32
0.0000000000
13
0.1623107494
23
0.0699509733
33
0.0000000000
40
0.0000000000
40
0.0000000000
40
0.0000000000
40
0.0000000000
40
0.3107166023
40
0.6475157036
40
1.0000000000
40
1.0000000000
40
1.0000000000
40
1.0000000000
10
83.4705963605
20
25.4828405617
30
0.0000000000
10
83.4874315048
20
25.4900289784
30
0.0000000000
10
83.5225022938
20
25.5050389449
30
0.0000000000
10
83.5766421868
20
25.5282715600
30
0.0000000000
10
83.6139304518
20
25.5443538971
30
0.0000000000
10
83.6330011152
20
25.5525727703
30
0.0000000000
11
83.4705963605
21
25.4828405617
31
0.0000000000
11
83.5210863055
21
25.5044420480
31
0.0000000000
11
83.5757859573
21
25.5279235019
31
0.0000000000
11
83.6330011152
21
25.5525727703
31
0.0000000000
0
SPLINE
5
325
100
AcDbEntity
8
0
100
AcDbSpline
62
9
6
CONTINUOUS
70
0
71
3
72
20
73
16
74
14
42
0.0000001000
43
0.0000001000
44
0.0000000001
12
45.5163456270
22
4.4022335186
32
0.0000000000
13
45.5163456197
23
-4.4022335942
33
0.0000000000
40
0.0000000000
40
0.0000000000
40
0.0000000000
40
0.0000000000
40
0.0770869447
40
0.1541119925
40
0.2310755395
40
0.3079782496
40
0.3848210066
40
0.4616137207
40
0.5383860956
40
0.6151786660
40
0.6920213019
40
0.7689240126
40
0.8458876273
40
0.9229128045
40
1.0000000000
40
1.0000000000
40
1.0000000000
40
1.0000000000
10
37.9748712086
20
25.5525727769
30
0.0000000000
10
39.1444432147
20
25.6656910208
30
0.0000000000
10
41.4843538680
20
25.8745868918
30
0.0000000000
10
44.9970378255
20
26.1358522763
30
0.0000000000
10
48.5104135937
20
26.3448525296
30
0.0000000000
10
52.0237266044
20
26.5015581891
30
0.0000000000
10
55.5363774631
20
26.6059827032
30
0.0000000000
10
59.0482054818
20
26.6581727844
30
0.0000000000
10
62.5596563132
20
26.6581728473
30
0.0000000000
10
66.0714802987
20
26.6059830007
30
0.0000000000
10
69.5841271400
20
26.5015588696
30
0.0000000000
10
73.0974393596
20
26.3448535497
30
0.0000000000
10
76.6108181531
20
26.1358533939
30
0.0000000000
10
80.1235089364
20
25.8745877224
30
0.0000000000
10
82.4634253673
20
25.6656913787
30
0.0000000000
10
83.6330011782
20
25.5525727649
30
0.0000000000
11
37.9748712086
21
25.5525727769
31
0.0000000000
11
41.4859981155
21
25.8660015166
31
0.0000000000
11
44.9985554977
21
26.1272352985
31
0.0000000000
11
48.5117917048
21
26.3362090563
31
0.0000000000
11
52.0249631788
21
26.4928949244
31
0.0000000000
11
55.5373339604
21
26.5973020923
31
0.0000000000
11
59.0485801252
21
26.6494790245
31
0.0000000000
11
62.5592838592
21
26.6494790874
31
0.0000000000
11
66.0705234601
21
26.5973024271
31
0.0000000000
11
69.5828887126
21
26.4928956872
31
0.0000000000
11
73.0960602276
21
26.3362101210
31
0.0000000000
11
76.6092995410
21
26.1272364582
31
0.0000000000
11
80.1218628419
21
25.8660024507
31
0.0000000000
11
83.6330011782
21
25.5525727649
31
0.0000000000
0
SPLINE
5
326
100
AcDbEntity
8
0
100
AcDbSpline
62
9
6
CONTINUOUS
70
0
71
3
72
10
73
6
74
4
42
0.0000001000
43
0.0000001000
44
0.0000000001
12
-0.1625416266
22
0.0694128865
32
0.0000000000
13
-0.1623066908
23
0.0699604696
33
0.0000000000
40
0.0000000000
40
0.0000000000
40
0.0000000000
40
0.0000000000
40
0.3104339913
40
0.6476439279
40
1.0000000000
40
1.0000000000
40
1.0000000000
40
1.0000000000
10
38.1372760258
20
25.4828405622
30
0.0000000000
10
38.1204565438
20
25.4900232686
30
0.0000000000
10
38.0853775410
20
25.5050332588
30
0.0000000000
10
38.0312391895
20
25.5282694932
30
0.0000000000
10
37.9939344905
20
25.5443557807
30
0.0000000000
10
37.9748712411
20
25.5525727795
30
0.0000000000
11
38.1372760258
21
25.4828405622
31
0.0000000000
11
38.0868316544
21
25.5044216096
31
0.0000000000
11
38.0320656971
21
25.5279327083
31
0.0000000000
11
37.9748712411
21
25.5525727795
31
0.0000000000
0
SPLINE
5
327
100
AcDbEntity
8
0
100
AcDbSpline
62
9
6
CONTINUOUS
70
0
71
3
72
10
73
6
74
4
42
0.0000001000
43
0.0000001000
44
0.0000000001
12
-0.0864174615
22
-0.1538609215
32
0.0000000000
13
-0.0850137678
23
-0.1546409393
33
0.0000000000
40
0.0000000000
40
0.0000000000
40
0.0000000000
40
0.0000000000
40
0.3101465418
40
0.6469267764
40
1.0000000000
40
1.0000000000
40
1.0000000000
40
1.0000000000
10
38.0605808363
20
-23.6431614556
30
0.0000000000
10
38.0516468107
20
-23.6590679331
30
0.0000000000
10
38.0330691921
20
-23.6922792510
30
0.0000000000
10
38.0045042946
20
-23.7437008414
30
0.0000000000
10
37.9848765703
20
-23.7792174176
30
0.0000000000
10
37.9748712086
20
-23.7974172759
30
0.0000000000
11
38.0605808363
21
-23.6431614556
31
0.0000000000
11
38.0338565997
21
-23.6909245245
31
0.0000000000
11
38.0049882607
21
-23.7428733293
31
0.0000000000
11
37.9748712086
21
-23.7974172759
31
0.0000000000
0
SPLINE
5
328
100
AcDbEntity
8
0
100
AcDbSpline
62
9
6
CONTINUOUS
70
0
71
3
72
20
73
16
74
14
42
0.0000001000
43
0.0000001000
44
0.0000000001
12
-0.0093234227
22
-0.7628207723
32
0.0000000000
13
-0.3736283127
23
-0.6651197943
33
0.0000000000
40
0.0000000000
40
0.0000000000
40
0.0000000000
40
0.0000000000
40
0.1272604898
40
0.2466162915
40
0.3572289852
40
0.4583918298
40
0.5494399183
40
0.6304433781
40
0.7024106666
40
0.7666914753
40
0.8244392606
40
0.8762822034
40
0.9225838970
40
0.9637450419
40
1.0000000000
40
1.0000000000
40
1.0000000000
40
1.0000000000
10
38.1836115538
20
-22.8958308962
30
0.0000000000
10
38.1832160527
20
-22.9281898779
30
0.0000000000
10
38.1816218739
20
-22.9908912419
30
0.0000000000
10
38.1769060862
20
-23.0816194858
30
0.0000000000
10
38.1703099995
20
-23.1655751166
30
0.0000000000
10
38.1622143560
20
-23.2421637703
30
0.0000000000
10
38.1530005650
20
-23.3110357868
30
0.0000000000
10
38.1430068403
20
-23.3722869572
30
0.0000000000
10
38.1324642301
20
-23.4265262678
30
0.0000000000
10
38.1214819882
20
-23.4746296531
30
0.0000000000
10
38.1101030972
20
-23.5173655387
30
0.0000000000
10
38.0983618485
20
-23.5552417861
30
0.0000000000
10
38.0863044686
20
-23.5885676297
30
0.0000000000
10
38.0739872234
20
-23.6175347855
30
0.0000000000
10
38.0650961293
20
-23.6351234921
30
0.0000000000
10
38.0605808363
20
-23.6431614556
30
0.0000000000
11
38.1836115538
21
-22.8958308962
31
0.0000000000
11
38.1811283714
21
-22.9928833297
31
0.0000000000
11
38.1763744585
21
-23.0838130295
31
0.0000000000
11
38.1697280860
21
-23.1679348393
31
0.0000000000
11
38.1615717899
21
-23.2446775093
31
0.0000000000
11
38.1523134178
21
-23.3135162642
31
0.0000000000
11
38.1423119509
21
-23.3744972757
31
0.0000000000
11
38.1317839435
21
-23.4283806436
31
0.0000000000
11
38.1208130356
21
-23.4761760797
31
0.0000000000
11
38.1094162544
21
-23.5187308959
31
0.0000000000
11
38.0976367771
21
-23.5564857997
31
0.0000000000
11
38.0855407434
21
-23.5896726527
31
0.0000000000
11
38.0731641716
21
-23.6185315914
31
0.0000000000
11
38.0605808363
21
-23.6431614556
31
0.0000000000
0
SPLINE
5
329
100
AcDbEntity
8
0
100
AcDbSpline
62
9
6
CONTINUOUS
70
0
71
3
72
19
73
15
74
13
42
0.0000001000
43
0.0000001000
44
0.0000000001
12
-0.0093215817
22
0.7628112854
32
0.0000000000
13
-0.3736008588
23
0.6651243097
33
0.0000000000
40
0.0000000000
40
0.0000000000
40
0.0000000000
40
0.0000000000
40
0.1062614862
40
0.2189467523
40
0.3329648545
40
0.4433220047
40
0.5450016118
40
0.6351756175
40
0.7146186468
40
0.7854499140
40
0.8490800394
40
0.9058789494
40
0.9559915620
40
1.0000000000
40
1.0000000000
40
1.0000000000
40
1.0000000000
10
38.1836115538
20
24.6509863505
30
0.0000000000
10
38.1832813788
20
24.6780055041
30
0.0000000000
10
38.1819866505
20
24.7336716571
30
0.0000000000
10
38.1780413482
20
24.8182573740
30
0.0000000000
10
38.1718562302
20
24.9037552400
30
0.0000000000
10
38.1635763779
20
24.9862647707
30
0.0000000000
10
38.1536212069
20
25.0624786286
30
0.0000000000
10
38.1425167274
20
25.1305793806
30
0.0000000000
10
38.1306370154
20
25.1905704245
30
0.0000000000
10
38.1180974419
20
25.2435133061
30
0.0000000000
10
38.1049008043
20
25.2903410679
30
0.0000000000
10
38.0910776874
20
25.3314695488
30
0.0000000000
10
38.0766852139
20
25.3670719688
30
0.0000000000
10
38.0660613664
20
25.3885598825
30
0.0000000000
10
38.0605808363
20
25.3983169098
30
0.0000000000
11
38.1836115538
21
24.6509863505
31
0.0000000000
11
38.1817185286
21
24.7320277569
31
0.0000000000
11
38.1776930017
21
24.8178974618
31
0.0000000000
11
38.1713809344
21
24.9046489196
31
0.0000000000
11
38.1629225388
21
24.9884108975
31
0.0000000000
11
38.1528116294
21
25.0653172450
31
0.0000000000
11
38.1416711912
21
25.1332000593
31
0.0000000000
11
38.1298244943
21
25.1926354774
31
0.0000000000
11
38.1172881419
21
25.2451960414
31
0.0000000000
11
38.1040241461
21
25.2918900891
31
0.0000000000
11
38.0901039001
21
25.3329232825
31
0.0000000000
11
38.0756359170
21
25.3683091329
31
0.0000000000
11
38.0605808363
21
25.3983169098
31
0.0000000000
0
SPLINE
5
32A
100
AcDbEntity
8
0
100
AcDbSpline
62
9
6
CONTINUOUS
70
0
71
3
72
10
73
6
74
4
42
0.0000001000
43
0.0000001000
44
0.0000000001
12
-0.0864184771
22
0.1538603584
32
0.0000000000
13
-0.0850236707
23
0.1546355021
33
0.0000000000
40
0.0000000000
40
0.0000000000
40
0.0000000000
40
0.0000000000
40
0.3098498313
40
0.6470667266
40
1.0000000000
40
1.0000000000
40
1.0000000000
40
1.0000000000
10
38.0605808363
20
25.3983169098
30
0.0000000000
10
38.0516552528
20
25.4142081119
30
0.0000000000
10
38.0330750592
20
25.4474274213
30
0.0000000000
10
38.0045072504
20
25.4988473992
30
0.0000000000
10
37.9848737694
20
25.5343807338
30
0.0000000000
10
37.9748712086
20
25.5525727384
30
0.0000000000
11
38.0605808363
21
25.3983169098
31
0.0000000000
11
38.0338826547
21
25.4460345605
31
0.0000000000
11
38.0049759524
21
25.4980502045
31
0.0000000000
11
37.9748712086
21
25.5525727384
31
0.0000000000
0
SPLINE
5
32B
100
AcDbEntity
8
0
100
AcDbSpline
62
9
6
CONTINUOUS
70
0
71
3
72
18
73
14
74
12
42
0.0000001000
43
0.0000001000
44
0.0000000001
12
0.2369672275
22
0.1692794283
32
0.0000000000
13
0.0099589037
23
0.2910495009
33
0.0000000000
40
0.0000000000
40
0.0000000000
40
0.0000000000
40
0.0000000000
40
0.0208194392
40
0.0563090015
40
0.1074248780
40
0.1739407304
40
0.2550475158
40
0.3499805168
40
0.4582637846
40
0.5790998532
40
0.7109727274
40
0.8519855318
40
1.0000000000
40
1.0000000000
40
1.0000000000
40
1.0000000000
10
83.1686339578
20
23.4420013985
30
0.0000000000
10
83.1702784660
20
23.4431761660
30
0.0000000000
10
83.1730578256
20
23.4482151769
30
0.0000000000
10
83.1763253463
20
23.4579853128
30
0.0000000000
10
83.1796397157
20
23.4725596817
30
0.0000000000
10
83.1828725367
20
23.4915565955
30
0.0000000000
10
83.1859823293
20
23.5149097535
30
0.0000000000
10
83.1889225980
20
23.5423516091
30
0.0000000000
10
83.1916658327
20
23.5736912696
30
0.0000000000
10
83.1941800260
20
23.6086444477
30
0.0000000000
10
83.1964324957
20
23.6467988793
30
0.0000000000
10
83.1983933679
20
23.6876106088
30
0.0000000000
10
83.1994709409
20
23.7156471893
30
0.0000000000
10
83.1999622948
20
23.7300070350
30
0.0000000000
11
83.1686339578
21
23.4420013985
31
0.0000000000
11
83.1721879105
21
23.4469136074
31
0.0000000000
11
83.1757224807
21
23.4566256878
31
0.0000000000
11
83.1791869062
21
23.4711028931
31
0.0000000000
11
83.1825319183
21
23.4901826281
31
0.0000000000
11
83.1857124038
21
23.5135874226
31
0.0000000000
11
83.1887013467
21
23.5410717481
31
0.0000000000
11
83.1914827677
21
23.5724830787
31
0.0000000000
11
83.1940312978
21
23.6075805321
31
0.0000000000
11
83.1963125140
21
23.6459167160
31
0.0000000000
11
83.1982967330
21
23.6869344767
31
0.0000000000
11
83.1999622948
21
23.7300070350
31
0.0000000000
0
SPLINE
5
32C
100
AcDbEntity
8
0
100
AcDbSpline
62
9
6
CONTINUOUS
70
0
71
3
72
18
73
14
74
12
42
0.0000001000
43
0.0000001000
44
0.0000000001
12
-0.2369686819
22
0.1692772611
32
0.0000000000
13
-0.0099587226
23
0.2910494308
33
0.0000000000
40
0.0000000000
40
0.0000000000
40
0.0000000000
40
0.0000000000
40
0.0208368252
40
0.0563539506
40
0.1074969883
40
0.1740279835
40
0.2551484476
40
0.3501140350
40
0.4584564528
40
0.5793462705
40
0.7112120890
40
0.8521444094
40
1.0000000000
40
1.0000000000
40
1.0000000000
40
1.0000000000
10
38.4392384290
20
23.4420013985
30
0.0000000000
10
38.4375925374
20
23.4431771320
30
0.0000000000
10
38.4348120262
20
23.4482210365
30
0.0000000000
10
38.4315434781
20
23.4579978681
30
0.0000000000
10
38.4282288672
20
23.4725792603
30
0.0000000000
10
38.4249961104
20
23.4915816425
30
0.0000000000
10
38.4218863635
20
23.5149408276
30
0.0000000000
10
38.4189457553
20
23.5423929252
30
0.0000000000
10
38.4162021105
20
23.5737467214
30
0.0000000000
10
38.4136880805
20
23.6087102025
30
0.0000000000
10
38.4114366047
20
23.6468613960
30
0.0000000000
10
38.4094774808
20
23.6876492491
30
0.0000000000
10
38.4084009096
20
23.7156626065
30
0.0000000000
10
38.4079100920
20
23.7300070350
30
0.0000000000
11
38.4392384290
21
23.4420013985
31
0.0000000000
11
38.4356822305
21
23.4469182299
31
0.0000000000
11
38.4321462424
21
23.4566383332
31
0.0000000000
11
38.4286812975
21
23.4711235434
31
0.0000000000
11
38.4253366162
21
23.4902078083
31
0.0000000000
11
38.4221564611
21
23.5136166616
31
0.0000000000
11
38.4191672610
21
23.5411104976
31
0.0000000000
11
38.4163851420
21
23.5725390511
31
0.0000000000
11
38.4138363820
21
23.6076521725
31
0.0000000000
11
38.4115561238
21
23.6459863450
31
0.0000000000
11
38.4095736484
21
23.6869807133
31
0.0000000000
11
38.4079100920
21
23.7300070350
31
0.0000000000
0
SPLINE
5
32D
100
AcDbEntity
8
0
100
AcDbSpline
62
9
6
CONTINUOUS
70
0
71
3
72
18
73
14
74
12
42
0.0000001000
43
0.0000001000
44
0.0000000001
12
-0.2369672275
22
-0.1692794283
32
0.0000000000
13
-0.0099589037
23
-0.2910495009
33
0.0000000000
40
0.0000000000
40
0.0000000000
40
0.0000000000
40
0.0000000000
40
0.0208194392
40
0.0563090015
40
0.1074248780
40
0.1739407304
40
0.2550475158
40
0.3499805168
40
0.4582637846
40
0.5790998532
40
0.7109727274
40
0.8519855318
40
1.0000000000
40
1.0000000000
40
1.0000000000
40
1.0000000000
10
38.4392384290
20
-21.6868459442
30
0.0000000000
10
38.4375939208
20
-21.6880207118
30
0.0000000000
10
38.4348145611
20
-21.6930597226
30
0.0000000000
10
38.4315470404
20
-21.7028298586
30
0.0000000000
10
38.4282326710
20
-21.7174042274
30
0.0000000000
10
38.4249998501
20
-21.7364011412
30
0.0000000000
10
38.4218900575
20
-21.7597542992
30
0.0000000000
10
38.4189497887
20
-21.7871961548
30
0.0000000000
10
38.4162065541
20
-21.8185358154
30
0.0000000000
10
38.4136923607
20
-21.8534889934
30
0.0000000000
10
38.4114398911
20
-21.8916434250
30
0.0000000000
10
38.4094790189
20
-21.9324551545
30
0.0000000000
10
38.4084014459
20
-21.9604917350
30
0.0000000000
10
38.4079100920
20
-21.9748515807
30
0.0000000000
11
38.4392384290
21
-21.6868459442
31
0.0000000000
11
38.4356844763
21
-21.6917581532
31
0.0000000000
11
38.4321499061
21
-21.7014702335
31
0.0000000000
11
38.4286854806
21
-21.7159474388
31
0.0000000000
11
38.4253404685
21
-21.7350271738
31
0.0000000000
11
38.4221599830
21
-21.7584319683
31
0.0000000000
11
38.4191710401
21
-21.7859162938
31
0.0000000000
11
38.4163896191
21
-21.8173276244
31
0.0000000000
11
38.4138410890
21
-21.8524250778
31
0.0000000000
11
38.4115598728
21
-21.8907612617
31
0.0000000000
11
38.4095756538
21
-21.9317790224
31
0.0000000000
11
38.4079100920
21
-21.9748515807
31
0.0000000000
0
SPLINE
5
32E
100
AcDbEntity
8
0
100
AcDbSpline
62
9
6
CONTINUOUS
70
0
71
3
72
18
73
14
74
12
42
0.0000001000
43
0.0000001000
44
0.0000000001
12
0.2369686819
22
-0.1692772611
32
0.0000000000
13
0.0099587226
23
-0.2910494308
33
0.0000000000
40
0.0000000000
40
0.0000000000
40
0.0000000000
40
0.0000000000
40
0.0208368252
40
0.0563539506
40
0.1074969883
40
0.1740279835
40
0.2551484476
40
0.3501140350
40
0.4584564528
40
0.5793462705
40
0.7112120890
40
0.8521444094
40
1.0000000000
40
1.0000000000
40
1.0000000000
40
1.0000000000
10
83.1686339578
20
-21.6868459442
30
0.0000000000
10
83.1702798494
20
-21.6880216777
30
0.0000000000
10
83.1730603606
20
-21.6930655823
30
0.0000000000
10
83.1763289087
20
-21.7028424138
30
0.0000000000
10
83.1796435196
20
-21.7174238060
30
0.0000000000
10
83.1828762763
20
-21.7364261882
30
0.0000000000
10
83.1859860233
20
-21.7597853733
30
0.0000000000
10
83.1889266315
20
-21.7872374709
30
0.0000000000
10
83.1916702763
20
-21.8185912671
30
0.0000000000
10
83.1941843063
20
-21.8535547482
30
0.0000000000
10
83.1964357820
20
-21.8917059417
30
0.0000000000
10
83.1983949060
20
-21.9324937948
30
0.0000000000
10
83.1994714772
20
-21.9605071522
30
0.0000000000
10
83.1999622948
20
-21.9748515807
30
0.0000000000
11
83.1686339578
21
-21.6868459442
31
0.0000000000
11
83.1721901562
21
-21.6917627756
31
0.0000000000
11
83.1757261443
21
-21.7014828789
31
0.0000000000
11
83.1791910893
21
-21.7159680891
31
0.0000000000
11
83.1825357706
21
-21.7350523540
31
0.0000000000
11
83.1857159257
21
-21.7584612073
31
0.0000000000
11
83.1887051258
21
-21.7859550433
31
0.0000000000
11
83.1914872448
21
-21.8173835969
31
0.0000000000
11
83.1940360048
21
-21.8524967182
31
0.0000000000
11
83.1963162630
21
-21.8908308908
31
0.0000000000
11
83.1982987383
21
-21.9318252590
31
0.0000000000
11
83.1999622948
21
-21.9748515807
31
0.0000000000
0
SPLINE
5
32F
100
AcDbEntity
8
0
100
AcDbSpline
62
9
6
CONTINUOUS
70
0
71
3
72
10
73
6
74
4
42
0.0000001000
43
0.0000001000
44
0.0000000001
12
0.0959200375
22
0.0873623695
32
0.0000000000
13
0.0959055677
23
0.0873782541
33
0.0000000000
40
0.0000000000
40
0.0000000000
40
0.0000000000
40
0.0000000000
40
0.3332954177
40
0.6666287424
40
1.0000000000
40
1.0000000000
40
1.0000000000
40
1.0000000000
10
37.2254826393
20
-24.9351879832
30
0.0000000000
10
37.2361392089
20
-24.9254821574
30
0.0000000000
10
37.2574530246
20
-24.9060688138
30
0.0000000000
10
37.2894239595
20
-24.8769453770
30
0.0000000000
10
37.3107380562
20
-24.8575274714
30
0.0000000000
10
37.3213954428
20
-24.8478176719
30
0.0000000000
11
37.2254826393
21
-24.9351879832
31
0.0000000000
11
37.2574515448
21
-24.9060696236
31
0.0000000000
11
37.2894224788
21
-24.8769461876
31
0.0000000000
11
37.3213954428
21
-24.8478176719
31
0.0000000000
0
SPLINE
5
330
100
AcDbEntity
8
0
100
AcDbSpline
62
9
6
CONTINUOUS
70
0
71
3
72
10
73
6
74
4
42
0.0000001000
43
0.0000001000
44
0.0000000001
12
0.0963067581
22
0.0880472586
32
0.0000000000
13
0.0962919982
23
0.0880634003
33
0.0000000000
40
0.0000000000
40
0.0000000000
40
0.0000000000
40
0.0000000000
40
0.3332952687
40
0.6666285986
40
1.0000000000
40
1.0000000000
40
1.0000000000
40
1.0000000000
10
36.3133945937
20
-23.9430710265
30
0.0000000000
10
36.3240941227
20
-23.9332891150
30
0.0000000000
10
36.3454938560
20
-23.9137235771
30
0.0000000000
10
36.3775936494
20
-23.8843718011
30
0.0000000000
10
36.3989936400
20
-23.8648016373
30
0.0000000000
10
36.4096939728
20
-23.8550156976
30
0.0000000000
11
36.3133945937
21
-23.9430710265
31
0.0000000000
11
36.3454923610
21
-23.9137243954
31
0.0000000000
11
36.3775921540
21
-23.8843726197
31
0.0000000000
11
36.4096939728
21
-23.8550156976
31
0.0000000000
0
SPLINE
5
331
100
AcDbEntity
8
0
100
AcDbSpline
62
9
6
CONTINUOUS
70
0
71
3
72
10
73
6
74
4
42
0.0000001000
43
0.0000001000
44
0.0000000001
12
-0.0963067581
22
0.0880472586
32
0.0000000000
13
-0.0962919982
23
0.0880634003
33
0.0000000000
40
0.0000000000
40
0.0000000000
40
0.0000000000
40
0.0000000000
40
0.3332952755
40
0.6666286017
40
1.0000000000
40
1.0000000000
40
1.0000000000
40
1.0000000000
10
85.2944777931
20
-23.9430710265
30
0.0000000000
10
85.2837782639
20
-23.9332891148
30
0.0000000000
10
85.2623785304
20
-23.9137235768
30
0.0000000000
10
85.2302787370
20
-23.8843718009
30
0.0000000000
10
85.2088787467
20
-23.8648016372
30
0.0000000000
10
85.1981784140
20
-23.8550156976
30
0.0000000000
11
85.2944777931
21
-23.9430710265
31
0.0000000000
11
85.2623800252
21
-23.9137243948
31
0.0000000000
11
85.2302802325
21
-23.8843726194
31
0.0000000000
11
85.1981784140
21
-23.8550156976
31
0.0000000000
0
SPLINE
5
332
100
AcDbEntity
8
0
100
AcDbSpline
62
9
6
CONTINUOUS
70
0
71
3
72
10
73
6
74
4
42
0.0000001000
43
0.0000001000
44
0.0000000001
12
-0.0959200375
22
0.0873623695
32
0.0000000000
13
-0.0959055677
23
0.0873782541
33
0.0000000000
40
0.0000000000
40
0.0000000000
40
0.0000000000
40
0.0000000000
40
0.3332954076
40
0.6666287375
40
1.0000000000
40
1.0000000000
40
1.0000000000
40
1.0000000000
10
84.3823897475
20
-24.9351879832
30
0.0000000000
10
84.3717331782
20
-24.9254821577
30
0.0000000000
10
84.3504193626
20
-24.9060688142
30
0.0000000000
10
84.3184484278
20
-24.8769453774
30
0.0000000000
10
84.2971343308
20
-24.8575274715
30
0.0000000000
10
84.2864769440
20
-24.8478176719
30
0.0000000000
11
84.3823897475
21
-24.9351879832
31
0.0000000000
11
84.3504208430
21
-24.9060696245
31
0.0000000000
11
84.3184499085
21
-24.8769461880
31
0.0000000000
11
84.2864769440
21
-24.8478176719
31
0.0000000000
0
SPLINE
5
333
100
AcDbEntity
8
0
100
AcDbSpline
62
9
6
CONTINUOUS
70
0
71
3
72
10
73
6
74
4
42
0.0000001000
43
0.0000001000
44
0.0000000001
12
0.0959055677
22
0.0873782541
32
0.0000000000
13
0.0959200375
23
0.0873623695
33
0.0000000000
40
0.0000000000
40
0.0000000000
40
0.0000000000
40
0.0000000000
40
0.3333712651
40
0.6667045951
40
1.0000000000
40
1.0000000000
40
1.0000000000
40
1.0000000000
10
84.2864769440
20
26.6029731262
30
0.0000000000
10
84.2971343308
20
26.6126829259
30
0.0000000000
10
84.3184484279
20
26.6321008319
30
0.0000000000
10
84.3504193628
20
26.6612242686
30
0.0000000000
10
84.3717331783
20
26.6806376120
30
0.0000000000
10
84.3823897475
20
26.6903434374
30
0.0000000000
11
84.2864769440
21
26.6029731262
31
0.0000000000
11
84.3184499088
21
26.6321016425
31
0.0000000000
11
84.3504208432
21
26.6612250790
31
0.0000000000
11
84.3823897475
21
26.6903434374
31
0.0000000000
0
SPLINE
5
334
100
AcDbEntity
8
0
100
AcDbSpline
62
9
6
CONTINUOUS
70
0
71
3
72
10
73
6
74
4
42
0.0000001000
43
0.0000001000
44
0.0000000001
12
0.0962919982
22
0.0880634003
32
0.0000000000
13
0.0963067581
23
0.0880472586
33
0.0000000000
40
0.0000000000
40
0.0000000000
40
0.0000000000
40
0.0000000000
40
0.3333714010
40
0.6667047271
40
1.0000000000
40
1.0000000000
40
1.0000000000
40
1.0000000000
10
85.1981784140
20
25.6101711519
30
0.0000000000
10
85.2088787468
20
25.6199570916
30
0.0000000000
10
85.2302787372
20
25.6395272553
30
0.0000000000
10
85.2623785306
20
25.6688790313
30
0.0000000000
10
85.2837782640
20
25.6884445691
30
0.0000000000
10
85.2944777931
20
25.6982264808
30
0.0000000000
11
85.1981784140
21
25.6101711519
31
0.0000000000
11
85.2302802328
21
25.6395280739
31
0.0000000000
11
85.2623800254
21
25.6688798493
31
0.0000000000
11
85.2944777931
21
25.6982264808
31
0.0000000000
0
SPLINE
5
335
100
AcDbEntity
8
0
100
AcDbSpline
62
9
6
CONTINUOUS
70
0
71
3
72
10
73
6
74
4
42
0.0000001000
43
0.0000001000
44
0.0000000001
12
0.0963067581
22
-0.0880472586
32
0.0000000000
13
0.0962919982
23
-0.0880634003
33
0.0000000000
40
0.0000000000
40
0.0000000000
40
0.0000000000
40
0.0000000000
40
0.3332952755
40
0.6666286017
40
1.0000000000
40
1.0000000000
40
1.0000000000
40
1.0000000000
10
36.3133945937
20
25.6982264808
30
0.0000000000
10
36.3240941229
20
25.6884445690
30
0.0000000000
10
36.3454938563
20
25.6688790311
30
0.0000000000
10
36.3775936498
20
25.6395272551
30
0.0000000000
10
36.3989936401
20
25.6199570915
30
0.0000000000
10
36.4096939728
20
25.6101711519
30
0.0000000000
11
36.3133945937
21
25.6982264808
31
0.0000000000
11
36.3454923616
21
25.6688798491
31
0.0000000000
11
36.3775921543
21
25.6395280737
31
0.0000000000
11
36.4096939728
21
25.6101711519
31
0.0000000000
0
SPLINE
5
336
100
AcDbEntity
8
0
100
AcDbSpline
62
9
6
CONTINUOUS
70
0
71
3
72
10
73
6
74
4
42
0.0000001000
43
0.0000001000
44
0.0000000001
12
0.0959200375
22
-0.0873623695
32
0.0000000000
13
0.0959055677
23
-0.0873782541
33
0.0000000000
40
0.0000000000
40
0.0000000000
40
0.0000000000
40
0.0000000000
40
0.3332954076
40
0.6666287375
40
1.0000000000
40
1.0000000000
40
1.0000000000
40
1.0000000000
10
37.2254826393
20
26.6903434375
30
0.0000000000
10
37.2361392086
20
26.6806376119
30
0.0000000000
10
37.2574530241
20
26.6612242685
30
0.0000000000
10
37.2894239590
20
26.6321008317
30
0.0000000000
10
37.3107380560
20
26.6126829258
30
0.0000000000
10
37.3213954428
20
26.6029731262
30
0.0000000000
11
37.2254826393
21
26.6903434375
31
0.0000000000
11
37.2574515438
21
26.6612250788
31
0.0000000000
11
37.2894224783
21
26.6321016423
31
0.0000000000
11
37.3213954428
21
26.6029731262
31
0.0000000000
0
SPLINE
5
337
100
AcDbEntity
8
0
100
AcDbSpline
62
9
6
CONTINUOUS
70
0
71
3
72
19
73
15
74
13
42
0.0000001000
43
0.0000001000
44
0.0000000001
12
0.0196751974
22
-0.8049503142
32
0.0000000000
13
0.6012278657
23
-0.5355904921
33
0.0000000000
40
0.0000000000
40
0.0000000000
40
0.0000000000
40
0.0000000000
40
0.1006646198
40
0.2077190231
40
0.3165672924
40
0.4226958831
40
0.5214761478
40
0.6102428131
40
0.6897451366
40
0.7621066664
40
0.8288338158
40
0.8904354869
40
0.9472110583
40
1.0000000000
40
1.0000000000
40
1.0000000000
40
1.0000000000
10
83.2245349260
20
-22.9803545485
30
0.0000000000
10
83.2251951247
20
-23.0073645543
30
0.0000000000
10
83.2277871671
20
-23.0630768435
30
0.0000000000
10
83.2356842445
20
-23.1477075541
30
0.0000000000
10
83.2480722617
20
-23.2332884665
30
0.0000000000
10
83.2646632024
20
-23.3158949751
30
0.0000000000
10
83.2846152549
20
-23.3921969746
30
0.0000000000
10
83.3068749803
20
-23.4603744403
30
0.0000000000
10
83.3307012228
20
-23.5204496196
30
0.0000000000
10
83.3558741373
20
-23.5734937240
30
0.0000000000
10
83.3823946056
20
-23.6204345253
30
0.0000000000
10
83.4102091725
20
-23.6616712620
30
0.0000000000
10
83.4392095762
20
-23.6973830002
30
0.0000000000
10
83.4600170212
20
-23.7182607437
30
0.0000000000
10
83.4705964154
20
-23.7276851622
30
0.0000000000
11
83.2245349260
21
-22.9803545485
31
0.0000000000
11
83.2283156397
21
-23.0613205456
31
0.0000000000
11
83.2363572971
21
-23.1471438303
31
0.0000000000
11
83.2489710525
21
-23.2338750068
31
0.0000000000
11
83.2658796210
21
-23.3176392299
31
0.0000000000
11
83.2860975834
21
-23.3945636152
31
0.0000000000
11
83.3083805838
21
-23.4624754284
31
0.0000000000
11
83.3320801931
21
-23.5219412937
31
0.0000000000
11
83.3571624661
21
-23.5745309353
31
0.0000000000
11
83.3837005429
21
-23.6212474991
31
0.0000000000
11
83.4115486984
21
-23.6622931913
31
0.0000000000
11
83.4404876219
21
-23.6976826663
31
0.0000000000
11
83.4705964154
21
-23.7276851622
31
0.0000000000
0
SPLINE
5
338
100
AcDbEntity
8
0
100
AcDbSpline
62
9
6
CONTINUOUS
70
0
71
3
72
34
73
30
74
28
42
0.0000001000
43
0.0000001000
44
0.0000000001
12
-45.1944565523
22
-4.3433773919
32
0.0000000000
13
-45.1944565608
23
4.3433773036
33
0.0000000000
40
0.0000000000
40
0.0000000000
40
0.0000000000
40
0.0000000000
40
0.0894599232
40
0.1787787650
40
0.2662262794
40
0.3463016158
40
0.4168186279
40
0.4789513409
40
0.5342723059
40
0.5837024736
40
0.6280285555
40
0.6679679983
40
0.7040445328
40
0.7367097204
40
0.7663693847
40
0.7933701376
40
0.8180550754
40
0.8407095342
40
0.8614471990
40
0.8803459058
40
0.8974822018
40
0.9129311139
40
0.9269068720
40
0.9398011962
40
0.9520274090
40
0.9639885075
40
0.9760518978
40
0.9883144883
40
1.0000000000
40
1.0000000000
40
1.0000000000
40
1.0000000000
10
83.4705964154
20
-23.7276851622
30
0.0000000000
10
82.1228988778
20
-23.8572045648
30
0.0000000000
10
79.4273695587
20
-24.0931235951
30
0.0000000000
10
75.4079872758
20
-24.3758809054
30
0.0000000000
10
71.5262231297
20
-24.5830162832
30
0.0000000000
10
67.9260296225
20
-24.7171476147
30
0.0000000000
10
64.7073362928
20
-24.7904612761
30
0.0000000000
10
61.8626202902
20
-24.8189714924
30
0.0000000000
10
59.3369164948
20
-24.8157585972
30
0.0000000000
10
57.0808591163
20
-24.7901652163
30
0.0000000000
10
55.0578727572
20
-24.7489779023
30
0.0000000000
10
53.2373078900
20
-24.6971629562
30
0.0000000000
10
51.5935403876
20
-24.6383665624
30
0.0000000000
10
50.1056370074
20
-24.5753131503
30
0.0000000000
10
48.7553341632
20
-24.5100021787
30
0.0000000000
10
47.5260082243
20
-24.4438474384
30
0.0000000000
10
46.4028618972
20
-24.3778280059
30
0.0000000000
10
45.3746247417
20
-24.3127103147
30
0.0000000000
10
44.4340388661
20
-24.2492220168
30
0.0000000000
10
43.5770025993
20
-24.1881092969
30
0.0000000000
10
42.8000007135
20
-24.1300138688
30
0.0000000000
10
42.0974637364
20
-24.0752872115
30
0.0000000000
10
41.4590742996
20
-24.0237533973
30
0.0000000000
10
40.8694239305
20
-23.9746323479
30
0.0000000000
10
40.3102719262
20
-23.9267029584
30
0.0000000000
10
39.7637590328
20
-23.8785874581
30
0.0000000000
10
39.2168093636
20
-23.8291717291
30
0.0000000000
10
38.6741286234
20
-23.7788741931
30
0.0000000000
10
38.3133161392
20
-23.7446033070
30
0.0000000000
10
38.1372760220
20
-23.7276851115
30
0.0000000000
11
83.4705964154
21
-23.7276851622
31
0.0000000000
11
79.4243400062
21
-24.0817817972
31
0.0000000000
11
75.3790200820
21
-24.3663316053
31
0.0000000000
11
71.4143074344
21
-24.5778698206
31
0.0000000000
11
67.7811923021
21
-24.7132155004
31
0.0000000000
11
64.5803606850
21
-24.7861170886
31
0.0000000000
11
61.7595103230
21
-24.8143866498
31
0.0000000000
11
59.2477919895
21
-24.8111918959
31
0.0000000000
11
57.0036740335
21
-24.7857345800
31
0.0000000000
11
54.9915678368
21
-24.7447703009
31
0.0000000000
11
53.1789438429
21
-24.6931823008
31
0.0000000000
11
51.5420190985
21
-24.6346318737
31
0.0000000000
11
50.0602617241
21
-24.5718399785
31
0.0000000000
11
48.7152057066
21
-24.5067834111
31
0.0000000000
11
47.4910701973
21
-24.4409088034
31
0.0000000000
11
46.3722389171
21
-24.3751436279
31
0.0000000000
11
45.3457220477
21
-24.3101353178
31
0.0000000000
11
44.4063139294
21
-24.2467268502
31
0.0000000000
11
43.5504350503
21
-24.1856970274
31
0.0000000000
11
42.7745668465
21
-24.1276866210
31
0.0000000000
11
42.0752632842
21
-24.0732120276
31
0.0000000000
11
41.4427837513
21
-24.0221554228
31
0.0000000000
11
40.8593676892
21
-23.9735538252
31
0.0000000000
11
40.3062929517
21
-23.9261454594
31
0.0000000000
11
39.7653194984
21
-23.8785177726
31
0.0000000000
11
39.2198309900
21
-23.8292341676
31
0.0000000000
11
38.6654524706
21
-23.7778525591
31
0.0000000000
11
38.1372760220
21
-23.7276851115
31
0.0000000000
0
SPLINE
5
339
100
AcDbEntity
8
0
100
AcDbSpline
62
9
6
CONTINUOUS
70
0
71
3
72
20
73
16
74
14
42
0.0000001000
43
0.0000001000
44
0.0000000001
12
-0.0196813055
22
-0.8049736412
32
0.0000000000
13
-0.6013529927
23
-0.5354852892
33
0.0000000000
40
0.0000000000
40
0.0000000000
40
0.0000000000
40
0.0000000000
40
0.1206842332
40
0.2342265918
40
0.3399948480
40
0.4374319932
40
0.5259618349
40
0.6056641816
40
0.6775097883
40
0.7428234620
40
0.8027772023
40
0.8580449106
40
0.9090482491
40
0.9562676849
40
1.0000000000
40
1.0000000000
40
1.0000000000
40
1.0000000000
10
38.3833374608
20
-22.9803545485
30
0.0000000000
10
38.3825457197
20
-23.0127370907
30
0.0000000000
10
38.3793488139
20
-23.0755590450
30
0.0000000000
10
38.3698990322
20
-23.1663646484
30
0.0000000000
10
38.3566827864
20
-23.2503876077
30
0.0000000000
10
38.3404628321
20
-23.3270295816
30
0.0000000000
10
38.3220039095
20
-23.3959412628
30
0.0000000000
10
38.3019823897
20
-23.4572235799
30
0.0000000000
10
38.2808573255
20
-23.5114944802
30
0.0000000000
10
38.2588424809
20
-23.5596365272
30
0.0000000000
10
38.2360196142
20
-23.6024183819
30
0.0000000000
10
38.2124549946
20
-23.6403440724
30
0.0000000000
10
38.1882353900
20
-23.6737191863
30
0.0000000000
10
38.1634751910
20
-23.7027320122
30
0.0000000000
10
38.1460422082
20
-23.7198791077
30
0.0000000000
10
38.1372760220
20
-23.7276851115
30
0.0000000000
11
38.3833374608
21
-22.9803545485
31
0.0000000000
11
38.3783717637
21
-23.0774042518
31
0.0000000000
11
38.3688640493
21
-23.1683344570
31
0.0000000000
11
38.3555714113
21
-23.2524568130
31
0.0000000000
11
38.3392588658
21
-23.3292000412
31
0.0000000000
11
38.3207422946
21
-23.3980386723
31
0.0000000000
11
38.3007396297
21
-23.4590193249
31
0.0000000000
11
38.2796838603
21
-23.5129025756
31
0.0000000000
11
38.2577421814
21
-23.5606982698
31
0.0000000000
11
38.2349484913
21
-23.6032538989
31
0.0000000000
11
38.2113897552
21
-23.6410089590
31
0.0000000000
11
38.1871978749
21
-23.6741960631
31
0.0000000000
11
38.1624440729
21
-23.7030561315
31
0.0000000000
11
38.1372760220
21
-23.7276851115
31
0.0000000000
0
SPLINE
5
33A
100
AcDbEntity
8
0
100
AcDbSpline
62
9
6
CONTINUOUS
70
0
71
3
72
19
73
15
74
13
42
0.0000001000
43
0.0000001000
44
0.0000000001
12
-0.0196752112
22
0.8049503159
32
0.0000000000
13
-0.6012403329
23
0.5355764998
33
0.0000000000
40
0.0000000000
40
0.0000000000
40
0.0000000000
40
0.0000000000
40
0.1007593966
40
0.2078737501
40
0.3167509364
40
0.4228816163
40
0.5216415054
40
0.6103692011
40
0.6898318631
40
0.7621563742
40
0.8288551327
40
0.8904369423
40
0.9472055224
40
1.0000000000
40
1.0000000000
40
1.0000000000
40
1.0000000000
10
38.3833374608
20
24.7355100028
30
0.0000000000
10
38.3826766400
20
24.7625454388
30
0.0000000000
10
38.3800815110
20
24.8182992161
30
0.0000000000
10
38.3721750467
20
24.9029786125
30
0.0000000000
10
38.3597765133
20
24.9885827134
30
0.0000000000
10
38.3431769068
20
25.0711904117
30
0.0000000000
10
38.3232207378
20
25.1474754446
30
0.0000000000
10
38.3009624254
20
25.2156253817
30
0.0000000000
10
38.2771424914
20
25.2756696220
30
0.0000000000
10
38.2519782277
20
25.3286865593
30
0.0000000000
10
38.2254671067
20
25.3756062871
30
0.0000000000
10
38.1976602104
20
25.4168302656
30
0.0000000000
10
38.1686634689
20
25.4525375289
30
0.0000000000
10
38.1478566962
20
25.4734154542
30
0.0000000000
10
38.1372759730
20
25.4828406147
30
0.0000000000
11
38.3833374608
21
24.7355100028
31
0.0000000000
11
38.3795514775
21
24.8165521505
31
0.0000000000
11
38.3715003870
21
24.9024230343
31
0.0000000000
11
38.3588761004
21
24.9891762077
31
0.0000000000
11
38.3419589242
21
25.0729404093
31
0.0000000000
11
38.3217370352
21
25.1498467988
31
0.0000000000
11
38.2994570266
21
25.2177265697
31
0.0000000000
11
38.2757641941
21
25.2771607578
31
0.0000000000
11
38.2506913909
21
25.3297218922
31
0.0000000000
11
38.2241627600
21
25.3764175310
31
0.0000000000
11
38.1963229775
21
25.4174495785
31
0.0000000000
11
38.1673877848
21
25.4528348326
31
0.0000000000
11
38.1372759730
21
25.4828406147
31
0.0000000000
0
SPLINE
5
33B
100
AcDbEntity
8
0
100
AcDbSpline
62
9
6
CONTINUOUS
70
0
71
3
72
34
73
30
74
28
42
0.0000001000
43
0.0000001000
44
0.0000000001
12
45.1944565603
22
4.3433773042
32
0.0000000000
13
45.1944565520
23
-4.3433773912
33
0.0000000000
40
0.0000000000
40
0.0000000000
40
0.0000000000
40
0.0000000000
40
0.0894599935
40
0.1787789218
40
0.2662264665
40
0.3463018062
40
0.4168188354
40
0.4789515605
40
0.5342725275
40
0.5837026941
40
0.6280287728
40
0.6679682093
40
0.7040447361
40
0.7367099144
40
0.7663695682
40
0.7933703097
40
0.8180552344
40
0.8407096799
40
0.8614473325
40
0.8803460283
40
0.8974823149
40
0.9129312191
40
0.9269069686
40
0.9398012808
40
0.9520274759
40
0.9639885495
40
0.9760519078
40
0.9883144644
40
1.0000000000
40
1.0000000000
40
1.0000000000
40
1.0000000000
10
38.1372759730
20
25.4828406147
30
0.0000000000
10
39.4849745691
20
25.6123601164
30
0.0000000000
10
42.1805062542
20
25.8482793429
30
0.0000000000
10
46.1998913692
20
26.1310367619
30
0.0000000000
10
50.0816573378
20
26.3381721095
30
0.0000000000
10
53.6818516165
20
26.4723033393
30
0.0000000000
10
56.9005454410
20
26.5456168897
30
0.0000000000
10
59.7452619167
20
26.5741269889
30
0.0000000000
10
62.2709659089
20
26.5709139917
30
0.0000000000
10
64.5270232510
20
26.5453205107
30
0.0000000000
10
66.5500094485
20
26.5041331191
30
0.0000000000
10
68.3705740519
20
26.4523181003
30
0.0000000000
10
70.0143411983
20
26.3935216599
30
0.0000000000
10
71.5022441616
20
26.3304682039
30
0.0000000000
10
72.8525465322
20
26.2651572072
30
0.0000000000
10
74.0818719414
20
26.1990024564
30
0.0000000000
10
75.2050176935
20
26.1329830194
30
0.0000000000
10
76.2332542628
20
26.0678653334
30
0.0000000000
10
77.1738395857
20
26.0043770498
30
0.0000000000
10
78.0308753595
20
25.9432643453
30
0.0000000000
10
78.8078768184
20
25.8851689305
30
0.0000000000
10
79.5104134040
20
25.8304422880
30
0.0000000000
10
80.1488024101
20
25.7789084956
30
0.0000000000
10
80.7384522010
20
25.7297874843
30
0.0000000000
10
81.2976033800
20
25.6818581593
30
0.0000000000
10
81.8441151472
20
25.6337427532
30
0.0000000000
10
82.3910634462
20
25.5843271453
30
0.0000000000
10
82.9337435541
20
25.5340296663
30
0.0000000000
10
83.2945558887
20
25.4997587978
30
0.0000000000
10
83.4705963663
20
25.4828405674
30
0.0000000000
11
38.1372759730
21
25.4828406147
31
0.0000000000
11
42.1835355615
21
25.8369375030
31
0.0000000000
11
46.2288594141
21
26.1214874992
31
0.0000000000
11
50.1935734420
21
26.3330256572
31
0.0000000000
11
53.8266887264
21
26.4683712113
31
0.0000000000
11
57.0275211250
21
26.5412726944
31
0.0000000000
11
59.8483720379
21
26.5695421432
31
0.0000000000
11
62.3600904581
21
26.5663472846
31
0.0000000000
11
64.6042083673
21
26.5408898724
31
0.0000000000
11
66.6163144157
21
26.4999255128
31
0.0000000000
11
68.4289381200
21
26.4483374446
31
0.0000000000
11
70.0658625118
21
26.3897869673
31
0.0000000000
11
71.5476194599
21
26.3269950315
31
0.0000000000
11
72.8926750060
21
26.2619384386
31
0.0000000000
11
74.1168099924
21
26.1960638188
31
0.0000000000
11
75.2356406773
21
26.1302986412
31
0.0000000000
11
76.2621569403
21
26.0652903382
31
0.0000000000
11
77.2015645024
21
26.0018818844
31
0.0000000000
11
78.0574428855
21
25.9408520770
31
0.0000000000
11
78.8333106623
21
25.8828416842
31
0.0000000000
11
79.5326138672
21
25.8283671031
31
0.0000000000
11
80.1650930100
21
25.7773105171
31
0.0000000000
11
80.7485085273
21
25.7287089550
31
0.0000000000
11
81.3015824655
21
25.6813006512
31
0.0000000000
11
81.8425547869
21
25.6336730593
31
0.0000000000
11
82.3880418482
21
25.5843895820
31
0.0000000000
11
82.9424188359
21
25.5330081153
31
0.0000000000
11
83.4705963663
21
25.4828405674
31
0.0000000000
0
SPLINE
5
33C
100
AcDbEntity
8
0
100
AcDbSpline
62
9
6
CONTINUOUS
70
0
71
3
72
20
73
16
74
14
42
0.0000001000
43
0.0000001000
44
0.0000000001
12
0.0196812340
22
0.8049734929
32
0.0000000000
13
0.6012407865
23
0.5356110454
33
0.0000000000
40
0.0000000000
40
0.0000000000
40
0.0000000000
40
0.0000000000
40
0.1213054517
40
0.2351765451
40
0.3410570065
40
0.4384653395
40
0.5269307095
40
0.6065563755
40
0.6783114054
40
0.7434970921
40
0.8032778699
40
0.8583653296
40
0.9092018544
40
0.9562921267
40
1.0000000000
40
1.0000000000
40
1.0000000000
40
1.0000000000
10
83.2245349260
20
24.7355100028
30
0.0000000000
10
83.2253307396
20
24.7680592272
30
0.0000000000
10
83.2285490297
20
24.8311359188
30
0.0000000000
10
83.2380612280
20
24.9222220101
30
0.0000000000
10
83.2513364085
20
25.0063478525
30
0.0000000000
10
83.2676009118
20
25.0829856202
30
0.0000000000
10
83.2860897388
20
25.1518420565
30
0.0000000000
10
83.3061309627
20
25.2130524831
30
0.0000000000
10
83.3272633172
20
25.2672354659
30
0.0000000000
10
83.3492666681
20
25.3152671146
30
0.0000000000
10
83.3720554706
20
25.3579205354
30
0.0000000000
10
83.3955659888
20
25.3957152338
30
0.0000000000
10
83.4197226392
20
25.4289776387
30
0.0000000000
10
83.4444314849
20
25.4579209910
30
0.0000000000
10
83.4618367143
20
25.4750370942
30
0.0000000000
10
83.4705963663
20
25.4828405674
30
0.0000000000
11
83.2245349260
21
24.7355100028
31
0.0000000000
11
83.2295396221
21
24.8330585598
31
0.0000000000
11
83.2391081700
21
24.9242485260
31
0.0000000000
11
83.2524570542
21
25.0084534375
31
0.0000000000
11
83.2688085400
21
25.0851646422
31
0.0000000000
11
83.2873534518
21
25.1539418639
31
0.0000000000
11
83.3073758369
21
25.2148510404
31
0.0000000000
11
83.3284409238
21
25.2686523204
31
0.0000000000
11
83.3503715990
21
25.3163396445
31
0.0000000000
11
83.3731259760
21
25.3587583182
31
0.0000000000
11
83.3966272169
21
25.3963781613
31
0.0000000000
11
83.4207517005
21
25.4294481616
31
0.0000000000
11
83.4454425189
21
25.4582252217
31
0.0000000000
11
83.4705963663
21
25.4828405674
31
0.0000000000
0
SPLINE
5
33D
100
AcDbEntity
8
0
100
AcDbSpline
62
9
6
CONTINUOUS
70
0
71
3
72
18
73
14
74
12
42
0.0000001000
43
0.0000001000
44
0.0000000001
12
0.2867230984
22
-0.2868196423
32
0.0000000000
13
0.0099104231
23
-0.4054348602
33
0.0000000000
40
0.0000000000
40
0.0000000000
40
0.0000000000
40
0.0000000000
40
0.0190849617
40
0.0537468346
40
0.1044727503
40
0.1708712255
40
0.2520713313
40
0.3472875626
40
0.4560217616
40
0.5774224167
40
0.7098980102
40
0.8515189997
40
1.0000000000
40
1.0000000000
40
1.0000000000
40
1.0000000000
10
83.3683598647
20
-21.4871200372
30
0.0000000000
10
83.3701838978
20
-21.4889446845
30
0.0000000000
10
83.3727744932
20
-21.4960913479
30
0.0000000000
10
83.3761109763
20
-21.5096124830
30
0.0000000000
10
83.3793614595
20
-21.5299890965
30
0.0000000000
10
83.3826111554
20
-21.5565625313
30
0.0000000000
10
83.3857119725
20
-21.5892593178
30
0.0000000000
10
83.3886547836
20
-21.6276910723
30
0.0000000000
10
83.3913975303
20
-21.6715910854
30
0.0000000000
10
83.3939118687
20
-21.7205464152
30
0.0000000000
10
83.3961631989
20
-21.7739652317
30
0.0000000000
10
83.3981217671
20
-21.8310583700
30
0.0000000000
10
83.3991976986
20
-21.8702614705
30
0.0000000000
10
83.3996882018
20
-21.8903279283
30
0.0000000000
11
83.3683598647
21
-21.4871200372
31
0.0000000000
11
83.3719134705
21
-21.4939960678
31
0.0000000000
11
83.3754499060
21
-21.5076012923
31
0.0000000000
11
83.3789153484
21
-21.5278795080
31
0.0000000000
11
83.3822606262
21
-21.5545992075
31
0.0000000000
11
83.3854414116
21
-21.5873764207
31
0.0000000000
11
83.3884312561
21
-21.6258760116
31
0.0000000000
11
83.3912138878
21
-21.6698859334
31
0.0000000000
11
83.3937629979
21
-21.7190546596
31
0.0000000000
11
83.3960434244
21
-21.7727325085
31
0.0000000000
11
83.3980259516
21
-21.8301335196
31
0.0000000000
11
83.3996882018
21
-21.8903279283
31
0.0000000000
0
SPLINE
5
33E
100
AcDbEntity
8
0
100
AcDbSpline
62
9
6
CONTINUOUS
70
0
71
3
72
18
73
14
74
12
42
0.0000001000
43
0.0000001000
44
0.0000000001
12
0.2867186402
22
0.2868241953
32
0.0000000000
13
0.0099092989
23
0.4054349559
33
0.0000000000
40
0.0000000000
40
0.0000000000
40
0.0000000000
40
0.0000000000
40
0.0190679221
40
0.0537027974
40
0.1044035205
40
0.1707910773
40
0.2519839588
40
0.3471693770
40
0.4558431138
40
0.5771870423
40
0.7096655953
40
0.8513626783
40
1.0000000000
40
1.0000000000
40
1.0000000000
40
1.0000000000
10
83.3683598647
20
23.2422754915
30
0.0000000000
10
83.3701822409
20
23.2440985386
30
0.0000000000
10
83.3727721505
20
23.2512385099
30
0.0000000000
10
83.3761074388
20
23.2647507156
30
0.0000000000
10
83.3793578837
20
23.2851185416
30
0.0000000000
10
83.3826077566
20
23.3116861123
30
0.0000000000
10
83.3857086829
20
23.3443762305
30
0.0000000000
10
83.3886511406
20
23.3827946709
30
0.0000000000
10
83.3913933972
20
23.4266746718
30
0.0000000000
10
83.3939077918
20
23.4756145451
30
0.0000000000
10
83.3961600437
20
23.5290363533
30
0.0000000000
10
83.3981202396
20
23.5861612839
30
0.0000000000
10
83.3991972379
20
23.6253957940
30
0.0000000000
10
83.3996882018
20
23.6454833826
30
0.0000000000
11
83.3683598647
21
23.2422754915
31
0.0000000000
11
83.3719111825
21
23.2491449271
31
0.0000000000
11
83.3754462794
21
23.2627391890
31
0.0000000000
11
83.3789113150
21
23.2830071126
31
0.0000000000
11
83.3822570796
21
23.3097222930
31
0.0000000000
11
83.3854383513
21
23.3424965211
31
0.0000000000
11
83.3884279046
21
23.3809836070
31
0.0000000000
11
83.3912097405
21
23.4249690167
31
0.0000000000
11
83.3937585140
21
23.4741147320
31
0.0000000000
11
83.3960398036
21
23.5277937546
31
0.0000000000
11
83.3980239869
21
23.5852255967
31
0.0000000000
11
83.3996882018
21
23.6454833826
31
0.0000000000
0
SPLINE
5
33F
100
AcDbEntity
8
0
100
AcDbSpline
62
9
6
CONTINUOUS
70
0
71
3
72
18
73
14
74
12
42
0.0000001000
43
0.0000001000
44
0.0000000001
12
-0.2867230984
22
0.2868196423
32
0.0000000000
13
-0.0099104231
23
0.4054348602
33
0.0000000000
40
0.0000000000
40
0.0000000000
40
0.0000000000
40
0.0000000000
40
0.0190849617
40
0.0537468346
40
0.1044727503
40
0.1708712255
40
0.2520713313
40
0.3472875626
40
0.4560217616
40
0.5774224167
40
0.7098980102
40
0.8515189997
40
1.0000000000
40
1.0000000000
40
1.0000000000
40
1.0000000000
10
38.2395125221
20
23.2422754915
30
0.0000000000
10
38.2376884890
20
23.2441001388
30
0.0000000000
10
38.2350978935
20
23.2512468021
30
0.0000000000
10
38.2317614105
20
23.2647679373
30
0.0000000000
10
38.2285109273
20
23.2851445508
30
0.0000000000
10
38.2252612313
20
23.3117179855
30
0.0000000000
10
38.2221604143
20
23.3444147721
30
0.0000000000
10
38.2192176032
20
23.3828465266
30
0.0000000000
10
38.2164748565
20
23.4267465397
30
0.0000000000
10
38.2139605181
20
23.4757018695
30
0.0000000000
10
38.2117091879
20
23.5291206860
30
0.0000000000
10
38.2097506197
20
23.5862138242
30
0.0000000000
10
38.2086746882
20
23.6254169248
30
0.0000000000
10
38.2081841850
20
23.6454833826
30
0.0000000000
11
38.2395125221
21
23.2422754915
31
0.0000000000
11
38.2359589163
21
23.2491515221
31
0.0000000000
11
38.2324224808
21
23.2627567466
31
0.0000000000
11
38.2289570384
21
23.2830349623
31
0.0000000000
11
38.2256117606
21
23.3097546618
31
0.0000000000
11
38.2224309752
21
23.3425318750
31
0.0000000000
11
38.2194411307
21
23.3810314659
31
0.0000000000
11
38.2166584990
21
23.4250413876
31
0.0000000000
11
38.2141093888
21
23.4742101138
31
0.0000000000
11
38.2118289623
21
23.5278879628
31
0.0000000000
11
38.2098464351
21
23.5852889739
31
0.0000000000
11
38.2081841850
21
23.6454833826
31
0.0000000000
0
SPLINE
5
340
100
AcDbEntity
8
0
100
AcDbSpline
62
9
6
CONTINUOUS
70
0
71
3
72
23
73
19
74
17
42
0.0000001000
43
0.0000001000
44
0.0000000001
12
1.4743199243
22
0.1272659923
32
0.0000000000
13
-0.0007286248
23
1.4798024670
33
0.0000000000
40
0.0000000000
40
0.0000000000
40
0.0000000000
40
0.0000000000
40
0.0624391937
40
0.1252086697
40
0.1881066370
40
0.2509357493
40
0.3135661018
40
0.3760767061
40
0.4385658924
40
0.5010353163
40
0.5634664255
40
0.6258388599
40
0.6881541583
40
0.7505196391
40
0.8130317253
40
0.8755772581
40
0.9379655723
40
1.0000000000
40
1.0000000000
40
1.0000000000
40
1.0000000000
10
84.3823897321
20
-24.9351878119
30
0.0000000000
10
84.4130748479
20
-24.9325390166
30
0.0000000000
10
84.4744008687
20
-24.9243972085
30
0.0000000000
10
84.5649873375
20
-24.9037339485
30
0.0000000000
10
84.6534626241
20
-24.8747080347
30
0.0000000000
10
84.7387956812
20
-24.8376201561
30
0.0000000000
10
84.8201503397
20
-24.7928640419
30
0.0000000000
10
84.8968641928
20
-24.7408497974
30
0.0000000000
10
84.9683600636
20
-24.6819925909
30
0.0000000000
10
85.0340532269
20
-24.6167775202
30
0.0000000000
10
85.0933657737
20
-24.5457848817
30
0.0000000000
10
85.1457831772
20
-24.4696518020
30
0.0000000000
10
85.1908899335
20
-24.3890095867
30
0.0000000000
10
85.2283440280
20
-24.3044650433
30
0.0000000000
10
85.2578157388
20
-24.2166980166
30
0.0000000000
10
85.2790004405
20
-24.1265576279
30
0.0000000000
10
85.2916979846
20
-24.0350832137
30
0.0000000000
10
85.2944925964
20
-23.9736705929
30
0.0000000000
10
85.2944775298
20
-23.9430710265
30
0.0000000000
11
84.3823897321
21
-24.9351878119
31
0.0000000000
11
84.4739831276
21
-24.9230230289
31
0.0000000000
11
84.5645430745
21
-24.9023642265
31
0.0000000000
11
84.6529809240
21
-24.8733470549
31
0.0000000000
11
84.7382491578
21
-24.8362846661
31
0.0000000000
11
84.8194514612
21
-24.7916094786
31
0.0000000000
11
84.8960138182
21
-24.7396953509
31
0.0000000000
11
84.9674049836
21
-24.6809219724
31
0.0000000000
11
85.0330089566
21
-24.6157934877
31
0.0000000000
11
85.0922417012
21
-24.5448949451
31
0.0000000000
11
85.1445828320
21
-24.4688719765
31
0.0000000000
11
85.1895989811
21
-24.3883919699
31
0.0000000000
11
85.2269805201
21
-24.3040130218
31
0.0000000000
11
85.2564284167
21
-24.2163198164
31
0.0000000000
11
85.2776058808
21
-24.1262201419
31
0.0000000000
11
85.2903001420
21
-24.0347746395
31
0.0000000000
11
85.2944775298
21
-23.9430710265
31
0.0000000000
0
SPLINE
5
341
100
AcDbEntity
8
0
100
AcDbSpline
62
9
6
CONTINUOUS
70
0
71
3
72
14
73
10
74
8
42
0.0000001000
43
0.0000001000
44
0.0000000001
12
-0.0069952874
22
0.1095344317
32
0.0000000000
13
0.0430897730
23
0.0993873208
33
0.0000000000
40
0.0000000000
40
0.0000000000
40
0.0000000000
40
0.0000000000
40
0.2277163269
40
0.4412767505
40
0.6261587514
40
0.7781778977
40
0.8939416929
40
0.9710091726
40
1.0000000000
40
1.0000000000
40
1.0000000000
40
1.0000000000
10
84.3841525787
20
-25.0456217461
30
0.0000000000
10
84.3836215983
20
-25.0373074866
30
0.0000000000
10
84.3826571258
20
-25.0211911348
30
0.0000000000
10
84.3815251002
20
-24.9983165048
30
0.0000000000
10
84.3807695643
20
-24.9781745170
30
0.0000000000
10
84.3805038284
20
-24.9616611344
30
0.0000000000
10
84.3804919689
20
-24.9489302190
30
0.0000000000
10
84.3811768730
20
-24.9410440162
30
0.0000000000
10
84.3815173908
20
-24.9369446361
30
0.0000000000
10
84.3819337935
20
-24.9359841958
30
0.0000000000
11
84.3841525787
21
-25.0456217461
31
0.0000000000
11
84.3826705759
21
-25.0206730055
31
0.0000000000
11
84.3815230843
21
-24.9972620335
31
0.0000000000
11
84.3808041539
21
-24.9769832631
31
0.0000000000
11
84.3805302394
21
-24.9603008260
31
0.0000000000
11
84.3807076100
21
-24.9475965426
31
0.0000000000
11
84.3813322061
21
-24.9391611830
31
0.0000000000
11
84.3819337935
21
-24.9359841958
31
0.0000000000
0
SPLINE
5
342
100
AcDbEntity
8
0
100
AcDbSpline
62
9
6
CONTINUOUS
70
0
71
3
72
8
73
4
74
2
42
0.0000001000
43
0.0000001000
44
0.0000000001
12
0.0003650589
22
0.0008420149
32
0.0000000000
13
0.0005548631
23
0.0007461438
33
0.0000000000
40
0.0000000000
40
0.0000000000
40
0.0000000000
40
0.0000000000
40
1.0000000000
40
1.0000000000
40
1.0000000000
40
1.0000000000
10
84.3819337935
20
-24.9359841958
30
0.0000000000
10
84.3820554798
20
-24.9357035242
30
0.0000000000
10
84.3822047778
20
-24.9354365265
30
0.0000000000
10
84.3823897321
20
-24.9351878119
30
0.0000000000
11
84.3819337935
21
-24.9359841958
31
0.0000000000
11
84.3823897321
21
-24.9351878119
31
0.0000000000
0
SPLINE
5
343
100
AcDbEntity
8
0
100
AcDbSpline
62
9
6
CONTINUOUS
70
0
71
3
72
19
73
15
74
13
42
0.0000001000
43
0.0000001000
44
0.0000000001
12
47.0372214152
22
-4.1065863216
32
0.0000000000
13
47.0372213909
23
4.1065865995
33
0.0000000000
40
0.0000000000
40
0.0000000000
40
0.0000000000
40
0.0000000000
40
0.0717996809
40
0.1554648361
40
0.2416220130
40
0.3277644209
40
0.4138877645
40
0.5000072255
40
0.5861266898
40
0.6722500295
40
0.7583924153
40
0.8445483317
40
0.9282073854
40
1.0000000000
40
1.0000000000
40
1.0000000000
40
1.0000000000
10
37.2254826390
20
-24.9351879859
30
0.0000000000
10
38.3512351354
20
-25.0334718484
30
0.0000000000
10
40.7901354772
20
-25.2310410918
30
0.0000000000
10
44.5844804247
20
-25.4867602288
30
0.0000000000
10
48.6076372284
20
-25.6981863327
30
0.0000000000
10
52.6721747241
20
-25.8506762672
30
0.0000000000
10
56.7379492630
20
-25.9421632145
30
0.0000000000
10
60.8042774266
20
-25.9726546420
30
0.0000000000
10
64.8706054523
20
-25.9421529759
30
0.0000000000
10
68.9363794034
20
-25.8506558112
30
0.0000000000
10
73.0008962799
20
-25.6981564016
30
0.0000000000
10
77.0239365125
20
-25.4867267424
30
0.0000000000
10
80.8180544124
20
-25.2310161777
30
0.0000000000
10
83.2567480460
20
-25.0334621819
30
0.0000000000
10
84.3823897477
20
-24.9351879856
30
0.0000000000
11
37.2254826390
21
-24.9351879859
31
0.0000000000
11
40.6045177852
21
-25.2089161116
31
0.0000000000
11
44.5459229260
21
-25.4745457802
31
0.0000000000
11
48.6083267888
21
-25.6880346454
31
0.0000000000
11
52.6727796985
21
-25.8405212839
31
0.0000000000
11
56.7381628057
21
-25.9319994887
31
0.0000000000
11
60.8042773614
21
-25.9624892790
31
0.0000000000
11
64.8703919974
21
-25.9319892510
31
0.0000000000
11
68.9357746916
21
-25.8405008204
31
0.0000000000
11
73.0002261708
21
-25.6880039948
31
0.0000000000
11
77.0625700873
21
-25.4745084950
31
0.0000000000
11
81.0036873269
21
-25.2088912500
31
0.0000000000
11
84.3823897477
21
-24.9351879856
31
0.0000000000
0
SPLINE
5
344
100
AcDbEntity
8
0
100
AcDbSpline
62
9
6
CONTINUOUS
70
0
71
3
72
14
73
10
74
8
42
0.0000001000
43
0.0000001000
44
0.0000000001
12
0.0069952692
22
0.1095342589
32
0.0000000000
13
-0.0430897403
23
0.0993871464
33
0.0000000000
40
0.0000000000
40
0.0000000000
40
0.0000000000
40
0.0000000000
40
0.2277159247
40
0.4412764783
40
0.6261585801
40
0.7781778016
40
0.8939416492
40
0.9710091613
40
1.0000000000
40
1.0000000000
40
1.0000000000
40
1.0000000000
10
37.2237198058
20
-25.0456217455
30
0.0000000000
10
37.2242507838
20
-25.0373075139
30
0.0000000000
10
37.2252152533
20
-25.0211911975
30
0.0000000000
10
37.2263472756
20
-24.9983166098
30
0.0000000000
10
37.2271028096
20
-24.9781746427
30
0.0000000000
10
37.2273685441
20
-24.9616612779
30
0.0000000000
10
37.2273804025
20
-24.9489303766
30
0.0000000000
10
37.2266954983
20
-24.9410441832
30
0.0000000000
10
37.2263549801
20
-24.9369448076
30
0.0000000000
10
37.2259385775
20
-24.9359843687
30
0.0000000000
11
37.2237198058
21
-25.0456217455
31
0.0000000000
11
37.2252018021
21
-25.0206730885
31
0.0000000000
11
37.2263492914
21
-24.9972621391
31
0.0000000000
11
37.2270682199
21
-24.9769833897
31
0.0000000000
11
37.2273421330
21
-24.9603009708
31
0.0000000000
11
37.2271647615
21
-24.9475967018
31
0.0000000000
11
37.2265401650
21
-24.9391613520
31
0.0000000000
11
37.2259385775
21
-24.9359843687
31
0.0000000000
0
SPLINE
5
345
100
AcDbEntity
8
0
100
AcDbSpline
62
9
6
CONTINUOUS
70
0
71
3
72
8
73
4
74
2
42
0.0000001000
43
0.0000001000
44
0.0000000001
12
-0.0003650589
22
0.0008420138
32
0.0000000000
13
-0.0005548629
23
0.0007461427
33
0.0000000000
40
0.0000000000
40
0.0000000000
40
0.0000000000
40
0.0000000000
40
1.0000000000
40
1.0000000000
40
1.0000000000
40
1.0000000000
10
37.2259385775
20
-24.9359843687
30
0.0000000000
10
37.2258168913
20
-24.9357036974
30
0.0000000000
10
37.2256675933
20
-24.9354367001
30
0.0000000000
10
37.2254826390
20
-24.9351879859
30
0.0000000000
11
37.2259385775
21
-24.9359843687
31
0.0000000000
11
37.2254826390
21
-24.9351879859
31
0.0000000000
0
SPLINE
5
346
100
AcDbEntity
8
0
100
AcDbSpline
62
9
6
CONTINUOUS
70
0
71
3
72
23
73
19
74
17
42
0.0000001000
43
0.0000001000
44
0.0000000001
12
-0.0007283974
22
-1.4798024670
32
0.0000000000
13
1.4743199522
23
-0.1272656685
33
0.0000000000
40
0.0000000000
40
0.0000000000
40
0.0000000000
40
0.0000000000
40
0.0620002817
40
0.1243669695
40
0.1869056024
40
0.2494238337
40
0.3117953242
40
0.3741102644
40
0.4364801371
40
0.4989102836
40
0.5613809958
40
0.6238729512
40
0.6863842824
40
0.7490092927
40
0.8118327128
40
0.8747373997
40
0.9375278155
40
1.0000000000
40
1.0000000000
40
1.0000000000
40
1.0000000000
10
36.3133947642
20
-23.9430710265
30
0.0000000000
10
36.3133797106
20
-23.9736537498
30
0.0000000000
10
36.3161716429
20
-24.0350387879
30
0.0000000000
10
36.3288586588
20
-24.1264833215
30
0.0000000000
10
36.3500329527
20
-24.2166147698
30
0.0000000000
10
36.3794976669
20
-24.3043869123
30
0.0000000000
10
36.4169474007
20
-24.3889397916
30
0.0000000000
10
36.4620487989
20
-24.4695867484
30
0.0000000000
10
36.5144591915
20
-24.5457223128
30
0.0000000000
10
36.5737653242
20
-24.6167188649
30
0.0000000000
10
36.6394543573
20
-24.6819402739
30
0.0000000000
10
36.7109475356
20
-24.7408044884
30
0.0000000000
10
36.7876567732
20
-24.7928239241
30
0.0000000000
10
36.8690034850
20
-24.8375838677
30
0.0000000000
10
36.9543313748
20
-24.8746782252
30
0.0000000000
10
37.0428145633
20
-24.9037149512
30
0.0000000000
10
37.1334289645
20
-24.9243908428
30
0.0000000000
10
37.1947813334
20
-24.9325375336
30
0.0000000000
10
37.2254826627
20
-24.9351877217
30
0.0000000000
11
36.3133947642
21
-23.9430710265
31
0.0000000000
11
36.3175676084
21
-24.0347242647
31
0.0000000000
11
36.3302513068
21
-24.1261389234
31
0.0000000000
11
36.3514185120
21
-24.2162305202
31
0.0000000000
11
36.3808615057
21
-24.3039349642
31
0.0000000000
11
36.4182399161
21
-24.3883250247
31
0.0000000000
11
36.4632497220
21
-24.4688079718
31
0.0000000000
11
36.5155827935
21
-24.5448318865
31
0.0000000000
11
36.5748089298
21
-24.6157340933
31
0.0000000000
11
36.6404090438
21
-24.6808691705
31
0.0000000000
11
36.7117988516
21
-24.7396506449
31
0.0000000000
11
36.7883582440
21
-24.7915710612
31
0.0000000000
11
36.8695501578
21
-24.8362487321
31
0.0000000000
11
36.9548074905
21
-24.8733150692
31
0.0000000000
11
37.0432523367
21
-24.9023428109
31
0.0000000000
11
37.1338411578
21
-24.9230143632
31
0.0000000000
11
37.2254826627
21
-24.9351877217
31
0.0000000000
0
SPLINE
5
347
100
AcDbEntity
8
0
100
AcDbSpline
62
9
6
CONTINUOUS
70
0
71
3
72
23
73
19
74
17
42
0.0000001000
43
0.0000001000
44
0.0000000001
12
-1.4743199243
22
-0.1272659923
32
0.0000000000
13
0.0007286248
23
-1.4798024670
33
0.0000000000
40
0.0000000000
40
0.0000000000
40
0.0000000000
40
0.0000000000
40
0.0624391937
40
0.1252086697
40
0.1881066370
40
0.2509357493
40
0.3135661018
40
0.3760767061
40
0.4385658924
40
0.5010353163
40
0.5634664255
40
0.6258388599
40
0.6881541583
40
0.7505196391
40
0.8130317253
40
0.8755772581
40
0.9379655723
40
1.0000000000
40
1.0000000000
40
1.0000000000
40
1.0000000000
10
37.2254826546
20
26.6903432662
30
0.0000000000
10
37.1947975389
20
26.6876944709
30
0.0000000000
10
37.1334715181
20
26.6795526628
30
0.0000000000
10
37.0428850493
20
26.6588894028
30
0.0000000000
10
36.9544097626
20
26.6298634890
30
0.0000000000
10
36.8690767055
20
26.5927756103
30
0.0000000000
10
36.7877220470
20
26.5480194962
30
0.0000000000
10
36.7110081940
20
26.4960052516
30
0.0000000000
10
36.6395123232
20
26.4371480451
30
0.0000000000
10
36.5738191599
20
26.3719329744
30
0.0000000000
10
36.5145066131
20
26.3009403360
30
0.0000000000
10
36.4620892096
20
26.2248072562
30
0.0000000000
10
36.4169824533
20
26.1441650410
30
0.0000000000
10
36.3795283588
20
26.0596204975
30
0.0000000000
10
36.3500566480
20
25.9718534709
30
0.0000000000
10
36.3288719463
20
25.8817130822
30
0.0000000000
10
36.3161744022
20
25.7902386680
30
0.0000000000
10
36.3133797904
20
25.7288260472
30
0.0000000000
10
36.3133948570
20
25.6982264808
30
0.0000000000
11
37.2254826546
21
26.6903432662
31
0.0000000000
11
37.1338892592
21
26.6781784832
31
0.0000000000
11
37.0433293123
21
26.6575196807
31
0.0000000000
11
36.9548914628
21
26.6285025092
31
0.0000000000
11
36.8696232290
21
26.5914401204
31
0.0000000000
11
36.7884209256
21
26.5467649329
31
0.0000000000
11
36.7118585686
21
26.4948508052
31
0.0000000000
11
36.6404674032
21
26.4360774267
31
0.0000000000
11
36.5748634302
21
26.3709489420
31
0.0000000000
11
36.5156306856
21
26.3000503994
31
0.0000000000
11
36.4632895548
21
26.2240274308
31
0.0000000000
11
36.4182734057
21
26.1435474242
31
0.0000000000
11
36.3808918667
21
26.0591684761
31
0.0000000000
11
36.3514439701
21
25.9714752707
31
0.0000000000
11
36.3302665060
21
25.8813755961
31
0.0000000000
11
36.3175722447
21
25.7899300938
31
0.0000000000
11
36.3133948570
21
25.6982264808
31
0.0000000000
0
SPLINE
5
348
100
AcDbEntity
8
0
100
AcDbSpline
62
9
6
CONTINUOUS
70
0
71
3
72
14
73
10
74
8
42
0.0000001000
43
0.0000001000
44
0.0000000001
12
0.0069952874
22
-0.1095344317
32
0.0000000000
13
-0.0430897730
23
-0.0993873208
33
0.0000000000
40
0.0000000000
40
0.0000000000
40
0.0000000000
40
0.0000000000
40
0.2277163269
40
0.4412767505
40
0.6261587514
40
0.7781778977
40
0.8939416929
40
0.9710091726
40
1.0000000000
40
1.0000000000
40
1.0000000000
40
1.0000000000
10
37.2237198081
20
26.8007772003
30
0.0000000000
10
37.2242507885
20
26.7924629409
30
0.0000000000
10
37.2252152610
20
26.7763465891
30
0.0000000000
10
37.2263472866
20
26.7534719590
30
0.0000000000
10
37.2271028225
20
26.7333299713
30
0.0000000000
10
37.2273685584
20
26.7168165887
30
0.0000000000
10
37.2273804179
20
26.7040856733
30
0.0000000000
10
37.2266955138
20
26.6961994705
30
0.0000000000
10
37.2263549960
20
26.6921000903
30
0.0000000000
10
37.2259385933
20
26.6911396501
30
0.0000000000
11
37.2237198081
21
26.8007772003
31
0.0000000000
11
37.2252018109
21
26.7758284598
31
0.0000000000
11
37.2263493025
21
26.7524174877
31
0.0000000000
11
37.2270682328
21
26.7321387174
31
0.0000000000
11
37.2273421474
21
26.7154562803
31
0.0000000000
11
37.2271647768
21
26.7027519969
31
0.0000000000
11
37.2265401807
21
26.6943166373
31
0.0000000000
11
37.2259385933
21
26.6911396501
31
0.0000000000
0
SPLINE
5
349
100
AcDbEntity
8
0
100
AcDbSpline
62
9
6
CONTINUOUS
70
0
71
3
72
8
73
4
74
2
42
0.0000001000
43
0.0000001000
44
0.0000000001
12
-0.0003650589
22
-0.0008420149
32
0.0000000000
13
-0.0005548631
23
-0.0007461438
33
0.0000000000
40
0.0000000000
40
0.0000000000
40
0.0000000000
40
0.0000000000
40
1.0000000000
40
1.0000000000
40
1.0000000000
40
1.0000000000
10
37.2259385933
20
26.6911396501
30
0.0000000000
10
37.2258169070
20
26.6908589785
30
0.0000000000
10
37.2256676090
20
26.6905919808
30
0.0000000000
10
37.2254826546
20
26.6903432662
30
0.0000000000
11
37.2259385933
21
26.6911396501
31
0.0000000000
11
37.2254826546
21
26.6903432662
31
0.0000000000
0
SPLINE
5
34A
100
AcDbEntity
8
0
100
AcDbSpline
62
9
6
CONTINUOUS
70
0
71
3
72
19
73
15
74
13
42
0.0000001000
43
0.0000001000
44
0.0000000001
12
-47.0372214150
22
4.1065863230
32
0.0000000000
13
-47.0372213909
23
-4.1065865987
33
0.0000000000
40
0.0000000000
40
0.0000000000
40
0.0000000000
40
0.0000000000
40
0.0718604286
40
0.1555392864
40
0.2416965154
40
0.3278389013
40
0.4139622315
40
0.5000816917
40
0.5862011549
40
0.6723245061
40
0.7584669123
40
0.8446227651
40
0.9282680755
40
1.0000000000
40
1.0000000000
40
1.0000000000
40
1.0000000000
10
84.3823897478
20
26.6903434402
30
0.0000000000
10
83.2556847842
20
26.7887104579
30
0.0000000000
10
80.8156153007
20
26.9863614138
30
0.0000000000
10
77.0200973555
20
27.2421147237
30
0.0000000000
10
72.9967219621
20
27.4534999688
30
0.0000000000
10
68.9321822270
20
27.6059371914
30
0.0000000000
10
64.8664070726
20
27.6973713795
30
0.0000000000
10
60.8000787537
20
27.7278100689
30
0.0000000000
10
56.7337509719
20
27.6972556659
30
0.0000000000
10
52.6679777230
20
27.6057057459
30
0.0000000000
10
48.6034633230
20
27.4531536369
30
0.0000000000
10
44.5806425271
20
27.2416831789
30
0.0000000000
10
40.7876975360
20
26.9860068381
30
0.0000000000
10
38.3501727768
20
26.7885345599
30
0.0000000000
10
37.2254826390
20
26.6903434399
30
0.0000000000
11
84.3823897478
21
26.6903434402
31
0.0000000000
11
81.0004942464
21
26.9642852675
31
0.0000000000
11
77.0584404580
21
27.2299120317
31
0.0000000000
11
72.9960313654
21
27.4433483257
31
0.0000000000
11
68.9315775222
21
27.5957821968
31
0.0000000000
11
64.8661938598
21
27.6872076516
31
0.0000000000
11
60.8000789464
21
27.7176447061
31
0.0000000000
11
56.7339647565
21
27.6870919435
31
0.0000000000
11
52.6685827063
21
27.5955507669
31
0.0000000000
11
48.6041322436
21
27.4430011802
31
0.0000000000
11
44.5417940955
21
27.2294531463
31
0.0000000000
11
40.6013274198
21
26.9638331716
31
0.0000000000
11
37.2254826390
21
26.6903434399
31
0.0000000000
0
SPLINE
5
34B
100
AcDbEntity
8
0
100
AcDbSpline
62
9
6
CONTINUOUS
70
0
71
3
72
14
73
10
74
8
42
0.0000001000
43
0.0000001000
44
0.0000000001
12
-0.0069952692
22
-0.1095342589
32
0.0000000000
13
0.0430897403
23
-0.0993871464
33
0.0000000000
40
0.0000000000
40
0.0000000000
40
0.0000000000
40
0.0000000000
40
0.2277159247
40
0.4412764783
40
0.6261585801
40
0.7781778016
40
0.8939416492
40
0.9710091613
40
1.0000000000
40
1.0000000000
40
1.0000000000
40
1.0000000000
10
84.3841525810
20
26.8007771998
30
0.0000000000
10
84.3836216030
20
26.7924629681
30
0.0000000000
10
84.3826571335
20
26.7763466518
30
0.0000000000
10
84.3815251112
20
26.7534720641
30
0.0000000000
10
84.3807695772
20
26.7333300970
30
0.0000000000
10
84.3805038427
20
26.7168167322
30
0.0000000000
10
84.3804919843
20
26.7040858309
30
0.0000000000
10
84.3811768885
20
26.6961996375
30
0.0000000000
10
84.3815174067
20
26.6921002619
30
0.0000000000
10
84.3819338092
20
26.6911398230
30
0.0000000000
11
84.3841525810
21
26.8007771998
31
0.0000000000
11
84.3826705847
21
26.7758285427
31
0.0000000000
11
84.3815230953
21
26.7524175934
31
0.0000000000
11
84.3808041669
21
26.7321388440
31
0.0000000000
11
84.3805302538
21
26.7154564251
31
0.0000000000
11
84.3807076253
21
26.7027521561
31
0.0000000000
11
84.3813322218
21
26.6943168063
31
0.0000000000
11
84.3819338092
21
26.6911398230
31
0.0000000000
0
SPLINE
5
34C
100
AcDbEntity
8
0
100
AcDbSpline
62
9
6
CONTINUOUS
70
0
71
3
72
8
73
4
74
2
42
0.0000001000
43
0.0000001000
44
0.0000000001
12
0.0003650589
22
-0.0008420138
32
0.0000000000
13
0.0005548629
23
-0.0007461427
33
0.0000000000
40
0.0000000000
40
0.0000000000
40
0.0000000000
40
0.0000000000
40
1.0000000000
40
1.0000000000
40
1.0000000000
40
1.0000000000
10
84.3819338092
20
26.6911398230
30
0.0000000000
10
84.3820554955
20
26.6908591517
30
0.0000000000
10
84.3822047935
20
26.6905921544
30
0.0000000000
10
84.3823897478
20
26.6903434402
30
0.0000000000
11
84.3819338092
21
26.6911398230
31
0.0000000000
11
84.3823897478
21
26.6903434402
31
0.0000000000
0
SPLINE
5
34D
100
AcDbEntity
8
0
100
AcDbSpline
62
9
6
CONTINUOUS
70
0
71
3
72
23
73
19
74
17
42
0.0000001000
43
0.0000001000
44
0.0000000001
12
0.0007286241
22
1.4798024670
32
0.0000000000
13
-1.4743199240
23
0.1272659969
33
0.0000000000
40
0.0000000000
40
0.0000000000
40
0.0000000000
40
0.0000000000
40
0.0620344352
40
0.1244227475
40
0.1869682807
40
0.2494803666
40
0.3118458473
40
0.3741611456
40
0.4365335799
40
0.4989646890
40
0.5614341128
40
0.6239232991
40
0.6864339032
40
0.7490642556
40
0.8118933679
40
0.8747913348
40
0.9375608120
40
1.0000000000
40
1.0000000000
40
1.0000000000
40
1.0000000000
10
85.2944775301
20
25.6982264808
30
0.0000000000
10
85.2944925967
20
25.7288260509
30
0.0000000000
10
85.2916979842
20
25.7902386744
30
0.0000000000
10
85.2790004385
20
25.8817130914
30
0.0000000000
10
85.2578157366
20
25.9718534790
30
0.0000000000
10
85.2283440249
20
26.0596205054
30
0.0000000000
10
85.1908899298
20
26.1441650484
30
0.0000000000
10
85.1457831729
20
26.2248072632
30
0.0000000000
10
85.0933657689
20
26.3009403424
30
0.0000000000
10
85.0340532215
20
26.3719329802
30
0.0000000000
10
84.9683600578
20
26.4371480503
30
0.0000000000
10
84.8968641868
20
26.4960052562
30
0.0000000000
10
84.8201503334
20
26.5480195001
30
0.0000000000
10
84.7387956747
20
26.5927756136
30
0.0000000000
10
84.6534626175
20
26.6298634914
30
0.0000000000
10
84.5649873303
20
26.6588894049
30
0.0000000000
10
84.4744008637
20
26.6795526636
30
0.0000000000
10
84.4130748451
20
26.6876944707
30
0.0000000000
10
84.3823897321
20
26.6903432659
30
0.0000000000
11
85.2944775301
21
25.6982264808
31
0.0000000000
11
85.2903001411
21
25.7899301049
31
0.0000000000
11
85.2776058792
21
25.8813756041
31
0.0000000000
11
85.2564284144
21
25.9714752791
31
0.0000000000
11
85.2269805171
21
26.0591684839
31
0.0000000000
11
85.1895989774
21
26.1435474316
31
0.0000000000
11
85.1445828277
21
26.2240274377
31
0.0000000000
11
85.0922416964
21
26.3000504058
31
0.0000000000
11
85.0330089513
21
26.3709489478
31
0.0000000000
11
84.9674049779
21
26.4360774319
31
0.0000000000
11
84.8960138121
21
26.4948508097
31
0.0000000000
11
84.8194514549
21
26.5467649368
31
0.0000000000
11
84.7382491513
21
26.5914401236
31
0.0000000000
11
84.6529809172
21
26.6285025117
31
0.0000000000
11
84.5645430681
21
26.6575196826
31
0.0000000000
11
84.4739831192
21
26.6781784846
31
0.0000000000
11
84.3823897321
21
26.6903432659
31
0.0000000000
0
SPLINE
5
34E
100
AcDbEntity
8
0
100
AcDbSpline
62
9
6
CONTINUOUS
70
0
71
3
72
15
73
11
74
9
42
0.0000001000
43
0.0000001000
44
0.0000000001
12
-0.0591464582
22
0.0802736401
32
0.0000000000
13
0.0086232323
23
0.0993368042
33
0.0000000000
40
0.0000000000
40
0.0000000000
40
0.0000000000
40
0.0000000000
40
0.0290956560
40
0.0922041635
40
0.1876230597
40
0.3120713577
40
0.4611571501
40
0.6295848752
40
0.8113582985
40
1.0000000000
40
1.0000000000
40
1.0000000000
40
1.0000000000
10
37.3213954590
20
-24.8478174907
30
0.0000000000
10
37.3208218240
20
-24.8470389527
30
0.0000000000
10
37.3207741646
20
-24.8437271815
30
0.0000000000
10
37.3203413557
20
-24.8376944059
30
0.0000000000
10
37.3205811561
20
-24.8281876157
30
0.0000000000
10
37.3209684450
20
-24.8159722827
30
0.0000000000
10
37.3217417359
20
-24.8012876495
30
0.0000000000
10
37.3227878059
20
-24.7847306038
30
0.0000000000
10
37.3241021977
20
-24.7668676970
30
0.0000000000
10
37.3251137137
20
-24.7545980897
30
0.0000000000
10
37.3256559474
20
-24.7483517351
30
0.0000000000
11
37.3213954590
21
-24.8478174907
31
0.0000000000
11
37.3207753117
21
-24.8449834080
31
0.0000000000
11
37.3204951329
21
-24.8386970750
31
0.0000000000
11
37.3205649321
21
-24.8291830762
31
0.0000000000
11
37.3209822157
21
-24.8167813068
31
0.0000000000
11
37.3217320759
21
-24.8019348298
31
0.0000000000
11
37.3227877234
21
-24.7851740477
31
0.0000000000
11
37.3241114442
21
-24.7670977527
31
0.0000000000
11
37.3256559474
21
-24.7483517351
31
0.0000000000
0
SPLINE
5
34F
100
AcDbEntity
8
0
100
AcDbSpline
62
9
6
CONTINUOUS
70
0
71
3
72
22
73
18
74
16
42
0.0000001000
43
0.0000001000
44
0.0000000001
12
-1.3268359045
22
0.1154279534
32
0.0000000000
13
-0.0000234655
23
1.3318472620
33
0.0000000000
40
0.0000000000
40
0.0000000000
40
0.0000000000
40
0.0000000000
40
0.0669885546
40
0.1339398004
40
0.2008180604
40
0.2676206318
40
0.3343524506
40
0.4010193171
40
0.4676299039
40
0.5341945663
40
0.6007267365
40
0.6672396510
40
0.7337486056
40
0.8002693838
40
0.8668177893
40
0.9334026619
40
1.0000000000
40
1.0000000000
40
1.0000000000
40
1.0000000000
10
37.3256559474
20
-24.7483517351
30
0.0000000000
10
37.2960283410
20
-24.7457742845
30
0.0000000000
10
37.2370021246
20
-24.7376946089
30
0.0000000000
10
37.1501615466
20
-24.7169189024
30
0.0000000000
10
37.0658633204
20
-24.6877032486
30
0.0000000000
10
36.9849516422
20
-24.6503500118
30
0.0000000000
10
36.9082046593
20
-24.6052363121
30
0.0000000000
10
36.8363594536
20
-24.5528110032
30
0.0000000000
10
36.7701027420
20
-24.4935910666
30
0.0000000000
10
36.7100655719
20
-24.4281551592
30
0.0000000000
10
36.6568187277
20
-24.3571383357
30
0.0000000000
10
36.6108679935
20
-24.2812256080
30
0.0000000000
10
36.5726507706
20
-24.2011457880
30
0.0000000000
10
36.5425322482
20
-24.1176658694
30
0.0000000000
10
36.5208045812
20
-24.0315826976
30
0.0000000000
10
36.5076826501
20
-23.9437493814
30
0.0000000000
10
36.5047599789
20
-23.8845815250
30
0.0000000000
10
36.5047594580
20
-23.8550156976
30
0.0000000000
11
37.3256559474
21
-24.7483517351
31
0.0000000000
11
37.2372623567
21
-24.7362472746
31
0.0000000000
11
37.1505409834
21
-24.7154991595
31
0.0000000000
11
37.0663814974
21
-24.6863283568
31
0.0000000000
11
36.9856040311
21
-24.6490348176
31
0.0000000000
11
36.9089855978
21
-24.6039941253
31
0.0000000000
11
36.8372617659
21
-24.5516551257
31
0.0000000000
11
36.7711176591
21
-24.4925338011
31
0.0000000000
11
36.7111833818
21
-24.4272084030
31
0.0000000000
11
36.6580275667
21
-24.3563119047
31
0.0000000000
11
36.6121555762
21
-24.2805288569
31
0.0000000000
11
36.5740034843
21
-24.2005864189
31
0.0000000000
11
36.5439358689
21
-24.1172491282
31
0.0000000000
11
36.5222432208
21
-24.0313124325
31
0.0000000000
11
36.5091399846
21
-23.9436049428
31
0.0000000000
11
36.5047594580
21
-23.8550156976
31
0.0000000000
0
SPLINE
5
350
100
AcDbEntity
8
0
100
AcDbSpline
62
9
6
CONTINUOUS
70
0
71
3
72
22
73
18
74
16
42
0.0000001000
43
0.0000001000
44
0.0000000001
12
-1.4738801736
22
0.1289613312
32
0.0000000000
13
-0.0003826691
23
1.4795112857
33
0.0000000000
40
0.0000000000
40
0.0000000000
40
0.0000000000
40
0.0000000000
40
0.0669973486
40
0.1339223048
40
0.2007806290
40
0.2675684938
40
0.3342907538
40
0.4009526385
40
0.4675621173
40
0.5341288682
40
0.6006656870
40
0.6671847210
40
0.7337001327
40
0.8002265002
40
0.8667787774
40
0.9333636460
40
1.0000000000
40
1.0000000000
40
1.0000000000
40
1.0000000000
10
37.3213954590
20
-24.8478174907
30
0.0000000000
10
37.2884801044
20
-24.8449374683
30
0.0000000000
10
37.2229228761
20
-24.8359266805
30
0.0000000000
10
37.1264858941
20
-24.8127945027
30
0.0000000000
10
37.0328890290
20
-24.7802942499
30
0.0000000000
10
36.9430500607
20
-24.7387577087
30
0.0000000000
10
36.8578331563
20
-24.6886044290
30
0.0000000000
10
36.7780564342
20
-24.6303334147
30
0.0000000000
10
36.7044821169
20
-24.5645192555
30
0.0000000000
10
36.6378105183
20
-24.4918047963
30
0.0000000000
10
36.5786751645
20
-24.4128953733
30
0.0000000000
10
36.5276375980
20
-24.3285517735
30
0.0000000000
10
36.4851836300
20
-24.2395835527
30
0.0000000000
10
36.4517189100
20
-24.1468425339
30
0.0000000000
10
36.4275682015
20
-24.0512141855
30
0.0000000000
10
36.4129672521
20
-23.9536251273
30
0.0000000000
10
36.4097026811
20
-23.8878787769
30
0.0000000000
10
36.4096941812
20
-23.8550156976
30
0.0000000000
11
37.3213954590
21
-24.8478174907
31
0.0000000000
11
37.2231960173
21
-24.8343154339
31
0.0000000000
11
37.1269111648
21
-24.8112190872
31
0.0000000000
11
37.0334676519
21
-24.7787689549
31
0.0000000000
11
36.9437774049
21
-24.7372991079
31
0.0000000000
11
36.8587026725
21
-24.6872271028
31
0.0000000000
11
36.7790600834
21
-24.6290519716
31
0.0000000000
11
36.7056101918
21
-24.5633472290
31
0.0000000000
11
36.6390523024
21
-24.4907552785
31
0.0000000000
11
36.5800174371
21
-24.4119789645
31
0.0000000000
11
36.5290668383
21
-24.3277787296
31
0.0000000000
11
36.4866848647
21
-24.2389623091
31
0.0000000000
11
36.4532765707
21
-24.1463790238
31
0.0000000000
11
36.4291646667
21
-24.0509120532
31
0.0000000000
11
36.4145878240
21
-23.9534834117
31
0.0000000000
11
36.4096941812
21
-23.8550156976
31
0.0000000000
0
SPLINE
5
351
100
AcDbEntity
8
0
100
AcDbSpline
62
9
6
CONTINUOUS
70
0
71
3
72
15
73
11
74
9
42
0.0000001000
43
0.0000001000
44
0.0000000001
12
0.0591464814
22
0.0802738478
32
0.0000000000
13
-0.0086232554
23
0.0993369839
33
0.0000000000
40
0.0000000000
40
0.0000000000
40
0.0000000000
40
0.0000000000
40
0.0290956722
40
0.0922042099
40
0.1876231429
40
0.3120714755
40
0.4611572893
40
0.6295850103
40
0.8113583914
40
1.0000000000
40
1.0000000000
40
1.0000000000
40
1.0000000000
10
84.2864769440
20
-24.8478176713
30
0.0000000000
10
84.2870505795
20
-24.8470391308
30
0.0000000000
10
84.2870982382
20
-24.8437273526
30
0.0000000000
10
84.2875310469
20
-24.8376945628
30
0.0000000000
10
84.2872912450
20
-24.8281877522
30
0.0000000000
10
84.2869039542
20
-24.8159723939
30
0.0000000000
10
84.2861306607
20
-24.8012877323
30
0.0000000000
10
84.2850845876
20
-24.7847306575
30
0.0000000000
10
84.2837701927
20
-24.7668677229
30
0.0000000000
10
84.2827586743
20
-24.7545980979
30
0.0000000000
10
84.2822164394
20
-24.7483517351
30
0.0000000000
11
84.2864769440
21
-24.8478176713
31
0.0000000000
11
84.2870970914
21
-24.8449835815
31
0.0000000000
11
84.2873772697
21
-24.8386972341
31
0.0000000000
11
84.2873074692
21
-24.8291832144
31
0.0000000000
11
84.2868901835
21
-24.8167814190
31
0.0000000000
11
84.2861403207
21
-24.8019349130
31
0.0000000000
11
84.2850846702
21
-24.7851741009
31
0.0000000000
11
84.2837609460
21
-24.7670977774
31
0.0000000000
11
84.2822164394
21
-24.7483517351
31
0.0000000000
0
SPLINE
5
352
100
AcDbEntity
8
0
100
AcDbSpline
62
9
6
CONTINUOUS
70
0
71
3
72
26
73
22
74
20
42
0.0000001000
43
0.0000001000
44
0.0000000001
12
-46.8384745605
22
-4.0739097636
32
0.0000000000
13
-46.8384745621
23
4.0739097450
33
0.0000000000
40
0.0000000000
40
0.0000000000
40
0.0000000000
40
0.0000000000
40
0.0308997540
40
0.0662408681
40
0.1060520243
40
0.1503602934
40
0.1992015959
40
0.2529846610
40
0.3129657562
40
0.3806961787
40
0.4586178000
40
0.5413461182
40
0.6192730891
40
0.6870107220
40
0.7469951908
40
0.8007803029
40
0.8496257564
40
0.8939413392
40
0.9337595901
40
0.9691041139
40
1.0000000000
40
1.0000000000
40
1.0000000000
40
1.0000000000
10
84.2822164394
20
-24.7483517351
30
0.0000000000
10
83.7997839921
20
-24.7903126716
30
0.0000000000
10
82.7653337742
20
-24.8774934119
30
0.0000000000
10
81.1083970639
20
-25.0075492553
30
0.0000000000
10
79.2410490590
20
-25.1418758512
30
0.0000000000
10
77.1616333761
20
-25.2762127818
30
0.0000000000
10
74.8625769394
20
-25.4060918015
30
0.0000000000
10
72.3171021750
20
-25.5271616344
30
0.0000000000
10
69.4747260916
20
-25.6342505524
30
0.0000000000
10
66.2531552684
20
-25.7198944615
30
0.0000000000
10
62.6742686898
20
-25.7697894534
30
0.0000000000
10
58.9352162880
20
-25.7698011608
30
0.0000000000
10
55.3561325812
20
-25.7199241668
30
0.0000000000
10
52.1343117121
20
-25.6342887914
30
0.0000000000
10
49.2917374059
20
-25.5272031862
30
0.0000000000
10
46.7461124009
20
-25.4061346759
30
0.0000000000
10
44.4468441804
20
-25.2762501068
30
0.0000000000
10
42.3671379942
20
-25.1418981381
30
0.0000000000
10
40.4995113874
20
-25.0075525074
30
0.0000000000
10
38.8424710375
20
-24.8774879035
30
0.0000000000
10
37.8080280058
20
-24.7903074189
30
0.0000000000
10
37.3256559474
20
-24.7483517351
30
0.0000000000
11
84.2822164394
21
-24.7483517351
31
0.0000000000
11
82.8345868180
21
-24.8703540166
31
0.0000000000
11
81.1781082754
21
-25.0003739881
31
0.0000000000
11
79.3111984067
21
-25.1346694346
31
0.0000000000
11
77.2323649234
21
-25.2689685114
31
0.0000000000
11
74.9397312848
21
-25.3984838956
31
0.0000000000
11
72.4139591347
21
-25.5186178544
31
0.0000000000
11
69.5959286370
21
-25.6247890986
31
0.0000000000
11
66.4126864167
21
-25.7094133039
31
0.0000000000
11
62.7495331701
21
-25.7604839585
31
0.0000000000
11
58.8600355905
21
-25.7604961352
31
0.0000000000
11
55.1966305557
21
-25.7094432086
31
0.0000000000
11
52.0130490627
21
-25.6248249816
31
0.0000000000
11
49.1948596608
21
-25.5186584416
31
0.0000000000
11
46.6689909833
21
-25.3985282934
31
0.0000000000
11
44.3761621368
21
-25.2690082782
31
0.0000000000
11
42.2969852669
21
-25.1346907464
31
0.0000000000
11
40.4297426306
21
-25.0003723683
31
0.0000000000
11
38.7731043196
21
-24.8703392306
31
0.0000000000
11
37.3256559474
21
-24.7483517351
31
0.0000000000
0
SPLINE
5
353
100
AcDbEntity
8
0
100
AcDbSpline
62
9
6
CONTINUOUS
70
0
71
3
72
26
73
22
74
20
42
0.0000001000
43
0.0000001000
44
0.0000000001
12
-46.8469252566
22
-4.0754929018
32
0.0000000000
13
-46.8469252575
23
4.0754928925
33
0.0000000000
40
0.0000000000
40
0.0000000000
40
0.0000000000
40
0.0000000000
40
0.0308998224
40
0.0662409633
40
0.1060521407
40
0.1503604226
40
0.1992017322
40
0.2529847945
40
0.3129658720
40
0.3806962670
40
0.4586178351
40
0.5413460851
40
0.6192730024
40
0.6870106073
40
0.7469950582
40
0.8007801673
40
0.8496256277
40
0.8939412233
40
0.9337594953
40
0.9691040458
40
1.0000000000
40
1.0000000000
40
1.0000000000
40
1.0000000000
10
84.2864769440
20
-24.8478176713
30
0.0000000000
10
83.8039563866
20
-24.8897950070
30
0.0000000000
10
82.7693179418
20
-24.9770097512
30
0.0000000000
10
81.1120799818
20
-25.1071162991
30
0.0000000000
10
79.2443931895
20
-25.2414952098
30
0.0000000000
10
77.1646002307
20
-25.3758844577
30
0.0000000000
10
74.8651266416
20
-25.5058140577
30
0.0000000000
10
72.3191900299
20
-25.6269310379
30
0.0000000000
10
69.4762982445
20
-25.7340616535
30
0.0000000000
10
66.2541431265
20
-25.8197389009
30
0.0000000000
10
62.6746076748
20
-25.8696533096
30
0.0000000000
10
58.9348775105
20
-25.8696650209
30
0.0000000000
10
55.3551449087
20
-25.8197686162
30
0.0000000000
10
52.1327397173
20
-25.7340999056
30
0.0000000000
10
49.2896496858
20
-25.6269726041
30
0.0000000000
10
46.7435628141
20
-25.5058569471
30
0.0000000000
10
44.4438774086
20
-25.3759217956
30
0.0000000000
10
42.3637938986
20
-25.2415175039
30
0.0000000000
10
40.4958284567
20
-25.1071195511
30
0.0000000000
10
38.8384868457
20
-24.9770042397
30
0.0000000000
10
37.8038555945
20
-24.8897897518
30
0.0000000000
10
37.3213954428
20
-24.8478176712
30
0.0000000000
11
84.2864769440
21
-24.8478176713
31
0.0000000000
11
82.8385827934
21
-24.9698676354
31
0.0000000000
11
81.1818036487
21
-25.0999382513
31
0.0000000000
11
79.3145550392
21
-25.2342860017
31
0.0000000000
11
77.2353444300
21
-25.3686373767
31
0.0000000000
11
74.9422947525
21
-25.4982032009
31
0.0000000000
11
72.4160642677
21
-25.6183839428
31
0.0000000000
11
69.5975225937
21
-25.7245965213
31
0.0000000000
11
66.4137028278
21
-25.8092536711
31
0.0000000000
11
62.7498855902
21
-25.8603441956
31
0.0000000000
11
58.8596833855
21
-25.8603563763
31
0.0000000000
11
55.1956143367
21
-25.8092835859
31
0.0000000000
11
52.0114552560
21
-25.7246324167
31
0.0000000000
11
49.1927546598
21
-25.6184245441
31
0.0000000000
11
46.6664276377
21
-25.4982476143
31
0.0000000000
11
44.3731827224
21
-25.3686771574
31
0.0000000000
11
42.2936286687
21
-25.2343073202
31
0.0000000000
11
40.4260472355
21
-25.0999366295
31
0.0000000000
11
38.7691082937
21
-24.9698528422
31
0.0000000000
11
37.3213954428
21
-24.8478176712
31
0.0000000000
0
SPLINE
5
354
100
AcDbEntity
8
0
100
AcDbSpline
62
9
6
CONTINUOUS
70
0
71
3
72
22
73
18
74
16
42
0.0000001000
43
0.0000001000
44
0.0000000001
12
-0.0000231164
22
-1.3318472621
32
0.0000000000
13
-1.3268358756
23
-0.1154282864
33
0.0000000000
40
0.0000000000
40
0.0000000000
40
0.0000000000
40
0.0000000000
40
0.0665995148
40
0.1331844802
40
0.1997330346
40
0.2662539829
40
0.3327631061
40
0.3992761922
40
0.4658085498
40
0.5323732292
40
0.5989836511
40
0.6656503644
40
0.7323820387
40
0.7991844666
40
0.8660625859
40
0.9330137185
40
1.0000000000
40
1.0000000000
40
1.0000000000
40
1.0000000000
10
85.1031129288
20
-23.8550156976
30
0.0000000000
10
85.1031124156
20
-23.8845824914
30
0.0000000000
10
85.1001895820
20
-23.9437513586
30
0.0000000000
10
85.0870672308
20
-24.0315856982
30
0.0000000000
10
85.0653391993
20
-24.1176689687
30
0.0000000000
10
85.0352202995
20
-24.2011489817
30
0.0000000000
10
84.9970026549
20
-24.2812288531
30
0.0000000000
10
84.9510514774
20
-24.3571415874
30
0.0000000000
10
84.8978042108
20
-24.4281583042
30
0.0000000000
10
84.8377667233
20
-24.4935939443
30
0.0000000000
10
84.7715098419
20
-24.5528134888
30
0.0000000000
10
84.6996645777
20
-24.6052383676
30
0.0000000000
10
84.6229175786
20
-24.6503516508
30
0.0000000000
10
84.5420059330
20
-24.6877045035
30
0.0000000000
10
84.4577077629
20
-24.7169197743
30
0.0000000000
10
84.3708682120
20
-24.7376949495
30
0.0000000000
10
84.3118430399
20
-24.7457743645
30
0.0000000000
10
84.2822164394
20
-24.7483517351
30
0.0000000000
11
85.1031129288
21
-23.8550156976
31
0.0000000000
11
85.0987321159
21
-23.9436078313
31
0.0000000000
11
85.0856285837
21
-24.0313154016
31
0.0000000000
11
85.0639355806
21
-24.1172522124
31
0.0000000000
11
85.0338675788
21
-24.2005896044
31
0.0000000000
11
84.9957150699
21
-24.2805320922
31
0.0000000000
11
84.9498426390
21
-24.3563151406
31
0.0000000000
11
84.8966863536
21
-24.4272115983
31
0.0000000000
11
84.8367517559
21
-24.4925367330
31
0.0000000000
11
84.7706075435
21
-24.5516576098
31
0.0000000000
11
84.6988836508
21
-24.6039961802
31
0.0000000000
11
84.6222651992
21
-24.6490364615
31
0.0000000000
11
84.5414877633
21
-24.6863296108
31
0.0000000000
11
84.4573283461
21
-24.7155000401
31
0.0000000000
11
84.3706070511
21
-24.7362478337
31
0.0000000000
11
84.2822164394
21
-24.7483517351
31
0.0000000000
0
SPLINE
5
355
100
AcDbEntity
8
0
100
AcDbSpline
62
9
6
CONTINUOUS
70
0
71
3
72
22
73
18
74
16
42
0.0000001000
43
0.0000001000
44
0.0000000001
12
-0.0003824509
22
-1.4795112860
32
0.0000000000
13
-1.4738801560
23
-0.1289615346
33
0.0000000000
40
0.0000000000
40
0.0000000000
40
0.0000000000
40
0.0000000000
40
0.0666361149
40
0.1332209932
40
0.1997732573
40
0.2662996455
40
0.3328150626
40
0.3993340985
40
0.4658709268
40
0.5324376914
40
0.5990471836
40
0.6657090851
40
0.7324313644
40
0.7992192360
40
0.8660775827
40
0.9330025099
40
1.0000000000
40
1.0000000000
40
1.0000000000
40
1.0000000000
10
85.1981782282
20
-23.8550156976
30
0.0000000000
10
85.1981697332
20
-23.8878786590
30
0.0000000000
10
85.1949051341
20
-23.9536248932
30
0.0000000000
10
85.1803042795
20
-24.0512138433
30
0.0000000000
10
85.1561535787
20
-24.1468422038
30
0.0000000000
10
85.1226888980
20
-24.2395832428
30
0.0000000000
10
85.0802349475
20
-24.3285514879
30
0.0000000000
10
85.0291974042
20
-24.4128951111
30
0.0000000000
10
84.9700620655
20
-24.4918045611
30
0.0000000000
10
84.9033904750
20
-24.5645190523
30
0.0000000000
10
84.8298161580
20
-24.6303332444
30
0.0000000000
10
84.7500394307
20
-24.6886042937
30
0.0000000000
10
84.6648225168
20
-24.7387575983
30
0.0000000000
10
84.5749835385
20
-24.7802941772
30
0.0000000000
10
84.4813866725
20
-24.8127944242
30
0.0000000000
10
84.3849496390
20
-24.8359266779
30
0.0000000000
10
84.3193923496
20
-24.8449374358
30
0.0000000000
10
84.2864769259
20
-24.8478174688
30
0.0000000000
11
85.1981782282
21
-23.8550156976
31
0.0000000000
11
85.1932845984
21
-23.9534830582
31
0.0000000000
11
85.1787078010
21
-24.0509117209
31
0.0000000000
11
85.1545959281
21
-24.1463786795
31
0.0000000000
11
85.1211876571
21
-24.2389620056
31
0.0000000000
11
85.0788057070
21
-24.3277784463
31
0.0000000000
11
85.0278551327
21
-24.4119786994
31
0.0000000000
11
84.9688202822
21
-24.4907550418
31
0.0000000000
11
84.9022623992
21
-24.5633470256
31
0.0000000000
11
84.8288125095
21
-24.6290518003
31
0.0000000000
11
84.7491699143
21
-24.6872269654
31
0.0000000000
11
84.6640951675
21
-24.7372990024
31
0.0000000000
11
84.5744049205
21
-24.7787688734
31
0.0000000000
11
84.4809613799
21
-24.8112190269
31
0.0000000000
11
84.3846765765
21
-24.8343153949
31
0.0000000000
11
84.2864769259
21
-24.8478174688
31
0.0000000000
0
SPLINE
5
356
100
AcDbEntity
8
0
100
AcDbSpline
62
9
6
CONTINUOUS
70
0
71
3
72
15
73
11
74
9
42
0.0000001000
43
0.0000001000
44
0.0000000001
12
0.0591464553
22
-0.0802736149
32
0.0000000000
13
-0.0086232295
23
-0.0993367824
33
0.0000000000
40
0.0000000000
40
0.0000000000
40
0.0000000000
40
0.0000000000
40
0.0290956541
40
0.0922041580
40
0.1876230499
40
0.3120713437
40
0.4611571336
40
0.6295848592
40
0.8113582875
40
1.0000000000
40
1.0000000000
40
1.0000000000
40
1.0000000000
10
84.2864769259
20
26.6029729231
30
0.0000000000
10
84.2870505608
20
26.6021943853
30
0.0000000000
10
84.2870982203
20
26.5988826150
30
0.0000000000
10
84.2875310291
20
26.5928498411
30
0.0000000000
10
84.2872912289
20
26.5833430534
30
0.0000000000
10
84.2869039403
20
26.5711277235
30
0.0000000000
10
84.2861306497
20
26.5564430936
30
0.0000000000
10
84.2850845800
20
26.5398860515
30
0.0000000000
10
84.2837701887
20
26.5220231481
30
0.0000000000
10
84.2827586729
20
26.5097535429
30
0.0000000000
10
84.2822164393
20
26.5035071894
30
0.0000000000
11
84.2864769259
21
26.6029729231
31
0.0000000000
11
84.2870970731
21
26.6001388411
31
0.0000000000
11
84.2873772520
21
26.5938525100
31
0.0000000000
11
84.2873074529
21
26.5843385137
31
0.0000000000
11
84.2868901696
21
26.5719367474
31
0.0000000000
11
84.2861403097
21
26.5570902739
31
0.0000000000
11
84.2850846626
21
26.5403294955
31
0.0000000000
11
84.2837609422
21
26.5222532040
31
0.0000000000
11
84.2822164393
21
26.5035071894
31
0.0000000000
0
SPLINE
5
357
100
AcDbEntity
8
0
100
AcDbSpline
62
9
6
CONTINUOUS
70
0
71
3
72
22
73
18
74
16
42
0.0000001000
43
0.0000001000
44
0.0000000001
12
1.3268358755
22
-0.1154282879
32
0.0000000000
13
0.0000231146
23
-1.3318472621
33
0.0000000000
40
0.0000000000
40
0.0000000000
40
0.0000000000
40
0.0000000000
40
0.0669862815
40
0.1339374141
40
0.2008155334
40
0.2676179613
40
0.3343496356
40
0.4010163489
40
0.4676267708
40
0.5341914502
40
0.6007238078
40
0.6672368939
40
0.7337460171
40
0.8002669654
40
0.8668155198
40
0.9334004852
40
1.0000000000
40
1.0000000000
40
1.0000000000
40
1.0000000000
10
84.2822164394
20
26.5035071894
30
0.0000000000
10
84.3118430399
20
26.5009298188
30
0.0000000000
10
84.3708682120
20
26.4928504038
30
0.0000000000
10
84.4577077629
20
26.4720752286
30
0.0000000000
10
84.5420059330
20
26.4428599578
30
0.0000000000
10
84.6229175786
20
26.4055071051
30
0.0000000000
10
84.6996645777
20
26.3603938219
30
0.0000000000
10
84.7715098419
20
26.3079689431
30
0.0000000000
10
84.8377667233
20
26.2487493986
30
0.0000000000
10
84.8978042108
20
26.1833137585
30
0.0000000000
10
84.9510514774
20
26.1122970417
30
0.0000000000
10
84.9970026549
20
26.0363843073
30
0.0000000000
10
85.0352202995
20
25.9563044360
30
0.0000000000
10
85.0653391993
20
25.8728244230
30
0.0000000000
10
85.0870672308
20
25.7867411525
30
0.0000000000
10
85.1001895820
20
25.6989068129
30
0.0000000000
10
85.1031124156
20
25.6397379457
30
0.0000000000
10
85.1031129288
20
25.6101711519
30
0.0000000000
11
84.2822164394
21
26.5035071894
31
0.0000000000
11
84.3706070511
21
26.4914032880
31
0.0000000000
11
84.4573283461
21
26.4706554944
31
0.0000000000
11
84.5414877633
21
26.4414850651
31
0.0000000000
11
84.6222651992
21
26.4041919158
31
0.0000000000
11
84.6988836508
21
26.3591516345
31
0.0000000000
11
84.7706075435
21
26.3068130641
31
0.0000000000
11
84.8367517559
21
26.2476921873
31
0.0000000000
11
84.8966863536
21
26.1823670526
31
0.0000000000
11
84.9498426390
21
26.1114705949
31
0.0000000000
11
84.9957150699
21
26.0356875465
31
0.0000000000
11
85.0338675788
21
25.9557450587
31
0.0000000000
11
85.0639355806
21
25.8724076667
31
0.0000000000
11
85.0856285837
21
25.7864708559
31
0.0000000000
11
85.0987321159
21
25.6987632855
31
0.0000000000
11
85.1031129288
21
25.6101711519
31
0.0000000000
0
SPLINE
5
358
100
AcDbEntity
8
0
100
AcDbSpline
62
9
6
CONTINUOUS
70
0
71
3
72
22
73
18
74
16
42
0.0000001000
43
0.0000001000
44
0.0000000001
12
1.4738801559
22
-0.1289615351
32
0.0000000000
13
0.0003824502
23
-1.4795112860
33
0.0000000000
40
0.0000000000
40
0.0000000000
40
0.0000000000
40
0.0000000000
40
0.0669974889
40
0.1339224165
40
0.2007807630
40
0.2675686347
40
0.3342909140
40
0.4009528156
40
0.4675623078
40
0.5341290725
40
0.6006659007
40
0.6671849366
40
0.7337003538
40
0.8002267419
40
0.8667790062
40
0.9333638843
40
1.0000000000
40
1.0000000000
40
1.0000000000
40
1.0000000000
10
84.2864769259
20
26.6029729231
30
0.0000000000
10
84.3193923490
20
26.6000928901
30
0.0000000000
10
84.3849496380
20
26.5910821323
30
0.0000000000
10
84.4813866711
20
26.5679498789
30
0.0000000000
10
84.5749835373
20
26.5354496320
30
0.0000000000
10
84.6648225157
20
26.4939130532
30
0.0000000000
10
84.7500394297
20
26.4437597487
30
0.0000000000
10
84.8298161570
20
26.3854886995
30
0.0000000000
10
84.9033904742
20
26.3196745074
30
0.0000000000
10
84.9700620648
20
26.2469600163
30
0.0000000000
10
85.0291974035
20
26.1680505664
30
0.0000000000
10
85.0802349470
20
26.0837069432
30
0.0000000000
10
85.1226888975
20
25.9947386981
30
0.0000000000
10
85.1561535784
20
25.9019976591
30
0.0000000000
10
85.1803042793
20
25.8063692986
30
0.0000000000
10
85.1949051341
20
25.7087803482
30
0.0000000000
10
85.1981697332
20
25.6430341136
30
0.0000000000
10
85.1981782282
20
25.6101711519
30
0.0000000000
11
84.2864769259
21
26.6029729231
31
0.0000000000
11
84.3846765748
21
26.5894708495
31
0.0000000000
11
84.4809613787
21
26.5663744816
31
0.0000000000
11
84.5744049193
21
26.5339243282
31
0.0000000000
11
84.6640951664
21
26.4924544572
31
0.0000000000
11
84.7491699132
21
26.4423824204
31
0.0000000000
11
84.8288125085
21
26.3842072554
31
0.0000000000
11
84.9022623983
21
26.3185024807
31
0.0000000000
11
84.9688202814
21
26.2459104970
31
0.0000000000
11
85.0278551321
21
26.1671341546
31
0.0000000000
11
85.0788057065
21
26.0829339016
31
0.0000000000
11
85.1211876567
21
25.9941174609
31
0.0000000000
11
85.1545959278
21
25.9015341348
31
0.0000000000
11
85.1787078008
21
25.8060671762
31
0.0000000000
11
85.1932845983
21
25.7086385137
31
0.0000000000
11
85.1981782282
21
25.6101711519
31
0.0000000000
0
SPLINE
5
359
100
AcDbEntity
8
0
100
AcDbSpline
62
0
6
CONTINUOUS
70
0
71
3
72
11
73
7
74
5
42
0.0000001000
43
0.0000001000
44
0.0000000001
12
81.0048010262
22
-0.0000427688
32
0.0000000000
13
81.0048010262
23
0.0000427688
33
0.0000000000
40
0.0000000000
40
0.0000000000
40
0.0000000000
40
0.0000000000
40
0.2497711035
40
0.5000000000
40
0.7502288965
40
1.0000000000
40
1.0000000000
40
1.0000000000
40
1.0000000000
10
20.3015356804
20
43.2775772143
30
0.0000000000
10
27.0457551949
20
43.2775736535
30
0.0000000000
10
40.5465553659
20
43.2775336324
30
0.0000000000
10
60.8039361934
20
43.2774999087
30
0.0000000000
10
81.0613170209
20
43.2775336324
30
0.0000000000
10
94.5621171918
20
43.2775736535
30
0.0000000000
10
101.3063367064
20
43.2775772143
30
0.0000000000
11
20.3015356804
21
43.2775772143
31
0.0000000000
11
40.5341942241
21
43.2775380474
31
0.0000000000
11
60.8039361934
21
43.2775111568
31
0.0000000000
11
81.0736781627
21
43.2775380474
31
0.0000000000
11
101.3063367064
21
43.2775772143
31
0.0000000000
0
SPLINE
5
35A
100
AcDbEntity
8
0
100
AcDbSpline
62
0
6
CONTINUOUS
70
0
71
3
72
11
73
7
74
5
42
0.0000001000
43
0.0000001000
44
0.0000000001
12
81.0048010262
22
0.0000427688
32
0.0000000000
13
81.0048010262
23
-0.0000427688
33
0.0000000000
40
0.0000000000
40
0.0000000000
40
0.0000000000
40
0.0000000000
40
0.2497711035
40
0.5000000000
40
0.7502288965
40
1.0000000000
40
1.0000000000
40
1.0000000000
40
1.0000000000
10
20.3015356804
20
-41.5224217600
30
0.0000000000
10
27.0457551949
20
-41.5224181992
30
0.0000000000
10
40.5465553659
20
-41.5223781781
30
0.0000000000
10
60.8039361934
20
-41.5223444544
30
0.0000000000
10
81.0613170209
20
-41.5223781781
30
0.0000000000
10
94.5621171918
20
-41.5224181992
30
0.0000000000
10
101.3063367064
20
-41.5224217600
30
0.0000000000
11
20.3015356804
21
-41.5224217600
31
0.0000000000
11
40.5341942241
21
-41.5223825931
31
0.0000000000
11
60.8039361934
21
-41.5223557025
31
0.0000000000
11
81.0736781627
21
-41.5223825931
31
0.0000000000
11
101.3063367064
21
-41.5224217600
31
0.0000000000
0
SPLINE
5
35B
100
AcDbEntity
8
0
100
AcDbSpline
62
0
6
CONTINUOUS
70
0
71
3
72
11
73
7
74
5
42
0.0000001000
43
0.0000001000
44
0.0000000001
12
-47.0682729408
22
-4.1092261702
32
0.0000000000
13
-47.0682729436
23
4.1092261387
33
0.0000000000
40
0.0000000000
40
0.0000000000
40
0.0000000000
40
0.0000000000
40
0.2392549507
40
0.5000004109
40
0.7607456434
40
1.0000000000
40
1.0000000000
40
1.0000000000
40
1.0000000000
10
84.3996175096
20
-25.0443849966
30
0.0000000000
10
80.6458450697
20
-25.3721025648
30
0.0000000000
10
72.7859309703
20
-25.8935808590
30
0.0000000000
10
60.8039203555
20
-26.1656867352
30
0.0000000000
10
48.8219191372
20
-25.8935795953
30
0.0000000000
10
40.9620179973
20
-25.3721017483
30
0.0000000000
10
37.2082548779
20
-25.0443849963
30
0.0000000000
11
84.3996175096
21
-25.0443849966
31
0.0000000000
11
73.1202619497
21
-25.7927132473
31
0.0000000000
11
60.8039167759
21
-26.0724222729
31
0.0000000000
11
48.4875823920
21
-25.7927119728
31
0.0000000000
11
37.2082548779
21
-25.0443849963
31
0.0000000000
0
SPLINE
5
35C
100
AcDbEntity
8
0
100
AcDbSpline
62
0
6
CONTINUOUS
70
0
71
3
72
11
73
7
74
5
42
0.0000001000
43
0.0000001000
44
0.0000000001
12
47.0682729408
22
4.1092261702
32
0.0000000000
13
47.0682729436
23
-4.1092261387
33
0.0000000000
40
0.0000000000
40
0.0000000000
40
0.0000000000
40
0.0000000000
40
0.2392549507
40
0.5000004109
40
0.7607456434
40
1.0000000000
40
1.0000000000
40
1.0000000000
40
1.0000000000
10
37.2082548772
20
26.7995404509
30
0.0000000000
10
40.9620273171
20
27.1272580191
30
0.0000000000
10
48.8219414165
20
27.6487363133
30
0.0000000000
10
60.8039520313
20
27.9208421895
30
0.0000000000
10
72.7859532496
20
27.6487350495
30
0.0000000000
10
80.6458543895
20
27.1272572026
30
0.0000000000
10
84.3996175088
20
26.7995404506
30
0.0000000000
11
37.2082548772
21
26.7995404509
31
0.0000000000
11
48.4876104371
21
27.5478687016
31
0.0000000000
11
60.8039556109
21
27.8275777271
31
0.0000000000
11
73.1202899948
21
27.5478674271
31
0.0000000000
11
84.3996175088
21
26.7995404506
31
0.0000000000
0
SPLINE
5
35D
100
AcDbEntity
8
0
100
AcDbSpline
62
0
6
CONTINUOUS
70
0
71
3
72
12
73
8
74
6
42
0.0000001000
43
0.0000001000
44
0.0000000001
12
0.0000000000
22
1.6263819003
32
0.0000000000
13
-1.6202190424
23
0.1414508408
33
0.0000000000
40
0.0000000000
40
0.0000000000
40
0.0000000000
40
0.0000000000
40
0.1991521472
40
0.4000403071
40
0.5996603752
40
0.8009446142
40
1.0000000000
40
1.0000000000
40
1.0000000000
40
1.0000000000
10
85.4039361934
20
25.7033276992
30
0.0000000000
10
85.4039361934
20
25.8112935151
30
0.0000000000
10
85.3715564860
20
26.0295117762
30
0.0000000000
10
85.2297418416
20
26.3271926870
30
0.0000000000
10
85.0061387005
20
26.5714187240
30
0.0000000000
10
84.7218552123
20
26.7388585201
30
0.0000000000
10
84.5071219513
20
26.7901549360
30
0.0000000000
10
84.3996175091
20
26.7995404532
30
0.0000000000
11
85.4039361934
21
25.7033276992
31
0.0000000000
11
85.3562751100
21
26.0236993236
31
0.0000000000
11
85.2158319830
21
26.3186946679
31
0.0000000000
11
84.9965912699
21
26.5581453499
31
0.0000000000
11
84.7144698885
21
26.7242037660
31
0.0000000000
11
84.3996175091
21
26.7995404532
31
0.0000000000
0
SPLINE
5
35E
100
AcDbEntity
8
0
100
AcDbSpline
62
0
6
CONTINUOUS
70
0
71
3
72
12
73
8
74
6
42
0.0000001000
43
0.0000001000
44
0.0000000001
12
1.6202190433
22
0.1414508419
32
0.0000000000
13
0.0000000000
23
1.6263819014
33
0.0000000000
40
0.0000000000
40
0.0000000000
40
0.0000000000
40
0.0000000000
40
0.1991920967
40
0.4000815392
40
0.5997034864
40
0.8009865788
40
1.0000000000
40
1.0000000000
40
1.0000000000
40
1.0000000000
10
84.3996175098
20
-25.0443849992
30
0.0000000000
10
84.5071957859
20
-25.0349930359
30
0.0000000000
10
84.7217924300
20
-24.9837051237
30
0.0000000000
10
85.0059496038
20
-24.8163736142
30
0.0000000000
10
85.2296494118
20
-24.5722344591
30
0.0000000000
10
85.3715603787
20
-24.2744168983
30
0.0000000000
10
85.4039361934
20
-24.0560628541
30
0.0000000000
10
85.4039361934
20
-23.9481722453
30
0.0000000000
11
84.3996175098
21
-25.0443849992
31
0.0000000000
11
84.7146784211
21
-24.9689643628
31
0.0000000000
11
84.9962614946
21
-24.8032572084
31
0.0000000000
11
85.2155962974
21
-24.5638885634
31
0.0000000000
11
85.3563414848
21
-24.2683256381
31
0.0000000000
11
85.4039361934
21
-23.9481722453
31
0.0000000000
0
SPLINE
5
35F
100
AcDbEntity
8
0
100
AcDbSpline
62
0
6
CONTINUOUS
70
0
71
3
72
12
73
8
74
6
42
0.0000001000
43
0.0000001000
44
0.0000000001
12
0.0000000000
22
-1.6263819003
32
0.0000000000
13
1.6202190424
23
-0.1414508408
33
0.0000000000
40
0.0000000000
40
0.0000000000
40
0.0000000000
40
0.0000000000
40
0.1991521472
40
0.4000403071
40
0.5996603752
40
0.8009446142
40
1.0000000000
40
1.0000000000
40
1.0000000000
40
1.0000000000
10
36.2039361934
20
-23.9481722449
30
0.0000000000
10
36.2039361934
20
-24.0561380608
30
0.0000000000
10
36.2363159008
20
-24.2743563219
30
0.0000000000
10
36.3781305452
20
-24.5720372327
30
0.0000000000
10
36.6017336862
20
-24.8162632697
30
0.0000000000
10
36.8860171745
20
-24.9837030658
30
0.0000000000
10
37.1007504355
20
-25.0349994817
30
0.0000000000
10
37.2082548777
20
-25.0443849989
30
0.0000000000
11
36.2039361934
21
-23.9481722449
31
0.0000000000
11
36.2515972768
21
-24.2685438693
31
0.0000000000
11
36.3920404038
21
-24.5635392136
31
0.0000000000
11
36.6112811169
21
-24.8029898956
31
0.0000000000
11
36.8934024983
21
-24.9690483117
31
0.0000000000
11
37.2082548777
21
-25.0443849989
31
0.0000000000
0
SPLINE
5
360
100
AcDbEntity
8
0
100
AcDbSpline
62
0
6
CONTINUOUS
70
0
71
3
72
12
73
8
74
6
42
0.0000001000
43
0.0000001000
44
0.0000000001
12
-1.6202190433
22
-0.1414508419
32
0.0000000000
13
0.0000000000
23
-1.6263819014
33
0.0000000000
40
0.0000000000
40
0.0000000000
40
0.0000000000
40
0.0000000000
40
0.1991920967
40
0.4000815392
40
0.5997034864
40
0.8009865788
40
1.0000000000
40
1.0000000000
40
1.0000000000
40
1.0000000000
10
37.2082548770
20
26.7995404535
30
0.0000000000
10
37.1006766008
20
26.7901484902
30
0.0000000000
10
36.8860799568
20
26.7388605780
30
0.0000000000
10
36.6019227830
20
26.5715290685
30
0.0000000000
10
36.3782229749
20
26.3273899134
30
0.0000000000
10
36.2363120081
20
26.0295723526
30
0.0000000000
10
36.2039361934
20
25.8112183084
30
0.0000000000
10
36.2039361934
20
25.7033276996
30
0.0000000000
11
37.2082548770
21
26.7995404535
31
0.0000000000
11
36.8931939656
21
26.7241198171
31
0.0000000000
11
36.6116108922
21
26.5584126627
31
0.0000000000
11
36.3922760894
21
26.3190440177
31
0.0000000000
11
36.2515309020
21
26.0234810923
31
0.0000000000
11
36.2039361934
21
25.7033276996
31
0.0000000000
0
SPLINE
5
361
100
AcDbEntity
8
0
100
AcDbSpline
62
0
6
CONTINUOUS
70
0
71
3
72
13
73
9
74
7
42
0.0000001000
43
0.0000001000
44
0.0000000001
12
0.0000000000
22
2.9662204466
32
0.0000000000
13
2.9662204466
23
-0.0000015657
33
0.0000000000
40
0.0000000000
40
0.0000000000
40
0.0000000000
40
0.0000000000
40
0.1640546557
40
0.3325443033
40
0.4985986704
40
0.6647622633
40
0.8340675887
40
1.0000000000
40
1.0000000000
40
1.0000000000
40
1.0000000000
10
18.4039361934
20
41.3888904490
30
0.0000000000
10
18.4039361934
20
41.5510978737
30
0.0000000000
10
18.4466485032
20
41.8814569927
30
0.0000000000
10
18.6369348615
20
42.3423645340
30
0.0000000000
10
18.9422850424
20
42.7393193149
30
0.0000000000
10
19.3407049842
20
43.0440364144
30
0.0000000000
10
19.8044377183
20
43.2346426181
30
0.0000000000
10
20.1374716433
20
43.2775773009
30
0.0000000000
10
20.3015356804
20
43.2775772143
30
0.0000000000
11
18.4039361934
21
41.3888904490
31
0.0000000000
11
18.4665713078
21
41.8714648786
31
0.0000000000
11
18.6572284546
21
42.3334468475
31
0.0000000000
11
18.9575387438
21
42.7238607744
31
0.0000000000
11
19.3489459579
21
43.0234087081
31
0.0000000000
11
19.8134187976
21
43.2143713366
31
0.0000000000
11
20.3015356804
21
43.2775772143
31
0.0000000000
0
SPLINE
5
362
100
AcDbEntity
8
0
100
AcDbSpline
62
0
6
CONTINUOUS
70
0
71
3
72
13
73
9
74
7
42
0.0000001000
43
0.0000001000
44
0.0000000001
12
-2.9662204466
22
-0.0000015657
32
0.0000000000
13
0.0000000000
23
2.9662204466
33
0.0000000000
40
0.0000000000
40
0.0000000000
40
0.0000000000
40
0.0000000000
40
0.1659324113
40
0.3352377367
40
0.5014013296
40
0.6674556967
40
0.8359453443
40
1.0000000000
40
1.0000000000
40
1.0000000000
40
1.0000000000
10
20.3015356804
20
-41.5224217600
30
0.0000000000
10
20.1374716433
20
-41.5224218466
30
0.0000000000
10
19.8044377183
20
-41.4794871638
30
0.0000000000
10
19.3407049842
20
-41.2888809601
30
0.0000000000
10
18.9422850424
20
-40.9841638606
30
0.0000000000
10
18.6369348615
20
-40.5872090798
30
0.0000000000
10
18.4466485032
20
-40.1263015384
30
0.0000000000
10
18.4039361934
20
-39.7959424194
30
0.0000000000
10
18.4039361934
20
-39.6337349947
30
0.0000000000
11
20.3015356804
21
-41.5224217600
31
0.0000000000
11
19.8134187976
21
-41.4592158823
31
0.0000000000
11
19.3489459579
21
-41.2682532539
31
0.0000000000
11
18.9575387438
21
-40.9687053202
31
0.0000000000
11
18.6572284546
21
-40.5782913933
31
0.0000000000
11
18.4665713078
21
-40.1163094243
31
0.0000000000
11
18.4039361934
21
-39.6337349947
31
0.0000000000
0
SPLINE
5
363
100
AcDbEntity
8
0
100
AcDbSpline
62
0
6
CONTINUOUS
70
0
71
3
72
13
73
9
74
7
42
0.0000001000
43
0.0000001000
44
0.0000000001
12
0.0000000000
22
-2.9662204466
32
0.0000000000
13
-2.9662204466
23
0.0000015657
33
0.0000000000
40
0.0000000000
40
0.0000000000
40
0.0000000000
40
0.0000000000
40
0.1640546557
40
0.3325443033
40
0.4985986704
40
0.6647622633
40
0.8340675887
40
1.0000000000
40
1.0000000000
40
1.0000000000
40
1.0000000000
10
103.2039361934
20
-39.6337349947
30
0.0000000000
10
103.2039361934
20
-39.7959424194
30
0.0000000000
10
103.1612238836
20
-40.1263015384
30
0.0000000000
10
102.9709375253
20
-40.5872090798
30
0.0000000000
10
102.6655873444
20
-40.9841638606
30
0.0000000000
10
102.2671674026
20
-41.2888809601
30
0.0000000000
10
101.8034346685
20
-41.4794871638
30
0.0000000000
10
101.4704007435
20
-41.5224218466
30
0.0000000000
10
101.3063367064
20
-41.5224217600
30
0.0000000000
11
103.2039361934
21
-39.6337349947
31
0.0000000000
11
103.1413010789
21
-40.1163094243
31
0.0000000000
11
102.9506439322
21
-40.5782913933
31
0.0000000000
11
102.6503336430
21
-40.9687053202
31
0.0000000000
11
102.2589264289
21
-41.2682532539
31
0.0000000000
11
101.7944535892
21
-41.4592158823
31
0.0000000000
11
101.3063367064
21
-41.5224217600
31
0.0000000000
0
SPLINE
5
364
100
AcDbEntity
8
0
100
AcDbSpline
62
0
6
CONTINUOUS
70
0
71
3
72
13
73
9
74
7
42
0.0000001000
43
0.0000001000
44
0.0000000001
12
2.9662204466
22
0.0000015657
32
0.0000000000
13
0.0000000000
23
-2.9662204466
33
0.0000000000
40
0.0000000000
40
0.0000000000
40
0.0000000000
40
0.0000000000
40
0.1659324113
40
0.3352377367
40
0.5014013296
40
0.6674556967
40
0.8359453443
40
1.0000000000
40
1.0000000000
40
1.0000000000
40
1.0000000000
10
101.3063367064
20
43.2775772143
30
0.0000000000
10
101.4704007435
20
43.2775773009
30
0.0000000000
10
101.8034346685
20
43.2346426181
30
0.0000000000
10
102.2671674026
20
43.0440364144
30
0.0000000000
10
102.6655873444
20
42.7393193149
30
0.0000000000
10
102.9709375253
20
42.3423645340
30
0.0000000000
10
103.1612238836
20
41.8814569927
30
0.0000000000
10
103.2039361934
20
41.5510978737
30
0.0000000000
10
103.2039361934
20
41.3888904490
30
0.0000000000
11
101.3063367064
21
43.2775772143
31
0.0000000000
11
101.7944535892
21
43.2143713366
31
0.0000000000
11
102.2589264289
21
43.0234087081
31
0.0000000000
11
102.6503336430
21
42.7238607744
31
0.0000000000
11
102.9506439322
21
42.3334468475
31
0.0000000000
11
103.1413010789
21
41.8714648786
31
0.0000000000
11
103.2039361934
21
41.3888904490
31
0.0000000000
0
SPLINE
5
365
100
AcDbEntity
8
0
100
AcDbSpline
62
9
6
CONTINUOUS
70
0
71
3
72
10
73
6
74
4
42
0.0000001000
43
0.0000001000
44
0.0000000001
12
0.0087364301
22
-0.1002578555
32
0.0000000000
13
0.1001488304
23
-0.0099083089
33
0.0000000000
40
0.0000000000
40
0.0000000000
40
0.0000000000
40
0.0000000000
40
0.4960598743
40
0.8614050478
40
1.0000000000
40
1.0000000000
40
1.0000000000
40
1.0000000000
10
37.1870357049
20
26.9063683555
30
0.0000000000
10
37.1884803024
20
26.8897903891
30
0.0000000000
10
37.1894913597
20
26.8584141735
30
0.0000000000
10
37.1988612339
20
26.8326282596
30
0.0000000000
10
37.1957354442
20
26.8072055278
30
0.0000000000
10
37.2003621517
20
26.8067477806
30
0.0000000000
11
37.1870357049
21
26.9063683555
31
0.0000000000
11
37.1919861551
21
26.8566920480
31
0.0000000000
11
37.1968611942
21
26.8202491467
31
0.0000000000
11
37.2003621517
21
26.8067477806
31
0.0000000000
0
SPLINE
5
366
100
AcDbEntity
8
0
100
AcDbSpline
62
9
6
CONTINUOUS
70
0
71
3
72
25
73
21
74
19
42
0.0000001000
43
0.0000001000
44
0.0000000001
12
47.0874653448
22
4.1121481506
32
0.0000000000
13
47.0874653481
23
-4.1121481125
33
0.0000000000
40
0.0000000000
40
0.0000000000
40
0.0000000000
40
0.0000000000
40
0.0279152291
40
0.0655799669
40
0.1117415949
40
0.1651922638
40
0.2247232725
40
0.2891246872
40
0.3571843656
40
0.4276881424
40
0.4994204588
40
0.5711655648
40
0.6417085479
40
0.7098352890
40
0.7743328419
40
0.8339902313
40
0.8875986786
40
0.9339506523
40
0.9718394784
40
1.0000000000
40
1.0000000000
40
1.0000000000
40
1.0000000000
10
37.2003621517
20
26.8067477806
30
0.0000000000
10
37.6385146122
20
26.8450116331
30
0.0000000000
10
38.6680661302
20
26.9324003475
30
0.0000000000
10
40.4231438950
20
27.0712788432
30
0.0000000000
10
42.5804924228
20
27.2261465672
30
0.0000000000
10
45.0829485242
20
27.3839751542
30
0.0000000000
10
47.8738230616
20
27.5324322923
30
0.0000000000
10
50.8961180984
20
27.6604888841
30
0.0000000000
10
54.0925008971
20
27.7589936623
30
0.0000000000
10
57.4053301369
20
27.8210876721
30
0.0000000000
10
60.7767437519
20
27.8425049114
30
0.0000000000
10
64.1487793561
20
27.8217611331
30
0.0000000000
10
67.4634963692
20
27.7602823996
30
0.0000000000
10
70.6630852971
20
27.6622776854
30
0.0000000000
10
73.6899611663
20
27.5345510346
30
0.0000000000
10
76.4868421644
20
27.3862048645
30
0.0000000000
10
78.9967802001
20
27.2282286397
30
0.0000000000
10
81.1631366922
20
27.0729284447
30
0.0000000000
10
82.9285853406
20
26.9333398972
30
0.0000000000
10
83.9655077147
20
26.8453478579
30
0.0000000000
10
84.4075102436
20
26.8067477793
30
0.0000000000
11
37.2003621517
21
26.8067477806
31
0.0000000000
11
38.5150947733
21
26.9183427767
31
0.0000000000
11
40.2898343497
21
27.0587770906
31
0.0000000000
11
42.4661409923
21
27.2150056256
31
0.0000000000
11
44.9875669027
21
27.3740303739
31
0.0000000000
11
47.7974276169
21
27.5234965260
31
0.0000000000
11
50.8387399032
21
27.6523608449
31
0.0000000000
11
54.0541684701
21
27.7514538648
31
0.0000000000
11
57.3860628105
21
27.8139038676
31
0.0000000000
11
60.7765429578
21
27.8354381384
31
0.0000000000
11
64.1676318750
21
27.8145811684
31
0.0000000000
11
67.5013912415
21
27.7527506909
31
0.0000000000
11
70.7200066223
21
27.6541618984
31
0.0000000000
11
73.7658812289
21
27.5256315952
31
0.0000000000
11
76.5817300570
21
27.3762802623
31
0.0000000000
11
79.1106193459
21
27.2171115214
31
0.0000000000
11
81.2959153233
21
27.0604537203
31
0.0000000000
11
83.0812225934
21
26.9192950271
31
0.0000000000
11
84.4075102436
21
26.8067477793
31
0.0000000000
0
SPLINE
5
367
100
AcDbEntity
8
0
100
AcDbSpline
62
9
6
CONTINUOUS
70
0
71
3
72
25
73
21
74
19
42
0.0000001000
43
0.0000001000
44
0.0000000001
12
47.1140981137
22
4.1136537090
32
0.0000000000
13
47.1140981178
23
-4.1136536624
33
0.0000000000
40
0.0000000000
40
0.0000000000
40
0.0000000000
40
0.0000000000
40
0.0279151435
40
0.0655798401
40
0.1117414357
40
0.1651920897
40
0.2247231072
40
0.2891245533
40
0.3571842771
40
0.4276881153
40
0.4994205091
40
0.5711656889
40
0.6417087235
40
0.7098354971
40
0.7743330676
40
0.8339904523
40
0.8875988727
40
0.9339508039
40
0.9718395809
40
1.0000000000
40
1.0000000000
40
1.0000000000
40
1.0000000000
10
37.1870357049
20
26.9063683555
30
0.0000000000
10
37.6254346411
20
26.9446461000
30
0.0000000000
10
38.6555663962
20
27.0320666402
30
0.0000000000
10
40.4116338578
20
27.1709957687
30
0.0000000000
10
42.5702001336
20
27.3259200477
30
0.0000000000
10
45.0740692065
20
27.4838063030
30
0.0000000000
10
47.8665200013
20
27.6323177116
30
0.0000000000
10
50.8905222919
20
27.7604211305
30
0.0000000000
10
54.0887108976
20
27.8589619314
30
0.0000000000
10
57.4034119818
20
27.9210786417
30
0.0000000000
10
60.7767307292
20
27.9425036903
30
0.0000000000
10
64.1506716591
20
27.9217522915
30
0.0000000000
10
67.4672611589
20
27.8602510371
30
0.0000000000
10
70.6686571191
20
27.7622104560
30
0.0000000000
10
73.6972421861
20
27.6344370901
30
0.0000000000
10
76.4957022041
20
27.4860366973
30
0.0000000000
10
79.0070568687
20
27.3280027681
30
0.0000000000
10
81.1746357198
20
27.1726458828
30
0.0000000000
10
82.9410793756
20
27.0330064798
30
0.0000000000
10
83.9785857643
20
26.9449824257
30
0.0000000000
10
84.4208366811
20
26.9063683552
30
0.0000000000
11
37.1870357049
21
26.9063683555
31
0.0000000000
11
38.5025077987
21
27.0180038663
31
0.0000000000
11
40.2782487508
21
27.1584894284
31
0.0000000000
11
42.4557837287
21
27.3147750093
31
0.0000000000
11
44.9786332435
21
27.4738578608
31
0.0000000000
11
47.7900809701
21
27.6233786575
31
0.0000000000
11
50.8331114075
21
27.7522901079
31
0.0000000000
11
54.0503565246
21
27.8514193673
31
0.0000000000
11
57.3841334987
21
27.9138922036
31
0.0000000000
11
60.7765298802
21
27.9354343304
31
0.0000000000
11
64.1695351967
21
27.9145696944
31
0.0000000000
11
67.5051777768
21
27.8527165653
31
0.0000000000
11
70.7256108902
21
27.7540916913
31
0.0000000000
11
73.7732055612
21
27.6255143708
31
0.0000000000
11
76.5906441375
21
27.4761084431
31
0.0000000000
11
79.1209606683
21
27.3168815646
31
0.0000000000
11
81.3074895791
21
27.1601665837
31
0.0000000000
11
83.0938038215
21
27.0189564005
31
0.0000000000
11
84.4208366811
21
26.9063683552
31
0.0000000000
0
SPLINE
5
368
100
AcDbEntity
8
0
100
AcDbSpline
62
9
6
CONTINUOUS
70
0
71
3
72
13
73
9
74
7
42
0.0000001000
43
0.0000001000
44
0.0000000001
12
-0.0003629845
22
1.6281101813
32
0.0000000000
13
1.6219428530
23
0.1415778075
33
0.0000000000
40
0.0000000000
40
0.0000000000
40
0.0000000000
40
0.0000000000
40
0.1782571589
40
0.3419886185
40
0.4962663214
40
0.6520055154
40
0.8202886421
40
1.0000000000
40
1.0000000000
40
1.0000000000
40
1.0000000000
10
36.1961317095
20
25.7105023538
30
0.0000000000
10
36.1961101413
20
25.8072431189
30
0.0000000000
10
36.2208856304
20
25.9938136505
30
0.0000000000
10
36.3232781531
20
26.2456182550
30
0.0000000000
10
36.4742802782
20
26.4564992081
30
0.0000000000
10
36.6713152982
20
26.6290317483
30
0.0000000000
10
36.9162772242
20
26.7563977736
30
0.0000000000
10
37.1032056253
20
26.7982207412
30
0.0000000000
10
37.2003661428
20
26.8067017879
30
0.0000000000
11
36.1961317095
21
25.7105023538
31
0.0000000000
11
36.2343773456
21
25.9981936052
31
0.0000000000
11
36.3347050876
21
26.2451661452
31
0.0000000000
11
36.4809706211
21
26.4493678623
31
0.0000000000
11
36.6717128600
21
26.6164318107
31
0.0000000000
11
36.9148591964
21
26.7427124729
31
0.0000000000
11
37.2003661428
21
26.8067017879
31
0.0000000000
0
SPLINE
5
369
100
AcDbEntity
8
0
100
AcDbSpline
62
9
6
CONTINUOUS
70
0
71
3
72
8
73
4
74
2
42
0.0000001000
43
0.0000001000
44
0.0000000001
12
-0.0000471121
22
0.1095604185
32
0.0000000000
13
0.0100571896
23
0.1094065646
33
0.0000000000
40
0.0000000000
40
0.0000000000
40
0.0000000000
40
0.0000000000
40
1.0000000000
40
1.0000000000
40
1.0000000000
40
1.0000000000
10
36.0912308613
20
25.7105023448
30
0.0000000000
10
36.0912151572
20
25.7470224843
30
0.0000000000
10
36.0928963253
20
25.7836084876
30
0.0000000000
10
36.0962487219
20
25.8200773425
30
0.0000000000
11
36.0912308613
21
25.7105023448
31
0.0000000000
11
36.0962487219
21
25.8200773425
31
0.0000000000
0
SPLINE
5
36A
100
AcDbEntity
8
0
100
AcDbSpline
62
9
6
CONTINUOUS
70
0
71
3
72
13
73
9
74
7
42
0.0000001000
43
0.0000001000
44
0.0000000001
12
0.1530001904
22
1.6644038641
32
0.0000000000
13
1.6604480187
23
0.1447409434
33
0.0000000000
40
0.0000000000
40
0.0000000000
40
0.0000000000
40
0.0000000000
40
0.1241258346
40
0.2987719701
40
0.4634292136
40
0.6297084291
40
0.8093338106
40
1.0000000000
40
1.0000000000
40
1.0000000000
40
1.0000000000
10
36.0962487219
20
25.8200773425
30
0.0000000000
10
36.1025791473
20
25.8889425154
30
0.0000000000
10
36.1321604786
20
26.0536961188
30
0.0000000000
10
36.2300464956
20
26.2944194949
30
0.0000000000
10
36.3951227594
20
26.5247491920
30
0.0000000000
10
36.6105908694
20
26.7131325744
30
0.0000000000
10
36.8778956482
20
26.8516802992
30
0.0000000000
10
37.0815052727
20
26.8971692875
30
0.0000000000
10
37.1870357049
20
26.9063683555
30
0.0000000000
11
36.0962487219
21
25.8200773425
31
0.0000000000
11
36.1329450485
21
26.0241873933
31
0.0000000000
11
36.2425198521
21
26.2938669133
31
0.0000000000
11
36.4024182152
21
26.5169155396
31
0.0000000000
11
36.6110453757
21
26.6993547086
31
0.0000000000
11
36.8768994656
21
26.8370346139
31
0.0000000000
11
37.1870357049
21
26.9063683555
31
0.0000000000
0
SPLINE
5
36B
100
AcDbEntity
8
0
100
AcDbSpline
62
9
6
CONTINUOUS
70
0
71
3
72
10
73
6
74
4
42
0.0000001000
43
0.0000001000
44
0.0000000001
12
0.0087371789
22
0.1002790630
32
0.0000000000
13
0.1001694540
23
0.0099151023
33
0.0000000000
40
0.0000000000
40
0.0000000000
40
0.0000000000
40
0.0000000000
40
0.4960420450
40
0.8613975055
40
1.0000000000
40
1.0000000000
40
1.0000000000
40
1.0000000000
10
37.1870358747
20
-25.1512129001
30
0.0000000000
10
37.1884805440
20
-25.1346320229
30
0.0000000000
10
37.1894914639
20
-25.1032496353
30
0.0000000000
10
37.1988634229
20
-25.0774580034
30
0.0000000000
10
37.1957360702
20
-25.0520292530
30
0.0000000000
10
37.2003639823
20
-25.0515711670
30
0.0000000000
11
37.1870358747
21
-25.1512129001
31
0.0000000000
11
37.1919866972
21
-25.1015278684
31
0.0000000000
11
37.1968624798
21
-25.0650762104
31
0.0000000000
11
37.2003639823
21
-25.0515711670
31
0.0000000000
0
SPLINE
5
36C
100
AcDbEntity
8
0
100
AcDbSpline
62
9
6
CONTINUOUS
70
0
71
3
72
13
73
9
74
7
42
0.0000001000
43
0.0000001000
44
0.0000000001
12
-1.6219623182
22
0.1413401015
32
0.0000000000
13
0.0001264952
23
1.6281089551
33
0.0000000000
40
0.0000000000
40
0.0000000000
40
0.0000000000
40
0.0000000000
40
0.1783621516
40
0.3419236972
40
0.4959920280
40
0.6516602043
40
0.8200489816
40
1.0000000000
40
1.0000000000
40
1.0000000000
40
1.0000000000
10
37.2003639823
20
-25.0515711670
30
0.0000000000
10
37.1039317527
20
-25.0431679255
30
0.0000000000
10
36.9202605140
20
-25.0022086109
30
0.0000000000
10
36.6785186478
20
-24.8782415036
30
0.0000000000
10
36.4818281220
20
-24.7095560251
30
0.0000000000
10
36.3271858953
20
-24.4983119979
30
0.0000000000
10
36.2215709252
20
-24.2430550053
30
0.0000000000
10
36.1961500942
20
-24.0530068516
30
0.0000000000
10
36.1961576819
20
-23.9553468968
30
0.0000000000
11
37.2003639823
21
-25.0515711670
31
0.0000000000
11
36.9169416343
21
-24.9883265858
31
0.0000000000
11
36.6799404714
21
-24.8669016380
31
0.0000000000
11
36.4895542281
21
-24.7035804853
31
0.0000000000
11
36.3398163074
21
-24.4990987066
31
0.0000000000
11
36.2351108136
21
-24.2457257098
31
0.0000000000
11
36.1961576819
21
-23.9553468968
31
0.0000000000
0
SPLINE
5
36D
100
AcDbEntity
8
0
100
AcDbSpline
62
9
6
CONTINUOUS
70
0
71
3
72
13
73
9
74
7
42
0.0000001000
43
0.0000001000
44
0.0000000001
12
-1.7696381847
22
0.1537401547
32
0.0000000000
13
0.0002520112
23
1.7763038243
33
0.0000000000
40
0.0000000000
40
0.0000000000
40
0.0000000000
40
0.0000000000
40
0.1782845012
40
0.3420170885
40
0.4963209767
40
0.6522682423
40
0.8208974954
40
1.0000000000
40
1.0000000000
40
1.0000000000
40
1.0000000000
10
37.1870357057
20
-25.1512129009
30
0.0000000000
10
37.0818693520
20
-25.1420764054
30
0.0000000000
10
36.8814333271
20
-25.0973447046
30
0.0000000000
10
36.6174821116
20
-24.9620663423
30
0.0000000000
10
36.4025976465
20
-24.7777222350
30
0.0000000000
10
36.2337189254
20
-24.5467942961
30
0.0000000000
10
36.1188592243
20
-24.2683559132
30
0.0000000000
10
36.0912158160
20
-24.0613937115
30
0.0000000000
10
36.0912308613
20
-23.9553468902
30
0.0000000000
11
37.1870357057
21
-25.1512129009
31
0.0000000000
11
36.8779447488
21
-25.0822656898
31
0.0000000000
11
36.6190812073
21
-24.9496878322
31
0.0000000000
11
36.4110711228
21
-24.7712012612
31
0.0000000000
11
36.2475280568
21
-24.5476211761
31
0.0000000000
11
36.1333948617
21
-24.2706809256
31
0.0000000000
11
36.0912308613
21
-23.9553468902
31
0.0000000000
0
SPLINE
5
36E
100
AcDbEntity
8
0
100
AcDbSpline
62
9
6
CONTINUOUS
70
0
71
3
72
10
73
6
74
4
42
0.0000001000
43
0.0000001000
44
0.0000000001
12
-0.0087364301
22
0.1002578555
32
0.0000000000
13
-0.1001488304
23
0.0099083089
33
0.0000000000
40
0.0000000000
40
0.0000000000
40
0.0000000000
40
0.0000000000
40
0.4960598743
40
0.8614050478
40
1.0000000000
40
1.0000000000
40
1.0000000000
40
1.0000000000
10
84.4208366819
20
-25.1512129012
30
0.0000000000
10
84.4193920844
20
-25.1346349348
30
0.0000000000
10
84.4183810271
20
-25.1032587192
30
0.0000000000
10
84.4090111529
20
-25.0774728053
30
0.0000000000
10
84.4121369426
20
-25.0520500735
30
0.0000000000
10
84.4075102351
20
-25.0515923263
30
0.0000000000
11
84.4208366819
21
-25.1512129012
31
0.0000000000
11
84.4158862316
21
-25.1015365937
31
0.0000000000
11
84.4110111926
21
-25.0650936924
31
0.0000000000
11
84.4075102351
21
-25.0515923263
31
0.0000000000
0
SPLINE
5
36F
100
AcDbEntity
8
0
100
AcDbSpline
62
9
6
CONTINUOUS
70
0
71
3
72
25
73
21
74
19
42
0.0000001000
43
0.0000001000
44
0.0000000001
12
-47.0874652770
22
-4.1121481452
32
0.0000000000
13
-47.0874652804
23
4.1121481064
33
0.0000000000
40
0.0000000000
40
0.0000000000
40
0.0000000000
40
0.0000000000
40
0.0279864860
40
0.0657504045
40
0.1120297859
40
0.1656076697
40
0.2252662296
40
0.2897863878
40
0.3579468347
40
0.4285242279
40
0.5002938153
40
0.5720333437
40
0.6425320678
40
0.7105826307
40
0.7749788809
40
0.8345166410
40
0.8879939083
40
0.9342099100
40
0.9719647174
40
1.0000000000
40
1.0000000000
40
1.0000000000
40
1.0000000000
10
84.4075102351
20
-25.0515923263
30
0.0000000000
10
83.9682393387
20
-25.0899538519
30
0.0000000000
10
82.9360115247
20
-25.1775632781
30
0.0000000000
10
81.1764042712
20
-25.3167629133
30
0.0000000000
10
79.0136410251
20
-25.4719324920
30
0.0000000000
10
76.5053173640
20
-25.6299767945
30
0.0000000000
10
73.7085535517
20
-25.7785130299
30
0.0000000000
10
70.6807814492
20
-25.9064833335
30
0.0000000000
10
67.4797699030
20
-26.0047333774
30
0.0000000000
10
64.1635976166
20
-26.0664282542
30
0.0000000000
10
60.7905215330
20
-26.0873536071
30
0.0000000000
10
57.4186871144
20
-26.0660995024
30
0.0000000000
10
54.1059644410
20
-26.0041696721
30
0.0000000000
10
50.9098811871
20
-25.9058347089
30
0.0000000000
10
47.8876981005
20
-25.7779385333
30
0.0000000000
10
45.0963724815
20
-25.6296010919
30
0.0000000000
10
42.5925292989
20
-25.4718066600
30
0.0000000000
10
40.4324863391
20
-25.3168352863
30
0.0000000000
10
38.6732501761
20
-25.1776786521
30
0.0000000000
10
37.6403989420
20
-25.0900207365
30
0.0000000000
10
37.2003621432
20
-25.0515923250
30
0.0000000000
11
84.4075102351
21
-25.0515923263
31
0.0000000000
11
83.0894209086
21
-25.1634640006
31
0.0000000000
11
81.3100050379
21
-25.3042306507
31
0.0000000000
11
79.1281406155
21
-25.4607705421
31
0.0000000000
11
76.6007038429
21
-25.6200188634
31
0.0000000000
11
73.7848102278
21
-25.7695701512
31
0.0000000000
11
70.7378768282
21
-25.8983523045
31
0.0000000000
11
67.5176752576
21
-25.9971926312
31
0.0000000000
11
64.1822932551
21
-26.0592434830
31
0.0000000000
11
60.7900482983
21
-26.0802837099
31
0.0000000000
11
57.3992262205
21
-26.0589139824
31
0.0000000000
11
54.0675676137
21
-25.9966315438
31
0.0000000000
11
50.8525647435
21
-25.8977131536
31
0.0000000000
11
47.8114897218
21
-25.7690155730
31
0.0000000000
11
45.0013026837
21
-25.6196766816
31
0.0000000000
11
42.4786143551
21
-25.4606948883
31
0.0000000000
11
40.2997377804
21
-25.3043724173
31
0.0000000000
11
38.5207501354
21
-25.1636534426
31
0.0000000000
11
37.2003621432
21
-25.0515923250
31
0.0000000000
0
SPLINE
5
370
100
AcDbEntity
8
0
100
AcDbSpline
62
9
6
CONTINUOUS
70
0
71
3
72
25
73
21
74
19
42
0.0000001000
43
0.0000001000
44
0.0000000001
12
-47.1140980458
22
-4.1136537042
32
0.0000000000
13
-47.1140980500
23
4.1136536562
33
0.0000000000
40
0.0000000000
40
0.0000000000
40
0.0000000000
40
0.0000000000
40
0.0279864000
40
0.0657502771
40
0.1120296261
40
0.1656074951
40
0.2252660640
40
0.2897862540
40
0.3579467465
40
0.4285242015
40
0.5002938666
40
0.5720334684
40
0.6425322436
40
0.7105828387
40
0.7749791063
40
0.8345168613
40
0.8879941015
40
0.9342100608
40
0.9719648192
40
1.0000000000
40
1.0000000000
40
1.0000000000
40
1.0000000000
10
84.4208366819
20
-25.1512129012
30
0.0000000000
10
83.9813186845
20
-25.1895883539
30
0.0000000000
10
82.9485091301
20
-25.2772296859
30
0.0000000000
10
81.1879096308
20
-25.4164800707
30
0.0000000000
10
79.0239255805
20
-25.5717063149
30
0.0000000000
10
76.5141856317
20
-25.7298083650
30
0.0000000000
10
73.7158422303
20
-25.8783989003
30
0.0000000000
10
70.6863597729
20
-26.0064159999
30
0.0000000000
10
67.4835397970
20
-26.1047019736
30
0.0000000000
10
64.1654937692
20
-26.1664194051
30
0.0000000000
10
60.7905116131
20
-26.1873523871
30
0.0000000000
10
57.4167719886
20
-26.1660904753
30
0.0000000000
10
54.1021779666
20
-26.1041379594
30
0.0000000000
10
50.9042896689
20
-26.0057670090
30
0.0000000000
10
47.8804000418
20
-25.8778240571
30
0.0000000000
10
45.0874985457
20
-25.7294323968
30
0.0000000000
10
42.5822421788
20
-25.5715803276
30
0.0000000000
10
40.4209804242
20
-25.4165523840
30
0.0000000000
10
38.6607527509
20
-25.2773450515
30
0.0000000000
10
37.6273197912
20
-25.1896552423
30
0.0000000000
10
37.1870357057
20
-25.1512129009
30
0.0000000000
11
84.4208366819
21
-25.1512129012
31
0.0000000000
11
83.1020060074
21
-25.2631251896
31
0.0000000000
11
81.3215861257
21
-25.4039432092
31
0.0000000000
11
79.1384902317
21
-25.5605402603
31
0.0000000000
11
76.6096264577
21
-25.7198467670
31
0.0000000000
11
73.7921424150
21
-25.8694527312
31
0.0000000000
11
70.7434876823
21
-25.9982819864
31
0.0000000000
11
67.5214668560
21
-26.0971584605
31
0.0000000000
11
64.1842002398
21
-26.1592319998
31
0.0000000000
11
60.7900380435
21
-26.1802799020
31
0.0000000000
11
57.3972997319
21
-26.1589023208
31
0.0000000000
11
54.0637591108
21
-26.0965970657
31
0.0000000000
11
50.8469405567
21
-25.9976424739
31
0.0000000000
11
47.8041481876
21
-25.8688978155
31
0.0000000000
11
44.9923746068
21
-25.7195043347
31
0.0000000000
11
42.4682625413
21
-25.5604644728
31
0.0000000000
11
40.2881566566
21
-25.4040849448
31
0.0000000000
11
38.5081656032
21
-25.2633146406
31
0.0000000000
11
37.1870357057
21
-25.1512129009
31
0.0000000000
0
SPLINE
5
371
100
AcDbEntity
8
0
100
AcDbSpline
62
9
6
CONTINUOUS
70
0
71
3
72
13
73
9
74
7
42
0.0000001000
43
0.0000001000
44
0.0000000001
12
0.0003629845
22
-1.6281101813
32
0.0000000000
13
-1.6219428530
23
-0.1415778075
33
0.0000000000
40
0.0000000000
40
0.0000000000
40
0.0000000000
40
0.0000000000
40
0.1782571589
40
0.3419886185
40
0.4962663214
40
0.6520055154
40
0.8202886421
40
1.0000000000
40
1.0000000000
40
1.0000000000
40
1.0000000000
10
85.4117406773
20
-23.9553468995
30
0.0000000000
10
85.4117622455
20
-24.0520876646
30
0.0000000000
10
85.3869867564
20
-24.2386581962
30
0.0000000000
10
85.2845942337
20
-24.4904628007
30
0.0000000000
10
85.1335921086
20
-24.7013437538
30
0.0000000000
10
84.9365570886
20
-24.8738762940
30
0.0000000000
10
84.6915951626
20
-25.0012423194
30
0.0000000000
10
84.5046667615
20
-25.0430652869
30
0.0000000000
10
84.4075062440
20
-25.0515463336
30
0.0000000000
11
85.4117406773
21
-23.9553468995
31
0.0000000000
11
85.3734950412
21
-24.2430381509
31
0.0000000000
11
85.2731672992
21
-24.4900106909
31
0.0000000000
11
85.1269017657
21
-24.6942124081
31
0.0000000000
11
84.9361595268
21
-24.8612763564
31
0.0000000000
11
84.6930131904
21
-24.9875570186
31
0.0000000000
11
84.4075062440
21
-25.0515463336
31
0.0000000000
0
SPLINE
5
372
100
AcDbEntity
8
0
100
AcDbSpline
62
9
6
CONTINUOUS
70
0
71
3
72
8
73
4
74
2
42
0.0000001000
43
0.0000001000
44
0.0000000001
12
0.0000471121
22
-0.1095604185
32
0.0000000000
13
-0.0100571896
23
-0.1094065646
33
0.0000000000
40
0.0000000000
40
0.0000000000
40
0.0000000000
40
0.0000000000
40
1.0000000000
40
1.0000000000
40
1.0000000000
40
1.0000000000
10
85.5166415255
20
-23.9553468905
30
0.0000000000
10
85.5166572296
20
-23.9918670300
30
0.0000000000
10
85.5149760615
20
-24.0284530333
30
0.0000000000
10
85.5116236649
20
-24.0649218882
30
0.0000000000
11
85.5166415255
21
-23.9553468905
31
0.0000000000
11
85.5116236649
21
-24.0649218882
31
0.0000000000
0
SPLINE
5
373
100
AcDbEntity
8
0
100
AcDbSpline
62
9
6
CONTINUOUS
70
0
71
3
72
13
73
9
74
7
42
0.0000001000
43
0.0000001000
44
0.0000000001
12
-0.1530001904
22
-1.6644038641
32
0.0000000000
13
-1.6604480187
23
-0.1447409434
33
0.0000000000
40
0.0000000000
40
0.0000000000
40
0.0000000000
40
0.0000000000
40
0.1241258346
40
0.2987719701
40
0.4634292136
40
0.6297084291
40
0.8093338106
40
1.0000000000
40
1.0000000000
40
1.0000000000
40
1.0000000000
10
85.5116236649
20
-24.0649218882
30
0.0000000000
10
85.5052932395
20
-24.1337870611
30
0.0000000000
10
85.4757119082
20
-24.2985406645
30
0.0000000000
10
85.3778258912
20
-24.5392640406
30
0.0000000000
10
85.2127496274
20
-24.7695937377
30
0.0000000000
10
84.9972815174
20
-24.9579771202
30
0.0000000000
10
84.7299767386
20
-25.0965248449
30
0.0000000000
10
84.5263671141
20
-25.1420138332
30
0.0000000000
10
84.4208366819
20
-25.1512129012
30
0.0000000000
11
85.5116236649
21
-24.0649218882
31
0.0000000000
11
85.4749273383
21
-24.2690319391
31
0.0000000000
11
85.3653525346
21
-24.5387114591
31
0.0000000000
11
85.2054541716
21
-24.7617600853
31
0.0000000000
11
84.9968270111
21
-24.9441992544
31
0.0000000000
11
84.7309729212
21
-25.0818791596
31
0.0000000000
11
84.4208366819
21
-25.1512129012
31
0.0000000000
0
SPLINE
5
374
100
AcDbEntity
8
0
100
AcDbSpline
62
9
6
CONTINUOUS
70
0
71
3
72
10
73
6
74
4
42
0.0000001000
43
0.0000001000
44
0.0000000001
12
-0.0087371789
22
-0.1002790630
32
0.0000000000
13
-0.1001694540
23
-0.0099151023
33
0.0000000000
40
0.0000000000
40
0.0000000000
40
0.0000000000
40
0.0000000000
40
0.4960420450
40
0.8613975055
40
1.0000000000
40
1.0000000000
40
1.0000000000
40
1.0000000000
10
84.4208365121
20
26.9063683544
30
0.0000000000
10
84.4193918427
20
26.8897874772
30
0.0000000000
10
84.4183809229
20
26.8584050895
30
0.0000000000
10
84.4090089638
20
26.8326134577
30
0.0000000000
10
84.4121363166
20
26.8071847073
30
0.0000000000
10
84.4075084045
20
26.8067266213
30
0.0000000000
11
84.4208365121
21
26.9063683544
31
0.0000000000
11
84.4158856895
21
26.8566833227
31
0.0000000000
11
84.4110099070
21
26.8202316646
31
0.0000000000
11
84.4075084045
21
26.8067266213
31
0.0000000000
0
SPLINE
5
375
100
AcDbEntity
8
0
100
AcDbSpline
62
9
6
CONTINUOUS
70
0
71
3
72
13
73
9
74
7
42
0.0000001000
43
0.0000001000
44
0.0000000001
12
1.6219623182
22
-0.1413401015
32
0.0000000000
13
-0.0001264952
23
-1.6281089551
33
0.0000000000
40
0.0000000000
40
0.0000000000
40
0.0000000000
40
0.0000000000
40
0.1783621516
40
0.3419236972
40
0.4959920280
40
0.6516602043
40
0.8200489816
40
1.0000000000
40
1.0000000000
40
1.0000000000
40
1.0000000000
10
84.4075084045
20
26.8067266213
30
0.0000000000
10
84.5039406341
20
26.7983233798
30
0.0000000000
10
84.6876118728
20
26.7573640652
30
0.0000000000
10
84.9293537390
20
26.6333969579
30
0.0000000000
10
85.1260442648
20
26.4647114794
30
0.0000000000
10
85.2806864915
20
26.2534674522
30
0.0000000000
10
85.3863014616
20
25.9982104596
30
0.0000000000
10
85.4117222926
20
25.8081623059
30
0.0000000000
10
85.4117147049
20
25.7105023511
30
0.0000000000
11
84.4075084045
21
26.8067266213
31
0.0000000000
11
84.6909307524
21
26.7434820401
31
0.0000000000
11
84.9279319154
21
26.6220570923
31
0.0000000000
11
85.1183181587
21
26.4587359396
31
0.0000000000
11
85.2680560794
21
26.2542541609
31
0.0000000000
11
85.3727615732
21
26.0008811641
31
0.0000000000
11
85.4117147049
21
25.7105023511
31
0.0000000000
0
SPLINE
5
376
100
AcDbEntity
8
0
100
AcDbSpline
62
9
6
CONTINUOUS
70
0
71
3
72
13
73
9
74
7
42
0.0000001000
43
0.0000001000
44
0.0000000001
12
1.7696381847
22
-0.1537401547
32
0.0000000000
13
-0.0002520112
23
-1.7763038243
33
0.0000000000
40
0.0000000000
40
0.0000000000
40
0.0000000000
40
0.0000000000
40
0.1782845012
40
0.3420170885
40
0.4963209767
40
0.6522682423
40
0.8208974954
40
1.0000000000
40
1.0000000000
40
1.0000000000
40
1.0000000000
10
84.4208366811
20
26.9063683552
30
0.0000000000
10
84.5260030348
20
26.8972318596
30
0.0000000000
10
84.7264390597
20
26.8525001589
30
0.0000000000
10
84.9903902752
20
26.7172217965
30
0.0000000000
10
85.2052747402
20
26.5328776893
30
0.0000000000
10
85.3741534614
20
26.3019497504
30
0.0000000000
10
85.4890131625
20
26.0235113675
30
0.0000000000
10
85.5166565708
20
25.8165491657
30
0.0000000000
10
85.5166415255
20
25.7105023444
30
0.0000000000
11
84.4208366811
21
26.9063683552
31
0.0000000000
11
84.7299276380
21
26.8374211441
31
0.0000000000
11
84.9887911795
21
26.7048432865
31
0.0000000000
11
85.1968012640
21
26.5263567155
31
0.0000000000
11
85.3603443300
21
26.3027766304
31
0.0000000000
11
85.4744775251
21
26.0258363799
31
0.0000000000
11
85.5166415255
21
25.7105023444
31
0.0000000000
0
SPLINE
5
377
100
AcDbEntity
8
0
100
AcDbSpline
62
9
6
CONTINUOUS
70
0
71
3
72
11
73
7
74
5
42
0.0000001000
43
0.0000001000
44
0.0000000001
12
0.0002474555
22
-0.9044703800
32
0.0000000000
13
-0.7550055444
23
-0.4980294744
33
0.0000000000
40
0.0000000000
40
0.0000000000
40
0.0000000000
40
0.0000000000
40
0.3687111470
40
0.6853071877
40
0.9053515119
40
1.0000000000
40
1.0000000000
40
1.0000000000
40
1.0000000000
10
101.1554048784
20
-40.4060040866
30
0.0000000000
10
101.1554352916
20
-40.5171668570
30
0.0000000000
10
101.1508273115
20
-40.7216833462
30
0.0000000000
10
101.1443341832
20
-41.0019930505
30
0.0000000000
10
101.1135361337
20
-41.1756531807
30
0.0000000000
10
101.1114700401
20
-41.2890126043
30
0.0000000000
10
101.0876499957
20
-41.3047251832
30
0.0000000000
11
101.1554048784
21
-40.4060040866
31
0.0000000000
11
101.1503880236
21
-40.7394546725
31
0.0000000000
11
101.1358690978
21
-41.0254381102
31
0.0000000000
11
101.1139147455
21
-41.2232470892
31
0.0000000000
11
101.0876499957
21
-41.3047251832
31
0.0000000000
0
SPLINE
5
378
100
AcDbEntity
8
0
100
AcDbSpline
62
9
6
CONTINUOUS
70
0
71
3
72
14
73
10
74
8
42
0.0000001000
43
0.0000001000
44
0.0000000001
12
2.9658840562
22
0.0107231304
32
0.0000000000
13
0.0037795888
23
2.9659010326
33
0.0000000000
40
0.0000000000
40
0.0000000000
40
0.0000000000
40
0.0000000000
40
0.1434418761
40
0.2865859907
40
0.4295825957
40
0.5723403749
40
0.7151292597
40
0.8572628467
40
1.0000000000
40
1.0000000000
40
1.0000000000
40
1.0000000000
10
101.0876499957
20
-41.3047251832
30
0.0000000000
10
101.2294606534
20
-41.3042124679
30
0.0000000000
10
101.5137029010
20
-41.2714386003
30
0.0000000000
10
101.9174334323
20
-41.1290769417
30
0.0000000000
10
102.2791995028
20
-40.9010867730
30
0.0000000000
10
102.5810159291
20
-40.5987323835
30
0.0000000000
10
102.8076323997
20
-40.2375201809
30
0.0000000000
10
102.9485656368
20
-39.8353395248
30
0.0000000000
10
102.9805770910
20
-39.5527185337
30
0.0000000000
10
102.9807569202
20
-39.4116037769
30
0.0000000000
11
101.0876499957
21
-41.3047251832
31
0.0000000000
11
101.5102647669
21
-41.2558223726
31
0.0000000000
11
101.9106730160
21
-41.1146936587
31
0.0000000000
11
102.2694406007
21
-40.8885109683
31
0.0000000000
11
102.5685461136
21
-40.5888305489
31
0.0000000000
11
102.7936444069
21
-40.2301087174
31
0.0000000000
11
102.9329656114
21
-39.8322421645
31
0.0000000000
11
102.9807569202
21
-39.4116037769
31
0.0000000000
0
SPLINE
5
379
100
AcDbEntity
8
0
100
AcDbSpline
62
9
6
CONTINUOUS
70
0
71
3
72
14
73
10
74
8
42
0.0000001000
43
0.0000001000
44
0.0000000001
12
1.5636848851
22
0.0006898170
32
0.0000000000
13
-0.0000568669
23
1.5636850362
33
0.0000000000
40
0.0000000000
40
0.0000000000
40
0.0000000000
40
0.0000000000
40
0.1431347254
40
0.2867456828
40
0.4301439034
40
0.5731225530
40
0.7159108599
40
0.8579840648
40
1.0000000000
40
1.0000000000
40
1.0000000000
40
1.0000000000
10
101.1554048872
20
-40.4060040866
30
0.0000000000
10
101.2300107561
20
-40.4059711743
30
0.0000000000
10
101.3799978914
20
-40.3893156493
30
0.0000000000
10
101.5935159218
20
-40.3152380592
30
0.0000000000
10
101.7852592469
20
-40.1955373621
30
0.0000000000
10
101.9450920747
20
-40.0363398212
30
0.0000000000
10
102.0648630334
20
-39.8459523340
30
0.0000000000
10
102.1389294304
20
-39.6342405869
30
0.0000000000
10
102.1555913571
20
-39.4856265067
30
0.0000000000
10
102.1555886651
20
-39.4116037758
30
0.0000000000
11
101.1554048872
21
-40.4060040866
31
0.0000000000
11
101.3778425927
21
-40.3811888096
31
0.0000000000
11
101.5899955240
21
-40.3075724886
31
0.0000000000
11
101.7801687371
21
-40.1887739794
31
0.0000000000
11
101.9385469363
21
-40.0309719215
31
0.0000000000
11
102.0574452493
21
-39.8419869059
31
0.0000000000
11
102.1307786674
21
-39.6322817002
31
0.0000000000
11
102.1555886651
21
-39.4116037758
31
0.0000000000
0
SPLINE
5
37A
100
AcDbEntity
8
0
100
AcDbSpline
62
9
6
CONTINUOUS
70
0
71
3
72
11
73
7
74
5
42
0.0000001000
43
0.0000001000
44
0.0000000001
12
-0.0002484760
22
-0.9045066665
32
0.0000000000
13
0.7550200539
23
-0.4980733778
33
0.0000000000
40
0.0000000000
40
0.0000000000
40
0.0000000000
40
0.0000000000
40
0.3687091294
40
0.6853054460
40
0.9053508806
40
1.0000000000
40
1.0000000000
40
1.0000000000
40
1.0000000000
10
20.4524675149
20
-40.4060040866
30
0.0000000000
10
20.4524369764
20
-40.5171707084
30
0.0000000000
10
20.4570449113
20
-40.7216949993
30
0.0000000000
10
20.4635375758
20
-41.0020153974
30
0.0000000000
10
20.4943365371
20
-41.1756838842
30
0.0000000000
10
20.4964015610
20
-41.2890476384
30
0.0000000000
10
20.5202222221
20
-41.3047617073
30
0.0000000000
11
20.4524675149
21
-40.4060040866
31
0.0000000000
11
20.4574840896
21
-40.7394662324
31
0.0000000000
11
20.4720029351
21
-41.0254614271
31
0.0000000000
11
20.4939573538
21
-41.2232794431
31
0.0000000000
11
20.5202222221
21
-41.3047617073
31
0.0000000000
0
SPLINE
5
37B
100
AcDbEntity
8
0
100
AcDbSpline
62
9
6
CONTINUOUS
70
0
71
3
72
11
73
7
74
5
42
0.0000001000
43
0.0000001000
44
0.0000000001
12
80.5674257889
22
-0.0223097410
32
0.0000000000
13
80.5674257889
23
0.0223097988
33
0.0000000000
40
0.0000000000
40
0.0000000000
40
0.0000000000
40
0.0000000000
40
0.2497677320
40
0.5000000139
40
0.7502322889
40
1.0000000000
40
1.0000000000
40
1.0000000000
40
1.0000000000
10
20.5202222221
20
-41.3047617073
30
0.0000000000
10
27.2279366267
20
-41.3066191251
30
0.0000000000
10
40.6558415867
20
-41.3093565376
30
0.0000000000
10
60.8039371245
20
-41.3107062324
30
0.0000000000
10
80.9520321015
20
-41.3093565361
30
0.0000000000
10
94.3799363151
20
-41.3066191286
30
0.0000000000
10
101.0876501589
20
-41.3047617061
30
0.0000000000
11
20.5202222221
21
-41.3047617073
31
0.0000000000
11
40.6433657829
21
-41.3088953740
31
0.0000000000
11
60.8039373100
21
-41.3102560553
31
0.0000000000
11
80.9645082805
21
-41.3088953740
31
0.0000000000
11
101.0876501589
21
-41.3047617061
31
0.0000000000
0
SPLINE
5
37C
100
AcDbEntity
8
0
100
AcDbSpline
62
9
6
CONTINUOUS
70
0
71
3
72
14
73
10
74
8
42
0.0000001000
43
0.0000001000
44
0.0000000001
12
0.0037791630
22
-2.9659010291
32
0.0000000000
13
2.9658840518
23
-0.0107232353
33
0.0000000000
40
0.0000000000
40
0.0000000000
40
0.0000000000
40
0.0000000000
40
0.1427369112
40
0.2848705927
40
0.4276594848
40
0.5704172891
40
0.7134139186
40
0.8565580438
40
1.0000000000
40
1.0000000000
40
1.0000000000
40
1.0000000000
10
18.6271154560
20
-39.4116037770
30
0.0000000000
10
18.6272952647
20
-39.5527182942
30
0.0000000000
10
18.6593067816
20
-39.8353391149
30
0.0000000000
10
18.8002396904
20
-40.2375197364
30
0.0000000000
10
19.0268562263
20
-40.5987320592
30
0.0000000000
10
19.3286726050
20
-40.9010865676
30
0.0000000000
10
19.6904387010
20
-41.1290768134
30
0.0000000000
10
20.0941693126
20
-41.2714385889
30
0.0000000000
10
20.3784116544
20
-41.3042124611
30
0.0000000000
10
20.5202223911
20
-41.3047251817
30
0.0000000000
11
18.6271154560
21
-39.4116037770
31
0.0000000000
11
18.6749066576
21
-39.8322414535
31
0.0000000000
11
18.8142277727
21
-40.2301083343
31
0.0000000000
11
19.0393260179
21
-40.5888302205
31
0.0000000000
11
19.3384315198
21
-40.8885107555
31
0.0000000000
11
19.6971991300
21
-41.1146935401
31
0.0000000000
11
20.0976073865
21
-41.2558223262
31
0.0000000000
11
20.5202223911
21
-41.3047251817
31
0.0000000000
0
SPLINE
5
37D
100
AcDbEntity
8
0
100
AcDbSpline
62
9
6
CONTINUOUS
70
0
71
3
72
14
73
10
74
8
42
0.0000001000
43
0.0000001000
44
0.0000000001
12
-0.0000576844
22
-1.5636850352
32
0.0000000000
13
1.5636848841
23
-0.0006899272
33
0.0000000000
40
0.0000000000
40
0.0000000000
40
0.0000000000
40
0.0000000000
40
0.1420159344
40
0.2840891391
40
0.4268774465
40
0.5698560961
40
0.7132543167
40
0.8568652744
40
1.0000000000
40
1.0000000000
40
1.0000000000
40
1.0000000000
10
19.4522837217
20
-39.4116037758
30
0.0000000000
10
19.4522809910
20
-39.4856265063
30
0.0000000000
10
19.4689430003
20
-39.6342405806
30
0.0000000000
10
19.5430093291
20
-39.8459523429
30
0.0000000000
10
19.6627803212
20
-40.0363398160
30
0.0000000000
10
19.8226131372
20
-40.1955373642
30
0.0000000000
10
20.0143564666
20
-40.3152380562
30
0.0000000000
10
20.2278744942
20
-40.3893156560
30
0.0000000000
10
20.3778616306
20
-40.4059711691
30
0.0000000000
10
20.4524674996
20
-40.4060040866
30
0.0000000000
11
19.4522837217
21
-39.4116037758
31
0.0000000000
11
19.4770937312
21
-39.6322816975
31
0.0000000000
11
19.5504271300
21
-39.8419869095
31
0.0000000000
11
19.6693254522
21
-40.0309719201
31
0.0000000000
11
19.8277036496
21
-40.1887739794
31
0.0000000000
11
20.0178768631
21
-40.3075724880
31
0.0000000000
11
20.2300297937
21
-40.3811888117
31
0.0000000000
11
20.4524674996
21
-40.4060040866
31
0.0000000000
0
SPLINE
5
37E
100
AcDbEntity
8
0
100
AcDbSpline
62
9
6
CONTINUOUS
70
0
71
3
72
11
73
7
74
5
42
0.0000001000
43
0.0000001000
44
0.0000000001
12
-0.0002474555
22
0.9044703800
32
0.0000000000
13
0.7550055444
23
0.4980294744
33
0.0000000000
40
0.0000000000
40
0.0000000000
40
0.0000000000
40
0.0000000000
40
0.3687111470
40
0.6853071877
40
0.9053515119
40
1.0000000000
40
1.0000000000
40
1.0000000000
40
1.0000000000
10
20.4524675083
20
42.1611595409
30
0.0000000000
10
20.4524370951
20
42.2723223113
30
0.0000000000
10
20.4570450753
20
42.4768388005
30
0.0000000000
10
20.4635382036
20
42.7571485048
30
0.0000000000
10
20.4943362531
20
42.9308086349
30
0.0000000000
10
20.4964023467
20
43.0441680585
30
0.0000000000
10
20.5202223911
20
43.0598806375
30
0.0000000000
11
20.4524675083
21
42.1611595409
31
0.0000000000
11
20.4574843632
21
42.4946101268
31
0.0000000000
11
20.4720032890
21
42.7805935645
31
0.0000000000
11
20.4939576413
21
42.9784025435
31
0.0000000000
11
20.5202223911
21
43.0598806375
31
0.0000000000
0
SPLINE
5
37F
100
AcDbEntity
8
0
100
AcDbSpline
62
9
6
CONTINUOUS
70
0
71
3
72
14
73
10
74
8
42
0.0000001000
43
0.0000001000
44
0.0000000001
12
-2.9658840562
22
-0.0107231304
32
0.0000000000
13
-0.0037795888
23
-2.9659010326
33
0.0000000000
40
0.0000000000
40
0.0000000000
40
0.0000000000
40
0.0000000000
40
0.1434418761
40
0.2865859907
40
0.4295825957
40
0.5723403749
40
0.7151292597
40
0.8572628467
40
1.0000000000
40
1.0000000000
40
1.0000000000
40
1.0000000000
10
20.5202223911
20
43.0598806375
30
0.0000000000
10
20.3784117333
20
43.0593679222
30
0.0000000000
10
20.0941694858
20
43.0265940546
30
0.0000000000
10
19.6904389544
20
42.8842323960
30
0.0000000000
10
19.3286728840
20
42.6562422273
30
0.0000000000
10
19.0268564577
20
42.3538878378
30
0.0000000000
10
18.8002399871
20
41.9926756352
30
0.0000000000
10
18.6593067500
20
41.5904949791
30
0.0000000000
10
18.6272952958
20
41.3078739880
30
0.0000000000
10
18.6271154665
20
41.1667592312
30
0.0000000000
11
20.5202223911
21
43.0598806375
31
0.0000000000
11
20.0976076199
21
43.0109778269
31
0.0000000000
11
19.6971993708
21
42.8698491130
31
0.0000000000
11
19.3384317861
21
42.6436664226
31
0.0000000000
11
19.0393262731
21
42.3439860032
31
0.0000000000
11
18.8142279799
21
41.9852641717
31
0.0000000000
11
18.6749067754
21
41.5873976188
31
0.0000000000
11
18.6271154665
21
41.1667592312
31
0.0000000000
0
SPLINE
5
380
100
AcDbEntity
8
0
100
AcDbSpline
62
9
6
CONTINUOUS
70
0
71
3
72
14
73
10
74
8
42
0.0000001000
43
0.0000001000
44
0.0000000001
12
-1.5636848851
22
-0.0006898170
32
0.0000000000
13
0.0000568669
23
-1.5636850362
33
0.0000000000
40
0.0000000000
40
0.0000000000
40
0.0000000000
40
0.0000000000
40
0.1431347254
40
0.2867456828
40
0.4301439034
40
0.5731225530
40
0.7159108599
40
0.8579840648
40
1.0000000000
40
1.0000000000
40
1.0000000000
40
1.0000000000
10
20.4524674996
20
42.1611595409
30
0.0000000000
10
20.3778616307
20
42.1611266286
30
0.0000000000
10
20.2278744954
20
42.1444711035
30
0.0000000000
10
20.0143564650
20
42.0703935135
30
0.0000000000
10
19.8226131399
20
41.9506928164
30
0.0000000000
10
19.6627803121
20
41.7914952755
30
0.0000000000
10
19.5430093534
20
41.6011077883
30
0.0000000000
10
19.4689429564
20
41.3893960412
30
0.0000000000
10
19.4522810297
20
41.2407819610
30
0.0000000000
10
19.4522837217
20
41.1667592301
30
0.0000000000
11
20.4524674996
21
42.1611595409
31
0.0000000000
11
20.2300297941
21
42.1363442639
31
0.0000000000
11
20.0178768628
21
42.0627279429
31
0.0000000000
11
19.8277036497
21
41.9439294337
31
0.0000000000
11
19.6693254505
21
41.7861273757
31
0.0000000000
11
19.5504271374
21
41.5971423602
31
0.0000000000
11
19.4770937194
21
41.3874371545
31
0.0000000000
11
19.4522837217
21
41.1667592301
31
0.0000000000
0
SPLINE
5
381
100
AcDbEntity
8
0
100
AcDbSpline
62
9
6
CONTINUOUS
70
0
71
3
72
11
73
7
74
5
42
0.0000001000
43
0.0000001000
44
0.0000000001
12
0.0002484760
22
0.9045066665
32
0.0000000000
13
-0.7550200539
23
0.4980733778
33
0.0000000000
40
0.0000000000
40
0.0000000000
40
0.0000000000
40
0.0000000000
40
0.3687091294
40
0.6853054460
40
0.9053508806
40
1.0000000000
40
1.0000000000
40
1.0000000000
40
1.0000000000
10
101.1554048719
20
42.1611595409
30
0.0000000000
10
101.1554354103
20
42.2723261627
30
0.0000000000
10
101.1508274755
20
42.4768504535
30
0.0000000000
10
101.1443348110
20
42.7571708517
30
0.0000000000
10
101.1135358496
20
42.9308393384
30
0.0000000000
10
101.1114708257
20
43.0442030927
30
0.0000000000
10
101.0876501647
20
43.0599171616
30
0.0000000000
11
101.1554048719
21
42.1611595409
31
0.0000000000
11
101.1503882972
21
42.4946216867
31
0.0000000000
11
101.1358694517
21
42.7806168814
31
0.0000000000
11
101.1139150330
21
42.9784348974
31
0.0000000000
11
101.0876501647
21
43.0599171616
31
0.0000000000
0
SPLINE
5
382
100
AcDbEntity
8
0
100
AcDbSpline
62
9
6
CONTINUOUS
70
0
71
3
72
11
73
7
74
5
42
0.0000001000
43
0.0000001000
44
0.0000000001
12
-80.5674257889
22
0.0223097410
32
0.0000000000
13
-80.5674257889
23
-0.0223097988
33
0.0000000000
40
0.0000000000
40
0.0000000000
40
0.0000000000
40
0.0000000000
40
0.2497678555
40
0.5000001787
40
0.7502324123
40
1.0000000000
40
1.0000000000
40
1.0000000000
40
1.0000000000
10
101.0876501647
20
43.0599171616
30
0.0000000000
10
94.3799324444
20
43.0617745803
30
0.0000000000
10
80.9520230574
20
43.0645119932
30
0.0000000000
10
60.8039242050
20
43.0658616866
30
0.0000000000
10
40.6558325436
20
43.0645119891
30
0.0000000000
10
27.2279327571
20
43.0617745819
30
0.0000000000
10
20.5202222279
20
43.0599171604
30
0.0000000000
11
101.0876501647
21
43.0599171616
31
0.0000000000
11
80.9644966570
21
43.0640508297
31
0.0000000000
11
60.8039217954
21
43.0654115096
31
0.0000000000
11
40.6433541625
21
43.0640508269
31
0.0000000000
11
20.5202222279
21
43.0599171604
31
0.0000000000
0
SPLINE
5
383
100
AcDbEntity
8
0
100
AcDbSpline
62
9
6
CONTINUOUS
70
0
71
3
72
14
73
10
74
8
42
0.0000001000
43
0.0000001000
44
0.0000000001
12
-0.0037791630
22
2.9659010291
32
0.0000000000
13
-2.9658840518
23
0.0107232353
33
0.0000000000
40
0.0000000000
40
0.0000000000
40
0.0000000000
40
0.0000000000
40
0.1427369112
40
0.2848705927
40
0.4276594848
40
0.5704172891
40
0.7134139186
40
0.8565580438
40
1.0000000000
40
1.0000000000
40
1.0000000000
40
1.0000000000
10
102.9807569308
20
41.1667592312
30
0.0000000000
10
102.9805771221
20
41.3078737485
30
0.0000000000
10
102.9485656052
20
41.5904945692
30
0.0000000000
10
102.8076326964
20
41.9926751907
30
0.0000000000
10
102.5810161605
20
42.3538875135
30
0.0000000000
10
102.2791997818
20
42.6562420218
30
0.0000000000
10
101.9174336858
20
42.8842322677
30
0.0000000000
10
101.5137030742
20
43.0265940432
30
0.0000000000
10
101.2294607324
20
43.0593679154
30
0.0000000000
10
101.0876499957
20
43.0598806360
30
0.0000000000
11
102.9807569308
21
41.1667592312
31
0.0000000000
11
102.9329657292
21
41.5873969078
31
0.0000000000
11
102.7936446141
21
41.9852637886
31
0.0000000000
11
102.5685463689
21
42.3439856748
31
0.0000000000
11
102.2694408670
21
42.6436662098
31
0.0000000000
11
101.9106732567
21
42.8698489944
31
0.0000000000
11
101.5102650003
21
43.0109777805
31
0.0000000000
11
101.0876499957
21
43.0598806360
31
0.0000000000
0
SPLINE
5
384
100
AcDbEntity
8
0
100
AcDbSpline
62
9
6
CONTINUOUS
70
0
71
3
72
14
73
10
74
8
42
0.0000001000
43
0.0000001000
44
0.0000000001
12
0.0000576844
22
1.5636850352
32
0.0000000000
13
-1.5636848841
23
0.0006899272
33
0.0000000000
40
0.0000000000
40
0.0000000000
40
0.0000000000
40
0.0000000000
40
0.1420159344
40
0.2840891391
40
0.4268774465
40
0.5698560961
40
0.7132543167
40
0.8568652744
40
1.0000000000
40
1.0000000000
40
1.0000000000
40
1.0000000000
10
102.1555886651
20
41.1667592301
30
0.0000000000
10
102.1555913958
20
41.2407819605
30
0.0000000000
10
102.1389293865
20
41.3893960349
30
0.0000000000
10
102.0648630577
20
41.6011077972
30
0.0000000000
10
101.9450920656
20
41.7914952703
30
0.0000000000
10
101.7852592496
20
41.9506928185
30
0.0000000000
10
101.5935159202
20
42.0703935104
30
0.0000000000
10
101.3799978926
20
42.1444711103
30
0.0000000000
10
101.2300107562
20
42.1611266234
30
0.0000000000
10
101.1554048872
20
42.1611595409
30
0.0000000000
11
102.1555886651
21
41.1667592301
31
0.0000000000
11
102.1307786556
21
41.3874371518
31
0.0000000000
11
102.0574452568
21
41.5971423638
31
0.0000000000
11
101.9385469346
21
41.7861273743
31
0.0000000000
11
101.7801687372
21
41.9439294337
31
0.0000000000
11
101.5899955237
21
42.0627279423
31
0.0000000000
11
101.3778425931
21
42.1363442660
31
0.0000000000
11
101.1554048872
21
42.1611595409
31
0.0000000000
0
SPLINE
5
385
100
AcDbEntity
8
0
100
AcDbSpline
62
0
6
CONTINUOUS
70
0
71
3
72
11
73
7
74
5
42
0.0000001000
43
0.0000001000
44
0.0000000001
12
0.9640265181
22
0.0000059339
32
0.0000000000
13
0.0494182306
23
-0.9568221290
33
0.0000000000
40
0.0000000000
40
0.0000000000
40
0.0000000000
40
0.0000000000
40
0.0787840830
40
0.2812880653
40
0.5940707683
40
1.0000000000
40
1.0000000000
40
1.0000000000
40
1.0000000000
10
-16.1747270738
20
43.2775772143
30
0.0000000000
10
-16.1494104254
20
43.2775773701
30
0.0000000000
10
-16.1170644592
20
43.1586689355
30
0.0000000000
10
-16.0843930181
20
42.9991414414
30
0.0000000000
10
-16.0524050168
20
42.6898794451
30
0.0000000000
10
-16.0375243893
20
42.4629142048
30
0.0000000000
10
-16.0308376212
20
42.3334468475
30
0.0000000000
11
-16.1747270738
21
43.2775772143
31
0.0000000000
11
-16.1326151848
21
43.2143713366
31
0.0000000000
11
-16.0920712074
21
43.0234087081
31
0.0000000000
11
-16.0575477239
21
42.7238607744
31
0.0000000000
11
-16.0308376212
21
42.3334468475
31
0.0000000000
0
SPLINE
5
386
100
AcDbEntity
8
0
100
AcDbSpline
62
0
6
CONTINUOUS
70
0
71
3
72
9
73
5
74
3
42
0.0000001000
43
0.0000001000
44
0.0000000001
12
0.0484379618
22
-0.9378424350
32
0.0000000000
13
0.0000000000
23
-0.9449039165
33
0.0000000000
40
0.0000000000
40
0.0000000000
40
0.0000000000
40
0.0000000000
40
0.4892526612
40
1.0000000000
40
1.0000000000
40
1.0000000000
40
1.0000000000
10
-16.0308376212
20
42.3334468475
30
0.0000000000
10
-16.0229381539
20
42.1804995452
30
0.0000000000
10
-16.0116923114
20
41.8642422696
30
0.0000000000
10
-16.0081597103
20
41.5497595026
30
0.0000000000
10
-16.0081597103
20
41.3888904490
30
0.0000000000
11
-16.0308376212
21
42.3334468475
31
0.0000000000
11
-16.0137803416
21
41.8714648786
31
0.0000000000
11
-16.0081597103
21
41.3888904490
31
0.0000000000
0
SPLINE
5
387
100
AcDbEntity
8
0
100
AcDbSpline
62
0
6
CONTINUOUS
70
0
71
3
72
9
73
5
74
3
42
0.0000001000
43
0.0000001000
44
0.0000000001
12
0.0000000000
22
-0.9449039165
32
0.0000000000
13
-0.0484379618
23
-0.9378424350
33
0.0000000000
40
0.0000000000
40
0.0000000000
40
0.0000000000
40
0.0000000000
40
0.5107473388
40
1.0000000000
40
1.0000000000
40
1.0000000000
40
1.0000000000
10
-16.0081597103
20
-39.6337349947
30
0.0000000000
10
-16.0081597103
20
-39.7946040483
30
0.0000000000
10
-16.0116923114
20
-40.1090868153
30
0.0000000000
10
-16.0229381539
20
-40.4253440909
30
0.0000000000
10
-16.0308376212
20
-40.5782913933
30
0.0000000000
11
-16.0081597103
21
-39.6337349947
31
0.0000000000
11
-16.0137803416
21
-40.1163094243
31
0.0000000000
11
-16.0308376212
21
-40.5782913933
31
0.0000000000
0
SPLINE
5
388
100
AcDbEntity
8
0
100
AcDbSpline
62
0
6
CONTINUOUS
70
0
71
3
72
11
73
7
74
5
42
0.0000001000
43
0.0000001000
44
0.0000000001
12
-0.0494182306
22
-0.9568221290
32
0.0000000000
13
-0.9640265181
23
0.0000059339
33
0.0000000000
40
0.0000000000
40
0.0000000000
40
0.0000000000
40
0.0000000000
40
0.4059292317
40
0.7187119347
40
0.9212159170
40
1.0000000000
40
1.0000000000
40
1.0000000000
40
1.0000000000
10
-16.0308376212
20
-40.5782913933
30
0.0000000000
10
-16.0375243893
20
-40.7077587505
30
0.0000000000
10
-16.0524050168
20
-40.9347239908
30
0.0000000000
10
-16.0843930181
20
-41.2439859871
30
0.0000000000
10
-16.1170644592
20
-41.4035134812
30
0.0000000000
10
-16.1494104254
20
-41.5224219158
30
0.0000000000
10
-16.1747270738
20
-41.5224217600
30
0.0000000000
11
-16.0308376212
21
-40.5782913933
31
0.0000000000
11
-16.0575477239
21
-40.9687053202
31
0.0000000000
11
-16.0920712074
21
-41.2682532539
31
0.0000000000
11
-16.1326151848
21
-41.4592158823
31
0.0000000000
11
-16.1747270738
21
-41.5224217600
31
0.0000000000
0
SPLINE
5
389
100
AcDbEntity
8
0
100
AcDbSpline
62
0
6
CONTINUOUS
70
0
71
3
72
11
73
7
74
5
42
0.0000001000
43
0.0000001000
44
0.0000000001
12
-3.4668652758
22
0.0000213452
32
0.0000000000
13
3.4668652758
23
-0.0000213452
33
0.0000000000
40
0.0000000000
40
0.0000000000
40
0.0000000000
40
0.0000000000
40
0.3749427721
40
0.5000000000
40
0.6250572279
40
1.0000000000
40
1.0000000000
40
1.0000000000
40
1.0000000000
10
-16.1747270738
20
-41.5224217600
30
0.0000000000
10
-16.6080190995
20
-41.5224190922
30
0.0000000000
10
-16.9691839665
20
-41.5224168175
30
0.0000000000
10
-18.1430111175
20
-41.5223404168
30
0.0000000000
10
-16.9691839665
20
-41.5224168175
30
0.0000000000
10
-16.6080190995
20
-41.5224190922
30
0.0000000000
10
-16.1747270738
20
-41.5224217600
30
0.0000000000
11
-16.1747270738
21
-41.5224217600
31
0.0000000000
11
-17.4746031503
21
-41.5223825931
31
0.0000000000
11
-17.9081597103
21
-41.5223557025
31
0.0000000000
11
-17.4746031503
21
-41.5223825931
31
0.0000000000
11
-16.1747270738
21
-41.5224217600
31
0.0000000000
0
SPLINE
5
38A
100
AcDbEntity
8
0
100
AcDbSpline
62
0
6
CONTINUOUS
70
0
71
3
72
11
73
7
74
5
42
0.0000001000
43
0.0000001000
44
0.0000000001
12
-3.4668652758
22
-0.0000213452
32
0.0000000000
13
3.4668652758
23
0.0000213452
33
0.0000000000
40
0.0000000000
40
0.0000000000
40
0.0000000000
40
0.0000000000
40
0.3749427721
40
0.5000000000
40
0.6250572279
40
1.0000000000
40
1.0000000000
40
1.0000000000
40
1.0000000000
10
-16.1747270738
20
43.2775772143
30
0.0000000000
10
-16.6080190995
20
43.2775745465
30
0.0000000000
10
-16.9691839665
20
43.2775722717
30
0.0000000000
10
-18.1430111175
20
43.2774958711
30
0.0000000000
10
-16.9691839665
20
43.2775722717
30
0.0000000000
10
-16.6080190995
20
43.2775745465
30
0.0000000000
10
-16.1747270738
20
43.2775772143
30
0.0000000000
11
-16.1747270738
21
43.2775772143
31
0.0000000000
11
-17.4746031503
21
43.2775380474
31
0.0000000000
11
-17.9081597103
21
43.2775111568
31
0.0000000000
11
-17.4746031503
21
43.2775380474
31
0.0000000000
11
-16.1747270738
21
43.2775772143
31
0.0000000000
0
SPLINE
5
38B
100
AcDbEntity
8
0
100
AcDbSpline
62
9
6
CONTINUOUS
70
0
71
3
72
8
73
4
74
2
42
0.0000001000
43
0.0000001000
44
0.0000000001
12
-0.0381619804
22
-0.0713118690
32
0.0000000000
13
-0.0381676300
23
-0.0713090744
33
0.0000000000
40
0.0000000000
40
0.0000000000
40
0.0000000000
40
0.0000000000
40
1.0000000000
40
1.0000000000
40
1.0000000000
40
1.0000000000
10
-22.2567149673
20
-25.1512129012
30
0.0000000000
10
-22.2694356274
20
-25.1749835242
30
0.0000000000
10
-22.2821575736
20
-25.1987543217
30
0.0000000000
10
-22.2948801170
20
-25.2225240132
30
0.0000000000
11
-22.2567149673
21
-25.1512129012
31
0.0000000000
11
-22.2948801170
21
-25.2225240132
31
0.0000000000
0
SPLINE
5
38C
100
AcDbEntity
8
0
100
AcDbSpline
62
9
6
CONTINUOUS
70
0
71
3
72
9
73
5
74
3
42
0.0000001000
43
0.0000001000
44
0.0000000001
12
-0.0971089912
22
-0.1814299782
32
0.0000000000
13
-0.0971640432
23
-0.1814466030
33
0.0000000000
40
0.0000000000
40
0.0000000000
40
0.0000000000
40
0.0000000000
40
0.2237915085
40
1.0000000000
40
1.0000000000
40
1.0000000000
40
1.0000000000
10
-22.2948801170
20
-25.2225240132
30
0.0000000000
10
-22.3021241728
20
-25.2360581760
30
0.0000000000
10
-22.3344947016
20
-25.2965332331
30
0.0000000000
10
-22.3668665559
20
-25.3569964112
30
0.0000000000
10
-22.3920064076
20
-25.4039432092
30
0.0000000000
11
-22.2948801170
21
-25.2225240132
31
0.0000000000
11
-22.3166127381
21
-25.2631251896
31
0.0000000000
11
-22.3920064076
21
-25.4039432092
31
0.0000000000
0
SPLINE
5
38D
100
AcDbEntity
8
0
100
AcDbSpline
62
9
6
CONTINUOUS
70
0
71
3
72
10
73
6
74
4
42
0.0000001000
43
0.0000001000
44
0.0000000001
12
-0.2493629387
22
-0.4656666877
32
0.0000000000
13
-0.2468339086
23
-0.4603633553
33
0.0000000000
40
0.0000000000
40
0.0000000000
40
0.0000000000
40
0.0000000000
40
0.3363683140
40
0.6785883011
40
1.0000000000
40
1.0000000000
40
1.0000000000
40
1.0000000000
10
-22.3920064076
20
-25.4039432092
30
0.0000000000
10
-22.4199656714
20
-25.4561550487
30
0.0000000000
10
-22.4764018954
20
-25.5615238822
30
0.0000000000
10
-22.5593623696
20
-25.7163506220
30
0.0000000000
10
-22.6149939595
20
-25.8201306751
30
0.0000000000
10
-22.6414390615
20
-25.8694527312
30
0.0000000000
11
-22.3920064076
21
-25.4039432092
31
0.0000000000
11
-22.4758807765
21
-25.5605402603
31
0.0000000000
11
-22.5612419108
21
-25.7198467670
31
0.0000000000
11
-22.6414390615
21
-25.8694527312
31
0.0000000000
0
SPLINE
5
38E
100
AcDbEntity
8
0
100
AcDbSpline
62
9
6
CONTINUOUS
70
0
71
3
72
15
73
11
74
9
42
0.0000001000
43
0.0000001000
44
0.0000000001
12
-0.3051793268
22
-0.5691818424
32
0.0000000000
13
0.3048546890
23
0.5684967790
33
0.0000000000
40
0.0000000000
40
0.0000000000
40
0.0000000000
40
0.0000000000
40
0.2238807630
40
0.3957204709
40
0.5036017052
40
0.5401812389
40
0.5773337424
40
0.6856176906
40
0.8575931194
40
1.0000000000
40
1.0000000000
40
1.0000000000
40
1.0000000000
10
-22.6414390615
20
-25.8694527312
30
0.0000000000
10
-22.6642136550
20
-25.9119290196
30
0.0000000000
10
-22.7038153563
20
-25.9857744608
30
0.0000000000
10
-22.7601920150
20
-26.0908689695
30
0.0000000000
10
-22.7842619966
20
-26.1357296606
30
0.0000000000
10
-22.8142702589
20
-26.1916716568
30
0.0000000000
10
-22.7840055112
20
-26.1352515802
30
0.0000000000
10
-22.7599600413
20
-26.0904365832
30
0.0000000000
10
-22.7125998848
20
-26.0021501172
30
0.0000000000
10
-22.6803718524
20
-25.9420582542
30
0.0000000000
10
-22.6659007173
20
-25.9150723032
30
0.0000000000
11
-22.6414390615
21
-25.8694527312
31
0.0000000000
11
-22.7105270859
21
-25.9982819864
31
0.0000000000
11
-22.7635676089
21
-26.0971584605
31
0.0000000000
11
-22.7968688877
21
-26.1592319998
31
0.0000000000
11
-22.8081595195
21
-26.1802799020
31
0.0000000000
11
-22.7966920191
21
-26.1589023208
31
0.0000000000
11
-22.7632664272
21
-26.0965970657
31
0.0000000000
11
-22.7101840568
21
-25.9976424739
31
0.0000000000
11
-22.6659007173
21
-25.9150723032
31
0.0000000000
0
SPLINE
5
38F
100
AcDbEntity
8
0
100
AcDbSpline
62
9
6
CONTINUOUS
70
0
71
3
72
11
73
7
74
5
42
0.0000001000
43
0.0000001000
44
0.0000000001
12
0.0000000939
22
-0.0000000698
32
0.0000000000
13
0.1401518904
23
0.2613569714
33
0.0000000000
40
0.0000000000
40
0.0000000000
40
0.0000000000
40
0.0000000000
40
0.0806275236
40
0.3161639069
40
0.6902403159
40
1.0000000000
40
1.0000000000
40
1.0000000000
40
1.0000000000
10
-22.8081596175
20
-26.1802800848
30
0.0000000000
10
-22.8081596150
20
-26.1802800867
30
0.0000000000
10
-22.7839990466
20
-26.1352395317
30
0.0000000000
10
-22.7599600413
20
-26.0904365832
30
0.0000000000
10
-22.7125998848
20
-26.0021501172
30
0.0000000000
10
-22.6803718524
20
-25.9420582542
30
0.0000000000
10
-22.6659007173
20
-25.9150723032
30
0.0000000000
11
-22.8081596175
21
-26.1802800848
31
0.0000000000
11
-22.7966920191
21
-26.1589023208
31
0.0000000000
11
-22.7632664272
21
-26.0965970657
31
0.0000000000
11
-22.7101840568
21
-25.9976424739
31
0.0000000000
11
-22.6659007173
21
-25.9150723032
31
0.0000000000
0
SPLINE
5
390
100
AcDbEntity
8
0
100
AcDbSpline
62
9
6
CONTINUOUS
70
0
71
3
72
8
73
4
74
2
42
0.0000001000
43
0.0000001000
44
0.0000000001
12
-0.0001976937
22
0.0485546607
32
0.0000000000
13
0.0231087880
23
0.0434658079
33
0.0000000000
40
0.0000000000
40
0.0000000000
40
0.0000000000
40
0.0000000000
40
1.0000000000
40
1.0000000000
40
1.0000000000
40
1.0000000000
10
-22.2567149672
20
-25.1512129012
30
0.0000000000
10
-22.2567808650
20
-25.1350280143
30
0.0000000000
10
-22.2526937554
20
-25.1185290218
30
0.0000000000
10
-22.2449908261
20
-25.1040404191
30
0.0000000000
11
-22.2567149672
21
-25.1512129012
31
0.0000000000
11
-22.2449908261
21
-25.1040404191
31
0.0000000000
0
SPLINE
5
391
100
AcDbEntity
8
0
100
AcDbSpline
62
9
6
CONTINUOUS
70
0
71
3
72
14
73
10
74
8
42
0.0000001000
43
0.0000001000
44
0.0000000001
12
0.0000031065
22
1.0039791276
32
0.0000000000
13
-1.0039638589
23
0.0055370137
33
0.0000000000
40
0.0000000000
40
0.0000000000
40
0.0000000000
40
0.0000000000
40
0.2198126302
40
0.4287723000
40
0.6172566883
40
0.7749570537
40
0.8942767076
40
0.9695560314
40
1.0000000000
40
1.0000000000
40
1.0000000000
40
1.0000000000
10
-21.1156461091
20
41.1667592301
30
0.0000000000
10
-21.1156458815
20
41.2403216610
30
0.0000000000
10
-21.1169416634
20
41.3838776485
30
0.0000000000
10
-21.1226708040
20
41.5901334069
30
0.0000000000
10
-21.1319826565
20
41.7764790849
30
0.0000000000
10
-21.1438589687
20
41.9296280124
30
0.0000000000
10
-21.1585394228
20
42.0521034847
30
0.0000000000
10
-21.1720054096
20
42.1159248166
30
0.0000000000
10
-21.1864715372
20
42.1611033513
30
0.0000000000
10
-21.1966597520
20
42.1611595409
30
0.0000000000
11
-21.1156461091
21
41.1667592301
31
0.0000000000
11
-21.1176798387
21
41.3874371518
31
0.0000000000
11
-21.1236839508
21
41.5971423638
31
0.0000000000
11
-21.1333958419
21
41.7861273743
31
0.0000000000
11
-21.1462887136
21
41.9439294337
31
0.0000000000
11
-21.1617037291
21
42.0627279423
31
0.0000000000
11
-21.1788152004
21
42.1363442660
31
0.0000000000
11
-21.1966597520
21
42.1611595409
31
0.0000000000
0
SPLINE
5
392
100
AcDbEntity
8
0
100
AcDbSpline
62
9
6
CONTINUOUS
70
0
71
3
72
14
73
10
74
8
42
0.0000001000
43
0.0000001000
44
0.0000000001
12
-0.0465135604
22
1.8948929144
32
0.0000000000
13
-1.8574856659
23
0.3775310178
33
0.0000000000
40
0.0000000000
40
0.0000000000
40
0.0000000000
40
0.0000000000
40
0.2219972744
40
0.4320035331
40
0.6213801918
40
0.7796296682
40
0.8991283808
40
0.9737962113
40
1.0000000000
40
1.0000000000
40
1.0000000000
40
1.0000000000
10
-20.2657563572
20
41.1667592312
30
0.0000000000
10
-20.2691983184
20
41.3069795854
30
0.0000000000
10
-20.2763454789
20
41.5799997339
30
0.0000000000
10
-20.2890809131
20
41.9717174879
30
0.0000000000
10
-20.2998253126
20
42.3259826750
30
0.0000000000
10
-20.3175258629
20
42.6147240598
30
0.0000000000
10
-20.3160573102
20
42.8520625026
30
0.0000000000
10
-20.3493511166
20
42.9633017991
30
0.0000000000
10
-20.3304016463
20
43.0565830550
30
0.0000000000
10
-20.3466260336
20
43.0598806360
30
0.0000000000
11
-20.2657563572
21
41.1667592312
31
0.0000000000
11
-20.2769946099
21
41.5873969078
31
0.0000000000
11
-20.2893681750
21
41.9852637886
31
0.0000000000
11
-20.3023465163
21
42.3439856748
31
0.0000000000
11
-20.3152019607
21
42.6436662098
31
0.0000000000
11
-20.3272882002
21
42.8698489944
31
0.0000000000
11
-20.3379396200
21
43.0109777805
31
0.0000000000
11
-20.3466260336
21
43.0598806360
31
0.0000000000
0
SPLINE
5
393
100
AcDbEntity
8
0
100
AcDbSpline
62
9
6
CONTINUOUS
70
0
71
3
72
9
73
5
74
3
42
0.0000001000
43
0.0000001000
44
0.0000000001
12
-1.6086339882
22
0.0055685913
32
0.0000000000
13
-0.0000000000
23
-0.0000000001
33
0.0000000000
40
0.0000000000
40
0.0000000000
40
0.0000000000
40
0.0000000000
40
0.7498345145
40
1.0000000000
40
1.0000000000
40
1.0000000000
40
1.0000000000
10
-20.3466279473
20
43.0599171616
30
0.0000000000
10
-20.7486977091
20
43.0613090022
30
0.0000000000
10
-21.0838743388
20
43.0624689846
30
0.0000000000
10
-21.9552620709
20
43.0654115096
30
0.0000000000
10
-21.9552620709
20
43.0654115096
30
0.0000000000
11
-20.3466279473
21
43.0599171616
31
0.0000000000
11
-21.5528373770
21
43.0640508297
31
0.0000000000
11
-21.9552620709
21
43.0654115096
31
0.0000000000
0
SPLINE
5
394
100
AcDbEntity
8
0
100
AcDbSpline
62
9
6
CONTINUOUS
70
0
71
3
72
11
73
7
74
5
42
0.0000001000
43
0.0000001000
44
0.0000000001
12
0.0000298036
22
1.3561595430
32
0.0000000000
13
1.3542755707
23
0.0714589768
33
0.0000000000
40
0.0000000000
40
0.0000000000
40
0.0000000000
40
0.0000000000
40
0.2503552611
40
0.5005088636
40
0.7503675581
40
1.0000000000
40
1.0000000000
40
1.0000000000
40
1.0000000000
10
-21.1966595604
20
42.1611595409
30
0.0000000000
10
-21.1966570732
20
42.2743334331
30
0.0000000000
10
-21.1531184044
20
42.5028935745
30
0.0000000000
10
-20.9662055221
20
42.7954360588
30
0.0000000000
10
-20.6848099731
20
42.9982420287
30
0.0000000000
10
-20.4593183198
20
43.0539710020
30
0.0000000000
10
-20.3466279473
20
43.0599171616
30
0.0000000000
11
-21.1966595604
21
42.1611595409
31
0.0000000000
11
-21.1328006048
21
42.4946216867
31
0.0000000000
11
-20.9503284518
21
42.7806168814
31
0.0000000000
11
-20.6752172541
21
42.9784348974
31
0.0000000000
11
-20.3466279473
21
43.0599171616
31
0.0000000000
0
SPLINE
5
395
100
AcDbEntity
8
0
100
AcDbSpline
62
9
6
CONTINUOUS
70
0
71
3
72
11
73
7
74
5
42
0.0000001000
43
0.0000001000
44
0.0000000001
12
-0.1397091326
22
0.2605305382
32
0.0000000000
13
-0.0000000715
23
-0.0000000440
33
0.0000000000
40
0.0000000000
40
0.0000000000
40
0.0000000000
40
0.0000000000
40
0.3056759896
40
0.6816938814
40
0.9186712806
40
1.0000000000
40
1.0000000000
40
1.0000000000
40
1.0000000000
10
-22.6663435896
20
27.6710536378
30
0.0000000000
10
-22.6805788321
20
27.6975996144
30
0.0000000000
10
-22.7126198607
20
27.7573427403
30
0.0000000000
10
-22.7598076034
20
27.8453079125
30
0.0000000000
10
-22.7838468972
20
27.8901113351
30
0.0000000000
10
-22.8081593843
20
27.9354351111
30
0.0000000000
10
-22.8081593862
20
27.9354351099
30
0.0000000000
11
-22.6663435896
21
27.6710536378
31
0.0000000000
11
-22.7099116870
21
27.7522901079
31
0.0000000000
11
-22.7630877046
21
27.8514193673
31
0.0000000000
11
-22.7966032044
21
27.9138922036
31
0.0000000000
11
-22.8081593862
21
27.9354351099
31
0.0000000000
0
SPLINE
5
396
100
AcDbEntity
8
0
100
AcDbSpline
62
9
6
CONTINUOUS
70
0
71
3
72
15
73
11
74
9
42
0.0000001000
43
0.0000001000
44
0.0000000001
12
-0.3039999996
22
0.5669012614
32
0.0000000000
13
0.3042684277
23
-0.5674814838
33
0.0000000000
40
0.0000000000
40
0.0000000000
40
0.0000000000
40
0.0000000000
40
0.1404793665
40
0.3132857270
40
0.4221933156
40
0.4597463967
40
0.4961184370
40
0.6039456966
40
0.7758729127
40
1.0000000000
40
1.0000000000
40
1.0000000000
40
1.0000000000
10
-22.6663435896
20
27.6710536378
30
0.0000000000
10
-22.6805788321
20
27.6975996144
30
0.0000000000
10
-22.7126198607
20
27.7573427403
30
0.0000000000
10
-22.7598076034
20
27.8453079125
30
0.0000000000
10
-22.7838602229
20
27.8901361709
30
0.0000000000
10
-22.8142672587
20
27.9468215220
30
0.0000000000
10
-22.7844262139
20
27.8911912553
30
0.0000000000
10
-22.7603836626
20
27.8463816383
30
0.0000000000
10
-22.7041777238
20
27.7416055188
30
0.0000000000
10
-22.6646565444
20
27.6679103615
30
0.0000000000
10
-22.6419249456
20
27.6255143708
30
0.0000000000
11
-22.6663435896
21
27.6710536378
31
0.0000000000
11
-22.7099116870
21
27.7522901079
31
0.0000000000
11
-22.7630877046
21
27.8514193673
31
0.0000000000
11
-22.7966032044
21
27.9138922036
31
0.0000000000
11
-22.8081589681
21
27.9354343304
31
0.0000000000
11
-22.7969666452
21
27.9145696944
31
0.0000000000
11
-22.7637836155
21
27.8527165653
31
0.0000000000
11
-22.7108779984
21
27.7540916913
31
0.0000000000
11
-22.6419249456
21
27.6255143708
31
0.0000000000
0
SPLINE
5
397
100
AcDbEntity
8
0
100
AcDbSpline
62
9
6
CONTINUOUS
70
0
71
3
72
18
73
14
74
12
42
0.0000001000
43
0.0000001000
44
0.0000000001
12
-0.5813949052
22
1.0857085724
32
0.0000000000
13
0.5755293502
23
-1.0734017067
33
0.0000000000
40
0.0000000000
40
0.0000000000
40
0.0000000000
40
0.0000000000
40
0.1424401022
40
0.2890156696
40
0.4267939237
40
0.5455922593
40
0.6369507966
40
0.6945276008
40
0.7143810053
40
0.7336100220
40
0.7906156825
40
0.8815094375
40
1.0000000000
40
1.0000000000
40
1.0000000000
40
1.0000000000
10
-22.3925782766
20
27.1601665845
30
0.0000000000
10
-22.4201829265
20
27.2117160645
30
0.0000000000
10
-22.4762236705
20
27.3163464987
30
0.0000000000
10
-22.5587716501
20
27.4704038400
30
0.0000000000
10
-22.6375762978
20
27.6174134166
30
0.0000000000
10
-22.7032056475
20
27.7397932066
30
0.0000000000
10
-22.7598076034
20
27.8453079125
30
0.0000000000
10
-22.7838602229
20
27.8901361709
30
0.0000000000
10
-22.8142672587
20
27.9468215220
30
0.0000000000
10
-22.7844262139
20
27.8911912553
30
0.0000000000
10
-22.7603836626
20
27.8463816383
30
0.0000000000
10
-22.7041777238
20
27.7416055188
30
0.0000000000
10
-22.6646565444
20
27.6679103615
30
0.0000000000
10
-22.6419249456
20
27.6255143708
30
0.0000000000
11
-22.3925782766
21
27.1601665845
31
0.0000000000
11
-22.4753875402
21
27.3147750093
31
0.0000000000
11
-22.5606285986
21
27.4738578608
31
0.0000000000
11
-22.6407798252
21
27.6233786575
31
0.0000000000
11
-22.7099116870
21
27.7522901079
31
0.0000000000
11
-22.7630877046
21
27.8514193673
31
0.0000000000
11
-22.7966032044
21
27.9138922036
31
0.0000000000
11
-22.8081589681
21
27.9354343304
31
0.0000000000
11
-22.7969666452
21
27.9145696944
31
0.0000000000
11
-22.7637836155
21
27.8527165653
31
0.0000000000
11
-22.7108779984
21
27.7540916913
31
0.0000000000
11
-22.6419249456
21
27.6255143708
31
0.0000000000
0
SPLINE
5
398
100
AcDbEntity
8
0
100
AcDbSpline
62
9
6
CONTINUOUS
70
0
71
3
72
10
73
6
74
4
42
0.0000001000
43
0.0000001000
44
0.0000000001
12
-0.1358279857
22
0.2538166891
32
0.0000000000
13
-0.1359269671
23
0.2538327599
33
0.0000000000
40
0.0000000000
40
0.0000000000
40
0.0000000000
40
0.0000000000
40
0.4398416578
40
0.9933926486
40
1.0000000000
40
1.0000000000
40
1.0000000000
40
1.0000000000
10
-22.2567149671
20
26.9063683553
30
0.0000000000
10
-22.2766292359
20
26.9435814064
30
0.0000000000
10
-22.3216132312
20
27.0276289828
30
0.0000000000
10
-22.3668988435
20
27.1122121889
30
0.0000000000
10
-22.3922789042
20
27.1596075304
30
0.0000000000
10
-22.3925782766
20
27.1601665845
30
0.0000000000
11
-22.2567149671
21
26.9063683553
31
0.0000000000
11
-22.3164645794
21
27.0180038663
31
0.0000000000
11
-22.3916801647
21
27.1584894284
31
0.0000000000
11
-22.3925782766
21
27.1601665845
31
0.0000000000
0
SPLINE
5
399
100
AcDbEntity
8
0
100
AcDbSpline
62
9
6
CONTINUOUS
70
0
71
3
72
14
73
10
74
8
42
0.0000001000
43
0.0000001000
44
0.0000000001
12
1.0039638635
22
0.0055361293
32
0.0000000000
13
-0.0000030635
23
1.0039791272
33
0.0000000000
40
0.0000000000
40
0.0000000000
40
0.0000000000
40
0.0000000000
40
0.0304439702
40
0.1057232915
40
0.2250429461
40
0.3827433101
40
0.5712277035
40
0.7801873670
40
1.0000000000
40
1.0000000000
40
1.0000000000
40
1.0000000000
10
-21.1966597520
20
-40.4060040866
30
0.0000000000
10
-21.1864715366
20
-40.4059479060
30
0.0000000000
10
-21.1720054115
20
-40.3607693504
30
0.0000000000
10
-21.1585394213
20
-40.2969480367
30
0.0000000000
10
-21.1438589695
20
-40.1744725559
30
0.0000000000
10
-21.1319826553
20
-40.0213236310
30
0.0000000000
10
-21.1226708063
20
-39.8349779524
30
0.0000000000
10
-21.1169416597
20
-39.6287221941
30
0.0000000000
10
-21.1156458846
20
-39.4851662076
30
0.0000000000
10
-21.1156461091
20
-39.4116037758
30
0.0000000000
11
-21.1966597520
21
-40.4060040866
31
0.0000000000
11
-21.1788152004
21
-40.3811888096
31
0.0000000000
11
-21.1617037291
21
-40.3075724886
31
0.0000000000
11
-21.1462887136
21
-40.1887739794
31
0.0000000000
11
-21.1333958418
21
-40.0309719215
31
0.0000000000
11
-21.1236839514
21
-39.8419869059
31
0.0000000000
11
-21.1176798377
21
-39.6322817002
31
0.0000000000
11
-21.1156461091
21
-39.4116037758
31
0.0000000000
0
SPLINE
5
39A
100
AcDbEntity
8
0
100
AcDbSpline
62
9
6
CONTINUOUS
70
0
71
3
72
14
73
10
74
8
42
0.0000001000
43
0.0000001000
44
0.0000000001
12
1.8574863860
22
0.3775274814
32
0.0000000000
13
0.0465135128
23
1.8948929169
33
0.0000000000
40
0.0000000000
40
0.0000000000
40
0.0000000000
40
0.0000000000
40
0.0262037646
40
0.1008715572
40
0.2203702199
40
0.3786196352
40
0.5679962649
40
0.7780023506
40
1.0000000000
40
1.0000000000
40
1.0000000000
40
1.0000000000
10
-20.3466260337
20
-41.3047251832
30
0.0000000000
10
-20.3304016550
20
-41.3014276361
30
0.0000000000
10
-20.3493511279
20
-41.2081463663
30
0.0000000000
10
-20.3160573100
20
-41.0969071969
30
0.0000000000
10
-20.3175258763
20
-40.8595688154
30
0.0000000000
10
-20.2998253215
20
-40.5708275329
30
0.0000000000
10
-20.2890809383
20
-40.2165625065
30
0.0000000000
10
-20.2763454721
20
-39.8248446455
30
0.0000000000
10
-20.2691983201
20
-39.5518243681
30
0.0000000000
10
-20.2657563566
20
-39.4116037769
30
0.0000000000
11
-20.3466260337
21
-41.3047251832
31
0.0000000000
11
-20.3379396280
21
-41.2558223726
31
0.0000000000
11
-20.3272882063
21
-41.1146936587
31
0.0000000000
11
-20.3152019704
21
-40.8885109683
31
0.0000000000
11
-20.3023465293
21
-40.5888305489
31
0.0000000000
11
-20.2893681911
21
-40.2301087174
31
0.0000000000
11
-20.2769946215
21
-39.8322421645
31
0.0000000000
11
-20.2657563566
21
-39.4116037769
31
0.0000000000
0
SPLINE
5
39B
100
AcDbEntity
8
0
100
AcDbSpline
62
9
6
CONTINUOUS
70
0
71
3
72
11
73
7
74
5
42
0.0000001000
43
0.0000001000
44
0.0000000001
12
0.0000646501
22
-1.3561282012
32
0.0000000000
13
1.3542444897
23
-0.0714532321
33
0.0000000000
40
0.0000000000
40
0.0000000000
40
0.0000000000
40
0.0000000000
40
0.2503535921
40
0.5005064751
40
0.7503658356
40
1.0000000000
40
1.0000000000
40
1.0000000000
40
1.0000000000
10
-21.1966596424
20
-40.4060040866
30
0.0000000000
10
-21.1966542473
20
-40.5191746088
30
0.0000000000
10
-21.1531108603
20
-40.7477272369
30
0.0000000000
10
-20.9661955705
20
-41.0402575513
30
0.0000000000
10
-20.6848022545
20
-41.2430536627
30
0.0000000000
10
-20.4593145975
20
-41.2987794606
30
0.0000000000
10
-20.3466260337
20
-41.3047251832
30
0.0000000000
11
-21.1966596424
21
-40.4060040866
31
0.0000000000
11
-21.1327940742
21
-40.7394546725
31
0.0000000000
11
-20.9503198839
21
-41.0254381102
31
0.0000000000
11
-20.6752107208
21
-41.2232470892
31
0.0000000000
11
-20.3466260337
21
-41.3047251832
31
0.0000000000
0
SPLINE
5
39C
100
AcDbEntity
8
0
100
AcDbSpline
62
9
6
CONTINUOUS
70
0
71
3
72
8
73
4
74
2
42
0.0000001000
43
0.0000001000
44
0.0000000001
12
0.0225223366
22
-0.0419073086
32
0.0000000000
13
0.0054794320
23
-0.0481318841
33
0.0000000000
40
0.0000000000
40
0.0000000000
40
0.0000000000
40
0.0000000000
40
1.0000000000
40
1.0000000000
40
1.0000000000
40
1.0000000000
10
-22.2567149673
20
26.9063683552
30
0.0000000000
10
-22.2492075218
20
26.8923992524
30
0.0000000000
10
-22.2460801177
20
26.8767553022
30
0.0000000000
10
-22.2442536404
20
26.8607113409
30
0.0000000000
11
-22.2567149673
21
26.9063683552
31
0.0000000000
11
-22.2442536404
21
26.8607113409
31
0.0000000000
0
SPLINE
5
39D
100
AcDbEntity
8
0
100
AcDbSpline
62
9
6
CONTINUOUS
70
0
71
3
72
9
73
5
74
3
42
0.0000001000
43
0.0000001000
44
0.0000000001
12
0.0121597279
22
-0.1068122776
32
0.0000000000
13
0.0102431297
23
-0.1044291511
33
0.0000000000
40
0.0000000000
40
0.0000000000
40
0.0000000000
40
0.0000000000
40
0.2167766599
40
1.0000000000
40
1.0000000000
40
1.0000000000
40
1.0000000000
10
-22.2442536404
20
26.8607113409
30
0.0000000000
10
-22.2433749920
20
26.8529932046
30
0.0000000000
10
-22.2407105566
20
26.8169620792
30
0.0000000000
10
-22.2371581170
20
26.7819812054
30
0.0000000000
10
-22.2344838976
20
26.7547174226
30
0.0000000000
11
-22.2442536404
21
26.8607113409
31
0.0000000000
11
-22.2421780880
21
26.8374211441
31
0.0000000000
11
-22.2344838976
21
26.7547174226
31
0.0000000000
0
SPLINE
5
39E
100
AcDbEntity
8
0
100
AcDbSpline
62
9
6
CONTINUOUS
70
0
71
3
72
9
73
5
74
3
42
0.0000001000
43
0.0000001000
44
0.0000000001
12
0.0159859344
22
-0.1629772945
32
0.0000000000
13
0.0078450286
23
-0.1649457310
33
0.0000000000
40
0.0000000000
40
0.0000000000
40
0.0000000000
40
0.0000000000
40
0.3062264453
40
1.0000000000
40
1.0000000000
40
1.0000000000
40
1.0000000000
10
-22.2344838976
20
26.7547174226
30
0.0000000000
10
-22.2328521257
20
26.7380814368
30
0.0000000000
10
-22.2276549565
20
26.6839186622
30
0.0000000000
10
-22.2244688457
20
26.6290520466
30
0.0000000000
10
-22.2226546212
20
26.5909070512
30
0.0000000000
11
-22.2344838976
21
26.7547174226
31
0.0000000000
11
-22.2298576906
21
26.7048432865
31
0.0000000000
11
-22.2226546212
21
26.5909070512
31
0.0000000000
0
SPLINE
5
39F
100
AcDbEntity
8
0
100
AcDbSpline
62
9
6
CONTINUOUS
70
0
71
3
72
11
73
7
74
5
42
0.0000001000
43
0.0000001000
44
0.0000000001
12
0.0419224519
22
-0.8814409475
32
0.0000000000
13
0.0000020540
23
-0.8805093386
33
0.0000000000
40
0.0000000000
40
0.0000000000
40
0.0000000000
40
0.0000000000
40
0.0731988183
40
0.3272793789
40
0.6418655090
40
1.0000000000
40
1.0000000000
40
1.0000000000
40
1.0000000000
10
-22.2226546212
20
26.5909070512
30
0.0000000000
10
-22.2216317299
20
26.5694002393
30
0.0000000000
10
-22.2176214263
20
26.4731274016
30
0.0000000000
10
-22.2106767872
20
26.2851371554
30
0.0000000000
10
-22.2056313236
20
26.0130296127
30
0.0000000000
10
-22.2043235690
20
25.8156159324
30
0.0000000000
10
-22.2043233238
20
25.7105023444
30
0.0000000000
11
-22.2226546212
21
26.5909070512
31
0.0000000000
11
-22.2198613296
21
26.5263567155
31
0.0000000000
11
-22.2119416703
21
26.3027766304
31
0.0000000000
11
-22.2063832830
21
26.0258363799
31
0.0000000000
11
-22.2043233238
21
25.7105023444
31
0.0000000000
0
SPLINE
5
3A0
100
AcDbEntity
8
0
100
AcDbSpline
62
9
6
CONTINUOUS
70
0
71
3
72
8
73
4
74
2
42
0.0000001000
43
0.0000001000
44
0.0000000001
12
-0.0002089847
22
-0.0485555375
32
0.0000000000
13
0.0230997581
23
-0.0434719251
33
0.0000000000
40
0.0000000000
40
0.0000000000
40
0.0000000000
40
0.0000000000
40
1.0000000000
40
1.0000000000
40
1.0000000000
40
1.0000000000
10
-22.2567113464
20
26.9063683544
30
0.0000000000
10
-22.2567810080
20
26.8901831752
30
0.0000000000
10
-22.2526975330
20
26.8736828691
30
0.0000000000
10
-22.2449976136
20
26.8591922274
30
0.0000000000
11
-22.2567113464
21
26.9063683544
31
0.0000000000
11
-22.2449976136
21
26.8591922274
31
0.0000000000
0
SPLINE
5
3A1
100
AcDbEntity
8
0
100
AcDbSpline
62
9
6
CONTINUOUS
70
0
71
3
72
11
73
7
74
5
42
0.0000001000
43
0.0000001000
44
0.0000000001
12
-0.0000099794
22
-0.8719989764
32
0.0000000000
13
-0.0406215173
23
-0.8729697945
33
0.0000000000
40
0.0000000000
40
0.0000000000
40
0.0000000000
40
0.0000000000
40
0.3597385747
40
0.6690649980
40
0.9250091785
40
1.0000000000
40
1.0000000000
40
1.0000000000
40
1.0000000000
10
-22.2043233238
20
-23.9553468905
30
0.0000000000
10
-22.2043245204
20
-24.0599107801
30
0.0000000000
10
-22.2056033459
20
-24.2543545679
30
0.0000000000
10
-22.2105354826
20
-24.5233080268
30
0.0000000000
10
-22.2172711161
20
-24.7090230988
30
0.0000000000
10
-22.2212020998
20
-24.8054315266
30
0.0000000000
10
-22.2222175135
20
-24.8272531007
30
0.0000000000
11
-22.2043233238
21
-23.9553468905
31
0.0000000000
11
-22.2063613256
21
-24.2690319391
31
0.0000000000
11
-22.2116983083
21
-24.5387114591
31
0.0000000000
11
-22.2194436370
21
-24.7617600853
31
0.0000000000
11
-22.2222175135
21
-24.8272531007
31
0.0000000000
0
SPLINE
5
3A2
100
AcDbEntity
8
0
100
AcDbSpline
62
9
6
CONTINUOUS
70
0
71
3
72
10
73
6
74
4
42
0.0000001000
43
0.0000001000
44
0.0000000001
12
-0.0129864143
22
-0.2790823234
32
0.0000000000
13
-0.0322113418
23
-0.2819590214
33
0.0000000000
40
0.0000000000
40
0.0000000000
40
0.0000000000
40
0.0000000000
40
0.4208555379
40
0.9168176392
40
1.0000000000
40
1.0000000000
40
1.0000000000
40
1.0000000000
10
-22.2222175135
20
-24.8272531007
30
0.0000000000
10
-22.2240393149
20
-24.8664042144
30
0.0000000000
10
-22.2288820739
20
-24.9515191379
30
0.0000000000
10
-22.2392770985
20
-25.0425593481
30
0.0000000000
10
-22.2433346701
20
-25.0976577408
30
0.0000000000
10
-22.2442278085
20
-25.1054757465
30
0.0000000000
11
-22.2222175135
21
-24.8272531007
31
0.0000000000
11
-22.2294731053
21
-24.9441992544
31
0.0000000000
11
-22.2421286058
21
-25.0818791596
31
0.0000000000
11
-22.2442278085
21
-25.1054757465
31
0.0000000000
0
SPLINE
5
3A3
100
AcDbEntity
8
0
100
AcDbSpline
62
9
6
CONTINUOUS
70
0
71
3
72
8
73
4
74
2
42
0.0000001000
43
0.0000001000
44
0.0000000001
12
-0.0035991408
22
-0.0315047481
32
0.0000000000
13
-0.0095099733
23
-0.0294158070
33
0.0000000000
40
0.0000000000
40
0.0000000000
40
0.0000000000
40
0.0000000000
40
1.0000000000
40
1.0000000000
40
1.0000000000
40
1.0000000000
10
-22.2442278085
20
-25.1054757465
30
0.0000000000
10
-22.2454275221
20
-25.1159773292
30
0.0000000000
10
-22.2471872127
20
-25.1263061261
30
0.0000000000
10
-22.2503572038
20
-25.1361113951
30
0.0000000000
11
-22.2442278085
21
-25.1054757465
31
0.0000000000
11
-22.2503572038
21
-25.1361113951
31
0.0000000000
0
SPLINE
5
3A4
100
AcDbEntity
8
0
100
AcDbSpline
62
9
6
CONTINUOUS
70
0
71
3
72
8
73
4
74
2
42
0.0000001000
43
0.0000001000
44
0.0000000001
12
-0.0050418525
22
-0.0155952236
32
0.0000000000
13
-0.0078003862
23
-0.0145555226
33
0.0000000000
40
0.0000000000
40
0.0000000000
40
0.0000000000
40
0.0000000000
40
1.0000000000
40
1.0000000000
40
1.0000000000
40
1.0000000000
10
-22.2503572038
20
-25.1361113951
30
0.0000000000
10
-22.2520378213
20
-25.1413098029
30
0.0000000000
10
-22.2541148385
20
-25.1463610604
30
0.0000000000
10
-22.2567149673
20
-25.1512129012
30
0.0000000000
11
-22.2503572038
21
-25.1361113951
31
0.0000000000
11
-22.2567149673
21
-25.1512129012
31
0.0000000000
0
SPLINE
5
3A5
100
AcDbEntity
8
0
100
AcDbSpline
62
9
6
CONTINUOUS
70
0
71
3
72
9
73
5
74
3
42
0.0000001000
43
0.0000001000
44
0.0000000001
12
-1.6086338684
22
-0.0055685909
32
0.0000000000
13
-0.0000000807
23
-0.0000000002
33
0.0000000000
40
0.0000000000
40
0.0000000000
40
0.0000000000
40
0.0000000000
40
0.7498343230
40
1.0000000000
40
1.0000000000
40
1.0000000000
40
1.0000000000
10
-20.3466279476
20
-41.3047617073
30
0.0000000000
10
-20.7486975769
20
-41.3061535475
30
0.0000000000
10
-21.0838740649
20
-41.3073135294
30
0.0000000000
10
-21.9552620642
20
-41.3102560553
30
0.0000000000
10
-21.9552620709
20
-41.3102560553
30
0.0000000000
11
-20.3466279476
21
-41.3047617073
31
0.0000000000
11
-21.5528369797
21
-41.3088953740
31
0.0000000000
11
-21.9552620709
21
-41.3102560553
31
0.0000000000
0
SPLINE
5
3A6
100
AcDbEntity
8
0
100
AcDbSpline
62
9
6
CONTINUOUS
70
0
71
3
72
8
73
4
74
2
42
0.0000001000
43
0.0000001000
44
0.0000000001
12
0.0003552887
22
0.0083296067
32
0.0000000000
13
0.0008664516
23
0.0082805676
33
0.0000000000
40
0.0000000000
40
0.0000000000
40
0.0000000000
40
0.0000000000
40
1.0000000000
40
1.0000000000
40
1.0000000000
40
1.0000000000
10
-22.3940315213
20
25.5442644412
30
0.0000000000
10
-22.3939130918
20
25.5470409768
30
0.0000000000
10
-22.3937088492
20
25.5498125811
30
0.0000000000
10
-22.3934200319
20
25.5525727703
30
0.0000000000
11
-22.3940315213
21
25.5442644412
31
0.0000000000
11
-22.3934200319
21
25.5525727703
31
0.0000000000
0
SPLINE
5
3A7
100
AcDbEntity
8
0
100
AcDbSpline
62
9
6
CONTINUOUS
70
0
71
3
72
8
73
4
74
2
42
0.0000001000
43
0.0000001000
44
0.0000000001
12
-0.0258573782
22
0.0012393199
32
0.0000000000
13
-0.0258573779
23
0.0012393258
33
0.0000000000
40
0.0000000000
40
0.0000000000
40
0.0000000000
40
0.0000000000
40
1.0000000000
40
1.0000000000
40
1.0000000000
40
1.0000000000
10
-22.2044426600
20
-23.8562550205
30
0.0000000000
10
-22.2130617860
20
-23.8558419138
30
0.0000000000
10
-22.2216809121
20
-23.8554288062
30
0.0000000000
10
-22.2303000380
20
-23.8550156976
30
0.0000000000
11
-22.2044426600
21
-23.8562550205
31
0.0000000000
11
-22.2303000380
21
-23.8550156976
31
0.0000000000
0
SPLINE
5
3A8
100
AcDbEntity
8
0
100
AcDbSpline
62
9
6
CONTINUOUS
70
0
71
3
72
8
73
4
74
2
42
0.0000001000
43
0.0000001000
44
0.0000000001
12
-0.0450543690
22
0.0021586900
32
0.0000000000
13
-0.0450543681
23
0.0021587078
33
0.0000000000
40
0.0000000000
40
0.0000000000
40
0.0000000000
40
0.0000000000
40
1.0000000000
40
1.0000000000
40
1.0000000000
40
1.0000000000
10
-22.2239981741
20
-24.8499763708
30
0.0000000000
10
-22.2390162971
20
-24.8492568075
30
0.0000000000
10
-22.2540344199
20
-24.8485372412
30
0.0000000000
10
-22.2690525426
20
-24.8478176719
30
0.0000000000
11
-22.2239981741
21
-24.8499763708
31
0.0000000000
11
-22.2690525426
21
-24.8478176719
31
0.0000000000
0
SPLINE
5
3A9
100
AcDbEntity
8
0
100
AcDbSpline
62
9
6
CONTINUOUS
70
0
71
3
72
8
73
4
74
2
42
0.0000001000
43
0.0000001000
44
0.0000000001
12
0.0450594251
22
0.0021589501
32
0.0000000000
13
0.0450594259
23
0.0021589323
33
0.0000000000
40
0.0000000000
40
0.0000000000
40
0.0000000000
40
0.0000000000
40
1.0000000000
40
1.0000000000
40
1.0000000000
40
1.0000000000
10
-22.2690525426
20
26.6029731262
30
0.0000000000
10
-22.2540327343
20
26.6036927762
30
0.0000000000
10
-22.2390129258
20
26.6044124233
30
0.0000000000
10
-22.2239931171
20
26.6051320674
30
0.0000000000
11
-22.2690525426
21
26.6029731262
31
0.0000000000
11
-22.2239931171
21
26.6051320674
31
0.0000000000
0
SPLINE
5
3AA
100
AcDbEntity
8
0
100
AcDbSpline
62
9
6
CONTINUOUS
70
0
71
3
72
9
73
5
74
3
42
0.0000001000
43
0.0000001000
44
0.0000000001
12
-0.0372112443
22
0.0797681717
32
0.0000000000
13
0.0000000003
23
0.0000000002
33
0.0000000000
40
0.0000000000
40
0.0000000000
40
0.0000000000
40
0.0000000000
40
0.2102049673
40
1.0000000000
40
1.0000000000
40
1.0000000000
40
1.0000000000
10
-22.8725008797
20
26.5795591528
30
0.0000000000
10
-22.8751082092
20
26.5851483748
30
0.0000000000
10
-22.8881898622
20
26.6131909610
30
0.0000000000
10
-22.9051179689
20
26.6494790245
30
0.0000000000
10
-22.9051179688
20
26.6494790245
30
0.0000000000
11
-22.8725008797
21
26.5795591528
31
0.0000000000
11
-22.8807778260
21
26.5973020923
31
0.0000000000
11
-22.9051179688
21
26.6494790245
31
0.0000000000
0
SPLINE
5
3AB
100
AcDbEntity
8
0
100
AcDbSpline
62
9
6
CONTINUOUS
70
0
71
3
72
12
73
8
74
6
42
0.0000001000
43
0.0000001000
44
0.0000000001
12
-0.4808194431
22
1.0307128762
32
0.0000000000
13
-0.5799706732
23
1.2432586212
33
0.0000000000
40
0.0000000000
40
0.0000000000
40
0.0000000000
40
0.0000000000
40
0.3040892284
40
0.5575388120
40
0.7602856020
40
0.9123025855
40
1.0000000000
40
1.0000000000
40
1.0000000000
40
1.0000000000
10
-22.3934201550
20
25.5525727670
30
0.0000000000
10
-22.4421574928
20
25.6570489947
30
0.0000000000
10
-22.5312684456
20
25.8480729365
30
0.0000000000
10
-22.6540214316
20
26.1112135156
30
0.0000000000
10
-22.7491447512
20
26.3151257094
30
0.0000000000
10
-22.8256046849
20
26.4790297477
30
0.0000000000
10
-22.8554740688
20
26.5430594978
30
0.0000000000
10
-22.8724280450
20
26.5794030200
30
0.0000000000
11
-22.3934201550
21
25.5525727670
31
0.0000000000
11
-22.5396320260
21
25.8660015166
31
0.0000000000
11
-22.6614954436
21
26.1272352985
31
0.0000000000
11
-22.7589799762
21
26.3362090563
31
0.0000000000
11
-22.8320726852
21
26.4928949244
31
0.0000000000
11
-22.8724280450
21
26.5794030200
31
0.0000000000
0
SPLINE
5
3AC
100
AcDbEntity
8
0
100
AcDbSpline
62
9
6
CONTINUOUS
70
0
71
3
72
16
73
12
74
10
42
0.0000001000
43
0.0000001000
44
0.0000000001
12
-0.5402011683
22
1.0125355418
32
0.0000000000
13
-0.0000000401
23
-0.0000000235
33
0.0000000000
40
0.0000000000
40
0.0000000000
40
0.0000000000
40
0.0000000000
40
0.1205211196
40
0.2489943717
40
0.3817059529
40
0.5144207599
40
0.6423981674
40
0.7610988678
40
0.8659954555
40
0.9495819845
40
1.0000000000
40
1.0000000000
40
1.0000000000
40
1.0000000000
10
-22.3637114703
20
26.5035071894
30
0.0000000000
10
-22.3854133535
20
26.5441844951
30
0.0000000000
10
-22.4302562757
20
26.6282230330
30
0.0000000000
10
-22.4990081073
20
26.7570246048
30
0.0000000000
10
-22.5700132365
20
26.8900002822
30
0.0000000000
10
-22.6408091473
20
27.0225391613
30
0.0000000000
10
-22.7095913296
20
27.1512633306
30
0.0000000000
10
-22.7717185981
20
27.2674932831
30
0.0000000000
10
-22.8310111166
20
27.3783831299
30
0.0000000000
10
-22.8641213056
20
27.4403000279
30
0.0000000000
10
-22.9044566786
20
27.5157025092
30
0.0000000000
10
-22.9044566793
20
27.5157025088
30
0.0000000000
11
-22.3637114703
21
26.5035071894
31
0.0000000000
11
-22.4288253604
21
26.6255347098
31
0.0000000000
11
-22.4982538564
21
26.7556039844
31
0.0000000000
11
-22.5699924424
21
26.8899537526
31
0.0000000000
11
-22.6417520777
21
27.0242964759
31
0.0000000000
11
-22.7109688022
21
27.1538337379
31
0.0000000000
11
-22.7751855968
21
27.2739719311
31
0.0000000000
11
-22.8319470895
21
27.3801320565
31
0.0000000000
11
-22.8771857689
21
27.4647209102
31
0.0000000000
11
-22.9044566793
21
27.5157025088
31
0.0000000000
0
SPLINE
5
3AD
100
AcDbEntity
8
0
100
AcDbSpline
62
9
6
CONTINUOUS
70
0
71
3
72
16
73
12
74
10
42
0.0000001000
43
0.0000001000
44
0.0000000001
12
-0.5400944021
22
1.0129297160
32
0.0000000000
13
-0.0000000413
23
-0.0000000221
33
0.0000000000
40
0.0000000000
40
0.0000000000
40
0.0000000000
40
0.0000000000
40
0.1205213021
40
0.2489945690
40
0.3817061511
40
0.5144209423
40
0.6423983277
40
0.7610989953
40
0.8659955378
40
0.9495820238
40
1.0000000000
40
1.0000000000
40
1.0000000000
40
1.0000000000
10
-22.2690525426
20
26.6029731255
30
0.0000000000
10
-22.2907501694
20
26.6436663283
30
0.0000000000
10
-22.3355842680
20
26.7277376502
30
0.0000000000
10
-22.4043225526
20
26.8565894445
30
0.0000000000
10
-22.4753136620
20
26.9896169108
30
0.0000000000
10
-22.5460955929
20
27.1222074051
30
0.0000000000
10
-22.6148641846
20
27.2509817052
30
0.0000000000
10
-22.6769791739
20
27.3672569195
30
0.0000000000
10
-22.7362599774
20
27.4781899419
30
0.0000000000
10
-22.7693636138
20
27.5401309418
30
0.0000000000
10
-22.8096910081
20
27.6155627708
30
0.0000000000
10
-22.8096910088
20
27.6155627704
30
0.0000000000
11
-22.2690525426
21
26.6029731255
31
0.0000000000
11
-22.3341536656
21
26.7250483386
31
0.0000000000
11
-22.4035684545
21
26.8551682769
31
0.0000000000
11
-22.4752928758
21
26.9895703702
31
0.0000000000
11
-22.5470383380
21
27.1239654086
31
0.0000000000
11
-22.6162413878
21
27.2535531192
31
0.0000000000
11
-22.6804454925
21
27.3737380971
31
0.0000000000
11
-22.7371957650
21
27.4799395524
31
0.0000000000
11
-22.7824254973
21
27.5645613367
31
0.0000000000
11
-22.8096910088
21
27.6155627704
31
0.0000000000
0
SPLINE
5
3AE
100
AcDbEntity
8
0
100
AcDbSpline
62
9
6
CONTINUOUS
70
0
71
3
72
15
73
11
74
9
42
0.0000001000
43
0.0000001000
44
0.0000000001
12
-0.1508002840
22
0.0084943908
32
0.0000000000
13
-0.0006084171
23
0.1510381083
33
0.0000000000
40
0.0000000000
40
0.0000000000
40
0.0000000000
40
0.0000000000
40
0.1250741373
40
0.2502018997
40
0.3753425582
40
0.5004535694
40
0.6254965614
40
0.7504427436
40
0.8752769876
40
1.0000000000
40
1.0000000000
40
1.0000000000
40
1.0000000000
10
-22.2690525426
20
-24.8478176713
30
0.0000000000
10
-22.2753396144
20
-24.8474635284
30
0.0000000000
10
-22.2878813618
20
-24.8455610496
30
0.0000000000
10
-22.3058026057
20
-24.8392379205
30
0.0000000000
10
-22.3222312308
20
-24.8296686144
30
0.0000000000
10
-22.3365721244
20
-24.8171949343
30
0.0000000000
10
-22.3483155566
20
-24.8022623917
30
0.0000000000
10
-22.3570412547
20
-24.7854014513
30
0.0000000000
10
-22.3624371678
20
-24.7672228042
30
0.0000000000
10
-22.3636861755
20
-24.7546310444
30
0.0000000000
10
-22.3637114701
20
-24.7483517351
30
0.0000000000
11
-22.2690525426
21
-24.8478176713
31
0.0000000000
11
-22.2877298587
21
-24.8449835815
31
0.0000000000
11
-22.3055529370
21
-24.8386972341
31
0.0000000000
11
-22.3218850325
21
-24.8291832144
31
0.0000000000
11
-22.3361426665
21
-24.8167814190
31
0.0000000000
11
-22.3478164727
21
-24.8019349130
31
0.0000000000
11
-22.3564893940
21
-24.7851741009
31
0.0000000000
11
-22.3618515828
21
-24.7670977774
31
0.0000000000
11
-22.3637114701
21
-24.7483517351
31
0.0000000000
0
SPLINE
5
3AF
100
AcDbEntity
8
0
100
AcDbSpline
62
9
6
CONTINUOUS
70
0
71
3
72
16
73
12
74
10
42
0.0000001000
43
0.0000001000
44
0.0000000001
12
-0.5401445962
22
-1.0124295050
32
0.0000000000
13
0.0000000015
23
-0.0000000009
33
0.0000000000
40
0.0000000000
40
0.0000000000
40
0.0000000000
40
0.0000000000
40
0.1205088115
40
0.2489468122
40
0.3816186203
40
0.5143041936
40
0.6422733739
40
0.7609823080
40
0.8659008591
40
0.9495310696
40
1.0000000000
40
1.0000000000
40
1.0000000000
40
1.0000000000
10
-22.3637114703
20
-24.7483517351
30
0.0000000000
10
-22.3854088647
20
-24.7890206272
30
0.0000000000
10
-22.4302385286
20
-24.8730343210
30
0.0000000000
10
-22.4989674094
20
-25.0017929135
30
0.0000000000
10
-22.5699463543
20
-25.1347195893
30
0.0000000000
10
-22.6407207110
20
-25.2672181671
30
0.0000000000
10
-22.7094911795
20
-25.3959204766
30
0.0000000000
10
-22.7716130174
20
-25.5121403421
30
0.0000000000
10
-22.8309223003
20
-25.6230615739
30
0.0000000000
10
-22.8640210839
20
-25.6849572046
30
0.0000000000
10
-22.9044229273
20
-25.7604839591
30
0.0000000000
10
-22.9044229273
20
-25.7604839591
30
0.0000000000
11
-22.3637114703
21
-24.7483517351
31
0.0000000000
11
-22.4288118907
21
-24.8703540166
31
0.0000000000
11
-22.4982140603
21
-25.0003739881
31
0.0000000000
11
-22.5699236212
21
-25.1346694346
31
0.0000000000
11
-22.6416599150
21
-25.2689685114
31
0.0000000000
11
-22.7108649146
21
-25.3984838956
31
0.0000000000
11
-22.7750794112
21
-25.5186178544
31
0.0000000000
11
-22.8318468231
21
-25.6247890986
31
0.0000000000
11
-22.8771043860
21
-25.7094133039
31
0.0000000000
11
-22.9044229273
21
-25.7604839591
31
0.0000000000
0
SPLINE
5
3B0
100
AcDbEntity
8
0
100
AcDbSpline
62
9
6
CONTINUOUS
70
0
71
3
72
16
73
12
74
10
42
0.0000001000
43
0.0000001000
44
0.0000000001
12
-0.5400378413
22
-1.0128236379
32
0.0000000000
13
0.0000000013
23
-0.0000000007
33
0.0000000000
40
0.0000000000
40
0.0000000000
40
0.0000000000
40
0.0000000000
40
0.1205089938
40
0.2489470093
40
0.3816188182
40
0.5143043758
40
0.6422735340
40
0.7609824355
40
0.8659009414
40
0.9495311089
40
1.0000000000
40
1.0000000000
40
1.0000000000
40
1.0000000000
10
-22.2690525426
20
-24.8478176713
30
0.0000000000
10
-22.2907456815
20
-24.8885024571
30
0.0000000000
10
-22.3355665244
20
-24.9725489250
30
0.0000000000
10
-22.4042818625
20
-25.1013577233
30
0.0000000000
10
-22.4752467928
20
-25.2343361689
30
0.0000000000
10
-22.5460071739
20
-25.3668863462
30
0.0000000000
10
-22.6147640543
20
-25.4956387779
30
0.0000000000
10
-22.6768736139
20
-25.6119039014
30
0.0000000000
10
-22.7361711786
20
-25.7228683211
30
0.0000000000
10
-22.7692634119
20
-25.7847880454
30
0.0000000000
10
-22.8096572634
20
-25.8603441962
30
0.0000000000
10
-22.8096572634
20
-25.8603441962
30
0.0000000000
11
-22.2690525426
21
-24.8478176713
31
0.0000000000
11
-22.3341401984
21
-24.9698676354
31
0.0000000000
11
-22.4035286661
21
-25.0999382513
31
0.0000000000
11
-22.4752240681
21
-25.2342860017
31
0.0000000000
11
-22.5469461933
21
-25.3686373767
31
0.0000000000
11
-22.6161375205
21
-25.4982032009
31
0.0000000000
11
-22.6803393277
21
-25.6183839428
31
0.0000000000
11
-22.7370955184
21
-25.7245965213
31
0.0000000000
11
-22.7823441305
21
-25.8092536711
31
0.0000000000
11
-22.8096572634
21
-25.8603441962
31
0.0000000000
0
SPLINE
5
3B1
100
AcDbEntity
8
0
100
AcDbSpline
62
9
6
CONTINUOUS
70
0
71
3
72
22
73
18
74
16
42
0.0000001000
43
0.0000001000
44
0.0000000001
12
-0.0000007646
22
-0.8953823397
32
0.0000000000
13
-0.4214020827
23
-0.7900188726
33
0.0000000000
40
0.0000000000
40
0.0000000000
40
0.0000000000
40
0.0000000000
40
0.0989436351
40
0.1969015938
40
0.2928864131
40
0.3859749681
40
0.4752813247
40
0.5599543440
40
0.6391850045
40
0.7122122442
40
0.7783338069
40
0.8369103552
40
0.8873747704
40
0.9292405490
40
0.9621153491
40
0.9857240063
40
1.0000000000
40
1.0000000000
40
1.0000000000
40
1.0000000000
10
-22.3249512976
20
-23.8550156976
30
0.0000000000
10
-22.3249513228
20
-23.8845464921
30
0.0000000000
10
-22.3250901299
20
-23.9433139926
30
0.0000000000
10
-22.3257140476
20
-24.0307271973
30
0.0000000000
10
-22.3267461824
20
-24.1163889390
30
0.0000000000
10
-22.3281749245
20
-24.1994624731
30
0.0000000000
10
-22.3299844427
20
-24.2791516772
30
0.0000000000
10
-22.3321549480
20
-24.3546942552
30
0.0000000000
10
-22.3346625505
20
-24.4253650397
30
0.0000000000
10
-22.3374798980
20
-24.4904823903
30
0.0000000000
10
-22.3405743103
20
-24.5494161275
30
0.0000000000
10
-22.3439132304
20
-24.6015879817
30
0.0000000000
10
-22.3474453858
20
-24.6464969929
30
0.0000000000
10
-22.3511509804
20
-24.6836690697
30
0.0000000000
10
-22.3548863797
20
-24.7128310924
30
0.0000000000
10
-22.3587458952
20
-24.7335216494
30
0.0000000000
10
-22.3617061591
20
-24.7445923003
30
0.0000000000
10
-22.3637114703
20
-24.7483517351
30
0.0000000000
11
-22.3249512976
21
-23.8550156976
31
0.0000000000
11
-22.3251616890
21
-23.9436078313
31
0.0000000000
11
-22.3257907677
21
-24.0313154016
31
0.0000000000
11
-22.3268314647
21
-24.1172522124
31
0.0000000000
11
-22.3282724011
21
-24.2005896044
31
0.0000000000
11
-22.3300981898
21
-24.2805320922
31
0.0000000000
11
-22.3322895973
21
-24.3563151406
31
0.0000000000
11
-22.3348237534
21
-24.4272115983
31
0.0000000000
11
-22.3376743427
21
-24.4925367330
31
0.0000000000
11
-22.3408120114
21
-24.5516576098
31
0.0000000000
11
-22.3442045678
21
-24.6039961802
31
0.0000000000
11
-22.3478173805
21
-24.6490364615
31
0.0000000000
11
-22.3516137103
21
-24.6863296108
31
0.0000000000
11
-22.3555552365
21
-24.7155000401
31
0.0000000000
11
-22.3596020689
21
-24.7362478337
31
0.0000000000
11
-22.3637114703
21
-24.7483517351
31
0.0000000000
0
SPLINE
5
3B2
100
AcDbEntity
8
0
100
AcDbSpline
62
9
6
CONTINUOUS
70
0
71
3
72
22
73
18
74
16
42
0.0000001000
43
0.0000001000
44
0.0000000001
12
-0.0047446237
22
-0.9943822955
32
0.0000000000
13
-0.3873356078
23
-0.9158546762
33
0.0000000000
40
0.0000000000
40
0.0000000000
40
0.0000000000
40
0.0000000000
40
0.0990247095
40
0.1970080252
40
0.2930231225
40
0.3861442906
40
0.4754847802
40
0.5601921080
40
0.6394558134
40
0.7125133223
40
0.7786605619
40
0.8372552395
40
0.8877261221
40
0.9295803653
40
0.9624147549
40
0.9859304615
40
1.0000000000
40
1.0000000000
40
1.0000000000
40
1.0000000000
10
-22.2303000283
20
-23.8550156976
30
0.0000000000
10
-22.2304566400
20
-23.8878385036
30
0.0000000000
10
-22.2308903033
20
-23.9531384198
30
0.0000000000
10
-22.2319026855
20
-24.0502601431
30
0.0000000000
10
-22.2332645109
20
-24.1454206118
30
0.0000000000
10
-22.2349612609
20
-24.2377104540
30
0.0000000000
10
-22.2369745899
20
-24.3262449173
30
0.0000000000
10
-22.2392828604
20
-24.4101773063
30
0.0000000000
10
-22.2418609552
20
-24.4887020247
30
0.0000000000
10
-22.2446810593
20
-24.5610620042
30
0.0000000000
10
-22.2477105402
20
-24.6265566892
30
0.0000000000
10
-22.2509184167
20
-24.6845442534
30
0.0000000000
10
-22.2542537258
20
-24.7344636456
30
0.0000000000
10
-22.2577046324
20
-24.7757954616
30
0.0000000000
10
-22.2611194313
20
-24.8082038357
30
0.0000000000
10
-22.2646298523
20
-24.8312219148
30
0.0000000000
10
-22.2672359875
20
-24.8435222513
30
0.0000000000
10
-22.2690525319
20
-24.8478174688
30
0.0000000000
11
-22.2303000283
21
-23.8550156976
31
0.0000000000
11
-22.2309549979
21
-23.9534830582
31
0.0000000000
11
-22.2319732321
21
-24.0509117209
31
0.0000000000
11
-22.2333440343
21
-24.1463786795
31
0.0000000000
11
-22.2350528670
21
-24.2389620056
31
0.0000000000
11
-22.2370818059
21
-24.3277784463
31
0.0000000000
11
-22.2394096722
21
-24.4119786994
31
0.0000000000
11
-22.2420122628
21
-24.4907550418
31
0.0000000000
11
-22.2448625655
21
-24.5633470256
31
0.0000000000
11
-22.2479311811
21
-24.6290518003
31
0.0000000000
11
-22.2511865030
21
-24.6872269654
31
0.0000000000
11
-22.2545951338
21
-24.7372990024
31
0.0000000000
11
-22.2581222076
21
-24.7787688734
31
0.0000000000
11
-22.2617319316
21
-24.8112190269
31
0.0000000000
11
-22.2653874883
21
-24.8343153949
31
0.0000000000
11
-22.2690525319
21
-24.8478174688
31
0.0000000000
0
SPLINE
5
3B3
100
AcDbEntity
8
0
100
AcDbSpline
62
9
6
CONTINUOUS
70
0
71
3
72
15
73
11
74
9
42
0.0000001000
43
0.0000001000
44
0.0000000001
12
-0.1508000961
22
-0.0084943629
32
0.0000000000
13
-0.0006087095
23
-0.1510379180
33
0.0000000000
40
0.0000000000
40
0.0000000000
40
0.0000000000
40
0.0000000000
40
0.1250741432
40
0.2502019104
40
0.3753425719
40
0.5004535840
40
0.6254965748
40
0.7504427539
40
0.8752769932
40
1.0000000000
40
1.0000000000
40
1.0000000000
40
1.0000000000
10
-22.2690525319
20
26.6029729231
30
0.0000000000
10
-22.2753395962
20
26.6026187814
30
0.0000000000
10
-22.2878813286
20
26.6007163079
30
0.0000000000
10
-22.3058025536
20
26.5943931952
30
0.0000000000
10
-22.3222311652
20
26.5848239128
30
0.0000000000
10
-22.3365720527
20
26.5723502622
30
0.0000000000
10
-22.3483154875
20
26.5574177526
30
0.0000000000
10
-22.3570411981
20
26.5405568462
30
0.0000000000
10
-22.3624371336
20
26.5223782315
30
0.0000000000
10
-22.3636861629
20
26.5097864905
30
0.0000000000
10
-22.3637114695
20
26.5035071894
30
0.0000000000
11
-22.2690525319
21
26.6029729231
31
0.0000000000
11
-22.2877298262
21
26.6001388411
31
0.0000000000
11
-22.3055528859
21
26.5938525100
31
0.0000000000
11
-22.3218849682
21
26.5843385137
31
0.0000000000
11
-22.3361425963
21
26.5719367474
31
0.0000000000
11
-22.3478164053
21
26.5570902739
31
0.0000000000
11
-22.3564893391
21
26.5403294955
31
0.0000000000
11
-22.3618515503
21
26.5222532040
31
0.0000000000
11
-22.3637114695
21
26.5035071894
31
0.0000000000
0
SPLINE
5
3B4
100
AcDbEntity
8
0
100
AcDbSpline
62
9
6
CONTINUOUS
70
0
71
3
72
22
73
18
74
16
42
0.0000001000
43
0.0000001000
44
0.0000000001
12
0.4214020783
22
-0.7900188749
32
0.0000000000
13
0.0000007645
23
-0.8953823397
33
0.0000000000
40
0.0000000000
40
0.0000000000
40
0.0000000000
40
0.0000000000
40
0.0142759937
40
0.0378846508
40
0.0707594510
40
0.1126252296
40
0.1630896448
40
0.2216661931
40
0.2877877558
40
0.3608149955
40
0.4400456560
40
0.5247186753
40
0.6140250319
40
0.7071135869
40
0.8030984062
40
0.9010563649
40
1.0000000000
40
1.0000000000
40
1.0000000000
40
1.0000000000
10
-22.3637114703
20
26.5035071894
30
0.0000000000
10
-22.3617061591
20
26.4997477545
30
0.0000000000
10
-22.3587458952
20
26.4886771037
30
0.0000000000
10
-22.3548863797
20
26.4679865467
30
0.0000000000
10
-22.3511509804
20
26.4388245240
30
0.0000000000
10
-22.3474453858
20
26.4016524472
30
0.0000000000
10
-22.3439132304
20
26.3567434360
30
0.0000000000
10
-22.3405743103
20
26.3045715818
30
0.0000000000
10
-22.3374798980
20
26.2456378446
30
0.0000000000
10
-22.3346625505
20
26.1805204940
30
0.0000000000
10
-22.3321549480
20
26.1098497095
30
0.0000000000
10
-22.3299844427
20
26.0343071314
30
0.0000000000
10
-22.3281749245
20
25.9546179274
30
0.0000000000
10
-22.3267461824
20
25.8715443932
30
0.0000000000
10
-22.3257140476
20
25.7858826516
30
0.0000000000
10
-22.3250901299
20
25.6984694468
30
0.0000000000
10
-22.3249513228
20
25.6397019464
30
0.0000000000
10
-22.3249512976
20
25.6101711519
30
0.0000000000
11
-22.3637114703
21
26.5035071894
31
0.0000000000
11
-22.3596020689
21
26.4914032880
31
0.0000000000
11
-22.3555552365
21
26.4706554944
31
0.0000000000
11
-22.3516137103
21
26.4414850651
31
0.0000000000
11
-22.3478173805
21
26.4041919158
31
0.0000000000
11
-22.3442045678
21
26.3591516345
31
0.0000000000
11
-22.3408120114
21
26.3068130641
31
0.0000000000
11
-22.3376743427
21
26.2476921873
31
0.0000000000
11
-22.3348237534
21
26.1823670526
31
0.0000000000
11
-22.3322895973
21
26.1114705949
31
0.0000000000
11
-22.3300981898
21
26.0356875465
31
0.0000000000
11
-22.3282724011
21
25.9557450587
31
0.0000000000
11
-22.3268314647
21
25.8724076667
31
0.0000000000
11
-22.3257907677
21
25.7864708559
31
0.0000000000
11
-22.3251616890
21
25.6987632855
31
0.0000000000
11
-22.3249512976
21
25.6101711519
31
0.0000000000
0
SPLINE
5
3B5
100
AcDbEntity
8
0
100
AcDbSpline
62
9
6
CONTINUOUS
70
0
71
3
72
22
73
18
74
16
42
0.0000001000
43
0.0000001000
44
0.0000000001
12
0.3873356084
22
-0.9158546759
32
0.0000000000
13
0.0047446237
23
-0.9943822955
33
0.0000000000
40
0.0000000000
40
0.0000000000
40
0.0000000000
40
0.0000000000
40
0.0140695381
40
0.0375852447
40
0.0704196342
40
0.1122738773
40
0.1627447597
40
0.2213394373
40
0.2874866768
40
0.3605441857
40
0.4398078910
40
0.5245152188
40
0.6138557084
40
0.7069768764
40
0.8029919738
40
0.9009752892
40
1.0000000000
40
1.0000000000
40
1.0000000000
40
1.0000000000
10
-22.2690525319
20
26.6029729231
30
0.0000000000
10
-22.2672359876
20
26.5986777057
30
0.0000000000
10
-22.2646298523
20
26.5863773693
30
0.0000000000
10
-22.2611194314
20
26.5633592904
30
0.0000000000
10
-22.2577046324
20
26.5309509163
30
0.0000000000
10
-22.2542537259
20
26.4896191005
30
0.0000000000
10
-22.2509184167
20
26.4396997084
30
0.0000000000
10
-22.2477105403
20
26.3817121443
30
0.0000000000
10
-22.2446810593
20
26.3162174593
30
0.0000000000
10
-22.2418609552
20
26.2438574799
30
0.0000000000
10
-22.2392828604
20
26.1653327615
30
0.0000000000
10
-22.2369745900
20
26.0814003726
30
0.0000000000
10
-22.2349612609
20
25.9928659093
30
0.0000000000
10
-22.2332645109
20
25.9005760670
30
0.0000000000
10
-22.2319026855
20
25.8054155985
30
0.0000000000
10
-22.2308903033
20
25.7082938748
30
0.0000000000
10
-22.2304566400
20
25.6429939583
30
0.0000000000
10
-22.2303000283
20
25.6101711519
30
0.0000000000
11
-22.2690525319
21
26.6029729231
31
0.0000000000
11
-22.2653874883
21
26.5894708495
31
0.0000000000
11
-22.2617319316
21
26.5663744816
31
0.0000000000
11
-22.2581222076
21
26.5339243282
31
0.0000000000
11
-22.2545951338
21
26.4924544572
31
0.0000000000
11
-22.2511865031
21
26.4423824204
31
0.0000000000
11
-22.2479311812
21
26.3842072554
31
0.0000000000
11
-22.2448625656
21
26.3185024807
31
0.0000000000
11
-22.2420122629
21
26.2459104970
31
0.0000000000
11
-22.2394096722
21
26.1671341546
31
0.0000000000
11
-22.2370818059
21
26.0829339016
31
0.0000000000
11
-22.2350528670
21
25.9941174609
31
0.0000000000
11
-22.2333440343
21
25.9015341348
31
0.0000000000
11
-22.2319732322
21
25.8060671762
31
0.0000000000
11
-22.2309549979
21
25.7086385137
31
0.0000000000
11
-22.2303000283
21
25.6101711519
31
0.0000000000
0
SPLINE
5
3B6
100
AcDbEntity
8
0
100
AcDbSpline
62
9
6
CONTINUOUS
70
0
71
3
72
8
73
4
74
2
42
0.0000001000
43
0.0000001000
44
0.0000000001
12
-0.0628661105
22
-0.1347634981
32
0.0000000000
13
-0.0628129037
23
-0.1346496260
33
0.0000000000
40
0.0000000000
40
0.0000000000
40
0.0000000000
40
0.0000000000
40
1.0000000000
40
1.0000000000
40
1.0000000000
40
1.0000000000
10
-22.3934201596
20
-23.7974173218
30
0.0000000000
10
-22.4143755298
20
-23.8423384878
30
0.0000000000
10
-22.4353059397
20
-23.8872061934
30
0.0000000000
10
-22.4562435743
20
-23.9320894020
30
0.0000000000
11
-22.3934201596
21
-23.7974173218
31
0.0000000000
11
-22.4562435743
21
-23.9320894020
31
0.0000000000
0
SPLINE
5
3B7
100
AcDbEntity
8
0
100
AcDbSpline
62
9
6
CONTINUOUS
70
0
71
3
72
9
73
5
74
3
42
0.0000001000
43
0.0000001000
44
0.0000000001
12
-0.1627539539
22
-0.3488894437
32
0.0000000000
13
-0.1627867808
23
-0.3489595188
33
0.0000000000
40
0.0000000000
40
0.0000000000
40
0.0000000000
40
0.0000000000
40
0.5116656914
40
1.0000000000
40
1.0000000000
40
1.0000000000
40
1.0000000000
10
-22.4562435743
20
-23.9320894020
30
0.0000000000
10
-22.4840021124
20
-23.9915943215
30
0.0000000000
10
-22.5382782483
20
-24.1079440590
30
0.0000000000
10
-22.5928893616
20
-24.2250117194
30
0.0000000000
10
-22.6193874850
20
-24.2818146879
30
0.0000000000
11
-22.4562435743
21
-23.9320894020
31
0.0000000000
11
-22.5396322833
21
-24.1108466128
31
0.0000000000
11
-22.6193874850
21
-24.2818146879
31
0.0000000000
0
SPLINE
5
3B8
100
AcDbEntity
8
0
100
AcDbSpline
62
9
6
CONTINUOUS
70
0
71
3
72
11
73
7
74
5
42
0.0000001000
43
0.0000001000
44
0.0000000001
12
-0.2549573646
22
-0.5465419171
32
0.0000000000
13
-0.3080437836
23
-0.6603404381
33
0.0000000000
40
0.0000000000
40
0.0000000000
40
0.0000000000
40
0.0000000000
40
0.1658733560
40
0.5479832115
40
0.8344840500
40
1.0000000000
40
1.0000000000
40
1.0000000000
40
1.0000000000
10
-22.6193874850
20
-24.2818146879
30
0.0000000000
10
-22.6334843629
20
-24.3120336019
30
0.0000000000
10
-22.6798958663
20
-24.4115240883
30
0.0000000000
10
-22.7491450730
20
-24.5599709451
30
0.0000000000
10
-22.8256265491
20
-24.7239211639
30
0.0000000000
10
-22.8555054917
20
-24.7879714050
30
0.0000000000
10
-22.8725008782
20
-24.8244036966
30
0.0000000000
11
-22.6193874850
21
-24.2818146879
31
0.0000000000
11
-22.6614957987
21
-24.3720806042
31
0.0000000000
11
-22.7589803150
21
-24.5810543287
31
0.0000000000
11
-22.8320729336
21
-24.7377400037
31
0.0000000000
11
-22.8725008782
21
-24.8244036966
31
0.0000000000
0
SPLINE
5
3B9
100
AcDbEntity
8
0
100
AcDbSpline
62
9
6
CONTINUOUS
70
0
71
3
72
9
73
5
74
3
42
0.0000001000
43
0.0000001000
44
0.0000000001
12
-0.0372112064
22
-0.0797680903
32
0.0000000000
13
-0.0000000003
23
0.0000000002
33
0.0000000000
40
0.0000000000
40
0.0000000000
40
0.0000000000
40
0.0000000000
40
0.2102084201
40
1.0000000000
40
1.0000000000
40
1.0000000000
40
1.0000000000
10
-22.8725008782
20
-24.8244036966
30
0.0000000000
10
-22.8751082479
20
-24.8299930047
30
0.0000000000
10
-22.8881898978
20
-24.8580355842
30
0.0000000000
10
-22.9051180076
20
-24.8943236542
30
0.0000000000
10
-22.9051180077
20
-24.8943236542
30
0.0000000000
11
-22.8725008782
21
-24.8244036966
31
0.0000000000
11
-22.8807779596
21
-24.8421469256
31
0.0000000000
11
-22.9051180077
21
-24.8943236542
31
0.0000000000
0
SPLINE
5
3BA
100
AcDbEntity
8
0
100
AcDbSpline
62
9
6
CONTINUOUS
70
0
71
3
72
8
73
4
74
2
42
0.0000001000
43
0.0000001000
44
0.0000000001
12
0.0003554463
22
-0.0083220122
32
0.0000000000
13
0.0008656070
23
-0.0082730639
33
0.0000000000
40
0.0000000000
40
0.0000000000
40
0.0000000000
40
0.0000000000
40
1.0000000000
40
1.0000000000
40
1.0000000000
40
1.0000000000
10
-22.3940311794
20
-23.7891165548
30
0.0000000000
10
-22.3939126973
20
-23.7918905589
30
0.0000000000
10
-22.3937085662
20
-23.7946596364
30
0.0000000000
10
-22.3934200306
20
-23.7974173243
30
0.0000000000
11
-22.3940311794
21
-23.7891165548
31
0.0000000000
11
-22.3934200306
21
-23.7974173243
31
0.0000000000
0
ENDSEC
0
SECTION
2
OBJECTS
0
DICTIONARY
5
C
100
AcDbDictionary
280
0
281
1
3
ACAD_GROUP
350
D
3
ACAD_MLINESTYLE
350
17
3
ACAD_LAYOUT
350
1A
3
ACAD_PLOTSETTINGS
350
19
3
ACAD_PLOTSTYLENAME
350
E
0
DICTIONARY
5
D
102
{ACAD_REACTORS
330
C
102
}
100
AcDbDictionary
280
0
281
1
0
ACDBDICTIONARYWDFLT
5
E
102
{ACAD_REACTORS
330
C
102
}
100
AcDbDictionary
281
1
3
Normal
350
F
100
AcDbDictionaryWithDefault
340
F
0
DICTIONARY
5
17
102
{ACAD_REACTORS
330
C
102
}
100
AcDbDictionary
280
0
281
1
3
Standard
350
18
0
DICTIONARY
5
19
102
{ACAD_REACTORS
330
C
102
}
100
AcDbDictionary
281
1
0
DICTIONARY
5
1A
102
{ACAD_REACTORS
330
C
102
}
100
AcDbDictionary
281
1
3
Layout1
350
1E
3
Model
350
22
0
ACDBPLACEHOLDER
5
F
102
{ACAD_REACTORS
330
E
102
}
0
MLINESTYLE
5
18
102
{ACAD_REACTORS
330
17
102
}
100
AcDbMlineStyle
2
STANDARD
70
0
3

62
256
51
90.0
52
90.0
71
2
49
0.5
62
256
6
BYLAYER
49
-0.5
62
256
6
BYLAYER
0
LAYOUT
5
1E
102
{ACAD_REACTORS
330
1A
102
}
100
AcDbPlotSettings
1

2

4

6

40
0.0
41
0.0
42
0.0
43
0.0
44
0.0
45
0.0
46
0.0
47
0.0
48
0.0
49
0.0
140
0.0
141
0.0
142
1.0
143
1.0
70
0
72
0
73
0
74
0
7

75
0
147
1.0
148
0.0
149
0.0
100
AcDbLayout
1
Layout1
70
0
71
0
10
0.0
20
0.0
11
0.0
21
0.0
12
0.0
22
0.0
32
0.0
14
0.0
24
0.0
34
0.0
15
0.0
25
0.0
35
0.0
146
0.0
13
0.0
23
0.0
33
0.0
16
0.0
26
0.0
36
0.0
17
0.0
27
0.0
37
0.0
76
0
330
1B
331
0
345
0
346
0
0
LAYOUT
5
22
102
{ACAD_REACTORS
330
1A
102
}
100
AcDbPlotSettings
1

2

4

6

40
0.0
41
0.0
42
0.0
43
0.0
44
0.0
45
0.0
46
0.0
47
0.0
48
0.0
49
0.0
140
0.0
141
0.0
142
1.0
143
1.0
70
0
72
0
73
0
74
0
7

75
0
147
1.0
148
0.0
149
0.0
100
AcDbLayout
1
Model
70
0
71
0
10
0.0
20
0.0
11
0.0
21
0.0
12
0.0
22
0.0
32
0.0
14
0.0
24
0.0
34
0.0
15
0.0
25
0.0
35
0.0
146
0.0
13
0.0
23
0.0
33
0.0
16
0.0
26
0.0
36
0.0
17
0.0
27
0.0
37
0.0
76
0
330
1F
331
0
345
0
346
0
0
ENDSEC
0
EOF
