  0
SECTION
  2
HEADER
  9
$ACADVER
  1
AC1015
  9
$DWGCODEPAGE
  3
ANSI_1252
  9
$EXTMAX
 10
297.0
 20
210.0
 30
0.0
  9
$EXTMIN
 10
0.0
 20
0.0
 30
0.0
  9
$LIMMIN
 10
0.0
 20
0.0
  9
$LIMMAX
 10
297.0
 20
210.0
  9
$VIEWCTR
 10
148.5
 20
105.0
  9
$VIEWSIZE
 40
210.0
  9
$CLAYER
  8
0
  9
$LTSCALE
 40
16.335
  9
$CELTYPE
  6
BYLAYER
  9
$DIMSCALE
 40
1.0
  9
$DIMASZ
 40
3.0
  9
$DIMEXO
 40
0.5
  9
$DIMDLI
 40
11.286
  9
$DIMEXE
 40
1.5
  9
$DIMCEN
 40
2.673
  9
$DIMLFAC
 40
1.0
  9
$DIMBLK
  1
_FILLED
  9
$DIMTXT
 40
3.0
  9
$DIMTOL
 70
1
  9
$DIMLIM
 70
0
  9
$DIMTFAC
 40
1.0
  9
$DIMTP
 40
0.01
  9
$DIMTM
 40
0.01
  9
$DIMGAP
 40
0.625
  9
$DIMDSEP
 70
44
  9
$PDMODE
 70
3
  9
$PDSIZE
 40
3.0
  9
$HANDSEED
  5
450
  9
$TILEMODE
 70
1
  9
$MEASUREMENT
 70
1
  9
$INSUNITS
 70
4
  0
ENDSEC
  0
SECTION
  2
CLASSES
  0
CLASS
  1
ACDBDICTIONARYWDFLT
  2
AcDbDictionaryWithDefault
  3
AutoCAD 2000
 90
0
280
0
281
0
  0
CLASS
  1
ACDBPLACEHOLDER
  2
AcDbPlaceHolder
  3
AutoCAD 2000
 90
0
280
0
281
0
  0
CLASS
  1
LAYOUT
  2
AcDbLayout
  3
AutoCAD 2000
 90
0
280
0
281
0
  0
ENDSEC
  0
SECTION
  2
TABLES
  0
TABLE
  2
VPORT
  5
8
100
AcDbSymbolTable
 70
2
  0
VPORT
  5
1F4
100
AcDbSymbolTableRecord
100
AcDbViewportTableRecord
  2
*ACTIVE
 70
0
 10
0.0
 20
0.0
 11
1.0
 21
1.0
 12
148.5
 22
105.0
 13
0.0
 23
0.0
 14
1.0
 24
1.0
 15
0.0
 25
0.0
 16
0.0
 26
0.0
 36
1.0
 17
0.0
 27
0.0
 37
0.0
 40
210.0
 41
1.4142857143
 42
50.0
 43
0.0
 44
0.0
 50
0.0
 51
0.0
 71
0
 72
100
 73
1
 74
1
 75
0
 76
0
 77
0
 78
0
  0
ENDTAB
  0
TABLE
  2
LTYPE
  5
5
100
AcDbSymbolTable
 70
6
  0
LTYPE
  5
14
100
AcDbSymbolTableRecord
100
AcDbLinetypeTableRecord
  2
BYBLOCK
 70
0
  3

 72
65
 73
0
 40
0.0
  0
LTYPE
  5
15
100
AcDbSymbolTableRecord
100
AcDbLinetypeTableRecord
  2
BYLAYER
 70
0
  3

 72
65
 73
0
 40
0.0
  0
LTYPE
  5
16
100
AcDbSymbolTableRecord
100
AcDbLinetypeTableRecord
  2
CONTINUOUS
 70
64
  3
Solid line
 72
65
 73
0
 40
0.0
  0
LTYPE
  5
1F5
100
AcDbSymbolTableRecord
100
AcDbLinetypeTableRecord
  2
CENTER
 70
64
  3
____ _ ____ _ ____ _ ____ _ ____ _ ____ _ ____
 72
65
 73
4
 40
0.6
 49
0.375
 74
0
 49
-0.075
 74
0
 49
0.075
 74
0
 49
-0.075
 74
0
  0
LTYPE
  5
1F6
100
AcDbSymbolTableRecord
100
AcDbLinetypeTableRecord
  2
HIDDEN
 70
64
  3
- - - - - - - - - - - - - - - - - - - -
 72
65
 73
2
 40
0.2
 49
0.1
 74
0
 49
-0.1
 74
0
  0
LTYPE
  5
1F7
100
AcDbSymbolTableRecord
100
AcDbLinetypeTableRecord
  2
PHANTOM
 70
64
  3
_____ _ _ _____ _ _ _____ _ _ _____
 72
65
 73
6
 40
0.8
 49
0.45
 74
0
 49
-0.05
 74
0
 49
0.1
 74
0
 49
-0.05
 74
0
 49
0.1
 74
0
 49
-0.05
 74
0
  0
LTYPE
  5
1F8
100
AcDbSymbolTableRecord
100
AcDbLinetypeTableRecord
  2
DOT
 70
64
  3
. . . . . . . . . . . . . . . . . . . .
 72
65
 73
2
 40
0.2
 49
0.1
 74
0
 49
-0.1
 74
0
  0
LTYPE
  5
1F9
100
AcDbSymbolTableRecord
100
AcDbLinetypeTableRecord
  2
DASHED
 70
64
  3
- - - - - - - - - - - - - - - - - - - -
 72
65
 73
2
 40
0.2
 49
0.1
 74
0
 49
-0.1
 74
0
  0
ENDTAB
  0
TABLE
  2
LAYER
  5
2
100
AcDbSymbolTable
 70
36
  0
LAYER
  5
10
100
AcDbSymbolTableRecord
100
AcDbLayerTableRecord
  2
0
 70
0
 62
7
  6
CONTINUOUS
370
-3
390
F
  0
LAYER
  5
1FA
100
AcDbSymbolTableRecord
100
AcDbLayerTableRecord
  2
DEFAULT_1
 70
0
 62
7
  6
CENTER
370
-3
390
F
  0
LAYER
  5
1FB
100
AcDbSymbolTableRecord
100
AcDbLayerTableRecord
  2
DEFAULT_2
 70
0
 62
7
  6
HIDDEN
370
-3
390
F
  0
LAYER
  5
1FC
100
AcDbSymbolTableRecord
100
AcDbLayerTableRecord
  2
DEFAULT_3
 70
0
 62
7
  6
PHANTOM
370
-3
390
F
  0
LAYER
  5
1FD
100
AcDbSymbolTableRecord
100
AcDbLayerTableRecord
  2
ASSI
 70
0
 62
7
  6
CONTINUOUS
370
-3
390
F
  0
LAYER
  5
1FE
100
AcDbSymbolTableRecord
100
AcDbLayerTableRecord
  2
COORDINATE
 70
0
 62
7
  6
CONTINUOUS
370
-3
390
F
  0
LAYER
  5
1FF
100
AcDbSymbolTableRecord
100
AcDbLayerTableRecord
  2
COORD_ORIGINE
 70
0
 62
7
  6
CONTINUOUS
370
-3
390
F
  0
LAYER
  5
200
100
AcDbSymbolTableRecord
100
AcDbLayerTableRecord
  2
COPY_DENTI
 70
0
 62
7
  6
CONTINUOUS
370
-3
390
F
  0
LAYER
  5
201
100
AcDbSymbolTableRecord
100
AcDbLayerTableRecord
  2
COPY_PLACCA
 70
0
 62
7
  6
CONTINUOUS
370
-3
390
F
  0
LAYER
  5
202
100
AcDbSymbolTableRecord
100
AcDbLayerTableRecord
  2
COPY_PUBLISH
 70
0
 62
7
  6
CONTINUOUS
370
-3
390
F
  0
LAYER
  5
203
100
AcDbSymbolTableRecord
100
AcDbLayerTableRecord
  2
COPY_SUPP
 70
0
 62
7
  6
CONTINUOUS
370
-3
390
F
  0
LAYER
  5
204
100
AcDbSymbolTableRecord
100
AcDbLayerTableRecord
  2
COSMETIC
 70
0
 62
7
  6
CONTINUOUS
370
-3
390
F
  0
LAYER
  5
205
100
AcDbSymbolTableRecord
100
AcDbLayerTableRecord
  2
CURVE
 70
0
 62
7
  6
CONTINUOUS
370
-3
390
F
  0
LAYER
  5
206
100
AcDbSymbolTableRecord
100
AcDbLayerTableRecord
  2
DRAFT
 70
0
 62
7
  6
CONTINUOUS
370
-3
390
F
  0
LAYER
  5
207
100
AcDbSymbolTableRecord
100
AcDbLayerTableRecord
  2
IMPORT_IGES
 70
0
 62
7
  6
CONTINUOUS
370
-3
390
F
  0
LAYER
  5
208
100
AcDbSymbolTableRecord
100
AcDbLayerTableRecord
  2
INTFCLR_1
 70
0
 62
7
  6
CONTINUOUS
370
-3
390
F
  0
LAYER
  5
209
100
AcDbSymbolTableRecord
100
AcDbLayerTableRecord
  2
NOTE
 70
0
 62
7
  6
CONTINUOUS
370
-3
390
F
  0
LAYER
  5
20A
100
AcDbSymbolTableRecord
100
AcDbLayerTableRecord
  2
PIANI
 70
0
 62
7
  6
CONTINUOUS
370
-3
390
F
  0
LAYER
  5
20B
100
AcDbSymbolTableRecord
100
AcDbLayerTableRecord
  2
PIANI_ORIGINE
 70
0
 62
7
  6
CONTINUOUS
370
-3
390
F
  0
LAYER
  5
20C
100
AcDbSymbolTableRecord
100
AcDbLayerTableRecord
  2
RACCORDO
 70
0
 62
7
  6
CONTINUOUS
370
-3
390
F
  0
LAYER
  5
20D
100
AcDbSymbolTableRecord
100
AcDbLayerTableRecord
  2
SKELETON
 70
0
 62
7
  6
CONTINUOUS
370
-3
390
F
  0
LAYER
  5
20E
100
AcDbSymbolTableRecord
100
AcDbLayerTableRecord
  2
SMUSSO
 70
0
 62
7
  6
CONTINUOUS
370
-3
390
F
  0
LAYER
  5
20F
100
AcDbSymbolTableRecord
100
AcDbLayerTableRecord
  2
SNAPLINE
 70
0
 62
7
  6
CONTINUOUS
370
-3
390
F
  0
LAYER
  5
210
100
AcDbSymbolTableRecord
100
AcDbLayerTableRecord
  2
SUPERFICI
 70
0
 62
7
  6
CONTINUOUS
370
-3
390
F
  0
LAYER
  5
211
100
AcDbSymbolTableRecord
100
AcDbLayerTableRecord
  2
TRASH
 70
0
 62
7
  6
CONTINUOUS
370
-3
390
F
  0
LAYER
  5
212
100
AcDbSymbolTableRecord
100
AcDbLayerTableRecord
  2
XSEC_DATUMS
 70
0
 62
7
  6
CONTINUOUS
370
-3
390
F
  0
ENDTAB
  0
TABLE
  2
STYLE
  5
3
100
AcDbSymbolTable
 70
1
  0
STYLE
  5
11
100
AcDbSymbolTableRecord
100
AcDbTextStyleTableRecord
  2
STANDARD
 70
0
 40
0.0
 41
0.8
 50
0.0
 71
0
 42
0.2
  3
txt
  4

  0
STYLE
  5
213
100
AcDbSymbolTableRecord
100
AcDbTextStyleTableRecord
  2
TEXTSTYLE_1
 70
0
 40
0.0
 41
0.8
 50
0.0
 71
0
 42
0.2
  3
gdt
  4

  0
ENDTAB
  0
TABLE
  2
VIEW
  5
6
100
AcDbSymbolTable
 70
0
  0
ENDTAB
  0
TABLE
  2
UCS
  5
7
100
AcDbSymbolTable
 70
0
  0
ENDTAB
  0
TABLE
  2
APPID
  5
9
100
AcDbSymbolTable
 70
1
  0
APPID
  5
214
100
AcDbSymbolTableRecord
100
AcDbRegAppTableRecord
  2
ACAD
 70
0
  0
ENDTAB
  0
TABLE
  2
BLOCK_RECORD
  5
1
100
AcDbSymbolTable
 70
0
  0
BLOCK_RECORD
  5
215
100
AcDbSymbolTableRecord
100
AcDbBlockTableRecord
  2
*Model_Space
  0
BLOCK_RECORD
  5
216
100
AcDbSymbolTableRecord
100
AcDbBlockTableRecord
  2
*Paper_Space
  0
BLOCK_RECORD
  5
217
100
AcDbSymbolTableRecord
100
AcDbBlockTableRecord
  2
_FILLED
  0
BLOCK_RECORD
  5
218
100
AcDbSymbolTableRecord
100
AcDbBlockTableRecord
  2
*D0
  0
BLOCK_RECORD
  5
219
100
AcDbSymbolTableRecord
100
AcDbBlockTableRecord
  2
*D1
  0
BLOCK_RECORD
  5
21A
100
AcDbSymbolTableRecord
100
AcDbBlockTableRecord
  2
*D2
  0
ENDTAB
  0
TABLE
  2
DIMSTYLE
  5
A
100
AcDbSymbolTable
 70
1
100
AcDbDimStyleTable
 71
0
  0
DIMSTYLE
105
21B
100
AcDbSymbolTableRecord
100
AcDbDimStyleTableRecord
  2
STANDARD
 70
0
  3

  4

 40
1.0
 41
3.0
 42
0.5
 43
0.38
 44
1.5
 45
0.0
 46
0.0
 47
0.01
 48
0.01
140
3.0
141
0.09
142
0.0
143
25.4
144
1.0
145
0.0
146
1.0
147
0.625
 71
1.0
 72
0.0
 73
0
 74
0
 75
0
 76
0
 77
1
 78
8
170
0
171
2
172
0
173
0
174
0
175
0
176
0
177
0
178
0
270
2
271
2
272
2
273
2
274
2
275
0
280
0
281
0
282
0
283
1
284
8
285
0
286
0
287
3
288
0
340
11
278
44
341
217
342
217
343
217
344
217
  0
DIMSTYLE
105
21C
100
AcDbSymbolTableRecord
100
AcDbDimStyleTableRecord
  2
DIMSTYLE_1
 70
0
  3

  4

 40
1.0
 41
3.0
 42
0.5
 43
0.38
 44
1.5
 45
0.0
 46
0.0
 47
0.0
 48
0.0
140
3.0
141
0.09
142
0.0
143
25.4
144
1.0
145
0.0
146
1.0
147
0.75
 71
0.0
 72
0.0
 73
0
 74
0
 75
0
 76
0
 77
1
 78
8
170
0
171
2
172
0
173
0
174
0
175
0
176
0
177
0
178
0
270
2
271
2
272
2
273
2
274
2
275
0
280
0
281
0
282
0
283
1
284
8
285
0
286
0
287
3
288
0
340
11
278
44
341
217
342
217
343
217
344
217
  0
ENDTAB
  0
ENDSEC
  0
SECTION
  2
BLOCKS
  0
BLOCK
  5
20
100
AcDbEntity
  8
0
100
AcDbBlockBegin
  2
*Model_Space
 70
0
 10
0.0
 20
0.0
 30
0.0
  3
*Model_Space
  1

  0
ENDBLK
  5
21
100
AcDbEntity
  8
0
100
AcDbBlockEnd
  0
BLOCK
  5
1C
100
AcDbEntity
  8
0
100
AcDbBlockBegin
  2
*Paper_Space
 70
0
 10
0.0
 20
0.0
 30
0.0
  3
*Paper_Space
  1

  0
ENDBLK
  5
1D
100
AcDbEntity
  8
0
100
AcDbBlockEnd
  0
BLOCK
  5
21D
100
AcDbEntity
  8
0
100
AcDbBlockBegin
  2
_FILLED
 70
64
 10
0.0
 20
0.0
  3
_FILLED
  1

  0
SOLID
  5
21E
100
AcDbEntity
  8
0
  6
BYBLOCK
 62
0
100
AcDbTrace
 10
0.0
 20
0.0
 11
-1.0
 21
0.3166666667
 12
-1.0
 22
-0.3166666667
 13
-1.0
 23
-0.3166666667
  0
ENDBLK
  5
21F
100
AcDbEntity
  8
0
  6
BYBLOCK
 62
0
100
AcDbBlockEnd
  0
BLOCK
  5
220
100
AcDbEntity
  8
0
100
AcDbBlockBegin
 62
7
  6
CONTINUOUS
  2
*D0
 70
65
 10
0.0
 20
0.0
  3
*D0
  1

  0
MTEXT
  5
221
100
AcDbEntity
  8
0
100
AcDbMText
 62
7
  6
CONTINUOUS
  7
STANDARD
 71
2
 72
1
 10
97.9932053605
 20
161.5139657788
 30
0.0
 11
1.0
 21
0.0
 31
0.0
 44
0.9
  1
10
 40
3.0
 41
4.0714285714
  0
LINE
  5
222
100
AcDbEntity
  8
0
100
AcDbLine
 62
7
  6
CONTINUOUS
 10
92.9932053605
 20
131.8074767436
 11
92.9932053605
 21
159.2639657788
  0
LINE
  5
223
100
AcDbEntity
  8
0
100
AcDbLine
 62
7
  6
CONTINUOUS
 10
102.9932053605
 20
145.3839532911
 11
102.9932053605
 21
159.2639657788
  0
LINE
  5
224
100
AcDbEntity
  8
0
100
AcDbLine
 62
7
  6
CONTINUOUS
 10
92.9932053605
 20
157.7639657788
 11
88.9932053605
 21
157.7639657788
  0
LINE
  5
225
100
AcDbEntity
  8
0
100
AcDbLine
 62
7
  6
CONTINUOUS
 10
88.9932053605
 20
157.7639657788
 11
97.9932053605
 21
157.7639657788
  0
LINE
  5
226
100
AcDbEntity
  8
0
100
AcDbLine
 62
7
  6
CONTINUOUS
 10
102.9932053605
 20
157.7639657788
 11
106.9932053605
 21
157.7639657788
  0
LINE
  5
227
100
AcDbEntity
  8
0
100
AcDbLine
 62
7
  6
CONTINUOUS
 10
106.9932053605
 20
157.7639657788
 11
97.9932053605
 21
157.7639657788
  0
INSERT
  5
228
100
AcDbEntity
  8
0
100
AcDbBlockReference
 62
7
  6
CONTINUOUS
  2
_FILLED
 10
92.9932053605
 20
157.7639657788
 41
3.0
 42
3.0
 43
3.0
  0
INSERT
  5
229
100
AcDbEntity
  8
0
100
AcDbBlockReference
 62
7
  6
CONTINUOUS
  2
_FILLED
 10
102.9932053605
 20
157.7639657788
 41
3.0
 42
3.0
 43
3.0
 50
180.0
  0
ENDBLK
  5
22A
100
AcDbEntity
  8
0
  6
BYBLOCK
 62
0
100
AcDbBlockEnd
  0
BLOCK
  5
22B
100
AcDbEntity
  8
0
100
AcDbBlockBegin
 62
7
  6
CONTINUOUS
  2
*D1
 70
65
 10
0.0
 20
0.0
  3
*D1
  1

  0
MTEXT
  5
22C
100
AcDbEntity
  8
0
100
AcDbMText
 62
7
  6
CONTINUOUS
  7
STANDARD
 71
2
 72
1
 10
163.7809063698
 20
161.1339532911
 30
0.0
 11
1.0
 21
0.0
 31
0.0
 44
0.9
  1
85
 40
3.0
 41
4.5
  0
LINE
  5
22D
100
AcDbEntity
  8
0
100
AcDbLine
 62
7
  6
CONTINUOUS
 10
122.9903280964
 20
145.3839532911
 11
122.9903280964
 21
158.8839532911
  0
LINE
  5
22E
100
AcDbEntity
  8
0
100
AcDbLine
 62
7
  6
CONTINUOUS
 10
207.9903280964
 20
145.3839532911
 11
207.9903280964
 21
158.8839532911
  0
LINE
  5
22F
100
AcDbEntity
  8
0
100
AcDbLine
 62
7
  6
CONTINUOUS
 10
122.9903280964
 20
157.3839532911
 11
165.4903280964
 21
157.3839532911
  0
LINE
  5
230
100
AcDbEntity
  8
0
100
AcDbLine
 62
7
  6
CONTINUOUS
 10
207.9903280964
 20
157.3839532911
 11
165.4903280964
 21
157.3839532911
  0
INSERT
  5
231
100
AcDbEntity
  8
0
100
AcDbBlockReference
 62
7
  6
CONTINUOUS
  2
_FILLED
 10
122.9903280964
 20
157.3839532911
 41
3.0
 42
3.0
 43
3.0
 50
180.0
  0
INSERT
  5
232
100
AcDbEntity
  8
0
100
AcDbBlockReference
 62
7
  6
CONTINUOUS
  2
_FILLED
 10
207.9903280964
 20
157.3839532911
 41
3.0
 42
3.0
 43
3.0
  0
ENDBLK
  5
233
100
AcDbEntity
  8
0
  6
BYBLOCK
 62
0
100
AcDbBlockEnd
  0
BLOCK
  5
234
100
AcDbEntity
  8
0
100
AcDbBlockBegin
 62
7
  6
CONTINUOUS
  2
*D2
 70
65
 10
0.0
 20
0.0
  3
*D2
  1

  0
MTEXT
  5
235
100
AcDbEntity
  8
0
100
AcDbMText
 62
7
  6
CONTINUOUS
  7
STANDARD
 71
2
 72
1
 10
217.7034599068
 20
104.3839532911
 30
0.0
 11
0.0
 21
1.0
 31
0.0
 44
0.9
  1
85
 40
3.0
 41
4.5
  0
LINE
  5
236
100
AcDbEntity
  8
0
100
AcDbLine
 62
7
  6
CONTINUOUS
 10
206.4903280997
 20
146.8839532911
 11
222.9534599068
 21
146.8839532911
  0
LINE
  5
237
100
AcDbEntity
  8
0
100
AcDbLine
 62
7
  6
CONTINUOUS
 10
206.4903280997
 20
61.8839532911
 11
222.9534599068
 21
61.8839532911
  0
LINE
  5
238
100
AcDbEntity
  8
0
100
AcDbLine
 62
7
  6
CONTINUOUS
 10
221.4534599068
 20
146.8839532911
 11
221.4534599068
 21
104.3839532911
  0
LINE
  5
239
100
AcDbEntity
  8
0
100
AcDbLine
 62
7
  6
CONTINUOUS
 10
221.4534599068
 20
61.8839532911
 11
221.4534599068
 21
104.3839532911
  0
INSERT
  5
23A
100
AcDbEntity
  8
0
100
AcDbBlockReference
 62
7
  6
CONTINUOUS
  2
_FILLED
 10
221.4534599068
 20
146.8839532911
 41
3.0
 42
3.0
 43
3.0
 50
90.0
  0
INSERT
  5
23B
100
AcDbEntity
  8
0
100
AcDbBlockReference
 62
7
  6
CONTINUOUS
  2
_FILLED
 10
221.4534599068
 20
61.8839532911
 41
3.0
 42
3.0
 43
3.0
 50
270.0
  0
ENDBLK
  5
23C
100
AcDbEntity
  8
0
  6
BYBLOCK
 62
0
100
AcDbBlockEnd
  0
ENDSEC
  0
SECTION
  2
ENTITIES
  0
DIMENSION
  5
23D
100
AcDbEntity
  8
0
100
AcDbDimension
 62
7
  6
CONTINUOUS
  2
*D0
 10
102.9932053605
 20
157.7639657788
 11
97.9932053605
 21
157.7639657788
 70
160
 71
2
 42
10.0
  3
DIMSTYLE_1
100
AcDbAlignedDimension
 13
92.9932053605
 23
131.3074767436
 14
102.9932053605
 24
144.8839532911
100
AcDbRotatedDimension
  0
DIMENSION
  5
23E
100
AcDbEntity
  8
0
100
AcDbDimension
 62
7
  6
CONTINUOUS
  2
*D1
 10
207.9903280964
 20
157.3839532911
 11
163.7809063698
 21
157.3839532911
 70
160
 71
2
 42
85.0
  3
DIMSTYLE_1
100
AcDbAlignedDimension
 13
122.9903280964
 23
144.8839532911
 14
207.9903280964
 24
144.8839532911
100
AcDbRotatedDimension
  0
DIMENSION
  5
23F
100
AcDbEntity
  8
0
100
AcDbDimension
 62
7
  6
CONTINUOUS
  2
*D2
 10
221.4534599068
 20
61.8839532911
 11
221.4534599068
 21
104.3839532911
 70
160
 71
2
 42
85.0
  3
DIMSTYLE_1
100
AcDbAlignedDimension
 13
205.9903280997
 23
146.8839532911
 14
205.9903280997
 24
61.8839532911
 50
270.0
100
AcDbRotatedDimension
  0
LWPOLYLINE
  5
240
100
AcDbEntity
  8
RACCORDO
100
AcDbPolyline
 62
253
  6
CONTINUOUS
 90
25
 70
0
 10
123.4487027248
 20
63.8839532911
 10
123.4496883287
 20
63.8063834979
 10
123.4562090402
 20
63.725936268
 10
123.468264877
 20
63.6426116016
 10
123.4854297559
 20
63.5556458403
 10
123.5081298387
 20
63.4658026423
 10
123.5376435485
 20
63.3753729827
 10
123.574273102
 20
63.2842477326
 10
123.6177165096
 20
63.1925360209
 10
123.6683459415
 20
63.1028562095
 10
123.7265722623
 20
63.0151901846
 10
123.791985001
 20
62.92955606
 10
123.863724343
 20
62.8486265395
 10
123.9423251426
 20
62.7725563722
 10
124.0272530242
 20
62.701190809
 10
124.1160442264
 20
62.6367383057
 10
124.2091002328
 20
62.5796873001
 10
124.3060199099
 20
62.5295493546
 10
124.4031353053
 20
62.4870676116
 10
124.5004240413
 20
62.4528783189
 10
124.597908506
 20
62.4263452288
 10
124.691987554
 20
62.406302741
 10
124.7814606261
 20
62.3923623221
 10
124.8675279378
 20
62.3849125054
 10
124.9501893452
 20
62.3839532911
  0
LWPOLYLINE
  5
241
100
AcDbEntity
  8
RACCORDO
100
AcDbPolyline
 62
253
  6
CONTINUOUS
 90
13
 70
0
 10
124.9501893452
 20
62.3839532911
 10
124.9505327378
 20
62.3186901894
 10
124.9515570402
 20
62.2545437583
 10
124.9532447261
 20
62.1926115612
 10
124.9555669189
 20
62.133953275
 10
124.9584838851
 20
62.0795725595
 10
124.9619457145
 20
62.0303998841
 10
124.9658931743
 20
61.9872766067
 10
124.9702587223
 20
61.950940578
 10
124.9749676627
 20
61.9220135174
 10
124.9799394243
 20
61.9009903741
 10
124.9850889387
 20
61.8882308593
 10
124.9903280964
 20
61.8839532911
  0
LINE
  5
242
100
AcDbEntity
  8
RACCORDO
100
AcDbLine
 62
7
  6
CONTINUOUS
 10
122.9903280964
 20
144.8839532911
 11
122.9903280964
 21
63.8839532911
  0
LINE
  5
243
100
AcDbEntity
  8
RACCORDO
100
AcDbLine
 62
253
  6
CONTINUOUS
 10
123.4487027248
 20
144.8839532911
 11
123.4487027248
 21
63.8839532911
  0
LWPOLYLINE
  5
244
100
AcDbEntity
  8
RACCORDO
100
AcDbPolyline
 62
253
  6
CONTINUOUS
 90
13
 70
0
 10
124.9501893452
 20
146.3839532911
 10
124.9505327362
 20
146.4492159773
 10
124.9515570295
 20
146.5133620975
 10
124.9532447022
 20
146.5752940982
 10
124.9555668806
 20
146.6339523078
 10
124.9584838341
 20
146.6883330524
 10
124.9619456542
 20
146.7375058343
 10
124.9658931101
 20
146.7806292779
 10
124.9702586608
 20
146.8169655043
 10
124.9749676094
 20
146.8458927551
 10
124.9799393839
 20
146.866916057
 10
124.9850889163
 20
146.8796756819
 10
124.9903280963
 20
146.8839532911
  0
LWPOLYLINE
  5
245
100
AcDbEntity
  8
RACCORDO
100
AcDbPolyline
 62
253
  6
CONTINUOUS
 90
25
 70
0
 10
206.0304668477
 20
62.3839532911
 10
206.1180983146
 20
62.3852836315
 10
206.2085550084
 20
62.3935182414
 10
206.3018368031
 20
62.4086571207
 10
206.3991974759
 20
62.4304228467
 10
206.4993829439
 20
62.4590928422
 10
206.598631465
 20
62.495499375
 10
206.6968589807
 20
62.5402830696
 10
206.7941496346
 20
62.5928033015
 10
206.886994336
 20
62.6519704651
 10
206.9749305422
 20
62.7181997504
 10
207.0584211976
 20
62.7910759675
 10
207.1353456811
 20
62.8682639413
 10
207.20520233
 20
62.949884592
 10
207.2684932912
 20
63.0358169994
 10
207.324603734
 20
63.1233632273
 10
207.3731507887
 20
63.2125142419
 10
207.4145177028
 20
63.3032790771
 10
207.4492387918
 20
63.3929868984
 10
207.4770152861
 20
63.4814785969
 10
207.4981461646
 20
63.5689132815
 10
207.5140623069
 20
63.6530974441
 10
207.5252406901
 20
63.7332999152
 10
207.5312044054
 20
63.8102518642
 10
207.5319534681
 20
63.8839532911
  0
LINE
  5
246
100
AcDbEntity
  8
RACCORDO
100
AcDbLine
 62
7
  6
CONTINUOUS
 10
124.9903280964
 20
61.8839532911
 11
205.9903280964
 21
61.8839532911
  0
LINE
  5
247
100
AcDbEntity
  8
RACCORDO
100
AcDbLine
 62
253
  6
CONTINUOUS
 10
124.9501893452
 20
62.3839532911
 11
206.0304668477
 21
62.3839532911
  0
LINE
  5
248
100
AcDbEntity
  8
RACCORDO
100
AcDbLine
 62
253
  6
CONTINUOUS
 10
123.4487027248
 20
63.8839532911
 11
122.9903280964
 21
63.8839532911
  0
LINE
  5
249
100
AcDbEntity
  8
RACCORDO
100
AcDbLine
 62
253
  6
CONTINUOUS
 10
207.5319534681
 20
63.8839532911
 11
207.9903280964
 21
63.8839532911
  0
LWPOLYLINE
  5
24A
100
AcDbEntity
  8
RACCORDO
100
AcDbPolyline
 62
253
  6
CONTINUOUS
 90
3
 70
0
 10
140.8088417077
 20
129.8947747702
 10
140.7915364265
 20
129.7784126252
 10
140.7854360386
 20
129.6589428308
  0
LWPOLYLINE
  5
24B
100
AcDbEntity
  8
RACCORDO
100
AcDbPolyline
 62
253
  6
CONTINUOUS
 90
12
 70
0
 10
141.6476070103
 20
130.8103331608
 10
141.5370494757
 20
130.7719560713
 10
141.4295564674
 20
130.7220722372
 10
141.3262124584
 20
130.6612878035
 10
141.2302709853
 20
130.5914212051
 10
141.1420467514
 20
130.5122305782
 10
141.0612246642
 20
130.4239577866
 10
140.9901134388
 20
130.3291468569
 10
140.92898422
 20
130.2275023017
 10
140.8775654911
 20
130.1193196085
 10
140.8373519387
 20
130.0080292659
 10
140.8088417077
 20
129.8947747702
  0
LWPOLYLINE
  5
24C
100
AcDbEntity
  8
RACCORDO
100
AcDbPolyline
 62
253
  6
CONTINUOUS
 90
3
 70
0
 10
189.0994863192
 20
77.9135210413
 10
189.2183424257
 20
77.9300969315
 10
189.3330491825
 20
77.9575734214
  0
LWPOLYLINE
  5
24D
100
AcDbEntity
  8
RACCORDO
100
AcDbPolyline
 62
253
  6
CONTINUOUS
 90
55
 70
0
 10
189.0187140033
 20
78.266074442
 10
189.0460960274
 20
78.2688245744
 10
189.0733899497
 20
78.2723260105
 10
189.1005751624
 20
78.2765759639
 10
189.1276309385
 20
78.2815710229
 10
189.1545370705
 20
78.2873073222
 10
189.1812738734
 20
78.2937806082
 10
189.2078215326
 20
78.3009860125
 10
189.2341596442
 20
78.3089179242
 10
189.2602678559
 20
78.317570167
 10
189.2861263348
 20
78.326936033
 10
189.3117157416
 20
78.3370083791
 10
189.3370167631
 20
78.3477795356
 10
189.3620103485
 20
78.3592412627
 10
189.3866776602
 20
78.3713847883
 10
189.4110000592
 20
78.3842008658
 10
189.4349592516
 20
78.3976797202
 10
189.458537188
 20
78.4118110575
 10
189.4817160176
 20
78.426584098
 10
189.5044782809
 20
78.441987563
 10
189.5268068931
 20
78.4580097338
 10
189.5486850454
 20
78.4746384584
 10
189.5700962801
 20
78.4918610716
 10
189.5910245333
 20
78.509664489
 10
189.6114541146
 20
78.5280352678
 10
189.6313696812
 20
78.5469594569
 10
189.6507562867
 20
78.5664226909
 10
189.6695994117
 20
78.586410296
 10
189.6878849089
 20
78.6069071109
 10
189.7055990699
 20
78.6278976051
 10
189.7227286556
 20
78.6493659916
 10
189.7392608062
 20
78.6712960016
 10
189.7551831401
 20
78.6936710476
 10
189.7704837944
 20
78.7164743622
 10
189.7851512936
 20
78.7396887035
 10
189.7991746434
 20
78.7632965186
 10
189.812543397
 20
78.7872801295
 10
189.8252475267
 20
78.81162142
 10
189.8372775097
 20
78.8363020037
 10
189.8486243845
 20
78.8613034103
 10
189.8592796247
 20
78.8866067393
 10
189.869235255
 20
78.9121929224
 10
189.8784838906
 20
78.9380429144
 10
189.887018575
 20
78.9641372071
 10
189.8948329014
 20
78.9904561315
 10
189.9019210714
 20
79.0169801425
 10
189.9082777736
 20
79.0436894162
 10
189.9138981657
 20
79.0705636495
 10
189.9187779718
 20
79.0975823732
 10
189.9229134618
 20
79.1247247785
 10
189.9263016161
 20
79.1519708387
 10
189.9289399893
 20
79.1793011273
 10
189.9308265334
 20
79.2066954219
 10
189.9319597
 20
79.2341327069
 10
189.9323385514
 20
79.2615923008
  0
LWPOLYLINE
  5
24E
100
AcDbEntity
  8
RACCORDO
100
AcDbPolyline
 62
253
  6
CONTINUOUS
 90
55
 70
0
 10
189.010645339
 20
78.4652885611
 10
189.0325788168
 20
78.4674867615
 10
189.0544124702
 20
78.4702812396
 10
189.0761462999
 20
78.4736719955
 10
189.0977976009
 20
78.4776626446
 10
189.1193490791
 20
78.4822495715
 10
189.1407488525
 20
78.4874219291
 10
189.1619956214
 20
78.4931809771
 10
189.1830906872
 20
78.4995254558
 10
189.2039860689
 20
78.5064407393
 10
189.2246812171
 20
78.5139281102
 10
189.2451766835
 20
78.5219862858
 10
189.265426139
 20
78.5305967926
 10
189.28542902
 20
78.5397608768
 10
189.3051858928
 20
78.5494772922
 10
189.3246521231
 20
78.5597238262
 10
189.3438270584
 20
78.5705016871
 10
189.3627113543
 20
78.5818096667
 10
189.3812623399
 20
78.5936219279
 10
189.3994792319
 20
78.6059395964
 10
189.417362817
 20
78.6187615465
 10
189.4348727793
 20
78.6320585638
 10
189.4520082623
 20
78.6458317125
 10
189.4687701262
 20
78.6600799284
 10
189.48512063
 20
78.6747708049
 10
189.5010588281
 20
78.6899053224
 10
189.5165856697
 20
78.7054825004
 10
189.5316662561
 20
78.7214669916
 10
189.5462995723
 20
78.7378596966
 10
189.560486637
 20
78.7546597148
 10
189.5741956021
 20
78.771828996
 10
189.5874253833
 20
78.789368349
 10
189.6001770685
 20
78.8072769651
 10
189.6124220682
 20
78.8255143686
 10
189.6241592465
 20
78.8440812887
 10
189.6353897427
 20
78.8629769962
 10
189.6460883804
 20
78.8821588288
 10
189.6562539691
 20
78.9016274211
 10
189.6658877023
 20
78.9213821384
 10
189.6749679801
 20
78.9413784136
 10
189.6834935555
 20
78.9616167541
 10
189.6914656781
 20
78.9820966525
 10
189.6988664929
 20
79.0027720198
 10
189.7056947352
 20
79.0236432891
 10
189.7119516719
 20
79.0447100271
 10
189.7176232448
 20
79.0659248457
 10
189.7227081514
 20
79.0872881617
 10
189.727207696
 20
79.1087995583
 10
189.7311117298
 20
79.1304103965
 10
189.7344189186
 20
79.1521220233
 10
189.7371305979
 20
79.1739330917
 10
189.7392406233
 20
79.1957909216
 10
189.7407469472
 20
79.2176779531
 10
189.7416516179
 20
79.2396117462
 10
189.7419546355
 20
79.2615923008
  0
LINE
  5
24F
100
AcDbEntity
  8
0
100
AcDbLine
 62
7
  6
CONTINUOUS
 10
172.7034065749
 20
77.0839532911
 11
158.2772606707
 21
77.0839532911
  0
LWPOLYLINE
  5
250
100
AcDbEntity
  8
RACCORDO
100
AcDbPolyline
 62
253
  6
CONTINUOUS
 90
13
 70
0
 10
141.8811698737
 20
77.9135210413
 10
145.8102789907
 20
77.5989602368
 10
149.7420052493
 20
77.3415859041
 10
153.6761111998
 20
77.1413980432
 10
157.6128348898
 20
76.9983889018
 10
161.5514617444
 20
76.9125662323
 10
165.4903241463
 20
76.8839532911
 10
169.4291767343
 20
76.9125654386
 10
173.3677856166
 20
76.9983873146
 10
177.3045003778
 20
77.1413960952
 10
181.2386121714
 20
77.3415841726
 10
185.1703533051
 20
77.5989591546
 10
189.0994863192
 20
77.9135210413
  0
LWPOLYLINE
  5
251
100
AcDbEntity
  8
RACCORDO
100
AcDbPolyline
 62
253
  6
CONTINUOUS
 90
34
 70
0
 10
141.9619421896
 20
78.266074442
 10
143.3859373131
 20
78.1468543048
 10
144.8103049052
 20
78.035094137
 10
146.235006176
 20
77.9307933373
 10
147.6599665636
 20
77.8339534905
 10
149.0851830953
 20
77.744570834
 10
150.5107245083
 20
77.6626381453
 10
151.9365853461
 20
77.5881540762
 10
153.3626938907
 20
77.5211207289
 10
154.789019616
 20
77.4615375851
 10
156.2155145345
 20
77.4094047859
 10
157.642149509
 20
77.3647215639
 10
159.0689223314
 20
77.3274864431
 10
160.4957855804
 20
77.2976993952
 10
161.9227096486
 20
77.2753597921
 10
163.3497190955
 20
77.2604665336
 10
164.77678924
 20
77.2530197975
 10
166.2038677935
 20
77.2530197997
 10
167.6309379201
 20
77.26046654
 10
169.0579473233
 20
77.2753598022
 10
170.4848713299
 20
77.2976994083
 10
171.9117345231
 20
77.3274864587
 10
173.3385073103
 20
77.3647215818
 10
174.7651422553
 20
77.4094048061
 10
176.19163713
 20
77.4615376068
 10
177.617962749
 20
77.5211207488
 10
179.0440711729
 20
77.5881540924
 10
180.4699319988
 20
77.6626381626
 10
181.8954736524
 20
77.7445708673
 10
183.320690533
 20
77.8339535495
 10
184.7456510701
 20
77.9307934116
 10
186.1703521887
 20
78.0350942053
 10
187.5947194296
 20
78.1468543495
 10
189.0187140033
 20
78.266074442
  0
LWPOLYLINE
  5
252
100
AcDbEntity
  8
RACCORDO
100
AcDbPolyline
 62
253
  6
CONTINUOUS
 90
34
 70
0
 10
141.9700108538
 20
78.4652885611
 10
143.3935613409
 20
78.3461587329
 10
144.8174297859
 20
78.234481733
 10
146.2416049451
 20
78.1302575612
 10
147.6660673864
 20
78.0334888377
 10
149.0908140281
 20
77.9441729424
 10
150.5158581465
 20
77.8623020146
 10
151.9412212415
 20
77.7878736271
 10
153.3668592693
 20
77.7208902073
 10
154.7926871694
 20
77.6613511766
 10
156.2186841371
 20
77.6092570155
 10
157.6448483524
 20
77.5646072436
 10
159.0711232008
 20
77.5273998414
 10
160.4974883958
 20
77.4976345545
 10
161.9239415637
 20
77.4753116373
 10
163.3504529481
 20
77.4604298333
 10
164.777024992
 20
77.4529887237
 10
166.2036325776
 20
77.4529887274
 10
167.6302046033
 20
77.4604298439
 10
169.0567159431
 20
77.4753116541
 10
170.4831690482
 20
77.4976345772
 10
171.9095341861
 20
77.5273998695
 10
173.3358089982
 20
77.5646072771
 10
174.7619731829
 20
77.609257054
 10
176.1879701056
 20
77.6613512189
 10
177.6137978984
 20
77.7208902494
 10
179.0394358045
 20
77.787873668
 10
180.4647988863
 20
77.8623020609
 10
181.8898432631
 20
77.9441730122
 10
183.3145902718
 20
78.0334889378
 10
184.7390528232
 20
78.1302576721
 10
186.1632277138
 20
78.2344818264
 10
187.5870956337
 20
78.3461587894
 10
189.010645339
 20
78.4652885611
  0
LWPOLYLINE
  5
253
100
AcDbEntity
  8
RACCORDO
100
AcDbPolyline
 62
253
  6
CONTINUOUS
 90
46
 70
0
 10
142.9844490344
 20
79.5489419498
 10
142.9759340024
 20
79.5497530812
 10
142.9672513518
 20
79.5509040955
 10
142.9584010829
 20
79.5523949928
 10
142.9493792623
 20
79.5542053443
 10
142.9401898242
 20
79.5563555787
 10
142.9308445706
 20
79.558906982
 10
142.9213454299
 20
79.5618555846
 10
142.9116904744
 20
79.5652053562
 10
142.9018857211
 20
79.5690294922
 10
142.8919220454
 20
79.5733284793
 10
142.8818085728
 20
79.5781018309
 10
142.8715786957
 20
79.5834212819
 10
142.8612270885
 20
79.5892885541
 10
142.8507590775
 20
79.5957019257
 10
142.8402240331
 20
79.6027279663
 10
142.8296228373
 20
79.6103642297
 10
142.8189546086
 20
79.6186131621
 10
142.8082660714
 20
79.6275486722
 10
142.7975500857
 20
79.637174648
 10
142.7868137917
 20
79.6474872015
 10
142.7761253337
 20
79.6585485768
 10
142.7654790683
 20
79.6703646302
 10
142.7548806386
 20
79.6829295054
 10
142.7444151193
 20
79.6962878775
 10
142.7340792048
 20
79.7104452329
 10
142.7238761999
 20
79.7253960853
 10
142.7139010939
 20
79.7411686508
 10
142.7041477425
 20
79.7577778292
 10
142.6946222889
 20
79.7752087208
 10
142.6854381534
 20
79.7934448429
 10
142.6765933308
 20
79.8125036526
 10
142.6680898247
 20
79.8323676929
 10
142.6600470683
 20
79.8529681099
 10
142.6524688703
 20
79.8743156862
 10
142.6453514201
 20
79.8963996393
 10
142.6388027211
 20
79.919118768
 10
142.6328279759
 20
79.9424800545
 10
142.6274219801
 20
79.9664765166
 10
142.6226771266
 20
79.9909860068
 10
142.6185983042
 20
80.0160140565
 10
142.6151806226
 20
80.0415551342
 10
142.6125018063
 20
80.0674704974
 10
142.6105877633
 20
80.0937138986
 10
142.6094125846
 20
80.1203315854
 10
142.6089762702
 20
80.1473235576
  0
LWPOLYLINE
  5
254
100
AcDbEntity
  8
RACCORDO
100
AcDbPolyline
 62
7
  6
CONTINUOUS
 90
55
 70
0
 10
141.9031514958
 20
78.2123897885
 10
141.8758105084
 20
78.2151576533
 10
141.8485875515
 20
78.2186704565
 10
141.8214826252
 20
78.2229281981
 10
141.7944697211
 20
78.2279363798
 10
141.7675748476
 20
78.2336894999
 10
141.7408760293
 20
78.2401710538
 10
141.7143848104
 20
78.2473798763
 10
141.6880896469
 20
78.2553171326
 10
141.6620339308
 20
78.2639698138
 10
141.636207165
 20
78.2733434645
 10
141.6106198467
 20
78.2834325402
 10
141.58534686
 20
78.2942073989
 10
141.5604007439
 20
78.3056642191
 10
141.5357689594
 20
78.3178068223
 10
141.5114887743
 20
78.3306170312
 10
141.4875487861
 20
78.3441030364
 10
141.4639603973
 20
78.3582566472
 10
141.4407950827
 20
78.3730351143
 10
141.4180647842
 20
78.3884328306
 10
141.39575756
 20
78.4044554031
 10
141.37390906
 20
78.4210769039
 10
141.3525122032
 20
78.4383046319
 10
141.3315740707
 20
78.4561312882
 10
141.311151555
 20
78.4745090476
 10
141.2912501071
 20
78.4934357935
 10
141.271864276
 20
78.5129136427
 10
141.2530346022
 20
78.5329011206
 10
141.2347620285
 20
78.5533990403
 10
141.2170456121
 20
78.5744065889
 10
141.1999230641
 20
78.5958798527
 10
141.1833927178
 20
78.6178244801
 10
141.16745624
 20
78.6402348227
 10
141.1521563416
 20
78.6630500224
 10
141.137499674
 20
78.6862624051
 10
141.1234795859
 20
78.7098796447
 10
141.1101188341
 20
78.7338639054
 10
141.0974129069
 20
78.7582274939
 10
141.0853663161
 20
78.7829581034
 10
141.0740153531
 20
78.8079809773
 10
141.0633671201
 20
78.8332842191
 10
141.053414515
 20
78.8588797253
 10
141.0441725233
 20
78.884728428
 10
141.0356385165
 20
78.9108428822
 10
141.0278151231
 20
78.937210533
 10
141.0207252152
 20
78.9637546468
 10
141.0143733297
 20
78.9904645456
 10
141.0087549296
 20
79.0173509074
 10
141.0038792762
 20
79.0443690334
 10
140.9997462517
 20
79.0715304068
 10
140.9963559739
 20
79.0988235443
 10
140.993718058
 20
79.1261692966
 10
140.9918357089
 20
79.1535412806
 10
140.9907057217
 20
79.1809658794
 10
140.9903280964
 20
79.2084430931
  0
LWPOLYLINE
  5
255
100
AcDbEntity
  8
RACCORDO
100
AcDbPolyline
 62
253
  6
CONTINUOUS
 90
46
 70
0
 10
142.9976680255
 20
79.681456881
 10
142.9934269256
 20
79.6820795345
 10
142.98910114
 20
79.6829585612
 10
142.9846930863
 20
79.6840980565
 10
142.9802066331
 20
79.6854905473
 10
142.9756436228
 20
79.687151767
 10
142.9710039335
 20
79.6891209066
 10
142.9662934454
 20
79.6913998674
 10
142.9615140666
 20
79.6939956013
 10
142.9566604815
 20
79.6969557059
 10
142.9517347703
 20
79.7002860733
 10
142.9467455324
 20
79.7039910126
 10
142.9416981594
 20
79.7081164408
 10
142.9365982283
 20
79.7126686963
 10
142.931453947
 20
79.7176516377
 10
142.9262754841
 20
79.7231074592
 10
142.9210733624
 20
79.7290388395
 10
142.9158540348
 20
79.7354525076
 10
142.9106226646
 20
79.7423968633
 10
142.9053882124
 20
79.7498793547
 10
142.9001629967
 20
79.7579018113
 10
142.8949585554
 20
79.7665043644
 10
142.8897865848
 20
79.775694775
 10
142.8846608631
 20
79.7854731901
 10
142.8795971057
 20
79.7958679048
 10
142.8746099987
 20
79.8068848396
 10
142.8697142031
 20
79.8185236207
 10
142.8649263063
 20
79.8308023965
 10
142.860261053
 20
79.8437325033
 10
142.855737016
 20
79.8573053153
 10
142.8513766832
 20
79.8715077921
 10
142.8471963822
 20
79.886350397
 10
142.8432148441
 20
79.9018209484
 10
142.8394565813
 20
79.917870402
 10
142.8359390367
 20
79.9345011775
 10
142.8326785559
 20
79.9517037586
 10
142.8296953129
 20
79.9694090469
 10
142.8270057365
 20
79.9876143599
 10
142.8246245667
 20
80.0063102767
 10
142.8225668133
 20
80.0254158723
 10
142.8208472616
 20
80.0449242085
 10
142.8194790268
 20
80.0648257186
 10
142.8184727024
 20
80.0850342813
 10
142.8178399551
 20
80.1055143811
 10
142.8175939073
 20
80.1262811716
 10
142.8177461898
 20
80.1473235576
  0
LWPOLYLINE
  5
256
100
AcDbEntity
  8
RACCORDO
100
AcDbPolyline
 62
253
  6
CONTINUOUS
 90
3
 70
0
 10
141.6478590135
 20
77.9574828573
 10
141.7624608627
 20
77.9300487143
 10
141.8811698737
 20
77.9135210413
  0
LWPOLYLINE
  5
257
100
AcDbEntity
  8
RACCORDO
100
AcDbPolyline
 62
253
  6
CONTINUOUS
 90
12
 70
0
 10
140.808907377
 20
78.8728819387
 10
140.8374476731
 20
78.7595636037
 10
140.8776889841
 20
78.6482634816
 10
140.9291336253
 20
78.5401117404
 10
140.990288291
 20
78.4384988842
 10
141.0614251732
 20
78.34370678
 10
141.1422724519
 20
78.2554535609
 10
141.2305207675
 20
78.17628413
 10
141.3264986889
 20
78.106439228
 10
141.4298780366
 20
78.0456781142
 10
141.5373642001
 20
77.9958234704
 10
141.6478590135
 20
77.9574828573
  0
LINE
  5
258
100
AcDbEntity
  8
RACCORDO
100
AcDbLine
 62
253
  6
CONTINUOUS
 10
140.7915701844
 20
78.9893486546
 11
140.808907377
 21
78.8728819387
  0
LINE
  5
259
100
AcDbEntity
  8
RACCORDO
100
AcDbLine
 62
253
  6
CONTINUOUS
 10
142.991349746
 20
129.1435764898
 11
142.9931634924
 21
129.1260664919
  0
LINE
  5
25A
100
AcDbEntity
  8
RACCORDO
100
AcDbLine
 62
253
  6
CONTINUOUS
 10
142.9895547438
 20
129.1617948424
 11
142.991349746
 21
129.1435764898
  0
LINE
  5
25B
100
AcDbEntity
  8
RACCORDO
100
AcDbLine
 62
253
  6
CONTINUOUS
 10
142.9877953519
 20
129.1805503682
 11
142.9895547438
 21
129.1617948424
  0
LWPOLYLINE
  5
25C
100
AcDbEntity
  8
RACCORDO
100
AcDbPolyline
 62
253
  6
CONTINUOUS
 90
37
 70
0
 10
142.8933111133
 20
81.7767363015
 10
142.8938241365
 20
81.7711071432
 10
142.8946965789
 20
81.7654881411
 10
142.8959268664
 20
81.7598894329
 10
142.8975127794
 20
81.7543211199
 10
142.8994514564
 20
81.7487932482
 10
142.9017393998
 20
81.7433157913
 10
142.9043724817
 20
81.7378986317
 10
142.9073459515
 20
81.7325515428
 10
142.9106544444
 20
81.727284172
 10
142.9142919913
 20
81.7221060225
 10
142.9182520294
 20
81.7170264369
 10
142.9225274138
 20
81.7120545795
 10
142.9271104311
 20
81.7071994208
 10
142.9319928126
 20
81.7024697203
 10
142.9371657494
 20
81.6978740113
 10
142.9426199086
 20
81.6934205854
 10
142.9483454498
 20
81.6891174774
 10
142.954332043
 20
81.684972451
 10
142.9605688872
 20
81.6809929847
 10
142.9670447299
 20
81.6771862582
 10
142.9737478875
 20
81.6735591395
 10
142.9806662661
 20
81.6701181727
 10
142.9877873836
 20
81.666869566
 10
142.9950983921
 20
81.6638191805
 10
143.0025861011
 20
81.6609725197
 10
143.0102370014
 20
81.6583347195
 10
143.0180372891
 20
81.655910539
 10
143.0259728911
 20
81.653704352
 10
143.0340294899
 20
81.6517201388
 10
143.0421925499
 20
81.6499614794
 10
143.0504473434
 20
81.6484315467
 10
143.0587789769
 20
81.6471331009
 10
143.0671724187
 20
81.6460684849
 10
143.0756125253
 20
81.6452396192
 10
143.0840840691
 20
81.6446479995
 10
143.0925717658
 20
81.644294693
  0
LWPOLYLINE
  5
25D
100
AcDbEntity
  8
RACCORDO
100
AcDbPolyline
 62
253
  6
CONTINUOUS
 90
3
 70
0
 10
142.9844490344
 20
129.2189646324
 10
142.9852590658
 20
129.2093043826
 10
142.9877953519
 20
129.1805503682
  0
LINE
  5
25E
100
AcDbEntity
  8
RACCORDO
100
AcDbLine
 62
253
  6
CONTINUOUS
 10
141.9700108538
 20
130.3026180211
 11
141.9678776117
 21
130.3282731465
  0
LINE
  5
25F
100
AcDbEntity
  8
RACCORDO
100
AcDbLine
 62
253
  6
CONTINUOUS
 10
141.9678776117
 20
130.3282731465
 11
141.9659346344
 21
130.353501206
  0
LWPOLYLINE
  5
260
100
AcDbEntity
  8
RACCORDO
100
AcDbPolyline
 62
253
  6
CONTINUOUS
 90
3
 70
0
 10
143.0948470569
 20
127.092072503
 10
143.0933064393
 20
127.1128263887
 10
143.0925716985
 20
127.1236119321
  0
LINE
  5
261
100
AcDbEntity
  8
RACCORDO
100
AcDbLine
 62
253
  6
CONTINUOUS
 10
141.9659346344
 20
130.353501206
 11
141.9647611379
 21
130.3698747634
  0
LINE
  5
262
100
AcDbEntity
  8
RACCORDO
100
AcDbLine
 62
253
  6
CONTINUOUS
 10
142.8997209979
 20
126.8818256744
 11
142.8979868529
 21
126.9065406768
  0
LINE
  5
263
100
AcDbEntity
  8
RACCORDO
100
AcDbLine
 62
253
  6
CONTINUOUS
 10
141.9647611379
 20
130.3698747634
 11
141.9636953435
 21
130.385750345
  0
LINE
  5
264
100
AcDbEntity
  8
RACCORDO
100
AcDbLine
 62
253
  6
CONTINUOUS
 10
141.9636953435
 20
130.385750345
 11
141.9627451424
 21
130.4010104066
  0
LINE
  5
265
100
AcDbEntity
  8
RACCORDO
100
AcDbLine
 62
253
  6
CONTINUOUS
 10
142.8979868529
 20
126.9065406768
 11
142.8963351498
 21
126.9331191535
  0
LINE
  5
266
100
AcDbEntity
  8
RACCORDO
100
AcDbLine
 62
253
  6
CONTINUOUS
 10
141.9627451424
 20
130.4010104066
 11
141.9619175699
 21
130.4155419613
  0
LINE
  5
267
100
AcDbEntity
  8
RACCORDO
100
AcDbLine
 62
253
  6
CONTINUOUS
 10
142.8963351498
 20
126.9331191535
 11
142.8947755851
 21
126.9613492616
  0
LINE
  5
268
100
AcDbEntity
  8
RACCORDO
100
AcDbLine
 62
253
  6
CONTINUOUS
 10
140.7854360386
 20
79.1089637513
 11
140.7915701844
 21
78.9893486546
  0
LINE
  5
269
100
AcDbEntity
  8
RACCORDO
100
AcDbLine
 62
253
  6
CONTINUOUS
 10
141.9619175699
 20
130.4155419613
 11
141.9612187536
 21
130.4292374162
  0
LINE
  5
26A
100
AcDbEntity
  8
RACCORDO
100
AcDbLine
 62
253
  6
CONTINUOUS
 10
143.0925717671
 20
127.1236118978
 11
142.9976680255
 21
129.0864497012
  0
LINE
  5
26B
100
AcDbEntity
  8
RACCORDO
100
AcDbLine
 62
253
  6
CONTINUOUS
 10
142.8947755851
 20
126.9613492616
 11
142.8177461898
 21
128.6205830247
  0
LINE
  5
26C
100
AcDbEntity
  8
RACCORDO
100
AcDbLine
 62
253
  6
CONTINUOUS
 10
141.9612187536
 20
130.4292374162
 11
141.9606538675
 21
130.4419953687
  0
LWPOLYLINE
  5
26D
100
AcDbEntity
  8
RACCORDO
100
AcDbPolyline
 62
253
  6
CONTINUOUS
 90
18
 70
0
 10
141.9606538675
 20
130.4419953687
 10
141.9602270941
 20
130.453721358
 10
141.9600665278
 20
130.4591699186
 10
141.9599415932
 20
130.4643285637
 10
141.9598525219
 20
130.4691877401
 10
141.9597994788
 20
130.4737384491
 10
141.959782562
 20
130.4779722635
 10
141.959801803
 20
130.4818813426
 10
141.959857166
 20
130.4854584473
 10
141.9599485486
 20
130.4886969534
 10
141.9600757816
 20
130.4915908633
 10
141.9602386292
 20
130.4941348181
 10
141.96043679
 20
130.4963241065
 10
141.9606698969
 20
130.4981546742
 10
141.9609375183
 20
130.4996231314
 10
141.9612391586
 20
130.5007267585
 10
141.9615742592
 20
130.5014635118
 10
141.9619421995
 20
130.501832027
  0
LWPOLYLINE
  5
26E
100
AcDbEntity
  8
RACCORDO
100
AcDbPolyline
 62
253
  6
CONTINUOUS
 90
37
 70
0
 10
142.918884787
 20
82.0122359008
 10
142.91909804
 20
82.0035391264
 10
142.9196897538
 20
81.9948588491
 10
142.9206588058
 20
81.9862115347
 10
142.9220033578
 20
81.9776135866
 10
142.9237208595
 20
81.9690813143
 10
142.9258080527
 20
81.9606309031
 10
142.9282609782
 20
81.9522783827
 10
142.931074983
 20
81.9440395971
 10
142.9342447292
 20
81.9359301749
 10
142.9377642041
 20
81.9279654989
 10
142.9416267313
 20
81.9201606776
 10
142.945824984
 20
81.9125305161
 10
142.9503509984
 20
81.9050894883
 10
142.9551961891
 20
81.8978517093
 10
142.9603513649
 20
81.8908309086
 10
142.9658067471
 20
81.8840404041
 10
142.971551987
 20
81.877493077
 10
142.9775761865
 20
81.8712013469
 10
142.983867918
 20
81.865177149
 10
142.9904152466
 20
81.8594319106
 10
142.9972057525
 20
81.8539765301
 10
143.0042265546
 20
81.8488213558
 10
143.011464335
 20
81.8439761668
 10
143.0189053641
 20
81.8394501541
 10
143.0265355269
 20
81.8352519031
 10
143.0343403495
 20
81.8313893777
 10
143.0423050268
 20
81.8278699047
 10
143.0504144502
 20
81.8247001604
 10
143.0586532369
 20
81.8218861575
 10
143.0670057585
 20
81.819433234
 10
143.0754561721
 20
81.8173460426
 10
143.0839884466
 20
81.8156285429
 10
143.0925863933
 20
81.8142839935
 10
143.1012337011
 20
81.8133149444
 10
143.1099139679
 20
81.8127232332
 10
143.118610728
 20
81.8125099817
  0
LWPOLYLINE
  5
26F
100
AcDbEntity
  8
RACCORDO
100
AcDbPolyline
 62
253
  6
CONTINUOUS
 90
55
 70
0
 10
141.0483176414
 20
79.2615923008
 10
141.0486964856
 20
79.2341329723
 10
141.0498296342
 20
79.2066958812
 10
141.0517161554
 20
79.1793017089
 10
141.05435451
 20
79.1519714435
 10
141.0577426539
 20
79.1247253357
 10
141.0618781342
 20
79.0975828946
 10
141.0667579233
 20
79.0705641821
 10
141.0723782951
 20
79.0436899713
 10
141.0787349789
 20
79.0169807069
 10
141.0858231374
 20
78.9904566778
 10
141.0936374569
 20
78.9641377231
 10
141.1021721335
 20
78.9380434071
 10
141.1114207565
 20
78.9121934079
 10
141.1213763717
 20
78.8866072243
 10
141.132031597
 20
78.8613038934
 10
141.1433784586
 20
78.8363024809
 10
141.155408429
 20
78.8116218901
 10
141.1681125471
 20
78.7872805906
 10
141.1814812906
 20
78.7632969683
 10
141.1955046316
 20
78.7396891403
 10
141.2101721226
 20
78.716474786
 10
141.2254727688
 20
78.6936714586
 10
141.241395095
 20
78.6712963998
 10
141.2579272387
 20
78.6493663766
 10
141.2750568182
 20
78.6278979765
 10
141.2927709737
 20
78.6069074685
 10
141.3110564665
 20
78.5864106393
 10
141.3298995886
 20
78.5664230189
 10
141.3492861922
 20
78.546959769
 10
141.3692017572
 20
78.5280355648
 10
141.3896313366
 20
78.5096647716
 10
141.4105595878
 20
78.4918613405
 10
141.4319708202
 20
78.4746387144
 10
141.4538489686
 20
78.4580099786
 10
141.4761775761
 20
78.4419877972
 10
141.4989398363
 20
78.4265843208
 10
141.5221186648
 20
78.4118112678
 10
141.5456966019
 20
78.3976799175
 10
141.5696557983
 20
78.3842010486
 10
141.5939782083
 20
78.3713849537
 10
141.6186455346
 20
78.35924141
 10
141.6436391286
 20
78.3477796688
 10
141.6689401444
 20
78.3370085048
 10
141.6945295387
 20
78.3269361537
 10
141.7203880124
 20
78.3175702796
 10
141.7464962393
 20
78.308918022
 10
141.772834374
 20
78.3009860944
 10
141.7993820392
 20
78.2937806802
 10
141.8261187971
 20
78.2873073963
 10
141.8530248658
 20
78.2815711002
 10
141.8800806345
 20
78.2765760314
 10
141.9072659215
 20
78.2723260563
 10
141.9345599757
 20
78.2688245961
 10
141.9619421896
 20
78.266074442
  0
LWPOLYLINE
  5
270
100
AcDbEntity
  8
RACCORDO
100
AcDbPolyline
 62
253
  6
CONTINUOUS
 90
55
 70
0
 10
141.2387015573
 20
79.2615923008
 10
141.2390047177
 20
79.2396093541
 10
141.239909537
 20
79.2176737338
 10
141.2414160154
 20
79.1957854399
 10
141.243526198
 20
79.1739271045
 10
141.2462380403
 20
79.1521160956
 10
141.2495454084
 20
79.1304045169
 10
141.2534496432
 20
79.1087935197
 10
141.257949405
 20
79.0872819528
 10
141.2630345396
 20
79.0659184661
 10
141.2687063489
 20
79.044703477
 10
141.2749635328
 20
79.023636568
 10
141.2817920337
 20
79.0027651367
 10
141.2891931185
 20
78.9820896198
 10
141.2971655227
 20
78.9616095805
 10
141.3056913912
 20
78.9413711052
 10
141.3147719735
 20
78.9213747002
 10
141.3244060229
 20
78.9016198592
 10
141.3345719403
 20
78.8821511504
 10
141.345270922
 20
78.862969205
 10
141.3565017747
 20
78.8440733917
 10
141.3682393148
 20
78.8255063842
 10
141.3804846907
 20
78.8072689035
 10
141.3932367573
 20
78.7893602286
 10
141.4064668904
 20
78.7718208703
 10
141.4201761716
 20
78.7546516506
 10
141.434363523
 20
78.7378517476
 10
141.4489970813
 20
78.7214592068
 10
141.4640778622
 20
78.7054749324
 10
141.4796048538
 20
78.6898980202
 10
141.4955431506
 20
78.6747638038
 10
141.5118936891
 20
78.6600732712
 10
141.5286555366
 20
78.6458254343
 10
141.5457909839
 20
78.6320526622
 10
141.5633008976
 20
78.6187560096
 10
141.5811844147
 20
78.6059344217
 10
141.5994012307
 20
78.593617104
 10
141.617952135
 20
78.581805179
 10
141.6368363415
 20
78.5704975242
 10
141.656011182
 20
78.5597199766
 10
141.6754773143
 20
78.5494737441
 10
141.6952340837
 20
78.539757619
 10
141.7152368518
 20
78.5305938149
 10
141.735486182
 20
78.5219835785
 10
141.7559815137
 20
78.5139256632
 10
141.7766765229
 20
78.5064385437
 10
141.7975717596
 20
78.4995235054
 10
141.818666676
 20
78.4931792629
 10
141.8399133003
 20
78.4874204348
 10
141.8613131295
 20
78.4822482587
 10
141.8828646683
 20
78.477661497
 10
141.9045154558
 20
78.4736710558
 10
141.9262480052
 20
78.4702805704
 10
141.9480798044
 20
78.4674864055
 10
141.9700108538
 20
78.4652885611
  0
LWPOLYLINE
  5
271
100
AcDbEntity
  8
RACCORDO
100
AcDbPolyline
 62
253
  6
CONTINUOUS
 90
46
 70
0
 10
142.8177461898
 20
128.6205830246
 10
142.8175937099
 20
128.641532302
 10
142.817836461
 20
128.6622257002
 10
142.818463938
 20
128.6826521953
 10
142.8194642589
 20
128.7028296718
 10
142.8208267893
 20
128.7227198204
 10
142.8225413023
 20
128.7422282652
 10
142.8245952261
 20
128.7613447513
 10
142.8269744075
 20
128.7800628008
 10
142.8296635986
 20
128.7982950287
 10
142.8326484911
 20
128.8160326433
 10
142.8359127323
 20
128.833272094
 10
142.8394346406
 20
128.8499357613
 10
142.8431973234
 20
128.8660122234
 10
142.8471834423
 20
128.8815058673
 10
142.851367394
 20
128.8963651558
 10
142.8557293215
 20
128.9105754453
 10
142.860253345
 20
128.9241499518
 10
142.864918343
 20
128.9370809276
 10
142.8697066903
 20
128.9493622967
 10
142.8746026938
 20
128.9610028397
 10
142.8795883781
 20
128.9720183132
 10
142.8846483261
 20
128.9824071004
 10
142.889768294
 20
128.992176634
 10
142.8949329069
 20
129.0013570143
 10
142.9001272107
 20
129.0099471592
 10
142.9053405287
 20
129.0179562862
 10
142.9105652368
 20
129.0254300782
 10
142.9157917815
 20
129.0323737009
 10
142.9210088308
 20
129.0387908332
 10
142.9262074563
 20
129.0447247522
 10
142.931380304
 20
129.0501808084
 10
142.9365176535
 20
129.0551632332
 10
142.9416079272
 20
129.0597138034
 10
142.9466414381
 20
129.0638354859
 10
142.9516139724
 20
129.0675358366
 10
142.9565230366
 20
129.0708634337
 10
142.9613592534
 20
129.0738227817
 10
142.966121385
 20
129.0764195498
 10
142.970820216
 20
129.078702949
 10
142.9754512673
 20
129.0806799207
 10
142.9800113648
 20
129.0823518977
 10
142.9845141755
 20
129.0837581273
 10
142.9889624608
 20
129.0849135256
 10
142.9933478917
 20
129.0858096167
 10
142.9976680255
 20
129.0864497012
  0
LINE
  5
272
100
AcDbEntity
  8
RACCORDO
100
AcDbLine
 62
253
  6
CONTINUOUS
 10
140.7854360386
 20
129.6589428308
 11
140.7854360386
 21
79.1089637513
  0
LINE
  5
273
100
AcDbEntity
  8
RACCORDO
100
AcDbLine
 62
7
  6
CONTINUOUS
 10
140.8903280964
 20
129.6589428308
 11
140.8903280964
 21
79.1089637513
  0
LINE
  5
274
100
AcDbEntity
  8
RACCORDO
100
AcDbLine
 62
7
  6
CONTINUOUS
 10
140.9903280964
 20
79.2084430931
 11
140.9903280964
 21
129.5594634891
  0
LINE
  5
275
100
AcDbEntity
  8
RACCORDO
100
AcDbLine
 62
253
  6
CONTINUOUS
 10
141.0483176414
 20
129.5063142814
 11
141.0483176414
 21
79.2615923008
  0
LINE
  5
276
100
AcDbEntity
  8
RACCORDO
100
AcDbLine
 62
253
  6
CONTINUOUS
 10
141.2387015573
 20
129.5063142814
 11
141.2387015573
 21
79.2615923008
  0
LINE
  5
277
100
AcDbEntity
  8
RACCORDO
100
AcDbLine
 62
253
  6
CONTINUOUS
 10
142.6089762702
 20
80.1473235576
 11
142.6089762702
 21
128.6205830246
  0
LINE
  5
278
100
AcDbEntity
  8
RACCORDO
100
AcDbLine
 62
253
  6
CONTINUOUS
 10
142.8177461898
 20
80.1473235576
 11
142.8177461898
 21
128.6205830247
  0
LINE
  5
279
100
AcDbEntity
  8
RACCORDO
100
AcDbLine
 62
7
  6
CONTINUOUS
 10
142.9903280964
 20
82.0836791982
 11
142.9903280964
 21
126.684227384
  0
LWPOLYLINE
  5
27A
100
AcDbEntity
  8
RACCORDO
100
AcDbPolyline
 62
7
  6
CONTINUOUS
 90
55
 70
0
 10
140.9903280964
 20
129.5594634891
 10
140.9907057734
 20
129.5869418102
 10
140.9918358389
 20
129.6143673581
 10
140.993718293
 20
129.6417401329
 10
140.9963563546
 20
129.6690865219
 10
140.9997468048
 20
129.6963801377
 10
141.0038799864
 20
129.7235418183
 10
141.0087557366
 20
129.750559943
 10
141.0143742184
 20
129.7774461325
 10
141.0207262627
 20
129.8041560859
 10
141.0278164921
 20
129.8307007896
 10
141.0356402841
 20
129.8570692573
 10
141.0441746022
 20
129.88318423
 10
141.0534167154
 20
129.9090328368
 10
141.0633693546
 20
129.9346279486
 10
141.074017676
 20
129.9599309197
 10
141.0853688577
 20
129.9849538521
 10
141.0974157216
 20
130.0096846438
 10
141.1101218894
 20
130.0340483429
 10
141.1234828094
 20
130.058032553
 10
141.1375030334
 20
130.0816496705
 10
141.1521598386
 20
130.1048619333
 10
141.1674598801
 20
130.1276770325
 10
141.1833965029
 20
130.1500872769
 10
141.1999270184
 20
130.172031831
 10
141.2170497978
 20
130.193505086
 10
141.2347664699
 20
130.2145126507
 10
141.2530392339
 20
130.2350105156
 10
141.2718689731
 20
130.2549978028
 10
141.2912548042
 20
130.2744753901
 10
141.3111562755
 20
130.2934019017
 10
141.3315788739
 20
130.3117794955
 10
141.3525171126
 20
130.3296060136
 10
141.3739140798
 20
130.3468336071
 10
141.3957627136
 20
130.3634549837
 10
141.4180700758
 20
130.3794774357
 10
141.4408004408
 20
130.3948749911
 10
141.4639656602
 20
130.4096532066
 10
141.4875538822
 20
130.4238065254
 10
141.5114938259
 20
130.4372923055
 10
141.5357742918
 20
130.4501024524
 10
141.5604064793
 20
130.4622450607
 10
141.5853527052
 20
130.4737017713
 10
141.6106251981
 20
130.4844762744
 10
141.6362117294
 20
130.4945648798
 10
141.662037931
 20
130.503938158
 10
141.6880936093
 20
130.5125906782
 10
141.7143889579
 20
130.5205278711
 10
141.7408801889
 20
130.5277365992
 10
141.7675787077
 20
130.5342179699
 10
141.794473109
 20
130.5399708758
 10
141.8214853888
 20
130.5449788571
 10
141.8485895459
 20
130.5492364272
 10
141.8758115815
 20
130.5527490727
 10
141.9031514958
 20
130.5555167936
  0
LWPOLYLINE
  5
27B
100
AcDbEntity
  8
RACCORDO
100
AcDbPolyline
 62
253
  6
CONTINUOUS
 90
46
 70
0
 10
142.6089762702
 20
128.6205830246
 10
142.609406314
 20
128.6474666346
 10
142.6105740201
 20
128.6739983395
 10
142.6124793888
 20
128.7001781393
 10
142.6151470241
 20
128.7260548528
 10
142.6185523229
 20
128.7515796612
 10
142.6226214742
 20
128.7766061082
 10
142.6273603502
 20
128.8011289746
 10
142.6327630804
 20
128.8251534797
 10
142.6387382393
 20
128.8485488246
 10
142.6452924183
 20
128.8713088233
 10
142.6524190281
 20
128.8934396617
 10
142.6600068727
 20
128.9148290986
 10
142.668059779
 20
128.9354636859
 10
142.6765739219
 20
128.9553568717
 10
142.6854266272
 20
128.9744367586
 10
142.6946140641
 20
128.9926825492
 10
142.704140065
 20
129.010115041
 10
142.7138934496
 20
129.026724729
 10
142.7238698848
 20
129.0425000053
 10
142.734073705
 20
129.0574524778
 10
142.7444067309
 20
129.0716074656
 10
142.7548644802
 20
129.084957661
 10
142.765451436
 20
129.0975103717
 10
142.776082867
 20
129.1093128399
 10
142.7867505198
 20
129.1203577151
 10
142.797462648
 20
129.1306523477
 10
142.8081592797
 20
129.1402660315
 10
142.8188385079
 20
129.1491994615
 10
142.8295022396
 20
129.1574519427
 10
142.8400962231
 20
129.1650906838
 10
142.8506198423
 20
129.1721159705
 10
142.861073713
 20
129.1785275173
 10
142.871405432
 20
129.1843916756
 10
142.8816066755
 20
129.1897054311
 10
142.8916857667
 20
129.1944717981
 10
142.9016152729
 20
129.1987661715
 10
142.9113843157
 20
129.202588719
 10
142.9210037726
 20
129.2059392727
 10
142.9304788452
 20
129.2088927242
 10
142.9398060284
 20
129.2114540165
 10
142.9489888265
 20
129.2136182065
 10
142.9580429549
 20
129.2154453568
 10
142.9669736519
 20
129.2169554883
 10
142.9757756785
 20
129.2181285802
 10
142.9844490344
 20
129.2189646324
  0
LWPOLYLINE
  5
27C
100
AcDbEntity
  8
RACCORDO
100
AcDbPolyline
 62
253
  6
CONTINUOUS
 90
17
 70
0
 10
141.960227086
 20
78.3141851463
 10
141.9600665193
 20
78.3087365822
 10
141.9599415846
 20
78.3035779338
 10
141.9598525131
 20
78.2987187542
 10
141.9597994697
 20
78.2941680422
 10
141.9597825528
 20
78.289934225
 10
141.9598017936
 20
78.2860251433
 10
141.9598571565
 20
78.2824480361
 10
141.959948539
 20
78.2792095279
 10
141.9600757719
 20
78.2763156159
 10
141.9602386194
 20
78.2737716593
 10
141.9604367802
 20
78.2715823694
 10
141.9606698871
 20
78.2697518003
 10
141.9609375085
 20
78.268283342
 10
141.9612391488
 20
78.2671797141
 10
141.9615742495
 20
78.2664429602
 10
141.9619421898
 20
78.2660744447
  0
LINE
  5
27D
100
AcDbEntity
  8
RACCORDO
100
AcDbLine
 62
253
  6
CONTINUOUS
 10
141.96065386
 20
78.3259111429
 11
141.960227086
 21
78.3141851463
  0
LINE
  5
27E
100
AcDbEntity
  8
RACCORDO
100
AcDbLine
 62
253
  6
CONTINUOUS
 10
141.9612187467
 20
78.3386691033
 11
141.96065386
 21
78.3259111429
  0
LINE
  5
27F
100
AcDbEntity
  8
RACCORDO
100
AcDbLine
 62
253
  6
CONTINUOUS
 10
143.0925717658
 20
81.6442946932
 11
142.9976680255
 21
79.681456881
  0
LINE
  5
280
100
AcDbEntity
  8
RACCORDO
100
AcDbLine
 62
253
  6
CONTINUOUS
 10
142.8947770315
 20
81.8065845299
 11
142.8177461898
 21
80.1473235576
  0
LINE
  5
281
100
AcDbEntity
  8
RACCORDO
100
AcDbLine
 62
253
  6
CONTINUOUS
 10
141.9619175638
 20
78.3523645662
 11
141.9612187467
 21
78.3386691033
  0
LINE
  5
282
100
AcDbEntity
  8
RACCORDO
100
AcDbLine
 62
253
  6
CONTINUOUS
 10
142.8963376619
 20
81.8348304001
 11
142.8947770315
 21
81.8065845299
  0
LINE
  5
283
100
AcDbEntity
  8
RACCORDO
100
AcDbLine
 62
253
  6
CONTINUOUS
 10
141.962745137
 20
78.3668961292
 11
141.9619175638
 21
78.3523645662
  0
LINE
  5
284
100
AcDbEntity
  8
RACCORDO
100
AcDbLine
 62
253
  6
CONTINUOUS
 10
141.9636953389
 20
78.3821561991
 11
141.962745137
 21
78.3668961292
  0
LINE
  5
285
100
AcDbEntity
  8
RACCORDO
100
AcDbLine
 62
253
  6
CONTINUOUS
 10
142.8979900296
 20
81.8614139503
 11
142.8963376619
 21
81.8348304001
  0
LINE
  5
286
100
AcDbEntity
  8
RACCORDO
100
AcDbLine
 62
253
  6
CONTINUOUS
 10
141.9647611343
 20
78.398031789
 11
141.9636953389
 21
78.3821561991
  0
LINE
  5
287
100
AcDbEntity
  8
RACCORDO
100
AcDbLine
 62
253
  6
CONTINUOUS
 10
141.9665590829
 20
78.4227411129
 11
141.9647611343
 21
78.398031789
  0
LINE
  5
288
100
AcDbEntity
  8
RACCORDO
100
AcDbLine
 62
253
  6
CONTINUOUS
 10
141.9685692449
 20
78.448158697
 11
141.9665590829
 21
78.4227411129
  0
LINE
  5
289
100
AcDbEntity
  8
RACCORDO
100
AcDbLine
 62
253
  6
CONTINUOUS
 10
141.9700108539
 20
78.4652885611
 11
141.9685692449
 21
78.448158697
  0
LINE
  5
28A
100
AcDbEntity
  8
RACCORDO
100
AcDbLine
 62
253
  6
CONTINUOUS
 10
142.9844490358
 20
79.5489419498
 11
142.9869341933
 21
79.577831932
  0
LINE
  5
28B
100
AcDbEntity
  8
RACCORDO
100
AcDbLine
 62
253
  6
CONTINUOUS
 10
142.9869341933
 20
79.577831932
 11
142.9886695534
 21
79.5967902108
  0
LINE
  5
28C
100
AcDbEntity
  8
RACCORDO
100
AcDbLine
 62
253
  6
CONTINUOUS
 10
142.9886695534
 20
79.5967902108
 11
142.9904488412
 21
79.6152989024
  0
LWPOLYLINE
  5
28D
100
AcDbEntity
  8
RACCORDO
100
AcDbPolyline
 62
253
  6
CONTINUOUS
 90
3
 70
0
 10
142.9904488412
 20
79.6152989024
 10
142.9922553384
 20
79.6331840972
 10
142.9931634918
 20
79.6418400949
  0
LWPOLYLINE
  5
28E
100
AcDbEntity
  8
RACCORDO
100
AcDbPolyline
 62
253
  6
CONTINUOUS
 90
34
 70
0
 10
187.9829881673
 20
79.681456881
 10
186.6151876501
 20
79.5701168897
 10
185.2478471076
 20
79.4657203704
 10
183.8809874548
 20
79.368322562
 10
182.5150006597
 20
79.2780439295
 10
181.1495204107
 20
79.1948565048
 10
179.783414209
 20
79.1185876362
 10
178.4161804522
 20
79.0492265038
 10
177.0482788423
 20
78.986860434
 10
175.6800168722
 20
78.9314515866
 10
174.3113803263
 20
78.883004114
 10
172.9423419277
 20
78.8415479234
 10
171.5732026028
 20
78.8070643316
 10
170.2041340284
 20
78.7795549115
 10
168.8350495374
 20
78.7590302468
 10
167.4659028988
 20
78.7454786756
 10
166.0967397154
 20
78.7388986003
 10
164.7276095876
 20
78.7392961753
 10
163.3584722718
 20
78.7466709907
 10
161.9893646834
 20
78.7610171892
 10
160.6203450925
 20
78.7823368152
 10
159.25140528
 20
78.8106403784
 10
157.8824574776
 20
78.845915327
 10
156.5136604212
 20
78.8881613239
 10
155.1453107477
 20
78.9373978333
 10
153.7767210516
 20
78.9936195612
 10
152.4084720312
 20
79.0567978337
 10
151.0427778306
 20
79.1268694597
 10
149.677032634
 20
79.2039095182
 10
148.3138627997
 20
79.2877396997
 10
146.9633309499
 20
79.3777150238
 10
145.6287937764
 20
79.4733950086
 10
144.3069048082
 20
79.574720618
 10
142.9976680255
 20
79.681456881
  0
LWPOLYLINE
  5
28F
100
AcDbEntity
  8
RACCORDO
100
AcDbPolyline
 62
253
  6
CONTINUOUS
 90
34
 70
0
 10
187.9962071583
 20
79.5489419498
 10
186.6274484928
 20
79.4388901607
 10
185.2591892417
 20
79.3357478164
 10
183.8914396408
 20
79.2395149168
 10
182.5246033802
 20
79.1502073733
 10
181.1582972272
 20
79.0678092746
 10
179.791350683
 20
78.9922728865
 10
178.4233029797
 20
78.9235693001
 10
177.054634564
 20
78.8617274243
 10
175.6855865305
 20
78.8067862524
 10
174.3161489078
 20
78.7587527473
 10
172.9463516293
 20
78.7176199462
 10
171.576495751
 20
78.6834059534
 10
170.2066864957
 20
78.6561158756
 10
168.8368387274
 20
78.6357446062
 10
167.4669680024
 20
78.6222949301
 10
166.0970790577
 20
78.615767846
 10
164.7271872373
 20
78.6161623553
 10
163.3573240084
 20
78.6234782465
 10
161.9874952842
 20
78.6377169234
 10
160.6177152295
 20
78.6588769822
 10
159.2480276851
 20
78.6869540007
 10
157.8783696048
 20
78.7219533979
 10
156.5088241028
 20
78.7638697548
 10
155.1396542204
 20
78.8126823917
 10
153.7702426493
 20
78.8684411776
 10
152.4012267273
 20
78.9310962437
 10
151.0347509845
 20
79.0004773041
 10
149.6681856904
 20
79.07685082
 10
148.3041798003
 20
79.1599503302
 10
146.9527926384
 20
79.2488061653
 10
145.6173799994
 20
79.343095102
 10
144.2945971068
 20
79.4431403635
 10
142.9844490344
 20
79.5489419498
  0
LWPOLYLINE
  5
290
100
AcDbEntity
  8
RACCORDO
100
AcDbPolyline
 62
253
  6
CONTINUOUS
 90
37
 70
0
 10
187.8880844254
 20
81.6442946829
 10
187.8965721223
 20
81.6446479893
 10
187.9050436663
 20
81.6452396091
 10
187.9134837731
 20
81.6460684747
 10
187.921877215
 20
81.6471330907
 10
187.9302088488
 20
81.6484315364
 10
187.9384636424
 20
81.6499614691
 10
187.9466267025
 20
81.6517201286
 10
187.9546833016
 20
81.6537043418
 10
187.9626189037
 20
81.6559105288
 10
187.9704191916
 20
81.6583347093
 10
187.978070092
 20
81.6609725095
 10
187.9855578012
 20
81.6638191704
 10
187.9928688098
 20
81.666869556
 10
187.9999899275
 20
81.6701181628
 10
188.0069083062
 20
81.6735591296
 10
188.0136114639
 20
81.6771862484
 10
188.0200873068
 20
81.680992975
 10
188.0263241511
 20
81.6849724415
 10
188.0323107444
 20
81.6891174679
 10
188.0380362856
 20
81.693420576
 10
188.0434904449
 20
81.697874002
 10
188.0486633818
 20
81.7024697111
 10
188.0535457632
 20
81.7071994118
 10
188.0581287805
 20
81.7120545707
 10
188.062404165
 20
81.7170264281
 10
188.0663642031
 20
81.7221060139
 10
188.0700017499
 20
81.7272841635
 10
188.0733102428
 20
81.7325515345
 10
188.0762837125
 20
81.7378986234
 10
188.0789167944
 20
81.7433157833
 10
188.0812047377
 20
81.7487932403
 10
188.0831434147
 20
81.754321112
 10
188.0847293275
 20
81.7598894252
 10
188.0859596148
 20
81.7654881335
 10
188.0868320571
 20
81.7711071358
 10
188.0873450802
 20
81.7767362941
  0
LWPOLYLINE
  5
291
100
AcDbEntity
  8
RACCORDO
100
AcDbPolyline
 62
253
  6
CONTINUOUS
 90
37
 70
0
 10
187.8620454674
 20
81.8125099806
 10
187.8707422281
 20
81.8127232321
 10
187.8794224954
 20
81.8133149435
 10
187.8880698035
 20
81.8142839927
 10
187.8966677503
 20
81.8156285423
 10
187.9052000247
 20
81.8173460421
 10
187.9136504382
 20
81.8194332335
 10
187.9220029597
 20
81.8218861572
 10
187.9302417463
 20
81.8247001602
 10
187.9383511697
 20
81.8278699046
 10
187.9463158468
 20
81.8313893776
 10
187.9541206693
 20
81.8352519031
 10
187.961750832
 20
81.8394501542
 10
187.969191861
 20
81.843976167
 10
187.9764296413
 20
81.848821356
 10
187.9834504433
 20
81.8539765303
 10
187.990240949
 20
81.8594319108
 10
187.9967882775
 20
81.8651771492
 10
188.0030800088
 20
81.8712013471
 10
188.0091042081
 20
81.877493077
 10
188.0148494479
 20
81.8840404041
 10
188.0203048299
 20
81.8908309085
 10
188.0254600056
 20
81.8978517091
 10
188.0303051961
 20
81.905089488
 10
188.0348312104
 20
81.9125305156
 10
188.0390294629
 20
81.9201606769
 10
188.04289199
 20
81.927965498
 10
188.0464114647
 20
81.9359301737
 10
188.0495812108
 20
81.9440395957
 10
188.0523952156
 20
81.9522783809
 10
188.0548481411
 20
81.960630901
 10
188.0569353342
 20
81.9690813119
 10
188.0586528359
 20
81.9776135838
 10
188.0599973879
 20
81.9862115316
 10
188.06096644
 20
81.9948588455
 10
188.0615581538
 20
82.0035391224
 10
188.0617714069
 20
82.0122358964
  0
LWPOLYLINE
  5
292
100
AcDbEntity
  8
0
100
AcDbPolyline
 62
7
  6
CONTINUOUS
 90
82
 70
0
 10
169.1091138901
 20
80.2408533999
 10
169.1174930751
 20
80.2409794554
 10
169.1259727503
 20
80.2413988531
 10
169.1345529137
 20
80.2421115659
 10
169.1432576925
 20
80.243114093
 10
169.1520629556
 20
80.2444098789
 10
169.1608963138
 20
80.2460093096
 10
169.1697597303
 20
80.2479171975
 10
169.1786512379
 20
80.2501286614
 10
169.1874925523
 20
80.252639541
 10
169.1962730678
 20
80.2554490101
 10
169.2050033866
 20
80.2585578233
 10
169.2136370376
 20
80.2619641902
 10
169.2221730089
 20
80.265667221
 10
169.2306123093
 20
80.2696677363
 10
169.2389114987
 20
80.2739665126
 10
169.2470783277
 20
80.2785688021
 10
169.2551050433
 20
80.2834692884
 10
169.2629249512
 20
80.2886528998
 10
169.2705338122
 20
80.2941209153
 10
169.2779358641
 20
80.2998720064
 10
169.2850771292
 20
80.3058871988
 10
169.291945512
 20
80.3121624428
 10
169.2985531079
 20
80.3187017589
 10
169.3048822256
 20
80.3254982871
 10
169.3109354681
 20
80.332552641
 10
169.3167102332
 20
80.3398641945
 10
169.3221810226
 20
80.3474242354
 10
169.3273554182
 20
80.3552436197
 10
169.3322258397
 20
80.3633114982
 10
169.3367440462
 20
80.3715866143
 10
169.3409052853
 20
80.3800688923
 10
169.3447143125
 20
80.3887584457
 10
169.3481371498
 20
80.3976143184
 10
169.3511724063
 20
80.406633493
 10
169.3538214772
 20
80.4158190518
 10
169.3560545645
 20
80.4251392022
 10
169.3578754763
 20
80.4346060048
 10
169.3592804097
 20
80.4442074877
 10
169.3602281506
 20
80.4538758238
 10
169.3607062471
 20
80.4636275527
 10
169.3607271574
 20
80.4734462515
 10
169.3602870332
 20
80.4832146596
 10
169.3593706139
 20
80.4929233091
 10
169.3579931664
 20
80.5025817935
 10
169.356196633
 20
80.5121014373
 10
169.3539841601
 20
80.5214636689
 10
169.3513526063
 20
80.5306871673
 10
169.3483344814
 20
80.5397391194
 10
169.3449303668
 20
80.5486195764
 10
169.341139685
 20
80.5573285774
 10
169.3369932066
 20
80.565833278
 10
169.3324855581
 20
80.5741367076
 10
169.3276221157
 20
80.582235908
 10
169.3224497734
 20
80.5900890358
 10
169.3169717725
 20
80.5976891452
 10
169.311184873
 20
80.6050432243
 10
169.3051262458
 20
80.6121303144
 10
169.2988046443
 20
80.6189424582
 10
169.2922113152
 20
80.6254876317
 10
169.285357169
 20
80.6317687655
 10
169.2782296144
 20
80.6377922218
 10
169.2708412422
 20
80.6435516476
 10
169.2632407351
 20
80.649030891
 10
169.255422011
 20
80.6542302458
 10
169.2473911504
 20
80.6591494038
 10
169.23921508
 20
80.6637712915
 10
169.2308973339
 20
80.6680916815
 10
169.2224343752
 20
80.6721147617
 10
169.2138825241
 20
80.6758360674
 10
169.2052496195
 20
80.6792528424
 10
169.1965278191
 20
80.6823677875
 10
169.1877499205
 20
80.6851846145
 10
169.1789004701
 20
80.6877065056
 10
169.1699949178
 20
80.689930218
 10
169.161112416
 20
80.6918498174
 10
169.152255117
 20
80.6934602825
 10
169.1434208645
 20
80.6947665607
 10
169.1346823482
 20
80.6957776616
 10
169.1260637969
 20
80.696496562
 10
169.1175409781
 20
80.6969202093
 10
169.1091138901
 20
80.6970485673
  0
LINE
  5
293
100
AcDbEntity
  8
RACCORDO
100
AcDbLine
 62
253
  6
CONTINUOUS
 10
140.8903280964
 20
79.1089637513
 11
140.7854360437
 21
79.1089637512
  0
LINE
  5
294
100
AcDbEntity
  8
RACCORDO
100
AcDbLine
 62
253
  6
CONTINUOUS
 10
190.0903280964
 20
79.1089637513
 11
190.1952201543
 21
79.1089637513
  0
LINE
  5
295
100
AcDbEntity
  8
0
100
AcDbLine
 62
7
  6
CONTINUOUS
 10
169.8305903554
 20
79.2220175251
 11
169.3775702484
 21
79.2220175251
  0
LINE
  5
296
100
AcDbEntity
  8
0
100
AcDbLine
 62
7
  6
CONTINUOUS
 10
168.6225367354
 20
79.2220175251
 11
168.2198521954
 21
79.2220175251
  0
LINE
  5
297
100
AcDbEntity
  8
0
100
AcDbLine
 62
7
  6
CONTINUOUS
 10
167.9010602684
 20
79.2220175251
 11
167.4983757284
 21
79.2220175251
  0
LINE
  5
298
100
AcDbEntity
  8
0
100
AcDbLine
 62
7
  6
CONTINUOUS
 10
166.6091140354
 20
79.2220175251
 11
166.2064294954
 21
79.2220175251
  0
LINE
  5
299
100
AcDbEntity
  8
0
100
AcDbLine
 62
7
  6
CONTINUOUS
 10
165.8876375684
 20
79.2220175251
 11
165.4849530284
 21
79.2220175251
  0
LINE
  5
29A
100
AcDbEntity
  8
0
100
AcDbLine
 62
7
  6
CONTINUOUS
 10
165.0990470104
 20
79.2220175251
 11
164.6963624704
 21
79.2220175251
  0
LINE
  5
29B
100
AcDbEntity
  8
0
100
AcDbLine
 62
7
  6
CONTINUOUS
 10
164.3104564534
 20
79.2220175251
 11
163.9077719134
 21
79.2220175251
  0
LINE
  5
29C
100
AcDbEntity
  8
0
100
AcDbLine
 62
7
  6
CONTINUOUS
 10
163.5554229404
 20
79.2220175251
 11
163.1527384004
 21
79.2220175251
  0
LINE
  5
29D
100
AcDbEntity
  8
0
100
AcDbLine
 62
7
  6
CONTINUOUS
 10
162.1963626184
 20
79.2220175251
 11
161.8104566004
 21
79.2220175251
  0
LINE
  5
29E
100
AcDbEntity
  8
RACCORDO
100
AcDbLine
 62
253
  6
CONTINUOUS
 10
141.2387015573
 20
79.2615923008
 11
141.0483176414
 21
79.2615923008
  0
LINE
  5
29F
100
AcDbEntity
  8
RACCORDO
100
AcDbLine
 62
253
  6
CONTINUOUS
 10
189.7419546355
 20
79.2615923008
 11
189.9323385514
 21
79.2615923008
  0
LINE
  5
2A0
100
AcDbEntity
  8
0
100
AcDbLine
 62
7
  6
CONTINUOUS
 10
167.3641475484
 20
79.5717671531
 11
166.7265636934
 21
79.5717671531
  0
LINE
  5
2A1
100
AcDbEntity
  8
0
100
AcDbLine
 62
7
  6
CONTINUOUS
 10
168.9748857084
 20
79.9063102761
 11
168.6225367354
 21
79.9063102761
  0
LINE
  5
2A2
100
AcDbEntity
  8
0
100
AcDbLine
 62
7
  6
CONTINUOUS
 10
166.8607918734
 20
79.9063102761
 11
167.2466978904
 21
79.9063102761
  0
LINE
  5
2A3
100
AcDbEntity
  8
RACCORDO
100
AcDbLine
 62
253
  6
CONTINUOUS
 10
188.3716799226
 20
80.1473235577
 11
188.1629100031
 21
80.1473235577
  0
LINE
  5
2A4
100
AcDbEntity
  8
RACCORDO
100
AcDbLine
 62
253
  6
CONTINUOUS
 10
142.6089762702
 20
80.1473235576
 11
142.8177461898
 21
80.1473235576
  0
LINE
  5
2A5
100
AcDbEntity
  8
0
100
AcDbLine
 62
7
  6
CONTINUOUS
 10
168.6057582134
 20
80.2408534001
 11
169.109113888
 21
80.2408534001
  0
LINE
  5
2A6
100
AcDbEntity
  8
0
100
AcDbLine
 62
7
  6
CONTINUOUS
 10
169.109113888
 20
80.6970485671
 11
168.6057582134
 21
80.6970485671
  0
LINE
  5
2A7
100
AcDbEntity
  8
0
100
AcDbLine
 62
7
  6
CONTINUOUS
 10
161.1560942234
 20
81.0315916911
 11
161.5587787634
 21
81.0315916911
  0
LINE
  5
2A8
100
AcDbEntity
  8
0
100
AcDbLine
 62
7
  6
CONTINUOUS
 10
162.4480404554
 20
81.0315916911
 11
162.8507249954
 21
81.0315916911
  0
LINE
  5
2A9
100
AcDbEntity
  8
0
100
AcDbLine
 62
7
  6
CONTINUOUS
 10
163.1527384004
 20
81.0315916911
 11
163.5554229404
 21
81.0315916911
  0
LINE
  5
2AA
100
AcDbEntity
  8
0
100
AcDbLine
 62
7
  6
CONTINUOUS
 10
163.9077719134
 20
81.0315916911
 11
164.5285772454
 21
81.0315916911
  0
LINE
  5
2AB
100
AcDbEntity
  8
0
100
AcDbLine
 62
7
  6
CONTINUOUS
 10
165.2836107584
 20
81.0315916911
 11
165.8876375684
 21
81.0315916911
  0
LINE
  5
2AC
100
AcDbEntity
  8
0
100
AcDbLine
 62
7
  6
CONTINUOUS
 10
166.8440133504
 20
81.0315916911
 11
167.2466978904
 21
81.0315916911
  0
LINE
  5
2AD
100
AcDbEntity
  8
0
100
AcDbLine
 62
7
  6
CONTINUOUS
 10
168.2198521954
 20
81.0315916911
 11
169.1594494555
 21
81.0315916911
  0
LWPOLYLINE
  5
2AE
100
AcDbEntity
  8
RACCORDO
100
AcDbPolyline
 62
253
  6
CONTINUOUS
 90
3
 70
0
 10
143.118610728
 20
81.8125099817
 10
148.7309204784
 20
81.81323152
 10
175.9478091848
 20
81.8136720103
  0
LINE
  5
2AF
100
AcDbEntity
  8
RACCORDO
100
AcDbLine
 62
7
  6
CONTINUOUS
 10
187.7906021891
 20
81.8839532911
 11
143.1900540038
 21
81.8839532911
  0
LINE
  5
2B0
100
AcDbEntity
  8
RACCORDO
100
AcDbLine
 62
253
  6
CONTINUOUS
 10
175.9478091848
 20
81.8136720103
 11
184.1667756571
 21
81.8130251201
  0
LINE
  5
2B1
100
AcDbEntity
  8
RACCORDO
100
AcDbLine
 62
253
  6
CONTINUOUS
 10
184.1667756571
 20
81.8130251201
 11
187.8620454674
 21
81.8125099806
  0
LWPOLYLINE
  5
2B2
100
AcDbEntity
  8
RACCORDO
100
AcDbPolyline
 62
253
  6
CONTINUOUS
 90
22
 70
0
 10
143.0925717658
 20
81.6442946932
 10
144.9057029961
 20
81.6398495078
 10
146.7782590329
 20
81.6362231416
 10
148.7102350773
 20
81.6332282056
 10
150.6965600037
 20
81.6306289955
 10
152.7422958678
 20
81.6283165366
 10
154.8626387658
 20
81.6263879952
 10
157.0708891828
 20
81.6248742245
 10
159.3537769246
 20
81.6237111325
 10
161.6866225458
 20
81.6229030146
 10
164.0878667923
 20
81.6224473326
 10
166.5390351572
 20
81.6224289972
 10
168.9600535416
 20
81.6228212743
 10
171.3410938939
 20
81.6235605278
 10
173.6919467419
 20
81.6247209045
 10
175.9619788128
 20
81.6262656838
 10
178.1304741084
 20
81.6282057291
 10
180.218167481
 20
81.6305366207
 10
182.2366185733
 20
81.6331779841
 10
184.1896829596
 20
81.636223543
 10
186.0735073302
 20
81.6398757966
 10
187.8880844254
 20
81.644294683
  0
LWPOLYLINE
  5
2B3
100
AcDbEntity
  8
0
100
AcDbPolyline
 62
7
  6
CONTINUOUS
 90
88
 70
0
 10
169.1594494528
 20
81.0315916909
 10
169.1766045401
 20
81.0313780169
 10
169.1938724989
 20
81.0306965111
 10
169.2112533349
 20
81.0295472861
 10
169.2287780022
 20
81.0279337127
 10
169.2464155583
 20
81.0258526538
 10
169.2640731637
 20
81.0232944581
 10
169.281745933
 20
81.020256383
 10
169.2994387635
 20
81.0167414048
 10
169.3170734899
 20
81.0127484398
 10
169.3346514857
 20
81.0082742591
 10
169.3521713888
 20
81.0033223149
 10
169.3695509301
 20
80.9979015255
 10
169.3867793424
 20
80.9920140427
 10
169.4038674032
 20
80.9856579095
 10
169.4207651598
 20
80.9788358595
 10
169.4374756501
 20
80.9715465855
 10
169.4539958454
 20
80.9637915677
 10
169.4702666922
 20
80.9555776997
 10
169.4862781051
 20
80.946909815
 10
169.502040177
 20
80.9377832152
 10
169.5175241215
 20
80.9281904773
 10
169.5327338925
 20
80.9181273874
 10
169.5476655423
 20
80.9075982726
 10
169.5622784322
 20
80.8966085048
 10
169.57657026
 20
80.8851620644
 10
169.5905433323
 20
80.8732550418
 10
169.6041639226
 20
80.860880952
 10
169.6174421538
 20
80.8480316567
 10
169.6303679058
 20
80.8347153308
 10
169.6428770868
 20
80.8209499272
 10
169.6549671898
 20
80.8067349102
 10
169.6666407217
 20
80.7920707815
 10
169.6778411097
 20
80.7769770054
 10
169.6885733379
 20
80.7614396738
 10
169.6988324192
 20
80.7454725935
 10
169.7085468213
 20
80.7291367446
 10
169.7177122951
 20
80.712439589
 10
169.7263330826
 20
80.6953734666
 10
169.7343503858
 20
80.6779766153
 10
169.7417706957
 20
80.6602320259
 10
169.748587511
 20
80.642156436
 10
169.7547225425
 20
80.6238386413
 10
169.7601661982
 20
80.6052695982
 10
169.7649280555
 20
80.5864579816
 10
169.7689585758
 20
80.5675191027
 10
169.7722387401
 20
80.5484530236
 10
169.7747875496
 20
80.5292592502
 10
169.7766124948
 20
80.5100522329
 10
169.7777118672
 20
80.4908584267
 10
169.7780873567
 20
80.4716509471
 10
169.777751551
 20
80.4524642401
 10
169.7767065157
 20
80.4332760033
 10
169.7749501668
 20
80.4141081335
 10
169.7724888672
 20
80.3950613878
 10
169.7693140511
 20
80.3761314319
 10
169.7654342662
 20
80.3573222286
 10
169.7608815474
 20
80.3387470089
 10
169.7556435363
 20
80.3204127037
 10
169.7497325752
 20
80.3023120828
 10
169.7432177519
 20
80.2845371869
 10
169.7361062551
 20
80.2671119083
 10
169.728390884
 20
80.2500121606
 10
169.7201191445
 20
80.2332580672
 10
169.7112942103
 20
80.2168485088
 10
169.7019128981
 20
80.2007844854
 10
169.6920131805
 20
80.1850893341
 10
169.6815977125
 20
80.1697694126
 10
169.670663832
 20
80.1548183149
 10
169.659241538
 20
80.1402402607
 10
169.6473207002
 20
80.1260278258
 10
169.6349114436
 20
80.1121884414
 10
169.6220741513
 20
80.0987486399
 10
169.608809975
 20
80.0857093557
 10
169.5951177611
 20
80.0730697309
 10
169.5810544365
 20
80.0608536411
 10
169.5666012013
 20
80.0490495034
 10
169.551776856
 20
80.0376690319
 10
169.5366947314
 20
80.0267710859
 10
169.5213528077
 20
80.0163625053
 10
169.5057531098
 20
80.0064366527
 10
169.4900150394
 20
79.9970322098
 10
169.4741254786
 20
79.9881513968
 10
169.4580975543
 20
79.9797922362
 10
169.4420900382
 20
79.971987137
 10
169.4261558591
 20
79.9647469918
 10
169.410242101
 20
79.9580611681
 10
169.3943487703
 20
79.9519297933
  0
LWPOLYLINE
  5
2B4
100
AcDbEntity
  8
RACCORDO
100
AcDbPolyline
 62
253
  6
CONTINUOUS
 90
3
 70
0
 10
142.9931634924
 20
129.1260664919
 10
142.9940720716
 20
129.117628843
 10
142.995881969
 20
129.1014873581
  0
LINE
  5
2B5
100
AcDbEntity
  8
RACCORDO
100
AcDbLine
 62
253
  6
CONTINUOUS
 10
142.9931634918
 20
79.6418400949
 11
142.9949789405
 21
79.6584772129
  0
LWPOLYLINE
  5
2B6
100
AcDbEntity
  8
RACCORDO
100
AcDbPolyline
 62
253
  6
CONTINUOUS
 90
3
 70
0
 10
142.9949789405
 20
79.6584772129
 10
142.9967790333
 20
79.6740851262
 10
142.9976680256
 20
79.6814568857
  0
LINE
  5
2B7
100
AcDbEntity
  8
RACCORDO
100
AcDbLine
 62
253
  6
CONTINUOUS
 10
142.995881969
 20
129.1014873581
 11
142.9976680254
 21
129.0864497017
  0
LINE
  5
2B8
100
AcDbEntity
  8
0
100
AcDbLine
 62
7
  6
CONTINUOUS
 10
169.3943487703
 20
79.9519297933
 11
169.8305903554
 21
79.2220175251
  0
LINE
  5
2B9
100
AcDbEntity
  8
0
100
AcDbLine
 62
7
  6
CONTINUOUS
 10
169.3775702484
 20
79.2220175251
 11
168.9748857084
 21
79.9063102761
  0
LINE
  5
2BA
100
AcDbEntity
  8
0
100
AcDbLine
 62
7
  6
CONTINUOUS
 10
167.4983757284
 20
79.2220175251
 11
167.3641475484
 21
79.5717671531
  0
LINE
  5
2BB
100
AcDbEntity
  8
0
100
AcDbLine
 62
7
  6
CONTINUOUS
 10
161.8104566004
 20
79.2220175251
 11
161.1560942234
 21
81.0315916911
  0
LINE
  5
2BC
100
AcDbEntity
  8
0
100
AcDbLine
 62
7
  6
CONTINUOUS
 10
167.2466978904
 20
81.0315916911
 11
167.9010602684
 21
79.2220175251
  0
LINE
  5
2BD
100
AcDbEntity
  8
0
100
AcDbLine
 62
7
  6
CONTINUOUS
 10
167.2466978904
 20
79.9063102761
 11
167.0453556204
 21
80.4689509841
  0
LINE
  5
2BE
100
AcDbEntity
  8
0
100
AcDbLine
 62
7
  6
CONTINUOUS
 10
161.5587787634
 20
81.0315916911
 11
161.9950203484
 21
79.7694517261
  0
LINE
  5
2BF
100
AcDbEntity
  8
0
100
AcDbLine
 62
7
  6
CONTINUOUS
 10
164.6963624704
 20
79.2220175251
 11
164.3104564534
 21
80.4081249611
  0
LINE
  5
2C0
100
AcDbEntity
  8
0
100
AcDbLine
 62
7
  6
CONTINUOUS
 10
164.5285772454
 20
81.0315916911
 11
164.8977047404
 21
79.8454842541
  0
LINE
  5
2C1
100
AcDbEntity
  8
0
100
AcDbLine
 62
7
  6
CONTINUOUS
 10
163.1527384004
 20
79.2220175251
 11
163.1527384004
 21
81.0315916911
  0
LINE
  5
2C2
100
AcDbEntity
  8
0
100
AcDbLine
 62
7
  6
CONTINUOUS
 10
163.5554229404
 20
81.0315916911
 11
163.5554229404
 21
79.2220175251
  0
LINE
  5
2C3
100
AcDbEntity
  8
0
100
AcDbLine
 62
7
  6
CONTINUOUS
 10
163.9077719134
 20
79.2220175251
 11
163.9077719134
 21
81.0315916911
  0
LINE
  5
2C4
100
AcDbEntity
  8
0
100
AcDbLine
 62
7
  6
CONTINUOUS
 10
164.3104564534
 20
80.4081249611
 11
164.3104564534
 21
79.2220175251
  0
LINE
  5
2C5
100
AcDbEntity
  8
0
100
AcDbLine
 62
7
  6
CONTINUOUS
 10
165.4849530284
 20
79.2220175251
 11
165.4849530284
 21
80.4081249611
  0
LINE
  5
2C6
100
AcDbEntity
  8
0
100
AcDbLine
 62
7
  6
CONTINUOUS
 10
165.8876375684
 20
81.0315916911
 11
165.8876375684
 21
79.2220175251
  0
LWPOLYLINE
  5
2C7
100
AcDbEntity
  8
RACCORDO
100
AcDbPolyline
 62
253
  6
CONTINUOUS
 90
10
 70
0
 10
141.8945520724
 20
78.0131434342
 10
141.8936113443
 20
78.0116924567
 10
141.8924334234
 20
78.007243193
 10
141.8910542856
 20
77.9999315328
 10
141.8895160528
 20
77.9899807896
 10
141.8878657057
 20
77.9776948793
 10
141.8861536487
 20
77.9634490381
 10
141.8844321715
 20
77.9476783626
 10
141.8827538515
 20
77.9308645209
 10
141.881169948
 20
77.9135210413
  0
LWPOLYLINE
  5
2C8
100
AcDbEntity
  8
RACCORDO
100
AcDbPolyline
 62
253
  6
CONTINUOUS
 90
21
 70
0
 10
142.918884787
 20
82.0122359008
 10
142.9178084473
 20
82.010859031
 10
142.9167352548
 20
82.008877927
 10
142.9156652095
 20
82.0062925888
 10
142.914596964
 20
82.003099393
 10
142.9135318656
 20
81.999301963
 10
142.9124739566
 20
81.9949111689
 10
142.9114233821
 20
81.989923475
 10
142.910379997
 20
81.9843424169
 10
142.9093474075
 20
81.9781894715
 10
142.9083261592
 20
81.9714660207
 10
142.9073157066
 20
81.9641706827
 10
142.9063180202
 20
81.9563207889
 10
142.9053331978
 20
81.9479174022
 10
142.9043611416
 20
81.9389594597
 10
142.9034035282
 20
81.9294611042
 10
142.9024599712
 20
81.9194172956
 10
142.9015308571
 20
81.9088330739
 10
142.9006190223
 20
81.8977377022
 10
142.8997243534
 20
81.8861257343
 10
142.8979900296
 20
81.8614139503
  0
LINE
  5
2C9
100
AcDbEntity
  8
RACCORDO
100
AcDbLine
 62
253
  6
CONTINUOUS
 10
142.9903280964
 20
82.0836791982
 11
142.918884787
 21
82.0122359008
  0
LINE
  5
2CA
100
AcDbEntity
  8
RACCORDO
100
AcDbLine
 62
253
  6
CONTINUOUS
 10
187.7906021891
 20
126.8839532911
 11
187.8620454649
 21
126.9553966006
  0
LINE
  5
2CB
100
AcDbEntity
  8
RACCORDO
100
AcDbLine
 62
253
  6
CONTINUOUS
 10
143.1900540038
 20
81.8839532911
 11
143.118610728
 21
81.8125099817
  0
LINE
  5
2CC
100
AcDbEntity
  8
RACCORDO
100
AcDbLine
 62
253
  6
CONTINUOUS
 10
187.9903280964
 20
126.684227384
 11
188.061771406
 21
126.7556706817
  0
LINE
  5
2CD
100
AcDbEntity
  8
RACCORDO
100
AcDbLine
 62
253
  6
CONTINUOUS
 10
189.9903280964
 20
129.5594634891
 11
189.9323385514
 21
129.5063142814
  0
LINE
  5
2CE
100
AcDbEntity
  8
RACCORDO
100
AcDbLine
 62
253
  6
CONTINUOUS
 10
189.0775046971
 20
130.5555167936
 11
189.0187140033
 21
130.5018321402
  0
LWPOLYLINE
  5
2CF
100
AcDbEntity
  8
RACCORDO
100
AcDbPolyline
 62
253
  6
CONTINUOUS
 90
27
 70
0
 10
187.8620454307
 20
126.9553965767
 10
187.8631407936
 20
126.9563799262
 10
187.8642329193
 20
126.9577946685
 10
187.8653218492
 20
126.9596411736
 10
187.8664090412
 20
126.9619204016
 10
187.8674931214
 20
126.9646313211
 10
187.868569883
 20
126.9677692439
 10
187.8696392146
 20
126.9713311704
 10
187.8707013104
 20
126.9753143494
 10
187.8717524205
 20
126.9797112961
 10
187.87279203
 20
126.9845146772
 10
187.8738207326
 20
126.9897213843
 10
187.8748364404
 20
126.9953293707
 10
187.8758390919
 20
127.0013328744
 10
187.8768288263
 20
127.0077269812
 10
187.8778038579
 20
127.0145121914
 10
187.8787646183
 20
127.021686542
 10
187.8797107547
 20
127.0292417608
 10
187.880639305
 20
127.0371689869
 10
187.8815504226
 20
127.0454636527
 10
187.8824440287
 20
127.0541170316
 10
187.8833168091
 20
127.0631119676
 10
187.8841686676
 20
127.0724401357
 10
187.8849997654
 20
127.0820923577
 10
187.8858071678
 20
127.0920475074
 10
187.8865899126
 20
127.1022909926
 10
187.888084497
 20
127.1236119278
  0
LWPOLYLINE
  5
2D0
100
AcDbEntity
  8
RACCORDO
100
AcDbPolyline
 62
253
  6
CONTINUOUS
 90
25
 70
0
 10
187.8620454348
 20
81.8125099983
 10
187.8631412812
 20
81.8115261155
 10
187.8642338196
 20
81.8101105593
 10
187.8653230915
 20
81.8082630414
 10
187.8664105526
 20
81.805982687
 10
187.867494831
 20
81.8032706067
 10
187.8685717268
 20
81.8001315555
 10
187.8696411135
 20
81.7965686619
 10
187.8707032003
 20
81.7925847092
 10
187.8717542893
 20
81.7881870362
 10
187.8727938539
 20
81.7833830596
 10
187.8738224994
 20
81.7781758411
 10
187.8748382263
 20
81.7725669167
 10
187.8758410166
 20
81.7665617022
 10
187.8768309662
 20
81.7601652394
 10
187.8778062477
 20
81.7533771599
 10
187.8787673294
 20
81.7461990484
 10
187.8797138222
 20
81.7386394245
 10
187.8806426128
 20
81.7307084441
 10
187.8815538046
 20
81.7224112036
 10
187.8824473682
 20
81.7137562013
 10
187.8833199865
 20
81.7047609587
 10
187.8841715497
 20
81.6954340418
 10
187.8850022319
 20
81.6857846793
 10
187.8858091346
 20
81.6758340897
  0
LINE
  5
2D1
100
AcDbEntity
  8
RACCORDO
100
AcDbLine
 62
253
  6
CONTINUOUS
 10
189.0775046971
 20
78.2123897885
 11
189.0187140033
 21
78.266074442
  0
LINE
  5
2D2
100
AcDbEntity
  8
RACCORDO
100
AcDbLine
 62
253
  6
CONTINUOUS
 10
189.9903280964
 20
79.2084430931
 11
189.9323385514
 21
79.2615923008
  0
LINE
  5
2D3
100
AcDbEntity
  8
RACCORDO
100
AcDbLine
 62
253
  6
CONTINUOUS
 10
142.9903280964
 20
126.684227384
 11
142.9188847861
 21
126.7556706855
  0
LINE
  5
2D4
100
AcDbEntity
  8
RACCORDO
100
AcDbLine
 62
253
  6
CONTINUOUS
 10
187.7906021891
 20
81.8839532911
 11
187.8620454674
 21
81.8125099806
  0
LINE
  5
2D5
100
AcDbEntity
  8
RACCORDO
100
AcDbLine
 62
253
  6
CONTINUOUS
 10
143.1900540037
 20
126.8839532911
 11
143.1186107255
 21
126.9553966014
  0
LINE
  5
2D6
100
AcDbEntity
  8
RACCORDO
100
AcDbLine
 62
253
  6
CONTINUOUS
 10
187.9903280964
 20
82.0836791981
 11
188.0617714069
 21
82.0122358964
  0
LWPOLYLINE
  5
2D7
100
AcDbEntity
  8
RACCORDO
100
AcDbPolyline
 62
253
  6
CONTINUOUS
 90
20
 70
0
 10
142.9188847861
 20
126.7556706855
 10
142.9178079875
 20
126.7570484617
 10
142.9167344032
 20
126.7590306259
 10
142.9156640334
 20
126.7616171781
 10
142.9145955328
 20
126.7648118375
 10
142.9135302466
 20
126.768610885
 10
142.9124722099
 20
126.7730031632
 10
142.9114215822
 20
126.777992085
 10
142.9103782039
 20
126.7835742376
 10
142.9093456316
 20
126.7897282251
 10
142.9083244227
 20
126.796452415
 10
142.9073140197
 20
126.8037484399
 10
142.9063163069
 20
126.8115998021
 10
142.90533134
 20
126.8200057103
 10
142.9043590634
 20
126.8289669557
 10
142.9034011944
 20
126.8384694144
 10
142.9024573101
 20
126.8485187756
 10
142.9015278335
 20
126.8591093501
 10
142.9006157508
 20
126.8702099466
 10
142.8997209979
 20
126.8818256744
  0
LWPOLYLINE
  5
2D8
100
AcDbEntity
  8
RACCORDO
100
AcDbPolyline
 62
253
  6
CONTINUOUS
 90
10
 70
0
 10
141.8945565483
 20
130.7547118357
 10
141.8936155271
 20
130.7561635763
 10
141.8924371594
 20
130.760615629
 10
141.8910574612
 20
130.7679319191
 10
141.8895186025
 20
130.7778888283
 10
141.8878676175
 20
130.7901820292
 10
141.8861549668
 20
130.8044357877
 10
141.8844329963
 20
130.8202144463
 10
141.8827543373
 20
130.8370357398
 10
141.881170297
 20
130.8543855356
  0
LINE
  5
2D9
100
AcDbEntity
  8
0
100
AcDbLine
 62
7
  6
CONTINUOUS
 10
168.2198521954
 20
79.2220175251
 11
168.2198521954
 21
81.0315916911
  0
LINE
  5
2DA
100
AcDbEntity
  8
0
100
AcDbLine
 62
7
  6
CONTINUOUS
 10
168.6057582134
 20
80.6970485671
 11
168.6057582134
 21
80.2408534001
  0
LINE
  5
2DB
100
AcDbEntity
  8
0
100
AcDbLine
 62
7
  6
CONTINUOUS
 10
168.6225367354
 20
79.9063102761
 11
168.6225367354
 21
79.2220175251
  0
LINE
  5
2DC
100
AcDbEntity
  8
0
100
AcDbLine
 62
7
  6
CONTINUOUS
 10
164.8977047404
 20
79.8454842541
 11
165.2836107584
 21
81.0315916911
  0
LINE
  5
2DD
100
AcDbEntity
  8
0
100
AcDbLine
 62
7
  6
CONTINUOUS
 10
165.4849530284
 20
80.4081249611
 11
165.0990470104
 21
79.2220175251
  0
LINE
  5
2DE
100
AcDbEntity
  8
0
100
AcDbLine
 62
7
  6
CONTINUOUS
 10
161.9950203484
 20
79.7694517261
 11
162.4480404554
 21
81.0315916911
  0
LINE
  5
2DF
100
AcDbEntity
  8
0
100
AcDbLine
 62
7
  6
CONTINUOUS
 10
162.8507249954
 20
81.0315916911
 11
162.1963626184
 21
79.2220175251
  0
LWPOLYLINE
  5
2E0
100
AcDbEntity
  8
RACCORDO
100
AcDbPolyline
 62
253
  6
CONTINUOUS
 90
10
 70
0
 10
189.0861041204
 20
130.754763148
 10
189.0870448485
 20
130.7562141255
 10
189.0882227695
 20
130.7606633892
 10
189.0896019072
 20
130.7679750494
 10
189.09114014
 20
130.7779257926
 10
189.0927904872
 20
130.7902117029
 10
189.0945025441
 20
130.8044575441
 10
189.0962240213
 20
130.8202282195
 10
189.0979023413
 20
130.8370420613
 10
189.0994862448
 20
130.8543855409
  0
LWPOLYLINE
  5
2E1
100
AcDbEntity
  8
RACCORDO
100
AcDbPolyline
 62
253
  6
CONTINUOUS
 90
21
 70
0
 10
188.061771406
 20
126.7556706817
 10
188.0628477466
 20
126.7570475534
 10
188.0639209399
 20
126.7590286595
 10
188.0649909858
 20
126.7616139999
 10
188.0660592318
 20
126.7648071984
 10
188.0671243304
 20
126.7686046312
 10
188.0681822396
 20
126.7729954278
 10
188.0692328141
 20
126.7779831235
 10
188.0702761991
 20
126.7835641829
 10
188.0713087883
 20
126.7897171288
 10
188.0723300363
 20
126.796440579
 10
188.0733404885
 20
126.8037359158
 10
188.0743381746
 20
126.8115858088
 10
188.0753229969
 20
126.8199891954
 10
188.076295053
 20
126.8289471381
 10
188.0772526664
 20
126.8384454945
 10
188.0781962234
 20
126.8484893052
 10
188.0791253376
 20
126.8590735295
 10
188.0800371726
 20
126.8701689032
 10
188.0809318414
 20
126.8817808723
 10
188.082666165
 20
126.9064926566
  0
LINE
  5
2E2
100
AcDbEntity
  8
RACCORDO
100
AcDbLine
 62
253
  6
CONTINUOUS
 10
140.9903280964
 20
79.2084430931
 11
141.0483176414
 21
79.2615923008
  0
LINE
  5
2E3
100
AcDbEntity
  8
RACCORDO
100
AcDbLine
 62
253
  6
CONTINUOUS
 10
141.9031514958
 20
78.2123897885
 11
141.9619421896
 21
78.266074442
  0
LWPOLYLINE
  5
2E4
100
AcDbEntity
  8
RACCORDO
100
AcDbPolyline
 62
253
  6
CONTINUOUS
 90
27
 70
0
 10
143.118610762
 20
81.8125100059
 10
143.1175153999
 20
81.8115266572
 10
143.1164232749
 20
81.8101119163
 10
143.1153343455
 20
81.8082654129
 10
143.1142471538
 20
81.8059861867
 10
143.113163074
 20
81.8032752689
 10
143.1120863125
 20
81.8001373476
 10
143.1110169808
 20
81.7965754223
 10
143.1099548848
 20
81.7925922438
 10
143.1089037745
 20
81.7881952973
 10
143.1078641646
 20
81.7833919157
 10
143.1068354617
 20
81.7781852075
 10
143.1058197536
 20
81.7725772202
 10
143.1048171019
 20
81.7665737162
 10
143.1038273674
 20
81.7601796096
 10
143.1028523358
 20
81.7533943999
 10
143.1018915754
 20
81.7462200505
 10
143.1009454392
 20
81.7386648336
 10
143.1000168889
 20
81.730737609
 10
143.0991057713
 20
81.7224429441
 10
143.0982121651
 20
81.7137895658
 10
143.0973393846
 20
81.7047946297
 10
143.096487526
 20
81.6954664608
 10
143.0956564279
 20
81.6858142374
 10
143.0948490253
 20
81.6758590857
 10
143.0940662802
 20
81.6656155977
 10
143.0925716953
 20
81.6442946546
  0
LWPOLYLINE
  5
2E5
100
AcDbEntity
  8
RACCORDO
100
AcDbPolyline
 62
253
  6
CONTINUOUS
 90
25
 70
0
 10
143.1186107579
 20
126.9553965834
 10
143.1175149107
 20
126.9563804671
 10
143.1164223717
 20
126.9577960245
 10
143.1153330993
 20
126.959643544
 10
143.1142456378
 20
126.9619239
 10
143.1131613591
 20
126.964635982
 10
143.1120844631
 20
126.9677750347
 10
143.1110150765
 20
126.9713379293
 10
143.1099529899
 20
126.9753218825
 10
143.108901901
 20
126.9797195556
 10
143.1078623368
 20
126.9845235319
 10
143.1068336915
 20
126.9897307496
 10
143.1058179648
 20
126.9953396734
 10
143.1048151747
 20
127.0013448877
 10
143.1038252252
 20
127.0077413509
 10
143.1028499436
 20
127.0145294311
 10
143.1018888618
 20
127.0217075438
 10
143.1009423689
 20
127.0292671696
 10
143.1000135782
 20
127.0371981515
 10
143.0991023864
 20
127.0454953928
 10
143.0982088227
 20
127.0541503956
 10
143.0973362046
 20
127.0631456381
 10
143.0964846415
 20
127.0724725542
 10
143.0956539595
 20
127.0821219154
 10
143.0948470569
 20
127.092072503
  0
LINE
  5
2E6
100
AcDbEntity
  8
RACCORDO
100
AcDbLine
 62
253
  6
CONTINUOUS
 10
141.9031514958
 20
130.5555167936
 11
141.9619421896
 21
130.5018321402
  0
LINE
  5
2E7
100
AcDbEntity
  8
RACCORDO
100
AcDbLine
 62
253
  6
CONTINUOUS
 10
140.9903280964
 20
129.5594634891
 11
141.0483176414
 21
129.5063142814
  0
LWPOLYLINE
  5
2E8
100
AcDbEntity
  8
RACCORDO
100
AcDbPolyline
 62
253
  6
CONTINUOUS
 90
20
 70
0
 10
188.0617714069
 20
82.0122358964
 10
188.0628482048
 20
82.0108581217
 10
188.0639217883
 20
82.0088759592
 10
188.0649921577
 20
82.0062894088
 10
188.0660606578
 20
82.0030947518
 10
188.0671259437
 20
81.999295707
 10
188.0681839803
 20
81.9949034309
 10
188.069234608
 20
81.9899145107
 10
188.0702779864
 20
81.9843323592
 10
188.0713105589
 20
81.9781783721
 10
188.0723317681
 20
81.9714541818
 10
188.0733421714
 20
81.964158156
 10
188.0743398844
 20
81.9563067933
 10
188.0753248514
 20
81.9479008853
 10
188.0762971281
 20
81.9389396405
 10
188.0772549971
 20
81.9294371829
 10
188.0781988813
 20
81.9193878237
 10
188.0791283578
 20
81.9087972518
 10
188.0800404404
 20
81.8976966574
 10
188.0809351934
 20
81.8860809308
  0
LWPOLYLINE
  5
2E9
100
AcDbEntity
  8
RACCORDO
100
AcDbPolyline
 62
253
  6
CONTINUOUS
 90
10
 70
0
 10
189.0860996446
 20
78.0131947464
 10
189.0870406657
 20
78.0117430059
 10
189.0882190335
 20
78.0072909532
 10
189.0895987317
 20
77.9999746631
 10
189.0911375904
 20
77.9900177539
 10
189.0927885754
 20
77.977724553
 10
189.0945012261
 20
77.9634707945
 10
189.0962231966
 20
77.9476921359
 10
189.0979018556
 20
77.9308708424
 10
189.0994858958
 20
77.9135210466
  0
LINE
  5
2EA
100
AcDbEntity
  8
0
100
AcDbLine
 62
7
  6
CONTINUOUS
 10
167.0453556204
 20
80.4689509841
 11
166.8607918734
 21
79.9063102761
  0
LINE
  5
2EB
100
AcDbEntity
  8
0
100
AcDbLine
 62
7
  6
CONTINUOUS
 10
166.7265636934
 20
79.5717671531
 11
166.6091140354
 21
79.2220175251
  0
LINE
  5
2EC
100
AcDbEntity
  8
0
100
AcDbLine
 62
7
  6
CONTINUOUS
 10
166.2064294954
 20
79.2220175251
 11
166.8440133504
 21
81.0315916911
  0
LINE
  5
2ED
100
AcDbEntity
  8
RACCORDO
100
AcDbLine
 62
253
  6
CONTINUOUS
 10
187.9884008537
 20
79.6331840918
 11
187.9865841212
 21
79.6502777378
  0
LINE
  5
2EE
100
AcDbEntity
  8
RACCORDO
100
AcDbLine
 62
253
  6
CONTINUOUS
 10
187.990207351
 20
79.6152988981
 11
187.9884008537
 21
79.6331840918
  0
LINE
  5
2EF
100
AcDbEntity
  8
RACCORDO
100
AcDbLine
 62
253
  6
CONTINUOUS
 10
187.991986639
 20
79.5967902078
 11
187.990207351
 21
79.6152988981
  0
LINE
  5
2F0
100
AcDbEntity
  8
RACCORDO
100
AcDbLine
 62
253
  6
CONTINUOUS
 10
187.9937219995
 20
79.5778319303
 11
187.991986639
 21
79.5967902078
  0
LINE
  5
2F1
100
AcDbEntity
  8
RACCORDO
100
AcDbLine
 62
253
  6
CONTINUOUS
 10
187.9962071582
 20
79.5489419498
 11
187.9937219995
 21
79.5778319303
  0
LINE
  5
2F2
100
AcDbEntity
  8
RACCORDO
100
AcDbLine
 62
253
  6
CONTINUOUS
 10
189.010645339
 20
78.4652885611
 11
189.0127785811
 21
78.4396334357
  0
LINE
  5
2F3
100
AcDbEntity
  8
RACCORDO
100
AcDbLine
 62
253
  6
CONTINUOUS
 10
189.0127785811
 20
78.4396334357
 11
189.0147215584
 21
78.4144053762
  0
LWPOLYLINE
  5
2F4
100
AcDbEntity
  8
RACCORDO
100
AcDbPolyline
 62
253
  6
CONTINUOUS
 90
3
 70
0
 10
187.8858091346
 20
81.6758340897
 10
187.8873497528
 20
81.6550801976
 10
187.8880844939
 20
81.6442946499
  0
LINE
  5
2F5
100
AcDbEntity
  8
RACCORDO
100
AcDbLine
 62
253
  6
CONTINUOUS
 10
188.0809351934
 20
81.8860809308
 11
188.0826693386
 21
81.8613659288
  0
LINE
  5
2F6
100
AcDbEntity
  8
RACCORDO
100
AcDbLine
 62
253
  6
CONTINUOUS
 10
188.0826693386
 20
81.8613659288
 11
188.084321042
 21
81.8347874491
  0
LINE
  5
2F7
100
AcDbEntity
  8
RACCORDO
100
AcDbLine
 62
253
  6
CONTINUOUS
 10
188.084321042
 20
81.8347874491
 11
188.0858806072
 21
81.806557333
  0
LINE
  5
2F8
100
AcDbEntity
  8
RACCORDO
100
AcDbLine
 62
253
  6
CONTINUOUS
 10
187.8880844254
 20
81.644294683
 11
187.9829881673
 21
79.681456881
  0
LINE
  5
2F9
100
AcDbEntity
  8
RACCORDO
100
AcDbLine
 62
253
  6
CONTINUOUS
 10
188.0858806072
 20
81.806557333
 11
188.1629100031
 21
80.1473235575
  0
LINE
  5
2FA
100
AcDbEntity
  8
RACCORDO
100
AcDbLine
 62
253
  6
CONTINUOUS
 10
187.8880844267
 20
127.1236118903
 11
187.9829881673
 21
129.0864497012
  0
LINE
  5
2FB
100
AcDbEntity
  8
RACCORDO
100
AcDbLine
 62
253
  6
CONTINUOUS
 10
188.0858791622
 20
126.9613220657
 11
188.1629100031
 21
128.6205830246
  0
LINE
  5
2FC
100
AcDbEntity
  8
RACCORDO
100
AcDbLine
 62
253
  6
CONTINUOUS
 10
188.0843185324
 20
126.9330762034
 11
188.0858791622
 21
126.9613220657
  0
LINE
  5
2FD
100
AcDbEntity
  8
RACCORDO
100
AcDbLine
 62
253
  6
CONTINUOUS
 10
188.082666165
 20
126.9064926566
 11
188.0843185324
 21
126.9330762034
  0
LINE
  5
2FE
100
AcDbEntity
  8
RACCORDO
100
AcDbLine
 62
253
  6
CONTINUOUS
 10
189.0127785825
 20
130.3282731567
 11
189.0147215612
 21
130.3535012277
  0
LINE
  5
2FF
100
AcDbEntity
  8
RACCORDO
100
AcDbLine
 62
253
  6
CONTINUOUS
 10
189.010645339
 20
130.3026180211
 11
189.0127785825
 21
130.3282731567
  0
LINE
  5
300
100
AcDbEntity
  8
RACCORDO
100
AcDbLine
 62
253
  6
CONTINUOUS
 10
187.9962071569
 20
129.2189646324
 11
187.9937219994
 21
129.1900746502
  0
LINE
  5
301
100
AcDbEntity
  8
RACCORDO
100
AcDbLine
 62
253
  6
CONTINUOUS
 10
187.9937219994
 20
129.1900746502
 11
187.9919866394
 21
129.1711163714
  0
LINE
  5
302
100
AcDbEntity
  8
RACCORDO
100
AcDbLine
 62
253
  6
CONTINUOUS
 10
187.9919866394
 20
129.1711163714
 11
187.9902073516
 21
129.1526076798
  0
LINE
  5
303
100
AcDbEntity
  8
RACCORDO
100
AcDbLine
 62
253
  6
CONTINUOUS
 10
187.9902073516
 20
129.1526076798
 11
187.9884008543
 21
129.134722485
  0
LINE
  5
304
100
AcDbEntity
  8
RACCORDO
100
AcDbLine
 62
253
  6
CONTINUOUS
 10
187.9884008543
 20
129.134722485
 11
187.9865841217
 21
129.1176288381
  0
LINE
  5
305
100
AcDbEntity
  8
RACCORDO
100
AcDbLine
 62
253
  6
CONTINUOUS
 10
187.9865841217
 20
129.1176288381
 11
187.984774224
 21
129.1014873529
  0
LINE
  5
306
100
AcDbEntity
  8
RACCORDO
100
AcDbLine
 62
253
  6
CONTINUOUS
 10
187.984774224
 20
129.1014873529
 11
187.9829881672
 21
129.0864496965
  0
LINE
  5
307
100
AcDbEntity
  8
RACCORDO
100
AcDbLine
 62
253
  6
CONTINUOUS
 10
187.9847742238
 20
79.6664192223
 11
187.9829881674
 21
79.6814568784
  0
LINE
  5
308
100
AcDbEntity
  8
RACCORDO
100
AcDbLine
 62
253
  6
CONTINUOUS
 10
187.9865841212
 20
79.6502777378
 11
187.9847742238
 21
79.6664192223
  0
LWPOLYLINE
  5
309
100
AcDbEntity
  8
RACCORDO
100
AcDbPolyline
 62
253
  6
CONTINUOUS
 90
37
 70
0
 10
188.0873450796
 20
126.9911702814
 10
188.0868320564
 20
126.9967994397
 10
188.0859596141
 20
127.0024184418
 10
188.0847293266
 20
127.00801715
 10
188.0831434137
 20
127.0135854631
 10
188.0812047367
 20
127.0191133348
 10
188.0789167933
 20
127.0245907917
 10
188.0762837114
 20
127.0300079514
 10
188.0733102416
 20
127.0353550403
 10
188.0700017487
 20
127.0406224111
 10
188.0663642018
 20
127.0458005606
 10
188.0624041638
 20
127.0508801463
 10
188.0581287793
 20
127.0558520037
 10
188.053545762
 20
127.0607071624
 10
188.0486633806
 20
127.065436863
 10
188.0434904437
 20
127.070032572
 10
188.0380362845
 20
127.0744859979
 10
188.0323107433
 20
127.0787891059
 10
188.0263241501
 20
127.0829341323
 10
188.0200873059
 20
127.0869135987
 10
188.0136114631
 20
127.0907203252
 10
188.0069083055
 20
127.0943474439
 10
187.9999899269
 20
127.0977884107
 10
187.9928688094
 20
127.1010370174
 10
187.9855578008
 20
127.104087403
 10
187.9780700918
 20
127.1069340638
 10
187.9704191915
 20
127.109571864
 10
187.9626189037
 20
127.1119960445
 10
187.9546833017
 20
127.1142022315
 10
187.9466267028
 20
127.1161864447
 10
187.9384636428
 20
127.1179451041
 10
187.9302088493
 20
127.1194750368
 10
187.9218772157
 20
127.1207734826
 10
187.9134837739
 20
127.1218380986
 10
187.9050436673
 20
127.1226669642
 10
187.8965721234
 20
127.123258584
 10
187.8880844267
 20
127.1236118905
  0
LINE
  5
30A
100
AcDbEntity
  8
RACCORDO
100
AcDbLine
 62
253
  6
CONTINUOUS
 10
189.0147215584
 20
78.4144053762
 11
189.0158950549
 21
78.3980318188
  0
LINE
  5
30B
100
AcDbEntity
  8
RACCORDO
100
AcDbLine
 62
253
  6
CONTINUOUS
 10
189.0158950549
 20
78.3980318188
 11
189.0169608494
 21
78.3821562372
  0
LINE
  5
30C
100
AcDbEntity
  8
RACCORDO
100
AcDbLine
 62
253
  6
CONTINUOUS
 10
189.0169608494
 20
78.3821562372
 11
189.0179110505
 21
78.3668961756
  0
LINE
  5
30D
100
AcDbEntity
  8
RACCORDO
100
AcDbLine
 62
253
  6
CONTINUOUS
 10
189.0179110505
 20
78.3668961756
 11
189.0187386229
 21
78.3523646209
  0
LINE
  5
30E
100
AcDbEntity
  8
RACCORDO
100
AcDbLine
 62
253
  6
CONTINUOUS
 10
190.1952201543
 20
129.6589428308
 11
190.1890860085
 21
129.7785579276
  0
LINE
  5
30F
100
AcDbEntity
  8
RACCORDO
100
AcDbLine
 62
253
  6
CONTINUOUS
 10
189.0187386229
 20
78.3523646209
 11
189.0194374392
 21
78.338669166
  0
LINE
  5
310
100
AcDbEntity
  8
RACCORDO
100
AcDbLine
 62
253
  6
CONTINUOUS
 10
189.0194374392
 20
78.338669166
 11
189.0200023253
 21
78.3259112135
  0
LWPOLYLINE
  5
311
100
AcDbEntity
  8
RACCORDO
100
AcDbPolyline
 62
253
  6
CONTINUOUS
 90
18
 70
0
 10
189.0200023253
 20
78.3259112135
 10
189.0204290987
 20
78.3141852242
 10
189.0205896651
 20
78.3087366636
 10
189.0207145996
 20
78.3035780185
 10
189.0208036709
 20
78.2987188421
 10
189.020856714
 20
78.2941681331
 10
189.0208736308
 20
78.2899343187
 10
189.0208543898
 20
78.2860252396
 10
189.0207990268
 20
78.2824481349
 10
189.0207076442
 20
78.2792096288
 10
189.0205804113
 20
78.2763157189
 10
189.0204175636
 20
78.2737717641
 10
189.0202194029
 20
78.2715824757
 10
189.0199862959
 20
78.269751908
 10
189.0197186745
 20
78.2682834508
 10
189.0194170342
 20
78.2671798237
 10
189.0190819337
 20
78.2664430703
 10
189.0187139934
 20
78.2660745552
  0
LWPOLYLINE
  5
312
100
AcDbEntity
  8
RACCORDO
100
AcDbPolyline
 62
253
  6
CONTINUOUS
 90
37
 70
0
 10
188.061771406
 20
126.7556706817
 10
188.0615581529
 20
126.7643674561
 10
188.0609664392
 20
126.7730477334
 10
188.0599973872
 20
126.7816950478
 10
188.0586528351
 20
126.7902929959
 10
188.0569353335
 20
126.7988252681
 10
188.0548481403
 20
126.8072756794
 10
188.0523952148
 20
126.8156281998
 10
188.0495812099
 20
126.8238669853
 10
188.0464114637
 20
126.8319764076
 10
188.0428919889
 20
126.8399410836
 10
188.0390294616
 20
126.8477459049
 10
188.0348312089
 20
126.8553760664
 10
188.0303051945
 20
126.8628170942
 10
188.0254600038
 20
126.8700548732
 10
188.0203048279
 20
126.8770756739
 10
188.0148494458
 20
126.8838661784
 10
188.0091042058
 20
126.8904135055
 10
188.0030800064
 20
126.8967052355
 10
187.9967882749
 20
126.9027294335
 10
187.9902409463
 20
126.9084746719
 10
187.9834504403
 20
126.9139300524
 10
187.9764296382
 20
126.9190852267
 10
187.9691918578
 20
126.9239304157
 10
187.9617508287
 20
126.9284564284
 10
187.9541206659
 20
126.9326546793
 10
187.9463158433
 20
126.9365172048
 10
187.938351166
 20
126.9400366777
 10
187.9302417425
 20
126.943206422
 10
187.9220029558
 20
126.9460204249
 10
187.9136504343
 20
126.9484733484
 10
187.9052000207
 20
126.9505605398
 10
187.8966677461
 20
126.9522780395
 10
187.8880697995
 20
126.9536225889
 10
187.8794224917
 20
126.9545916379
 10
187.8707422249
 20
126.9551833492
 10
187.8620454649
 20
126.9553966006
  0
LWPOLYLINE
  5
313
100
AcDbEntity
  8
RACCORDO
100
AcDbPolyline
 62
253
  6
CONTINUOUS
 90
55
 70
0
 10
189.7419546355
 20
129.5063142814
 10
189.7416514752
 20
129.5282972281
 10
189.7407466559
 20
129.5502328484
 10
189.7392401775
 20
129.5721211423
 10
189.7371299949
 20
129.5939794777
 10
189.7344181525
 20
129.6157904866
 10
189.7311107844
 20
129.6375020653
 10
189.7272065496
 20
129.6591130625
 10
189.7227067878
 20
129.6806246294
 10
189.7176216533
 20
129.7019881161
 10
189.7119498439
 20
129.7232031052
 10
189.70569266
 20
129.7442700141
 10
189.6988641591
 20
129.7651414455
 10
189.6914630743
 20
129.7858169624
 10
189.6834906702
 20
129.8062970017
 10
189.6749648017
 20
129.826535477
 10
189.6658842193
 20
129.846531882
 10
189.6562501699
 20
129.8662867229
 10
189.6460842526
 20
129.8857554318
 10
189.6353852709
 20
129.9049373772
 10
189.6241544181
 20
129.9238331905
 10
189.612416878
 20
129.942400198
 10
189.6001715022
 20
129.9606376787
 10
189.5874194356
 20
129.9785463536
 10
189.5741893024
 20
129.9960857118
 10
189.5604800212
 20
130.0132549316
 10
189.5462926698
 20
130.0300548346
 10
189.5316591116
 20
130.0464473754
 10
189.5165783306
 20
130.0624316498
 10
189.5010513391
 20
130.078008562
 10
189.4851130422
 20
130.0931427784
 10
189.4687625037
 20
130.107833311
 10
189.4520006562
 20
130.1220811479
 10
189.434865209
 20
130.13585392
 10
189.4173552952
 20
130.1491505726
 10
189.3994717781
 20
130.1619721605
 10
189.3812549622
 20
130.1742894782
 10
189.3627040579
 20
130.1861014032
 10
189.3438198513
 20
130.197409058
 10
189.3246450109
 20
130.2081866056
 10
189.3051788785
 20
130.2184328381
 10
189.2854221092
 20
130.2281489632
 10
189.265419341
 20
130.2373127673
 10
189.2451700108
 20
130.2459230037
 10
189.2246746791
 20
130.253980919
 10
189.20397967
 20
130.2614680385
 10
189.1830844332
 20
130.2683830768
 10
189.1619895168
 20
130.2747273193
 10
189.1407428926
 20
130.2804861474
 10
189.1193430634
 20
130.2856583235
 10
189.0977915246
 20
130.2902450852
 10
189.0761407371
 20
130.2942355264
 10
189.0544081877
 20
130.2976260117
 10
189.0325763885
 20
130.3004201767
 10
189.010645339
 20
130.3026180211
  0
LWPOLYLINE
  5
314
100
AcDbEntity
  8
RACCORDO
100
AcDbPolyline
 62
253
  6
CONTINUOUS
 90
55
 70
0
 10
189.9323385514
 20
129.5063142814
 10
189.9319597073
 20
129.5337736099
 10
189.9308265587
 20
129.5612107009
 10
189.9289400375
 20
129.5886048733
 10
189.9263016829
 20
129.6159351387
 10
189.922913539
 20
129.6431812464
 10
189.9187780586
 20
129.6703236876
 10
189.9138982695
 20
129.6973424001
 10
189.9082778977
 20
129.7242166109
 10
189.901921214
 20
129.7509258753
 10
189.8948330555
 20
129.7774499044
 10
189.8870187359
 20
129.8037688591
 10
189.8784840594
 20
129.829863175
 10
189.8692354363
 20
129.8557131743
 10
189.8592798212
 20
129.8812993579
 10
189.8486245959
 20
129.9066026888
 10
189.8372777343
 20
129.9316041013
 10
189.8252477639
 20
129.9562846921
 10
189.8125436458
 20
129.9806259916
 10
189.7991749022
 20
130.0046096138
 10
189.7851515613
 20
130.0282174419
 10
189.7704840703
 20
130.0514317962
 10
189.7551834241
 20
130.0742351236
 10
189.7392610979
 20
130.0966101824
 10
189.7227289541
 20
130.1185402056
 10
189.7055993746
 20
130.1400086056
 10
189.6878852192
 20
130.1609991137
 10
189.6695997264
 20
130.1814959429
 10
189.6507566043
 20
130.2014835633
 10
189.6313700007
 20
130.2209468132
 10
189.6114544357
 20
130.2398710174
 10
189.5910248562
 20
130.2582418106
 10
189.570096605
 20
130.2760452417
 10
189.5486853726
 20
130.2932678677
 10
189.5268072243
 20
130.3098966036
 10
189.5044786168
 20
130.325918785
 10
189.4817163565
 20
130.3413222614
 10
189.458537528
 20
130.3560953144
 10
189.4349595909
 20
130.3702266647
 10
189.4110003946
 20
130.3837055336
 10
189.3866779846
 20
130.3965216285
 10
189.3620106582
 20
130.4086651722
 10
189.3370170642
 20
130.4201269134
 10
189.3117160484
 20
130.4308980774
 10
189.2861266542
 20
130.4409704285
 10
189.2602681805
 20
130.4503363026
 10
189.2341599535
 20
130.4589885601
 10
189.2078218188
 20
130.4669204878
 10
189.1812741537
 20
130.474125902
 10
189.1545373958
 20
130.4805991859
 10
189.127631327
 20
130.486335482
 10
189.1005755584
 20
130.4913305507
 10
189.0733902713
 20
130.4955805259
 10
189.0460962171
 20
130.499081986
 10
189.0187140033
 20
130.5018321402
  0
LWPOLYLINE
  5
315
100
AcDbEntity
  8
RACCORDO
100
AcDbPolyline
 62
253
  6
CONTINUOUS
 90
46
 70
0
 10
188.1629100031
 20
80.1473235577
 10
188.163062483
 20
80.1263742802
 10
188.1628197318
 20
80.105680882
 10
188.1621922548
 20
80.0852543869
 10
188.1611919339
 20
80.0650769104
 10
188.1598294035
 20
80.0451867618
 10
188.1581148906
 20
80.025678317
 10
188.1560609668
 20
80.0065618309
 10
188.1536817854
 20
79.9878437814
 10
188.1509925943
 20
79.9696115535
 10
188.1480077017
 20
79.9518739389
 10
188.1447434605
 20
79.9346344882
 10
188.1412215522
 20
79.9179708208
 10
188.1374588694
 20
79.9018943588
 10
188.1334727505
 20
79.8864007148
 10
188.1292887988
 20
79.8715414263
 10
188.1249268713
 20
79.8573311368
 10
188.1204028478
 20
79.8437566304
 10
188.1157378498
 20
79.8308256546
 10
188.1109495025
 20
79.8185442854
 10
188.106053499
 20
79.8069037425
 10
188.1010678147
 20
79.7958882689
 10
188.0960078667
 20
79.7854994817
 10
188.0908878988
 20
79.7757299481
 10
188.0857232859
 20
79.7665495678
 10
188.0805289821
 20
79.7579594229
 10
188.0753156641
 20
79.7499502959
 10
188.070090956
 20
79.7424765039
 10
188.0648644113
 20
79.7355328812
 10
188.059647362
 20
79.729115749
 10
188.0544487365
 20
79.7231818299
 10
188.0492758888
 20
79.7177257738
 10
188.0441385392
 20
79.712743349
 10
188.0390482656
 20
79.7081927787
 10
188.0340147547
 20
79.7040710963
 10
188.0290422204
 20
79.7003707456
 10
188.0241331562
 20
79.6970431484
 10
188.0192969394
 20
79.6940838005
 10
188.0145348078
 20
79.6914870324
 10
188.0098359768
 20
79.6892036332
 10
188.0052049255
 20
79.6872266615
 10
188.000644828
 20
79.6855546845
 10
187.9961420173
 20
79.6841484548
 10
187.991693732
 20
79.6829930566
 10
187.9873083011
 20
79.6820969655
 10
187.9829881673
 20
79.681456881
  0
LINE
  5
316
100
AcDbEntity
  8
RACCORDO
100
AcDbLine
 62
7
  6
CONTINUOUS
 10
187.9903280964
 20
126.684227384
 11
187.9903280964
 21
82.0836791981
  0
LINE
  5
317
100
AcDbEntity
  8
RACCORDO
100
AcDbLine
 62
253
  6
CONTINUOUS
 10
188.1629100031
 20
128.6205830246
 11
188.1629100031
 21
80.1473235575
  0
LINE
  5
318
100
AcDbEntity
  8
RACCORDO
100
AcDbLine
 62
253
  6
CONTINUOUS
 10
188.3716799226
 20
128.6205830245
 11
188.3716799226
 21
80.1473235577
  0
LINE
  5
319
100
AcDbEntity
  8
RACCORDO
100
AcDbLine
 62
253
  6
CONTINUOUS
 10
189.7419546355
 20
79.2615923008
 11
189.7419546355
 21
129.5063142814
  0
LINE
  5
31A
100
AcDbEntity
  8
RACCORDO
100
AcDbLine
 62
253
  6
CONTINUOUS
 10
189.9323385514
 20
79.2615923008
 11
189.9323385514
 21
129.5063142814
  0
LINE
  5
31B
100
AcDbEntity
  8
RACCORDO
100
AcDbLine
 62
7
  6
CONTINUOUS
 10
189.9903280964
 20
129.5594634891
 11
189.9903280964
 21
79.2084430931
  0
LINE
  5
31C
100
AcDbEntity
  8
RACCORDO
100
AcDbLine
 62
7
  6
CONTINUOUS
 10
190.0903280964
 20
79.1089637513
 11
190.0903280964
 21
129.6589428308
  0
LINE
  5
31D
100
AcDbEntity
  8
RACCORDO
100
AcDbLine
 62
253
  6
CONTINUOUS
 10
190.1952201543
 20
79.1089637513
 11
190.1952201543
 21
129.6589428308
  0
LWPOLYLINE
  5
31E
100
AcDbEntity
  8
RACCORDO
100
AcDbPolyline
 62
7
  6
CONTINUOUS
 90
55
 70
0
 10
189.9903280964
 20
79.2084430931
 10
189.9899504194
 20
79.180964772
 10
189.9888203539
 20
79.1535392241
 10
189.9869378998
 20
79.1261664493
 10
189.9842998382
 20
79.0988200603
 10
189.9809093881
 20
79.0715264445
 10
189.9767762065
 20
79.0443647639
 10
189.9719004562
 20
79.0173466392
 10
189.9662819745
 20
78.9904604497
 10
189.9599299302
 20
78.9637504963
 10
189.9528397007
 20
78.9372057926
 10
189.9450159087
 20
78.9108373249
 10
189.9364815907
 20
78.8847223522
 10
189.9272394775
 20
78.8588737454
 10
189.9172868382
 20
78.8332786336
 10
189.9066385168
 20
78.8079756625
 10
189.8952873351
 20
78.7829527301
 10
189.8832404713
 20
78.7582219384
 10
189.8705343035
 20
78.7338582393
 10
189.8571733835
 20
78.7098740292
 10
189.8431531595
 20
78.6862569117
 10
189.8284963543
 20
78.6630446489
 10
189.8131963127
 20
78.6402295497
 10
189.79725969
 20
78.6178193053
 10
189.7807291744
 20
78.5958747512
 10
189.7636063951
 20
78.5744014962
 10
189.7458897229
 20
78.5533939314
 10
189.727616959
 20
78.5328960666
 10
189.7087872197
 20
78.5129087794
 10
189.6894013887
 20
78.4934311921
 10
189.6694999173
 20
78.4745046805
 10
189.6490773189
 20
78.4561270867
 10
189.6281390802
 20
78.4383005686
 10
189.606742113
 20
78.4210729751
 10
189.5848934793
 20
78.4044515985
 10
189.562586117
 20
78.3884291464
 10
189.5398557521
 20
78.3730315911
 10
189.5166905327
 20
78.3582533756
 10
189.4931023106
 20
78.3441000568
 10
189.469162367
 20
78.3306142767
 10
189.4448819011
 20
78.3178041298
 10
189.4202497136
 20
78.3056615215
 10
189.3953034876
 20
78.2942048109
 10
189.3700309948
 20
78.2834303078
 10
189.3444444634
 20
78.2733417024
 10
189.3186182619
 20
78.2639684242
 10
189.2925625835
 20
78.255315904
 10
189.266267235
 20
78.2473787111
 10
189.2397760039
 20
78.240169983
 10
189.2130774851
 20
78.2336886123
 10
189.1861830839
 20
78.2279357064
 10
189.1591708041
 20
78.2229277251
 10
189.132066647
 20
78.218670155
 10
189.1048446113
 20
78.2151575095
 10
189.0775046971
 20
78.2123897885
  0
LWPOLYLINE
  5
31F
100
AcDbEntity
  8
RACCORDO
100
AcDbPolyline
 62
253
  6
CONTINUOUS
 90
46
 70
0
 10
188.3716799226
 20
80.1473235577
 10
188.3712498788
 20
80.1204399476
 10
188.3700821727
 20
80.0939082427
 10
188.3681768041
 20
80.0677284429
 10
188.3655091687
 20
80.0418517294
 10
188.3621038699
 20
80.016326921
 10
188.3580347186
 20
79.991300474
 10
188.3532958426
 20
79.9667776075
 10
188.3478931125
 20
79.9427531024
 10
188.3419179535
 20
79.9193577576
 10
188.3353637745
 20
79.8965977589
 10
188.3282371647
 20
79.8744669204
 10
188.3206493201
 20
79.8530774835
 10
188.3125964138
 20
79.8324428962
 10
188.3040822709
 20
79.8125497104
 10
188.2952295656
 20
79.7934698235
 10
188.2860421287
 20
79.7752240329
 10
188.2765161278
 20
79.7577915411
 10
188.2667627432
 20
79.7411818531
 10
188.256786308
 20
79.7254065768
 10
188.2465824878
 20
79.7104541043
 10
188.2362494619
 20
79.6962991165
 10
188.2257917125
 20
79.6829489211
 10
188.2152047567
 20
79.6703962104
 10
188.2045733258
 20
79.6585937422
 10
188.1939056729
 20
79.6475488671
 10
188.1831935447
 20
79.6372542344
 10
188.172496913
 20
79.6276405506
 10
188.1618176848
 20
79.6187071206
 10
188.1511539532
 20
79.6104546395
 10
188.1405599696
 20
79.6028158984
 10
188.1300363505
 20
79.5957906116
 10
188.1195824798
 20
79.5893790649
 10
188.1092507607
 20
79.5835149066
 10
188.0990495172
 20
79.5782011511
 10
188.088970426
 20
79.573434784
 10
188.0790409198
 20
79.5691404106
 10
188.0692718771
 20
79.5653178632
 10
188.0596524201
 20
79.5619673094
 10
188.0501773476
 20
79.5590138579
 10
188.0408501643
 20
79.5564525657
 10
188.0316673662
 20
79.5542883757
 10
188.0226132378
 20
79.5524612254
 10
188.0136825409
 20
79.5509510939
 10
188.0048805143
 20
79.549778002
 10
187.9962071583
 20
79.5489419498
  0
LWPOLYLINE
  5
320
100
AcDbEntity
  8
RACCORDO
100
AcDbPolyline
 62
253
  6
CONTINUOUS
 90
17
 70
0
 10
189.0204291069
 20
130.4537214359
 10
189.0205896735
 20
130.45917
 10
189.0207146083
 20
130.4643286484
 10
189.0208036798
 20
130.469187828
 10
189.0208567231
 20
130.47373854
 10
189.0208736401
 20
130.4779723572
 10
189.0208543992
 20
130.4818814389
 10
189.0207990363
 20
130.4854585461
 10
189.0207076538
 20
130.4886970543
 10
189.020580421
 20
130.4915909663
 10
189.0204175734
 20
130.4941349228
 10
189.0202194127
 20
130.4963242128
 10
189.0199863057
 20
130.4981547819
 10
189.0197186843
 20
130.4996232402
 10
189.019417044
 20
130.5007268681
 10
189.0190819434
 20
130.501463622
 10
189.018714003
 20
130.5018321375
  0
LINE
  5
321
100
AcDbEntity
  8
RACCORDO
100
AcDbLine
 62
253
  6
CONTINUOUS
 10
189.0200023329
 20
130.4419954393
 11
189.0204291069
 21
130.4537214359
  0
LINE
  5
322
100
AcDbEntity
  8
RACCORDO
100
AcDbLine
 62
253
  6
CONTINUOUS
 10
189.0194374461
 20
130.4292374789
 11
189.0200023329
 21
130.4419954393
  0
LINE
  5
323
100
AcDbEntity
  8
RACCORDO
100
AcDbLine
 62
253
  6
CONTINUOUS
 10
189.0187386291
 20
130.415542016
 11
189.0194374461
 21
130.4292374789
  0
LINE
  5
324
100
AcDbEntity
  8
RACCORDO
100
AcDbLine
 62
253
  6
CONTINUOUS
 10
189.0179110558
 20
130.401010453
 11
189.0187386291
 21
130.415542016
  0
LINE
  5
325
100
AcDbEntity
  8
RACCORDO
100
AcDbLine
 62
253
  6
CONTINUOUS
 10
189.0169608539
 20
130.3857503831
 11
189.0179110558
 21
130.401010453
  0
LINE
  5
326
100
AcDbEntity
  8
RACCORDO
100
AcDbLine
 62
253
  6
CONTINUOUS
 10
189.0158950586
 20
130.3698747932
 11
189.0169608539
 21
130.3857503831
  0
LINE
  5
327
100
AcDbEntity
  8
RACCORDO
100
AcDbLine
 62
253
  6
CONTINUOUS
 10
189.0147215612
 20
130.3535012277
 11
189.0158950586
 21
130.3698747932
  0
LWPOLYLINE
  5
328
100
AcDbEntity
  8
RACCORDO
100
AcDbPolyline
 62
253
  6
CONTINUOUS
 90
3
 70
0
 10
190.1718144851
 20
78.8731318119
 10
190.1891197664
 20
78.989493957
 10
190.1952201543
 20
79.1089637513
  0
LWPOLYLINE
  5
329
100
AcDbEntity
  8
RACCORDO
100
AcDbPolyline
 62
253
  6
CONTINUOUS
 90
55
 70
0
 10
141.9619421896
 20
130.5018321402
 10
141.9345601655
 20
130.4990820078
 10
141.9072662432
 20
130.4955805717
 10
141.8800810304
 20
130.4913306183
 10
141.8530252544
 20
130.4863355593
 10
141.8261191223
 20
130.48059926
 10
141.7993823195
 20
130.474125974
 10
141.7728346602
 20
130.4669205697
 10
141.7464965487
 20
130.458988658
 10
141.720388337
 20
130.4503364152
 10
141.694529858
 20
130.4409705492
 10
141.6689404513
 20
130.4308982031
 10
141.6436394298
 20
130.4201270466
 10
141.6186458443
 20
130.4086653195
 10
141.5939785327
 20
130.3965217939
 10
141.5696561337
 20
130.3837057164
 10
141.5456969413
 20
130.370226862
 10
141.5221190048
 20
130.3560955247
 10
141.4989401752
 20
130.3413224842
 10
141.476177912
 20
130.3259190192
 10
141.4538492998
 20
130.3098968484
 10
141.4319711475
 20
130.2932681238
 10
141.4105599127
 20
130.2760455106
 10
141.3896316596
 20
130.2582420932
 10
141.3692020783
 20
130.2398713144
 10
141.3492865116
 20
130.2209471253
 10
141.3298999062
 20
130.2014838913
 10
141.3110567812
 20
130.1814962862
 10
141.2927712839
 20
130.1609994713
 10
141.2750571229
 20
130.1400089771
 10
141.2579275373
 20
130.1185405906
 10
141.2413953866
 20
130.0966105806
 10
141.2254730528
 20
130.0742355346
 10
141.2101723985
 20
130.0514322199
 10
141.1955048992
 20
130.0282178787
 10
141.1814815494
 20
130.0046100636
 10
141.1681127958
 20
129.9806264527
 10
141.1554086661
 20
129.9562851622
 10
141.1433786832
 20
129.9316045785
 10
141.1320318083
 20
129.9066031719
 10
141.1213765682
 20
129.8812998429
 10
141.1114209378
 20
129.8557136598
 10
141.1021723022
 20
129.8298636678
 10
141.0936376179
 20
129.8037693751
 10
141.0858232915
 20
129.7774504507
 10
141.0787351214
 20
129.7509264397
 10
141.0723784192
 20
129.7242171659
 10
141.0667580271
 20
129.6973429327
 10
141.0618782211
 20
129.670324209
 10
141.057742731
 20
129.6431818036
 10
141.0543545768
 20
129.6159357435
 10
141.0517162035
 20
129.5886054549
 10
141.0498296595
 20
129.5612111602
 10
141.0486964929
 20
129.5337738753
 10
141.0483176414
 20
129.5063142814
  0
LWPOLYLINE
  5
32A
100
AcDbEntity
  8
RACCORDO
100
AcDbPolyline
 62
253
  6
CONTINUOUS
 90
55
 70
0
 10
141.9700108538
 20
130.3026180211
 10
141.9480773761
 20
130.3004198207
 10
141.9262437226
 20
130.2976253426
 10
141.9045098929
 20
130.2942345867
 10
141.882858592
 20
130.2902439375
 10
141.8613071137
 20
130.2856570107
 10
141.8399073404
 20
130.2804846531
 10
141.8186605714
 20
130.2747256051
 10
141.7975655056
 20
130.2683811264
 10
141.776670124
 20
130.2614658429
 10
141.7559749757
 20
130.253978472
 10
141.7354795093
 20
130.2459202964
 10
141.7152300539
 20
130.2373097896
 10
141.6952271728
 20
130.2281457054
 10
141.6754703001
 20
130.21842929
 10
141.6560040697
 20
130.208182756
 10
141.6368291345
 20
130.1974048951
 10
141.6179448385
 20
130.1860969155
 10
141.5993938529
 20
130.1742846543
 10
141.5811769609
 20
130.1619669858
 10
141.5632933759
 20
130.1491450357
 10
141.5457834136
 20
130.1358480184
 10
141.5286479305
 20
130.1220748697
 10
141.5118860666
 20
130.1078266538
 10
141.4955355629
 20
130.0931357773
 10
141.4795973648
 20
130.0780012598
 10
141.4640705231
 20
130.0624240818
 10
141.4489899367
 20
130.0464395906
 10
141.4343566205
 20
130.0300468855
 10
141.4201695558
 20
130.0132468674
 10
141.4064605907
 20
129.9960775861
 10
141.3932308096
 20
129.9785382332
 10
141.3804791244
 20
129.9606296171
 10
141.3682341246
 20
129.9423922136
 10
141.3564969463
 20
129.9238252935
 10
141.3452664501
 20
129.9049295859
 10
141.3345678124
 20
129.8857477534
 10
141.3244022238
 20
129.8662791611
 10
141.3147684905
 20
129.8465244438
 10
141.3056882127
 20
129.8265281686
 10
141.2971626374
 20
129.8062898281
 10
141.2891905147
 20
129.7858099297
 10
141.2817897
 20
129.7651345624
 10
141.2749614577
 20
129.7442632931
 10
141.2687045209
 20
129.7231965551
 10
141.2630329481
 20
129.7019817365
 10
141.2579480414
 20
129.6806184205
 10
141.2534484969
 20
129.6591070239
 10
141.2495444631
 20
129.6374961857
 10
141.2462372743
 20
129.6157845589
 10
141.243525595
 20
129.5939734905
 10
141.2414155695
 20
129.5721156606
 10
141.2399092457
 20
129.5502286291
 10
141.239004575
 20
129.528294836
 10
141.2387015573
 20
129.5063142814
  0
LWPOLYLINE
  5
32B
100
AcDbEntity
  8
RACCORDO
100
AcDbPolyline
 62
253
  6
CONTINUOUS
 90
34
 70
0
 10
142.9976680255
 20
129.0864497012
 10
144.3069048056
 20
129.193185964
 10
145.6287937717
 20
129.2945115732
 10
146.9633309438
 20
129.3901915579
 10
148.3138627928
 20
129.4801668821
 10
149.6770326269
 20
129.5639970636
 10
151.0427778237
 20
129.6410371221
 10
152.4084720244
 20
129.7111087481
 10
153.7767210451
 20
129.7742870207
 10
155.1453107416
 20
129.8305087486
 10
156.5136604153
 20
129.8797452581
 10
157.8824574719
 20
129.9219912551
 10
159.2514052745
 20
129.9572662036
 10
160.6203450874
 20
129.9855697669
 10
161.9893646785
 20
130.0068893929
 10
163.3584722671
 20
130.0212355914
 10
164.7276095832
 20
130.0286104069
 10
166.0967397112
 20
130.0290079819
 10
167.4659028948
 20
130.0224279066
 10
168.8350495337
 20
130.0088763355
 10
170.204134025
 20
129.9883516708
 10
171.5732025995
 20
129.9608422507
 10
172.9423419247
 20
129.9263586589
 10
174.3113803236
 20
129.8849024682
 10
175.6800168697
 20
129.8364549957
 10
177.04827884
 20
129.7810461483
 10
178.4161804503
 20
129.7186800785
 10
179.7834142073
 20
129.6493189461
 10
181.1495204092
 20
129.5730500775
 10
182.5150006584
 20
129.4898626527
 10
183.8809874537
 20
129.3995840203
 10
185.2478471069
 20
129.3021862119
 10
186.6151876498
 20
129.1977896925
 10
187.9829881673
 20
129.0864497012
  0
LWPOLYLINE
  5
32C
100
AcDbEntity
  8
RACCORDO
100
AcDbPolyline
 62
253
  6
CONTINUOUS
 90
34
 70
0
 10
142.9844490344
 20
129.2189646324
 10
144.2945971034
 20
129.3247662185
 10
145.6173799933
 20
129.4248114798
 10
146.9527926305
 20
129.5191004164
 10
148.3041797917
 20
129.6079562514
 10
149.668185682
 20
129.6910557617
 10
151.0347509764
 20
129.7674292777
 10
152.4012267193
 20
129.8368103381
 10
153.7702426417
 20
129.8994654042
 10
155.1396542131
 20
129.9552241902
 10
156.5088240959
 20
130.0040368272
 10
157.8783695981
 20
130.0459531841
 10
159.2480276787
 20
130.0809525813
 10
160.6177152234
 20
130.1090295998
 10
161.9874952785
 20
130.1301896587
 10
163.357324003
 20
130.1444283356
 10
164.7271872322
 20
130.1517442269
 10
166.0970790529
 20
130.1521387362
 10
167.4669679979
 20
130.1456116521
 10
168.8368387231
 20
130.1321619761
 10
170.2066864918
 20
130.1117907067
 10
171.5764957473
 20
130.0845006289
 10
172.946351626
 20
130.0502866361
 10
174.3161489047
 20
130.009153835
 10
175.6855865278
 20
129.9611203299
 10
177.0546345616
 20
129.906179158
 10
178.4233029776
 20
129.8443372822
 10
179.7913506812
 20
129.7756336957
 10
181.1582972257
 20
129.7000973077
 10
182.524603379
 20
129.6176992089
 10
183.8914396399
 20
129.5283916654
 10
185.2591892411
 20
129.4321587658
 10
186.6274484925
 20
129.3290164215
 10
187.9962071583
 20
129.2189646324
  0
LWPOLYLINE
  5
32D
100
AcDbEntity
  8
RACCORDO
100
AcDbPolyline
 62
253
  6
CONTINUOUS
 90
37
 70
0
 10
143.0925717671
 20
127.1236118979
 10
143.0840840703
 20
127.1232585915
 10
143.0756125263
 20
127.1226669718
 10
143.0671724196
 20
127.1218381062
 10
143.0587789777
 20
127.1207734901
 10
143.050447344
 20
127.1194750444
 10
143.0421925504
 20
127.1179451117
 10
143.0340294903
 20
127.1161864522
 10
143.0259728913
 20
127.114202239
 10
143.0180372892
 20
127.111996052
 10
143.0102370013
 20
127.1095718715
 10
143.0025861009
 20
127.1069340713
 10
142.9950983918
 20
127.1040874105
 10
142.9877873831
 20
127.1010370249
 10
142.9806662655
 20
127.0977884181
 10
142.9737478868
 20
127.0943474513
 10
142.9670447291
 20
127.0907203325
 10
142.9605688863
 20
127.0869136059
 10
142.954332042
 20
127.0829341395
 10
142.9483454487
 20
127.0787891131
 10
142.9426199075
 20
127.074486005
 10
142.9371657482
 20
127.070032579
 10
142.9319928114
 20
127.0654368699
 10
142.9271104299
 20
127.0607071693
 10
142.9225274126
 20
127.0558520105
 10
142.9182520281
 20
127.050880153
 10
142.9142919901
 20
127.0458005673
 10
142.9106544432
 20
127.0406224177
 10
142.9073459503
 20
127.0353550468
 10
142.9043724806
 20
127.0300079578
 10
142.9017393987
 20
127.024590798
 10
142.8994514554
 20
127.0191133411
 10
142.8975127784
 20
127.0135854693
 10
142.8959268656
 20
127.0080171561
 10
142.8946965782
 20
127.0024184478
 10
142.8938241359
 20
126.9967994457
 10
142.8933111128
 20
126.9911702873
  0
LWPOLYLINE
  5
32E
100
AcDbEntity
  8
RACCORDO
100
AcDbPolyline
 62
253
  6
CONTINUOUS
 90
37
 70
0
 10
143.1186107255
 20
126.9553966014
 10
143.1099139647
 20
126.9551833499
 10
143.1012336974
 20
126.9545916385
 10
143.0925863892
 20
126.9536225893
 10
143.0839884425
 20
126.9522780397
 10
143.075456168
 20
126.9505605399
 10
143.0670057546
 20
126.9484733484
 10
143.0586532331
 20
126.9460204248
 10
143.0504144464
 20
126.9432064218
 10
143.0423050231
 20
126.9400366773
 10
143.0343403459
 20
126.9365172043
 10
143.0265355234
 20
126.9326546788
 10
143.0189053608
 20
126.9284564277
 10
143.0114643317
 20
126.9239304149
 10
143.0042265515
 20
126.9190852259
 10
142.9972057495
 20
126.9139300516
 10
142.9904152438
 20
126.908474671
 10
142.9838679153
 20
126.9027294327
 10
142.977576184
 20
126.8967052347
 10
142.9715519847
 20
126.8904135048
 10
142.9658067449
 20
126.8838661777
 10
142.960351363
 20
126.8770756733
 10
142.9551961873
 20
126.8700548727
 10
142.9503509968
 20
126.8628170938
 10
142.9458249825
 20
126.8553760662
 10
142.94162673
 20
126.8477459049
 10
142.9377642029
 20
126.8399410838
 10
142.9342447282
 20
126.8319764081
 10
142.9310749821
 20
126.8238669861
 10
142.9282609773
 20
126.8156282009
 10
142.9258080519
 20
126.8072756808
 10
142.9237208587
 20
126.7988252699
 10
142.9220033571
 20
126.790292998
 10
142.920658805
 20
126.7816950503
 10
142.919689753
 20
126.7730477363
 10
142.9190980392
 20
126.7643674594
 10
142.9188847861
 20
126.7556706855
  0
LINE
  5
32F
100
AcDbEntity
  8
RACCORDO
100
AcDbLine
 62
7
  6
CONTINUOUS
 10
143.1900540037
 20
126.8839532911
 11
187.7906021891
 21
126.8839532911
  0
LINE
  5
330
100
AcDbEntity
  8
RACCORDO
100
AcDbLine
 62
253
  6
CONTINUOUS
 10
187.8620454649
 20
126.9553966006
 11
180.2350685364
 21
126.9544989967
  0
LINE
  5
331
100
AcDbEntity
  8
RACCORDO
100
AcDbLine
 62
253
  6
CONTINUOUS
 10
180.2350685364
 20
126.9544989967
 11
169.2109461691
 21
126.954024
  0
LINE
  5
332
100
AcDbEntity
  8
RACCORDO
100
AcDbLine
 62
253
  6
CONTINUOUS
 10
169.2109461691
 20
126.954024
 11
154.9686545041
 21
126.9542377155
  0
LINE
  5
333
100
AcDbEntity
  8
RACCORDO
100
AcDbLine
 62
253
  6
CONTINUOUS
 10
188.3716799226
 20
128.6205830245
 11
188.1629100031
 21
128.6205830245
  0
LINE
  5
334
100
AcDbEntity
  8
RACCORDO
100
AcDbLine
 62
253
  6
CONTINUOUS
 10
142.6089762702
 20
128.6205830246
 11
142.8177461898
 21
128.6205830246
  0
LINE
  5
335
100
AcDbEntity
  8
RACCORDO
100
AcDbLine
 62
253
  6
CONTINUOUS
 10
141.2387015573
 20
129.5063142814
 11
141.0483176414
 21
129.5063142814
  0
LINE
  5
336
100
AcDbEntity
  8
RACCORDO
100
AcDbLine
 62
253
  6
CONTINUOUS
 10
189.7419546355
 20
129.5063142814
 11
189.9323385514
 21
129.5063142814
  0
LINE
  5
337
100
AcDbEntity
  8
RACCORDO
100
AcDbLine
 62
253
  6
CONTINUOUS
 10
140.8903280964
 20
129.6589428308
 11
140.7854360386
 21
129.6589428308
  0
LINE
  5
338
100
AcDbEntity
  8
RACCORDO
100
AcDbLine
 62
253
  6
CONTINUOUS
 10
190.0903280964
 20
129.6589428308
 11
190.1952201492
 21
129.658942831
  0
LINE
  5
339
100
AcDbEntity
  8
0
100
AcDbLine
 62
7
  6
CONTINUOUS
 10
158.2772563073
 20
131.6839532911
 11
172.7034021916
 21
131.6839532911
  0
LINE
  5
33A
100
AcDbEntity
  8
RACCORDO
100
AcDbLine
 62
253
  6
CONTINUOUS
 10
154.9686545041
 20
126.9542377155
 11
143.1186107255
 21
126.9553966014
  0
LWPOLYLINE
  5
33B
100
AcDbEntity
  8
RACCORDO
100
AcDbPolyline
 62
253
  6
CONTINUOUS
 90
22
 70
0
 10
187.8880844267
 20
127.1236118903
 10
186.0674945783
 20
127.128075996
 10
184.1873311274
 20
127.1317126531
 10
182.2476017796
 20
127.1347123142
 10
180.2535837574
 20
127.13731343
 10
178.1999985823
 20
127.1396271426
 10
176.0710166242
 20
127.1415558394
 10
173.8521593375
 20
127.1430691265
 10
171.5578877132
 20
127.1442274058
 10
169.215794579
 20
127.1450233363
 10
166.8077123166
 20
127.1454679141
 10
164.3518434448
 20
127.1454750403
 10
161.9303493618
 20
127.1450640436
 10
159.5547275344
 20
127.1443080303
 10
157.2135174264
 20
127.1431411279
 10
154.9544218521
 20
127.1415906548
 10
152.7980016662
 20
127.1396456288
 10
150.7236626297
 20
127.1373200946
 10
148.7173515282
 20
127.1346889515
 10
146.7743870753
 20
127.1316536216
 10
144.8994590469
 20
127.1280145666
 10
143.0925717671
 20
127.1236118978
  0
LWPOLYLINE
  5
33C
100
AcDbEntity
  8
RACCORDO
100
AcDbPolyline
 62
253
  6
CONTINUOUS
 90
13
 70
0
 10
189.0994863192
 20
130.8543855409
 10
185.1703583323
 20
131.1689471784
 10
181.2386206085
 20
131.4263220109
 10
177.3045106056
 20
131.6265100384
 10
173.3677951552
 20
131.7695189023
 10
169.429183962
 20
131.8553409611
 10
165.4903300199
 20
131.8839532911
 10
161.5514689324
 20
131.8553405313
 10
157.6128443488
 20
131.7695180425
 10
153.67612133
 20
131.6265089833
 10
149.7420135997
 20
131.426321073
 10
145.8102839637
 20
131.1689465922
 10
141.8811698737
 20
130.8543855409
  0
LWPOLYLINE
  5
33D
100
AcDbEntity
  8
RACCORDO
100
AcDbPolyline
 62
253
  6
CONTINUOUS
 90
34
 70
0
 10
189.010645339
 20
130.3026180211
 10
187.5870947307
 20
130.4217478579
 10
186.1632262105
 20
130.5334248631
 10
184.7390510224
 20
130.6376490369
 10
183.3145886248
 20
130.7344177573
 10
181.8898420731
 20
130.8237336462
 10
180.4647980114
 20
130.9056045695
 10
179.0394348985
 20
130.9800329571
 10
177.6137968193
 20
131.0470163791
 10
176.1879688795
 20
131.1065554112
 10
174.7619719037
 20
131.158649572
 10
173.335807692
 20
131.203299343
 10
171.9095328428
 20
131.2405067443
 10
170.4831676343
 20
131.2702720305
 10
169.0567144484
 20
131.2925949471
 10
167.6302030511
 20
131.3074767504
 10
166.2036310024
 20
131.314917859
 10
164.7770234171
 20
131.3149178542
 10
163.3504513966
 20
131.3074767368
 10
161.9239400701
 20
131.2925949258
 10
160.4974869833
 20
131.2702720022
 10
159.0711218592
 20
131.2405067092
 10
157.6448470482
 20
131.2032993007
 10
156.2186828602
 20
131.1586495229
 10
154.7926859455
 20
131.1065553577
 10
153.3668581923
 20
131.0470163287
 10
151.941220337
 20
130.9800329122
 10
150.5158572729
 20
130.9056045194
 10
149.0908128393
 20
130.8237335637
 10
147.6660657407
 20
130.7344176317
 10
146.2416031455
 20
130.6376488943
 10
144.8174282835
 20
130.5334247419
 10
143.3935604384
 20
130.4217477842
 10
141.9700108538
 20
130.3026180211
  0
LWPOLYLINE
  5
33E
100
AcDbEntity
  8
RACCORDO
100
AcDbPolyline
 62
253
  6
CONTINUOUS
 90
34
 70
0
 10
189.0187140033
 20
130.5018321402
 10
187.5947187585
 20
130.6210522872
 10
186.1703510912
 20
130.7328124601
 10
184.7456497914
 20
130.8371132608
 10
183.3206894476
 20
130.9339531036
 10
181.8954730059
 20
131.0233357537
 10
180.4699316496
 20
131.1052684388
 10
179.0440707938
 20
131.1797525086
 10
177.6179621979
 20
131.2467858579
 10
176.1916364328
 20
131.3063690027
 10
174.7651415063
 20
131.3585018015
 10
173.3385065354
 20
131.4031850226
 10
171.9117337121
 20
131.4404201426
 10
170.4848704496
 20
131.47020719
 10
169.0579463635
 20
131.4925467925
 10
167.6309369036
 20
131.5074400502
 10
166.2038667543
 20
131.5148867852
 10
164.7767882011
 20
131.514886782
 10
163.3497180797
 20
131.5074400407
 10
161.9227086898
 20
131.4925467776
 10
160.4957847015
 20
131.4702071709
 10
159.0689215222
 20
131.44042012
 10
157.6421487361
 20
131.4031849962
 10
156.2155137877
 20
131.358501771
 10
154.7890189211
 20
131.3063689699
 10
153.3626933416
 20
131.2467858289
 10
151.9365849686
 20
131.1797524872
 10
150.5107241604
 20
131.1052684178
 10
149.08518245
 20
131.0233357094
 10
147.6599654794
 20
130.9339530209
 10
146.2350048985
 20
130.8371131548
 10
144.8103038087
 20
130.732812362
 10
143.3859366425
 20
130.6210522229
 10
141.9619421896
 20
130.5018321402
  0
LWPOLYLINE
  5
33F
100
AcDbEntity
  8
RACCORDO
100
AcDbPolyline
 62
253
  6
CONTINUOUS
 90
46
 70
0
 10
187.9962071583
 20
129.2189646324
 10
188.0047221903
 20
129.218153501
 10
188.0134048409
 20
129.2170024867
 10
188.0222551098
 20
129.2155115894
 10
188.0312769304
 20
129.2137012379
 10
188.0404663685
 20
129.2115510036
 10
188.0498116222
 20
129.2089996002
 10
188.0593107628
 20
129.2060509976
 10
188.0689657184
 20
129.202701226
 10
188.0787704716
 20
129.1988770901
 10
188.0887341473
 20
129.1945781029
 10
188.09884762
 20
129.1898047513
 10
188.1090774971
 20
129.1844853003
 10
188.1194291043
 20
129.1786180281
 10
188.1298971153
 20
129.1722046566
 10
188.1404321597
 20
129.1651786159
 10
188.1510333554
 20
129.1575423525
 10
188.1617015842
 20
129.1492934201
 10
188.1723901214
 20
129.1403579101
 10
188.1831061071
 20
129.1307319342
 10
188.1938424011
 20
129.1204193807
 10
188.204530859
 20
129.1093580054
 10
188.2151771245
 20
129.097541952
 10
188.2257755541
 20
129.0849770769
 10
188.2362410735
 20
129.0716187047
 10
188.246576988
 20
129.0574613493
 10
188.2567799929
 20
129.042510497
 10
188.2667550989
 20
129.0267379315
 10
188.2765084503
 20
129.0101287531
 10
188.2860339039
 20
128.9926978615
 10
188.2952180394
 20
128.9744617393
 10
188.304062862
 20
128.9554029296
 10
188.3125663681
 20
128.9355388893
 10
188.3206091245
 20
128.9149384723
 10
188.3281873225
 20
128.893590896
 10
188.3353047727
 20
128.8715069429
 10
188.3418534717
 20
128.8487878142
 10
188.3478282169
 20
128.8254265277
 10
188.3532342127
 20
128.8014300656
 10
188.3579790662
 20
128.7769205754
 10
188.3620578886
 20
128.7518925257
 10
188.3654755703
 20
128.726351448
 10
188.3681543865
 20
128.7004360847
 10
188.3700684296
 20
128.6741926835
 10
188.3712436082
 20
128.6475749968
 10
188.3716799226
 20
128.6205830245
  0
LWPOLYLINE
  5
340
100
AcDbEntity
  8
RACCORDO
100
AcDbPolyline
 62
7
  6
CONTINUOUS
 90
55
 70
0
 10
189.0775046465
 20
130.5555168002
 10
189.1048456564
 20
130.5527489325
 10
189.1320686301
 20
130.5492361272
 10
189.1591735677
 20
130.5449783841
 10
189.1861864755
 20
130.5399702019
 10
189.2130813472
 20
130.534217082
 10
189.2397801636
 20
130.5277355284
 10
189.2662713824
 20
130.5205267059
 10
189.292566546
 20
130.5125894496
 10
189.318622262
 20
130.5039367684
 10
189.3444490279
 20
130.4945631177
 10
189.3700363462
 20
130.484474042
 10
189.3953093328
 20
130.4736991833
 10
189.420255449
 20
130.4622423631
 10
189.4448872335
 20
130.4500997599
 10
189.4691674186
 20
130.437289551
 10
189.4931074068
 20
130.4238035458
 10
189.5166957956
 20
130.409649935
 10
189.5398611101
 20
130.3948714678
 10
189.5625914086
 20
130.3794737516
 10
189.5848986329
 20
130.3634511791
 10
189.6067471329
 20
130.3468296783
 10
189.6281439896
 20
130.3296019503
 10
189.6490821222
 20
130.311775294
 10
189.6695046378
 20
130.2933975346
 10
189.6894060858
 20
130.2744707887
 10
189.7087919168
 20
130.2549929395
 10
189.7276215907
 20
130.2350054616
 10
189.7458941643
 20
130.2145075418
 10
189.7636105807
 20
130.1934999933
 10
189.7807331288
 20
130.1720267295
 10
189.797263475
 20
130.1500821021
 10
189.8131999529
 20
130.1276717594
 10
189.8284998513
 20
130.1048565598
 10
189.8431565188
 20
130.0816441771
 10
189.8571766069
 20
130.0580269375
 10
189.8705373588
 20
130.0340426768
 10
189.8832432859
 20
130.0096790883
 10
189.8952898768
 20
129.9849484787
 10
189.9066408397
 20
129.9599256049
 10
189.9172890727
 20
129.9346223631
 10
189.9272416779
 20
129.9090268569
 10
189.9364836695
 20
129.8831781542
 10
189.9450176764
 20
129.8570637
 10
189.9528410697
 20
129.8306960492
 10
189.9599309776
 20
129.8041519354
 10
189.9662828632
 20
129.7774420366
 10
189.9719012633
 20
129.7505556748
 10
189.9767769166
 20
129.7235375488
 10
189.9809099411
 20
129.6963761754
 10
189.9843002189
 20
129.6690830379
 10
189.9869381349
 20
129.6417372856
 10
189.9888204839
 20
129.6143653016
 10
189.9899504711
 20
129.5869407027
 10
189.9903280964
 20
129.5594634891
  0
LWPOLYLINE
  5
341
100
AcDbEntity
  8
RACCORDO
100
AcDbPolyline
 62
253
  6
CONTINUOUS
 90
46
 70
0
 10
187.9829881673
 20
129.0864497012
 10
187.9872292672
 20
129.0858270477
 10
187.9915550528
 20
129.084948021
 10
187.9959631065
 20
129.0838085257
 10
188.0004495597
 20
129.0824160349
 10
188.00501257
 20
129.0807548152
 10
188.0096522593
 20
129.0787856756
 10
188.0143627474
 20
129.0765067148
 10
188.0191421262
 20
129.0739109809
 10
188.0239957113
 20
129.0709508764
 10
188.0289214225
 20
129.0676205089
 10
188.0339106604
 20
129.0639155696
 10
188.0389580334
 20
129.0597901414
 10
188.0440579645
 20
129.0552378859
 10
188.0492022458
 20
129.0502549446
 10
188.0543807087
 20
129.0447991231
 10
188.0595828304
 20
129.0388677428
 10
188.064802158
 20
129.0324540747
 10
188.0700335282
 20
129.0255097189
 10
188.0752679804
 20
129.0180272275
 10
188.0804931961
 20
129.010004771
 10
188.0856976374
 20
129.0014022179
 10
188.090869608
 20
128.9922118073
 10
188.0959953298
 20
128.9824333921
 10
188.1010590871
 20
128.9720386775
 10
188.1060461941
 20
128.9610217427
 10
188.1109419897
 20
128.9493829615
 10
188.1157298865
 20
128.9371041857
 10
188.1203951399
 20
128.924174079
 10
188.1249191768
 20
128.9106012669
 10
188.1292795096
 20
128.8963987902
 10
188.1334598107
 20
128.8815561852
 10
188.1374413488
 20
128.8660856339
 10
188.1411996115
 20
128.8500361802
 10
188.1447171561
 20
128.8334054047
 10
188.1479776369
 20
128.8162028236
 10
188.15096088
 20
128.7984975353
 10
188.1536504564
 20
128.7802922223
 10
188.1560316261
 20
128.7615963055
 10
188.1580893796
 20
128.7424907099
 10
188.1598089313
 20
128.7229823737
 10
188.161177166
 20
128.7030808636
 10
188.1621834905
 20
128.6828723008
 10
188.1628162378
 20
128.662392201
 10
188.1630622855
 20
128.6416254105
 10
188.1629100031
 20
128.6205830245
  0
LINE
  5
342
100
AcDbEntity
  8
RACCORDO
100
AcDbLine
 62
253
  6
CONTINUOUS
 10
190.1890860085
 20
129.7785579276
 11
190.1717488158
 21
129.8950246435
  0
LWPOLYLINE
  5
343
100
AcDbEntity
  8
RACCORDO
100
AcDbPolyline
 62
253
  6
CONTINUOUS
 90
12
 70
0
 10
189.3330491825
 20
77.9575734214
 10
189.4436067171
 20
77.9959505109
 10
189.5510997254
 20
78.045834345
 10
189.6544437344
 20
78.1066187787
 10
189.7503852076
 20
78.1764853771
 10
189.8386094415
 20
78.255676004
 10
189.9194315287
 20
78.3439487956
 10
189.990542754
 20
78.4387597253
 10
190.0516719728
 20
78.5404042805
 10
190.1030907017
 20
78.6485869737
 10
190.1433042542
 20
78.7598773163
 10
190.1718144851
 20
78.8731318119
  0
LWPOLYLINE
  5
344
100
AcDbEntity
  8
RACCORDO
100
AcDbPolyline
 62
253
  6
CONTINUOUS
 90
3
 70
0
 10
141.8811698737
 20
130.8543855409
 10
141.7623137671
 20
130.8378096507
 10
141.6476070103
 20
130.8103331608
  0
LWPOLYLINE
  5
345
100
AcDbEntity
  8
RACCORDO
100
AcDbPolyline
 62
253
  6
CONTINUOUS
 90
3
 70
0
 10
189.3327971793
 20
130.8104237249
 10
189.2181953302
 20
130.8378578679
 10
189.0994863192
 20
130.8543855409
  0
LWPOLYLINE
  5
346
100
AcDbEntity
  8
RACCORDO
100
AcDbPolyline
 62
253
  6
CONTINUOUS
 90
12
 70
0
 10
190.1717488158
 20
129.8950246435
 10
190.1432085198
 20
130.0083429785
 10
190.1029672088
 20
130.1196431006
 10
190.0515225675
 20
130.2277948418
 10
189.9903679018
 20
130.329407698
 10
189.9192310197
 20
130.4241998022
 10
189.8383837409
 20
130.5124530213
 10
189.7501354253
 20
130.5916224522
 10
189.654157504
 20
130.6614673542
 10
189.5507781563
 20
130.722228468
 10
189.4432919928
 20
130.7720831117
 10
189.3327971793
 20
130.8104237249
  0
LWPOLYLINE
  5
347
100
AcDbEntity
  8
RACCORDO
100
AcDbPolyline
 62
253
  6
CONTINUOUS
 90
13
 70
0
 10
206.0304668477
 20
146.3839532911
 10
206.030123455
 20
146.4492163954
 10
206.0290991526
 20
146.5133628285
 10
206.0274114665
 20
146.5752950272
 10
206.0250892736
 20
146.6339533144
 10
206.0221723073
 20
146.6883340304
 10
206.0187104777
 20
146.7375067055
 10
206.0147630179
 20
146.7806299819
 10
206.0103974698
 20
146.8169660092
 10
206.0056885295
 20
146.8458930682
 10
206.0007167681
 20
146.8669162098
 10
205.9955672539
 20
146.8796757233
 10
205.9903280964
 20
146.8839532911
  0
LINE
  5
348
100
AcDbEntity
  8
RACCORDO
100
AcDbLine
 62
253
  6
CONTINUOUS
 10
207.5319534681
 20
63.8839532911
 11
207.5319534681
 21
144.8839532911
  0
LWPOLYLINE
  5
349
100
AcDbEntity
  8
RACCORDO
100
AcDbPolyline
 62
253
  6
CONTINUOUS
 90
13
 70
0
 10
206.0304668477
 20
62.3839532911
 10
206.0301234546
 20
62.3186903599
 10
206.0290991551
 20
62.2545440568
 10
206.0274114739
 20
62.1926119407
 10
206.0250892866
 20
62.1339536869
 10
206.0221723254
 20
62.0795729603
 10
206.0187104998
 20
62.0304002416
 10
206.0147630418
 20
61.987276896
 10
206.0103974931
 20
61.9509407859
 10
206.0056885498
 20
61.9220136465
 10
206.0007167836
 20
61.9009904372
 10
205.9955672625
 20
61.8882308765
 10
205.9903280965
 20
61.8839532911
  0
LINE
  5
34A
100
AcDbEntity
  8
RACCORDO
100
AcDbLine
 62
253
  6
CONTINUOUS
 10
123.4487027248
 20
144.8839532911
 11
122.9903280964
 21
144.8839532911
  0
LINE
  5
34B
100
AcDbEntity
  8
RACCORDO
100
AcDbLine
 62
253
  6
CONTINUOUS
 10
207.5319534681
 20
144.8839532911
 11
207.9903280964
 21
144.8839532911
  0
LINE
  5
34C
100
AcDbEntity
  8
RACCORDO
100
AcDbLine
 62
253
  6
CONTINUOUS
 10
206.0304668477
 20
146.3839532911
 11
124.9501893452
 21
146.3839532911
  0
LWPOLYLINE
  5
34D
100
AcDbEntity
  8
RACCORDO
100
AcDbPolyline
 62
253
  6
CONTINUOUS
 90
25
 70
0
 10
207.5319534681
 20
144.8839532911
 10
207.5309678641
 20
144.9615230843
 10
207.5244471527
 20
145.0419703142
 10
207.5123913158
 20
145.1252949806
 10
207.4952264369
 20
145.2122607419
 10
207.4725263542
 20
145.3021039399
 10
207.4430126444
 20
145.3925335994
 10
207.4063830908
 20
145.4836588496
 10
207.3629396833
 20
145.5753705613
 10
207.3123102513
 20
145.6650503727
 10
207.2540839306
 20
145.7527163976
 10
207.1886711919
 20
145.8383505222
 10
207.1169318499
 20
145.9192800427
 10
207.0383310502
 20
145.99535021
 10
206.9534031687
 20
146.0667157732
 10
206.8646119665
 20
146.1311682765
 10
206.7715559601
 20
146.1882192821
 10
206.6746362829
 20
146.2383572276
 10
206.5775208876
 20
146.2808389706
 10
206.4802321515
 20
146.3150282633
 10
206.3827476868
 20
146.3415613534
 10
206.2886686389
 20
146.3616038412
 10
206.1991955667
 20
146.3755442601
 10
206.1131282551
 20
146.3829940768
 10
206.0304668477
 20
146.3839532911
  0
LINE
  5
34E
100
AcDbEntity
  8
RACCORDO
100
AcDbLine
 62
7
  6
CONTINUOUS
 10
207.9903280964
 20
63.8839532911
 11
207.9903280964
 21
144.8839532911
  0
LWPOLYLINE
  5
34F
100
AcDbEntity
  8
RACCORDO
100
AcDbPolyline
 62
253
  6
CONTINUOUS
 90
25
 70
0
 10
124.9501893452
 20
146.3839532911
 10
124.8676040731
 20
146.3830031276
 10
124.7815944098
 20
146.3755634095
 10
124.6921604996
 20
146.3616341368
 10
124.5980992019
 20
146.3416058152
 10
124.5006140026
 20
146.315087939
 10
124.4033148262
 20
146.2809089907
 10
124.3061794798
 20
146.2384312487
 10
124.2092301468
 20
146.1882924347
 10
124.1161429729
 20
146.1312341959
 10
124.0273197833
 20
146.066766316
 10
123.9423584027
 20
145.9953790113
 10
123.8637287106
 20
145.9192845783
 10
123.7919667181
 20
145.8383276838
 10
123.7265359349
 20
145.7526636611
 10
123.6682973863
 20
145.664970806
 10
123.6176627707
 20
145.5752674474
 10
123.5742199958
 20
145.4835352564
 10
123.5375944193
 20
145.3923975432
 10
123.5080886888
 20
145.3019638787
 10
123.4853999297
 20
145.212124692
 10
123.4682452722
 20
145.1251745801
 10
123.4561970724
 20
145.0418784089
 10
123.4496828959
 20
144.9614713125
 10
123.4487027248
 20
144.8839532911
  0
LINE
  5
350
100
AcDbEntity
  8
RACCORDO
100
AcDbLine
 62
7
  6
CONTINUOUS
 10
205.9903280964
 20
146.8839532911
 11
124.9903280964
 21
146.8839532911
  0
LINE
  5
351
100
AcDbEntity
  8
RACCORDO
100
AcDbLine
 62
7
  6
CONTINUOUS
 10
93.5932053605
 20
61.8839532911
 11
100.1361546428
 21
61.8839532911
  0
LINE
  5
352
100
AcDbEntity
  8
RACCORDO
100
AcDbLine
 62
253
  6
CONTINUOUS
 10
93.0932053605
 20
62.3839532911
 11
94.7230660494
 21
62.3839532911
  0
LWPOLYLINE
  5
353
100
AcDbEntity
  8
RACCORDO
100
AcDbPolyline
 62
253
  6
CONTINUOUS
 90
22
 70
0
 10
94.7230660494
 20
62.3839532911
 10
94.7301313402
 20
62.3852836315
 10
94.737440521
 20
62.3935182414
 10
94.7449951152
 20
62.4086571207
 10
94.7528986036
 20
62.4304228467
 10
94.7610511914
 20
62.4590928422
 10
94.7691473281
 20
62.495499375
 10
94.777179575
 20
62.5402830696
 10
94.7851542364
 20
62.5928033015
 10
94.7927821297
 20
62.6519704651
 10
94.8000226529
 20
62.7181997504
 10
94.8069114522
 20
62.7910759675
 10
94.8132708207
 20
62.8682639413
 10
94.8190561459
 20
62.949884592
 10
94.8243061496
 20
63.0358169994
 10
94.8289672292
 20
63.1233632273
 10
94.8330051029
 20
63.2125142419
 10
94.8364494934
 20
63.3032790771
 10
94.8393431664
 20
63.3929868984
 10
94.8416598101
 20
63.4814785969
 10
94.8434232233
 20
63.5689132815
 10
94.8456856217
 20
63.7332999152
  0
LINE
  5
354
100
AcDbEntity
  8
RACCORDO
100
AcDbLine
 62
253
  6
CONTINUOUS
 10
94.8462463671
 20
63.8839532911
 11
100.3027297389
 21
63.8839532911
  0
LINE
  5
355
100
AcDbEntity
  8
DRAFT
100
AcDbLine
 62
253
  6
CONTINUOUS
 10
100.3027297389
 20
63.8839532911
 11
102.9932053605
 21
63.8839532911
  0
LINE
  5
356
100
AcDbEntity
  8
DRAFT
100
AcDbLine
 62
7
  6
CONTINUOUS
 10
102.4932053605
 20
62.8839532911
 11
100.285015576
 21
62.9996796139
  0
LINE
  5
357
100
AcDbEntity
  8
DRAFT
100
AcDbLine
 62
7
  6
CONTINUOUS
 10
93.2764828467
 20
77.2505744304
 11
93.1942378799
 21
77.2520100216
  0
LINE
  5
358
100
AcDbEntity
  8
RACCORDO
100
AcDbLine
 62
253
  6
CONTINUOUS
 10
93.6977364139
 20
79.1089637513
 11
93.6978561468
 21
79.1089637513
  0
LINE
  5
359
100
AcDbEntity
  8
RACCORDO
100
AcDbLine
 62
253
  6
CONTINUOUS
 10
93.5747068761
 20
79.2615923008
 11
93.6977364139
 21
79.2615923008
  0
LINE
  5
35A
100
AcDbEntity
  8
RACCORDO
100
AcDbLine
 62
253
  6
CONTINUOUS
 10
93.5108181909
 20
80.1473235577
 11
93.5106136009
 21
80.1473235576
  0
LWPOLYLINE
  5
35B
100
AcDbEntity
  8
RACCORDO
100
AcDbPolyline
 62
253
  6
CONTINUOUS
 90
13
 70
0
 10
94.7230660494
 20
62.3839532911
 10
94.7273297913
 20
62.3186903599
 10
94.7400480727
 20
62.2545440568
 10
94.7610032943
 20
62.1926119407
 10
94.7898369213
 20
62.1339536869
 10
94.8260556147
 20
62.0795729603
 10
94.8690396696
 20
62.0304002416
 10
94.9180536262
 20
61.987276896
 10
94.9722588475
 20
61.9509407859
 10
95.0307278617
 20
61.9220136465
 10
95.0924602449
 20
61.9009904372
 10
95.1563997412
 20
61.8882308765
 10
95.221452326
 20
61.8839532911
  0
LINE
  5
35C
100
AcDbEntity
  8
RACCORDO
100
AcDbLine
 62
7
  6
CONTINUOUS
 10
93.5010340747
 20
129.1456206374
 11
93.5015767337
 21
129.1361412606
  0
LINE
  5
35D
100
AcDbEntity
  8
RACCORDO
100
AcDbLine
 62
253
  6
CONTINUOUS
 10
93.5010159626
 20
129.1551732384
 11
93.5018364309
 21
129.1403579101
  0
LINE
  5
35E
100
AcDbEntity
  8
RACCORDO
100
AcDbLine
 62
7
  6
CONTINUOUS
 10
93.5015140324
 20
129.1372760767
 11
93.5021684281
 21
129.1247834984
  0
LINE
  5
35F
100
AcDbEntity
  8
RACCORDO
100
AcDbLine
 62
253
  6
CONTINUOUS
 10
93.563205094
 20
130.078008562
 11
93.5616722292
 21
130.107833311
  0
LINE
  5
360
100
AcDbEntity
  8
RACCORDO
100
AcDbLine
 62
253
  6
CONTINUOUS
 10
93.5018364309
 20
129.1403579101
 11
93.502799479
 21
129.1204193807
  0
LINE
  5
361
100
AcDbEntity
  8
RACCORDO
100
AcDbLine
 62
7
  6
CONTINUOUS
 10
93.5020657054
 20
129.1268251585
 11
93.5027251385
 21
129.113071643
  0
LINE
  5
362
100
AcDbEntity
  8
RACCORDO
100
AcDbLine
 62
253
  6
CONTINUOUS
 10
93.5646600615
 20
130.0464473754
 11
93.563205094
 21
130.078008562
  0
LINE
  5
363
100
AcDbEntity
  8
RACCORDO
100
AcDbLine
 62
7
  6
CONTINUOUS
 10
93.6801136631
 20
130.5158726576
 11
93.682919356
 21
130.4554656064
  0
LINE
  5
364
100
AcDbEntity
  8
RACCORDO
100
AcDbLine
 62
7
  6
CONTINUOUS
 10
93.5026630635
 20
129.1144189773
 11
93.5034883056
 21
129.0952825618
  0
LINE
  5
365
100
AcDbEntity
  8
RACCORDO
100
AcDbLine
 62
253
  6
CONTINUOUS
 10
93.502799479
 20
129.1204193807
 11
93.5037581544
 21
129.097541952
  0
LINE
  5
366
100
AcDbEntity
  8
RACCORDO
100
AcDbLine
 62
253
  6
CONTINUOUS
 10
93.5660317871
 20
130.0132549316
 11
93.5646600615
 21
130.0464473754
  0
LINE
  5
367
100
AcDbEntity
  8
RACCORDO
100
AcDbLine
 62
7
  6
CONTINUOUS
 10
93.682919356
 20
130.4554656064
 11
93.6855735852
 21
130.389731069
  0
LINE
  5
368
100
AcDbEntity
  8
RACCORDO
100
AcDbLine
 62
7
  6
CONTINUOUS
 10
93.5033823802
 20
129.0978640245
 11
93.5041936176
 21
129.0769016525
  0
LINE
  5
369
100
AcDbEntity
  8
RACCORDO
100
AcDbLine
 62
253
  6
CONTINUOUS
 10
93.6855735852
 20
130.389731069
 11
93.6844140989
 21
130.4241998022
  0
LINE
  5
36A
100
AcDbEntity
  8
RACCORDO
100
AcDbLine
 62
253
  6
CONTINUOUS
 10
93.5037581544
 20
129.097541952
 11
93.5041370451
 21
129.078432373
  0
LINE
  5
36B
100
AcDbEntity
  8
RACCORDO
100
AcDbLine
 62
253
  6
CONTINUOUS
 10
93.5043528528
 20
129.0724655021
 11
93.5047055478
 21
129.0716187047
  0
LINE
  5
36C
100
AcDbEntity
  8
RACCORDO
100
AcDbLine
 62
253
  6
CONTINUOUS
 10
93.5679235918
 20
129.9606376787
 11
93.5660317871
 21
130.0132549316
  0
LINE
  5
36D
100
AcDbEntity
  8
RACCORDO
100
AcDbLine
 62
7
  6
CONTINUOUS
 10
93.6855735852
 20
130.389731069
 11
93.6880415716
 21
130.3188636617
  0
LINE
  5
36E
100
AcDbEntity
  8
RACCORDO
100
AcDbLine
 62
7
  6
CONTINUOUS
 10
93.5041370451
 20
129.078432373
 11
93.5051336706
 21
129.0490671911
  0
LINE
  5
36F
100
AcDbEntity
  8
RACCORDO
100
AcDbLine
 62
253
  6
CONTINUOUS
 10
93.505170748
 20
129.0574613493
 11
93.5050832605
 21
129.0506854112
  0
LINE
  5
370
100
AcDbEntity
  8
RACCORDO
100
AcDbLine
 62
253
  6
CONTINUOUS
 10
93.5052865949
 20
129.0441512523
 11
93.5056301739
 21
129.042510497
  0
LINE
  5
371
100
AcDbEntity
  8
RACCORDO
100
AcDbLine
 62
253
  6
CONTINUOUS
 10
93.6880415716
 20
130.3188636617
 11
93.6878643404
 21
130.329407698
  0
LINE
  5
372
100
AcDbEntity
  8
RACCORDO
100
AcDbLine
 62
7
  6
CONTINUOUS
 10
93.6880415716
 20
130.3188636617
 11
93.6902906399
 21
130.2430973212
  0
LINE
  5
373
100
AcDbEntity
  8
RACCORDO
100
AcDbLine
 62
253
  6
CONTINUOUS
 10
93.5696045917
 20
129.9049373772
 11
93.5679235918
 21
129.9606376787
  0
LINE
  5
374
100
AcDbEntity
  8
RACCORDO
100
AcDbLine
 62
7
  6
CONTINUOUS
 10
93.5050832605
 20
129.0506854112
 11
93.5061291385
 21
129.0146910993
  0
LINE
  5
375
100
AcDbEntity
  8
RACCORDO
100
AcDbLine
 62
253
  6
CONTINUOUS
 10
93.5060795373
 20
129.0267379315
 11
93.506029163
 21
129.0183980815
  0
LWPOLYLINE
  5
376
100
AcDbEntity
  8
RACCORDO
100
AcDbPolyline
 62
253
  6
CONTINUOUS
 90
31
 70
0
 10
93.5401465346
 20
78.4652885611
 10
93.5403659006
 20
78.4567156943
 10
93.540954836
 20
78.4481587037
 10
93.5419122503
 20
78.4396334357
 10
93.5432363703
 20
78.4311556781
 10
93.544924744
 20
78.4227411307
 10
93.5469742447
 20
78.4144053762
 10
93.549381077
 20
78.4061638515
 10
93.5521407837
 20
78.3980318188
 10
93.5552482541
 20
78.3900243378
 10
93.5586977337
 20
78.3821562372
 10
93.5624828343
 20
78.3744420879
 10
93.5665965465
 20
78.3668961756
 10
93.571031252
 20
78.3595324743
 10
93.5757787385
 20
78.3523646209
 10
93.5808302141
 20
78.3454058892
 10
93.586176324
 20
78.338669166
 10
93.591807168
 20
78.332166927
 10
93.5977123183
 20
78.3259112135
 10
93.6038808394
 20
78.3199136102
 10
93.6103013079
 20
78.3141852242
 10
93.6169618338
 20
78.3087366636
 10
93.6238500827
 20
78.3035780185
 10
93.6309532983
 20
78.2987188421
 10
93.6382583264
 20
78.2941681331
 10
93.6457516388
 20
78.2899343187
 10
93.6534193589
 20
78.2860252396
 10
93.6612472871
 20
78.2824481349
 10
93.6692209268
 20
78.2792096288
 10
93.6773255119
 20
78.2763157189
 10
93.6812196147
 20
78.2751106346
  0
LINE
  5
377
100
AcDbEntity
  8
RACCORDO
100
AcDbLine
 62
7
  6
CONTINUOUS
 10
93.6902906399
 20
130.2430973212
 11
93.6922934586
 21
130.1626962567
  0
LINE
  5
378
100
AcDbEntity
  8
RACCORDO
100
AcDbLine
 62
253
  6
CONTINUOUS
 10
93.5710625074
 20
129.846531882
 11
93.5696045917
 21
129.9049373772
  0
LINE
  5
379
100
AcDbEntity
  8
RACCORDO
100
AcDbLine
 62
7
  6
CONTINUOUS
 10
93.506029163
 20
129.0183980815
 11
93.5071009242
 21
128.974862314
  0
LWPOLYLINE
  5
37A
100
AcDbEntity
  8
RACCORDO
100
AcDbPolyline
 62
253
  6
CONTINUOUS
 90
6
 70
0
 10
93.4939616656
 20
129.2189646324
 10
93.4941608712
 20
129.2093043821
 10
93.4948292249
 20
129.1996668373
 10
93.4959651556
 20
129.1900746502
 10
93.4975659936
 20
129.1805503663
 10
93.4989096839
 20
129.1744027069
  0
LINE
  5
37B
100
AcDbEntity
  8
RACCORDO
100
AcDbLine
 62
253
  6
CONTINUOUS
 10
93.5722866543
 20
129.7858169624
 11
93.5710625074
 21
129.846531882
  0
LINE
  5
37C
100
AcDbEntity
  8
RACCORDO
100
AcDbLine
 62
7
  6
CONTINUOUS
 10
93.5070073623
 20
128.9790578765
 11
93.5081040568
 21
128.9247506613
  0
LINE
  5
37D
100
AcDbEntity
  8
RACCORDO
100
AcDbLine
 62
253
  6
CONTINUOUS
 10
93.5081457986
 20
128.9355388893
 11
93.508018814
 21
128.9295144037
  0
LINE
  5
37E
100
AcDbEntity
  8
RACCORDO
100
AcDbLine
 62
253
  6
CONTINUOUS
 10
93.5082510746
 20
128.916399646
 11
93.5085089866
 21
128.9149384723
  0
LINE
  5
37F
100
AcDbEntity
  8
RACCORDO
100
AcDbLine
 62
7
  6
CONTINUOUS
 10
93.6922934586
 20
130.1626962567
 11
93.6947817894
 21
130.0341017935
  0
LINE
  5
380
100
AcDbEntity
  8
RACCORDO
100
AcDbLine
 62
253
  6
CONTINUOUS
 10
93.5088698223
 20
128.8771322964
 11
93.5091729315
 21
128.8715069429
  0
LWPOLYLINE
  5
381
100
AcDbEntity
  8
RACCORDO
100
AcDbPolyline
 62
7
  6
CONTINUOUS
 90
3
 70
0
 10
92.993205433
 20
130.1528185801
 10
92.9932858424
 20
130.1471478383
 10
92.9937126877
 20
130.1385832518
  0
LINE
  5
382
100
AcDbEntity
  8
RACCORDO
100
AcDbLine
 62
7
  6
CONTINUOUS
 10
93.508018814
 20
128.9295144037
 11
93.5089936277
 21
128.8683159814
  0
LINE
  5
383
100
AcDbEntity
  8
RACCORDO
100
AcDbLine
 62
253
  6
CONTINUOUS
 10
93.5735398874
 20
129.7019881161
 11
93.5722866543
 21
129.7858169624
  0
LINE
  5
384
100
AcDbEntity
  8
RACCORDO
100
AcDbLine
 62
7
  6
CONTINUOUS
 10
93.6947817894
 20
130.0341017935
 11
93.6965626784
 21
129.8971233433
  0
LINE
  5
385
100
AcDbEntity
  8
RACCORDO
100
AcDbLine
 62
7
  6
CONTINUOUS
 10
93.5088698223
 20
128.8771322964
 11
93.5097655607
 21
128.8018759778
  0
LINE
  5
386
100
AcDbEntity
  8
RACCORDO
100
AcDbLine
 62
253
  6
CONTINUOUS
 10
93.5743453074
 20
129.6157904866
 11
93.5735398874
 21
129.7019881161
  0
LINE
  5
387
100
AcDbEntity
  8
RACCORDO
100
AcDbLine
 62
7
  6
CONTINUOUS
 10
93.5096737409
 20
128.8112022009
 11
93.5103049015
 21
128.7308024407
  0
LINE
  5
388
100
AcDbEntity
  8
RACCORDO
100
AcDbLine
 62
253
  6
CONTINUOUS
 10
93.5103827282
 20
128.7518925257
 11
93.5102476798
 21
128.7405318296
  0
LINE
  5
389
100
AcDbEntity
  8
RACCORDO
100
AcDbLine
 62
7
  6
CONTINUOUS
 10
93.6965626784
 20
129.8971233433
 11
93.6975557528
 21
129.7533639377
  0
LINE
  5
38A
100
AcDbEntity
  8
RACCORDO
100
AcDbLine
 62
253
  6
CONTINUOUS
 10
93.6975557528
 20
129.7533639377
 11
93.6975557385
 21
129.7785579276
  0
LINE
  5
38B
100
AcDbEntity
  8
RACCORDO
100
AcDbLine
 62
253
  6
CONTINUOUS
 10
93.5746923296
 20
129.5282972281
 11
93.5743453074
 21
129.6157904866
  0
LINE
  5
38C
100
AcDbEntity
  8
RACCORDO
100
AcDbLine
 62
7
  6
CONTINUOUS
 10
93.5102476798
 20
128.7405318296
 11
93.5106041024
 21
128.6397601733
  0
LINE
  5
38D
100
AcDbEntity
  8
RACCORDO
100
AcDbLine
 62
253
  6
CONTINUOUS
 10
93.5107984408
 20
128.6475749968
 11
93.5106037684
 21
128.6400452445
  0
LINE
  5
38E
100
AcDbEntity
  8
RACCORDO
100
AcDbLine
 62
253
  6
CONTINUOUS
 10
93.5106101327
 20
128.6313942328
 11
93.5108181909
 21
128.6205830245
  0
LINE
  5
38F
100
AcDbEntity
  8
0
100
AcDbLine
 62
7
  6
CONTINUOUS
 10
92.9932053605
 20
131.3074767436
 11
92.9932053605
 21
130.1450425055
  0
LINE
  5
390
100
AcDbEntity
  8
0
100
AcDbLine
 62
7
  6
CONTINUOUS
 10
92.9932053605
 20
78.6228640767
 11
92.9932053605
 21
77.4604298386
  0
LINE
  5
391
100
AcDbEntity
  8
ASSI
100
AcDbLine
 62
7
  6
CONTINUOUS
 10
93.0932053605
 20
146.3839532911
 11
93.0932053605
 21
131.8839532491
  0
LINE
  5
392
100
AcDbEntity
  8
ASSI
100
AcDbLine
 62
7
  6
CONTINUOUS
 10
93.0932053605
 20
76.8839533772
 11
93.0932053605
 21
62.3839532911
  0
LINE
  5
393
100
AcDbEntity
  8
RACCORDO
100
AcDbLine
 62
7
  6
CONTINUOUS
 10
93.5106037684
 20
128.6400452445
 11
93.5106125573
 21
80.1412804944
  0
LINE
  5
394
100
AcDbEntity
  8
RACCORDO
100
AcDbLine
 62
253
  6
CONTINUOUS
 10
93.5106089527
 20
80.1337394313
 11
93.5107987246
 21
80.1204399476
  0
LINE
  5
395
100
AcDbEntity
  8
RACCORDO
100
AcDbLine
 62
7
  6
CONTINUOUS
 10
93.6975557528
 20
129.7533639377
 11
93.6977143798
 21
79.0723708151
  0
LINE
  5
396
100
AcDbEntity
  8
RACCORDO
100
AcDbLine
 62
253
  6
CONTINUOUS
 10
93.6977143798
 20
79.0723708151
 11
93.6978561468
 21
79.1089637513
  0
LINE
  5
397
100
AcDbEntity
  8
RACCORDO
100
AcDbLine
 62
253
  6
CONTINUOUS
 10
93.5745766562
 20
79.1957909216
 11
93.5746923296
 21
129.5282972281
  0
LINE
  5
398
100
AcDbEntity
  8
RACCORDO
100
AcDbLine
 62
7
  6
CONTINUOUS
 10
93.5106128974
 20
80.1473235576
 11
93.5103876586
 21
80.0528714219
  0
LINE
  5
399
100
AcDbEntity
  8
RACCORDO
100
AcDbLine
 62
253
  6
CONTINUOUS
 10
93.5106596296
 20
80.0677284429
 11
93.5103876586
 21
80.0528714219
  0
LINE
  5
39A
100
AcDbEntity
  8
RACCORDO
100
AcDbLine
 62
253
  6
CONTINUOUS
 10
93.5103518498
 20
80.0457258946
 11
93.5105389011
 21
80.0418517294
  0
LINE
  5
39B
100
AcDbEntity
  8
RACCORDO
100
AcDbLine
 62
7
  6
CONTINUOUS
 10
93.6977143798
 20
79.0723708151
 11
93.6972886674
 21
78.9613091452
  0
LINE
  5
39C
100
AcDbEntity
  8
RACCORDO
100
AcDbLine
 62
253
  6
CONTINUOUS
 10
93.6972886674
 20
78.9613091452
 11
93.6975573915
 21
78.989493957
  0
LINE
  5
39D
100
AcDbEntity
  8
RACCORDO
100
AcDbLine
 62
253
  6
CONTINUOUS
 10
93.5739994855
 20
79.1087995583
 11
93.5745766562
 21
79.1957909216
  0
LINE
  5
39E
100
AcDbEntity
  8
RACCORDO
100
AcDbLine
 62
7
  6
CONTINUOUS
 10
93.5103876586
 20
80.0528714219
 11
93.5098004016
 21
79.9696915737
  0
LINE
  5
39F
100
AcDbEntity
  8
RACCORDO
100
AcDbLine
 62
7
  6
CONTINUOUS
 10
93.6972886674
 20
78.9613091452
 11
93.6963755608
 21
78.8526961169
  0
LINE
  5
3A0
100
AcDbEntity
  8
RACCORDO
100
AcDbLine
 62
253
  6
CONTINUOUS
 10
93.6963755608
 20
78.8526961169
 11
93.6967102996
 21
78.8731318119
  0
LINE
  5
3A1
100
AcDbEntity
  8
RACCORDO
100
AcDbLine
 62
7
  6
CONTINUOUS
 10
93.5098004016
 20
79.9696915737
 11
93.5089838239
 21
79.898880187
  0
LINE
  5
3A2
100
AcDbEntity
  8
RACCORDO
100
AcDbLine
 62
7
  6
CONTINUOUS
 10
92.9932858423
 20
78.6207587405
 11
92.993205433
 21
78.6150880021
  0
LINE
  5
3A3
100
AcDbEntity
  8
RACCORDO
100
AcDbLine
 62
253
  6
CONTINUOUS
 10
93.5729683116
 20
79.0236432891
 11
93.5739994855
 21
79.1087995583
  0
LINE
  5
3A4
100
AcDbEntity
  8
RACCORDO
100
AcDbLine
 62
7
  6
CONTINUOUS
 10
93.6963755608
 20
78.8526961169
 11
93.6949999939
 21
78.7475793718
  0
LINE
  5
3A5
100
AcDbEntity
  8
RACCORDO
100
AcDbLine
 62
253
  6
CONTINUOUS
 10
93.6949999939
 20
78.7475793718
 11
93.6953160245
 21
78.7598773163
  0
LINE
  5
3A6
100
AcDbEntity
  8
RACCORDO
100
AcDbLine
 62
7
  6
CONTINUOUS
 10
93.5089838239
 20
79.898880187
 11
93.5080414111
 21
79.8396324965
  0
LINE
  5
3A7
100
AcDbEntity
  8
RACCORDO
100
AcDbLine
 62
253
  6
CONTINUOUS
 10
93.5719051118
 20
78.9616167541
 11
93.5729683116
 21
79.0236432891
  0
LINE
  5
3A8
100
AcDbEntity
  8
RACCORDO
100
AcDbLine
 62
7
  6
CONTINUOUS
 10
93.6949999939
 20
78.7475793718
 11
93.6931907926
 21
78.646826307
  0
LINE
  5
3A9
100
AcDbEntity
  8
RACCORDO
100
AcDbLine
 62
253
  6
CONTINUOUS
 10
93.5078321779
 20
79.8284164327
 11
93.5077251245
 21
79.8228898979
  0
LINE
  5
3AA
100
AcDbEntity
  8
RACCORDO
100
AcDbLine
 62
253
  6
CONTINUOUS
 10
93.5076165917
 20
79.8174176865
 11
93.5077628199
 21
79.8125497104
  0
LWPOLYLINE
  5
3AB
100
AcDbEntity
  8
RACCORDO
100
AcDbPolyline
 62
253
  6
CONTINUOUS
 90
6
 70
0
 10
93.4939616359
 20
79.5489419498
 10
93.4941608452
 20
79.5586021995
 10
93.4948292025
 20
79.5682397437
 10
93.4959651367
 20
79.5778319303
 10
93.497565978
 20
79.5873562136
 10
93.4989102462
 20
79.5935065075
  0
LINE
  5
3AC
100
AcDbEntity
  8
RACCORDO
100
AcDbLine
 62
7
  6
CONTINUOUS
 10
93.5080414111
 20
79.8396324965
 11
93.5069371608
 21
79.785775803
  0
LINE
  5
3AD
100
AcDbEntity
  8
RACCORDO
100
AcDbLine
 62
253
  6
CONTINUOUS
 10
93.6931907926
 20
78.646826307
 11
93.6933521518
 21
78.6485869737
  0
LINE
  5
3AE
100
AcDbEntity
  8
RACCORDO
100
AcDbLine
 62
253
  6
CONTINUOUS
 10
93.5706019614
 20
78.9016274211
 11
93.5719051118
 21
78.9616167541
  0
LINE
  5
3AF
100
AcDbEntity
  8
RACCORDO
100
AcDbLine
 62
7
  6
CONTINUOUS
 10
93.6931907926
 20
78.646826307
 11
93.6909906435
 21
78.5512786917
  0
LWPOLYLINE
  5
3B0
100
AcDbEntity
  8
RACCORDO
100
AcDbPolyline
 62
253
  6
CONTINUOUS
 90
31
 70
0
 10
93.5401465359
 20
130.3026180211
 10
93.5403658978
 20
130.3111908911
 10
93.5409548294
 20
130.3197478852
 10
93.5419122401
 20
130.3282731567
 10
93.5432363567
 20
130.336750918
 10
93.5449247273
 20
130.3451654693
 10
93.5469742252
 20
130.3535012277
 10
93.5493810548
 20
130.3617427564
 10
93.5521407592
 20
130.3698747932
 10
93.5552482276
 20
130.3778822783
 10
93.5586977053
 20
130.3857503831
 10
93.5624828043
 20
130.3934645365
 10
93.5665965152
 20
130.401010453
 10
93.5710312197
 20
130.4083741584
 10
93.5757787054
 20
130.415542016
 10
93.5808301804
 20
130.4225007517
 10
93.5861762901
 20
130.4292374789
 10
93.591807134
 20
130.4357397219
 10
93.5977122845
 20
130.4419954393
 10
93.603880806
 20
130.4479930462
 10
93.610301275
 20
130.4537214359
 10
93.6169618018
 20
130.45917
 10
93.6238500517
 20
130.4643286484
 10
93.6309532685
 20
130.469187828
 10
93.638258298
 20
130.47373854
 10
93.645751612
 20
130.4779723572
 10
93.6534193338
 20
130.4818814389
 10
93.6612472638
 20
130.4854585461
 10
93.6692209055
 20
130.4886970543
 10
93.6773254928
 20
130.4915909663
 10
93.6812232932
 20
130.4927971954
  0
LINE
  5
3B1
100
AcDbEntity
  8
RACCORDO
100
AcDbLine
 62
253
  6
CONTINUOUS
 10
93.5062085353
 20
79.7562282367
 11
93.506083098
 21
79.7515082211
  0
LINE
  5
3B2
100
AcDbEntity
  8
RACCORDO
100
AcDbLine
 62
253
  6
CONTINUOUS
 10
93.5059566732
 20
79.7468487114
 11
93.5060798817
 21
79.7411818531
  0
LINE
  5
3B3
100
AcDbEntity
  8
RACCORDO
100
AcDbLine
 62
7
  6
CONTINUOUS
 10
93.5069371608
 20
79.785775803
 11
93.5059566732
 21
79.7468487114
  0
LINE
  5
3B4
100
AcDbEntity
  8
RACCORDO
100
AcDbLine
 62
253
  6
CONTINUOUS
 10
93.5690684279
 20
78.8440812887
 11
93.5706019614
 21
78.9016274211
  0
LINE
  5
3B5
100
AcDbEntity
  8
RACCORDO
100
AcDbLine
 62
7
  6
CONTINUOUS
 10
93.6909906435
 20
78.5512786917
 11
93.6884424539
 21
78.4616596831
  0
LINE
  5
3B6
100
AcDbEntity
  8
RACCORDO
100
AcDbLine
 62
7
  6
CONTINUOUS
 10
93.5059566732
 20
79.7468487114
 11
93.5050414819
 21
79.7159315085
  0
LINE
  5
3B7
100
AcDbEntity
  8
RACCORDO
100
AcDbLine
 62
253
  6
CONTINUOUS
 10
93.5673157363
 20
78.789368349
 11
93.5690684279
 21
78.8440812887
  0
LINE
  5
3B8
100
AcDbEntity
  8
RACCORDO
100
AcDbLine
 62
7
  6
CONTINUOUS
 10
93.6884424539
 20
78.4616596831
 11
93.6855868832
 21
78.3785173244
  0
LINE
  5
3B9
100
AcDbEntity
  8
RACCORDO
100
AcDbLine
 62
7
  6
CONTINUOUS
 10
93.5050414819
 20
79.7159315085
 11
93.5040835881
 21
79.68800628
  0
LINE
  5
3BA
100
AcDbEntity
  8
RACCORDO
100
AcDbLine
 62
253
  6
CONTINUOUS
 10
93.5653566656
 20
78.7378596966
 11
93.5673157363
 21
78.789368349
  0
LINE
  5
3BB
100
AcDbEntity
  8
RACCORDO
100
AcDbLine
 62
253
  6
CONTINUOUS
 10
93.5042354569
 20
79.6829489211
 11
93.5032815601
 21
79.6585937422
  0
LINE
  5
3BC
100
AcDbEntity
  8
RACCORDO
100
AcDbLine
 62
7
  6
CONTINUOUS
 10
93.5040835881
 20
79.68800628
 11
93.5032357758
 21
79.6665167226
  0
LINE
  5
3BD
100
AcDbEntity
  8
RACCORDO
100
AcDbLine
 62
7
  6
CONTINUOUS
 10
93.6855868832
 20
78.3785173244
 11
93.6824774832
 21
78.3023615465
  0
LINE
  5
3BE
100
AcDbEntity
  8
RACCORDO
100
AcDbLine
 62
253
  6
CONTINUOUS
 10
93.6824774832
 20
78.3023615465
 11
93.6844238097
 21
78.3439487956
  0
LINE
  5
3BF
100
AcDbEntity
  8
RACCORDO
100
AcDbLine
 62
253
  6
CONTINUOUS
 10
93.5639433
 20
78.7054825004
 11
93.5653566656
 21
78.7378596966
  0
LINE
  5
3C0
100
AcDbEntity
  8
RACCORDO
100
AcDbLine
 62
7
  6
CONTINUOUS
 10
93.5032357758
 20
79.6665167226
 11
93.5025203843
 21
79.6504116571
  0
LWPOLYLINE
  5
3C1
100
AcDbEntity
  8
RACCORDO
100
AcDbPolyline
 62
253
  6
CONTINUOUS
 90
3
 70
0
 10
93.5032815601
 20
79.6585937422
 10
93.5023213104
 20
79.6372542344
 10
93.5018412228
 20
79.6276405506
  0
LWPOLYLINE
  5
3C2
100
AcDbEntity
  8
RACCORDO
100
AcDbPolyline
 62
7
  6
CONTINUOUS
 90
3
 70
0
 10
93.6824774832
 20
78.3023615465
 10
93.6791750054
 20
78.2335997608
 10
93.6774654697
 20
78.2020292012
  0
LINE
  5
3C3
100
AcDbEntity
  8
RACCORDO
100
AcDbLine
 62
7
  6
CONTINUOUS
 10
93.5025203843
 20
79.6504116571
 11
93.5019446054
 21
79.6387057356
  0
LWPOLYLINE
  5
3C4
100
AcDbEntity
  8
RACCORDO
100
AcDbPolyline
 62
253
  6
CONTINUOUS
 90
3
 70
0
 10
93.5616725909
 20
78.6600799284
 10
93.5624485487
 20
78.6747708049
 10
93.5639433
 20
78.7054825004
  0
LINE
  5
3C5
100
AcDbEntity
  8
RACCORDO
100
AcDbLine
 62
253
  6
CONTINUOUS
 10
93.5018412228
 20
79.6276405506
 11
93.5010160209
 21
79.6127334595
  0
LINE
  5
3C6
100
AcDbEntity
  8
RACCORDO
100
AcDbLine
 62
7
  6
CONTINUOUS
 10
93.5019446054
 20
79.6387057356
 11
93.5013734862
 21
79.6281099317
  0
LINE
  5
3C7
100
AcDbEntity
  8
RACCORDO
100
AcDbLine
 62
7
  6
CONTINUOUS
 10
93.5013734862
 20
79.6281099317
 11
93.501090578
 21
79.6232326359
  0
LWPOLYLINE
  5
3C8
100
AcDbEntity
  8
RACCORDO
100
AcDbPolyline
 62
253
  6
CONTINUOUS
 90
13
 70
0
 10
94.7230660494
 20
146.3839532911
 10
94.7273298142
 20
146.4492163954
 10
94.740048154
 20
146.5133628285
 10
94.761003454
 20
146.5752950272
 10
94.789837163
 20
146.6339533144
 10
94.8260559277
 20
146.6883340304
 10
94.8690400339
 20
146.7375067055
 10
94.9180540109
 20
146.7806299819
 10
94.9722592157
 20
146.8169660092
 10
95.030728181
 20
146.8458930682
 10
95.0924604864
 20
146.8669162098
 10
95.1563998748
 20
146.8796757233
 10
95.221452326
 20
146.8839532911
  0
LINE
  5
3C9
100
AcDbEntity
  8
RACCORDO
100
AcDbLine
 62
7
  6
CONTINUOUS
 10
93.4985736514
 20
129.177648739
 11
93.4987392506
 21
129.1761073124
  0
LINE
  5
3CA
100
AcDbEntity
  8
RACCORDO
100
AcDbLine
 62
7
  6
CONTINUOUS
 10
93.4987392506
 20
129.1761073124
 11
93.4989410587
 21
129.1740823281
  0
LWPOLYLINE
  5
3CB
100
AcDbEntity
  8
RACCORDO
100
AcDbPolyline
 62
7
  6
CONTINUOUS
 90
3
 70
0
 10
93.6648083654
 20
130.7362298618
 10
93.6663639967
 20
130.7203521986
 10
93.6679262336
 20
130.7031173342
  0
LWPOLYLINE
  5
3CC
100
AcDbEntity
  8
RACCORDO
100
AcDbPolyline
 62
7
  6
CONTINUOUS
 90
11
 70
0
 10
92.9937126877
 20
130.1385832518
 10
92.9945028189
 20
130.1300749832
 10
92.9956509368
 20
130.1216381198
 10
92.9971511163
 20
130.1132875164
 10
92.9989967934
 20
130.1050377842
 10
93.0011807847
 20
130.096903156
 10
93.0036955529
 20
130.0888967089
 10
93.0065332788
 20
130.081030648
 10
93.0096855887
 20
130.0733172142
 10
93.0131434772
 20
130.0657686372
 10
93.0168976091
 20
130.0583963804
  0
LINE
  5
3CD
100
AcDbEntity
  8
RACCORDO
100
AcDbLine
 62
7
  6
CONTINUOUS
 10
93.4989410587
 20
129.1740823281
 11
93.499170047
 21
129.1716131291
  0
LINE
  5
3CE
100
AcDbEntity
  8
RACCORDO
100
AcDbLine
 62
7
  6
CONTINUOUS
 10
93.499170047
 20
129.1716131291
 11
93.4994206841
 21
129.1687167031
  0
LWPOLYLINE
  5
3CF
100
AcDbEntity
  8
RACCORDO
100
AcDbPolyline
 62
7
  6
CONTINUOUS
 90
5
 70
0
 10
93.6679262336
 20
130.7031173342
 10
93.6694905374
 20
130.6845150492
 10
93.6710541341
 20
130.6645170915
 10
93.6726095253
 20
130.6431540217
 10
93.674151866
 20
130.6204296629
  0
LWPOLYLINE
  5
3D0
100
AcDbEntity
  8
RACCORDO
100
AcDbPolyline
 62
253
  6
CONTINUOUS
 90
3
 70
0
 10
93.6679262336
 20
130.7031173342
 10
93.6667045272
 20
130.722228468
 10
93.6615890629
 20
130.7720831117
  0
LINE
  5
3D1
100
AcDbEntity
  8
RACCORDO
100
AcDbLine
 62
7
  6
CONTINUOUS
 10
93.4994206841
 20
129.1687167031
 11
93.4996885275
 21
129.1654080745
  0
LWPOLYLINE
  5
3D2
100
AcDbEntity
  8
RACCORDO
100
AcDbPolyline
 62
253
  6
CONTINUOUS
 90
18
 70
0
 10
93.556651809
 20
130.1861014032
 10
93.5557602388
 20
130.197409058
 10
93.5548556706
 20
130.2081866056
 10
93.5539381065
 20
130.2184328381
 10
93.5530076111
 20
130.2281489632
 10
93.5520663182
 20
130.2373127673
 10
93.5511142307
 20
130.2459230037
 10
93.5501514045
 20
130.253980919
 10
93.5491800431
 20
130.2614680385
 10
93.5482001451
 20
130.2683830768
 10
93.5472117612
 20
130.2747273193
 10
93.5462171609
 20
130.2804861474
 10
93.5452162936
 20
130.2856583235
 10
93.5442092486
 20
130.2902450852
 10
93.5431984932
 20
130.2942355264
 10
93.5421848556
 20
130.2976260117
 10
93.5411675316
 20
130.3004201767
 10
93.5401465342
 20
130.3026180211
  0
LINE
  5
3D3
100
AcDbEntity
  8
RACCORDO
100
AcDbLine
 62
7
  6
CONTINUOUS
 10
93.4996885275
 20
129.1654080745
 11
93.4999705677
 21
129.1616937509
  0
LINE
  5
3D4
100
AcDbEntity
  8
RACCORDO
100
AcDbLine
 62
253
  6
CONTINUOUS
 10
93.558389733
 20
130.1619721605
 11
93.556651809
 21
130.1861014032
  0
LINE
  5
3D5
100
AcDbEntity
  8
RACCORDO
100
AcDbLine
 62
7
  6
CONTINUOUS
 10
93.4999705677
 20
129.1616937509
 11
93.500414714
 21
129.1553791291
  0
LINE
  5
3D6
100
AcDbEntity
  8
RACCORDO
100
AcDbLine
 62
253
  6
CONTINUOUS
 10
93.6762530796
 20
130.5916224522
 11
93.6756776896
 21
130.596331989
  0
LWPOLYLINE
  5
3D7
100
AcDbEntity
  8
RACCORDO
100
AcDbPolyline
 62
253
  6
CONTINUOUS
 90
3
 70
0
 10
93.6726095253
 20
130.6431540217
 10
93.6716461975
 20
130.6614673542
 10
93.6694905374
 20
130.6845150492
  0
LINE
  5
3D8
100
AcDbEntity
  8
RACCORDO
100
AcDbLine
 62
7
  6
CONTINUOUS
 10
93.5003435429
 20
129.1564261202
 11
93.5012558554
 21
129.1418538734
  0
LINE
  5
3D9
100
AcDbEntity
  8
RACCORDO
100
AcDbLine
 62
253
  6
CONTINUOUS
 10
93.5600652297
 20
130.13585392
 11
93.558389733
 21
130.1619721605
  0
LINE
  5
3DA
100
AcDbEntity
  8
RACCORDO
100
AcDbLine
 62
253
  6
CONTINUOUS
 10
93.5004034474
 20
129.1651786159
 11
93.5010159626
 21
129.1551732384
  0
LINE
  5
3DB
100
AcDbEntity
  8
RACCORDO
100
AcDbLine
 62
7
  6
CONTINUOUS
 10
93.674151866
 20
130.6204296629
 11
93.6771822906
 21
130.5708727654
  0
LINE
  5
3DC
100
AcDbEntity
  8
RACCORDO
100
AcDbLine
 62
253
  6
CONTINUOUS
 10
93.5616722292
 20
130.107833311
 11
93.5600652297
 21
130.13585392
  0
LINE
  5
3DD
100
AcDbEntity
  8
RACCORDO
100
AcDbLine
 62
253
  6
CONTINUOUS
 10
93.6805050977
 20
130.5124530213
 11
93.6801136631
 21
130.5158726576
  0
LINE
  5
3DE
100
AcDbEntity
  8
RACCORDO
100
AcDbLine
 62
253
  6
CONTINUOUS
 10
93.6771822906
 20
130.5708727654
 11
93.6762530796
 21
130.5916224522
  0
LINE
  5
3DF
100
AcDbEntity
  8
RACCORDO
100
AcDbLine
 62
7
  6
CONTINUOUS
 10
93.6771822906
 20
130.5708727654
 11
93.6801136631
 21
130.5158726576
  0
LWPOLYLINE
  5
3E0
100
AcDbEntity
  8
RACCORDO
100
AcDbPolyline
 62
253
  6
CONTINUOUS
 90
24
 70
0
 10
94.8461640299
 20
144.9615230843
 10
94.8456193403
 20
145.0419703142
 10
94.8446125132
 20
145.1252949806
 10
94.8431795131
 20
145.2122607419
 10
94.841285315
 20
145.3021039399
 10
94.8388240986
 20
145.3925335994
 10
94.8357718995
 20
145.4836588496
 10
94.8321554084
 20
145.5753705613
 10
94.827945474
 20
145.6650503727
 10
94.8231101843
 20
145.7527163976
 10
94.8176862031
 20
145.8383505222
 10
94.8117474664
 20
145.9192800427
 10
94.8052525436
 20
145.99535021
 10
94.7982486943
 20
146.0667157732
 10
94.7909416717
 20
146.1311682765
 10
94.7833006039
 20
146.1882192821
 10
94.7753606945
 20
146.2383572276
 10
94.7674235963
 20
146.2808389706
 10
94.7594912447
 20
146.3150282633
 10
94.7515619213
 20
146.3415613534
 10
94.7439276129
 20
146.3616038412
 10
94.7366834902
 20
146.3755442601
 10
94.7297302182
 20
146.3829940768
 10
94.7230660494
 20
146.3839532911
  0
LWPOLYLINE
  5
3E1
100
AcDbEntity
  8
RACCORDO
100
AcDbPolyline
 62
253
  6
CONTINUOUS
 90
24
 70
0
 10
95.3444278889
 20
144.9865176394
 10
95.3438845709
 20
145.0938288026
 10
95.3428807286
 20
145.2055113459
 10
95.3414510238
 20
145.3214714515
 10
95.3395607947
 20
145.4407520284
 10
95.3371060572
 20
145.5615837986
 10
95.3340608347
 20
145.6832481511
 10
95.3304511037
 20
145.804942956
 10
95.3262508085
 20
145.924797226
 10
95.3214252029
 20
146.0420393475
 10
95.3160090332
 20
146.1556943215
 10
95.3100804819
 20
146.263797471
 10
95.3035955322
 20
146.3657644787
 10
95.296598201
 20
146.4606479863
 10
95.2892987215
 20
146.5464995611
 10
95.2816656408
 20
146.6230972481
 10
95.2737304119
 20
146.6900818285
 10
95.2657976262
 20
146.7462778677
 10
95.2578728544
 20
146.7920720489
 10
95.249950526
 20
146.8279739352
 10
95.2423185209
 20
146.8540872455
 10
95.2350727992
 20
146.8713462486
 10
95.2281174009
 20
146.8809660747
 10
95.221452326
 20
146.8839532911
  0
LWPOLYLINE
  5
3E2
100
AcDbEntity
  8
RACCORDO
100
AcDbPolyline
 62
253
  6
CONTINUOUS
 90
3
 70
0
 10
94.8456856217
 20
63.7332999152
 10
94.8461837904
 20
63.8102518642
 10
94.8461640299
 20
144.9615230843
  0
LINE
  5
3E3
100
AcDbEntity
  8
RACCORDO
100
AcDbLine
 62
253
  6
CONTINUOUS
 10
93.6762650928
 20
78.1764853771
 11
93.6774654697
 21
78.2020292012
  0
LWPOLYLINE
  5
3E4
100
AcDbEntity
  8
RACCORDO
100
AcDbPolyline
 62
253
  6
CONTINUOUS
 90
3
 70
0
 10
93.6791750054
 20
78.2335997608
 10
93.6805159924
 20
78.255676004
 10
93.6808472198
 20
78.2670429403
  0
LWPOLYLINE
  5
3E5
100
AcDbEntity
  8
RACCORDO
100
AcDbPolyline
 62
7
  6
CONTINUOUS
 90
15
 70
0
 10
93.6774654697
 20
78.2020292012
 10
93.67572664
 20
78.1723749763
 10
93.6739641014
 20
78.1446207615
 10
93.6721841443
 20
78.1187538952
 10
93.6703973113
 20
78.0948094812
 10
93.6686102821
 20
78.072754747
 10
93.6668301256
 20
78.0525608575
 10
93.6650689525
 20
78.0342502389
 10
93.6633320117
 20
78.0177566891
 10
93.6616277683
 20
78.0030398231
 10
93.6599795764
 20
77.9901610528
 10
93.6583874035
 20
77.9789751073
 10
93.6568779557
 20
77.9695221181
 10
93.6555451335
 20
77.9621476429
 10
93.6550613399
 20
77.9597110296
  0
LINE
  5
3E6
100
AcDbEntity
  8
RACCORDO
100
AcDbLine
 62
253
  6
CONTINUOUS
 10
93.5600655883
 20
78.6320585638
 11
93.5616725909
 21
78.6600799284
  0
LINE
  5
3E7
100
AcDbEntity
  8
RACCORDO
100
AcDbLine
 62
253
  6
CONTINUOUS
 10
93.5010160209
 20
79.6127334595
 11
93.5004091743
 21
79.6028158984
  0
LINE
  5
3E8
100
AcDbEntity
  8
RACCORDO
100
AcDbLine
 62
7
  6
CONTINUOUS
 10
93.501090578
 20
79.6232326359
 11
93.5006710744
 21
79.6164335924
  0
LINE
  5
3E9
100
AcDbEntity
  8
RACCORDO
100
AcDbLine
 62
253
  6
CONTINUOUS
 10
93.67572664
 20
78.1723749763
 11
93.6762650928
 21
78.1764853771
  0
LINE
  5
3EA
100
AcDbEntity
  8
RACCORDO
100
AcDbLine
 62
253
  6
CONTINUOUS
 10
93.5583900856
 20
78.6059395964
 11
93.5600655883
 21
78.6320585638
  0
LWPOLYLINE
  5
3EB
100
AcDbEntity
  8
RACCORDO
100
AcDbPolyline
 62
253
  6
CONTINUOUS
 90
16
 70
0
 10
93.5004091743
 20
79.6028158984
 10
93.4999377395
 20
79.5957906116
 10
93.4994696465
 20
79.5893790649
 10
93.499007236
 20
79.5835149066
 10
93.4985508727
 20
79.5782011511
 10
93.4981001766
 20
79.573434784
 10
93.4976563662
 20
79.5691404106
 10
93.4972199187
 20
79.5653178632
 10
93.496790339
 20
79.5619673094
 10
93.4963673864
 20
79.5590138579
 10
93.4959512092
 20
79.5564525657
 10
93.4955416429
 20
79.5542883757
 10
93.4951379791
 20
79.5524612254
 10
93.4947399775
 20
79.5509510939
 10
93.4943478648
 20
79.549778002
 10
93.4939616344
 20
79.5489419498
  0
LINE
  5
3EC
100
AcDbEntity
  8
RACCORDO
100
AcDbLine
 62
7
  6
CONTINUOUS
 10
93.5006710744
 20
79.6164335924
 11
93.5002612135
 21
79.6102794982
  0
LINE
  5
3ED
100
AcDbEntity
  8
RACCORDO
100
AcDbLine
 62
7
  6
CONTINUOUS
 10
93.5002612135
 20
79.6102794982
 11
93.4998648989
 21
79.6047924982
  0
LINE
  5
3EE
100
AcDbEntity
  8
RACCORDO
100
AcDbLine
 62
7
  6
CONTINUOUS
 10
93.4998648989
 20
79.6047924982
 11
93.4996105855
 21
79.6015141857
  0
LINE
  5
3EF
100
AcDbEntity
  8
RACCORDO
100
AcDbLine
 62
253
  6
CONTINUOUS
 10
93.6667198657
 20
78.045834345
 11
93.6686102821
 21
78.072754747
  0
LWPOLYLINE
  5
3F0
100
AcDbEntity
  8
RACCORDO
100
AcDbPolyline
 62
253
  6
CONTINUOUS
 90
3
 70
0
 10
93.6703973113
 20
78.0948094812
 10
93.6716599092
 20
78.1066187787
 10
93.6721841443
 20
78.1187538952
  0
LINE
  5
3F1
100
AcDbEntity
  8
RACCORDO
100
AcDbLine
 62
7
  6
CONTINUOUS
 10
93.4996105855
 20
79.6015141857
 11
93.4993666786
 21
79.5985508038
  0
LINE
  5
3F2
100
AcDbEntity
  8
RACCORDO
100
AcDbLine
 62
7
  6
CONTINUOUS
 10
93.4993666786
 20
79.5985508038
 11
93.4991362742
 21
79.5959190058
  0
LINE
  5
3F3
100
AcDbEntity
  8
RACCORDO
100
AcDbLine
 62
7
  6
CONTINUOUS
 10
93.4991362742
 20
79.5959190058
 11
93.4989245015
 21
79.5936514746
  0
LINE
  5
3F4
100
AcDbEntity
  8
RACCORDO
100
AcDbLine
 62
7
  6
CONTINUOUS
 10
93.4989245015
 20
79.5936514746
 11
93.498736334
 21
79.5917699356
  0
LWPOLYLINE
  5
3F5
100
AcDbEntity
  8
RACCORDO
100
AcDbPolyline
 62
7
  6
CONTINUOUS
 90
3
 70
0
 10
93.498736334
 20
79.5917699356
 10
93.4985782428
 20
79.5902994934
 10
93.4985140887
 20
79.5897364735
  0
LWPOLYLINE
  5
3F6
100
AcDbEntity
  8
RACCORDO
100
AcDbPolyline
 62
253
  6
CONTINUOUS
 90
3
 70
0
 10
93.6563662505
 20
77.9575734214
 10
93.6616040077
 20
77.9959505109
 10
93.6667198657
 20
78.045834345
  0
LINE
  5
3F7
100
AcDbEntity
  8
DRAFT
100
AcDbLine
 62
7
  6
CONTINUOUS
 10
101.2932053605
 20
100.8839532911
 11
102.9932053605
 21
100.5841974239
  0
LWPOLYLINE
  5
3F8
100
AcDbEntity
  8
RACCORDO
100
AcDbPolyline
 62
253
  6
CONTINUOUS
 90
3
 70
0
 10
93.6615890629
 20
130.7720831117
 10
93.6563543394
 20
130.8104237249
 10
93.6509506707
 20
130.8378578679
  0
LWPOLYLINE
  5
3F9
100
AcDbEntity
  8
RACCORDO
100
AcDbPolyline
 62
7
  6
CONTINUOUS
 90
5
 70
0
 10
93.4983961603
 20
129.1791360398
 10
93.4984168679
 20
129.1789761381
 10
93.4984552723
 20
129.1786667774
 10
93.4985079259
 20
129.1782242918
 10
93.4985736514
 20
129.177648739
  0
LWPOLYLINE
  5
3FA
100
AcDbEntity
  8
RACCORDO
100
AcDbPolyline
 62
7
  6
CONTINUOUS
 90
7
 70
0
 10
100.2798707009
 20
145.8854477147
 10
100.2867221053
 20
145.7293134765
 10
100.2925024966
 20
145.5647522949
 10
100.2970165982
 20
145.3973746387
 10
100.3001962209
 20
145.2290506641
 10
100.3021012726
 20
145.0579102149
 10
100.3027297389
 20
144.8839532911
  0
LINE
  5
3FB
100
AcDbEntity
  8
RACCORDO
100
AcDbLine
 62
7
  6
CONTINUOUS
 10
100.3027297389
 20
144.8839532911
 11
100.3027297389
 21
63.8839532911
  0
LINE
  5
3FC
100
AcDbEntity
  8
DRAFT
100
AcDbLine
 62
7
  6
CONTINUOUS
 10
101.2932053605
 20
107.8839532911
 11
101.2932053605
 21
100.8839532911
  0
LINE
  5
3FD
100
AcDbEntity
  8
DRAFT
100
AcDbLine
 62
7
  6
CONTINUOUS
 10
102.4932053605
 20
145.8839532911
 11
102.4932053605
 21
108.0955456679
  0
LINE
  5
3FE
100
AcDbEntity
  8
DRAFT
100
AcDbLine
 62
7
  6
CONTINUOUS
 10
102.4932053605
 20
100.6723609142
 11
102.4932053605
 21
62.8839532911
  0
LWPOLYLINE
  5
3FF
100
AcDbEntity
  8
RACCORDO
100
AcDbPolyline
 62
7
  6
CONTINUOUS
 90
7
 70
0
 10
100.3027297389
 20
63.8839532911
 10
100.302098302
 20
63.7099339107
 10
100.3001931959
 20
63.5387909876
 10
100.2970164303
 20
63.3705245217
 10
100.2925092218
 20
63.2033028826
 10
100.2867386037
 20
63.0389577006
 10
100.2798964363
 20
62.8829838673
  0
LWPOLYLINE
  5
400
100
AcDbEntity
  8
RACCORDO
100
AcDbPolyline
 62
7
  6
CONTINUOUS
 90
13
 70
0
 10
100.2798964363
 20
62.8829838673
 10
100.2719908423
 20
62.736475153
 10
100.2630270492
 20
62.5983377873
 10
100.2531918005
 20
62.4707853506
 10
100.2424926463
 20
62.3538451781
 10
100.2309376565
 20
62.2474899346
 10
100.2187122648
 20
62.153851195
 10
100.2057283254
 20
62.0728756029
 10
100.1920901893
 20
62.0046165148
 10
100.1782654327
 20
61.9513655751
 10
100.1644094364
 20
61.9138866653
 10
100.1503714973
 20
61.891415904
 10
100.1361546428
 20
61.8839532911
  0
LWPOLYLINE
  5
401
100
AcDbEntity
  8
RACCORDO
100
AcDbPolyline
 62
253
  6
CONTINUOUS
 90
3
 70
0
 10
93.6453808553
 20
77.9135210413
 10
93.6509575897
 20
77.9300969315
 10
93.6563662505
 20
77.9575734214
  0
LINE
  5
402
100
AcDbEntity
  8
DRAFT
100
AcDbLine
 62
7
  6
CONTINUOUS
 10
101.2932053605
 20
107.8839532911
 11
102.9932053605
 21
108.1837091583
  0
LINE
  5
403
100
AcDbEntity
  8
RACCORDO
100
AcDbLine
 62
253
  6
CONTINUOUS
 10
93.6509506707
 20
130.8378578679
 11
93.6453808553
 21
130.8543855409
  0
LWPOLYLINE
  5
404
100
AcDbEntity
  8
RACCORDO
100
AcDbPolyline
 62
7
  6
CONTINUOUS
 90
10
 70
0
 10
93.6540089403
 20
130.8129791111
 10
93.6540595364
 20
130.8127808621
 10
93.6550430363
 20
130.8082838746
 10
93.6561669893
 20
130.8024354298
 10
93.6574616332
 20
130.7948635049
 10
93.658836681
 20
130.7858998171
 10
93.6602677463
 20
130.7755887979
 10
93.6617544426
 20
130.7638219464
 10
93.6632707877
 20
130.7507040388
 10
93.6648083654
 20
130.7362298618
  0
LINE
  5
405
100
AcDbEntity
  8
0
100
AcDbLine
 62
7
  6
CONTINUOUS
 10
102.9932053605
 20
145.3839532911
 11
102.9932053605
 21
108.1837091583
  0
LINE
  5
406
100
AcDbEntity
  8
0
100
AcDbLine
 62
7
  6
CONTINUOUS
 10
102.9932053605
 20
100.5841974239
 11
102.9932053605
 21
63.3839532911
  0
LWPOLYLINE
  5
407
100
AcDbEntity
  8
RACCORDO
100
AcDbPolyline
 62
253
  6
CONTINUOUS
 90
4
 70
0
 10
93.6570989
 20
77.9607387111
 10
93.6512893772
 20
77.9476921359
 10
93.6468353137
 20
77.9308708424
 10
93.6453898948
 20
77.9135210466
  0
LWPOLYLINE
  5
408
100
AcDbEntity
  8
RACCORDO
100
AcDbPolyline
 62
253
  6
CONTINUOUS
 90
19
 70
0
 10
93.5401465342
 20
78.4652885611
 10
93.5411676447
 20
78.4674867615
 10
93.5421850552
 20
78.4702812396
 10
93.5431987528
 20
78.4736719955
 10
93.5442095324
 20
78.4776626446
 10
93.5452165749
 20
78.4822495715
 10
93.5462174398
 20
78.4874219291
 10
93.5472120471
 20
78.4931809771
 10
93.5482004383
 20
78.4995254558
 10
93.5491803433
 20
78.5064407393
 10
93.5501517116
 20
78.5139281102
 10
93.5511145443
 20
78.5219862858
 10
93.552066638
 20
78.5305967926
 10
93.5530079364
 20
78.5397608768
 10
93.553938437
 20
78.5494772922
 10
93.554856006
 20
78.5597238262
 10
93.5557605789
 20
78.5705016871
 10
93.5566521536
 20
78.5818096667
 10
93.5583900856
 20
78.6059395964
  0
LWPOLYLINE
  5
409
100
AcDbEntity
  8
RACCORDO
100
AcDbPolyline
 62
7
  6
CONTINUOUS
 90
12
 70
0
 10
93.0168976091
 20
78.7095102019
 10
93.0131434768
 20
78.7021379441
 10
93.009685588
 20
78.6945893662
 10
93.0065332779
 20
78.6868759317
 10
93.0036955519
 20
78.6790098701
 10
93.0011807837
 20
78.6710034226
 10
92.9989967924
 20
78.662868794
 10
92.9971511154
 20
78.6546190616
 10
92.9956509362
 20
78.6462684582
 10
92.9945028185
 20
78.6378315949
 10
92.9937126874
 20
78.6293233266
 10
92.9932858423
 20
78.6207587405
  0
LINE
  5
40A
100
AcDbEntity
  8
RACCORDO
100
AcDbLine
 62
253
  6
CONTINUOUS
 10
92.993569142
 20
78.615767846
 11
92.9932053605
 21
78.6150886712
  0
LWPOLYLINE
  5
40B
100
AcDbEntity
  8
RACCORDO
100
AcDbPolyline
 62
7
  6
CONTINUOUS
 90
3
 70
0
 10
93.2783190056
 20
79.1974829641
 10
93.2396233274
 20
79.1252735067
 10
93.0168976091
 20
78.7095102019
  0
LINE
  5
40C
100
AcDbEntity
  8
RACCORDO
100
AcDbLine
 62
253
  6
CONTINUOUS
 10
93.0701826712
 20
78.7587527473
 11
92.993569142
 21
78.615767846
  0
LWPOLYLINE
  5
40D
100
AcDbEntity
  8
RACCORDO
100
AcDbPolyline
 62
253
  6
CONTINUOUS
 90
3
 70
0
 10
93.2800124679
 20
79.1502073733
 10
93.1953398519
 20
78.9922728865
 10
93.0701826712
 20
78.7587527473
  0
LINE
  5
40E
100
AcDbEntity
  8
RACCORDO
100
AcDbLine
 62
7
  6
CONTINUOUS
 10
93.412982613
 20
79.4486655203
 11
93.2783190056
 21
79.1974829641
  0
LINE
  5
40F
100
AcDbEntity
  8
RACCORDO
100
AcDbLine
 62
7
  6
CONTINUOUS
 10
93.500343333
 20
79.6114801035
 11
93.412982613
 21
79.4486655203
  0
LINE
  5
410
100
AcDbEntity
  8
RACCORDO
100
AcDbLine
 62
253
  6
CONTINUOUS
 10
93.4939616344
 20
79.5489419498
 11
93.2800124679
 21
79.1502073733
  0
LINE
  5
411
100
AcDbEntity
  8
RACCORDO
100
AcDbLine
 62
253
  6
CONTINUOUS
 10
93.4759130109
 20
78.3461587894
 11
93.5401465342
 21
78.4652885611
  0
LINE
  5
412
100
AcDbEntity
  8
RACCORDO
100
AcDbLine
 62
253
  6
CONTINUOUS
 10
93.3594578748
 20
78.1302576721
 11
93.4759130109
 21
78.3461587894
  0
LINE
  5
413
100
AcDbEntity
  8
RACCORDO
100
AcDbLine
 62
253
  6
CONTINUOUS
 10
93.2148297605
 20
77.8623020609
 11
93.3594578748
 21
78.1302576721
  0
LWPOLYLINE
  5
414
100
AcDbEntity
  8
RACCORDO
100
AcDbPolyline
 62
253
  6
CONTINUOUS
 90
3
 70
0
 10
93.1063005532
 20
77.6613512189
 10
93.1384619015
 20
77.7208902494
 10
93.2148297605
 20
77.8623020609
  0
LINE
  5
415
100
AcDbEntity
  8
RACCORDO
100
AcDbLine
 62
253
  6
CONTINUOUS
 10
93.0178388265
 20
77.4976345772
 11
93.1063005532
 21
77.6613512189
  0
LINE
  5
416
100
AcDbEntity
  8
RACCORDO
100
AcDbLine
 62
253
  6
CONTINUOUS
 10
92.9932053605
 20
77.4520585865
 11
93.0178388265
 21
77.4976345772
  0
LINE
  5
417
100
AcDbEntity
  8
RACCORDO
100
AcDbLine
 62
253
  6
CONTINUOUS
 10
93.5401465342
 20
130.3026180211
 11
92.9932053605
 21
131.3158479957
  0
LINE
  5
418
100
AcDbEntity
  8
RACCORDO
100
AcDbLine
 62
253
  6
CONTINUOUS
 10
92.9932053605
 20
130.152817911
 11
93.0959265523
 21
129.9611203299
  0
LINE
  5
419
100
AcDbEntity
  8
RACCORDO
100
AcDbLine
 62
253
  6
CONTINUOUS
 10
93.0959265523
 20
129.9611203299
 11
93.4939616344
 21
129.2189646324
  0
LINE
  5
41A
100
AcDbEntity
  8
RACCORDO
100
AcDbLine
 62
7
  6
CONTINUOUS
 10
93.0168976091
 20
130.0583963804
 11
93.0416090798
 21
130.0122539966
  0
LINE
  5
41B
100
AcDbEntity
  8
RACCORDO
100
AcDbLine
 62
7
  6
CONTINUOUS
 10
93.0416090798
 20
130.0122539966
 11
93.5003431398
 21
129.1564268461
  0
LWPOLYLINE
  5
41C
100
AcDbEntity
  8
RACCORDO
100
AcDbPolyline
 62
253
  6
CONTINUOUS
 90
16
 70
0
 10
93.4939616344
 20
129.2189646324
 10
93.4943408132
 20
129.218153501
 10
93.4947276041
 20
129.2170024867
 10
93.4951220159
 20
129.2155115894
 10
93.4955242326
 20
129.2137012379
 10
93.495934088
 20
129.2115510036
 10
93.4963510646
 20
129.2089996002
 10
93.4967750848
 20
129.2060509976
 10
93.4972062436
 20
129.202701226
 10
93.497644281
 20
129.1988770901
 10
93.4980896136
 20
129.1945781029
 10
93.4985418427
 20
129.1898047513
 10
93.4989994831
 20
129.1844853003
 10
93.4994627804
 20
129.1786180281
 10
93.4999315035
 20
129.1722046566
 10
93.5004034474
 20
129.1651786159
  0
LWPOLYLINE
  5
41D
100
AcDbEntity
  8
RACCORDO
100
AcDbPolyline
 62
253
  6
CONTINUOUS
 90
4
 70
0
 10
93.657116471
 20
130.807177342
 10
93.6512974136
 20
130.8202282195
 10
93.6468367069
 20
130.8370420613
 10
93.6453824437
 20
130.8543855409
  0
LINE
  5
41E
100
AcDbEntity
  8
RACCORDO
100
AcDbLine
 62
7
  6
CONTINUOUS
 10
93.6571164929
 20
77.960729262
 11
93.2158782691
 21
77.1376239484
  0
LINE
  5
41F
100
AcDbEntity
  8
RACCORDO
100
AcDbLine
 62
7
  6
CONTINUOUS
 10
93.2158782691
 20
77.1376239484
 11
93.1051097881
 21
76.9312731613
  0
LINE
  5
420
100
AcDbEntity
  8
RACCORDO
100
AcDbLine
 62
253
  6
CONTINUOUS
 10
93.0932053605
 20
76.8839532911
 11
93.6453808553
 21
77.9135210413
  0
LINE
  5
421
100
AcDbEntity
  8
RACCORDO
100
AcDbLine
 62
253
  6
CONTINUOUS
 10
93.5036255564
 20
77.8339535495
 11
93.6743568547
 21
78.15080534
  0
LINE
  5
422
100
AcDbEntity
  8
RACCORDO
100
AcDbLine
 62
253
  6
CONTINUOUS
 10
93.4112515594
 20
77.6626381626
 11
93.5036255564
 21
77.8339535495
  0
LWPOLYLINE
  5
423
100
AcDbEntity
  8
RACCORDO
100
AcDbPolyline
 62
253
  6
CONTINUOUS
 90
3
 70
0
 10
93.3027653062
 20
77.4615376068
 10
93.3349139647
 20
77.5211207488
 10
93.4112515594
 20
77.6626381626
  0
LINE
  5
424
100
AcDbEntity
  8
RACCORDO
100
AcDbLine
 62
253
  6
CONTINUOUS
 10
93.1897153661
 20
77.2520889624
 11
93.3027653062
 21
77.4615376068
  0
LINE
  5
425
100
AcDbEntity
  8
RACCORDO
100
AcDbLine
 62
253
  6
CONTINUOUS
 10
93.674363383
 20
130.6170891275
 11
93.1897153661
 21
131.5158176198
  0
LINE
  5
426
100
AcDbEntity
  8
RACCORDO
100
AcDbLine
 62
7
  6
CONTINUOUS
 10
93.105109788
 20
131.8366334209
 11
93.5485759187
 21
131.009822878
  0
LINE
  5
427
100
AcDbEntity
  8
RACCORDO
100
AcDbLine
 62
253
  6
CONTINUOUS
 10
93.6453808553
 20
130.8543855409
 11
93.0932053605
 21
131.8839532911
  0
LINE
  5
428
100
AcDbEntity
  8
RACCORDO
100
AcDbLine
 62
7
  6
CONTINUOUS
 10
93.5485759187
 20
131.009822878
 11
93.6540089403
 21
130.8129791111
  0
LINE
  5
429
100
AcDbEntity
  8
DRAFT
100
AcDbLine
 62
7
  6
CONTINUOUS
 10
93.2764828283
 20
131.5173321515
 11
93.1942378799
 21
131.5158965606
  0
LINE
  5
42A
100
AcDbEntity
  8
RACCORDO
100
AcDbLine
 62
253
  6
CONTINUOUS
 10
93.5108181909
 20
128.6205830245
 11
93.5106136009
 21
128.6205830245
  0
LINE
  5
42B
100
AcDbEntity
  8
RACCORDO
100
AcDbLine
 62
253
  6
CONTINUOUS
 10
93.5747068761
 20
129.5063142814
 11
93.6977364139
 21
129.5063142815
  0
LINE
  5
42C
100
AcDbEntity
  8
RACCORDO
100
AcDbLine
 62
253
  6
CONTINUOUS
 10
93.6977364139
 20
129.6589428311
 11
93.6978561465
 21
129.658942831
  0
LINE
  5
42D
100
AcDbEntity
  8
0
100
AcDbLine
 62
7
  6
CONTINUOUS
 10
102.9932053605
 20
63.3839532911
 11
102.4932053605
 21
62.8839532911
  0
LINE
  5
42E
100
AcDbEntity
  8
DRAFT
100
AcDbLine
 62
7
  6
CONTINUOUS
 10
102.4932053605
 20
62.8839532911
 11
102.9932053605
 21
63.3839532911
  0
LINE
  5
42F
100
AcDbEntity
  8
0
100
AcDbLine
 62
7
  6
CONTINUOUS
 10
102.4932053605
 20
145.8839532911
 11
102.9932053605
 21
145.3839532911
  0
LINE
  5
430
100
AcDbEntity
  8
DRAFT
100
AcDbLine
 62
7
  6
CONTINUOUS
 10
102.4932053605
 20
145.8839532911
 11
102.9932053605
 21
145.3839532911
  0
LWPOLYLINE
  5
431
100
AcDbEntity
  8
RACCORDO
100
AcDbPolyline
 62
253
  6
CONTINUOUS
 90
25
 70
0
 10
95.221452326
 20
61.8839532911
 10
95.228504537
 20
61.8872948307
 10
95.2358037644
 20
61.8979468406
 10
95.2433500084
 20
61.9168586365
 10
95.2512443637
 20
61.9451954957
 10
95.2593857356
 20
61.9837921378
 10
95.2674708393
 20
62.0325521137
 10
95.2754960886
 20
62.0917920192
 10
95.2834650699
 20
62.1617625192
 10
95.2910852571
 20
62.2411350152
 10
95.2983202919
 20
62.3293754059
 10
95.3052065327
 20
62.4261589441
 10
95.311560529
 20
62.5295659798
 10
95.3173406821
 20
62.6386238368
 10
95.3225885907
 20
62.7526671768
 10
95.3272456003
 20
62.8697556634
 10
95.3312790082
 20
62.9889583234
 10
95.3347215171
 20
63.1094515326
 10
95.3376125799
 20
63.2292716476
 10
95.3399263406
 20
63.3475791078
 10
95.3416886552
 20
63.4637273142
 10
95.3430165446
 20
63.5760336065
 10
95.3439490159
 20
63.6835989687
 10
95.344447062
 20
63.7863508926
 10
95.3444278889
 20
144.9865176394
  0
LWPOLYLINE
  5
432
100
AcDbEntity
  8
RACCORDO
100
AcDbPolyline
 62
7
  6
CONTINUOUS
 90
13
 70
0
 10
100.1361546428
 20
146.8839532911
 10
100.150375703
 20
146.8764580877
 10
100.1644132326
 20
146.8539887152
 10
100.1782641454
 20
146.8165451736
 10
100.1920759588
 20
146.7633773915
 10
100.2056963405
 20
146.6952354404
 10
100.2186671298
 20
146.6143695342
 10
100.2308879589
 20
146.5208269206
 10
100.2424431334
 20
146.4145603519
 10
100.2531449873
 20
146.2976782999
 10
100.2629853794
 20
146.1701540749
 10
100.2719568676
 20
146.0320143665
 10
100.2798707009
 20
145.8854477147
  0
LINE
  5
433
100
AcDbEntity
  8
DRAFT
100
AcDbLine
 62
7
  6
CONTINUOUS
 10
100.2850145254
 20
145.7682269132
 11
102.4932053605
 21
145.8839532911
  0
LINE
  5
434
100
AcDbEntity
  8
RACCORDO
100
AcDbLine
 62
253
  6
CONTINUOUS
 10
94.8462463671
 20
144.8839532911
 11
100.3027297389
 21
144.8839532911
  0
LINE
  5
435
100
AcDbEntity
  8
DRAFT
100
AcDbLine
 62
253
  6
CONTINUOUS
 10
100.3027297389
 20
144.8839532911
 11
102.9932053605
 21
144.8839532911
  0
LINE
  5
436
100
AcDbEntity
  8
RACCORDO
100
AcDbLine
 62
253
  6
CONTINUOUS
 10
94.7230660494
 20
146.3839532911
 11
93.0932053605
 21
146.3839532911
  0
LINE
  5
437
100
AcDbEntity
  8
RACCORDO
100
AcDbLine
 62
7
  6
CONTINUOUS
 10
93.5932053606
 20
146.8839532911
 11
100.1361546428
 21
146.8839532911
  0
ARC
  5
438
100
AcDbEntity
  8
RACCORDO
100
AcDbCircle
 62
7
  6
CONTINUOUS
 10
165.4903280964
 20
348.1839532911
 40
271.0
100
AcDbArc
 50
265.0067976612
 51
274.9932023388
  0
ARC
  5
439
100
AcDbEntity
  8
RACCORDO
100
AcDbCircle
 62
7
  6
CONTINUOUS
 10
165.4903280964
 20
-139.4160467089
 40
271.0
100
AcDbArc
 50
85.006797672
 51
94.9932023388
  0
ARC
  5
43A
100
AcDbEntity
  8
RACCORDO
100
AcDbCircle
 62
7
  6
CONTINUOUS
 10
165.4903280964
 20
347.9839532911
 40
271.0
100
AcDbArc
 50
265.0049725719
 51
274.9950274281
  0
ARC
  5
43B
100
AcDbEntity
  8
RACCORDO
100
AcDbCircle
 62
7
  6
CONTINUOUS
 10
165.4903280964
 20
-139.2160467089
 40
271.0
100
AcDbArc
 50
85.0049725719
 51
94.9950274281
  0
ARC
  5
43C
100
AcDbEntity
  8
RACCORDO
100
AcDbCircle
 62
7
  6
CONTINUOUS
 10
205.9903280964
 20
63.8839532911
 40
2.0
100
AcDbArc
 50
270.0
 51
360.0
  0
ARC
  5
43D
100
AcDbEntity
  8
RACCORDO
100
AcDbCircle
 62
7
  6
CONTINUOUS
 10
124.9903280964
 20
63.8839532911
 40
2.0
100
AcDbArc
 50
180.0
 51
270.0
  0
ARC
  5
43E
100
AcDbEntity
  8
RACCORDO
100
AcDbCircle
 62
7
  6
CONTINUOUS
 10
124.9903280964
 20
144.8839532911
 40
2.0
100
AcDbArc
 50
90.0
 51
180.0
  0
ARC
  5
43F
100
AcDbEntity
  8
RACCORDO
100
AcDbCircle
 62
7
  6
CONTINUOUS
 10
205.9903280964
 20
144.8839532911
 40
2.0
100
AcDbArc
 50
0.0
 51
90.0
  0
ARC
  5
440
100
AcDbEntity
  8
RACCORDO
100
AcDbCircle
 62
7
  6
CONTINUOUS
 10
188.9903280964
 20
79.1089637513
 40
1.1
100
AcDbArc
 50
274.9950274281
 51
360.0
  0
ARC
  5
441
100
AcDbEntity
  8
RACCORDO
100
AcDbCircle
 62
7
  6
CONTINUOUS
 10
188.9903280964
 20
129.6589428308
 40
1.1
100
AcDbArc
 50
0.0
 51
85.0049725719
  0
ARC
  5
442
100
AcDbEntity
  8
RACCORDO
100
AcDbCircle
 62
7
  6
CONTINUOUS
 10
141.9903280964
 20
129.6589428308
 40
1.1
100
AcDbArc
 50
94.995027428
 51
180.0
  0
ARC
  5
443
100
AcDbEntity
  8
RACCORDO
100
AcDbCircle
 62
7
  6
CONTINUOUS
 10
141.9903280964
 20
79.1089637513
 40
1.1
100
AcDbArc
 50
180.0
 51
265.004972572
  0
ARC
  5
444
100
AcDbEntity
  8
RACCORDO
100
AcDbCircle
 62
7
  6
CONTINUOUS
 10
93.5932053605
 20
146.3839532911
 40
0.5
100
AcDbArc
 50
89.9999999835
 51
180.0
  0
ARC
  5
445
100
AcDbEntity
  8
RACCORDO
100
AcDbCircle
 62
7
  6
CONTINUOUS
 10
93.5932053605
 20
62.3839532911
 40
0.5
100
AcDbArc
 50
180.0
 51
270.0000000161
  0
ARC
  5
446
100
AcDbEntity
  8
RACCORDO
100
AcDbCircle
 62
7
  6
CONTINUOUS
 10
93.19320546
 20
77.4520586013
 40
0.2
100
AcDbArc
 50
180.0
 51
268.9999999973
  0
ARC
  5
447
100
AcDbEntity
  8
RACCORDO
100
AcDbCircle
 62
7
  6
CONTINUOUS
 10
93.19320546
 20
131.3158479809
 40
0.2
100
AcDbArc
 50
91.4234857201
 51
180.0
  0
ARC
  5
448
100
AcDbEntity
  8
RACCORDO
100
AcDbCircle
 62
7
  6
CONTINUOUS
 10
93.1932053605
 20
131.8839532911
 40
0.1
100
AcDbArc
 50
180.0
 51
208.2116517058
  0
ARC
  5
449
100
AcDbEntity
  8
RACCORDO
100
AcDbCircle
 62
7
  6
CONTINUOUS
 10
93.1932053605
 20
76.8839532911
 40
0.1
100
AcDbArc
 50
151.7883482943
 51
180.0
  0
ELLIPSE
  5
44A
100
AcDbEntity
  8
RACCORDO
100
AcDbEllipse
 62
7
  6
CONTINUOUS
 10
143.1906025656
 20
82.0842277603
 30
0.0
 11
0.1418092487
 21
0.1418092487
 31
0.0
 40
0.9972646886
 41
2.3575640181
 42
3.9256212891
  0
ELLIPSE
  5
44B
100
AcDbEntity
  8
RACCORDO
100
AcDbEllipse
 62
7
  6
CONTINUOUS
 10
187.7900536272
 20
82.0842277603
 30
0.0
 11
-0.1418092487
 21
0.1418092487
 31
0.0
 40
0.9972646886
 41
2.3575640181
 42
3.9256212891
  0
ELLIPSE
  5
44C
100
AcDbEntity
  8
RACCORDO
100
AcDbEllipse
 62
7
  6
CONTINUOUS
 10
187.7900536272
 20
126.6836788219
 30
0.0
 11
-0.1418092487
 21
-0.1418092487
 31
0.0
 40
0.9972646886
 41
2.3575640181
 42
3.9256212891
  0
ELLIPSE
  5
44D
100
AcDbEntity
  8
RACCORDO
100
AcDbEllipse
 62
7
  6
CONTINUOUS
 10
143.1906025656
 20
126.6836788219
 30
0.0
 11
0.1418092487
 21
-0.1418092487
 31
0.0
 40
0.9972646886
 41
2.3575640181
 42
3.9256212891
  0
ENDSEC
  0
SECTION
  2
OBJECTS
  0
DICTIONARY
  5
C
100
AcDbDictionary
280
0
281
1
  3
ACAD_GROUP
350
D
  3
ACAD_MLINESTYLE
350
17
  3
ACAD_LAYOUT
350
1A
  3
ACAD_PLOTSETTINGS
350
19
  3
ACAD_PLOTSTYLENAME
350
E
  0
DICTIONARY
  5
D
102
{ACAD_REACTORS
330
C
102
}
100
AcDbDictionary
280
0
281
1
  0
ACDBDICTIONARYWDFLT
  5
E
102
{ACAD_REACTORS
330
C
102
}
100
AcDbDictionary
281
1
  3
Normal
350
F
100
AcDbDictionaryWithDefault
340
F
  0
DICTIONARY
  5
17
102
{ACAD_REACTORS
330
C
102
}
100
AcDbDictionary
280
0
281
1
  3
Standard
350
18
  0
DICTIONARY
  5
19
102
{ACAD_REACTORS
330
C
102
}
100
AcDbDictionary
281
1
  0
DICTIONARY
  5
1A
102
{ACAD_REACTORS
330
C
102
}
100
AcDbDictionary
281
1
  3
Model
350
44E
  3
Layout1
350
44F
  0
ACDBPLACEHOLDER
  5
F
102
{ACAD_REACTORS
330
E
102
}
  0
MLINESTYLE
  5
18
102
{ACAD_REACTORS
330
17
102
}
100
AcDbMlineStyle
  2
STANDARD
 70
0
  3

 62
256
 51
90.0
 52
90.0
 71
2
 49
0.5
 62
256
  6
BYLAYER
 49
-0.5
 62
256
  6
BYLAYER
  0
LAYOUT
  5
44E
102
{ACAD_REACTORS
330
1A
102
}
100
AcDbPlotSettings
  1

  2
none_device
  4
ISO_A4_(297.00_x_210.00_MM)
  6

 40
0.0
 41
0.0
 42
0.0
 43
0.0
 44
297.0
 45
210.0
 46
0.0
 47
0.0
 48
0.0
 49
0.0
140
0.0
141
0.0
142
1.0
143
1.0
 70
1024
 72
1
 73
0
 74
0
  7

 75
0
147
1.0
148
0.0
149
0.0
100
AcDbLayout
  1
Model
 70
0
 71
0
 10
0.0
 20
0.0
 11
297.0
 21
210.0
 12
0.0
 22
0.0
 32
0.0
 14
0.0
 24
0.0
 34
0.0
 15
0.0
 25
0.0
 35
0.0
146
0.0
 13
0.0
 23
0.0
 33
0.0
 16
1.0
 26
0.0
 36
0.0
 17
0.0
 27
1.0
 37
0.0
 76
0
330
215
345
0
346
0
  0
LAYOUT
  5
44F
102
{ACAD_REACTORS
330
1A
102
}
100
AcDbPlotSettings
  1

  2
none_device
  4
ISO_A4_(297.00_x_210.00_MM)
  6

 40
0.0
 41
0.0
 42
0.0
 43
0.0
 44
297.0
 45
210.0
 46
0.0
 47
0.0
 48
0.0
 49
0.0
140
0.0
141
0.0
142
1.0
143
1.0
 70
0
 72
1
 73
0
 74
0
  7

 75
0
147
1.0
148
0.0
149
0.0
100
AcDbLayout
  1
Layout1
 70
0
 71
1
 10
0.0
 20
0.0
 11
297.0
 21
210.0
 12
0.0
 22
0.0
 32
0.0
 14
0.0
 24
0.0
 34
0.0
 15
0.0
 25
0.0
 35
0.0
146
0.0
 13
0.0
 23
0.0
 33
0.0
 16
1.0
 26
0.0
 36
0.0
 17
0.0
 27
1.0
 37
0.0
 76
0
330
216
345
0
346
0
  0
ENDSEC
  0
EOF
