  0
SECTION
  2
HEADER
  9
$ACADVER
  1
AC1015
  9
$DWGCODEPAGE
  3
ANSI_1252
  9
$EXTMAX
 10
297.0
 20
210.0
 30
0.0
  9
$EXTMIN
 10
0.0
 20
0.0
 30
0.0
  9
$LIMMIN
 10
0.0
 20
0.0
  9
$LIMMAX
 10
297.0
 20
210.0
  9
$VIEWCTR
 10
148.5
 20
105.0
  9
$VIEWSIZE
 40
210.0
  9
$CLAYER
  8
0
  9
$LTSCALE
 40
16.335
  9
$CELTYPE
  6
BYLAYER
  9
$DIMSCALE
 40
1.0
  9
$DIMASZ
 40
3.0
  9
$DIMEXO
 40
0.5
  9
$DIMDLI
 40
11.286
  9
$DIMEXE
 40
1.5
  9
$DIMCEN
 40
2.673
  9
$DIMLFAC
 40
1.0
  9
$DIMBLK
  1
_FILLED
  9
$DIMTXT
 40
3.0
  9
$DIMTOL
 70
1
  9
$DIMLIM
 70
0
  9
$DIMTFAC
 40
1.0
  9
$DIMTP
 40
0.01
  9
$DIMTM
 40
0.01
  9
$DIMGAP
 40
0.625
  9
$DIMDSEP
 70
44
  9
$PDMODE
 70
3
  9
$PDSIZE
 40
3.0
  9
$HANDSEED
  5
486
  9
$TILEMODE
 70
1
  9
$MEASUREMENT
 70
1
  9
$INSUNITS
 70
4
  0
ENDSEC
  0
SECTION
  2
CLASSES
  0
CLASS
  1
ACDBDICTIONARYWDFLT
  2
AcDbDictionaryWithDefault
  3
AutoCAD 2000
 90
0
280
0
281
0
  0
CLASS
  1
ACDBPLACEHOLDER
  2
AcDbPlaceHolder
  3
AutoCAD 2000
 90
0
280
0
281
0
  0
CLASS
  1
LAYOUT
  2
AcDbLayout
  3
AutoCAD 2000
 90
0
280
0
281
0
  0
ENDSEC
  0
SECTION
  2
TABLES
  0
TABLE
  2
VPORT
  5
8
100
AcDbSymbolTable
 70
2
  0
VPORT
  5
1F4
100
AcDbSymbolTableRecord
100
AcDbViewportTableRecord
  2
*ACTIVE
 70
0
 10
0.0
 20
0.0
 11
1.0
 21
1.0
 12
148.5
 22
105.0
 13
0.0
 23
0.0
 14
1.0
 24
1.0
 15
0.0
 25
0.0
 16
0.0
 26
0.0
 36
1.0
 17
0.0
 27
0.0
 37
0.0
 40
210.0
 41
1.4142857143
 42
50.0
 43
0.0
 44
0.0
 50
0.0
 51
0.0
 71
0
 72
100
 73
1
 74
1
 75
0
 76
0
 77
0
 78
0
  0
ENDTAB
  0
TABLE
  2
LTYPE
  5
5
100
AcDbSymbolTable
 70
6
  0
LTYPE
  5
14
100
AcDbSymbolTableRecord
100
AcDbLinetypeTableRecord
  2
BYBLOCK
 70
0
  3

 72
65
 73
0
 40
0.0
  0
LTYPE
  5
15
100
AcDbSymbolTableRecord
100
AcDbLinetypeTableRecord
  2
BYLAYER
 70
0
  3

 72
65
 73
0
 40
0.0
  0
LTYPE
  5
16
100
AcDbSymbolTableRecord
100
AcDbLinetypeTableRecord
  2
CONTINUOUS
 70
64
  3
Solid line
 72
65
 73
0
 40
0.0
  0
LTYPE
  5
1F5
100
AcDbSymbolTableRecord
100
AcDbLinetypeTableRecord
  2
CENTER
 70
64
  3
____ _ ____ _ ____ _ ____ _ ____ _ ____ _ ____
 72
65
 73
4
 40
0.6
 49
0.375
 74
0
 49
-0.075
 74
0
 49
0.075
 74
0
 49
-0.075
 74
0
  0
LTYPE
  5
1F6
100
AcDbSymbolTableRecord
100
AcDbLinetypeTableRecord
  2
HIDDEN
 70
64
  3
- - - - - - - - - - - - - - - - - - - -
 72
65
 73
2
 40
0.2
 49
0.1
 74
0
 49
-0.1
 74
0
  0
LTYPE
  5
1F7
100
AcDbSymbolTableRecord
100
AcDbLinetypeTableRecord
  2
PHANTOM
 70
64
  3
_____ _ _ _____ _ _ _____ _ _ _____
 72
65
 73
6
 40
0.8
 49
0.45
 74
0
 49
-0.05
 74
0
 49
0.1
 74
0
 49
-0.05
 74
0
 49
0.1
 74
0
 49
-0.05
 74
0
  0
LTYPE
  5
1F8
100
AcDbSymbolTableRecord
100
AcDbLinetypeTableRecord
  2
DOT
 70
64
  3
. . . . . . . . . . . . . . . . . . . .
 72
65
 73
2
 40
0.2
 49
0.1
 74
0
 49
-0.1
 74
0
  0
LTYPE
  5
1F9
100
AcDbSymbolTableRecord
100
AcDbLinetypeTableRecord
  2
DASHED
 70
64
  3
- - - - - - - - - - - - - - - - - - - -
 72
65
 73
2
 40
0.2
 49
0.1
 74
0
 49
-0.1
 74
0
  0
ENDTAB
  0
TABLE
  2
LAYER
  5
2
100
AcDbSymbolTable
 70
36
  0
LAYER
  5
10
100
AcDbSymbolTableRecord
100
AcDbLayerTableRecord
  2
0
 70
0
 62
7
  6
CONTINUOUS
370
-3
390
F
  0
LAYER
  5
1FA
100
AcDbSymbolTableRecord
100
AcDbLayerTableRecord
  2
DEFAULT_1
 70
0
 62
7
  6
CENTER
370
-3
390
F
  0
LAYER
  5
1FB
100
AcDbSymbolTableRecord
100
AcDbLayerTableRecord
  2
DEFAULT_2
 70
0
 62
7
  6
HIDDEN
370
-3
390
F
  0
LAYER
  5
1FC
100
AcDbSymbolTableRecord
100
AcDbLayerTableRecord
  2
DEFAULT_3
 70
0
 62
7
  6
PHANTOM
370
-3
390
F
  0
LAYER
  5
1FD
100
AcDbSymbolTableRecord
100
AcDbLayerTableRecord
  2
ASSI
 70
0
 62
7
  6
CONTINUOUS
370
-3
390
F
  0
LAYER
  5
1FE
100
AcDbSymbolTableRecord
100
AcDbLayerTableRecord
  2
COORDINATE
 70
0
 62
7
  6
CONTINUOUS
370
-3
390
F
  0
LAYER
  5
1FF
100
AcDbSymbolTableRecord
100
AcDbLayerTableRecord
  2
COORD_ORIGINE
 70
0
 62
7
  6
CONTINUOUS
370
-3
390
F
  0
LAYER
  5
200
100
AcDbSymbolTableRecord
100
AcDbLayerTableRecord
  2
COPIA_X_PUBLISH
 70
0
 62
7
  6
CONTINUOUS
370
-3
390
F
  0
LAYER
  5
201
100
AcDbSymbolTableRecord
100
AcDbLayerTableRecord
  2
COPY_PLACCA
 70
0
 62
7
  6
CONTINUOUS
370
-3
390
F
  0
LAYER
  5
202
100
AcDbSymbolTableRecord
100
AcDbLayerTableRecord
  2
COPY_SUPP
 70
0
 62
7
  6
CONTINUOUS
370
-3
390
F
  0
LAYER
  5
203
100
AcDbSymbolTableRecord
100
AcDbLayerTableRecord
  2
CURVE
 70
0
 62
7
  6
CONTINUOUS
370
-3
390
F
  0
LAYER
  5
204
100
AcDbSymbolTableRecord
100
AcDbLayerTableRecord
  2
DRAFT
 70
0
 62
7
  6
CONTINUOUS
370
-3
390
F
  0
LAYER
  5
205
100
AcDbSymbolTableRecord
100
AcDbLayerTableRecord
  2
IMPORT_SCRITTE
 70
0
 62
7
  6
CONTINUOUS
370
-3
390
F
  0
LAYER
  5
206
100
AcDbSymbolTableRecord
100
AcDbLayerTableRecord
  2
INTF_1
 70
0
 62
7
  6
CONTINUOUS
370
-3
390
F
  0
LAYER
  5
207
100
AcDbSymbolTableRecord
100
AcDbLayerTableRecord
  2
INTF_5
 70
0
 62
7
  6
CONTINUOUS
370
-3
390
F
  0
LAYER
  5
208
100
AcDbSymbolTableRecord
100
AcDbLayerTableRecord
  2
INTF_CYAN
 70
0
 62
7
  6
CONTINUOUS
370
-3
390
F
  0
LAYER
  5
209
100
AcDbSymbolTableRecord
100
AcDbLayerTableRecord
  2
NOTE
 70
0
 62
7
  6
CONTINUOUS
370
-3
390
F
  0
LAYER
  5
20A
100
AcDbSymbolTableRecord
100
AcDbLayerTableRecord
  2
PIANI
 70
0
 62
7
  6
CONTINUOUS
370
-3
390
F
  0
LAYER
  5
20B
100
AcDbSymbolTableRecord
100
AcDbLayerTableRecord
  2
PIANI_ORIGINE
 70
0
 62
7
  6
CONTINUOUS
370
-3
390
F
  0
LAYER
  5
20C
100
AcDbSymbolTableRecord
100
AcDbLayerTableRecord
  2
PIANI_RIFERIMENTO
 70
0
 62
7
  6
CONTINUOUS
370
-3
390
F
  0
LAYER
  5
20D
100
AcDbSymbolTableRecord
100
AcDbLayerTableRecord
  2
PUNTI
 70
0
 62
7
  6
CONTINUOUS
370
-3
390
F
  0
LAYER
  5
20E
100
AcDbSymbolTableRecord
100
AcDbLayerTableRecord
  2
RACCORDO
 70
0
 62
7
  6
CONTINUOUS
370
-3
390
F
  0
LAYER
  5
20F
100
AcDbSymbolTableRecord
100
AcDbLayerTableRecord
  2
SMUSSO
 70
0
 62
7
  6
CONTINUOUS
370
-3
390
F
  0
LAYER
  5
210
100
AcDbSymbolTableRecord
100
AcDbLayerTableRecord
  2
SNAPLINE
 70
0
 62
7
  6
CONTINUOUS
370
-3
390
F
  0
LAYER
  5
211
100
AcDbSymbolTableRecord
100
AcDbLayerTableRecord
  2
SUPERFICI
 70
0
 62
7
  6
CONTINUOUS
370
-3
390
F
  0
LAYER
  5
212
100
AcDbSymbolTableRecord
100
AcDbLayerTableRecord
  2
TRASH
 70
0
 62
7
  6
CONTINUOUS
370
-3
390
F
  0
LAYER
  5
213
100
AcDbSymbolTableRecord
100
AcDbLayerTableRecord
  2
XSEC_DATUMS
 70
0
 62
7
  6
CONTINUOUS
370
-3
390
F
  0
ENDTAB
  0
TABLE
  2
STYLE
  5
3
100
AcDbSymbolTable
 70
1
  0
STYLE
  5
11
100
AcDbSymbolTableRecord
100
AcDbTextStyleTableRecord
  2
STANDARD
 70
0
 40
0.0
 41
0.8
 50
0.0
 71
0
 42
0.2
  3
txt
  4

  0
STYLE
  5
214
100
AcDbSymbolTableRecord
100
AcDbTextStyleTableRecord
  2
TEXTSTYLE_1
 70
0
 40
0.0
 41
0.8
 50
0.0
 71
0
 42
0.2
  3
gdt
  4

  0
ENDTAB
  0
TABLE
  2
VIEW
  5
6
100
AcDbSymbolTable
 70
0
  0
ENDTAB
  0
TABLE
  2
UCS
  5
7
100
AcDbSymbolTable
 70
0
  0
ENDTAB
  0
TABLE
  2
APPID
  5
9
100
AcDbSymbolTable
 70
1
  0
APPID
  5
215
100
AcDbSymbolTableRecord
100
AcDbRegAppTableRecord
  2
ACAD
 70
0
  0
ENDTAB
  0
TABLE
  2
BLOCK_RECORD
  5
1
100
AcDbSymbolTable
 70
0
  0
BLOCK_RECORD
  5
216
100
AcDbSymbolTableRecord
100
AcDbBlockTableRecord
  2
*Model_Space
  0
BLOCK_RECORD
  5
217
100
AcDbSymbolTableRecord
100
AcDbBlockTableRecord
  2
*Paper_Space
  0
BLOCK_RECORD
  5
218
100
AcDbSymbolTableRecord
100
AcDbBlockTableRecord
  2
_FILLED
  0
BLOCK_RECORD
  5
219
100
AcDbSymbolTableRecord
100
AcDbBlockTableRecord
  2
*D0
  0
BLOCK_RECORD
  5
21A
100
AcDbSymbolTableRecord
100
AcDbBlockTableRecord
  2
*D1
  0
BLOCK_RECORD
  5
21B
100
AcDbSymbolTableRecord
100
AcDbBlockTableRecord
  2
*D2
  0
BLOCK_RECORD
  5
21C
100
AcDbSymbolTableRecord
100
AcDbBlockTableRecord
  2
*D3
  0
ENDTAB
  0
TABLE
  2
DIMSTYLE
  5
A
100
AcDbSymbolTable
 70
1
100
AcDbDimStyleTable
 71
0
  0
DIMSTYLE
105
21D
100
AcDbSymbolTableRecord
100
AcDbDimStyleTableRecord
  2
STANDARD
 70
0
  3

  4

 40
1.0
 41
3.0
 42
0.5
 43
0.38
 44
1.5
 45
0.0
 46
0.0
 47
0.01
 48
0.01
140
3.0
141
0.09
142
0.0
143
25.4
144
1.0
145
0.0
146
1.0
147
0.625
 71
1.0
 72
0.0
 73
0
 74
0
 75
0
 76
0
 77
1
 78
8
170
0
171
2
172
0
173
0
174
0
175
0
176
0
177
0
178
0
270
2
271
2
272
2
273
2
274
2
275
0
280
0
281
0
282
0
283
1
284
8
285
0
286
0
287
3
288
0
340
11
278
44
341
218
342
218
343
218
344
218
  0
DIMSTYLE
105
21E
100
AcDbSymbolTableRecord
100
AcDbDimStyleTableRecord
  2
DIMSTYLE_1
 70
0
  3

  4

 40
1.0
 41
3.0
 42
0.5
 43
0.38
 44
1.5
 45
0.0
 46
0.0
 47
0.0
 48
0.0
140
3.0
141
0.09
142
0.0
143
25.4
144
1.0
145
0.0
146
1.0
147
0.75
 71
0.0
 72
0.0
 73
0
 74
0
 75
0
 76
0
 77
1
 78
8
170
0
171
2
172
0
173
0
174
0
175
0
176
0
177
0
178
0
270
2
271
2
272
2
273
2
274
2
275
0
280
0
281
0
282
0
283
1
284
8
285
0
286
0
287
3
288
0
340
11
278
44
341
218
342
218
343
218
344
218
  0
ENDTAB
  0
ENDSEC
  0
SECTION
  2
BLOCKS
  0
BLOCK
  5
20
100
AcDbEntity
  8
0
100
AcDbBlockBegin
  2
*Model_Space
 70
0
 10
0.0
 20
0.0
 30
0.0
  3
*Model_Space
  1

  0
ENDBLK
  5
21
100
AcDbEntity
  8
0
100
AcDbBlockEnd
  0
BLOCK
  5
1C
100
AcDbEntity
  8
0
100
AcDbBlockBegin
  2
*Paper_Space
 70
0
 10
0.0
 20
0.0
 30
0.0
  3
*Paper_Space
  1

  0
ENDBLK
  5
1D
100
AcDbEntity
  8
0
100
AcDbBlockEnd
  0
BLOCK
  5
21F
100
AcDbEntity
  8
0
100
AcDbBlockBegin
  2
_FILLED
 70
64
 10
0.0
 20
0.0
  3
_FILLED
  1

  0
SOLID
  5
220
100
AcDbEntity
  8
0
  6
BYBLOCK
 62
0
100
AcDbTrace
 10
0.0
 20
0.0
 11
-1.0
 21
0.3166666667
 12
-1.0
 22
-0.3166666667
 13
-1.0
 23
-0.3166666667
  0
ENDBLK
  5
221
100
AcDbEntity
  8
0
  6
BYBLOCK
 62
0
100
AcDbBlockEnd
  0
BLOCK
  5
222
100
AcDbEntity
  8
0
100
AcDbBlockBegin
 62
7
  6
CONTINUOUS
  2
*D0
 70
65
 10
0.0
 20
0.0
  3
*D0
  1

  0
MTEXT
  5
223
100
AcDbEntity
  8
0
100
AcDbMText
 62
7
  6
CONTINUOUS
  7
STANDARD
 71
2
 72
1
 10
0.0
 20
61.1499489549
 30
0.0
 11
1.0
 21
0.0
 31
0.0
 44
0.9
  1
94,8
 40
3.0
 41
8.7857142857
  0
LINE
  5
224
100
AcDbEntity
  8
0
100
AcDbLine
 62
7
  6
CONTINUOUS
 10
47.4
 20
46.0091301196
 11
47.4
 21
58.8999489549
  0
LINE
  5
225
100
AcDbEntity
  8
0
100
AcDbLine
 62
7
  6
CONTINUOUS
 10
-47.4
 20
46.0091301196
 11
-47.4
 21
58.8999489549
  0
LINE
  5
226
100
AcDbEntity
  8
0
100
AcDbLine
 62
7
  6
CONTINUOUS
 10
47.4
 20
57.3999489549
 11
0.0
 21
57.3999489549
  0
LINE
  5
227
100
AcDbEntity
  8
0
100
AcDbLine
 62
7
  6
CONTINUOUS
 10
-47.4
 20
57.3999489549
 11
0.0
 21
57.3999489549
  0
INSERT
  5
228
100
AcDbEntity
  8
0
100
AcDbBlockReference
 62
7
  6
CONTINUOUS
  2
_FILLED
 10
47.4
 20
57.3999489549
 41
3.0
 42
3.0
 43
3.0
  0
INSERT
  5
229
100
AcDbEntity
  8
0
100
AcDbBlockReference
 62
7
  6
CONTINUOUS
  2
_FILLED
 10
-47.4
 20
57.3999489549
 41
3.0
 42
3.0
 43
3.0
 50
180.0
  0
ENDBLK
  5
22A
100
AcDbEntity
  8
0
  6
BYBLOCK
 62
0
100
AcDbBlockEnd
  0
BLOCK
  5
22B
100
AcDbEntity
  8
0
100
AcDbBlockBegin
 62
7
  6
CONTINUOUS
  2
*D1
 70
65
 10
0.0
 20
0.0
  3
*D1
  1

  0
MTEXT
  5
22C
100
AcDbEntity
  8
0
100
AcDbMText
 62
7
  6
CONTINUOUS
  7
STANDARD
 71
2
 72
1
 10
53.65
 20
-0.0
 30
0.0
 11
0.0
 21
1.0
 31
0.0
 44
0.9
  1
94,8
 40
3.0
 41
8.7857142857
  0
LINE
  5
22D
100
AcDbEntity
  8
0
100
AcDbLine
 62
7
  6
CONTINUOUS
 10
46.0024688883
 20
47.3999749158
 11
58.9
 21
47.3999749158
  0
LINE
  5
22E
100
AcDbEntity
  8
0
100
AcDbLine
 62
7
  6
CONTINUOUS
 10
46.0024688883
 20
-47.3999749158
 11
58.9
 21
-47.3999749158
  0
LINE
  5
22F
100
AcDbEntity
  8
0
100
AcDbLine
 62
7
  6
CONTINUOUS
 10
57.4
 20
47.3999749158
 11
57.4
 21
0.0
  0
LINE
  5
230
100
AcDbEntity
  8
0
100
AcDbLine
 62
7
  6
CONTINUOUS
 10
57.4
 20
-47.3999749158
 11
57.4
 21
0.0
  0
INSERT
  5
231
100
AcDbEntity
  8
0
100
AcDbBlockReference
 62
7
  6
CONTINUOUS
  2
_FILLED
 10
57.4
 20
47.3999749158
 41
3.0
 42
3.0
 43
3.0
 50
90.0
  0
INSERT
  5
232
100
AcDbEntity
  8
0
100
AcDbBlockReference
 62
7
  6
CONTINUOUS
  2
_FILLED
 10
57.4
 20
-47.3999749158
 41
3.0
 42
3.0
 43
3.0
 50
270.0
  0
ENDBLK
  5
233
100
AcDbEntity
  8
0
  6
BYBLOCK
 62
0
100
AcDbBlockEnd
  0
BLOCK
  5
234
100
AcDbEntity
  8
0
100
AcDbBlockBegin
 62
7
  6
CONTINUOUS
  2
*D2
 70
65
 10
0.0
 20
0.0
  3
*D2
  1

  0
MTEXT
  5
235
100
AcDbEntity
  8
0
100
AcDbMText
 62
7
  6
CONTINUOUS
  7
STANDARD
 71
2
 72
1
 10
-80.3348619527
 20
61.6468102095
 30
0.0
 11
1.0
 21
0.0
 31
0.0
 44
0.9
  1
9
 40
3.0
 41
2.3571428571
  0
LINE
  5
236
100
AcDbEntity
  8
0
100
AcDbLine
 62
7
  6
CONTINUOUS
 10
-75.8348619527
 20
46.0
 11
-75.8348619527
 21
59.3968102095
  0
LINE
  5
237
100
AcDbEntity
  8
0
100
AcDbLine
 62
7
  6
CONTINUOUS
 10
-84.8348619527
 20
27.1345781385
 11
-84.8348619527
 21
59.3968102095
  0
LINE
  5
238
100
AcDbEntity
  8
0
100
AcDbLine
 62
7
  6
CONTINUOUS
 10
-75.8348619527
 20
57.8968102095
 11
-80.3348619527
 21
57.8968102095
  0
LINE
  5
239
100
AcDbEntity
  8
0
100
AcDbLine
 62
7
  6
CONTINUOUS
 10
-84.8348619527
 20
57.8968102095
 11
-80.3348619527
 21
57.8968102095
  0
INSERT
  5
23A
100
AcDbEntity
  8
0
100
AcDbBlockReference
 62
7
  6
CONTINUOUS
  2
_FILLED
 10
-75.8348619527
 20
57.8968102095
 41
3.0
 42
3.0
 43
3.0
  0
INSERT
  5
23B
100
AcDbEntity
  8
0
100
AcDbBlockReference
 62
7
  6
CONTINUOUS
  2
_FILLED
 10
-84.8348619527
 20
57.8968102095
 41
3.0
 42
3.0
 43
3.0
 50
180.0
  0
ENDBLK
  5
23C
100
AcDbEntity
  8
0
  6
BYBLOCK
 62
0
100
AcDbBlockEnd
  0
BLOCK
  5
23D
100
AcDbEntity
  8
0
100
AcDbBlockBegin
 62
7
  6
CONTINUOUS
  2
*D3
 70
65
 10
0.0
 20
0.0
  3
*D3
  1

  0
MTEXT
  5
23E
100
AcDbEntity
  8
0
100
AcDbMText
 62
7
  6
CONTINUOUS
  7
STANDARD
 71
1
 72
1
 10
-73.4834205011
 20
69.2414369662
 30
0.0
 11
1.0
 21
0.0
 31
0.0
 44
0.9
  1
9,7
 40
3.0
 41
6.4285714286
  0
LINE
  5
23F
100
AcDbEntity
  8
0
100
AcDbLine
 62
7
  6
CONTINUOUS
 10
-75.1348619527
 20
27.553527618
 11
-75.1348619527
 21
66.9914369662
  0
LINE
  5
240
100
AcDbEntity
  8
0
100
AcDbLine
 62
7
  6
CONTINUOUS
 10
-84.8348619527
 20
27.1345781385
 11
-84.8348619527
 21
66.9914369662
  0
LINE
  5
241
100
AcDbEntity
  8
0
100
AcDbLine
 62
7
  6
CONTINUOUS
 10
-75.1348619527
 20
65.4914369662
 11
-79.9848619527
 21
65.4914369662
  0
LINE
  5
242
100
AcDbEntity
  8
0
100
AcDbLine
 62
7
  6
CONTINUOUS
 10
-79.9848619527
 20
65.4914369662
 11
-67.0548490725
 21
65.4914369662
  0
LINE
  5
243
100
AcDbEntity
  8
0
100
AcDbLine
 62
7
  6
CONTINUOUS
 10
-84.8348619527
 20
65.4914369662
 11
-79.9848619527
 21
65.4914369662
  0
INSERT
  5
244
100
AcDbEntity
  8
0
100
AcDbBlockReference
 62
7
  6
CONTINUOUS
  2
_FILLED
 10
-75.1348619527
 20
65.4914369662
 41
3.0
 42
3.0
 43
3.0
  0
INSERT
  5
245
100
AcDbEntity
  8
0
100
AcDbBlockReference
 62
7
  6
CONTINUOUS
  2
_FILLED
 10
-84.8348619527
 20
65.4914369662
 41
3.0
 42
3.0
 43
3.0
 50
180.0
  0
ENDBLK
  5
246
100
AcDbEntity
  8
0
  6
BYBLOCK
 62
0
100
AcDbBlockEnd
  0
ENDSEC
  0
SECTION
  2
ENTITIES
  0
DIMENSION
  5
247
100
AcDbEntity
  8
0
100
AcDbDimension
 62
7
  6
CONTINUOUS
  2
*D0
 10
-47.4
 20
57.3999489549
 11
0.0
 21
57.3999489549
 70
160
 71
2
 42
94.8
  3
DIMSTYLE_1
100
AcDbAlignedDimension
 13
47.4
 23
45.5091301196
 14
-47.4
 24
45.5091301196
 50
180.0
100
AcDbRotatedDimension
  0
DIMENSION
  5
248
100
AcDbEntity
  8
0
100
AcDbDimension
 62
7
  6
CONTINUOUS
  2
*D1
 10
57.4
 20
-47.3999749158
 11
57.4
 21
0.0
 70
160
 71
2
 42
94.7999498315
  3
DIMSTYLE_1
100
AcDbAlignedDimension
 13
45.5024688883
 23
47.3999749158
 14
45.5024688883
 24
-47.3999749158
 50
270.0
100
AcDbRotatedDimension
  0
DIMENSION
  5
249
100
AcDbEntity
  8
0
100
AcDbDimension
 62
7
  6
CONTINUOUS
  2
*D2
 10
-84.8348619527
 20
57.8968102095
 11
-80.3348619527
 21
57.8968102095
 70
160
 71
2
 42
9.0
  3
DIMSTYLE_1
100
AcDbAlignedDimension
 13
-75.8348619527
 23
45.5
 14
-84.8348619527
 24
26.6345781385
 50
180.0
100
AcDbRotatedDimension
  0
DIMENSION
  5
24A
100
AcDbEntity
  8
0
100
AcDbDimension
 62
7
  6
CONTINUOUS
  2
*D3
 10
-84.8348619527
 20
65.4914369662
 11
-70.2691347868
 21
65.4914369662
 70
160
 71
1
 42
9.7
  3
DIMSTYLE_1
100
AcDbAlignedDimension
 13
-75.1348619527
 23
27.053527618
 14
-84.8348619527
 24
26.6345781385
 50
180.0
100
AcDbRotatedDimension
  0
LWPOLYLINE
  5
24B
100
AcDbEntity
  8
RACCORDO
100
AcDbPolyline
 62
7
  6
CONTINUOUS
 90
10
 70
0
 10
-47.4
 20
45.5091301196
 10
-47.3667704573
 20
45.8487616664
 10
-47.2835471365
 20
46.1617901958
 10
-47.150328856
 20
46.4482157077
 10
-46.9596519579
 20
46.715745817
 10
-46.7189753073
 20
46.9566729089
 10
-46.4506819647
 20
47.1478741384
 10
-46.1622322295
 20
47.2816418905
 10
-45.8461619868
 20
47.3656837803
 10
-45.5024688883
 20
47.3999998077
  0
LWPOLYLINE
  5
24C
100
AcDbEntity
  8
RACCORDO
100
AcDbPolyline
 62
7
  6
CONTINUOUS
 90
10
 70
0
 10
-45.5024688883
 20
-47.3999998077
 10
-45.8461619868
 20
-47.3656837803
 10
-46.1622322295
 20
-47.2816418905
 10
-46.4506819647
 20
-47.1478741384
 10
-46.7189753073
 20
-46.9566729089
 10
-46.9596519579
 20
-46.715745817
 10
-47.150328856
 20
-46.4482157077
 10
-47.2835471365
 20
-46.1617901958
 10
-47.3667704573
 20
-45.8487616664
 10
-47.4
 20
-45.5091301196
  0
LWPOLYLINE
  5
24D
100
AcDbEntity
  8
RACCORDO
100
AcDbPolyline
 62
253
  6
CONTINUOUS
 90
22
 70
0
 10
-47.1835780244
 20
-45.2934376806
 10
-47.1782744104
 20
-45.4326279182
 10
-47.1626617438
 20
-45.5717873051
 10
-47.1366694149
 20
-45.7101354186
 10
-47.1002192904
 20
-45.8469454769
 10
-47.0533896165
 20
-45.9813389741
 10
-46.9964027987
 20
-46.1122921814
 10
-46.9294112227
 20
-46.2390605691
 10
-46.8527482491
 20
-46.3608096629
 10
-46.7670575818
 20
-46.47643119
 10
-46.6727985679
 20
-46.585234484
 10
-46.5705315291
 20
-46.6866013306
 10
-46.4612211655
 20
-46.7796605306
 10
-46.3455929849
 20
-46.8638961409
 10
-46.224329473
 20
-46.9389767334
 10
-46.0984325256
 20
-47.0044523875
 10
-45.9687703715
 20
-47.0600402481
 10
-45.8360287144
 20
-47.1056610812
 10
-45.7009464127
 20
-47.1412361376
 10
-45.5642705677
 20
-47.16669612
 10
-45.426768278
 20
-47.1820758732
 10
-45.2891832419
 20
-47.1874601334
  0
LWPOLYLINE
  5
24E
100
AcDbEntity
  8
RACCORDO
100
AcDbPolyline
 62
253
  6
CONTINUOUS
 90
22
 70
0
 10
-46.3433101752
 20
-45.2934376806
 10
-46.3406240533
 20
-45.3674817692
 10
-46.3324543882
 20
-45.4406584729
 10
-46.3188011679
 20
-45.5129677916
 10
-46.2995811039
 20
-45.5848677737
 10
-46.274877435
 20
-45.6559003708
 10
-46.2449399281
 20
-45.7246914379
 10
-46.209605854
 20
-45.7912289926
 10
-46.1690378475
 20
-45.8555250173
 10
-46.1239737205
 20
-45.9162413146
 10
-46.0742772528
 20
-45.9732727433
 10
-46.0200845473
 20
-46.0267244446
 10
-45.9625419174
 20
-46.0755736444
 10
-45.9015960683
 20
-46.1196648792
 10
-45.8373001869
 20
-46.1591536124
 10
-45.7709603445
 20
-46.1934834605
 10
-45.7026121929
 20
-46.2225175672
 10
-45.6322200073
 20
-46.2463927888
 10
-45.560982838
 20
-46.2649633098
 10
-45.4893003683
 20
-46.2781805252
 10
-45.4167728889
 20
-46.2860930401
 10
-45.343400384
 20
-46.2887008545
  0
LINE
  5
24F
100
AcDbEntity
  8
RACCORDO
100
AcDbLine
 62
7
  6
CONTINUOUS
 10
-47.4
 20
45.509129643
 11
-47.4
 21
-45.509129643
  0
LINE
  5
250
100
AcDbEntity
  8
RACCORDO
100
AcDbLine
 62
253
  6
CONTINUOUS
 10
-47.1835788895
 20
45.2934376806
 11
-47.1835788895
 21
-45.2934376806
  0
LWPOLYLINE
  5
251
100
AcDbEntity
  8
RACCORDO
100
AcDbPolyline
 62
253
  6
CONTINUOUS
 90
22
 70
0
 10
45.2891832419
 20
-47.1874601376
 10
45.4267682955
 20
-47.1820758845
 10
45.5642705723
 20
-47.1666961269
 10
45.7009464003
 20
-47.1412361386
 10
45.8360286977
 20
-47.1056610809
 10
45.968770359
 20
-47.0600402498
 10
46.0984325184
 20
-47.0044523916
 10
46.2243294678
 20
-46.9389767384
 10
46.3455929794
 20
-46.8638961458
 10
46.4612211593
 20
-46.7796605352
 10
46.5705315231
 20
-46.6866013352
 10
46.6727985627
 20
-46.5852344888
 10
46.7670575779
 20
-46.4764311952
 10
46.8527482461
 20
-46.3608096684
 10
46.9294112203
 20
-46.2390605745
 10
46.9964027962
 20
-46.1122921859
 10
47.0533896136
 20
-45.9813389769
 10
47.1002192879
 20
-45.8469454791
 10
47.1366694145
 20
-45.7101354233
 10
47.1626617471
 20
-45.5717873147
 10
47.1782744147
 20
-45.4326279286
 10
47.1835780227
 20
-45.2934376806
  0
LWPOLYLINE
  5
252
100
AcDbEntity
  8
RACCORDO
100
AcDbPolyline
 62
253
  6
CONTINUOUS
 90
22
 70
0
 10
45.343400384
 20
-46.2887008545
 10
45.4167728888
 20
-46.2860930397
 10
45.4893003681
 20
-46.2781805245
 10
45.5609828379
 20
-46.264963309
 10
45.6322200072
 20
-46.2463927883
 10
45.702612193
 20
-46.2225175672
 10
45.7709603447
 20
-46.1934834608
 10
45.837300187
 20
-46.1591536127
 10
45.9015960683
 20
-46.1196648793
 10
45.9625419174
 20
-46.0755736443
 10
46.0200845473
 20
-46.0267244446
 10
46.0742772528
 20
-45.9732727433
 10
46.1239737205
 20
-45.9162413146
 10
46.1690378475
 20
-45.8555250173
 10
46.2096058539
 20
-45.7912289925
 10
46.2449399279
 20
-45.7246914378
 10
46.274877435
 20
-45.6559003707
 10
46.2995811041
 20
-45.5848677737
 10
46.3188011682
 20
-45.5129677917
 10
46.3324543885
 20
-45.440658473
 10
46.3406240534
 20
-45.3674817693
 10
46.3433101752
 20
-45.2934376806
  0
LINE
  5
253
100
AcDbEntity
  8
RACCORDO
100
AcDbLine
 62
7
  6
CONTINUOUS
 10
-45.5024688883
 20
-47.3999998077
 11
45.5024688883
 21
-47.3999998077
  0
LINE
  5
254
100
AcDbEntity
  8
RACCORDO
100
AcDbLine
 62
253
  6
CONTINUOUS
 10
-45.2891832496
 20
-47.1874623735
 11
45.2891832494
 21
-47.1874623708
  0
LWPOLYLINE
  5
255
100
AcDbEntity
  8
RACCORDO
100
AcDbPolyline
 62
253
  6
CONTINUOUS
 90
10
 70
0
 10
-45.3434003726
 20
-46.2887008545
 10
-45.3425906678
 20
-46.4398145691
 10
-45.3401788403
 20
-46.5866376604
 10
-45.3362333698
 20
-46.7250013304
 10
-45.3308662814
 20
-46.850976972
 10
-45.3242299648
 20
-46.9609877159
 10
-45.316512847
 20
-47.0519099895
 10
-45.307934043
 20
-47.1211622057
 10
-45.2987371335
 20
-47.1667780625
 10
-45.2891832496
 20
-47.1874623735
  0
LINE
  5
256
100
AcDbEntity
  8
RACCORDO
100
AcDbLine
 62
253
  6
CONTINUOUS
 10
-46.3433101752
 20
45.2934376806
 11
-46.3433101752
 21
-45.2934376806
  0
LWPOLYLINE
  5
257
100
AcDbEntity
  8
RACCORDO
100
AcDbPolyline
 62
253
  6
CONTINUOUS
 90
10
 70
0
 10
-45.3434003838
 20
46.2887008545
 10
-45.3425906756
 20
46.4398142773
 10
-45.3401788452
 20
46.5866370562
 10
-45.3362333724
 20
46.7250004075
 10
-45.3308662822
 20
46.8509757387
 10
-45.324229964
 20
46.9609861941
 10
-45.3165128449
 20
47.0519082135
 10
-45.3079340393
 20
47.1211602206
 10
-45.2987371281
 20
47.1667759221
 10
-45.2891832419
 20
47.1874601376
  0
LINE
  5
258
100
AcDbEntity
  8
RACCORDO
100
AcDbLine
 62
253
  6
CONTINUOUS
 10
-45.343400384
 20
-46.2887008545
 11
45.343400384
 21
-46.2887008545
  0
LINE
  5
259
100
AcDbEntity
  8
RACCORDO
100
AcDbLine
 62
253
  6
CONTINUOUS
 10
46.3433101752
 20
-45.2934376806
 11
47.1835788895
 21
-45.2934376806
  0
LINE
  5
25A
100
AcDbEntity
  8
RACCORDO
100
AcDbLine
 62
253
  6
CONTINUOUS
 10
-46.3433101752
 20
-45.2934376806
 11
-47.1835788895
 21
-45.2934376806
  0
LWPOLYLINE
  5
25B
100
AcDbEntity
  8
RACCORDO
100
AcDbPolyline
 62
253
  6
CONTINUOUS
 90
12
 70
0
 10
-24.711598426
 20
25.8499794638
 10
-24.6574457268
 20
25.9382241497
 10
-24.5953306399
 20
26.0225923136
 10
-24.5270464242
 20
26.1005697356
 10
-24.4516914283
 20
26.171990124
 10
-24.3701671704
 20
26.2370197705
 10
-24.2869717256
 20
26.2936433305
 10
-24.2045564629
 20
26.3406487393
 10
-24.1204699951
 20
26.3792480617
 10
-24.0318562799
 20
26.4110621471
 10
-23.9377632497
 20
26.4366312789
 10
-23.8391428496
 20
26.4554151739
  0
LWPOLYLINE
  5
25C
100
AcDbEntity
  8
RACCORDO
100
AcDbPolyline
 62
253
  6
CONTINUOUS
 90
10
 70
0
 10
-22.6510757078
 20
24.5928399746
 10
-22.6616287628
 20
24.5837095745
 10
-22.6721256806
 20
24.5741282712
 10
-22.6825106207
 20
24.5641470317
 10
-22.6927283379
 20
24.5538189505
 10
-22.7027244768
 20
24.5431989672
 10
-22.7124458607
 20
24.5323435741
 10
-22.7218407745
 20
24.5213105159
 10
-22.7308592395
 20
24.5101584823
 10
-22.73945328
 20
24.4989467959
  0
LWPOLYLINE
  5
25D
100
AcDbEntity
  8
RACCORDO
100
AcDbPolyline
 62
7
  6
CONTINUOUS
 90
6
 70
0
 10
-24.2419491613
 20
26.1894624909
 10
-24.3860392816
 20
26.078458717
 10
-24.5133569356
 20
25.9421944174
 10
-24.6143652144
 20
25.7913571462
 10
-24.6858854418
 20
25.6295094217
 10
-24.731096979
 20
25.4530887256
  0
LWPOLYLINE
  5
25E
100
AcDbEntity
  8
RACCORDO
100
AcDbPolyline
 62
253
  6
CONTINUOUS
 90
12
 70
0
 10
-24.3046631104
 20
-26.2826201652
 10
-24.3892236686
 20
-26.2233225356
 10
-24.4694548168
 20
-26.1563502233
 10
-24.5429483682
 20
-26.0836735105
 10
-24.6093027167
 20
-26.0050766589
 10
-24.6689196064
 20
-25.9207754069
 10
-24.7205959055
 20
-25.8333872525
 10
-24.7639373076
 20
-25.7430443746
 10
-24.7993382308
 20
-25.6496145944
 10
-24.8267786264
 20
-25.5553188732
 10
-24.8462518301
 20
-25.4608975314
 10
-24.8577645609
 20
-25.3656102486
  0
LWPOLYLINE
  5
25F
100
AcDbEntity
  8
RACCORDO
100
AcDbPolyline
 62
253
  6
CONTINUOUS
 90
10
 70
0
 10
-22.7394558707
 20
-24.4989467967
 10
-22.7308617806
 20
-24.5101587474
 10
-22.7218431856
 20
-24.5213110455
 10
-22.7124480695
 20
-24.5323443546
 10
-22.7027264195
 20
-24.5431999714
 10
-22.6927299601
 20
-24.5538201378
 10
-22.6825118779
 20
-24.5641483487
 10
-22.6721265387
 20
-24.5741296521
 10
-22.6616291982
 20
-24.5837109421
 10
-22.6510757081
 20
-24.5928412407
  0
LWPOLYLINE
  5
260
100
AcDbEntity
  8
RACCORDO
100
AcDbPolyline
 62
7
  6
CONTINUOUS
 90
6
 70
0
 10
-24.6123026508
 20
-25.7950998252
 10
-24.5105275476
 20
-25.9458844495
 10
-24.3824930192
 20
-26.0815240823
 10
-24.2382736212
 20
-26.1917996696
 10
-24.0812273941
 20
-26.2733048602
 10
-23.9079956597
 20
-26.3294460052
  0
LWPOLYLINE
  5
261
100
AcDbEntity
  8
RACCORDO
100
AcDbPolyline
 62
253
  6
CONTINUOUS
 90
12
 70
0
 10
-23.4471654073
 20
26.0110283497
 10
-23.4474869289
 20
26.0095495274
 10
-23.4477024128
 20
26.0065049879
 10
-23.4478084228
 20
26.0019432822
 10
-23.4478032684
 20
25.995937155
 10
-23.4476870316
 20
25.9885823852
 10
-23.4474615661
 20
25.9799962582
 10
-23.4471304675
 20
25.9703156958
 10
-23.4466990157
 20
25.9596950724
 10
-23.4461740909
 20
25.9483037538
 10
-23.4455640641
 20
25.9363233954
 10
-23.4441288185
 20
25.9113661026
  0
LWPOLYLINE
  5
262
100
AcDbEntity
  8
RACCORDO
100
AcDbPolyline
 62
7
  6
CONTINUOUS
 90
4
 70
0
 10
23.7185780297
 20
-26.3602231048
 10
23.9098084771
 20
-26.3285634258
 10
24.0842653858
 20
-26.2716432212
 10
24.2419491613
 20
-26.1894624909
  0
LINE
  5
263
100
AcDbEntity
  8
RACCORDO
100
AcDbLine
 62
253
  6
CONTINUOUS
 10
23.8391428496
 20
-26.4554151739
 11
23.7359950183
 21
-26.4674138319
  0
LWPOLYLINE
  5
264
100
AcDbEntity
  8
RACCORDO
100
AcDbPolyline
 62
253
  6
CONTINUOUS
 90
31
 70
0
 10
23.5533231805
 20
-26.1103771121
 10
23.5906570147
 20
-26.1073945762
 10
23.6304822505
 20
-26.1026600678
 10
23.6726980113
 20
-26.0958655168
 10
23.7174231393
 20
-26.0866281417
 10
23.7642381464
 20
-26.0746457964
 10
23.8122110388
 20
-26.0598202065
 10
23.8611406744
 20
-26.0419105913
 10
23.9107863564
 20
-26.0206879338
 10
23.9601891756
 20
-25.9963015676
 10
24.00911784
 20
-25.9686545638
 10
24.0573209411
 20
-25.937671278
 10
24.1039081406
 20
-25.9037835212
 10
24.1486594123
 20
-25.867080985
 10
24.1914190125
 20
-25.8276226858
 10
24.2315477475
 20
-25.7860122943
 10
24.2689104886
 20
-25.7424842253
 10
24.3034786512
 20
-25.6971772749
 10
24.3349356363
 20
-25.6506889182
 10
24.3632909532
 20
-25.6032590825
 10
24.3885869204
 20
-25.555095651
 10
24.4107047277
 20
-25.5068150564
 10
24.4297896874
 20
-25.4585813873
 10
24.445950236
 20
-25.4106576027
 10
24.45918008
 20
-25.363842911
 10
24.4696710632
 20
-25.3185551875
 10
24.477732213
 20
-25.2747310142
 10
24.4836131806
 20
-25.2324348544
 10
24.4875411752
 20
-25.1917535814
 10
24.4897332736
 20
-25.1528007655
 10
24.4904054794
 20
-25.1156484893
  0
LWPOLYLINE
  5
265
100
AcDbEntity
  8
RACCORDO
100
AcDbPolyline
 62
253
  6
CONTINUOUS
 90
7
 70
0
 10
-23.7359950183
 20
-26.4674138319
 10
-23.834708444
 20
-26.4574358188
 10
-23.9318476793
 20
-26.4391294332
 10
-24.0274127441
 20
-26.412494675
 10
-24.1223221314
 20
-26.3773136477
 10
-24.2156573791
 20
-26.3338042478
 10
-24.3046631104
 20
-26.2826201652
  0
LWPOLYLINE
  5
266
100
AcDbEntity
  8
RACCORDO
100
AcDbPolyline
 62
253
  6
CONTINUOUS
 90
19
 70
0
 10
-23.7264613451
 20
-26.3676100458
 10
-23.8157960686
 20
-26.3583460715
 10
-23.9050388959
 20
-26.3416047624
 10
-23.9935371996
 20
-26.3172670132
 10
-24.0807722194
 20
-26.2851669439
 10
-24.1658669459
 20
-26.2453635368
 10
-24.2476316889
 20
-26.1982207679
 10
-24.3254558548
 20
-26.1439099531
 10
-24.3986388642
 20
-26.082800278
 10
-24.4660253132
 20
-26.0158567127
 10
-24.5271116277
 20
-25.9436735701
 10
-24.5815848862
 20
-25.8668122684
 10
-24.6288519457
 20
-25.7864208489
 10
-24.6686815424
 20
-25.7033513985
 10
-24.7011244671
 20
-25.6181421104
 10
-24.7261777455
 20
-25.5315107382
 10
-24.7438785765
 20
-25.4441139998
 10
-24.7543682097
 20
-25.3565633919
 10
-24.7578310652
 20
-25.2694570244
  0
LINE
  5
267
100
AcDbEntity
  8
RACCORDO
100
AcDbLine
 62
7
  6
CONTINUOUS
 10
-23.9079956597
 20
-26.3294460052
 11
-23.7185780298
 21
-26.3602231048
  0
LWPOLYLINE
  5
268
100
AcDbEntity
  8
RACCORDO
100
AcDbPolyline
 62
253
  6
CONTINUOUS
 90
11
 70
0
 10
-23.4471654062
 20
-26.0110283322
 10
-23.4474869278
 20
-26.0095495108
 10
-23.4477024117
 20
-26.0065049725
 10
-23.4478084218
 20
-26.0019432681
 10
-23.4478032674
 20
-25.9959371424
 10
-23.4476870307
 20
-25.9885823742
 10
-23.4474615654
 20
-25.9799962489
 10
-23.4471304669
 20
-25.9703156882
 10
-23.4466990152
 20
-25.9596950665
 10
-23.4461740906
 20
-25.9483037495
 10
-23.4455640639
 20
-25.9363233927
  0
LWPOLYLINE
  5
269
100
AcDbEntity
  8
RACCORDO
100
AcDbPolyline
 62
7
  6
CONTINUOUS
 90
4
 70
0
 10
-24.75
 20
-25.2620950581
 10
-24.7303595005
 20
-25.4549083052
 10
-24.6844604429
 20
-25.6325765609
 10
-24.6123026508
 20
-25.7950998252
  0
LWPOLYLINE
  5
26A
100
AcDbEntity
  8
RACCORDO
100
AcDbPolyline
 62
253
  6
CONTINUOUS
 90
16
 70
0
 10
-22.5662465487
 20
-22.3665206418
 10
-22.5650990652
 20
-22.3873623163
 10
-22.5617833455
 20
-22.4079762879
 10
-22.5563356356
 20
-22.4281374836
 10
-22.5488154606
 20
-22.4476257767
 10
-22.5393049683
 20
-22.4662284046
 10
-22.5279080264
 20
-22.4837422894
 10
-22.5147491037
 20
-22.4999762284
 10
-22.4999718979
 20
-22.5147530047
 10
-22.4837377506
 20
-22.527911329
 10
-22.466223925
 20
-22.5393075615
 10
-22.4476216469
 20
-22.5488173071
 10
-22.4281339882
 20
-22.5563367789
 10
-22.407973702
 20
-22.5617839013
 10
-22.3873609054
 20
-22.5650992171
 10
-22.3665206418
 20
-22.5662465487
  0
LWPOLYLINE
  5
26B
100
AcDbEntity
  8
RACCORDO
100
AcDbPolyline
 62
253
  6
CONTINUOUS
 90
30
 70
0
 10
-24.6830223449
 20
-25.156294043
 10
-24.6806831887
 20
-25.1994689068
 10
-24.6761689253
 20
-25.2451730808
 10
-24.6697519618
 20
-25.2937177479
 10
-24.6611598878
 20
-25.3447917251
 10
-24.649575474
 20
-25.3974614632
 10
-24.6349116715
 20
-25.4517959206
 10
-24.6172555176
 20
-25.5077261389
 10
-24.596050908
 20
-25.5641116938
 10
-24.5711682366
 20
-25.6209930616
 10
-24.5427370854
 20
-25.678329766
 10
-24.5105901279
 20
-25.7348599543
 10
-24.47457988
 20
-25.7905690262
 10
-24.4348537887
 20
-25.8454715819
 10
-24.3916869216
 20
-25.8983495693
 10
-24.3448642299
 20
-25.9491752935
 10
-24.2946007169
 20
-25.9979764495
 10
-24.2418165351
 20
-26.0436180691
 10
-24.1863147361
 20
-26.0859531593
 10
-24.1282922284
 20
-26.1251287131
 10
-24.0692599675
 20
-26.160450742
 10
-24.0091435643
 20
-26.1916797643
 10
-23.948017391
 20
-26.2190552616
 10
-23.8876155718
 20
-26.24260169
 10
-23.8279413921
 20
-26.262098327
 10
-23.7689915797
 20
-26.277765895
 10
-23.7124904511
 20
-26.2902910176
 10
-23.6590127974
 20
-26.2999025694
 10
-23.6079838691
 20
-26.3063716758
 10
-23.5594036839
 20
-26.3096983368
  0
LINE
  5
26C
100
AcDbEntity
  8
RACCORDO
100
AcDbLine
 62
253
  6
CONTINUOUS
 10
-24.8577645609
 20
-25.3656102486
 11
-24.8613168325
 21
-25.2694570248
  0
LWPOLYLINE
  5
26D
100
AcDbEntity
  8
RACCORDO
100
AcDbPolyline
 62
253
  6
CONTINUOUS
 90
31
 70
0
 10
-24.4904056333
 20
-25.1156484893
 10
-24.4898526001
 20
-25.1493991172
 10
-24.4880021066
 20
-25.1854114858
 10
-24.4846068755
 20
-25.2236260227
 10
-24.4793847746
 20
-25.2640982801
 10
-24.4720732792
 20
-25.3065877775
 10
-24.4624877612
 20
-25.3505647467
 10
-24.4503926722
 20
-25.3958862993
 10
-24.4355569858
 20
-25.4423796472
 10
-24.4179086997
 20
-25.4894592465
 10
-24.3972771912
 20
-25.5369287889
 10
-24.3735097209
 20
-25.5845637015
 10
-24.3466888502
 20
-25.6317509861
 10
-24.3167425302
 20
-25.6782616538
 10
-24.2836186161
 20
-25.7238600266
 10
-24.2475647685
 20
-25.7679723923
 10
-24.2085655241
 20
-25.810433726
 10
-24.166718767
 20
-25.8509769112
 10
-24.122593276
 20
-25.8889867252
 10
-24.0762950703
 20
-25.9243656074
 10
-24.0280297928
 20
-25.9569622837
 10
-23.9786746345
 20
-25.9862824765
 10
-23.9284618141
 20
-26.0123515911
 10
-23.8776236856
 20
-26.0352138553
 10
-23.8271514276
 20
-26.0546571717
 10
-23.7772737859
 20
-26.070877655
 10
-23.7282243148
 20
-26.0840756142
 10
-23.6810485314
 20
-26.0943014599
 10
-23.6362196828
 20
-26.101845
 10
-23.5936054873
 20
-26.1070989282
 10
-23.5533231827
 20
-26.1103771467
  0
LINE
  5
26E
100
AcDbEntity
  8
RACCORDO
100
AcDbLine
 62
253
  6
CONTINUOUS
 10
-24.8613168325
 20
-25.2694570248
 11
-24.8613168325
 21
25.2694570248
  0
LINE
  5
26F
100
AcDbEntity
  8
RACCORDO
100
AcDbLine
 62
7
  6
CONTINUOUS
 10
-24.7578337795
 20
-25.2694570248
 11
-24.7578337795
 21
25.2694570248
  0
LINE
  5
270
100
AcDbEntity
  8
RACCORDO
100
AcDbLine
 62
253
  6
CONTINUOUS
 10
-24.6831863947
 20
25.1156484893
 11
-24.6830223449
 21
-25.156294043
  0
LINE
  5
271
100
AcDbEntity
  8
RACCORDO
100
AcDbLine
 62
253
  6
CONTINUOUS
 10
-24.4904056724
 20
25.1156484893
 11
-24.4904056724
 21
-25.1156484893
  0
LINE
  5
272
100
AcDbEntity
  8
RACCORDO
100
AcDbLine
 62
253
  6
CONTINUOUS
 10
-24.3839973805
 20
-25.0157962394
 11
-24.3839973805
 21
25.0157962394
  0
LINE
  5
273
100
AcDbEntity
  8
RACCORDO
100
AcDbLine
 62
253
  6
CONTINUOUS
 10
-24.2874607247
 20
-25.038410661
 11
-24.2875441623
 21
25.0157962394
  0
LWPOLYLINE
  5
274
100
AcDbEntity
  8
RACCORDO
100
AcDbPolyline
 62
253
  6
CONTINUOUS
 90
40
 70
0
 10
-24.2875441623
 20
25.0157962394
 10
-24.2874557743
 20
25.0382472579
 10
-24.286512022
 20
25.0620097316
 10
-24.2847129051
 20
25.0870836604
 10
-24.2821825859
 20
25.1135128286
 10
-24.2787969017
 20
25.141253452
 10
-24.2741833648
 20
25.1701741773
 10
-24.2683128219
 20
25.2003989818
 10
-24.2612144243
 20
25.2318038881
 10
-24.252603141
 20
25.2638856104
 10
-24.2424474411
 20
25.2966354528
 10
-24.2307788513
 20
25.330062111
 10
-24.2174069259
 20
25.3636883874
 10
-24.202286344
 20
25.3975254073
 10
-24.1854624194
 20
25.4315620453
 10
-24.1668806576
 20
25.4652877268
 10
-24.1464922676
 20
25.4986959862
 10
-24.1243460304
 20
25.5317932891
 10
-24.1005338088
 20
25.564088457
 10
-24.0749982977
 20
25.59556811
 10
-24.0477967903
 20
25.6262456281
 10
-24.0191930467
 20
25.6556699729
 10
-23.9891148892
 20
25.6838169101
 10
-23.9576344836
 20
25.710710674
 10
-23.9252321083
 20
25.7359729298
 10
-23.8918634742
 20
25.7595407253
 10
-23.8575728618
 20
25.7814770127
 10
-23.8229734094
 20
25.8015923132
 10
-23.7880489999
 20
25.8198134668
 10
-23.7528157476
 20
25.8362136335
 10
-23.7179351437
 20
25.850822814
 10
-23.6834156968
 20
25.8635745121
 10
-23.6492489021
 20
25.874535224
 10
-23.6160707366
 20
25.883934439
 10
-23.5839045449
 20
25.8917238822
 10
-23.5527269917
 20
25.8979518286
 10
-23.5231040402
 20
25.9029925924
 10
-23.4952243498
 20
25.906970945
 10
-23.468899274
 20
25.9097621151
 10
-23.4441288187
 20
25.9113661026
  0
LWPOLYLINE
  5
275
100
AcDbEntity
  8
RACCORDO
100
AcDbPolyline
 62
253
  6
CONTINUOUS
 90
40
 70
0
 10
-24.3839973364
 20
25.0157962394
 10
-24.383680716
 20
25.0406862406
 10
-24.382666317
 20
25.0670923512
 10
-24.380832707
 20
25.0949915098
 10
-24.3780524922
 20
25.1243535548
 10
-24.3741928322
 20
25.1551400169
 10
-24.3691149468
 20
25.1873031211
 10
-24.362652304
 20
25.220895782
 10
-24.3546736479
 20
25.2557366542
 10
-24.3451215398
 20
25.2914176917
 10
-24.3338895709
 20
25.3278268864
 10
-24.3208568744
 20
25.3648997313
 10
-24.3060064241
 20
25.4023011637
 10
-24.2892536684
 20
25.4399304446
 10
-24.2705228141
 20
25.4776728032
 10
-24.2498696143
 20
25.5151821701
 10
-24.2272545082
 20
25.5523443546
 10
-24.2026452236
 20
25.5890441742
 10
-24.1761702449
 20
25.6249566905
 10
-24.1478268975
 20
25.659983718
 10
-24.117637176
 20
25.6940084126
 10
-24.0858286607
 20
25.7267165328
 10
-24.0524272165
 20
25.7580481244
 10
-24.017516316
 20
25.7878996615
 10
-23.9814771425
 20
25.8159577509
 10
-23.9443997495
 20
25.8421945099
 10
-23.9063891715
 20
25.8665816795
 10
-23.8679114538
 20
25.8888977259
 10
-23.8290882216
 20
25.9091756204
 10
-23.7900362486
 20
25.9274576271
 10
-23.7512568911
 20
25.9436377569
 10
-23.7128746358
 20
25.9578136013
 10
-23.6749979941
 20
25.970090486
 10
-23.638124917
 20
25.9804717457
 10
-23.6023581256
 20
25.9891082202
 10
-23.5677830467
 20
25.9961511994
 10
-23.5348743814
 20
26.0016888765
 10
-23.5038340535
 20
26.0058874812
 10
-23.4745836031
 20
26.0089454797
 10
-23.4471654047
 20
26.0110283092
  0
LWPOLYLINE
  5
276
100
AcDbEntity
  8
RACCORDO
100
AcDbPolyline
 62
253
  6
CONTINUOUS
 90
7
 70
0
 10
-24.8613168325
 20
25.2694570248
 10
-24.8574925242
 20
25.3688675697
 10
-24.8452167428
 20
25.4672153926
 10
-24.8244894732
 20
25.5645004935
 10
-24.7951475813
 20
25.6616608056
 10
-24.7573541386
 20
25.7577583957
 10
-24.711598426
 20
25.8499794638
  0
LWPOLYLINE
  5
277
100
AcDbEntity
  8
RACCORDO
100
AcDbPolyline
 62
253
  6
CONTINUOUS
 90
19
 70
0
 10
-24.7578334893
 20
25.2694570248
 10
-24.7541416906
 20
25.359447363
 10
-24.742945622
 20
25.4498148702
 10
-24.7240841868
 20
25.5399094327
 10
-24.6973581143
 20
25.6292184321
 10
-24.6627733284
 20
25.7168548292
 10
-24.6206233162
 20
25.8015978952
 10
-24.5710532829
 20
25.8828087778
 10
-24.5143845667
 20
25.9597758056
 10
-24.4514808541
 20
26.0313132276
 10
-24.3824181553
 20
26.0972929882
 10
-24.3081561922
 20
26.1568486586
 10
-24.2314283496
 20
26.2083183541
 10
-24.1553330996
 20
26.2507917408
 10
-24.0786952266
 20
26.2860382201
 10
-23.9976089888
 20
26.3159540985
 10
-23.9108102241
 20
26.3402539561
 10
-23.8202436845
 20
26.357681189
 10
-23.7264612207
 20
26.3676080504
  0
LINE
  5
278
100
AcDbEntity
  8
RACCORDO
100
AcDbLine
 62
7
  6
CONTINUOUS
 10
-24.731096979
 20
25.4530887256
 11
-24.75
 21
25.262095058
  0
LWPOLYLINE
  5
279
100
AcDbEntity
  8
0
100
AcDbPolyline
 62
7
  6
CONTINUOUS
 90
22
 70
0
 10
2.1348059885
 20
-23.1024335382
 10
2.1787167122
 20
-23.0959390329
 10
2.2226187615
 20
-23.0898184738
 10
2.2665121364
 20
-23.0840718608
 10
2.3103617581
 20
-23.0786279245
 10
2.3542027054
 20
-23.0735579343
 10
2.3981402151
 20
-23.0690756986
 10
2.4421817012
 20
-23.06516982
 10
2.4863197496
 20
-23.0618516957
 10
2.5306373549
 20
-23.0593693257
 10
2.5751952841
 20
-23.0577090158
 10
2.6199327701
 20
-23.0568844601
 10
2.6647505069
 20
-23.0571847412
 10
2.7096802372
 20
-23.0586102909
 10
2.7546902183
 20
-23.0611606774
 10
2.7995859152
 20
-23.0651236875
 10
2.8444520662
 20
-23.0705094029
 10
2.8892039329
 20
-23.0773077419
 10
2.9333927655
 20
-23.0857762466
 10
2.9768689807
 20
-23.0960007643
 10
3.0197821618
 20
-23.1078954477
 10
3.0621323088
 20
-23.1214602967
  0
LWPOLYLINE
  5
27A
100
AcDbEntity
  8
RACCORDO
100
AcDbPolyline
 62
253
  6
CONTINUOUS
 90
31
 70
0
 10
23.5594036839
 20
-26.3096983368
 10
23.6044211963
 20
-26.3067284213
 10
23.6521229716
 20
-26.3008856596
 10
23.7025089914
 20
-26.2921700516
 10
23.7560979259
 20
-26.2808449133
 10
23.8123710627
 20
-26.2666469289
 10
23.8697723203
 20
-26.2487861506
 10
23.9283479654
 20
-26.2270663506
 10
23.9880517117
 20
-26.2016837567
 10
24.0471886747
 20
-26.1724371057
 10
24.105718602
 20
-26.1390922423
 10
24.1636817549
 20
-26.1018833218
 10
24.2195040461
 20
-26.0613115464
 10
24.2730234875
 20
-26.0172015816
 10
24.3244021011
 20
-25.9697287621
 10
24.3725518353
 20
-25.9199202933
 10
24.4172595548
 20
-25.8677186303
 10
24.4587384388
 20
-25.8131813182
 10
24.496539916
 20
-25.757508198
 10
24.5305002218
 20
-25.700679327
 10
24.5607831597
 20
-25.642714648
 10
24.5874315098
 20
-25.5848738311
 10
24.6103153647
 20
-25.5271036125
 10
24.6295646582
 20
-25.4694572558
 10
24.6456119282
 20
-25.4133542228
 10
24.6583173585
 20
-25.3591319729
 10
24.6678207788
 20
-25.3064530467
 10
24.6749741909
 20
-25.2557245269
 10
24.6800615961
 20
-25.2070821079
 10
24.682798997
 20
-25.1603900954
 10
24.6831863947
 20
-25.1156484893
  0
LWPOLYLINE
  5
27B
100
AcDbEntity
  8
RACCORDO
100
AcDbPolyline
 62
253
  6
CONTINUOUS
 90
25
 70
0
 10
23.4471654073
 20
-26.0110283494
 10
21.1088006952
 20
-26.1482306166
 10
18.8471856086
 20
-26.2671895749
 10
16.6625338304
 20
-26.3692802248
 10
14.5577834601
 20
-26.4557290495
 10
12.5303306006
 20
-26.5279639749
 10
10.5720353811
 20
-26.5874602697
 10
8.6887369873
 20
-26.6351611013
 10
6.8747972438
 20
-26.6722857247
 10
5.1048224328
 20
-26.7001694123
 10
3.385261376
 20
-26.719368714
 10
1.7097816683
 20
-26.7305958606
 10
0.0337918368
 20
-26.7344393751
 10
-1.6425987476
 20
-26.7308920763
 10
-3.3194165778
 20
-26.7199493234
 10
-5.0414569249
 20
-26.701014931
 10
-6.8151775075
 20
-26.6733590416
 10
-8.6340033411
 20
-26.6364078843
 10
-10.5231546068
 20
-26.5888162531
 10
-12.4884379275
 20
-26.5293424198
 10
-14.5238434699
 20
-26.457027432
 10
-16.6368290734
 20
-26.3704064701
 10
-18.829770566
 20
-26.268053171
 10
-21.0999547434
 20
-26.1487222112
 10
-23.4471654074
 20
-26.0110283513
  0
LWPOLYLINE
  5
27C
100
AcDbEntity
  8
RACCORDO
100
AcDbPolyline
 62
253
  6
CONTINUOUS
 90
25
 70
0
 10
23.4441288187
 20
-25.9113661026
 10
21.1058329703
 20
-26.0463091589
 10
18.8445721566
 20
-26.1656931108
 10
16.6603898749
 20
-26.2695179583
 10
14.5559762264
 20
-26.3565025876
 10
12.5287132268
 20
-26.4279281124
 10
10.5706737426
 20
-26.4876378744
 10
8.6876572489
 20
-26.5359120868
 10
6.8739094563
 20
-26.5724705364
 10
5.1041641536
 20
-26.6003159246
 10
3.3848456955
 20
-26.6200513057
 10
1.7095555774
 20
-26.6310736254
 10
0.0337875581
 20
-26.634576422
 10
-1.6423812737
 20
-26.6313677938
 10
-3.3190094503
 20
-26.6206396426
 10
-5.0408066448
 20
-26.601161212
 10
-6.814297292
 20
-26.5735381521
 10
-8.6329309202
 20
-26.5371648128
 10
-10.5217990754
 20
-26.4889934887
 10
-12.4868255982
 20
-26.4292951798
 10
-14.5220409534
 20
-26.357798886
 10
-16.6346882217
 20
-26.2706439019
 10
-18.8271572065
 20
-26.1665433258
 10
-21.0969853715
 20
-26.0467840593
 10
-23.4441288187
 20
-25.9113661026
  0
LWPOLYLINE
  5
27D
100
AcDbEntity
  8
RACCORDO
100
AcDbPolyline
 62
253
  6
CONTINUOUS
 90
23
 70
0
 10
22.651075811
 20
-24.5928412196
 10
21.0804546905
 20
-24.6826536154
 10
19.5575678685
 20
-24.7646041138
 10
18.082415345
 20
-24.8386927149
 10
16.6565580998
 20
-24.9043546691
 10
15.2784351532
 20
-24.9621547259
 10
13.9433635653
 20
-25.0137871335
 10
12.6513471634
 20
-25.0593611591
 10
11.4023821202
 20
-25.0987675356
 10
10.1917740143
 20
-25.1333727094
 10
9.0195066523
 20
-25.1632717721
 10
7.8855962276
 20
-25.1883696322
 10
6.7853968987
 20
-25.209747461
 10
5.7185454174
 20
-25.2274865659
 10
4.6854050319
 20
-25.2415056395
 10
3.6824196451
 20
-25.2526419307
 10
2.709347086
 20
-25.2609531276
 10
1.7664295257
 20
-25.266381542
 10
0.8508373806
 20
-25.2695913583
 10
-0.0374266836
 20
-25.2706276121
 10
-0.8983653325
 20
-25.2694452678
 10
-1.7348161471
 20
-25.2665734023
 10
-2.5470742837
 20
-25.262046263
  0
LWPOLYLINE
  5
27E
100
AcDbEntity
  8
RACCORDO
100
AcDbPolyline
 62
253
  6
CONTINUOUS
 90
16
 70
0
 10
22.8342469017
 20
-24.6761148157
 10
19.7896958934
 20
-24.8474584348
 10
16.7450297085
 20
-24.9943185307
 10
13.7003040928
 20
-25.1166951033
 10
10.6555818649
 20
-25.2145836109
 10
7.610911633
 20
-25.2879885953
 10
4.5663277903
 20
-25.3369236813
 10
1.522028918
 20
-25.3613934002
 10
-1.5220722839
 20
-25.3613932208
 10
-4.5663702825
 20
-25.3369231734
 10
-7.6109530788
 20
-25.2879877602
 10
-10.6556213908
 20
-25.2145824791
 10
-13.7003387232
 20
-25.1166938542
 10
-16.7450557681
 20
-24.9943173937
 10
-19.789710409
 20
-24.8474575894
 10
-22.8342469017
 20
-24.6761144414
  0
LWPOLYLINE
  5
27F
100
AcDbEntity
  8
RACCORDO
100
AcDbPolyline
 62
253
  6
CONTINUOUS
 90
10
 70
0
 10
23.7359950183
 20
-26.4674138319
 10
18.4639944735
 20
-26.7599361184
 10
13.1903233066
 20
-26.9793278362
 10
7.9152698442
 20
-27.1255889853
 10
2.6386814079
 20
-27.1987195695
 10
-2.6387119179
 20
-27.198719585
 10
-7.9152973017
 20
-27.1255890201
 10
-13.1903446601
 20
-26.9793278711
 10
-18.4640066734
 20
-26.7599361417
 10
-23.7359950183
 20
-26.4674138319
  0
LWPOLYLINE
  5
280
100
AcDbEntity
  8
RACCORDO
100
AcDbPolyline
 62
253
  6
CONTINUOUS
 90
10
 70
0
 10
23.7264613681
 20
-26.3676104173
 10
18.4583718268
 20
-26.6600032282
 10
13.1863882444
 20
-26.8793593758
 10
7.9120087438
 20
-27.0256159041
 10
2.6372846899
 20
-27.0987233345
 10
-2.6371382067
 20
-27.0987244642
 10
-7.9118724872
 20
-27.0256193427
 10
-13.1862771001
 20
-26.8793637732
 10
-18.4583060659
 20
-26.6600061575
 10
-23.7264613652
 20
-26.3676103703
  0
LWPOLYLINE
  5
281
100
AcDbEntity
  8
RACCORDO
100
AcDbPolyline
 62
7
  6
CONTINUOUS
 90
10
 70
0
 10
23.7185780297
 20
-26.3602231048
 10
18.4500019456
 20
-26.6524877507
 10
13.1799794415
 20
-26.8716862352
 10
7.9087991655
 20
-27.0178185582
 10
2.6364597027
 20
-27.0908847196
 10
-2.6364597033
 20
-27.0908847195
 10
-7.9087991661
 20
-27.017818558
 10
-13.1799794419
 20
-26.871686235
 10
-18.4500019459
 20
-26.6524877506
 10
-23.7185780298
 20
-26.3602231048
  0
LWPOLYLINE
  5
282
100
AcDbEntity
  8
RACCORDO
100
AcDbPolyline
 62
253
  6
CONTINUOUS
 90
16
 70
0
 10
22.3665206418
 20
-22.5662465487
 10
22.3873614872
 20
-22.5650991544
 10
22.4079747914
 20
-22.5617836671
 10
22.4281354968
 20
-22.5563362854
 10
22.4476234874
 20
-22.5488164841
 10
22.4662259922
 20
-22.5393063647
 10
22.483739908
 20
-22.5279097592
 10
22.4999740165
 20
-22.5147510962
 10
22.5147510725
 20
-22.4999740428
 10
22.5279097391
 20
-22.4837399356
 10
22.539306349
 20
-22.4662260195
 10
22.5488164729
 20
-22.4476235125
 10
22.5563362785
 20
-22.428135518
 10
22.5617836638
 20
-22.4079748071
 10
22.5650991535
 20
-22.3873614958
 10
22.5662465487
 20
-22.3665206418
  0
LWPOLYLINE
  5
283
100
AcDbEntity
  8
RACCORDO
100
AcDbPolyline
 62
253
  6
CONTINUOUS
 90
16
 70
0
 10
22.428383675
 20
-23.9573597121
 10
22.4486700984
 20
-23.9564344521
 10
22.4687471477
 20
-23.9545496264
 10
22.4884076004
 20
-23.9517246876
 10
22.5074485335
 20
-23.9479887916
 10
22.5256734175
 20
-23.9433804967
 10
22.5428941447
 20
-23.937947366
 10
22.5589329722
 20
-23.9317454758
 10
22.5736243553
 20
-23.9248388374
 10
22.5868166557
 20
-23.9172987368
 10
22.5983737088
 20
-23.9092029976
 10
22.6081762278
 20
-23.900635179
 10
22.6161230342
 20
-23.8916837134
 10
22.6221321042
 20
-23.8824409929
 10
22.6261414145
 20
-23.8730024151
 10
22.6281095819
 20
-23.8634653995
  0
LWPOLYLINE
  5
284
100
AcDbEntity
  8
RACCORDO
100
AcDbPolyline
 62
253
  6
CONTINUOUS
 90
16
 70
0
 10
22.3969919997
 20
-22.8308255347
 10
22.4172784796
 20
-22.829900271
 10
22.4373555747
 20
-22.8280154372
 10
22.4570160616
 20
-22.8251904875
 10
22.4760570165
 20
-22.8214545793
 10
22.4942819104
 20
-22.8168462723
 10
22.5115026369
 20
-22.8114131307
 10
22.5275414541
 20
-22.805211232
 10
22.5422328192
 20
-22.7983045886
 10
22.5554250967
 20
-22.7907644865
 10
22.566982124
 20
-22.7826687502
 10
22.5767846165
 20
-22.774100939
 10
22.5847313988
 20
-22.7651494844
 10
22.5907404491
 20
-22.7559067781
 10
22.5947497455
 20
-22.7464682177
 10
22.5967179066
 20
-22.7369312221
  0
LWPOLYLINE
  5
285
100
AcDbEntity
  8
0
100
AcDbPolyline
 62
7
  6
CONTINUOUS
 90
28
 70
0
 10
2.7112456209
 20
-23.8821231746
 10
2.7283567323
 20
-23.8815770803
 10
2.7454042662
 20
-23.8804147547
 10
2.7623882226
 20
-23.878636198
 10
2.7793297314
 20
-23.876314651
 10
2.7962076628
 20
-23.8733768728
 10
2.8129586265
 20
-23.8696031404
 10
2.8296875401
 20
-23.8649901542
 10
2.846289486
 20
-23.8595412139
 10
2.8623863221
 20
-23.8530464951
 10
2.8779924063
 20
-23.8454609937
 10
2.8930933807
 20
-23.8368297138
 10
2.9072680283
 20
-23.8270778441
 10
2.9204212925
 20
-23.8160652742
 10
2.9326482299
 20
-23.8039321145
 10
2.943812794
 20
-23.7910238848
 10
2.9538374643
 20
-23.777323637
 10
2.9627997613
 20
-23.7628483193
 10
2.970796199
 20
-23.747994295
 10
2.9778170494
 20
-23.7328466795
 10
2.9838720406
 20
-23.7173203575
 10
2.9890868709
 20
-23.7015563463
 10
2.9934994495
 20
-23.6855900973
 10
2.9970718673
 20
-23.669386159
 10
2.9998160955
 20
-23.6529791943
 10
3.0017361244
 20
-23.6363807573
 10
3.0028279636
 20
-23.6195792938
 10
3.0030916133
 20
-23.6025748039
  0
LINE
  5
286
100
AcDbEntity
  8
RACCORDO
100
AcDbLine
 62
253
  6
CONTINUOUS
 10
-24.8613168325
 20
-25.2694570248
 11
-24.7578337795
 21
-25.2694570248
  0
LINE
  5
287
100
AcDbEntity
  8
RACCORDO
100
AcDbLine
 62
253
  6
CONTINUOUS
 10
24.8613168325
 20
-25.2694570248
 11
24.7578337795
 21
-25.2694570248
  0
LINE
  5
288
100
AcDbEntity
  8
RACCORDO
100
AcDbLine
 62
253
  6
CONTINUOUS
 10
-24.6831863947
 20
-25.1156484893
 11
-24.4904056724
 21
-25.1156484893
  0
LINE
  5
289
100
AcDbEntity
  8
RACCORDO
100
AcDbLine
 62
253
  6
CONTINUOUS
 10
24.6831863947
 20
-25.1156484893
 11
24.4904056724
 21
-25.1156484893
  0
LINE
  5
28A
100
AcDbEntity
  8
RACCORDO
100
AcDbLine
 62
253
  6
CONTINUOUS
 10
-24.3839973805
 20
-25.0157962394
 11
-24.2875441623
 21
-25.0157962394
  0
LINE
  5
28B
100
AcDbEntity
  8
RACCORDO
100
AcDbLine
 62
253
  6
CONTINUOUS
 10
24.3839973805
 20
-25.0157962394
 11
24.2875441623
 21
-25.0157962394
  0
LINE
  5
28C
100
AcDbEntity
  8
0
100
AcDbLine
 62
7
  6
CONTINUOUS
 10
-2.967115
 20
-24.881259
 11
-2.636029
 21
-24.881259
  0
LINE
  5
28D
100
AcDbEntity
  8
0
100
AcDbLine
 62
7
  6
CONTINUOUS
 10
-1.91806
 20
-24.881259
 11
-1.54236
 21
-24.881259
  0
LINE
  5
28E
100
AcDbEntity
  8
0
100
AcDbLine
 62
7
  6
CONTINUOUS
 10
-1.340109
 20
-24.881259
 11
-0.980686
 21
-24.881259
  0
LINE
  5
28F
100
AcDbEntity
  8
0
100
AcDbLine
 62
7
  6
CONTINUOUS
 10
-0.458869
 20
-24.881259
 11
-0.406177
 21
-24.881259
  0
LINE
  5
290
100
AcDbEntity
  8
0
100
AcDbLine
 62
7
  6
CONTINUOUS
 10
0.117719
 20
-24.881259
 11
0.485254
 21
-24.881259
  0
LINE
  5
291
100
AcDbEntity
  8
0
100
AcDbLine
 62
7
  6
CONTINUOUS
 10
0.544249
 20
-24.881259
 11
0.915873
 21
-24.881259
  0
LINE
  5
292
100
AcDbEntity
  8
0
100
AcDbLine
 62
7
  6
CONTINUOUS
 10
1.62851
 20
-24.881259
 11
2.024482
 21
-24.881259
  0
LINE
  5
293
100
AcDbEntity
  8
0
100
AcDbLine
 62
7
  6
CONTINUOUS
 10
2.1348059885
 20
-24.88125911
 11
2.5089943883
 21
-24.88125911
  0
LINE
  5
294
100
AcDbEntity
  8
0
100
AcDbLine
 62
7
  6
CONTINUOUS
 10
3.0843272738
 20
-24.88125911
 11
3.4457071037
 21
-24.88125911
  0
LINE
  5
295
100
AcDbEntity
  8
0
100
AcDbLine
 62
7
  6
CONTINUOUS
 10
1.019543
 20
-24.521944
 11
1.531184
 21
-24.521944
  0
LINE
  5
296
100
AcDbEntity
  8
0
100
AcDbLine
 62
7
  6
CONTINUOUS
 10
1.4561
 20
-24.243908
 11
1.096394
 21
-24.243908
  0
LINE
  5
297
100
AcDbEntity
  8
0
100
AcDbLine
 62
7
  6
CONTINUOUS
 10
2.5089943883
 20
-24.1768957418
 11
2.7104358061
 21
-24.1768957418
  0
LINE
  5
298
100
AcDbEntity
  8
0
100
AcDbLine
 62
7
  6
CONTINUOUS
 10
2.7112456209
 20
-23.8821231746
 11
2.4965367382
 21
-23.8821231746
  0
LINE
  5
299
100
AcDbEntity
  8
RACCORDO
100
AcDbLine
 62
253
  6
CONTINUOUS
 10
-2.5470742837
 20
-25.262046263
 11
-4.1000791659
 21
-25.248349756
  0
LINE
  5
29A
100
AcDbEntity
  8
RACCORDO
100
AcDbLine
 62
253
  6
CONTINUOUS
 10
-4.1000791659
 20
-25.248349756
 11
-5.5644123814
 21
-25.2296236221
  0
LINE
  5
29B
100
AcDbEntity
  8
RACCORDO
100
AcDbLine
 62
253
  6
CONTINUOUS
 10
-5.5644123814
 20
-25.2296236221
 11
-6.9378291566
 21
-25.2070304226
  0
LINE
  5
29C
100
AcDbEntity
  8
RACCORDO
100
AcDbLine
 62
253
  6
CONTINUOUS
 10
-6.9378291566
 20
-25.2070304226
 11
-8.2198482068
 21
-25.1813213508
  0
LINE
  5
29D
100
AcDbEntity
  8
RACCORDO
100
AcDbLine
 62
253
  6
CONTINUOUS
 10
-8.2198482068
 20
-25.1813213508
 11
-9.4082757833
 21
-25.1536329789
  0
LINE
  5
29E
100
AcDbEntity
  8
RACCORDO
100
AcDbLine
 62
253
  6
CONTINUOUS
 10
-9.4082757833
 20
-25.1536329789
 11
-10.5105357792
 21
-25.12469812
  0
LINE
  5
29F
100
AcDbEntity
  8
RACCORDO
100
AcDbLine
 62
253
  6
CONTINUOUS
 10
-10.5105357792
 20
-25.12469812
 11
-11.5315714928
 21
-25.0949341532
  0
LINE
  5
2A0
100
AcDbEntity
  8
RACCORDO
100
AcDbLine
 62
253
  6
CONTINUOUS
 10
-11.5315714928
 20
-25.0949341532
 11
-12.4804021976
 21
-25.0648341009
  0
LINE
  5
2A1
100
AcDbEntity
  8
RACCORDO
100
AcDbLine
 62
253
  6
CONTINUOUS
 10
-12.4804021976
 20
-25.0648341009
 11
-13.7853889728
 21
-25.0195630861
  0
LINE
  5
2A2
100
AcDbEntity
  8
RACCORDO
100
AcDbLine
 62
253
  6
CONTINUOUS
 10
-13.7853889728
 20
-25.0195630861
 11
-14.9625490096
 21
-24.9748662714
  0
LINE
  5
2A3
100
AcDbEntity
  8
RACCORDO
100
AcDbLine
 62
253
  6
CONTINUOUS
 10
-14.9625490096
 20
-24.9748662714
 11
-16.0223543273
 21
-24.9314928793
  0
LINE
  5
2A4
100
AcDbEntity
  8
RACCORDO
100
AcDbLine
 62
253
  6
CONTINUOUS
 10
-16.0223543273
 20
-24.9314928793
 11
-17.2689062628
 21
-24.876682118
  0
LINE
  5
2A5
100
AcDbEntity
  8
RACCORDO
100
AcDbLine
 62
253
  6
CONTINUOUS
 10
-17.2689062628
 20
-24.876682118
 11
-18.3454411023
 21
-24.8260451358
  0
LINE
  5
2A6
100
AcDbEntity
  8
RACCORDO
100
AcDbLine
 62
253
  6
CONTINUOUS
 10
-18.3454411023
 20
-24.8260451358
 11
-19.5079694194
 21
-24.7679031603
  0
LINE
  5
2A7
100
AcDbEntity
  8
RACCORDO
100
AcDbLine
 62
253
  6
CONTINUOUS
 10
-19.5079694194
 20
-24.7679031603
 11
-20.5637235094
 21
-24.7120166494
  0
LINE
  5
2A8
100
AcDbEntity
  8
RACCORDO
100
AcDbLine
 62
253
  6
CONTINUOUS
 10
-20.5637235094
 20
-24.7120166494
 11
-21.6136555265
 21
-24.6535054133
  0
LWPOLYLINE
  5
2A9
100
AcDbEntity
  8
RACCORDO
100
AcDbPolyline
 62
253
  6
CONTINUOUS
 90
31
 70
0
 10
-23.5594036839
 20
-26.3096983368
 10
-21.8966581579
 20
-26.4088364204
 10
-20.2506693044
 20
-26.5002188768
 10
-18.621449438
 20
-26.583845706
 10
-17.010427234
 20
-26.6594669714
 10
-15.4161970902
 20
-26.7273326096
 10
-13.8345184141
 20
-26.7881924303
 10
-12.2653789154
 20
-26.8421218853
 10
-10.7088096403
 20
-26.8890455228
 10
-9.1606333247
 20
-26.9294867961
 10
-7.620865747
 20
-26.9635182088
 10
-6.0895071217
 20
-26.9910672574
 10
-4.5623557673
 20
-27.0124398849
 10
-3.039436933
 20
-27.0277046519
 10
-1.5207397613
 20
-27.0367929978
 10
-0.0020078843
 20
-27.0398051837
 10
1.5167549675
 20
-27.0368086286
 10
3.0355386573
 20
-27.0277359135
 10
4.558589943
 20
-27.0124850432
 10
6.0859212944
 20
-26.991124379
 10
7.6175058421
 20
-26.9635855596
 10
9.1575308073
 20
-26.9295615056
 10
10.7059960156
 20
-26.8891245071
 10
12.2628856358
 20
-26.842202274
 10
13.8323623338
 20
-26.7882708566
 10
15.4143972856
 20
-26.7274053551
 10
17.0090005444
 20
-26.6595306693
 10
18.6203914188
 20
-26.5838975496
 10
20.2499684144
 20
-26.500256246
 10
21.8963099428
 20
-26.4088565084
 10
23.5594036839
 20
-26.3096983368
  0
LINE
  5
2AA
100
AcDbEntity
  8
RACCORDO
100
AcDbLine
 62
253
  6
CONTINUOUS
 10
-21.6136555265
 20
-24.6535054133
 11
-22.6510757023
 21
-24.5928411031
  0
LWPOLYLINE
  5
2AB
100
AcDbEntity
  8
RACCORDO
100
AcDbPolyline
 62
253
  6
CONTINUOUS
 90
31
 70
0
 10
-23.5533231871
 20
-26.1103772147
 10
-21.8910785259
 20
-26.2098216334
 10
-20.2454967623
 20
-26.3010809984
 10
-18.6166388722
 20
-26.3843728127
 10
-17.0060147238
 20
-26.459848329
 10
-15.4122217136
 20
-26.5278015505
 10
-13.8309450962
 20
-26.5886061118
 10
-12.2621979407
 20
-26.6424221248
 10
-10.7060505358
 20
-26.6894072218
 10
-9.1582663224
 20
-26.7298221024
 10
-7.618885452
 20
-26.7637709292
 10
-6.0879398831
 20
-26.7913557779
 10
-4.5611758542
 20
-26.8127291726
 10
-3.0386417974
 20
-26.8279404798
 10
-1.5203537112
 20
-26.837040334
 10
-0.0020067823
 20
-26.8400792768
 10
1.5163711087
 20
-26.8370562345
 10
3.0347456874
 20
-26.827971592
 10
4.5574121729
 20
-26.8127742918
 10
6.0843561569
 20
-26.7914131181
 10
7.6155275833
 20
-26.7638381681
 10
9.1551657951
 20
-26.7298967418
 10
10.7032388472
 20
-26.6894863566
 10
12.2597065096
 20
-26.6425024419
 10
13.8287907892
 20
-26.5886844504
 10
15.4104236518
 20
-26.5278744251
 10
17.0045897353
 20
-26.4599120771
 10
18.6155824291
 20
-26.3844245637
 10
20.2447971772
 20
-26.3011182744
 10
21.8907311184
 20
-26.2098416572
 10
23.5533231872
 20
-26.1103772164
  0
LWPOLYLINE
  5
2AC
100
AcDbEntity
  8
RACCORDO
100
AcDbPolyline
 62
253
  6
CONTINUOUS
 90
39
 70
0
 10
-23.4441288187
 20
-25.9113661026
 10
-23.4680694786
 20
-25.9098392218
 10
-23.4936377066
 20
-25.9071611643
 10
-23.520833497
 20
-25.9033319299
 10
-23.54984518
 20
-25.8984803761
 10
-23.580484412
 20
-25.8924776456
 10
-23.6121861782
 20
-25.8849371661
 10
-23.6449748178
 20
-25.8758127833
 10
-23.6788259818
 20
-25.8651506515
 10
-23.7131016284
 20
-25.8527026616
 10
-23.7478125026
 20
-25.8384029445
 10
-23.7829478552
 20
-25.8223173692
 10
-23.8178374093
 20
-25.804395434
 10
-23.8524675454
 20
-25.7845628059
 10
-23.8868518852
 20
-25.7628938179
 10
-23.9203610204
 20
-25.7395609672
 10
-23.9529522092
 20
-25.7144987104
 10
-23.9846682015
 20
-25.6877725909
 10
-24.0150078308
 20
-25.6597517366
 10
-24.0438989888
 20
-25.6304085334
 10
-24.0714137955
 20
-25.5997705953
 10
-24.0972674293
 20
-25.5682898919
 10
-24.1214007377
 20
-25.5359513245
 10
-24.1438728851
 20
-25.5027699919
 10
-24.1645765269
 20
-25.4692431594
 10
-24.1834609739
 20
-25.4353634142
 10
-24.2005769252
 20
-25.4011381691
 10
-24.2159691185
 20
-25.3670869282
 10
-24.2295905338
 20
-25.3332198905
 10
-24.2414881983
 20
-25.299526857
 10
-24.2518479191
 20
-25.2664967351
 10
-24.2606360386
 20
-25.2341257333
 10
-24.2678862186
 20
-25.2024176431
 10
-24.2738852447
 20
-25.1718727464
 10
-24.2786040684
 20
-25.1425924245
 10
-24.28207174
 20
-25.1144752962
 10
-24.2846621917
 20
-25.0877174997
 10
-24.2865000678
 20
-25.0623844144
 10
-24.2874607247
 20
-25.038410661
  0
LWPOLYLINE
  5
2AD
100
AcDbEntity
  8
RACCORDO
100
AcDbPolyline
 62
253
  6
CONTINUOUS
 90
40
 70
0
 10
-23.4471654062
 20
-26.0110283322
 10
-23.4736656463
 20
-26.009027452
 10
-23.5020741817
 20
-26.0060960016
 10
-23.5323509001
 20
-26.0020672047
 10
-23.5645782687
 20
-25.996740101
 10
-23.5985551122
 20
-25.9899450948
 10
-23.6338039042
 20
-25.9815893221
 10
-23.6702406441
 20
-25.9715157635
 10
-23.7077643558
 20
-25.9595675532
 10
-23.74587363
 20
-25.9457342925
 10
-23.7844601964
 20
-25.9299026867
 10
-23.8233989069
 20
-25.9119676686
 10
-23.8621819816
 20
-25.8920278999
 10
-23.9006908654
 20
-25.8700324104
 10
-23.9388005448
 20
-25.8459407566
 10
-23.976034704
 20
-25.8199695783
 10
-24.012284697
 20
-25.7921394013
 10
-24.0474547626
 20
-25.7624721858
 10
-24.0811501414
 20
-25.7312817086
 10
-24.1132826786
 20
-25.6986663628
 10
-24.1438201406
 20
-25.6646827355
 10
-24.1725208802
 20
-25.6296521418
 10
-24.1993578413
 20
-25.5936911341
 10
-24.224329342
 20
-25.5568954917
 10
-24.2472975119
 20
-25.5195980123
 10
-24.2682914146
 20
-25.4819154633
 10
-24.2873470829
 20
-25.4439616904
 10
-24.3044029764
 20
-25.4060906445
 10
-24.3195337683
 20
-25.3684189766
 10
-24.3328216259
 20
-25.3310490457
 10
-24.344280149
 20
-25.2943253049
 10
-24.3540295294
 20
-25.2583201172
 10
-24.3621774244
 20
-25.2231419798
 10
-24.3687830712
 20
-25.1891919205
 10
-24.3739816671
 20
-25.1566278374
 10
-24.3779346616
 20
-25.1254234965
 10
-24.38077622
 20
-25.0956954788
 10
-24.3826448422
 20
-25.0675064645
 10
-24.3836762012
 20
-25.0408654327
 10
-24.3839973073
 20
-25.0157962394
  0
LWPOLYLINE
  5
2AE
100
AcDbEntity
  8
RACCORDO
100
AcDbPolyline
 62
253
  6
CONTINUOUS
 90
16
 70
0
 10
-22.6281095819
 20
-23.8634653995
 10
-22.6261414126
 20
-23.8730024209
 10
-22.6221320983
 20
-23.8824410038
 10
-22.6161230228
 20
-23.8916837284
 10
-22.6081762095
 20
-23.9006351971
 10
-22.5983736828
 20
-23.9092030179
 10
-22.5868166222
 20
-23.9172987579
 10
-22.5736243152
 20
-23.9248388581
 10
-22.5589329269
 20
-23.9317454951
 10
-22.5428940965
 20
-23.9379473828
 10
-22.5256733691
 20
-23.9433805104
 10
-22.5074484879
 20
-23.9479888018
 10
-22.4884075611
 20
-23.9517246943
 10
-22.4687471182
 20
-23.9545496299
 10
-22.4486700821
 20
-23.9564344532
 10
-22.428383675
 20
-23.9573597121
  0
LWPOLYLINE
  5
2AF
100
AcDbEntity
  8
RACCORDO
100
AcDbPolyline
 62
253
  6
CONTINUOUS
 90
16
 70
0
 10
-22.5967179066
 20
-22.7369312221
 10
-22.5947497455
 20
-22.7464682177
 10
-22.5907404491
 20
-22.7559067781
 10
-22.5847313988
 20
-22.7651494844
 10
-22.5767846165
 20
-22.774100939
 10
-22.566982124
 20
-22.7826687502
 10
-22.5554250967
 20
-22.7907644865
 10
-22.5422328192
 20
-22.7983045886
 10
-22.5275414541
 20
-22.805211232
 10
-22.5115026369
 20
-22.8114131306
 10
-22.4942819104
 20
-22.8168462722
 10
-22.4760570165
 20
-22.8214545792
 10
-22.4570160616
 20
-22.8251904874
 10
-22.4373555747
 20
-22.8280154371
 10
-22.4172784796
 20
-22.8299002709
 10
-22.3969919997
 20
-22.8308255347
  0
LWPOLYLINE
  5
2B0
100
AcDbEntity
  8
RACCORDO
100
AcDbPolyline
 62
253
  6
CONTINUOUS
 90
10
 70
0
 10
-23.7359950135
 20
26.4674138319
 10
-23.7348681078
 20
26.4501554753
 10
-23.7336748565
 20
26.4334170828
 10
-23.7324512099
 20
26.4177029503
 10
-23.7312340342
 20
26.4034865145
 10
-23.7300600006
 20
26.3911960893
 10
-23.7289644805
 20
26.3812019619
 10
-23.7279804798
 20
26.373805236
 10
-23.7271376447
 20
26.369228761
 10
-23.7264613681
 20
26.3676104172
  0
LINE
  5
2B1
100
AcDbEntity
  8
RACCORDO
100
AcDbLine
 62
253
  6
CONTINUOUS
 10
-22.391619563
 20
22.7273493858
 11
-22.3932706687
 21
22.7536139024
  0
LINE
  5
2B2
100
AcDbEntity
  8
RACCORDO
100
AcDbLine
 62
253
  6
CONTINUOUS
 10
-23.5594036851
 20
26.3096983368
 11
-23.5570553199
 21
26.2696140229
  0
LINE
  5
2B3
100
AcDbEntity
  8
RACCORDO
100
AcDbLine
 62
253
  6
CONTINUOUS
 10
-22.588501194
 20
22.5390495469
 11
-22.5904463022
 21
22.5740295828
  0
LINE
  5
2B4
100
AcDbEntity
  8
RACCORDO
100
AcDbLine
 62
253
  6
CONTINUOUS
 10
-22.3932706687
 20
22.7536139024
 11
-22.3947139696
 21
22.7800157183
  0
LWPOLYLINE
  5
2B5
100
AcDbEntity
  8
RACCORDO
100
AcDbPolyline
 62
253
  6
CONTINUOUS
 90
13
 70
0
 10
-23.5570553199
 20
26.2696140229
 10
-23.555072674
 20
26.2311626606
 10
-23.5542444129
 20
26.2130432206
 10
-23.5535365166
 20
26.1959106839
 10
-23.5529562131
 20
26.1799399835
 10
-23.5525094277
 20
26.1652941897
 10
-23.5522007222
 20
26.1521228443
 10
-23.5520332489
 20
26.1405604345
 10
-23.5520087176
 20
26.1307250191
 10
-23.5521273789
 20
26.1227170234
 10
-23.5523880211
 20
26.1166182137
 10
-23.5527879829
 20
26.1124908624
 10
-23.5533231805
 20
26.1103771121
  0
LINE
  5
2B6
100
AcDbEntity
  8
RACCORDO
100
AcDbLine
 62
253
  6
CONTINUOUS
 10
-22.5904463022
 20
22.5740295828
 11
-22.5921967057
 21
22.6104203206
  0
LINE
  5
2B7
100
AcDbEntity
  8
RACCORDO
100
AcDbLine
 62
253
  6
CONTINUOUS
 10
-22.3947139696
 20
22.7800157183
 11
-22.3959542043
 21
22.8058920848
  0
LWPOLYLINE
  5
2B8
100
AcDbEntity
  8
RACCORDO
100
AcDbPolyline
 62
253
  6
CONTINUOUS
 90
28
 70
0
 10
-22.428383675
 20
23.9573597121
 10
-22.4298949665
 20
23.9925216926
 10
-22.4321047289
 20
24.0266897496
 10
-22.4350129623
 20
24.059863883
 10
-22.438664587
 20
24.0920325304
 10
-22.4430146827
 20
24.1232072542
 10
-22.4479284881
 20
24.1534227423
 10
-22.4533928624
 20
24.1826717562
 10
-22.4594209464
 20
24.2109615344
 10
-22.4659174015
 20
24.23834848
 10
-22.4728697477
 20
24.2648274721
 10
-22.480290465
 20
24.2904036315
 10
-22.4881216545
 20
24.3151487241
 10
-22.4963541336
 20
24.3390680591
 10
-22.504997085
 20
24.3621563271
 10
-22.5140201567
 20
24.3844693656
 10
-22.5234133224
 20
24.4060106519
 10
-22.5331866086
 20
24.4267767087
 10
-22.5433397433
 20
24.4468129404
 10
-22.5538743958
 20
24.4661417369
 10
-22.5647888969
 20
24.4847407084
 10
-22.5760779676
 20
24.5025880909
 10
-22.5877617753
 20
24.5197138267
 10
-22.5998201524
 20
24.5360879734
 10
-22.6121873175
 20
24.5515989394
 10
-22.6248413431
 20
24.5662095276
 10
-22.6378041566
 20
24.5799569352
 10
-22.6510757579
 20
24.5928411621
  0
LINE
  5
2B9
100
AcDbEntity
  8
RACCORDO
100
AcDbLine
 62
253
  6
CONTINUOUS
 10
-22.5921967057
 20
22.6104203206
 11
-22.5937439299
 21
22.6473039114
  0
LINE
  5
2BA
100
AcDbEntity
  8
RACCORDO
100
AcDbLine
 62
253
  6
CONTINUOUS
 10
-22.3959542043
 20
22.8058920848
 11
-22.3969919997
 21
22.8308255347
  0
LINE
  5
2BB
100
AcDbEntity
  8
RACCORDO
100
AcDbLine
 62
253
  6
CONTINUOUS
 10
-22.5937439299
 20
22.6473039114
 11
-22.595680144
 21
22.7019536993
  0
LINE
  5
2BC
100
AcDbEntity
  8
RACCORDO
100
AcDbLine
 62
253
  6
CONTINUOUS
 10
-22.595680144
 20
22.7019536993
 11
-22.6281095819
 21
23.8634653995
  0
LINE
  5
2BD
100
AcDbEntity
  8
RACCORDO
100
AcDbLine
 62
253
  6
CONTINUOUS
 10
-22.3969919997
 20
22.8308255347
 11
-22.428383675
 21
23.9573597121
  0
LWPOLYLINE
  5
2BE
100
AcDbEntity
  8
RACCORDO
100
AcDbPolyline
 62
253
  6
CONTINUOUS
 90
28
 70
0
 10
-22.6281095819
 20
23.8634653995
 10
-22.6288172695
 20
23.8986275263
 10
-22.6299318302
 20
23.9327956089
 10
-22.631424313
 20
23.9659696473
 10
-22.6332627498
 20
23.9981380772
 10
-22.6354204886
 20
24.029312463
 10
-22.6378818748
 20
24.0595274969
 10
-22.6406242339
 20
24.0887758822
 10
-22.6436245106
 20
24.1170649156
 10
-22.6468760407
 20
24.1444511803
 10
-22.65036051
 20
24.1709295809
 10
-22.6540602535
 20
24.1965052128
 10
-22.6579780007
 20
24.2212499442
 10
-22.6621006569
 20
24.2451691275
 10
-22.6664142355
 20
24.2682574103
 10
-22.6709274741
 20
24.290570604
 10
-22.6756293614
 20
24.3121122835
 10
-22.6805104057
 20
24.3328788738
 10
-22.6855881066
 20
24.352915462
 10
-22.6908589329
 20
24.3722444688
 10
-22.6963119466
 20
24.3908434735
 10
-22.7019582507
 20
24.4086903005
 10
-22.7078015393
 20
24.4258140168
 10
-22.7138257398
 20
24.4421855555
 10
-22.7200127061
 20
24.4576955404
 10
-22.7263504956
 20
24.4723075128
 10
-22.7328343357
 20
24.4860579315
 10
-22.7394555984
 20
24.4989467965
  0
LINE
  5
2BF
100
AcDbEntity
  8
RACCORDO
100
AcDbLine
 62
253
  6
CONTINUOUS
 10
-22.8342469017
 20
24.6761137992
 11
-22.8342469017
 21
-24.6761121337
  0
LINE
  5
2C0
100
AcDbEntity
  8
RACCORDO
100
AcDbLine
 62
253
  6
CONTINUOUS
 10
-22.6281095819
 20
23.8634653995
 11
-22.6281095819
 21
-23.8634653995
  0
LINE
  5
2C1
100
AcDbEntity
  8
RACCORDO
100
AcDbLine
 62
7
  6
CONTINUOUS
 10
-22.4737961104
 20
22.2740702034
 11
-22.4737961104
 21
-22.2740702034
  0
LWPOLYLINE
  5
2C2
100
AcDbEntity
  8
RACCORDO
100
AcDbPolyline
 62
253
  6
CONTINUOUS
 90
28
 70
0
 10
-22.6281095819
 20
-23.8634653995
 10
-22.6288158906
 20
-23.8985739557
 10
-22.6299271419
 20
-23.9326735601
 10
-22.6314138276
 20
-23.9657642129
 10
-22.633242513
 20
-23.9978191874
 10
-22.6353866853
 20
-24.0288652101
 10
-22.6378341248
 20
-24.058982461
 10
-22.6405644138
 20
-24.0881777876
 10
-22.6435545456
 20
-24.1164443423
 10
-22.6467996475
 20
-24.1438417625
 10
-22.6502841988
 20
-24.1703771974
 10
-22.6539900991
 20
-24.1960434979
 10
-22.6579162447
 20
-24.2208788539
 10
-22.6620498503
 20
-24.2448873328
 10
-22.6663766718
 20
-24.2680648672
 10
-22.6708988777
 20
-24.290437445
 10
-22.675603691
 20
-24.3120012196
 10
-22.6804815465
 20
-24.3327600375
 10
-22.6855444854
 20
-24.3527514258
 10
-22.6907825005
 20
-24.3719796193
 10
-22.6961883927
 20
-24.3904403832
 10
-22.7017838144
 20
-24.4081585397
 10
-22.7075591524
 20
-24.4251414581
 10
-22.7135111068
 20
-24.4413817691
 10
-22.7196765365
 20
-24.456882187
 10
-22.7260662172
 20
-24.4716436167
 10
-22.7326610832
 20
-24.4856651532
 10
-22.7394555985
 20
-24.4989467967
  0
LINE
  5
2C3
100
AcDbEntity
  8
RACCORDO
100
AcDbLine
 62
253
  6
CONTINUOUS
 10
-22.3969919997
 20
-22.8308255347
 11
-22.428383675
 21
-23.9573597121
  0
LWPOLYLINE
  5
2C4
100
AcDbEntity
  8
RACCORDO
100
AcDbPolyline
 62
253
  6
CONTINUOUS
 90
11
 70
0
 10
-23.5542444157
 20
-26.2130432602
 10
-23.5535365202
 20
-26.1959107326
 10
-23.5529562174
 20
-26.1799400413
 10
-23.5525094325
 20
-26.1652942561
 10
-23.5522007277
 20
-26.1521229188
 10
-23.5520332547
 20
-26.1405605164
 10
-23.5520087238
 20
-26.1307251075
 10
-23.5521273853
 20
-26.1227171172
 10
-23.5523880276
 20
-26.1166183118
 10
-23.5527879895
 20
-26.1124909634
 10
-23.5533231871
 20
-26.1103772147
  0
LWPOLYLINE
  5
2C5
100
AcDbEntity
  8
RACCORDO
100
AcDbPolyline
 62
253
  6
CONTINUOUS
 90
28
 70
0
 10
-22.428383675
 20
-23.9573597121
 10
-22.4298937041
 20
-23.9924676992
 10
-22.4320962814
 20
-24.0265668313
 10
-22.4349914068
 20
-24.0596571083
 10
-22.4386213904
 20
-24.0917118122
 10
-22.442943922
 20
-24.122757661
 10
-22.4478320722
 20
-24.1528748088
 10
-22.4532727244
 20
-24.1820700983
 10
-22.4592789952
 20
-24.2103366867
 10
-22.4657633039
 20
-24.2377341996
 10
-22.4727175744
 20
-24.2642697814
 10
-22.480149883
 20
-24.2899362877
 10
-22.4879968772
 20
-24.3147719116
 10
-22.4962525018
 20
-24.3387807446
 10
-22.5049228122
 20
-24.3619586951
 10
-22.5139626224
 20
-24.3843316823
 10
-22.5233620528
 20
-24.4058958942
 10
-22.5331309832
 20
-24.4266551428
 10
-22.5432538669
 20
-24.4466467823
 10
-22.5537211387
 20
-24.4658750097
 10
-22.5645423639
 20
-24.484335628
 10
-22.5757306919
 20
-24.5020534011
 10
-22.5872727436
 20
-24.519035425
 10
-22.5991818982
 20
-24.5352746038
 10
-22.6115114427
 20
-24.5507744133
 10
-22.6242791394
 20
-24.5655360124
 10
-22.6374672259
 20
-24.5795582423
 10
-22.6510757023
 20
-24.5928411031
  0
LINE
  5
2C6
100
AcDbEntity
  8
RACCORDO
100
AcDbLine
 62
253
  6
CONTINUOUS
 10
-23.5560128442
 20
-26.2500840157
 11
-23.5542444157
 21
-26.2130432602
  0
LINE
  5
2C7
100
AcDbEntity
  8
RACCORDO
100
AcDbLine
 62
253
  6
CONTINUOUS
 10
-23.4455640639
 20
-25.9363233927
 11
-23.4441288187
 21
-25.9113661026
  0
LWPOLYLINE
  5
2C8
100
AcDbEntity
  8
RACCORDO
100
AcDbPolyline
 62
253
  6
CONTINUOUS
 90
3
 70
0
 10
-23.5594036839
 20
-26.3096983368
 10
-23.5581894603
 20
-26.2895533407
 10
-23.5560128442
 20
-26.2500840157
  0
LWPOLYLINE
  5
2C9
100
AcDbEntity
  8
RACCORDO
100
AcDbPolyline
 62
253
  6
CONTINUOUS
 90
10
 70
0
 10
-23.7359950167
 20
-26.4674138319
 10
-23.7348681095
 20
-26.4501554149
 10
-23.7336748556
 20
-26.4334169555
 10
-23.7324512056
 20
-26.417702755
 10
-23.731234026
 20
-26.4034862554
 10
-23.7300599884
 20
-26.3911957756
 10
-23.7289644645
 20
-26.3812016068
 10
-23.7279804606
 20
-26.3738048562
 10
-23.727137623
 20
-26.3692283754
 10
-23.7264613451
 20
-26.3676100458
  0
LINE
  5
2CA
100
AcDbEntity
  8
0
100
AcDbLine
 62
7
  6
CONTINUOUS
 10
1.472243
 20
-23.081405
 11
1.108798
 21
-23.081405
  0
LINE
  5
2CB
100
AcDbEntity
  8
0
100
AcDbLine
 62
7
  6
CONTINUOUS
 10
0.316947
 20
-23.081405
 11
-0.054771
 21
-23.081405
  0
LINE
  5
2CC
100
AcDbEntity
  8
0
100
AcDbLine
 62
7
  6
CONTINUOUS
 10
-0.802203
 20
-23.081405
 11
-1.177593
 21
-23.081405
  0
LINE
  5
2CD
100
AcDbEntity
  8
0
100
AcDbLine
 62
7
  6
CONTINUOUS
 10
-2.057483
 20
-23.081405
 11
-2.432927
 21
-23.081405
  0
LINE
  5
2CE
100
AcDbEntity
  8
0
100
AcDbLine
 62
7
  6
CONTINUOUS
 10
-3.129577
 20
-23.081405
 11
-3.537703
 21
-23.081405
  0
LINE
  5
2CF
100
AcDbEntity
  8
0
100
AcDbLine
 62
7
  6
CONTINUOUS
 10
-1.54236
 20
-23.081297
 11
-1.91806
 21
-23.081297
  0
LINE
  5
2D0
100
AcDbEntity
  8
RACCORDO
100
AcDbLine
 62
253
  6
CONTINUOUS
 10
-22.3969919997
 20
-22.8308255347
 11
22.3969919997
 21
-22.8308255347
  0
LINE
  5
2D1
100
AcDbEntity
  8
RACCORDO
100
AcDbLine
 62
253
  6
CONTINUOUS
 10
-22.3665206418
 20
-22.5662465487
 11
22.3665206418
 21
-22.5662465487
  0
LINE
  5
2D2
100
AcDbEntity
  8
RACCORDO
100
AcDbLine
 62
7
  6
CONTINUOUS
 10
-22.2740702034
 20
-22.4737961104
 11
22.2740702034
 21
-22.4737961104
  0
LWPOLYLINE
  5
2D3
100
AcDbEntity
  8
0
100
AcDbPolyline
 62
7
  6
CONTINUOUS
 90
7
 70
0
 10
2.790854368
 20
-23.3774320214
 10
2.743154652
 20
-23.373032532
 10
2.6949136471
 20
-23.3710992505
 10
2.6461313533
 20
-23.3716321771
 10
2.5968077705
 20
-23.3746313117
 10
2.5469428988
 20
-23.3800966543
 10
2.4965367382
 20
-23.3880282049
  0
LWPOLYLINE
  5
2D4
100
AcDbEntity
  8
0
100
AcDbPolyline
 62
7
  6
CONTINUOUS
 90
51
 70
0
 10
3.0621323088
 20
-23.1214602967
 10
3.0837376941
 20
-23.1303655115
 10
3.1052476071
 20
-23.1410007937
 10
3.126662048
 20
-23.1533661433
 10
3.1480842194
 20
-23.1674390264
 10
3.1694109185
 20
-23.1832419768
 10
3.190332537
 20
-23.2008425962
 10
3.2109600866
 20
-23.2202663203
 10
3.2311825555
 20
-23.2414877133
 10
3.2503573006
 20
-23.2644980698
 10
3.2685487643
 20
-23.2896412975
 10
3.2856925043
 20
-23.3165734886
 10
3.3009525507
 20
-23.3442542136
 10
3.3140598511
 20
-23.3727331016
 10
3.325283458
 20
-23.4019605233
 10
3.3345945597
 20
-23.430747162
 10
3.3417907691
 20
-23.4588581584
 10
3.3470744733
 20
-23.4865283717
 10
3.3510240225
 20
-23.5132730624
 10
3.3536920924
 20
-23.5389108291
 10
3.3550260073
 20
-23.5636230731
 10
3.35544609
 20
-23.587469259
 10
3.3550241249
 20
-23.6104388976
 10
3.3536883277
 20
-23.632542478
 10
3.3516436677
 20
-23.6538709324
 10
3.3489034873
 20
-23.674440605
 10
3.3454544442
 20
-23.6942351516
 10
3.3414614814
 20
-23.7132964716
 10
3.3369305698
 20
-23.7316221771
 10
3.3318557386
 20
-23.7492146559
 10
3.3263840176
 20
-23.7661229718
 10
3.3205251261
 20
-23.78234433
 10
3.3142693448
 20
-23.7978815253
 10
3.3077345459
 20
-23.8127920047
 10
3.3009322852
 20
-23.8270790039
 10
3.293851007
 20
-23.8407392872
 10
3.2865739157
 20
-23.853820595
 10
3.2791037639
 20
-23.8663304808
 10
3.271437799
 20
-23.8782613911
 10
3.2636509682
 20
-23.889638406
 10
3.2557425921
 20
-23.9004498525
 10
3.2477133501
 20
-23.9107074035
 10
3.2396402271
 20
-23.9204711585
 10
3.2315204823
 20
-23.9297264932
 10
3.2233568564
 20
-23.9384880319
 10
3.2152345573
 20
-23.9468597468
 10
3.2071636106
 20
-23.9548451625
 10
3.1991339905
 20
-23.9624407543
 10
3.1912008275
 20
-23.9697399206
 10
3.1833757866
 20
-23.9767507674
 10
3.1756472027
 20
-23.9834651886
  0
LWPOLYLINE
  5
2D5
100
AcDbEntity
  8
0
100
AcDbPolyline
 62
7
  6
CONTINUOUS
 90
21
 70
0
 10
3.1007125255
 20
-24.041103306
 10
3.119575549
 20
-24.0502195847
 10
3.1371939774
 20
-24.0604404871
 10
3.1535678107
 20
-24.071766013
 10
3.1686228767
 20
-24.0843923465
 10
3.1824333475
 20
-24.0981233035
 10
3.1952217397
 20
-24.1123703321
 10
3.2069701422
 20
-24.1270306274
 10
3.2176964661
 20
-24.1422069941
 10
3.2276769605
 20
-24.1576192945
 10
3.2369456856
 20
-24.1732364109
 10
3.2454685811
 20
-24.1890894609
 10
3.2534197152
 20
-24.2049916588
 10
3.2608134088
 20
-24.2209140068
 10
3.267635341
 20
-24.2368855026
 10
3.2740166171
 20
-24.2528063541
 10
3.279956395
 20
-24.2686396102
 10
3.2854555169
 20
-24.284422222
 10
3.290647614
 20
-24.3001652511
 10
3.2955157101
 20
-24.3158598178
 10
3.3000767816
 20
-24.3315148019
  0
LINE
  5
2D6
100
AcDbEntity
  8
RACCORDO
100
AcDbLine
 62
253
  6
CONTINUOUS
 10
22.8006038864
 20
24.6609262691
 11
22.8342233202
 21
24.6761158525
  0
LWPOLYLINE
  5
2D7
100
AcDbEntity
  8
RACCORDO
100
AcDbPolyline
 62
253
  6
CONTINUOUS
 90
3
 70
0
 10
22.6510756978
 20
24.5928410997
 10
22.6784775455
 20
24.6051293958
 10
22.8006038864
 20
24.6609262691
  0
LINE
  5
2D8
100
AcDbEntity
  8
RACCORDO
100
AcDbLine
 62
253
  6
CONTINUOUS
 10
22.6510756976
 20
-24.5928410995
 11
22.678908885
 21
-24.6053085374
  0
LWPOLYLINE
  5
2D9
100
AcDbEntity
  8
RACCORDO
100
AcDbPolyline
 62
253
  6
CONTINUOUS
 90
3
 70
0
 10
22.678908885
 20
-24.6053085374
 10
22.768908689
 20
-24.6464439284
 10
22.8342462499
 20
-24.6761144814
  0
LINE
  5
2DA
100
AcDbEntity
  8
0
100
AcDbLine
 62
7
  6
CONTINUOUS
 10
-0.89961
 20
-23.705988
 11
-0.458869
 21
-24.881259
  0
LINE
  5
2DB
100
AcDbEntity
  8
0
100
AcDbLine
 62
7
  6
CONTINUOUS
 10
-3.537703
 20
-23.081405
 11
-2.967115
 21
-24.881259
  0
LINE
  5
2DC
100
AcDbEntity
  8
0
100
AcDbLine
 62
7
  6
CONTINUOUS
 10
-2.786492
 20
-24.3203
 11
-3.129577
 21
-23.081405
  0
LINE
  5
2DD
100
AcDbEntity
  8
RACCORDO
100
AcDbLine
 62
253
  6
CONTINUOUS
 10
-22.8171526035
 20
-24.6436650669
 11
-22.8342469017
 21
-24.6761121337
  0
LWPOLYLINE
  5
2DE
100
AcDbEntity
  8
RACCORDO
100
AcDbPolyline
 62
253
  6
CONTINUOUS
 90
3
 70
0
 10
-22.7394555985
 20
-24.4989467967
 10
-22.7686068224
 20
-24.553330692
 10
-22.8171526035
 20
-24.6436650669
  0
LWPOLYLINE
  5
2DF
100
AcDbEntity
  8
RACCORDO
100
AcDbPolyline
 62
253
  6
CONTINUOUS
 90
16
 70
0
 10
-22.5662465487
 20
-22.3665206418
 10
-22.56878901
 20
-22.370827523
 10
-22.5712829597
 20
-22.3783009207
 10
-22.5737283978
 20
-22.3889408349
 10
-22.5761354074
 20
-22.402834314
 10
-22.5784939053
 20
-22.4198943096
 10
-22.5807736422
 20
-22.439859676
 10
-22.5829734501
 20
-22.4627541183
 10
-22.585094497
 20
-22.4885539315
 10
-22.5871100371
 20
-22.5169268544
 10
-22.5890191642
 20
-22.5478956132
 10
-22.5908227846
 20
-22.5814374818
 10
-22.5924968717
 20
-22.6171520209
 10
-22.5940334167
 20
-22.6549057508
 10
-22.5954404283
 20
-22.6948321512
 10
-22.6281095819
 20
-23.8634653995
  0
LWPOLYLINE
  5
2E0
100
AcDbEntity
  8
RACCORDO
100
AcDbPolyline
 62
253
  6
CONTINUOUS
 90
3
 70
0
 10
-22.7537634522
 20
24.5257750038
 10
-22.8172647388
 20
24.6438863389
 10
-22.8342469017
 20
24.6761137992
  0
LINE
  5
2E1
100
AcDbEntity
  8
RACCORDO
100
AcDbLine
 62
253
  6
CONTINUOUS
 10
-22.7394555984
 20
24.4989467965
 11
-22.7537634522
 21
24.5257750038
  0
LWPOLYLINE
  5
2E2
100
AcDbEntity
  8
0
100
AcDbPolyline
 62
7
  6
CONTINUOUS
 90
16
 70
0
 10
2.9200002553
 20
-24.3353710626
 10
2.9128240572
 20
-24.3179474355
 10
2.9045974918
 20
-24.3011845741
 10
2.8953205589
 20
-24.2850824785
 10
2.8849847074
 20
-24.2695206041
 10
2.8735984885
 20
-24.2546194955
 10
2.8611875559
 20
-24.2407407863
 10
2.8477209302
 20
-24.2278456043
 10
2.8332295909
 20
-24.2159728216
 10
2.8178321305
 20
-24.2056006885
 10
2.8014280878
 20
-24.196849447
 10
2.784117924
 20
-24.1895988551
 10
2.7663216163
 20
-24.1839664362
 10
2.7481791569
 20
-24.179991365
 10
2.7295505535
 20
-24.1776344668
 10
2.7104358061
 20
-24.1768957418
  0
LINE
  5
2E3
100
AcDbEntity
  8
0
100
AcDbLine
 62
7
  6
CONTINUOUS
 10
-0.430471
 20
-24.08069
 11
-0.802203
 21
-23.081405
  0
LINE
  5
2E4
100
AcDbEntity
  8
0
100
AcDbLine
 62
7
  6
CONTINUOUS
 10
2.024482
 20
-24.881259
 11
1.472243
 21
-23.081405
  0
LINE
  5
2E5
100
AcDbEntity
  8
0
100
AcDbLine
 62
7
  6
CONTINUOUS
 10
1.531184
 20
-24.521944
 11
1.62851
 21
-24.881259
  0
LINE
  5
2E6
100
AcDbEntity
  8
0
100
AcDbLine
 62
7
  6
CONTINUOUS
 10
1.283461
 20
-23.575959
 11
1.4561
 21
-24.243908
  0
LINE
  5
2E7
100
AcDbEntity
  8
0
100
AcDbLine
 62
7
  6
CONTINUOUS
 10
0.485254
 20
-24.881259
 11
0.316947
 21
-23.081405
  0
LINE
  5
2E8
100
AcDbEntity
  8
0
100
AcDbLine
 62
7
  6
CONTINUOUS
 10
0.040531
 20
-23.710888
 11
0.117719
 21
-24.881259
  0
LINE
  5
2E9
100
AcDbEntity
  8
0
100
AcDbLine
 62
7
  6
CONTINUOUS
 10
-1.91806
 20
-23.081297
 11
-1.91806
 21
-24.881259
  0
LINE
  5
2EA
100
AcDbEntity
  8
0
100
AcDbLine
 62
7
  6
CONTINUOUS
 10
-1.54236
 20
-24.881259
 11
-1.54236
 21
-23.081297
  0
LWPOLYLINE
  5
2EB
100
AcDbEntity
  8
RACCORDO
100
AcDbPolyline
 62
253
  6
CONTINUOUS
 90
16
 70
0
 10
-22.3665206418
 20
-22.5662465487
 10
-22.3690707997
 20
-22.5692554068
 10
-22.3715702596
 20
-22.5746279652
 10
-22.3740190214
 20
-22.5823202593
 10
-22.3764264755
 20
-22.592271422
 10
-22.3787832316
 20
-22.6044205672
 10
-22.3810611181
 20
-22.6187198265
 10
-22.3832596439
 20
-22.6350992344
 10
-22.3853793002
 20
-22.6534745059
 10
-22.3873933886
 20
-22.6737808174
 10
-22.3893009945
 20
-22.6959241136
 10
-22.3911030324
 20
-22.7198035565
 10
-22.3927755474
 20
-22.7453452707
 10
-22.3943105544
 20
-22.7724500795
 10
-22.3957160385
 20
-22.8009862535
 10
-22.3969919997
 20
-22.8308255347
  0
LINE
  5
2EC
100
AcDbEntity
  8
RACCORDO
100
AcDbLine
 62
253
  6
CONTINUOUS
 10
-22.4737961104
 20
-22.2740702034
 11
-22.5662465487
 21
-22.3665206418
  0
LINE
  5
2ED
100
AcDbEntity
  8
RACCORDO
100
AcDbLine
 62
253
  6
CONTINUOUS
 10
22.2740702034
 20
22.4737961104
 11
22.3665206418
 21
22.5662465487
  0
LINE
  5
2EE
100
AcDbEntity
  8
RACCORDO
100
AcDbLine
 62
253
  6
CONTINUOUS
 10
-22.2740702034
 20
-22.4737961104
 11
-22.3665206418
 21
-22.5662465487
  0
LINE
  5
2EF
100
AcDbEntity
  8
RACCORDO
100
AcDbLine
 62
253
  6
CONTINUOUS
 10
22.4737961104
 20
22.2740702034
 11
22.5662465487
 21
22.3665206418
  0
LINE
  5
2F0
100
AcDbEntity
  8
RACCORDO
100
AcDbLine
 62
253
  6
CONTINUOUS
 10
45.2891832497
 20
47.1874623806
 11
45.5024688887
 21
47.3999998077
  0
LINE
  5
2F1
100
AcDbEntity
  8
RACCORDO
100
AcDbLine
 62
253
  6
CONTINUOUS
 10
-47.1835788895
 20
-45.2934376806
 11
-47.4
 21
-45.509129643
  0
LINE
  5
2F2
100
AcDbEntity
  8
RACCORDO
100
AcDbLine
 62
253
  6
CONTINUOUS
 10
24.3839973805
 20
25.0157962394
 11
24.4904056724
 21
25.1156484893
  0
LINE
  5
2F3
100
AcDbEntity
  8
RACCORDO
100
AcDbLine
 62
253
  6
CONTINUOUS
 10
23.718578029
 20
26.3602231048
 11
23.7264613621
 21
26.3676103194
  0
LINE
  5
2F4
100
AcDbEntity
  8
RACCORDO
100
AcDbLine
 62
253
  6
CONTINUOUS
 10
23.4471654084
 20
26.0110283674
 11
23.5533231875
 21
26.1103772206
  0
LWPOLYLINE
  5
2F5
100
AcDbEntity
  8
RACCORDO
100
AcDbPolyline
 62
253
  6
CONTINUOUS
 90
23
 70
0
 10
22.3665206418
 20
-22.5662465487
 10
22.3675721393
 20
-22.5672013804
 10
22.3686578216
 20
-22.5686252277
 10
22.3697776888
 20
-22.5705650683
 10
22.3709374573
 20
-22.5730780426
 10
22.3721314106
 20
-22.5762072389
 10
22.3733423994
 20
-22.579964269
 10
22.3745698929
 20
-22.584379921
 10
22.375814422
 20
-22.5894897096
 10
22.3770604301
 20
-22.595283341
 10
22.3783079906
 20
-22.6017805458
 10
22.3795570303
 20
-22.6089982637
 10
22.3807917725
 20
-22.6168938913
 10
22.3820117632
 20
-22.6254696193
 10
22.3832174564
 20
-22.6347253159
 10
22.3843944381
 20
-22.6445858977
 10
22.3855417601
 20
-22.6550360537
 10
22.3866603706
 20
-22.6660597748
 10
22.3877386992
 20
-22.6775537256
 10
22.3887754427
 20
-22.6894878158
 10
22.3897719042
 20
-22.7018337003
 10
22.3907204236
 20
-22.7144675095
 10
22.391619563
 20
-22.7273493858
  0
LINE
  5
2F6
100
AcDbEntity
  8
RACCORDO
100
AcDbLine
 62
253
  6
CONTINUOUS
 10
23.5533231875
 20
-26.1103772206
 11
23.4471654084
 21
-26.0110283674
  0
LINE
  5
2F7
100
AcDbEntity
  8
RACCORDO
100
AcDbLine
 62
253
  6
CONTINUOUS
 10
23.718578029
 20
-26.3602231048
 11
23.7264613621
 21
-26.3676103194
  0
LINE
  5
2F8
100
AcDbEntity
  8
RACCORDO
100
AcDbLine
 62
253
  6
CONTINUOUS
 10
24.4904056724
 20
-25.1156484893
 11
24.3839973805
 21
-25.0157962394
  0
LINE
  5
2F9
100
AcDbEntity
  8
RACCORDO
100
AcDbLine
 62
253
  6
CONTINUOUS
 10
45.5024688887
 20
-47.3999998077
 11
45.2891832497
 21
-47.1874623806
  0
LINE
  5
2FA
100
AcDbEntity
  8
RACCORDO
100
AcDbLine
 62
253
  6
CONTINUOUS
 10
-47.4
 20
45.509129643
 11
-47.1835788895
 21
45.2934376806
  0
LINE
  5
2FB
100
AcDbEntity
  8
RACCORDO
100
AcDbLine
 62
253
  6
CONTINUOUS
 10
22.2740702034
 20
-22.4737961104
 11
22.3665206418
 21
-22.5662465487
  0
LINE
  5
2FC
100
AcDbEntity
  8
RACCORDO
100
AcDbLine
 62
253
  6
CONTINUOUS
 10
-22.4737961104
 20
22.2740702034
 11
-22.5662465487
 21
22.3665206418
  0
LINE
  5
2FD
100
AcDbEntity
  8
RACCORDO
100
AcDbLine
 62
253
  6
CONTINUOUS
 10
22.4737961104
 20
-22.2740702034
 11
22.5662465487
 21
-22.3665206418
  0
LINE
  5
2FE
100
AcDbEntity
  8
RACCORDO
100
AcDbLine
 62
253
  6
CONTINUOUS
 10
-22.2740702034
 20
22.4737961104
 11
-22.3665206418
 21
22.5662465487
  0
LWPOLYLINE
  5
2FF
100
AcDbEntity
  8
RACCORDO
100
AcDbPolyline
 62
253
  6
CONTINUOUS
 90
20
 70
0
 10
-22.5662465487
 20
22.3665206418
 10
-22.5672979868
 20
22.3677455607
 10
-22.5683836056
 20
22.3697606947
 10
-22.569503405
 20
22.3725660436
 10
-22.5706630966
 20
22.3761180716
 10
-22.5718569689
 20
22.3804603146
 10
-22.5730678872
 20
22.3857233801
 10
-22.5742953244
 20
22.3919315021
 10
-22.5755398077
 20
22.3990604465
 10
-22.5767857845
 20
22.4071681186
 10
-22.5780333295
 20
22.4162846734
 10
-22.579282368
 20
22.4263799558
 10
-22.5805171235
 20
22.4374214061
 10
-22.5817371438
 20
22.4494399278
 10
-22.582942881
 20
22.4624046173
 10
-22.5841199152
 20
22.4761902038
 10
-22.5852672996
 20
22.490823909
 10
-22.5863859811
 20
22.5062785112
 10
-22.58746438
 20
22.5223470733
 10
-22.588501194
 20
22.5390495469
  0
LINE
  5
300
100
AcDbEntity
  8
0
100
AcDbLine
 62
7
  6
CONTINUOUS
 10
3.0843272738
 20
-24.88125911
 11
3.0277482539
 21
-24.6875373435
  0
LWPOLYLINE
  5
301
100
AcDbEntity
  8
0
100
AcDbPolyline
 62
7
  6
CONTINUOUS
 90
6
 70
0
 10
3.0277482539
 20
-24.6875373435
 10
2.9929769149
 20
-24.5643853834
 10
2.9754747715
 20
-24.5048843093
 10
2.9573389365
 20
-24.4469199174
 10
2.9388474311
 20
-24.3904155018
 10
2.9200002553
 20
-24.3353710626
  0
LWPOLYLINE
  5
302
100
AcDbEntity
  8
0
100
AcDbPolyline
 62
7
  6
CONTINUOUS
 90
4
 70
0
 10
3.3000767816
 20
-24.3315148019
 10
3.3088930538
 20
-24.3628316899
 10
3.3131482546
 20
-24.3784935939
 10
3.3172809918
 20
-24.3941536156
  0
LINE
  5
303
100
AcDbEntity
  8
0
100
AcDbLine
 62
7
  6
CONTINUOUS
 10
3.3172809918
 20
-24.3941536156
 11
3.3618180523
 21
-24.5611182375
  0
LINE
  5
304
100
AcDbEntity
  8
0
100
AcDbLine
 62
7
  6
CONTINUOUS
 10
3.3618180523
 20
-24.5611182375
 11
3.4457071037
 21
-24.88125911
  0
LWPOLYLINE
  5
305
100
AcDbEntity
  8
0
100
AcDbPolyline
 62
7
  6
CONTINUOUS
 90
16
 70
0
 10
3.0030916133
 20
-23.6025748039
 10
3.0018711035
 20
-23.5815989043
 10
2.9985665912
 20
-23.5607651386
 10
2.9931780765
 20
-23.5400735068
 10
2.9857253781
 20
-23.5192124004
 10
2.9761886772
 20
-23.4984934278
 10
2.9645085176
 20
-23.4788514148
 10
2.9504341013
 20
-23.4603058316
 10
2.9342162262
 20
-23.4428372079
 10
2.9165478299
 20
-23.4273219586
 10
2.89731204
 20
-23.4140363745
 10
2.8766257288
 20
-23.4027041648
 10
2.8555324506
 20
-23.3933728704
 10
2.8343800567
 20
-23.3860583386
 10
2.8128206959
 20
-23.3807447223
 10
2.790854368
 20
-23.3774320214
  0
LINE
  5
306
100
AcDbEntity
  8
0
100
AcDbLine
 62
7
  6
CONTINUOUS
 10
2.1348059885
 20
-23.1024335382
 11
2.1348059885
 21
-24.88125911
  0
LINE
  5
307
100
AcDbEntity
  8
0
100
AcDbLine
 62
7
  6
CONTINUOUS
 10
2.4965367382
 20
-23.8821231746
 11
2.4965367382
 21
-23.3880282049
  0
LINE
  5
308
100
AcDbEntity
  8
0
100
AcDbLine
 62
7
  6
CONTINUOUS
 10
2.5089943883
 20
-24.88125911
 11
2.5089943883
 21
-24.1768957418
  0
LINE
  5
309
100
AcDbEntity
  8
0
100
AcDbLine
 62
7
  6
CONTINUOUS
 10
3.1007125255
 20
-24.041103306
 11
3.1007125255
 21
-24.030467739
  0
LINE
  5
30A
100
AcDbEntity
  8
0
100
AcDbLine
 62
7
  6
CONTINUOUS
 10
-0.980686
 20
-24.881259
 11
-0.89961
 21
-23.705988
  0
LINE
  5
30B
100
AcDbEntity
  8
0
100
AcDbLine
 62
7
  6
CONTINUOUS
 10
-1.177593
 20
-23.081405
 11
-1.340109
 21
-24.881259
  0
LINE
  5
30C
100
AcDbEntity
  8
0
100
AcDbLine
 62
7
  6
CONTINUOUS
 10
-2.432927
 20
-23.081405
 11
-2.786492
 21
-24.3203
  0
LINE
  5
30D
100
AcDbEntity
  8
0
100
AcDbLine
 62
7
  6
CONTINUOUS
 10
-2.636029
 20
-24.881259
 11
-2.057483
 21
-23.081405
  0
LWPOLYLINE
  5
30E
100
AcDbEntity
  8
RACCORDO
100
AcDbPolyline
 62
253
  6
CONTINUOUS
 90
16
 70
0
 10
22.3665206418
 20
22.5662465487
 10
22.3690707997
 20
22.5692554068
 10
22.3715702596
 20
22.5746279652
 10
22.3740190214
 20
22.5823202593
 10
22.3764264755
 20
22.592271422
 10
22.3787832316
 20
22.6044205672
 10
22.3810611181
 20
22.6187198265
 10
22.3832596439
 20
22.6350992344
 10
22.3853793002
 20
22.6534745059
 10
22.3873933886
 20
22.6737808174
 10
22.3893009945
 20
22.6959241136
 10
22.3911030324
 20
22.7198035565
 10
22.3927755474
 20
22.7453452707
 10
22.3943105544
 20
22.7724500795
 10
22.3957160385
 20
22.8009862535
 10
22.3969919997
 20
22.8308255347
  0
LINE
  5
30F
100
AcDbEntity
  8
RACCORDO
100
AcDbLine
 62
253
  6
CONTINUOUS
 10
47.1835788895
 20
45.2934376806
 11
47.4
 21
45.509129643
  0
LINE
  5
310
100
AcDbEntity
  8
RACCORDO
100
AcDbLine
 62
253
  6
CONTINUOUS
 10
-45.2891832497
 20
-47.1874623806
 11
-45.5024688887
 21
-47.3999998077
  0
LINE
  5
311
100
AcDbEntity
  8
RACCORDO
100
AcDbLine
 62
253
  6
CONTINUOUS
 10
-24.4904056724
 20
-25.1156484893
 11
-24.3839973805
 21
-25.0157962394
  0
LINE
  5
312
100
AcDbEntity
  8
RACCORDO
100
AcDbLine
 62
253
  6
CONTINUOUS
 10
-23.718578029
 20
-26.3602231048
 11
-23.7264613621
 21
-26.3676103194
  0
LINE
  5
313
100
AcDbEntity
  8
RACCORDO
100
AcDbLine
 62
253
  6
CONTINUOUS
 10
-23.5533231875
 20
-26.1103772206
 11
-23.4471654084
 21
-26.0110283674
  0
LWPOLYLINE
  5
314
100
AcDbEntity
  8
RACCORDO
100
AcDbPolyline
 62
253
  6
CONTINUOUS
 90
23
 70
0
 10
-22.3665206418
 20
22.5662465487
 10
-22.3675721393
 20
22.5672013804
 10
-22.3686578216
 20
22.5686252277
 10
-22.3697776888
 20
22.5705650683
 10
-22.3709374573
 20
22.5730780426
 10
-22.3721314106
 20
22.5762072389
 10
-22.3733423994
 20
22.579964269
 10
-22.3745698929
 20
22.584379921
 10
-22.375814422
 20
22.5894897096
 10
-22.3770604301
 20
22.595283341
 10
-22.3783079906
 20
22.6017805458
 10
-22.3795570303
 20
22.6089982637
 10
-22.3807917725
 20
22.6168938913
 10
-22.3820117632
 20
22.6254696193
 10
-22.3832174564
 20
22.6347253159
 10
-22.3843944381
 20
22.6445858977
 10
-22.3855417601
 20
22.6550360537
 10
-22.3866603706
 20
22.6660597748
 10
-22.3877386992
 20
22.6775537256
 10
-22.3887754427
 20
22.6894878158
 10
-22.3897719042
 20
22.7018337003
 10
-22.3907204236
 20
22.7144675095
 10
-22.391619563
 20
22.7273493858
  0
LINE
  5
315
100
AcDbEntity
  8
RACCORDO
100
AcDbLine
 62
253
  6
CONTINUOUS
 10
-23.5533231875
 20
26.1103772206
 11
-23.4471654084
 21
26.0110283674
  0
LINE
  5
316
100
AcDbEntity
  8
RACCORDO
100
AcDbLine
 62
253
  6
CONTINUOUS
 10
-23.718578029
 20
26.3602231048
 11
-23.7264613621
 21
26.3676103194
  0
LINE
  5
317
100
AcDbEntity
  8
RACCORDO
100
AcDbLine
 62
253
  6
CONTINUOUS
 10
-24.4904056724
 20
25.1156484893
 11
-24.3839973805
 21
25.0157962394
  0
LINE
  5
318
100
AcDbEntity
  8
RACCORDO
100
AcDbLine
 62
253
  6
CONTINUOUS
 10
-45.5024688887
 20
47.3999998077
 11
-45.2891832497
 21
47.1874623806
  0
LINE
  5
319
100
AcDbEntity
  8
RACCORDO
100
AcDbLine
 62
253
  6
CONTINUOUS
 10
47.4
 20
-45.509129643
 11
47.1835788895
 21
-45.2934376806
  0
LWPOLYLINE
  5
31A
100
AcDbEntity
  8
RACCORDO
100
AcDbPolyline
 62
253
  6
CONTINUOUS
 90
20
 70
0
 10
22.5662465487
 20
-22.3665206418
 10
22.5672979868
 20
-22.3677455607
 10
22.5683836056
 20
-22.3697606947
 10
22.569503405
 20
-22.3725660436
 10
22.5706630966
 20
-22.3761180716
 10
22.5718569689
 20
-22.3804603146
 10
22.5730678872
 20
-22.3857233801
 10
22.5742953244
 20
-22.3919315021
 10
22.5755398077
 20
-22.3990604465
 10
22.5767857845
 20
-22.4071681186
 10
22.5780333295
 20
-22.4162846734
 10
22.579282368
 20
-22.4263799558
 10
22.5805171235
 20
-22.4374214061
 10
22.5817371438
 20
-22.4494399278
 10
22.582942881
 20
-22.4624046173
 10
22.5841199152
 20
-22.4761902038
 10
22.5852672996
 20
-22.490823909
 10
22.5863859811
 20
-22.5062785112
 10
22.58746438
 20
-22.5223470733
 10
22.588501194
 20
-22.5390495469
  0
LINE
  5
31B
100
AcDbEntity
  8
0
100
AcDbLine
 62
7
  6
CONTINUOUS
 10
1.096394
 20
-24.243908
 11
1.283461
 21
-23.575959
  0
LINE
  5
31C
100
AcDbEntity
  8
0
100
AcDbLine
 62
7
  6
CONTINUOUS
 10
0.915873
 20
-24.881259
 11
1.019543
 21
-24.521944
  0
LINE
  5
31D
100
AcDbEntity
  8
0
100
AcDbLine
 62
7
  6
CONTINUOUS
 10
1.108798
 20
-23.081405
 11
0.544249
 21
-24.881259
  0
LINE
  5
31E
100
AcDbEntity
  8
0
100
AcDbLine
 62
7
  6
CONTINUOUS
 10
-0.054771
 20
-23.081405
 11
-0.430471
 21
-24.08069
  0
LINE
  5
31F
100
AcDbEntity
  8
0
100
AcDbLine
 62
7
  6
CONTINUOUS
 10
-0.406177
 20
-24.881259
 11
0.040531
 21
-23.710888
  0
LINE
  5
320
100
AcDbEntity
  8
RACCORDO
100
AcDbLine
 62
253
  6
CONTINUOUS
 10
22.8171525991
 20
24.643665059
 11
22.8342469017
 21
24.6761121236
  0
LWPOLYLINE
  5
321
100
AcDbEntity
  8
RACCORDO
100
AcDbPolyline
 62
253
  6
CONTINUOUS
 90
3
 70
0
 10
22.7394555933
 20
24.4989467872
 10
22.7686068134
 20
24.5533306856
 10
22.8171525991
 20
24.643665059
  0
LWPOLYLINE
  5
322
100
AcDbEntity
  8
RACCORDO
100
AcDbPolyline
 62
253
  6
CONTINUOUS
 90
16
 70
0
 10
22.5662465487
 20
22.3665206418
 10
22.56878901
 20
22.370827523
 10
22.5712829597
 20
22.3783009207
 10
22.5737283978
 20
22.3889408349
 10
22.5761354074
 20
22.402834314
 10
22.5784939053
 20
22.4198943096
 10
22.5807736422
 20
22.439859676
 10
22.5829734501
 20
22.4627541183
 10
22.585094497
 20
22.4885539315
 10
22.5871100371
 20
22.5169268544
 10
22.5890191642
 20
22.5478956132
 10
22.5908227846
 20
22.5814374818
 10
22.5924968717
 20
22.6171520209
 10
22.5940334167
 20
22.6549057508
 10
22.5954404283
 20
22.6948321512
 10
22.6281095819
 20
23.8634653995
  0
LWPOLYLINE
  5
323
100
AcDbEntity
  8
RACCORDO
100
AcDbPolyline
 62
253
  6
CONTINUOUS
 90
3
 70
0
 10
22.7537634458
 20
-24.5257749986
 10
22.8172647357
 20
-24.6438863335
 10
22.8342469017
 20
-24.6761137893
  0
LINE
  5
324
100
AcDbEntity
  8
RACCORDO
100
AcDbLine
 62
253
  6
CONTINUOUS
 10
22.7394555932
 20
-24.498946787
 11
22.7537634458
 21
-24.5257749986
  0
LINE
  5
325
100
AcDbEntity
  8
RACCORDO
100
AcDbLine
 62
253
  6
CONTINUOUS
 10
-22.8006042743
 20
-24.6609264448
 11
-22.8342233582
 21
-24.6761158602
  0
LWPOLYLINE
  5
326
100
AcDbEntity
  8
RACCORDO
100
AcDbPolyline
 62
253
  6
CONTINUOUS
 90
3
 70
0
 10
-22.6510757081
 20
-24.5928411092
 10
-22.6784779158
 20
-24.6051295577
 10
-22.8006042743
 20
-24.6609264448
  0
LINE
  5
327
100
AcDbEntity
  8
RACCORDO
100
AcDbLine
 62
253
  6
CONTINUOUS
 10
-22.6510757079
 20
24.5928411091
 11
-22.6789088971
 21
24.6053085446
  0
LWPOLYLINE
  5
328
100
AcDbEntity
  8
RACCORDO
100
AcDbPolyline
 62
253
  6
CONTINUOUS
 90
3
 70
0
 10
-22.6789088971
 20
24.6053085446
 10
-22.7689086982
 20
24.646443934
 10
-22.83424625
 20
24.6761144914
  0
LWPOLYLINE
  5
329
100
AcDbEntity
  8
RACCORDO
100
AcDbPolyline
 62
253
  6
CONTINUOUS
 90
10
 70
0
 10
23.7359950135
 20
-26.4674138319
 10
23.7348681078
 20
-26.4501554753
 10
23.7336748565
 20
-26.4334170829
 10
23.7324512099
 20
-26.4177029503
 10
23.7312340342
 20
-26.4034865145
 10
23.7300600006
 20
-26.3911960894
 10
23.7289644805
 20
-26.3812019619
 10
23.7279804798
 20
-26.3738052361
 10
23.7271376447
 20
-26.369228761
 10
23.7264613681
 20
-26.3676104173
  0
LINE
  5
32A
100
AcDbEntity
  8
RACCORDO
100
AcDbLine
 62
253
  6
CONTINUOUS
 10
22.391619563
 20
-22.7273493858
 11
22.3932706687
 21
-22.7536139024
  0
LINE
  5
32B
100
AcDbEntity
  8
RACCORDO
100
AcDbLine
 62
253
  6
CONTINUOUS
 10
23.5594036851
 20
-26.3096983368
 11
23.5570553199
 21
-26.2696140229
  0
LWPOLYLINE
  5
32C
100
AcDbEntity
  8
RACCORDO
100
AcDbPolyline
 62
253
  6
CONTINUOUS
 90
16
 70
0
 10
22.5662465487
 20
22.3665206418
 10
22.5650990652
 20
22.3873623163
 10
22.5617833455
 20
22.4079762879
 10
22.5563356356
 20
22.4281374836
 10
22.5488154606
 20
22.4476257767
 10
22.5393049683
 20
22.4662284046
 10
22.5279080264
 20
22.4837422894
 10
22.5147491037
 20
22.4999762284
 10
22.4999718979
 20
22.5147530047
 10
22.4837377506
 20
22.527911329
 10
22.466223925
 20
22.5393075615
 10
22.4476216469
 20
22.5488173071
 10
22.4281339882
 20
22.5563367789
 10
22.407973702
 20
22.5617839013
 10
22.3873609054
 20
22.5650992171
 10
22.3665206418
 20
22.5662465487
  0
LINE
  5
32D
100
AcDbEntity
  8
RACCORDO
100
AcDbLine
 62
253
  6
CONTINUOUS
 10
22.588501194
 20
-22.5390495469
 11
22.5904463022
 21
-22.5740295828
  0
LINE
  5
32E
100
AcDbEntity
  8
RACCORDO
100
AcDbLine
 62
253
  6
CONTINUOUS
 10
22.3932706687
 20
-22.7536139024
 11
22.3947139696
 21
-22.7800157183
  0
LWPOLYLINE
  5
32F
100
AcDbEntity
  8
RACCORDO
100
AcDbPolyline
 62
253
  6
CONTINUOUS
 90
13
 70
0
 10
23.5570553199
 20
-26.2696140229
 10
23.555072674
 20
-26.2311626606
 10
23.5542444129
 20
-26.2130432206
 10
23.5535365166
 20
-26.1959106839
 10
23.5529562131
 20
-26.1799399835
 10
23.5525094277
 20
-26.1652941897
 10
23.5522007222
 20
-26.1521228443
 10
23.5520332489
 20
-26.1405604345
 10
23.5520087176
 20
-26.1307250191
 10
23.5521273789
 20
-26.1227170234
 10
23.5523880211
 20
-26.1166182137
 10
23.5527879829
 20
-26.1124908624
 10
23.5533231805
 20
-26.1103771121
  0
LINE
  5
330
100
AcDbEntity
  8
RACCORDO
100
AcDbLine
 62
253
  6
CONTINUOUS
 10
22.3947139696
 20
-22.7800157183
 11
22.3959542043
 21
-22.8058920848
  0
LINE
  5
331
100
AcDbEntity
  8
RACCORDO
100
AcDbLine
 62
253
  6
CONTINUOUS
 10
22.5904463022
 20
-22.5740295828
 11
22.5921967057
 21
-22.6104203206
  0
LWPOLYLINE
  5
332
100
AcDbEntity
  8
RACCORDO
100
AcDbPolyline
 62
253
  6
CONTINUOUS
 90
28
 70
0
 10
22.428383675
 20
-23.9573597121
 10
22.4299485386
 20
-23.993311725
 10
22.432230008
 20
-24.02817811
 10
22.4352280832
 20
-24.0619588669
 10
22.4389929423
 20
-24.0946374805
 10
22.443474407
 20
-24.1262304661
 10
22.4485219436
 20
-24.1567873695
 10
22.454119494
 20
-24.1862972891
 10
22.4602831161
 20
-24.2147711266
 10
22.4669104502
 20
-24.2422911326
 10
22.473988463
 20
-24.2688568515
 10
22.4815301878
 20
-24.294468739
 10
22.4894723638
 20
-24.3192104133
 10
22.4978084267
 20
-24.3430936861
 10
22.5065449408
 20
-24.3661067456
 10
22.5156383394
 20
-24.3882977749
 10
22.5250815895
 20
-24.4096708967
 10
22.534881724
 20
-24.4302219883
 10
22.5450162751
 20
-24.4499868635
 10
22.5554787969
 20
-24.4689714254
 10
22.5662757352
 20
-24.487169771
 10
22.5774039601
 20
-24.5046000053
 10
22.5888642153
 20
-24.5212772766
 10
22.600655757
 20
-24.5371864366
 10
22.6127732236
 20
-24.5523001449
 10
22.6252148278
 20
-24.5666092881
 10
22.637982357
 20
-24.5801229797
 10
22.651075811
 20
-24.5928412196
  0
LINE
  5
333
100
AcDbEntity
  8
RACCORDO
100
AcDbLine
 62
253
  6
CONTINUOUS
 10
22.5921967057
 20
-22.6104203206
 11
22.5937439299
 21
-22.6473039114
  0
LINE
  5
334
100
AcDbEntity
  8
RACCORDO
100
AcDbLine
 62
253
  6
CONTINUOUS
 10
22.3959542043
 20
-22.8058920848
 11
22.3969919997
 21
-22.8308255347
  0
LINE
  5
335
100
AcDbEntity
  8
RACCORDO
100
AcDbLine
 62
253
  6
CONTINUOUS
 10
22.5937439299
 20
-22.6473039114
 11
22.595680144
 21
-22.7019536993
  0
LINE
  5
336
100
AcDbEntity
  8
RACCORDO
100
AcDbLine
 62
253
  6
CONTINUOUS
 10
22.3969919997
 20
-22.8308255347
 11
22.428383675
 21
-23.9573597121
  0
LINE
  5
337
100
AcDbEntity
  8
RACCORDO
100
AcDbLine
 62
253
  6
CONTINUOUS
 10
22.595680144
 20
-22.7019536993
 11
22.6281095819
 21
-23.8634653995
  0
LWPOLYLINE
  5
338
100
AcDbEntity
  8
RACCORDO
100
AcDbPolyline
 62
253
  6
CONTINUOUS
 90
28
 70
0
 10
22.6281095819
 20
-23.8634653995
 10
22.628838212
 20
-23.8994177107
 10
22.6299899424
 20
-23.9342843748
 10
22.6315321339
 20
-23.9680653918
 10
22.6334289066
 20
-24.000744249
 10
22.6356504096
 20
-24.0323374592
 10
22.6381791318
 20
-24.0628945606
 10
22.6409895701
 20
-24.0924046582
 10
22.6440564225
 20
-24.120878647
 10
22.6473734896
 20
-24.1483987507
 10
22.6509215879
 20
-24.174964486
 10
22.6546810771
 20
-24.2005763362
 10
22.6586545175
 20
-24.2253179747
 10
22.6628291288
 20
-24.2492012356
 10
22.6671886617
 20
-24.2722142848
 10
22.6717375887
 20
-24.2944052939
 10
22.6764644534
 20
-24.3157784209
 10
22.6813576367
 20
-24.3363295078
 10
22.6864266338
 20
-24.3560942527
 10
22.6916619643
 20
-24.3750784512
 10
22.6970548014
 20
-24.3932763077
 10
22.7026201966
 20
-24.4107061336
 10
22.7083532368
 20
-24.4273831542
 10
22.7142443198
 20
-24.4432921441
 10
22.7203048176
 20
-24.4584057387
 10
22.7265346432
 20
-24.4727148167
 10
22.7329206634
 20
-24.4862284994
 10
22.7394555932
 20
-24.498946787
  0
LINE
  5
339
100
AcDbEntity
  8
RACCORDO
100
AcDbLine
 62
7
  6
CONTINUOUS
 10
22.4737961104
 20
22.2740702034
 11
22.4737961104
 21
-22.2740702034
  0
LINE
  5
33A
100
AcDbEntity
  8
RACCORDO
100
AcDbLine
 62
253
  6
CONTINUOUS
 10
22.6281095819
 20
-23.8634653995
 11
22.6281095819
 21
23.8634653995
  0
LINE
  5
33B
100
AcDbEntity
  8
RACCORDO
100
AcDbLine
 62
253
  6
CONTINUOUS
 10
22.8342469017
 20
-24.6761137893
 11
22.8342469017
 21
24.6761121236
  0
LINE
  5
33C
100
AcDbEntity
  8
RACCORDO
100
AcDbLine
 62
253
  6
CONTINUOUS
 10
24.2874667579
 20
25.0379874673
 11
24.2875441623
 21
-25.0157962394
  0
LWPOLYLINE
  5
33D
100
AcDbEntity
  8
RACCORDO
100
AcDbPolyline
 62
253
  6
CONTINUOUS
 90
25
 70
0
 10
22.6281095819
 20
23.8634653995
 10
22.6289272832
 20
23.902706052
 10
22.6302493882
 20
23.9407090434
 10
22.6320364181
 20
23.9774743737
 10
22.6342433896
 20
24.0129704335
 10
22.6368349112
 20
24.0472288323
 10
22.6397956148
 20
24.0803443982
 10
22.6430987287
 20
24.1123246977
 10
22.6467139519
 20
24.1431621644
 10
22.6506364335
 20
24.172928928
 10
22.6548454361
 20
24.2016299469
 10
22.6593181956
 20
24.2292602628
 10
22.6640580441
 20
24.25587713
 10
22.6690465742
 20
24.2814782487
 10
22.6742684923
 20
24.3060659188
 10
22.6797416281
 20
24.3297042941
 10
22.6854572099
 20
24.3524175123
 10
22.6914001525
 20
24.3741814356
 10
22.697586743
 20
24.3949878044
 10
22.704012761
 20
24.4148617938
 10
22.710662994
 20
24.4337782287
 10
22.717541089
 20
24.451653324
 10
22.7246419958
 20
24.4684591513
 10
22.7319505415
 20
24.484223639
 10
22.7394555933
 20
24.4989467872
  0
LINE
  5
33E
100
AcDbEntity
  8
RACCORDO
100
AcDbLine
 62
253
  6
CONTINUOUS
 10
22.3969919997
 20
22.8308255347
 11
22.428383675
 21
23.9573597121
  0
LWPOLYLINE
  5
33F
100
AcDbEntity
  8
RACCORDO
100
AcDbPolyline
 62
253
  6
CONTINUOUS
 90
11
 70
0
 10
23.5542444157
 20
26.2130432601
 10
23.5535365202
 20
26.1959107326
 10
23.5529562174
 20
26.1799400413
 10
23.5525094325
 20
26.1652942561
 10
23.5522007277
 20
26.1521229188
 10
23.5520332547
 20
26.1405605164
 10
23.5520087238
 20
26.1307251075
 10
23.5521273853
 20
26.1227171172
 10
23.5523880276
 20
26.1166183118
 10
23.5527879895
 20
26.1124909634
 10
23.5533231871
 20
26.1103772147
  0
LWPOLYLINE
  5
340
100
AcDbEntity
  8
RACCORDO
100
AcDbPolyline
 62
253
  6
CONTINUOUS
 90
25
 70
0
 10
22.428383675
 20
23.9573597121
 10
22.4301497453
 20
23.9965998363
 10
22.4327674937
 20
24.0346023913
 10
22.4362369204
 20
24.0713673769
 10
22.4406136476
 20
24.1068632031
 10
22.445842053
 20
24.14112146
 10
22.4517552696
 20
24.174236918
 10
22.4583347713
 20
24.206217128
 10
22.4655990843
 20
24.2370545391
 10
22.4734369205
 20
24.2668212697
 10
22.4818347892
 20
24.295522262
 10
22.4908061811
 20
24.3231525737
 10
22.5002802798
 20
24.3497694966
 10
22.5102409216
 20
24.3753707663
 10
22.5207042702
 20
24.3999586472
 10
22.5316480001
 20
24.4235972234
 10
22.5430685784
 20
24.4463106244
 10
22.554969538
 20
24.4680747207
 10
22.5673391517
 20
24.4888812081
 10
22.5801845999
 20
24.5087551938
 10
22.5934987022
 20
24.5276715707
 10
22.6072481907
 20
24.5455467129
 10
22.6214219759
 20
24.5623527455
 10
22.6360311471
 20
24.5781175435
 10
22.6510757045
 20
24.592841107
  0
LINE
  5
341
100
AcDbEntity
  8
RACCORDO
100
AcDbLine
 62
253
  6
CONTINUOUS
 10
23.5560128442
 20
26.2500840157
 11
23.5542444157
 21
26.2130432601
  0
LINE
  5
342
100
AcDbEntity
  8
RACCORDO
100
AcDbLine
 62
253
  6
CONTINUOUS
 10
23.4455640635
 20
25.9363233874
 11
23.4441288187
 21
25.9113661026
  0
LWPOLYLINE
  5
343
100
AcDbEntity
  8
RACCORDO
100
AcDbPolyline
 62
253
  6
CONTINUOUS
 90
3
 70
0
 10
23.5594036839
 20
26.3096983368
 10
23.5581894603
 20
26.2895533407
 10
23.5560128442
 20
26.2500840157
  0
LWPOLYLINE
  5
344
100
AcDbEntity
  8
RACCORDO
100
AcDbPolyline
 62
253
  6
CONTINUOUS
 90
10
 70
0
 10
23.7359950167
 20
26.4674138319
 10
23.7348681095
 20
26.4501554149
 10
23.7336748556
 20
26.4334169555
 10
23.7324512056
 20
26.417702755
 10
23.731234026
 20
26.4034862554
 10
23.7300599884
 20
26.3911957756
 10
23.7289644645
 20
26.3812016068
 10
23.7279804606
 20
26.3738048562
 10
23.727137623
 20
26.3692283754
 10
23.7264613451
 20
26.3676100458
  0
LWPOLYLINE
  5
345
100
AcDbEntity
  8
0
100
AcDbPolyline
 62
7
  6
CONTINUOUS
 90
10
 70
0
 10
3.1756472027
 20
-23.9834651886
 10
3.1605840027
 20
-23.9962871642
 10
3.1532493866
 20
-24.0023947186
 10
3.1459189213
 20
-24.0081185036
 10
3.1385953445
 20
-24.0135405064
 10
3.1312759185
 20
-24.0185787399
 10
3.123839989
 20
-24.0228308184
 10
3.116247338
 20
-24.0261626135
 10
3.1085381835
 20
-24.0287082537
 10
3.1007125255
 20
-24.030467739
  0
LWPOLYLINE
  5
346
100
AcDbEntity
  8
RACCORDO
100
AcDbPolyline
 62
253
  6
CONTINUOUS
 90
16
 70
0
 10
-22.3665206418
 20
22.5662465487
 10
-22.3873614872
 20
22.5650991544
 10
-22.4079747914
 20
22.5617836671
 10
-22.4281354968
 20
22.5563362854
 10
-22.4476234874
 20
22.5488164841
 10
-22.4662259922
 20
22.5393063647
 10
-22.483739908
 20
22.5279097592
 10
-22.4999740165
 20
22.5147510962
 10
-22.5147510725
 20
22.4999740428
 10
-22.5279097391
 20
22.4837399356
 10
-22.539306349
 20
22.4662260195
 10
-22.5488164729
 20
22.4476235125
 10
-22.5563362785
 20
22.428135518
 10
-22.5617836638
 20
22.4079748071
 10
-22.5650991535
 20
22.3873614958
 10
-22.5662465487
 20
22.3665206418
  0
LWPOLYLINE
  5
347
100
AcDbEntity
  8
RACCORDO
100
AcDbPolyline
 62
253
  6
CONTINUOUS
 90
16
 70
0
 10
-22.3969919997
 20
22.8308255347
 10
-22.4172784796
 20
22.829900271
 10
-22.4373555747
 20
22.8280154372
 10
-22.4570160616
 20
22.8251904875
 10
-22.4760570165
 20
22.8214545793
 10
-22.4942819104
 20
22.8168462723
 10
-22.5115026369
 20
22.8114131307
 10
-22.5275414541
 20
22.805211232
 10
-22.5422328192
 20
22.7983045886
 10
-22.5554250967
 20
22.7907644865
 10
-22.566982124
 20
22.7826687502
 10
-22.5767846165
 20
22.774100939
 10
-22.5847313988
 20
22.7651494844
 10
-22.5907404491
 20
22.7559067781
 10
-22.5947497455
 20
22.7464682177
 10
-22.5967179066
 20
22.7369312221
  0
LINE
  5
348
100
AcDbEntity
  8
RACCORDO
100
AcDbLine
 62
7
  6
CONTINUOUS
 10
22.2740702034
 20
22.4737961104
 11
-22.2740702034
 21
22.4737961104
  0
LINE
  5
349
100
AcDbEntity
  8
RACCORDO
100
AcDbLine
 62
253
  6
CONTINUOUS
 10
22.3665206418
 20
22.5662465487
 11
-22.3665206418
 21
22.5662465487
  0
LINE
  5
34A
100
AcDbEntity
  8
RACCORDO
100
AcDbLine
 62
253
  6
CONTINUOUS
 10
22.3969919997
 20
22.8308255347
 11
-22.3969919997
 21
22.8308255347
  0
LWPOLYLINE
  5
34B
100
AcDbEntity
  8
RACCORDO
100
AcDbPolyline
 62
7
  6
CONTINUOUS
 90
4
 70
0
 10
24.75
 20
25.2620950581
 10
24.730359765
 20
25.454907777
 10
24.6844608919
 20
25.6325756994
 10
24.6123032044
 20
25.7950988254
  0
LINE
  5
34C
100
AcDbEntity
  8
RACCORDO
100
AcDbLine
 62
253
  6
CONTINUOUS
 10
24.8577645609
 20
25.3656102486
 11
24.8613168325
 21
25.2694570248
  0
LWPOLYLINE
  5
34D
100
AcDbEntity
  8
RACCORDO
100
AcDbPolyline
 62
253
  6
CONTINUOUS
 90
31
 70
0
 10
24.4904054841
 20
25.1156484893
 10
24.489733284
 20
25.1528007904
 10
24.4875411866
 20
25.1917534943
 10
24.4836131935
 20
25.2324346833
 10
24.4777322295
 20
25.2747308467
 10
24.4696710841
 20
25.3185550698
 10
24.4591801037
 20
25.3638428359
 10
24.4459502601
 20
25.410657544
 10
24.4297897097
 20
25.4585813318
 10
24.4107047463
 20
25.5068150077
 10
24.3885869336
 20
25.5550956183
 10
24.363290959
 20
25.6032590705
 10
24.3349356328
 20
25.6506889254
 10
24.3034786362
 20
25.697177298
 10
24.2689104595
 20
25.742484262
 10
24.2315477017
 20
25.7860123435
 10
24.1914189483
 20
25.8276227465
 10
24.1486593299
 20
25.8670810556
 10
24.1039080425
 20
25.903783599
 10
24.0573208271
 20
25.9376713602
 10
24.009117704
 20
25.9686546483
 10
23.9601890075
 20
25.9963016522
 10
23.9107861566
 20
26.0206880163
 10
23.8611404654
 20
26.0419106686
 10
23.8122108596
 20
26.059820275
 10
23.7642380006
 20
26.0746458546
 10
23.7174229619
 20
26.0866281918
 10
23.672697695
 20
26.0958655633
 10
23.6304818028
 20
26.1026601104
 10
23.5906566369
 20
26.1073946059
 10
23.5533231807
 20
26.1103771151
  0
LWPOLYLINE
  5
34E
100
AcDbEntity
  8
RACCORDO
100
AcDbPolyline
 62
253
  6
CONTINUOUS
 90
31
 70
0
 10
24.6831863947
 20
25.1156484893
 10
24.6827989916
 20
25.1603900946
 10
24.6800615877
 20
25.2070821068
 10
24.674974182
 20
25.2557245259
 10
24.6678207738
 20
25.3064530464
 10
24.6583173598
 20
25.3591319737
 10
24.6456119334
 20
25.4133542241
 10
24.6295646621
 20
25.4694572566
 10
24.6103153649
 20
25.5271036121
 10
24.5874315075
 20
25.5848738302
 10
24.5607831579
 20
25.6427146474
 10
24.5305002216
 20
25.7006793272
 10
24.4965399169
 20
25.7575081986
 10
24.4587384394
 20
25.8131813184
 10
24.4172595546
 20
25.86771863
 10
24.3725518346
 20
25.9199202928
 10
24.324402101
 20
25.9697287622
 10
24.2730234883
 20
26.0172015829
 10
24.2195040472
 20
26.0613115479
 10
24.163681755
 20
26.1018833213
 10
24.1057186005
 20
26.139092239
 10
24.0471886725
 20
26.1724371017
 10
23.9880517111
 20
26.201683757
 10
23.9283479672
 20
26.2270663572
 10
23.8697723233
 20
26.2487861597
 10
23.8123710644
 20
26.2666469317
 10
23.7560979251
 20
26.2808449059
 10
23.7025089889
 20
26.292170038
 10
23.652122969
 20
26.3008856464
 10
23.6044211946
 20
26.3067284127
 10
23.5594036839
 20
26.3096983368
  0
LINE
  5
34F
100
AcDbEntity
  8
RACCORDO
100
AcDbLine
 62
253
  6
CONTINUOUS
 10
24.3839973805
 20
25.0157962394
 11
24.3839973805
 21
-25.0157962394
  0
LINE
  5
350
100
AcDbEntity
  8
RACCORDO
100
AcDbLine
 62
253
  6
CONTINUOUS
 10
24.4904056724
 20
-25.1156484893
 11
24.4904056724
 21
25.1156484893
  0
LINE
  5
351
100
AcDbEntity
  8
RACCORDO
100
AcDbLine
 62
253
  6
CONTINUOUS
 10
24.6831863947
 20
-25.1156484893
 11
24.6831863947
 21
25.1156484893
  0
LINE
  5
352
100
AcDbEntity
  8
RACCORDO
100
AcDbLine
 62
7
  6
CONTINUOUS
 10
24.7578337795
 20
25.2694570248
 11
24.7578337795
 21
-25.2694570248
  0
LINE
  5
353
100
AcDbEntity
  8
RACCORDO
100
AcDbLine
 62
253
  6
CONTINUOUS
 10
24.8613168325
 20
25.2694570248
 11
24.8613168325
 21
-25.2694570248
  0
LWPOLYLINE
  5
354
100
AcDbEntity
  8
RACCORDO
100
AcDbPolyline
 62
253
  6
CONTINUOUS
 90
40
 70
0
 10
24.2875441623
 20
-25.0157962394
 10
24.2874557743
 20
-25.0382472579
 10
24.286512022
 20
-25.0620097316
 10
24.2847129051
 20
-25.0870836604
 10
24.2821825859
 20
-25.1135128287
 10
24.2787969017
 20
-25.1412534521
 10
24.2741833648
 20
-25.1701741773
 10
24.2683128218
 20
-25.2003989818
 10
24.2612144243
 20
-25.2318038881
 10
24.252603141
 20
-25.2638856105
 10
24.2424474411
 20
-25.2966354528
 10
24.2307788513
 20
-25.3300621111
 10
24.2174069259
 20
-25.3636883874
 10
24.2022863439
 20
-25.3975254074
 10
24.1854624194
 20
-25.4315620454
 10
24.1668806576
 20
-25.4652877268
 10
24.1464922676
 20
-25.4986959862
 10
24.1243460304
 20
-25.5317932891
 10
24.1005338087
 20
-25.5640884571
 10
24.0749982977
 20
-25.59556811
 10
24.0477967903
 20
-25.6262456281
 10
24.0191930467
 20
-25.6556699729
 10
23.9891148891
 20
-25.6838169101
 10
23.9576344836
 20
-25.710710674
 10
23.9252321083
 20
-25.7359729298
 10
23.8918634742
 20
-25.7595407253
 10
23.8575728618
 20
-25.7814770127
 10
23.8229734094
 20
-25.8015923132
 10
23.7880489999
 20
-25.8198134668
 10
23.7528157476
 20
-25.8362136335
 10
23.7179351436
 20
-25.850822814
 10
23.6834156968
 20
-25.8635745121
 10
23.6492489021
 20
-25.874535224
 10
23.6160707366
 20
-25.883934439
 10
23.5839045449
 20
-25.8917238822
 10
23.5527269917
 20
-25.8979518286
 10
23.5231040402
 20
-25.9029925924
 10
23.4952243498
 20
-25.906970945
 10
23.468899274
 20
-25.9097621151
 10
23.4441288187
 20
-25.9113661026
  0
LWPOLYLINE
  5
355
100
AcDbEntity
  8
RACCORDO
100
AcDbPolyline
 62
253
  6
CONTINUOUS
 90
40
 70
0
 10
24.3839973364
 20
-25.0157962394
 10
24.383680716
 20
-25.0406862406
 10
24.382666317
 20
-25.0670923512
 10
24.380832707
 20
-25.0949915098
 10
24.3780524922
 20
-25.1243535548
 10
24.3741928322
 20
-25.1551400169
 10
24.3691149468
 20
-25.1873031211
 10
24.362652304
 20
-25.220895782
 10
24.3546736479
 20
-25.2557366543
 10
24.3451215398
 20
-25.2914176917
 10
24.3338895709
 20
-25.3278268864
 10
24.3208568744
 20
-25.3648997313
 10
24.3060064241
 20
-25.4023011638
 10
24.2892536684
 20
-25.4399304446
 10
24.2705228141
 20
-25.4776728033
 10
24.2498696142
 20
-25.5151821702
 10
24.2272545082
 20
-25.5523443546
 10
24.2026452236
 20
-25.5890441742
 10
24.1761702449
 20
-25.6249566906
 10
24.1478268974
 20
-25.659983718
 10
24.117637176
 20
-25.6940084126
 10
24.0858286607
 20
-25.7267165328
 10
24.0524272165
 20
-25.7580481244
 10
24.017516316
 20
-25.7878996616
 10
23.9814771425
 20
-25.8159577509
 10
23.9443997494
 20
-25.8421945099
 10
23.9063891714
 20
-25.8665816795
 10
23.8679114537
 20
-25.8888977259
 10
23.8290882216
 20
-25.9091756204
 10
23.7900362485
 20
-25.9274576271
 10
23.751256891
 20
-25.943637757
 10
23.7128746358
 20
-25.9578136013
 10
23.6749979941
 20
-25.970090486
 10
23.6381249169
 20
-25.9804717457
 10
23.6023581256
 20
-25.9891082202
 10
23.5677830467
 20
-25.9961511994
 10
23.5348743814
 20
-26.0016888765
 10
23.5038340534
 20
-26.0058874812
 10
23.4745836031
 20
-26.0089454797
 10
23.4471654047
 20
-26.0110283092
  0
LWPOLYLINE
  5
356
100
AcDbEntity
  8
RACCORDO
100
AcDbPolyline
 62
253
  6
CONTINUOUS
 90
7
 70
0
 10
24.8613168325
 20
-25.2694570248
 10
24.8574925242
 20
-25.3688675697
 10
24.8452167428
 20
-25.4672153926
 10
24.8244894732
 20
-25.5645004935
 10
24.7951475813
 20
-25.6616608056
 10
24.7573541386
 20
-25.7577583957
 10
24.711598426
 20
-25.8499794638
  0
LWPOLYLINE
  5
357
100
AcDbEntity
  8
RACCORDO
100
AcDbPolyline
 62
253
  6
CONTINUOUS
 90
19
 70
0
 10
24.7578334893
 20
-25.2694570248
 10
24.7541416906
 20
-25.359447363
 10
24.742945622
 20
-25.4498148702
 10
24.7240841868
 20
-25.5399094327
 10
24.6973581143
 20
-25.6292184321
 10
24.6627733284
 20
-25.7168548292
 10
24.6206233162
 20
-25.8015978952
 10
24.5710532829
 20
-25.8828087778
 10
24.5143845667
 20
-25.9597758056
 10
24.4514808541
 20
-26.0313132276
 10
24.3824181553
 20
-26.0972929882
 10
24.3081561922
 20
-26.1568486586
 10
24.2314283496
 20
-26.2083183541
 10
24.1553330996
 20
-26.2507917408
 10
24.0786952266
 20
-26.2860382201
 10
23.9976089888
 20
-26.3159540985
 10
23.9108102241
 20
-26.3402539561
 10
23.8202436845
 20
-26.357681189
 10
23.7264612207
 20
-26.3676080504
  0
LINE
  5
358
100
AcDbEntity
  8
RACCORDO
100
AcDbLine
 62
7
  6
CONTINUOUS
 10
24.731096979
 20
-25.4530887256
 11
24.75
 21
-25.262095058
  0
LWPOLYLINE
  5
359
100
AcDbEntity
  8
RACCORDO
100
AcDbPolyline
 62
253
  6
CONTINUOUS
 90
12
 70
0
 10
23.4471654073
 20
-26.0110283494
 10
23.4474869289
 20
-26.0095495271
 10
23.4477024128
 20
-26.0065049877
 10
23.4478084228
 20
-26.0019432819
 10
23.4478032683
 20
-25.9959371547
 10
23.4476870316
 20
-25.988582385
 10
23.4474615661
 20
-25.979996258
 10
23.4471304675
 20
-25.9703156956
 10
23.4466990156
 20
-25.9596950723
 10
23.4461740909
 20
-25.9483037537
 10
23.4455640641
 20
-25.9363233954
 10
23.4441288185
 20
-25.9113661026
  0
LINE
  5
35A
100
AcDbEntity
  8
RACCORDO
100
AcDbLine
 62
253
  6
CONTINUOUS
 10
-23.8391428496
 20
26.4554151739
 11
-23.7359950183
 21
26.4674138319
  0
LWPOLYLINE
  5
35B
100
AcDbEntity
  8
RACCORDO
100
AcDbPolyline
 62
253
  6
CONTINUOUS
 90
31
 70
0
 10
-23.5533231805
 20
26.1103771121
 10
-23.5906570147
 20
26.1073945762
 10
-23.6304822505
 20
26.1026600678
 10
-23.6726980114
 20
26.0958655168
 10
-23.7174231393
 20
26.0866281417
 10
-23.7642381464
 20
26.0746457964
 10
-23.8122110388
 20
26.0598202065
 10
-23.8611406744
 20
26.0419105913
 10
-23.9107863564
 20
26.0206879338
 10
-23.9601891756
 20
25.9963015676
 10
-24.00911784
 20
25.9686545638
 10
-24.0573209411
 20
25.937671278
 10
-24.1039081406
 20
25.9037835212
 10
-24.1486594123
 20
25.867080985
 10
-24.1914190125
 20
25.8276226858
 10
-24.2315477475
 20
25.7860122943
 10
-24.2689104886
 20
25.7424842252
 10
-24.3034786512
 20
25.6971772749
 10
-24.3349356363
 20
25.6506889182
 10
-24.3632909532
 20
25.6032590825
 10
-24.3885869204
 20
25.555095651
 10
-24.4107047277
 20
25.5068150564
 10
-24.4297896874
 20
25.4585813872
 10
-24.445950236
 20
25.4106576027
 10
-24.45918008
 20
25.363842911
 10
-24.4696710632
 20
25.3185551875
 10
-24.477732213
 20
25.2747310142
 10
-24.4836131806
 20
25.2324348544
 10
-24.4875411752
 20
25.1917535814
 10
-24.4897332736
 20
25.1528007655
 10
-24.4904054794
 20
25.1156484893
  0
LWPOLYLINE
  5
35C
100
AcDbEntity
  8
RACCORDO
100
AcDbPolyline
 62
253
  6
CONTINUOUS
 90
31
 70
0
 10
-23.5594036839
 20
26.3096983368
 10
-23.6044211963
 20
26.3067284213
 10
-23.6521229716
 20
26.3008856596
 10
-23.7025089914
 20
26.2921700516
 10
-23.756097926
 20
26.2808449133
 10
-23.8123710627
 20
26.2666469289
 10
-23.8697723203
 20
26.2487861506
 10
-23.9283479654
 20
26.2270663506
 10
-23.9880517118
 20
26.2016837567
 10
-24.0471886747
 20
26.1724371057
 10
-24.105718602
 20
26.1390922423
 10
-24.1636817549
 20
26.1018833218
 10
-24.2195040461
 20
26.0613115464
 10
-24.2730234875
 20
26.0172015816
 10
-24.3244021011
 20
25.9697287621
 10
-24.3725518353
 20
25.9199202933
 10
-24.4172595548
 20
25.8677186303
 10
-24.4587384388
 20
25.8131813181
 10
-24.496539916
 20
25.757508198
 10
-24.5305002218
 20
25.700679327
 10
-24.5607831597
 20
25.642714648
 10
-24.5874315098
 20
25.5848738311
 10
-24.6103153647
 20
25.5271036124
 10
-24.6295646583
 20
25.4694572558
 10
-24.6456119282
 20
25.4133542228
 10
-24.6583173585
 20
25.3591319729
 10
-24.6678207788
 20
25.3064530467
 10
-24.6749741909
 20
25.2557245269
 10
-24.6800615961
 20
25.2070821079
 10
-24.682798997
 20
25.1603900954
 10
-24.6831863947
 20
25.1156484893
  0
LWPOLYLINE
  5
35D
100
AcDbEntity
  8
RACCORDO
100
AcDbPolyline
 62
253
  6
CONTINUOUS
 90
25
 70
0
 10
-23.4471654073
 20
26.0110283497
 10
-21.1016219025
 20
26.1486295733
 10
-18.8330533334
 20
26.267890443
 10
-16.6416750091
 20
26.3701942803
 10
-14.5302396163
 20
26.4567829751
 10
-12.4963310143
 20
26.529083055
 10
-10.5323708144
 20
26.5885610713
 10
-8.6443422805
 20
26.6361729782
 10
-6.8264650048
 20
26.6731565542
 10
-5.0534773962
 20
26.7008553464
 10
-3.3319339453
 20
26.719839824
 10
-1.6553972515
 20
26.7308365616
 10
0.0209081298
 20
26.7344403019
 10
1.6969962303
 20
26.7306531477
 10
3.3727701384
 20
26.7194797373
 10
5.0928388833
 20
26.7003301257
 10
6.8635551751
 20
26.6724888269
 10
8.678449709
 20
26.6353960356
 10
10.5628725574
 20
26.5877149302
 10
12.5224860609
 20
26.5282224469
 10
14.5514265203
 20
26.4559724695
 10
16.6577171806
 20
26.3694913974
 10
18.8439229344
 20
26.2673514289
 10
21.1071438645
 20
26.1483227124
 10
23.4471654074
 20
26.011028351
  0
LWPOLYLINE
  5
35E
100
AcDbEntity
  8
RACCORDO
100
AcDbPolyline
 62
253
  6
CONTINUOUS
 90
25
 70
0
 10
-23.4441288187
 20
25.9113661026
 10
-21.0986533567
 20
26.0466945475
 10
-18.830440426
 20
26.1663830989
 10
-16.6395338489
 20
26.2704317569
 10
-14.5284364049
 20
26.3575547537
 10
-12.4947179308
 20
26.4290378571
 10
-10.5310143599
 20
26.48873837
 10
-8.6432687162
 20
26.5369288861
 10
-6.8255835762
 20
26.5733368116
 10
-5.0528257952
 20
26.6010016684
 10
-3.3315253776
 20
26.6205288088
 10
-1.65517832
 20
26.6313128805
 10
0.0209052973
 20
26.6345773486
 10
1.6967715949
 20
26.6311302919
 10
3.3723558953
 20
26.6201636316
 10
5.0921819208
 20
26.6004765966
 10
6.8626685945
 20
26.5726724812
 10
8.6773711066
 20
26.536147991
 10
10.5615118364
 20
26.4878924719
 10
12.5208694372
 20
26.4281846071
 10
14.549619977
 20
26.3567457133
 10
16.6555735319
 20
26.2697290864
 10
18.8413090355
 20
26.1658524916
 10
21.1041753218
 20
26.0463981637
 10
23.4441288187
 20
25.9113661026
  0
LWPOLYLINE
  5
35F
100
AcDbEntity
  8
RACCORDO
100
AcDbPolyline
 62
253
  6
CONTINUOUS
 90
23
 70
0
 10
-22.6510757579
 20
24.5928411621
 10
-21.0803059701
 20
24.6826616308
 10
-19.557277961
 20
24.7646188918
 10
-18.0819917308
 20
24.8387129451
 10
-16.65600782
 20
24.9043789294
 10
-15.2777656881
 20
24.962181706
 10
-13.9425837128
 20
25.0138158591
 10
-12.6504661653
 20
25.0593906541
 10
-11.4014087746
 20
25.0987968256
 10
-10.1907171054
 20
25.1334011615
 10
-9.0183754975
 20
25.1632987677
 10
-7.8843996111
 20
25.1883945383
 10
-6.7841419924
 20
25.2097699436
 10
-5.7172403796
 20
25.2275063227
 10
-4.6840570343
 20
25.2415223364
 10
-3.6810312877
 20
25.2526554383
 10
-2.7079189643
 20
25.2609633577
 10
-1.7649642395
 20
25.2663883653
 10
-0.8493389707
 20
25.2695947258
 10
0.0389543233
 20
25.2706274656
 10
0.8999181613
 20
25.2694415583
 10
1.7363882424
 20
25.2665661897
 10
2.548656955
 20
25.2620356432
  0
LWPOLYLINE
  5
360
100
AcDbEntity
  8
RACCORDO
100
AcDbPolyline
 62
253
  6
CONTINUOUS
 90
16
 70
0
 10
-22.8342469017
 20
24.6761148257
 10
-19.7896978273
 20
24.8474583587
 10
-16.7450331321
 20
24.9943183985
 10
-13.7003085614
 20
25.1166949452
 10
-10.6555868034
 20
25.2145834668
 10
-7.6109165966
 20
25.2879884953
 10
-4.5663327254
 20
25.3369236261
 10
-1.5220338993
 20
25.3613933815
 10
1.5220673099
 20
25.3613932393
 10
4.566365363
 20
25.3369232284
 10
7.6109481246
 20
25.2879878603
 10
10.655616449
 20
25.2145826235
 10
13.7003342431
 20
25.1166940128
 10
16.7450523326
 20
24.9943175263
 10
19.789708467
 20
24.8474576658
 10
22.8342469017
 20
24.6761144314
  0
LWPOLYLINE
  5
361
100
AcDbEntity
  8
RACCORDO
100
AcDbPolyline
 62
7
  6
CONTINUOUS
 90
10
 70
0
 10
-23.7185780297
 20
26.3602231048
 10
-18.4500019456
 20
26.6524877507
 10
-13.1799794415
 20
26.8716862352
 10
-7.9087991655
 20
27.0178185582
 10
-2.6364597027
 20
27.0908847196
 10
2.6364597033
 20
27.0908847195
 10
7.9087991661
 20
27.017818558
 10
13.1799794419
 20
26.871686235
 10
18.4500019459
 20
26.6524877506
 10
23.7185780298
 20
26.3602231048
  0
LWPOLYLINE
  5
362
100
AcDbEntity
  8
RACCORDO
100
AcDbPolyline
 62
253
  6
CONTINUOUS
 90
10
 70
0
 10
-23.7264613681
 20
26.3676104172
 10
-18.4585982963
 20
26.6599922338
 10
-13.1867268525
 20
26.8793476399
 10
-7.912344766
 20
27.0256089181
 10
-2.6374257775
 20
27.0987223547
 10
2.6373069279
 20
27.0987232929
 10
7.9122333719
 20
27.0256118398
 10
13.1866350324
 20
26.8793513675
 10
18.458543566
 20
26.6599946276
 10
23.7264613652
 20
26.3676103701
  0
LWPOLYLINE
  5
363
100
AcDbEntity
  8
RACCORDO
100
AcDbPolyline
 62
253
  6
CONTINUOUS
 90
10
 70
0
 10
-23.7359950183
 20
26.4674138319
 10
-18.4642212922
 20
26.7599330701
 10
-13.1906622075
 20
26.9793224585
 10
-7.9156060155
 20
27.1255819971
 10
-2.638822525
 20
27.1987116323
 10
2.6388807036
 20
27.1987114177
 10
7.9156583734
 20
27.1255815142
 10
13.1907029258
 20
26.9793219756
 10
18.464244556
 20
26.7599327482
 10
23.7359950183
 20
26.4674138319
  0
LWPOLYLINE
  5
364
100
AcDbEntity
  8
RACCORDO
100
AcDbPolyline
 62
253
  6
CONTINUOUS
 90
16
 70
0
 10
-22.428383675
 20
23.9573597121
 10
-22.4486701135
 20
23.956434451
 10
-22.4687471751
 20
23.954549623
 10
-22.488407637
 20
23.9517246812
 10
-22.5074485759
 20
23.9479887819
 10
-22.5256734625
 20
23.9433804837
 10
-22.5428941894
 20
23.9379473501
 10
-22.5589330141
 20
23.9317454576
 10
-22.5736243923
 20
23.9248388179
 10
-22.5868166866
 20
23.917298717
 10
-22.5983737329
 20
23.9092029786
 10
-22.6081762448
 20
23.900635162
 10
-22.6161230448
 20
23.8916836995
 10
-22.6221321095
 20
23.8824409828
 10
-22.6261414161
 20
23.8730024097
 10
-22.6281095819
 20
23.8634653995
  0
LINE
  5
365
100
AcDbEntity
  8
RACCORDO
100
AcDbLine
 62
253
  6
CONTINUOUS
 10
-24.3839973805
 20
25.0157962394
 11
-24.2875441623
 21
25.0157962394
  0
LINE
  5
366
100
AcDbEntity
  8
RACCORDO
100
AcDbLine
 62
253
  6
CONTINUOUS
 10
24.3839973805
 20
25.0157962394
 11
24.2875441623
 21
25.0157962394
  0
LINE
  5
367
100
AcDbEntity
  8
RACCORDO
100
AcDbLine
 62
253
  6
CONTINUOUS
 10
-24.6831863947
 20
25.1156484893
 11
-24.4904056724
 21
25.1156484893
  0
LINE
  5
368
100
AcDbEntity
  8
RACCORDO
100
AcDbLine
 62
253
  6
CONTINUOUS
 10
24.6831863947
 20
25.1156484893
 11
24.4904056724
 21
25.1156484893
  0
LINE
  5
369
100
AcDbEntity
  8
RACCORDO
100
AcDbLine
 62
253
  6
CONTINUOUS
 10
-24.8613168325
 20
25.2694570248
 11
-24.7578337795
 21
25.2694570248
  0
LINE
  5
36A
100
AcDbEntity
  8
RACCORDO
100
AcDbLine
 62
253
  6
CONTINUOUS
 10
24.8613168325
 20
25.2694570248
 11
24.7578337795
 21
25.2694570248
  0
LINE
  5
36B
100
AcDbEntity
  8
RACCORDO
100
AcDbLine
 62
253
  6
CONTINUOUS
 10
2.548656955
 20
25.2620356432
 11
4.101671644
 21
25.2483325019
  0
LINE
  5
36C
100
AcDbEntity
  8
RACCORDO
100
AcDbLine
 62
253
  6
CONTINUOUS
 10
4.101671644
 20
25.2483325019
 11
5.5660182744
 21
25.2296000378
  0
LINE
  5
36D
100
AcDbEntity
  8
RACCORDO
100
AcDbLine
 62
253
  6
CONTINUOUS
 10
5.5660182744
 20
25.2296000378
 11
6.939465272
 21
25.2070004227
  0
LINE
  5
36E
100
AcDbEntity
  8
RACCORDO
100
AcDbLine
 62
253
  6
CONTINUOUS
 10
6.939465272
 20
25.2070004227
 11
8.2215310227
 21
25.1812848156
  0
LINE
  5
36F
100
AcDbEntity
  8
RACCORDO
100
AcDbLine
 62
253
  6
CONTINUOUS
 10
8.2215310227
 20
25.1812848156
 11
9.4100072835
 21
25.1535899231
  0
LINE
  5
370
100
AcDbEntity
  8
RACCORDO
100
AcDbLine
 62
253
  6
CONTINUOUS
 10
9.4100072835
 20
25.1535899231
 11
10.5122956945
 21
25.1246492661
  0
LINE
  5
371
100
AcDbEntity
  8
RACCORDO
100
AcDbLine
 62
253
  6
CONTINUOUS
 10
10.5122956945
 20
25.1246492661
 11
11.5333332048
 21
25.0948804828
  0
LINE
  5
372
100
AcDbEntity
  8
RACCORDO
100
AcDbLine
 62
253
  6
CONTINUOUS
 10
11.5333332048
 20
25.0948804828
 11
12.4821397409
 21
25.0647768109
  0
LINE
  5
373
100
AcDbEntity
  8
RACCORDO
100
AcDbLine
 62
253
  6
CONTINUOUS
 10
12.4821397409
 20
25.0647768109
 11
13.7870540289
 21
25.0195024521
  0
LINE
  5
374
100
AcDbEntity
  8
RACCORDO
100
AcDbLine
 62
253
  6
CONTINUOUS
 10
13.7870540289
 20
25.0195024521
 11
14.9641219753
 21
24.9748040997
  0
LINE
  5
375
100
AcDbEntity
  8
RACCORDO
100
AcDbLine
 62
253
  6
CONTINUOUS
 10
14.9641219753
 20
24.9748040997
 11
16.0238265561
 21
24.9314305702
  0
LINE
  5
376
100
AcDbEntity
  8
RACCORDO
100
AcDbLine
 62
253
  6
CONTINUOUS
 10
16.0238265561
 20
24.9314305702
 11
17.2702326982
 21
24.8766216092
  0
LINE
  5
377
100
AcDbEntity
  8
RACCORDO
100
AcDbLine
 62
253
  6
CONTINUOUS
 10
17.2702326982
 20
24.8766216092
 11
18.3466079428
 21
24.8259885846
  0
LINE
  5
378
100
AcDbEntity
  8
RACCORDO
100
AcDbLine
 62
253
  6
CONTINUOUS
 10
18.3466079428
 20
24.8259885846
 11
19.5088866199
 21
24.7678558853
  0
LINE
  5
379
100
AcDbEntity
  8
RACCORDO
100
AcDbLine
 62
253
  6
CONTINUOUS
 10
19.5088866199
 20
24.7678558853
 11
20.5643386571
 21
24.7119832208
  0
LINE
  5
37A
100
AcDbEntity
  8
RACCORDO
100
AcDbLine
 62
253
  6
CONTINUOUS
 10
20.5643386571
 20
24.7119832208
 11
21.6139473461
 21
24.6534887392
  0
LWPOLYLINE
  5
37B
100
AcDbEntity
  8
RACCORDO
100
AcDbPolyline
 62
253
  6
CONTINUOUS
 90
31
 70
0
 10
23.5594036839
 20
26.3096983368
 10
21.8964141899
 20
26.4088559918
 10
20.2499168444
 20
26.5002633642
 10
18.6199239166
 20
26.5839204539
 10
17.0078108983
 20
26.6595818042
 10
15.4122253012
 20
26.7274928719
 10
13.8290859716
 20
26.7883900269
 10
12.2583807967
 20
26.842346064
 10
10.7001406643
 20
26.8892881883
 10
9.1503472889
 20
26.9297343861
 10
7.6090165177
 20
26.9637546597
 10
6.0761485504
 20
26.9912790067
 10
4.5477005825
 20
27.0126154053
 10
3.0237126382
 20
27.0278301199
 10
1.5041591349
 20
27.036856886
 10
-0.0151016651
 20
27.0398048892
 10
-1.534007645
 20
27.0367411314
 10
-3.0526070451
 20
27.0275986106
 10
-4.5752071454
 20
27.0122855058
 10
-6.1018059633
 20
26.9908716097
 10
-7.6323911196
 20
26.9632871296
 10
-9.1712537741
 20
26.9292308658
 10
-10.718393692
 20
26.8887766837
 10
-12.2737951641
 20
26.8418507179
 10
-13.8417250582
 20
26.7879301729
 10
-15.4221544842
 20
26.7270917765
 10
-17.0150936242
 20
26.6592588011
 10
-18.6248662589
 20
26.5836782673
 10
-20.2529057232
 20
26.5000991821
 10
-21.8977556324
 20
26.4087725386
 10
-23.5594036839
 20
26.3096983368
  0
LINE
  5
37C
100
AcDbEntity
  8
RACCORDO
100
AcDbLine
 62
253
  6
CONTINUOUS
 10
21.6139473461
 20
24.6534887392
 11
22.6510757045
 21
24.592841107
  0
LWPOLYLINE
  5
37D
100
AcDbEntity
  8
RACCORDO
100
AcDbPolyline
 62
253
  6
CONTINUOUS
 90
31
 70
0
 10
23.5533231871
 20
26.1103772147
 10
21.8908344062
 20
26.2098357017
 10
20.2447443319
 20
26.3011210909
 10
18.6151137345
 20
26.3844475196
 10
17.0033991581
 20
26.4599653308
 10
15.4082510176
 20
26.5279624813
 10
13.8255140451
 20
26.5888035993
 10
12.2552016404
 20
26.6426476261
 10
10.6973838492
 20
26.6896510638
 10
9.1479829297
 20
26.7300695553
 10
7.6070392434
 20
26.7640080247
 10
6.074584783
 20
26.7915693025
 10
4.546524447
 20
26.8129045957
 10
3.0229215051
 20
26.8280657532
 10
1.503777343
 20
26.8371062381
 10
-0.015098351
 20
26.8400789824
 10
-1.5336193686
 20
26.8369870724
 10
-3.051809722
 20
26.8278350494
 10
-4.5740250889
 20
26.812574865
 10
-6.1002367219
 20
26.7911587554
 10
-7.6304090737
 20
26.7635399317
 10
-9.1688852287
 20
26.7295662852
 10
-10.715633291
 20
26.6891373812
 10
-12.2706132589
 20
26.6421507168
 10
-13.8381511036
 20
26.5883439554
 10
-15.4181787955
 20
26.527560027
 10
-17.0106812487
 20
26.4596395367
 10
-18.6200561213
 20
26.3842054026
 10
-20.2477336388
 20
26.3009618
 10
-21.8921763188
 20
26.2097583696
 10
-23.5533231872
 20
26.1103772164
  0
LWPOLYLINE
  5
37E
100
AcDbEntity
  8
RACCORDO
100
AcDbPolyline
 62
253
  6
CONTINUOUS
 90
39
 70
0
 10
23.4441288187
 20
25.9113661026
 10
23.4686616041
 20
25.9097872175
 10
23.4947858577
 20
25.9070262413
 10
23.5225015737
 20
25.9030831741
 10
23.5519997142
 20
25.898085253
 10
23.5830893039
 20
25.8919052408
 10
23.6151974321
 20
25.8841614265
 10
23.6483479363
 20
25.8748053621
 10
23.6825169696
 20
25.8638854955
 10
23.7170601002
 20
25.8511654599
 10
23.7519862948
 20
25.8365778862
 10
23.7872865828
 20
25.8201901435
 10
23.8222896333
 20
25.8019679716
 10
23.8569793954
 20
25.7818368655
 10
23.8913719228
 20
25.7598713303
 10
23.9248440477
 20
25.7362606201
 10
23.957350945
 20
25.7109403489
 10
23.9889374484
 20
25.6839749028
 10
24.0191148831
 20
25.6557466945
 10
24.0478099048
 20
25.6262305577
 10
24.0750958697
 20
25.5954516587
 10
24.100704157
 20
25.5638679094
 10
24.1245762249
 20
25.5314654735
 10
24.1467706271
 20
25.4982581873
 10
24.167194387
 20
25.4647454708
 10
24.1857975978
 20
25.4309207707
 10
24.2026301762
 20
25.3967906403
 10
24.2177488808
 20
25.3628741604
 10
24.2311075078
 20
25.3291827712
 10
24.2427522681
 20
25.2957050325
 10
24.2528785409
 20
25.2629257038
 10
24.2614542107
 20
25.2308379298
 10
24.2685113972
 20
25.1994485659
 10
24.2743418324
 20
25.1692629374
 10
24.278916909
 20
25.1403991904
 10
24.282265236
 20
25.1127391787
 10
24.2847643691
 20
25.0864337892
 10
24.2865401602
 20
25.0615333172
 10
24.2874667579
 20
25.0379874673
  0
LWPOLYLINE
  5
37F
100
AcDbEntity
  8
RACCORDO
100
AcDbPolyline
 62
253
  6
CONTINUOUS
 90
40
 70
0
 10
23.4471654044
 20
26.0110283041
 10
23.4743201595
 20
26.0089691003
 10
23.5033475379
 20
26.0059454553
 10
23.5342056319
 20
26.00178974
 10
23.5669757131
 20
25.99630057
 10
23.6014534403
 20
25.9893087427
 10
23.6371565369
 20
25.9807239399
 10
23.6739992377
 20
25.9703918302
 10
23.71187829
 20
25.9581580422
 10
23.7502878028
 20
25.944017758
 10
23.7891183424
 20
25.9278628702
 10
23.8282440793
 20
25.909592772
 10
23.8671553084
 20
25.8893135742
 10
23.9057338834
 20
25.866981092
 10
23.9438564446
 20
25.8425604532
 10
23.9810487755
 20
25.8162755674
 10
24.0172044382
 20
25.7881539899
 10
24.0522318934
 20
25.7582230255
 10
24.0857429064
 20
25.7268007507
 10
24.1176529711
 20
25.6939913696
 10
24.1479357328
 20
25.659855202
 10
24.1763589174
 20
25.6247123387
 10
24.2029005521
 20
25.5886808959
 10
24.2275636268
 20
25.5518601334
 10
24.2502170355
 20
25.5145816143
 10
24.2708941784
 20
25.4769619656
 10
24.2896358362
 20
25.4391166457
 10
24.3063854747
 20
25.4013987353
 10
24.3212209725
 20
25.363924345
 10
24.3342289342
 20
25.3267951544
 10
24.3454271746
 20
25.2903529225
 10
24.3549388902
 20
25.2546644494
 10
24.3628734914
 20
25.2198407647
 10
24.3692910517
 20
25.1862915911
 10
24.3743263064
 20
25.1541915024
 10
24.3781463069
 20
25.1234943217
 10
24.380890029
 20
25.0942697703
 10
24.3826935052
 20
25.0665635507
 10
24.3836879277
 20
25.0403981517
 10
24.3839973293
 20
25.0157962394
  0
LWPOLYLINE
  5
380
100
AcDbEntity
  8
RACCORDO
100
AcDbPolyline
 62
253
  6
CONTINUOUS
 90
7
 70
0
 10
23.7359950183
 20
26.4674138319
 10
23.834708444
 20
26.4574358188
 10
23.9318476793
 20
26.4391294332
 10
24.0274127441
 20
26.412494675
 10
24.1223221314
 20
26.3773136477
 10
24.2156573791
 20
26.3338042478
 10
24.3046631104
 20
26.2826201652
  0
LWPOLYLINE
  5
381
100
AcDbEntity
  8
RACCORDO
100
AcDbPolyline
 62
253
  6
CONTINUOUS
 90
19
 70
0
 10
23.7264613451
 20
26.3676100458
 10
23.8157960686
 20
26.3583460715
 10
23.9050388959
 20
26.3416047624
 10
23.9935371996
 20
26.3172670132
 10
24.0807722193
 20
26.2851669439
 10
24.1658669459
 20
26.2453635368
 10
24.2476316889
 20
26.1982207679
 10
24.3254558548
 20
26.1439099531
 10
24.3986388642
 20
26.082800278
 10
24.4660253132
 20
26.0158567127
 10
24.5271116277
 20
25.9436735702
 10
24.5815848862
 20
25.8668122684
 10
24.6288519457
 20
25.7864208489
 10
24.6686815424
 20
25.7033513985
 10
24.7011244671
 20
25.6181421104
 10
24.7261777455
 20
25.5315107382
 10
24.7438785765
 20
25.4441139998
 10
24.7543682097
 20
25.3565633919
 10
24.7578310652
 20
25.2694570244
  0
LWPOLYLINE
  5
382
100
AcDbEntity
  8
RACCORDO
100
AcDbPolyline
 62
253
  6
CONTINUOUS
 90
11
 70
0
 10
23.4471654044
 20
26.0110283041
 10
23.447486926
 20
26.0095494834
 10
23.44770241
 20
26.0065049462
 10
23.4478084201
 20
26.0019432433
 10
23.4478032657
 20
25.9959371197
 10
23.4476870292
 20
25.9885823539
 10
23.447461564
 20
25.9799962313
 10
23.4471304657
 20
25.9703156736
 10
23.4466990142
 20
25.959695055
 10
23.4461740898
 20
25.9483037411
 10
23.4455640635
 20
25.9363233874
  0
LWPOLYLINE
  5
383
100
AcDbEntity
  8
RACCORDO
100
AcDbPolyline
 62
253
  6
CONTINUOUS
 90
16
 70
0
 10
22.5967179066
 20
22.7369312221
 10
22.5947497455
 20
22.7464682177
 10
22.5907404491
 20
22.7559067781
 10
22.5847313988
 20
22.7651494844
 10
22.5767846165
 20
22.774100939
 10
22.566982124
 20
22.7826687502
 10
22.5554250967
 20
22.7907644865
 10
22.5422328192
 20
22.7983045886
 10
22.5275414541
 20
22.805211232
 10
22.5115026369
 20
22.8114131306
 10
22.4942819104
 20
22.8168462722
 10
22.4760570165
 20
22.8214545792
 10
22.4570160616
 20
22.8251904874
 10
22.4373555747
 20
22.8280154371
 10
22.4172784796
 20
22.8299002709
 10
22.3969919997
 20
22.8308255347
  0
LWPOLYLINE
  5
384
100
AcDbEntity
  8
RACCORDO
100
AcDbPolyline
 62
253
  6
CONTINUOUS
 90
16
 70
0
 10
22.6281095819
 20
23.8634653995
 10
22.6261414163
 20
23.873002409
 10
22.6221321101
 20
23.8824409816
 10
22.616123046
 20
23.8916836977
 10
22.6081762468
 20
23.9006351599
 10
22.5983737357
 20
23.9092029762
 10
22.5868166903
 20
23.9172987144
 10
22.5736243968
 20
23.9248388154
 10
22.5589330193
 20
23.9317454552
 10
22.5428941949
 20
23.9379473479
 10
22.5256734681
 20
23.9433804819
 10
22.5074485812
 20
23.9479887805
 10
22.4884076416
 20
23.9517246803
 10
22.4687471786
 20
23.9545496225
 10
22.4486701155
 20
23.9564344508
 10
22.428383675
 20
23.9573597121
  0
LWPOLYLINE
  5
385
100
AcDbEntity
  8
RACCORDO
100
AcDbPolyline
 62
253
  6
CONTINUOUS
 90
10
 70
0
 10
22.6510756975
 20
-24.5928399651
 10
22.6616287529
 20
-24.5837095649
 10
22.6721256713
 20
-24.5741282616
 10
22.682510612
 20
-24.5641470221
 10
22.6927283299
 20
-24.553818941
 10
22.7027244695
 20
-24.5431989577
 10
22.7124458541
 20
-24.5323435647
 10
22.7218407684
 20
-24.5213105065
 10
22.730859234
 20
-24.5101584728
 10
22.7394532749
 20
-24.4989467864
  0
LWPOLYLINE
  5
386
100
AcDbEntity
  8
RACCORDO
100
AcDbPolyline
 62
7
  6
CONTINUOUS
 90
4
 70
0
 10
-23.7185780297
 20
26.3602231048
 10
-23.9098084771
 20
26.3285634258
 10
-24.0842653858
 20
26.2716432212
 10
-24.2419491613
 20
26.1894624909
  0
LINE
  5
387
100
AcDbEntity
  8
RACCORDO
100
AcDbLine
 62
7
  6
CONTINUOUS
 10
23.9079958133
 20
26.3294459801
 11
23.7185780298
 21
26.3602231048
  0
LWPOLYLINE
  5
388
100
AcDbEntity
  8
RACCORDO
100
AcDbPolyline
 62
253
  6
CONTINUOUS
 90
10
 70
0
 10
22.7394558656
 20
24.4989467872
 10
22.7308617751
 20
24.5101587379
 10
22.7218431796
 20
24.5213110361
 10
22.712448063
 20
24.5323443452
 10
22.7027264124
 20
24.543199962
 10
22.6927299524
 20
24.5538201284
 10
22.6825118696
 20
24.5641483393
 10
22.6721265298
 20
24.5741296427
 10
22.6616291886
 20
24.5837109326
 10
22.6510756978
 20
24.5928412311
  0
LWPOLYLINE
  5
389
100
AcDbEntity
  8
RACCORDO
100
AcDbPolyline
 62
253
  6
CONTINUOUS
 90
12
 70
0
 10
24.711598426
 20
-25.8499794638
 10
24.6574457268
 20
-25.9382241497
 10
24.5953306399
 20
-26.0225923136
 10
24.5270464242
 20
-26.1005697356
 10
24.4516914283
 20
-26.171990124
 10
24.3701671704
 20
-26.2370197705
 10
24.2869717256
 20
-26.2936433305
 10
24.2045564629
 20
-26.3406487393
 10
24.1204699951
 20
-26.3792480617
 10
24.03185628
 20
-26.4110621471
 10
23.9377632497
 20
-26.4366312789
 10
23.8391428496
 20
-26.4554151739
  0
LWPOLYLINE
  5
38A
100
AcDbEntity
  8
RACCORDO
100
AcDbPolyline
 62
7
  6
CONTINUOUS
 90
6
 70
0
 10
24.2419491613
 20
-26.1894624909
 10
24.3860392816
 20
-26.078458717
 10
24.5133569356
 20
-25.9421944174
 10
24.6143652144
 20
-25.7913571462
 10
24.6858854418
 20
-25.6295094217
 10
24.731096979
 20
-25.4530887256
  0
LWPOLYLINE
  5
38B
100
AcDbEntity
  8
RACCORDO
100
AcDbPolyline
 62
253
  6
CONTINUOUS
 90
12
 70
0
 10
24.3046631104
 20
26.2826201652
 10
24.3892236686
 20
26.2233225356
 10
24.4694548168
 20
26.1563502233
 10
24.5429483682
 20
26.0836735105
 10
24.6093027167
 20
26.0050766589
 10
24.6689196064
 20
25.9207754069
 10
24.7205959055
 20
25.8333872525
 10
24.7639373076
 20
25.7430443746
 10
24.7993382308
 20
25.6496145944
 10
24.8267786264
 20
25.5553188732
 10
24.8462518301
 20
25.4608975314
 10
24.8577645609
 20
25.3656102486
  0
LWPOLYLINE
  5
38C
100
AcDbEntity
  8
RACCORDO
100
AcDbPolyline
 62
7
  6
CONTINUOUS
 90
6
 70
0
 10
24.6123032044
 20
25.7950988254
 10
24.5105281072
 20
25.9458835901
 10
24.3824935049
 20
26.0815235583
 10
24.2382740084
 20
26.1917994245
 10
24.0812276768
 20
26.2733047533
 10
23.9079958133
 20
26.3294459801
  0
LWPOLYLINE
  5
38D
100
AcDbEntity
  8
RACCORDO
100
AcDbPolyline
 62
253
  6
CONTINUOUS
 90
22
 70
0
 10
46.3433101752
 20
45.2934376806
 10
46.3406240533
 20
45.3674817692
 10
46.3324543882
 20
45.4406584729
 10
46.3188011679
 20
45.5129677916
 10
46.2995811039
 20
45.5848677737
 10
46.274877435
 20
45.6559003708
 10
46.2449399281
 20
45.7246914379
 10
46.209605854
 20
45.7912289926
 10
46.1690378475
 20
45.8555250173
 10
46.1239737205
 20
45.9162413146
 10
46.0742772528
 20
45.9732727433
 10
46.0200845473
 20
46.0267244446
 10
45.9625419174
 20
46.0755736444
 10
45.9015960683
 20
46.1196648792
 10
45.8373001869
 20
46.1591536124
 10
45.7709603445
 20
46.1934834605
 10
45.7026121929
 20
46.2225175672
 10
45.6322200073
 20
46.2463927888
 10
45.560982838
 20
46.2649633098
 10
45.4893003683
 20
46.2781805252
 10
45.4167728889
 20
46.2860930401
 10
45.343400384
 20
46.2887008545
  0
LWPOLYLINE
  5
38E
100
AcDbEntity
  8
RACCORDO
100
AcDbPolyline
 62
253
  6
CONTINUOUS
 90
10
 70
0
 10
45.3434003726
 20
46.2887008545
 10
45.3425906678
 20
46.4398145691
 10
45.3401788403
 20
46.5866376604
 10
45.3362333698
 20
46.7250013304
 10
45.3308662814
 20
46.850976972
 10
45.3242299648
 20
46.9609877159
 10
45.316512847
 20
47.0519099895
 10
45.307934043
 20
47.1211622057
 10
45.2987371335
 20
47.1667780625
 10
45.2891832496
 20
47.1874623735
  0
LINE
  5
38F
100
AcDbEntity
  8
RACCORDO
100
AcDbLine
 62
253
  6
CONTINUOUS
 10
46.3433101752
 20
-45.2934376806
 11
46.3433101752
 21
45.2934376806
  0
LINE
  5
390
100
AcDbEntity
  8
RACCORDO
100
AcDbLine
 62
253
  6
CONTINUOUS
 10
47.1835788895
 20
-45.2934376806
 11
47.1835788895
 21
45.2934376806
  0
LINE
  5
391
100
AcDbEntity
  8
RACCORDO
100
AcDbLine
 62
7
  6
CONTINUOUS
 10
47.4
 20
45.509129643
 11
47.4
 21
-45.509129643
  0
LWPOLYLINE
  5
392
100
AcDbEntity
  8
RACCORDO
100
AcDbPolyline
 62
253
  6
CONTINUOUS
 90
10
 70
0
 10
45.3434003838
 20
-46.2887008545
 10
45.3425906756
 20
-46.4398142773
 10
45.3401788452
 20
-46.5866370562
 10
45.3362333724
 20
-46.7250004075
 10
45.3308662822
 20
-46.8509757387
 10
45.324229964
 20
-46.9609861941
 10
45.3165128449
 20
-47.0519082135
 10
45.3079340393
 20
-47.1211602206
 10
45.2987371281
 20
-47.1667759221
 10
45.2891832419
 20
-47.1874601376
  0
LWPOLYLINE
  5
393
100
AcDbEntity
  8
RACCORDO
100
AcDbPolyline
 62
253
  6
CONTINUOUS
 90
22
 70
0
 10
-45.343400384
 20
46.2887008545
 10
-45.4167728888
 20
46.2860930397
 10
-45.4893003681
 20
46.2781805245
 10
-45.5609828379
 20
46.264963309
 10
-45.6322200072
 20
46.2463927883
 10
-45.702612193
 20
46.2225175672
 10
-45.7709603447
 20
46.1934834608
 10
-45.837300187
 20
46.1591536127
 10
-45.9015960683
 20
46.1196648793
 10
-45.9625419174
 20
46.0755736443
 10
-46.0200845473
 20
46.0267244446
 10
-46.0742772528
 20
45.9732727433
 10
-46.1239737205
 20
45.9162413146
 10
-46.1690378475
 20
45.8555250173
 10
-46.2096058539
 20
45.7912289925
 10
-46.2449399279
 20
45.7246914378
 10
-46.274877435
 20
45.6559003707
 10
-46.2995811041
 20
45.5848677737
 10
-46.3188011682
 20
45.5129677917
 10
-46.3324543885
 20
45.440658473
 10
-46.3406240534
 20
45.3674817693
 10
-46.3433101752
 20
45.2934376806
  0
LINE
  5
394
100
AcDbEntity
  8
RACCORDO
100
AcDbLine
 62
253
  6
CONTINUOUS
 10
46.3433101752
 20
45.2934376806
 11
47.1835788895
 21
45.2934376806
  0
LINE
  5
395
100
AcDbEntity
  8
RACCORDO
100
AcDbLine
 62
253
  6
CONTINUOUS
 10
-46.3433101752
 20
45.2934376806
 11
-47.1835788895
 21
45.2934376806
  0
LINE
  5
396
100
AcDbEntity
  8
RACCORDO
100
AcDbLine
 62
253
  6
CONTINUOUS
 10
45.343400384
 20
46.2887008545
 11
-45.343400384
 21
46.2887008545
  0
LINE
  5
397
100
AcDbEntity
  8
RACCORDO
100
AcDbLine
 62
253
  6
CONTINUOUS
 10
45.2891832496
 20
47.1874623735
 11
-45.2891832494
 21
47.1874623708
  0
LINE
  5
398
100
AcDbEntity
  8
RACCORDO
100
AcDbLine
 62
7
  6
CONTINUOUS
 10
-45.5024688883
 20
47.3999998077
 11
45.5024688883
 21
47.3999998077
  0
LWPOLYLINE
  5
399
100
AcDbEntity
  8
RACCORDO
100
AcDbPolyline
 62
253
  6
CONTINUOUS
 90
22
 70
0
 10
47.1835780244
 20
45.2934376806
 10
47.1782744104
 20
45.4326279182
 10
47.1626617438
 20
45.5717873051
 10
47.1366694149
 20
45.7101354186
 10
47.1002192904
 20
45.8469454769
 10
47.0533896165
 20
45.9813389741
 10
46.9964027987
 20
46.1122921814
 10
46.9294112227
 20
46.2390605691
 10
46.8527482491
 20
46.3608096629
 10
46.7670575818
 20
46.47643119
 10
46.6727985679
 20
46.585234484
 10
46.5705315291
 20
46.6866013306
 10
46.4612211655
 20
46.7796605306
 10
46.3455929849
 20
46.8638961409
 10
46.224329473
 20
46.9389767334
 10
46.0984325256
 20
47.0044523875
 10
45.9687703715
 20
47.0600402481
 10
45.8360287144
 20
47.1056610812
 10
45.7009464127
 20
47.1412361376
 10
45.5642705677
 20
47.16669612
 10
45.426768278
 20
47.1820758732
 10
45.2891832419
 20
47.1874601334
  0
LWPOLYLINE
  5
39A
100
AcDbEntity
  8
RACCORDO
100
AcDbPolyline
 62
7
  6
CONTINUOUS
 90
10
 70
0
 10
47.4
 20
-45.5091301196
 10
47.3667704573
 20
-45.8487616664
 10
47.2835471365
 20
-46.1617901958
 10
47.150328856
 20
-46.4482157077
 10
46.9596519579
 20
-46.715745817
 10
46.7189753073
 20
-46.9566729089
 10
46.4506819647
 20
-47.1478741384
 10
46.1622322295
 20
-47.2816418905
 10
45.8461619868
 20
-47.3656837803
 10
45.5024688883
 20
-47.3999998077
  0
LWPOLYLINE
  5
39B
100
AcDbEntity
  8
RACCORDO
100
AcDbPolyline
 62
253
  6
CONTINUOUS
 90
22
 70
0
 10
-45.2891832419
 20
47.1874601376
 10
-45.4267682955
 20
47.1820758845
 10
-45.5642705723
 20
47.1666961269
 10
-45.7009464003
 20
47.1412361386
 10
-45.8360286977
 20
47.1056610809
 10
-45.968770359
 20
47.0600402498
 10
-46.0984325184
 20
47.0044523916
 10
-46.2243294678
 20
46.9389767384
 10
-46.3455929794
 20
46.8638961458
 10
-46.4612211593
 20
46.7796605352
 10
-46.5705315231
 20
46.6866013352
 10
-46.6727985627
 20
46.5852344888
 10
-46.7670575779
 20
46.4764311952
 10
-46.8527482461
 20
46.3608096684
 10
-46.9294112203
 20
46.2390605745
 10
-46.9964027962
 20
46.1122921859
 10
-47.0533896136
 20
45.9813389769
 10
-47.1002192879
 20
45.8469454791
 10
-47.1366694145
 20
45.7101354233
 10
-47.1626617471
 20
45.5717873147
 10
-47.1782744147
 20
45.4326279286
 10
-47.1835780227
 20
45.2934376806
  0
LWPOLYLINE
  5
39C
100
AcDbEntity
  8
RACCORDO
100
AcDbPolyline
 62
7
  6
CONTINUOUS
 90
10
 70
0
 10
45.5024688883
 20
47.3999998077
 10
45.8461619868
 20
47.3656837803
 10
46.1622322295
 20
47.2816418905
 10
46.4506819647
 20
47.1478741384
 10
46.7189753073
 20
46.9566729089
 10
46.9596519579
 20
46.715745817
 10
47.150328856
 20
46.4482157077
 10
47.2835471365
 20
46.1617901958
 10
47.3667704573
 20
45.8487616664
 10
47.4
 20
45.5091301196
  0
LINE
  5
39D
100
AcDbEntity
  8
RACCORDO
100
AcDbLine
 62
253
  6
CONTINUOUS
 10
-83.8819681163
 20
-47.1878695763
 11
-82.4405130635
 21
-47.1874623708
  0
LINE
  5
39E
100
AcDbEntity
  8
RACCORDO
100
AcDbLine
 62
253
  6
CONTINUOUS
 10
-84.7348619527
 20
-46.2891056049
 11
-83.2915891653
 21
-46.2887008545
  0
LINE
  5
39F
100
AcDbEntity
  8
RACCORDO
100
AcDbLine
 62
7
  6
CONTINUOUS
 10
-79.8348619527
 20
-47.3999718043
 11
-78.3713564285
 21
-47.3999998077
  0
LINE
  5
3A0
100
AcDbEntity
  8
RACCORDO
100
AcDbLine
 62
253
  6
CONTINUOUS
 10
-78.3713564284
 20
-47.3999998077
 11
-82.440513064
 21
-47.1874623806
  0
LINE
  5
3A1
100
AcDbEntity
  8
0
100
AcDbLine
 62
7
  6
CONTINUOUS
 10
-83.8819681147
 20
-47.1878690232
 11
-79.8348619527
 21
-47.3999688697
  0
LINE
  5
3A2
100
AcDbEntity
  8
DRAFT
100
AcDbLine
 62
7
  6
CONTINUOUS
 10
-76.3348619527
 20
-46.5
 11
-78.2617867457
 21
-46.3990141508
  0
LINE
  5
3A3
100
AcDbEntity
  8
DRAFT
100
AcDbLine
 62
253
  6
CONTINUOUS
 10
-75.8348619527
 20
-45.5
 11
-78.2466099088
 21
-45.5
  0
LINE
  5
3A4
100
AcDbEntity
  8
RACCORDO
100
AcDbLine
 62
253
  6
CONTINUOUS
 10
-83.2271652153
 20
-45.2934376806
 11
-82.3761706994
 21
-45.2934376806
  0
LINE
  5
3A5
100
AcDbEntity
  8
RACCORDO
100
AcDbLine
 62
253
  6
CONTINUOUS
 10
-78.2466099088
 20
-45.509129643
 11
-82.3761706994
 21
-45.2934376806
  0
LINE
  5
3A6
100
AcDbEntity
  8
0
100
AcDbLine
 62
7
  6
CONTINUOUS
 10
-75.1348619527
 20
-26.35
 11
-75.8348619527
 21
-26.3540724809
  0
LINE
  5
3A7
100
AcDbEntity
  8
DRAFT
100
AcDbLine
 62
7
  6
CONTINUOUS
 10
-75.8348619527
 20
-27.2512217317
 11
-75.1348619527
 21
-27.25
  0
LINE
  5
3A8
100
AcDbEntity
  8
DRAFT
100
AcDbLine
 62
253
  6
CONTINUOUS
 10
-75.1348619527
 20
-27.053527618
 11
-75.8348619527
 21
-27.0538438255
  0
LINE
  5
3A9
100
AcDbEntity
  8
0
100
AcDbLine
 62
7
  6
CONTINUOUS
 10
-75.3348619527
 20
-25.2
 11
-75.8348619527
 21
-25.2
  0
LINE
  5
3AA
100
AcDbEntity
  8
COPIA_X_PUBLISH
100
AcDbLine
 62
7
  6
CONTINUOUS
 10
-75.6848619527
 20
-25.05
 11
-75.4848619527
 21
-25.05
  0
LINE
  5
3AB
100
AcDbEntity
  8
RACCORDO
100
AcDbLine
 62
253
  6
CONTINUOUS
 10
-84.3259627971
 20
-25.0157962394
 11
-84.4206710531
 21
-25.0157962394
  0
LINE
  5
3AC
100
AcDbEntity
  8
RACCORDO
100
AcDbLine
 62
7
  6
CONTINUOUS
 10
-75.8348619527
 20
-25.7690739122
 11
-75.3243947614
 21
-25.7916264167
  0
LINE
  5
3AD
100
AcDbEntity
  8
RACCORDO
100
AcDbLine
 62
253
  6
CONTINUOUS
 10
-84.3103517684
 20
-26.0131863223
 11
-84.3542335974
 21
-26.0110283674
  0
LINE
  5
3AE
100
AcDbEntity
  8
DRAFT
100
AcDbLine
 62
7
  6
CONTINUOUS
 10
-84.7400955484
 20
-26.7344408768
 11
-84.489161422
 21
-26.7475917775
  0
LWPOLYLINE
  5
3AF
100
AcDbEntity
  8
RACCORDO
100
AcDbPolyline
 62
253
  6
CONTINUOUS
 90
13
 70
0
 10
-84.3542335965
 20
-26.0110283494
 10
-84.3667706719
 20
-26.0095495271
 10
-84.3790243611
 20
-26.0065049877
 10
-84.3907992562
 20
-26.0019432819
 10
-84.4019075847
 20
-25.9959371547
 10
-84.4121722037
 20
-25.988582385
 10
-84.4214294248
 20
-25.979996258
 10
-84.4295316243
 20
-25.9703156956
 10
-84.4363495978
 20
-25.9596950723
 10
-84.44177462
 20
-25.9483037537
 10
-84.4457201788
 20
-25.9363233954
 10
-84.448123355
 20
-25.9239450464
 10
-84.4489458254
 20
-25.9113661026
  0
LINE
  5
3B0
100
AcDbEntity
  8
COPIA_X_PUBLISH
100
AcDbLine
 62
7
  6
CONTINUOUS
 10
-75.4848619527
 20
25.05
 11
-75.3348619527
 21
25.2
  0
LINE
  5
3B1
100
AcDbEntity
  8
0
100
AcDbLine
 62
7
  6
CONTINUOUS
 10
-75.3243947614
 20
-14.2599329936
 11
-75.8348619527
 21
-14.2866854455
  0
LINE
  5
3B2
100
AcDbEntity
  8
COPIA_X_PUBLISH
100
AcDbLine
 62
7
  6
CONTINUOUS
 10
-75.4848619527
 20
-25.05
 11
-75.3348619527
 21
-25.2
  0
LINE
  5
3B3
100
AcDbEntity
  8
0
100
AcDbLine
 62
7
  6
CONTINUOUS
 10
-75.1348619527
 20
-13.75
 11
-75.8348619527
 21
-13.7516868768
  0
LINE
  5
3B4
100
AcDbEntity
  8
0
100
AcDbLine
 62
253
  6
CONTINUOUS
 10
-75.1348619527
 20
-13.2897777479
 11
-75.8348619527
 21
-13.2909578501
  0
LINE
  5
3B5
100
AcDbEntity
  8
0
100
AcDbLine
 62
7
  6
CONTINUOUS
 10
-75.1348619527
 20
-10.45
 11
-75.8348619527
 21
-10.451091218
  0
LINE
  5
3B6
100
AcDbEntity
  8
0
100
AcDbLine
 62
7
  6
CONTINUOUS
 10
-75.1348619527
 20
-13.4445574503
 11
-75.8348619527
 21
-13.4447310621
  0
LINE
  5
3B7
100
AcDbEntity
  8
0
100
AcDbLine
 62
7
  6
CONTINUOUS
 10
-75.1348619527
 20
-12.5554425497
 11
-75.8348619527
 21
-12.5552689379
  0
LINE
  5
3B8
100
AcDbEntity
  8
0
100
AcDbLine
 62
7
  6
CONTINUOUS
 10
-75.1348619527
 20
-12.4830127019
 11
-75.8348619527
 21
-12.4819214839
  0
LINE
  5
3B9
100
AcDbEntity
  8
0
100
AcDbLine
 62
7
  6
CONTINUOUS
 10
-75.1348619527
 20
-12.05
 11
-75.8348619527
 21
-12.048908782
  0
LINE
  5
3BA
100
AcDbEntity
  8
0
100
AcDbLine
 62
253
  6
CONTINUOUS
 10
-75.1348619527
 20
-12.7102222521
 11
-75.8348619527
 21
-12.7090421499
  0
LWPOLYLINE
  5
3BB
100
AcDbEntity
  8
RACCORDO
100
AcDbPolyline
 62
253
  6
CONTINUOUS
 90
10
 70
0
 10
-83.2915891617
 20
-46.2887008545
 10
-83.2788376513
 20
-46.4398142773
 10
-83.240945953
 20
-46.5866370562
 10
-83.1789899374
 20
-46.7250004075
 10
-83.0947287404
 20
-46.8509757387
 10
-82.9905548155
 20
-46.9609861941
 10
-82.8694260046
 20
-47.0519082135
 10
-82.7347815548
 20
-47.1211602206
 10
-82.5904444665
 20
-47.1667759221
 10
-82.4405129464
 20
-47.1874601376
  0
LWPOLYLINE
  5
3BC
100
AcDbEntity
  8
RACCORDO
100
AcDbPolyline
 62
253
  6
CONTINUOUS
 90
10
 70
0
 10
-83.2915889855
 20
46.2887008545
 10
-83.2788376641
 20
46.4398145691
 10
-83.2409461151
 20
46.5866376604
 10
-83.1789902061
 20
46.7250013304
 10
-83.0947290726
 20
46.850976972
 10
-82.9905551696
 20
46.9609877159
 10
-82.8694263423
 20
47.0519099895
 10
-82.7347818428
 20
47.1211622057
 10
-82.5904446785
 20
47.1667780625
 10
-82.4405130636
 20
47.1874623735
  0
LINE
  5
3BD
100
AcDbEntity
  8
0
100
AcDbLine
 62
7
  6
CONTINUOUS
 10
-75.1348619527
 20
-10.0169872981
 11
-75.8348619527
 21
-10.0180785161
  0
LINE
  5
3BE
100
AcDbEntity
  8
0
100
AcDbLine
 62
253
  6
CONTINUOUS
 10
-75.1348619527
 20
-9.7897777479
 11
-75.8348619527
 21
-9.7909578501
  0
LINE
  5
3BF
100
AcDbEntity
  8
0
100
AcDbLine
 62
7
  6
CONTINUOUS
 10
-75.1348619527
 20
-9.9445574503
 11
-75.8348619527
 21
-9.9447310621
  0
LINE
  5
3C0
100
AcDbEntity
  8
0
100
AcDbLine
 62
7
  6
CONTINUOUS
 10
-75.1348619527
 20
-9.0554425497
 11
-75.8348619527
 21
-9.0552689379
  0
LINE
  5
3C1
100
AcDbEntity
  8
0
100
AcDbLine
 62
253
  6
CONTINUOUS
 10
-75.1348619527
 20
-9.2102222521
 11
-75.8348619527
 21
-9.2090421499
  0
LINE
  5
3C2
100
AcDbEntity
  8
0
100
AcDbLine
 62
7
  6
CONTINUOUS
 10
-75.1348619527
 20
-8.75
 11
-75.8348619527
 21
-8.7483131232
  0
LINE
  5
3C3
100
AcDbEntity
  8
0
100
AcDbLine
 62
7
  6
CONTINUOUS
 10
-75.3243947614
 20
-8.2400670064
 11
-75.8348619527
 21
-8.2133145545
  0
LINE
  5
3C4
100
AcDbEntity
  8
RACCORDO
100
AcDbLine
 62
253
  6
CONTINUOUS
 10
-84.4297784398
 20
25.6557466945
 11
-84.427887455
 21
25.5954516587
  0
LINE
  5
3C5
100
AcDbEntity
  8
RACCORDO
100
AcDbLine
 62
253
  6
CONTINUOUS
 10
-84.3369984617
 20
25.7268007507
 11
-84.3342131972
 21
25.6247123387
  0
LINE
  5
3C6
100
AcDbEntity
  8
RACCORDO
100
AcDbLine
 62
253
  6
CONTINUOUS
 10
-84.427887455
 20
25.5954516587
 11
-84.4262123861
 21
25.5314654735
  0
LINE
  5
3C7
100
AcDbEntity
  8
RACCORDO
100
AcDbLine
 62
253
  6
CONTINUOUS
 10
-84.4690536221
 20
-24.6636327612
 11
-84.4687679574
 21
-24.6761144814
  0
LINE
  5
3C8
100
AcDbEntity
  8
RACCORDO
100
AcDbLine
 62
7
  6
CONTINUOUS
 10
-84.3104361837
 20
26.0164241663
 11
-84.3074183585
 21
25.891792323
  0
LINE
  5
3C9
100
AcDbEntity
  8
RACCORDO
100
AcDbLine
 62
253
  6
CONTINUOUS
 10
-84.3079770822
 20
25.9207754069
 11
-84.3074183585
 21
25.891792323
  0
LINE
  5
3CA
100
AcDbEntity
  8
RACCORDO
100
AcDbLine
 62
253
  6
CONTINUOUS
 10
-84.3065220033
 20
25.8471465958
 11
-84.3061861989
 21
25.8333872525
  0
LINE
  5
3CB
100
AcDbEntity
  8
RACCORDO
100
AcDbLine
 62
253
  6
CONTINUOUS
 10
-84.3342131972
 20
25.6247123387
 11
-84.3318045051
 21
25.5145816143
  0
LINE
  5
3CC
100
AcDbEntity
  8
RACCORDO
100
AcDbLine
 62
253
  6
CONTINUOUS
 10
-84.4262123861
 20
25.5314654735
 11
-84.4241350805
 21
25.4309207707
  0
LINE
  5
3CD
100
AcDbEntity
  8
RACCORDO
100
AcDbLine
 62
7
  6
CONTINUOUS
 10
-84.3074183585
 20
25.891792323
 11
-84.3049112788
 21
25.7535357637
  0
LINE
  5
3CE
100
AcDbEntity
  8
RACCORDO
100
AcDbLine
 62
253
  6
CONTINUOUS
 10
-84.3318045051
 20
25.5145816143
 11
-84.3292644162
 21
25.363924345
  0
LINE
  5
3CF
100
AcDbEntity
  8
RACCORDO
100
AcDbLine
 62
253
  6
CONTINUOUS
 10
-84.4241350805
 20
25.4309207707
 11
-84.4225942735
 21
25.3291827712
  0
LINE
  5
3D0
100
AcDbEntity
  8
RACCORDO
100
AcDbLine
 62
7
  6
CONTINUOUS
 10
-84.3049112788
 20
25.7535357637
 11
-84.3030072693
 21
25.6034120558
  0
LINE
  5
3D1
100
AcDbEntity
  8
RACCORDO
100
AcDbLine
 62
253
  6
CONTINUOUS
 10
-84.3292644162
 20
25.363924345
 11
-84.3271713304
 21
25.1862915911
  0
LINE
  5
3D2
100
AcDbEntity
  8
RACCORDO
100
AcDbLine
 62
253
  6
CONTINUOUS
 10
-84.4688711962
 20
-24.6639964394
 11
-84.4687684134
 21
-24.6761137893
  0
LINE
  5
3D3
100
AcDbEntity
  8
RACCORDO
100
AcDbLine
 62
253
  6
CONTINUOUS
 10
-84.4225942735
 20
25.3291827712
 11
-84.4213201428
 21
25.1994485659
  0
LINE
  5
3D4
100
AcDbEntity
  8
RACCORDO
100
AcDbLine
 62
7
  6
CONTINUOUS
 10
-84.3030072693
 20
25.6034120558
 11
-84.3017944365
 21
25.4436592891
  0
LINE
  5
3D5
100
AcDbEntity
  8
RACCORDO
100
AcDbLine
 62
253
  6
CONTINUOUS
 10
-84.3271713304
 20
25.1862915911
 11
-84.3260930848
 21
25.0403981517
  0
LINE
  5
3D6
100
AcDbEntity
  8
RACCORDO
100
AcDbLine
 62
253
  6
CONTINUOUS
 10
-84.3018158384
 20
25.4608975314
 11
-84.3017944365
 21
25.4436592891
  0
LINE
  5
3D7
100
AcDbEntity
  8
RACCORDO
100
AcDbLine
 62
253
  6
CONTINUOUS
 10
-84.4213201428
 20
25.1994485659
 11
-84.4207053061
 21
25.0615333172
  0
LINE
  5
3D8
100
AcDbEntity
  8
0
100
AcDbLine
 62
7
  6
CONTINUOUS
 10
-84.8348619527
 20
26.6344390079
 11
-84.8348619527
 21
25.3369234272
  0
LINE
  5
3D9
100
AcDbEntity
  8
0
100
AcDbLine
 62
7
  6
CONTINUOUS
 10
-84.8348619527
 20
-25.3369234273
 11
-84.8348619527
 21
-26.6343539394
  0
LINE
  5
3DA
100
AcDbEntity
  8
0
100
AcDbLine
 62
7
  6
CONTINUOUS
 10
-84.7348619527
 20
46.2890606327
 11
-84.7348619527
 21
27.1255817557
  0
LINE
  5
3DB
100
AcDbEntity
  8
0
100
AcDbLine
 62
7
  6
CONTINUOUS
 10
-84.7348619527
 20
-27.1255890027
 11
-84.7348619527
 21
-46.2890606327
  0
LINE
  5
3DC
100
AcDbEntity
  8
RACCORDO
100
AcDbLine
 62
7
  6
CONTINUOUS
 10
-84.4688712053
 20
-24.6641702978
 11
-84.4688712053
 21
24.6641662788
  0
LINE
  5
3DD
100
AcDbEntity
  8
RACCORDO
100
AcDbLine
 62
253
  6
CONTINUOUS
 10
-84.4687684134
 20
-24.6761137893
 11
-84.4687684134
 21
-24.6636285852
  0
LINE
  5
3DE
100
AcDbEntity
  8
RACCORDO
100
AcDbLine
 62
253
  6
CONTINUOUS
 10
-84.4687684134
 20
24.6635824509
 11
-84.4687684134
 21
24.6761121236
  0
LINE
  5
3DF
100
AcDbEntity
  8
RACCORDO
100
AcDbLine
 62
7
  6
CONTINUOUS
 10
-84.3017944365
 20
25.4436592891
 11
-84.3015564369
 21
-25.3883300542
  0
LINE
  5
3E0
100
AcDbEntity
  8
RACCORDO
100
AcDbLine
 62
253
  6
CONTINUOUS
 10
-84.4207053061
 20
25.0615333172
 11
-84.4209694312
 21
-25.1412534521
  0
LINE
  5
3E1
100
AcDbEntity
  8
RACCORDO
100
AcDbLine
 62
253
  6
CONTINUOUS
 10
-84.4688711744
 20
24.6640884986
 11
-84.4687684134
 21
24.6761121236
  0
LINE
  5
3E2
100
AcDbEntity
  8
RACCORDO
100
AcDbLine
 62
253
  6
CONTINUOUS
 10
-84.3259627948
 20
-25.0157962394
 11
-84.3271807651
 21
-25.1873031211
  0
LINE
  5
3E3
100
AcDbEntity
  8
RACCORDO
100
AcDbLine
 62
7
  6
CONTINUOUS
 10
-84.3015564369
 20
-25.3883300542
 11
-84.3029578168
 21
-25.5984312403
  0
LINE
  5
3E4
100
AcDbEntity
  8
RACCORDO
100
AcDbLine
 62
253
  6
CONTINUOUS
 10
-84.4209694312
 20
-25.1412534521
 11
-84.4218622841
 21
-25.2638856105
  0
LINE
  5
3E5
100
AcDbEntity
  8
RACCORDO
100
AcDbLine
 62
253
  6
CONTINUOUS
 10
-84.3025743298
 20
-25.5645004935
 11
-84.3029578168
 21
-25.5984312403
  0
LINE
  5
3E6
100
AcDbEntity
  8
RACCORDO
100
AcDbLine
 62
7
  6
CONTINUOUS
 10
-84.3029578168
 20
-25.5984312403
 11
-84.3045576825
 21
-25.7299401934
  0
LINE
  5
3E7
100
AcDbEntity
  8
RACCORDO
100
AcDbLine
 62
253
  6
CONTINUOUS
 10
-84.4218622841
 20
-25.2638856105
 11
-84.4230604795
 21
-25.3636883874
  0
LINE
  5
3E8
100
AcDbEntity
  8
RACCORDO
100
AcDbLine
 62
253
  6
CONTINUOUS
 10
-84.3271807651
 20
-25.1873031211
 11
-84.3292784429
 21
-25.3648997313
  0
LINE
  5
3E9
100
AcDbEntity
  8
RACCORDO
100
AcDbLine
 62
7
  6
CONTINUOUS
 10
-84.3045576825
 20
-25.7299401934
 11
-84.306627077
 21
-25.8525882184
  0
LINE
  5
3EA
100
AcDbEntity
  8
RACCORDO
100
AcDbLine
 62
253
  6
CONTINUOUS
 10
-84.4230604795
 20
-25.3636883874
 11
-84.4247775149
 21
-25.4652877268
  0
LINE
  5
3EB
100
AcDbEntity
  8
RACCORDO
100
AcDbLine
 62
253
  6
CONTINUOUS
 10
-84.3292784429
 20
-25.3648997313
 11
-84.331816253
 21
-25.5151821702
  0
LINE
  5
3EC
100
AcDbEntity
  8
RACCORDO
100
AcDbLine
 62
253
  6
CONTINUOUS
 10
-84.3064982835
 20
-25.8499794638
 11
-84.306627077
 21
-25.8525882184
  0
LINE
  5
3ED
100
AcDbEntity
  8
RACCORDO
100
AcDbLine
 62
253
  6
CONTINUOUS
 10
-84.469047174
 20
24.6635863633
 11
-84.468768693
 21
24.6761158525
  0
LWPOLYLINE
  5
3EE
100
AcDbEntity
  8
RACCORDO
100
AcDbPolyline
 62
7
  6
CONTINUOUS
 90
3
 70
0
 10
-84.306627077
 20
-25.8525882184
 10
-84.3090911247
 20
-25.9649703018
 10
-84.3104520212
 20
-26.0170207065
  0
LINE
  5
3EF
100
AcDbEntity
  8
RACCORDO
100
AcDbLine
 62
253
  6
CONTINUOUS
 10
-84.331816253
 20
-25.5151821702
 11
-84.3342191616
 21
-25.6249566906
  0
LINE
  5
3F0
100
AcDbEntity
  8
RACCORDO
100
AcDbLine
 62
253
  6
CONTINUOUS
 10
-84.4247775149
 20
-25.4652877268
 11
-84.4270267291
 21
-25.5640884571
  0
LINE
  5
3F1
100
AcDbEntity
  8
RACCORDO
100
AcDbLine
 62
253
  6
CONTINUOUS
 10
-84.3083742096
 20
-25.9382241497
 11
-84.3090911247
 21
-25.9649703018
  0
LINE
  5
3F2
100
AcDbEntity
  8
RACCORDO
100
AcDbLine
 62
253
  6
CONTINUOUS
 10
-84.3104520212
 20
-26.0170207065
 11
-84.3105208905
 21
-26.0225923136
  0
LINE
  5
3F3
100
AcDbEntity
  8
RACCORDO
100
AcDbLine
 62
253
  6
CONTINUOUS
 10
-84.3342191616
 20
-25.6249566906
 11
-84.3369958907
 21
-25.7267165328
  0
LWPOLYLINE
  5
3F4
100
AcDbEntity
  8
RACCORDO
100
AcDbPolyline
 62
253
  6
CONTINUOUS
 90
3
 70
0
 10
-84.4270267291
 20
-25.5640884571
 10
-84.4288101426
 20
-25.6262456281
 10
-84.4297758026
 20
-25.6556699729
  0
LINE
  5
3F5
100
AcDbEntity
  8
RACCORDO
100
AcDbLine
 62
253
  6
CONTINUOUS
 10
-84.3266901229
 20
26.3773136477
 11
-84.325585264
 21
26.3589315967
  0
LWPOLYLINE
  5
3F6
100
AcDbEntity
  8
RACCORDO
100
AcDbPolyline
 62
253
  6
CONTINUOUS
 90
3
 70
0
 10
-84.3242382157
 20
26.3403908078
 10
-84.3235244626
 20
26.3338042478
 10
-84.3228925309
 20
26.3200226533
  0
LWPOLYLINE
  5
3F7
100
AcDbEntity
  8
RACCORDO
100
AcDbPolyline
 62
253
  6
CONTINUOUS
 90
3
 70
0
 10
-84.3215499396
 20
26.2977715024
 10
-84.3204942461
 20
26.2826201652
 10
-84.3202182185
 20
26.2736926114
  0
LINE
  5
3F8
100
AcDbEntity
  8
RACCORDO
100
AcDbLine
 62
7
  6
CONTINUOUS
 10
-84.3202182185
 20
26.2736926114
 11
-84.3176022791
 21
26.2200667986
  0
LINE
  5
3F9
100
AcDbEntity
  8
RACCORDO
100
AcDbLine
 62
253
  6
CONTINUOUS
 10
-82.4286208857
 20
47.0044523875
 11
-82.4335224561
 21
47.1056610812
  0
LINE
  5
3FA
100
AcDbEntity
  8
RACCORDO
100
AcDbLine
 62
253
  6
CONTINUOUS
 10
-84.3432692897
 20
25.8893135742
 11
-84.3411252894
 21
25.8425604532
  0
LINE
  5
3FB
100
AcDbEntity
  8
RACCORDO
100
AcDbLine
 62
253
  6
CONTINUOUS
 10
-84.3176050561
 20
26.2233225356
 11
-84.3176022791
 21
26.2200667986
  0
LINE
  5
3FC
100
AcDbEntity
  8
RACCORDO
100
AcDbLine
 62
253
  6
CONTINUOUS
 10
-84.3150795867
 20
26.1592181392
 11
-84.3148545015
 21
26.1563502233
  0
LINE
  5
3FD
100
AcDbEntity
  8
RACCORDO
100
AcDbLine
 62
7
  6
CONTINUOUS
 10
-84.3176022791
 20
26.2200667986
 11
-84.3150795867
 21
26.1592181392
  0
LWPOLYLINE
  5
3FE
100
AcDbEntity
  8
RACCORDO
100
AcDbPolyline
 62
253
  6
CONTINUOUS
 90
3
 70
0
 10
-84.4329528598
 20
25.7362606201
 10
-84.4307959768
 20
25.6839749028
 10
-84.4297784398
 20
25.6557466945
  0
LINE
  5
3FF
100
AcDbEntity
  8
RACCORDO
100
AcDbLine
 62
253
  6
CONTINUOUS
 10
-82.4228576702
 20
46.8638961409
 11
-82.4286208857
 21
47.0044523875
  0
LINE
  5
400
100
AcDbEntity
  8
RACCORDO
100
AcDbLine
 62
253
  6
CONTINUOUS
 10
-84.3411252894
 20
25.8425604532
 11
-84.3390208042
 21
25.7881539899
  0
LINE
  5
401
100
AcDbEntity
  8
RACCORDO
100
AcDbLine
 62
253
  6
CONTINUOUS
 10
-82.4128935734
 20
46.585234484
 11
-82.4228576702
 21
46.8638961409
  0
LINE
  5
402
100
AcDbEntity
  8
RACCORDO
100
AcDbLine
 62
7
  6
CONTINUOUS
 10
-84.3150795867
 20
26.1592181392
 11
-84.3126824936
 21
26.0912800196
  0
LINE
  5
403
100
AcDbEntity
  8
RACCORDO
100
AcDbLine
 62
253
  6
CONTINUOUS
 10
-84.3390208042
 20
25.7881539899
 11
-84.3369984617
 21
25.7268007507
  0
LINE
  5
404
100
AcDbEntity
  8
RACCORDO
100
AcDbLine
 62
253
  6
CONTINUOUS
 10
-84.3104361837
 20
26.0164241663
 11
-84.3100384918
 21
26.0050766589
  0
LINE
  5
405
100
AcDbEntity
  8
RACCORDO
100
AcDbLine
 62
7
  6
CONTINUOUS
 10
-84.3126824936
 20
26.0912800196
 11
-84.3104361837
 21
26.0164241663
  0
LINE
  5
406
100
AcDbEntity
  8
RACCORDO
100
AcDbLine
 62
253
  6
CONTINUOUS
 10
-82.3943681537
 20
45.9813389741
 11
-82.4128935734
 21
46.585234484
  0
LINE
  5
407
100
AcDbEntity
  8
RACCORDO
100
AcDbLine
 62
253
  6
CONTINUOUS
 10
-82.3761706541
 20
45.2934376806
 11
-82.3943681537
 21
45.9813389741
  0
LWPOLYLINE
  5
408
100
AcDbEntity
  8
RACCORDO
100
AcDbPolyline
 62
253
  6
CONTINUOUS
 90
21
 70
0
 10
-83.2273401718
 20
45.3674817692
 10
-83.2278722278
 20
45.4406584729
 10
-83.2287611945
 20
45.5129677916
 10
-83.2300121748
 20
45.5848677737
 10
-83.2316193018
 20
45.6559003708
 10
-83.2335657681
 20
45.7246914379
 10
-83.2358614789
 20
45.7912289926
 10
-83.2384950736
 20
45.8555250173
 10
-83.2414178242
 20
45.9162413146
 10
-83.2446376941
 20
45.9732727433
 10
-83.2481449054
 20
46.0267244446
 10
-83.2518643781
 20
46.0755736444
 10
-83.2557987341
 20
46.1196648792
 10
-83.2599436691
 20
46.1591536124
 10
-83.2642142559
 20
46.1934834605
 10
-83.2686076308
 20
46.2225175672
 10
-83.2731255037
 20
46.2463927888
 10
-83.2776904899
 20
46.2649633098
 10
-83.2822767832
 20
46.2781805252
 10
-83.2869097611
 20
46.2860930401
 10
-83.2915891653
 20
46.2887008545
  0
LINE
  5
409
100
AcDbEntity
  8
RACCORDO
100
AcDbLine
 62
253
  6
CONTINUOUS
 10
-83.2271652153
 20
-45.2934376806
 11
-83.2273401718
 21
45.3674817692
  0
LINE
  5
40A
100
AcDbEntity
  8
RACCORDO
100
AcDbLine
 62
253
  6
CONTINUOUS
 10
-82.3761706994
 20
-45.2934376806
 11
-82.3761706994
 21
45.2934376806
  0
LINE
  5
40B
100
AcDbEntity
  8
RACCORDO
100
AcDbLine
 62
253
  6
CONTINUOUS
 10
-82.3981477822
 20
-46.1122921859
 11
-82.376170654
 21
-45.2934376806
  0
LINE
  5
40C
100
AcDbEntity
  8
RACCORDO
100
AcDbLine
 62
7
  6
CONTINUOUS
 10
-84.3104520212
 20
-26.0170207065
 11
-84.3133836279
 21
-26.112281187
  0
LINE
  5
40D
100
AcDbEntity
  8
RACCORDO
100
AcDbLine
 62
253
  6
CONTINUOUS
 10
-82.4128935736
 20
-46.5852344888
 11
-82.3981477822
 21
-46.1122921859
  0
LINE
  5
40E
100
AcDbEntity
  8
RACCORDO
100
AcDbLine
 62
253
  6
CONTINUOUS
 10
-84.3369958907
 20
-25.7267165328
 11
-84.3390117436
 21
-25.7878996616
  0
LINE
  5
40F
100
AcDbEntity
  8
RACCORDO
100
AcDbLine
 62
253
  6
CONTINUOUS
 10
-84.3128745195
 20
-26.1005697356
 11
-84.3133836279
 21
-26.112281187
  0
LINE
  5
410
100
AcDbEntity
  8
RACCORDO
100
AcDbLine
 62
253
  6
CONTINUOUS
 10
-82.4228576702
 20
-46.8638961458
 11
-82.4128935736
 21
-46.5852344888
  0
LWPOLYLINE
  5
411
100
AcDbEntity
  8
RACCORDO
100
AcDbPolyline
 62
253
  6
CONTINUOUS
 90
18
 70
0
 10
-84.4297758026
 20
-25.6556699729
 10
-84.4318501117
 20
-25.710710674
 10
-84.4329398181
 20
-25.7359729298
 10
-84.4340604771
 20
-25.7595407253
 10
-84.4352104686
 20
-25.7814770127
 10
-84.4363691416
 20
-25.8015923132
 10
-84.4375369896
 20
-25.8198134668
 10
-84.438713427
 20
-25.8362136335
 10
-84.43987637
 20
-25.850822814
 10
-84.4410255873
 20
-25.8635745121
 10
-84.442161414
 20
-25.874535224
 10
-84.4432628042
 20
-25.883934439
 10
-84.4443291228
 20
-25.8917238822
 10
-84.4453612791
 20
-25.8979518286
 10
-84.4463407029
 20
-25.9029925924
 10
-84.447261362
 20
-25.906970945
 10
-84.4481296804
 20
-25.9097621151
 10
-84.4489458307
 20
-25.9113661026
  0
LWPOLYLINE
  5
412
100
AcDbEntity
  8
RACCORDO
100
AcDbPolyline
 62
7
  6
CONTINUOUS
 90
12
 70
0
 10
-84.3133836279
 20
-26.112281187
 10
-84.3165291265
 20
-26.1953904446
 10
-84.318161792
 20
-26.2323179429
 10
-84.3198228416
 20
-26.2661617768
 10
-84.3214958817
 20
-26.2968251988
 10
-84.3231737622
 20
-26.3244164324
 10
-84.3248455641
 20
-26.3489585368
 10
-84.3264832225
 20
-26.3702941521
 10
-84.3280812143
 20
-26.3886400865
 10
-84.329620833
 20
-26.4040673595
 10
-84.33103038
 20
-26.4162592861
 10
-84.3316040526
 20
-26.4206814694
  0
LINE
  5
413
100
AcDbEntity
  8
RACCORDO
100
AcDbLine
 62
253
  6
CONTINUOUS
 10
-84.3390117436
 20
-25.7878996616
 11
-84.341109907
 21
-25.8421945099
  0
LINE
  5
414
100
AcDbEntity
  8
RACCORDO
100
AcDbLine
 62
253
  6
CONTINUOUS
 10
-82.4286208852
 20
-47.0044523916
 11
-82.4228576702
 21
-46.8638961458
  0
LINE
  5
415
100
AcDbEntity
  8
RACCORDO
100
AcDbLine
 62
253
  6
CONTINUOUS
 10
-84.3154642611
 20
-26.171990124
 11
-84.3165291265
 21
-26.1953904446
  0
LINE
  5
416
100
AcDbEntity
  8
RACCORDO
100
AcDbLine
 62
253
  6
CONTINUOUS
 10
-84.318161792
 20
-26.2323179429
 11
-84.3182570385
 21
-26.2370197705
  0
LWPOLYLINE
  5
417
100
AcDbEntity
  8
RACCORDO
100
AcDbPolyline
 62
253
  6
CONTINUOUS
 90
13
 70
0
 10
-84.341109907
 20
-25.8421945099
 10
-84.3432484055
 20
-25.8888977259
 10
-84.3443147654
 20
-25.9091756204
 10
-84.3453741999
 20
-25.9274576271
 10
-84.3464164163
 20
-25.943637757
 10
-84.3474370556
 20
-25.9578136013
 10
-84.3484328217
 20
-25.970090486
 10
-84.3493944863
 20
-25.9804717457
 10
-84.3503187811
 20
-25.9891082202
 10
-84.3512030611
 20
-25.9961511994
 10
-84.3520390825
 20
-26.0016888765
 10
-84.3528228351
 20
-26.0058874812
 10
-84.3535547292
 20
-26.0089454797
  0
LWPOLYLINE
  5
418
100
AcDbEntity
  8
RACCORDO
100
AcDbPolyline
 62
253
  6
CONTINUOUS
 90
3
 70
0
 10
-84.3198228416
 20
-26.2661617768
 10
-84.3210974389
 20
-26.2936433305
 10
-84.3214958817
 20
-26.2968251988
  0
LWPOLYLINE
  5
419
100
AcDbEntity
  8
RACCORDO
100
AcDbPolyline
 62
253
  6
CONTINUOUS
 90
3
 70
0
 10
-84.3231737622
 20
-26.3244164324
 10
-84.3239016147
 20
-26.3406487393
 10
-84.3248455641
 20
-26.3489585368
  0
LWPOLYLINE
  5
41A
100
AcDbEntity
  8
RACCORDO
100
AcDbPolyline
 62
253
  6
CONTINUOUS
 90
6
 70
0
 10
-84.3264832225
 20
-26.3702941521
 10
-84.3267528181
 20
-26.3792480617
 10
-84.3297467812
 20
-26.4110621471
 10
-84.3329137958
 20
-26.4366312789
 10
-84.3362198437
 20
-26.4554151739
 10
-84.3396630454
 20
-26.4674138319
  0
LWPOLYLINE
  5
41B
100
AcDbEntity
  8
RACCORDO
100
AcDbPolyline
 62
7
  6
CONTINUOUS
 90
6
 70
0
 10
-84.3316040526
 20
-26.4206814694
 10
-84.332376166
 20
-26.4261258904
 10
-84.3335377685
 20
-26.4331124889
 10
-84.3339034077
 20
-26.4348201851
 10
-84.3326646394
 20
-26.4307942499
 10
-84.3289942058
 20
-26.4223114705
  0
LINE
  5
41C
100
AcDbEntity
  8
DRAFT
100
AcDbLine
 62
7
  6
CONTINUOUS
 10
-75.8348619527
 20
-3.8173885653
 11
-77.6348619527
 21
-3.5
  0
LWPOLYLINE
  5
41D
100
AcDbEntity
  8
RACCORDO
100
AcDbPolyline
 62
253
  6
CONTINUOUS
 90
5
 70
0
 10
-82.4335224561
 20
47.1056610812
 10
-82.4356498223
 20
47.1412361376
 10
-82.4375771472
 20
47.16669612
 10
-82.4392141102
 20
47.1820758732
 10
-82.4405129462
 20
47.1874601334
  0
LWPOLYLINE
  5
41E
100
AcDbEntity
  8
RACCORDO
100
AcDbPolyline
 62
7
  6
CONTINUOUS
 90
3
 70
0
 10
-78.263316078
 20
46.4482157077
 10
-78.2544131118
 20
46.1617901958
 10
-78.2488384998
 20
45.8487616664
  0
LINE
  5
41F
100
AcDbEntity
  8
RACCORDO
100
AcDbLine
 62
7
  6
CONTINUOUS
 10
-78.2488384998
 20
45.8487616664
 11
-78.2466099088
 21
45.5091301196
  0
LINE
  5
420
100
AcDbEntity
  8
RACCORDO
100
AcDbLine
 62
7
  6
CONTINUOUS
 10
-78.2466099088
 20
45.509129643
 11
-78.2466099088
 21
-45.509129643
  0
LINE
  5
421
100
AcDbEntity
  8
DRAFT
100
AcDbLine
 62
7
  6
CONTINUOUS
 10
-77.6348619527
 20
3.5
 11
-77.6348619527
 21
-3.5
  0
LWPOLYLINE
  5
422
100
AcDbEntity
  8
RACCORDO
100
AcDbPolyline
 62
7
  6
CONTINUOUS
 90
4
 70
0
 10
-78.2466099088
 20
-45.5091301196
 10
-78.2488384998
 20
-45.8487616664
 10
-78.2544131118
 20
-46.1617901958
 10
-78.263316078
 20
-46.4482157077
  0
LINE
  5
423
100
AcDbEntity
  8
DRAFT
100
AcDbLine
 62
7
  6
CONTINUOUS
 10
-75.8348619527
 20
3.8173885653
 11
-77.6348619527
 21
3.5
  0
LWPOLYLINE
  5
424
100
AcDbEntity
  8
RACCORDO
100
AcDbPolyline
 62
7
  6
CONTINUOUS
 90
14
 70
0
 10
-84.3337853907
 20
26.4343774182
 10
-84.3339288802
 20
26.4349326922
 10
-84.3338439195
 20
26.4346344213
 10
-84.3329457372
 20
26.4297287998
 10
-84.3318743324
 20
26.4226524355
 10
-84.3307578242
 20
26.4140485325
 10
-84.3295214711
 20
26.4031373489
 10
-84.3282380274
 20
26.3903131413
 10
-84.3269258622
 20
26.3756228279
 10
-84.325585264
 20
26.3589315967
 10
-84.3242382157
 20
26.3403908078
 10
-84.3228925309
 20
26.3200226533
 10
-84.3215499396
 20
26.2977715024
 10
-84.3202182185
 20
26.2736926114
  0
LINE
  5
425
100
AcDbEntity
  8
DRAFT
100
AcDbLine
 62
7
  6
CONTINUOUS
 10
-76.3348619527
 20
46.5
 11
-76.3348619527
 21
3.7292250749
  0
LINE
  5
426
100
AcDbEntity
  8
DRAFT
100
AcDbLine
 62
7
  6
CONTINUOUS
 10
-76.3348619527
 20
-3.7292250749
 11
-76.3348619527
 21
-46.5
  0
LINE
  5
427
100
AcDbEntity
  8
SMUSSO
100
AcDbLine
 62
7
  6
CONTINUOUS
 10
-75.8348619527
 20
46.0
 11
-75.8348619527
 21
45.5
  0
LINE
  5
428
100
AcDbEntity
  8
DRAFT
100
AcDbLine
 62
7
  6
CONTINUOUS
 10
-75.8348619527
 20
45.5
 11
-75.8348619527
 21
3.8173885653
  0
LINE
  5
429
100
AcDbEntity
  8
DRAFT
100
AcDbLine
 62
7
  6
CONTINUOUS
 10
-75.8348619527
 20
-3.8173885653
 11
-75.8348619527
 21
-45.5
  0
LINE
  5
42A
100
AcDbEntity
  8
SMUSSO
100
AcDbLine
 62
7
  6
CONTINUOUS
 10
-75.8348619527
 20
-45.5
 11
-75.8348619527
 21
-46.0
  0
LINE
  5
42B
100
AcDbEntity
  8
COPIA_X_PUBLISH
100
AcDbLine
 62
253
  6
CONTINUOUS
 10
-75.3243947614
 20
25.7916264167
 11
-75.3243947614
 21
25.200274093
  0
LINE
  5
42C
100
AcDbEntity
  8
COPIA_X_PUBLISH
100
AcDbLine
 62
253
  6
CONTINUOUS
 10
-75.3243947614
 20
-25.200274093
 11
-75.3243947614
 21
-25.7916264167
  0
LINE
  5
42D
100
AcDbEntity
  8
DRAFT
100
AcDbLine
 62
7
  6
CONTINUOUS
 10
-75.1348619527
 20
27.250017957
 11
-75.1348619527
 21
26.35
  0
LINE
  5
42E
100
AcDbEntity
  8
COPIA_X_PUBLISH
100
AcDbLine
 62
7
  6
CONTINUOUS
 10
-75.1348619527
 20
-25.4
 11
-75.1348619527
 21
-26.35
  0
LINE
  5
42F
100
AcDbEntity
  8
DRAFT
100
AcDbLine
 62
7
  6
CONTINUOUS
 10
-75.1348619527
 20
-26.35
 11
-75.1348619527
 21
-27.250017957
  0
LINE
  5
430
100
AcDbEntity
  8
0
100
AcDbLine
 62
7
  6
CONTINUOUS
 10
-75.1348619527
 20
-14.0602070867
 11
-75.1348619527
 21
-8.4397929133
  0
LINE
  5
431
100
AcDbEntity
  8
0
100
AcDbLine
 62
7
  6
CONTINUOUS
 10
-75.1348619527
 20
8.4397929133
 11
-75.1348619527
 21
14.0602070867
  0
LINE
  5
432
100
AcDbEntity
  8
COPIA_X_PUBLISH
100
AcDbLine
 62
7
  6
CONTINUOUS
 10
-75.1348619527
 20
25.4
 11
-75.1348619527
 21
26.35
  0
LINE
  5
433
100
AcDbEntity
  8
RACCORDO
100
AcDbLine
 62
7
  6
CONTINUOUS
 10
-78.263316078
 20
-46.4482157077
 11
-78.276015098
 21
-46.715745817
  0
LWPOLYLINE
  5
434
100
AcDbEntity
  8
RACCORDO
100
AcDbPolyline
 62
7
  6
CONTINUOUS
 90
6
 70
0
 10
-78.276015098
 20
-46.715745817
 10
-78.291970293
 20
-46.9566729089
 10
-78.3096592282
 20
-47.1478741384
 10
-78.3285629687
 20
-47.2816418905
 10
-78.3491410548
 20
-47.3656837803
 10
-78.3713564285
 20
-47.3999998077
  0
LINE
  5
435
100
AcDbEntity
  8
RACCORDO
100
AcDbLine
 62
253
  6
CONTINUOUS
 10
-84.3535547292
 20
-26.0089454797
 11
-84.3542335944
 21
-26.0110283092
  0
LWPOLYLINE
  5
436
100
AcDbEntity
  8
RACCORDO
100
AcDbPolyline
 62
253
  6
CONTINUOUS
 90
5
 70
0
 10
-84.3396630454
 20
26.4674138319
 10
-84.3363681771
 20
26.4574358188
 10
-84.3331124884
 20
26.4391294332
 10
-84.329896623
 20
26.412494675
 10
-84.3282380274
 20
26.3903131413
  0
LWPOLYLINE
  5
437
100
AcDbEntity
  8
RACCORDO
100
AcDbPolyline
 62
253
  6
CONTINUOUS
 90
13
 70
0
 10
-84.3542335941
 20
26.0110283041
 10
-84.35356131
 20
26.0089691003
 10
-84.3528350591
 20
26.0059454553
 10
-84.3520559932
 20
26.00178974
 10
-84.3512236399
 20
25.99630057
 10
-84.3503420493
 20
25.9893087427
 10
-84.3494196069
 20
25.9807239399
 10
-84.3484589685
 20
25.9703918302
 10
-84.3474634106
 20
25.9581580422
 10
-84.3464423047
 20
25.944017758
 10
-84.3453989739
 20
25.9278628702
 10
-84.344337818
 20
25.909592772
 10
-84.3432692897
 20
25.8893135742
  0
LWPOLYLINE
  5
438
100
AcDbEntity
  8
RACCORDO
100
AcDbPolyline
 62
253
  6
CONTINUOUS
 90
6
 70
0
 10
-82.4405129464
 20
-47.1874601376
 10
-82.4392141102
 20
-47.1820758845
 10
-82.4375771485
 20
-47.1666961269
 10
-82.4356498247
 20
-47.1412361386
 10
-82.4335224581
 20
-47.1056610809
 10
-82.4286208852
 20
-47.0044523916
  0
LINE
  5
439
100
AcDbEntity
  8
0
100
AcDbLine
 62
7
  6
CONTINUOUS
 10
-84.6044620931
 20
-24.88125911
 11
-84.4683909095
 21
-24.6253464339
  0
LINE
  5
43A
100
AcDbEntity
  8
RACCORDO
100
AcDbLine
 62
7
  6
CONTINUOUS
 10
-84.4688712053
 20
-24.626249739
 11
-84.8114955824
 21
-25.2706324727
  0
LINE
  5
43B
100
AcDbEntity
  8
RACCORDO
100
AcDbLine
 62
253
  6
CONTINUOUS
 10
-84.4687684134
 20
-24.6761148157
 11
-84.8348619527
 21
-25.3644520459
  0
LINE
  5
43C
100
AcDbEntity
  8
RACCORDO
100
AcDbLine
 62
253
  6
CONTINUOUS
 10
-84.3542335965
 20
-26.0110283494
 11
-84.7400955484
 21
-26.7344408767
  0
LINE
  5
43D
100
AcDbEntity
  8
RACCORDO
100
AcDbLine
 62
7
  6
CONTINUOUS
 10
-84.3396630454
 20
-26.4674138319
 11
-84.7348619527
 21
-27.207860899
  0
LWPOLYLINE
  5
43E
100
AcDbEntity
  8
RACCORDO
100
AcDbPolyline
 62
253
  6
CONTINUOUS
 90
6
 70
0
 10
-84.7818799257
 20
-26.5359120868
 10
-84.8016935325
 20
-26.5724705364
 10
-84.8165741342
 20
-26.6003159246
 10
-84.8268195232
 20
-26.6200513057
 10
-84.8328104403
 20
-26.6310736254
 10
-84.8348619527
 20
-26.6345779798
  0
LWPOLYLINE
  5
43F
100
AcDbEntity
  8
RACCORDO
100
AcDbPolyline
 62
253
  6
CONTINUOUS
 90
7
 70
0
 10
-84.4489458307
 20
-25.9113661026
 10
-84.5221046857
 20
-26.0463091589
 10
-84.5855428036
 20
-26.1656931108
 10
-84.6399956297
 20
-26.2695179583
 10
-84.6861194507
 20
-26.3565025876
 10
-84.7246690581
 20
-26.4279281124
 10
-84.7818799257
 20
-26.5359120868
  0
LINE
  5
440
100
AcDbEntity
  8
0
100
AcDbLine
 62
7
  6
CONTINUOUS
 10
-75.3243947614
 20
8.2400670064
 11
-75.8348619527
 21
8.2133145545
  0
LINE
  5
441
100
AcDbEntity
  8
0
100
AcDbLine
 62
7
  6
CONTINUOUS
 10
-75.1348619527
 20
8.75
 11
-75.8348619527
 21
8.7483131232
  0
LINE
  5
442
100
AcDbEntity
  8
0
100
AcDbLine
 62
253
  6
CONTINUOUS
 10
-75.1348619527
 20
9.2102222521
 11
-75.8348619527
 21
9.2090421499
  0
LINE
  5
443
100
AcDbEntity
  8
0
100
AcDbLine
 62
7
  6
CONTINUOUS
 10
-75.1348619527
 20
9.0554425497
 11
-75.8348619527
 21
9.0552689379
  0
LINE
  5
444
100
AcDbEntity
  8
0
100
AcDbLine
 62
7
  6
CONTINUOUS
 10
-75.1348619527
 20
9.9445574503
 11
-75.8348619527
 21
9.9447310621
  0
LINE
  5
445
100
AcDbEntity
  8
0
100
AcDbLine
 62
7
  6
CONTINUOUS
 10
-75.1348619527
 20
10.0169872981
 11
-75.8348619527
 21
10.0180785161
  0
LINE
  5
446
100
AcDbEntity
  8
0
100
AcDbLine
 62
7
  6
CONTINUOUS
 10
-75.1348619527
 20
10.45
 11
-75.8348619527
 21
10.451091218
  0
LINE
  5
447
100
AcDbEntity
  8
0
100
AcDbLine
 62
253
  6
CONTINUOUS
 10
-75.1348619527
 20
9.7897777479
 11
-75.8348619527
 21
9.7909578501
  0
LWPOLYLINE
  5
448
100
AcDbEntity
  8
RACCORDO
100
AcDbPolyline
 62
253
  6
CONTINUOUS
 90
7
 70
0
 10
-84.8348619527
 20
26.6345779489
 10
-84.8328410079
 20
26.6311302919
 10
-84.8268787658
 20
26.6201636316
 10
-84.8166598973
 20
26.6004765966
 10
-84.8018019265
 20
26.5726724812
 10
-84.782005317
 20
26.536147991
 10
-84.7248070014
 20
26.4281846071
  0
LWPOLYLINE
  5
449
100
AcDbEntity
  8
RACCORDO
100
AcDbPolyline
 62
253
  6
CONTINUOUS
 90
6
 70
0
 10
-84.7248070014
 20
26.4281846071
 10
-84.6862493406
 20
26.3567457133
 10
-84.6401082964
 20
26.2697290864
 10
-84.5856291553
 20
26.1658524916
 10
-84.5221538224
 20
26.0463981637
 10
-84.4489458307
 20
25.9113661026
  0
LINE
  5
44A
100
AcDbEntity
  8
RACCORDO
100
AcDbLine
 62
7
  6
CONTINUOUS
 10
-84.7348619527
 20
27.2078527461
 11
-84.3396630454
 21
26.4674138319
  0
LINE
  5
44B
100
AcDbEntity
  8
RACCORDO
100
AcDbLine
 62
253
  6
CONTINUOUS
 10
-84.7400955484
 20
26.7344408768
 11
-84.3542335966
 21
26.011028351
  0
LINE
  5
44C
100
AcDbEntity
  8
RACCORDO
100
AcDbLine
 62
7
  6
CONTINUOUS
 10
-84.811495648
 20
25.270632596
 11
-84.4688712053
 21
24.626249739
  0
LINE
  5
44D
100
AcDbEntity
  8
RACCORDO
100
AcDbLine
 62
253
  6
CONTINUOUS
 10
-84.8348619527
 20
25.3644520458
 11
-84.4687684134
 21
24.6761144314
  0
LWPOLYLINE
  5
44E
100
AcDbEntity
  8
RACCORDO
100
AcDbPolyline
 62
253
  6
CONTINUOUS
 90
16
 70
0
 10
-84.4489458307
 20
25.9113661026
 10
-84.4481375154
 20
25.9097872175
 10
-84.4472758334
 20
25.9070262413
 10
-84.4463606094
 20
25.9030831741
 10
-84.4453853399
 20
25.898085253
 10
-84.4443561293
 20
25.8919052408
 10
-84.4432917737
 20
25.8841614265
 10
-84.4421913431
 20
25.8748053621
 10
-84.4410554852
 20
25.8638854955
 10
-84.4399055225
 20
25.8511654599
 10
-84.4387411014
 20
25.8365778862
 10
-84.4375624652
 20
25.8201901435
 10
-84.4363920231
 20
25.8019679716
 10
-84.4352303569
 20
25.7818368655
 10
-84.4340769737
 20
25.7598713303
 10
-84.4329528598
 20
25.7362606201
  0
LINE
  5
44F
100
AcDbEntity
  8
0
100
AcDbLine
 62
7
  6
CONTINUOUS
 10
-75.1348619527
 20
12.05
 11
-75.8348619527
 21
12.048908782
  0
LINE
  5
450
100
AcDbEntity
  8
0
100
AcDbLine
 62
7
  6
CONTINUOUS
 10
-75.1348619527
 20
12.4830127019
 11
-75.8348619527
 21
12.4819214839
  0
LINE
  5
451
100
AcDbEntity
  8
0
100
AcDbLine
 62
253
  6
CONTINUOUS
 10
-75.1348619527
 20
12.7102222521
 11
-75.8348619527
 21
12.7090421499
  0
LINE
  5
452
100
AcDbEntity
  8
0
100
AcDbLine
 62
7
  6
CONTINUOUS
 10
-75.1348619527
 20
12.5554425497
 11
-75.8348619527
 21
12.5552689379
  0
LINE
  5
453
100
AcDbEntity
  8
0
100
AcDbLine
 62
7
  6
CONTINUOUS
 10
-75.1348619527
 20
13.4445574503
 11
-75.8348619527
 21
13.4447310621
  0
LINE
  5
454
100
AcDbEntity
  8
0
100
AcDbLine
 62
253
  6
CONTINUOUS
 10
-75.1348619527
 20
13.2897777479
 11
-75.8348619527
 21
13.2909578501
  0
LINE
  5
455
100
AcDbEntity
  8
0
100
AcDbLine
 62
7
  6
CONTINUOUS
 10
-75.1348619527
 20
13.75
 11
-75.8348619527
 21
13.7516868768
  0
LINE
  5
456
100
AcDbEntity
  8
0
100
AcDbLine
 62
7
  6
CONTINUOUS
 10
-75.3243947614
 20
14.2599329936
 11
-75.8348619527
 21
14.2866854455
  0
LINE
  5
457
100
AcDbEntity
  8
COPIA_X_PUBLISH
100
AcDbLine
 62
7
  6
CONTINUOUS
 10
-75.8348619527
 20
-25.2
 11
-75.6848619527
 21
-25.05
  0
LINE
  5
458
100
AcDbEntity
  8
COPIA_X_PUBLISH
100
AcDbLine
 62
7
  6
CONTINUOUS
 10
-75.8348619527
 20
25.2
 11
-75.6848619527
 21
25.05
  0
LINE
  5
459
100
AcDbEntity
  8
RACCORDO
100
AcDbLine
 62
253
  6
CONTINUOUS
 10
-84.3259627971
 20
25.0157962394
 11
-84.4206710531
 21
25.0157962394
  0
LINE
  5
45A
100
AcDbEntity
  8
COPIA_X_PUBLISH
100
AcDbLine
 62
7
  6
CONTINUOUS
 10
-75.6848619527
 20
25.05
 11
-75.4848619527
 21
25.05
  0
LINE
  5
45B
100
AcDbEntity
  8
0
100
AcDbLine
 62
7
  6
CONTINUOUS
 10
-75.3348619527
 20
25.2
 11
-75.8348619527
 21
25.2
  0
LWPOLYLINE
  5
45C
100
AcDbEntity
  8
RACCORDO
100
AcDbPolyline
 62
253
  6
CONTINUOUS
 90
13
 70
0
 10
-84.3542335941
 20
26.0110283041
 10
-84.366770667
 20
26.0095494834
 10
-84.379024354
 20
26.0065049462
 10
-84.3907992473
 20
26.0019432433
 10
-84.4019075744
 20
25.9959371197
 10
-84.4121721927
 20
25.9885823539
 10
-84.4214294137
 20
25.9799962313
 10
-84.4295316139
 20
25.9703156736
 10
-84.4363495889
 20
25.959695055
 10
-84.4417746134
 20
25.9483037411
 10
-84.4457201752
 20
25.9363233874
 10
-84.4481233553
 20
25.9239450427
 10
-84.4489458304
 20
25.9113661026
  0
LINE
  5
45D
100
AcDbEntity
  8
DRAFT
100
AcDbLine
 62
7
  6
CONTINUOUS
 10
-84.4891570613
 20
26.7475920061
 11
-84.7400955484
 21
26.7344408768
  0
LINE
  5
45E
100
AcDbEntity
  8
RACCORDO
100
AcDbLine
 62
253
  6
CONTINUOUS
 10
-84.3542335974
 20
26.0110283674
 11
-84.3103504873
 21
26.0131863853
  0
LINE
  5
45F
100
AcDbEntity
  8
RACCORDO
100
AcDbLine
 62
7
  6
CONTINUOUS
 10
-75.8348619527
 20
25.7690739122
 11
-75.3243947614
 21
25.7916264167
  0
LINE
  5
460
100
AcDbEntity
  8
DRAFT
100
AcDbLine
 62
253
  6
CONTINUOUS
 10
-75.1348619527
 20
27.053527618
 11
-75.8348619527
 21
27.0538438255
  0
LINE
  5
461
100
AcDbEntity
  8
DRAFT
100
AcDbLine
 62
7
  6
CONTINUOUS
 10
-75.8348619527
 20
27.2512217317
 11
-75.1348619527
 21
27.25
  0
LINE
  5
462
100
AcDbEntity
  8
0
100
AcDbLine
 62
7
  6
CONTINUOUS
 10
-75.1348619527
 20
26.35
 11
-75.8348619527
 21
26.3540724809
  0
LWPOLYLINE
  5
463
100
AcDbEntity
  8
RACCORDO
100
AcDbPolyline
 62
7
  6
CONTINUOUS
 90
7
 70
0
 10
-78.3713564285
 20
47.3999998077
 10
-78.3491410548
 20
47.3656837803
 10
-78.3285629687
 20
47.2816418905
 10
-78.3096592282
 20
47.1478741384
 10
-78.291970293
 20
46.9566729089
 10
-78.276015098
 20
46.715745817
 10
-78.263316078
 20
46.4482157077
  0
LINE
  5
464
100
AcDbEntity
  8
DRAFT
100
AcDbLine
 62
7
  6
CONTINUOUS
 10
-76.3348619527
 20
-46.5
 11
-75.8348619527
 21
-46.0
  0
LINE
  5
465
100
AcDbEntity
  8
SMUSSO
100
AcDbLine
 62
7
  6
CONTINUOUS
 10
-75.8348619527
 20
-46.0
 11
-76.3348619527
 21
-46.5
  0
LINE
  5
466
100
AcDbEntity
  8
SMUSSO
100
AcDbLine
 62
7
  6
CONTINUOUS
 10
-76.3348619527
 20
46.5
 11
-75.8348619527
 21
46.0
  0
LINE
  5
467
100
AcDbEntity
  8
DRAFT
100
AcDbLine
 62
7
  6
CONTINUOUS
 10
-76.3348619527
 20
46.5
 11
-75.8348619527
 21
46.0
  0
LWPOLYLINE
  5
468
100
AcDbEntity
  8
RACCORDO
100
AcDbPolyline
 62
253
  6
CONTINUOUS
 90
22
 70
0
 10
-83.2915891653
 20
-46.2887008545
 10
-83.2869097611
 20
-46.2860930397
 10
-83.2822767832
 20
-46.2781805245
 10
-83.2776904899
 20
-46.264963309
 10
-83.2731255037
 20
-46.2463927883
 10
-83.2686076308
 20
-46.2225175672
 10
-83.2642142559
 20
-46.1934834608
 10
-83.2599436691
 20
-46.1591536127
 10
-83.2557987341
 20
-46.1196648793
 10
-83.2518643781
 20
-46.0755736443
 10
-83.2481449054
 20
-46.0267244446
 10
-83.2446376941
 20
-45.9732727433
 10
-83.2414178242
 20
-45.9162413146
 10
-83.2384950736
 20
-45.8555250173
 10
-83.2358614789
 20
-45.7912289925
 10
-83.2335657681
 20
-45.7246914378
 10
-83.2316193018
 20
-45.6559003707
 10
-83.2300121748
 20
-45.5848677737
 10
-83.2287611945
 20
-45.5129677917
 10
-83.2278722278
 20
-45.440658473
 10
-83.2273401717
 20
-45.3674817693
 10
-83.2271652153
 20
-45.2934376806
  0
LINE
  5
469
100
AcDbEntity
  8
DRAFT
100
AcDbLine
 62
7
  6
CONTINUOUS
 10
-78.2617867457
 20
46.3990141508
 11
-76.3348619527
 21
46.5
  0
LINE
  5
46A
100
AcDbEntity
  8
RACCORDO
100
AcDbLine
 62
253
  6
CONTINUOUS
 10
-82.3761706994
 20
45.2934376806
 11
-78.2466099088
 21
45.509129643
  0
LINE
  5
46B
100
AcDbEntity
  8
RACCORDO
100
AcDbLine
 62
253
  6
CONTINUOUS
 10
-83.2271652153
 20
45.2934376806
 11
-82.3761706994
 21
45.2934376806
  0
LINE
  5
46C
100
AcDbEntity
  8
DRAFT
100
AcDbLine
 62
253
  6
CONTINUOUS
 10
-78.2466099088
 20
45.5
 11
-75.8348619527
 21
45.5
  0
LINE
  5
46D
100
AcDbEntity
  8
RACCORDO
100
AcDbLine
 62
253
  6
CONTINUOUS
 10
-83.2915891653
 20
46.2887008545
 11
-84.7348619527
 21
46.2891056049
  0
LINE
  5
46E
100
AcDbEntity
  8
0
100
AcDbLine
 62
7
  6
CONTINUOUS
 10
-79.8348619527
 20
47.3999688697
 11
-83.8819681147
 21
47.1878690232
  0
LINE
  5
46F
100
AcDbEntity
  8
RACCORDO
100
AcDbLine
 62
253
  6
CONTINUOUS
 10
-82.440513064
 20
47.1874623806
 11
-78.3713564284
 21
47.3999998077
  0
LINE
  5
470
100
AcDbEntity
  8
RACCORDO
100
AcDbLine
 62
7
  6
CONTINUOUS
 10
-79.8348619527
 20
47.3999718043
 11
-78.3713564285
 21
47.3999998077
  0
LINE
  5
471
100
AcDbEntity
  8
RACCORDO
100
AcDbLine
 62
253
  6
CONTINUOUS
 10
-82.4405130636
 20
47.1874623735
 11
-83.8819681163
 21
47.1878695763
  0
ARC
  5
472
100
AcDbEntity
  8
RACCORDO
100
AcDbCircle
 62
7
  6
CONTINUOUS
 10
-83.834865783
 20
-46.2891029933
 40
0.9000000003
100
AcDbArc
 50
179.9999999777
 51
267.0
  0
ARC
  5
473
100
AcDbEntity
  8
RACCORDO
100
AcDbCircle
 62
7
  6
CONTINUOUS
 10
-83.834865783
 20
46.2891029933
 40
0.9000000003
100
AcDbArc
 50
93.0
 51
180.0000000223
  0
ARC
  5
474
100
AcDbEntity
  8
RACCORDO
100
AcDbCircle
 62
7
  6
CONTINUOUS
 10
-84.6348607301
 20
-25.3644415248
 40
0.2
100
AcDbArc
 50
152.0
 51
179.9999989936
  0
ARC
  5
475
100
AcDbEntity
  8
RACCORDO
100
AcDbCircle
 62
7
  6
CONTINUOUS
 10
-84.6348607301
 20
25.3644415248
 40
0.2
100
AcDbArc
 50
180.0000010064
 51
208.0
  0
ARC
  5
476
100
AcDbEntity
  8
0
100
AcDbCircle
 62
7
  6
CONTINUOUS
 10
-75.3348619527
 20
8.4397929133
 40
0.2
100
AcDbArc
 50
273.0
 51
360.0
  0
ARC
  5
477
100
AcDbEntity
  8
0
100
AcDbCircle
 62
7
  6
CONTINUOUS
 10
-75.3348619527
 20
14.0602070867
 40
0.2
100
AcDbArc
 50
0.0
 51
87.0
  0
ARC
  5
478
100
AcDbEntity
  8
0
100
AcDbCircle
 62
7
  6
CONTINUOUS
 10
-75.3348619527
 20
-14.0602070867
 40
0.2
100
AcDbArc
 50
273.0
 51
360.0
  0
ARC
  5
479
100
AcDbEntity
  8
0
100
AcDbCircle
 62
7
  6
CONTINUOUS
 10
-75.3348619527
 20
-8.4397929133
 40
0.2
100
AcDbArc
 50
0.0
 51
87.0
  0
ARC
  5
47A
100
AcDbEntity
  8
COPIA_X_PUBLISH
100
AcDbCircle
 62
7
  6
CONTINUOUS
 10
-75.3348619527
 20
-25.4
 40
0.2
100
AcDbArc
 50
0.0
 51
90.0
  0
ARC
  5
47B
100
AcDbEntity
  8
COPIA_X_PUBLISH
100
AcDbCircle
 62
7
  6
CONTINUOUS
 10
-75.3348619527
 20
25.4
 40
0.2
100
AcDbArc
 50
270.0
 51
360.0
  0
ARC
  5
47C
100
AcDbEntity
  8
RACCORDO
100
AcDbCircle
 62
7
  6
CONTINUOUS
 10
-84.7348619526
 20
-26.6345779232
 40
0.1
100
AcDbArc
 50
180.0
 51
266.9999999058
  0
ARC
  5
47D
100
AcDbEntity
  8
RACCORDO
100
AcDbCircle
 62
7
  6
CONTINUOUS
 10
-84.7348619526
 20
26.6345779233
 40
0.1
100
AcDbArc
 50
93.0000000942
 51
180.0
  0
ELLIPSE
  5
47E
100
AcDbEntity
  8
RACCORDO
100
AcDbEllipse
 62
7
  6
CONTINUOUS
 10
-22.2735216412
 20
-22.2735216412
 30
0.0
 11
0.1418092487
 21
0.1418092487
 31
0.0
 40
0.9972646886
 41
2.3575640181
 42
3.9256212891
  0
ELLIPSE
  5
47F
100
AcDbEntity
  8
RACCORDO
100
AcDbEllipse
 62
7
  6
CONTINUOUS
 10
22.2735216412
 20
-22.2735216412
 30
0.0
 11
-0.1418092487
 21
0.1418092487
 31
0.0
 40
0.9972646886
 41
2.3575640181
 42
3.9256212891
  0
ELLIPSE
  5
480
100
AcDbEntity
  8
RACCORDO
100
AcDbEllipse
 62
7
  6
CONTINUOUS
 10
22.2735216412
 20
22.2735216412
 30
0.0
 11
-0.1418092487
 21
-0.1418092487
 31
0.0
 40
0.9972646886
 41
2.3575640181
 42
3.9256212891
  0
ELLIPSE
  5
481
100
AcDbEntity
  8
RACCORDO
100
AcDbEllipse
 62
7
  6
CONTINUOUS
 10
-22.2735216412
 20
22.2735216412
 30
0.0
 11
0.1418092487
 21
-0.1418092487
 31
0.0
 40
0.9972646886
 41
2.3575640181
 42
3.9256212891
  0
ELLIPSE
  5
482
100
AcDbEntity
  8
COPIA_X_PUBLISH
100
AcDbEllipse
 62
7
  6
CONTINUOUS
 10
-75.3348619527
 20
-25.9914384441
 30
0.0
 11
0.1417119467
 21
0.1422961243
 31
0.0
 40
0.9918061237
 41
-0.7833412615
 42
0.7350951877
  0
ELLIPSE
  5
483
100
AcDbEntity
  8
COPIA_X_PUBLISH
100
AcDbEllipse
 62
7
  6
CONTINUOUS
 10
-75.3348619527
 20
25.9914384441
 30
0.0
 11
-0.1417119467
 21
0.1422961243
 31
0.0
 40
0.9918061237
 41
-3.8766878413
 42
-2.358251392
  0
ENDSEC
  0
SECTION
  2
OBJECTS
  0
DICTIONARY
  5
C
100
AcDbDictionary
280
0
281
1
  3
ACAD_GROUP
350
D
  3
ACAD_MLINESTYLE
350
17
  3
ACAD_LAYOUT
350
1A
  3
ACAD_PLOTSETTINGS
350
19
  3
ACAD_PLOTSTYLENAME
350
E
  0
DICTIONARY
  5
D
102
{ACAD_REACTORS
330
C
102
}
100
AcDbDictionary
280
0
281
1
  0
ACDBDICTIONARYWDFLT
  5
E
102
{ACAD_REACTORS
330
C
102
}
100
AcDbDictionary
281
1
  3
Normal
350
F
100
AcDbDictionaryWithDefault
340
F
  0
DICTIONARY
  5
17
102
{ACAD_REACTORS
330
C
102
}
100
AcDbDictionary
280
0
281
1
  3
Standard
350
18
  0
DICTIONARY
  5
19
102
{ACAD_REACTORS
330
C
102
}
100
AcDbDictionary
281
1
  0
DICTIONARY
  5
1A
102
{ACAD_REACTORS
330
C
102
}
100
AcDbDictionary
281
1
  3
Model
350
484
  3
Layout1
350
485
  0
ACDBPLACEHOLDER
  5
F
102
{ACAD_REACTORS
330
E
102
}
  0
MLINESTYLE
  5
18
102
{ACAD_REACTORS
330
17
102
}
100
AcDbMlineStyle
  2
STANDARD
 70
0
  3

 62
256
 51
90.0
 52
90.0
 71
2
 49
0.5
 62
256
  6
BYLAYER
 49
-0.5
 62
256
  6
BYLAYER
  0
LAYOUT
  5
484
102
{ACAD_REACTORS
330
1A
102
}
100
AcDbPlotSettings
  1

  2
none_device
  4
ISO_A4_(297.00_x_210.00_MM)
  6

 40
0.0
 41
0.0
 42
0.0
 43
0.0
 44
297.0
 45
210.0
 46
0.0
 47
0.0
 48
0.0
 49
0.0
140
0.0
141
0.0
142
1.0
143
1.0
 70
1024
 72
1
 73
0
 74
0
  7

 75
0
147
1.0
148
0.0
149
0.0
100
AcDbLayout
  1
Model
 70
0
 71
0
 10
0.0
 20
0.0
 11
297.0
 21
210.0
 12
0.0
 22
0.0
 32
0.0
 14
0.0
 24
0.0
 34
0.0
 15
0.0
 25
0.0
 35
0.0
146
0.0
 13
0.0
 23
0.0
 33
0.0
 16
1.0
 26
0.0
 36
0.0
 17
0.0
 27
1.0
 37
0.0
 76
0
330
216
345
0
346
0
  0
LAYOUT
  5
485
102
{ACAD_REACTORS
330
1A
102
}
100
AcDbPlotSettings
  1

  2
none_device
  4
ISO_A4_(297.00_x_210.00_MM)
  6

 40
0.0
 41
0.0
 42
0.0
 43
0.0
 44
297.0
 45
210.0
 46
0.0
 47
0.0
 48
0.0
 49
0.0
140
0.0
141
0.0
142
1.0
143
1.0
 70
0
 72
1
 73
0
 74
0
  7

 75
0
147
1.0
148
0.0
149
0.0
100
AcDbLayout
  1
Layout1
 70
0
 71
1
 10
0.0
 20
0.0
 11
297.0
 21
210.0
 12
0.0
 22
0.0
 32
0.0
 14
0.0
 24
0.0
 34
0.0
 15
0.0
 25
0.0
 35
0.0
146
0.0
 13
0.0
 23
0.0
 33
0.0
 16
1.0
 26
0.0
 36
0.0
 17
0.0
 27
1.0
 37
0.0
 76
0
330
217
345
0
346
0
  0
ENDSEC
  0
EOF
