  0
SECTION
  2
HEADER
  9
$ACADVER
  1
AC1015
  9
$DWGCODEPAGE
  3
ANSI_1252
  9
$EXTMAX
 10
297.0
 20
210.0
 30
0.0
  9
$EXTMIN
 10
0.0
 20
0.0
 30
0.0
  9
$LIMMIN
 10
0.0
 20
0.0
  9
$LIMMAX
 10
297.0
 20
210.0
  9
$VIEWCTR
 10
148.5
 20
105.0
  9
$VIEWSIZE
 40
210.0
  9
$CLAYER
  8
0
  9
$LTSCALE
 40
16.335
  9
$CELTYPE
  6
BYLAYER
  9
$DIMSCALE
 40
1.0
  9
$DIMASZ
 40
3.0
  9
$DIMEXO
 40
0.5
  9
$DIMDLI
 40
11.286
  9
$DIMEXE
 40
1.5
  9
$DIMCEN
 40
2.673
  9
$DIMLFAC
 40
1.0
  9
$DIMBLK
  1
_FILLED
  9
$DIMTXT
 40
3.0
  9
$DIMTOL
 70
1
  9
$DIMLIM
 70
0
  9
$DIMTFAC
 40
1.0
  9
$DIMTP
 40
0.01
  9
$DIMTM
 40
0.01
  9
$DIMGAP
 40
0.625
  9
$DIMDSEP
 70
44
  9
$PDMODE
 70
3
  9
$PDSIZE
 40
3.0
  9
$HANDSEED
  5
4F2
  9
$TILEMODE
 70
1
  9
$MEASUREMENT
 70
1
  9
$INSUNITS
 70
4
  0
ENDSEC
  0
SECTION
  2
CLASSES
  0
CLASS
  1
ACDBDICTIONARYWDFLT
  2
AcDbDictionaryWithDefault
  3
AutoCAD 2000
 90
0
280
0
281
0
  0
CLASS
  1
ACDBPLACEHOLDER
  2
AcDbPlaceHolder
  3
AutoCAD 2000
 90
0
280
0
281
0
  0
CLASS
  1
LAYOUT
  2
AcDbLayout
  3
AutoCAD 2000
 90
0
280
0
281
0
  0
ENDSEC
  0
SECTION
  2
TABLES
  0
TABLE
  2
VPORT
  5
8
100
AcDbSymbolTable
 70
2
  0
VPORT
  5
1F4
100
AcDbSymbolTableRecord
100
AcDbViewportTableRecord
  2
*ACTIVE
 70
0
 10
0.0
 20
0.0
 11
1.0
 21
1.0
 12
148.5
 22
105.0
 13
0.0
 23
0.0
 14
1.0
 24
1.0
 15
0.0
 25
0.0
 16
0.0
 26
0.0
 36
1.0
 17
0.0
 27
0.0
 37
0.0
 40
210.0
 41
1.4142857143
 42
50.0
 43
0.0
 44
0.0
 50
0.0
 51
0.0
 71
0
 72
100
 73
1
 74
1
 75
0
 76
0
 77
0
 78
0
  0
ENDTAB
  0
TABLE
  2
LTYPE
  5
5
100
AcDbSymbolTable
 70
6
  0
LTYPE
  5
14
100
AcDbSymbolTableRecord
100
AcDbLinetypeTableRecord
  2
BYBLOCK
 70
0
  3

 72
65
 73
0
 40
0.0
  0
LTYPE
  5
15
100
AcDbSymbolTableRecord
100
AcDbLinetypeTableRecord
  2
BYLAYER
 70
0
  3

 72
65
 73
0
 40
0.0
  0
LTYPE
  5
16
100
AcDbSymbolTableRecord
100
AcDbLinetypeTableRecord
  2
CONTINUOUS
 70
64
  3
Solid line
 72
65
 73
0
 40
0.0
  0
LTYPE
  5
1F5
100
AcDbSymbolTableRecord
100
AcDbLinetypeTableRecord
  2
CENTER
 70
64
  3
____ _ ____ _ ____ _ ____ _ ____ _ ____ _ ____
 72
65
 73
4
 40
0.6
 49
0.375
 74
0
 49
-0.075
 74
0
 49
0.075
 74
0
 49
-0.075
 74
0
  0
LTYPE
  5
1F6
100
AcDbSymbolTableRecord
100
AcDbLinetypeTableRecord
  2
HIDDEN
 70
64
  3
- - - - - - - - - - - - - - - - - - - -
 72
65
 73
2
 40
0.2
 49
0.1
 74
0
 49
-0.1
 74
0
  0
LTYPE
  5
1F7
100
AcDbSymbolTableRecord
100
AcDbLinetypeTableRecord
  2
PHANTOM
 70
64
  3
_____ _ _ _____ _ _ _____ _ _ _____
 72
65
 73
6
 40
0.8
 49
0.45
 74
0
 49
-0.05
 74
0
 49
0.1
 74
0
 49
-0.05
 74
0
 49
0.1
 74
0
 49
-0.05
 74
0
  0
LTYPE
  5
1F8
100
AcDbSymbolTableRecord
100
AcDbLinetypeTableRecord
  2
DOT
 70
64
  3
. . . . . . . . . . . . . . . . . . . .
 72
65
 73
2
 40
0.2
 49
0.1
 74
0
 49
-0.1
 74
0
  0
LTYPE
  5
1F9
100
AcDbSymbolTableRecord
100
AcDbLinetypeTableRecord
  2
DASHED
 70
64
  3
- - - - - - - - - - - - - - - - - - - -
 72
65
 73
2
 40
0.2
 49
0.1
 74
0
 49
-0.1
 74
0
  0
ENDTAB
  0
TABLE
  2
LAYER
  5
2
100
AcDbSymbolTable
 70
36
  0
LAYER
  5
10
100
AcDbSymbolTableRecord
100
AcDbLayerTableRecord
  2
0
 70
0
 62
7
  6
CONTINUOUS
370
-3
390
F
  0
LAYER
  5
1FA
100
AcDbSymbolTableRecord
100
AcDbLayerTableRecord
  2
DEFAULT_1
 70
0
 62
7
  6
CENTER
370
-3
390
F
  0
LAYER
  5
1FB
100
AcDbSymbolTableRecord
100
AcDbLayerTableRecord
  2
DEFAULT_2
 70
0
 62
7
  6
HIDDEN
370
-3
390
F
  0
LAYER
  5
1FC
100
AcDbSymbolTableRecord
100
AcDbLayerTableRecord
  2
DEFAULT_3
 70
0
 62
7
  6
PHANTOM
370
-3
390
F
  0
LAYER
  5
1FD
100
AcDbSymbolTableRecord
100
AcDbLayerTableRecord
  2
ASSI
 70
0
 62
7
  6
CONTINUOUS
370
-3
390
F
  0
LAYER
  5
1FE
100
AcDbSymbolTableRecord
100
AcDbLayerTableRecord
  2
COORDINATE
 70
0
 62
7
  6
CONTINUOUS
370
-3
390
F
  0
LAYER
  5
1FF
100
AcDbSymbolTableRecord
100
AcDbLayerTableRecord
  2
COORD_ORIGINE
 70
0
 62
7
  6
CONTINUOUS
370
-3
390
F
  0
LAYER
  5
200
100
AcDbSymbolTableRecord
100
AcDbLayerTableRecord
  2
COPIA_X_PUBLISH
 70
0
 62
7
  6
CONTINUOUS
370
-3
390
F
  0
LAYER
  5
201
100
AcDbSymbolTableRecord
100
AcDbLayerTableRecord
  2
COPY_PLACCA
 70
0
 62
7
  6
CONTINUOUS
370
-3
390
F
  0
LAYER
  5
202
100
AcDbSymbolTableRecord
100
AcDbLayerTableRecord
  2
COPY_SUPP
 70
0
 62
7
  6
CONTINUOUS
370
-3
390
F
  0
LAYER
  5
203
100
AcDbSymbolTableRecord
100
AcDbLayerTableRecord
  2
CURVE
 70
0
 62
7
  6
CONTINUOUS
370
-3
390
F
  0
LAYER
  5
204
100
AcDbSymbolTableRecord
100
AcDbLayerTableRecord
  2
DRAFT
 70
0
 62
7
  6
CONTINUOUS
370
-3
390
F
  0
LAYER
  5
205
100
AcDbSymbolTableRecord
100
AcDbLayerTableRecord
  2
IMPORT_SCRITTE
 70
0
 62
7
  6
CONTINUOUS
370
-3
390
F
  0
LAYER
  5
206
100
AcDbSymbolTableRecord
100
AcDbLayerTableRecord
  2
INTF_1
 70
0
 62
7
  6
CONTINUOUS
370
-3
390
F
  0
LAYER
  5
207
100
AcDbSymbolTableRecord
100
AcDbLayerTableRecord
  2
INTF_CYAN
 70
0
 62
7
  6
CONTINUOUS
370
-3
390
F
  0
LAYER
  5
208
100
AcDbSymbolTableRecord
100
AcDbLayerTableRecord
  2
NOTE
 70
0
 62
7
  6
CONTINUOUS
370
-3
390
F
  0
LAYER
  5
209
100
AcDbSymbolTableRecord
100
AcDbLayerTableRecord
  2
PIANI
 70
0
 62
7
  6
CONTINUOUS
370
-3
390
F
  0
LAYER
  5
20A
100
AcDbSymbolTableRecord
100
AcDbLayerTableRecord
  2
PIANI_ORIGINE
 70
0
 62
7
  6
CONTINUOUS
370
-3
390
F
  0
LAYER
  5
20B
100
AcDbSymbolTableRecord
100
AcDbLayerTableRecord
  2
PIANI_RIFERIMENTO
 70
0
 62
7
  6
CONTINUOUS
370
-3
390
F
  0
LAYER
  5
20C
100
AcDbSymbolTableRecord
100
AcDbLayerTableRecord
  2
PUNTI
 70
0
 62
7
  6
CONTINUOUS
370
-3
390
F
  0
LAYER
  5
20D
100
AcDbSymbolTableRecord
100
AcDbLayerTableRecord
  2
RACCORDO
 70
0
 62
7
  6
CONTINUOUS
370
-3
390
F
  0
LAYER
  5
20E
100
AcDbSymbolTableRecord
100
AcDbLayerTableRecord
  2
SMUSSO
 70
0
 62
7
  6
CONTINUOUS
370
-3
390
F
  0
LAYER
  5
20F
100
AcDbSymbolTableRecord
100
AcDbLayerTableRecord
  2
SNAPLINE
 70
0
 62
7
  6
CONTINUOUS
370
-3
390
F
  0
LAYER
  5
210
100
AcDbSymbolTableRecord
100
AcDbLayerTableRecord
  2
SUPERFICI
 70
0
 62
7
  6
CONTINUOUS
370
-3
390
F
  0
LAYER
  5
211
100
AcDbSymbolTableRecord
100
AcDbLayerTableRecord
  2
TRASH
 70
0
 62
7
  6
CONTINUOUS
370
-3
390
F
  0
LAYER
  5
212
100
AcDbSymbolTableRecord
100
AcDbLayerTableRecord
  2
XSEC_DATUMS
 70
0
 62
7
  6
CONTINUOUS
370
-3
390
F
  0
ENDTAB
  0
TABLE
  2
STYLE
  5
3
100
AcDbSymbolTable
 70
1
  0
STYLE
  5
11
100
AcDbSymbolTableRecord
100
AcDbTextStyleTableRecord
  2
STANDARD
 70
0
 40
0.0
 41
0.8
 50
0.0
 71
0
 42
0.2
  3
txt
  4

  0
STYLE
  5
213
100
AcDbSymbolTableRecord
100
AcDbTextStyleTableRecord
  2
TEXTSTYLE_1
 70
0
 40
0.0
 41
0.8
 50
0.0
 71
0
 42
0.2
  3
gdt
  4

  0
ENDTAB
  0
TABLE
  2
VIEW
  5
6
100
AcDbSymbolTable
 70
0
  0
ENDTAB
  0
TABLE
  2
UCS
  5
7
100
AcDbSymbolTable
 70
0
  0
ENDTAB
  0
TABLE
  2
APPID
  5
9
100
AcDbSymbolTable
 70
1
  0
APPID
  5
214
100
AcDbSymbolTableRecord
100
AcDbRegAppTableRecord
  2
ACAD
 70
0
  0
ENDTAB
  0
TABLE
  2
BLOCK_RECORD
  5
1
100
AcDbSymbolTable
 70
0
  0
BLOCK_RECORD
  5
215
100
AcDbSymbolTableRecord
100
AcDbBlockTableRecord
  2
*Model_Space
  0
BLOCK_RECORD
  5
216
100
AcDbSymbolTableRecord
100
AcDbBlockTableRecord
  2
*Paper_Space
  0
BLOCK_RECORD
  5
217
100
AcDbSymbolTableRecord
100
AcDbBlockTableRecord
  2
_FILLED
  0
BLOCK_RECORD
  5
218
100
AcDbSymbolTableRecord
100
AcDbBlockTableRecord
  2
*D0
  0
BLOCK_RECORD
  5
219
100
AcDbSymbolTableRecord
100
AcDbBlockTableRecord
  2
*D1
  0
BLOCK_RECORD
  5
21A
100
AcDbSymbolTableRecord
100
AcDbBlockTableRecord
  2
*D2
  0
BLOCK_RECORD
  5
21B
100
AcDbSymbolTableRecord
100
AcDbBlockTableRecord
  2
*D3
  0
ENDTAB
  0
TABLE
  2
DIMSTYLE
  5
A
100
AcDbSymbolTable
 70
1
100
AcDbDimStyleTable
 71
0
  0
DIMSTYLE
105
21C
100
AcDbSymbolTableRecord
100
AcDbDimStyleTableRecord
  2
STANDARD
 70
0
  3

  4

 40
1.0
 41
3.0
 42
0.5
 43
0.38
 44
1.5
 45
0.0
 46
0.0
 47
0.01
 48
0.01
140
3.0
141
0.09
142
0.0
143
25.4
144
1.0
145
0.0
146
1.0
147
0.625
 71
1.0
 72
0.0
 73
0
 74
0
 75
0
 76
0
 77
1
 78
8
170
0
171
2
172
0
173
0
174
0
175
0
176
0
177
0
178
0
270
2
271
2
272
2
273
2
274
2
275
0
280
0
281
0
282
0
283
1
284
8
285
0
286
0
287
3
288
0
340
11
278
44
341
217
342
217
343
217
344
217
  0
DIMSTYLE
105
21D
100
AcDbSymbolTableRecord
100
AcDbDimStyleTableRecord
  2
DIMSTYLE_1
 70
0
  3

  4

 40
1.0
 41
3.0
 42
0.5
 43
0.38
 44
1.5
 45
0.0
 46
0.0
 47
0.0
 48
0.0
140
3.0
141
0.09
142
0.0
143
25.4
144
1.0
145
0.0
146
1.0
147
0.75
 71
0.0
 72
0.0
 73
0
 74
0
 75
0
 76
0
 77
1
 78
8
170
0
171
2
172
0
173
0
174
0
175
0
176
0
177
0
178
0
270
2
271
2
272
2
273
2
274
2
275
0
280
0
281
0
282
0
283
1
284
8
285
0
286
0
287
3
288
0
340
11
278
44
341
217
342
217
343
217
344
217
  0
ENDTAB
  0
ENDSEC
  0
SECTION
  2
BLOCKS
  0
BLOCK
  5
20
100
AcDbEntity
  8
0
100
AcDbBlockBegin
  2
*Model_Space
 70
0
 10
0.0
 20
0.0
 30
0.0
  3
*Model_Space
  1

  0
ENDBLK
  5
21
100
AcDbEntity
  8
0
100
AcDbBlockEnd
  0
BLOCK
  5
1C
100
AcDbEntity
  8
0
100
AcDbBlockBegin
  2
*Paper_Space
 70
0
 10
0.0
 20
0.0
 30
0.0
  3
*Paper_Space
  1

  0
ENDBLK
  5
1D
100
AcDbEntity
  8
0
100
AcDbBlockEnd
  0
BLOCK
  5
21E
100
AcDbEntity
  8
0
100
AcDbBlockBegin
  2
_FILLED
 70
64
 10
0.0
 20
0.0
  3
_FILLED
  1

  0
SOLID
  5
21F
100
AcDbEntity
  8
0
  6
BYBLOCK
 62
0
100
AcDbTrace
 10
0.0
 20
0.0
 11
-1.0
 21
0.3166666667
 12
-1.0
 22
-0.3166666667
 13
-1.0
 23
-0.3166666667
  0
ENDBLK
  5
220
100
AcDbEntity
  8
0
  6
BYBLOCK
 62
0
100
AcDbBlockEnd
  0
BLOCK
  5
221
100
AcDbEntity
  8
0
100
AcDbBlockBegin
 62
7
  6
CONTINUOUS
  2
*D0
 70
65
 10
0.0
 20
0.0
  3
*D0
  1

  0
MTEXT
  5
222
100
AcDbEntity
  8
0
100
AcDbMText
 62
7
  6
CONTINUOUS
  7
STANDARD
 71
2
 72
1
 10
53.65
 20
0.0
 30
0.0
 11
0.0
 21
1.0
 31
0.0
 44
0.9
  1
94,8
 40
3.0
 41
8.7857142857
  0
LINE
  5
223
100
AcDbEntity
  8
0
100
AcDbLine
 62
7
  6
CONTINUOUS
 10
46.0024687322
 20
47.3999772506
 11
58.9
 21
47.3999772506
  0
LINE
  5
224
100
AcDbEntity
  8
0
100
AcDbLine
 62
7
  6
CONTINUOUS
 10
46.0024687322
 20
-47.3999772506
 11
58.9
 21
-47.3999772506
  0
LINE
  5
225
100
AcDbEntity
  8
0
100
AcDbLine
 62
7
  6
CONTINUOUS
 10
57.4
 20
47.3999772506
 11
57.4
 21
0.0
  0
LINE
  5
226
100
AcDbEntity
  8
0
100
AcDbLine
 62
7
  6
CONTINUOUS
 10
57.4
 20
-47.3999772506
 11
57.4
 21
0.0
  0
INSERT
  5
227
100
AcDbEntity
  8
0
100
AcDbBlockReference
 62
7
  6
CONTINUOUS
  2
_FILLED
 10
57.4
 20
47.3999772506
 41
3.0
 42
3.0
 43
3.0
 50
90.0
  0
INSERT
  5
228
100
AcDbEntity
  8
0
100
AcDbBlockReference
 62
7
  6
CONTINUOUS
  2
_FILLED
 10
57.4
 20
-47.3999772506
 41
3.0
 42
3.0
 43
3.0
 50
270.0
  0
ENDBLK
  5
229
100
AcDbEntity
  8
0
  6
BYBLOCK
 62
0
100
AcDbBlockEnd
  0
BLOCK
  5
22A
100
AcDbEntity
  8
0
100
AcDbBlockBegin
 62
7
  6
CONTINUOUS
  2
*D1
 70
65
 10
0.0
 20
0.0
  3
*D1
  1

  0
MTEXT
  5
22B
100
AcDbEntity
  8
0
100
AcDbMText
 62
7
  6
CONTINUOUS
  7
STANDARD
 71
2
 72
1
 10
0.0
 20
61.1499655996
 30
0.0
 11
1.0
 21
0.0
 31
0.0
 44
0.9
  1
94,8
 40
3.0
 41
8.7857142857
  0
LINE
  5
22C
100
AcDbEntity
  8
0
100
AcDbLine
 62
7
  6
CONTINUOUS
 10
47.4
 20
46.0091375204
 11
47.4
 21
58.8999655996
  0
LINE
  5
22D
100
AcDbEntity
  8
0
100
AcDbLine
 62
7
  6
CONTINUOUS
 10
-47.4
 20
46.0091375204
 11
-47.4
 21
58.8999655996
  0
LINE
  5
22E
100
AcDbEntity
  8
0
100
AcDbLine
 62
7
  6
CONTINUOUS
 10
47.4
 20
57.3999655996
 11
0.0
 21
57.3999655996
  0
LINE
  5
22F
100
AcDbEntity
  8
0
100
AcDbLine
 62
7
  6
CONTINUOUS
 10
-47.4
 20
57.3999655996
 11
0.0
 21
57.3999655996
  0
INSERT
  5
230
100
AcDbEntity
  8
0
100
AcDbBlockReference
 62
7
  6
CONTINUOUS
  2
_FILLED
 10
47.4
 20
57.3999655996
 41
3.0
 42
3.0
 43
3.0
  0
INSERT
  5
231
100
AcDbEntity
  8
0
100
AcDbBlockReference
 62
7
  6
CONTINUOUS
  2
_FILLED
 10
-47.4
 20
57.3999655996
 41
3.0
 42
3.0
 43
3.0
 50
180.0
  0
ENDBLK
  5
232
100
AcDbEntity
  8
0
  6
BYBLOCK
 62
0
100
AcDbBlockEnd
  0
BLOCK
  5
233
100
AcDbEntity
  8
0
100
AcDbBlockBegin
 62
7
  6
CONTINUOUS
  2
*D2
 70
65
 10
0.0
 20
0.0
  3
*D2
  1

  0
MTEXT
  5
234
100
AcDbEntity
  8
0
100
AcDbMText
 62
7
  6
CONTINUOUS
  7
STANDARD
 71
2
 72
1
 10
-74.6359304562
 20
60.6187461314
 30
0.0
 11
1.0
 21
0.0
 31
0.0
 44
0.9
  1
9
 40
3.0
 41
2.3571428571
  0
LINE
  5
235
100
AcDbEntity
  8
0
100
AcDbLine
 62
7
  6
CONTINUOUS
 10
-70.1359304562
 20
46.0
 11
-70.1359304562
 21
58.3687461314
  0
LINE
  5
236
100
AcDbEntity
  8
0
100
AcDbLine
 62
7
  6
CONTINUOUS
 10
-79.1359304562
 20
27.4870660916
 11
-79.1359304562
 21
58.3687461314
  0
LINE
  5
237
100
AcDbEntity
  8
0
100
AcDbLine
 62
7
  6
CONTINUOUS
 10
-70.1359304562
 20
56.8687461314
 11
-74.6359304562
 21
56.8687461314
  0
LINE
  5
238
100
AcDbEntity
  8
0
100
AcDbLine
 62
7
  6
CONTINUOUS
 10
-79.1359304562
 20
56.8687461314
 11
-74.6359304562
 21
56.8687461314
  0
INSERT
  5
239
100
AcDbEntity
  8
0
100
AcDbBlockReference
 62
7
  6
CONTINUOUS
  2
_FILLED
 10
-70.1359304562
 20
56.8687461314
 41
3.0
 42
3.0
 43
3.0
  0
INSERT
  5
23A
100
AcDbEntity
  8
0
100
AcDbBlockReference
 62
7
  6
CONTINUOUS
  2
_FILLED
 10
-79.1359304562
 20
56.8687461314
 41
3.0
 42
3.0
 43
3.0
 50
180.0
  0
ENDBLK
  5
23B
100
AcDbEntity
  8
0
  6
BYBLOCK
 62
0
100
AcDbBlockEnd
  0
BLOCK
  5
23C
100
AcDbEntity
  8
0
100
AcDbBlockBegin
 62
7
  6
CONTINUOUS
  2
*D3
 70
65
 10
0.0
 20
0.0
  3
*D3
  1

  0
MTEXT
  5
23D
100
AcDbEntity
  8
0
100
AcDbMText
 62
7
  6
CONTINUOUS
  7
STANDARD
 71
2
 72
1
 10
-74.2859304562
 20
69.2426382562
 30
0.0
 11
1.0
 21
0.0
 31
0.0
 44
0.9
  1
9,7
 40
3.0
 41
6.4285714286
  0
LINE
  5
23E
100
AcDbEntity
  8
0
100
AcDbLine
 62
7
  6
CONTINUOUS
 10
-69.4359304562
 20
27.553527618
 11
-69.4359304562
 21
66.9926382562
  0
LINE
  5
23F
100
AcDbEntity
  8
0
100
AcDbLine
 62
7
  6
CONTINUOUS
 10
-79.1359304562
 20
27.4870660916
 11
-79.1359304562
 21
66.9926382562
  0
LINE
  5
240
100
AcDbEntity
  8
0
100
AcDbLine
 62
7
  6
CONTINUOUS
 10
-69.4359304562
 20
65.4926382562
 11
-74.2859304562
 21
65.4926382562
  0
LINE
  5
241
100
AcDbEntity
  8
0
100
AcDbLine
 62
7
  6
CONTINUOUS
 10
-79.1359304562
 20
65.4926382562
 11
-74.2859304562
 21
65.4926382562
  0
INSERT
  5
242
100
AcDbEntity
  8
0
100
AcDbBlockReference
 62
7
  6
CONTINUOUS
  2
_FILLED
 10
-69.4359304562
 20
65.4926382562
 41
3.0
 42
3.0
 43
3.0
  0
INSERT
  5
243
100
AcDbEntity
  8
0
100
AcDbBlockReference
 62
7
  6
CONTINUOUS
  2
_FILLED
 10
-79.1359304562
 20
65.4926382562
 41
3.0
 42
3.0
 43
3.0
 50
180.0
  0
ENDBLK
  5
244
100
AcDbEntity
  8
0
  6
BYBLOCK
 62
0
100
AcDbBlockEnd
  0
ENDSEC
  0
SECTION
  2
ENTITIES
  0
DIMENSION
  5
245
100
AcDbEntity
  8
0
100
AcDbDimension
 62
7
  6
CONTINUOUS
  2
*D0
 10
57.4
 20
-47.3999772506
 11
57.4
 21
0.0
 70
160
 71
2
 42
94.7999545012
  3
DIMSTYLE_1
100
AcDbAlignedDimension
 13
45.5024687322
 23
47.3999772506
 14
45.5024687322
 24
-47.3999772506
 50
270.0
100
AcDbRotatedDimension
  0
DIMENSION
  5
246
100
AcDbEntity
  8
0
100
AcDbDimension
 62
7
  6
CONTINUOUS
  2
*D1
 10
-47.4
 20
57.3999655996
 11
0.0
 21
57.3999655996
 70
160
 71
2
 42
94.8
  3
DIMSTYLE_1
100
AcDbAlignedDimension
 13
47.4
 23
45.5091375204
 14
-47.4
 24
45.5091375204
 50
180.0
100
AcDbRotatedDimension
  0
DIMENSION
  5
247
100
AcDbEntity
  8
0
100
AcDbDimension
 62
7
  6
CONTINUOUS
  2
*D2
 10
-79.1359304562
 20
56.8687461314
 11
-74.6359304562
 21
56.8687461314
 70
160
 71
2
 42
9.0
  3
DIMSTYLE_1
100
AcDbAlignedDimension
 13
-70.1359304562
 23
45.5
 14
-79.1359304562
 24
26.9870660916
 50
180.0
100
AcDbRotatedDimension
  0
DIMENSION
  5
248
100
AcDbEntity
  8
0
100
AcDbDimension
 62
7
  6
CONTINUOUS
  2
*D3
 10
-79.1359304562
 20
65.4926382562
 11
-74.2859304562
 21
65.4926382562
 70
160
 71
2
 42
9.7
  3
DIMSTYLE_1
100
AcDbAlignedDimension
 13
-69.4359304562
 23
27.053527618
 14
-79.1359304562
 24
26.9870660916
 50
180.0
100
AcDbRotatedDimension
  0
LWPOLYLINE
  5
249
100
AcDbEntity
  8
RACCORDO
100
AcDbPolyline
 62
253
  6
CONTINUOUS
 90
19
 70
0
 10
-46.343370529
 20
-45.2934404953
 10
-46.3394275434
 20
-45.3808549786
 10
-46.3282095023
 20
-45.4663946736
 10
-46.3097163834
 20
-45.5500595805
 10
-46.2837372606
 20
-45.6324394857
 10
-46.2504829701
 20
-45.7129446027
 10
-46.2105861172
 20
-45.7898055716
 10
-46.1638558654
 20
-45.8630000289
 10
-46.110482892
 20
-45.9325503381
 10
-46.0516720781
 20
-45.9967542294
 10
-45.9872874329
 20
-46.0554577307
 10
-45.9174647635
 20
-46.1088148142
 10
-45.8438166835
 20
-46.1555851259
 10
-45.7661902136
 20
-46.1956035189
 10
-45.6847381753
 20
-46.2290351403
 10
-45.6015319537
 20
-46.2551350777
 10
-45.5172620053
 20
-46.2736550271
 10
-45.4312378068
 20
-46.2848432926
 10
-45.3434593188
 20
-46.2886998742
  0
LWPOLYLINE
  5
24A
100
AcDbEntity
  8
RACCORDO
100
AcDbPolyline
 62
253
  6
CONTINUOUS
 90
19
 70
0
 10
-47.1834796848
 20
-45.2934404927
 10
-47.1760882545
 20
-45.4587521996
 10
-47.1543677466
 20
-45.6225472095
 10
-47.1184768379
 20
-45.7834976357
 10
-47.0688954287
 20
-45.9402873072
 10
-47.0060356477
 20
-46.0919496389
 10
-46.9301056263
 20
-46.2378028458
 10
-46.84152855
 20
-46.3769449251
 10
-46.7410728807
 20
-46.5080874609
 10
-46.6295577969
 20
-46.6299897291
 10
-46.5078631679
 20
-46.741635149
 10
-46.3769214989
 20
-46.8423205523
 10
-46.2376955625
 20
-46.9313090293
 10
-46.0911856057
 20
-47.0078582496
 10
-45.9384943772
 20
-47.0714094893
 10
-45.780757356
 20
-47.1215068439
 10
-45.6191183592
 20
-47.1577054487
 10
-45.4547988788
 20
-47.1796924759
 10
-45.2891809889
 20
-47.1873911997
  0
LINE
  5
24B
100
AcDbEntity
  8
RACCORDO
100
AcDbLine
 62
7
  6
CONTINUOUS
 10
-47.4
 20
45.509137424
 11
-47.4
 21
-45.509137424
  0
LINE
  5
24C
100
AcDbEntity
  8
RACCORDO
100
AcDbLine
 62
253
  6
CONTINUOUS
 10
-47.1835734576
 20
45.2934404953
 11
-47.1835734576
 21
-45.2934404953
  0
LWPOLYLINE
  5
24D
100
AcDbEntity
  8
RACCORDO
100
AcDbPolyline
 62
7
  6
CONTINUOUS
 90
19
 70
0
 10
-47.4
 20
45.5091375204
 10
-47.3933125772
 20
45.6726036708
 10
-47.3723891249
 20
45.8337517228
 10
-47.3372295582
 20
45.9925816764
 10
-47.287153345
 20
46.1509730539
 10
-47.2228406662
 20
46.3070463329
 10
-47.1463324579
 20
46.4551629473
 10
-47.0576166418
 20
46.5941651748
 10
-46.9567047262
 20
46.7252107375
 10
-46.8456730606
 20
46.8461342354
 10
-46.7245207422
 20
46.9568773
 10
-46.5932480174
 20
47.0574982997
 10
-46.4539330533
 20
47.1460069397
 10
-46.3054472977
 20
47.2224330785
 10
-46.1489186373
 20
47.2867468578
 10
-45.9898101866
 20
47.3368684072
 10
-45.8299430188
 20
47.3721044369
 10
-45.6674959029
 20
47.3931482368
 10
-45.5024687322
 20
47.399999807
  0
LWPOLYLINE
  5
24E
100
AcDbEntity
  8
RACCORDO
100
AcDbPolyline
 62
253
  6
CONTINUOUS
 90
19
 70
0
 10
45.289180989
 20
-47.1873912108
 10
45.454798781
 20
-47.179692505
 10
45.6191181087
 20
-47.1577054991
 10
45.7807570017
 20
-47.1215069236
 10
45.9384939839
 20
-47.0714096084
 10
46.0911852095
 20
-47.0078584195
 10
46.23769517
 20
-46.9313092628
 10
46.3769210995
 20
-46.8423208581
 10
46.5078627567
 20
-46.7416355242
 10
46.6295573781
 20
-46.6299901581
 10
46.741072466
 20
-46.5080879192
 10
46.8415281527
 20
-46.3769454143
 10
46.9301052588
 20
-46.2378034127
 10
47.0060353213
 20
-46.0919503743
 10
47.0688951524
 20
-45.9402882791
 10
47.1184766185
 20
-45.7834987569
 10
47.1543675897
 20
-45.6225482175
 10
47.1760881651
 20
-45.4587527087
 10
47.1834796715
 20
-45.2934404926
  0
LWPOLYLINE
  5
24F
100
AcDbEntity
  8
RACCORDO
100
AcDbPolyline
 62
253
  6
CONTINUOUS
 90
19
 70
0
 10
45.3434593188
 20
-46.2886998742
 10
45.4312378057
 20
-46.284843289
 10
45.5172620037
 20
-46.2736550214
 10
45.6015319521
 20
-46.2551350715
 10
45.6847381743
 20
-46.229035136
 10
45.7661902138
 20
-46.1956035182
 10
45.8438166846
 20
-46.1555851279
 10
45.9174647657
 20
-46.1088148172
 10
45.9872874361
 20
-46.0554577339
 10
46.0516720803
 20
-45.9967542317
 10
46.1104828888
 20
-45.9325503372
 10
46.1638558549
 20
-45.8630000236
 10
46.2105861048
 20
-45.7898055644
 10
46.2504829673
 20
-45.7129445988
 10
46.2837372727
 20
-45.6324394876
 10
46.3097164045
 20
-45.5500595861
 10
46.3282095224
 20
-45.4663946795
 10
46.3394275564
 20
-45.3808549825
 10
46.343370529
 20
-45.2934404953
  0
LINE
  5
250
100
AcDbEntity
  8
RACCORDO
100
AcDbLine
 62
7
  6
CONTINUOUS
 10
-45.5024687322
 20
-47.399999807
 11
45.5024687322
 21
-47.399999807
  0
LINE
  5
251
100
AcDbEntity
  8
RACCORDO
100
AcDbLine
 62
253
  6
CONTINUOUS
 10
-45.2891812458
 20
-47.187461384
 11
-7.5537279981
 21
-47.1878585971
  0
LINE
  5
252
100
AcDbEntity
  8
RACCORDO
100
AcDbLine
 62
253
  6
CONTINUOUS
 10
-7.5537279981
 20
-47.1878585971
 11
45.2891812249
 21
-47.1874613833
  0
LWPOLYLINE
  5
253
100
AcDbEntity
  8
RACCORDO
100
AcDbPolyline
 62
7
  6
CONTINUOUS
 90
19
 70
0
 10
-45.5024687322
 20
-47.399999807
 10
-45.6674959029
 20
-47.3931482368
 10
-45.8299430188
 20
-47.3721044369
 10
-45.9898101866
 20
-47.3368684072
 10
-46.1489186373
 20
-47.2867468578
 10
-46.3054472977
 20
-47.2224330785
 10
-46.4539330533
 20
-47.1460069397
 10
-46.5932480174
 20
-47.0574982997
 10
-46.7245207422
 20
-46.9568773
 10
-46.8456730606
 20
-46.8461342354
 10
-46.9567047262
 20
-46.7252107375
 10
-47.0576166418
 20
-46.5941651748
 10
-47.1463324579
 20
-46.4551629473
 10
-47.2228406662
 20
-46.3070463329
 10
-47.287153345
 20
-46.1509730539
 10
-47.3372295582
 20
-45.9925816764
 10
-47.3723891249
 20
-45.8337517228
 10
-47.3933125772
 20
-45.6726036708
 10
-47.4
 20
-45.5091375204
  0
LWPOLYLINE
  5
254
100
AcDbEntity
  8
RACCORDO
100
AcDbPolyline
 62
253
  6
CONTINUOUS
 90
13
 70
0
 10
-45.3434593125
 20
-46.2886998742
 10
-45.3430034083
 20
-46.4022709435
 10
-45.3416386884
 20
-46.5140262569
 10
-45.3393869718
 20
-46.6221790886
 10
-45.3362842585
 20
-46.7250003084
 10
-45.3323801541
 20
-46.8208460275
 10
-45.3277370771
 20
-46.90818388
 10
-45.3224292598
 20
-46.9856175225
 10
-45.316541563
 20
-47.0519089583
 10
-45.3101681198
 20
-47.1059983308
 10
-45.3034108281
 20
-47.1470208677
 10
-45.2963777221
 20
-47.1743207072
 10
-45.2891812458
 20
-47.187461384
  0
LINE
  5
255
100
AcDbEntity
  8
RACCORDO
100
AcDbLine
 62
253
  6
CONTINUOUS
 10
-46.343370529
 20
45.2934404953
 11
-46.343370529
 21
-45.2934404953
  0
LWPOLYLINE
  5
256
100
AcDbEntity
  8
RACCORDO
100
AcDbPolyline
 62
253
  6
CONTINUOUS
 90
13
 70
0
 10
-45.3434593094
 20
46.2886998742
 10
-45.3430032441
 20
46.4022639297
 10
-45.3416383965
 20
46.5140117429
 10
-45.3393865852
 20
46.6221568138
 10
-45.3362838088
 20
46.7249702387
 10
-45.3323796709
 20
46.8208083506
 10
-45.3277365864
 20
46.9081389963
 10
-45.3224287838
 20
46.98556603
 10
-45.316541119
 20
47.0518516342
 10
-45.3101677197
 20
47.1059361082
 10
-45.3034104779
 20
47.1469548092
 10
-45.2963774217
 20
47.1742519757
 10
-45.289180989
 20
47.1873912108
  0
LWPOLYLINE
  5
257
100
AcDbEntity
  8
RACCORDO
100
AcDbPolyline
 62
253
  6
CONTINUOUS
 90
17
 70
0
 10
-34.7393181157
 20
25.2742516663
 10
-34.7395407589
 20
25.2737756085
 10
-34.7397293131
 20
25.2729891985
 10
-34.739883186
 20
25.2718949062
 10
-34.7400018944
 20
25.2704961683
 10
-34.7400850655
 20
25.2687973777
 10
-34.7401324382
 20
25.2668038696
 10
-34.7401438635
 20
25.2645219049
 10
-34.7401193057
 20
25.2619586502
 10
-34.7400588418
 20
25.2591221557
 10
-34.7399626618
 20
25.2560213297
 10
-34.7398310677
 20
25.2526659107
 10
-34.7396644728
 20
25.2490664368
 10
-34.7394634003
 20
25.2452342123
 10
-34.7392284818
 20
25.2411812729
 10
-34.7389604549
 20
25.2369203471
 10
-34.7383285445
 20
25.2278286752
  0
LINE
  5
258
100
AcDbEntity
  8
RACCORDO
100
AcDbLine
 62
253
  6
CONTINUOUS
 10
-45.3434593188
 20
-46.2886998742
 11
-7.5628130819
 21
-46.2890926475
  0
LINE
  5
259
100
AcDbEntity
  8
RACCORDO
100
AcDbLine
 62
253
  6
CONTINUOUS
 10
-7.5628130819
 20
-46.2890926475
 11
45.3434593188
 21
-46.2886998742
  0
LINE
  5
25A
100
AcDbEntity
  8
RACCORDO
100
AcDbLine
 62
253
  6
CONTINUOUS
 10
46.343370529
 20
-45.2934404953
 11
47.1835734576
 21
-45.2934404953
  0
LINE
  5
25B
100
AcDbEntity
  8
RACCORDO
100
AcDbLine
 62
253
  6
CONTINUOUS
 10
-46.343370529
 20
-45.2934404953
 11
-47.1835734575
 21
-45.2934404927
  0
LWPOLYLINE
  5
25C
100
AcDbEntity
  8
RACCORDO
100
AcDbPolyline
 62
253
  6
CONTINUOUS
 90
16
 70
0
 10
-34.7393181004
 20
-25.2742515236
 10
-34.7395407435
 20
-25.2737754668
 10
-34.7397292977
 20
-25.2729890585
 10
-34.7398831706
 20
-25.2718947683
 10
-34.7400018791
 20
-25.2704960331
 10
-34.7400850504
 20
-25.2687972457
 10
-34.7401324233
 20
-25.2668037412
 10
-34.7401438489
 20
-25.2645217806
 10
-34.7401192914
 20
-25.2619585304
 10
-34.740058828
 20
-25.2591220409
 10
-34.7399626484
 20
-25.2560212203
 10
-34.7398310548
 20
-25.252665807
 10
-34.7396644605
 20
-25.249066339
 10
-34.7394633886
 20
-25.2452341209
 10
-34.7392284707
 20
-25.2411811879
 10
-34.7389604445
 20
-25.2369202688
  0
LWPOLYLINE
  5
25D
100
AcDbEntity
  8
RACCORDO
100
AcDbPolyline
 62
253
  6
CONTINUOUS
 90
15
 70
0
 10
-36.1067488582
 20
24.6438487272
 10
-36.0896740436
 20
24.7594890145
 10
-36.061666484
 20
24.8718921303
 10
-36.0222480031
 20
24.9820882758
 10
-35.9718966175
 20
25.0890472498
 10
-35.912046553
 20
25.1896784476
 10
-35.8424392286
 20
25.2837717213
 10
-35.7633329622
 20
25.3715372189
 10
-35.6769373531
 20
25.4505147795
 10
-35.5829340634
 20
25.5204808963
 10
-35.4816411517
 20
25.5816590762
 10
-35.3762228998
 20
25.6322596788
 10
-35.2677340384
 20
25.6716861572
 10
-35.1551196723
 20
25.7005350583
 10
-35.0383797075
 20
25.7188063822
  0
LINE
  5
25E
100
AcDbEntity
  8
RACCORDO
100
AcDbLine
 62
253
  6
CONTINUOUS
 10
-34.8498554703
 20
25.4900462331
 11
-34.8484054443
 21
25.4720192835
  0
LINE
  5
25F
100
AcDbEntity
  8
RACCORDO
100
AcDbLine
 62
253
  6
CONTINUOUS
 10
-34.7383285445
 20
25.2278286752
 11
-34.7375756013
 21
25.2180733202
  0
LINE
  5
260
100
AcDbEntity
  8
RACCORDO
100
AcDbLine
 62
253
  6
CONTINUOUS
 10
-34.8484054443
 20
25.4720192835
 11
-34.8471450125
 21
25.454969922
  0
LWPOLYLINE
  5
261
100
AcDbEntity
  8
RACCORDO
100
AcDbPolyline
 62
253
  6
CONTINUOUS
 90
18
 70
0
 10
-34.8471450125
 20
25.454969922
 10
-34.8460869921
 20
25.4390715225
 10
-34.8456373318
 20
25.4316049584
 10
-34.845242142
 20
25.4244857549
 10
-34.8449024278
 20
25.4177320222
 10
-34.8446190534
 20
25.4113609408
 10
-34.8443927398
 20
25.4053887178
 10
-34.8442240626
 20
25.3998305458
 10
-34.8441134509
 20
25.3947005637
 10
-34.8440611861
 20
25.3900118217
 10
-34.8440674011
 20
25.385776247
 10
-34.8441320802
 20
25.3820046145
 10
-34.8442550588
 20
25.3787065185
 10
-34.844436024
 20
25.375890349
 10
-34.8446745156
 20
25.3735632699
 10
-34.8449699267
 20
25.3717312009
 10
-34.8453215061
 20
25.3703988026
 10
-34.8457283592
 20
25.3695694643
  0
LINE
  5
262
100
AcDbEntity
  8
RACCORDO
100
AcDbLine
 62
253
  6
CONTINUOUS
 10
-33.9383521066
 20
22.5485380727
 11
-33.9400800648
 21
22.5807921476
  0
LWPOLYLINE
  5
263
100
AcDbEntity
  8
RACCORDO
100
AcDbPolyline
 62
7
  6
CONTINUOUS
 90
16
 70
0
 10
-36.0
 20
-24.5179244697
 10
-35.9945119669
 20
-24.6263582876
 10
-35.9789702994
 20
-24.7320080256
 10
-35.953374964
 20
-24.834873684
 10
-35.917242399
 20
-24.9360029406
 10
-35.8710560316
 20
-25.0343481174
 10
-35.816266293
 20
-25.1267661802
 10
-35.7527806755
 20
-25.2128678036
 10
-35.6806914703
 20
-25.2930423131
 10
-35.6017263248
 20
-25.3653146505
 10
-35.5154182427
 20
-25.4296478478
 10
-35.4222339767
 20
-25.4860788732
 10
-35.32530187
 20
-25.5327435734
 10
-35.2256646812
 20
-25.5690205641
 10
-35.1222795152
 20
-25.5955312295
 10
-35.0151462932
 20
-25.6122755698
  0
LINE
  5
264
100
AcDbEntity
  8
RACCORDO
100
AcDbLine
 62
253
  6
CONTINUOUS
 10
-33.9400800648
 20
22.5807921476
 11
-33.9416922947
 21
22.6151275112
  0
LINE
  5
265
100
AcDbEntity
  8
RACCORDO
100
AcDbLine
 62
253
  6
CONTINUOUS
 10
-33.7441491768
 20
22.7828799843
 11
-33.7454369572
 21
22.8104773984
  0
LINE
  5
266
100
AcDbEntity
  8
RACCORDO
100
AcDbLine
 62
253
  6
CONTINUOUS
 10
-33.9416922947
 20
22.6151275112
 11
-33.9431816433
 21
22.6513846479
  0
LWPOLYLINE
  5
267
100
AcDbEntity
  8
RACCORDO
100
AcDbPolyline
 62
253
  6
CONTINUOUS
 90
3
 70
0
 10
-33.7454369572
 20
22.8104773984
 10
-33.7465814303
 20
22.8389649205
 10
-33.7471005137
 20
22.8535037201
  0
LINE
  5
268
100
AcDbEntity
  8
RACCORDO
100
AcDbLine
 62
253
  6
CONTINUOUS
 10
-33.9431816433
 20
22.6513846479
 11
-33.9445380856
 21
22.6893071753
  0
LINE
  5
269
100
AcDbEntity
  8
RACCORDO
100
AcDbLine
 62
253
  6
CONTINUOUS
 10
-33.9445380856
 20
22.6893071753
 11
-33.9457538402
 21
22.7285400843
  0
LWPOLYLINE
  5
26A
100
AcDbEntity
  8
RACCORDO
100
AcDbPolyline
 62
253
  6
CONTINUOUS
 90
34
 70
0
 10
-33.9154980835
 20
-22.3657721766
 10
-33.9152466645
 20
-22.3752590063
 10
-33.9145449447
 20
-22.3847244192
 10
-33.9133945085
 20
-22.3941470478
 10
-33.911797953
 20
-22.4035056211
 10
-33.9097588825
 20
-22.4127790128
 10
-33.9072819
 20
-22.4219462889
 10
-33.9043725975
 20
-22.4309867549
 10
-33.9010375424
 20
-22.4398800026
 10
-33.8972842637
 20
-22.4486059561
 10
-33.8931212341
 20
-22.4571449173
 10
-33.8885578515
 20
-22.4654776101
 10
-33.8836044176
 20
-22.473585224
 10
-33.8782721144
 20
-22.4814494568
 10
-33.8725729794
 20
-22.4890525556
 10
-33.866519878
 20
-22.496377357
 10
-33.8601264746
 20
-22.5034073259
 10
-33.8534072022
 20
-22.5101265926
 10
-33.8463772289
 20
-22.5165199891
 10
-33.8390524244
 20
-22.5225730827
 10
-33.8314493241
 20
-22.5282722091
 10
-33.8235850914
 20
-22.533604503
 10
-33.8154774792
 20
-22.5385579273
 10
-33.80714479
 20
-22.5431212999
 10
-33.7986058341
 20
-22.5472843196
 10
-33.7898798877
 20
-22.5510375887
 10
-33.7809866488
 20
-22.5543726344
 10
-33.7719461934
 20
-22.5572819283
 10
-33.7627789296
 20
-22.5597589029
 10
-33.7535055518
 20
-22.5617979666
 10
-33.7441469938
 20
-22.5633945164
 10
-33.7347243819
 20
-22.5645449484
 10
-33.725258987
 20
-22.5652466654
 10
-33.7157721766
 20
-22.5654980835
  0
LINE
  5
26B
100
AcDbEntity
  8
RACCORDO
100
AcDbLine
 62
253
  6
CONTINUOUS
 10
-33.9457538402
 20
22.7285400843
 11
-33.9543406975
 21
23.0764614955
  0
LINE
  5
26C
100
AcDbEntity
  8
RACCORDO
100
AcDbLine
 62
253
  6
CONTINUOUS
 10
-33.7471005137
 20
22.8535037201
 11
-33.773470896
 21
23.9324972868
  0
LWPOLYLINE
  5
26D
100
AcDbEntity
  8
RACCORDO
100
AcDbPolyline
 62
253
  6
CONTINUOUS
 90
49
 70
0
 10
-35.9301623974
 20
-24.3791688479
 10
-35.9296247573
 20
-24.4153906824
 10
-35.9279801752
 20
-24.4515899413
 10
-35.9252286509
 20
-24.4877666244
 10
-35.9213690157
 20
-24.5239695695
 10
-35.9164024367
 20
-24.560149939
 10
-35.9103324159
 20
-24.5961612197
 10
-35.9031513281
 20
-24.6320001714
 10
-35.8948667954
 20
-24.6676700344
 10
-35.8855051909
 20
-24.7030340169
 10
-35.8750608801
 20
-24.7380863695
 10
-35.8635394929
 20
-24.7728328417
 10
-35.8509842986
 20
-24.8071538899
 10
-35.8373968509
 20
-24.8410351487
 10
-35.8227755902
 20
-24.8744909835
 10
-35.8071591159
 20
-24.9074449462
 10
-35.7905472554
 20
-24.9398953033
 10
-35.7729401745
 20
-24.9718437884
 10
-35.7543769794
 20
-25.0032191536
 10
-35.7348524593
 20
-25.0340262426
 10
-35.7143718174
 20
-25.0642602118
 10
-35.692989781
 20
-25.0938352821
 10
-35.6707025735
 20
-25.1227507533
 10
-35.6475139633
 20
-25.1510073257
 10
-35.6234899957
 20
-25.1785213215
 10
-35.5986278932
 20
-25.2052902635
 10
-35.5729304246
 20
-25.231316629
 10
-35.5464719558
 20
-25.2565241717
 10
-35.5192509431
 20
-25.2809095565
 10
-35.4912689217
 20
-25.3044761184
 10
-35.4626048762
 20
-25.327157617
 10
-35.4332623204
 20
-25.3489486417
 10
-35.4032377323
 20
-25.369854603
 10
-35.3725995432
 20
-25.389825491
 10
-35.3413464705
 20
-25.4088607734
 10
-35.3094797888
 20
-25.4269609826
 10
-35.2770717666
 20
-25.444077706
 10
-35.2441091029
 20
-25.4602136985
 10
-35.2106050914
 20
-25.4753662052
 10
-35.1766718935
 20
-25.4894785492
 10
-35.1423024554
 20
-25.5025461857
 10
-35.1075038249
 20
-25.5145736595
 10
-35.0724093167
 20
-25.5255179279
 10
-35.0370139019
 20
-25.5353719005
 10
-35.0013226052
 20
-25.5441426677
 10
-34.9654838238
 20
-25.5518084582
 10
-34.9295470234
 20
-25.5583620151
 10
-34.8934627366
 20
-25.5638105953
 10
-34.8572309624
 20
-25.568154199
  0
LWPOLYLINE
  5
26E
100
AcDbEntity
  8
RACCORDO
100
AcDbPolyline
 62
253
  6
CONTINUOUS
 90
49
 70
0
 10
-35.7405574974
 20
-24.3791688479
 10
-35.740115843
 20
-24.4093373901
 10
-35.7387587083
 20
-24.4395409495
 10
-35.7364809955
 20
-24.4697478351
 10
-35.7332776005
 20
-24.4999384537
 10
-35.7291468231
 20
-24.5300745099
 10
-35.7240921505
 20
-24.5600971173
 10
-35.7181153784
 20
-24.5899777888
 10
-35.7112197278
 20
-24.6196881052
 10
-35.7034168314
 20
-24.64916995
 10
-35.6947147803
 20
-24.6783920802
 10
-35.6851214622
 20
-24.7073304673
 10
-35.6746529294
 20
-24.7359391476
 10
-35.6633249533
 20
-24.764181225
 10
-35.6511466993
 20
-24.7920419247
 10
-35.638124921
 20
-24.8195087366
 10
-35.624272619
 20
-24.8465550636
 10
-35.6096034242
 20
-24.8731571699
 10
-35.5941224257
 20
-24.8993056021
 10
-35.5778399363
 20
-24.9249799509
 10
-35.5607737718
 20
-24.9501511137
 10
-35.5429388413
 20
-24.9747956996
 10
-35.5243500041
 20
-24.9988908917
 10
-35.5050252259
 20
-25.0224128257
 10
-35.4849843023
 20
-25.0453366139
 10
-35.4642453696
 20
-25.0676401374
 10
-35.4428278841
 20
-25.0893025382
 10
-35.4207541371
 20
-25.1103011994
 10
-35.3980451511
 20
-25.1306154465
 10
-35.3747217526
 20
-25.150227176
 10
-35.3508062872
 20
-25.1691179398
 10
-35.3263250175
 20
-25.1872667704
 10
-35.3012970654
 20
-25.2046602507
 10
-35.2757334831
 20
-25.2212903591
 10
-35.2496567997
 20
-25.2371403936
 10
-35.2230912258
 20
-25.2521944279
 10
-35.1960492856
 20
-25.266443687
 10
-35.1685452663
 20
-25.2798768765
 10
-35.1406132509
 20
-25.2924742359
 10
-35.1122960112
 20
-25.3042152001
 10
-35.0836157913
 20
-25.3150891725
 10
-35.0546030483
 20
-25.3250837496
 10
-35.0253149301
 20
-25.3341805921
 10
-34.9957788544
 20
-25.3423731378
 10
-34.966023349
 20
-25.3496555634
 10
-34.9361085407
 20
-25.3560172681
 10
-34.906073214
 20
-25.3614554126
 10
-34.8759358601
 20
-25.3659723747
 10
-34.8457283498
 20
-25.3695693772
  0
LWPOLYLINE
  5
26F
100
AcDbEntity
  8
RACCORDO
100
AcDbPolyline
 62
253
  6
CONTINUOUS
 90
58
 70
0
 10
-34.1636590961
 20
-23.0764614955
 10
-34.1631471119
 20
-23.118672355
 10
-34.1620275097
 20
-23.1594370843
 10
-34.1603002896
 20
-23.1987556835
 10
-34.1579117554
 20
-23.236581314
 10
-34.1549156027
 20
-23.2729608142
 10
-34.1514729185
 20
-23.3080346996
 10
-34.1475998238
 20
-23.3418022403
 10
-34.1432801969
 20
-23.3742641661
 10
-34.1386267607
 20
-23.4055631812
 10
-34.1336514084
 20
-23.4357008036
 10
-34.1283422461
 20
-23.4646755153
 10
-34.1227763168
 20
-23.4926254667
 10
-34.1169607192
 20
-23.5195604798
 10
-34.110888354
 20
-23.5454707326
 10
-34.1046149662
 20
-23.5704649105
 10
-34.0981464986
 20
-23.5945469218
 10
-34.091477008
 20
-23.6177128582
 10
-34.0846444101
 20
-23.6400596791
 10
-34.0776542455
 20
-23.6615896177
 10
-34.0705009732
 20
-23.6823004408
 10
-34.063205887
 20
-23.7022824091
 10
-34.0557650751
 20
-23.7215558837
 10
-34.0481824487
 20
-23.7401005035
 10
-34.0404910358
 20
-23.7579454462
 10
-34.032686106
 20
-23.7751001536
 10
-34.0247723893
 20
-23.7915551839
 10
-34.0167971045
 20
-23.8073113894
 10
-34.0087691598
 20
-23.8223516485
 10
-34.0006796468
 20
-23.8366930828
 10
-33.9925490598
 20
-23.8503879097
 10
-33.9843818776
 20
-23.8634343358
 10
-33.9761736213
 20
-23.8758341544
 10
-33.9679313478
 20
-23.8876449633
 10
-33.9596469473
 20
-23.8988799116
 10
-33.9513285295
 20
-23.9095258502
 10
-33.9430074803
 20
-23.9196009294
 10
-33.9346833758
 20
-23.9291030269
 10
-33.9263566399
 20
-23.938034265
 10
-33.9180599308
 20
-23.9464191604
 10
-33.9097982019
 20
-23.9542518289
 10
-33.9015665
 20
-23.9615381547
 10
-33.8933826232
 20
-23.9683203069
 10
-33.885242666
 20
-23.9746004662
 10
-33.8771505341
 20
-23.980376452
 10
-33.8691357427
 20
-23.985683892
 10
-33.8611920246
 20
-23.990522524
 10
-33.8533256473
 20
-23.9948926102
 10
-33.8455849279
 20
-23.9988305656
 10
-33.8379710686
 20
-24.002330603
 10
-33.8304828676
 20
-24.0053985095
 10
-33.8231650366
 20
-24.0080880611
 10
-33.8160313882
 20
-24.0103937151
 10
-33.8090681104
 20
-24.0123210141
 10
-33.802278477
 20
-24.0139403624
 10
-33.7956635797
 20
-24.015275228
 10
-33.7892223274
 20
-24.0163021428
 10
-33.7829547204
 20
-24.0170211068
  0
LINE
  5
270
100
AcDbEntity
  8
RACCORDO
100
AcDbLine
 62
253
  6
CONTINUOUS
 10
-36.1128909675
 20
-24.5249712686
 11
-36.1128909675
 21
24.5249712682
  0
LINE
  5
271
100
AcDbEntity
  8
RACCORDO
100
AcDbLine
 62
7
  6
CONTINUOUS
 10
-36.0078241643
 20
-24.5249712686
 11
-36.0078241643
 21
24.5249712682
  0
LINE
  5
272
100
AcDbEntity
  8
RACCORDO
100
AcDbLine
 62
253
  6
CONTINUOUS
 10
-35.9301623974
 20
24.3791688479
 11
-35.9301623974
 21
-24.3791688479
  0
LINE
  5
273
100
AcDbEntity
  8
RACCORDO
100
AcDbLine
 62
253
  6
CONTINUOUS
 10
-35.7405576629
 20
24.3791688479
 11
-35.7405576629
 21
-24.3791688479
  0
LINE
  5
274
100
AcDbEntity
  8
RACCORDO
100
AcDbLine
 62
253
  6
CONTINUOUS
 10
-35.63371501
 20
-24.2831704168
 11
-35.63371501
 21
24.2831704168
  0
LINE
  5
275
100
AcDbEntity
  8
RACCORDO
100
AcDbLine
 62
253
  6
CONTINUOUS
 10
-35.5388413646
 20
-24.2831704168
 11
-35.5388413646
 21
24.2831704168
  0
LINE
  5
276
100
AcDbEntity
  8
RACCORDO
100
AcDbLine
 62
253
  6
CONTINUOUS
 10
-34.1636590961
 20
23.0764614955
 11
-34.1636590961
 21
-23.0764614955
  0
LINE
  5
277
100
AcDbEntity
  8
RACCORDO
100
AcDbLine
 62
253
  6
CONTINUOUS
 10
-33.9543406975
 20
23.0764614955
 11
-33.9543406975
 21
-23.0764614955
  0
LINE
  5
278
100
AcDbEntity
  8
RACCORDO
100
AcDbLine
 62
7
  6
CONTINUOUS
 10
-33.8237961104
 20
22.2740702034
 11
-33.8237961104
 21
-22.2740702034
  0
LWPOLYLINE
  5
279
100
AcDbEntity
  8
RACCORDO
100
AcDbPolyline
 62
253
  6
CONTINUOUS
 90
58
 70
0
 10
-33.9543406975
 20
-23.0764614955
 10
-33.9545665707
 20
-23.1148883535
 10
-33.9544037057
 20
-23.152007096
 10
-33.9538880733
 20
-23.1878118446
 10
-33.9530576303
 20
-23.2222519886
 10
-33.9519451803
 20
-23.2553700012
 10
-33.9505716897
 20
-23.2873008104
 10
-33.9489624817
 20
-23.3180433024
 10
-33.9471441903
 20
-23.3475948071
 10
-33.9451285359
 20
-23.3760879536
 10
-33.9429347931
 20
-23.4035239057
 10
-33.9405831816
 20
-23.4299001242
 10
-33.9380786428
 20
-23.4553432585
 10
-33.9354351094
 20
-23.4798622491
 10
-33.9326685474
 20
-23.503447948
 10
-33.9297810751
 20
-23.5261992803
 10
-33.926784038
 20
-23.5481199964
 10
-33.9236894802
 20
-23.5692067862
 10
-33.9204963834
 20
-23.5895473591
 10
-33.9172140296
 20
-23.6091438405
 10
-33.9138514744
 20
-23.6279947561
 10
-33.9104039713
 20
-23.6461816865
 10
-33.9068751423
 20
-23.6637231296
 10
-33.9032753383
 20
-23.6806009712
 10
-33.8996079368
 20
-23.6968414195
 10
-33.8958763878
 20
-23.7124538316
 10
-33.8920896228
 20
-23.7274296169
 10
-33.888259006
 20
-23.7417682402
 10
-33.8843943562
 20
-23.7554552425
 10
-33.8804980095
 20
-23.7685068564
 10
-33.8765697642
 20
-23.7809686622
 10
-33.872615971
 20
-23.7928395138
 10
-33.8686404128
 20
-23.8041222791
 10
-33.8646379526
 20
-23.8148681171
 10
-33.8606081305
 20
-23.8250896243
 10
-33.8565595121
 20
-23.834775479
 10
-33.8524999569
 20
-23.8439408116
 10
-33.8484327582
 20
-23.8525850375
 10
-33.8443622337
 20
-23.8607105689
 10
-33.8402978226
 20
-23.8683373445
 10
-33.8362451838
 20
-23.875461202
 10
-33.8322056508
 20
-23.8820886886
 10
-33.828182044
 20
-23.8882559662
 10
-33.8241750305
 20
-23.8939663666
 10
-33.820189848
 20
-23.8992189347
 10
-33.8162360107
 20
-23.9040435565
 10
-33.8123127538
 20
-23.9084417728
 10
-33.8084259871
 20
-23.9124148083
 10
-33.8045952766
 20
-23.9159926646
 10
-33.8008229772
 20
-23.9191725035
 10
-33.7971112139
 20
-23.9219608162
 10
-33.7934792273
 20
-23.9244023852
 10
-33.7899352977
 20
-23.9264943821
 10
-33.7864746779
 20
-23.9282440125
 10
-33.7830968673
 20
-23.9297113672
 10
-33.7798024811
 20
-23.9309177401
 10
-33.7765932753
 20
-23.931845709
 10
-33.7734702013
 20
-23.9324971537
  0
LWPOLYLINE
  5
27A
100
AcDbEntity
  8
RACCORDO
100
AcDbPolyline
 62
253
  6
CONTINUOUS
 90
49
 70
0
 10
-35.5388413646
 20
24.2831704168
 10
-35.5384203032
 20
24.3106135922
 10
-35.5371667165
 20
24.3379782122
 10
-35.5350806043
 20
24.365264277
 10
-35.5321583127
 20
24.3924979558
 10
-35.5284034947
 20
24.4196530792
 10
-35.5238271105
 20
24.4466511394
 10
-35.518426934
 20
24.4734904945
 10
-35.5122051895
 20
24.5001727864
 10
-35.5051795123
 20
24.5266244328
 10
-35.497347792
 20
24.5528445872
 10
-35.4887121365
 20
24.5788340962
 10
-35.4792965079
 20
24.6045219173
 10
-35.4690988924
 20
24.6299071781
 10
-35.4581213007
 20
24.6549907511
 10
-35.4463937318
 20
24.6797042112
 10
-35.433914189
 20
24.7040466465
 10
-35.4206846653
 20
24.7280189688
 10
-35.4067411443
 20
24.7515554889
 10
-35.3920817069
 20
24.774655105
 10
-35.3767082678
 20
24.7973189187
 10
-35.360662562
 20
24.8194845456
 10
-35.3439427699
 20
24.8411507038
 10
-35.3265507064
 20
24.8623186751
 10
-35.3085335584
 20
24.8829299202
 10
-35.2898896222
 20
24.9029829947
 10
-35.2706205968
 20
24.9224793431
 10
-35.2507787728
 20
24.9413647599
 10
-35.2303625339
 20
24.959637679
 10
-35.2093734916
 20
24.9772996666
 10
-35.1878687796
 20
24.9943012151
 10
-35.1658468912
 20
25.0106406151
 10
-35.1433093283
 20
25.026319576
 10
-35.1203177377
 20
25.0412937192
 10
-35.0968708256
 20
25.0555611523
 10
-35.0729698813
 20
25.0691237676
 10
-35.0486804272
 20
25.0819428641
 10
-35.0240012839
 20
25.0940164622
 10
-34.9989336268
 20
25.1053465413
 10
-34.9735465104
 20
25.1159003388
 10
-34.947838765
 20
25.1256757706
 10
-34.9218115569
 20
25.1346749207
 10
-34.8955374454
 20
25.1428712776
 10
-34.8690143254
 20
25.1502627256
 10
-34.8422442994
 20
25.1568513804
 10
-34.8153062378
 20
25.1626170783
 10
-34.7882264307
 20
25.167553098
 10
-34.7609785864
 20
25.1716661609
 10
-34.7335627041
 20
25.1749562668
  0
LWPOLYLINE
  5
27B
100
AcDbEntity
  8
RACCORDO
100
AcDbPolyline
 62
253
  6
CONTINUOUS
 90
49
 70
0
 10
-35.6337148583
 20
24.2831704168
 10
-35.6332423198
 20
24.3136265813
 10
-35.6318412553
 20
24.3440510057
 10
-35.6295127637
 20
24.3744115311
 10
-35.6262592708
 20
24.4046774154
 10
-35.6220845927
 20
24.4348220502
 10
-35.6169922914
 20
24.4648204905
 10
-35.6109870844
 20
24.494645563
 10
-35.6040753144
 20
24.5242689371
 10
-35.5962630677
 20
24.553663794
 10
-35.5875576423
 20
24.5828022465
 10
-35.5779677835
 20
24.6116575234
 10
-35.5675017413
 20
24.6402045393
 10
-35.5561691181
 20
24.6684164845
 10
-35.5439810511
 20
24.6962672647
 10
-35.5309478951
 20
24.7237327977
 10
-35.517081435
 20
24.7507872774
 10
-35.5023951122
 20
24.7774055631
 10
-35.4869014988
 20
24.8035644316
 10
-35.4706145757
 20
24.8292391912
 10
-35.4535499282
 20
24.8544059986
 10
-35.4357222691
 20
24.8790427065
 10
-35.4171476998
 20
24.9031259046
 10
-35.3978438186
 20
24.9266332433
 10
-35.3778273413
 20
24.9495439233
 10
-35.3571163455
 20
24.9718360515
 10
-35.3357303287
 20
24.9934888907
 10
-35.3136879466
 20
25.0144831128
 10
-35.2910091073
 20
25.0347985339
 10
-35.2677150765
 20
25.0544161694
 10
-35.243826444
 20
25.073318257
 10
-35.2193648288
 20
25.0914864815
 10
-35.1943530884
 20
25.1089037837
 10
-35.1688136724
 20
25.1255541377
 10
-35.142769838
 20
25.1414212153
 10
-35.1162458034
 20
25.1564900853
 10
-35.0892655505
 20
25.1707467791
 10
-35.0618536758
 20
25.184177174
 10
-35.0340356249
 20
25.196768493
 10
-35.0058368029
 20
25.2085088913
 10
-34.9772827556
 20
25.2193866225
 10
-34.9484003112
 20
25.2293911238
 10
-34.9192170722
 20
25.2385126611
 10
-34.8897603676
 20
25.2467417962
 10
-34.8600567648
 20
25.2540706344
 10
-34.8301327197
 20
25.2604922803
 10
-34.8000149355
 20
25.2659999232
 10
-34.769732803
 20
25.2705878864
 10
-34.7393180986
 20
25.274251506
  0
LINE
  5
27C
100
AcDbEntity
  8
RACCORDO
100
AcDbLine
 62
253
  6
CONTINUOUS
 10
-33.7471005137
 20
-22.8535037201
 11
-33.7734702061
 21
-23.9324973521
  0
LINE
  5
27D
100
AcDbEntity
  8
RACCORDO
100
AcDbLine
 62
253
  6
CONTINUOUS
 10
-33.9457524961
 20
-22.7284942167
 11
-33.9543406975
 21
-23.0764614955
  0
LINE
  5
27E
100
AcDbEntity
  8
RACCORDO
100
AcDbLine
 62
253
  6
CONTINUOUS
 10
-33.9445355166
 20
-22.689230012
 11
-33.9457524961
 21
-22.7284942167
  0
LINE
  5
27F
100
AcDbEntity
  8
RACCORDO
100
AcDbLine
 62
253
  6
CONTINUOUS
 10
-33.9431780224
 20
-22.6512904397
 11
-33.9445355166
 21
-22.689230012
  0
LINE
  5
280
100
AcDbEntity
  8
RACCORDO
100
AcDbLine
 62
253
  6
CONTINUOUS
 10
-33.7460255455
 20
-22.8245835444
 11
-33.7471005137
 21
-22.8535037201
  0
LINE
  5
281
100
AcDbEntity
  8
RACCORDO
100
AcDbLine
 62
253
  6
CONTINUOUS
 10
-33.9416879803
 20
-22.6150296307
 11
-33.9431780224
 21
-22.6512904397
  0
LWPOLYLINE
  5
282
100
AcDbEntity
  8
RACCORDO
100
AcDbPolyline
 62
253
  6
CONTINUOUS
 90
3
 70
0
 10
-33.7441459411
 20
-22.7828156574
 10
-33.7448081496
 20
-22.7965004187
 10
-33.7460255455
 20
-22.8245835444
  0
LWPOLYLINE
  5
283
100
AcDbEntity
  8
RACCORDO
100
AcDbPolyline
 62
253
  6
CONTINUOUS
 90
16
 70
0
 10
-36.0077968506
 20
24.5249712837
 10
-36.0025849601
 20
24.6322951738
 10
-35.9868929815
 20
24.7385672486
 10
-35.9609321965
 20
24.8428071729
 10
-35.9249211021
 20
24.9440448636
 10
-35.8791628917
 20
25.0413142248
 10
-35.8241569988
 20
25.1336856674
 10
-35.7604328311
 20
25.2202466008
 10
-35.6885337861
 20
25.3001415225
 10
-35.6091661827
 20
25.3726650782
 10
-35.5230754582
 20
25.4371603019
 10
-35.4310807814
 20
25.4929246428
 10
-35.3341363192
 20
25.5393951302
 10
-35.2331976335
 20
25.5761718802
 10
-35.1291571613
 20
25.6028874583
 10
-35.0230260326
 20
25.6192898227
  0
LINE
  5
284
100
AcDbEntity
  8
RACCORDO
100
AcDbLine
 62
253
  6
CONTINUOUS
 10
-33.9400755873
 20
-22.580702589
 11
-33.9416879803
 21
-22.6150296307
  0
LINE
  5
285
100
AcDbEntity
  8
RACCORDO
100
AcDbLine
 62
253
  6
CONTINUOUS
 10
-36.1128909675
 20
24.5249712682
 11
-36.1067488582
 21
24.6438487272
  0
LINE
  5
286
100
AcDbEntity
  8
RACCORDO
100
AcDbLine
 62
253
  6
CONTINUOUS
 10
-33.9383479594
 20
-22.5484657018
 11
-33.9400755873
 21
-22.580702589
  0
LWPOLYLINE
  5
287
100
AcDbEntity
  8
RACCORDO
100
AcDbPolyline
 62
253
  6
CONTINUOUS
 90
16
 70
0
 10
-34.845637344
 20
-25.431605058
 10
-34.8452421549
 20
-25.4244858613
 10
-34.8449024415
 20
-25.4177321352
 10
-34.8446190678
 20
-25.4113610602
 10
-34.8443927547
 20
-25.4053888433
 10
-34.8442240781
 20
-25.399830677
 10
-34.8441134669
 20
-25.3947007003
 10
-34.8440612025
 20
-25.3900119632
 10
-34.8440674179
 20
-25.3857763931
 10
-34.8441320973
 20
-25.3820047646
 10
-34.8442550761
 20
-25.3787066723
 10
-34.8444360415
 20
-25.375890506
 10
-34.8446745332
 20
-25.3735634295
 10
-34.8449699444
 20
-25.3717313626
 10
-34.8453215238
 20
-25.3703989658
 10
-34.8457283768
 20
-25.3695696285
  0
LINE
  5
288
100
AcDbEntity
  8
RACCORDO
100
AcDbLine
 62
253
  6
CONTINUOUS
 10
-34.8465899893
 20
-25.4468665389
 11
-34.845637344
 21
-25.431605058
  0
LINE
  5
289
100
AcDbEntity
  8
RACCORDO
100
AcDbLine
 62
253
  6
CONTINUOUS
 10
-34.7389604445
 20
-25.2369202688
 11
-34.7383285357
 21
-25.2278286107
  0
LINE
  5
28A
100
AcDbEntity
  8
RACCORDO
100
AcDbLine
 62
253
  6
CONTINUOUS
 10
-34.84775069
 20
-25.463361385
 11
-34.8465899893
 21
-25.4468665389
  0
LINE
  5
28B
100
AcDbEntity
  8
RACCORDO
100
AcDbLine
 62
253
  6
CONTINUOUS
 10
-34.7383285357
 20
-25.2278286107
 11
-34.7375755942
 21
-25.2180732698
  0
LWPOLYLINE
  5
28C
100
AcDbEntity
  8
RACCORDO
100
AcDbPolyline
 62
253
  6
CONTINUOUS
 90
3
 70
0
 10
-34.849855476
 20
-25.490046282
 10
-34.8491076428
 20
-25.4809218616
 10
-34.84775069
 20
-25.463361385
  0
LWPOLYLINE
  5
28D
100
AcDbEntity
  8
RACCORDO
100
AcDbPolyline
 62
253
  6
CONTINUOUS
 90
15
 70
0
 10
-35.1560824007
 20
-25.7002128341
 10
-35.2693928571
 20
-25.6710733066
 10
-35.3783111789
 20
-25.6313878001
 10
-35.4838109874
 20
-25.5805654448
 10
-35.5849188393
 20
-25.5191971105
 10
-35.6787142949
 20
-25.4490554065
 10
-35.7649568266
 20
-25.3699076089
 10
-35.8438872405
 20
-25.2819864417
 10
-35.913307181
 20
-25.1877626859
 10
-35.9729589896
 20
-25.0869501607
 10
-36.0231005874
 20
-24.979835047
 10
-36.0623070113
 20
-24.8697466686
 10
-36.0901033321
 20
-24.7577948
 10
-36.1069646377
 20
-24.6428696667
 10
-36.1128909675
 20
-24.5249712686
  0
LWPOLYLINE
  5
28E
100
AcDbEntity
  8
RACCORDO
100
AcDbPolyline
 62
253
  6
CONTINUOUS
 90
31
 70
0
 10
-33.9468264206
 20
-22.7689800677
 10
-33.9460876045
 20
-22.7732750168
 10
-33.9448358252
 20
-22.777558894
 10
-33.9430743096
 20
-22.7818206561
 10
-33.9408075987
 20
-22.7860493168
 10
-33.9380415358
 20
-22.7902339752
 10
-33.9347832515
 20
-22.7943638437
 10
-33.9310411451
 20
-22.7984282761
 10
-33.9268248633
 20
-22.8024167948
 10
-33.9221452752
 20
-22.806319118
 10
-33.9170144442
 20
-22.8101251858
 10
-33.9114455969
 20
-22.8138251868
 10
-33.905453089
 20
-22.8174095828
 10
-33.8990523684
 20
-22.8208691338
 10
-33.8922599355
 20
-22.8241949214
 10
-33.8850933002
 20
-22.8273783721
 10
-33.8775709372
 20
-22.8304112796
 10
-33.8697122382
 20
-22.8332858252
 10
-33.8615374619
 20
-22.8359945989
 10
-33.8530676818
 20
-22.8385306177
 10
-33.8443247319
 20
-22.8408873441
 10
-33.8353311505
 20
-22.8430587028
 10
-33.8261101218
 20
-22.8450390962
 10
-33.8166854165
 20
-22.8468234192
 10
-33.8070813302
 20
-22.8484070721
 10
-33.7973226211
 20
-22.8497859723
 10
-33.7874344458
 20
-22.8509565652
 10
-33.7774422948
 20
-22.8519158333
 10
-33.7673719266
 20
-22.8526613036
 10
-33.7572493012
 20
-22.8531910544
 10
-33.7471005137
 20
-22.8535037201
  0
LWPOLYLINE
  5
28F
100
AcDbEntity
  8
RACCORDO
100
AcDbPolyline
 62
253
  6
CONTINUOUS
 90
10
 70
0
 10
-35.0383797074
 20
25.7188063822
 10
-35.0364956855
 20
25.7015758052
 10
-35.0345198447
 20
25.6848663878
 10
-35.0325119469
 20
25.6691835276
 10
-35.0305327238
 20
25.6550015726
 10
-35.0286420393
 20
25.6427494739
 10
-35.0268970781
 20
25.6327978118
 10
-35.0253506185
 20
25.6254475874
 10
-35.0240494357
 20
25.6209211185
 10
-35.0230328855
 20
25.6193553146
  0
LINE
  5
290
100
AcDbEntity
  8
RACCORDO
100
AcDbLine
 62
253
  6
CONTINUOUS
 10
-33.7788581034
 20
23.9784676198
 11
-33.7809418985
 21
23.9976523789
  0
LINE
  5
291
100
AcDbEntity
  8
RACCORDO
100
AcDbLine
 62
253
  6
CONTINUOUS
 10
-33.7809418985
 20
23.9976523789
 11
-33.7829547153
 21
24.0170211068
  0
LINE
  5
292
100
AcDbEntity
  8
RACCORDO
100
AcDbLine
 62
253
  6
CONTINUOUS
 10
-34.8572309649
 20
25.568154199
 11
-34.8551869385
 21
25.5481210222
  0
LINE
  5
293
100
AcDbEntity
  8
RACCORDO
100
AcDbLine
 62
253
  6
CONTINUOUS
 10
-34.7346919555
 20
25.1860820482
 11
-34.733562704
 21
25.1749562668
  0
LINE
  5
294
100
AcDbEntity
  8
RACCORDO
100
AcDbLine
 62
253
  6
CONTINUOUS
 10
-34.8551869385
 20
25.5481210222
 11
-34.8532635456
 21
25.5282915596
  0
LINE
  5
295
100
AcDbEntity
  8
RACCORDO
100
AcDbLine
 62
253
  6
CONTINUOUS
 10
-34.7357458227
 20
25.1970681728
 11
-34.7346919555
 21
25.1860820482
  0
LINE
  5
296
100
AcDbEntity
  8
RACCORDO
100
AcDbLine
 62
253
  6
CONTINUOUS
 10
-34.8532635456
 20
25.5282915596
 11
-34.8514803451
 21
25.5088674557
  0
LINE
  5
297
100
AcDbEntity
  8
RACCORDO
100
AcDbLine
 62
253
  6
CONTINUOUS
 10
-34.7367110767
 20
25.2077767367
 11
-34.7357458227
 21
25.1970681728
  0
LINE
  5
298
100
AcDbEntity
  8
RACCORDO
100
AcDbLine
 62
253
  6
CONTINUOUS
 10
-34.8514803451
 20
25.5088674557
 11
-34.8498554703
 21
25.4900462331
  0
LINE
  5
299
100
AcDbEntity
  8
RACCORDO
100
AcDbLine
 62
253
  6
CONTINUOUS
 10
-34.7375756013
 20
25.2180733202
 11
-34.7367110767
 21
25.2077767367
  0
LINE
  5
29A
100
AcDbEntity
  8
RACCORDO
100
AcDbLine
 62
253
  6
CONTINUOUS
 10
-33.7403531689
 20
22.7190635798
 11
-33.7419652277
 21
22.7435931948
  0
LINE
  5
29B
100
AcDbEntity
  8
RACCORDO
100
AcDbLine
 62
253
  6
CONTINUOUS
 10
-33.9365210168
 20
22.5185988854
 11
-33.9383521066
 21
22.5485380727
  0
LWPOLYLINE
  5
29C
100
AcDbEntity
  8
RACCORDO
100
AcDbPolyline
 62
253
  6
CONTINUOUS
 90
3
 70
0
 10
-33.7419652277
 20
22.7435931948
 10
-33.7434544819
 20
22.7694830301
 10
-33.7441491768
 20
22.7828799843
  0
LINE
  5
29D
100
AcDbEntity
  8
RACCORDO
100
AcDbLine
 62
253
  6
CONTINUOUS
 10
-33.7427222277
 20
-22.756309686
 11
-33.7441459411
 21
-22.7828156574
  0
LINE
  5
29E
100
AcDbEntity
  8
RACCORDO
100
AcDbLine
 62
253
  6
CONTINUOUS
 10
-34.7375755942
 20
-25.2180732698
 11
-34.7367110713
 21
-25.2077767
  0
LINE
  5
29F
100
AcDbEntity
  8
RACCORDO
100
AcDbLine
 62
253
  6
CONTINUOUS
 10
-34.8514803488
 20
-25.5088674907
 11
-34.849855476
 21
-25.490046282
  0
LINE
  5
2A0
100
AcDbEntity
  8
RACCORDO
100
AcDbLine
 62
253
  6
CONTINUOUS
 10
-34.7367110713
 20
-25.2077767
 11
-34.7357458191
 21
-25.1970681494
  0
LINE
  5
2A1
100
AcDbEntity
  8
RACCORDO
100
AcDbLine
 62
253
  6
CONTINUOUS
 10
-34.8532635472
 20
-25.5282915815
 11
-34.8514803488
 21
-25.5088674907
  0
LINE
  5
2A2
100
AcDbEntity
  8
RACCORDO
100
AcDbLine
 62
253
  6
CONTINUOUS
 10
-34.7357458191
 20
-25.1970681494
 11
-34.7346919537
 21
-25.1860820372
  0
LINE
  5
2A3
100
AcDbEntity
  8
RACCORDO
100
AcDbLine
 62
253
  6
CONTINUOUS
 10
-34.855186938
 20
-25.5481210324
 11
-34.8532635472
 21
-25.5282915815
  0
LINE
  5
2A4
100
AcDbEntity
  8
RACCORDO
100
AcDbLine
 62
253
  6
CONTINUOUS
 10
-34.7346919537
 20
-25.1860820372
 11
-34.733562704
 21
-25.1749562668
  0
LINE
  5
2A5
100
AcDbEntity
  8
RACCORDO
100
AcDbLine
 62
253
  6
CONTINUOUS
 10
-34.8572309624
 20
-25.568154199
 11
-34.855186938
 21
-25.5481210324
  0
LINE
  5
2A6
100
AcDbEntity
  8
RACCORDO
100
AcDbLine
 62
253
  6
CONTINUOUS
 10
-33.7809419028
 20
-23.9976523817
 11
-33.7829547204
 21
-24.0170211068
  0
LWPOLYLINE
  5
2A7
100
AcDbEntity
  8
RACCORDO
100
AcDbPolyline
 62
253
  6
CONTINUOUS
 90
10
 70
0
 10
-35.0383794795
 20
-25.7188063811
 10
-35.0364953475
 20
-25.7015725229
 10
-35.0345192764
 20
-25.6848592159
 10
-35.0325110579
 20
-25.669172168
 10
-35.0305314568
 20
-25.6549860347
 10
-35.0286403711
 20
-25.642730057
 10
-35.0268950195
 20
-25.6327750739
 10
-35.0253482123
 20
-25.6254223014
 10
-35.024046753
 20
-25.6208942182
 10
-35.0230300209
 20
-25.6193278343
  0
LINE
  5
2A8
100
AcDbEntity
  8
RACCORDO
100
AcDbLine
 62
253
  6
CONTINUOUS
 10
-33.7788581068
 20
-23.9784676259
 11
-33.7809419028
 21
-23.9976523817
  0
LINE
  5
2A9
100
AcDbEntity
  8
RACCORDO
100
AcDbLine
 62
253
  6
CONTINUOUS
 10
-33.7767231248
 20
-23.9596490612
 11
-33.7788581068
 21
-23.9784676259
  0
LWPOLYLINE
  5
2AA
100
AcDbEntity
  8
RACCORDO
100
AcDbPolyline
 62
253
  6
CONTINUOUS
 90
3
 70
0
 10
-33.7734691231
 20
-23.9324974544
 10
-33.7745572354
 20
-23.9413754313
 10
-33.7767231248
 20
-23.9596490612
  0
LWPOLYLINE
  5
2AB
100
AcDbEntity
  8
RACCORDO
100
AcDbPolyline
 62
253
  6
CONTINUOUS
 90
58
 70
0
 10
33.7734701992
 20
-23.9324971543
 10
33.776593274
 20
-23.931845709
 10
33.7798024803
 20
-23.9309177397
 10
33.783096867
 20
-23.9297113666
 10
33.7864746779
 20
-23.9282440121
 10
33.7899352979
 20
-23.9264943821
 10
33.7934792275
 20
-23.9244023855
 10
33.797111214
 20
-23.9219608164
 10
33.8008229772
 20
-23.9191725035
 10
33.8045952765
 20
-23.9159926645
 10
33.808425987
 20
-23.9124148082
 10
33.8123127538
 20
-23.9084417727
 10
33.8162360107
 20
-23.9040435566
 10
33.8201898481
 20
-23.8992189347
 10
33.8241750305
 20
-23.8939663666
 10
33.828182044
 20
-23.8882559661
 10
33.8322056508
 20
-23.8820886886
 10
33.8362451838
 20
-23.875461202
 10
33.8402978226
 20
-23.8683373445
 10
33.8443622337
 20
-23.8607105689
 10
33.8484327582
 20
-23.8525850375
 10
33.8524999569
 20
-23.8439408116
 10
33.8565595121
 20
-23.834775479
 10
33.8606081305
 20
-23.8250896243
 10
33.8646379526
 20
-23.8148681171
 10
33.8686404128
 20
-23.8041222791
 10
33.872615971
 20
-23.7928395138
 10
33.8765697642
 20
-23.7809686622
 10
33.8804980095
 20
-23.7685068564
 10
33.8843943562
 20
-23.7554552425
 10
33.888259006
 20
-23.7417682402
 10
33.8920896228
 20
-23.7274296169
 10
33.8958763878
 20
-23.7124538316
 10
33.8996079368
 20
-23.6968414195
 10
33.9032753383
 20
-23.6806009712
 10
33.9068751423
 20
-23.6637231296
 10
33.9104039713
 20
-23.6461816865
 10
33.9138514744
 20
-23.6279947561
 10
33.9172140296
 20
-23.6091438405
 10
33.9204963834
 20
-23.5895473591
 10
33.9236894802
 20
-23.5692067862
 10
33.926784038
 20
-23.5481199964
 10
33.9297810751
 20
-23.5261992803
 10
33.9326685474
 20
-23.503447948
 10
33.9354351094
 20
-23.4798622491
 10
33.9380786428
 20
-23.4553432585
 10
33.9405831816
 20
-23.4299001242
 10
33.9429347931
 20
-23.4035239057
 10
33.9451285359
 20
-23.3760879536
 10
33.9471441903
 20
-23.3475948071
 10
33.9489624817
 20
-23.3180433024
 10
33.9505716897
 20
-23.2873008104
 10
33.9519451803
 20
-23.2553700012
 10
33.9530576303
 20
-23.2222519886
 10
33.9538880733
 20
-23.1878118446
 10
33.9544037057
 20
-23.152007096
 10
33.9545665707
 20
-23.1148883535
 10
33.9543406975
 20
-23.0764614955
  0
LWPOLYLINE
  5
2AC
100
AcDbEntity
  8
RACCORDO
100
AcDbPolyline
 62
7
  6
CONTINUOUS
 90
16
 70
0
 10
35.0151462979
 20
-25.6122755716
 10
35.1224469894
 20
-25.595446105
 10
35.2259108238
 20
-25.5689024321
 10
35.3255378821
 20
-25.5326445528
 10
35.4223171197
 20
-25.4860792034
 10
35.5152597219
 20
-25.4297996476
 10
35.6013991685
 20
-25.3655856766
 10
35.6803390747
 20
-25.2933866011
 10
35.7524760652
 20
-25.2132531104
 10
35.8160332053
 20
-25.1271170638
 10
35.8709238474
 20
-25.0345182052
 10
35.9172348552
 20
-24.9359167905
 10
35.9534495801
 20
-24.8346254472
 10
35.9790625231
 20
-24.7317483842
 10
35.9945793185
 20
-24.6261813924
 10
36.0
 20
-24.517924472
  0
LWPOLYLINE
  5
2AD
100
AcDbEntity
  8
RACCORDO
100
AcDbPolyline
 62
253
  6
CONTINUOUS
 90
49
 70
0
 10
34.8572309625
 20
-25.568154199
 10
34.8934469641
 20
-25.5638128871
 10
34.9295166786
 20
-25.5583671937
 10
34.965440107
 20
-25.5518171187
 10
35.0012661602
 20
-25.5441557271
 10
35.036945929
 20
-25.5353899539
 10
35.0723326853
 20
-25.5255406046
 10
35.1074221588
 20
-25.5146004471
 10
35.1422186239
 20
-25.5025767136
 10
35.1765881728
 20
-25.489511905
 10
35.2105243494
 20
-25.475401061
 10
35.2440336157
 20
-25.460249142
 10
35.2770014422
 20
-25.4441135311
 10
35.3094140418
 20
-25.4269969872
 10
35.3412852091
 20
-25.4088967514
 10
35.3725417879
 20
-25.3898619289
 10
35.4031819601
 20
-25.3698923072
 10
35.4332075517
 20
-25.3489880989
 10
35.4625508748
 20
-25.3271990471
 10
35.4912155478
 20
-25.3045197706
 10
35.5191979604
 20
-25.2809556506
 10
35.5464195819
 20
-25.2565725742
 10
35.5728790178
 20
-25.2313671339
 10
35.5985776713
 20
-25.2053427371
 10
35.6234412087
 20
-25.1785754933
 10
35.647466913
 20
-25.151062869
 10
35.6706575098
 20
-25.1228073976
 10
35.6929468302
 20
-25.0938927885
 10
35.7143311747
 20
-25.0643181747
 10
35.7348142511
 20
-25.0340844233
 10
35.7543410015
 20
-25.0032778446
 10
35.772906175
 20
-24.9719031953
 10
35.7905150303
 20
-24.9399557187
 10
35.8071282742
 20
-24.9075074551
 10
35.8227454654
 20
-24.8745572845
 10
35.837367052
 20
-24.841106327
 10
35.8509550748
 20
-24.8072299824
 10
35.8635111532
 20
-24.7729143757
 10
35.8750336736
 20
-24.738173382
 10
35.8854798268
 20
-24.7031240264
 10
35.8948443487
 20
-24.6677598922
 10
35.903132508
 20
-24.6320873963
 10
35.9103172952
 20
-24.596242814
 10
35.9163911473
 20
-24.5602221339
 10
35.9213616305
 20
-24.5240293675
 10
35.925224428
 20
-24.4878128247
 10
35.9279781016
 20
-24.4516219422
 10
35.9296240913
 20
-24.4154072833
 10
35.9301623974
 20
-24.3791688479
  0
LWPOLYLINE
  5
2AE
100
AcDbEntity
  8
RACCORDO
100
AcDbPolyline
 62
253
  6
CONTINUOUS
 90
49
 70
0
 10
34.8457283592
 20
-25.3695694643
 10
34.8759175268
 20
-25.3659748318
 10
34.9060392808
 20
-25.3614609345
 10
34.9360616242
 20
-25.3560265101
 10
34.9659651411
 20
-25.3496688759
 10
34.9957111303
 20
-25.3423907976
 10
35.0252399869
 20
-25.3342026731
 10
35.0545235665
 20
-25.3251097743
 10
35.0835341967
 20
-25.315118625
 10
35.1122143773
 20
-25.3042476208
 10
35.1405339822
 20
-25.2925085435
 10
35.1684701791
 20
-25.2799120884
 10
35.1959783453
 20
-25.2664797278
 10
35.2230239843
 20
-25.2522312002
 10
35.249593173
 20
-25.2371776929
 10
35.2756726773
 20
-25.2213286336
 10
35.3012377885
 20
-25.2047001391
 10
35.3262664901
 20
-25.1873087339
 10
35.3507483924
 20
-25.1691622715
 10
35.3746643113
 20
-25.1502740255
 10
35.3979879779
 20
-25.1306649803
 10
35.4206975968
 20
-25.1103533705
 10
35.4427723344
 20
-25.089357068
 10
35.4641910102
 20
-25.0676967744
 10
35.4849315314
 20
-25.0453951373
 10
35.5049743846
 20
-25.0224728622
 10
35.5243012852
 20
-24.998952024
 10
35.5428924924
 20
-24.9748577002
 10
35.5607300605
 20
-24.9502135693
 10
35.5777988929
 20
-24.9250424736
 10
35.594083895
 20
-24.8993684238
 10
35.6095672618
 20
-24.8732205185
 10
35.6242385438
 20
-24.8466191041
 10
35.6380925444
 20
-24.8195743449
 10
35.6511154939
 20
-24.792110539
 10
35.6632945541
 20
-24.764253725
 10
35.6746235842
 20
-24.7360155736
 10
35.6850933462
 20
-24.7074112293
 10
35.6946879972
 20
-24.6784771676
 10
35.7033922175
 20
-24.6492573583
 10
35.7111981537
 20
-24.6197752055
 10
35.7180971047
 20
-24.5900623596
 10
35.7240774516
 20
-24.5601766066
 10
35.7291359014
 20
-24.5301461263
 10
35.7332701323
 20
-24.49999983
 10
35.7364765086
 20
-24.4697971538
 10
35.7387566626
 20
-24.4395764874
 10
35.7401152802
 20
-24.4093565273
 10
35.7405574078
 20
-24.3791688479
  0
LWPOLYLINE
  5
2AF
100
AcDbEntity
  8
RACCORDO
100
AcDbPolyline
 62
253
  6
CONTINUOUS
 90
46
 70
0
 10
34.7335627041
 20
-25.1749562668
 10
33.3661822957
 20
-25.3157906684
 10
31.9612425349
 20
-25.4535911909
 10
30.518738726
 20
-25.5883578344
 10
29.0319503747
 20
-25.7210259996
 10
27.5075894066
 20
-25.8506602858
 10
25.9658059305
 20
-25.9744544904
 10
24.4079747492
 20
-26.0919770123
 10
22.8327277352
 20
-26.2036594527
 10
21.2561099234
 20
-26.3079904123
 10
19.6830195417
 20
-26.4044958716
 10
18.1085739196
 20
-26.4936498501
 10
16.534150568
 20
-26.5753630075
 10
14.9603745592
 20
-26.6495974315
 10
13.3866363012
 20
-26.7163910343
 10
11.8124614818
 20
-26.7757682118
 10
10.2375709443
 20
-26.8277411384
 10
8.6622591342
 20
-26.8722976396
 10
7.0869121289
 20
-26.9094255877
 10
5.5116880796
 20
-26.9391199605
 10
3.9364442534
 20
-26.9613857801
 10
2.3611154321
 20
-26.9762259855
 10
0.7856411568
 20
-26.983641556
 10
-0.7899027046
 20
-26.9836315122
 10
-2.3653768814
 20
-26.9761958549
 10
-3.9407054327
 20
-26.9613355668
 10
-5.5159488903
 20
-26.9390496652
 10
-7.0911726915
 20
-26.9093352035
 10
-8.6665200336
 20
-26.8721871388
 10
-10.2418323009
 20
-26.8276105141
 10
-11.8167222411
 20
-26.7756175109
 10
-13.3908943535
 20
-26.7162203526
 10
-14.9646288504
 20
-26.6494068159
 10
-16.5384020365
 20
-26.5751524129
 10
-18.1128276439
 20
-26.4934189386
 10
-19.6872764594
 20
-26.4042445982
 10
-21.2603605438
 20
-26.3077195185
 10
-22.8369913176
 20
-26.2033667905
 10
-24.4122418029
 20
-26.0916633234
 10
-25.96997031
 20
-25.9741299713
 10
-27.5115545613
 20
-25.8503324898
 10
-29.0356102128
 20
-25.7207051232
 10
-30.5218618545
 20
-25.5880714589
 10
-31.9635558519
 20
-25.4533726926
 10
-33.3674545472
 20
-25.3156676286
 10
-34.7335627041
 20
-25.1749562668
  0
LWPOLYLINE
  5
2B0
100
AcDbEntity
  8
RACCORDO
100
AcDbPolyline
 62
253
  6
CONTINUOUS
 90
46
 70
0
 10
34.7393181157
 20
-25.2742516663
 10
33.3716800672
 20
-25.414325198
 10
31.9665100588
 20
-25.5523261402
 10
30.523785662
 20
-25.6877838302
 10
29.0367711241
 20
-25.8208005858
 10
27.5121580948
 20
-25.9502337193
 10
25.9700996696
 20
-26.0740013482
 10
24.4120163144
 20
-26.1917635403
 10
22.8365249481
 20
-26.3033969203
 10
21.2596248579
 20
-26.4076416488
 10
19.686263567
 20
-26.5041926523
 10
18.1115807408
 20
-26.5933706078
 10
16.5368847994
 20
-26.6750979074
 10
14.9628366611
 20
-26.7493500802
 10
13.3888615335
 20
-26.8161644735
 10
11.8144149603
 20
-26.8755658239
 10
10.2392524371
 20
-26.9275587593
 10
8.6637034239
 20
-26.9721282303
 10
7.0880841416
 20
-27.0092650265
 10
5.5125878717
 20
-27.0389672908
 10
3.9371068683
 20
-27.0612401737
 10
2.3615058618
 20
-27.0760863295
 10
0.7857593686
 20
-27.0835049557
 10
-0.7900217095
 20
-27.0834949087
 10
-2.365768104
 20
-27.0760561888
 10
-3.9413688402
 20
-27.0611899417
 10
-5.5168494747
 20
-27.0388969695
 10
-7.0923454964
 20
-27.0091746122
 10
-8.6679651159
 20
-26.9720177027
 10
-10.2435145866
 20
-26.9274281052
 10
-11.8186765115
 20
-26.8754150728
 10
-13.3931203754
 20
-26.8159937146
 10
-14.9670917408
 20
-26.7491593809
 10
-16.5411370573
 20
-26.6748872426
 10
-18.1158352623
 20
-26.5931397057
 10
-19.6905212864
 20
-26.5039414211
 10
-21.2638762675
 20
-26.4073706647
 10
-22.8407893727
 20
-26.3031048562
 10
-24.4162842517
 20
-26.1914509671
 10
-25.9742648209
 20
-26.0736767211
 10
-27.5161240686
 20
-25.9499061426
 10
-29.0404318909
 20
-25.820481341
 10
-30.5269093968
 20
-25.6874973569
 10
-31.9688233324
 20
-25.5521038786
 10
-33.3729519263
 20
-25.4141975733
 10
-34.7393181157
 20
-25.2742516661
  0
LWPOLYLINE
  5
2B1
100
AcDbEntity
  8
RACCORDO
100
AcDbPolyline
 62
253
  6
CONTINUOUS
 90
43
 70
0
 10
35.0230328911
 20
-25.6193553167
 10
32.7797285425
 20
-25.847885522
 10
30.6004802004
 20
-26.055274841
 10
28.4855680922
 20
-26.2427949122
 10
26.4375155344
 20
-26.4115019613
 10
24.4542644948
 20
-26.562805645
 10
22.5291761596
 20
-26.6983317022
 10
20.6630159145
 20
-26.8190573677
 10
18.8553304966
 20
-26.926014387
 10
17.0976074031
 20
-27.0206030742
 10
15.3832005655
 20
-27.1039298029
 10
13.7189649316
 20
-27.176389547
 10
12.1166213606
 20
-27.2383147894
 10
10.5840796673
 20
-27.2903510338
 10
9.1135948275
 20
-27.3336735084
 10
7.693391683
 20
-27.3693748596
 10
6.3279804238
 20
-27.3980118008
 10
5.0129461234
 20
-27.4203214212
 10
3.7231035752
 20
-27.4371786821
 10
2.4584744899
 20
-27.4488740186
 10
1.2190902562
 20
-27.4556932262
 10
-0.0202320353
 20
-27.4579162459
 10
-1.2594818258
 20
-27.4555434277
 10
-2.498628343
 20
-27.4485761962
 10
-3.7628241496
 20
-27.4367338197
 10
-5.0520293054
 20
-27.4197329597
 10
-6.3662306899
 20
-27.397285502
 10
-7.7306088348
 20
-27.3685162654
 10
-9.1496142955
 20
-27.3326896223
 10
-10.6187013793
 20
-27.2892531257
 10
-12.1495339297
 20
-27.2371202452
 10
-13.7497400653
 20
-27.1751250419
 10
-15.4115275065
 20
-27.1026247386
 10
-17.1234157242
 20
-27.0192814308
 10
-18.87863838
 20
-26.9246978374
 10
-20.6837535086
 20
-26.817773355
 10
-22.5472488898
 20
-26.6971112499
 10
-24.4695728197
 20
-26.5616831571
 10
-26.4499658465
 20
-26.4105146019
 10
-28.495058594
 20
-26.2419836001
 10
-30.6069070768
 20
-26.0546843354
 10
-32.7829917371
 20
-25.8475641594
 10
-35.0230329018
 20
-25.6193553121
  0
LWPOLYLINE
  5
2B2
100
AcDbEntity
  8
RACCORDO
100
AcDbPolyline
 62
253
  6
CONTINUOUS
 90
43
 70
0
 10
35.0383797136
 20
-25.7188063842
 10
32.7937557816
 20
-25.9453420312
 10
30.6136346842
 20
-26.1532164687
 10
28.4980634704
 20
-26.3424296967
 10
26.4492026994
 20
-26.511698541
 10
24.464973679
 20
-26.6623061759
 10
22.5390566068
 20
-26.7981021233
 10
20.6721373118
 20
-26.9193060624
 10
18.8635867011
 20
-27.025698314
 10
17.1051044879
 20
-27.1204693628
 10
15.3899818155
 20
-27.2040192445
 10
13.7249651262
 20
-27.2759479233
 10
12.1219339458
 20
-27.3382457774
 10
10.5887538007
 20
-27.3907095111
 10
9.1175890199
 20
-27.43354242
 10
7.6967648987
 20
-27.4693447692
 10
6.3307753857
 20
-27.4983835065
 10
5.0151438394
 20
-27.5203916842
 10
3.7247356252
 20
-27.5371687239
 10
2.4595613276
 20
-27.5491237745
 10
1.2196200218
 20
-27.5558476872
 10
-0.0202424075
 20
-27.557912438
 10
-1.2600323152
 20
-27.5556981911
 10
-2.4997358318
 20
-27.5488247823
 10
-3.7644767313
 20
-27.5367236945
 10
-5.0542473593
 20
-27.5198035014
 10
-6.3690457178
 20
-27.4976556292
 10
-7.7340018415
 20
-27.4684858399
 10
-9.1536278808
 20
-27.4325579532
 10
-10.6233944017
 20
-27.3896081492
 10
-12.1548650281
 20
-27.33705073
 10
-13.7557581562
 20
-27.2746865352
 10
-15.4183256489
 20
-27.2027147251
 10
-17.130928891
 20
-27.1191470826
 10
-18.8869097995
 20
-27.0243814137
 10
-20.6928889748
 20
-26.9180199123
 10
-22.5571426756
 20
-26.7968809426
 10
-24.480294744
 20
-26.6611836126
 10
-26.4616647852
 20
-26.5107088144
 10
-28.5075646282
 20
-26.3416175882
 10
-30.6200704021
 20
-26.1526302809
 10
-32.79702439
 20
-25.9450265457
 10
-35.0383797086
 20
-25.7188063825
  0
LWPOLYLINE
  5
2B3
100
AcDbEntity
  8
RACCORDO
100
AcDbPolyline
 62
7
  6
CONTINUOUS
 90
13
 70
0
 10
35.0151462979
 20
-25.6122755716
 10
29.1963480328
 20
-26.1734513077
 10
23.3702078071
 20
-26.6326753819
 10
17.5371122449
 20
-26.9899477943
 10
11.695654747
 20
-27.2453666857
 10
5.8480215989
 20
-27.3988339152
 10
-0.0000062295
 20
-27.4500550606
 10
-5.8480328077
 20
-27.3988338238
 10
-11.6956632382
 20
-27.245366503
 10
-17.5371181007
 20
-26.9899475699
 10
-23.3702116265
 20
-26.6326751821
 10
-29.1963498986
 20
-26.173451182
 10
-35.0151462932
 20
-25.6122755698
  0
LWPOLYLINE
  5
2B4
100
AcDbEntity
  8
RACCORDO
100
AcDbPolyline
 62
253
  6
CONTINUOUS
 90
46
 70
0
 10
-34.8572309624
 20
-25.568154199
 10
-33.3112209294
 20
-25.7265472253
 10
-31.7648890807
 20
-25.8777246788
 10
-30.2182427176
 20
-26.0216865596
 10
-28.6713327762
 20
-26.1584264585
 10
-27.1241229464
 20
-26.2879507846
 10
-25.5764896345
 20
-26.4102787656
 10
-24.0283770209
 20
-26.5254169463
 10
-22.4798555089
 20
-26.6333587818
 10
-20.9309908316
 20
-26.7341038654
 10
-19.3817768191
 20
-26.8276525488
 10
-17.8322343081
 20
-26.9140044803
 10
-16.2824695811
 20
-26.9931581986
 10
-14.7325235208
 20
-27.0651121719
 10
-13.1823699848
 20
-27.1298679321
 10
-11.6320147412
 20
-27.1874286132
 10
-10.0814412811
 20
-27.2377953938
 10
-8.5306808735
 20
-27.2809670953
 10
-6.9798109661
 20
-27.3169433165
 10
-5.4288449659
 20
-27.3457237771
 10
-3.8777842593
 20
-27.3673087575
 10
-2.3266882746
 20
-27.3816986977
 10
-0.775570567
 20
-27.3888937443
 10
0.7755676132
 20
-27.3888937507
 10
2.3266852913
 20
-27.381698718
 10
3.8777811956
 20
-27.3673087934
 10
5.4288417923
 20
-27.3457238295
 10
6.9798077166
 20
-27.3169433849
 10
8.5306776285
 20
-27.2809671776
 10
10.0814380746
 20
-27.2377954896
 10
11.6320115306
 20
-27.1874287246
 10
13.1823666821
 20
-27.1298680628
 10
14.7325200835
 20
-27.0651123241
 10
16.2824660257
 20
-26.9931583721
 10
17.8322306529
 20
-26.914004676
 10
19.3817730808
 20
-26.8276527667
 10
20.9309870806
 20
-26.7341041007
 10
22.4798518067
 20
-26.6333590315
 10
24.0283734378
 20
-26.5254172057
 10
25.5764863218
 20
-26.4102790196
 10
27.1241201432
 20
-26.2879510105
 10
28.6713306336
 20
-26.1584266413
 10
30.2182412039
 20
-26.0216866969
 10
31.7648881033
 20
-25.8777247726
 10
33.3112204565
 20
-25.7265472733
 10
34.8572309625
 20
-25.568154199
  0
LWPOLYLINE
  5
2B5
100
AcDbEntity
  8
RACCORDO
100
AcDbPolyline
 62
253
  6
CONTINUOUS
 90
46
 70
0
 10
-34.8457283768
 20
-25.3695696285
 10
-33.3002886842
 20
-25.5278645723
 10
-31.7544531668
 20
-25.6789473352
 10
-30.2082680623
 20
-25.822818068
 10
-28.6618554822
 20
-25.9594705662
 10
-27.1151789571
 20
-26.0889136441
 10
-25.5680464051
 20
-26.2111667783
 10
-24.020433885
 20
-26.3262331473
 10
-22.4724454435
 20
-26.4341066259
 10
-20.9240805449
 20
-26.5347889472
 10
-19.3753666326
 20
-26.6282796097
 10
-17.8263578573
 20
-26.7145770717
 10
-16.2770936439
 20
-26.7936809162
 10
-14.7276481028
 20
-26.8655893151
 10
-13.1780285285
 20
-26.9303042436
 10
-11.6281739992
 20
-26.9878295617
 10
-10.078101319
 20
-27.0381650487
 10
-8.5278751314
 20
-27.0813094133
 10
-6.9775061612
 20
-27.1172630796
 10
-5.4270411481
 20
-27.1460254782
 10
-3.8765148317
 20
-27.167596876
 10
-2.3259198924
 20
-27.1819778656
 10
-0.7753032113
 20
-27.1891681688
 10
0.7753005906
 20
-27.1891681748
 10
2.325917242
 20
-27.1819778836
 10
3.8765121007
 20
-27.1675969073
 10
5.427038307
 20
-27.1460255246
 10
6.977503244
 20
-27.1172631409
 10
8.5278722187
 20
-27.0813094878
 10
10.0780984449
 20
-27.0381651354
 10
11.6281711209
 20
-26.9878296615
 10
13.1780255579
 20
-26.9303043603
 10
14.7276449972
 20
-26.8655894521
 10
16.2770904199
 20
-26.7936810735
 10
17.8263545333
 20
-26.7145772494
 10
19.3753632256
 20
-26.6282798078
 10
20.9240771256
 20
-26.5347891616
 10
22.4724420729
 20
-26.4341068527
 10
24.0204306325
 20
-26.3262333815
 10
25.5680434211
 20
-26.2111670071
 10
27.1151764928
 20
-26.0889138444
 10
28.6618536919
 20
-25.9594707202
 10
30.2082668839
 20
-25.8228181749
 10
31.7544524593
 20
-25.6789474027
 10
33.3002883703
 20
-25.5278646042
 10
34.8457283768
 20
-25.3695696287
  0
LWPOLYLINE
  5
2B6
100
AcDbEntity
  8
RACCORDO
100
AcDbPolyline
 62
253
  6
CONTINUOUS
 90
49
 70
0
 10
-34.7335627041
 20
-25.1749562668
 10
-34.760979634
 20
-25.1716659787
 10
-34.7882282695
 20
-25.1675527593
 10
-34.8153086115
 20
-25.1626166084
 10
-34.8422468661
 20
-25.1568508149
 10
-34.8690168289
 20
-25.15026209
 10
-34.8955398854
 20
-25.1428705674
 10
-34.9218140192
 20
-25.1346741205
 10
-34.9478412494
 20
-25.1256748758
 10
-34.9735490151
 20
-25.1158993472
 10
-34.9989361507
 20
-25.1053454517
 10
-35.0240038252
 20
-25.0940152722
 10
-35.0486829812
 20
-25.0819415721
 10
-35.0729724419
 20
-25.0691223722
 10
-35.096873388
 20
-25.0555596515
 10
-35.1203202988
 20
-25.0412921113
 10
-35.1433118853
 20
-25.0263178591
 10
-35.1658494408
 20
-25.0106387872
 10
-35.1878713185
 20
-24.9942992742
 10
-35.2093760177
 20
-24.9772976091
 10
-35.2303650438
 20
-24.9596355029
 10
-35.2507812592
 20
-24.9413624671
 10
-35.2706230577
 20
-24.9224769274
 10
-35.2898920503
 20
-24.9029804582
 10
-35.3085359263
 20
-24.8829272937
 10
-35.3265529709
 20
-24.8623160072
 10
-35.3439449036
 20
-24.8411480254
 10
-35.3606645649
 20
-24.8194818635
 10
-35.3767101482
 20
-24.7973162326
 10
-35.3920834648
 20
-24.7746524216
 10
-35.4067427827
 20
-24.7515528116
 10
-35.4206861882
 20
-24.7280162993
 10
-35.4339155992
 20
-24.7040439879
 10
-35.4463950315
 20
-24.6797015679
 10
-35.4581224917
 20
-24.6549881275
 10
-35.4690999771
 20
-24.6299045784
 10
-35.4792974891
 20
-24.604519346
 10
-35.488713017
 20
-24.5788315596
 10
-35.4973485749
 20
-24.5528420899
 10
-35.5051802008
 20
-24.5266219734
 10
-35.5122057869
 20
-24.5001703627
 10
-35.5184274436
 20
-24.4734881051
 10
-35.5238275373
 20
-24.4466487803
 10
-35.5284038458
 20
-24.4196506613
 10
-35.5321585929
 20
-24.3924954749
 10
-35.5350808145
 20
-24.3652619812
 10
-35.5371668559
 20
-24.3379764337
 10
-35.5384203725
 20
-24.3106125789
 10
-35.5388413646
 20
-24.2831704168
  0
LWPOLYLINE
  5
2B7
100
AcDbEntity
  8
RACCORDO
100
AcDbPolyline
 62
253
  6
CONTINUOUS
 90
49
 70
0
 10
-34.7393181004
 20
-25.2742515236
 10
-34.7697326073
 20
-25.2705879146
 10
-34.8000146948
 20
-25.2659999446
 10
-34.8301325691
 20
-25.2604923108
 10
-34.8600566727
 20
-25.2540706575
 10
-34.8897602787
 20
-25.2467418166
 10
-34.9192169539
 20
-25.2385127075
 10
-34.9484001675
 20
-25.2293911731
 10
-34.9772826004
 20
-25.2193866671
 10
-35.0058366557
 20
-25.2085089557
 10
-35.0340354806
 20
-25.1967685592
 10
-35.0618535302
 20
-25.184177234
 10
-35.0892654088
 20
-25.1707468585
 10
-35.1162456551
 20
-25.1564901711
 10
-35.1427696789
 20
-25.1414212988
 10
-35.1688135157
 20
-25.125554242
 10
-35.1943529278
 20
-25.1089038978
 10
-35.2193646586
 20
-25.091486594
 10
-35.2438262786
 20
-25.0733183883
 10
-35.2677149107
 20
-25.054416312
 10
-35.2910089335
 20
-25.0347986745
 10
-35.3136877798
 20
-25.0144832694
 10
-35.3357301645
 20
-24.9934890611
 10
-35.3571161724
 20
-24.9718362218
 10
-35.3778271751
 20
-24.9495441078
 10
-35.3978436593
 20
-24.9266334425
 10
-35.4171475332
 20
-24.9031261033
 10
-35.4357221106
 20
-24.8790429157
 10
-35.4535497816
 20
-24.8544062217
 10
-35.4706144232
 20
-24.8292394131
 10
-35.4869013547
 20
-24.8035646599
 10
-35.5023949848
 20
-24.7774058027
 10
-35.5170813032
 20
-24.7507875144
 10
-35.5309477708
 20
-24.7237330389
 10
-35.5439809454
 20
-24.6962675183
 10
-35.5561690067
 20
-24.6684167393
 10
-35.5675016344
 20
-24.6402047993
 10
-35.5779676957
 20
-24.6116577994
 10
-35.587557548
 20
-24.5828025344
 10
-35.5962629771
 20
-24.5536640943
 10
-35.6040752481
 20
-24.5242692507
 10
-35.610987016
 20
-24.4946458683
 10
-35.6169922282
 20
-24.4648207688
 10
-35.6220845584
 20
-24.4348222938
 10
-35.6262592394
 20
-24.4046776545
 10
-35.629512737
 20
-24.3744118107
 10
-35.6318412537
 20
-24.3440513436
 10
-35.6332423104
 20
-24.313626833
 10
-35.63371484
 20
-24.2831704168
  0
LWPOLYLINE
  5
2B8
100
AcDbEntity
  8
RACCORDO
100
AcDbPolyline
 62
253
  6
CONTINUOUS
 90
16
 70
0
 10
-35.0230300209
 20
-25.6193278343
 10
-35.1293195177
 20
-25.6028763925
 10
-35.2334329607
 20
-25.5760874292
 10
-35.3344197087
 20
-25.5392805648
 10
-35.4313445015
 20
-25.4927796588
 10
-35.5232792186
 20
-25.4369933376
 10
-35.6093468446
 20
-25.3725258727
 10
-35.6886983609
 20
-25.3000070644
 10
-35.7605482479
 20
-25.2200697557
 10
-35.8242731824
 20
-25.1334961773
 10
-35.8793011786
 20
-25.0411059263
 10
-35.9250294242
 20
-24.9437865151
 10
-35.9610093485
 20
-24.8425360337
 10
-35.9869485434
 20
-24.7383450806
 10
-36.0025779281
 20
-24.6321459045
 10
-36.0077581503
 20
-24.5249712826
  0
LINE
  5
2B9
100
AcDbEntity
  8
RACCORDO
100
AcDbLine
 62
253
  6
CONTINUOUS
 10
-35.0383797086
 20
-25.7188063825
 11
-35.1560824007
 21
-25.7002128341
  0
LINE
  5
2BA
100
AcDbEntity
  8
RACCORDO
100
AcDbLine
 62
253
  6
CONTINUOUS
 10
-33.7734691231
 20
23.9324974443
 11
-33.7756427608
 21
23.9504331308
  0
LWPOLYLINE
  5
2BB
100
AcDbEntity
  8
RACCORDO
100
AcDbPolyline
 62
253
  6
CONTINUOUS
 90
3
 70
0
 10
-33.7756427608
 20
23.9504331308
 10
-33.7777957529
 20
23.969001289
 10
-33.7788581034
 20
23.9784676198
  0
LWPOLYLINE
  5
2BC
100
AcDbEntity
  8
0
100
AcDbPolyline
 62
7
  6
CONTINUOUS
 90
37
 70
0
 10
2.1348059885
 20
-23.3524335382
 10
2.1610566657
 20
-23.3486239245
 10
2.1875458829
 20
-23.3449471416
 10
2.21427364
 20
-23.3414031896
 10
2.2413354481
 20
-23.3379721972
 10
2.2686357962
 20
-23.3346740356
 10
2.2958881515
 20
-23.3315683192
 10
2.3230829831
 20
-23.3286636898
 10
2.3502298221
 20
-23.3259515056
 10
2.377070728
 20
-23.3234654549
 10
2.4035555352
 20
-23.3212162829
 10
2.4297344094
 20
-23.3191932443
 10
2.4554999075
 20
-23.3173977918
 10
2.4807474093
 20
-23.3158338077
 10
2.5055815349
 20
-23.3144974098
 10
2.5302087021
 20
-23.3133784039
 10
2.554618371
 20
-23.3124640007
 10
2.5788210815
 20
-23.3117669897
 10
2.6030548701
 20
-23.3113155449
 10
2.6273198642
 20
-23.3110984191
 10
2.6516159363
 20
-23.3111268595
 10
2.676180741
 20
-23.3114627819
 10
2.7010395987
 20
-23.3120931345
 10
2.726167189
 20
-23.313030969
 10
2.751725205
 20
-23.3143773568
 10
2.7778620898
 20
-23.3161261729
 10
2.8044294002
 20
-23.3182835424
 10
2.8311435004
 20
-23.3209689119
 10
2.8580464781
 20
-23.3241912383
 10
2.8850962456
 20
-23.3279415649
 10
2.9118829028
 20
-23.3323124677
 10
2.938428385
 20
-23.337348581
 10
2.964710757
 20
-23.3430052707
 10
2.9902543136
 20
-23.3492412104
 10
3.0149004867
 20
-23.3560426246
 10
3.0388078444
 20
-23.3634232889
 10
3.0619763869
 20
-23.3713832033
  0
LWPOLYLINE
  5
2BD
100
AcDbEntity
  8
RACCORDO
100
AcDbPolyline
 62
253
  6
CONTINUOUS
 90
58
 70
0
 10
33.7829547204
 20
-24.0170211068
 10
33.7892223274
 20
-24.0163021424
 10
33.7956635796
 20
-24.0152752274
 10
33.8022784769
 20
-24.0139403618
 10
33.8090681103
 20
-24.0123210137
 10
33.8160313883
 20
-24.0103937151
 10
33.8231650367
 20
-24.0080880614
 10
33.8304828677
 20
-24.0053985098
 10
33.8379710686
 20
-24.002330603
 10
33.8455849278
 20
-23.9988305654
 10
33.8533256472
 20
-23.9948926101
 10
33.8611920246
 20
-23.990522524
 10
33.8691357428
 20
-23.9856838921
 10
33.8771505342
 20
-23.980376452
 10
33.885242666
 20
-23.9746004662
 10
33.8933826232
 20
-23.9683203069
 10
33.9015665
 20
-23.9615381546
 10
33.9097982019
 20
-23.9542518289
 10
33.9180599308
 20
-23.9464191604
 10
33.9263566399
 20
-23.9380342651
 10
33.9346833758
 20
-23.9291030269
 10
33.9430074803
 20
-23.9196009293
 10
33.9513285295
 20
-23.9095258502
 10
33.9596469473
 20
-23.8988799116
 10
33.9679313478
 20
-23.8876449633
 10
33.9761736213
 20
-23.8758341544
 10
33.9843818776
 20
-23.8634343358
 10
33.9925490598
 20
-23.8503879097
 10
34.0006796468
 20
-23.8366930828
 10
34.0087691598
 20
-23.8223516485
 10
34.0167971045
 20
-23.8073113894
 10
34.0247723893
 20
-23.7915551839
 10
34.032686106
 20
-23.7751001536
 10
34.0404910358
 20
-23.7579454462
 10
34.0481824487
 20
-23.7401005035
 10
34.0557650751
 20
-23.7215558837
 10
34.063205887
 20
-23.7022824091
 10
34.0705009732
 20
-23.6823004408
 10
34.0776542455
 20
-23.6615896176
 10
34.0846444101
 20
-23.6400596791
 10
34.091477008
 20
-23.6177128582
 10
34.0981464986
 20
-23.5945469218
 10
34.1046149662
 20
-23.5704649105
 10
34.110888354
 20
-23.5454707326
 10
34.1169607192
 20
-23.5195604798
 10
34.1227763167
 20
-23.4926254667
 10
34.1283422461
 20
-23.4646755153
 10
34.1336514084
 20
-23.4357008036
 10
34.1386267608
 20
-23.4055631812
 10
34.1432801969
 20
-23.3742641661
 10
34.1475998236
 20
-23.3418022403
 10
34.1514729183
 20
-23.3080346995
 10
34.1549156026
 20
-23.2729608142
 10
34.1579117555
 20
-23.236581314
 10
34.1603002898
 20
-23.1987556835
 10
34.16202751
 20
-23.1594370844
 10
34.163147112
 20
-23.118672355
 10
34.1636590961
 20
-23.0764614955
  0
LWPOLYLINE
  5
2BE
100
AcDbEntity
  8
0
100
AcDbPolyline
 62
7
  6
CONTINUOUS
 90
43
 70
0
 10
2.7112456209
 20
-24.1321231746
 10
2.7278002657
 20
-24.1314489491
 10
2.7436776486
 20
-24.1303719219
 10
2.7588777697
 20
-24.1288920929
 10
2.7733716477
 20
-24.126987341
 10
2.7871882637
 20
-24.1246797874
 10
2.8004145618
 20
-24.1220357959
 10
2.8130433364
 20
-24.1190693441
 10
2.8250817929
 20
-24.1157664545
 10
2.8366384918
 20
-24.1121515584
 10
2.8477434965
 20
-24.1082223906
 10
2.8583667435
 20
-24.1039812163
 10
2.8685266033
 20
-24.099459263
 10
2.8782157649
 20
-24.0946630012
 10
2.8874415393
 20
-24.0895859603
 10
2.8962442294
 20
-24.0842399563
 10
2.9046162422
 20
-24.078632846
 10
2.9125651708
 20
-24.0727567727
 10
2.920154097
 20
-24.0665999816
 10
2.9273926751
 20
-24.0601506518
 10
2.9342712509
 20
-24.0534206043
 10
2.9408239443
 20
-24.0464335472
 10
2.9470644251
 20
-24.039183103
 10
2.9529790235
 20
-24.0316756492
 10
2.9585608503
 20
-24.0239540268
 10
2.9638065439
 20
-24.0160373894
 10
2.9687194659
 20
-24.0079065833
 10
2.9733028122
 20
-23.9995469888
 10
2.977559813
 20
-23.9909576883
 10
2.9814872381
 20
-23.9821395994
 10
2.9850785931
 20
-23.9730808546
 10
2.9883304372
 20
-23.9637596937
 10
2.9912462112
 20
-23.954197877
 10
2.9938297431
 20
-23.944448818
 10
2.9960758245
 20
-23.9344927951
 10
2.9979896639
 20
-23.9243495299
 10
2.9995907151
 20
-23.9141316011
 10
3.0008697891
 20
-23.9038386196
 10
3.001836075
 20
-23.8934709744
 10
3.0025365932
 20
-23.8831424106
 10
3.0029870173
 20
-23.8728908431
 10
3.0031716737
 20
-23.862678357
 10
3.0030905625
 20
-23.8525049523
  0
LINE
  5
2BF
100
AcDbEntity
  8
0
100
AcDbLine
 62
7
  6
CONTINUOUS
 10
-2.967115
 20
-25.131259
 11
-2.636029
 21
-25.131259
  0
LINE
  5
2C0
100
AcDbEntity
  8
0
100
AcDbLine
 62
7
  6
CONTINUOUS
 10
-1.91806
 20
-25.131259
 11
-1.54236
 21
-25.131259
  0
LINE
  5
2C1
100
AcDbEntity
  8
0
100
AcDbLine
 62
7
  6
CONTINUOUS
 10
-1.340109
 20
-25.131259
 11
-0.980686
 21
-25.131259
  0
LINE
  5
2C2
100
AcDbEntity
  8
0
100
AcDbLine
 62
7
  6
CONTINUOUS
 10
-0.458869
 20
-25.131259
 11
-0.406177
 21
-25.131259
  0
LINE
  5
2C3
100
AcDbEntity
  8
0
100
AcDbLine
 62
7
  6
CONTINUOUS
 10
0.117719
 20
-25.131259
 11
0.485254
 21
-25.131259
  0
LINE
  5
2C4
100
AcDbEntity
  8
0
100
AcDbLine
 62
7
  6
CONTINUOUS
 10
0.544249
 20
-25.131259
 11
0.915873
 21
-25.131259
  0
LINE
  5
2C5
100
AcDbEntity
  8
0
100
AcDbLine
 62
7
  6
CONTINUOUS
 10
1.62851
 20
-25.131259
 11
2.024482
 21
-25.131259
  0
LINE
  5
2C6
100
AcDbEntity
  8
0
100
AcDbLine
 62
7
  6
CONTINUOUS
 10
2.1348059885
 20
-25.13125911
 11
2.5089943883
 21
-25.13125911
  0
LINE
  5
2C7
100
AcDbEntity
  8
0
100
AcDbLine
 62
7
  6
CONTINUOUS
 10
3.0843272738
 20
-25.13125911
 11
3.4457071037
 21
-25.13125911
  0
LINE
  5
2C8
100
AcDbEntity
  8
0
100
AcDbLine
 62
7
  6
CONTINUOUS
 10
1.019543
 20
-24.771944
 11
1.531184
 21
-24.771944
  0
LINE
  5
2C9
100
AcDbEntity
  8
RACCORDO
100
AcDbLine
 62
253
  6
CONTINUOUS
 10
36.1128909675
 20
-24.5249712709
 11
36.0078241643
 21
-24.5249712864
  0
LINE
  5
2CA
100
AcDbEntity
  8
RACCORDO
100
AcDbLine
 62
253
  6
CONTINUOUS
 10
-36.1128909675
 20
-24.5249712686
 11
-36.0078241643
 21
-24.5249712686
  0
LINE
  5
2CB
100
AcDbEntity
  8
0
100
AcDbLine
 62
7
  6
CONTINUOUS
 10
1.4561
 20
-24.493908
 11
1.096394
 21
-24.493908
  0
LINE
  5
2CC
100
AcDbEntity
  8
0
100
AcDbLine
 62
7
  6
CONTINUOUS
 10
2.5089943883
 20
-24.4268957418
 11
2.7104358061
 21
-24.4268957418
  0
LINE
  5
2CD
100
AcDbEntity
  8
RACCORDO
100
AcDbLine
 62
253
  6
CONTINUOUS
 10
35.9301623974
 20
-24.3791688479
 11
35.7405576629
 21
-24.3791688479
  0
LINE
  5
2CE
100
AcDbEntity
  8
RACCORDO
100
AcDbLine
 62
253
  6
CONTINUOUS
 10
-35.9301623974
 20
-24.3791688479
 11
-35.7405576629
 21
-24.3791688479
  0
LINE
  5
2CF
100
AcDbEntity
  8
RACCORDO
100
AcDbLine
 62
253
  6
CONTINUOUS
 10
-35.63371501
 20
-24.2831704168
 11
-35.5388413646
 21
-24.2831704168
  0
LINE
  5
2D0
100
AcDbEntity
  8
RACCORDO
100
AcDbLine
 62
253
  6
CONTINUOUS
 10
35.63371501
 20
-24.2831704168
 11
35.5388413646
 21
-24.2831704168
  0
LINE
  5
2D1
100
AcDbEntity
  8
0
100
AcDbLine
 62
7
  6
CONTINUOUS
 10
2.7112456209
 20
-24.1321231746
 11
2.4965367382
 21
-24.1321231746
  0
LINE
  5
2D2
100
AcDbEntity
  8
0
100
AcDbLine
 62
7
  6
CONTINUOUS
 10
1.472243
 20
-23.331405
 11
1.108798
 21
-23.331405
  0
LINE
  5
2D3
100
AcDbEntity
  8
0
100
AcDbLine
 62
7
  6
CONTINUOUS
 10
0.316947
 20
-23.331405
 11
-0.054771
 21
-23.331405
  0
LINE
  5
2D4
100
AcDbEntity
  8
0
100
AcDbLine
 62
7
  6
CONTINUOUS
 10
-0.802203
 20
-23.331405
 11
-1.177593
 21
-23.331405
  0
LINE
  5
2D5
100
AcDbEntity
  8
0
100
AcDbLine
 62
7
  6
CONTINUOUS
 10
-2.057483
 20
-23.331405
 11
-2.432927
 21
-23.331405
  0
LINE
  5
2D6
100
AcDbEntity
  8
0
100
AcDbLine
 62
7
  6
CONTINUOUS
 10
-3.129577
 20
-23.331405
 11
-3.537703
 21
-23.331405
  0
LINE
  5
2D7
100
AcDbEntity
  8
0
100
AcDbLine
 62
7
  6
CONTINUOUS
 10
-1.54236
 20
-23.331297
 11
-1.91806
 21
-23.331297
  0
LWPOLYLINE
  5
2D8
100
AcDbEntity
  8
RACCORDO
100
AcDbPolyline
 62
253
  6
CONTINUOUS
 90
43
 70
0
 10
-33.7829547204
 20
-24.0170211068
 10
-32.1751419329
 20
-24.1767897753
 10
-30.5670757113
 20
-24.3287732123
 10
-28.9587642405
 20
-24.4729714178
 10
-27.3501896034
 20
-24.6093878627
 10
-25.7413860934
 20
-24.7380190761
 10
-24.1324402354
 20
-24.8588546446
 10
-22.5233602109
 20
-24.9718929323
 10
-20.9141542727
 20
-25.0771355751
 10
-19.3049090912
 20
-25.1745770672
 10
-17.6956329738
 20
-25.2642157661
 10
-16.086334078
 20
-25.3460533143
 10
-14.4770988751
 20
-25.4200891329
 10
-12.8679373558
 20
-25.486321561
 10
-11.2588560026
 20
-25.5447522595
 10
-9.6499360402
 20
-25.5953856321
 10
-8.0412254215
 20
-25.6382201462
 10
-6.4326926534
 20
-25.6732573345
 10
-4.8242997871
 20
-25.7005061979
 10
-3.2160972435
 20
-25.7199681247
 10
-1.6080510181
 20
-25.7316417268
 10
0.0000034915
 20
-25.7355318402
 10
1.6080581043
 20
-25.7316416913
 10
3.2161046102
 20
-25.7199680537
 10
4.8243075677
 20
-25.7005060849
 10
6.4327010544
 20
-25.673257169
 10
8.0412345764
 20
-25.6382199219
 10
9.6499458197
 20
-25.595385348
 10
11.2588662
 20
-25.5447519143
 10
12.8679478418
 20
-25.4863211538
 10
14.4771094897
 20
-25.4200886703
 10
16.0863446494
 20
-25.3460528032
 10
17.6956433422
 20
-25.264215213
 10
19.3049191015
 20
-25.1745764853
 10
20.91416377
 20
-25.0771349778
 10
22.5233690403
 20
-24.9718923328
 10
24.1324482476
 20
-24.8588540623
 10
25.7413931403
 20
-24.7380185305
 10
27.3501955359
 20
-24.6093873733
 10
28.9587689107
 20
-24.4729710104
 10
30.5670789723
 20
-24.3287729149
 10
32.1751436372
 20
-24.1767896137
 10
33.7829547204
 20
-24.0170211068
  0
LWPOLYLINE
  5
2D9
100
AcDbEntity
  8
RACCORDO
100
AcDbPolyline
 62
253
  6
CONTINUOUS
 90
43
 70
0
 10
-33.7734702061
 20
-23.9324973521
 10
-32.1660948804
 20
-24.0922660531
 10
-30.5584826429
 20
-24.2442495152
 10
-28.9506334935
 20
-24.3884477382
 10
-27.3425131578
 20
-24.524864191
 10
-25.7341559103
 20
-24.6534954048
 10
-24.1256645739
 20
-24.7743309734
 10
-22.5170390596
 20
-24.8873692636
 10
-20.9082794564
 20
-24.9926119087
 10
-19.2994888538
 20
-25.0900534029
 10
-17.6906673118
 20
-25.1796921038
 10
-16.0818147704
 20
-25.2615296537
 10
-14.4730341401
 20
-25.3355654739
 10
-12.8643271704
 20
-25.4017979034
 10
-11.2556921117
 20
-25.4602286032
 10
-9.6472266256
 20
-25.5108619768
 10
-8.0389704345
 20
-25.5536964919
 10
-6.430883816
 20
-25.5887336809
 10
-4.8229452642
 20
-25.6159825448
 10
-3.2151969955
 20
-25.6354444721
 10
-1.6075967936
 20
-25.6471180744
 10
0.000003497
 20
-25.6510081879
 10
1.6076038907
 20
-25.6471180388
 10
3.215204373
 20
-25.635444401
 10
4.8229530555
 20
-25.6159824317
 10
6.4308922275
 20
-25.5887335152
 10
8.0389795997
 20
-25.5536962673
 10
9.6472364152
 20
-25.5108616924
 10
11.2557023191
 20
-25.4602282575
 10
12.8643376663
 20
-25.4017974957
 10
14.4730447646
 20
-25.3355650107
 10
16.0818253517
 20
-25.2615291419
 10
17.69067769
 20
-25.17969155
 10
19.2994988742
 20
-25.0900528203
 10
20.9082889638
 20
-24.9926113106
 10
22.5170478993
 20
-24.8873686632
 10
24.1256725966
 20
-24.7743303902
 10
25.7341629687
 20
-24.6534948581
 10
27.3425191025
 20
-24.5248637004
 10
28.9506381752
 20
-24.3884473297
 10
30.5584859126
 20
-24.2442492169
 10
32.1660965888
 20
-24.0922658911
 10
33.773470204
 20
-23.9324973523
  0
LWPOLYLINE
  5
2DA
100
AcDbEntity
  8
0
100
AcDbPolyline
 62
7
  6
CONTINUOUS
 90
13
 70
0
 10
2.7908543687
 20
-23.6274320215
 10
2.7682637273
 20
-23.6250434766
 10
2.7452863713
 20
-23.6232162151
 10
2.7219223007
 20
-23.621950237
 10
2.6981491268
 20
-23.6212197292
 10
2.6739892384
 20
-23.6210505049
 10
2.6495098013
 20
-23.6215200036
 10
2.6247154359
 20
-23.6226494774
 10
2.5996015219
 20
-23.6244176742
 10
2.5742213646
 20
-23.626838277
 10
2.5485927324
 20
-23.629915847
 10
2.5226978569
 20
-23.6336458229
 10
2.4965367382
 20
-23.6380282049
  0
LINE
  5
2DB
100
AcDbEntity
  8
RACCORDO
100
AcDbLine
 62
253
  6
CONTINUOUS
 10
33.9543406975
 20
-23.0764614955
 11
34.1636590961
 21
-23.0764614955
  0
LINE
  5
2DC
100
AcDbEntity
  8
RACCORDO
100
AcDbLine
 62
253
  6
CONTINUOUS
 10
-33.9543406975
 20
-23.0764614955
 11
-34.1636590961
 21
-23.0764614955
  0
LINE
  5
2DD
100
AcDbEntity
  8
RACCORDO
100
AcDbLine
 62
253
  6
CONTINUOUS
 10
-33.7471005137
 20
-22.8535037201
 11
33.7471005137
 21
-22.8535037201
  0
LINE
  5
2DE
100
AcDbEntity
  8
RACCORDO
100
AcDbLine
 62
253
  6
CONTINUOUS
 10
-33.7157721766
 20
-22.5654980835
 11
33.7157721766
 21
-22.5654980835
  0
LINE
  5
2DF
100
AcDbEntity
  8
RACCORDO
100
AcDbLine
 62
7
  6
CONTINUOUS
 10
33.6240702034
 20
-22.4737961104
 11
-33.6240702034
 21
-22.4737961104
  0
LWPOLYLINE
  5
2E0
100
AcDbEntity
  8
0
100
AcDbPolyline
 62
7
  6
CONTINUOUS
 90
90
 70
0
 10
3.0619763869
 20
-23.3713832033
 10
3.0732137256
 20
-23.3756586435
 10
3.0847166042
 20
-23.3806407327
 10
3.0964850226
 20
-23.3863294707
 10
3.1085208736
 20
-23.3926997834
 10
3.1208222645
 20
-23.399776745
 10
3.1333835165
 20
-23.4076355784
 10
3.146267687
 20
-23.4162903979
 10
3.1594117186
 20
-23.4257270892
 10
3.1726207606
 20
-23.4359785325
 10
3.1859633479
 20
-23.4471157826
 10
3.1993709456
 20
-23.4590677847
 10
3.2124430982
 20
-23.4716542546
 10
3.2251136549
 20
-23.4848651704
 10
3.2374487665
 20
-23.498710554
 10
3.2492464301
 20
-23.5130401863
 10
3.2604515675
 20
-23.5278063734
 10
3.271119257
 20
-23.5430568092
 10
3.2812127301
 20
-23.5587843565
 10
3.2907327959
 20
-23.5749799572
 10
3.2996786455
 20
-23.5916526693
 10
3.3080110831
 20
-23.6088225291
 10
3.3157313478
 20
-23.626479403
 10
3.3228382006
 20
-23.6446334246
 10
3.3292887279
 20
-23.6633350308
 10
3.3350899321
 20
-23.6825487968
 10
3.3402348108
 20
-23.7023101473
 10
3.3446594435
 20
-23.7227757942
 10
3.3483734588
 20
-23.7441900671
 10
3.3513672281
 20
-23.7663086364
 10
3.3535479449
 20
-23.7885552248
 10
3.3548494535
 20
-23.8110759374
 10
3.3553379095
 20
-23.8337246691
 10
3.3551189739
 20
-23.8554868271
 10
3.3541597603
 20
-23.8760260953
 10
3.3524931552
 20
-23.8956787896
 10
3.3503234785
 20
-23.9144392654
 10
3.3476634397
 20
-23.9322631095
 10
3.3445003294
 20
-23.9491947349
 10
3.3410003395
 20
-23.9653617364
 10
3.3371774642
 20
-23.9807733794
 10
3.3330177094
 20
-23.9954203985
 10
3.3286452841
 20
-24.0094025915
 10
3.3240694861
 20
-24.0227223668
 10
3.3192810177
 20
-24.0353773161
 10
3.314376195
 20
-24.0474600115
 10
3.3093644844
 20
-24.0589738843
 10
3.3042364195
 20
-24.0699155033
 10
3.2990599167
 20
-24.0803671479
 10
3.293841874
 20
-24.090332635
 10
3.2885753935
 20
-24.0998081476
 10
3.2833076976
 20
-24.1088645143
 10
3.278043714
 20
-24.1175051918
 10
3.272778515
 20
-24.1257267234
 10
3.2675445404
 20
-24.1335895672
 10
3.262345549
 20
-24.1410968306
 10
3.257177782
 20
-24.1482454062
 10
3.2520624028
 20
-24.1550864296
 10
3.2470016297
 20
-24.1616223511
 10
3.2419932444
 20
-24.1678507205
 10
3.2370517553
 20
-24.1738153227
 10
3.2321789628
 20
-24.1795181373
 10
3.2273730666
 20
-24.1849571848
 10
3.2226431735
 20
-24.1901703115
 10
3.2179909343
 20
-24.195159276
 10
3.2134146983
 20
-24.1999223197
 10
3.2089186207
 20
-24.2044920128
 10
3.2045042071
 20
-24.2088709683
 10
3.2001699519
 20
-24.2130565732
 10
3.1959154935
 20
-24.2170735585
 10
3.1917420641
 20
-24.2209244365
 10
3.1876484315
 20
-24.2246066948
 10
3.1836305371
 20
-24.2281375275
 10
3.179688033
 20
-24.2315176637
 10
3.1758212671
 20
-24.2347463743
 10
3.1720272254
 20
-24.2378386659
 10
3.1683051961
 20
-24.2407951629
 10
3.1646558911
 20
-24.2436152409
 10
3.1610784317
 20
-24.2463120338
 10
3.1575723146
 20
-24.2488844361
 10
3.1541380431
 20
-24.2513335534
 10
3.1507762492
 20
-24.2536758358
 10
3.147487427
 20
-24.2559103946
 10
3.1442710824
 20
-24.2580381186
 10
3.1411263652
 20
-24.2600781249
 10
3.1380543608
 20
-24.2620312259
 10
3.1350539837
 20
-24.2638966093
 10
3.1321211276
 20
-24.2656909553
 10
3.1292576675
 20
-24.2674164192
 10
3.1264617283
 20
-24.2690708458
  0
LWPOLYLINE
  5
2E1
100
AcDbEntity
  8
0
100
AcDbPolyline
 62
7
  6
CONTINUOUS
 90
37
 70
0
 10
3.1007125255
 20
-24.291103306
 10
3.1091931736
 20
-24.2947166147
 10
3.1175253459
 20
-24.2986744239
 10
3.1257090425
 20
-24.3029767333
 10
3.1337574181
 20
-24.3076405582
 10
3.1416573179
 20
-24.3126488834
 10
3.1493692776
 20
-24.3179506639
 10
3.1568917476
 20
-24.3235468917
 10
3.1642262776
 20
-24.3294365748
 10
3.1713380524
 20
-24.3355656926
 10
3.1782021917
 20
-24.3419074481
 10
3.1848435759
 20
-24.3484886384
 10
3.1913020315
 20
-24.3553356334
 10
3.1975702163
 20
-24.3624328432
 10
3.2036554724
 20
-24.3697958577
 10
3.2096196535
 20
-24.3774978167
 10
3.2154704242
 20
-24.3855369776
 10
3.2212001197
 20
-24.393915083
 10
3.2268475998
 20
-24.4027105004
 10
3.2324176968
 20
-24.411923612
 10
3.2379055784
 20
-24.4215540356
 10
3.2433356063
 20
-24.4316789925
 10
3.2487194445
 20
-24.4423131615
 10
3.254045429
 20
-24.4534418638
 10
3.2593029306
 20
-24.4650982846
 10
3.2644943419
 20
-24.4772996737
 10
3.2696172702
 20
-24.4900287813
 10
3.2746539082
 20
-24.5032670428
 10
3.2795909485
 20
-24.5170180465
 10
3.2844416984
 20
-24.5312782041
 10
3.2892282731
 20
-24.5460181867
 10
3.2939338618
 20
-24.5612379464
 10
3.2985752752
 20
-24.5769375311
 10
3.3032250604
 20
-24.5930877559
 10
3.3079073997
 20
-24.6096788923
 10
3.3125981107
 20
-24.6267206688
 10
3.3172971935
 20
-24.6442130853
  0
LWPOLYLINE
  5
2E2
100
AcDbEntity
  8
RACCORDO
100
AcDbPolyline
 62
253
  6
CONTINUOUS
 90
21
 70
0
 10
-33.9154980835
 20
-22.3657721766
 10
-33.9166836585
 20
-22.3673147856
 10
-33.9178674311
 20
-22.3696045974
 10
-33.9190494014
 20
-22.3726416122
 10
-33.9202315634
 20
-22.3764277249
 10
-33.9214119231
 20
-22.3809610406
 10
-33.9225844983
 20
-22.3862358741
 10
-33.9237491173
 20
-22.392258716
 10
-33.9249059518
 20
-22.3990230759
 10
-33.9260495339
 20
-22.4065037977
 10
-33.927179716
 20
-22.4147068741
 10
-33.9282966457
 20
-22.4236263124
 10
-33.9293952985
 20
-22.4332189781
 10
-33.9304750077
 20
-22.4434833151
 10
-33.93153644
 20
-22.4544208796
 10
-33.9325765702
 20
-22.4659932061
 10
-33.9335949825
 20
-22.4781954185
 10
-33.9345920928
 20
-22.4910323929
 10
-33.9355661234
 20
-22.5044802921
 10
-33.9365174205
 20
-22.5185436897
 10
-33.9383479594
 20
-22.5484657018
  0
LWPOLYLINE
  5
2E3
100
AcDbEntity
  8
RACCORDO
100
AcDbPolyline
 62
253
  6
CONTINUOUS
 90
20
 70
0
 10
-33.9154980835
 20
22.3657721766
 10
-33.9166845266
 20
22.3673164986
 10
-33.9178690619
 20
22.3696085088
 10
-33.9190516893
 20
22.3726482072
 10
-33.9202344024
 20
22.3764376754
 10
-33.9214152077
 20
22.3809748318
 10
-33.9225881248
 20
22.3862534317
 10
-33.9237529816
 20
22.3922799678
 10
-33.9249099502
 20
22.3990479474
 10
-33.9260535672
 20
22.4065316474
 10
-33.9271836532
 20
22.4147367145
 10
-33.9283003876
 20
22.4236575021
 10
-33.9293988451
 20
22.4332513468
 10
-33.9304783634
 20
22.44351644
 10
-33.9315396047
 20
22.4544545902
 10
-33.9325796304
 20
22.4660285601
 10
-33.9335980635
 20
22.4782337909
 10
-33.934595281
 20
22.4910748415
 10
-33.9355694749
 20
22.504528151
 10
-33.9365210168
 20
22.5185988854
  0
LINE
  5
2E4
100
AcDbEntity
  8
0
100
AcDbLine
 62
7
  6
CONTINUOUS
 10
-0.458869
 20
-25.131259
 11
-0.89961
 21
-23.955988
  0
LINE
  5
2E5
100
AcDbEntity
  8
0
100
AcDbLine
 62
7
  6
CONTINUOUS
 10
-0.430471
 20
-24.33069
 11
-0.802203
 21
-23.331405
  0
LINE
  5
2E6
100
AcDbEntity
  8
0
100
AcDbLine
 62
7
  6
CONTINUOUS
 10
-2.967115
 20
-25.131259
 11
-3.537703
 21
-23.331405
  0
LINE
  5
2E7
100
AcDbEntity
  8
0
100
AcDbLine
 62
7
  6
CONTINUOUS
 10
-2.786492
 20
-24.5703
 11
-3.129577
 21
-23.331405
  0
LINE
  5
2E8
100
AcDbEntity
  8
RACCORDO
100
AcDbLine
 62
253
  6
CONTINUOUS
 10
-33.8237961104
 20
-22.2740702034
 11
-33.9154980835
 21
-22.3657721766
  0
LINE
  5
2E9
100
AcDbEntity
  8
RACCORDO
100
AcDbLine
 62
253
  6
CONTINUOUS
 10
-33.6240702034
 20
-22.4737961104
 11
-33.7157721766
 21
-22.5654980835
  0
LWPOLYLINE
  5
2EA
100
AcDbEntity
  8
RACCORDO
100
AcDbPolyline
 62
253
  6
CONTINUOUS
 90
26
 70
0
 10
-33.7157721766
 20
-22.5654980835
 10
-33.7169589811
 20
-22.566606526
 10
-33.718143632
 20
-22.5682428627
 10
-33.7193261293
 20
-22.5704102925
 10
-33.7205083531
 20
-22.5731128729
 10
-33.7216884232
 20
-22.5763517047
 10
-33.7228606995
 20
-22.5801223729
 10
-33.7240251266
 20
-22.5844233577
 10
-33.7251817599
 20
-22.5892526203
 10
-33.7263251251
 20
-22.5945995782
 10
-33.7274550681
 20
-22.6004585771
 10
-33.728571743
 20
-22.6068237774
 10
-33.7296701371
 20
-22.6136793132
 10
-33.7307495803
 20
-22.6210121919
 10
-33.7318107427
 20
-22.6288163736
 10
-33.7328506226
 20
-22.6370841077
 10
-33.7338688113
 20
-22.6458018534
 10
-33.7348657174
 20
-22.6549622524
 10
-33.7358395655
 20
-22.6645684332
 10
-33.7367907034
 20
-22.674614414
 10
-33.7377187834
 20
-22.6850869147
 10
-33.7386209865
 20
-22.6959797638
 10
-33.7394976482
 20
-22.7072882745
 10
-33.7403484332
 20
-22.7189959226
 10
-33.7411695166
 20
-22.7310772171
 10
-33.7427222277
 20
-22.756309686
  0
LINE
  5
2EB
100
AcDbEntity
  8
RACCORDO
100
AcDbLine
 62
253
  6
CONTINUOUS
 10
-35.7405576629
 20
-24.3791688479
 11
-35.63371501
 21
-24.2831704168
  0
LINE
  5
2EC
100
AcDbEntity
  8
RACCORDO
100
AcDbLine
 62
253
  6
CONTINUOUS
 10
-35.0151462931
 20
-25.6122755698
 11
-35.0230328866
 21
-25.6193553171
  0
LINE
  5
2ED
100
AcDbEntity
  8
RACCORDO
100
AcDbLine
 62
253
  6
CONTINUOUS
 10
-34.8457283769
 20
-25.3695696295
 11
-34.7393181162
 21
-25.2742516711
  0
LINE
  5
2EE
100
AcDbEntity
  8
RACCORDO
100
AcDbLine
 62
253
  6
CONTINUOUS
 10
-34.8457283769
 20
25.3695696295
 11
-34.7393181162
 21
25.2742516711
  0
LINE
  5
2EF
100
AcDbEntity
  8
RACCORDO
100
AcDbLine
 62
253
  6
CONTINUOUS
 10
-35.0151462921
 20
25.6122755695
 11
-35.0230328857
 21
25.6193553167
  0
LINE
  5
2F0
100
AcDbEntity
  8
RACCORDO
100
AcDbLine
 62
253
  6
CONTINUOUS
 10
-35.7405576629
 20
24.3791688479
 11
-35.63371501
 21
24.2831704168
  0
LWPOLYLINE
  5
2F1
100
AcDbEntity
  8
RACCORDO
100
AcDbPolyline
 62
253
  6
CONTINUOUS
 90
24
 70
0
 10
-33.7157721766
 20
22.5654980835
 10
-33.7169598217
 20
22.5666074982
 10
-33.7181452212
 20
22.5682454135
 10
-33.7193283751
 20
22.570414915
 10
-33.7205111661
 20
22.5731199515
 10
-33.7216917115
 20
22.5763615044
 10
-33.7228643632
 20
22.5801350183
 10
-33.7240290615
 20
22.5844388431
 10
-33.7251858661
 20
22.5892708196
 10
-33.7263293081
 20
22.5946202285
 10
-33.7274592039
 20
22.6004811225
 10
-33.728575737
 20
22.6068476814
 10
-33.7296739894
 20
22.6137044934
 10
-33.7307533006
 20
22.621038607
 10
-33.7318143312
 20
22.6288439535
 10
-33.7328541445
 20
22.6371133467
 10
-33.733872359
 20
22.6458335373
 10
-33.7348693564
 20
22.6549970791
 10
-33.7358433447
 20
22.6646071826
 10
-33.7367946999
 20
22.6746582927
 10
-33.7377230461
 20
22.6851368861
 10
-33.7386254636
 20
22.6960357362
 10
-33.7395022806
 20
22.7073501869
 10
-33.7403531689
 20
22.7190635798
  0
LINE
  5
2F2
100
AcDbEntity
  8
RACCORDO
100
AcDbLine
 62
253
  6
CONTINUOUS
 10
-33.8237961104
 20
22.2740702034
 11
-33.9154980835
 21
22.3657721766
  0
LINE
  5
2F3
100
AcDbEntity
  8
RACCORDO
100
AcDbLine
 62
253
  6
CONTINUOUS
 10
-33.6240702034
 20
22.4737961104
 11
-33.7157721766
 21
22.5654980835
  0
LWPOLYLINE
  5
2F4
100
AcDbEntity
  8
0
100
AcDbPolyline
 62
7
  6
CONTINUOUS
 90
31
 70
0
 10
2.9199908894
 20
-24.5853461557
 10
2.9154092482
 20
-24.5740657057
 10
2.9105731601
 20
-24.5632634279
 10
2.9054826252
 20
-24.5529393223
 10
2.9001151674
 20
-24.5431071809
 10
2.8944932626
 20
-24.5337532118
 10
2.8886843392
 20
-24.5248360386
 10
2.8827042474
 20
-24.5163566736
 10
2.8765371369
 20
-24.5083141047
 10
2.8702028844
 20
-24.500663919
 10
2.8636986507
 20
-24.4933915569
 10
2.857027275
 20
-24.4865115781
 10
2.8502171517
 20
-24.4800232485
 10
2.8432668224
 20
-24.4739234767
 10
2.8361777454
 20
-24.4682153542
 10
2.8289826904
 20
-24.4629074213
 10
2.8216906435
 20
-24.4580077207
 10
2.8142926184
 20
-24.4535082098
 10
2.8067944259
 20
-24.4493933004
 10
2.7991929065
 20
-24.4456712756
 10
2.7914912196
 20
-24.4423338523
 10
2.7837046546
 20
-24.4393405935
 10
2.7758306552
 20
-24.4366873431
 10
2.7678717777
 20
-24.4343782571
 10
2.7598509805
 20
-24.4323853666
 10
2.7517772494
 20
-24.4307036612
 10
2.7436415987
 20
-24.4293381513
 10
2.7354400289
 20
-24.4282758982
 10
2.727171207
 20
-24.4275125892
 10
2.7188364661
 20
-24.4270525371
 10
2.7104358061
 20
-24.4268957418
  0
LWPOLYLINE
  5
2F5
100
AcDbEntity
  8
0
100
AcDbPolyline
 62
7
  6
CONTINUOUS
 90
8
 70
0
 10
2.9480373856
 20
-24.6696045969
 10
2.9443221664
 20
-24.6575089258
 10
2.9405451872
 20
-24.6454398142
 10
2.9367052648
 20
-24.6333991325
 10
2.9327364671
 20
-24.6213710127
 10
2.9286168165
 20
-24.6093501652
 10
2.9243682906
 20
-24.5973418795
 10
2.9199908894
 20
-24.5853461557
  0
LINE
  5
2F6
100
AcDbEntity
  8
0
100
AcDbLine
 62
7
  6
CONTINUOUS
 10
2.024482
 20
-25.131259
 11
1.472243
 21
-23.331405
  0
LINE
  5
2F7
100
AcDbEntity
  8
0
100
AcDbLine
 62
7
  6
CONTINUOUS
 10
3.0205654025
 20
-24.9120514438
 11
2.9480373856
 21
-24.6696045969
  0
LINE
  5
2F8
100
AcDbEntity
  8
0
100
AcDbLine
 62
7
  6
CONTINUOUS
 10
3.030535345
 20
-24.9459602671
 11
3.0205654025
 21
-24.9120514438
  0
LINE
  5
2F9
100
AcDbEntity
  8
0
100
AcDbLine
 62
7
  6
CONTINUOUS
 10
1.62851
 20
-25.131259
 11
1.531184
 21
-24.771944
  0
LINE
  5
2FA
100
AcDbEntity
  8
0
100
AcDbLine
 62
7
  6
CONTINUOUS
 10
1.283461
 20
-23.825959
 11
1.4561
 21
-24.493908
  0
LINE
  5
2FB
100
AcDbEntity
  8
0
100
AcDbLine
 62
7
  6
CONTINUOUS
 10
0.485254
 20
-25.131259
 11
0.316947
 21
-23.331405
  0
LINE
  5
2FC
100
AcDbEntity
  8
0
100
AcDbLine
 62
7
  6
CONTINUOUS
 10
0.117719
 20
-25.131259
 11
0.040531
 21
-23.960888
  0
LINE
  5
2FD
100
AcDbEntity
  8
0
100
AcDbLine
 62
7
  6
CONTINUOUS
 10
-1.91806
 20
-25.131259
 11
-1.91806
 21
-23.331297
  0
LINE
  5
2FE
100
AcDbEntity
  8
0
100
AcDbLine
 62
7
  6
CONTINUOUS
 10
-1.54236
 20
-25.131259
 11
-1.54236
 21
-23.331297
  0
LINE
  5
2FF
100
AcDbEntity
  8
RACCORDO
100
AcDbLine
 62
253
  6
CONTINUOUS
 10
45.2891812458
 20
47.1874613888
 11
45.5024687323
 21
47.399999807
  0
LINE
  5
300
100
AcDbEntity
  8
RACCORDO
100
AcDbLine
 62
253
  6
CONTINUOUS
 10
-47.1835734576
 20
-45.2934404953
 11
-47.4
 21
-45.509137424
  0
LINE
  5
301
100
AcDbEntity
  8
RACCORDO
100
AcDbLine
 62
253
  6
CONTINUOUS
 10
45.5024687323
 20
-47.399999807
 11
45.2891812458
 21
-47.1874613888
  0
LINE
  5
302
100
AcDbEntity
  8
RACCORDO
100
AcDbLine
 62
253
  6
CONTINUOUS
 10
-47.4
 20
45.509137424
 11
-47.1835734576
 21
45.2934404953
  0
LINE
  5
303
100
AcDbEntity
  8
0
100
AcDbLine
 62
7
  6
CONTINUOUS
 10
3.0843272738
 20
-25.13125911
 11
3.030535345
 21
-24.9459602671
  0
LINE
  5
304
100
AcDbEntity
  8
0
100
AcDbLine
 62
7
  6
CONTINUOUS
 10
3.3172971935
 20
-24.6442130853
 11
3.3627268971
 21
-24.8145828569
  0
LINE
  5
305
100
AcDbEntity
  8
0
100
AcDbLine
 62
7
  6
CONTINUOUS
 10
3.3627268971
 20
-24.8145828569
 11
3.4457071037
 21
-25.13125911
  0
LWPOLYLINE
  5
306
100
AcDbEntity
  8
0
100
AcDbPolyline
 62
7
  6
CONTINUOUS
 90
34
 70
0
 10
3.0030905625
 20
-23.8525049523
 10
3.0026598041
 20
-23.8421447823
 10
3.001770524
 20
-23.8318667665
 10
3.0004227223
 20
-23.8216709049
 10
2.9986055106
 20
-23.8115399006
 10
2.9963297772
 20
-23.8014910505
 10
2.9936281866
 20
-23.7915762448
 10
2.990504954
 20
-23.7817957372
 10
2.9869558642
 20
-23.772149274
 10
2.983000936
 20
-23.7626879852
 10
2.9786369951
 20
-23.7534023727
 10
2.9738672158
 20
-23.7443019347
 10
2.9687211399
 20
-23.7354662951
 10
2.9632000807
 20
-23.7269003566
 10
2.9573027249
 20
-23.7185992166
 10
2.9510546748
 20
-23.7106277913
 10
2.9444560879
 20
-23.7030018239
 10
2.9375068065
 20
-23.6957055712
 10
2.9302319604
 20
-23.688756721
 10
2.9226190634
 20
-23.6821582163
 10
2.9146806016
 20
-23.675907114
 10
2.9064791623
 20
-23.6700122724
 10
2.8980189339
 20
-23.6644759574
 10
2.8892957281
 20
-23.6592959032
 10
2.8803595671
 20
-23.65447417
 10
2.8712258501
 20
-23.6500120844
 10
2.8618791779
 20
-23.6459083198
 10
2.852323375
 20
-23.6421609575
 10
2.8425504604
 20
-23.6387591863
 10
2.8325684151
 20
-23.6357138174
 10
2.8224050066
 20
-23.633055365
 10
2.8120694906
 20
-23.6307940006
 10
2.8015526113
 20
-23.6289195528
 10
2.7908543687
 20
-23.6274320215
  0
LINE
  5
307
100
AcDbEntity
  8
0
100
AcDbLine
 62
7
  6
CONTINUOUS
 10
2.1348059885
 20
-25.13125911
 11
2.1348059885
 21
-23.3524335382
  0
LINE
  5
308
100
AcDbEntity
  8
0
100
AcDbLine
 62
7
  6
CONTINUOUS
 10
2.4965367382
 20
-24.1321231746
 11
2.4965367382
 21
-23.6380282049
  0
LINE
  5
309
100
AcDbEntity
  8
0
100
AcDbLine
 62
7
  6
CONTINUOUS
 10
2.5089943883
 20
-25.13125911
 11
2.5089943883
 21
-24.4268957418
  0
LINE
  5
30A
100
AcDbEntity
  8
0
100
AcDbLine
 62
7
  6
CONTINUOUS
 10
3.1007125255
 20
-24.291103306
 11
3.1007125255
 21
-24.280467739
  0
LINE
  5
30B
100
AcDbEntity
  8
0
100
AcDbLine
 62
7
  6
CONTINUOUS
 10
-0.980686
 20
-25.131259
 11
-0.89961
 21
-23.955988
  0
LINE
  5
30C
100
AcDbEntity
  8
0
100
AcDbLine
 62
7
  6
CONTINUOUS
 10
-1.340109
 20
-25.131259
 11
-1.177593
 21
-23.331405
  0
LINE
  5
30D
100
AcDbEntity
  8
0
100
AcDbLine
 62
7
  6
CONTINUOUS
 10
-2.432927
 20
-23.331405
 11
-2.786492
 21
-24.5703
  0
LINE
  5
30E
100
AcDbEntity
  8
0
100
AcDbLine
 62
7
  6
CONTINUOUS
 10
-2.636029
 20
-25.131259
 11
-2.057483
 21
-23.331405
  0
LINE
  5
30F
100
AcDbEntity
  8
RACCORDO
100
AcDbLine
 62
253
  6
CONTINUOUS
 10
47.1835734576
 20
45.2934404953
 11
47.4
 21
45.509137424
  0
LINE
  5
310
100
AcDbEntity
  8
RACCORDO
100
AcDbLine
 62
253
  6
CONTINUOUS
 10
-45.2891812458
 20
-47.1874613888
 11
-45.5024687323
 21
-47.399999807
  0
LINE
  5
311
100
AcDbEntity
  8
RACCORDO
100
AcDbLine
 62
253
  6
CONTINUOUS
 10
35.0151462978
 20
25.6122755716
 11
35.0230328913
 21
25.6193553188
  0
LINE
  5
312
100
AcDbEntity
  8
RACCORDO
100
AcDbLine
 62
253
  6
CONTINUOUS
 10
34.7393181162
 20
25.2742516711
 11
34.8457283769
 21
25.3695696295
  0
LINE
  5
313
100
AcDbEntity
  8
RACCORDO
100
AcDbLine
 62
253
  6
CONTINUOUS
 10
34.8457283769
 20
-25.3695696295
 11
34.7393181162
 21
-25.2742516711
  0
LINE
  5
314
100
AcDbEntity
  8
RACCORDO
100
AcDbLine
 62
253
  6
CONTINUOUS
 10
35.0151462978
 20
-25.6122755716
 11
35.0230328913
 21
-25.6193553188
  0
LINE
  5
315
100
AcDbEntity
  8
RACCORDO
100
AcDbLine
 62
253
  6
CONTINUOUS
 10
-45.5024687323
 20
47.399999807
 11
-45.2891812458
 21
47.1874613888
  0
LINE
  5
316
100
AcDbEntity
  8
RACCORDO
100
AcDbLine
 62
253
  6
CONTINUOUS
 10
47.4
 20
-45.509137424
 11
47.1835734576
 21
-45.2934404953
  0
LINE
  5
317
100
AcDbEntity
  8
0
100
AcDbLine
 62
7
  6
CONTINUOUS
 10
1.096394
 20
-24.493908
 11
1.283461
 21
-23.825959
  0
LINE
  5
318
100
AcDbEntity
  8
0
100
AcDbLine
 62
7
  6
CONTINUOUS
 10
0.915873
 20
-25.131259
 11
1.019543
 21
-24.771944
  0
LINE
  5
319
100
AcDbEntity
  8
0
100
AcDbLine
 62
7
  6
CONTINUOUS
 10
0.544249
 20
-25.131259
 11
1.108798
 21
-23.331405
  0
LINE
  5
31A
100
AcDbEntity
  8
0
100
AcDbLine
 62
7
  6
CONTINUOUS
 10
-0.054771
 20
-23.331405
 11
-0.430471
 21
-24.33069
  0
LINE
  5
31B
100
AcDbEntity
  8
0
100
AcDbLine
 62
7
  6
CONTINUOUS
 10
-0.406177
 20
-25.131259
 11
0.040531
 21
-23.960888
  0
LINE
  5
31C
100
AcDbEntity
  8
RACCORDO
100
AcDbLine
 62
253
  6
CONTINUOUS
 10
33.6240702034
 20
22.4737961104
 11
33.7157721766
 21
22.5654980835
  0
LINE
  5
31D
100
AcDbEntity
  8
RACCORDO
100
AcDbLine
 62
253
  6
CONTINUOUS
 10
33.8237961104
 20
22.2740702034
 11
33.9154980835
 21
22.3657721766
  0
LWPOLYLINE
  5
31E
100
AcDbEntity
  8
RACCORDO
100
AcDbPolyline
 62
253
  6
CONTINUOUS
 90
25
 70
0
 10
33.7157721766
 20
22.5654980835
 10
33.7169589811
 20
22.566606526
 10
33.718143632
 20
22.5682428627
 10
33.7193261293
 20
22.5704102925
 10
33.7205083531
 20
22.5731128729
 10
33.7216884232
 20
22.5763517047
 10
33.7228606995
 20
22.5801223729
 10
33.7240251266
 20
22.5844233577
 10
33.7251817599
 20
22.5892526203
 10
33.7263251251
 20
22.5945995782
 10
33.7274550681
 20
22.6004585771
 10
33.728571743
 20
22.6068237774
 10
33.7296701371
 20
22.6136793132
 10
33.7307495803
 20
22.6210121919
 10
33.7318107427
 20
22.6288163736
 10
33.7328506226
 20
22.6370841077
 10
33.7338688113
 20
22.6458018534
 10
33.7348657174
 20
22.6549622524
 10
33.7358395655
 20
22.6645684332
 10
33.7367907034
 20
22.674614414
 10
33.7377187834
 20
22.6850869147
 10
33.7386209865
 20
22.6959797638
 10
33.7394976482
 20
22.7072882745
 10
33.7403484332
 20
22.7189959226
 10
33.7419607229
 20
22.7435200475
  0
LINE
  5
31F
100
AcDbEntity
  8
RACCORDO
100
AcDbLine
 62
253
  6
CONTINUOUS
 10
35.63371501
 20
24.2831704168
 11
35.7405576629
 21
24.3791688479
  0
LINE
  5
320
100
AcDbEntity
  8
RACCORDO
100
AcDbLine
 62
253
  6
CONTINUOUS
 10
35.7405576629
 20
-24.3791688479
 11
35.63371501
 21
-24.2831704168
  0
LINE
  5
321
100
AcDbEntity
  8
RACCORDO
100
AcDbLine
 62
253
  6
CONTINUOUS
 10
33.7157721766
 20
-22.5654980835
 11
33.6240702034
 21
-22.4737961104
  0
LINE
  5
322
100
AcDbEntity
  8
RACCORDO
100
AcDbLine
 62
253
  6
CONTINUOUS
 10
33.9154980835
 20
-22.3657721766
 11
33.8237961104
 21
-22.2740702034
  0
LWPOLYLINE
  5
323
100
AcDbEntity
  8
RACCORDO
100
AcDbPolyline
 62
253
  6
CONTINUOUS
 90
21
 70
0
 10
33.9154980835
 20
22.3657721766
 10
33.9166836585
 20
22.3673147856
 10
33.9178674311
 20
22.3696045974
 10
33.9190494014
 20
22.3726416122
 10
33.9202315634
 20
22.3764277249
 10
33.9214119231
 20
22.3809610406
 10
33.9225844983
 20
22.3862358741
 10
33.9237491173
 20
22.392258716
 10
33.9249059518
 20
22.3990230759
 10
33.9260495339
 20
22.4065037977
 10
33.927179716
 20
22.4147068741
 10
33.9282966457
 20
22.4236263124
 10
33.9293952985
 20
22.4332189781
 10
33.9304750077
 20
22.4434833151
 10
33.93153644
 20
22.4544208796
 10
33.9325765702
 20
22.4659932061
 10
33.9335949825
 20
22.4781954185
 10
33.9345920928
 20
22.4910323929
 10
33.9355661234
 20
22.5044802921
 10
33.9365174205
 20
22.5185436897
 10
33.9383479594
 20
22.5484657018
  0
LWPOLYLINE
  5
324
100
AcDbEntity
  8
0
100
AcDbPolyline
 62
7
  6
CONTINUOUS
 90
10
 70
0
 10
3.1264617283
 20
-24.2690708458
 10
3.1210489473
 20
-24.2722158342
 10
3.1184321055
 20
-24.273706396
 10
3.1158461317
 20
-24.2750905442
 10
3.1132899097
 20
-24.2763753718
 10
3.1107645557
 20
-24.2775537858
 10
3.1082464975
 20
-24.2785589165
 10
3.1057278777
 20
-24.279368474
 10
3.1032165537
 20
-24.2800047481
 10
3.1007125255
 20
-24.280467739
  0
LWPOLYLINE
  5
325
100
AcDbEntity
  8
RACCORDO
100
AcDbPolyline
 62
253
  6
CONTINUOUS
 90
31
 70
0
 10
-33.7471005137
 20
22.8535037201
 10
-33.7572493012
 20
22.8531910544
 10
-33.7673719266
 20
22.8526613036
 10
-33.7774422948
 20
22.8519158333
 10
-33.7874344458
 20
22.8509565652
 10
-33.7973226211
 20
22.8497859723
 10
-33.8070813302
 20
22.8484070721
 10
-33.8166854165
 20
22.8468234192
 10
-33.8261101218
 20
22.8450390962
 10
-33.8353311505
 20
22.8430587028
 10
-33.8443247319
 20
22.8408873441
 10
-33.8530676818
 20
22.8385306177
 10
-33.8615374619
 20
22.8359945989
 10
-33.8697122382
 20
22.8332858253
 10
-33.8775709372
 20
22.8304112796
 10
-33.8850933002
 20
22.8273783721
 10
-33.8922599355
 20
22.8241949214
 10
-33.8990523684
 20
22.8208691338
 10
-33.905453089
 20
22.8174095828
 10
-33.9114455969
 20
22.8138251868
 10
-33.9170144442
 20
22.8101251858
 10
-33.9221452752
 20
22.806319118
 10
-33.9268248633
 20
22.8024167948
 10
-33.9310411451
 20
22.7984282761
 10
-33.9347832515
 20
22.7943638437
 10
-33.9380415358
 20
22.7902339752
 10
-33.9408075987
 20
22.7860493168
 10
-33.9430743096
 20
22.7818206561
 10
-33.9448358252
 20
22.777558894
 10
-33.9460876045
 20
22.7732750168
 10
-33.9468264206
 20
22.7689800677
  0
LWPOLYLINE
  5
326
100
AcDbEntity
  8
RACCORDO
100
AcDbPolyline
 62
253
  6
CONTINUOUS
 90
34
 70
0
 10
-33.7157721766
 20
22.5654980835
 10
-33.7252589869
 20
22.5652466654
 10
-33.7347243817
 20
22.5645449484
 10
-33.7441469934
 20
22.5633945165
 10
-33.7535055513
 20
22.5617979667
 10
-33.762778929
 20
22.559758903
 10
-33.7719461927
 20
22.5572819285
 10
-33.7809866481
 20
22.5543726347
 10
-33.7898798868
 20
22.551037589
 10
-33.7986058332
 20
22.54728432
 10
-33.807144789
 20
22.5431213004
 10
-33.8154774782
 20
22.5385579279
 10
-33.8235850904
 20
22.5336045037
 10
-33.8314493231
 20
22.5282722098
 10
-33.8390524234
 20
22.5225730835
 10
-33.8463772278
 20
22.51651999
 10
-33.8534072012
 20
22.5101265936
 10
-33.8601264737
 20
22.5034073269
 10
-33.866519877
 20
22.4963773581
 10
-33.8725729785
 20
22.4890525567
 10
-33.8782721136
 20
22.481449458
 10
-33.8836044169
 20
22.4735852252
 10
-33.8885578509
 20
22.4654776112
 10
-33.8931212335
 20
22.4571449184
 10
-33.8972842632
 20
22.4486059572
 10
-33.901037542
 20
22.4398800036
 10
-33.9043725971
 20
22.4309867559
 10
-33.9072818998
 20
22.4219462898
 10
-33.9097588823
 20
22.4127790136
 10
-33.9117979529
 20
22.4035056217
 10
-33.9133945085
 20
22.3941470483
 10
-33.9145449447
 20
22.3847244195
 10
-33.9152466645
 20
22.3752590064
 10
-33.9154980835
 20
22.3657721766
  0
LINE
  5
327
100
AcDbEntity
  8
RACCORDO
100
AcDbLine
 62
7
  6
CONTINUOUS
 10
-33.6240702034
 20
22.4737961104
 11
33.6240702034
 21
22.4737961104
  0
LINE
  5
328
100
AcDbEntity
  8
RACCORDO
100
AcDbLine
 62
253
  6
CONTINUOUS
 10
33.7157721766
 20
22.5654980835
 11
-33.7157721766
 21
22.5654980835
  0
LINE
  5
329
100
AcDbEntity
  8
RACCORDO
100
AcDbLine
 62
253
  6
CONTINUOUS
 10
33.7471005137
 20
22.8535037201
 11
-33.7471005137
 21
22.8535037201
  0
LINE
  5
32A
100
AcDbEntity
  8
RACCORDO
100
AcDbLine
 62
253
  6
CONTINUOUS
 10
33.9543406975
 20
23.0764614955
 11
34.1636590961
 21
23.0764614955
  0
LINE
  5
32B
100
AcDbEntity
  8
RACCORDO
100
AcDbLine
 62
253
  6
CONTINUOUS
 10
-33.9543406975
 20
23.0764614955
 11
-34.1636590961
 21
23.0764614955
  0
LINE
  5
32C
100
AcDbEntity
  8
RACCORDO
100
AcDbLine
 62
253
  6
CONTINUOUS
 10
35.63371501
 20
24.2831704168
 11
35.5388413646
 21
24.2831704168
  0
LINE
  5
32D
100
AcDbEntity
  8
RACCORDO
100
AcDbLine
 62
253
  6
CONTINUOUS
 10
-35.63371501
 20
24.2831704168
 11
-35.5388413646
 21
24.2831704168
  0
LWPOLYLINE
  5
32E
100
AcDbEntity
  8
RACCORDO
100
AcDbPolyline
 62
253
  6
CONTINUOUS
 90
58
 70
0
 10
-33.7829547204
 20
24.0170211068
 10
-33.7892324906
 20
24.016301505
 10
-33.7956863824
 20
24.0152719604
 10
-33.8023163954
 20
24.013932473
 10
-33.8091234673
 20
24.0123069636
 10
-33.81610666
 20
24.0103715113
 10
-33.8232631602
 20
24.008054354
 10
-33.8306088262
 20
24.0053488151
 10
-33.8381277992
 20
24.0022615711
 10
-33.8457696907
 20
23.9987408883
 10
-33.8535334348
 20
23.994781629
 10
-33.861420097
 20
23.990388931
 10
-33.8693824865
 20
23.9855264746
 10
-33.8774143707
 20
23.9801941895
 10
-33.8855219819
 20
23.974392146
 10
-33.8936768263
 20
23.9680842355
 10
-33.9018752675
 20
23.961272575
 10
-33.9101209418
 20
23.9539550476
 10
-33.9183962641
 20
23.946089194
 10
-33.9267074585
 20
23.9376674175
 10
-33.9350483008
 20
23.9286973147
 10
-33.9433825335
 20
23.9191592161
 10
-33.9517076364
 20
23.9090532942
 10
-33.9600261298
 20
23.8983793764
 10
-33.9683093168
 20
23.8871172753
 10
-33.976549179
 20
23.8752808035
 10
-33.9847537351
 20
23.8628561483
 10
-33.9929183445
 20
23.8497816836
 10
-34.0010496423
 20
23.8360517481
 10
-34.0091409935
 20
23.8216720031
 10
-34.0171678529
 20
23.8065978069
 10
-34.0251379827
 20
23.7908130982
 10
-34.0330436208
 20
23.7743339384
 10
-34.0408369358
 20
23.7571638694
 10
-34.0485116249
 20
23.7393165123
 10
-34.0560739914
 20
23.7207782459
 10
-34.0634951127
 20
23.7015117488
 10
-34.0707724631
 20
23.6815347486
 10
-34.0779085689
 20
23.6608295177
 10
-34.0848820856
 20
23.6393055515
 10
-34.0916987824
 20
23.6169639898
 10
-34.0983528906
 20
23.5938036927
 10
-34.1048057595
 20
23.5697307357
 10
-34.1110629354
 20
23.544750194
 10
-34.1171188726
 20
23.5188569924
 10
-34.1229182829
 20
23.4919419803
 10
-34.1284683656
 20
23.4640143144
 10
-34.133761922
 20
23.435064838
 10
-34.1387220673
 20
23.4049569298
 10
-34.1433606229
 20
23.3736911892
 10
-34.1476657681
 20
23.3412670169
 10
-34.1515251552
 20
23.3075459941
 10
-34.1549545493
 20
23.2725281911
 10
-34.157938186
 20
23.2362135377
 10
-34.160316423
 20
23.1984634043
 10
-34.1620360465
 20
23.1592315813
 10
-34.1631502708
 20
23.1185642783
 10
-34.1636590961
 20
23.0764614955
  0
LWPOLYLINE
  5
32F
100
AcDbEntity
  8
RACCORDO
100
AcDbPolyline
 62
253
  6
CONTINUOUS
 90
46
 70
0
 10
-34.7335627041
 20
25.1749562668
 10
-33.3674974452
 20
25.3156634952
 10
-31.9636331742
 20
25.4533654026
 10
-30.5219651245
 20
25.588061989
 10
-29.035729241
 20
25.7206946745
 10
-27.5116808663
 20
25.850322039
 10
-25.9701005411
 20
25.974119822
 10
-24.4123731415
 20
26.0916536623
 10
-22.8371204116
 20
26.2033579211
 10
-21.2604875751
 20
26.3077114217
 10
-19.6874026998
 20
26.4042371482
 10
-18.1129532759
 20
26.4934121163
 10
-16.5385275087
 20
26.575146197
 10
-14.9647549132
 20
26.6494011734
 10
-13.3910214557
 20
26.7162152622
 10
-11.8168501932
 20
26.7756129844
 10
-10.2419606137
 20
26.8276065775
 10
-8.6666485175
 20
26.8721838038
 10
-7.0913014164
 20
26.9093324718
 10
-5.5160780458
 20
26.9390475346
 10
-3.9408350888
 20
26.961334039
 10
-2.365507008
 20
26.9761949341
 10
-0.7900332386
 20
26.9836312036
 10
0.7855102455
 20
26.9836418637
 10
2.3609841737
 20
26.9762269126
 10
3.936312712
 20
26.9613873284
 10
5.5115562855
 20
26.9391221329
 10
7.0867800109
 20
26.9094283897
 10
8.6621264982
 20
26.8723010807
 10
10.2374377192
 20
26.8277452239
 10
11.812327863
 20
26.775772937
 10
13.3865027904
 20
26.7163963797
 10
14.9602413518
 20
26.6496033923
 10
16.5340172077
 20
26.5753696124
 10
18.1084396265
 20
26.4936571412
 10
19.6828838596
 20
26.4045038775
 10
21.2559727159
 20
26.3079991559
 10
22.8325876643
 20
26.2036690748
 10
24.4078316786
 20
26.0919875358
 10
25.965663647
 20
25.9744655771
 10
27.5074511413
 20
25.8506717237
 10
29.0318199125
 20
25.7210374506
 10
30.518625436
 20
25.588368222
 10
31.9611576456
 20
25.4535991925
 10
33.3661351705
 20
25.3157952074
 10
34.7335627041
 20
25.1749562668
  0
LWPOLYLINE
  5
330
100
AcDbEntity
  8
RACCORDO
100
AcDbPolyline
 62
253
  6
CONTINUOUS
 90
46
 70
0
 10
-34.7393181157
 20
25.2742516663
 10
-33.3729948951
 20
25.4141932627
 10
-31.9689006643
 20
25.5520964486
 10
-30.5270125894
 20
25.6874878927
 10
-29.0405508107
 20
25.8204709698
 10
-27.5162502752
 20
25.9498957179
 10
-25.9743949783
 20
26.073666576
 10
-24.4164155283
 20
26.1914413516
 10
-22.8409183978
 20
26.3030960184
 10
-21.2640032192
 20
26.4073625718
 10
-19.6906474441
 20
26.5039339762
 10
-18.1159608127
 20
26.5931328911
 10
-16.5412624495
 20
26.6748810298
 10
-14.9672177239
 20
26.749153734
 10
-13.3932473976
 20
26.8159886209
 10
-11.8188043832
 20
26.8754105484
 10
-10.2436428188
 20
26.9274241734
 10
-8.6680935191
 20
26.9720143716
 10
-7.0924741405
 20
27.0091718818
 10
-5.5169785494
 20
27.0388948388
 10
-3.9414984153
 20
27.0611884138
 10
-2.3658981496
 20
27.0760552685
 10
-0.7901521623
 20
27.0834946004
 10
0.7856285384
 20
27.0835052632
 10
2.3613746843
 20
27.0760872561
 10
3.9369754076
 20
27.0612417221
 10
5.512456158
 20
27.0389694633
 10
7.0879521037
 20
27.0092678272
 10
8.6635708678
 20
26.9721316674
 10
10.2391192918
 20
26.92756284
 10
11.814281421
 20
26.875570547
 10
13.3887281016
 20
26.8161698226
 10
14.9627035322
 20
26.7493560457
 10
16.5367515176
 20
26.6751045094
 10
18.1114465277
 20
26.5933778908
 10
19.686127966
 20
26.5042006527
 10
21.2594877281
 20
26.4076503887
 10
22.8363849439
 20
26.3034065083
 10
24.4118733034
 20
26.1917740133
 10
25.9699574577
 20
26.074012431
 10
27.5120199254
 20
25.9502451304
 10
29.0366407672
 20
25.8208119529
 10
30.5236724477
 20
25.6877942124
 10
31.9664251604
 20
25.5523342966
 10
33.3716328733
 20
25.4143299324
 10
34.7393181157
 20
25.2742516661
  0
LWPOLYLINE
  5
331
100
AcDbEntity
  8
RACCORDO
100
AcDbPolyline
 62
253
  6
CONTINUOUS
 90
43
 70
0
 10
-35.0230328855
 20
25.6193553146
 10
-32.7804849375
 20
25.8478110191
 10
-30.6019546986
 20
26.0551393374
 10
-28.4877221335
 20
26.2426107406
 10
-26.4403057332
 20
26.4112806709
 10
-24.4576518741
 20
26.5625572803
 10
-22.5331353994
 20
26.6980644055
 10
-20.6675294094
 20
26.8187780418
 10
-18.8603727108
 20
26.9257297766
 10
-17.1031430283
 20
27.0203198519
 10
-15.3892162595
 20
27.1036529559
 10
-13.7254252371
 20
27.1761244428
 10
-12.1234148769
 20
27.2380685804
 10
-10.5910447524
 20
27.2901305165
 10
-9.1206199126
 20
27.3334819582
 10
-7.7004397401
 20
27.3692125887
 10
-6.3350323329
 20
27.3978782152
 10
-5.0199648669
 20
27.4202160553
 10
-3.7300730042
 20
27.4371009403
 10
-2.465380403
 20
27.4488231149
 10
-1.2259165206
 20
27.4556682306
 10
0.0134865091
 20
27.4579165711
 10
1.2528107642
 20
27.4555684979
 10
2.4920328278
 20
27.4486254464
 10
3.7563123098
 20
27.4368070808
 10
5.0456074114
 20
27.4198299753
 10
6.3599068724
 20
27.3974058873
 10
7.7244038577
 20
27.3686596947
 10
9.1435314787
 20
27.3328560219
 10
10.6127614879
 20
27.2894416933
 10
12.143822666
 20
27.2373276947
 10
13.7443874813
 20
27.1753450941
 10
15.406619155
 20
27.1028509642
 10
17.1189688147
 20
27.0195092287
 10
18.8746515332
 20
26.9249231011
 10
20.6802438194
 20
26.8179907345
 10
22.5442207575
 20
26.6973158199
 10
24.4670235431
 20
26.5618701702
 10
26.4478996876
 20
26.4106785369
 10
28.4934882002
 20
26.242117912
 10
30.6058478044
 20
26.0547817022
 10
32.7824559826
 20
25.8476169367
 10
35.0230329065
 20
25.6193553138
  0
LWPOLYLINE
  5
332
100
AcDbEntity
  8
RACCORDO
100
AcDbPolyline
 62
253
  6
CONTINUOUS
 90
43
 70
0
 10
-35.0383797075
 20
25.7188063822
 10
-32.7945128147
 20
25.945269391
 10
-30.6151100596
 20
26.1530824207
 10
-28.5002184471
 20
26.3422454711
 10
-26.451994023
 20
26.5114766222
 10
-24.4683625349
 20
26.6620577941
 10
-22.5430175785
 20
26.7978347474
 10
-20.6766527429
 20
26.9190264358
 10
-18.8686311357
 20
27.0254139057
 10
-17.1106425363
 20
27.1201860566
 10
-15.396000127
 20
27.2037426186
 10
-13.7314282843
 20
27.2756838617
 10
-12.128730434
 20
27.3379994954
 10
-10.5957218834
 20
27.3904877179
 10
-9.1246171496
 20
27.4333503311
 10
-7.7038160393
 20
27.4691824503
 10
-6.33783038
 20
27.4982495679
 10
-5.022165653
 20
27.5202861916
 10
-3.7317081076
 20
27.5370909591
 10
-2.4664702712
 20
27.5490727086
 10
-1.2264492792
 20
27.5558226021
 10
0.0134939246
 20
27.5579127633
 10
1.2533583263
 20
27.5557233183
 10
2.4931374238
 20
27.5488741412
 10
3.7579620386
 20
27.5367969774
 10
5.0478226539
 20
27.5199006134
 10
6.3627191342
 20
27.4977762628
 10
7.7277941502
 20
27.4686293116
 10
9.1475424269
 20
27.4327248448
 10
10.6174519557
 20
27.3897977775
 10
12.1491512678
 20
27.337258241
 10
13.7504032064
 20
27.2749056813
 10
15.41341516
 20
27.2029406524
 10
17.1264800379
 20
27.1193749478
 10
18.8829211952
 20
27.0246065052
 10
20.6893777739
 20
26.9182373868
 10
22.5541132221
 20
26.797085573
 10
24.477744357
 20
26.6613706743
 10
26.4595977837
 20
26.5108730801
 10
28.5059935567
 20
26.3417519391
 10
30.6190105309
 20
26.1527269676
 10
32.7964882196
 20
25.9450784493
 10
35.0383797137
 20
25.7188063842
  0
LWPOLYLINE
  5
333
100
AcDbEntity
  8
RACCORDO
100
AcDbPolyline
 62
7
  6
CONTINUOUS
 90
13
 70
0
 10
-35.0151462923
 20
25.6122755694
 10
-29.1963499865
 20
26.173451182
 10
-23.370211849
 20
26.6326751812
 10
-17.5371185036
 20
26.9899475672
 10
-11.6956639298
 20
27.2453664942
 10
-5.8480338338
 20
27.398833808
 10
-0.0000074482
 20
27.4500550453
 10
5.8480204281
 20
27.3988339173
 10
11.6956537661
 20
27.2453667128
 10
17.5371114869
 20
26.9899478356
 10
23.3702072689
 20
26.6326754203
 10
29.1963477473
 20
26.1734513323
 10
35.015146298
 20
25.6122755716
  0
LINE
  5
334
100
AcDbEntity
  8
RACCORDO
100
AcDbLine
 62
253
  6
CONTINUOUS
 10
-35.9301623974
 20
24.3791688479
 11
-35.7405576629
 21
24.3791688479
  0
LINE
  5
335
100
AcDbEntity
  8
RACCORDO
100
AcDbLine
 62
253
  6
CONTINUOUS
 10
35.9301623974
 20
24.3791688479
 11
35.7405576629
 21
24.3791688479
  0
LINE
  5
336
100
AcDbEntity
  8
RACCORDO
100
AcDbLine
 62
253
  6
CONTINUOUS
 10
36.1128909675
 20
24.5249712709
 11
36.0078241643
 21
24.5249712709
  0
LINE
  5
337
100
AcDbEntity
  8
RACCORDO
100
AcDbLine
 62
253
  6
CONTINUOUS
 10
-36.1128909675
 20
24.5249712682
 11
-36.0078241643
 21
24.5249712837
  0
LWPOLYLINE
  5
338
100
AcDbEntity
  8
RACCORDO
100
AcDbPolyline
 62
253
  6
CONTINUOUS
 90
43
 70
0
 10
33.7734702061
 20
23.9324973521
 10
32.16609659
 20
24.092265891
 10
30.558485913
 20
24.2442492169
 10
28.9506381752
 20
24.3884473297
 10
27.3425191023
 20
24.5248637004
 10
25.7341629686
 20
24.6534948581
 10
24.1256725966
 20
24.7743303902
 10
22.5170478993
 20
24.8873686632
 10
20.9082889638
 20
24.9926113106
 10
19.2994988742
 20
25.0900528203
 10
17.69067769
 20
25.17969155
 10
16.0818253517
 20
25.2615291419
 10
14.4730447646
 20
25.3355650107
 10
12.8643376663
 20
25.4017974957
 10
11.2557023191
 20
25.4602282575
 10
9.6472364152
 20
25.5108616924
 10
8.0389795997
 20
25.5536962673
 10
6.4308922275
 20
25.5887335152
 10
4.8229530555
 20
25.6159824317
 10
3.215204373
 20
25.635444401
 10
1.6076038907
 20
25.6471180388
 10
0.000003497
 20
25.6510081879
 10
-1.6075967936
 20
25.6471180744
 10
-3.2151969955
 20
25.6354444721
 10
-4.8229452642
 20
25.6159825448
 10
-6.430883816
 20
25.5887336809
 10
-8.0389704345
 20
25.5536964919
 10
-9.6472266256
 20
25.5108619768
 10
-11.2556921117
 20
25.4602286032
 10
-12.8643271704
 20
25.4017979034
 10
-14.4730341401
 20
25.3355654739
 10
-16.0818147704
 20
25.2615296537
 10
-17.6906673118
 20
25.1796921038
 10
-19.2994888538
 20
25.0900534029
 10
-20.9082794564
 20
24.9926119087
 10
-22.5170390596
 20
24.8873692636
 10
-24.1256645739
 20
24.7743309734
 10
-25.7341558848
 20
24.6534954072
 10
-27.3425131067
 20
24.5248641958
 10
-28.9506334935
 20
24.3884477382
 10
-30.5584827962
 20
24.2442495007
 10
-32.1660952637
 20
24.0922660169
 10
-33.773470896
 20
23.9324972868
  0
LWPOLYLINE
  5
339
100
AcDbEntity
  8
RACCORDO
100
AcDbPolyline
 62
253
  6
CONTINUOUS
 90
43
 70
0
 10
33.7829547204
 20
24.0170211068
 10
32.1751436372
 20
24.1767896137
 10
30.5670789723
 20
24.3287729149
 10
28.9587689107
 20
24.4729710104
 10
27.3501955359
 20
24.6093873733
 10
25.7413931403
 20
24.7380185305
 10
24.1324482476
 20
24.8588540623
 10
22.5233690403
 20
24.9718923328
 10
20.91416377
 20
25.0771349778
 10
19.3049191015
 20
25.1745764853
 10
17.6956433422
 20
25.264215213
 10
16.0863446494
 20
25.3460528032
 10
14.4771094897
 20
25.4200886703
 10
12.8679478418
 20
25.4863211538
 10
11.2588662
 20
25.5447519143
 10
9.6499458197
 20
25.595385348
 10
8.0412345764
 20
25.6382199219
 10
6.4327010544
 20
25.673257169
 10
4.8243075677
 20
25.7005060849
 10
3.2161046102
 20
25.7199680537
 10
1.6080581043
 20
25.7316416913
 10
0.0000034915
 20
25.7355318402
 10
-1.6080510181
 20
25.7316417268
 10
-3.2160972435
 20
25.7199681247
 10
-4.8242997871
 20
25.7005061979
 10
-6.4326926534
 20
25.6732573345
 10
-8.0412254215
 20
25.6382201462
 10
-9.6499360402
 20
25.5953856321
 10
-11.2588560026
 20
25.5447522595
 10
-12.8679373558
 20
25.486321561
 10
-14.4770988751
 20
25.4200891329
 10
-16.086334078
 20
25.3460533143
 10
-17.6956329738
 20
25.2642157661
 10
-19.3049090912
 20
25.1745770672
 10
-20.9141542727
 20
25.0771355751
 10
-22.5233602109
 20
24.9718929323
 10
-24.1324402354
 20
24.8588546446
 10
-25.7413860934
 20
24.7380190761
 10
-27.3501896034
 20
24.6093878627
 10
-28.9587642405
 20
24.4729714178
 10
-30.5670757113
 20
24.3287732123
 10
-32.1751419329
 20
24.1767897754
 10
-33.7829547204
 20
24.0170211068
  0
LWPOLYLINE
  5
33A
100
AcDbEntity
  8
RACCORDO
100
AcDbPolyline
 62
253
  6
CONTINUOUS
 90
46
 70
0
 10
34.8457283768
 20
25.3695696285
 10
33.300288685
 20
25.5278645722
 10
31.7544531336
 20
25.6789473384
 10
30.2082679602
 20
25.8228180773
 10
28.6618552572
 20
25.9594705855
 10
27.1151785743
 20
26.0889136752
 10
25.568045887
 20
26.2111668181
 10
24.0204332713
 20
26.3262331915
 10
22.4724447569
 20
26.4341066722
 10
20.9240798142
 20
26.5347889931
 10
19.3753658963
 20
26.6282796524
 10
17.8263571442
 20
26.7145771098
 10
16.2770929603
 20
26.7936809495
 10
14.7276474535
 20
26.8655893437
 10
13.1780279197
 20
26.9303042676
 10
11.6281734172
 20
26.987829582
 10
10.0781007356
 20
27.0381650663
 10
8.527874533
 20
27.0813094286
 10
6.9775055575
 20
27.1172630922
 10
5.4270405623
 20
27.1460254877
 10
3.8765142735
 20
27.1675968825
 10
2.3259193546
 20
27.1819778694
 10
0.7753026808
 20
27.18916817
 10
-0.775301121
 20
27.1891681735
 10
-2.3259177797
 20
27.1819778798
 10
-3.8765126587
 20
27.1675969009
 10
-5.4270388925
 20
27.1460255151
 10
-6.9775038474
 20
27.1172631283
 10
-8.5278728167
 20
27.0813094725
 10
-10.0780990279
 20
27.0381651178
 10
-11.6281717025
 20
26.9878296413
 10
-13.1780261661
 20
26.9303043363
 10
-14.7276456458
 20
26.8655894235
 10
-16.2770911028
 20
26.7936810402
 10
-17.8263552454
 20
26.7145772114
 10
-19.3753639608
 20
26.6282797651
 10
-20.9240778552
 20
26.5347891159
 10
-22.4724427582
 20
26.4341068066
 10
-24.020431245
 20
26.3262333374
 10
-25.5680439381
 20
26.2111669674
 10
-27.1151768748
 20
26.0889138133
 10
-28.6618539164
 20
25.9594707009
 10
-30.2082669858
 20
25.8228181656
 10
-31.7544524925
 20
25.6789473996
 10
-33.3002883695
 20
25.5278646043
 10
-34.8457283768
 20
25.3695696287
  0
LWPOLYLINE
  5
33B
100
AcDbEntity
  8
RACCORDO
100
AcDbPolyline
 62
253
  6
CONTINUOUS
 90
46
 70
0
 10
34.8572309624
 20
25.568154199
 10
33.3112209302
 20
25.726547226
 10
31.7648890474
 20
25.8777246826
 10
30.2182426154
 20
26.0216865689
 10
28.6713325511
 20
26.1584264773
 10
27.1241225635
 20
26.2879508152
 10
25.5764891163
 20
26.4102788054
 10
24.0283764071
 20
26.5254169905
 10
22.4798548221
 20
26.6333588279
 10
20.9309901007
 20
26.7341039113
 10
19.3817760826
 20
26.8276525918
 10
17.8322335948
 20
26.9140045185
 10
16.2824688972
 20
26.9931582319
 10
14.7325228713
 20
27.0651122007
 10
13.1823693757
 20
27.1298679563
 10
11.6320141589
 20
27.1874286335
 10
10.0814406975
 20
27.2377954111
 10
8.5306802749
 20
27.2809671103
 10
6.9798103622
 20
27.3169433292
 10
5.4288443799
 20
27.3457237868
 10
3.8777837009
 20
27.3673087641
 10
2.3266877366
 20
27.3816987014
 10
0.7755700363
 20
27.3888937455
 10
-0.7755681438
 20
27.3888937495
 10
-2.3266858292
 20
27.3816987142
 10
-3.8777817538
 20
27.3673087867
 10
-5.428842378
 20
27.3457238198
 10
-6.9798083201
 20
27.3169433723
 10
-8.5306782267
 20
27.2809671626
 10
-10.0814386577
 20
27.2377954722
 10
-11.6320121123
 20
27.1874287044
 10
-13.1823672906
 20
27.1298680386
 10
-14.7325207323
 20
27.0651122953
 10
-16.2824667088
 20
26.9931583388
 10
-17.8322313653
 20
26.9140046378
 10
-19.3817738163
 20
26.8276527237
 10
-20.9309878103
 20
26.7341040549
 10
-22.4798524923
 20
26.6333589855
 10
-24.0283740504
 20
26.5254171615
 10
-25.576486839
 20
26.41027898
 10
-27.1241205254
 20
26.28795098
 10
-28.6713308582
 20
26.1584266225
 10
-30.2182413058
 20
26.0216866877
 10
-31.7648881364
 20
25.8777247688
 10
-33.3112204557
 20
25.7265472726
 10
-34.8572309625
 20
25.568154199
  0
LWPOLYLINE
  5
33C
100
AcDbEntity
  8
RACCORDO
100
AcDbPolyline
 62
253
  6
CONTINUOUS
 90
10
 70
0
 10
35.0383797135
 20
-25.7188063842
 10
35.0364956915
 20
-25.7015758072
 10
35.0345198507
 20
-25.6848663898
 10
35.0325119528
 20
-25.6691835296
 10
35.0305327296
 20
-25.6550015746
 10
35.028642045
 20
-25.6427494759
 10
35.0268970838
 20
-25.6327978138
 10
35.0253506242
 20
-25.6254475894
 10
35.0240494413
 20
-25.6209211205
 10
35.0230328911
 20
-25.6193553167
  0
LINE
  5
33D
100
AcDbEntity
  8
RACCORDO
100
AcDbLine
 62
253
  6
CONTINUOUS
 10
33.7788580902
 20
-23.9784676161
 11
33.7809418876
 21
-23.9976523774
  0
LINE
  5
33E
100
AcDbEntity
  8
RACCORDO
100
AcDbLine
 62
253
  6
CONTINUOUS
 10
33.7809418876
 20
-23.9976523774
 11
33.7829547114
 21
-24.0170211068
  0
LINE
  5
33F
100
AcDbEntity
  8
RACCORDO
100
AcDbLine
 62
253
  6
CONTINUOUS
 10
34.8572309649
 20
-25.568154199
 11
34.8551869385
 21
-25.5481210222
  0
LINE
  5
340
100
AcDbEntity
  8
RACCORDO
100
AcDbLine
 62
253
  6
CONTINUOUS
 10
34.7346919555
 20
-25.1860820482
 11
34.733562704
 21
-25.1749562668
  0
LINE
  5
341
100
AcDbEntity
  8
RACCORDO
100
AcDbLine
 62
253
  6
CONTINUOUS
 10
34.8551869385
 20
-25.5481210222
 11
34.8532635456
 21
-25.5282915596
  0
LINE
  5
342
100
AcDbEntity
  8
RACCORDO
100
AcDbLine
 62
253
  6
CONTINUOUS
 10
34.7357458227
 20
-25.1970681728
 11
34.7346919555
 21
-25.1860820482
  0
LINE
  5
343
100
AcDbEntity
  8
RACCORDO
100
AcDbLine
 62
253
  6
CONTINUOUS
 10
34.8532635456
 20
-25.5282915596
 11
34.8514803451
 21
-25.5088674557
  0
LINE
  5
344
100
AcDbEntity
  8
RACCORDO
100
AcDbLine
 62
253
  6
CONTINUOUS
 10
34.7367110767
 20
-25.2077767367
 11
34.7357458227
 21
-25.1970681728
  0
LINE
  5
345
100
AcDbEntity
  8
RACCORDO
100
AcDbLine
 62
253
  6
CONTINUOUS
 10
34.8514803451
 20
-25.5088674557
 11
34.8498554703
 21
-25.4900462331
  0
LINE
  5
346
100
AcDbEntity
  8
RACCORDO
100
AcDbLine
 62
253
  6
CONTINUOUS
 10
34.7375756013
 20
-25.2180733202
 11
34.7367110767
 21
-25.2077767367
  0
LINE
  5
347
100
AcDbEntity
  8
RACCORDO
100
AcDbLine
 62
253
  6
CONTINUOUS
 10
34.8498554703
 20
-25.4900462331
 11
34.8484054443
 21
-25.4720192835
  0
LINE
  5
348
100
AcDbEntity
  8
RACCORDO
100
AcDbLine
 62
253
  6
CONTINUOUS
 10
34.7383285445
 20
-25.2278286752
 11
34.7375756013
 21
-25.2180733202
  0
LWPOLYLINE
  5
349
100
AcDbEntity
  8
RACCORDO
100
AcDbPolyline
 62
253
  6
CONTINUOUS
 90
24
 70
0
 10
33.7403484332
 20
-22.7189959226
 10
33.7394976482
 20
-22.7072882745
 10
33.7386209865
 20
-22.6959797638
 10
33.7377187834
 20
-22.6850869147
 10
33.7367907034
 20
-22.674614414
 10
33.7358395655
 20
-22.6645684332
 10
33.7348657174
 20
-22.6549622524
 10
33.7338688113
 20
-22.6458018534
 10
33.7328506226
 20
-22.6370841077
 10
33.7318107427
 20
-22.6288163736
 10
33.7307495803
 20
-22.6210121919
 10
33.7296701371
 20
-22.6136793132
 10
33.728571743
 20
-22.6068237774
 10
33.7274550681
 20
-22.6004585771
 10
33.726325125
 20
-22.5945995782
 10
33.7251817599
 20
-22.5892526203
 10
33.7240251267
 20
-22.5844233577
 10
33.7228606995
 20
-22.5801223729
 10
33.7216884232
 20
-22.5763517047
 10
33.720508353
 20
-22.5731128729
 10
33.7193261293
 20
-22.5704102925
 10
33.718143632
 20
-22.5682428627
 10
33.7169589811
 20
-22.566606526
 10
33.7157721766
 20
-22.5654980835
  0
LINE
  5
34A
100
AcDbEntity
  8
RACCORDO
100
AcDbLine
 62
253
  6
CONTINUOUS
 10
34.8484054443
 20
-25.4720192835
 11
34.8471450125
 21
-25.454969922
  0
LWPOLYLINE
  5
34B
100
AcDbEntity
  8
RACCORDO
100
AcDbPolyline
 62
253
  6
CONTINUOUS
 90
20
 70
0
 10
33.9365174205
 20
-22.5185436897
 10
33.9355661234
 20
-22.5044802921
 10
33.9345920928
 20
-22.4910323929
 10
33.9335949825
 20
-22.4781954185
 10
33.9325765702
 20
-22.4659932061
 10
33.93153644
 20
-22.4544208796
 10
33.9304750077
 20
-22.4434833151
 10
33.9293952985
 20
-22.4332189781
 10
33.9282966457
 20
-22.4236263124
 10
33.927179716
 20
-22.4147068741
 10
33.9260495339
 20
-22.4065037977
 10
33.9249059518
 20
-22.3990230759
 10
33.9237491173
 20
-22.3922587159
 10
33.9225844983
 20
-22.386235874
 10
33.9214119231
 20
-22.3809610405
 10
33.9202315634
 20
-22.3764277251
 10
33.9190494014
 20
-22.3726416124
 10
33.9178674311
 20
-22.3696045976
 10
33.9166836585
 20
-22.3673147857
 10
33.9154980835
 20
-22.3657721766
  0
LWPOLYLINE
  5
34C
100
AcDbEntity
  8
RACCORDO
100
AcDbPolyline
 62
253
  6
CONTINUOUS
 90
18
 70
0
 10
34.8471450125
 20
-25.454969922
 10
34.8460869921
 20
-25.4390715225
 10
34.8456373318
 20
-25.4316049584
 10
34.845242142
 20
-25.4244857549
 10
34.8449024278
 20
-25.4177320222
 10
34.8446190534
 20
-25.4113609408
 10
34.8443927398
 20
-25.4053887178
 10
34.8442240626
 20
-25.3998305458
 10
34.8441134509
 20
-25.3947005637
 10
34.8440611861
 20
-25.3900118217
 10
34.8440674011
 20
-25.385776247
 10
34.8441320802
 20
-25.3820046145
 10
34.8442550588
 20
-25.3787065185
 10
34.844436024
 20
-25.375890349
 10
34.8446745156
 20
-25.3735632699
 10
34.8449699267
 20
-25.3717312009
 10
34.8453215061
 20
-25.3703988026
 10
34.8457283592
 20
-25.3695694643
  0
LINE
  5
34D
100
AcDbEntity
  8
RACCORDO
100
AcDbLine
 62
253
  6
CONTINUOUS
 10
33.7419607229
 20
-22.7435200475
 11
33.7403484332
 21
-22.7189959226
  0
LINE
  5
34E
100
AcDbEntity
  8
RACCORDO
100
AcDbLine
 62
253
  6
CONTINUOUS
 10
33.9383479594
 20
-22.5484657018
 11
33.9365174205
 21
-22.5185436897
  0
LINE
  5
34F
100
AcDbEntity
  8
RACCORDO
100
AcDbLine
 62
253
  6
CONTINUOUS
 10
33.7434507328
 20
-22.7694134011
 11
33.7419607229
 21
-22.7435200475
  0
LINE
  5
350
100
AcDbEntity
  8
RACCORDO
100
AcDbLine
 62
253
  6
CONTINUOUS
 10
33.9400755873
 20
-22.580702589
 11
33.9383479594
 21
-22.5484657018
  0
LINE
  5
351
100
AcDbEntity
  8
RACCORDO
100
AcDbLine
 62
253
  6
CONTINUOUS
 10
33.7448081496
 20
-22.7965004187
 11
33.7434507328
 21
-22.7694134011
  0
LINE
  5
352
100
AcDbEntity
  8
RACCORDO
100
AcDbLine
 62
253
  6
CONTINUOUS
 10
33.9416879803
 20
-22.6150296307
 11
33.9400755873
 21
-22.580702589
  0
LINE
  5
353
100
AcDbEntity
  8
RACCORDO
100
AcDbLine
 62
253
  6
CONTINUOUS
 10
33.7460255455
 20
-22.8245835444
 11
33.7448081496
 21
-22.7965004187
  0
LINE
  5
354
100
AcDbEntity
  8
RACCORDO
100
AcDbLine
 62
253
  6
CONTINUOUS
 10
33.9431780224
 20
-22.6512904398
 11
33.9416879803
 21
-22.6150296307
  0
LINE
  5
355
100
AcDbEntity
  8
RACCORDO
100
AcDbLine
 62
253
  6
CONTINUOUS
 10
33.7471005137
 20
-22.8535037201
 11
33.7460255455
 21
-22.8245835444
  0
LINE
  5
356
100
AcDbEntity
  8
RACCORDO
100
AcDbLine
 62
253
  6
CONTINUOUS
 10
33.9445355166
 20
-22.6892300119
 11
33.9431780224
 21
-22.6512904398
  0
LINE
  5
357
100
AcDbEntity
  8
RACCORDO
100
AcDbLine
 62
253
  6
CONTINUOUS
 10
33.9457524961
 20
-22.7284942165
 11
33.9445355166
 21
-22.6892300119
  0
LINE
  5
358
100
AcDbEntity
  8
RACCORDO
100
AcDbLine
 62
253
  6
CONTINUOUS
 10
33.773470204
 20
-23.9324973523
 11
33.7471005137
 21
-22.8535037201
  0
LINE
  5
359
100
AcDbEntity
  8
RACCORDO
100
AcDbLine
 62
253
  6
CONTINUOUS
 10
33.9543406975
 20
-23.0764614955
 11
33.9457524961
 21
-22.7284942165
  0
LINE
  5
35A
100
AcDbEntity
  8
RACCORDO
100
AcDbLine
 62
7
  6
CONTINUOUS
 10
33.8237961104
 20
22.2740702034
 11
33.8237961104
 21
-22.2740702034
  0
LWPOLYLINE
  5
35B
100
AcDbEntity
  8
RACCORDO
100
AcDbPolyline
 62
253
  6
CONTINUOUS
 90
58
 70
0
 10
33.9543406975
 20
23.0764614955
 10
33.9545665707
 20
23.1148883535
 10
33.9544037057
 20
23.152007096
 10
33.9538880733
 20
23.1878118446
 10
33.9530576303
 20
23.2222519886
 10
33.9519451803
 20
23.2553700012
 10
33.9505716897
 20
23.2873008104
 10
33.9489624817
 20
23.3180433024
 10
33.9471441903
 20
23.3475948071
 10
33.9451285359
 20
23.3760879536
 10
33.9429347931
 20
23.4035239057
 10
33.9405831816
 20
23.4299001242
 10
33.9380786428
 20
23.4553432585
 10
33.9354351094
 20
23.4798622491
 10
33.9326685474
 20
23.503447948
 10
33.9297810751
 20
23.5261992803
 10
33.926784038
 20
23.5481199964
 10
33.9236894802
 20
23.5692067862
 10
33.9204963834
 20
23.5895473591
 10
33.9172140296
 20
23.6091438405
 10
33.9138514744
 20
23.6279947561
 10
33.9104039713
 20
23.6461816865
 10
33.9068751423
 20
23.6637231296
 10
33.9032753383
 20
23.6806009712
 10
33.8996079368
 20
23.6968414195
 10
33.8958763878
 20
23.7124538316
 10
33.8920896228
 20
23.7274296169
 10
33.888259006
 20
23.7417682402
 10
33.8843943562
 20
23.7554552425
 10
33.8804980095
 20
23.7685068564
 10
33.8765697642
 20
23.7809686622
 10
33.872615971
 20
23.7928395138
 10
33.8686404128
 20
23.8041222791
 10
33.8646379526
 20
23.8148681171
 10
33.8606081305
 20
23.8250896243
 10
33.8565595121
 20
23.834775479
 10
33.8524999569
 20
23.8439408116
 10
33.8484327582
 20
23.8525850375
 10
33.8443622337
 20
23.8607105689
 10
33.8402978226
 20
23.8683373445
 10
33.8362451838
 20
23.875461202
 10
33.8322056508
 20
23.8820886886
 10
33.828182044
 20
23.8882559662
 10
33.8241750305
 20
23.8939663666
 10
33.820189848
 20
23.8992189347
 10
33.8162360107
 20
23.9040435565
 10
33.8123127538
 20
23.9084417728
 10
33.8084259871
 20
23.9124148083
 10
33.8045952766
 20
23.9159926646
 10
33.8008229772
 20
23.9191725035
 10
33.7971112139
 20
23.9219608162
 10
33.7934792273
 20
23.9244023852
 10
33.7899352977
 20
23.9264943821
 10
33.7864746779
 20
23.9282440125
 10
33.7830968673
 20
23.9297113672
 10
33.7798024811
 20
23.9309177401
 10
33.7765932753
 20
23.931845709
 10
33.7734702013
 20
23.9324971537
  0
LINE
  5
35C
100
AcDbEntity
  8
RACCORDO
100
AcDbLine
 62
253
  6
CONTINUOUS
 10
33.7471005137
 20
22.8535037201
 11
33.7734702061
 21
23.9324973521
  0
LINE
  5
35D
100
AcDbEntity
  8
RACCORDO
100
AcDbLine
 62
253
  6
CONTINUOUS
 10
33.9457524961
 20
22.7284942167
 11
33.9543406975
 21
23.0764614955
  0
LINE
  5
35E
100
AcDbEntity
  8
RACCORDO
100
AcDbLine
 62
253
  6
CONTINUOUS
 10
33.9445355166
 20
22.689230012
 11
33.9457524961
 21
22.7284942167
  0
LINE
  5
35F
100
AcDbEntity
  8
RACCORDO
100
AcDbLine
 62
253
  6
CONTINUOUS
 10
33.9431780224
 20
22.6512904397
 11
33.9445355166
 21
22.689230012
  0
LINE
  5
360
100
AcDbEntity
  8
RACCORDO
100
AcDbLine
 62
253
  6
CONTINUOUS
 10
33.7460255455
 20
22.8245835444
 11
33.7471005137
 21
22.8535037201
  0
LINE
  5
361
100
AcDbEntity
  8
RACCORDO
100
AcDbLine
 62
253
  6
CONTINUOUS
 10
33.9416879803
 20
22.6150296307
 11
33.9431780224
 21
22.6512904397
  0
LINE
  5
362
100
AcDbEntity
  8
RACCORDO
100
AcDbLine
 62
253
  6
CONTINUOUS
 10
33.7448081496
 20
22.7965004187
 11
33.7460255455
 21
22.8245835444
  0
LINE
  5
363
100
AcDbEntity
  8
RACCORDO
100
AcDbLine
 62
253
  6
CONTINUOUS
 10
33.9400755873
 20
22.580702589
 11
33.9416879803
 21
22.6150296307
  0
LINE
  5
364
100
AcDbEntity
  8
RACCORDO
100
AcDbLine
 62
253
  6
CONTINUOUS
 10
33.7434507328
 20
22.7694134011
 11
33.7448081496
 21
22.7965004187
  0
LINE
  5
365
100
AcDbEntity
  8
RACCORDO
100
AcDbLine
 62
253
  6
CONTINUOUS
 10
33.9383479594
 20
22.5484657018
 11
33.9400755873
 21
22.580702589
  0
LWPOLYLINE
  5
366
100
AcDbEntity
  8
RACCORDO
100
AcDbPolyline
 62
253
  6
CONTINUOUS
 90
16
 70
0
 10
34.845637344
 20
25.431605058
 10
34.8452421549
 20
25.4244858613
 10
34.8449024415
 20
25.4177321352
 10
34.8446190678
 20
25.4113610602
 10
34.8443927547
 20
25.4053888433
 10
34.8442240781
 20
25.399830677
 10
34.8441134669
 20
25.3947007003
 10
34.8440612025
 20
25.3900119632
 10
34.8440674179
 20
25.3857763931
 10
34.8441320973
 20
25.3820047646
 10
34.8442550761
 20
25.3787066723
 10
34.8444360415
 20
25.375890506
 10
34.8446745332
 20
25.3735634295
 10
34.8449699444
 20
25.3717313626
 10
34.8453215238
 20
25.3703989658
 10
34.8457283768
 20
25.3695696285
  0
LINE
  5
367
100
AcDbEntity
  8
RACCORDO
100
AcDbLine
 62
253
  6
CONTINUOUS
 10
33.7419607229
 20
22.7435200475
 11
33.7434507328
 21
22.7694134011
  0
LINE
  5
368
100
AcDbEntity
  8
RACCORDO
100
AcDbLine
 62
253
  6
CONTINUOUS
 10
34.8465899893
 20
25.4468665389
 11
34.845637344
 21
25.431605058
  0
LINE
  5
369
100
AcDbEntity
  8
RACCORDO
100
AcDbLine
 62
253
  6
CONTINUOUS
 10
34.7389604432
 20
25.2369202591
 11
34.7383285346
 21
25.2278286027
  0
LINE
  5
36A
100
AcDbEntity
  8
RACCORDO
100
AcDbLine
 62
253
  6
CONTINUOUS
 10
34.84775069
 20
25.463361385
 11
34.8465899893
 21
25.4468665389
  0
LINE
  5
36B
100
AcDbEntity
  8
RACCORDO
100
AcDbLine
 62
253
  6
CONTINUOUS
 10
34.8491076428
 20
25.4809218616
 11
34.84775069
 21
25.463361385
  0
LINE
  5
36C
100
AcDbEntity
  8
RACCORDO
100
AcDbLine
 62
253
  6
CONTINUOUS
 10
34.7383285346
 20
25.2278286027
 11
34.7375755933
 21
25.2180732634
  0
LINE
  5
36D
100
AcDbEntity
  8
RACCORDO
100
AcDbLine
 62
253
  6
CONTINUOUS
 10
34.8506470492
 20
25.4993693973
 11
34.8491076428
 21
25.4809218616
  0
LINE
  5
36E
100
AcDbEntity
  8
RACCORDO
100
AcDbLine
 62
253
  6
CONTINUOUS
 10
34.7375755933
 20
25.2180732634
 11
34.7367110706
 21
25.2077766954
  0
LINE
  5
36F
100
AcDbEntity
  8
RACCORDO
100
AcDbLine
 62
253
  6
CONTINUOUS
 10
34.852353255
 20
25.5185164006
 11
34.8506470492
 21
25.4993693973
  0
LINE
  5
370
100
AcDbEntity
  8
RACCORDO
100
AcDbLine
 62
253
  6
CONTINUOUS
 10
34.7367110706
 20
25.2077766954
 11
34.7357458186
 21
25.1970681465
  0
LINE
  5
371
100
AcDbEntity
  8
RACCORDO
100
AcDbLine
 62
253
  6
CONTINUOUS
 10
34.8542089098
 20
25.538168167
 11
34.852353255
 21
25.5185164006
  0
LINE
  5
372
100
AcDbEntity
  8
RACCORDO
100
AcDbLine
 62
253
  6
CONTINUOUS
 10
34.7357458186
 20
25.1970681465
 11
34.7346919535
 21
25.1860820358
  0
LINE
  5
373
100
AcDbEntity
  8
RACCORDO
100
AcDbLine
 62
253
  6
CONTINUOUS
 10
34.7346919535
 20
25.1860820358
 11
34.733562704
 21
25.1749562668
  0
LWPOLYLINE
  5
374
100
AcDbEntity
  8
RACCORDO
100
AcDbPolyline
 62
253
  6
CONTINUOUS
 90
3
 70
0
 10
34.8572309624
 20
25.568154199
 10
34.8561951438
 20
25.5581248591
 10
34.8542089098
 20
25.538168167
  0
LINE
  5
375
100
AcDbEntity
  8
RACCORDO
100
AcDbLine
 62
253
  6
CONTINUOUS
 10
33.7809419028
 20
23.9976523817
 11
33.7829547204
 21
24.0170211068
  0
LWPOLYLINE
  5
376
100
AcDbEntity
  8
RACCORDO
100
AcDbPolyline
 62
253
  6
CONTINUOUS
 90
10
 70
0
 10
35.0383794846
 20
25.7188063828
 10
35.0364953525
 20
25.7015725245
 10
35.0345192814
 20
25.6848592176
 10
35.0325110628
 20
25.6691721697
 10
35.0305314616
 20
25.6549860364
 10
35.0286403758
 20
25.6427300587
 10
35.0268950242
 20
25.6327750756
 10
35.025348217
 20
25.6254223031
 10
35.0240467576
 20
25.6208942199
 10
35.0230300255
 20
25.619327836
  0
LINE
  5
377
100
AcDbEntity
  8
RACCORDO
100
AcDbLine
 62
253
  6
CONTINUOUS
 10
33.7788581068
 20
23.9784676259
 11
33.7809419028
 21
23.9976523817
  0
LINE
  5
378
100
AcDbEntity
  8
RACCORDO
100
AcDbLine
 62
253
  6
CONTINUOUS
 10
33.7767231248
 20
23.9596490612
 11
33.7788581068
 21
23.9784676259
  0
LWPOLYLINE
  5
379
100
AcDbEntity
  8
RACCORDO
100
AcDbPolyline
 62
253
  6
CONTINUOUS
 90
3
 70
0
 10
33.7734691231
 20
23.9324974544
 10
33.7745572354
 20
23.9413754313
 10
33.7767231248
 20
23.9596490612
  0
LWPOLYLINE
  5
37A
100
AcDbEntity
  8
RACCORDO
100
AcDbPolyline
 62
253
  6
CONTINUOUS
 90
58
 70
0
 10
-33.773470888
 20
23.9324969617
 10
-33.7765984374
 20
23.9318447776
 10
-33.7798134361
 20
23.930914415
 10
-33.7831149262
 20
23.9297039629
 10
-33.7865010554
 20
23.9282312081
 10
-33.7899712828
 20
23.9264744269
 10
-33.7935263528
 20
23.9243722969
 10
-33.7971719922
 20
23.921916576
 10
-33.8008988865
 20
23.9191110233
 10
-33.8046850306
 20
23.9159126357
 10
-33.808527224
 20
23.9123155354
 10
-33.8124241756
 20
23.9083220118
 10
-33.8163567843
 20
23.9039021583
 10
-33.8203191088
 20
23.8990549348
 10
-33.8243119297
 20
23.8937786474
 10
-33.8283262591
 20
23.8880429732
 10
-33.832356966
 20
23.8818488011
 10
-33.8364032458
 20
23.8751928689
 10
-33.8404624243
 20
23.8680387627
 10
-33.8445337914
 20
23.8603784158
 10
-33.8486110127
 20
23.8522174949
 10
-33.8526828943
 20
23.8435403948
 10
-33.8567441721
 20
23.8343468403
 10
-33.8607926031
 20
23.8246354054
 10
-33.8648215869
 20
23.8143890875
 10
-33.8688225525
 20
23.803619799
 10
-33.8727959908
 20
23.7923143858
 10
-33.8767482549
 20
23.7804180177
 10
-33.8806765678
 20
23.7679242975
 10
-33.8845734386
 20
23.7548378319
 10
-33.8884371114
 20
23.7411198799
 10
-33.8922648785
 20
23.7267552583
 10
-33.8960474356
 20
23.711757473
 10
-33.8997729509
 20
23.6961309804
 10
-33.9034318492
 20
23.6798882183
 10
-33.9070216342
 20
23.6630161232
 10
-33.9105407669
 20
23.6454810323
 10
-33.9139794487
 20
23.6272986179
 10
-33.9173334712
 20
23.6084527982
 10
-33.9206075597
 20
23.5888617632
 10
-33.9237927908
 20
23.5685259915
 10
-33.9268797324
 20
23.54744434
 10
-33.9298690117
 20
23.5255318552
 10
-33.932748496
 20
23.5027929289
 10
-33.9355070555
 20
23.4792227548
 10
-33.9381426853
 20
23.4547219699
 10
-33.9406395336
 20
23.4292991218
 10
-33.9429836517
 20
23.4029458786
 10
-33.9451700402
 20
23.3755369696
 10
-33.9471786273
 20
23.3470741086
 10
-33.9489901719
 20
23.3175569679
 10
-33.9505928609
 20
23.2868568077
 10
-33.9519602535
 20
23.2549770572
 10
-33.9530672891
 20
23.2219180856
 10
-33.9538931881
 20
23.1875466078
 10
-33.9544054559
 20
23.1518206905
 10
-33.9545664985
 20
23.1147903727
 10
-33.9543406975
 20
23.0764614955
  0
LWPOLYLINE
  5
37B
100
AcDbEntity
  8
RACCORDO
100
AcDbPolyline
 62
7
  6
CONTINUOUS
 90
16
 70
0
 10
-35.0151462923
 20
25.6122755694
 10
-35.1224469842
 20
25.5954461034
 10
-35.2259108192
 20
25.5689024309
 10
-35.3255378779
 20
25.5326445519
 10
-35.422317116
 20
25.4860792027
 10
-35.5152597188
 20
25.429799647
 10
-35.6013991659
 20
25.3655856761
 10
-35.6803390725
 20
25.2933866006
 10
-35.7524760635
 20
25.2132531098
 10
-35.816033204
 20
25.127117063
 10
-35.8709238465
 20
25.0345182041
 10
-35.9172348547
 20
24.9359167892
 10
-35.9534495798
 20
24.8346254455
 10
-35.9790625229
 20
24.7317483822
 10
-35.9945793185
 20
24.6261813901
 10
-36.0
 20
24.5179244693
  0
LWPOLYLINE
  5
37C
100
AcDbEntity
  8
RACCORDO
100
AcDbPolyline
 62
253
  6
CONTINUOUS
 90
49
 70
0
 10
-34.8572309625
 20
25.568154199
 10
-34.8934469641
 20
25.5638128871
 10
-34.9295166786
 20
25.5583671937
 10
-34.965440107
 20
25.5518171187
 10
-35.0012661602
 20
25.5441557271
 10
-35.036945929
 20
25.5353899539
 10
-35.0723326853
 20
25.5255406046
 10
-35.1074221588
 20
25.5146004471
 10
-35.1422186239
 20
25.5025767136
 10
-35.1765881728
 20
25.489511905
 10
-35.2105243494
 20
25.475401061
 10
-35.2440336157
 20
25.460249142
 10
-35.2770014422
 20
25.4441135311
 10
-35.3094140418
 20
25.4269969872
 10
-35.3412852091
 20
25.4088967514
 10
-35.3725417879
 20
25.3898619289
 10
-35.4031819601
 20
25.3698923072
 10
-35.4332075517
 20
25.3489880989
 10
-35.4625508748
 20
25.3271990471
 10
-35.4912155478
 20
25.3045197706
 10
-35.5191979604
 20
25.2809556506
 10
-35.5464195819
 20
25.2565725742
 10
-35.5728790178
 20
25.2313671339
 10
-35.5985776713
 20
25.2053427371
 10
-35.6234412087
 20
25.1785754933
 10
-35.647466913
 20
25.151062869
 10
-35.6706575098
 20
25.1228073976
 10
-35.6929468302
 20
25.0938927885
 10
-35.7143311747
 20
25.0643181747
 10
-35.7348142511
 20
25.0340844233
 10
-35.7543410015
 20
25.0032778446
 10
-35.772906175
 20
24.9719031953
 10
-35.7905150303
 20
24.9399557187
 10
-35.8071282742
 20
24.9075074551
 10
-35.8227454654
 20
24.8745572846
 10
-35.837367052
 20
24.841106327
 10
-35.8509550748
 20
24.8072299824
 10
-35.8635111532
 20
24.7729143757
 10
-35.8750336736
 20
24.738173382
 10
-35.8854798268
 20
24.7031240264
 10
-35.8948443487
 20
24.6677598922
 10
-35.903132508
 20
24.6320873963
 10
-35.9103172952
 20
24.596242814
 10
-35.9163911473
 20
24.5602221339
 10
-35.9213616305
 20
24.5240293675
 10
-35.925224428
 20
24.4878128247
 10
-35.9279781017
 20
24.4516219422
 10
-35.9296240913
 20
24.4154072833
 10
-35.9301623974
 20
24.3791688479
  0
LWPOLYLINE
  5
37D
100
AcDbEntity
  8
RACCORDO
100
AcDbPolyline
 62
253
  6
CONTINUOUS
 90
49
 70
0
 10
-34.8457283592
 20
25.3695694643
 10
-34.8759175268
 20
25.3659748318
 10
-34.9060392808
 20
25.3614609345
 10
-34.9360616242
 20
25.3560265101
 10
-34.9659651411
 20
25.3496688759
 10
-34.9957111303
 20
25.3423907976
 10
-35.0252399869
 20
25.3342026731
 10
-35.0545235665
 20
25.3251097743
 10
-35.0835341967
 20
25.315118625
 10
-35.1122143773
 20
25.3042476208
 10
-35.1405339822
 20
25.2925085435
 10
-35.1684701791
 20
25.2799120884
 10
-35.1959783453
 20
25.2664797278
 10
-35.2230239842
 20
25.2522312002
 10
-35.249593173
 20
25.2371776929
 10
-35.2756726773
 20
25.2213286336
 10
-35.3012377885
 20
25.2047001391
 10
-35.3262664901
 20
25.1873087339
 10
-35.3507483924
 20
25.1691622715
 10
-35.3746643113
 20
25.1502740255
 10
-35.3979879779
 20
25.1306649803
 10
-35.4206975968
 20
25.1103533705
 10
-35.4427723344
 20
25.089357068
 10
-35.4641910102
 20
25.0676967744
 10
-35.4849315314
 20
25.0453951373
 10
-35.5049743846
 20
25.0224728622
 10
-35.5243012852
 20
24.998952024
 10
-35.5428924924
 20
24.9748577002
 10
-35.5607300605
 20
24.9502135693
 10
-35.5777988929
 20
24.9250424736
 10
-35.594083895
 20
24.8993684238
 10
-35.6095672618
 20
24.8732205185
 10
-35.6242385438
 20
24.8466191041
 10
-35.6380925444
 20
24.8195743449
 10
-35.6511154939
 20
24.792110539
 10
-35.6632945541
 20
24.764253725
 10
-35.6746235842
 20
24.7360155736
 10
-35.6850933462
 20
24.7074112293
 10
-35.6946879972
 20
24.6784771676
 10
-35.7033922175
 20
24.6492573583
 10
-35.7111981537
 20
24.6197752055
 10
-35.7180971047
 20
24.5900623596
 10
-35.7240774516
 20
24.5601766066
 10
-35.7291359014
 20
24.5301461263
 10
-35.7332701323
 20
24.49999983
 10
-35.7364765086
 20
24.4697971538
 10
-35.7387566626
 20
24.4395764874
 10
-35.7401152802
 20
24.4093565273
 10
-35.7405574078
 20
24.3791688479
  0
LWPOLYLINE
  5
37E
100
AcDbEntity
  8
RACCORDO
100
AcDbPolyline
 62
253
  6
CONTINUOUS
 90
49
 70
0
 10
34.7335627041
 20
25.1749562668
 10
34.7609785864
 20
25.1716661608
 10
34.7882264307
 20
25.167553098
 10
34.8153062378
 20
25.1626170782
 10
34.8422442993
 20
25.1568513803
 10
34.8690143254
 20
25.1502627255
 10
34.8955374453
 20
25.1428712776
 10
34.9218115569
 20
25.1346749207
 10
34.9478387649
 20
25.1256757706
 10
34.9735465103
 20
25.1159003387
 10
34.9989336268
 20
25.1053465413
 10
35.0240012839
 20
25.0940164621
 10
35.0486804271
 20
25.0819428641
 10
35.0729698813
 20
25.0691237676
 10
35.0968708255
 20
25.0555611523
 10
35.1203177377
 20
25.0412937192
 10
35.1433093283
 20
25.026319576
 10
35.1658468911
 20
25.0106406151
 10
35.1878687795
 20
24.9943012151
 10
35.2093734916
 20
24.9772996666
 10
35.2303625339
 20
24.959637679
 10
35.2507787728
 20
24.9413647599
 10
35.2706205968
 20
24.9224793431
 10
35.2898896222
 20
24.9029829947
 10
35.3085335584
 20
24.8829299202
 10
35.3265507064
 20
24.862318675
 10
35.3439427699
 20
24.8411507038
 10
35.360662562
 20
24.8194845456
 10
35.3767082678
 20
24.7973189187
 10
35.3920817069
 20
24.774655105
 10
35.4067411443
 20
24.7515554889
 10
35.4206846653
 20
24.7280189688
 10
35.433914189
 20
24.7040466464
 10
35.4463937318
 20
24.6797042111
 10
35.4581213007
 20
24.6549907511
 10
35.4690988924
 20
24.6299071781
 10
35.4792965079
 20
24.6045219173
 10
35.4887121365
 20
24.5788340962
 10
35.497347792
 20
24.5528445872
 10
35.5051795123
 20
24.5266244328
 10
35.5122051895
 20
24.5001727864
 10
35.518426934
 20
24.4734904945
 10
35.5238271105
 20
24.4466511394
 10
35.5284034947
 20
24.4196530792
 10
35.5321583127
 20
24.3924979557
 10
35.5350806043
 20
24.365264277
 10
35.5371667165
 20
24.3379782122
 10
35.5384203032
 20
24.3106135922
 10
35.5388413646
 20
24.2831704168
  0
LWPOLYLINE
  5
37F
100
AcDbEntity
  8
RACCORDO
100
AcDbPolyline
 62
253
  6
CONTINUOUS
 90
49
 70
0
 10
34.7393180985
 20
25.2742515059
 10
34.7697328033
 20
25.2705878863
 10
34.8000149349
 20
25.2659999233
 10
34.8301327183
 20
25.2604922806
 10
34.8600567632
 20
25.2540706346
 10
34.8897603664
 20
25.2467417965
 10
34.9192170712
 20
25.2385126614
 10
34.9484003103
 20
25.2293911241
 10
34.9772827546
 20
25.2193866228
 10
35.0058368019
 20
25.2085088916
 10
35.0340356239
 20
25.1967684935
 10
35.0618536748
 20
25.1841771745
 10
35.0892655495
 20
25.1707467796
 10
35.1162458025
 20
25.1564900858
 10
35.1427698371
 20
25.1414212158
 10
35.1688136716
 20
25.1255541383
 10
35.1943530875
 20
25.1089037843
 10
35.2193648279
 20
25.0914864821
 10
35.2438264432
 20
25.0733182576
 10
35.2677150757
 20
25.05441617
 10
35.2910091065
 20
25.0347985346
 10
35.3136879459
 20
25.0144831134
 10
35.335730328
 20
24.9934888913
 10
35.3571163449
 20
24.9718360522
 10
35.3778273406
 20
24.949543924
 10
35.3978438179
 20
24.926633244
 10
35.4171476992
 20
24.9031259053
 10
35.4357222685
 20
24.8790427072
 10
35.4535499277
 20
24.8544059994
 10
35.4706145752
 20
24.829239192
 10
35.4869014983
 20
24.8035644324
 10
35.5023951118
 20
24.7774055639
 10
35.5170814346
 20
24.7507872781
 10
35.5309478947
 20
24.7237327985
 10
35.5439810507
 20
24.6962672655
 10
35.5561691178
 20
24.6684164852
 10
35.567501741
 20
24.6402045401
 10
35.5779677832
 20
24.6116575242
 10
35.5875576421
 20
24.5828022473
 10
35.5962630675
 20
24.5536637947
 10
35.6040753142
 20
24.5242689379
 10
35.6109870842
 20
24.4946455637
 10
35.6169922912
 20
24.4648204913
 10
35.6220845925
 20
24.4348220511
 10
35.6262592707
 20
24.4046774165
 10
35.6295127636
 20
24.374411532
 10
35.6318412552
 20
24.3440510061
 10
35.6332423198
 20
24.313626581
 10
35.6337148583
 20
24.2831704168
  0
LWPOLYLINE
  5
380
100
AcDbEntity
  8
RACCORDO
100
AcDbPolyline
 62
253
  6
CONTINUOUS
 90
16
 70
0
 10
35.0230300255
 20
25.619327836
 10
35.129319522
 20
25.6028763938
 10
35.2334329646
 20
25.5760874302
 10
35.3344197121
 20
25.5392805656
 10
35.4313445046
 20
25.4927796594
 10
35.5232792212
 20
25.4369933381
 10
35.6093468468
 20
25.3725258731
 10
35.6886983626
 20
25.3000070648
 10
35.7605482493
 20
25.2200697562
 10
35.8242731835
 20
25.133496178
 10
35.8793011793
 20
25.0411059272
 10
35.9250294247
 20
24.9437865161
 10
35.9610093488
 20
24.8425360351
 10
35.9869485435
 20
24.7383450822
 10
36.0025779281
 20
24.6321459064
 10
36.0077581503
 20
24.5249712848
  0
LINE
  5
381
100
AcDbEntity
  8
RACCORDO
100
AcDbLine
 62
253
  6
CONTINUOUS
 10
35.0383797137
 20
25.7188063842
 11
35.1560824053
 21
25.7002128353
  0
LWPOLYLINE
  5
382
100
AcDbEntity
  8
RACCORDO
100
AcDbPolyline
 62
253
  6
CONTINUOUS
 90
15
 70
0
 10
35.1560824053
 20
25.7002128353
 10
35.2693928613
 20
25.6710733075
 10
35.3783111827
 20
25.6313878008
 10
35.4838109907
 20
25.5805654453
 10
35.5849188421
 20
25.5191971108
 10
35.6787142973
 20
25.4490554068
 10
35.7649568285
 20
25.3699076092
 10
35.843887242
 20
25.281986442
 10
35.9133071821
 20
25.1877626864
 10
35.9729589904
 20
25.0869501614
 10
36.0231005879
 20
24.979835048
 10
36.0623070116
 20
24.8697466698
 10
36.0901033322
 20
24.7577948016
 10
36.1069646377
 20
24.6428696686
 10
36.1128909675
 20
24.5249712709
  0
LINE
  5
383
100
AcDbEntity
  8
RACCORDO
100
AcDbLine
 62
253
  6
CONTINUOUS
 10
33.7734691231
 20
-23.9324974354
 11
33.7756427524
 21
-23.9504331235
  0
LWPOLYLINE
  5
384
100
AcDbEntity
  8
RACCORDO
100
AcDbPolyline
 62
253
  6
CONTINUOUS
 90
3
 70
0
 10
33.7756427524
 20
-23.9504331235
 10
33.7777957402
 20
-23.969001284
 10
33.7788580902
 20
-23.9784676161
  0
LWPOLYLINE
  5
385
100
AcDbEntity
  8
RACCORDO
100
AcDbPolyline
 62
7
  6
CONTINUOUS
 90
16
 70
0
 10
36.0
 20
24.517924472
 10
35.994511967
 20
24.6263582895
 10
35.9789702995
 20
24.7320080273
 10
35.9533749642
 20
24.8348736853
 10
35.9172423995
 20
24.9360029417
 10
35.8710560323
 20
25.0343481183
 10
35.8162662941
 20
25.1267661809
 10
35.7527806769
 20
25.2128678042
 10
35.6806914721
 20
25.2930423135
 10
35.601726327
 20
25.365314651
 10
35.5154182454
 20
25.4296478483
 10
35.4222339797
 20
25.4860788738
 10
35.3253018735
 20
25.5327435742
 10
35.2256646851
 20
25.5690205651
 10
35.1222795195
 20
25.5955312309
 10
35.015146298
 20
25.6122755716
  0
LWPOLYLINE
  5
386
100
AcDbEntity
  8
RACCORDO
100
AcDbPolyline
 62
253
  6
CONTINUOUS
 90
34
 70
0
 10
33.9154980835
 20
22.3657721766
 10
33.9152466645
 20
22.3752590063
 10
33.9145449447
 20
22.3847244192
 10
33.9133945085
 20
22.3941470478
 10
33.911797953
 20
22.4035056211
 10
33.9097588825
 20
22.4127790128
 10
33.9072819
 20
22.4219462889
 10
33.9043725975
 20
22.4309867549
 10
33.9010375424
 20
22.4398800026
 10
33.8972842637
 20
22.4486059561
 10
33.8931212341
 20
22.4571449173
 10
33.8885578515
 20
22.4654776101
 10
33.8836044176
 20
22.473585224
 10
33.8782721144
 20
22.4814494568
 10
33.8725729794
 20
22.4890525556
 10
33.866519878
 20
22.496377357
 10
33.8601264746
 20
22.5034073259
 10
33.8534072022
 20
22.5101265926
 10
33.8463772289
 20
22.5165199891
 10
33.8390524244
 20
22.5225730827
 10
33.8314493241
 20
22.5282722091
 10
33.8235850914
 20
22.533604503
 10
33.8154774792
 20
22.5385579273
 10
33.80714479
 20
22.5431212999
 10
33.7986058341
 20
22.5472843196
 10
33.7898798877
 20
22.5510375887
 10
33.7809866488
 20
22.5543726344
 10
33.7719461934
 20
22.5572819283
 10
33.7627789296
 20
22.5597589029
 10
33.7535055518
 20
22.5617979666
 10
33.7441469938
 20
22.5633945164
 10
33.7347243819
 20
22.5645449484
 10
33.725258987
 20
22.5652466654
 10
33.7157721766
 20
22.5654980835
  0
LWPOLYLINE
  5
387
100
AcDbEntity
  8
RACCORDO
100
AcDbPolyline
 62
253
  6
CONTINUOUS
 90
49
 70
0
 10
35.9301623974
 20
24.3791688479
 10
35.9296240914
 20
24.4154072832
 10
35.9279781018
 20
24.4516219422
 10
35.9252244281
 20
24.4878128247
 10
35.9213616305
 20
24.5240293675
 10
35.9163911473
 20
24.5602221339
 10
35.9103172951
 20
24.5962428139
 10
35.903132508
 20
24.6320873962
 10
35.8948443487
 20
24.6677598922
 10
35.8854798268
 20
24.7031240264
 10
35.8750336736
 20
24.738173382
 10
35.8635111532
 20
24.7729143757
 10
35.8509550747
 20
24.8072299824
 10
35.837367052
 20
24.841106327
 10
35.8227454654
 20
24.8745572845
 10
35.8071282742
 20
24.9075074551
 10
35.7905150303
 20
24.9399557187
 10
35.772906175
 20
24.9719031953
 10
35.7543410015
 20
25.0032778446
 10
35.7348142511
 20
25.0340844233
 10
35.7143311747
 20
25.0643181747
 10
35.6929468302
 20
25.0938927885
 10
35.6706575098
 20
25.1228073976
 10
35.647466913
 20
25.151062869
 10
35.6234412087
 20
25.1785754933
 10
35.5985776713
 20
25.2053427371
 10
35.5728790178
 20
25.2313671339
 10
35.5464195819
 20
25.2565725742
 10
35.5191979603
 20
25.2809556506
 10
35.4912155477
 20
25.3045197706
 10
35.4625508748
 20
25.3271990471
 10
35.4332075517
 20
25.3489880989
 10
35.40318196
 20
25.3698923072
 10
35.3725417879
 20
25.3898619289
 10
35.341285209
 20
25.4088967514
 10
35.3094140418
 20
25.4269969872
 10
35.2770014422
 20
25.4441135311
 10
35.2440336157
 20
25.460249142
 10
35.2105243494
 20
25.475401061
 10
35.1765881728
 20
25.489511905
 10
35.1422186239
 20
25.5025767136
 10
35.1074221587
 20
25.5146004472
 10
35.0723326853
 20
25.5255406046
 10
35.0369459289
 20
25.5353899539
 10
35.0012661601
 20
25.544155727
 10
34.9654401069
 20
25.5518171186
 10
34.9295166786
 20
25.5583671936
 10
34.8934469641
 20
25.5638128871
 10
34.8572309624
 20
25.568154199
  0
LWPOLYLINE
  5
388
100
AcDbEntity
  8
RACCORDO
100
AcDbPolyline
 62
253
  6
CONTINUOUS
 90
49
 70
0
 10
35.7405574081
 20
24.3791688479
 10
35.7401152803
 20
24.4093565275
 10
35.7387566622
 20
24.4395764938
 10
35.7364765078
 20
24.4697971644
 10
35.7332701312
 20
24.4999998406
 10
35.7291359001
 20
24.5301461352
 10
35.7240774501
 20
24.5601766142
 10
35.718097103
 20
24.590062367
 10
35.7111981517
 20
24.6197752132
 10
35.7033922153
 20
24.6492573662
 10
35.6946879948
 20
24.6784771755
 10
35.6850933435
 20
24.707411237
 10
35.6746235813
 20
24.7360155811
 10
35.663294551
 20
24.7642537323
 10
35.6511154906
 20
24.7921105461
 10
35.6380925409
 20
24.8195743519
 10
35.6242385402
 20
24.846619111
 10
35.609567258
 20
24.8732205252
 10
35.594083891
 20
24.8993684303
 10
35.5777988887
 20
24.9250424799
 10
35.5607300561
 20
24.9502135755
 10
35.5428924878
 20
24.9748577062
 10
35.5243012804
 20
24.9989520299
 10
35.5049743797
 20
25.0224728679
 10
35.4849315264
 20
25.0453951428
 10
35.464191005
 20
25.0676967798
 10
35.4427723291
 20
25.0893570732
 10
35.4206975914
 20
25.1103533755
 10
35.3979879724
 20
25.130664985
 10
35.3746643057
 20
25.15027403
 10
35.3507483867
 20
25.1691622758
 10
35.3262664843
 20
25.187308738
 10
35.3012377826
 20
25.204700143
 10
35.2756726713
 20
25.2213286373
 10
35.2495931669
 20
25.2371776965
 10
35.2230239782
 20
25.2522312035
 10
35.1959783392
 20
25.266479731
 10
35.1684701728
 20
25.2799120913
 10
35.1405339757
 20
25.2925085462
 10
35.1122143709
 20
25.3042476233
 10
35.0835341906
 20
25.3151186272
 10
35.0545235607
 20
25.3251097763
 10
35.0252399809
 20
25.3342026749
 10
34.995711123
 20
25.3423907994
 10
34.9659651325
 20
25.3496688777
 10
34.9360616163
 20
25.3560265116
 10
34.9060392775
 20
25.3614609351
 10
34.8759175285
 20
25.3659748314
 10
34.8457283591
 20
25.3695694639
  0
LWPOLYLINE
  5
389
100
AcDbEntity
  8
RACCORDO
100
AcDbPolyline
 62
253
  6
CONTINUOUS
 90
58
 70
0
 10
34.1636590961
 20
23.0764614955
 10
34.1631471119
 20
23.118672355
 10
34.1620275097
 20
23.1594370843
 10
34.1603002896
 20
23.1987556835
 10
34.1579117554
 20
23.236581314
 10
34.1549156027
 20
23.2729608142
 10
34.1514729185
 20
23.3080346996
 10
34.1475998238
 20
23.3418022403
 10
34.1432801969
 20
23.3742641661
 10
34.1386267607
 20
23.4055631812
 10
34.1336514084
 20
23.4357008036
 10
34.1283422461
 20
23.4646755152
 10
34.1227763168
 20
23.4926254667
 10
34.1169607192
 20
23.5195604798
 10
34.110888354
 20
23.5454707326
 10
34.1046149662
 20
23.5704649105
 10
34.0981464986
 20
23.5945469218
 10
34.091477008
 20
23.6177128582
 10
34.0846444101
 20
23.6400596791
 10
34.0776542455
 20
23.6615896176
 10
34.0705009732
 20
23.6823004408
 10
34.063205887
 20
23.7022824091
 10
34.0557650751
 20
23.7215558837
 10
34.0481824487
 20
23.7401005035
 10
34.0404910358
 20
23.7579454462
 10
34.032686106
 20
23.7751001536
 10
34.0247723893
 20
23.7915551839
 10
34.0167971045
 20
23.8073113894
 10
34.0087691598
 20
23.8223516485
 10
34.0006796468
 20
23.8366930828
 10
33.9925490598
 20
23.8503879097
 10
33.9843818776
 20
23.8634343358
 10
33.9761736213
 20
23.8758341544
 10
33.9679313478
 20
23.8876449633
 10
33.9596469473
 20
23.8988799116
 10
33.9513285295
 20
23.9095258502
 10
33.9430074803
 20
23.9196009294
 10
33.9346833758
 20
23.9291030269
 10
33.9263566399
 20
23.938034265
 10
33.9180599308
 20
23.9464191604
 10
33.9097982019
 20
23.9542518289
 10
33.9015665
 20
23.9615381547
 10
33.8933826232
 20
23.9683203069
 10
33.885242666
 20
23.9746004662
 10
33.8771505341
 20
23.980376452
 10
33.8691357427
 20
23.985683892
 10
33.8611920246
 20
23.990522524
 10
33.8533256473
 20
23.9948926102
 10
33.8455849279
 20
23.9988305656
 10
33.8379710686
 20
24.002330603
 10
33.8304828676
 20
24.0053985095
 10
33.8231650366
 20
24.0080880611
 10
33.8160313882
 20
24.0103937151
 10
33.8090681104
 20
24.0123210141
 10
33.802278477
 20
24.0139403624
 10
33.7956635797
 20
24.015275228
 10
33.7892223274
 20
24.0163021428
 10
33.7829547204
 20
24.0170211068
  0
LINE
  5
38A
100
AcDbEntity
  8
RACCORDO
100
AcDbLine
 62
253
  6
CONTINUOUS
 10
33.9543406975
 20
-23.0764614955
 11
33.9543406975
 21
23.0764614955
  0
LINE
  5
38B
100
AcDbEntity
  8
RACCORDO
100
AcDbLine
 62
253
  6
CONTINUOUS
 10
34.1636590961
 20
-23.0764614955
 11
34.1636590961
 21
23.0764614955
  0
LINE
  5
38C
100
AcDbEntity
  8
RACCORDO
100
AcDbLine
 62
253
  6
CONTINUOUS
 10
35.5388413646
 20
24.2831704168
 11
35.5388413646
 21
-24.2831704168
  0
LINE
  5
38D
100
AcDbEntity
  8
RACCORDO
100
AcDbLine
 62
253
  6
CONTINUOUS
 10
35.63371501
 20
24.2831704168
 11
35.63371501
 21
-24.2831704168
  0
LINE
  5
38E
100
AcDbEntity
  8
RACCORDO
100
AcDbLine
 62
253
  6
CONTINUOUS
 10
35.7405576629
 20
-24.3791688479
 11
35.7405576629
 21
24.3791688479
  0
LINE
  5
38F
100
AcDbEntity
  8
RACCORDO
100
AcDbLine
 62
253
  6
CONTINUOUS
 10
35.9301623974
 20
-24.3791688479
 11
35.9301623974
 21
24.3791688479
  0
LINE
  5
390
100
AcDbEntity
  8
RACCORDO
100
AcDbLine
 62
7
  6
CONTINUOUS
 10
36.0078241643
 20
24.5249712709
 11
36.0078241643
 21
-24.5249712709
  0
LINE
  5
391
100
AcDbEntity
  8
RACCORDO
100
AcDbLine
 62
253
  6
CONTINUOUS
 10
36.1128909675
 20
24.5249712709
 11
36.1128909675
 21
-24.5249712709
  0
LWPOLYLINE
  5
392
100
AcDbEntity
  8
RACCORDO
100
AcDbPolyline
 62
253
  6
CONTINUOUS
 90
49
 70
0
 10
35.5388413646
 20
-24.2831704168
 10
35.5384203032
 20
-24.3106135922
 10
35.5371667165
 20
-24.3379782122
 10
35.5350806043
 20
-24.365264277
 10
35.5321583127
 20
-24.3924979558
 10
35.5284034947
 20
-24.4196530792
 10
35.5238271105
 20
-24.4466511394
 10
35.518426934
 20
-24.4734904945
 10
35.5122051895
 20
-24.5001727864
 10
35.5051795123
 20
-24.5266244328
 10
35.497347792
 20
-24.5528445872
 10
35.4887121365
 20
-24.5788340962
 10
35.4792965079
 20
-24.6045219173
 10
35.4690988924
 20
-24.6299071781
 10
35.4581213007
 20
-24.6549907511
 10
35.4463937318
 20
-24.6797042112
 10
35.433914189
 20
-24.7040466465
 10
35.4206846653
 20
-24.7280189688
 10
35.4067411443
 20
-24.7515554889
 10
35.3920817069
 20
-24.774655105
 10
35.3767082678
 20
-24.7973189187
 10
35.360662562
 20
-24.8194845456
 10
35.3439427699
 20
-24.8411507038
 10
35.3265507064
 20
-24.8623186751
 10
35.3085335584
 20
-24.8829299202
 10
35.2898896222
 20
-24.9029829947
 10
35.2706205968
 20
-24.9224793431
 10
35.2507787728
 20
-24.9413647599
 10
35.2303625339
 20
-24.959637679
 10
35.2093734916
 20
-24.9772996666
 10
35.1878687796
 20
-24.9943012151
 10
35.1658468912
 20
-25.0106406151
 10
35.1433093283
 20
-25.026319576
 10
35.1203177377
 20
-25.0412937192
 10
35.0968708256
 20
-25.0555611523
 10
35.0729698813
 20
-25.0691237676
 10
35.0486804272
 20
-25.0819428641
 10
35.0240012839
 20
-25.0940164622
 10
34.9989336268
 20
-25.1053465413
 10
34.9735465104
 20
-25.1159003388
 10
34.947838765
 20
-25.1256757706
 10
34.9218115569
 20
-25.1346749207
 10
34.8955374454
 20
-25.1428712776
 10
34.8690143254
 20
-25.1502627256
 10
34.8422442994
 20
-25.1568513804
 10
34.8153062378
 20
-25.1626170783
 10
34.7882264307
 20
-25.167553098
 10
34.7609785864
 20
-25.1716661609
 10
34.7335627041
 20
-25.1749562668
  0
LWPOLYLINE
  5
393
100
AcDbEntity
  8
RACCORDO
100
AcDbPolyline
 62
253
  6
CONTINUOUS
 90
49
 70
0
 10
35.6337148583
 20
-24.2831704168
 10
35.6332423198
 20
-24.3136265813
 10
35.6318412553
 20
-24.3440510057
 10
35.6295127637
 20
-24.3744115311
 10
35.6262592708
 20
-24.4046774154
 10
35.6220845927
 20
-24.4348220502
 10
35.6169922914
 20
-24.4648204905
 10
35.6109870844
 20
-24.494645563
 10
35.6040753144
 20
-24.5242689371
 10
35.5962630677
 20
-24.553663794
 10
35.5875576423
 20
-24.5828022465
 10
35.5779677835
 20
-24.6116575234
 10
35.5675017413
 20
-24.6402045393
 10
35.5561691181
 20
-24.6684164845
 10
35.5439810511
 20
-24.6962672647
 10
35.5309478951
 20
-24.7237327977
 10
35.517081435
 20
-24.7507872774
 10
35.5023951122
 20
-24.7774055631
 10
35.4869014988
 20
-24.8035644316
 10
35.4706145757
 20
-24.8292391912
 10
35.4535499282
 20
-24.8544059986
 10
35.4357222691
 20
-24.8790427065
 10
35.4171476998
 20
-24.9031259046
 10
35.3978438186
 20
-24.9266332433
 10
35.3778273413
 20
-24.9495439233
 10
35.3571163455
 20
-24.9718360515
 10
35.3357303287
 20
-24.9934888907
 10
35.3136879466
 20
-25.0144831128
 10
35.2910091073
 20
-25.0347985339
 10
35.2677150765
 20
-25.0544161694
 10
35.243826444
 20
-25.073318257
 10
35.2193648288
 20
-25.0914864815
 10
35.1943530884
 20
-25.1089037837
 10
35.1688136724
 20
-25.1255541377
 10
35.142769838
 20
-25.1414212153
 10
35.1162458034
 20
-25.1564900853
 10
35.0892655505
 20
-25.1707467791
 10
35.0618536758
 20
-25.184177174
 10
35.0340356249
 20
-25.196768493
 10
35.0058368029
 20
-25.2085088913
 10
34.9772827556
 20
-25.2193866225
 10
34.9484003112
 20
-25.2293911238
 10
34.9192170722
 20
-25.2385126611
 10
34.8897603676
 20
-25.2467417962
 10
34.8600567648
 20
-25.2540706344
 10
34.8301327197
 20
-25.2604922803
 10
34.8000149355
 20
-25.2659999232
 10
34.769732803
 20
-25.2705878864
 10
34.7393180986
 20
-25.274251506
  0
LWPOLYLINE
  5
394
100
AcDbEntity
  8
RACCORDO
100
AcDbPolyline
 62
253
  6
CONTINUOUS
 90
34
 70
0
 10
33.9154980835
 20
-22.3657721766
 10
33.9152466651
 20
-22.3752589946
 10
33.9145449469
 20
-22.3847243968
 10
33.9133945132
 20
-22.3941470157
 10
33.911797961
 20
-22.4035055804
 10
33.9097588943
 20
-22.4127789646
 10
33.9072819162
 20
-22.4219462343
 10
33.9043726183
 20
-22.430986695
 10
33.9010375682
 20
-22.4398799385
 10
33.8972842945
 20
-22.4486058889
 10
33.8931212699
 20
-22.457144848
 10
33.8885578922
 20
-22.4654775398
 10
33.8836044629
 20
-22.4735851536
 10
33.878272164
 20
-22.4814493873
 10
33.8725730328
 20
-22.4890524878
 10
33.8665199347
 20
-22.4963772916
 10
33.860126534
 20
-22.5034072636
 10
33.8534072636
 20
-22.510126534
 10
33.8463772916
 20
-22.5165199347
 10
33.8390524878
 20
-22.5225730328
 10
33.8314493873
 20
-22.528272164
 10
33.8235851536
 20
-22.5336044629
 10
33.8154775398
 20
-22.5385578922
 10
33.807144848
 20
-22.5431212699
 10
33.7986058889
 20
-22.5472842945
 10
33.7898799385
 20
-22.5510375682
 10
33.780986695
 20
-22.5543726183
 10
33.7719462343
 20
-22.5572819162
 10
33.7627789646
 20
-22.5597588943
 10
33.7535055804
 20
-22.561797961
 10
33.7441470157
 20
-22.5633945132
 10
33.7347243968
 20
-22.5645449469
 10
33.7252589946
 20
-22.5652466651
 10
33.7157721766
 20
-22.5654980835
  0
LWPOLYLINE
  5
395
100
AcDbEntity
  8
RACCORDO
100
AcDbPolyline
 62
253
  6
CONTINUOUS
 90
16
 70
0
 10
36.0077968506
 20
-24.5249712864
 10
36.0025849601
 20
-24.6322951761
 10
35.9868929816
 20
-24.7385672505
 10
35.9609321968
 20
-24.8428071745
 10
35.9249211027
 20
-24.9440448649
 10
35.8791628926
 20
-25.0413142258
 10
35.824157
 20
-25.1336856682
 10
35.7604328327
 20
-25.2202466014
 10
35.6885337882
 20
-25.300141523
 10
35.6091661853
 20
-25.3726650787
 10
35.5230754614
 20
-25.4371603024
 10
35.431080785
 20
-25.4929246435
 10
35.3341363233
 20
-25.5393951311
 10
35.2331976382
 20
-25.5761718814
 10
35.1291571664
 20
-25.6028874599
 10
35.0230260382
 20
-25.6192898248
  0
LINE
  5
396
100
AcDbEntity
  8
RACCORDO
100
AcDbLine
 62
253
  6
CONTINUOUS
 10
36.1128909675
 20
-24.5249712709
 11
36.1067488582
 21
-24.6438487294
  0
LWPOLYLINE
  5
397
100
AcDbEntity
  8
RACCORDO
100
AcDbPolyline
 62
253
  6
CONTINUOUS
 90
31
 70
0
 10
33.9468264206
 20
-22.7689800677
 10
33.9460876026
 20
-22.7732750249
 10
33.9448358197
 20
-22.7775589097
 10
33.943074299
 20
-22.7818206786
 10
33.9408075816
 20
-22.7860493454
 10
33.9380415112
 20
-22.7902340091
 10
33.9347832186
 20
-22.7943638822
 10
33.9310411034
 20
-22.7984283183
 10
33.9268248127
 20
-22.8024168398
 10
33.9221452155
 20
-22.8063191649
 10
33.9170143757
 20
-22.8101252338
 10
33.9114455201
 20
-22.8138252352
 10
33.9054530045
 20
-22.8174096308
 10
33.8990522773
 20
-22.8208691807
 10
33.8922598388
 20
-22.8241949665
 10
33.885093199
 20
-22.827378415
 10
33.877570833
 20
-22.8304113196
 10
33.8697121325
 20
-22.8332858621
 10
33.8615373561
 20
-22.8359946323
 10
33.8530675775
 20
-22.8385306473
 10
33.8443246309
 20
-22.8408873699
 10
33.8353310541
 20
-22.8430587247
 10
33.8261100317
 20
-22.8450391144
 10
33.8166853341
 20
-22.8468234338
 10
33.8070812568
 20
-22.8484070833
 10
33.7973225578
 20
-22.8497859805
 10
33.7874343939
 20
-22.8509565708
 10
33.777442255
 20
-22.8519158367
 10
33.7673718995
 20
-22.8526613053
 10
33.7572492875
 20
-22.853191055
 10
33.7471005137
 20
-22.8535037201
  0
LWPOLYLINE
  5
398
100
AcDbEntity
  8
RACCORDO
100
AcDbPolyline
 62
253
  6
CONTINUOUS
 90
31
 70
0
 10
33.9468264206
 20
22.7689800677
 10
33.9460876045
 20
22.7732750168
 10
33.9448358252
 20
22.777558894
 10
33.9430743096
 20
22.7818206561
 10
33.9408075987
 20
22.7860493168
 10
33.9380415358
 20
22.7902339752
 10
33.9347832515
 20
22.7943638437
 10
33.9310411451
 20
22.7984282761
 10
33.9268248633
 20
22.8024167948
 10
33.9221452752
 20
22.806319118
 10
33.9170144442
 20
22.8101251858
 10
33.9114455969
 20
22.8138251868
 10
33.905453089
 20
22.8174095828
 10
33.8990523684
 20
22.8208691338
 10
33.8922599355
 20
22.8241949214
 10
33.8850933002
 20
22.8273783721
 10
33.8775709372
 20
22.8304112796
 10
33.8697122382
 20
22.8332858252
 10
33.8615374619
 20
22.8359945989
 10
33.8530676818
 20
22.8385306177
 10
33.8443247319
 20
22.8408873441
 10
33.8353311505
 20
22.8430587028
 10
33.8261101218
 20
22.8450390962
 10
33.8166854165
 20
22.8468234192
 10
33.8070813302
 20
22.8484070721
 10
33.7973226211
 20
22.8497859723
 10
33.7874344458
 20
22.8509565652
 10
33.7774422948
 20
22.8519158333
 10
33.7673719266
 20
22.8526613036
 10
33.7572493012
 20
22.8531910544
 10
33.7471005137
 20
22.8535037201
  0
LWPOLYLINE
  5
399
100
AcDbEntity
  8
RACCORDO
100
AcDbPolyline
 62
253
  6
CONTINUOUS
 90
15
 70
0
 10
36.1067488582
 20
-24.6438487294
 10
36.0896740438
 20
-24.7594890164
 10
36.0616664843
 20
-24.8718921318
 10
36.0222480038
 20
-24.982088277
 10
35.9718966185
 20
-25.0890472506
 10
35.9120465544
 20
-25.1896784482
 10
35.8424392304
 20
-25.2837717217
 10
35.7633329645
 20
-25.3715372192
 10
35.6769373559
 20
-25.4505147798
 10
35.5829340668
 20
-25.5204808967
 10
35.4816411557
 20
-25.5816590767
 10
35.3762229044
 20
-25.6322596795
 10
35.2677340435
 20
-25.6716861583
 10
35.155119678
 20
-25.7005350599
 10
35.0383797136
 20
-25.7188063842
  0
LWPOLYLINE
  5
39A
100
AcDbEntity
  8
RACCORDO
100
AcDbPolyline
 62
253
  6
CONTINUOUS
 90
17
 70
0
 10
34.7393181157
 20
-25.2742516663
 10
34.7395407589
 20
-25.2737756085
 10
34.7397293131
 20
-25.2729891985
 10
34.739883186
 20
-25.2718949062
 10
34.7400018944
 20
-25.2704961683
 10
34.7400850655
 20
-25.2687973777
 10
34.7401324382
 20
-25.2668038696
 10
34.7401438635
 20
-25.2645219049
 10
34.7401193057
 20
-25.2619586502
 10
34.7400588418
 20
-25.2591221557
 10
34.7399626618
 20
-25.2560213297
 10
34.7398310677
 20
-25.2526659107
 10
34.7396644728
 20
-25.2490664368
 10
34.7394634003
 20
-25.2452342123
 10
34.7392284818
 20
-25.2411812729
 10
34.7389604549
 20
-25.2369203471
 10
34.7383285445
 20
-25.2278286752
  0
LWPOLYLINE
  5
39B
100
AcDbEntity
  8
RACCORDO
100
AcDbPolyline
 62
253
  6
CONTINUOUS
 90
16
 70
0
 10
34.7393180985
 20
25.2742515059
 10
34.7395407416
 20
25.2737754493
 10
34.7397292957
 20
25.2729890411
 10
34.7398831687
 20
25.2718947512
 10
34.7400018772
 20
25.2704960163
 10
34.7400850486
 20
25.2687972293
 10
34.7401324214
 20
25.2668037253
 10
34.7401438471
 20
25.2645217652
 10
34.7401192897
 20
25.2619585156
 10
34.7400588262
 20
25.2591220267
 10
34.7399626467
 20
25.2560212067
 10
34.7398310532
 20
25.2526657941
 10
34.739664459
 20
25.2490663269
 10
34.7394633872
 20
25.2452341095
 10
34.7392284693
 20
25.2411811773
 10
34.7389604432
 20
25.2369202591
  0
LWPOLYLINE
  5
39C
100
AcDbEntity
  8
RACCORDO
100
AcDbPolyline
 62
253
  6
CONTINUOUS
 90
13
 70
0
 10
45.3434593125
 20
46.2886998742
 10
45.3430034083
 20
46.4022709435
 10
45.3416386884
 20
46.5140262569
 10
45.3393869718
 20
46.6221790886
 10
45.3362842585
 20
46.7250003084
 10
45.3323801541
 20
46.8208460275
 10
45.3277370771
 20
46.90818388
 10
45.3224292598
 20
46.9856175225
 10
45.316541563
 20
47.0519089583
 10
45.3101681198
 20
47.1059983308
 10
45.3034108281
 20
47.1470208677
 10
45.2963777221
 20
47.1743207072
 10
45.2891812458
 20
47.187461384
  0
LINE
  5
39D
100
AcDbEntity
  8
RACCORDO
100
AcDbLine
 62
253
  6
CONTINUOUS
 10
46.343370529
 20
-45.2934404953
 11
46.343370529
 21
45.2934404953
  0
LINE
  5
39E
100
AcDbEntity
  8
RACCORDO
100
AcDbLine
 62
253
  6
CONTINUOUS
 10
47.1835734576
 20
-45.2934404953
 11
47.1835734576
 21
45.2934404953
  0
LINE
  5
39F
100
AcDbEntity
  8
RACCORDO
100
AcDbLine
 62
7
  6
CONTINUOUS
 10
47.4
 20
45.509137424
 11
47.4
 21
-45.509137424
  0
LWPOLYLINE
  5
3A0
100
AcDbEntity
  8
RACCORDO
100
AcDbPolyline
 62
253
  6
CONTINUOUS
 90
13
 70
0
 10
45.3434593094
 20
-46.2886998742
 10
45.3430032441
 20
-46.4022639297
 10
45.3416383965
 20
-46.5140117429
 10
45.3393865852
 20
-46.6221568138
 10
45.3362838088
 20
-46.7249702387
 10
45.3323796709
 20
-46.8208083506
 10
45.3277365864
 20
-46.9081389963
 10
45.3224287838
 20
-46.98556603
 10
45.316541119
 20
-47.0518516342
 10
45.3101677197
 20
-47.1059361082
 10
45.3034104779
 20
-47.1469548092
 10
45.2963774217
 20
-47.1742519757
 10
45.289180989
 20
-47.1873912108
  0
LINE
  5
3A1
100
AcDbEntity
  8
RACCORDO
100
AcDbLine
 62
253
  6
CONTINUOUS
 10
46.343370529
 20
45.2934404953
 11
47.1835734575
 21
45.2934404927
  0
LINE
  5
3A2
100
AcDbEntity
  8
RACCORDO
100
AcDbLine
 62
253
  6
CONTINUOUS
 10
-46.343370529
 20
45.2934404953
 11
-47.1835734576
 21
45.2934404953
  0
LINE
  5
3A3
100
AcDbEntity
  8
RACCORDO
100
AcDbLine
 62
253
  6
CONTINUOUS
 10
45.3434593188
 20
46.2886998742
 11
-45.3434593188
 21
46.2886998742
  0
LINE
  5
3A4
100
AcDbEntity
  8
RACCORDO
100
AcDbLine
 62
253
  6
CONTINUOUS
 10
45.2891812458
 20
47.187461384
 11
-45.2891812249
 21
47.1874613833
  0
LINE
  5
3A5
100
AcDbEntity
  8
RACCORDO
100
AcDbLine
 62
7
  6
CONTINUOUS
 10
-45.5024687322
 20
47.399999807
 11
45.5024687322
 21
47.399999807
  0
LWPOLYLINE
  5
3A6
100
AcDbEntity
  8
RACCORDO
100
AcDbPolyline
 62
253
  6
CONTINUOUS
 90
19
 70
0
 10
46.343370529
 20
45.2934404953
 10
46.3394275434
 20
45.3808549786
 10
46.3282095023
 20
45.4663946736
 10
46.3097163834
 20
45.5500595805
 10
46.2837372606
 20
45.6324394857
 10
46.2504829701
 20
45.7129446027
 10
46.2105861172
 20
45.7898055716
 10
46.1638558654
 20
45.8630000289
 10
46.110482892
 20
45.9325503381
 10
46.0516720781
 20
45.9967542294
 10
45.9872874329
 20
46.0554577307
 10
45.9174647635
 20
46.1088148142
 10
45.8438166835
 20
46.1555851259
 10
45.7661902136
 20
46.1956035189
 10
45.6847381753
 20
46.2290351403
 10
45.6015319537
 20
46.2551350777
 10
45.5172620053
 20
46.2736550271
 10
45.4312378068
 20
46.2848432926
 10
45.3434593188
 20
46.2886998742
  0
LWPOLYLINE
  5
3A7
100
AcDbEntity
  8
RACCORDO
100
AcDbPolyline
 62
253
  6
CONTINUOUS
 90
19
 70
0
 10
47.1834796848
 20
45.2934404927
 10
47.1760882545
 20
45.4587521996
 10
47.1543677466
 20
45.6225472095
 10
47.1184768379
 20
45.7834976357
 10
47.0688954287
 20
45.9402873072
 10
47.0060356477
 20
46.0919496389
 10
46.9301056263
 20
46.2378028458
 10
46.84152855
 20
46.3769449251
 10
46.7410728807
 20
46.5080874609
 10
46.6295577969
 20
46.6299897291
 10
46.5078631679
 20
46.741635149
 10
46.3769214989
 20
46.8423205523
 10
46.2376955625
 20
46.9313090293
 10
46.0911856057
 20
47.0078582496
 10
45.9384943772
 20
47.0714094893
 10
45.780757356
 20
47.1215068439
 10
45.6191183592
 20
47.1577054487
 10
45.4547988788
 20
47.1796924759
 10
45.2891809889
 20
47.1873911997
  0
LWPOLYLINE
  5
3A8
100
AcDbEntity
  8
RACCORDO
100
AcDbPolyline
 62
7
  6
CONTINUOUS
 90
19
 70
0
 10
47.4
 20
-45.5091375204
 10
47.3933125772
 20
-45.6726036708
 10
47.3723891249
 20
-45.8337517228
 10
47.3372295582
 20
-45.9925816764
 10
47.287153345
 20
-46.1509730539
 10
47.2228406662
 20
-46.3070463329
 10
47.1463324579
 20
-46.4551629473
 10
47.0576166418
 20
-46.5941651748
 10
46.9567047262
 20
-46.7252107375
 10
46.8456730606
 20
-46.8461342354
 10
46.7245207422
 20
-46.9568773
 10
46.5932480174
 20
-47.0574982997
 10
46.4539330533
 20
-47.1460069397
 10
46.3054472977
 20
-47.2224330785
 10
46.1489186373
 20
-47.2867468578
 10
45.9898101866
 20
-47.3368684072
 10
45.8299430188
 20
-47.3721044369
 10
45.6674959029
 20
-47.3931482368
 10
45.5024687322
 20
-47.399999807
  0
LWPOLYLINE
  5
3A9
100
AcDbEntity
  8
RACCORDO
100
AcDbPolyline
 62
253
  6
CONTINUOUS
 90
19
 70
0
 10
-45.289180989
 20
47.1873912108
 10
-45.454798781
 20
47.179692505
 10
-45.6191181087
 20
47.1577054991
 10
-45.7807570017
 20
47.1215069236
 10
-45.9384939839
 20
47.0714096084
 10
-46.0911852095
 20
47.0078584195
 10
-46.23769517
 20
46.9313092628
 10
-46.3769210995
 20
46.8423208581
 10
-46.5078627567
 20
46.7416355242
 10
-46.6295573781
 20
46.6299901581
 10
-46.741072466
 20
46.5080879192
 10
-46.8415281527
 20
46.3769454143
 10
-46.9301052588
 20
46.2378034127
 10
-47.0060353213
 20
46.0919503743
 10
-47.0688951524
 20
45.9402882791
 10
-47.1184766185
 20
45.7834987569
 10
-47.1543675897
 20
45.6225482175
 10
-47.1760881651
 20
45.4587527087
 10
-47.1834796715
 20
45.2934404926
  0
LWPOLYLINE
  5
3AA
100
AcDbEntity
  8
RACCORDO
100
AcDbPolyline
 62
253
  6
CONTINUOUS
 90
19
 70
0
 10
-45.3434593188
 20
46.2886998742
 10
-45.4312378057
 20
46.284843289
 10
-45.5172620037
 20
46.2736550214
 10
-45.6015319521
 20
46.2551350715
 10
-45.6847381743
 20
46.229035136
 10
-45.7661902138
 20
46.1956035182
 10
-45.8438166846
 20
46.1555851279
 10
-45.9174647657
 20
46.1088148172
 10
-45.9872874361
 20
46.0554577339
 10
-46.0516720803
 20
45.9967542317
 10
-46.1104828888
 20
45.9325503372
 10
-46.1638558549
 20
45.8630000236
 10
-46.2105861048
 20
45.7898055644
 10
-46.2504829673
 20
45.7129445988
 10
-46.2837372727
 20
45.6324394876
 10
-46.3097164045
 20
45.5500595861
 10
-46.3282095224
 20
45.4663946795
 10
-46.3394275564
 20
45.3808549825
 10
-46.343370529
 20
45.2934404953
  0
LWPOLYLINE
  5
3AB
100
AcDbEntity
  8
RACCORDO
100
AcDbPolyline
 62
7
  6
CONTINUOUS
 90
19
 70
0
 10
45.5024687322
 20
47.399999807
 10
45.6674959029
 20
47.3931482368
 10
45.8299430188
 20
47.3721044369
 10
45.9898101866
 20
47.3368684072
 10
46.1489186373
 20
47.2867468578
 10
46.3054472977
 20
47.2224330785
 10
46.4539330533
 20
47.1460069397
 10
46.5932480174
 20
47.0574982997
 10
46.7245207422
 20
46.9568773
 10
46.8456730606
 20
46.8461342354
 10
46.9567047262
 20
46.7252107375
 10
47.0576166418
 20
46.5941651748
 10
47.1463324579
 20
46.4551629473
 10
47.2228406662
 20
46.3070463329
 10
47.287153345
 20
46.1509730539
 10
47.3372295582
 20
45.9925816764
 10
47.3723891249
 20
45.8337517228
 10
47.3933125772
 20
45.6726036708
 10
47.4
 20
45.5091375204
  0
LINE
  5
3AC
100
AcDbEntity
  8
RACCORDO
100
AcDbLine
 62
253
  6
CONTINUOUS
 10
-78.1830328168
 20
-47.1878691165
 11
-76.7399574188
 21
-47.1874613833
  0
LINE
  5
3AD
100
AcDbEntity
  8
RACCORDO
100
AcDbLine
 62
253
  6
CONTINUOUS
 10
-79.0359304562
 20
-46.2891025352
 11
-77.5910294157
 21
-46.2886998742
  0
LINE
  5
3AE
100
AcDbEntity
  8
RACCORDO
100
AcDbLine
 62
7
  6
CONTINUOUS
 10
-74.1359304562
 20
-47.3999687637
 11
-72.6707661927
 21
-47.399999807
  0
LINE
  5
3AF
100
AcDbEntity
  8
RACCORDO
100
AcDbLine
 62
253
  6
CONTINUOUS
 10
-72.6707661927
 20
-47.399999807
 11
-76.7399574178
 21
-47.1874613888
  0
LINE
  5
3B0
100
AcDbEntity
  8
0
100
AcDbLine
 62
7
  6
CONTINUOUS
 10
-78.1830328168
 20
-47.1878691165
 11
-74.1359304562
 21
-47.3999687637
  0
LINE
  5
3B1
100
AcDbEntity
  8
DRAFT
100
AcDbLine
 62
7
  6
CONTINUOUS
 10
-70.6359304562
 20
-46.5
 11
-72.5609344317
 21
-46.3991148165
  0
LINE
  5
3B2
100
AcDbEntity
  8
DRAFT
100
AcDbLine
 62
253
  6
CONTINUOUS
 10
-70.1359304562
 20
-45.5
 11
-72.5458779558
 21
-45.5
  0
LINE
  5
3B3
100
AcDbEntity
  8
RACCORDO
100
AcDbLine
 62
253
  6
CONTINUOUS
 10
-77.5265326228
 20
-45.2934404953
 11
-76.6755423944
 21
-45.2934404953
  0
LINE
  5
3B4
100
AcDbEntity
  8
RACCORDO
100
AcDbLine
 62
253
  6
CONTINUOUS
 10
-72.5458779558
 20
-45.509137424
 11
-76.6755423944
 21
-45.2934404953
  0
LINE
  5
3B5
100
AcDbEntity
  8
0
100
AcDbLine
 62
7
  6
CONTINUOUS
 10
-69.4359304562
 20
-26.35
 11
-70.1359304562
 21
-26.3540724809
  0
LINE
  5
3B6
100
AcDbEntity
  8
DRAFT
100
AcDbLine
 62
7
  6
CONTINUOUS
 10
-70.1359304562
 20
-27.2512217317
 11
-69.4359304562
 21
-27.25
  0
LINE
  5
3B7
100
AcDbEntity
  8
DRAFT
100
AcDbLine
 62
253
  6
CONTINUOUS
 10
-69.4359304562
 20
-27.053527618
 11
-70.1359304562
 21
-27.0538438255
  0
LINE
  5
3B8
100
AcDbEntity
  8
0
100
AcDbLine
 62
7
  6
CONTINUOUS
 10
-69.6359304562
 20
-25.2
 11
-70.1359304562
 21
-25.2
  0
LINE
  5
3B9
100
AcDbEntity
  8
0
100
AcDbLine
 62
7
  6
CONTINUOUS
 10
-69.9859304562
 20
-25.05
 11
-69.7859304562
 21
-25.05
  0
LINE
  5
3BA
100
AcDbEntity
  8
RACCORDO
100
AcDbLine
 62
253
  6
CONTINUOUS
 10
-78.119769093
 20
-24.5249712709
 11
-78.1198977312
 21
-24.5249712712
  0
LINE
  5
3BB
100
AcDbEntity
  8
0
100
AcDbLine
 62
7
  6
CONTINUOUS
 10
-69.6254632649
 20
-25.7916264167
 11
-70.1359304562
 21
-25.7690739122
  0
LINE
  5
3BC
100
AcDbEntity
  8
RACCORDO
100
AcDbLine
 62
253
  6
CONTINUOUS
 10
-78.1333759547
 20
-25.2771025565
 11
-78.1939304858
 21
-25.2742516711
  0
LINE
  5
3BD
100
AcDbEntity
  8
RACCORDO
100
AcDbLine
 62
253
  6
CONTINUOUS
 10
-78.1198977312
 20
-24.2847842266
 11
-78.1541650282
 21
-24.2831704168
  0
LINE
  5
3BE
100
AcDbEntity
  8
DRAFT
100
AcDbLine
 62
7
  6
CONTINUOUS
 10
-79.0411639736
 20
-27.0844283799
 11
-78.8292892219
 21
-27.0955322651
  0
LWPOLYLINE
  5
3BF
100
AcDbEntity
  8
RACCORDO
100
AcDbPolyline
 62
253
  6
CONTINUOUS
 90
28
 70
0
 10
-78.1939304855
 20
-25.2742516663
 10
-78.1995098948
 20
-25.2737756085
 10
-78.2050553447
 20
-25.2729891985
 10
-78.2105494194
 20
-25.2718949062
 10
-78.215974864
 20
-25.2704961683
 10
-78.2213146395
 20
-25.2687973777
 10
-78.2265519756
 20
-25.2668038696
 10
-78.2316704241
 20
-25.2645219049
 10
-78.23665391
 20
-25.2619586502
 10
-78.241486782
 20
-25.2591221557
 10
-78.2461538621
 20
-25.2560213297
 10
-78.2506404928
 20
-25.2526659107
 10
-78.2549325834
 20
-25.2490664368
 10
-78.2590166542
 20
-25.2452342123
 10
-78.2628798788
 20
-25.2411812729
 10
-78.2665101242
 20
-25.2369203471
 10
-78.2698959894
 20
-25.2324648168
 10
-78.2730268406
 20
-25.2278286752
 10
-78.2758928452
 20
-25.2230264824
 10
-78.2784850022
 20
-25.2180733202
 10
-78.2807951705
 20
-25.2129847446
 10
-78.282816095
 20
-25.2077767367
 10
-78.2845414287
 20
-25.2024656527
 10
-78.285965753
 20
-25.1970681728
 10
-78.2870845946
 20
-25.1916012481
 10
-78.2878944398
 20
-25.1860820482
 10
-78.2883927451
 20
-25.1805279067
 10
-78.2885779456
 20
-25.1749562668
  0
LINE
  5
3C0
100
AcDbEntity
  8
RACCORDO
100
AcDbLine
 62
253
  6
CONTINUOUS
 10
-78.1541650282
 20
-24.2831704168
 11
-78.248806889
 21
-24.2831704168
  0
LINE
  5
3C1
100
AcDbEntity
  8
RACCORDO
100
AcDbLine
 62
253
  6
CONTINUOUS
 10
-78.3164023759
 20
-23.0764614955
 11
-78.3161722037
 21
-23.0764614955
  0
LINE
  5
3C2
100
AcDbEntity
  8
0
100
AcDbLine
 62
7
  6
CONTINUOUS
 10
-69.7859304562
 20
25.05
 11
-69.6359304562
 21
25.2
  0
LINE
  5
3C3
100
AcDbEntity
  8
0
100
AcDbLine
 62
7
  6
CONTINUOUS
 10
-69.7859304562
 20
-25.05
 11
-69.6359304562
 21
-25.2
  0
LWPOLYLINE
  5
3C4
100
AcDbEntity
  8
RACCORDO
100
AcDbPolyline
 62
253
  6
CONTINUOUS
 90
13
 70
0
 10
-77.5910292684
 20
-46.2886998742
 10
-77.5838440532
 20
-46.4022639297
 10
-77.5624146971
 20
-46.5140117429
 10
-77.5270837891
 20
-46.6221568138
 10
-77.4784161605
 20
-46.7249702387
 10
-77.4171898555
 20
-46.8208083506
 10
-77.3443836923
 20
-46.9081389963
 10
-77.2611616151
 20
-46.98556603
 10
-77.1688540861
 20
-47.0518516342
 10
-77.0689368155
 20
-47.1059361082
 10
-76.9630071699
 20
-47.1469548092
 10
-76.8527586348
 20
-47.1742519757
 10
-76.7399537416
 20
-47.1873912108
  0
LINE
  5
3C5
100
AcDbEntity
  8
RACCORDO
100
AcDbLine
 62
7
  6
CONTINUOUS
 10
-78.3264241377
 20
23.9020649082
 11
-78.3254785076
 21
23.8755973848
  0
LWPOLYLINE
  5
3C6
100
AcDbEntity
  8
RACCORDO
100
AcDbPolyline
 62
253
  6
CONTINUOUS
 90
3
 70
0
 10
-78.325093904
 20
23.8637713178
 10
-78.3251500695
 20
23.8758341544
 10
-78.3263360774
 20
23.9095258502
  0
LINE
  5
3C7
100
AcDbEntity
  8
RACCORDO
100
AcDbLine
 62
253
  6
CONTINUOUS
 10
-78.2568877748
 20
24.7973189187
 11
-78.2546996054
 21
24.7280189688
  0
LINE
  5
3C8
100
AcDbEntity
  8
RACCORDO
100
AcDbLine
 62
7
  6
CONTINUOUS
 10
-78.3254785076
 20
23.8755973848
 11
-78.3244287473
 21
23.8417060866
  0
LINE
  5
3C9
100
AcDbEntity
  8
RACCORDO
100
AcDbLine
 62
253
  6
CONTINUOUS
 10
-78.3244287473
 20
23.8417060866
 11
-78.3243678945
 21
23.8503879097
  0
LINE
  5
3CA
100
AcDbEntity
  8
RACCORDO
100
AcDbLine
 62
253
  6
CONTINUOUS
 10
-78.1631936385
 20
24.829239192
 11
-78.1609852401
 21
24.7507872781
  0
LINE
  5
3CB
100
AcDbEntity
  8
RACCORDO
100
AcDbLine
 62
7
  6
CONTINUOUS
 10
-78.1277107715
 20
25.1123034893
 11
-78.125393054
 21
25.0223625353
  0
LINE
  5
3CC
100
AcDbEntity
  8
RACCORDO
100
AcDbLine
 62
7
  6
CONTINUOUS
 10
-78.3244518802
 20
23.842504725
 11
-78.3231649399
 21
23.793734279
  0
LINE
  5
3CD
100
AcDbEntity
  8
RACCORDO
100
AcDbLine
 62
253
  6
CONTINUOUS
 10
-78.3232056695
 20
23.7954093806
 11
-78.3232089895
 21
23.8073113894
  0
LINE
  5
3CE
100
AcDbEntity
  8
RACCORDO
100
AcDbLine
 62
253
  6
CONTINUOUS
 10
-78.2546996054
 20
24.7280189688
 11
-78.2528346929
 21
24.6549907511
  0
LINE
  5
3CF
100
AcDbEntity
  8
RACCORDO
100
AcDbLine
 62
253
  6
CONTINUOUS
 10
-78.1609852401
 20
24.7507872781
 11
-78.1590490288
 21
24.6684164852
  0
LINE
  5
3D0
100
AcDbEntity
  8
RACCORDO
100
AcDbLine
 62
7
  6
CONTINUOUS
 10
-78.3232056695
 20
23.7954093806
 11
-78.3217516665
 21
23.7288236481
  0
LINE
  5
3D1
100
AcDbEntity
  8
RACCORDO
100
AcDbLine
 62
253
  6
CONTINUOUS
 10
-78.3217516665
 20
23.7288236481
 11
-78.3217077363
 21
23.7401005035
  0
LINE
  5
3D2
100
AcDbEntity
  8
RACCORDO
100
AcDbLine
 62
7
  6
CONTINUOUS
 10
-78.125393054
 20
25.0223625353
 11
-78.123441676
 21
24.9277307545
  0
LINE
  5
3D3
100
AcDbEntity
  8
RACCORDO
100
AcDbLine
 62
253
  6
CONTINUOUS
 10
-78.2528346929
 20
24.6549907511
 11
-78.2513093389
 21
24.5788340962
  0
LINE
  5
3D4
100
AcDbEntity
  8
RACCORDO
100
AcDbLine
 62
253
  6
CONTINUOUS
 10
-78.3206804415
 20
23.669427086
 11
-78.3207469068
 21
23.6734188129
  0
LINE
  5
3D5
100
AcDbEntity
  8
RACCORDO
100
AcDbLine
 62
253
  6
CONTINUOUS
 10
-78.1590490288
 20
24.6684164852
 11
-78.1569196328
 21
24.5536637947
  0
LINE
  5
3D6
100
AcDbEntity
  8
RACCORDO
100
AcDbLine
 62
7
  6
CONTINUOUS
 10
-78.3218085066
 20
23.7317009098
 11
-78.3202551148
 21
23.6427164281
  0
LINE
  5
3D7
100
AcDbEntity
  8
RACCORDO
100
AcDbLine
 62
253
  6
CONTINUOUS
 10
-78.3199947369
 20
23.6253461953
 11
-78.3200658332
 21
23.6301663825
  0
LINE
  5
3D8
100
AcDbEntity
  8
RACCORDO
100
AcDbLine
 62
7
  6
CONTINUOUS
 10
-78.123441676
 20
24.9277307545
 11
-78.1218923945
 21
24.8290823247
  0
LINE
  5
3D9
100
AcDbEntity
  8
RACCORDO
100
AcDbLine
 62
253
  6
CONTINUOUS
 10
-78.2513093389
 20
24.5788340962
 11
-78.2501370072
 21
24.5001727864
  0
LINE
  5
3DA
100
AcDbEntity
  8
RACCORDO
100
AcDbLine
 62
253
  6
CONTINUOUS
 10
-78.3193645213
 20
23.5794463996
 11
-78.3194380431
 21
23.5851258432
  0
LINE
  5
3DB
100
AcDbEntity
  8
RACCORDO
100
AcDbLine
 62
253
  6
CONTINUOUS
 10
-78.122335509
 20
24.8697466698
 11
-78.1218923945
 21
24.8290823247
  0
LWPOLYLINE
  5
3DC
100
AcDbEntity
  8
RACCORDO
100
AcDbPolyline
 62
253
  6
CONTINUOUS
 90
3
 70
0
 10
-78.1212774411
 20
24.7784786411
 10
-78.1209256877
 20
24.7577948016
 10
-78.1207722526
 20
24.7271442109
  0
LINE
  5
3DD
100
AcDbEntity
  8
RACCORDO
100
AcDbLine
 62
253
  6
CONTINUOUS
 10
-78.1569196328
 20
24.5536637947
 11
-78.1553370825
 21
24.4348220511
  0
LINE
  5
3DE
100
AcDbEntity
  8
RACCORDO
100
AcDbLine
 62
7
  6
CONTINUOUS
 10
-78.3202821912
 20
23.6444736063
 11
-78.3187135353
 21
23.5249121838
  0
LINE
  5
3DF
100
AcDbEntity
  8
RACCORDO
100
AcDbLine
 62
253
  6
CONTINUOUS
 10
-78.3187135353
 20
23.5249121838
 11
-78.3187041729
 21
23.5454707326
  0
LINE
  5
3E0
100
AcDbEntity
  8
RACCORDO
100
AcDbLine
 62
7
  6
CONTINUOUS
 10
-78.1218923945
 20
24.8290823247
 11
-78.1207722526
 21
24.7271442109
  0
LINE
  5
3E1
100
AcDbEntity
  8
RACCORDO
100
AcDbLine
 62
253
  6
CONTINUOUS
 10
-78.2501370072
 20
24.5001727864
 11
-78.2493282391
 21
24.4196530792
  0
LINE
  5
3E2
100
AcDbEntity
  8
RACCORDO
100
AcDbLine
 62
253
  6
CONTINUOUS
 10
-78.3177551378
 20
23.4241395696
 11
-78.3176124702
 21
23.4357008036
  0
LINE
  5
3E3
100
AcDbEntity
  8
RACCORDO
100
AcDbLine
 62
253
  6
CONTINUOUS
 10
-78.3174840753
 20
23.3884986429
 11
-78.3175243896
 21
23.394085365
  0
LINE
  5
3E4
100
AcDbEntity
  8
RACCORDO
100
AcDbLine
 62
7
  6
CONTINUOUS
 10
-78.3187135353
 20
23.5249121838
 11
-78.3173128937
 21
23.363463556
  0
LWPOLYLINE
  5
3E5
100
AcDbEntity
  8
RACCORDO
100
AcDbPolyline
 62
253
  6
CONTINUOUS
 90
3
 70
0
 10
-78.1553370825
 20
24.4348220511
 10
-78.1543264849
 20
24.313626581
 10
-78.1541650202
 20
24.2831704168
  0
LINE
  5
3E6
100
AcDbEntity
  8
RACCORDO
100
AcDbLine
 62
253
  6
CONTINUOUS
 10
-78.3173792109
 20
23.3734344936
 11
-78.3171504595
 21
23.3742641661
  0
LINE
  5
3E7
100
AcDbEntity
  8
RACCORDO
100
AcDbLine
 62
253
  6
CONTINUOUS
 10
-78.317094576
 20
23.3274104766
 11
-78.3169431517
 21
23.3418022403
  0
LINE
  5
3E8
100
AcDbEntity
  8
RACCORDO
100
AcDbLine
 62
7
  6
CONTINUOUS
 10
-78.1207722526
 20
24.7271442109
 11
-78.1200979494
 21
24.6226690059
  0
LINE
  5
3E9
100
AcDbEntity
  8
RACCORDO
100
AcDbLine
 62
253
  6
CONTINUOUS
 10
-78.3167691736
 20
23.2599759177
 11
-78.3165919925
 21
23.2729608142
  0
LINE
  5
3EA
100
AcDbEntity
  8
RACCORDO
100
AcDbLine
 62
253
  6
CONTINUOUS
 10
-78.2493282391
 20
24.4196530792
 11
-78.2488905446
 21
24.3379782122
  0
LINE
  5
3EB
100
AcDbEntity
  8
RACCORDO
100
AcDbLine
 62
7
  6
CONTINUOUS
 10
-78.3173792109
 20
23.3734344936
 11
-78.3165727973
 21
23.2017036215
  0
LINE
  5
3EC
100
AcDbEntity
  8
RACCORDO
100
AcDbLine
 62
253
  6
CONTINUOUS
 10
-78.1200699564
 20
24.6428696686
 11
-78.1200979494
 21
24.6226690059
  0
LINE
  5
3ED
100
AcDbEntity
  8
RACCORDO
100
AcDbLine
 62
253
  6
CONTINUOUS
 10
-78.3164482074
 20
23.1416190829
 11
-78.3162505469
 21
23.1594370843
  0
LINE
  5
3EE
100
AcDbEntity
  8
0
100
AcDbLine
 62
7
  6
CONTINUOUS
 10
-79.1359304562
 20
26.9762109387
 11
-79.1359304562
 21
25.7355318149
  0
LINE
  5
3EF
100
AcDbEntity
  8
0
100
AcDbLine
 62
7
  6
CONTINUOUS
 10
-79.1359304562
 20
-25.7355318149
 11
-79.1359304562
 21
-26.9762109338
  0
LINE
  5
3F0
100
AcDbEntity
  8
0
100
AcDbLine
 62
7
  6
CONTINUOUS
 10
-79.0359304562
 20
46.2891025352
 11
-79.0359304562
 21
27.5578377428
  0
LINE
  5
3F1
100
AcDbEntity
  8
0
100
AcDbLine
 62
7
  6
CONTINUOUS
 10
-79.0359304562
 20
-27.5578003143
 11
-79.0359304562
 21
-46.2891025352
  0
LINE
  5
3F2
100
AcDbEntity
  8
RACCORDO
100
AcDbLine
 62
253
  6
CONTINUOUS
 10
-78.2488905446
 20
24.3379782122
 11
-78.248806889
 21
-24.2831704168
  0
LINE
  5
3F3
100
AcDbEntity
  8
RACCORDO
100
AcDbLine
 62
253
  6
CONTINUOUS
 10
-78.1541650282
 20
24.2831704168
 11
-78.1541650282
 21
-24.2831704168
  0
LINE
  5
3F4
100
AcDbEntity
  8
RACCORDO
100
AcDbLine
 62
7
  6
CONTINUOUS
 10
-78.1200979494
 20
24.6226690059
 11
-78.1198977312
 21
-24.5249712714
  0
LINE
  5
3F5
100
AcDbEntity
  8
RACCORDO
100
AcDbLine
 62
253
  6
CONTINUOUS
 10
-77.5265326228
 20
-45.2934404953
 11
-77.5265326228
 21
45.2934404953
  0
LINE
  5
3F6
100
AcDbEntity
  8
RACCORDO
100
AcDbLine
 62
253
  6
CONTINUOUS
 10
-78.3164187367
 20
-23.1152137964
 11
-78.3161722037
 21
-23.0764614955
  0
LINE
  5
3F7
100
AcDbEntity
  8
RACCORDO
100
AcDbLine
 62
253
  6
CONTINUOUS
 10
-78.316454551
 20
-23.1459246374
 11
-78.3161967878
 21
-23.118672355
  0
LINE
  5
3F8
100
AcDbEntity
  8
RACCORDO
100
AcDbLine
 62
7
  6
CONTINUOUS
 10
-78.3165869361
 20
23.2068100056
 11
-78.3164556897
 21
-23.1466730172
  0
LINE
  5
3F9
100
AcDbEntity
  8
RACCORDO
100
AcDbLine
 62
7
  6
CONTINUOUS
 10
-78.1198947593
 20
-24.5249712715
 11
-78.1201307962
 21
-24.6295232308
  0
LINE
  5
3FA
100
AcDbEntity
  8
RACCORDO
100
AcDbLine
 62
253
  6
CONTINUOUS
 10
-78.248806889
 20
-24.2831704168
 11
-78.2489947489
 21
-24.365264277
  0
LINE
  5
3FB
100
AcDbEntity
  8
RACCORDO
100
AcDbLine
 62
7
  6
CONTINUOUS
 10
-78.316454551
 20
-23.1459246374
 11
-78.3167863439
 21
-23.2641545518
  0
LINE
  5
3FC
100
AcDbEntity
  8
RACCORDO
100
AcDbLine
 62
7
  6
CONTINUOUS
 10
-78.316786315
 20
-23.2641475972
 11
-78.3177867833
 21
-23.4280457739
  0
LINE
  5
3FD
100
AcDbEntity
  8
RACCORDO
100
AcDbLine
 62
7
  6
CONTINUOUS
 10
-78.1201307962
 20
-24.6295232308
 11
-78.1209075726
 21
-24.7422772075
  0
LINE
  5
3FE
100
AcDbEntity
  8
RACCORDO
100
AcDbLine
 62
253
  6
CONTINUOUS
 10
-78.2489947489
 20
-24.365264277
 11
-78.2495567717
 21
-24.4466511394
  0
LINE
  5
3FF
100
AcDbEntity
  8
RACCORDO
100
AcDbLine
 62
253
  6
CONTINUOUS
 10
-78.1541650202
 20
-24.2831704168
 11
-78.1550299609
 21
-24.4046774154
  0
LINE
  5
400
100
AcDbEntity
  8
RACCORDO
100
AcDbLine
 62
253
  6
CONTINUOUS
 10
-78.3185413382
 20
-23.5089146428
 11
-78.3184915521
 21
-23.5041436307
  0
LINE
  5
401
100
AcDbEntity
  8
RACCORDO
100
AcDbLine
 62
253
  6
CONTINUOUS
 10
-78.3190336045
 20
-23.5527667242
 11
-78.3187041729
 21
-23.5454707326
  0
LINE
  5
402
100
AcDbEntity
  8
RACCORDO
100
AcDbLine
 62
7
  6
CONTINUOUS
 10
-78.3177789621
 20
-23.4270873189
 11
-78.3192517139
 21
-23.5705708415
  0
LINE
  5
403
100
AcDbEntity
  8
RACCORDO
100
AcDbLine
 62
253
  6
CONTINUOUS
 10
-78.31932613
 20
-23.5764535914
 11
-78.3190049126
 21
-23.5704649105
  0
LINE
  5
404
100
AcDbEntity
  8
RACCORDO
100
AcDbLine
 62
253
  6
CONTINUOUS
 10
-78.2495567717
 20
-24.4466511394
 11
-78.2504876785
 21
-24.5266244328
  0
LINE
  5
405
100
AcDbEntity
  8
RACCORDO
100
AcDbLine
 62
7
  6
CONTINUOUS
 10
-78.1209075726
 20
-24.7422772075
 11
-78.122206657
 21
-24.8517309052
  0
LINE
  5
406
100
AcDbEntity
  8
RACCORDO
100
AcDbLine
 62
253
  6
CONTINUOUS
 10
-78.1550299609
 20
-24.4046774154
 11
-78.156471603
 21
-24.5242689371
  0
LINE
  5
407
100
AcDbEntity
  8
RACCORDO
100
AcDbLine
 62
253
  6
CONTINUOUS
 10
-78.3199543393
 20
-23.6225718249
 11
-78.319634553
 21
-23.6177128582
  0
LINE
  5
408
100
AcDbEntity
  8
RACCORDO
100
AcDbLine
 62
253
  6
CONTINUOUS
 10
-78.3202897706
 20
-23.6449691162
 11
-78.3199619111
 21
-23.6400596791
  0
LINE
  5
409
100
AcDbEntity
  8
RACCORDO
100
AcDbLine
 62
7
  6
CONTINUOUS
 10
-78.3192303413
 20
-23.5688637588
 11
-78.3208181945
 21
-23.6776484823
  0
LINE
  5
40A
100
AcDbEntity
  8
RACCORDO
100
AcDbLine
 62
253
  6
CONTINUOUS
 10
-78.3209622948
 20
-23.6860454253
 11
-78.3206393315
 21
-23.6823004408
  0
LINE
  5
40B
100
AcDbEntity
  8
RACCORDO
100
AcDbLine
 62
253
  6
CONTINUOUS
 10
-78.2504876785
 20
-24.5266244328
 11
-78.2517789719
 21
-24.6045219173
  0
LINE
  5
40C
100
AcDbEntity
  8
RACCORDO
100
AcDbLine
 62
7
  6
CONTINUOUS
 10
-78.122206657
 20
-24.8517309052
 11
-78.1239932613
 21
-24.9568887053
  0
LINE
  5
40D
100
AcDbEntity
  8
RACCORDO
100
AcDbLine
 62
253
  6
CONTINUOUS
 10
-78.3213337521
 20
-23.7068307509
 11
-78.3209886301
 21
-23.7022824091
  0
LINE
  5
40E
100
AcDbEntity
  8
RACCORDO
100
AcDbLine
 62
253
  6
CONTINUOUS
 10
-78.156471603
 20
-24.5242689371
 11
-78.1584671007
 21
-24.6402045393
  0
LINE
  5
40F
100
AcDbEntity
  8
RACCORDO
100
AcDbLine
 62
7
  6
CONTINUOUS
 10
-78.3207810454
 20
-23.6754508352
 11
-78.3223141031
 21
-23.7562512671
  0
LINE
  5
410
100
AcDbEntity
  8
RACCORDO
100
AcDbLine
 62
253
  6
CONTINUOUS
 10
-78.1584671007
 20
-24.6402045393
 11
-78.1603087055
 21
-24.7237327977
  0
LINE
  5
411
100
AcDbEntity
  8
RACCORDO
100
AcDbLine
 62
253
  6
CONTINUOUS
 10
-78.2517789719
 20
-24.6045219173
 11
-78.2534191162
 21
-24.6797042112
  0
LWPOLYLINE
  5
412
100
AcDbEntity
  8
RACCORDO
100
AcDbPolyline
 62
7
  6
CONTINUOUS
 90
3
 70
0
 10
-78.1239932613
 20
-24.9568887053
 10
-78.1262212014
 20
-25.0567912792
 10
-78.1274881492
 20
-25.1045079484
  0
LINE
  5
413
100
AcDbEntity
  8
RACCORDO
100
AcDbLine
 62
7
  6
CONTINUOUS
 10
-78.3222644489
 20
-23.7539177941
 11
-78.3236411443
 21
-23.8128129195
  0
LWPOLYLINE
  5
414
100
AcDbEntity
  8
RACCORDO
100
AcDbPolyline
 62
253
  6
CONTINUOUS
 90
3
 70
0
 10
-78.1603087055
 20
-24.7237327977
 10
-78.1624283861
 20
-24.8035644316
 10
-78.1631936384
 20
-24.8292391912
  0
LINE
  5
415
100
AcDbEntity
  8
RACCORDO
100
AcDbLine
 62
253
  6
CONTINUOUS
 10
-78.2534191162
 20
-24.6797042112
 11
-78.2553936996
 21
-24.7515554889
  0
LINE
  5
416
100
AcDbEntity
  8
RACCORDO
100
AcDbLine
 62
7
  6
CONTINUOUS
 10
-78.3235764847
 20
-23.8102928514
 11
-78.3247710346
 21
-23.8533128404
  0
LINE
  5
417
100
AcDbEntity
  8
RACCORDO
100
AcDbLine
 62
253
  6
CONTINUOUS
 10
-78.2553936996
 20
-24.7515554889
 11
-78.2568877748
 21
-24.7973189187
  0
LINE
  5
418
100
AcDbEntity
  8
RACCORDO
100
AcDbLine
 62
7
  6
CONTINUOUS
 10
-78.3246963677
 20
-23.8508255664
 11
-78.3257572433
 21
-23.8837714434
  0
LWPOLYLINE
  5
419
100
AcDbEntity
  8
RACCORDO
100
AcDbPolyline
 62
253
  6
CONTINUOUS
 90
3
 70
0
 10
-78.3263360774
 20
-23.9095258502
 10
-78.3259390854
 20
-23.8988799116
 10
-78.3259996369
 20
-23.8906317655
  0
LINE
  5
41A
100
AcDbEntity
  8
RACCORDO
100
AcDbLine
 62
7
  6
CONTINUOUS
 10
-78.3257188226
 20
-23.8826625314
 11
-78.3264921757
 21
-23.9038232951
  0
LWPOLYLINE
  5
41B
100
AcDbEntity
  8
RACCORDO
100
AcDbPolyline
 62
253
  6
CONTINUOUS
 90
13
 70
0
 10
-77.5910293175
 20
46.2886998742
 10
-77.5838492495
 20
46.4022709435
 10
-77.562424113
 20
46.5140262569
 10
-77.5270964499
 20
46.6221790886
 10
-77.4784310729
 20
46.7250003084
 10
-77.4172060364
 20
46.8208460275
 10
-77.3444001962
 20
46.90818388
 10
-77.2611775603
 20
46.9856175225
 10
-77.1688686788
 20
47.0519089583
 10
-77.0689493708
 20
47.1059983308
 10
-76.9630171302
 20
47.1470208677
 10
-76.8527655845
 20
47.1743207072
 10
-76.7399574175
 20
47.187461384
  0
LINE
  5
41C
100
AcDbEntity
  8
RACCORDO
100
AcDbLine
 62
7
  6
CONTINUOUS
 10
-78.3307861426
 20
23.9806679399
 11
-78.3307338163
 21
23.9801804785
  0
LINE
  5
41D
100
AcDbEntity
  8
RACCORDO
100
AcDbLine
 62
7
  6
CONTINUOUS
 10
-78.3307338163
 20
23.9801804785
 11
-78.3305925414
 21
23.9787697386
  0
LWPOLYLINE
  5
41E
100
AcDbEntity
  8
RACCORDO
100
AcDbPolyline
 62
7
  6
CONTINUOUS
 90
3
 70
0
 10
-78.1529279308
 20
25.5902932944
 10
-78.1510298548
 20
25.5705020775
 10
-78.1491343851
 20
25.5489231003
  0
LINE
  5
41F
100
AcDbEntity
  8
RACCORDO
100
AcDbLine
 62
7
  6
CONTINUOUS
 10
-78.3305925414
 20
23.9787697386
 11
-78.3304105819
 21
23.9767915742
  0
LINE
  5
420
100
AcDbEntity
  8
RACCORDO
100
AcDbLine
 62
7
  6
CONTINUOUS
 10
-78.3304105819
 20
23.9767915742
 11
-78.3301988202
 21
23.9742949204
  0
LWPOLYLINE
  5
421
100
AcDbEntity
  8
RACCORDO
100
AcDbPolyline
 62
253
  6
CONTINUOUS
 90
4
 70
0
 10
-78.1735052571
 20
25.7188063828
 10
-78.1720886414
 20
25.7015725245
 10
-78.1676929164
 20
25.6848592176
 10
-78.16421511
 20
25.6764243816
  0
LWPOLYLINE
  5
422
100
AcDbEntity
  8
RACCORDO
100
AcDbPolyline
 62
253
  6
CONTINUOUS
 90
3
 70
0
 10
-78.1514294843
 20
25.5805654453
 10
-78.1463785384
 20
25.5191971108
 10
-78.1453797235
 20
25.5003813136
  0
LWPOLYLINE
  5
423
100
AcDbEntity
  8
RACCORDO
100
AcDbPolyline
 62
7
  6
CONTINUOUS
 90
6
 70
0
 10
-78.1491343851
 20
25.5489231003
 10
-78.1472473986
 20
25.5255334645
 10
-78.1453797235
 20
25.5003813136
 10
-78.1435378059
 20
25.4734751033
 10
-78.1417266498
 20
25.4448107695
 10
-78.1399529023
 20
25.4144207535
  0
LINE
  5
424
100
AcDbEntity
  8
RACCORDO
100
AcDbLine
 62
7
  6
CONTINUOUS
 10
-78.3301988202
 20
23.9742949204
 11
-78.3299649166
 21
23.9713225119
  0
LINE
  5
425
100
AcDbEntity
  8
RACCORDO
100
AcDbLine
 62
7
  6
CONTINUOUS
 10
-78.3299649166
 20
23.9713225119
 11
-78.3297145855
 21
23.9679101055
  0
LINE
  5
426
100
AcDbEntity
  8
RACCORDO
100
AcDbLine
 62
7
  6
CONTINUOUS
 10
-78.3297145855
 20
23.9679101055
 11
-78.329454771
 21
23.9641201926
  0
LWPOLYLINE
  5
427
100
AcDbEntity
  8
RACCORDO
100
AcDbPolyline
 62
253
  6
CONTINUOUS
 90
3
 70
0
 10
-78.1435378059
 20
25.4734751033
 10
-78.1416800084
 20
25.4490554068
 10
-78.1417266498
 20
25.4448107695
  0
LWPOLYLINE
  5
428
100
AcDbEntity
  8
RACCORDO
100
AcDbPolyline
 62
253
  6
CONTINUOUS
 90
15
 70
0
 10
-78.3294865264
 20
23.9746004662
 10
-78.3298718722
 20
23.980376452
 10
-78.3302534441
 20
23.985683892
 10
-78.330631543
 20
23.990522524
 10
-78.3310058731
 20
23.9948926102
 10
-78.3313741386
 20
23.9988305656
 10
-78.3317362864
 20
24.002330603
 10
-78.3320923776
 20
24.0053985095
 10
-78.3324402908
 20
24.0080880611
 10
-78.3327793748
 20
24.0103937151
 10
-78.3331102914
 20
24.0123210141
 10
-78.3334328901
 20
24.0139403624
 10
-78.3337471241
 20
24.015275228
 10
-78.33405305
 20
24.0163021428
 10
-78.3343506725
 20
24.0170211068
  0
LINE
  5
429
100
AcDbEntity
  8
RACCORDO
100
AcDbLine
 62
253
  6
CONTINUOUS
 10
-78.1775758925
 20
25.1414212158
 11
-78.1753986662
 21
25.1089037843
  0
LINE
  5
42A
100
AcDbEntity
  8
RACCORDO
100
AcDbLine
 62
253
  6
CONTINUOUS
 10
-78.2673419165
 20
25.0106406151
 11
-78.2651890746
 21
24.9772996666
  0
LINE
  5
42B
100
AcDbEntity
  8
RACCORDO
100
AcDbLine
 62
7
  6
CONTINUOUS
 10
-78.329454771
 20
23.9641201926
 11
-78.329049329
 21
23.9577138736
  0
LINE
  5
42C
100
AcDbEntity
  8
RACCORDO
100
AcDbLine
 62
253
  6
CONTINUOUS
 10
-78.1753986662
 20
25.1089037843
 11
-78.1732872501
 21
25.0733182576
  0
LINE
  5
42D
100
AcDbEntity
  8
RACCORDO
100
AcDbLine
 62
253
  6
CONTINUOUS
 10
-78.3287089078
 20
23.9615381547
 11
-78.3294865264
 21
23.9746004662
  0
LINE
  5
42E
100
AcDbEntity
  8
RACCORDO
100
AcDbLine
 62
7
  6
CONTINUOUS
 10
-78.329049329
 20
23.9577138736
 11
-78.3286335193
 21
23.9505522628
  0
LINE
  5
42F
100
AcDbEntity
  8
RACCORDO
100
AcDbLine
 62
253
  6
CONTINUOUS
 10
-78.2651890746
 20
24.9772996666
 11
-78.2631386763
 21
24.9413647599
  0
LINE
  5
430
100
AcDbEntity
  8
RACCORDO
100
AcDbLine
 62
253
  6
CONTINUOUS
 10
-78.1399529023
 20
25.4144207535
 11
-78.1373488879
 21
25.3699076092
  0
LWPOLYLINE
  5
431
100
AcDbEntity
  8
RACCORDO
100
AcDbPolyline
 62
253
  6
CONTINUOUS
 90
5
 70
0
 10
-76.731149661
 20
47.0714094893
 10
-76.7338618343
 20
47.1215068439
 10
-76.736315216
 20
47.1577054487
 10
-76.7383757145
 20
47.1796924759
 10
-76.739953741
 20
47.1873911997
  0
LINE
  5
432
100
AcDbEntity
  8
RACCORDO
100
AcDbLine
 62
253
  6
CONTINUOUS
 10
-78.3279228289
 20
23.9464191604
 11
-78.3287089078
 21
23.9615381547
  0
LINE
  5
433
100
AcDbEntity
  8
RACCORDO
100
AcDbLine
 62
253
  6
CONTINUOUS
 10
-78.1732872501
 20
25.0733182576
 11
-78.1712495272
 21
25.0347985346
  0
LINE
  5
434
100
AcDbEntity
  8
RACCORDO
100
AcDbLine
 62
7
  6
CONTINUOUS
 10
-78.3286752141
 20
23.9512994203
 11
-78.3281080807
 21
23.9406127249
  0
LINE
  5
435
100
AcDbEntity
  8
RACCORDO
100
AcDbLine
 62
7
  6
CONTINUOUS
 10
-78.1399529023
 20
25.4144207535
 11
-78.1365347554
 21
25.3485012679
  0
LINE
  5
436
100
AcDbEntity
  8
RACCORDO
100
AcDbLine
 62
253
  6
CONTINUOUS
 10
-78.2631386763
 20
24.9413647599
 11
-78.2611996802
 21
24.9029829947
  0
LINE
  5
437
100
AcDbEntity
  8
RACCORDO
100
AcDbLine
 62
7
  6
CONTINUOUS
 10
-78.3282144112
 20
23.9427050706
 11
-78.3276534375
 21
23.9312350495
  0
LINE
  5
438
100
AcDbEntity
  8
RACCORDO
100
AcDbLine
 62
253
  6
CONTINUOUS
 10
-78.1712495272
 20
25.0347985346
 11
-78.169293187
 21
24.9934888913
  0
LINE
  5
439
100
AcDbEntity
  8
RACCORDO
100
AcDbLine
 62
253
  6
CONTINUOUS
 10
-78.1373488879
 20
25.3699076092
 11
-78.1365347554
 21
25.3485012679
  0
LINE
  5
43A
100
AcDbEntity
  8
RACCORDO
100
AcDbLine
 62
253
  6
CONTINUOUS
 10
-78.3271301658
 20
23.9291030269
 11
-78.3279228289
 21
23.9464191604
  0
LINE
  5
43B
100
AcDbEntity
  8
RACCORDO
100
AcDbLine
 62
253
  6
CONTINUOUS
 10
-78.2611996802
 20
24.9029829947
 11
-78.2593801788
 21
24.862318675
  0
LINE
  5
43C
100
AcDbEntity
  8
RACCORDO
100
AcDbLine
 62
253
  6
CONTINUOUS
 10
-76.7249359028
 20
46.9313090293
 11
-76.731149661
 21
47.0714094893
  0
LINE
  5
43D
100
AcDbEntity
  8
RACCORDO
100
AcDbLine
 62
7
  6
CONTINUOUS
 10
-78.1365347554
 20
25.3485012679
 11
-78.1333221757
 21
25.2759068144
  0
LINE
  5
43E
100
AcDbEntity
  8
RACCORDO
100
AcDbLine
 62
7
  6
CONTINUOUS
 10
-78.327681128
 20
23.9318306431
 11
-78.326961373
 21
23.9155005257
  0
LINE
  5
43F
100
AcDbEntity
  8
RACCORDO
100
AcDbLine
 62
253
  6
CONTINUOUS
 10
-78.169293187
 20
24.9934888913
 11
-78.167426026
 21
24.949543924
  0
LINE
  5
440
100
AcDbEntity
  8
RACCORDO
100
AcDbLine
 62
253
  6
CONTINUOUS
 10
-78.3263360774
 20
23.9095258502
 11
-78.3271301658
 21
23.9291030269
  0
LINE
  5
441
100
AcDbEntity
  8
RACCORDO
100
AcDbLine
 62
7
  6
CONTINUOUS
 10
-78.3271179401
 20
23.9192147548
 11
-78.3264159746
 21
23.9018487924
  0
LWPOLYLINE
  5
442
100
AcDbEntity
  8
RACCORDO
100
AcDbPolyline
 62
253
  6
CONTINUOUS
 90
3
 70
0
 10
-78.2593801788
 20
24.862318675
 10
-78.2576854954
 20
24.8194845456
 10
-78.2568877748
 20
24.7973189187
  0
LINE
  5
443
100
AcDbEntity
  8
RACCORDO
100
AcDbLine
 62
253
  6
CONTINUOUS
 10
-78.1333757963
 20
25.281986442
 11
-78.1333221757
 21
25.2759068144
  0
LINE
  5
444
100
AcDbEntity
  8
RACCORDO
100
AcDbLine
 62
253
  6
CONTINUOUS
 10
-78.1303648903
 20
25.1969901823
 11
-78.1298741723
 21
25.1877626864
  0
LINE
  5
445
100
AcDbEntity
  8
RACCORDO
100
AcDbLine
 62
253
  6
CONTINUOUS
 10
-76.717714251
 20
46.741635149
 11
-76.7249359028
 21
46.9313090293
  0
LINE
  5
446
100
AcDbEntity
  8
RACCORDO
100
AcDbLine
 62
7
  6
CONTINUOUS
 10
-78.1333221757
 20
25.2759068144
 11
-78.1303648903
 21
25.1969901823
  0
LINE
  5
447
100
AcDbEntity
  8
RACCORDO
100
AcDbLine
 62
253
  6
CONTINUOUS
 10
-78.167426026
 20
24.949543924
 11
-78.1648077078
 21
24.8790427072
  0
LINE
  5
448
100
AcDbEntity
  8
RACCORDO
100
AcDbLine
 62
253
  6
CONTINUOUS
 10
-76.7097109706
 20
46.5080874609
 11
-76.717714251
 21
46.741635149
  0
LINE
  5
449
100
AcDbEntity
  8
RACCORDO
100
AcDbLine
 62
253
  6
CONTINUOUS
 10
-78.1648077078
 20
24.8790427072
 11
-78.1631936385
 21
24.829239192
  0
LINE
  5
44A
100
AcDbEntity
  8
RACCORDO
100
AcDbLine
 62
7
  6
CONTINUOUS
 10
-78.1303648903
 20
25.1969901823
 11
-78.1277107715
 21
25.1123034893
  0
LINE
  5
44B
100
AcDbEntity
  8
RACCORDO
100
AcDbLine
 62
253
  6
CONTINUOUS
 10
-78.1277107715
 20
25.1123034893
 11
-78.1268598384
 21
25.0869501614
  0
LINE
  5
44C
100
AcDbEntity
  8
RACCORDO
100
AcDbLine
 62
253
  6
CONTINUOUS
 10
-76.6969274398
 20
46.0919496389
 11
-76.7097109706
 21
46.5080874609
  0
LINE
  5
44D
100
AcDbEntity
  8
RACCORDO
100
AcDbLine
 62
253
  6
CONTINUOUS
 10
-76.683941465
 20
45.6225472095
 11
-76.6969274398
 21
46.0919496389
  0
LINE
  5
44E
100
AcDbEntity
  8
RACCORDO
100
AcDbLine
 62
253
  6
CONTINUOUS
 10
-76.6755374816
 20
45.2934404927
 11
-76.683941465
 21
45.6225472095
  0
LWPOLYLINE
  5
44F
100
AcDbEntity
  8
RACCORDO
100
AcDbPolyline
 62
253
  6
CONTINUOUS
 90
19
 70
0
 10
-77.5265326228
 20
45.2934404953
 10
-77.5267897297
 20
45.3808549786
 10
-77.5275210947
 20
45.4663946736
 10
-77.5287263733
 20
45.5500595805
 10
-77.5304187317
 20
45.6324394857
 10
-77.5325836248
 20
45.7129446027
 10
-77.5351788944
 20
45.7898055716
 10
-77.5382158132
 20
45.8630000289
 10
-77.5416806563
 20
45.9325503381
 10
-77.5454938495
 20
45.9967542294
 10
-77.5496628369
 20
46.0554577307
 10
-77.5541773232
 20
46.1088148142
 10
-77.5589316823
 20
46.1555851259
 10
-77.5639345712
 20
46.1956035189
 10
-77.5691748579
 20
46.2290351403
 10
-77.5745183234
 20
46.2551350777
 10
-77.5799201315
 20
46.2736550271
 10
-77.5854240412
 20
46.2848432926
 10
-77.5910294157
 20
46.2886998742
  0
LINE
  5
450
100
AcDbEntity
  8
RACCORDO
100
AcDbLine
 62
253
  6
CONTINUOUS
 10
-76.6755423944
 20
-45.2934404953
 11
-76.6755423944
 21
45.2934404953
  0
LINE
  5
451
100
AcDbEntity
  8
RACCORDO
100
AcDbLine
 62
253
  6
CONTINUOUS
 10
-76.6882473259
 20
-45.7834987569
 11
-76.6755374809
 21
-45.2934404926
  0
LINE
  5
452
100
AcDbEntity
  8
RACCORDO
100
AcDbLine
 62
253
  6
CONTINUOUS
 10
-76.7012604288
 20
-46.2378034127
 11
-76.6882473259
 21
-45.7834987569
  0
LINE
  5
453
100
AcDbEntity
  8
RACCORDO
100
AcDbLine
 62
253
  6
CONTINUOUS
 10
-78.1269135662
 20
-25.0890472506
 11
-78.1274881492
 21
-25.1045079484
  0
LINE
  5
454
100
AcDbEntity
  8
RACCORDO
100
AcDbLine
 62
253
  6
CONTINUOUS
 10
-76.7097109899
 20
-46.5080879192
 11
-76.7012604288
 21
-46.2378034127
  0
LINE
  5
455
100
AcDbEntity
  8
RACCORDO
100
AcDbLine
 62
7
  6
CONTINUOUS
 10
-78.1274881492
 20
-25.1045079484
 11
-78.130300466
 21
-25.195072219
  0
LINE
  5
456
100
AcDbEntity
  8
RACCORDO
100
AcDbLine
 62
253
  6
CONTINUOUS
 10
-78.1631936384
 20
-24.8292391912
 11
-78.1656550321
 21
-24.9031259046
  0
LINE
  5
457
100
AcDbEntity
  8
RACCORDO
100
AcDbLine
 62
253
  6
CONTINUOUS
 10
-76.7214116162
 20
-46.8423208581
 11
-76.7097109899
 21
-46.5080879192
  0
LINE
  5
458
100
AcDbEntity
  8
RACCORDO
100
AcDbLine
 62
253
  6
CONTINUOUS
 10
-78.1299378204
 20
-25.1896784482
 11
-78.130300466
 21
-25.195072219
  0
LINE
  5
459
100
AcDbEntity
  8
RACCORDO
100
AcDbLine
 62
253
  6
CONTINUOUS
 10
-78.1334336764
 20
-25.2785731857
 11
-78.1334487634
 21
-25.2837717217
  0
LINE
  5
45A
100
AcDbEntity
  8
RACCORDO
100
AcDbLine
 62
253
  6
CONTINUOUS
 10
-78.2568877748
 20
-24.7973189187
 11
-78.2585163427
 21
-24.8411507038
  0
LINE
  5
45B
100
AcDbEntity
  8
RACCORDO
100
AcDbLine
 62
7
  6
CONTINUOUS
 10
-78.130300466
 20
-25.195072219
 11
-78.1334336764
 21
-25.2785731857
  0
LINE
  5
45C
100
AcDbEntity
  8
RACCORDO
100
AcDbLine
 62
253
  6
CONTINUOUS
 10
-78.1656550321
 20
-24.9031259046
 11
-78.1683480857
 21
-24.9718360515
  0
LINE
  5
45D
100
AcDbEntity
  8
RACCORDO
100
AcDbLine
 62
253
  6
CONTINUOUS
 10
-78.3271301658
 20
-23.9291030269
 11
-78.3263360774
 21
-23.9095258502
  0
LINE
  5
45E
100
AcDbEntity
  8
RACCORDO
100
AcDbLine
 62
7
  6
CONTINUOUS
 10
-78.3264554461
 20
-23.9028744396
 11
-78.3272503918
 21
-23.9222935119
  0
LINE
  5
45F
100
AcDbEntity
  8
RACCORDO
100
AcDbLine
 62
253
  6
CONTINUOUS
 10
-78.2585163427
 20
-24.8411507038
 11
-78.2602746123
 21
-24.8829299202
  0
LINE
  5
460
100
AcDbEntity
  8
RACCORDO
100
AcDbLine
 62
253
  6
CONTINUOUS
 10
-78.1368245342
 20
-25.3545429326
 11
-78.1374305356
 21
-25.3715372192
  0
LINE
  5
461
100
AcDbEntity
  8
RACCORDO
100
AcDbLine
 62
253
  6
CONTINUOUS
 10
-78.1683480857
 20
-24.9718360515
 11
-78.1702606935
 21
-25.0144831128
  0
LWPOLYLINE
  5
462
100
AcDbEntity
  8
RACCORDO
100
AcDbPolyline
 62
7
  6
CONTINUOUS
 90
3
 70
0
 10
-78.1334336764
 20
-25.2785731857
 10
-78.1368245342
 20
-25.3545429326
 10
-78.1385989516
 20
-25.3895864619
  0
LINE
  5
463
100
AcDbEntity
  8
RACCORDO
100
AcDbLine
 62
253
  6
CONTINUOUS
 10
-78.3279228289
 20
-23.9464191604
 11
-78.3271301658
 21
-23.9291030269
  0
LINE
  5
464
100
AcDbEntity
  8
RACCORDO
100
AcDbLine
 62
7
  6
CONTINUOUS
 10
-78.3272163065
 20
-23.9215085525
 11
-78.3278973976
 21
-23.9363564708
  0
LINE
  5
465
100
AcDbEntity
  8
RACCORDO
100
AcDbLine
 62
253
  6
CONTINUOUS
 10
-78.2602746123
 20
-24.8829299202
 11
-78.2621552488
 21
-24.9224793431
  0
LINE
  5
466
100
AcDbEntity
  8
RACCORDO
100
AcDbLine
 62
253
  6
CONTINUOUS
 10
-78.1702606935
 20
-25.0144831128
 11
-78.1722585963
 21
-25.0544161694
  0
LINE
  5
467
100
AcDbEntity
  8
RACCORDO
100
AcDbLine
 62
7
  6
CONTINUOUS
 10
-78.3278664733
 20
-23.9357187124
 11
-78.3284217919
 21
-23.9466682642
  0
LINE
  5
468
100
AcDbEntity
  8
RACCORDO
100
AcDbLine
 62
253
  6
CONTINUOUS
 10
-78.3287089078
 20
-23.9615381546
 11
-78.3279228289
 21
-23.9464191604
  0
LWPOLYLINE
  5
469
100
AcDbEntity
  8
RACCORDO
100
AcDbPolyline
 62
253
  6
CONTINUOUS
 90
3
 70
0
 10
-78.1385989516
 20
-25.3895864619
 10
-78.1417691366
 20
-25.4505147798
 10
-78.1422741264
 20
-25.4537207406
  0
LWPOLYLINE
  5
46A
100
AcDbEntity
  8
RACCORDO
100
AcDbPolyline
 62
7
  6
CONTINUOUS
 90
16
 70
0
 10
-78.1385989516
 20
-25.3895864619
 10
-78.140418578
 20
-25.4226626708
 10
-78.1422741264
 20
-25.4537207406
 10
-78.144158937
 20
-25.4827737274
 10
-78.1460654979
 20
-25.5098295122
 10
-78.1479816007
 20
-25.5348448473
 10
-78.1498997591
 20
-25.5578529388
 10
-78.151813391
 20
-25.5788913675
 10
-78.1537088301
 20
-25.5979340418
 10
-78.1555798284
 20
-25.6150503016
 10
-78.1574162645
 20
-25.6302793951
 10
-78.15919041
 20
-25.6435458966
 10
-78.1609034709
 20
-25.6550172889
 10
-78.162522005
 20
-25.6646311156
 10
-78.163926506
 20
-25.6719594589
 10
-78.1644283734
 20
-25.6743319293
  0
LINE
  5
46B
100
AcDbEntity
  8
RACCORDO
100
AcDbLine
 62
253
  6
CONTINUOUS
 10
-78.2621552488
 20
-24.9224793431
 11
-78.2641499947
 21
-24.959637679
  0
LINE
  5
46C
100
AcDbEntity
  8
RACCORDO
100
AcDbLine
 62
7
  6
CONTINUOUS
 10
-78.3283950148
 20
-23.9461652245
 11
-78.3288165926
 21
-23.9537792325
  0
LINE
  5
46D
100
AcDbEntity
  8
RACCORDO
100
AcDbLine
 62
253
  6
CONTINUOUS
 10
-78.1722585963
 20
-25.0544161694
 11
-78.1743343292
 21
-25.0914864815
  0
LINE
  5
46E
100
AcDbEntity
  8
RACCORDO
100
AcDbLine
 62
7
  6
CONTINUOUS
 10
-78.3288165926
 20
-23.9537792325
 11
-78.3292096452
 21
-23.9603160661
  0
LWPOLYLINE
  5
46F
100
AcDbEntity
  8
RACCORDO
100
AcDbPolyline
 62
253
  6
CONTINUOUS
 90
20
 70
0
 10
-78.2641499947
 20
-24.959637679
 10
-78.2662530393
 20
-24.9943012151
 10
-78.2673419165
 20
-25.0106406151
 10
-78.2684555838
 20
-25.026319576
 10
-78.2695909488
 20
-25.0412937192
 10
-78.2707480314
 20
-25.0555611523
 10
-78.2719267227
 20
-25.0691237676
 10
-78.2731237489
 20
-25.0819428641
 10
-78.2743391284
 20
-25.0940164622
 10
-78.2755727625
 20
-25.1053465413
 10
-78.2768212155
 20
-25.1159003388
 10
-78.2780845106
 20
-25.1256757706
 10
-78.2793625557
 20
-25.1346749207
 10
-78.2806517567
 20
-25.1428712776
 10
-78.2819521893
 20
-25.1502627256
 10
-78.2832637228
 20
-25.1568513804
 10
-78.2845824695
 20
-25.1626170783
 10
-78.2859071248
 20
-25.167553098
 10
-78.2872389571
 20
-25.1716661609
 10
-78.2885779471
 20
-25.1749562668
  0
LWPOLYLINE
  5
470
100
AcDbEntity
  8
RACCORDO
100
AcDbPolyline
 62
253
  6
CONTINUOUS
 90
17
 70
0
 10
-78.1743343292
 20
-25.0914864815
 10
-78.1764795983
 20
-25.1255541377
 10
-78.1775758924
 20
-25.1414212153
 10
-78.1786863182
 20
-25.1564900853
 10
-78.1798102131
 20
-25.1707467791
 10
-78.1809462869
 20
-25.184177174
 10
-78.1820932559
 20
-25.196768493
 10
-78.1832504624
 20
-25.2085088913
 10
-78.1844165798
 20
-25.2193866225
 10
-78.1855902667
 20
-25.2293911238
 10
-78.186770832
 20
-25.2385126611
 10
-78.1879568817
 20
-25.2467417962
 10
-78.1891470917
 20
-25.2540706344
 10
-78.1903408795
 20
-25.2604922803
 10
-78.1915371563
 20
-25.2659999232
 10
-78.1927342126
 20
-25.2705878864
 10
-78.1939304771
 20
-25.274251506
  0
LWPOLYLINE
  5
471
100
AcDbEntity
  8
RACCORDO
100
AcDbPolyline
 62
253
  6
CONTINUOUS
 90
3
 70
0
 10
-78.144158937
 20
-25.4827737274
 10
-78.1464778285
 20
-25.5204808967
 10
-78.1479816007
 20
-25.5348448473
  0
LINE
  5
472
100
AcDbEntity
  8
RACCORDO
100
AcDbLine
 62
7
  6
CONTINUOUS
 10
-78.3292096452
 20
-23.9603160661
 11
-78.3295922593
 21
-23.9661574609
  0
LINE
  5
473
100
AcDbEntity
  8
RACCORDO
100
AcDbLine
 62
7
  6
CONTINUOUS
 10
-78.3295922593
 20
-23.9661574609
 11
-78.3298392938
 21
-23.9696393655
  0
LINE
  5
474
100
AcDbEntity
  8
RACCORDO
100
AcDbLine
 62
7
  6
CONTINUOUS
 10
-78.3298392938
 20
-23.9696393655
 11
-78.330076359
 21
-23.9727654598
  0
LWPOLYLINE
  5
475
100
AcDbEntity
  8
RACCORDO
100
AcDbPolyline
 62
253
  6
CONTINUOUS
 90
4
 70
0
 10
-78.173509909
 20
-25.7188063842
 10
-78.1720885645
 20
-25.7015758072
 10
-78.1676892472
 20
-25.6848663898
 10
-78.1642073562
 20
-25.6764280388
  0
LWPOLYLINE
  5
476
100
AcDbEntity
  8
RACCORDO
100
AcDbPolyline
 62
253
  6
CONTINUOUS
 90
5
 70
0
 10
-78.1498997591
 20
-25.5578529388
 10
-78.1515377227
 20
-25.5816590767
 10
-78.1567883347
 20
-25.6322596795
 10
-78.1621755332
 20
-25.6716861583
 10
-78.1677500456
 20
-25.7005350599
  0
LINE
  5
477
100
AcDbEntity
  8
RACCORDO
100
AcDbLine
 62
7
  6
CONTINUOUS
 10
-78.330076359
 20
-23.9727654598
 11
-78.3302969299
 21
-23.9754759177
  0
LINE
  5
478
100
AcDbEntity
  8
RACCORDO
100
AcDbLine
 62
7
  6
CONTINUOUS
 10
-78.3302969299
 20
-23.9754759177
 11
-78.3304940758
 21
-23.9777197866
  0
LWPOLYLINE
  5
479
100
AcDbEntity
  8
RACCORDO
100
AcDbPolyline
 62
7
  6
CONTINUOUS
 90
3
 70
0
 10
-78.3304940758
 20
-23.9777197866
 10
-78.3306594807
 20
-23.9794534912
 10
-78.33069148
 20
-23.9797709055
  0
LINE
  5
47A
100
AcDbEntity
  8
DRAFT
100
AcDbLine
 62
7
  6
CONTINUOUS
 10
-70.1359304562
 20
-3.7997558672
 11
-71.8359304562
 21
-3.5
  0
LINE
  5
47B
100
AcDbEntity
  8
RACCORDO
100
AcDbLine
 62
7
  6
CONTINUOUS
 10
-78.3308313082
 20
23.981066547
 11
-78.3308215006
 21
23.9809823683
  0
LWPOLYLINE
  5
47C
100
AcDbEntity
  8
RACCORDO
100
AcDbPolyline
 62
7
  6
CONTINUOUS
 90
7
 70
0
 10
-72.5628700977
 20
46.4551629473
 10
-72.5577547747
 20
46.3070463329
 10
-72.553448397
 20
46.1509730539
 10
-72.5500912166
 20
45.9925816764
 10
-72.5477319365
 20
45.8337517228
 10
-72.5463270942
 20
45.6726036708
 10
-72.5458779558
 20
45.5091375204
  0
LINE
  5
47D
100
AcDbEntity
  8
RACCORDO
100
AcDbLine
 62
7
  6
CONTINUOUS
 10
-72.5458779558
 20
45.509137424
 11
-72.5458779558
 21
-45.509137424
  0
LINE
  5
47E
100
AcDbEntity
  8
DRAFT
100
AcDbLine
 62
7
  6
CONTINUOUS
 10
-71.8359304562
 20
3.5
 11
-71.8359304562
 21
-3.5
  0
LINE
  5
47F
100
AcDbEntity
  8
DRAFT
100
AcDbLine
 62
7
  6
CONTINUOUS
 10
-70.6359304562
 20
46.5
 11
-70.6359304562
 21
3.7115923769
  0
LINE
  5
480
100
AcDbEntity
  8
DRAFT
100
AcDbLine
 62
7
  6
CONTINUOUS
 10
-70.6359304562
 20
-3.7115923769
 11
-70.6359304562
 21
-46.5
  0
LWPOLYLINE
  5
481
100
AcDbEntity
  8
RACCORDO
100
AcDbPolyline
 62
7
  6
CONTINUOUS
 90
7
 70
0
 10
-72.5458779558
 20
-45.5091375204
 10
-72.5463270942
 20
-45.6726036708
 10
-72.5477319365
 20
-45.8337517228
 10
-72.5500912166
 20
-45.9925816764
 10
-72.553448397
 20
-46.1509730539
 10
-72.5577547747
 20
-46.3070463329
 10
-72.5628700977
 20
-46.4551629473
  0
LWPOLYLINE
  5
482
100
AcDbEntity
  8
RACCORDO
100
AcDbPolyline
 62
7
  6
CONTINUOUS
 90
13
 70
0
 10
-72.5628700977
 20
-46.4551629473
 10
-72.5687911875
 20
-46.5941651748
 10
-72.5755126543
 20
-46.7252107375
 10
-72.5828914241
 20
-46.8461342354
 10
-72.5909227597
 20
-46.9568773
 10
-72.5996014107
 20
-47.0574982997
 10
-72.6087849241
 20
-47.1460069397
 10
-72.6185425617
 20
-47.2224330785
 10
-72.6287947645
 20
-47.2867468578
 10
-72.6391802071
 20
-47.3368684072
 10
-72.6495788952
 20
-47.3721044369
 10
-72.6601081506
 20
-47.3931482368
 10
-72.6707661927
 20
-47.399999807
  0
LWPOLYLINE
  5
483
100
AcDbEntity
  8
RACCORDO
100
AcDbPolyline
 62
253
  6
CONTINUOUS
 90
6
 70
0
 10
-78.3286771763
 20
-23.969001284
 10
-78.3307505785
 20
-23.9784676161
 10
-78.3323578702
 20
-23.9880255504
 10
-78.3334952326
 20
-23.9976523774
 10
-78.3341599631
 20
-24.0073252237
 10
-78.3343504825
 20
-24.0170211068
  0
LINE
  5
484
100
AcDbEntity
  8
DRAFT
100
AcDbLine
 62
7
  6
CONTINUOUS
 10
-70.1359304562
 20
3.7997558672
 11
-71.8359304562
 21
3.5
  0
LWPOLYLINE
  5
485
100
AcDbEntity
  8
RACCORDO
100
AcDbPolyline
 62
253
  6
CONTINUOUS
 90
5
 70
0
 10
-78.1735099127
 20
25.7188063842
 10
-78.1677024655
 20
25.7002128353
 10
-78.1620932867
 20
25.6710733075
 10
-78.156684475
 20
25.6313878008
 10
-78.1514294843
 20
25.5805654453
  0
LWPOLYLINE
  5
486
100
AcDbEntity
  8
RACCORDO
100
AcDbPolyline
 62
7
  6
CONTINUOUS
 90
9
 70
0
 10
-78.1656859496
 20
25.6795869332
 10
-78.1650208515
 20
25.6769693591
 10
-78.1635992043
 20
25.6703430933
 10
-78.1619980519
 20
25.6616515616
 10
-78.1603206108
 20
25.6512637544
 10
-78.1585270568
 20
25.6387512158
 10
-78.1566869342
 20
25.6244128623
 10
-78.1548200809
 20
25.6082919707
 10
-78.1529279308
 20
25.5902932944
  0
LWPOLYLINE
  5
487
100
AcDbEntity
  8
RACCORDO
100
AcDbPolyline
 62
253
  6
CONTINUOUS
 90
6
 70
0
 10
-78.3286772038
 20
23.9690012966
 10
-78.3307506317
 20
23.9784676259
 10
-78.3323579526
 20
23.9880255575
 10
-78.3334953474
 20
23.9976523817
 10
-78.3341601138
 20
24.0073252257
 10
-78.3343506723
 20
24.0170211068
  0
LINE
  5
488
100
AcDbEntity
  8
SMUSSO
100
AcDbLine
 62
7
  6
CONTINUOUS
 10
-70.1359304562
 20
46.0
 11
-70.1359304562
 21
45.5
  0
LINE
  5
489
100
AcDbEntity
  8
DRAFT
100
AcDbLine
 62
7
  6
CONTINUOUS
 10
-70.1359304562
 20
45.5
 11
-70.1359304562
 21
3.7997558672
  0
LINE
  5
48A
100
AcDbEntity
  8
DRAFT
100
AcDbLine
 62
7
  6
CONTINUOUS
 10
-70.1359304562
 20
-3.7997558672
 11
-70.1359304562
 21
-45.5
  0
LINE
  5
48B
100
AcDbEntity
  8
SMUSSO
100
AcDbLine
 62
7
  6
CONTINUOUS
 10
-70.1359304562
 20
-45.5
 11
-70.1359304562
 21
-46.0
  0
LINE
  5
48C
100
AcDbEntity
  8
0
100
AcDbLine
 62
253
  6
CONTINUOUS
 10
-69.6254632649
 20
25.7916264167
 11
-69.6254632649
 21
25.200274093
  0
LINE
  5
48D
100
AcDbEntity
  8
0
100
AcDbLine
 62
253
  6
CONTINUOUS
 10
-69.6254632649
 20
-25.200274093
 11
-69.6254632649
 21
-25.7916264167
  0
LINE
  5
48E
100
AcDbEntity
  8
DRAFT
100
AcDbLine
 62
7
  6
CONTINUOUS
 10
-69.4359304562
 20
27.25
 11
-69.4359304562
 21
26.35
  0
LINE
  5
48F
100
AcDbEntity
  8
0
100
AcDbLine
 62
7
  6
CONTINUOUS
 10
-69.4359304562
 20
-25.4
 11
-69.4359304562
 21
-26.35
  0
LINE
  5
490
100
AcDbEntity
  8
DRAFT
100
AcDbLine
 62
7
  6
CONTINUOUS
 10
-69.4359304562
 20
-26.35
 11
-69.4359304562
 21
-27.25
  0
LINE
  5
491
100
AcDbEntity
  8
0
100
AcDbLine
 62
7
  6
CONTINUOUS
 10
-69.4359304562
 20
25.4
 11
-69.4359304562
 21
26.35
  0
LWPOLYLINE
  5
492
100
AcDbEntity
  8
RACCORDO
100
AcDbPolyline
 62
253
  6
CONTINUOUS
 90
7
 70
0
 10
-76.7399537416
 20
-47.1873912108
 10
-76.7383757165
 20
-47.179692505
 10
-76.7363152236
 20
-47.1577054991
 10
-76.7338618449
 20
-47.1215069236
 10
-76.7311496704
 20
-47.0714096084
 10
-76.7282020354
 20
-47.0078584195
 10
-76.7214116162
 20
-46.8423208581
  0
LINE
  5
493
100
AcDbEntity
  8
RACCORDO
100
AcDbLine
 62
253
  6
CONTINUOUS
 10
-78.1677500456
 20
-25.7005350599
 11
-78.1735099127
 21
-25.7188063842
  0
LWPOLYLINE
  5
494
100
AcDbEntity
  8
RACCORDO
100
AcDbPolyline
 62
253
  6
CONTINUOUS
 90
16
 70
0
 10
-78.3343506725
 20
-24.0170211068
 10
-78.33405305
 20
-24.0163021424
 10
-78.3337471241
 20
-24.0152752274
 10
-78.3334328901
 20
-24.0139403618
 10
-78.3331102914
 20
-24.0123210137
 10
-78.3327793748
 20
-24.0103937151
 10
-78.3324402908
 20
-24.0080880614
 10
-78.3320923776
 20
-24.0053985098
 10
-78.3317362864
 20
-24.002330603
 10
-78.3313741386
 20
-23.9988305654
 10
-78.3310058732
 20
-23.9948926101
 10
-78.330631543
 20
-23.990522524
 10
-78.3302534441
 20
-23.9856838921
 10
-78.3298718722
 20
-23.980376452
 10
-78.3294865264
 20
-23.9746004662
 10
-78.3287089078
 20
-23.9615381546
  0
LWPOLYLINE
  5
495
100
AcDbEntity
  8
RACCORDO
100
AcDbPolyline
 62
253
  6
CONTINUOUS
 90
4
 70
0
 10
-79.0261903899
 20
-27.5371687239
 10
-79.0316834329
 20
-27.5491237745
 10
-79.034886175
 20
-27.5558476872
 10
-79.0359304562
 20
-27.557913103
  0
LINE
  5
496
100
AcDbEntity
  8
RACCORDO
100
AcDbLine
 62
253
  6
CONTINUOUS
 10
-78.2885779471
 20
-25.1749562668
 11
-78.3540172811
 21
-25.3157906684
  0
LINE
  5
497
100
AcDbEntity
  8
0
100
AcDbLine
 62
7
  6
CONTINUOUS
 10
-78.8748290382
 20
-25.13125911
 11
-78.3292728512
 21
-23.9613100913
  0
LINE
  5
498
100
AcDbEntity
  8
RACCORDO
100
AcDbLine
 62
7
  6
CONTINUOUS
 10
-79.1171920136
 20
-25.6510081879
 11
-78.3290760268
 21
-23.960888
  0
LINE
  5
499
100
AcDbEntity
  8
RACCORDO
100
AcDbLine
 62
253
  6
CONTINUOUS
 10
-79.1359304562
 20
-25.7355318402
 11
-78.3343506725
 21
-24.0170211068
  0
LWPOLYLINE
  5
49A
100
AcDbEntity
  8
RACCORDO
100
AcDbPolyline
 62
253
  6
CONTINUOUS
 90
6
 70
0
 10
-78.280523929
 20
-25.9453420312
 10
-78.3776687761
 20
-26.1532164687
 10
-78.4655394372
 20
-26.3424296967
 10
-78.544634686
 20
-26.511698541
 10
-78.6156049783
 20
-26.6623061759
 10
-78.7358551218
 20
-26.9193060624
  0
LINE
  5
49B
100
AcDbEntity
  8
RACCORDO
100
AcDbLine
 62
253
  6
CONTINUOUS
 10
-78.1939304855
 20
-25.2742516663
 11
-78.3871630646
 21
-25.6877838302
  0
LINE
  5
49C
100
AcDbEntity
  8
RACCORDO
100
AcDbLine
 62
253
  6
CONTINUOUS
 10
-78.3871630646
 20
-25.6877838302
 11
-78.5678016757
 21
-26.0740013482
  0
LINE
  5
49D
100
AcDbEntity
  8
RACCORDO
100
AcDbLine
 62
253
  6
CONTINUOUS
 10
-78.5678016757
 20
-26.0740013482
 11
-78.6751701822
 21
-26.3033969203
  0
LINE
  5
49E
100
AcDbEntity
  8
RACCORDO
100
AcDbLine
 62
253
  6
CONTINUOUS
 10
-78.6751701822
 20
-26.3033969203
 11
-78.7691998542
 21
-26.5041926523
  0
LWPOLYLINE
  5
49F
100
AcDbEntity
  8
RACCORDO
100
AcDbPolyline
 62
253
  6
CONTINUOUS
 90
3
 70
0
 10
-78.7691998542
 20
-26.5041926523
 10
-78.8492671131
 20
-26.6750979074
 10
-78.8840633726
 20
-26.7493500802
  0
LWPOLYLINE
  5
4A0
100
AcDbEntity
  8
RACCORDO
100
AcDbPolyline
 62
253
  6
CONTINUOUS
 90
3
 70
0
 10
-78.8840633726
 20
-26.7493500802
 10
-78.9432248798
 20
-26.8755658239
 10
-78.9676007226
 20
-26.9275587593
  0
LINE
  5
4A1
100
AcDbEntity
  8
RACCORDO
100
AcDbLine
 62
7
  6
CONTINUOUS
 10
-78.1657243938
 20
-25.6796690695
 11
-78.6378163519
 21
-26.6874913529
  0
LWPOLYLINE
  5
4A2
100
AcDbEntity
  8
RACCORDO
100
AcDbPolyline
 62
253
  6
CONTINUOUS
 90
3
 70
0
 10
-78.7176206046
 20
-26.0919770123
 10
-79.0101282256
 20
-26.7163910343
 10
-79.0379774581
 20
-26.7757682118
  0
LINE
  5
4A3
100
AcDbEntity
  8
RACCORDO
100
AcDbLine
 62
253
  6
CONTINUOUS
 10
-78.6625012741
 20
-25.9744544904
 11
-78.7176206046
 21
-26.0919770123
  0
LINE
  5
4A4
100
AcDbEntity
  8
RACCORDO
100
AcDbLine
 62
253
  6
CONTINUOUS
 10
-78.9676007226
 20
-26.9275587593
 11
-79.0411639822
 21
-27.0844285348
  0
LWPOLYLINE
  5
4A5
100
AcDbEntity
  8
RACCORDO
100
AcDbPolyline
 62
253
  6
CONTINUOUS
 90
3
 70
0
 10
-79.0379774581
 20
-26.7757682118
 10
-79.1146057614
 20
-26.9391199605
 10
-79.1250532193
 20
-26.9613857801
  0
LINE
  5
4A6
100
AcDbEntity
  8
RACCORDO
100
AcDbLine
 62
253
  6
CONTINUOUS
 10
-79.1250532193
 20
-26.9613857801
 11
-79.1359304562
 21
-26.9845647426
  0
LINE
  5
4A7
100
AcDbEntity
  8
RACCORDO
100
AcDbLine
 62
7
  6
CONTINUOUS
 10
-78.6378163519
 20
-26.6874913529
 11
-79.0264529578
 21
-27.515419796
  0
LINE
  5
4A8
100
AcDbEntity
  8
RACCORDO
100
AcDbLine
 62
253
  6
CONTINUOUS
 10
-78.3540172811
 20
-25.3157906684
 11
-78.6625012741
 21
-25.9744544904
  0
LWPOLYLINE
  5
4A9
100
AcDbEntity
  8
RACCORDO
100
AcDbPolyline
 62
253
  6
CONTINUOUS
 90
3
 70
0
 10
-78.7358551218
 20
-26.9193060624
 10
-78.7860727392
 20
-27.025698314
 10
-78.8696294197
 20
-27.2040192445
  0
LINE
  5
4AA
100
AcDbEntity
  8
RACCORDO
100
AcDbLine
 62
253
  6
CONTINUOUS
 10
-78.1735099127
 20
-25.7188063842
 11
-78.280523929
 21
-25.9453420312
  0
LWPOLYLINE
  5
4AB
100
AcDbEntity
  8
RACCORDO
100
AcDbPolyline
 62
253
  6
CONTINUOUS
 90
3
 70
0
 10
-78.8696294197
 20
-27.2040192445
 10
-78.9036697425
 20
-27.2759479233
 10
-78.9572110629
 20
-27.3907095111
  0
LWPOLYLINE
  5
4AC
100
AcDbEntity
  8
RACCORDO
100
AcDbPolyline
 62
253
  6
CONTINUOUS
 90
3
 70
0
 10
-78.9572110629
 20
-27.3907095111
 10
-78.9775663478
 20
-27.43354242
 10
-79.0077926376
 20
-27.4983835065
  0
LINE
  5
4AD
100
AcDbEntity
  8
RACCORDO
100
AcDbLine
 62
253
  6
CONTINUOUS
 10
-79.0077926376
 20
-27.4983835065
 11
-79.0261903899
 21
-27.5371687239
  0
LINE
  5
4AE
100
AcDbEntity
  8
RACCORDO
100
AcDbLine
 62
253
  6
CONTINUOUS
 10
-78.9771822227
 20
27.4327248448
 11
-78.9567837627
 21
27.3897977775
  0
LINE
  5
4AF
100
AcDbEntity
  8
RACCORDO
100
AcDbLine
 62
253
  6
CONTINUOUS
 10
-78.2803979731
 20
25.9450784493
 11
-78.1735099127
 21
25.7188063842
  0
LWPOLYLINE
  5
4B0
100
AcDbEntity
  8
RACCORDO
100
AcDbPolyline
 62
253
  6
CONTINUOUS
 90
5
 70
0
 10
-78.6151659156
 20
26.6613706743
 10
-78.5442482979
 20
26.5108730801
 10
-78.4652218231
 20
26.3417519391
 10
-78.3774374634
 20
26.1527269676
 10
-78.2803979731
 20
25.9450784493
  0
LINE
  5
4B1
100
AcDbEntity
  8
RACCORDO
100
AcDbLine
 62
7
  6
CONTINUOUS
 10
-79.0264529618
 20
27.5154197892
 11
-78.9833086853
 21
27.4235309962
  0
LINE
  5
4B2
100
AcDbEntity
  8
RACCORDO
100
AcDbLine
 62
7
  6
CONTINUOUS
 10
-78.9833086853
 20
27.4235309962
 11
-78.6382423443
 21
26.6883996531
  0
LINE
  5
4B3
100
AcDbEntity
  8
RACCORDO
100
AcDbLine
 62
253
  6
CONTINUOUS
 10
-78.9031789739
 20
27.2749056813
 11
-78.7353542847
 21
26.9182373868
  0
LINE
  5
4B4
100
AcDbEntity
  8
RACCORDO
100
AcDbLine
 62
253
  6
CONTINUOUS
 10
-79.0411639822
 20
27.0844285348
 11
-78.6229179434
 21
26.1917740133
  0
LINE
  5
4B5
100
AcDbEntity
  8
RACCORDO
100
AcDbLine
 62
7
  6
CONTINUOUS
 10
-78.6382423443
 20
26.6883996531
 11
-78.1656859496
 21
25.6795869332
  0
LWPOLYLINE
  5
4B6
100
AcDbEntity
  8
RACCORDO
100
AcDbPolyline
 62
253
  6
CONTINUOUS
 90
3
 70
0
 10
-78.7698901326
 20
26.2036690748
 10
-78.6045938094
 20
25.8506717237
 10
-78.354019491
 20
25.3157952074
  0
LINE
  5
4B7
100
AcDbEntity
  8
RACCORDO
100
AcDbLine
 62
253
  6
CONTINUOUS
 10
-79.1359304562
 20
26.9845647426
 11
-78.7698901326
 21
26.2036690748
  0
LINE
  5
4B8
100
AcDbEntity
  8
RACCORDO
100
AcDbLine
 62
253
  6
CONTINUOUS
 10
-78.7353542847
 20
26.9182373868
 11
-78.6151659156
 21
26.6613706743
  0
LWPOLYLINE
  5
4B9
100
AcDbEntity
  8
RACCORDO
100
AcDbPolyline
 62
253
  6
CONTINUOUS
 90
3
 70
0
 10
-78.6229179434
 20
26.1917740133
 10
-78.2593640346
 20
25.4143299324
 10
-78.1939304855
 20
25.2742516661
  0
LINE
  5
4BA
100
AcDbEntity
  8
RACCORDO
100
AcDbLine
 62
7
  6
CONTINUOUS
 10
-79.1171920136
 20
25.6510081879
 11
-78.3292729143
 21
23.9613102266
  0
LINE
  5
4BB
100
AcDbEntity
  8
RACCORDO
100
AcDbLine
 62
253
  6
CONTINUOUS
 10
-78.3343506725
 20
24.0170211068
 11
-79.1359304562
 21
25.7355318402
  0
LINE
  5
4BC
100
AcDbEntity
  8
RACCORDO
100
AcDbLine
 62
253
  6
CONTINUOUS
 10
-78.9567837627
 20
27.3897977775
 11
-78.9031789739
 21
27.2749056813
  0
LINE
  5
4BD
100
AcDbEntity
  8
RACCORDO
100
AcDbLine
 62
253
  6
CONTINUOUS
 10
-78.354019491
 20
25.3157952074
 11
-78.2885779471
 21
25.1749562668
  0
LINE
  5
4BE
100
AcDbEntity
  8
RACCORDO
100
AcDbLine
 62
253
  6
CONTINUOUS
 10
-79.0075079606
 20
27.4977762628
 11
-78.9771822227
 21
27.4327248448
  0
LWPOLYLINE
  5
4BF
100
AcDbEntity
  8
RACCORDO
100
AcDbPolyline
 62
253
  6
CONTINUOUS
 90
18
 70
0
 10
-78.2885779471
 20
25.1749562668
 10
-78.2872389571
 20
25.1716661608
 10
-78.2859071248
 20
25.167553098
 10
-78.2845824695
 20
25.1626170782
 10
-78.2832637228
 20
25.1568513803
 10
-78.2819521893
 20
25.1502627255
 10
-78.2806517567
 20
25.1428712776
 10
-78.2793625557
 20
25.1346749207
 10
-78.2780845106
 20
25.1256757706
 10
-78.2768212155
 20
25.1159003387
 10
-78.2755727625
 20
25.1053465413
 10
-78.2743391284
 20
25.0940164621
 10
-78.273123749
 20
25.0819428641
 10
-78.2719267227
 20
25.0691237676
 10
-78.2707480314
 20
25.0555611523
 10
-78.2695909488
 20
25.0412937192
 10
-78.2684555838
 20
25.026319576
 10
-78.2673419165
 20
25.0106406151
  0
LWPOLYLINE
  5
4C0
100
AcDbEntity
  8
RACCORDO
100
AcDbPolyline
 62
253
  6
CONTINUOUS
 90
15
 70
0
 10
-78.1939304771
 20
25.2742515059
 10
-78.1927342126
 20
25.2705878863
 10
-78.1915371563
 20
25.2659999233
 10
-78.1903408796
 20
25.2604922806
 10
-78.1891470918
 20
25.2540706346
 10
-78.1879568818
 20
25.2467417965
 10
-78.186770832
 20
25.2385126614
 10
-78.1855902668
 20
25.2293911241
 10
-78.1844165799
 20
25.2193866228
 10
-78.1832504624
 20
25.2085088916
 10
-78.182093256
 20
25.1967684935
 10
-78.1809462869
 20
25.1841771745
 10
-78.1798102131
 20
25.1707467796
 10
-78.1786863182
 20
25.1564900858
 10
-78.1775758925
 20
25.1414212158
  0
LWPOLYLINE
  5
4C1
100
AcDbEntity
  8
RACCORDO
100
AcDbPolyline
 62
253
  6
CONTINUOUS
 90
5
 70
0
 10
-79.0359304562
 20
27.557913054
 10
-79.0348276
 20
27.5557233183
 10
-79.0315666867
 20
27.5488741412
 10
-79.0260158416
 20
27.5367969774
 10
-79.0075079606
 20
27.4977762628
  0
LINE
  5
4C2
100
AcDbEntity
  8
0
100
AcDbLine
 62
7
  6
CONTINUOUS
 10
-70.1359304562
 20
-25.2
 11
-69.9859304562
 21
-25.05
  0
LINE
  5
4C3
100
AcDbEntity
  8
0
100
AcDbLine
 62
7
  6
CONTINUOUS
 10
-70.1359304562
 20
25.2
 11
-69.9859304562
 21
25.05
  0
LINE
  5
4C4
100
AcDbEntity
  8
RACCORDO
100
AcDbLine
 62
253
  6
CONTINUOUS
 10
-78.1541650282
 20
24.2831704168
 11
-78.1198977312
 21
24.2847842266
  0
LINE
  5
4C5
100
AcDbEntity
  8
RACCORDO
100
AcDbLine
 62
253
  6
CONTINUOUS
 10
-78.3164023759
 20
23.0764614955
 11
-78.3161722037
 21
23.0764614955
  0
LINE
  5
4C6
100
AcDbEntity
  8
RACCORDO
100
AcDbLine
 62
253
  6
CONTINUOUS
 10
-78.1541650282
 20
24.2831704168
 11
-78.248806889
 21
24.2831704168
  0
LINE
  5
4C7
100
AcDbEntity
  8
RACCORDO
100
AcDbLine
 62
253
  6
CONTINUOUS
 10
-78.119769093
 20
24.5249712709
 11
-78.1198977312
 21
24.5249712709
  0
LINE
  5
4C8
100
AcDbEntity
  8
0
100
AcDbLine
 62
7
  6
CONTINUOUS
 10
-69.9859304562
 20
25.05
 11
-69.7859304562
 21
25.05
  0
LINE
  5
4C9
100
AcDbEntity
  8
0
100
AcDbLine
 62
7
  6
CONTINUOUS
 10
-69.6359304562
 20
25.2
 11
-70.1359304562
 21
25.2
  0
LWPOLYLINE
  5
4CA
100
AcDbEntity
  8
RACCORDO
100
AcDbPolyline
 62
253
  6
CONTINUOUS
 90
28
 70
0
 10
-78.1939304771
 20
25.2742515059
 10
-78.1995098811
 20
25.2737754493
 10
-78.205055326
 20
25.2729890411
 10
-78.2105493957
 20
25.2718947512
 10
-78.2159748356
 20
25.2704960163
 10
-78.2213146066
 20
25.2687972293
 10
-78.2265519386
 20
25.2668037253
 10
-78.2316703833
 20
25.2645217652
 10
-78.2366538657
 20
25.2619585156
 10
-78.2414867347
 20
25.2591220267
 10
-78.2461538123
 20
25.2560212067
 10
-78.250640441
 20
25.2526657941
 10
-78.2549325301
 20
25.2490663269
 10
-78.2590166
 20
25.2452341095
 10
-78.2628798242
 20
25.2411811773
 10
-78.2665100699
 20
25.2369202591
 10
-78.269895936
 20
25.2324647365
 10
-78.2730267888
 20
25.2278286027
 10
-78.2758927957
 20
25.2230264177
 10
-78.2784849555
 20
25.2180732634
 10
-78.2807951275
 20
25.2129846956
 10
-78.2828160563
 20
25.2077766954
 10
-78.2845413949
 20
25.2024656191
 10
-78.2859657249
 20
25.1970681465
 10
-78.2870845728
 20
25.1916012289
 10
-78.287894425
 20
25.1860820358
 10
-78.288392738
 20
25.1805279007
 10
-78.2885779467
 20
25.1749562668
  0
LINE
  5
4CB
100
AcDbEntity
  8
DRAFT
100
AcDbLine
 62
7
  6
CONTINUOUS
 10
-78.8292892309
 20
27.0955322647
 11
-79.0411639736
 21
27.0844283799
  0
LINE
  5
4CC
100
AcDbEntity
  8
RACCORDO
100
AcDbLine
 62
253
  6
CONTINUOUS
 10
-78.1939304858
 20
25.2742516711
 11
-78.1333730087
 21
25.2771026951
  0
LINE
  5
4CD
100
AcDbEntity
  8
0
100
AcDbLine
 62
7
  6
CONTINUOUS
 10
-69.6254632649
 20
25.7916264167
 11
-70.1359304562
 21
25.7690739122
  0
LINE
  5
4CE
100
AcDbEntity
  8
DRAFT
100
AcDbLine
 62
253
  6
CONTINUOUS
 10
-69.4359304562
 20
27.053527618
 11
-70.1359304562
 21
27.0538438255
  0
LINE
  5
4CF
100
AcDbEntity
  8
DRAFT
100
AcDbLine
 62
7
  6
CONTINUOUS
 10
-70.1359304562
 20
27.2512217317
 11
-69.4359304562
 21
27.25
  0
LINE
  5
4D0
100
AcDbEntity
  8
0
100
AcDbLine
 62
7
  6
CONTINUOUS
 10
-69.4359304562
 20
26.35
 11
-70.1359304562
 21
26.3540724809
  0
LINE
  5
4D1
100
AcDbEntity
  8
DRAFT
100
AcDbLine
 62
7
  6
CONTINUOUS
 10
-70.6359304562
 20
-46.5
 11
-70.1359304562
 21
-46.0
  0
LINE
  5
4D2
100
AcDbEntity
  8
SMUSSO
100
AcDbLine
 62
7
  6
CONTINUOUS
 10
-70.1359304562
 20
-46.0
 11
-70.6359304562
 21
-46.5
  0
LINE
  5
4D3
100
AcDbEntity
  8
SMUSSO
100
AcDbLine
 62
7
  6
CONTINUOUS
 10
-70.6359304562
 20
46.5
 11
-70.1359304562
 21
46.0
  0
LINE
  5
4D4
100
AcDbEntity
  8
DRAFT
100
AcDbLine
 62
7
  6
CONTINUOUS
 10
-70.6359304562
 20
46.5
 11
-70.1359304562
 21
46.0
  0
LWPOLYLINE
  5
4D5
100
AcDbEntity
  8
RACCORDO
100
AcDbPolyline
 62
253
  6
CONTINUOUS
 90
19
 70
0
 10
-77.5910294157
 20
-46.2886998742
 10
-77.5854240412
 20
-46.284843289
 10
-77.5799201316
 20
-46.2736550214
 10
-77.5745183235
 20
-46.2551350715
 10
-77.569174858
 20
-46.229035136
 10
-77.5639345712
 20
-46.1956035182
 10
-77.5589316822
 20
-46.1555851279
 10
-77.554177323
 20
-46.1088148172
 10
-77.5496628367
 20
-46.0554577339
 10
-77.5454938494
 20
-45.9967542317
 10
-77.5416806565
 20
-45.9325503372
 10
-77.5382158138
 20
-45.8630000236
 10
-77.5351788952
 20
-45.7898055644
 10
-77.5325836249
 20
-45.7129445988
 10
-77.5304187309
 20
-45.6324394876
 10
-77.5287263719
 20
-45.5500595861
 10
-77.5275210934
 20
-45.4663946795
 10
-77.5267897288
 20
-45.3808549825
 10
-77.5265326228
 20
-45.2934404953
  0
LWPOLYLINE
  5
4D6
100
AcDbEntity
  8
RACCORDO
100
AcDbPolyline
 62
7
  6
CONTINUOUS
 90
13
 70
0
 10
-72.6707661927
 20
47.399999807
 10
-72.6601081506
 20
47.3931482368
 10
-72.6495788952
 20
47.3721044369
 10
-72.6391802071
 20
47.3368684072
 10
-72.6287947645
 20
47.2867468578
 10
-72.6185425617
 20
47.2224330785
 10
-72.6087849241
 20
47.1460069397
 10
-72.5996014107
 20
47.0574982997
 10
-72.5909227597
 20
46.9568773
 10
-72.5828914241
 20
46.8461342354
 10
-72.5755126543
 20
46.7252107375
 10
-72.5687911875
 20
46.5941651748
 10
-72.5628700977
 20
46.4551629473
  0
LINE
  5
4D7
100
AcDbEntity
  8
DRAFT
100
AcDbLine
 62
7
  6
CONTINUOUS
 10
-72.5609344317
 20
46.3991148165
 11
-70.6359304562
 21
46.5
  0
LINE
  5
4D8
100
AcDbEntity
  8
RACCORDO
100
AcDbLine
 62
253
  6
CONTINUOUS
 10
-76.6755423944
 20
45.2934404953
 11
-72.5458779558
 21
45.509137424
  0
LINE
  5
4D9
100
AcDbEntity
  8
RACCORDO
100
AcDbLine
 62
253
  6
CONTINUOUS
 10
-77.5265326228
 20
45.2934404953
 11
-76.675542396
 21
45.2934404927
  0
LINE
  5
4DA
100
AcDbEntity
  8
DRAFT
100
AcDbLine
 62
253
  6
CONTINUOUS
 10
-72.5458779558
 20
45.5
 11
-70.1359304562
 21
45.5
  0
LINE
  5
4DB
100
AcDbEntity
  8
RACCORDO
100
AcDbLine
 62
253
  6
CONTINUOUS
 10
-77.5910294157
 20
46.2886998742
 11
-79.0359304562
 21
46.2891025352
  0
LINE
  5
4DC
100
AcDbEntity
  8
0
100
AcDbLine
 62
7
  6
CONTINUOUS
 10
-74.1359304562
 20
47.3999687637
 11
-78.1830328168
 21
47.1878691165
  0
LINE
  5
4DD
100
AcDbEntity
  8
RACCORDO
100
AcDbLine
 62
253
  6
CONTINUOUS
 10
-76.7399574178
 20
47.1874613888
 11
-72.6707661927
 21
47.399999807
  0
LINE
  5
4DE
100
AcDbEntity
  8
RACCORDO
100
AcDbLine
 62
7
  6
CONTINUOUS
 10
-74.1359304562
 20
47.3999687637
 11
-72.6707661927
 21
47.399999807
  0
LINE
  5
4DF
100
AcDbEntity
  8
RACCORDO
100
AcDbLine
 62
253
  6
CONTINUOUS
 10
-76.7399574175
 20
47.187461384
 11
-78.1830328168
 21
47.1878691165
  0
ARC
  5
4E0
100
AcDbEntity
  8
RACCORDO
100
AcDbCircle
 62
7
  6
CONTINUOUS
 10
-78.1359304561
 20
-46.2891025352
 40
0.9
100
AcDbArc
 50
180.0
 51
267.0
  0
ARC
  5
4E1
100
AcDbEntity
  8
RACCORDO
100
AcDbCircle
 62
7
  6
CONTINUOUS
 10
-78.1359304561
 20
46.2891025352
 40
0.9
100
AcDbArc
 50
93.0
 51
180.0
  0
ARC
  5
4E2
100
AcDbEntity
  8
RACCORDO
100
AcDbCircle
 62
7
  6
CONTINUOUS
 10
-78.9359304562
 20
25.7355318402
 40
0.2
100
AcDbArc
 50
180.0
 51
205.0
  0
ARC
  5
4E3
100
AcDbEntity
  8
RACCORDO
100
AcDbCircle
 62
7
  6
CONTINUOUS
 10
-78.9359304562
 20
-25.7355318402
 40
0.2
100
AcDbArc
 50
155.0
 51
180.0
  0
ARC
  5
4E4
100
AcDbEntity
  8
0
100
AcDbCircle
 62
7
  6
CONTINUOUS
 10
-69.6359304562
 20
-25.4
 40
0.2
100
AcDbArc
 50
0.0
 51
90.0
  0
ARC
  5
4E5
100
AcDbEntity
  8
0
100
AcDbCircle
 62
7
  6
CONTINUOUS
 10
-69.6359304562
 20
25.4
 40
0.2
100
AcDbArc
 50
270.0
 51
360.0
  0
ARC
  5
4E6
100
AcDbEntity
  8
RACCORDO
100
AcDbCircle
 62
7
  6
CONTINUOUS
 10
-78.9359304561
 20
27.5579130354
 40
0.1
100
AcDbArc
 50
180.0
 51
205.1395827587
  0
ARC
  5
4E7
100
AcDbEntity
  8
RACCORDO
100
AcDbCircle
 62
7
  6
CONTINUOUS
 10
-78.9359304561
 20
-27.5579130507
 40
0.1
100
AcDbArc
 50
154.8604181176
 51
180.0
  0
ARC
  5
4E8
100
AcDbEntity
  8
RACCORDO
100
AcDbCircle
 62
7
  6
CONTINUOUS
 10
-79.0359303861
 20
-26.9845655813
 40
0.1
100
AcDbArc
 50
180.0
 51
267.0000000079
  0
ARC
  5
4E9
100
AcDbEntity
  8
RACCORDO
100
AcDbCircle
 62
7
  6
CONTINUOUS
 10
-79.0359303861
 20
26.9845655813
 40
0.1
100
AcDbArc
 50
92.9999999921
 51
180.0
  0
ELLIPSE
  5
4EA
100
AcDbEntity
  8
RACCORDO
100
AcDbEllipse
 62
7
  6
CONTINUOUS
 10
-33.6235216412
 20
22.2735216412
 30
0.0
 11
0.1418092487
 21
-0.1418092487
 31
0.0
 40
0.9972646886
 41
2.3575640181
 42
3.9256212891
  0
ELLIPSE
  5
4EB
100
AcDbEntity
  8
RACCORDO
100
AcDbEllipse
 62
7
  6
CONTINUOUS
 10
33.6235216412
 20
22.2735216412
 30
0.0
 11
-0.1418092487
 21
-0.1418092487
 31
0.0
 40
0.9972646886
 41
2.3575640181
 42
3.9256212891
  0
ELLIPSE
  5
4EC
100
AcDbEntity
  8
RACCORDO
100
AcDbEllipse
 62
7
  6
CONTINUOUS
 10
33.6235216412
 20
-22.2735216412
 30
0.0
 11
0.1418092487
 21
-0.1418092487
 31
0.0
 40
0.9972646886
 41
-0.7840286355
 42
0.7840286355
  0
ELLIPSE
  5
4ED
100
AcDbEntity
  8
RACCORDO
100
AcDbEllipse
 62
7
  6
CONTINUOUS
 10
-33.6235216412
 20
-22.2735216412
 30
0.0
 11
0.1418092487
 21
0.1418092487
 31
0.0
 40
0.9972646886
 41
2.3575640181
 42
3.9256212891
  0
ELLIPSE
  5
4EE
100
AcDbEntity
  8
0
100
AcDbEllipse
 62
7
  6
CONTINUOUS
 10
-69.6359304562
 20
-25.9914384441
 30
0.0
 11
0.1417119467
 21
0.1422961243
 31
0.0
 40
0.9918061237
 41
-0.7833412615
 42
0.7350951877
  0
ELLIPSE
  5
4EF
100
AcDbEntity
  8
0
100
AcDbEllipse
 62
7
  6
CONTINUOUS
 10
-69.6359304562
 20
25.9914384441
 30
0.0
 11
-0.1417119467
 21
0.1422961243
 31
0.0
 40
0.9918061237
 41
-3.8766878413
 42
-2.358251392
  0
ENDSEC
  0
SECTION
  2
OBJECTS
  0
DICTIONARY
  5
C
100
AcDbDictionary
280
0
281
1
  3
ACAD_GROUP
350
D
  3
ACAD_MLINESTYLE
350
17
  3
ACAD_LAYOUT
350
1A
  3
ACAD_PLOTSETTINGS
350
19
  3
ACAD_PLOTSTYLENAME
350
E
  0
DICTIONARY
  5
D
102
{ACAD_REACTORS
330
C
102
}
100
AcDbDictionary
280
0
281
1
  0
ACDBDICTIONARYWDFLT
  5
E
102
{ACAD_REACTORS
330
C
102
}
100
AcDbDictionary
281
1
  3
Normal
350
F
100
AcDbDictionaryWithDefault
340
F
  0
DICTIONARY
  5
17
102
{ACAD_REACTORS
330
C
102
}
100
AcDbDictionary
280
0
281
1
  3
Standard
350
18
  0
DICTIONARY
  5
19
102
{ACAD_REACTORS
330
C
102
}
100
AcDbDictionary
281
1
  0
DICTIONARY
  5
1A
102
{ACAD_REACTORS
330
C
102
}
100
AcDbDictionary
281
1
  3
Model
350
4F0
  3
Layout1
350
4F1
  0
ACDBPLACEHOLDER
  5
F
102
{ACAD_REACTORS
330
E
102
}
  0
MLINESTYLE
  5
18
102
{ACAD_REACTORS
330
17
102
}
100
AcDbMlineStyle
  2
STANDARD
 70
0
  3

 62
256
 51
90.0
 52
90.0
 71
2
 49
0.5
 62
256
  6
BYLAYER
 49
-0.5
 62
256
  6
BYLAYER
  0
LAYOUT
  5
4F0
102
{ACAD_REACTORS
330
1A
102
}
100
AcDbPlotSettings
  1

  2
none_device
  4
ISO_A4_(297.00_x_210.00_MM)
  6

 40
0.0
 41
0.0
 42
0.0
 43
0.0
 44
297.0
 45
210.0
 46
0.0
 47
0.0
 48
0.0
 49
0.0
140
0.0
141
0.0
142
1.0
143
1.0
 70
1024
 72
1
 73
0
 74
0
  7

 75
0
147
1.0
148
0.0
149
0.0
100
AcDbLayout
  1
Model
 70
0
 71
0
 10
0.0
 20
0.0
 11
297.0
 21
210.0
 12
0.0
 22
0.0
 32
0.0
 14
0.0
 24
0.0
 34
0.0
 15
0.0
 25
0.0
 35
0.0
146
0.0
 13
0.0
 23
0.0
 33
0.0
 16
1.0
 26
0.0
 36
0.0
 17
0.0
 27
1.0
 37
0.0
 76
0
330
215
345
0
346
0
  0
LAYOUT
  5
4F1
102
{ACAD_REACTORS
330
1A
102
}
100
AcDbPlotSettings
  1

  2
none_device
  4
ISO_A4_(297.00_x_210.00_MM)
  6

 40
0.0
 41
0.0
 42
0.0
 43
0.0
 44
297.0
 45
210.0
 46
0.0
 47
0.0
 48
0.0
 49
0.0
140
0.0
141
0.0
142
1.0
143
1.0
 70
0
 72
1
 73
0
 74
0
  7

 75
0
147
1.0
148
0.0
149
0.0
100
AcDbLayout
  1
Layout1
 70
0
 71
1
 10
0.0
 20
0.0
 11
297.0
 21
210.0
 12
0.0
 22
0.0
 32
0.0
 14
0.0
 24
0.0
 34
0.0
 15
0.0
 25
0.0
 35
0.0
146
0.0
 13
0.0
 23
0.0
 33
0.0
 16
1.0
 26
0.0
 36
0.0
 17
0.0
 27
1.0
 37
0.0
 76
0
330
216
345
0
346
0
  0
ENDSEC
  0
EOF
