  0
SECTION
  2
HEADER
  9
$ACADVER
  1
AC1015
  9
$DWGCODEPAGE
  3
ANSI_1252
  9
$EXTMAX
 10
297.0
 20
210.0
 30
0.0
  9
$EXTMIN
 10
0.0
 20
0.0
 30
0.0
  9
$LIMMIN
 10
0.0
 20
0.0
  9
$LIMMAX
 10
297.0
 20
210.0
  9
$VIEWCTR
 10
148.5
 20
105.0
  9
$VIEWSIZE
 40
210.0
  9
$CLAYER
  8
0
  9
$LTSCALE
 40
16.335
  9
$CELTYPE
  6
BYLAYER
  9
$DIMSCALE
 40
1.0
  9
$DIMASZ
 40
3.0
  9
$DIMEXO
 40
0.5
  9
$DIMDLI
 40
11.286
  9
$DIMEXE
 40
1.5
  9
$DIMCEN
 40
2.673
  9
$DIMLFAC
 40
1.0
  9
$DIMBLK
  1
_FILLED
  9
$DIMTXT
 40
3.0
  9
$DIMTOL
 70
1
  9
$DIMLIM
 70
0
  9
$DIMTFAC
 40
1.0
  9
$DIMTP
 40
0.01
  9
$DIMTM
 40
0.01
  9
$DIMGAP
 40
0.625
  9
$DIMDSEP
 70
44
  9
$PDMODE
 70
3
  9
$PDSIZE
 40
3.0
  9
$HANDSEED
  5
487
  9
$TILEMODE
 70
1
  9
$MEASUREMENT
 70
1
  9
$INSUNITS
 70
4
  0
ENDSEC
  0
SECTION
  2
CLASSES
  0
CLASS
  1
ACDBDICTIONARYWDFLT
  2
AcDbDictionaryWithDefault
  3
AutoCAD 2000
 90
0
280
0
281
0
  0
CLASS
  1
ACDBPLACEHOLDER
  2
AcDbPlaceHolder
  3
AutoCAD 2000
 90
0
280
0
281
0
  0
CLASS
  1
LAYOUT
  2
AcDbLayout
  3
AutoCAD 2000
 90
0
280
0
281
0
  0
ENDSEC
  0
SECTION
  2
TABLES
  0
TABLE
  2
VPORT
  5
8
100
AcDbSymbolTable
 70
2
  0
VPORT
  5
1F4
100
AcDbSymbolTableRecord
100
AcDbViewportTableRecord
  2
*ACTIVE
 70
0
 10
0.0
 20
0.0
 11
1.0
 21
1.0
 12
148.5
 22
105.0
 13
0.0
 23
0.0
 14
1.0
 24
1.0
 15
0.0
 25
0.0
 16
0.0
 26
0.0
 36
1.0
 17
0.0
 27
0.0
 37
0.0
 40
210.0
 41
1.4142857143
 42
50.0
 43
0.0
 44
0.0
 50
0.0
 51
0.0
 71
0
 72
100
 73
1
 74
1
 75
0
 76
0
 77
0
 78
0
  0
ENDTAB
  0
TABLE
  2
LTYPE
  5
5
100
AcDbSymbolTable
 70
6
  0
LTYPE
  5
14
100
AcDbSymbolTableRecord
100
AcDbLinetypeTableRecord
  2
BYBLOCK
 70
0
  3

 72
65
 73
0
 40
0.0
  0
LTYPE
  5
15
100
AcDbSymbolTableRecord
100
AcDbLinetypeTableRecord
  2
BYLAYER
 70
0
  3

 72
65
 73
0
 40
0.0
  0
LTYPE
  5
16
100
AcDbSymbolTableRecord
100
AcDbLinetypeTableRecord
  2
CONTINUOUS
 70
64
  3
Solid line
 72
65
 73
0
 40
0.0
  0
LTYPE
  5
1F5
100
AcDbSymbolTableRecord
100
AcDbLinetypeTableRecord
  2
CENTER
 70
64
  3
____ _ ____ _ ____ _ ____ _ ____ _ ____ _ ____
 72
65
 73
4
 40
0.6
 49
0.375
 74
0
 49
-0.075
 74
0
 49
0.075
 74
0
 49
-0.075
 74
0
  0
LTYPE
  5
1F6
100
AcDbSymbolTableRecord
100
AcDbLinetypeTableRecord
  2
HIDDEN
 70
64
  3
- - - - - - - - - - - - - - - - - - - -
 72
65
 73
2
 40
0.2
 49
0.1
 74
0
 49
-0.1
 74
0
  0
LTYPE
  5
1F7
100
AcDbSymbolTableRecord
100
AcDbLinetypeTableRecord
  2
PHANTOM
 70
64
  3
_____ _ _ _____ _ _ _____ _ _ _____
 72
65
 73
6
 40
0.8
 49
0.45
 74
0
 49
-0.05
 74
0
 49
0.1
 74
0
 49
-0.05
 74
0
 49
0.1
 74
0
 49
-0.05
 74
0
  0
LTYPE
  5
1F8
100
AcDbSymbolTableRecord
100
AcDbLinetypeTableRecord
  2
DOT
 70
64
  3
. . . . . . . . . . . . . . . . . . . .
 72
65
 73
2
 40
0.2
 49
0.1
 74
0
 49
-0.1
 74
0
  0
LTYPE
  5
1F9
100
AcDbSymbolTableRecord
100
AcDbLinetypeTableRecord
  2
DASHED
 70
64
  3
- - - - - - - - - - - - - - - - - - - -
 72
65
 73
2
 40
0.2
 49
0.1
 74
0
 49
-0.1
 74
0
  0
ENDTAB
  0
TABLE
  2
LAYER
  5
2
100
AcDbSymbolTable
 70
36
  0
LAYER
  5
10
100
AcDbSymbolTableRecord
100
AcDbLayerTableRecord
  2
0
 70
0
 62
7
  6
CONTINUOUS
370
-3
390
F
  0
LAYER
  5
1FA
100
AcDbSymbolTableRecord
100
AcDbLayerTableRecord
  2
DEFAULT_1
 70
0
 62
7
  6
CENTER
370
-3
390
F
  0
LAYER
  5
1FB
100
AcDbSymbolTableRecord
100
AcDbLayerTableRecord
  2
DEFAULT_2
 70
0
 62
7
  6
HIDDEN
370
-3
390
F
  0
LAYER
  5
1FC
100
AcDbSymbolTableRecord
100
AcDbLayerTableRecord
  2
DEFAULT_3
 70
0
 62
7
  6
PHANTOM
370
-3
390
F
  0
LAYER
  5
1FD
100
AcDbSymbolTableRecord
100
AcDbLayerTableRecord
  2
ASSI
 70
0
 62
7
  6
CONTINUOUS
370
-3
390
F
  0
LAYER
  5
1FE
100
AcDbSymbolTableRecord
100
AcDbLayerTableRecord
  2
COORDINATE
 70
0
 62
7
  6
CONTINUOUS
370
-3
390
F
  0
LAYER
  5
1FF
100
AcDbSymbolTableRecord
100
AcDbLayerTableRecord
  2
COORD_ORIGINE
 70
0
 62
7
  6
CONTINUOUS
370
-3
390
F
  0
LAYER
  5
200
100
AcDbSymbolTableRecord
100
AcDbLayerTableRecord
  2
COPIA_X_PUBLISH
 70
0
 62
7
  6
CONTINUOUS
370
-3
390
F
  0
LAYER
  5
201
100
AcDbSymbolTableRecord
100
AcDbLayerTableRecord
  2
COPY_PLACCA
 70
0
 62
7
  6
CONTINUOUS
370
-3
390
F
  0
LAYER
  5
202
100
AcDbSymbolTableRecord
100
AcDbLayerTableRecord
  2
COPY_SUPP
 70
0
 62
7
  6
CONTINUOUS
370
-3
390
F
  0
LAYER
  5
203
100
AcDbSymbolTableRecord
100
AcDbLayerTableRecord
  2
CURVE
 70
0
 62
7
  6
CONTINUOUS
370
-3
390
F
  0
LAYER
  5
204
100
AcDbSymbolTableRecord
100
AcDbLayerTableRecord
  2
DRAFT
 70
0
 62
7
  6
CONTINUOUS
370
-3
390
F
  0
LAYER
  5
205
100
AcDbSymbolTableRecord
100
AcDbLayerTableRecord
  2
IMPORT_SCRITTE
 70
0
 62
7
  6
CONTINUOUS
370
-3
390
F
  0
LAYER
  5
206
100
AcDbSymbolTableRecord
100
AcDbLayerTableRecord
  2
INTF_1
 70
0
 62
7
  6
CONTINUOUS
370
-3
390
F
  0
LAYER
  5
207
100
AcDbSymbolTableRecord
100
AcDbLayerTableRecord
  2
INTF_CYAN
 70
0
 62
7
  6
CONTINUOUS
370
-3
390
F
  0
LAYER
  5
208
100
AcDbSymbolTableRecord
100
AcDbLayerTableRecord
  2
NOTE
 70
0
 62
7
  6
CONTINUOUS
370
-3
390
F
  0
LAYER
  5
209
100
AcDbSymbolTableRecord
100
AcDbLayerTableRecord
  2
PIANI
 70
0
 62
7
  6
CONTINUOUS
370
-3
390
F
  0
LAYER
  5
20A
100
AcDbSymbolTableRecord
100
AcDbLayerTableRecord
  2
PIANI_ORIGINE
 70
0
 62
7
  6
CONTINUOUS
370
-3
390
F
  0
LAYER
  5
20B
100
AcDbSymbolTableRecord
100
AcDbLayerTableRecord
  2
PIANI_RIFERIMENTO
 70
0
 62
7
  6
CONTINUOUS
370
-3
390
F
  0
LAYER
  5
20C
100
AcDbSymbolTableRecord
100
AcDbLayerTableRecord
  2
PUNTI
 70
0
 62
7
  6
CONTINUOUS
370
-3
390
F
  0
LAYER
  5
20D
100
AcDbSymbolTableRecord
100
AcDbLayerTableRecord
  2
RACCORDO
 70
0
 62
7
  6
CONTINUOUS
370
-3
390
F
  0
LAYER
  5
20E
100
AcDbSymbolTableRecord
100
AcDbLayerTableRecord
  2
SMUSSO
 70
0
 62
7
  6
CONTINUOUS
370
-3
390
F
  0
LAYER
  5
20F
100
AcDbSymbolTableRecord
100
AcDbLayerTableRecord
  2
SNAPLINE
 70
0
 62
7
  6
CONTINUOUS
370
-3
390
F
  0
LAYER
  5
210
100
AcDbSymbolTableRecord
100
AcDbLayerTableRecord
  2
SUPERFICI
 70
0
 62
7
  6
CONTINUOUS
370
-3
390
F
  0
LAYER
  5
211
100
AcDbSymbolTableRecord
100
AcDbLayerTableRecord
  2
TRASH
 70
0
 62
7
  6
CONTINUOUS
370
-3
390
F
  0
LAYER
  5
212
100
AcDbSymbolTableRecord
100
AcDbLayerTableRecord
  2
XSEC_DATUMS
 70
0
 62
7
  6
CONTINUOUS
370
-3
390
F
  0
ENDTAB
  0
TABLE
  2
STYLE
  5
3
100
AcDbSymbolTable
 70
1
  0
STYLE
  5
11
100
AcDbSymbolTableRecord
100
AcDbTextStyleTableRecord
  2
STANDARD
 70
0
 40
0.0
 41
0.8
 50
0.0
 71
0
 42
0.2
  3
txt
  4

  0
STYLE
  5
213
100
AcDbSymbolTableRecord
100
AcDbTextStyleTableRecord
  2
TEXTSTYLE_1
 70
0
 40
0.0
 41
0.8
 50
0.0
 71
0
 42
0.2
  3
gdt
  4

  0
ENDTAB
  0
TABLE
  2
VIEW
  5
6
100
AcDbSymbolTable
 70
0
  0
ENDTAB
  0
TABLE
  2
UCS
  5
7
100
AcDbSymbolTable
 70
0
  0
ENDTAB
  0
TABLE
  2
APPID
  5
9
100
AcDbSymbolTable
 70
1
  0
APPID
  5
214
100
AcDbSymbolTableRecord
100
AcDbRegAppTableRecord
  2
ACAD
 70
0
  0
ENDTAB
  0
TABLE
  2
BLOCK_RECORD
  5
1
100
AcDbSymbolTable
 70
0
  0
BLOCK_RECORD
  5
215
100
AcDbSymbolTableRecord
100
AcDbBlockTableRecord
  2
*Model_Space
  0
BLOCK_RECORD
  5
216
100
AcDbSymbolTableRecord
100
AcDbBlockTableRecord
  2
*Paper_Space
  0
BLOCK_RECORD
  5
217
100
AcDbSymbolTableRecord
100
AcDbBlockTableRecord
  2
_FILLED
  0
BLOCK_RECORD
  5
218
100
AcDbSymbolTableRecord
100
AcDbBlockTableRecord
  2
*D0
  0
BLOCK_RECORD
  5
219
100
AcDbSymbolTableRecord
100
AcDbBlockTableRecord
  2
*D1
  0
BLOCK_RECORD
  5
21A
100
AcDbSymbolTableRecord
100
AcDbBlockTableRecord
  2
*D2
  0
BLOCK_RECORD
  5
21B
100
AcDbSymbolTableRecord
100
AcDbBlockTableRecord
  2
*D3
  0
ENDTAB
  0
TABLE
  2
DIMSTYLE
  5
A
100
AcDbSymbolTable
 70
1
100
AcDbDimStyleTable
 71
0
  0
DIMSTYLE
105
21C
100
AcDbSymbolTableRecord
100
AcDbDimStyleTableRecord
  2
STANDARD
 70
0
  3

  4

 40
1.0
 41
3.0
 42
0.5
 43
0.38
 44
1.5
 45
0.0
 46
0.0
 47
0.01
 48
0.01
140
3.0
141
0.09
142
0.0
143
25.4
144
1.0
145
0.0
146
1.0
147
0.625
 71
1.0
 72
0.0
 73
0
 74
0
 75
0
 76
0
 77
1
 78
8
170
0
171
2
172
0
173
0
174
0
175
0
176
0
177
0
178
0
270
2
271
2
272
2
273
2
274
2
275
0
280
0
281
0
282
0
283
1
284
8
285
0
286
0
287
3
288
0
340
11
278
44
341
217
342
217
343
217
344
217
  0
DIMSTYLE
105
21D
100
AcDbSymbolTableRecord
100
AcDbDimStyleTableRecord
  2
DIMSTYLE_1
 70
0
  3

  4

 40
1.0
 41
3.0
 42
0.5
 43
0.38
 44
1.5
 45
0.0
 46
0.0
 47
0.0
 48
0.0
140
3.0
141
0.09
142
0.0
143
25.4
144
1.0
145
0.0
146
1.0
147
0.75
 71
0.0
 72
0.0
 73
0
 74
0
 75
0
 76
0
 77
1
 78
8
170
0
171
2
172
0
173
0
174
0
175
0
176
0
177
0
178
0
270
2
271
2
272
2
273
2
274
2
275
0
280
0
281
0
282
0
283
1
284
8
285
0
286
0
287
3
288
0
340
11
278
44
341
217
342
217
343
217
344
217
  0
ENDTAB
  0
ENDSEC
  0
SECTION
  2
BLOCKS
  0
BLOCK
  5
20
100
AcDbEntity
  8
0
100
AcDbBlockBegin
  2
*Model_Space
 70
0
 10
0.0
 20
0.0
 30
0.0
  3
*Model_Space
  1

  0
ENDBLK
  5
21
100
AcDbEntity
  8
0
100
AcDbBlockEnd
  0
BLOCK
  5
1C
100
AcDbEntity
  8
0
100
AcDbBlockBegin
  2
*Paper_Space
 70
0
 10
0.0
 20
0.0
 30
0.0
  3
*Paper_Space
  1

  0
ENDBLK
  5
1D
100
AcDbEntity
  8
0
100
AcDbBlockEnd
  0
BLOCK
  5
21E
100
AcDbEntity
  8
0
100
AcDbBlockBegin
  2
_FILLED
 70
64
 10
0.0
 20
0.0
  3
_FILLED
  1

  0
SOLID
  5
21F
100
AcDbEntity
  8
0
  6
BYBLOCK
 62
0
100
AcDbTrace
 10
0.0
 20
0.0
 11
-1.0
 21
0.3166666667
 12
-1.0
 22
-0.3166666667
 13
-1.0
 23
-0.3166666667
  0
ENDBLK
  5
220
100
AcDbEntity
  8
0
  6
BYBLOCK
 62
0
100
AcDbBlockEnd
  0
BLOCK
  5
221
100
AcDbEntity
  8
0
100
AcDbBlockBegin
 62
7
  6
CONTINUOUS
  2
*D0
 70
65
 10
0.0
 20
0.0
  3
*D0
  1

  0
MTEXT
  5
222
100
AcDbEntity
  8
0
100
AcDbMText
 62
7
  6
CONTINUOUS
  7
STANDARD
 71
2
 72
1
 10
83.65
 20
0.0
 30
0.0
 11
0.0
 21
1.0
 31
0.0
 44
0.9
  1
94,8
 40
3.0
 41
8.7857142857
  0
LINE
  5
223
100
AcDbEntity
  8
0
100
AcDbLine
 62
7
  6
CONTINUOUS
 10
76.002555801
 20
47.3999918332
 11
88.9
 21
47.3999918332
  0
LINE
  5
224
100
AcDbEntity
  8
0
100
AcDbLine
 62
7
  6
CONTINUOUS
 10
76.002555801
 20
-47.3999918332
 11
88.9
 21
-47.3999918332
  0
LINE
  5
225
100
AcDbEntity
  8
0
100
AcDbLine
 62
7
  6
CONTINUOUS
 10
87.4
 20
47.3999918332
 11
87.4
 21
0.0
  0
LINE
  5
226
100
AcDbEntity
  8
0
100
AcDbLine
 62
7
  6
CONTINUOUS
 10
87.4
 20
-47.3999918332
 11
87.4
 21
0.0
  0
INSERT
  5
227
100
AcDbEntity
  8
0
100
AcDbBlockReference
 62
7
  6
CONTINUOUS
  2
_FILLED
 10
87.4
 20
47.3999918332
 41
3.0
 42
3.0
 43
3.0
 50
90.0
  0
INSERT
  5
228
100
AcDbEntity
  8
0
100
AcDbBlockReference
 62
7
  6
CONTINUOUS
  2
_FILLED
 10
87.4
 20
-47.3999918332
 41
3.0
 42
3.0
 43
3.0
 50
270.0
  0
ENDBLK
  5
229
100
AcDbEntity
  8
0
  6
BYBLOCK
 62
0
100
AcDbBlockEnd
  0
BLOCK
  5
22A
100
AcDbEntity
  8
0
100
AcDbBlockBegin
 62
7
  6
CONTINUOUS
  2
*D1
 70
65
 10
0.0
 20
0.0
  3
*D1
  1

  0
MTEXT
  5
22B
100
AcDbEntity
  8
0
100
AcDbMText
 62
7
  6
CONTINUOUS
  7
STANDARD
 71
2
 72
1
 10
0.0
 20
61.1499821715
 30
0.0
 11
1.0
 21
0.0
 31
0.0
 44
0.9
  1
154,8
 40
3.0
 41
10.2857142857
  0
LINE
  5
22C
100
AcDbEntity
  8
0
100
AcDbLine
 62
7
  6
CONTINUOUS
 10
77.4
 20
46.0064558509
 11
77.4
 21
58.8999821715
  0
LINE
  5
22D
100
AcDbEntity
  8
0
100
AcDbLine
 62
7
  6
CONTINUOUS
 10
-77.4
 20
46.0064558509
 11
-77.4
 21
58.8999821715
  0
LINE
  5
22E
100
AcDbEntity
  8
0
100
AcDbLine
 62
7
  6
CONTINUOUS
 10
77.4
 20
57.3999821715
 11
0.0
 21
57.3999821715
  0
LINE
  5
22F
100
AcDbEntity
  8
0
100
AcDbLine
 62
7
  6
CONTINUOUS
 10
-77.4
 20
57.3999821715
 11
0.0
 21
57.3999821715
  0
INSERT
  5
230
100
AcDbEntity
  8
0
100
AcDbBlockReference
 62
7
  6
CONTINUOUS
  2
_FILLED
 10
77.4
 20
57.3999821715
 41
3.0
 42
3.0
 43
3.0
  0
INSERT
  5
231
100
AcDbEntity
  8
0
100
AcDbBlockReference
 62
7
  6
CONTINUOUS
  2
_FILLED
 10
-77.4
 20
57.3999821715
 41
3.0
 42
3.0
 43
3.0
 50
180.0
  0
ENDBLK
  5
232
100
AcDbEntity
  8
0
  6
BYBLOCK
 62
0
100
AcDbBlockEnd
  0
BLOCK
  5
233
100
AcDbEntity
  8
0
100
AcDbBlockBegin
 62
7
  6
CONTINUOUS
  2
*D2
 70
65
 10
0.0
 20
0.0
  3
*D2
  1

  0
MTEXT
  5
234
100
AcDbEntity
  8
0
100
AcDbMText
 62
7
  6
CONTINUOUS
  7
STANDARD
 71
2
 72
1
 10
-110.1212752351
 20
61.1497469692
 30
0.0
 11
1.0
 21
0.0
 31
0.0
 44
0.9
  1
9
 40
3.0
 41
2.3571428571
  0
LINE
  5
235
100
AcDbEntity
  8
0
100
AcDbLine
 62
7
  6
CONTINUOUS
 10
-105.6212752351
 20
46.0
 11
-105.6212752351
 21
58.8997469692
  0
LINE
  5
236
100
AcDbEntity
  8
0
100
AcDbLine
 62
7
  6
CONTINUOUS
 10
-114.6212752351
 20
27.4869267647
 11
-114.6212752351
 21
58.8997469692
  0
LINE
  5
237
100
AcDbEntity
  8
0
100
AcDbLine
 62
7
  6
CONTINUOUS
 10
-105.6212752351
 20
57.3997469692
 11
-110.1212752351
 21
57.3997469692
  0
LINE
  5
238
100
AcDbEntity
  8
0
100
AcDbLine
 62
7
  6
CONTINUOUS
 10
-114.6212752351
 20
57.3997469692
 11
-110.1212752351
 21
57.3997469692
  0
INSERT
  5
239
100
AcDbEntity
  8
0
100
AcDbBlockReference
 62
7
  6
CONTINUOUS
  2
_FILLED
 10
-105.6212752351
 20
57.3997469692
 41
3.0
 42
3.0
 43
3.0
  0
INSERT
  5
23A
100
AcDbEntity
  8
0
100
AcDbBlockReference
 62
7
  6
CONTINUOUS
  2
_FILLED
 10
-114.6212752351
 20
57.3997469692
 41
3.0
 42
3.0
 43
3.0
 50
180.0
  0
ENDBLK
  5
23B
100
AcDbEntity
  8
0
  6
BYBLOCK
 62
0
100
AcDbBlockEnd
  0
BLOCK
  5
23C
100
AcDbEntity
  8
0
100
AcDbBlockBegin
 62
7
  6
CONTINUOUS
  2
*D3
 70
65
 10
0.0
 20
0.0
  3
*D3
  1

  0
MTEXT
  5
23D
100
AcDbEntity
  8
0
100
AcDbMText
 62
7
  6
CONTINUOUS
  7
STANDARD
 71
2
 72
1
 10
-109.7712752351
 20
69.0691965858
 30
0.0
 11
1.0
 21
0.0
 31
0.0
 44
0.9
  1
9,7
 40
3.0
 41
6.4285714286
  0
LINE
  5
23E
100
AcDbEntity
  8
0
100
AcDbLine
 62
7
  6
CONTINUOUS
 10
-104.9212752351
 20
26.85
 11
-104.9212752351
 21
66.8191965858
  0
LINE
  5
23F
100
AcDbEntity
  8
0
100
AcDbLine
 62
7
  6
CONTINUOUS
 10
-114.6212752351
 20
27.4869267647
 11
-114.6212752351
 21
66.8191965858
  0
LINE
  5
240
100
AcDbEntity
  8
0
100
AcDbLine
 62
7
  6
CONTINUOUS
 10
-104.9212752351
 20
65.3191965858
 11
-109.7712752351
 21
65.3191965858
  0
LINE
  5
241
100
AcDbEntity
  8
0
100
AcDbLine
 62
7
  6
CONTINUOUS
 10
-114.6212752351
 20
65.3191965858
 11
-109.7712752351
 21
65.3191965858
  0
INSERT
  5
242
100
AcDbEntity
  8
0
100
AcDbBlockReference
 62
7
  6
CONTINUOUS
  2
_FILLED
 10
-104.9212752351
 20
65.3191965858
 41
3.0
 42
3.0
 43
3.0
  0
INSERT
  5
243
100
AcDbEntity
  8
0
100
AcDbBlockReference
 62
7
  6
CONTINUOUS
  2
_FILLED
 10
-114.6212752351
 20
65.3191965858
 41
3.0
 42
3.0
 43
3.0
 50
180.0
  0
ENDBLK
  5
244
100
AcDbEntity
  8
0
  6
BYBLOCK
 62
0
100
AcDbBlockEnd
  0
ENDSEC
  0
SECTION
  2
ENTITIES
  0
DIMENSION
  5
245
100
AcDbEntity
  8
0
100
AcDbDimension
 62
7
  6
CONTINUOUS
  2
*D0
 10
87.4
 20
-47.3999918332
 11
87.4
 21
0.0
 70
160
 71
2
 42
94.7999836663
  3
DIMSTYLE_1
100
AcDbAlignedDimension
 13
75.502555801
 23
47.3999918332
 14
75.502555801
 24
-47.3999918332
 50
270.0
100
AcDbRotatedDimension
  0
DIMENSION
  5
246
100
AcDbEntity
  8
0
100
AcDbDimension
 62
7
  6
CONTINUOUS
  2
*D1
 10
-77.4
 20
57.3999821715
 11
0.0
 21
57.3999821715
 70
160
 71
2
 42
154.8
  3
DIMSTYLE_1
100
AcDbAlignedDimension
 13
77.4
 23
45.5064558509
 14
-77.4
 24
45.5064558509
 50
180.0
100
AcDbRotatedDimension
  0
DIMENSION
  5
247
100
AcDbEntity
  8
0
100
AcDbDimension
 62
7
  6
CONTINUOUS
  2
*D2
 10
-114.6212752351
 20
57.3997469692
 11
-110.1212752351
 21
57.3997469692
 70
160
 71
2
 42
9.0
  3
DIMSTYLE_1
100
AcDbAlignedDimension
 13
-105.6212752351
 23
45.5
 14
-114.6212752351
 24
26.9869267647
 50
180.0
100
AcDbRotatedDimension
  0
DIMENSION
  5
248
100
AcDbEntity
  8
0
100
AcDbDimension
 62
7
  6
CONTINUOUS
  2
*D3
 10
-114.6212752351
 20
65.3191965858
 11
-109.7712752351
 21
65.3191965858
 70
160
 71
2
 42
9.7
  3
DIMSTYLE_1
100
AcDbAlignedDimension
 13
-104.9212752351
 23
26.35
 14
-114.6212752351
 24
26.9869267647
 50
180.0
100
AcDbRotatedDimension
  0
LWPOLYLINE
  5
249
100
AcDbEntity
  8
RACCORDO
100
AcDbPolyline
 62
253
  6
CONTINUOUS
 90
16
 70
0
 10
-76.3214298494
 20
-45.2923555904
 10
-76.3155978969
 20
-45.3980607937
 10
-76.2994146615
 20
-45.5005254269
 10
-76.2728801333
 20
-45.5997494899
 10
-76.2354955499
 20
-45.6967741033
 10
-76.1877596343
 20
-45.7905581464
 10
-76.1311685999
 20
-45.8779782578
 10
-76.0654175487
 20
-45.9588087257
 10
-75.9908113147
 20
-46.033275262
 10
-75.9097607176
 20
-46.0989316398
 10
-75.8219807995
 20
-46.1554804005
 10
-75.7277564543
 20
-46.2032190029
 10
-75.6303533038
 20
-46.2405935966
 10
-75.5308598847
 20
-46.2670862317
 10
-75.4281876286
 20
-46.2832148581
 10
-75.3223365168
 20
-46.2889794759
  0
LWPOLYLINE
  5
24A
100
AcDbEntity
  8
RACCORDO
100
AcDbPolyline
 62
253
  6
CONTINUOUS
 90
16
 70
0
 10
-77.1853714605
 20
-45.2923556221
 10
-77.1748550883
 20
-45.4902949796
 10
-77.1436829505
 20
-45.685919862
 10
-77.0923037886
 20
-45.8771231925
 10
-77.0213439929
 20
-46.0618411308
 10
-76.9314571918
 20
-46.2381303265
 10
-76.8236280101
 20
-46.404250613
 10
-76.6989958197
 20
-46.5584084154
 10
-76.5588206741
 20
-46.6987268204
 10
-76.4047189429
 20
-46.8236865961
 10
-76.2384664435
 20
-46.9319533925
 10
-76.0618082938
 20
-47.0222512896
 10
-75.8766087822
 20
-47.093651415
 10
-75.6848312409
 20
-47.1454163673
 10
-75.4884941254
 20
-47.1768408787
 10
-75.289862873
 20
-47.1876411147
  0
LWPOLYLINE
  5
24B
100
AcDbEntity
  8
RACCORDO
100
AcDbPolyline
 62
253
  6
CONTINUOUS
 90
13
 70
0
 10
-75.3223365163
 20
-46.2889794759
 10
-75.3220629854
 20
-46.4025557126
 10
-75.3212458419
 20
-46.5143159448
 10
-75.3198981514
 20
-46.6224732049
 10
-75.3180414625
 20
-46.7252981339
 10
-75.3157054623
 20
-46.8211466334
 10
-75.312927502
 20
-46.9084861533
 10
-75.3097519989
 20
-46.9859201958
 10
-75.3062297273
 20
-47.0522106447
 10
-75.3024170068
 20
-47.1062975623
 10
-75.2983748005
 20
-47.1473161365
 10
-75.2941677402
 20
-47.174610509
 10
-75.2898630938
 20
-47.1877442617
  0
LINE
  5
24C
100
AcDbEntity
  8
RACCORDO
100
AcDbLine
 62
7
  6
CONTINUOUS
 10
-77.4
 20
45.5064558035
 11
-77.4
 21
-45.5064558035
  0
LINE
  5
24D
100
AcDbEntity
  8
RACCORDO
100
AcDbLine
 62
253
  6
CONTINUOUS
 10
-77.1854697942
 20
45.2923555904
 11
-77.1854697942
 21
-45.2923555904
  0
LINE
  5
24E
100
AcDbEntity
  8
RACCORDO
100
AcDbLine
 62
253
  6
CONTINUOUS
 10
-76.3214298494
 20
45.2923555904
 11
-76.3214298494
 21
-45.2923555904
  0
LWPOLYLINE
  5
24F
100
AcDbEntity
  8
RACCORDO
100
AcDbPolyline
 62
253
  6
CONTINUOUS
 90
13
 70
0
 10
-75.3223365139
 20
46.2889794759
 10
-75.3220628555
 20
46.4025453207
 10
-75.3212456113
 20
46.5142944789
 10
-75.3198978464
 20
46.6224403092
 10
-75.3180411082
 20
46.7252537799
 10
-75.3157050818
 20
46.8210911134
 10
-75.3129271155
 20
46.9084200662
 10
-75.3097516234
 20
46.9858444261
 10
-75.3062293757
 20
47.0521263355
 10
-75.3024166876
 20
47.1062060816
 10
-75.2983745172
 20
47.1472190394
 10
-75.2941674915
 20
47.1745094952
 10
-75.289862873
 20
47.1876411299
  0
LWPOLYLINE
  5
250
100
AcDbEntity
  8
RACCORDO
100
AcDbPolyline
 62
7
  6
CONTINUOUS
 90
19
 70
0
 10
-77.4
 20
45.5064558509
 10
-77.3932338716
 20
45.6704088502
 10
-77.3722468128
 20
45.8319446017
 10
-77.3370388059
 20
45.9910631055
 10
-77.2869538625
 20
46.1495842932
 10
-77.2226478975
 20
46.3056882332
 10
-77.1460887376
 20
46.4539151305
 10
-77.057221277
 20
46.5932104232
 10
-76.9561005009
 20
46.7246286732
 10
-76.8448593794
 20
46.8458737714
 10
-76.7234551601
 20
46.9568581998
 10
-76.5919304564
 20
47.0576694763
 10
-76.4525463079
 20
47.146274046
 10
-76.3043214159
 20
47.2226419658
 10
-76.1482369417
 20
47.2868031788
 10
-75.9894976759
 20
47.3368139589
 10
-75.829838554
 20
47.3720263975
 10
-75.6675246037
 20
47.3930884032
 10
-75.502555801
 20
47.399999976
  0
LWPOLYLINE
  5
251
100
AcDbEntity
  8
RACCORDO
100
AcDbPolyline
 62
253
  6
CONTINUOUS
 90
10
 70
0
 10
-57.4853630021
 20
25.7694941991
 10
-57.4842454081
 20
25.7522385547
 10
-57.4830739439
 20
25.7355026136
 10
-57.4818838916
 20
25.7197904274
 10
-57.480711093
 20
25.7055752142
 10
-57.4795908703
 20
25.6932851066
 10
-57.4785569624
 20
25.6832902567
 10
-57.4776405083
 20
25.6758916886
 10
-57.4768691098
 20
25.6713122317
 10
-57.4762659997
 20
25.6696898095
  0
LINE
  5
252
100
AcDbEntity
  8
RACCORDO
100
AcDbLine
 62
253
  6
CONTINUOUS
 10
-57.1939940949
 20
25.2134217353
 11
-57.1949900787
 21
25.2301613572
  0
LWPOLYLINE
  5
253
100
AcDbEntity
  8
RACCORDO
100
AcDbPolyline
 62
7
  6
CONTINUOUS
 90
16
 70
0
 10
-58.5
 20
-24.5642043969
 10
-58.4940224746
 20
-24.6763356467
 10
-58.4774813049
 20
-24.7852417847
 10
-58.4503764831
 20
-24.890922811
 10
-58.4121941066
 20
-24.9944193302
 10
-58.3634480465
 20
-25.0946907377
 10
-58.3056799518
 20
-25.1886152195
 10
-58.2387247893
 20
-25.2758951264
 10
-58.1627475417
 20
-25.3568281077
 10
-58.0797848869
 20
-25.4291852974
 10
-57.9894413251
 20
-25.4928340272
 10
-57.8921123015
 20
-25.5479069655
 10
-57.7910209287
 20
-25.5925732505
 10
-57.6872415726
 20
-25.6262225953
 10
-57.579699837
 20
-25.649465287
 10
-57.4683957041
 20
-25.6623013256
  0
LINE
  5
254
100
AcDbEntity
  8
RACCORDO
100
AcDbLine
 62
253
  6
CONTINUOUS
 10
-57.1949900787
 20
25.2301613572
 11
-57.1958759306
 21
25.2464267457
  0
LINE
  5
255
100
AcDbEntity
  8
RACCORDO
100
AcDbLine
 62
253
  6
CONTINUOUS
 10
-57.1958759306
 20
25.2464267457
 11
-57.1966265545
 21
25.2617571061
  0
LINE
  5
256
100
AcDbEntity
  8
RACCORDO
100
AcDbLine
 62
253
  6
CONTINUOUS
 10
-57.1966265545
 20
25.2617571061
 11
-57.197041166
 21
25.2712419465
  0
LINE
  5
257
100
AcDbEntity
  8
RACCORDO
100
AcDbLine
 62
253
  6
CONTINUOUS
 10
-57.197041166
 20
25.2712419465
 11
-57.1973809063
 21
25.2799978124
  0
LINE
  5
258
100
AcDbEntity
  8
RACCORDO
100
AcDbLine
 62
253
  6
CONTINUOUS
 10
-56.4423341456
 20
22.6428812578
 11
-56.443608975
 21
22.6772485508
  0
LINE
  5
259
100
AcDbEntity
  8
RACCORDO
100
AcDbLine
 62
253
  6
CONTINUOUS
 10
-57.1973809063
 20
25.2799978124
 11
-57.1976414922
 21
25.2879143137
  0
LINE
  5
25A
100
AcDbEntity
  8
RACCORDO
100
AcDbLine
 62
253
  6
CONTINUOUS
 10
-56.443608975
 20
22.6772485508
 11
-56.4453065801
 21
22.7311645451
  0
LWPOLYLINE
  5
25B
100
AcDbEntity
  8
RACCORDO
100
AcDbPolyline
 62
253
  6
CONTINUOUS
 90
34
 70
0
 10
-56.4149608774
 20
-22.3652349705
 10
-56.4147094584
 20
-22.3747217989
 10
-56.4140077388
 20
-22.3841872108
 10
-56.4128573029
 20
-22.3936098386
 10
-56.4112607476
 20
-22.4029684113
 10
-56.4092216774
 20
-22.4122418026
 10
-56.4067446952
 20
-22.4214090785
 10
-56.4038353929
 20
-22.4304495443
 10
-56.4005003381
 20
-22.439342792
 10
-56.3967470596
 20
-22.4480687456
 10
-56.3925840301
 20
-22.456607707
 10
-56.3880206477
 20
-22.4649404
 10
-56.3830672139
 20
-22.4730480142
 10
-56.3777349107
 20
-22.4809122473
 10
-56.3720357757
 20
-22.4885153464
 10
-56.3659826742
 20
-22.4958401482
 10
-56.3595892709
 20
-22.5028701173
 10
-56.3528699983
 20
-22.5095893843
 10
-56.3458400249
 20
-22.5159827811
 10
-56.3385152204
 20
-22.5220358749
 10
-56.33091212
 20
-22.5277350015
 10
-56.3230478872
 20
-22.5330672957
 10
-56.3149402749
 20
-22.5380207201
 10
-56.3066075856
 20
-22.5425840929
 10
-56.2980686296
 20
-22.5467471127
 10
-56.2893426831
 20
-22.5505003819
 10
-56.2804494442
 20
-22.5538354278
 10
-56.2714089887
 20
-22.5567447218
 10
-56.2622417247
 20
-22.5592216964
 10
-56.2529683467
 20
-22.5612607602
 10
-56.2436097886
 20
-22.5628573102
 10
-56.2341871764
 20
-22.5640077422
 10
-56.2247217813
 20
-22.5647094593
 10
-56.2152349705
 20
-22.5649608774
  0
LINE
  5
25C
100
AcDbEntity
  8
RACCORDO
100
AcDbLine
 62
253
  6
CONTINUOUS
 10
-56.4453065801
 20
22.7311645451
 11
-56.4547558719
 21
23.114895349
  0
LINE
  5
25D
100
AcDbEntity
  8
RACCORDO
100
AcDbLine
 62
253
  6
CONTINUOUS
 10
-56.2465633731
 20
22.8529691956
 11
-56.255029965
 21
23.1994190014
  0
LWPOLYLINE
  5
25E
100
AcDbEntity
  8
RACCORDO
100
AcDbPolyline
 62
253
  6
CONTINUOUS
 90
12
 70
0
 10
-57.1976414922
 20
25.2879143137
 10
-57.1978196382
 20
25.2948916424
 10
-57.1978770529
 20
25.2980001334
 10
-57.1979130983
 20
25.3008418314
 10
-57.1979276608
 20
25.3034077726
 10
-57.1979206944
 20
25.3056898632
 10
-57.197892221
 20
25.3076809044
 10
-57.1978423305
 20
25.3093746158
 10
-57.1977711803
 20
25.3107656547
 10
-57.1976789948
 20
25.3118496334
 10
-57.1975660647
 20
25.3126231325
 10
-57.1974327463
 20
25.3130837122
  0
LWPOLYLINE
  5
25F
100
AcDbEntity
  8
RACCORDO
100
AcDbPolyline
 62
253
  6
CONTINUOUS
 90
49
 70
0
 10
-56.4547558719
 20
23.114895349
 10
-56.4552606228
 20
23.1456651288
 10
-56.4559971612
 20
23.1754230276
 10
-56.456943298
 20
23.2041690455
 10
-56.4580752862
 20
23.2318690707
 10
-56.4593734404
 20
23.258557215
 10
-56.460825623
 20
23.2843358138
 10
-56.4624153995
 20
23.3092035972
 10
-56.4641260884
 20
23.333161835
 10
-56.4659514097
 20
23.3563166719
 10
-56.4678785604
 20
23.3786676694
 10
-56.4698946689
 20
23.4002152659
 10
-56.4719983427
 20
23.4210669214
 10
-56.4741811299
 20
23.441234927
 10
-56.4764320112
 20
23.4607069914
 10
-56.4787492794
 20
23.4795537016
 10
-56.4811268179
 20
23.4977878949
 10
-56.4835550594
 20
23.515396734
 10
-56.4860288523
 20
23.5324122929
 10
-56.4885419341
 20
23.5488373834
 10
-56.4910867424
 20
23.5646691938
 10
-56.4936568137
 20
23.5799313631
 10
-56.4962453724
 20
23.5946196341
 10
-56.4988467212
 20
23.6087382641
 10
-56.5014564927
 20
23.6223236637
 10
-56.5040661624
 20
23.6353614892
 10
-56.5066732812
 20
23.6478660842
 10
-56.5092837416
 20
23.659916891
 10
-56.5118898395
 20
23.6715026566
 10
-56.514490871
 20
23.6826346339
 10
-56.5171053733
 20
23.6934260236
 10
-56.5197290529
 20
23.7038771793
 10
-56.5223609915
 20
23.7139877473
 10
-56.525027437
 20
23.7238698679
 10
-56.5277253552
 20
23.7335260472
 10
-56.5304554604
 20
23.7429537791
 10
-56.5332524462
 20
23.7522576843
 10
-56.5361173495
 20
23.761451393
 10
-56.5390497026
 20
23.7705212751
 10
-56.5420846904
 20
23.7795310613
 10
-56.545228051
 20
23.7885041078
 10
-56.5484769391
 20
23.7974170584
 10
-56.5518556975
 20
23.8062635752
 10
-56.5553735478
 20
23.8150692057
 10
-56.5590251704
 20
23.8238084024
 10
-56.5628137631
 20
23.8323981842
 10
-56.566741341
 20
23.8408108907
 10
-56.5708086556
 20
23.8490741823
 10
-56.5750167471
 20
23.8571880591
  0
LWPOLYLINE
  5
260
100
AcDbEntity
  8
RACCORDO
100
AcDbPolyline
 62
253
  6
CONTINUOUS
 90
52
 70
0
 10
-58.1340481758
 20
-24.3176647155
 10
-58.1336042134
 20
-24.3472035988
 10
-58.1322874808
 20
-24.3767092464
 10
-58.130099556
 20
-24.4061560302
 10
-58.1270428982
 20
-24.4355177388
 10
-58.1231205054
 20
-24.464769556
 10
-58.1183357078
 20
-24.4938880558
 10
-58.1126927465
 20
-24.5228486557
 10
-58.1061968709
 20
-24.551625551
 10
-58.098853854
 20
-24.5801936739
 10
-58.0906703676
 20
-24.6085280015
 10
-58.0816536916
 20
-24.6366042413
 10
-58.0718115344
 20
-24.6643987144
 10
-58.0611525758
 20
-24.6918873339
 10
-58.049686234
 20
-24.7190462603
 10
-58.0374222603
 20
-24.7458525443
 10
-58.0243713766
 20
-24.7722829145
 10
-58.010544999
 20
-24.798314454
 10
-57.9959548255
 20
-24.823925181
 10
-57.9806135109
 20
-24.8490928614
 10
-57.964534412
 20
-24.8737956065
 10
-57.94773115
 20
-24.8980124656
 10
-57.9302182907
 20
-24.9217223145
 10
-57.9120109859
 20
-24.94490455
 10
-57.8931245599
 20
-24.9675395854
 10
-57.8735752665
 20
-24.9896076917
 10
-57.8533800374
 20
-25.0110895481
 10
-57.8325559901
 20
-25.0319668335
 10
-57.8111210952
 20
-25.0522212224
 10
-57.7890938328
 20
-25.0718349818
 10
-57.7664928115
 20
-25.0907914019
 10
-57.7433374419
 20
-25.1090738199
 10
-57.7196477499
 20
-25.1266660788
 10
-57.6954439354
 20
-25.1435530169
 10
-57.6707468401
 20
-25.1597196778
 10
-57.6455777902
 20
-25.1751517188
 10
-57.6199583265
 20
-25.1898357637
 10
-57.5939105072
 20
-25.2037587247
 10
-57.5674568669
 20
-25.2169081416
 10
-57.5406202072
 20
-25.2292725081
 10
-57.513423739
 20
-25.2408406757
 10
-57.4858909523
 20
-25.2516022239
 10
-57.4580455326
 20
-25.2615477154
 10
-57.4299113069
 20
-25.2706681471
 10
-57.4015128941
 20
-25.2789550681
 10
-57.3728755661
 20
-25.2864009453
 10
-57.3440246167
 20
-25.2929987941
 10
-57.3149846277
 20
-25.2987426032
 10
-57.2857800962
 20
-25.3036273535
 10
-57.2564361382
 20
-25.3076484194
 10
-57.2269784854
 20
-25.3108016678
 10
-57.19743275
 20
-25.3130838575
  0
LWPOLYLINE
  5
261
100
AcDbEntity
  8
RACCORDO
100
AcDbPolyline
 62
253
  6
CONTINUOUS
 90
52
 70
0
 10
-58.0371193511
 20
-24.3176710023
 10
-58.0367241849
 20
-24.3442806555
 10
-58.0355469741
 20
-24.3708195355
 10
-58.0335877187
 20
-24.3972876422
 10
-58.030843166
 20
-24.4237090652
 10
-58.0273165685
 20
-24.4500597149
 10
-58.0230176837
 20
-24.4762673232
 10
-58.0179445314
 20
-24.5023302409
 10
-58.0120990915
 20
-24.5282501172
 10
-58.0054970618
 20
-24.5539596318
 10
-57.9981365574
 20
-24.5794580482
 10
-57.9900194627
 20
-24.6047461028
 10
-57.9811671294
 20
-24.6297586842
 10
-57.9715777186
 20
-24.6544950935
 10
-57.9612530686
 20
-24.6789560297
 10
-57.9502200471
 20
-24.7030784784
 10
-57.9384768795
 20
-24.7268615803
 10
-57.9260253397
 20
-24.7503061948
 10
-57.9128976177
 20
-24.7733518856
 10
-57.8990919893
 20
-24.795997684
 10
-57.8846101779
 20
-24.8182445587
 10
-57.8694895453
 20
-24.8400349797
 10
-57.8537284974
 20
-24.8613677741
 10
-57.8373286274
 20
-24.8822441148
 10
-57.8203320778
 20
-24.9026099907
 10
-57.8027373069
 20
-24.922464157
 10
-57.7845458555
 20
-24.9418078585
 10
-57.7658044891
 20
-24.9605908184
 10
-57.7465118218
 20
-24.9788116173
 10
-57.7266692387
 20
-24.9964716748
 10
-57.706327662
 20
-25.0135249721
 10
-57.6854857554
 20
-25.0299700289
 10
-57.6641448543
 20
-25.0458083256
 10
-57.642359888
 20
-25.0609982846
 10
-57.6201296799
 20
-25.0755382792
 10
-57.5974554058
 20
-25.0894299362
 10
-57.5743955247
 20
-25.102636558
 10
-57.5509489808
 20
-25.1151564205
 10
-57.5271168292
 20
-25.1269912477
 10
-57.5029606944
 20
-25.138109515
 10
-57.4784797178
 20
-25.1485093943
 10
-57.4536747573
 20
-25.1581927137
 10
-57.4286100132
 20
-25.1671334322
 10
-57.4032845978
 20
-25.1753296671
 10
-57.3776993982
 20
-25.1827833012
 10
-57.3519212757
 20
-25.1894739427
 10
-57.325948102
 20
-25.1953996989
 10
-57.299782005
 20
-25.2005624625
 10
-57.2734962312
 20
-25.2049475194
 10
-57.2471151962
 20
-25.2085499648
 10
-57.2206144841
 20
-25.2113747034
 10
-57.1939940949
 20
-25.2134217353
  0
LINE
  5
262
100
AcDbEntity
  8
RACCORDO
100
AcDbLine
 62
253
  6
CONTINUOUS
 10
-58.6107966912
 20
-24.5715707119
 11
-58.6107966912
 21
24.571570712
  0
LINE
  5
263
100
AcDbEntity
  8
RACCORDO
100
AcDbLine
 62
7
  6
CONTINUOUS
 10
-58.5078373646
 20
-24.5715707119
 11
-58.5078373646
 21
24.571570712
  0
LINE
  5
264
100
AcDbEntity
  8
RACCORDO
100
AcDbLine
 62
7
  6
CONTINUOUS
 10
-58.25
 20
-24.4264847976
 11
-58.25
 21
24.4264847976
  0
LINE
  5
265
100
AcDbEntity
  8
RACCORDO
100
AcDbLine
 62
253
  6
CONTINUOUS
 10
-58.1340481731
 20
24.3176710023
 11
-58.1340481731
 21
-24.317664713
  0
LINE
  5
266
100
AcDbEntity
  8
RACCORDO
100
AcDbLine
 62
253
  6
CONTINUOUS
 10
-58.0371193511
 20
24.3176710023
 11
-58.0371193511
 21
-24.3176710023
  0
LINE
  5
267
100
AcDbEntity
  8
RACCORDO
100
AcDbLine
 62
253
  6
CONTINUOUS
 10
-56.6602108194
 20
24.0164820231
 11
-56.6602108194
 21
-24.0164820231
  0
LINE
  5
268
100
AcDbEntity
  8
RACCORDO
100
AcDbLine
 62
253
  6
CONTINUOUS
 10
-56.4547558719
 20
23.114895349
 11
-56.4547558719
 21
-23.114895349
  0
LINE
  5
269
100
AcDbEntity
  8
RACCORDO
100
AcDbLine
 62
7
  6
CONTINUOUS
 10
-56.3237961104
 20
-22.2740702034
 11
-56.3237961104
 21
22.2740702034
  0
LWPOLYLINE
  5
26A
100
AcDbEntity
  8
RACCORDO
100
AcDbPolyline
 62
7
  6
CONTINUOUS
 90
52
 70
0
 10
-58.25
 20
24.4264847976
 10
-58.2495629379
 20
24.4560063767
 10
-58.2482585016
 20
24.4854542478
 10
-58.2460866909
 20
24.5148284108
 10
-58.2430432653
 20
24.5441595207
 10
-58.2391324652
 20
24.5734169225
 10
-58.2343670123
 20
24.6025086516
 10
-58.2287463703
 20
24.6314242568
 10
-58.2222710751
 20
24.6601741892
 10
-58.2149554558
 20
24.6886978372
 10
-58.2067949198
 20
24.717003595
 10
-58.1977940593
 20
24.7450830685
 10
-58.1879809808
 20
24.7728504632
 10
-58.177357503
 20
24.8002951078
 10
-58.1659218065
 20
24.8274276735
 10
-58.153696541
 20
24.8541943803
 10
-58.1406740406
 20
24.8806057939
 10
-58.1268619702
 20
24.9066513485
 10
-58.1123059751
 20
24.9322455666
 10
-58.0970117815
 20
24.957374675
 10
-58.0809736623
 20
24.9820524469
 10
-58.0642200821
 20
25.0062347241
 10
-58.0467400527
 20
25.029933047
 10
-58.0285445612
 20
25.0531358752
 10
-58.009695036
 20
25.07576443
 10
-57.9902003439
 20
25.0978050682
 10
-57.9700516169
 20
25.119271433
 10
-57.9492836817
 20
25.1401256746
 10
-57.927883517
 20
25.1603774952
 10
-57.9058641429
 20
25.1800171926
 10
-57.8832994482
 20
25.1989778111
 10
-57.8601997884
 20
25.2172479624
 10
-57.8365548069
 20
25.2348390349
 10
-57.8124073241
 20
25.2517182376
 10
-57.7877444809
 20
25.2678917785
 10
-57.7625791353
 20
25.2833534496
 10
-57.7369926839
 20
25.2980518368
 10
-57.7110025205
 20
25.3119762354
 10
-57.6845912504
 20
25.3251373501
 10
-57.6577880872
 20
25.3375158809
 10
-57.6305805638
 20
25.3491177457
 10
-57.6029811464
 20
25.3599370265
 10
-57.5750564492
 20
25.3699366704
 10
-57.5467922106
 20
25.3791169147
 10
-57.5182026913
 20
25.3874775221
 10
-57.4893972894
 20
25.3949807269
 10
-57.460371508
 20
25.4016201731
 10
-57.4311298435
 20
25.4074022168
 10
-57.4017951837
 20
25.4123081615
 10
-57.3724084914
 20
25.4163317747
 10
-57.3429288038
 20
25.4194792888
 10
-57.3133561206
 20
25.4217507038
  0
LWPOLYLINE
  5
26B
100
AcDbEntity
  8
RACCORDO
100
AcDbPolyline
 62
253
  6
CONTINUOUS
 90
49
 70
0
 10
-56.4547558719
 20
-23.114895349
 10
-56.455260455
 20
-23.1456565857
 10
-56.4559963903
 20
-23.175395941
 10
-56.4569412472
 20
-23.2041134149
 10
-56.4580710022
 20
-23.2317734372
 10
-56.4593658007
 20
-23.2584115781
 10
-56.4608135245
 20
-23.284134548
 10
-56.4623976273
 20
-23.3089409999
 10
-56.4641013451
 20
-23.3328322809
 10
-56.4659186241
 20
-23.3559191423
 10
-56.4678367341
 20
-23.3782021066
 10
-56.4698427382
 20
-23.3996806512
 10
-56.4719353602
 20
-23.4204639602
 10
-56.474106481
 20
-23.4405670276
 10
-56.476344826
 20
-23.4599748593
 10
-56.4786478116
 20
-23.4787516575
 10
-56.4810090906
 20
-23.4969089939
 10
-56.4834191277
 20
-23.5144352967
 10
-56.4858721052
 20
-23.5313600538
 10
-56.4883614971
 20
-23.5476851092
 10
-56.4908797387
 20
-23.5634086189
 10
-56.4934200199
 20
-23.5785545382
 10
-56.4959748297
 20
-23.5931153861
 10
-56.4985389486
 20
-23.6070986436
 10
-56.5011096073
 20
-23.6205507098
 10
-56.5036777095
 20
-23.6334550202
 10
-56.5062414282
 20
-23.6458281392
 10
-56.5088104051
 20
-23.6577661598
 10
-56.511377678
 20
-23.6692608506
 10
-56.5139423127
 20
-23.6803204428
 10
-56.5165254693
 20
-23.6910657232
 10
-56.519123196
 20
-23.7014977988
 10
-56.5217348703
 20
-23.7116155624
 10
-56.5243895144
 20
-23.7215364794
 10
-56.5270849
 20
-23.7312652472
 10
-56.5298217209
 20
-23.7407971683
 10
-56.5326363794
 20
-23.7502356155
 10
-56.5355323257
 20
-23.7596006165
 10
-56.5385075774
 20
-23.7688721436
 10
-56.5415930435
 20
-23.7780934863
 10
-56.5447956691
 20
-23.7872892974
 10
-56.5481119085
 20
-23.796434924
 10
-56.5515585341
 20
-23.805499697
 10
-56.5551456111
 20
-23.8145082459
 10
-56.558866886
 20
-23.8234359411
 10
-56.5627146593
 20
-23.8321782258
 10
-56.5666868503
 20
-23.8407002475
 10
-56.5707873408
 20
-23.8490368586
 10
-56.5750167471
 20
-23.8571880591
  0
LWPOLYLINE
  5
26C
100
AcDbEntity
  8
RACCORDO
100
AcDbPolyline
 62
253
  6
CONTINUOUS
 90
5
 70
0
 10
-58.6107966912
 20
24.571570712
 10
-58.6101400215
 20
24.6114095176
 10
-58.60815963
 20
24.6511674638
 10
-58.6048555165
 20
24.6908445506
 10
-58.6002255294
 20
24.73048731
  0
LWPOLYLINE
  5
26D
100
AcDbEntity
  8
RACCORDO
100
AcDbPolyline
 62
253
  6
CONTINUOUS
 90
46
 70
0
 10
-58.5078370673
 20
24.571570712
 10
-58.5072334285
 20
24.6080245136
 10
-58.505419341
 20
24.6444852212
 10
-58.5023916969
 20
24.6809124954
 10
-58.4981497606
 20
24.7172676382
 10
-58.4926935231
 20
24.7535078924
 10
-58.4860248242
 20
24.7895866672
 10
-58.4781474973
 20
24.8254646004
 10
-58.469066603
 20
24.8610993968
 10
-58.4587904086
 20
24.8964405586
 10
-58.4473279551
 20
24.931448019
 10
-58.4346894642
 20
24.9660814313
 10
-58.4208894745
 20
25.0002908916
 10
-58.405942355
 20
25.0340363173
 10
-58.3898631284
 20
25.0672800985
 10
-58.3726708167
 20
25.0999772444
 10
-58.3543847915
 20
25.1320882872
 10
-58.3350240834
 20
25.1635787427
 10
-58.3146090208
 20
25.1944118738
 10
-58.2931628822
 20
25.2245497576
 10
-58.2707080302
 20
25.2539603255
 10
-58.2472633679
 20
25.2826153614
 10
-58.2228520055
 20
25.3104820912
 10
-58.1975018257
 20
25.3375265726
 10
-58.1712383368
 20
25.363718116
 10
-58.1440862603
 20
25.389027257
 10
-58.116078058
 20
25.4134212508
 10
-58.0872514732
 20
25.436864867
 10
-58.0576359699
 20
25.4593309516
 10
-58.0272666086
 20
25.4807915969
 10
-57.9961913693
 20
25.5012126078
 10
-57.9644444571
 20
25.5205706601
 10
-57.9320632465
 20
25.5388434028
 10
-57.8991028022
 20
25.5560018585
 10
-57.8656099562
 20
25.572023867
 10
-57.8316154671
 20
25.5868975123
 10
-57.7971513172
 20
25.600611542
 10
-57.7621349317
 20
25.6131926653
 10
-57.7267256108
 20
25.6245776668
 10
-57.6913303211
 20
25.6346581625
 10
-57.6563539093
 20
25.6433782784
 10
-57.6214951627
 20
25.6508706833
 10
-57.586095278
 20
25.6572811582
 10
-57.5499503513
 20
25.6626026112
 10
-57.5133279132
 20
25.6667506506
 10
-57.4762659652
 20
25.6696892524
  0
LWPOLYLINE
  5
26E
100
AcDbEntity
  8
RACCORDO
100
AcDbPolyline
 62
253
  6
CONTINUOUS
 90
11
 70
0
 10
-57.1978196462
 20
-25.2948917532
 10
-57.1978770612
 20
-25.2980002495
 10
-57.1979131069
 20
-25.3008419525
 10
-57.1979276696
 20
-25.3034078983
 10
-57.1979207033
 20
-25.3056899929
 10
-57.1978922301
 20
-25.3076810378
 10
-57.1978423397
 20
-25.3093747523
 10
-57.1977711895
 20
-25.3107657939
 10
-57.197679004
 20
-25.3118497747
 10
-57.1975660739
 20
-25.3126232754
 10
-57.1974327555
 20
-25.313083856
  0
LINE
  5
26F
100
AcDbEntity
  8
RACCORDO
100
AcDbLine
 62
253
  6
CONTINUOUS
 10
-56.246563329
 20
-22.8529673932
 11
-56.255029965
 21
-23.1994190014
  0
LINE
  5
270
100
AcDbEntity
  8
RACCORDO
100
AcDbLine
 62
253
  6
CONTINUOUS
 10
-56.4453056337
 20
-22.7311318885
 11
-56.4547558719
 21
-23.114895349
  0
LINE
  5
271
100
AcDbEntity
  8
RACCORDO
100
AcDbLine
 62
253
  6
CONTINUOUS
 10
-57.1976414996
 20
-25.2879144127
 11
-57.1978196462
 21
-25.2948917532
  0
LINE
  5
272
100
AcDbEntity
  8
RACCORDO
100
AcDbLine
 62
253
  6
CONTINUOUS
 10
-56.4436068635
 20
-22.6771880757
 11
-56.4453056337
 21
-22.7311318885
  0
LINE
  5
273
100
AcDbEntity
  8
RACCORDO
100
AcDbLine
 62
253
  6
CONTINUOUS
 10
-57.197380913
 20
-25.2799978985
 11
-57.1976414996
 21
-25.2879144127
  0
LINE
  5
274
100
AcDbEntity
  8
RACCORDO
100
AcDbLine
 62
253
  6
CONTINUOUS
 10
-56.4423315218
 20
-22.6428148189
 11
-56.4436068635
 21
-22.6771880757
  0
LINE
  5
275
100
AcDbEntity
  8
RACCORDO
100
AcDbLine
 62
253
  6
CONTINUOUS
 10
-57.1970411718
 20
-25.2712420189
 11
-57.197380913
 21
-25.2799978985
  0
LINE
  5
276
100
AcDbEntity
  8
RACCORDO
100
AcDbLine
 62
253
  6
CONTINUOUS
 10
-57.1966265593
 20
-25.2617571644
 11
-57.1970411718
 21
-25.2712420189
  0
LINE
  5
277
100
AcDbEntity
  8
RACCORDO
100
AcDbLine
 62
253
  6
CONTINUOUS
 10
-57.1958759338
 20
-25.2464267829
 11
-57.1966265593
 21
-25.2617571644
  0
LINE
  5
278
100
AcDbEntity
  8
RACCORDO
100
AcDbLine
 62
253
  6
CONTINUOUS
 10
-57.1949900803
 20
-25.2301613745
 11
-57.1958759338
 21
-25.2464267829
  0
LINE
  5
279
100
AcDbEntity
  8
RACCORDO
100
AcDbLine
 62
253
  6
CONTINUOUS
 10
-57.1939940949
 20
-25.2134217353
 11
-57.1949900803
 21
-25.2301613745
  0
LWPOLYLINE
  5
27A
100
AcDbEntity
  8
RACCORDO
100
AcDbPolyline
 62
253
  6
CONTINUOUS
 90
10
 70
0
 10
-57.4853630005
 20
-25.7694941991
 10
-57.4842454058
 20
-25.7522385212
 10
-57.4830739402
 20
-25.7355025405
 10
-57.4818838859
 20
-25.7197903116
 10
-57.480711085
 20
-25.7055750559
 10
-57.47959086
 20
-25.6932849088
 10
-57.4785569497
 20
-25.6832900252
 10
-57.4776404936
 20
-25.6758914312
 10
-57.4768690935
 20
-25.671311958
 10
-57.4762659823
 20
-25.6696895301
  0
LWPOLYLINE
  5
27B
100
AcDbEntity
  8
RACCORDO
100
AcDbPolyline
 62
253
  6
CONTINUOUS
 90
42
 70
0
 10
-58.6002255294
 20
24.73048731
 10
-58.5942718198
 20
24.77004921
 10
-58.5870008419
 20
24.8093906542
 10
-58.5784066499
 20
24.8485128968
 10
-58.5684951885
 20
24.8874146835
 10
-58.5572907477
 20
24.9259526559
 10
-58.5447873635
 20
24.9641258978
 10
-58.5309909985
 20
25.0019353254
 10
-58.5159438316
 20
25.0392403278
 10
-58.4996407826
 20
25.0760379817
 10
-58.48208693
 20
25.1123312105
 10
-58.4633396904
 20
25.1479881737
 10
-58.4433956425
 20
25.1830045051
 10
-58.4222582057
 20
25.2173845709
 10
-58.399995057
 20
25.2510096294
 10
-58.3766043714
 20
25.2838752518
 10
-58.3520879718
 20
25.3159858669
 10
-58.3265190077
 20
25.3472360194
 10
-58.2998927448
 20
25.3776252707
 10
-58.272213915
 20
25.4071540594
 10
-58.2435698676
 20
25.4357182457
 10
-58.2139536971
 20
25.4633172394
 10
-58.1833723066
 20
25.4899516307
 10
-58.1519337584
 20
25.5155190502
 10
-58.1196318334
 20
25.5400160209
 10
-58.0864727483
 20
25.56344602
 10
-58.0525832197
 20
25.5857171087
 10
-58.0179583888
 20
25.6068236888
 10
-57.9826031122
 20
25.6267713587
 10
-57.9466586788
 20
25.6454849744
 10
-57.9101319453
 20
25.6629549719
 10
-57.8730160531
 20
25.6791909153
 10
-57.8354317192
 20
25.6941463527
 10
-57.7972395425
 20
25.707840441
 10
-57.7585789224
 20
25.7202540234
 10
-57.7199887768
 20
25.7312831777
 10
-57.6818577347
 20
25.7408444884
 10
-57.6437971679
 20
25.7490213711
 10
-57.6051801091
 20
25.755960151
 10
-57.565797568
 20
25.7617096031
 10
-57.5258585327
 20
25.7662209525
 10
-57.4853630022
 20
25.7694941991
  0
LWPOLYLINE
  5
27C
100
AcDbEntity
  8
RACCORDO
100
AcDbPolyline
 62
253
  6
CONTINUOUS
 90
13
 70
0
 10
-56.4955517152
 20
23.9417117083
 10
-56.5025694147
 20
23.9354018283
 10
-56.509570232
 20
23.9289037934
 10
-56.5165373254
 20
23.9222332357
 10
-56.5234539347
 20
23.9154062019
 10
-56.5303034209
 20
23.9084391156
 10
-56.5370693065
 20
23.9013487371
 10
-56.5437353151
 20
23.8941521232
 10
-56.5502854107
 20
23.8868665864
 10
-56.5567038361
 20
23.8795096532
 10
-56.5629751506
 20
23.8720990216
 10
-56.5690842679
 20
23.864652519
 10
-56.5750164913
 20
23.857188059
  0
LWPOLYLINE
  5
27D
100
AcDbEntity
  8
RACCORDO
100
AcDbPolyline
 62
253
  6
CONTINUOUS
 90
13
 70
0
 10
-56.5750164337
 20
-23.8571880591
 10
-56.56908421
 20
-23.8646525172
 10
-56.5629750939
 20
-23.8720990179
 10
-56.5567037816
 20
-23.8795096477
 10
-56.5502853596
 20
-23.8868665795
 10
-56.5437352683
 20
-23.8941521153
 10
-56.5370692648
 20
-23.9013487287
 10
-56.5303033851
 20
-23.9084391074
 10
-56.5234539054
 20
-23.9154061947
 10
-56.5165373031
 20
-23.9222332304
 10
-56.5095702169
 20
-23.9289037911
 10
-56.5025694072
 20
-23.93540183
 10
-56.4955517152
 20
-23.9417117154
  0
LWPOLYLINE
  5
27E
100
AcDbEntity
  8
RACCORDO
100
AcDbPolyline
 62
253
  6
CONTINUOUS
 90
34
 70
0
 10
-56.4547558719
 20
-23.114895349
 10
-56.4541054552
 20
-23.1188001426
 10
-56.4530308971
 20
-23.1226966168
 10
-56.4515344871
 20
-23.1265764698
 10
-56.4496194135
 20
-23.1304314354
 10
-56.4472897563
 20
-23.1342533004
 10
-56.4445504793
 20
-23.1380339222
 10
-56.4414074185
 20
-23.1417652458
 10
-56.4378672704
 20
-23.1454393214
 10
-56.4339375777
 20
-23.1490483213
 10
-56.4296267129
 20
-23.1525845563
 10
-56.4249438604
 20
-23.1560404922
 10
-56.4198989975
 20
-23.159408766
 10
-56.4145028727
 20
-23.1626822013
 10
-56.4087669825
 20
-23.1658538241
 10
-56.4027035479
 20
-23.1689168769
 10
-56.3963254873
 20
-23.1718648338
 10
-56.3896463896
 20
-23.174691414
 10
-56.3826804851
 20
-23.1773905954
 10
-56.3754426149
 20
-23.1799566272
 10
-56.3679482
 20
-23.1823840425
 10
-56.3602132075
 20
-23.1846676694
 10
-56.3522541173
 20
-23.1868026427
 10
-56.3440878868
 20
-23.1887844137
 10
-56.3357319145
 20
-23.1906087601
 10
-56.3272040034
 20
-23.1922717953
 10
-56.3185223226
 20
-23.1937699759
 10
-56.3097053688
 20
-23.1951001101
 10
-56.3007719272
 20
-23.196259364
 10
-56.2917410309
 20
-23.1972452679
 10
-56.2826319206
 20
-23.1980557212
 10
-56.2734640038
 20
-23.1986889972
 10
-56.2642568131
 20
-23.1991437469
 10
-56.255029965
 20
-23.1994190014
  0
LWPOLYLINE
  5
27F
100
AcDbEntity
  8
RACCORDO
100
AcDbPolyline
 62
253
  6
CONTINUOUS
 90
34
 70
0
 10
-56.4462892145
 20
-22.7684428616
 10
-56.4456387984
 20
-22.772347652
 10
-56.4445642417
 20
-22.776244123
 10
-56.4430678337
 20
-22.7801239731
 10
-56.4411527626
 20
-22.7839789359
 10
-56.4388231085
 20
-22.7878007983
 10
-56.436083835
 20
-22.7915814177
 10
-56.4329407781
 20
-22.7953127391
 10
-56.4294006343
 20
-22.7989868128
 10
-56.4254709461
 20
-22.8025958111
 10
-56.4211600858
 20
-22.8061320448
 10
-56.4164772381
 20
-22.8095879797
 10
-56.4114323799
 20
-22.8129562528
 10
-56.4060362596
 20
-22.8162296877
 10
-56.4003003738
 20
-22.8194013104
 10
-56.3942369433
 20
-22.8224643634
 10
-56.3878588864
 20
-22.8254123209
 10
-56.3811797919
 20
-22.8282389019
 10
-56.37421389
 20
-22.8309380844
 10
-56.3669760219
 20
-22.8335041175
 10
-56.3594816082
 20
-22.8359315342
 10
-56.3517466163
 20
-22.8382151629
 10
-56.3437875258
 20
-22.840350138
 10
-56.3356212941
 20
-22.8423319109
 10
-56.3272653197
 20
-22.8441562594
 10
-56.3187374055
 20
-22.8458192965
 10
-56.3100557207
 20
-22.8473174791
 10
-56.3012387619
 20
-22.8486476153
 10
-56.2923053142
 20
-22.849806871
 10
-56.2832744109
 20
-22.8507927765
 10
-56.2741652926
 20
-22.8516032313
 10
-56.2649973668
 20
-22.8522365085
 10
-56.2557901663
 20
-22.852691259
 10
-56.2465633075
 20
-22.8529665139
  0
LINE
  5
280
100
AcDbEntity
  8
RACCORDO
100
AcDbLine
 62
253
  6
CONTINUOUS
 10
-56.2389601698
 20
22.7067417956
 11
-56.2404937434
 21
22.7284426654
  0
LINE
  5
281
100
AcDbEntity
  8
RACCORDO
100
AcDbLine
 62
253
  6
CONTINUOUS
 10
-56.4344664505
 20
22.4960656815
 11
-56.4362174888
 21
22.5216636486
  0
LINE
  5
282
100
AcDbEntity
  8
RACCORDO
100
AcDbLine
 62
253
  6
CONTINUOUS
 10
-56.2404937434
 20
22.7284426654
 11
-56.2419281861
 21
22.7513655849
  0
LINE
  5
283
100
AcDbEntity
  8
RACCORDO
100
AcDbLine
 62
253
  6
CONTINUOUS
 10
-56.4362174888
 20
22.5216636486
 11
-56.4378857991
 21
22.5492432453
  0
LINE
  5
284
100
AcDbEntity
  8
RACCORDO
100
AcDbLine
 62
253
  6
CONTINUOUS
 10
-56.2419281861
 20
22.7513655849
 11
-56.2432585875
 21
22.7754083759
  0
LINE
  5
285
100
AcDbEntity
  8
RACCORDO
100
AcDbLine
 62
253
  6
CONTINUOUS
 10
-56.4378857991
 20
22.5492432453
 11
-56.4394650564
 21
22.5787069922
  0
LINE
  5
286
100
AcDbEntity
  8
RACCORDO
100
AcDbLine
 62
253
  6
CONTINUOUS
 10
-56.2432585875
 20
22.7754083759
 11
-56.2444776902
 21
22.8004454149
  0
LINE
  5
287
100
AcDbEntity
  8
RACCORDO
100
AcDbLine
 62
253
  6
CONTINUOUS
 10
-56.4394650564
 20
22.5787069922
 11
-56.4409505287
 21
22.6099702629
  0
LINE
  5
288
100
AcDbEntity
  8
RACCORDO
100
AcDbLine
 62
253
  6
CONTINUOUS
 10
-56.2444776902
 20
22.8004454149
 11
-56.245579893
 21
22.8263376356
  0
LINE
  5
289
100
AcDbEntity
  8
RACCORDO
100
AcDbLine
 62
253
  6
CONTINUOUS
 10
-56.4409505287
 20
22.6099702629
 11
-56.4423341456
 21
22.6428812578
  0
LINE
  5
28A
100
AcDbEntity
  8
RACCORDO
100
AcDbLine
 62
253
  6
CONTINUOUS
 10
-56.245579893
 20
22.8263376356
 11
-56.246563408
 21
22.8529691956
  0
LWPOLYLINE
  5
28B
100
AcDbEntity
  8
RACCORDO
100
AcDbPolyline
 62
253
  6
CONTINUOUS
 90
49
 70
0
 10
-56.255029965
 20
23.1994190014
 10
-56.2561113574
 20
23.2301870482
 10
-56.2575694377
 20
23.2599436008
 10
-56.2594042059
 20
23.2886886592
 10
-56.2616491187
 20
23.3163882377
 10
-56.2642707195
 20
23.3430763221
 10
-56.267168638
 20
23.3688548691
 10
-56.2703332911
 20
23.3937224819
 10
-56.2737742619
 20
23.4176805573
 10
-56.2774199299
 20
23.4408352425
 10
-56.2812625042
 20
23.463186091
 10
-56.2853097756
 20
23.4847335494
 10
-56.2895134965
 20
23.5055851039
 10
-56.2938705761
 20
23.5257530664
 10
-56.2983841052
 20
23.5452251251
 10
-56.3030151089
 20
23.5640718307
 10
-56.3077639476
 20
23.5823060103
 10
-56.3126302608
 20
23.5999148369
 10
-56.3175739922
 20
23.6169303794
 10
-56.3225948778
 20
23.633355451
 10
-56.3276931815
 20
23.6491872387
 10
-56.3328296392
 20
23.6644493719
 10
-56.3380018438
 20
23.6791375968
 10
-56.3432122023
 20
23.6932561672
 10
-56.3484286707
 20
23.7068414743
 10
-56.3536430166
 20
23.7198791432
 10
-56.3588634725
 20
23.7323835489
 10
-56.3640826918
 20
23.7444342073
 10
-56.3692903758
 20
23.7560199029
 10
-56.3744968234
 20
23.7671518512
 10
-56.3797255848
 20
23.7779432154
 10
-56.3849695107
 20
23.7883943376
 10
-56.3902357505
 20
23.7985048757
 10
-56.3955693028
 20
23.8083869665
 10
-56.4009626061
 20
23.8180430809
 10
-56.4064232219
 20
23.8274707481
 10
-56.4120188338
 20
23.8367746922
 10
-56.4177474584
 20
23.8459686045
 10
-56.423611079
 20
23.8550387939
 10
-56.4296833289
 20
23.8640489109
 10
-56.435970285
 20
23.8730222018
 10
-56.4424658703
 20
23.8819354204
 10
-56.4492254872
 20
23.8907824794
 10
-56.4562633614
 20
23.8995891312
 10
-56.4635652671
 20
23.9083296234
 10
-56.4711439296
 20
23.9169206111
 10
-56.4790035906
 20
23.9253343127
 10
-56.4871400085
 20
23.9335985097
 10
-56.495553183
 20
23.9417132023
  0
LWPOLYLINE
  5
28C
100
AcDbEntity
  8
RACCORDO
100
AcDbPolyline
 62
253
  6
CONTINUOUS
 90
49
 70
0
 10
-56.255029965
 20
-23.1994190014
 10
-56.2561117985
 20
-23.2301788196
 10
-56.2575685395
 20
-23.2599170816
 10
-56.259400188
 20
-23.2886337874
 10
-56.261640395
 20
-23.3162934744
 10
-56.2642555096
 20
-23.3429316052
 10
-56.2671445788
 20
-23.3686545673
 10
-56.2702977416
 20
-23.3934609045
 10
-56.273724859
 20
-23.4173520731
 10
-56.2773545609
 20
-23.4404388295
 10
-56.2811790492
 20
-23.4627216884
 10
-56.285206122
 20
-23.4842001352
 10
-56.2893878031
 20
-23.5049833815
 10
-56.2937217223
 20
-23.525086443
 10
-56.2982102497
 20
-23.5444943041
 10
-56.3028125197
 20
-23.5632711289
 10
-56.3075288525
 20
-23.5814284761
 10
-56.3123589279
 20
-23.5989547872
 10
-56.3172609187
 20
-23.6158795499
 10
-56.3222343638
 20
-23.632204617
 10
-56.3272797244
 20
-23.6479281359
 10
-56.3323565578
 20
-23.6630740365
 10
-56.337461049
 20
-23.6776348303
 10
-56.342597013
 20
-23.6916180059
 10
-56.347735452
 20
-23.7050699595
 10
-56.3528664665
 20
-23.7179741057
 10
-56.357999956
 20
-23.7303470299
 10
-56.3631366205
 20
-23.7422848836
 10
-56.3682667213
 20
-23.7537794687
 10
-56.3733999972
 20
-23.7648389834
 10
-56.3785663645
 20
-23.7755841734
 10
-56.3837584728
 20
-23.7860161268
 10
-56.3889836725
 20
-23.7961337556
 10
-56.3942939306
 20
-23.8060545412
 10
-56.3996823267
 20
-23.815783149
 10
-56.4051557812
 20
-23.8253149136
 10
-56.410787022
 20
-23.8347533198
 10
-56.4165781572
 20
-23.8441184624
 10
-56.4225270787
 20
-23.8533902466
 10
-56.4287001899
 20
-23.8626118728
 10
-56.4351060826
 20
-23.8718078785
 10
-56.441736165
 20
-23.8809537262
 10
-56.4486310649
 20
-23.8900190037
 10
-56.4558076593
 20
-23.8990285738
 10
-56.4632490712
 20
-23.9079575738
 10
-56.4709452971
 20
-23.9167010035
 10
-56.4788930026
 20
-23.9252238628
 10
-56.4870955223
 20
-23.933561152
 10
-56.4955528559
 20
-23.9417128708
  0
LINE
  5
28D
100
AcDbEntity
  8
RACCORDO
100
AcDbLine
 62
253
  6
CONTINUOUS
 10
-56.245578962
 20
-22.8263145453
 11
-56.2465633405
 21
-22.8529673932
  0
LINE
  5
28E
100
AcDbEntity
  8
RACCORDO
100
AcDbLine
 62
253
  6
CONTINUOUS
 10
-56.4409476681
 20
-22.609906368
 11
-56.4423315218
 21
-22.6428148189
  0
LINE
  5
28F
100
AcDbEntity
  8
RACCORDO
100
AcDbLine
 62
253
  6
CONTINUOUS
 10
-56.2444759563
 20
-22.8004074108
 11
-56.245578962
 21
-22.8263145453
  0
LINE
  5
290
100
AcDbEntity
  8
RACCORDO
100
AcDbLine
 62
253
  6
CONTINUOUS
 10
-56.4394623154
 20
-22.5786526321
 11
-56.4409476681
 21
-22.609906368
  0
LINE
  5
291
100
AcDbEntity
  8
RACCORDO
100
AcDbLine
 62
253
  6
CONTINUOUS
 10
-56.2432561562
 20
-22.7753617379
 11
-56.2444759563
 21
-22.8004074108
  0
LINE
  5
292
100
AcDbEntity
  8
RACCORDO
100
AcDbLine
 62
253
  6
CONTINUOUS
 10
-56.4378833104
 20
-22.5491995376
 11
-56.4394623154
 21
-22.5786526321
  0
LINE
  5
293
100
AcDbEntity
  8
RACCORDO
100
AcDbLine
 62
253
  6
CONTINUOUS
 10
-56.2419253328
 20
-22.7513171957
 11
-56.2432561562
 21
-22.7753617379
  0
LINE
  5
294
100
AcDbEntity
  8
RACCORDO
100
AcDbLine
 62
253
  6
CONTINUOUS
 10
-56.4362152959
 20
-22.5216295866
 11
-56.4378833104
 21
-22.5491995376
  0
LINE
  5
295
100
AcDbEntity
  8
RACCORDO
100
AcDbLine
 62
253
  6
CONTINUOUS
 10
-56.2404907807
 20
-22.7283980042
 11
-56.2419253328
 21
-22.7513171957
  0
LWPOLYLINE
  5
296
100
AcDbEntity
  8
RACCORDO
100
AcDbPolyline
 62
253
  6
CONTINUOUS
 90
16
 70
0
 10
75.289862873
 20
-47.1876411299
 10
75.4884940008
 20
-47.1768409063
 10
75.6848309922
 20
-47.1454164125
 10
75.8766084855
 20
-47.0936514897
 10
76.0618079962
 20
-47.022251407
 10
76.2384661547
 20
-46.9319535666
 10
76.404718651
 20
-46.8236868348
 10
76.5588203741
 20
-46.6987271154
 10
76.698995517
 20
-46.5584087414
 10
76.8236277176
 20
-46.4042509499
 10
76.9314569246
 20
-46.2381307102
 10
77.0213437675
 20
-46.0618416604
 10
77.0923036183
 20
-45.8771239565
 10
77.1436828358
 20
-45.6859207389
 10
77.1748550159
 20
-45.4902956045
 10
77.1853714165
 20
-45.2923556221
  0
LWPOLYLINE
  5
297
100
AcDbEntity
  8
RACCORDO
100
AcDbPolyline
 62
253
  6
CONTINUOUS
 90
16
 70
0
 10
75.3223365168
 20
-46.2889794759
 10
75.4281876263
 20
-46.2832148521
 10
75.5308598814
 20
-46.2670862227
 10
75.6303533009
 20
-46.2405935876
 10
75.7277564545
 20
-46.203218999
 10
75.8219808042
 20
-46.1554804047
 10
75.9097607236
 20
-46.0989316481
 10
75.990811314
 20
-46.0332752654
 10
76.065417538
 20
-45.9588087203
 10
76.1311685859
 20
-45.8779782475
 10
76.1877596311
 20
-45.7905581405
 10
76.2354955641
 20
-45.6967741057
 10
76.2728801579
 20
-45.5997494979
 10
76.2994146849
 20
-45.5005254351
 10
76.3155979121
 20
-45.3980607993
 10
76.3214298494
 20
-45.2923555904
  0
LWPOLYLINE
  5
298
100
AcDbEntity
  8
RACCORDO
100
AcDbPolyline
 62
7
  6
CONTINUOUS
 90
19
 70
0
 10
-75.502555801
 20
-47.399999976
 10
-75.6675246037
 20
-47.3930884032
 10
-75.829838554
 20
-47.3720263975
 10
-75.9894976759
 20
-47.3368139589
 10
-76.1482369417
 20
-47.2868031788
 10
-76.3043214159
 20
-47.2226419658
 10
-76.4525463079
 20
-47.146274046
 10
-76.5919304564
 20
-47.0576694763
 10
-76.7234551601
 20
-46.9568581998
 10
-76.8448593794
 20
-46.8458737714
 10
-76.9561005009
 20
-46.7246286732
 10
-77.057221277
 20
-46.5932104232
 10
-77.1460887376
 20
-46.4539151305
 10
-77.2226478975
 20
-46.3056882332
 10
-77.2869538625
 20
-46.1495842932
 10
-77.3370388059
 20
-45.9910631055
 10
-77.3722468128
 20
-45.8319446017
 10
-77.3932338716
 20
-45.6704088502
 10
-77.4
 20
-45.5064558509
  0
LINE
  5
299
100
AcDbEntity
  8
RACCORDO
100
AcDbLine
 62
7
  6
CONTINUOUS
 10
-75.502555801
 20
-47.399999976
 11
75.502555801
 21
-47.399999976
  0
LWPOLYLINE
  5
29A
100
AcDbEntity
  8
RACCORDO
100
AcDbPolyline
 62
253
  6
CONTINUOUS
 90
3
 70
0
 10
-75.2898630938
 20
-47.1877442617
 10
8.3675213507
 20
-47.1878885452
 10
75.2898630794
 20
-47.1877442616
  0
LWPOLYLINE
  5
29B
100
AcDbEntity
  8
RACCORDO
100
AcDbPolyline
 62
253
  6
CONTINUOUS
 90
3
 70
0
 10
-75.3223365168
 20
-46.2889794759
 10
8.3711475224
 20
-46.2891227943
 10
75.3223365168
 20
-46.2889794759
  0
LINE
  5
29C
100
AcDbEntity
  8
RACCORDO
100
AcDbLine
 62
253
  6
CONTINUOUS
 10
76.3214298494
 20
-45.2923555904
 11
77.1854697942
 21
-45.2923555904
  0
LINE
  5
29D
100
AcDbEntity
  8
RACCORDO
100
AcDbLine
 62
253
  6
CONTINUOUS
 10
-76.3214298494
 20
-45.2923555904
 11
-77.1854697942
 21
-45.2923556221
  0
LINE
  5
29E
100
AcDbEntity
  8
RACCORDO
100
AcDbLine
 62
253
  6
CONTINUOUS
 10
-56.5750167471
 20
-23.8571880591
 11
-56.6602108194
 21
-24.0164820231
  0
LWPOLYLINE
  5
29F
100
AcDbEntity
  8
RACCORDO
100
AcDbPolyline
 62
253
  6
CONTINUOUS
 90
42
 70
0
 10
-57.643031791
 20
-25.7491151122
 10
-57.6820806877
 20
-25.7407356591
 10
-57.7208301502
 20
-25.7310584783
 10
-57.7592810767
 20
-25.7200775967
 10
-57.7974325699
 20
-25.7077989874
 10
-57.8351436522
 20
-25.6942552475
 10
-57.8724130771
 20
-25.679440514
 10
-57.9092420926
 20
-25.6633606497
 10
-57.9454934622
 20
-25.64606584
 10
-57.9811640076
 20
-25.6275512126
 10
-58.0162569091
 20
-25.6078216397
 10
-58.0506444684
 20
-25.5869419235
 10
-58.0843221745
 20
-25.5649089176
 10
-58.1172945405
 20
-25.5417257685
 10
-58.149447405
 20
-25.5174667172
 10
-58.1807762831
 20
-25.4921302022
 10
-58.211285662
 20
-25.465717785
 10
-58.2408748381
 20
-25.4383083924
 10
-58.2695431852
 20
-25.4098972126
 10
-58.297291332
 20
-25.3804890573
 10
-58.3240204572
 20
-25.3501772878
 10
-58.3497295058
 20
-25.3189550605
 10
-58.3744195354
 20
-25.286829219
 10
-58.397994894
 20
-25.2539136564
 10
-58.4204517382
 20
-25.2202023275
 10
-58.4417939138
 20
-25.1857012776
 10
-58.4619373031
 20
-25.150542535
 10
-58.4808734795
 20
-25.1147297345
 10
-58.4986108717
 20
-25.0782592413
 10
-58.5150906443
 20
-25.0412521806
 10
-58.5303347765
 20
-25.0035801447
 10
-58.5443212907
 20
-24.9653715413
 10
-58.5569254168
 20
-24.927132718
 10
-58.5680582625
 20
-24.8891876378
 10
-58.5778087215
 20
-24.8512123377
 10
-58.5863187022
 20
-24.8127412757
 10
-58.5936657183
 20
-24.7735823124
 10
-58.599772257
 20
-24.7339275872
 10
-58.6045476866
 20
-24.6938879769
 10
-58.6079617967
 20
-24.6535004404
 10
-58.6100447982
 20
-24.6127280187
 10
-58.6107966912
 20
-24.5715707119
  0
LINE
  5
2A0
100
AcDbEntity
  8
RACCORDO
100
AcDbLine
 62
253
  6
CONTINUOUS
 10
-56.5750167471
 20
23.8571880591
 11
-56.6602108194
 21
24.0164820231
  0
LWPOLYLINE
  5
2A1
100
AcDbEntity
  8
RACCORDO
100
AcDbPolyline
 62
253
  6
CONTINUOUS
 90
21
 70
0
 10
-56.4149608774
 20
-22.3652349705
 10
-56.4160530739
 20
-22.3666336247
 10
-56.4171430264
 20
-22.368660525
 10
-56.4182307349
 20
-22.3713156714
 10
-56.4193176425
 20
-22.3746011897
 10
-56.4204023062
 20
-22.378514954
 10
-56.4214803972
 20
-22.3830505866
 10
-56.4225517773
 20
-22.3882119727
 10
-56.4236165847
 20
-22.3939952271
 10
-56.4246709055
 20
-22.400382316
 10
-56.4257145941
 20
-22.407376286
 10
-56.4267477961
 20
-22.4149740905
 10
-56.4277670332
 20
-22.4231485564
 10
-56.4287719645
 20
-22.4318994155
 10
-56.429762931
 20
-22.441226936
 10
-56.4307374773
 20
-22.4511047489
 10
-56.4316955152
 20
-22.4615331552
 10
-56.4326371329
 20
-22.4725118539
 10
-56.433560139
 20
-22.4840135735
 10
-56.4344644991
 20
-22.496038855
 10
-56.4362152959
 20
-22.5216295866
  0
LWPOLYLINE
  5
2A2
100
AcDbEntity
  8
RACCORDO
100
AcDbPolyline
 62
7
  6
CONTINUOUS
 90
16
 70
0
 10
57.4683957042
 20
-25.6623013256
 10
57.5799233862
 20
-25.6493629143
 10
57.6875736499
 20
-25.6260789183
 10
57.7913465133
 20
-25.5924493378
 10
57.8922481264
 20
-25.5478958164
 10
57.9892723709
 20
-25.4929967103
 10
58.0794008747
 20
-25.4294870884
 10
58.1623262315
 20
-25.3572204493
 10
58.2383559012
 20
-25.2763432942
 10
58.3053938283
 20
-25.1890301956
 10
58.3632822338
 20
-25.094900142
 10
58.4121789472
 20
-24.9943341448
 10
58.4504613304
 20
-24.890649811
 10
58.4775885161
 20
-24.7849530096
 10
58.4941014033
 20
-24.6761378716
 10
58.5
 20
-24.5642043969
  0
LWPOLYLINE
  5
2A3
100
AcDbEntity
  8
RACCORDO
100
AcDbPolyline
 62
253
  6
CONTINUOUS
 90
20
 70
0
 10
-56.4149608774
 20
22.3652349705
 10
-56.4160536178
 20
22.3666346716
 10
-56.4171440441
 20
22.3686628662
 10
-56.4182321562
 20
22.3713195544
 10
-56.4193193954
 20
22.374606969
 10
-56.4204043204
 20
22.3785228772
 10
-56.421482608
 20
22.3830605802
 10
-56.4225541182
 20
22.388223941
 10
-56.423618991
 20
22.3940090967
 10
-56.4246733235
 20
22.4003977597
 10
-56.4257169564
 20
22.407392814
 10
-56.4267500491
 20
22.4149913756
 10
-56.4277691766
 20
22.423166506
 10
-56.4287740053
 20
22.4319178811
 10
-56.4297648688
 20
22.441245825
 10
-56.4307393435
 20
22.4511243715
 10
-56.4316973507
 20
22.4615538551
 10
-56.4326389689
 20
22.4725339413
 10
-56.4335620106
 20
22.4840376607
 10
-56.4344664505
 20
22.4960656815
  0
LWPOLYLINE
  5
2A4
100
AcDbEntity
  8
RACCORDO
100
AcDbPolyline
 62
253
  6
CONTINUOUS
 90
52
 70
0
 10
57.1974265479
 20
-25.3130842453
 10
57.226974754
 20
-25.3108020118
 10
57.2564342637
 20
-25.3076486481
 10
57.2857794661
 20
-25.3036274495
 10
57.3149844404
 20
-25.2987426376
 10
57.344024273
 20
-25.2929988676
 10
57.3728750493
 20
-25.2864010718
 10
57.4015123688
 20
-25.2789552133
 10
57.4299107549
 20
-25.2706683173
 10
57.458044962
 20
-25.26154791
 10
57.4858903836
 20
-25.2516024367
 10
57.5134231798
 20
-25.2408409042
 10
57.5406196518
 20
-25.2292727544
 10
57.5674563037
 20
-25.2169084115
 10
57.5939099313
 20
-25.203759022
 10
57.6199577398
 20
-25.1898360888
 10
57.6455771961
 20
-25.1751520715
 10
57.6707462402
 20
-25.1597200583
 10
57.6954433328
 20
-25.1435534244
 10
57.7196471494
 20
-25.1266665113
 10
57.7433368464
 20
-25.1090742762
 10
57.7664922206
 20
-25.0907918829
 10
57.7890932448
 20
-25.0718354902
 10
57.8111205099
 20
-25.0522217594
 10
57.8325554099
 20
-25.0319673984
 10
57.853379465
 20
-25.0110901393
 10
57.873574704
 20
-24.9896083082
 10
57.8931240097
 20
-24.9675402253
 10
57.9120104509
 20
-24.9449052107
 10
57.9302177731
 20
-24.9217229939
 10
57.9477306506
 20
-24.8980131629
 10
57.9645339307
 20
-24.8737963223
 10
57.9806130486
 20
-24.8490935949
 10
57.9959543845
 20
-24.8239259289
 10
58.0105445827
 20
-24.7983152103
 10
58.0243709865
 20
-24.7722836754
 10
58.0374218958
 20
-24.7458533103
 10
58.0496858948
 20
-24.7190470312
 10
58.0611522612
 20
-24.6918881102
 10
58.0718112418
 20
-24.6643995026
 10
58.0816534162
 20
-24.6366050564
 10
58.0906701085
 20
-24.6085288506
 10
58.0988536162
 20
-24.5801945442
 10
58.1061966621
 20
-24.5516264152
 10
58.1126925687
 20
-24.5228495001
 10
58.1183355578
 20
-24.4938888896
 10
58.1231204085
 20
-24.4647702037
 10
58.127042842
 20
-24.4355182085
 10
58.1300994771
 20
-24.4061569135
 10
58.1322873566
 20
-24.3767113339
 10
58.1336040971
 20
-24.3472074883
 10
58.1340481731
 20
-24.3176710023
  0
LWPOLYLINE
  5
2A5
100
AcDbEntity
  8
RACCORDO
100
AcDbPolyline
 62
253
  6
CONTINUOUS
 90
52
 70
0
 10
57.1939940949
 20
-25.2134217353
 10
57.2206180711
 20
-25.2113742473
 10
57.2471215134
 20
-25.2085490972
 10
57.2735044221
 20
-25.2049462849
 10
57.2997909245
 20
-25.2005609284
 10
57.3259568935
 20
-25.1953979097
 10
57.3519299473
 20
-25.1894718751
 10
57.3777082523
 20
-25.1827809053
 10
57.4032936425
 20
-25.1753269195
 10
57.4286192386
 20
-25.1671303216
 10
57.4536841487
 20
-25.1581892337
 10
57.4784892652
 20
-25.1485055338
 10
57.502970385
 20
-25.1381052597
 10
57.5271266488
 20
-25.1269865822
 10
57.5509589165
 20
-25.1151513305
 10
57.5744055642
 20
-25.1026310301
 10
57.5974655376
 20
-25.0894239578
 10
57.6201398918
 20
-25.0755318368
 10
57.6423701673
 20
-25.0609913634
 10
57.6641551998
 20
-25.0458008995
 10
57.6854961544
 20
-25.029962083
 10
57.7063380659
 20
-25.0135165243
 10
57.7266795944
 20
-24.9964627401
 10
57.7465220808
 20
-24.9788022138
 10
57.7658145815
 20
-24.9605810049
 10
57.7845556987
 20
-24.9417977029
 10
57.8027468312
 20
-24.9224537185
 10
57.8203412299
 20
-24.9025993429
 10
57.8373373463
 20
-24.8822333449
 10
57.8537367299
 20
-24.8613569556
 10
57.869497279
 20
-24.8400241604
 10
57.8846174043
 20
-24.8182337898
 10
57.8990986961
 20
-24.7959870131
 10
57.9129038217
 20
-24.7733413242
 10
57.926031068
 20
-24.7502957415
 10
57.9384821489
 20
-24.7268512466
 10
57.9502248716
 20
-24.7030682773
 10
57.961257461
 20
-24.678945975
 10
57.9715816931
 20
-24.6544851983
 10
57.9811707016
 20
-24.6297489617
 10
57.9900226494
 20
-24.6047365691
 10
57.9981393743
 20
-24.5794487165
 10
58.0054995229
 20
-24.5539505063
 10
58.0121012069
 20
-24.5282412065
 10
58.0179463149
 20
-24.5023215492
 10
58.0230191593
 20
-24.4762588326
 10
58.0273177687
 20
-24.4500511147
 10
58.0308441146
 20
-24.4237003374
 10
58.0335884232
 20
-24.3972796252
 10
58.0355474364
 20
-24.3708133526
 10
58.0367244123
 20
-24.344277145
 10
58.0371193511
 20
-24.3176710023
  0
LWPOLYLINE
  5
2A6
100
AcDbEntity
  8
RACCORDO
100
AcDbPolyline
 62
253
  6
CONTINUOUS
 90
22
 70
0
 10
57.4853630022
 20
-25.7694941991
 10
52.9304586422
 20
-26.0462870019
 10
48.2087388116
 20
-26.3040170608
 10
43.3201999746
 20
-26.5426843757
 10
38.2825201884
 20
-26.7649067749
 10
33.0780311633
 20
-26.9680664301
 10
27.6537103968
 20
-27.1443098568
 10
21.9687470139
 20
-27.2949692399
 10
16.0639851752
 20
-27.4187123945
 10
10.0088974284
 20
-27.5036892803
 10
3.7459416719
 20
-27.5465688919
 10
-2.667236203
 20
-27.5506822349
 10
-8.9883623441
 20
-27.5141722851
 10
-15.1847257003
 20
-27.4323399773
 10
-21.2889207349
 20
-27.3098843768
 10
-27.1566515817
 20
-27.1590456562
 10
-32.7258367179
 20
-26.9806799454
 10
-38.0585224912
 20
-26.7739311144
 10
-43.1966270448
 20
-26.5484709461
 10
-48.1541201997
 20
-26.3075233679
 10
-52.9170294595
 20
-26.0478644522
 10
-57.4853630021
 20
-25.7694941991
  0
LWPOLYLINE
  5
2A7
100
AcDbEntity
  8
RACCORDO
100
AcDbPolyline
 62
7
  6
CONTINUOUS
 90
46
 70
0
 10
57.3133561206
 20
-25.4217507038
 10
54.7676204757
 20
-25.5763470129
 10
52.2217492376
 20
-25.7239077487
 10
49.6757466317
 20
-25.8644329112
 10
47.1296256416
 20
-25.9979204927
 10
44.5833817368
 20
-26.1243725009
 10
42.0369928695
 20
-26.2437949594
 10
39.4904623512
 20
-26.3561885334
 10
36.9437953223
 20
-26.4615525577
 10
34.3969724757
 20
-26.5598910603
 10
31.8500167899
 20
-26.6512042499
 10
29.302913741
 20
-26.7354919177
 10
26.7555877635
 20
-26.812757466
 10
24.2079983897
 20
-26.8830026743
 10
21.6601945387
 20
-26.9462257629
 10
19.1122347254
 20
-27.0024247955
 10
16.5641092618
 20
-27.0515995706
 10
14.0158363028
 20
-27.0937502895
 10
11.467516135
 20
-27.1288756202
 10
8.9191644927
 20
-27.1569748904
 10
6.3707741193
 20
-27.1780487723
 10
3.8224108196
 20
-27.19209795
 10
1.2741244568
 20
-27.1991226515
 10
-1.2741263533
 20
-27.1991226487
 10
-3.8224126769
 20
-27.1920979423
 10
-6.3707758839
 20
-27.1780487604
 10
-8.9191661252
 20
-27.1569748749
 10
-11.4675176387
 20
-27.1288756016
 10
-14.0158376899
 20
-27.0937502686
 10
-16.5641105354
 20
-27.0515995479
 10
-19.1122359046
 20
-27.0024247711
 10
-21.660195665
 20
-26.9462257362
 10
-24.2079994821
 20
-26.8830026453
 10
-26.755588789
 20
-26.8127574363
 10
-29.3029146414
 20
-26.7354918894
 10
-31.8500175321
 20
-26.6512042244
 10
-34.3969730502
 20
-26.5598910389
 10
-36.9437957147
 20
-26.4615525422
 10
-39.4904625519
 20
-26.3561885251
 10
-42.0369929066
 20
-26.2437949577
 10
-44.5833816408
 20
-26.1243725056
 10
-47.1296254407
 20
-25.9979205032
 10
-49.6757463848
 20
-25.8644329245
 10
-52.221749014
 20
-25.7239077607
 10
-54.7676203344
 20
-25.5763470204
 10
-57.3133561206
 20
-25.4217507038
  0
LWPOLYLINE
  5
2A8
100
AcDbEntity
  8
RACCORDO
100
AcDbPolyline
 62
253
  6
CONTINUOUS
 90
49
 70
0
 10
56.6602108194
 20
-24.0164820219
 10
54.2998946802
 20
-24.1584983593
 10
51.9394486738
 20
-24.2944745404
 10
49.5788761589
 20
-24.4244105653
 10
47.2181687178
 20
-24.5483074564
 10
44.857341487
 20
-24.6661641912
 10
42.4964331606
 20
-24.7779777025
 10
40.1354477514
 20
-24.8837475836
 10
37.7743879744
 20
-24.9834742411
 10
35.4132905824
 20
-25.0771558271
 10
33.0521589536
 20
-25.1647919734
 10
30.6909964429
 20
-25.2463830481
 10
28.3298397724
 20
-25.3219283082
 10
25.9686918233
 20
-25.3914273936
 10
23.60755645
 20
-25.4548806643
 10
21.2464718375
 20
-25.5122884577
 10
18.8854450665
 20
-25.5636503633
 10
16.5244757918
 20
-25.6089667917
 10
14.1635910619
 20
-25.6482393117
 10
11.8028132282
 20
-25.681467655
 10
9.4421266717
 20
-25.7086520901
 10
7.0815014837
 20
-25.7297949906
 10
4.7209548854
 20
-25.7448967779
 10
2.360476382
 20
-25.7539570305
 10
-0.0000055115
 20
-25.7569768585
 10
-2.3604874404
 20
-25.753957002
 10
-4.7209660362
 20
-25.7448967207
 10
-7.0815127626
 20
-25.7297949039
 10
-9.4421381246
 20
-25.7086519724
 10
-11.802824891
 20
-25.6814675053
 10
-14.1636029199
 20
-25.6482391293
 10
-16.5244878349
 20
-25.6089665754
 10
-18.88545728
 20
-25.5636501125
 10
-21.2464841432
 20
-25.512288174
 10
-23.6075687672
 20
-25.4548803487
 10
-25.9687040738
 20
-25.3914270478
 10
-28.329851821
 20
-25.3219279379
 10
-30.6910081349
 20
-25.2463826591
 10
-33.0521701539
 20
-25.1647915714
 10
-35.4133011578
 20
-25.0771554209
 10
-37.7743977839
 20
-24.9834738397
 10
-40.1354566619
 20
-24.8837471957
 10
-42.4964410639
 20
-24.7779773384
 10
-44.8573482699
 20
-24.6661638619
 10
-47.2181742722
 20
-24.5483071721
 10
-49.5788804167
 20
-24.4244103366
 10
-51.9394515803
 20
-24.2944743776
 10
-54.2998961675
 20
-24.1584982729
 10
-56.6602108194
 20
-24.0164820224
  0
LWPOLYLINE
  5
2A9
100
AcDbEntity
  8
RACCORDO
100
AcDbPolyline
 62
253
  6
CONTINUOUS
 90
22
 70
0
 10
57.4762659997
 20
-25.6696898095
 10
52.9221035505
 20
-25.9420596947
 10
48.2011256479
 20
-26.2006112329
 10
43.3133281931
 20
-26.4427978401
 10
38.276453518
 20
-26.6652483449
 10
33.0728274823
 20
-26.8661724373
 10
27.6493255767
 20
-27.0443582803
 10
21.9653038133
 20
-27.196914605
 10
16.0615855401
 20
-27.3183420644
 10
10.007315603
 20
-27.4036988751
 10
3.7452886807
 20
-27.4502698369
 10
-2.6667063391
 20
-27.4540100018
 10
-8.9869249247
 20
-27.4141809241
 10
-15.1824690846
 20
-27.3331978689
 10
-21.2855795472
 20
-27.21281674
 10
-27.1523302731
 20
-27.0590929395
 10
-32.7206866291
 20
-26.8787089424
 10
-38.0524924065
 20
-26.6745003781
 10
-43.189762105
 20
-26.4485843822
 10
-48.1464833803
 20
-26.2034620772
 10
-52.9086410022
 20
-25.9428313844
 10
-57.476265999
 20
-25.6696897983
  0
LWPOLYLINE
  5
2AA
100
AcDbEntity
  8
RACCORDO
100
AcDbPolyline
 62
253
  6
CONTINUOUS
 90
62
 70
0
 10
56.4955467622
 20
-23.941706697
 10
53.8302495773
 20
-24.1011869363
 10
51.1650259714
 20
-24.2529542072
 10
48.4998759446
 20
-24.3970085095
 10
45.8347891847
 20
-24.533348668
 10
43.1697760038
 20
-24.661975858
 10
40.5048673383
 20
-24.7828936053
 10
37.8400917584
 20
-24.8961011196
 10
35.1754206938
 20
-25.0015991912
 10
32.51079937
 20
-25.0993937169
 10
29.8461649924
 20
-25.1894865796
 10
27.1815803557
 20
-25.2718758963
 10
24.5171790693
 20
-25.3465619147
 10
21.8533237776
 20
-25.4135398632
 10
19.1896518362
 20
-25.4728145135
 10
16.5252089217
 20
-25.5244004277
 10
13.8459948352
 20
-25.5683194108
 10
11.1660097756
 20
-25.6045496579
 10
8.5263000161
 20
-25.6330403161
 10
5.9243005319
 20
-25.6533322754
 10
3.3625763479
 20
-25.6658846458
 10
0.8898688115
 20
-25.6720239052
 10
-1.4781169226
 20
-25.6715254523
 10
-3.7570860091
 20
-25.6646138884
 10
-5.9454125647
 20
-25.6532894952
 10
-8.037912564
 20
-25.6377141954
 10
-10.0397700324
 20
-25.6177260663
 10
-11.964911162
 20
-25.5948396225
 10
-13.8139512924
 20
-25.569212448
 10
-15.5862750841
 20
-25.5406869586
 10
-17.2939627111
 20
-25.510304917
 10
-18.9379604671
 20
-25.478168558
 10
-20.5173220584
 20
-25.4441756468
 10
-22.0412887777
 20
-25.4090612412
 10
-23.5104655071
 20
-25.3728958995
 10
-24.9242473647
 20
-25.3356090635
 10
-26.2900609964
 20
-25.2977241167
 10
-27.6083579495
 20
-25.259290546
 10
-28.8786866769
 20
-25.2202588646
 10
-30.1071191835
 20
-25.1810039953
 10
-31.2939024187
 20
-25.141565225
 10
-32.4387894331
 20
-25.1019032669
 10
-33.5471113835
 20
-25.0622751839
 10
-34.6191442336
 20
-25.0227075376
 10
-35.6546120198
 20
-24.9831737665
 10
-36.6580180074
 20
-24.9438512489
 10
-37.6294367459
 20
-24.9047659938
 10
-38.5687936859
 20
-24.8658919922
 10
-39.4803684453
 20
-24.8273285952
 10
-40.3647503456
 20
-24.7890717119
 10
-41.2213500653
 20
-24.7511254332
 10
-42.0526792574
 20
-24.7136013825
 10
-42.8590690798
 20
-24.6764980205
 10
-43.6401883747
 20
-24.6398168866
 10
-44.3975553205
 20
-24.6036742215
 10
-45.1311790201
 20
-24.5680799716
 10
-45.8410503707
 20
-24.5330241906
 10
-46.5286602422
 20
-24.4985932809
 10
-47.1940642518
 20
-24.4647934391
 10
-47.8372067824
 20
-24.4316184686
 10
-48.4594118522
 20
-24.3991361817
 10
-49.060864648
 20
-24.3673439818
  0
LWPOLYLINE
  5
2AB
100
AcDbEntity
  8
RACCORDO
100
AcDbPolyline
 62
7
  6
CONTINUOUS
 90
13
 70
0
 10
57.4683957042
 20
-25.6623013256
 10
47.896071128
 20
-26.2085556382
 10
38.3211507671
 20
-26.6554881374
 10
28.7438588528
 20
-27.0030988232
 10
19.1639290507
 20
-27.251384216
 10
9.5820768028
 20
-27.4003477955
 10
-0.0000005056
 20
-27.45
 10
-9.5820777681
 20
-27.4003477869
 10
-19.1639298985
 20
-27.2513841988
 10
-28.7438595422
 20
-27.003098802
 10
-38.3211512676
 20
-26.6554881186
 10
-47.8960713986
 20
-26.2085556264
 10
-57.4683957041
 20
-25.6623013256
  0
LWPOLYLINE
  5
2AC
100
AcDbEntity
  8
0
100
AcDbPolyline
 62
7
  6
CONTINUOUS
 90
43
 70
0
 10
2.7112456209
 20
-24.1321231746
 10
2.726971005
 20
-24.1314892899
 10
2.7420197939
 20
-24.1305063641
 10
2.7563919876
 20
-24.1291743973
 10
2.7700497303
 20
-24.1274710067
 10
2.7830308779
 20
-24.1254185751
 10
2.7954489971
 20
-24.1230842503
 10
2.8073112451
 20
-24.1204776876
 10
2.8186104649
 20
-24.1175892317
 10
2.8294387524
 20
-24.1144570644
 10
2.8398021599
 20
-24.11108841
 10
2.8496946351
 20
-24.1074760443
 10
2.8591901167
 20
-24.1036364768
 10
2.8682840252
 20
-24.0995833686
 10
2.8769809401
 20
-24.0953030587
 10
2.8853685391
 20
-24.0907710737
 10
2.8934649254
 20
-24.0859891494
 10
2.9012519959
 20
-24.08095555
 10
2.9087631185
 20
-24.0756405951
 10
2.9160081703
 20
-24.0700313554
 10
2.9229772741
 20
-24.0641407602
 10
2.9296741669
 20
-24.0579779163
 10
2.9360970597
 20
-24.0515438481
 10
2.9422477415
 20
-24.0448375312
 10
2.9481353164
 20
-24.0378649994
 10
2.9537580163
 20
-24.0306504013
 10
2.9591176092
 20
-24.0231695884
 10
2.9642285038
 20
-24.0153561481
 10
2.9691136204
 20
-24.0072003653
 10
2.9737500387
 20
-23.9987119552
 10
2.9780834052
 20
-23.9898536506
 10
2.9821106558
 20
-23.9806160791
 10
2.9858348546
 20
-23.971008613
 10
2.989210841
 20
-23.9610221023
 10
2.9922294303
 20
-23.9506683867
 10
2.9948998071
 20
-23.9399356265
 10
2.9972043647
 20
-23.9287791519
 10
2.9991455203
 20
-23.9171969624
 10
3.0007208567
 20
-23.9051910586
 10
3.001905515
 20
-23.8927227728
 10
3.0026912091
 20
-23.8797792159
 10
3.0030862252
 20
-23.8663732771
 10
3.0030905633
 20
-23.8525049562
  0
LINE
  5
2AD
100
AcDbEntity
  8
0
100
AcDbLine
 62
7
  6
CONTINUOUS
 10
-2.967115
 20
-25.131259
 11
-2.636029
 21
-25.131259
  0
LINE
  5
2AE
100
AcDbEntity
  8
0
100
AcDbLine
 62
7
  6
CONTINUOUS
 10
-1.91806
 20
-25.131259
 11
-1.54236
 21
-25.131259
  0
LINE
  5
2AF
100
AcDbEntity
  8
0
100
AcDbLine
 62
7
  6
CONTINUOUS
 10
-1.340109
 20
-25.131259
 11
-0.980686
 21
-25.131259
  0
LINE
  5
2B0
100
AcDbEntity
  8
0
100
AcDbLine
 62
7
  6
CONTINUOUS
 10
-0.458869
 20
-25.131259
 11
-0.406177
 21
-25.131259
  0
LINE
  5
2B1
100
AcDbEntity
  8
0
100
AcDbLine
 62
7
  6
CONTINUOUS
 10
0.117719
 20
-25.131259
 11
0.485254
 21
-25.131259
  0
LINE
  5
2B2
100
AcDbEntity
  8
0
100
AcDbLine
 62
7
  6
CONTINUOUS
 10
0.544249
 20
-25.131259
 11
0.915873
 21
-25.131259
  0
LINE
  5
2B3
100
AcDbEntity
  8
0
100
AcDbLine
 62
7
  6
CONTINUOUS
 10
1.62851
 20
-25.131259
 11
2.024482
 21
-25.131259
  0
LINE
  5
2B4
100
AcDbEntity
  8
0
100
AcDbLine
 62
7
  6
CONTINUOUS
 10
2.1348059885
 20
-25.13125911
 11
2.5089943883
 21
-25.13125911
  0
LINE
  5
2B5
100
AcDbEntity
  8
0
100
AcDbLine
 62
7
  6
CONTINUOUS
 10
3.0843272738
 20
-25.13125911
 11
3.4457071037
 21
-25.13125911
  0
LINE
  5
2B6
100
AcDbEntity
  8
0
100
AcDbLine
 62
7
  6
CONTINUOUS
 10
1.019543
 20
-24.771944
 11
1.531184
 21
-24.771944
  0
LINE
  5
2B7
100
AcDbEntity
  8
RACCORDO
100
AcDbLine
 62
253
  6
CONTINUOUS
 10
-58.6107966912
 20
-24.5715707119
 11
-58.5078373646
 21
-24.5715707119
  0
LINE
  5
2B8
100
AcDbEntity
  8
RACCORDO
100
AcDbLine
 62
253
  6
CONTINUOUS
 10
58.6107966912
 20
-24.571570712
 11
58.5078373646
 21
-24.571570712
  0
LINE
  5
2B9
100
AcDbEntity
  8
0
100
AcDbLine
 62
7
  6
CONTINUOUS
 10
1.4561
 20
-24.493908
 11
1.096394
 21
-24.493908
  0
LINE
  5
2BA
100
AcDbEntity
  8
0
100
AcDbLine
 62
7
  6
CONTINUOUS
 10
2.5089943883
 20
-24.4268957418
 11
2.7104358061
 21
-24.4268957418
  0
LINE
  5
2BB
100
AcDbEntity
  8
RACCORDO
100
AcDbLine
 62
253
  6
CONTINUOUS
 10
58.0371193511
 20
-24.3176710023
 11
58.1340481731
 21
-24.3176710023
  0
LINE
  5
2BC
100
AcDbEntity
  8
RACCORDO
100
AcDbLine
 62
253
  6
CONTINUOUS
 10
-58.0371193511
 20
-24.3176710023
 11
-58.1340481731
 21
-24.3176710023
  0
LWPOLYLINE
  5
2BD
100
AcDbEntity
  8
RACCORDO
100
AcDbPolyline
 62
253
  6
CONTINUOUS
 90
3
 70
0
 10
-49.060864648
 20
-24.3673439818
 10
-50.2017263157
 20
-24.3059132351
 10
-50.7419285132
 20
-24.2763546618
  0
LINE
  5
2BE
100
AcDbEntity
  8
RACCORDO
100
AcDbLine
 62
253
  6
CONTINUOUS
 10
-50.7419285132
 20
-24.2763546618
 11
-51.7625197578
 21
-24.2196048631
  0
LINE
  5
2BF
100
AcDbEntity
  8
RACCORDO
100
AcDbLine
 62
253
  6
CONTINUOUS
 10
-51.7625197578
 20
-24.2196048631
 11
-52.7042203101
 21
-24.166246926
  0
LINE
  5
2C0
100
AcDbEntity
  8
RACCORDO
100
AcDbLine
 62
253
  6
CONTINUOUS
 10
-52.7042203101
 20
-24.166246926
 11
-53.5741474227
 21
-24.1161218764
  0
LINE
  5
2C1
100
AcDbEntity
  8
RACCORDO
100
AcDbLine
 62
253
  6
CONTINUOUS
 10
-53.5741474227
 20
-24.1161218764
 11
-54.3778889194
 21
-24.069053232
  0
LINE
  5
2C2
100
AcDbEntity
  8
RACCORDO
100
AcDbLine
 62
253
  6
CONTINUOUS
 10
-54.3778889194
 20
-24.069053232
 11
-55.1259153251
 21
-24.0246271922
  0
LINE
  5
2C3
100
AcDbEntity
  8
RACCORDO
100
AcDbLine
 62
253
  6
CONTINUOUS
 10
-55.1259153251
 20
-24.0246271922
 11
-55.8305841348
 21
-23.9822383981
  0
LWPOLYLINE
  5
2C4
100
AcDbEntity
  8
RACCORDO
100
AcDbPolyline
 62
253
  6
CONTINUOUS
 90
46
 70
0
 10
-57.19743275
 20
-25.3130838575
 10
-54.6574008947
 20
-25.4670497433
 10
-52.1171028673
 20
-25.6140140498
 10
-49.5765408151
 20
-25.753977847
 10
-47.0357195366
 20
-25.886941942
 10
-44.4946500632
 20
-26.012906634
 10
-41.9533452238
 20
-26.1318721319
 10
-39.4118223487
 20
-26.2438384909
 10
-36.8700973472
 20
-26.3488058718
 10
-34.3281818967
 20
-26.4467745547
 10
-31.7860895864
 20
-26.5377446692
 10
-29.243830981
 20
-26.6217164444
 10
-26.7014122639
 20
-26.6986902671
 10
-24.1588390179
 20
-26.768666479
 10
-21.6161298294
 20
-26.8316449508
 10
-19.073310775
 20
-26.8876254241
 10
-16.5304018016
 20
-26.9366078897
 10
-13.9874136639
 20
-26.9785925841
 10
-11.4443586534
 20
-27.0135796828
 10
-8.901254294
 20
-27.0415692493
 10
-6.3581048111
 20
-27.0625614102
 10
-3.8149024674
 20
-27.0765562879
 10
-1.2716422401
 20
-27.0835538313
 10
1.2716427381
 20
-27.0835538306
 10
3.8149029563
 20
-27.0765562859
 10
6.3581052897
 20
-27.062561407
 10
8.901254761
 20
-27.0415692449
 10
11.4443590955
 20
-27.0135796774
 10
13.9874140509
 20
-26.9785925781
 10
16.5304021148
 20
-26.9366078839
 10
19.0733110259
 20
-26.8876254189
 10
21.616130036
 20
-26.8316449461
 10
24.1588391878
 20
-26.7686664747
 10
26.70141241
 20
-26.6986902629
 10
29.2438311322
 20
-26.6217164395
 10
31.7860897661
 20
-26.5377446629
 10
34.3281820991
 20
-26.4467745472
 10
36.8700975501
 20
-26.3488058637
 10
39.4118225377
 20
-26.2438384829
 10
41.9533453922
 20
-26.1318721243
 10
44.4946504392
 20
-26.0129066159
 10
47.0357201188
 20
-25.8869419123
 10
49.5765409119
 20
-25.7539778418
 10
52.1171015563
 20
-25.6140141239
 10
54.6573974827
 20
-25.4670499454
 10
57.1974265446
 20
-25.3130842422
  0
LWPOLYLINE
  5
2C5
100
AcDbEntity
  8
RACCORDO
100
AcDbPolyline
 62
253
  6
CONTINUOUS
 90
46
 70
0
 10
-57.1939940949
 20
-25.2134217353
 10
-54.6541141125
 20
-25.3673688145
 10
-52.1139693484
 20
-25.5143167492
 10
-49.5735639768
 20
-25.6542655393
 10
-47.0328937469
 20
-25.7872149049
 10
-44.4919712626
 20
-25.9131651259
 10
-41.9508259841
 20
-26.0321170423
 10
-39.4094613288
 20
-26.1440707429
 10
-36.8678822479
 20
-26.249026139
 10
-34.3261205098
 20
-26.3469838046
 10
-31.7841835271
 20
-26.4379437037
 10
-29.2420722687
 20
-26.5219058724
 10
-26.699808842
 20
-26.5988709937
 10
-24.1573897898
 20
-26.6688393078
 10
-21.6148269597
 20
-26.7318105744
 10
-19.0721654218
 20
-26.7877847559
 10
-16.5294143661
 20
-26.8367617193
 10
-13.9865730023
 20
-26.8787415975
 10
-11.4436714341
 20
-26.9137247512
 10
-8.9007209676
 20
-26.941711262
 10
-6.3577187012
 20
-26.9627010482
 10
-3.8146734285
 20
-26.9766942259
 10
-1.2715692162
 20
-26.9836908338
 10
1.2715695957
 20
-26.9836908332
 10
3.8146738029
 20
-26.9766942243
 10
6.3577190689
 20
-26.9627010456
 10
8.9007213235
 20
-26.9417112585
 10
11.4436717622
 20
-26.9137247473
 10
13.9865732742
 20
-26.8787415936
 10
16.5294145659
 20
-26.8367617159
 10
19.0721655591
 20
-26.787784753
 10
21.6148270498
 20
-26.7318105723
 10
24.1573898423
 20
-26.6688393065
 10
26.6998088749
 20
-26.5988709927
 10
29.2420723119
 20
-26.5219058709
 10
31.7841835984
 20
-26.4379437011
 10
34.3261205993
 20
-26.3469838014
 10
36.8678823347
 20
-26.2490261356
 10
39.4094614028
 20
-26.1440707398
 10
41.9508260409
 20
-26.0321170397
 10
44.4919712944
 20
-25.9131651244
 10
47.0328937493
 20
-25.7872149048
 10
49.5735639598
 20
-25.6542655402
 10
52.1139693271
 20
-25.5143167503
 10
54.6541140968
 20
-25.3673688153
 10
57.1939940949
 20
-25.2134217353
  0
LINE
  5
2C6
100
AcDbEntity
  8
RACCORDO
100
AcDbLine
 62
253
  6
CONTINUOUS
 10
-55.8305841348
 20
-23.9822383981
 11
-56.4955528559
 21
-23.9417128708
  0
LWPOLYLINE
  5
2C7
100
AcDbEntity
  8
RACCORDO
100
AcDbPolyline
 62
7
  6
CONTINUOUS
 90
52
 70
0
 10
-57.3133561206
 20
-25.4217507038
 10
-57.3429351762
 20
-25.4194730434
 10
-57.3723844382
 20
-25.4163301484
 10
-57.4017039066
 20
-25.4123220191
 10
-57.4309242165
 20
-25.4074423474
 10
-57.4600147332
 20
-25.4016974412
 10
-57.4888835522
 20
-25.3951062244
 10
-57.5175204567
 20
-25.3876686514
 10
-57.5459356639
 20
-25.3793847679
 10
-57.5740679215
 20
-25.370273634
 10
-57.6019249545
 20
-25.3603301725
 10
-57.6294990385
 20
-25.3495594608
 10
-57.6567057466
 20
-25.3379957907
 10
-57.6835347733
 20
-25.3256414353
 10
-57.7099964251
 20
-25.3124941216
 10
-57.7360371922
 20
-25.2985813226
 10
-57.7616666408
 20
-25.283894931
 10
-57.7868752059
 20
-25.268443054
 10
-57.8115806816
 20
-25.2522774867
 10
-57.8357698847
 20
-25.2354046155
 10
-57.8594559997
 20
-25.2178180538
 10
-57.8825963727
 20
-25.1995504369
 10
-57.9052015545
 20
-25.1805902419
 10
-57.9272609954
 20
-25.1609489916
 10
-57.9487003917
 20
-25.1406938892
 10
-57.969506636
 20
-25.1198346739
 10
-57.9896928368
 20
-25.0983616065
 10
-58.0092240142
 20
-25.0763126733
 10
-58.0281090174
 20
-25.0536742754
 10
-58.0463389984
 20
-25.0304600116
 10
-58.0638524311
 20
-25.0067486645
 10
-58.0806383991
 20
-24.9825516294
 10
-58.09670782
 20
-24.957857511
 10
-58.1120319188
 20
-24.9327109059
 10
-58.1266163071
 20
-24.9070982485
 10
-58.1404553743
 20
-24.8810331043
 10
-58.1535035115
 20
-24.8546007669
 10
-58.165753173
 20
-24.8278114953
 10
-58.1772119054
 20
-24.8006550304
 10
-58.1878567384
 20
-24.7731858882
 10
-58.1976893597
 20
-24.7453937266
 10
-58.2067080823
 20
-24.7172888876
 10
-58.2148848748
 20
-24.6889569135
 10
-58.2222152122
 20
-24.6604059718
 10
-58.2287036199
 20
-24.631627895
 10
-58.2343356421
 20
-24.6026837215
 10
-58.2391107111
 20
-24.5735629805
 10
-58.2430293949
 20
-24.5442761429
 10
-58.2460789408
 20
-24.5149156606
 10
-58.2482550982
 20
-24.485512351
 10
-58.2495621179
 20
-24.4560353966
 10
-58.25
 20
-24.4264847976
  0
LWPOLYLINE
  5
2C8
100
AcDbEntity
  8
RACCORDO
100
AcDbPolyline
 62
253
  6
CONTINUOUS
 90
5
 70
0
 10
-57.4853630021
 20
-25.7694941991
 10
-57.5250103992
 20
-25.7663692578
 10
-57.5644966469
 20
-25.7619319116
 10
-57.6038217457
 20
-25.7561821606
 10
-57.643031791
 20
-25.7491151122
  0
LWPOLYLINE
  5
2C9
100
AcDbEntity
  8
RACCORDO
100
AcDbPolyline
 62
253
  6
CONTINUOUS
 90
46
 70
0
 10
-57.4762659823
 20
-25.6696895301
 10
-57.5125419499
 20
-25.6668263458
 10
-57.5487507743
 20
-25.6627581849
 10
-57.5848522339
 20
-25.6574843602
 10
-57.6208078975
 20
-25.6510064212
 10
-57.6565752971
 20
-25.6433268917
 10
-57.692108222
 20
-25.6344503795
 10
-57.7273678086
 20
-25.6243830122
 10
-57.7623123688
 20
-25.6131323128
 10
-57.7968922107
 20
-25.6007095029
 10
-57.8310680685
 20
-25.5871259134
 10
-57.8648004735
 20
-25.5723940751
 10
-57.8980406914
 20
-25.5565314012
 10
-57.9307497379
 20
-25.5395545056
 10
-57.962891123
 20
-25.5214805271
 10
-57.9944212347
 20
-25.5023310455
 10
-58.0253019706
 20
-25.4821276062
 10
-58.0555001603
 20
-25.4608911498
 10
-58.0849804404
 20
-25.4386440745
 10
-58.1137064371
 20
-25.4154117333
 10
-58.1416475666
 20
-25.3912182352
 10
-58.168776853
 20
-25.3660840448
 10
-58.1950630711
 20
-25.3400339819
 10
-58.2204740048
 20
-25.3130978381
 10
-58.2449804317
 20
-25.2853030283
 10
-58.2685544712
 20
-25.2566758685
 10
-58.2911654134
 20
-25.2272506084
 10
-58.312780262
 20
-25.1970672129
 10
-58.3333737342
 20
-25.1661566389
 10
-58.3529200954
 20
-25.1345554606
 10
-58.3713880494
 20
-25.102313852
 10
-58.3887528749
 20
-25.0694743633
 10
-58.404998566
 20
-25.0360686959
 10
-58.4201087925
 20
-25.0021318615
 10
-58.4341082675
 20
-24.9675913831
 10
-58.4469304318
 20
-24.9325944429
 10
-58.4584567334
 20
-24.8975184211
 10
-58.4686260744
 20
-24.8627099531
 10
-58.4775608004
 20
-24.8279265596
 10
-58.4853997394
 20
-24.7926571954
 10
-58.492144721
 20
-24.7567518276
 10
-58.497723144
 20
-24.7204261725
 10
-58.5021091033
 20
-24.6837065818
 10
-58.5052749581
 20
-24.646628292
 10
-58.5071924886
 20
-24.6092355125
 10
-58.5078368782
 20
-24.5715707119
  0
LINE
  5
2CA
100
AcDbEntity
  8
RACCORDO
100
AcDbLine
 62
253
  6
CONTINUOUS
 10
-56.3237961104
 20
-22.2740702034
 11
-56.4149608774
 21
-22.3652349705
  0
LINE
  5
2CB
100
AcDbEntity
  8
RACCORDO
100
AcDbLine
 62
253
  6
CONTINUOUS
 10
-56.1240702034
 20
-22.4737961104
 11
-56.2152348188
 21
-22.5649607258
  0
LINE
  5
2CC
100
AcDbEntity
  8
RACCORDO
100
AcDbLine
 62
253
  6
CONTINUOUS
 10
-77.1854697942
 20
-45.2923555904
 11
-77.4
 21
-45.5064558035
  0
LINE
  5
2CD
100
AcDbEntity
  8
RACCORDO
100
AcDbLine
 62
253
  6
CONTINUOUS
 10
-75.2898630938
 20
-47.1877442624
 11
-75.5025558011
 21
-47.399999976
  0
LINE
  5
2CE
100
AcDbEntity
  8
RACCORDO
100
AcDbLine
 62
253
  6
CONTINUOUS
 10
-57.4683957041
 20
-25.6623013256
 11
-57.4762660007
 21
-25.6696898259
  0
LINE
  5
2CF
100
AcDbEntity
  8
RACCORDO
100
AcDbLine
 62
253
  6
CONTINUOUS
 10
-58.25
 20
-24.4264847976
 11
-58.1340481731
 21
-24.317664713
  0
LINE
  5
2D0
100
AcDbEntity
  8
RACCORDO
100
AcDbLine
 62
253
  6
CONTINUOUS
 10
-57.3133561206
 20
-25.4217507038
 11
-57.19743275
 21
-25.3130838575
  0
LWPOLYLINE
  5
2D1
100
AcDbEntity
  8
RACCORDO
100
AcDbPolyline
 62
253
  6
CONTINUOUS
 90
26
 70
0
 10
-56.2152347589
 20
-22.5649607258
 10
-56.216328026
 20
-22.5659630157
 10
-56.2174187519
 20
-22.5674117934
 10
-56.2185069366
 20
-22.5693083801
 10
-56.219593926
 20
-22.5716545086
 10
-56.2206783742
 20
-22.5744501356
 10
-56.2217562435
 20
-22.5776920171
 10
-56.2228274944
 20
-22.5813784883
 10
-56.2238921664
 20
-22.5855075434
 10
-56.2249463399
 20
-22.5900723154
 10
-56.2259898662
 20
-22.595068314
 10
-56.2270228941
 20
-22.6004914367
 10
-56.2280419503
 20
-22.6063327371
 10
-56.2290466911
 20
-22.6125842864
 10
-56.2300374602
 20
-22.6192412757
 10
-56.2310118159
 20
-22.626298266
 10
-56.2319696713
 20
-22.6337479314
 10
-56.2329111132
 20
-22.6415834152
 10
-56.2338339602
 20
-22.6498001021
 10
-56.234738182
 20
-22.6583904315
 10
-56.2356238088
 20
-22.6673466094
 10
-56.2364887499
 20
-22.6766639778
 10
-56.2373330141
 20
-22.6863348527
 10
-56.2381565926
 20
-22.6963504043
 10
-56.2389573676
 20
-22.7067044051
 10
-56.2404907807
 20
-22.7283980042
  0
LWPOLYLINE
  5
2D2
100
AcDbEntity
  8
0
100
AcDbPolyline
 62
7
  6
CONTINUOUS
 90
28
 70
0
 10
2.1348059885
 20
-23.3524335382
 10
2.18682039
 20
-23.3450875806
 10
2.23726794
 20
-23.338495248
 10
2.2861486384
 20
-23.3326565405
 10
2.3334249927
 20
-23.32759892
 10
2.3791344955
 20
-23.3232949246
 10
2.423389625
 20
-23.3196621689
 10
2.4661944604
 20
-23.3166948303
 10
2.5075449225
 20
-23.3143987315
 10
2.5475412524
 20
-23.3127089557
 10
2.5861849193
 20
-23.3116141588
 10
2.6234744539
 20
-23.311125685
 10
2.6595056892
 20
-23.3112126498
 10
2.6942906769
 20
-23.3118872695
 10
2.7278173652
 20
-23.3131373278
 10
2.7601454314
 20
-23.3148952912
 10
2.7912600784
 20
-23.3171507169
 10
2.8211761033
 20
-23.3199140477
 10
2.849997574
 20
-23.3231490781
 10
2.8777470293
 20
-23.3268594343
 10
2.9044019304
 20
-23.3310414901
 10
2.9299987293
 20
-23.335648162
 10
2.9545294247
 20
-23.3406907099
 10
2.9780020179
 20
-23.3461578739
 10
3.0004769651
 20
-23.3519687915
 10
3.0219744184
 20
-23.3580965085
 10
3.0424742256
 20
-23.3645679791
 10
3.0619763869
 20
-23.3713832033
  0
LINE
  5
2D3
100
AcDbEntity
  8
0
100
AcDbLine
 62
7
  6
CONTINUOUS
 10
2.7112456209
 20
-24.1321231746
 11
2.4965367382
 21
-24.1321231746
  0
LINE
  5
2D4
100
AcDbEntity
  8
0
100
AcDbLine
 62
7
  6
CONTINUOUS
 10
1.472243
 20
-23.331405
 11
1.108798
 21
-23.331405
  0
LINE
  5
2D5
100
AcDbEntity
  8
0
100
AcDbLine
 62
7
  6
CONTINUOUS
 10
0.316947
 20
-23.331405
 11
-0.054771
 21
-23.331405
  0
LINE
  5
2D6
100
AcDbEntity
  8
0
100
AcDbLine
 62
7
  6
CONTINUOUS
 10
-0.802203
 20
-23.331405
 11
-1.177593
 21
-23.331405
  0
LINE
  5
2D7
100
AcDbEntity
  8
0
100
AcDbLine
 62
7
  6
CONTINUOUS
 10
-2.057483
 20
-23.331405
 11
-2.432927
 21
-23.331405
  0
LINE
  5
2D8
100
AcDbEntity
  8
0
100
AcDbLine
 62
7
  6
CONTINUOUS
 10
-3.129577
 20
-23.331405
 11
-3.537703
 21
-23.331405
  0
LINE
  5
2D9
100
AcDbEntity
  8
0
100
AcDbLine
 62
7
  6
CONTINUOUS
 10
-1.54236
 20
-23.331297
 11
-1.91806
 21
-23.331297
  0
LINE
  5
2DA
100
AcDbEntity
  8
RACCORDO
100
AcDbLine
 62
253
  6
CONTINUOUS
 10
-56.246563329
 20
-22.8529673932
 11
56.2465633291
 21
-22.8529673962
  0
LINE
  5
2DB
100
AcDbEntity
  8
RACCORDO
100
AcDbLine
 62
253
  6
CONTINUOUS
 10
-56.2152348188
 20
-22.5649607258
 11
56.2152348189
 21
-22.5649607259
  0
LINE
  5
2DC
100
AcDbEntity
  8
RACCORDO
100
AcDbLine
 62
7
  6
CONTINUOUS
 10
-56.1240702034
 20
-22.4737961104
 11
56.1240702034
 21
-22.4737961104
  0
LWPOLYLINE
  5
2DD
100
AcDbEntity
  8
0
100
AcDbPolyline
 62
7
  6
CONTINUOUS
 90
13
 70
0
 10
2.7908543687
 20
-23.6274320215
 10
2.7683814794
 20
-23.6250518073
 10
2.7455004642
 20
-23.6232287412
 10
2.7222113233
 20
-23.6219628233
 10
2.6984917241
 20
-23.6212266753
 10
2.6743639992
 20
-23.6210476754
 10
2.6498951458
 20
-23.6215079591
 10
2.6250895548
 20
-23.6226286337
 10
2.5999428353
 20
-23.6243885919
 10
2.5745088115
 20
-23.6268066468
 10
2.5488054247
 20
-23.6298890695
 10
2.5228147336
 20
-23.6336295888
 10
2.4965367382
 20
-23.6380282049
  0
LWPOLYLINE
  5
2DE
100
AcDbEntity
  8
0
100
AcDbPolyline
 62
7
  6
CONTINUOUS
 90
93
 70
0
 10
3.0619763869
 20
-23.3713832033
 10
3.0725750804
 20
-23.3753967864
 10
3.0834486392
 20
-23.3800638701
 10
3.0945970631
 20
-23.3853844543
 10
3.1060193068
 20
-23.3913312644
 10
3.1177164156
 20
-23.3979315751
 10
3.1296915258
 20
-23.4052672102
 10
3.1420126027
 20
-23.4133642243
 10
3.154611681
 20
-23.4221965628
 10
3.1672880008
 20
-23.4317678861
 10
3.1801040979
 20
-23.4421440183
 10
3.1929974364
 20
-23.4532591353
 10
3.2055796489
 20
-23.4649194248
 10
3.2177744465
 20
-23.4770997642
 10
3.2296581181
 20
-23.4898252761
 10
3.2410711629
 20
-23.502977517
 10
3.2519687671
 20
-23.516518066
 10
3.2623957445
 20
-23.5304853439
 10
3.2723270354
 20
-23.5448761691
 10
3.2817660602
 20
-23.5596894917
 10
3.2907093986
 20
-23.5749263616
 10
3.2991217301
 20
-23.5905867468
 10
3.3070015574
 20
-23.606658831
 10
3.3143503779
 20
-23.6231544305
 10
3.3211373632
 20
-23.6401089617
 10
3.3273656767
 20
-23.6575034331
 10
3.3330321549
 20
-23.675356836
 10
3.3380964793
 20
-23.6937615617
 10
3.3425699439
 20
-23.7127204081
 10
3.3464412546
 20
-23.7322305773
 10
3.3496362106
 20
-23.752376066
 10
3.3521552412
 20
-23.7733913193
 10
3.3539979171
 20
-23.7950418922
 10
3.3550887497
 20
-23.8167084469
 10
3.3553673161
 20
-23.8384752912
 10
3.3548940392
 20
-23.8602581173
 10
3.3537746992
 20
-23.8811846646
 10
3.3519749892
 20
-23.9009813849
 10
3.349529216
 20
-23.9199218264
 10
3.3466460814
 20
-23.9379543721
 10
3.3433424491
 20
-23.9550132857
 10
3.3396014554
 20
-23.9711643035
 10
3.3355812097
 20
-23.9865530175
 10
3.3312951962
 20
-24.0011914498
 10
3.3267299307
 20
-24.0150675782
 10
3.3220030706
 20
-24.0282909284
 10
3.3171250056
 20
-24.0408651816
 10
3.3120853458
 20
-24.0527866567
 10
3.3069705791
 20
-24.064153836
 10
3.3017901288
 20
-24.0749715412
 10
3.2965345715
 20
-24.0852349507
 10
3.2912621244
 20
-24.0950280822
 10
3.2859788685
 20
-24.1043552518
 10
3.2806787228
 20
-24.1132121434
 10
3.2754016618
 20
-24.1216698262
 10
3.2701523782
 20
-24.1297321267
 10
3.2649261793
 20
-24.1373952185
 10
3.2597489615
 20
-24.1447186915
 10
3.2546238326
 20
-24.151705706
 10
3.2495476848
 20
-24.1583531018
 10
3.2445370912
 20
-24.1647109888
 10
3.2395939524
 20
-24.17078179
 10
3.2347163679
 20
-24.1765630823
 10
3.2299152085
 20
-24.1820977069
 10
3.2251921421
 20
-24.1873878826
 10
3.2205455009
 20
-24.1924313907
 10
3.2159811524
 20
-24.1972644158
 10
3.2115005212
 20
-24.2018889646
 10
3.2071021827
 20
-24.2063030306
 10
3.2027877304
 20
-24.2105367785
 10
3.1985588217
 20
-24.2145931868
 10
3.1944137991
 20
-24.2184692771
 10
3.1903492834
 20
-24.2221862796
 10
3.1863655359
 20
-24.2257457723
 10
3.1824622952
 20
-24.2291461772
 10
3.1786353977
 20
-24.2324039904
 10
3.1748844634
 20
-24.2355197537
 10
3.1712098723
 20
-24.2384929253
 10
3.1676086015
 20
-24.241338376
 10
3.1640799708
 20
-24.2440565033
 10
3.1606246604
 20
-24.2466469098
 10
3.1572416886
 20
-24.2491232738
 10
3.1539306502
 20
-24.2514843183
 10
3.1506919504
 20
-24.2537313203
 10
3.1475258227
 20
-24.2558817902
 10
3.1444331009
 20
-24.25793576
 10
3.1414129511
 20
-24.2598931975
 10
3.1384631051
 20
-24.261771517
 10
3.1355845732
 20
-24.2635715043
 10
3.1327763451
 20
-24.2652923735
 10
3.1300331212
 20
-24.2669491803
 10
3.1273570459
 20
-24.2685451444
 10
3.1247459748
 20
-24.2700770463
  0
LWPOLYLINE
  5
2DF
100
AcDbEntity
  8
0
100
AcDbPolyline
 62
7
  6
CONTINUOUS
 90
36
 70
0
 10
3.1007125255
 20
-24.291103306
 10
3.1086501001
 20
-24.2944600928
 10
3.1164996925
 20
-24.2981531233
 10
3.1242613025
 20
-24.3021823973
 10
3.1319481151
 20
-24.3065569008
 10
3.1395469454
 20
-24.3112676479
 10
3.1470182389
 20
-24.3162876814
 10
3.1543645655
 20
-24.3216215691
 10
3.1615833553
 20
-24.3272647433
 10
3.1686273441
 20
-24.3331765434
 10
3.1754750192
 20
-24.3393354495
 10
3.1821478932
 20
-24.3457629816
 10
3.1886632399
 20
-24.352483039
 10
3.1950112022
 20
-24.3594802496
 10
3.2012016371
 20
-24.3667699855
 10
3.2072813893
 20
-24.3744222623
 10
3.2132563065
 20
-24.3824361861
 10
3.219120541
 20
-24.3908126507
 10
3.2249033943
 20
-24.3996243537
 10
3.2306087753
 20
-24.40887282
 10
3.2362327751
 20
-24.4185565246
 10
3.2417929685
 20
-24.4287435892
 10
3.2472975924
 20
-24.4394436025
 10
3.25273841
 20
-24.4506469757
 10
3.258108286
 20
-24.4623930638
 10
3.2634108486
 20
-24.4746992409
 10
3.2686424695
 20
-24.4875481329
 10
3.273785129
 20
-24.5009269721
 10
3.2788254225
 20
-24.5148402321
 10
3.2837767546
 20
-24.5292834394
 10
3.2886613193
 20
-24.5442304059
 10
3.2934610993
 20
-24.5596807611
 10
3.298194112
 20
-24.5756348756
 10
3.3029366031
 20
-24.5920676728
 10
3.3077139879
 20
-24.6089707938
 10
3.3125008513
 20
-24.6263525974
  0
LWPOLYLINE
  5
2E0
100
AcDbEntity
  8
RACCORDO
100
AcDbPolyline
 62
253
  6
CONTINUOUS
 90
25
 70
0
 10
-56.2152347818
 20
22.5649607422
 10
-56.216328551
 20
22.5659636048
 10
-56.2174197232
 20
22.5674132835
 10
-56.2185082985
 20
22.5693110348
 10
-56.2195956248
 20
22.5716585311
 10
-56.2206803541
 20
22.5744556606
 10
-56.2217584425
 20
22.577699096
 10
-56.2228298441
 20
22.581387084
 10
-56.2238946048
 20
22.58551756
 10
-56.2249488174
 20
22.5900836222
 10
-56.2259923199
 20
22.5950806476
 10
-56.2270252742
 20
22.6005045358
 10
-56.2280442598
 20
22.6063465823
 10
-56.2290489439
 20
22.6125989277
 10
-56.2300396592
 20
22.619256713
 10
-56.2310139826
 20
22.6263146482
 10
-56.2319718337
 20
22.6337654748
 10
-56.2329132928
 20
22.6416023285
 10
-56.2338361781
 20
22.6498206572
 10
-56.2347404627
 20
22.6584129551
 10
-56.2356261734
 20
22.6673714339
 10
-56.2364912096
 20
22.6766914235
 10
-56.2373355875
 20
22.6863653634
 10
-56.2381592909
 20
22.6963843477
 10
-56.2389601698
 20
22.7067417956
  0
LINE
  5
2E1
100
AcDbEntity
  8
RACCORDO
100
AcDbLine
 62
253
  6
CONTINUOUS
 10
-57.3133561206
 20
25.4217507038
 11
-57.1974265446
 21
25.3130842422
  0
LINE
  5
2E2
100
AcDbEntity
  8
RACCORDO
100
AcDbLine
 62
253
  6
CONTINUOUS
 10
-58.25
 20
24.4264847976
 11
-58.1340481731
 21
24.3176710023
  0
LINE
  5
2E3
100
AcDbEntity
  8
RACCORDO
100
AcDbLine
 62
253
  6
CONTINUOUS
 10
-57.4683957041
 20
25.6623013256
 11
-57.4762660007
 21
25.669689826
  0
LINE
  5
2E4
100
AcDbEntity
  8
RACCORDO
100
AcDbLine
 62
253
  6
CONTINUOUS
 10
-77.4
 20
45.5064558035
 11
-77.1854697942
 21
45.2923555904
  0
LINE
  5
2E5
100
AcDbEntity
  8
RACCORDO
100
AcDbLine
 62
253
  6
CONTINUOUS
 10
-75.5025558011
 20
47.399999976
 11
-75.2898630938
 21
47.1877442624
  0
LINE
  5
2E6
100
AcDbEntity
  8
RACCORDO
100
AcDbLine
 62
253
  6
CONTINUOUS
 10
-56.3237961104
 20
22.2740702034
 11
-56.4149608774
 21
22.3652349705
  0
LINE
  5
2E7
100
AcDbEntity
  8
RACCORDO
100
AcDbLine
 62
253
  6
CONTINUOUS
 10
-56.1240702034
 20
22.4737961104
 11
-56.2152348352
 21
22.5649607422
  0
LWPOLYLINE
  5
2E8
100
AcDbEntity
  8
0
100
AcDbPolyline
 62
7
  6
CONTINUOUS
 90
31
 70
0
 10
2.9199908873
 20
-24.5853461497
 10
2.9155655098
 20
-24.5744035576
 10
2.9108750127
 20
-24.5638807409
 10
2.9059193961
 20
-24.5537776995
 10
2.900678524
 20
-24.5441014771
 10
2.8951725323
 20
-24.53484503
 10
2.889461829
 20
-24.5259872269
 10
2.8835604517
 20
-24.5175305433
 10
2.8774543628
 20
-24.5094725036
 10
2.8711618579
 20
-24.5017845492
 10
2.8646786052
 20
-24.4944526452
 10
2.8580089364
 20
-24.4874908265
 10
2.851184142
 20
-24.4809126391
 10
2.8441997736
 20
-24.474715054
 10
2.8370602796
 20
-24.4689011003
 10
2.8298102966
 20
-24.4634934111
 10
2.8224582361
 20
-24.4585026842
 10
2.8149956866
 20
-24.4539182218
 10
2.8074420493
 20
-24.449730563
 10
2.7997990749
 20
-24.4459518694
 10
2.7920650126
 20
-24.4425699795
 10
2.7842540117
 20
-24.4395389474
 10
2.7763691396
 20
-24.436854851
 10
2.7684073287
 20
-24.4345216123
 10
2.7603735254
 20
-24.4325050524
 10
2.7522780063
 20
-24.4307971799
 10
2.7441104949
 20
-24.4294059862
 10
2.7358451075
 20
-24.428321266
 10
2.7274732163
 20
-24.4275396177
 10
2.7190034492
 20
-24.4270644429
 10
2.7104358061
 20
-24.4268957418
  0
LINE
  5
2E9
100
AcDbEntity
  8
0
100
AcDbLine
 62
7
  6
CONTINUOUS
 10
-0.89961
 20
-23.955988
 11
-0.458869
 21
-25.131259
  0
LINE
  5
2EA
100
AcDbEntity
  8
0
100
AcDbLine
 62
7
  6
CONTINUOUS
 10
-0.430471
 20
-24.33069
 11
-0.802203
 21
-23.331405
  0
LINE
  5
2EB
100
AcDbEntity
  8
0
100
AcDbLine
 62
7
  6
CONTINUOUS
 10
-3.537703
 20
-23.331405
 11
-2.967115
 21
-25.131259
  0
LINE
  5
2EC
100
AcDbEntity
  8
0
100
AcDbLine
 62
7
  6
CONTINUOUS
 10
2.024482
 20
-25.131259
 11
1.472243
 21
-23.331405
  0
LINE
  5
2ED
100
AcDbEntity
  8
0
100
AcDbLine
 62
7
  6
CONTINUOUS
 10
-2.786492
 20
-24.5703
 11
-3.129577
 21
-23.331405
  0
LINE
  5
2EE
100
AcDbEntity
  8
0
100
AcDbLine
 62
7
  6
CONTINUOUS
 10
0.485254
 20
-25.131259
 11
0.316947
 21
-23.331405
  0
LINE
  5
2EF
100
AcDbEntity
  8
0
100
AcDbLine
 62
7
  6
CONTINUOUS
 10
0.040531
 20
-23.960888
 11
0.117719
 21
-25.131259
  0
LINE
  5
2F0
100
AcDbEntity
  8
0
100
AcDbLine
 62
7
  6
CONTINUOUS
 10
-1.91806
 20
-23.331297
 11
-1.91806
 21
-25.131259
  0
LINE
  5
2F1
100
AcDbEntity
  8
0
100
AcDbLine
 62
7
  6
CONTINUOUS
 10
-1.54236
 20
-25.131259
 11
-1.54236
 21
-23.331297
  0
LINE
  5
2F2
100
AcDbEntity
  8
0
100
AcDbLine
 62
7
  6
CONTINUOUS
 10
-0.980686
 20
-25.131259
 11
-0.89961
 21
-23.955988
  0
LINE
  5
2F3
100
AcDbEntity
  8
RACCORDO
100
AcDbLine
 62
253
  6
CONTINUOUS
 10
-56.5291313262
 20
-23.9568998787
 11
-56.6602108183
 21
-24.0164820224
  0
LINE
  5
2F4
100
AcDbEntity
  8
RACCORDO
100
AcDbLine
 62
253
  6
CONTINUOUS
 10
-56.4955541711
 20
-23.941712788
 11
-56.5291313262
 21
-23.9568998787
  0
LINE
  5
2F5
100
AcDbEntity
  8
RACCORDO
100
AcDbLine
 62
253
  6
CONTINUOUS
 10
-56.4955548354
 20
23.9417130791
 11
-56.6602108183
 21
24.0164820224
  0
LWPOLYLINE
  5
2F6
100
AcDbEntity
  8
0
100
AcDbPolyline
 62
7
  6
CONTINUOUS
 90
8
 70
0
 10
2.9480532428
 20
-24.6696566417
 10
2.9443357298
 20
-24.6575527913
 10
2.9405562441
 20
-24.6454749293
 10
2.936713635
 20
-24.6334250001
 10
2.93274235
 20
-24.621388598
 10
2.9286205383
 20
-24.6093609214
 10
2.9243700507
 20
-24.5973467719
 10
2.9199908873
 20
-24.5853461497
  0
LINE
  5
2F7
100
AcDbEntity
  8
0
100
AcDbLine
 62
7
  6
CONTINUOUS
 10
3.020554293
 20
-24.9120137858
 11
2.9480532428
 21
-24.6696566417
  0
LINE
  5
2F8
100
AcDbEntity
  8
0
100
AcDbLine
 62
7
  6
CONTINUOUS
 10
3.064516843
 20
-25.0627126572
 11
3.020554293
 21
-24.9120137858
  0
LINE
  5
2F9
100
AcDbEntity
  8
0
100
AcDbLine
 62
7
  6
CONTINUOUS
 10
3.0843272738
 20
-25.13125911
 11
3.064516843
 21
-25.0627126572
  0
LINE
  5
2FA
100
AcDbEntity
  8
0
100
AcDbLine
 62
7
  6
CONTINUOUS
 10
1.531184
 20
-24.771944
 11
1.62851
 21
-25.131259
  0
LINE
  5
2FB
100
AcDbEntity
  8
0
100
AcDbLine
 62
7
  6
CONTINUOUS
 10
3.3125008513
 20
-24.6263525974
 11
3.3628822892
 21
-24.8151753926
  0
LINE
  5
2FC
100
AcDbEntity
  8
0
100
AcDbLine
 62
7
  6
CONTINUOUS
 10
3.3628822892
 20
-24.8151753926
 11
3.4457071037
 21
-25.13125911
  0
LINE
  5
2FD
100
AcDbEntity
  8
0
100
AcDbLine
 62
7
  6
CONTINUOUS
 10
1.283461
 20
-23.825959
 11
1.4561
 21
-24.493908
  0
LWPOLYLINE
  5
2FE
100
AcDbEntity
  8
0
100
AcDbPolyline
 62
7
  6
CONTINUOUS
 90
37
 70
0
 10
3.0030905633
 20
-23.8525049562
 10
3.0027192463
 20
-23.8430195754
 10
3.0019586957
 20
-23.8335938408
 10
3.0008089114
 20
-23.8242277522
 10
2.9992600579
 20
-23.814903553
 10
2.9973219708
 20
-23.8056389999
 10
2.9950241565
 20
-23.7964873633
 10
2.9923716773
 20
-23.7874569955
 10
2.989359471
 20
-23.7785395441
 10
2.9860018565
 20
-23.7697632222
 10
2.9822975663
 20
-23.7611189813
 10
2.978247868
 20
-23.7526158699
 10
2.973870883
 20
-23.7443092467
 10
2.969163025
 20
-23.7361955637
 10
2.9641278803
 20
-23.728278369
 10
2.9587943297
 20
-23.7206236653
 10
2.9531689939
 20
-23.7132450764
 10
2.9472452522
 20
-23.7061289785
 10
2.9410321235
 20
-23.6993005032
 10
2.934521413
 20
-23.6927662917
 10
2.9277213156
 20
-23.6865197028
 10
2.9206654352
 20
-23.6805659449
 10
2.9133462411
 20
-23.6749031586
 10
2.9057712639
 20
-23.6695332033
 10
2.8979966998
 20
-23.6644668654
 10
2.8900335977
 20
-23.659709422
 10
2.8818709086
 20
-23.6552555961
 10
2.8735316816
 20
-23.6511003427
 10
2.8650235357
 20
-23.6472412199
 10
2.8563388518
 20
-23.6436806698
 10
2.8474778214
 20
-23.6404209737
 10
2.838431411
 20
-23.637453754
 10
2.829208654
 20
-23.6347873885
 10
2.8198368421
 20
-23.632449291
 10
2.8103250725
 20
-23.6304485997
 10
2.8006642481
 20
-23.6287761766
 10
2.7908543687
 20
-23.6274320215
  0
LINE
  5
2FF
100
AcDbEntity
  8
0
100
AcDbLine
 62
7
  6
CONTINUOUS
 10
2.1348059885
 20
-23.3524335382
 11
2.1348059885
 21
-25.13125911
  0
LINE
  5
300
100
AcDbEntity
  8
0
100
AcDbLine
 62
7
  6
CONTINUOUS
 10
2.4965367382
 20
-24.1321231746
 11
2.4965367382
 21
-23.6380282049
  0
LINE
  5
301
100
AcDbEntity
  8
0
100
AcDbLine
 62
7
  6
CONTINUOUS
 10
2.5089943883
 20
-25.13125911
 11
2.5089943883
 21
-24.4268957418
  0
LINE
  5
302
100
AcDbEntity
  8
0
100
AcDbLine
 62
7
  6
CONTINUOUS
 10
3.1007125255
 20
-24.291103306
 11
3.1007125255
 21
-24.280467739
  0
LINE
  5
303
100
AcDbEntity
  8
0
100
AcDbLine
 62
7
  6
CONTINUOUS
 10
-1.177593
 20
-23.331405
 11
-1.340109
 21
-25.131259
  0
LINE
  5
304
100
AcDbEntity
  8
0
100
AcDbLine
 62
7
  6
CONTINUOUS
 10
-2.432927
 20
-23.331405
 11
-2.786492
 21
-24.5703
  0
LINE
  5
305
100
AcDbEntity
  8
0
100
AcDbLine
 62
7
  6
CONTINUOUS
 10
-2.636029
 20
-25.131259
 11
-2.057483
 21
-23.331405
  0
LINE
  5
306
100
AcDbEntity
  8
RACCORDO
100
AcDbLine
 62
253
  6
CONTINUOUS
 10
56.4955408415
 20
23.9417069446
 11
56.6602108183
 21
24.016482022
  0
LINE
  5
307
100
AcDbEntity
  8
RACCORDO
100
AcDbLine
 62
253
  6
CONTINUOUS
 10
56.6602108183
 20
-24.0164820219
 11
56.4955409883
 21
-23.9417070089
  0
LINE
  5
308
100
AcDbEntity
  8
0
100
AcDbLine
 62
7
  6
CONTINUOUS
 10
1.096394
 20
-24.493908
 11
1.283461
 21
-23.825959
  0
LINE
  5
309
100
AcDbEntity
  8
0
100
AcDbLine
 62
7
  6
CONTINUOUS
 10
0.915873
 20
-25.131259
 11
1.019543
 21
-24.771944
  0
LINE
  5
30A
100
AcDbEntity
  8
0
100
AcDbLine
 62
7
  6
CONTINUOUS
 10
1.108798
 20
-23.331405
 11
0.544249
 21
-25.131259
  0
LINE
  5
30B
100
AcDbEntity
  8
0
100
AcDbLine
 62
7
  6
CONTINUOUS
 10
-0.054771
 20
-23.331405
 11
-0.430471
 21
-24.33069
  0
LINE
  5
30C
100
AcDbEntity
  8
0
100
AcDbLine
 62
7
  6
CONTINUOUS
 10
-0.406177
 20
-25.131259
 11
0.040531
 21
-23.960888
  0
LINE
  5
30D
100
AcDbEntity
  8
RACCORDO
100
AcDbLine
 62
253
  6
CONTINUOUS
 10
56.1240702034
 20
22.4737961104
 11
56.2152348188
 21
22.5649607258
  0
LINE
  5
30E
100
AcDbEntity
  8
RACCORDO
100
AcDbLine
 62
253
  6
CONTINUOUS
 10
56.3237961104
 20
22.2740702034
 11
56.4149608774
 21
22.3652349705
  0
LINE
  5
30F
100
AcDbEntity
  8
RACCORDO
100
AcDbLine
 62
253
  6
CONTINUOUS
 10
75.2898630938
 20
47.1877442624
 11
75.5025558011
 21
47.399999976
  0
LINE
  5
310
100
AcDbEntity
  8
RACCORDO
100
AcDbLine
 62
253
  6
CONTINUOUS
 10
77.1854697942
 20
45.2923555904
 11
77.4
 21
45.5064558035
  0
LINE
  5
311
100
AcDbEntity
  8
RACCORDO
100
AcDbLine
 62
253
  6
CONTINUOUS
 10
57.4683957041
 20
25.6623013256
 11
57.4762660007
 21
25.6696898259
  0
LINE
  5
312
100
AcDbEntity
  8
RACCORDO
100
AcDbLine
 62
253
  6
CONTINUOUS
 10
58.1340481731
 20
24.3176710023
 11
58.25
 21
24.4264847976
  0
LINE
  5
313
100
AcDbEntity
  8
RACCORDO
100
AcDbLine
 62
253
  6
CONTINUOUS
 10
57.1974265447
 20
25.3130842422
 11
57.3133561206
 21
25.4217507038
  0
LWPOLYLINE
  5
314
100
AcDbEntity
  8
RACCORDO
100
AcDbPolyline
 62
253
  6
CONTINUOUS
 90
26
 70
0
 10
56.2152347589
 20
22.5649607258
 10
56.216328026
 20
22.5659630157
 10
56.2174187519
 20
22.5674117934
 10
56.2185069366
 20
22.5693083801
 10
56.219593926
 20
22.5716545086
 10
56.2206783742
 20
22.5744501356
 10
56.2217562435
 20
22.5776920171
 10
56.2228274944
 20
22.5813784883
 10
56.2238921664
 20
22.5855075434
 10
56.2249463399
 20
22.5900723154
 10
56.2259898662
 20
22.595068314
 10
56.2270228941
 20
22.6004914367
 10
56.2280419503
 20
22.6063327371
 10
56.2290466911
 20
22.6125842864
 10
56.2300374602
 20
22.6192412757
 10
56.2310118159
 20
22.626298266
 10
56.2319696713
 20
22.6337479314
 10
56.2329111132
 20
22.6415834152
 10
56.2338339602
 20
22.6498001021
 10
56.234738182
 20
22.6583904315
 10
56.2356238088
 20
22.6673466094
 10
56.2364887499
 20
22.6766639778
 10
56.2373330141
 20
22.6863348527
 10
56.2381565926
 20
22.6963504043
 10
56.2389573676
 20
22.7067044051
 10
56.2404907807
 20
22.7283980042
  0
LWPOLYLINE
  5
315
100
AcDbEntity
  8
0
100
AcDbPolyline
 62
7
  6
CONTINUOUS
 90
10
 70
0
 10
3.1247459748
 20
-24.2700770463
 10
3.1196882237
 20
-24.2729820353
 10
3.1172415439
 20
-24.2743551224
 10
3.1148226693
 20
-24.2756233947
 10
3.1124279216
 20
-24.2767889461
 10
3.1100609791
 20
-24.2778496826
 10
3.1077074114
 20
-24.2787531733
 10
3.1053624081
 20
-24.2794819411
 10
3.1030307795
 20
-24.280053463
 10
3.1007125255
 20
-24.280467739
  0
LWPOLYLINE
  5
316
100
AcDbEntity
  8
RACCORDO
100
AcDbPolyline
 62
253
  6
CONTINUOUS
 90
34
 70
0
 10
-56.2465633075
 20
22.8529665139
 10
-56.2557901663
 20
22.852691259
 10
-56.2649973668
 20
22.8522365085
 10
-56.2741652926
 20
22.8516032313
 10
-56.2832744109
 20
22.8507927765
 10
-56.2923053142
 20
22.849806871
 10
-56.3012387619
 20
22.8486476153
 10
-56.3100557207
 20
22.8473174791
 10
-56.3187374055
 20
22.8458192965
 10
-56.3272653197
 20
22.8441562594
 10
-56.3356212941
 20
22.8423319109
 10
-56.3437875258
 20
22.840350138
 10
-56.3517466163
 20
22.8382151629
 10
-56.3594816082
 20
22.8359315342
 10
-56.3669760219
 20
22.8335041175
 10
-56.37421389
 20
22.8309380844
 10
-56.3811797919
 20
22.8282389019
 10
-56.3878588864
 20
22.8254123209
 10
-56.3942369433
 20
22.8224643634
 10
-56.4003003738
 20
22.8194013104
 10
-56.4060362596
 20
22.8162296877
 10
-56.4114323799
 20
22.8129562528
 10
-56.4164772381
 20
22.8095879797
 10
-56.4211600858
 20
22.8061320448
 10
-56.4254709461
 20
22.8025958111
 10
-56.4294006343
 20
22.7989868128
 10
-56.4329407781
 20
22.7953127391
 10
-56.436083835
 20
22.7915814177
 10
-56.4388231085
 20
22.7878007983
 10
-56.4411527626
 20
22.7839789359
 10
-56.4430678337
 20
22.7801239731
 10
-56.4445642417
 20
22.776244123
 10
-56.4456387984
 20
22.772347652
 10
-56.4462892145
 20
22.7684428616
  0
LWPOLYLINE
  5
317
100
AcDbEntity
  8
RACCORDO
100
AcDbPolyline
 62
253
  6
CONTINUOUS
 90
34
 70
0
 10
-56.255029965
 20
23.1994190014
 10
-56.2642568119
 20
23.199143747
 10
-56.2734640014
 20
23.1986889974
 10
-56.2826319172
 20
23.1980557214
 10
-56.2917410265
 20
23.1972452683
 10
-56.3007719221
 20
23.1962593646
 10
-56.309705363
 20
23.1951001109
 10
-56.3185223161
 20
23.1937699769
 10
-56.3272039964
 20
23.1922717965
 10
-56.3357319072
 20
23.1906087617
 10
-56.3440878792
 20
23.1887844154
 10
-56.3522541096
 20
23.1868026447
 10
-56.3602131998
 20
23.1846676716
 10
-56.3679481923
 20
23.1823840448
 10
-56.3754426074
 20
23.1799566298
 10
-56.3826804778
 20
23.1773905981
 10
-56.3896463827
 20
23.1746914168
 10
-56.3963254807
 20
23.1718648367
 10
-56.4027035418
 20
23.1689168798
 10
-56.4087669769
 20
23.1658538271
 10
-56.4145028675
 20
23.1626822043
 10
-56.4198989929
 20
23.1594087689
 10
-56.4249438563
 20
23.1560404951
 10
-56.4296267093
 20
23.152584559
 10
-56.4339375747
 20
23.1490483239
 10
-56.4378672679
 20
23.1454393238
 10
-56.4414074165
 20
23.141765248
 10
-56.4445504777
 20
23.1380339241
 10
-56.4472897552
 20
23.1342533021
 10
-56.4496194127
 20
23.1304314368
 10
-56.4515344867
 20
23.1265764708
 10
-56.4530308969
 20
23.1226966175
 10
-56.4541054551
 20
23.118800143
 10
-56.4547558719
 20
23.114895349
  0
LWPOLYLINE
  5
318
100
AcDbEntity
  8
RACCORDO
100
AcDbPolyline
 62
253
  6
CONTINUOUS
 90
34
 70
0
 10
-56.2152349705
 20
22.5649608774
 10
-56.2247217812
 20
22.5647094593
 10
-56.2341871762
 20
22.5640077422
 10
-56.2436097883
 20
22.5628573102
 10
-56.2529683463
 20
22.5612607603
 10
-56.2622417242
 20
22.5592216966
 10
-56.2714089881
 20
22.5567447219
 10
-56.2804494436
 20
22.553835428
 10
-56.2893426824
 20
22.5505003822
 10
-56.2980686289
 20
22.5467471131
 10
-56.3066075848
 20
22.5425840933
 10
-56.3149402741
 20
22.5380207206
 10
-56.3230478863
 20
22.5330672962
 10
-56.3309121192
 20
22.5277350021
 10
-56.3385152196
 20
22.5220358756
 10
-56.3458400241
 20
22.5159827818
 10
-56.3528699975
 20
22.5095893851
 10
-56.3595892701
 20
22.5028701181
 10
-56.3659826735
 20
22.495840149
 10
-56.372035775
 20
22.4885153473
 10
-56.3777349101
 20
22.4809122482
 10
-56.3830672133
 20
22.4730480151
 10
-56.3880206472
 20
22.4649404009
 10
-56.3925840297
 20
22.4566077079
 10
-56.3967470592
 20
22.4480687465
 10
-56.4005003378
 20
22.4393427928
 10
-56.4038353927
 20
22.430449545
 10
-56.406744695
 20
22.4214090791
 10
-56.4092216772
 20
22.4122418032
 10
-56.4112607475
 20
22.4029684117
 10
-56.4128573028
 20
22.3936098389
 10
-56.4140077388
 20
22.384187211
 10
-56.4147094584
 20
22.374721799
 10
-56.4149608774
 20
22.3652349705
  0
LINE
  5
319
100
AcDbEntity
  8
RACCORDO
100
AcDbLine
 62
7
  6
CONTINUOUS
 10
56.1240702034
 20
22.4737961104
 11
-56.1240702034
 21
22.4737961104
  0
LINE
  5
31A
100
AcDbEntity
  8
RACCORDO
100
AcDbLine
 62
253
  6
CONTINUOUS
 10
56.2152348188
 20
22.5649607258
 11
-56.2152348352
 21
22.5649607422
  0
LINE
  5
31B
100
AcDbEntity
  8
RACCORDO
100
AcDbLine
 62
253
  6
CONTINUOUS
 10
56.246563329
 20
22.8529673932
 11
-56.2465633731
 21
22.8529691956
  0
LINE
  5
31C
100
AcDbEntity
  8
RACCORDO
100
AcDbLine
 62
253
  6
CONTINUOUS
 10
-58.0371193511
 20
24.3176710023
 11
-58.1340481731
 21
24.3176710023
  0
LINE
  5
31D
100
AcDbEntity
  8
RACCORDO
100
AcDbLine
 62
253
  6
CONTINUOUS
 10
58.0371193511
 20
24.3176710023
 11
58.1340481731
 21
24.3176710023
  0
LINE
  5
31E
100
AcDbEntity
  8
RACCORDO
100
AcDbLine
 62
253
  6
CONTINUOUS
 10
-58.6107966912
 20
24.571570712
 11
-58.5078373646
 21
24.571570712
  0
LINE
  5
31F
100
AcDbEntity
  8
RACCORDO
100
AcDbLine
 62
253
  6
CONTINUOUS
 10
58.6107966912
 20
24.5715707119
 11
58.5078373646
 21
24.5715707119
  0
LINE
  5
320
100
AcDbEntity
  8
RACCORDO
100
AcDbLine
 62
253
  6
CONTINUOUS
 10
57.3133561206
 20
-25.4217507038
 11
57.1974265446
 21
-25.3130842422
  0
LINE
  5
321
100
AcDbEntity
  8
RACCORDO
100
AcDbLine
 62
253
  6
CONTINUOUS
 10
58.25
 20
-24.4264847976
 11
58.1340481731
 21
-24.3176710023
  0
LINE
  5
322
100
AcDbEntity
  8
RACCORDO
100
AcDbLine
 62
253
  6
CONTINUOUS
 10
57.4683957041
 20
-25.6623013256
 11
57.4762660007
 21
-25.669689826
  0
LWPOLYLINE
  5
323
100
AcDbEntity
  8
RACCORDO
100
AcDbPolyline
 62
253
  6
CONTINUOUS
 90
40
 70
0
 10
56.4955467622
 20
-23.941706697
 10
56.487725083
 20
-23.9342593006
 10
56.4798921151
 20
-23.9263291892
 10
56.4720478586
 20
-23.9179163629
 10
56.4641833315
 20
-23.9090282843
 10
56.4563075157
 20
-23.8996574908
 10
56.4484473569
 20
-23.8897815938
 10
56.4405972729
 20
-23.8793899637
 10
56.4327628458
 20
-23.8684932301
 10
56.4249877676
 20
-23.8571008935
 10
56.4172821986
 20
-23.8452266818
 10
56.4096359784
 20
-23.832856867
 10
56.4020623183
 20
-23.8199597651
 10
56.3945633736
 20
-23.8065449188
 10
56.3871369889
 20
-23.7926027853
 10
56.3797899092
 20
-23.7780730523
 10
56.3725171095
 20
-23.7629532962
 10
56.3653236148
 20
-23.7472459405
 10
56.3582312448
 20
-23.7308979443
 10
56.3512379124
 20
-23.7139127916
 10
56.3443457047
 20
-23.6962869982
 10
56.3375827026
 20
-23.6779570706
 10
56.3309457675
 20
-23.658926412
 10
56.324438038
 20
-23.6391916191
 10
56.3180970106
 20
-23.6186789883
 10
56.3119180668
 20
-23.5973904434
 10
56.3059058252
 20
-23.5753240605
 10
56.3001116374
 20
-23.5524003641
 10
56.2945309513
 20
-23.5286304541
 10
56.2891683191
 20
-23.5040032306
 10
56.2840887488
 20
-23.4784059181
 10
56.2792828636
 20
-23.4518438078
 10
56.2747600403
 20
-23.4243116085
 10
56.2706134183
 20
-23.3956806711
 10
56.2668292374
 20
-23.3659505288
 10
56.2634212576
 20
-23.3351216483
 10
56.2605238985
 20
-23.3030667803
 10
56.2581819666
 20
-23.2697435082
 10
56.2563506555
 20
-23.2351942486
 10
56.255029965
 20
-23.1994190014
  0
LINE
  5
324
100
AcDbEntity
  8
RACCORDO
100
AcDbLine
 62
253
  6
CONTINUOUS
 10
75.5025558011
 20
-47.399999976
 11
75.2898630938
 21
-47.1877442624
  0
LINE
  5
325
100
AcDbEntity
  8
RACCORDO
100
AcDbLine
 62
253
  6
CONTINUOUS
 10
77.4
 20
-45.5064558035
 11
77.1854697942
 21
-45.2923555904
  0
LINE
  5
326
100
AcDbEntity
  8
RACCORDO
100
AcDbLine
 62
253
  6
CONTINUOUS
 10
56.2152348189
 20
-22.5649607259
 11
56.1240702034
 21
-22.4737961104
  0
LINE
  5
327
100
AcDbEntity
  8
RACCORDO
100
AcDbLine
 62
253
  6
CONTINUOUS
 10
56.4149608774
 20
-22.3652349705
 11
56.3237961104
 21
-22.2740702034
  0
LWPOLYLINE
  5
328
100
AcDbEntity
  8
RACCORDO
100
AcDbPolyline
 62
253
  6
CONTINUOUS
 90
21
 70
0
 10
56.4149608774
 20
22.3652349705
 10
56.4160530739
 20
22.3666336247
 10
56.4171430264
 20
22.368660525
 10
56.4182307349
 20
22.3713156714
 10
56.4193176425
 20
22.3746011897
 10
56.4204023062
 20
22.378514954
 10
56.4214803972
 20
22.3830505866
 10
56.4225517773
 20
22.3882119727
 10
56.4236165847
 20
22.3939952271
 10
56.4246709055
 20
22.400382316
 10
56.4257145941
 20
22.407376286
 10
56.4267477961
 20
22.4149740905
 10
56.4277670332
 20
22.4231485564
 10
56.4287719645
 20
22.4318994155
 10
56.429762931
 20
22.441226936
 10
56.4307374773
 20
22.4511047489
 10
56.4316955152
 20
22.4615331552
 10
56.4326371329
 20
22.4725118539
 10
56.433560139
 20
22.4840135735
 10
56.4344644991
 20
22.496038855
 10
56.4362152959
 20
22.5216295866
  0
LWPOLYLINE
  5
329
100
AcDbEntity
  8
RACCORDO
100
AcDbPolyline
 62
7
  6
CONTINUOUS
 90
16
 70
0
 10
-57.4683957042
 20
25.6623013256
 10
-57.5799233862
 20
25.6493629143
 10
-57.6875736499
 20
25.6260789183
 10
-57.7913465133
 20
25.5924493378
 10
-57.8922481264
 20
25.5478958164
 10
-57.9892723709
 20
25.4929967103
 10
-58.0794008747
 20
25.4294870884
 10
-58.1623262315
 20
25.3572204493
 10
-58.2383559012
 20
25.2763432942
 10
-58.3053938283
 20
25.1890301956
 10
-58.3632822338
 20
25.094900142
 10
-58.4121789472
 20
24.9943341448
 10
-58.4504613304
 20
24.890649811
 10
-58.477588516
 20
24.7849530096
 10
-58.4941014033
 20
24.6761378716
 10
-58.5
 20
24.5642043969
  0
LWPOLYLINE
  5
32A
100
AcDbEntity
  8
RACCORDO
100
AcDbPolyline
 62
253
  6
CONTINUOUS
 90
52
 70
0
 10
-57.1974265478
 20
25.3130842453
 10
-57.226974754
 20
25.3108020118
 10
-57.2564342637
 20
25.3076486481
 10
-57.2857794661
 20
25.3036274495
 10
-57.3149844404
 20
25.2987426376
 10
-57.344024273
 20
25.2929988676
 10
-57.3728750493
 20
25.2864010718
 10
-57.4015123688
 20
25.2789552133
 10
-57.4299107549
 20
25.2706683173
 10
-57.458044962
 20
25.26154791
 10
-57.4858903836
 20
25.2516024367
 10
-57.5134231798
 20
25.2408409042
 10
-57.5406196518
 20
25.2292727544
 10
-57.5674563037
 20
25.2169084115
 10
-57.5939099313
 20
25.203759022
 10
-57.6199577398
 20
25.1898360888
 10
-57.645577196
 20
25.1751520715
 10
-57.6707462402
 20
25.1597200583
 10
-57.6954433328
 20
25.1435534244
 10
-57.7196471494
 20
25.1266665113
 10
-57.7433368464
 20
25.1090742762
 10
-57.7664922206
 20
25.0907918829
 10
-57.7890932448
 20
25.0718354902
 10
-57.8111205099
 20
25.0522217594
 10
-57.8325554099
 20
25.0319673984
 10
-57.853379465
 20
25.0110901393
 10
-57.873574704
 20
24.9896083082
 10
-57.8931240097
 20
24.9675402253
 10
-57.9120104509
 20
24.9449052107
 10
-57.9302177731
 20
24.9217229939
 10
-57.9477306506
 20
24.8980131629
 10
-57.9645339307
 20
24.8737963223
 10
-57.9806130486
 20
24.8490935949
 10
-57.9959543845
 20
24.8239259289
 10
-58.0105445827
 20
24.7983152103
 10
-58.0243709865
 20
24.7722836754
 10
-58.0374218958
 20
24.7458533103
 10
-58.0496858948
 20
24.7190470312
 10
-58.0611522612
 20
24.6918881102
 10
-58.0718112418
 20
24.6643995026
 10
-58.0816534162
 20
24.6366050564
 10
-58.0906701085
 20
24.6085288506
 10
-58.0988536162
 20
24.5801945442
 10
-58.1061966621
 20
24.5516264152
 10
-58.1126925687
 20
24.5228495001
 10
-58.1183355578
 20
24.4938888896
 10
-58.1231204085
 20
24.4647702037
 10
-58.127042842
 20
24.4355182085
 10
-58.1300994771
 20
24.4061569135
 10
-58.1322873566
 20
24.3767113339
 10
-58.1336040971
 20
24.3472074883
 10
-58.1340481731
 20
24.3176710023
  0
LWPOLYLINE
  5
32B
100
AcDbEntity
  8
RACCORDO
100
AcDbPolyline
 62
253
  6
CONTINUOUS
 90
52
 70
0
 10
-57.1939940949
 20
25.2134217353
 10
-57.2206180711
 20
25.2113742473
 10
-57.2471215134
 20
25.2085490972
 10
-57.2735044221
 20
25.2049462849
 10
-57.2997909245
 20
25.2005609284
 10
-57.3259568935
 20
25.1953979097
 10
-57.3519299473
 20
25.1894718751
 10
-57.3777082523
 20
25.1827809053
 10
-57.4032936425
 20
25.1753269195
 10
-57.4286192386
 20
25.1671303216
 10
-57.4536841487
 20
25.1581892337
 10
-57.4784892652
 20
25.1485055338
 10
-57.502970385
 20
25.1381052597
 10
-57.5271266488
 20
25.1269865822
 10
-57.5509589165
 20
25.1151513305
 10
-57.5744055642
 20
25.1026310301
 10
-57.5974655376
 20
25.0894239578
 10
-57.6201398918
 20
25.0755318368
 10
-57.6423701673
 20
25.0609913634
 10
-57.6641551998
 20
25.0458008995
 10
-57.6854961544
 20
25.029962083
 10
-57.7063380659
 20
25.0135165243
 10
-57.7266795944
 20
24.9964627401
 10
-57.7465220808
 20
24.9788022138
 10
-57.7658145815
 20
24.9605810049
 10
-57.7845556987
 20
24.9417977029
 10
-57.8027468312
 20
24.9224537185
 10
-57.8203412299
 20
24.9025993429
 10
-57.8373373463
 20
24.8822333449
 10
-57.8537367299
 20
24.8613569556
 10
-57.8694972789
 20
24.8400241604
 10
-57.8846174043
 20
24.8182337898
 10
-57.8990986961
 20
24.7959870131
 10
-57.9129038217
 20
24.7733413242
 10
-57.926031068
 20
24.7502957415
 10
-57.9384821489
 20
24.7268512466
 10
-57.9502248716
 20
24.7030682773
 10
-57.961257461
 20
24.678945975
 10
-57.9715816931
 20
24.6544851983
 10
-57.9811707016
 20
24.6297489617
 10
-57.9900226494
 20
24.6047365691
 10
-57.9981393743
 20
24.5794487165
 10
-58.0054995229
 20
24.5539505063
 10
-58.0121012069
 20
24.5282412065
 10
-58.0179463149
 20
24.5023215492
 10
-58.0230191593
 20
24.4762588326
 10
-58.0273177687
 20
24.4500511147
 10
-58.0308441146
 20
24.4237003374
 10
-58.0335884232
 20
24.3972796252
 10
-58.0355474364
 20
24.3708133526
 10
-58.0367244123
 20
24.344277145
 10
-58.0371193511
 20
24.3176710023
  0
LWPOLYLINE
  5
32C
100
AcDbEntity
  8
RACCORDO
100
AcDbPolyline
 62
253
  6
CONTINUOUS
 90
22
 70
0
 10
-57.4853630022
 20
25.7694941991
 10
-52.9310799523
 20
26.0462502178
 10
-48.2100031611
 20
26.3039501212
 10
-43.3221290893
 20
26.5425939093
 10
-38.2851277477
 20
26.7647986299
 10
-33.0813388786
 20
26.9679472353
 10
-27.6577640934
 20
27.1441885814
 10
-21.9737032632
 20
27.2948553945
 10
-16.0698897824
 20
27.4186149483
 10
-10.0154880154
 20
27.5036179206
 10
-3.7528748664
 20
27.5465399443
 10
2.6602228442
 20
27.5507053863
 10
8.9815965608
 20
27.5142380259
 10
15.1786906758
 20
27.4324322255
 10
21.2839441416
 20
27.3099936227
 10
27.1526599543
 20
27.1591629089
 10
32.722607062
 20
26.9807955543
 10
38.0559813264
 20
26.7740360886
 10
43.1947483512
 20
26.5485587923
 10
48.1528937711
 20
26.3075884253
 10
52.9164292628
 20
26.0479002276
 10
57.4853630021
 20
25.7694941991
  0
LWPOLYLINE
  5
32D
100
AcDbEntity
  8
RACCORDO
100
AcDbPolyline
 62
7
  6
CONTINUOUS
 90
46
 70
0
 10
-57.3133561206
 20
25.4217507038
 10
-54.7676204958
 20
25.5763470117
 10
-52.2217492734
 20
25.7239077467
 10
-49.6757466788
 20
25.8644329087
 10
-47.1296256946
 20
25.9979204899
 10
-44.5833817911
 20
26.1243724983
 10
-42.0369929239
 20
26.2437949569
 10
-39.4904624046
 20
26.3561885311
 10
-36.9437953735
 20
26.4615525556
 10
-34.3969725262
 20
26.5598910584
 10
-31.8500168423
 20
26.6512042481
 10
-29.3029137968
 20
26.735491916
 10
-26.7555878236
 20
26.8127574643
 10
-24.207998455
 20
26.8830026726
 10
-21.6601946099
 20
26.9462257613
 10
-19.1122348025
 20
27.0024247939
 10
-16.5641093445
 20
27.0515995691
 10
-14.0158363911
 20
27.0937502882
 10
-11.4675162289
 20
27.1288756191
 10
-8.9191645921
 20
27.1569748895
 10
-6.3707742243
 20
27.1780487716
 10
-3.8224109302
 20
27.1920979496
 10
-1.2741245729
 20
27.1991226513
 10
1.2741262316
 20
27.1991226489
 10
3.8224125496
 20
27.1920979429
 10
6.370775751
 20
27.1780487614
 10
8.9191659868
 20
27.1569748762
 10
11.4675174948
 20
27.1288756033
 10
14.0158375407
 20
27.0937502708
 10
16.564110381
 20
27.0515995506
 10
19.112235744
 20
27.0024247744
 10
21.660195487
 20
26.9462257406
 10
24.2079992858
 20
26.8830026507
 10
26.7555886043
 20
26.8127574417
 10
29.3029145003
 20
26.7354918939
 10
31.8500174646
 20
26.6512042269
 10
34.396973111
 20
26.5598910367
 10
36.943796
 20
26.4615525302
 10
39.4904631163
 20
26.3561885003
 10
42.0369937044
 20
26.2437949214
 10
44.5833826312
 20
26.1243724574
 10
47.129626578
 20
25.9979204442
 10
49.675747508
 20
25.8644328641
 10
52.2217499237
 20
25.723907711
 10
54.7676208697
 20
25.5763469909
 10
57.3133561206
 20
25.4217507038
  0
LWPOLYLINE
  5
32E
100
AcDbEntity
  8
RACCORDO
100
AcDbPolyline
 62
253
  6
CONTINUOUS
 90
49
 70
0
 10
-56.6602108194
 20
24.0164820223
 10
-54.2998964315
 20
24.158498258
 10
-51.9394520589
 20
24.2944743512
 10
-49.5788810605
 20
24.4244103019
 10
-47.2181750228
 20
24.5483071335
 10
-44.8573490779
 20
24.6661638226
 10
-42.4964419069
 20
24.7779772996
 10
-40.1354575182
 20
24.8837471583
 10
-37.7743986311
 20
24.9834738049
 10
-35.4133019981
 20
25.0771553886
 10
-33.0521709988
 20
25.1647915411
 10
-30.6910089866
 20
25.2463826308
 10
-28.3298526795
 20
25.3219279115
 10
-25.9687049557
 20
25.3914270232
 10
-23.6075696725
 20
25.4548803259
 10
-21.2464850198
 20
25.5122881538
 10
-18.8854580491
 20
25.5636500965
 10
-16.5244884444
 20
25.6089665644
 10
-14.163603345
 20
25.6482391228
 10
-11.8028250943
 20
25.6814675024
 10
-9.4421380815
 20
25.7086519724
 10
-7.0815125135
 20
25.7297949058
 10
-4.7209656339
 20
25.7448967227
 10
-2.3604869254
 20
25.753957003
 10
-0.0000049526
 20
25.7569768585
 10
2.360476897
 20
25.7539570295
 10
4.7209552878
 20
25.7448967758
 10
7.081501733
 20
25.7297949887
 10
9.4421267151
 20
25.70865209
 10
11.8028130254
 20
25.681467658
 10
14.1635906374
 20
25.6482393182
 10
16.5244751827
 20
25.6089668026
 10
18.8854442974
 20
25.5636503793
 10
21.2464709608
 20
25.5122884779
 10
23.6075555446
 20
25.4548806871
 10
25.9686909418
 20
25.3914274182
 10
28.3298389146
 20
25.3219283346
 10
30.6909955921
 20
25.2463830764
 10
33.0521581099
 20
25.1647920036
 10
35.4132897434
 20
25.0771558593
 10
37.7743871287
 20
24.9834742759
 10
40.1354468967
 20
24.883747621
 10
42.4964323192
 20
24.7779777412
 10
44.8573406804
 20
24.6661642305
 10
47.2181679683
 20
24.548307495
 10
49.5788755159
 20
24.4244105999
 10
51.9394481957
 20
24.2944745668
 10
54.2998944165
 20
24.1584983742
 10
56.6602108194
 20
24.0164820219
  0
LWPOLYLINE
  5
32F
100
AcDbEntity
  8
RACCORDO
100
AcDbPolyline
 62
253
  6
CONTINUOUS
 90
62
 70
0
 10
-56.495553183
 20
23.9417132023
 10
-53.8272110216
 20
24.1013681778
 10
-51.1589424062
 20
24.2532933313
 10
-48.490747337
 20
24.3974886629
 10
-45.8226157868
 20
24.5339532398
 10
-43.1545577828
 20
24.6626879947
 10
-40.4866034059
 20
24.7836957259
 10
-37.8187788794
 20
24.8969754612
 10
-35.1510579801
 20
25.0025281727
 10
-32.4833921199
 20
25.1003595757
 10
-29.8157304599
 20
25.1904712661
 10
-27.1481238391
 20
25.272861648
 10
-24.4806761867
 20
25.3475316484
 10
-21.8136982652
 20
25.4144773365
 10
-19.1468793122
 20
25.4737026431
 10
-16.479390969
 20
25.5252202885
 10
-13.7970528639
 20
25.5690498737
 10
-11.1140453687
 20
25.6051717977
 10
-8.4720812401
 20
25.6335399778
 10
-5.8688686377
 20
25.6536899146
 10
-3.3066994018
 20
25.6660861076
 10
-0.8341618108
 20
25.6720759726
 10
1.5328961927
 20
25.6714402225
 10
3.8103225514
 20
25.6643981444
 10
5.9970728158
 20
25.652955016
 10
8.0881271357
 20
25.6372754054
 10
10.0885053613
 20
25.6171947444
 10
12.0122225943
 20
25.5942246063
 10
13.8599381529
 20
25.5685220661
 10
15.6309927187
 20
25.5399300486
 10
17.3374234387
 20
25.5094889017
 10
18.9801597565
 20
25.4773009059
 10
20.5582722285
 20
25.4432637805
 10
22.0810096695
 20
25.4081110317
 10
23.5489805742
 20
25.3719130571
 10
24.9615764481
 20
25.334599459
 10
26.3262206222
 20
25.2966925497
 10
27.6433624358
 20
25.2582418094
 10
28.9125525496
 20
25.2191977579
 10
30.1398662772
 20
25.1799342667
 10
31.3255532908
 20
25.1404904793
 10
32.4693639182
 20
25.1008272522
 10
33.5766244565
 20
25.0612010262
 10
34.6476085513
 20
25.0216383968
 10
35.6820425569
 20
24.9821127686
 10
36.6844318335
 20
24.942800796
 10
37.6548523859
 20
24.9037283988
 10
38.5932282091
 20
24.8648696572
 10
39.503836649
 20
24.8263234663
 10
40.3872704769
 20
24.7880855227
 10
41.2429369214
 20
24.7501601298
 10
42.0733350142
 20
24.7126590922
 10
42.8787903261
 20
24.6755810911
 10
43.6589772863
 20
24.6389274452
 10
44.4154182144
 20
24.6028139158
 10
45.1481217528
 20
24.5672504774
 10
45.857079259
 20
24.5322271553
 10
46.5437871252
 20
24.4978297864
 10
47.2083023075
 20
24.464064499
 10
47.8505678499
 20
24.4309251648
 10
48.4719092767
 20
24.3984792349
 10
49.0725121996
 20
24.3667240811
  0
LWPOLYLINE
  5
330
100
AcDbEntity
  8
RACCORDO
100
AcDbPolyline
 62
253
  6
CONTINUOUS
 90
22
 70
0
 10
-57.4762659997
 20
25.6696898095
 10
-52.9227247144
 20
25.9420240826
 10
-48.2023897587
 20
26.2005452423
 10
-43.3152570077
 20
26.4427073832
 10
-38.2790606735
 20
26.66514032
 10
-33.0761346503
 20
26.8660540621
 10
-27.6533786358
 20
27.0442370179
 10
-21.97025925
 20
27.1967968366
 10
-16.0674891219
 20
27.3182394758
 10
-10.0139051487
 20
27.4036275231
 10
-3.7522209384
 20
27.4502417287
 10
2.6596939276
 20
27.4540302023
 10
8.9801602082
 20
27.4142466577
 10
15.1764351093
 20
27.3332969451
 10
21.280603776
 20
27.212931304
 10
27.1483392694
 20
27.0592101798
 10
32.7174574996
 20
26.8788232806
 10
38.0499516297
 20
26.6746050285
 10
43.1878837005
 20
26.4486722193
 10
48.1452571759
 20
26.2035260145
 10
52.9080409387
 20
25.9428657776
 10
57.476265999
 20
25.6696897983
  0
LWPOLYLINE
  5
331
100
AcDbEntity
  8
RACCORDO
100
AcDbPolyline
 62
7
  6
CONTINUOUS
 90
13
 70
0
 10
-57.4683957042
 20
25.6623013256
 10
-47.896071128
 20
26.2085556382
 10
-38.3211507671
 20
26.6554881374
 10
-28.7438588528
 20
27.0030988232
 10
-19.1639290507
 20
27.251384216
 10
-9.5820768028
 20
27.4003477955
 10
0.0000005056
 20
27.45
 10
9.5820777681
 20
27.4003477869
 10
19.1639298985
 20
27.2513841988
 10
28.7438595422
 20
27.003098802
 10
38.3211512676
 20
26.6554881186
 10
47.8960713986
 20
26.2085556264
 10
57.4683957041
 20
25.6623013256
  0
LWPOLYLINE
  5
332
100
AcDbEntity
  8
RACCORDO
100
AcDbPolyline
 62
253
  6
CONTINUOUS
 90
3
 70
0
 10
49.0725121996
 20
24.3667240811
 10
50.2117143879
 20
24.3053693232
 10
50.7511059219
 20
24.2758494934
  0
LINE
  5
333
100
AcDbEntity
  8
RACCORDO
100
AcDbLine
 62
253
  6
CONTINUOUS
 10
50.7511059219
 20
24.2758494934
 11
51.7701206637
 21
24.2191780809
  0
LINE
  5
334
100
AcDbEntity
  8
RACCORDO
100
AcDbLine
 62
253
  6
CONTINUOUS
 10
51.7701206637
 20
24.2191780809
 11
52.7103124818
 21
24.1658986621
  0
LINE
  5
335
100
AcDbEntity
  8
RACCORDO
100
AcDbLine
 62
253
  6
CONTINUOUS
 10
52.7103124818
 20
24.1658986621
 11
53.5788306945
 21
24.1158496795
  0
LINE
  5
336
100
AcDbEntity
  8
RACCORDO
100
AcDbLine
 62
253
  6
CONTINUOUS
 10
53.5788306945
 20
24.1158496795
 11
54.3812688606
 21
24.0688538645
  0
LINE
  5
337
100
AcDbEntity
  8
RACCORDO
100
AcDbLine
 62
253
  6
CONTINUOUS
 10
54.3812688606
 20
24.0688538645
 11
55.1280861394
 21
24.0244978829
  0
LINE
  5
338
100
AcDbEntity
  8
RACCORDO
100
AcDbLine
 62
253
  6
CONTINUOUS
 10
55.1280861394
 20
24.0244978829
 11
55.8316274376
 21
23.9821736799
  0
LWPOLYLINE
  5
339
100
AcDbEntity
  8
RACCORDO
100
AcDbPolyline
 62
253
  6
CONTINUOUS
 90
46
 70
0
 10
57.1939940949
 20
25.2134217353
 10
54.654114118
 20
25.3673688142
 10
52.1139693602
 20
25.5143167485
 10
49.5735639957
 20
25.6542655383
 10
47.0328937751
 20
25.7872149034
 10
44.4919713008
 20
25.913165124
 10
41.9508260297
 20
26.0321170403
 10
39.4094613782
 20
26.1440707408
 10
36.8678822984
 20
26.249026137
 10
34.3261205573
 20
26.3469838029
 10
31.7841835644
 20
26.4379437024
 10
29.2420722918
 20
26.5219058716
 10
26.6998088552
 20
26.5988709933
 10
24.1573898001
 20
26.6688393075
 10
21.6148269716
 20
26.7318105742
 10
19.072165439
 20
26.7877847555
 10
16.5294143954
 20
26.8367617189
 10
13.9865730476
 20
26.8787415969
 10
11.4436714891
 20
26.9137247506
 10
8.9007210201
 20
26.9417112614
 10
6.3577187449
 20
26.9627010478
 10
3.8146734655
 20
26.9766942258
 10
1.2715692511
 20
26.9836908338
 10
-1.2715695608
 20
26.9836908333
 10
-3.814673766
 20
26.9766942244
 10
-6.3577190253
 20
26.9627010459
 10
-8.9007212711
 20
26.941711259
 10
-11.4436717072
 20
26.9137247479
 10
-13.986573229
 20
26.8787415943
 10
-16.5294145365
 20
26.8367617164
 10
-19.0721655419
 20
26.7877847534
 10
-21.6148270379
 20
26.7318105726
 10
-24.1573898319
 20
26.6688393067
 10
-26.6998088617
 20
26.5988709931
 10
-29.2420722887
 20
26.5219058717
 10
-31.7841835611
 20
26.4379437025
 10
-34.3261205518
 20
26.3469838031
 10
-36.8678822842
 20
26.2490261376
 10
-39.4094613534
 20
26.1440707419
 10
-41.9508259952
 20
26.0321170418
 10
-44.4919712561
 20
25.9131651262
 10
-47.0328937211
 20
25.7872149062
 10
-49.5735639409
 20
25.6542655412
 10
-52.1139693153
 20
25.514316751
 10
-54.6541140913
 20
25.3673688157
 10
-57.1939940949
 20
25.2134217353
  0
LWPOLYLINE
  5
33A
100
AcDbEntity
  8
RACCORDO
100
AcDbPolyline
 62
253
  6
CONTINUOUS
 90
46
 70
0
 10
57.1974265447
 20
25.3130842422
 10
54.6573974524
 20
25.4670499472
 10
52.1171014999
 20
25.6140141271
 10
49.5765408341
 20
25.753977846
 10
47.0357200246
 20
25.8869419171
 10
44.4946503314
 20
26.0129066211
 10
41.9533452695
 20
26.1318721298
 10
39.4118223981
 20
26.2438384888
 10
36.8700973977
 20
26.3488058698
 10
34.3281819442
 20
26.446774553
 10
31.7860896237
 20
26.5377446679
 10
29.2438310041
 20
26.6217164436
 10
26.7014122771
 20
26.6986902667
 10
24.1588390283
 20
26.7686664787
 10
21.6161298413
 20
26.8316449506
 10
19.0733107922
 20
26.8876254238
 10
16.530401831
 20
26.9366078891
 10
13.9874137092
 20
26.9785925834
 10
11.4443587084
 20
27.0135796822
 10
8.9012543464
 20
27.0415692488
 10
6.3581048547
 20
27.0625614099
 10
3.8149025043
 20
27.0765562877
 10
1.271642275
 20
27.0835538312
 10
-1.2716427032
 20
27.0835538306
 10
-3.8149029193
 20
27.076556286
 10
-6.358105246
 20
27.0625614073
 10
-8.9012547086
 20
27.0415692454
 10
-11.4443590405
 20
27.0135796781
 10
-13.9874140056
 20
26.9785925788
 10
-16.5304020855
 20
26.9366078845
 10
-19.0733110087
 20
26.8876254193
 10
-21.6161300241
 20
26.8316449464
 10
-24.1588391773
 20
26.768666475
 10
-26.7014123968
 20
26.6986902633
 10
-29.2438311091
 20
26.6217164402
 10
-31.7860897288
 20
26.5377446642
 10
-34.3281820516
 20
26.446774549
 10
-36.8700974996
 20
26.3488058658
 10
-39.4118224882
 20
26.243838485
 10
-41.9533453466
 20
26.1318721263
 10
-44.4946504009
 20
26.0129066177
 10
-47.0357200906
 20
25.8869419137
 10
-49.576540893
 20
25.7539778429
 10
-52.1171015446
 20
25.6140141245
 10
-54.6573974772
 20
25.4670499458
 10
-57.1974265446
 20
25.3130842422
  0
LINE
  5
33B
100
AcDbEntity
  8
RACCORDO
100
AcDbLine
 62
253
  6
CONTINUOUS
 10
55.8316274376
 20
23.9821736799
 11
56.4955466597
 21
23.9417065932
  0
LWPOLYLINE
  5
33C
100
AcDbEntity
  8
RACCORDO
100
AcDbPolyline
 62
7
  6
CONTINUOUS
 90
52
 70
0
 10
57.3133561206
 20
25.4217507038
 10
57.3429288038
 20
25.4194792888
 10
57.3724084914
 20
25.4163317747
 10
57.4017951837
 20
25.4123081615
 10
57.4311298434
 20
25.4074022168
 10
57.460371508
 20
25.4016201731
 10
57.4893972894
 20
25.3949807269
 10
57.5182026913
 20
25.3874775221
 10
57.5467922106
 20
25.3791169147
 10
57.5750564492
 20
25.3699366704
 10
57.6029811464
 20
25.3599370265
 10
57.6305805638
 20
25.3491177457
 10
57.6577880872
 20
25.3375158809
 10
57.6845912504
 20
25.3251373501
 10
57.7110025205
 20
25.3119762354
 10
57.7369926839
 20
25.2980518368
 10
57.7625791353
 20
25.2833534496
 10
57.7877444809
 20
25.2678917785
 10
57.8124073241
 20
25.2517182376
 10
57.8365548069
 20
25.2348390349
 10
57.8601997884
 20
25.2172479624
 10
57.8832994482
 20
25.1989778111
 10
57.9058641429
 20
25.1800171926
 10
57.927883517
 20
25.1603774952
 10
57.9492836817
 20
25.1401256746
 10
57.9700516169
 20
25.119271433
 10
57.9902003439
 20
25.0978050682
 10
58.009695036
 20
25.07576443
 10
58.0285445612
 20
25.0531358752
 10
58.0467400527
 20
25.029933047
 10
58.0642200821
 20
25.0062347241
 10
58.0809736623
 20
24.9820524469
 10
58.0970117815
 20
24.957374675
 10
58.1123059751
 20
24.9322455666
 10
58.1268619702
 20
24.9066513485
 10
58.1406740406
 20
24.8806057939
 10
58.153696541
 20
24.8541943803
 10
58.1659218065
 20
24.8274276735
 10
58.177357503
 20
24.8002951078
 10
58.1879809808
 20
24.7728504632
 10
58.1977940593
 20
24.7450830685
 10
58.2067949198
 20
24.717003595
 10
58.2149554558
 20
24.6886978372
 10
58.2222710751
 20
24.6601741892
 10
58.2287463703
 20
24.6314242568
 10
58.2343670123
 20
24.6025086516
 10
58.2391324652
 20
24.5734169225
 10
58.2430432653
 20
24.5441595207
 10
58.2460866909
 20
24.5148284108
 10
58.2482585016
 20
24.4854542478
 10
58.2495629379
 20
24.4560063767
 10
58.25
 20
24.4264847976
  0
LWPOLYLINE
  5
33D
100
AcDbEntity
  8
RACCORDO
100
AcDbPolyline
 62
253
  6
CONTINUOUS
 90
5
 70
0
 10
57.4853630021
 20
25.7694941991
 10
57.5250103992
 20
25.7663692578
 10
57.5644966469
 20
25.7619319116
 10
57.6038217457
 20
25.7561821606
 10
57.643031791
 20
25.7491151122
  0
LWPOLYLINE
  5
33E
100
AcDbEntity
  8
RACCORDO
100
AcDbPolyline
 62
253
  6
CONTINUOUS
 90
46
 70
0
 10
57.4762659823
 20
25.6696895301
 10
57.5125419499
 20
25.6668263458
 10
57.5487507743
 20
25.6627581849
 10
57.5848522339
 20
25.6574843602
 10
57.6208078975
 20
25.6510064212
 10
57.6565752971
 20
25.6433268917
 10
57.692108222
 20
25.6344503795
 10
57.7273678086
 20
25.6243830122
 10
57.7623123688
 20
25.6131323128
 10
57.7968922107
 20
25.6007095029
 10
57.8310680685
 20
25.5871259134
 10
57.8648004735
 20
25.5723940751
 10
57.8980406914
 20
25.5565314012
 10
57.9307497379
 20
25.5395545056
 10
57.962891123
 20
25.5214805271
 10
57.9944212347
 20
25.5023310455
 10
58.0253019706
 20
25.4821276062
 10
58.0555001603
 20
25.4608911498
 10
58.0849804404
 20
25.4386440745
 10
58.1137064371
 20
25.4154117333
 10
58.1416475666
 20
25.3912182352
 10
58.168776853
 20
25.3660840448
 10
58.1950630711
 20
25.3400339819
 10
58.2204740048
 20
25.3130978381
 10
58.2449804317
 20
25.2853030283
 10
58.2685544712
 20
25.2566758685
 10
58.2911654134
 20
25.2272506084
 10
58.312780262
 20
25.1970672129
 10
58.3333737342
 20
25.1661566389
 10
58.3529200954
 20
25.1345554606
 10
58.3713880494
 20
25.102313852
 10
58.3887528749
 20
25.0694743633
 10
58.404998566
 20
25.0360686959
 10
58.4201087925
 20
25.0021318615
 10
58.4341082675
 20
24.9675913831
 10
58.4469304318
 20
24.9325944429
 10
58.4584567334
 20
24.8975184211
 10
58.4686260744
 20
24.8627099531
 10
58.4775608004
 20
24.8279265596
 10
58.4853997394
 20
24.7926571954
 10
58.492144721
 20
24.7567518276
 10
58.497723144
 20
24.7204261725
 10
58.5021091033
 20
24.6837065818
 10
58.5052749581
 20
24.646628292
 10
58.5071924886
 20
24.6092355125
 10
58.5078368782
 20
24.5715707119
  0
LWPOLYLINE
  5
33F
100
AcDbEntity
  8
RACCORDO
100
AcDbPolyline
 62
253
  6
CONTINUOUS
 90
42
 70
0
 10
57.643031791
 20
25.7491151122
 10
57.6820806877
 20
25.7407356591
 10
57.7208301502
 20
25.7310584783
 10
57.7592810767
 20
25.7200775967
 10
57.7974325699
 20
25.7077989874
 10
57.8351436522
 20
25.6942552475
 10
57.8724130771
 20
25.679440514
 10
57.9092420926
 20
25.6633606497
 10
57.9454934622
 20
25.64606584
 10
57.9811640076
 20
25.6275512126
 10
58.0162569091
 20
25.6078216397
 10
58.0506444684
 20
25.5869419235
 10
58.0843221745
 20
25.5649089176
 10
58.1172945405
 20
25.5417257685
 10
58.149447405
 20
25.5174667172
 10
58.1807762831
 20
25.4921302022
 10
58.211285662
 20
25.465717785
 10
58.2408748381
 20
25.4383083924
 10
58.2695431852
 20
25.4098972126
 10
58.297291332
 20
25.3804890573
 10
58.3240204572
 20
25.3501772878
 10
58.3497295058
 20
25.3189550605
 10
58.3744195354
 20
25.286829219
 10
58.397994894
 20
25.2539136564
 10
58.4204517382
 20
25.2202023275
 10
58.4417939138
 20
25.1857012776
 10
58.4619373031
 20
25.150542535
 10
58.4808734795
 20
25.1147297345
 10
58.4986108717
 20
25.0782592413
 10
58.5150906443
 20
25.0412521806
 10
58.5303347765
 20
25.0035801447
 10
58.5443212907
 20
24.9653715413
 10
58.5569254168
 20
24.927132718
 10
58.5680582625
 20
24.8891876378
 10
58.5778087215
 20
24.8512123377
 10
58.5863187022
 20
24.8127412757
 10
58.5936657183
 20
24.7735823124
 10
58.599772257
 20
24.7339275872
 10
58.6045476866
 20
24.6938879769
 10
58.6079617967
 20
24.6535004404
 10
58.6100447982
 20
24.6127280187
 10
58.6107966912
 20
24.5715707119
  0
LINE
  5
340
100
AcDbEntity
  8
RACCORDO
100
AcDbLine
 62
253
  6
CONTINUOUS
 10
56.5750167469
 20
23.8571880587
 11
56.6602108194
 21
24.0164820226
  0
LINE
  5
341
100
AcDbEntity
  8
RACCORDO
100
AcDbLine
 62
253
  6
CONTINUOUS
 10
56.6602108194
 20
-24.0164820226
 11
56.5750167469
 21
-23.8571880587
  0
LWPOLYLINE
  5
342
100
AcDbEntity
  8
RACCORDO
100
AcDbPolyline
 62
253
  6
CONTINUOUS
 90
40
 70
0
 10
56.5750167469
 20
-23.8571880587
 10
56.5711109718
 20
-23.8497376312
 10
56.5671927151
 20
-23.8418052949
 10
56.5632653747
 20
-23.8333910497
 10
56.5593318506
 20
-23.8245025802
 10
56.5553964916
 20
-23.8151322018
 10
56.5514650159
 20
-23.8052568615
 10
56.5475385946
 20
-23.7948657783
 10
56.5436240909
 20
-23.7839697332
 10
56.5397354454
 20
-23.7725780161
 10
56.5358816785
 20
-23.7607042434
 10
56.5320613483
 20
-23.7483347985
 10
56.5282727122
 20
-23.7354381222
 10
56.5245223668
 20
-23.7220238244
 10
56.5208126393
 20
-23.708082295
 10
56.5171366516
 20
-23.6935531445
 10
56.5134989753
 20
-23.6784339302
 10
56.5099065032
 20
-23.6627270948
 10
56.5063574984
 20
-23.6463795774
 10
56.5028593301
 20
-23.6293948541
 10
56.4994184049
 20
-23.6117694489
 10
56.4960333518
 20
-23.5934398725
 10
56.4927130647
 20
-23.5744095292
 10
56.4894655554
 20
-23.5546750148
 10
56.4862905501
 20
-23.5341626274
 10
56.4831988045
 20
-23.5128742811
 10
56.4802005429
 20
-23.4908080619
 10
56.4772978257
 20
-23.4678845251
 10
56.474505047
 20
-23.4441147945
 10
56.4718337398
 20
-23.4194877464
 10
56.4692862995
 20
-23.3938905658
 10
56.4668803162
 20
-23.3673285227
 10
56.4646319756
 20
-23.3397963471
 10
56.4625484782
 20
-23.3111654145
 10
56.460652444
 20
-23.2814355659
 10
56.458965674
 20
-23.2506069604
 10
56.4575035583
 20
-23.2185514506
 10
56.4562930141
 20
-23.185226321
 10
56.4553669784
 20
-23.1506742871
 10
56.4547558719
 20
-23.114895349
  0
LWPOLYLINE
  5
343
100
AcDbEntity
  8
RACCORDO
100
AcDbPolyline
 62
253
  6
CONTINUOUS
 90
16
 70
0
 10
-75.3223365168
 20
46.2889794759
 10
-75.4281876263
 20
46.2832148521
 10
-75.5308598814
 20
46.2670862227
 10
-75.6303533009
 20
46.2405935876
 10
-75.7277564545
 20
46.203218999
 10
-75.8219808042
 20
46.1554804047
 10
-75.9097607236
 20
46.0989316481
 10
-75.990811314
 20
46.0332752654
 10
-76.065417538
 20
45.9588087203
 10
-76.1311685859
 20
45.8779782475
 10
-76.1877596311
 20
45.7905581405
 10
-76.2354955641
 20
45.6967741057
 10
-76.2728801579
 20
45.5997494979
 10
-76.2994146849
 20
45.5005254351
 10
-76.3155979121
 20
45.3980607993
 10
-76.3214298494
 20
45.2923555904
  0
LINE
  5
344
100
AcDbEntity
  8
RACCORDO
100
AcDbLine
 62
253
  6
CONTINUOUS
 10
76.3214298494
 20
45.2923555904
 11
77.1854697942
 21
45.2923556221
  0
LINE
  5
345
100
AcDbEntity
  8
RACCORDO
100
AcDbLine
 62
253
  6
CONTINUOUS
 10
-76.3214298494
 20
45.2923555904
 11
-77.1854697942
 21
45.2923555904
  0
LINE
  5
346
100
AcDbEntity
  8
RACCORDO
100
AcDbLine
 62
253
  6
CONTINUOUS
 10
75.3223365168
 20
46.2889794759
 11
-75.3223365168
 21
46.2889794759
  0
LINE
  5
347
100
AcDbEntity
  8
RACCORDO
100
AcDbLine
 62
253
  6
CONTINUOUS
 10
75.2898630938
 20
47.1877442617
 11
-75.2898630794
 21
47.1877442616
  0
LINE
  5
348
100
AcDbEntity
  8
RACCORDO
100
AcDbLine
 62
7
  6
CONTINUOUS
 10
-75.502555801
 20
47.399999976
 11
75.502555801
 21
47.399999976
  0
LWPOLYLINE
  5
349
100
AcDbEntity
  8
RACCORDO
100
AcDbPolyline
 62
7
  6
CONTINUOUS
 90
19
 70
0
 10
75.502555801
 20
47.399999976
 10
75.6675246037
 20
47.3930884032
 10
75.829838554
 20
47.3720263975
 10
75.9894976759
 20
47.3368139589
 10
76.1482369417
 20
47.2868031788
 10
76.3043214159
 20
47.2226419658
 10
76.4525463079
 20
47.146274046
 10
76.5919304564
 20
47.0576694763
 10
76.7234551601
 20
46.9568581998
 10
76.8448593794
 20
46.8458737714
 10
76.9561005009
 20
46.7246286732
 10
77.057221277
 20
46.5932104232
 10
77.1460887376
 20
46.4539151305
 10
77.2226478975
 20
46.3056882332
 10
77.2869538625
 20
46.1495842932
 10
77.3370388059
 20
45.9910631055
 10
77.3722468128
 20
45.8319446017
 10
77.3932338716
 20
45.6704088502
 10
77.4
 20
45.5064558509
  0
LWPOLYLINE
  5
34A
100
AcDbEntity
  8
RACCORDO
100
AcDbPolyline
 62
253
  6
CONTINUOUS
 90
25
 70
0
 10
56.2389573676
 20
-22.7067044051
 10
56.2381565926
 20
-22.6963504043
 10
56.2373330141
 20
-22.6863348527
 10
56.2364887499
 20
-22.6766639778
 10
56.2356238088
 20
-22.6673466094
 10
56.234738182
 20
-22.6583904315
 10
56.2338339602
 20
-22.6498001021
 10
56.2329111132
 20
-22.6415834152
 10
56.2319696713
 20
-22.6337479314
 10
56.2310118159
 20
-22.626298266
 10
56.2300374602
 20
-22.6192412757
 10
56.2290466911
 20
-22.6125842864
 10
56.2280419503
 20
-22.6063327371
 10
56.2270228941
 20
-22.6004914367
 10
56.2259898662
 20
-22.595068314
 10
56.2249463399
 20
-22.5900723154
 10
56.2238921664
 20
-22.5855075434
 10
56.2228274944
 20
-22.5813784883
 10
56.2217562435
 20
-22.5776920171
 10
56.2206783742
 20
-22.5744501356
 10
56.219593926
 20
-22.5716545086
 10
56.2185069366
 20
-22.5693083801
 10
56.2174187519
 20
-22.5674117934
 10
56.2163280261
 20
-22.5659630158
 10
56.2152347591
 20
-22.5649607259
  0
LWPOLYLINE
  5
34B
100
AcDbEntity
  8
RACCORDO
100
AcDbPolyline
 62
253
  6
CONTINUOUS
 90
20
 70
0
 10
56.4344644991
 20
-22.496038855
 10
56.433560139
 20
-22.4840135735
 10
56.4326371329
 20
-22.4725118539
 10
56.4316955152
 20
-22.4615331552
 10
56.4307374773
 20
-22.4511047489
 10
56.429762931
 20
-22.441226936
 10
56.4287719645
 20
-22.4318994155
 10
56.4277670332
 20
-22.4231485564
 10
56.4267477961
 20
-22.4149740905
 10
56.4257145941
 20
-22.407376286
 10
56.4246709055
 20
-22.400382316
 10
56.4236165847
 20
-22.3939952271
 10
56.4225517773
 20
-22.3882119726
 10
56.4214803972
 20
-22.3830505865
 10
56.4204023062
 20
-22.378514954
 10
56.4193176425
 20
-22.3746011897
 10
56.4182307349
 20
-22.3713156715
 10
56.4171430264
 20
-22.3686605251
 10
56.4160530739
 20
-22.3666336248
 10
56.4149608774
 20
-22.3652349705
  0
LINE
  5
34C
100
AcDbEntity
  8
RACCORDO
100
AcDbLine
 62
253
  6
CONTINUOUS
 10
56.2404907807
 20
-22.7283980042
 11
56.2389573676
 21
-22.7067044051
  0
LINE
  5
34D
100
AcDbEntity
  8
RACCORDO
100
AcDbLine
 62
253
  6
CONTINUOUS
 10
56.4362152959
 20
-22.5216295866
 11
56.4344644991
 21
-22.496038855
  0
LWPOLYLINE
  5
34E
100
AcDbEntity
  8
RACCORDO
100
AcDbPolyline
 62
253
  6
CONTINUOUS
 90
10
 70
0
 10
57.4853630021
 20
-25.7694941991
 10
57.4842454081
 20
-25.7522385547
 10
57.4830739439
 20
-25.7355026136
 10
57.4818838916
 20
-25.7197904274
 10
57.480711093
 20
-25.7055752142
 10
57.4795908703
 20
-25.6932851065
 10
57.4785569624
 20
-25.6832902567
 10
57.4776405083
 20
-25.6758916886
 10
57.4768691098
 20
-25.6713122317
 10
57.4762659997
 20
-25.6696898095
  0
LINE
  5
34F
100
AcDbEntity
  8
RACCORDO
100
AcDbLine
 62
253
  6
CONTINUOUS
 10
56.2419253328
 20
-22.7513171957
 11
56.2404907807
 21
-22.7283980042
  0
LINE
  5
350
100
AcDbEntity
  8
RACCORDO
100
AcDbLine
 62
253
  6
CONTINUOUS
 10
56.4378833104
 20
-22.5491995377
 11
56.4362152959
 21
-22.5216295866
  0
LINE
  5
351
100
AcDbEntity
  8
RACCORDO
100
AcDbLine
 62
253
  6
CONTINUOUS
 10
57.1939940949
 20
-25.2134217353
 11
57.1949900787
 21
-25.2301613572
  0
LINE
  5
352
100
AcDbEntity
  8
RACCORDO
100
AcDbLine
 62
253
  6
CONTINUOUS
 10
56.2432561562
 20
-22.7753617379
 11
56.2419253328
 21
-22.7513171957
  0
LINE
  5
353
100
AcDbEntity
  8
RACCORDO
100
AcDbLine
 62
253
  6
CONTINUOUS
 10
57.1949900787
 20
-25.2301613572
 11
57.1958759306
 21
-25.2464267457
  0
LINE
  5
354
100
AcDbEntity
  8
RACCORDO
100
AcDbLine
 62
253
  6
CONTINUOUS
 10
56.4394623154
 20
-22.5786526321
 11
56.4378833104
 21
-22.5491995377
  0
LINE
  5
355
100
AcDbEntity
  8
RACCORDO
100
AcDbLine
 62
253
  6
CONTINUOUS
 10
56.2444759563
 20
-22.8004074106
 11
56.2432561562
 21
-22.7753617379
  0
LINE
  5
356
100
AcDbEntity
  8
RACCORDO
100
AcDbLine
 62
253
  6
CONTINUOUS
 10
57.1958759306
 20
-25.2464267457
 11
57.1966265545
 21
-25.2617571061
  0
LINE
  5
357
100
AcDbEntity
  8
RACCORDO
100
AcDbLine
 62
253
  6
CONTINUOUS
 10
56.4409476681
 20
-22.609906368
 11
56.4394623154
 21
-22.5786526321
  0
LINE
  5
358
100
AcDbEntity
  8
RACCORDO
100
AcDbLine
 62
253
  6
CONTINUOUS
 10
57.1966265545
 20
-25.2617571061
 11
57.197041166
 21
-25.2712419465
  0
LINE
  5
359
100
AcDbEntity
  8
RACCORDO
100
AcDbLine
 62
253
  6
CONTINUOUS
 10
56.245578962
 20
-22.8263145459
 11
56.2444759563
 21
-22.8004074106
  0
LINE
  5
35A
100
AcDbEntity
  8
RACCORDO
100
AcDbLine
 62
253
  6
CONTINUOUS
 10
56.4423315218
 20
-22.6428148189
 11
56.4409476681
 21
-22.609906368
  0
LINE
  5
35B
100
AcDbEntity
  8
RACCORDO
100
AcDbLine
 62
253
  6
CONTINUOUS
 10
57.197041166
 20
-25.2712419465
 11
57.1973809063
 21
-25.2799978124
  0
LINE
  5
35C
100
AcDbEntity
  8
RACCORDO
100
AcDbLine
 62
253
  6
CONTINUOUS
 10
56.4436068635
 20
-22.6771880757
 11
56.4423315218
 21
-22.6428148189
  0
LINE
  5
35D
100
AcDbEntity
  8
RACCORDO
100
AcDbLine
 62
253
  6
CONTINUOUS
 10
56.2465633406
 20
-22.8529673962
 11
56.245578962
 21
-22.8263145459
  0
LINE
  5
35E
100
AcDbEntity
  8
RACCORDO
100
AcDbLine
 62
253
  6
CONTINUOUS
 10
57.1973809063
 20
-25.2799978124
 11
57.1976414922
 21
-25.2879143137
  0
LINE
  5
35F
100
AcDbEntity
  8
RACCORDO
100
AcDbLine
 62
253
  6
CONTINUOUS
 10
56.4453056337
 20
-22.7311318884
 11
56.4436068635
 21
-22.6771880757
  0
LWPOLYLINE
  5
360
100
AcDbEntity
  8
RACCORDO
100
AcDbPolyline
 62
253
  6
CONTINUOUS
 90
34
 70
0
 10
56.4149608774
 20
22.3652349705
 10
56.4147094584
 20
22.3747217989
 10
56.4140077388
 20
22.3841872108
 10
56.4128573029
 20
22.3936098386
 10
56.4112607476
 20
22.4029684113
 10
56.4092216774
 20
22.4122418026
 10
56.4067446952
 20
22.4214090785
 10
56.4038353929
 20
22.4304495443
 10
56.4005003381
 20
22.439342792
 10
56.3967470596
 20
22.4480687456
 10
56.3925840301
 20
22.456607707
 10
56.3880206477
 20
22.4649404
 10
56.3830672139
 20
22.4730480142
 10
56.3777349107
 20
22.4809122473
 10
56.3720357757
 20
22.4885153464
 10
56.3659826742
 20
22.4958401482
 10
56.3595892709
 20
22.5028701173
 10
56.3528699983
 20
22.5095893843
 10
56.3458400249
 20
22.5159827811
 10
56.3385152204
 20
22.5220358749
 10
56.33091212
 20
22.5277350015
 10
56.3230478872
 20
22.5330672957
 10
56.3149402749
 20
22.5380207201
 10
56.3066075856
 20
22.5425840929
 10
56.2980686296
 20
22.5467471127
 10
56.2893426831
 20
22.5505003819
 10
56.2804494442
 20
22.5538354278
 10
56.2714089887
 20
22.5567447218
 10
56.2622417247
 20
22.5592216964
 10
56.2529683467
 20
22.5612607602
 10
56.2436097886
 20
22.5628573102
 10
56.2341871764
 20
22.5640077422
 10
56.2247217813
 20
22.5647094593
 10
56.2152349705
 20
22.5649608774
  0
LINE
  5
361
100
AcDbEntity
  8
RACCORDO
100
AcDbLine
 62
253
  6
CONTINUOUS
 10
56.255029965
 20
-23.1994190014
 11
56.2465633291
 21
-22.8529673962
  0
LINE
  5
362
100
AcDbEntity
  8
RACCORDO
100
AcDbLine
 62
253
  6
CONTINUOUS
 10
56.4547558719
 20
-23.114895349
 11
56.4453056337
 21
-22.7311318884
  0
LWPOLYLINE
  5
363
100
AcDbEntity
  8
RACCORDO
100
AcDbPolyline
 62
253
  6
CONTINUOUS
 90
12
 70
0
 10
57.1976414922
 20
-25.2879143137
 10
57.1978196382
 20
-25.2948916424
 10
57.1978770529
 20
-25.2980001334
 10
57.1979130983
 20
-25.3008418314
 10
57.1979276608
 20
-25.3034077726
 10
57.1979206944
 20
-25.3056898632
 10
57.197892221
 20
-25.3076809044
 10
57.1978423305
 20
-25.3093746158
 10
57.1977711803
 20
-25.3107656547
 10
57.1976789948
 20
-25.3118496334
 10
57.1975660647
 20
-25.3126231325
 10
57.1974327463
 20
-25.3130837122
  0
LINE
  5
364
100
AcDbEntity
  8
RACCORDO
100
AcDbLine
 62
7
  6
CONTINUOUS
 10
56.3237961104
 20
-22.2740702034
 11
56.3237961104
 21
22.2740702034
  0
LINE
  5
365
100
AcDbEntity
  8
RACCORDO
100
AcDbLine
 62
253
  6
CONTINUOUS
 10
56.4547558719
 20
-23.114895349
 11
56.4547558719
 21
23.114895349
  0
LINE
  5
366
100
AcDbEntity
  8
RACCORDO
100
AcDbLine
 62
253
  6
CONTINUOUS
 10
56.6602108194
 20
-24.0164820226
 11
56.6602108194
 21
24.0164820226
  0
LWPOLYLINE
  5
367
100
AcDbEntity
  8
RACCORDO
100
AcDbPolyline
 62
253
  6
CONTINUOUS
 90
40
 70
0
 10
56.4547558719
 20
23.114895349
 10
56.4553669784
 20
23.1506742871
 10
56.4562930141
 20
23.1852263209
 10
56.4575035583
 20
23.2185514506
 10
56.458965674
 20
23.2506069604
 10
56.460652444
 20
23.2814355659
 10
56.4625484782
 20
23.3111654145
 10
56.4646319756
 20
23.3397963471
 10
56.4668803162
 20
23.3673285227
 10
56.4692862995
 20
23.3938905658
 10
56.4718337398
 20
23.4194877464
 10
56.474505047
 20
23.4441147945
 10
56.4772978257
 20
23.4678845251
 10
56.4802005429
 20
23.4908080619
 10
56.4831988045
 20
23.5128742811
 10
56.4862905501
 20
23.5341626274
 10
56.4894655554
 20
23.5546750148
 10
56.4927130647
 20
23.5744095292
 10
56.4960333518
 20
23.5934398725
 10
56.4994184049
 20
23.6117694489
 10
56.5028593301
 20
23.6293948541
 10
56.5063574984
 20
23.6463795774
 10
56.5099065032
 20
23.6627270948
 10
56.5134989753
 20
23.6784339302
 10
56.5171366516
 20
23.6935531445
 10
56.5208126393
 20
23.708082295
 10
56.5245223668
 20
23.7220238244
 10
56.5282727122
 20
23.7354381222
 10
56.5320613483
 20
23.7483347985
 10
56.5358816785
 20
23.7607042434
 10
56.5397354454
 20
23.7725780161
 10
56.5436240909
 20
23.7839697332
 10
56.5475385946
 20
23.7948657783
 10
56.5514650159
 20
23.8052568615
 10
56.5553964916
 20
23.8151322018
 10
56.5593318506
 20
23.8245025802
 10
56.5632653747
 20
23.8333910498
 10
56.567192715
 20
23.8418052949
 10
56.5711109717
 20
23.8497376312
 10
56.5750167469
 20
23.8571880587
  0
LWPOLYLINE
  5
368
100
AcDbEntity
  8
RACCORDO
100
AcDbPolyline
 62
253
  6
CONTINUOUS
 90
11
 70
0
 10
57.1978196462
 20
25.2948917532
 10
57.1978770612
 20
25.2980002495
 10
57.1979131069
 20
25.3008419525
 10
57.1979276696
 20
25.3034078983
 10
57.1979207033
 20
25.3056899929
 10
57.1978922301
 20
25.3076810378
 10
57.1978423397
 20
25.3093747523
 10
57.1977711895
 20
25.3107657939
 10
57.197679004
 20
25.3118497747
 10
57.1975660739
 20
25.3126232754
 10
57.1974327555
 20
25.313083856
  0
LINE
  5
369
100
AcDbEntity
  8
RACCORDO
100
AcDbLine
 62
253
  6
CONTINUOUS
 10
56.246563329
 20
22.8529673932
 11
56.255029965
 21
23.1994190014
  0
LWPOLYLINE
  5
36A
100
AcDbEntity
  8
RACCORDO
100
AcDbPolyline
 62
253
  6
CONTINUOUS
 90
34
 70
0
 10
56.4149608774
 20
-22.3652349705
 10
56.4147094589
 20
-22.3747217885
 10
56.4140077408
 20
-22.3841871907
 10
56.4128573071
 20
-22.3936098096
 10
56.4112607548
 20
-22.4029683743
 10
56.4092216882
 20
-22.4122417585
 10
56.4067447101
 20
-22.4214090282
 10
56.4038354122
 20
-22.4304494889
 10
56.4005003621
 20
-22.4393427323
 10
56.3967470884
 20
-22.4480686828
 10
56.3925840638
 20
-22.4566076419
 10
56.3880206861
 20
-22.4649403336
 10
56.3830672568
 20
-22.4730479475
 10
56.3777349579
 20
-22.4809121812
 10
56.3720358267
 20
-22.4885152817
 10
56.3659827285
 20
-22.4958400855
 10
56.3595893279
 20
-22.5028700575
 10
56.3528700575
 20
-22.5095893279
 10
56.3458400855
 20
-22.5159827285
 10
56.3385152817
 20
-22.5220358267
 10
56.3309121812
 20
-22.5277349579
 10
56.3230479475
 20
-22.5330672568
 10
56.3149403336
 20
-22.5380206861
 10
56.3066076419
 20
-22.5425840638
 10
56.2980686828
 20
-22.5467470884
 10
56.2893427323
 20
-22.5505003621
 10
56.2804494889
 20
-22.5538354122
 10
56.2714090282
 20
-22.5567447101
 10
56.2622417585
 20
-22.5592216882
 10
56.2529683743
 20
-22.5612607548
 10
56.2436098096
 20
-22.5628573071
 10
56.2341871907
 20
-22.5640077408
 10
56.2247217885
 20
-22.5647094589
 10
56.2152349705
 20
-22.5649608774
  0
LINE
  5
36B
100
AcDbEntity
  8
RACCORDO
100
AcDbLine
 62
253
  6
CONTINUOUS
 10
56.4453056337
 20
22.7311318885
 11
56.4547558719
 21
23.114895349
  0
LINE
  5
36C
100
AcDbEntity
  8
RACCORDO
100
AcDbLine
 62
253
  6
CONTINUOUS
 10
57.1976414996
 20
25.2879144127
 11
57.1978196462
 21
25.2948917532
  0
LINE
  5
36D
100
AcDbEntity
  8
RACCORDO
100
AcDbLine
 62
253
  6
CONTINUOUS
 10
56.4436068635
 20
22.6771880757
 11
56.4453056337
 21
22.7311318885
  0
LINE
  5
36E
100
AcDbEntity
  8
RACCORDO
100
AcDbLine
 62
253
  6
CONTINUOUS
 10
57.197380913
 20
25.2799978985
 11
57.1976414996
 21
25.2879144127
  0
LWPOLYLINE
  5
36F
100
AcDbEntity
  8
RACCORDO
100
AcDbPolyline
 62
253
  6
CONTINUOUS
 90
40
 70
0
 10
56.255029965
 20
23.1994190014
 10
56.2563506557
 20
23.2351942486
 10
56.258181967
 20
23.2697435082
 10
56.2605238989
 20
23.3030667803
 10
56.2634212578
 20
23.3351216483
 10
56.2668292373
 20
23.3659505288
 10
56.2706134181
 20
23.3956806711
 10
56.2747600402
 20
23.4243116086
 10
56.2792828635
 20
23.4518438078
 10
56.2840887489
 20
23.4784059181
 10
56.2891683191
 20
23.5040032306
 10
56.2945309513
 20
23.5286304541
 10
56.3001116374
 20
23.5524003641
 10
56.3059058252
 20
23.5753240605
 10
56.3119180668
 20
23.5973904434
 10
56.3180970106
 20
23.6186789883
 10
56.324438038
 20
23.6391916191
 10
56.3309457675
 20
23.658926412
 10
56.3375827026
 20
23.6779570706
 10
56.3443457047
 20
23.6962869982
 10
56.3512379124
 20
23.7139127916
 10
56.3582312448
 20
23.7308979443
 10
56.3653236148
 20
23.7472459405
 10
56.3725171095
 20
23.7629532962
 10
56.3797899092
 20
23.7780730523
 10
56.3871369889
 20
23.7926027853
 10
56.3945633736
 20
23.8065449188
 10
56.4020623183
 20
23.8199597651
 10
56.4096359785
 20
23.832856867
 10
56.4172821986
 20
23.8452266818
 10
56.4249877676
 20
23.8571008935
 10
56.4327628458
 20
23.8684932302
 10
56.4405972728
 20
23.8793899637
 10
56.4484473568
 20
23.8897815938
 10
56.4563075196
 20
23.8996574946
 10
56.4641833392
 20
23.9090282919
 10
56.4720478588
 20
23.9179163627
 10
56.4798920925
 20
23.926329166
 10
56.4877250262
 20
23.9342592429
 10
56.4955466597
 20
23.9417065932
  0
LINE
  5
370
100
AcDbEntity
  8
RACCORDO
100
AcDbLine
 62
253
  6
CONTINUOUS
 10
56.245578962
 20
22.8263145453
 11
56.2465633405
 21
22.8529673932
  0
LINE
  5
371
100
AcDbEntity
  8
RACCORDO
100
AcDbLine
 62
253
  6
CONTINUOUS
 10
56.4423315218
 20
22.6428148189
 11
56.4436068635
 21
22.6771880757
  0
LINE
  5
372
100
AcDbEntity
  8
RACCORDO
100
AcDbLine
 62
253
  6
CONTINUOUS
 10
57.1970411718
 20
25.2712420189
 11
57.197380913
 21
25.2799978985
  0
LINE
  5
373
100
AcDbEntity
  8
RACCORDO
100
AcDbLine
 62
253
  6
CONTINUOUS
 10
56.4409476681
 20
22.609906368
 11
56.4423315218
 21
22.6428148189
  0
LINE
  5
374
100
AcDbEntity
  8
RACCORDO
100
AcDbLine
 62
253
  6
CONTINUOUS
 10
56.2444759563
 20
22.8004074108
 11
56.245578962
 21
22.8263145453
  0
LINE
  5
375
100
AcDbEntity
  8
RACCORDO
100
AcDbLine
 62
253
  6
CONTINUOUS
 10
57.1966265593
 20
25.2617571644
 11
57.1970411718
 21
25.2712420189
  0
LINE
  5
376
100
AcDbEntity
  8
RACCORDO
100
AcDbLine
 62
253
  6
CONTINUOUS
 10
56.4394623154
 20
22.5786526321
 11
56.4409476681
 21
22.609906368
  0
LINE
  5
377
100
AcDbEntity
  8
RACCORDO
100
AcDbLine
 62
253
  6
CONTINUOUS
 10
56.2432561562
 20
22.7753617379
 11
56.2444759563
 21
22.8004074108
  0
LINE
  5
378
100
AcDbEntity
  8
RACCORDO
100
AcDbLine
 62
253
  6
CONTINUOUS
 10
57.1958759338
 20
25.2464267829
 11
57.1966265593
 21
25.2617571644
  0
LINE
  5
379
100
AcDbEntity
  8
RACCORDO
100
AcDbLine
 62
253
  6
CONTINUOUS
 10
56.4378833104
 20
22.5491995376
 11
56.4394623154
 21
22.5786526321
  0
LINE
  5
37A
100
AcDbEntity
  8
RACCORDO
100
AcDbLine
 62
253
  6
CONTINUOUS
 10
57.1949900803
 20
25.2301613745
 11
57.1958759338
 21
25.2464267829
  0
LINE
  5
37B
100
AcDbEntity
  8
RACCORDO
100
AcDbLine
 62
253
  6
CONTINUOUS
 10
56.2419253328
 20
22.7513171957
 11
56.2432561562
 21
22.7753617379
  0
LINE
  5
37C
100
AcDbEntity
  8
RACCORDO
100
AcDbLine
 62
253
  6
CONTINUOUS
 10
57.1939940949
 20
25.2134217353
 11
57.1949900803
 21
25.2301613745
  0
LINE
  5
37D
100
AcDbEntity
  8
RACCORDO
100
AcDbLine
 62
253
  6
CONTINUOUS
 10
56.4362152959
 20
22.5216295866
 11
56.4378833104
 21
22.5491995376
  0
LINE
  5
37E
100
AcDbEntity
  8
RACCORDO
100
AcDbLine
 62
253
  6
CONTINUOUS
 10
56.2404907807
 20
22.7283980042
 11
56.2419253328
 21
22.7513171957
  0
LWPOLYLINE
  5
37F
100
AcDbEntity
  8
RACCORDO
100
AcDbPolyline
 62
253
  6
CONTINUOUS
 90
10
 70
0
 10
57.4853630005
 20
25.7694941991
 10
57.4842454058
 20
25.7522385212
 10
57.4830739402
 20
25.7355025405
 10
57.4818838859
 20
25.7197903116
 10
57.480711085
 20
25.7055750559
 10
57.47959086
 20
25.6932849088
 10
57.4785569497
 20
25.6832900252
 10
57.4776404936
 20
25.6758914312
 10
57.4768690935
 20
25.671311958
 10
57.4762659823
 20
25.6696895301
  0
LWPOLYLINE
  5
380
100
AcDbEntity
  8
RACCORDO
100
AcDbPolyline
 62
253
  6
CONTINUOUS
 90
16
 70
0
 10
-75.289862873
 20
47.1876411299
 10
-75.4884940008
 20
47.1768409063
 10
-75.6848309922
 20
47.1454164125
 10
-75.8766084855
 20
47.0936514897
 10
-76.0618079962
 20
47.022251407
 10
-76.2384661547
 20
46.9319535666
 10
-76.404718651
 20
46.8236868348
 10
-76.5588203741
 20
46.6987271154
 10
-76.698995517
 20
46.5584087414
 10
-76.8236277176
 20
46.4042509499
 10
-76.9314569246
 20
46.2381307102
 10
-77.0213437675
 20
46.0618416604
 10
-77.0923036183
 20
45.8771239565
 10
-77.1436828358
 20
45.6859207389
 10
-77.1748550159
 20
45.4902956045
 10
-77.1853714165
 20
45.2923556221
  0
LWPOLYLINE
  5
381
100
AcDbEntity
  8
RACCORDO
100
AcDbPolyline
 62
7
  6
CONTINUOUS
 90
16
 70
0
 10
58.5
 20
24.5642043969
 10
58.4940225337
 20
24.6763353038
 10
58.4774814514
 20
24.7852411606
 10
58.4503767454
 20
24.8909219675
 10
58.4121945254
 20
24.9944183324
 10
58.3634486502
 20
25.0946896474
 10
58.3056807316
 20
25.1886140881
 10
58.2387256916
 20
25.2758940243
 10
58.1627485576
 20
25.3568270862
 10
58.0797861045
 20
25.42918434
 10
57.9894430304
 20
25.492833056
 10
57.8921145825
 20
25.547905964
 10
57.7910233767
 20
25.5925723193
 10
57.6872436133
 20
25.626221874
 10
57.5797010616
 20
25.649464876
 10
57.4683957041
 20
25.6623013256
  0
LWPOLYLINE
  5
382
100
AcDbEntity
  8
RACCORDO
100
AcDbPolyline
 62
253
  6
CONTINUOUS
 90
52
 70
0
 10
58.1340481731
 20
24.3176710023
 10
58.1336040971
 20
24.3472074879
 10
58.1322873567
 20
24.3767113331
 10
58.1300994772
 20
24.4061569125
 10
58.1270428421
 20
24.4355182075
 10
58.1231204086
 20
24.4647702029
 10
58.1183355579
 20
24.4938888889
 10
58.1126925688
 20
24.5228494994
 10
58.1061966623
 20
24.5516264145
 10
58.0988536164
 20
24.5801945435
 10
58.0906701087
 20
24.6085288499
 10
58.0816534164
 20
24.6366050557
 10
58.0718112421
 20
24.6643995018
 10
58.0611522615
 20
24.6918881095
 10
58.0496858951
 20
24.7190470305
 10
58.0374218962
 20
24.7458533096
 10
58.0243709868
 20
24.7722836747
 10
58.0105445831
 20
24.7983152096
 10
57.9959543848
 20
24.8239259282
 10
57.980613049
 20
24.8490935943
 10
57.9645339312
 20
24.8737963216
 10
57.947730651
 20
24.8980131623
 10
57.9302177735
 20
24.9217229933
 10
57.9120104514
 20
24.9449052101
 10
57.8931240102
 20
24.9675402248
 10
57.8735747045
 20
24.9896083076
 10
57.8533794655
 20
25.0110901388
 10
57.8325554104
 20
25.0319673978
 10
57.8111205105
 20
25.0522217589
 10
57.7890932454
 20
25.0718354897
 10
57.7664922212
 20
25.0907918825
 10
57.743336847
 20
25.1090742758
 10
57.71964715
 20
25.1266665109
 10
57.6954433335
 20
25.143553424
 10
57.6707462408
 20
25.1597200579
 10
57.6455771967
 20
25.1751520711
 10
57.6199577405
 20
25.1898360884
 10
57.593909932
 20
25.2037590216
 10
57.5674563044
 20
25.2169084112
 10
57.5406196524
 20
25.2292727541
 10
57.5134231805
 20
25.2408409039
 10
57.4858903843
 20
25.2516024364
 10
57.4580449627
 20
25.2615479097
 10
57.4299107556
 20
25.2706683171
 10
57.4015123694
 20
25.2789552131
 10
57.37287505
 20
25.2864010717
 10
57.3440242738
 20
25.2929988675
 10
57.3149844413
 20
25.2987426375
 10
57.285779467
 20
25.3036274493
 10
57.2564342645
 20
25.307648648
 10
57.2269747545
 20
25.3108020118
 10
57.197426548
 20
25.3130842453
  0
LWPOLYLINE
  5
383
100
AcDbEntity
  8
RACCORDO
100
AcDbPolyline
 62
253
  6
CONTINUOUS
 90
52
 70
0
 10
58.0371193511
 20
24.3176710023
 10
58.0367244123
 20
24.344277145
 10
58.0355474364
 20
24.3708133526
 10
58.0335884232
 20
24.3972796252
 10
58.0308441146
 20
24.4237003374
 10
58.0273177687
 20
24.4500511147
 10
58.0230191593
 20
24.4762588326
 10
58.0179463149
 20
24.5023215492
 10
58.0121012069
 20
24.5282412065
 10
58.0054995229
 20
24.5539505063
 10
57.9981393743
 20
24.5794487165
 10
57.9900226494
 20
24.6047365691
 10
57.9811707016
 20
24.6297489617
 10
57.9715816931
 20
24.6544851983
 10
57.961257461
 20
24.678945975
 10
57.9502248716
 20
24.7030682773
 10
57.9384821489
 20
24.7268512466
 10
57.926031068
 20
24.7502957415
 10
57.9129038217
 20
24.7733413242
 10
57.8990986961
 20
24.7959870131
 10
57.8846174043
 20
24.8182337898
 10
57.8694972789
 20
24.8400241604
 10
57.8537367299
 20
24.8613569556
 10
57.8373373463
 20
24.8822333449
 10
57.8203412299
 20
24.9025993429
 10
57.8027468312
 20
24.9224537185
 10
57.7845556987
 20
24.9417977029
 10
57.7658145815
 20
24.9605810049
 10
57.7465220808
 20
24.9788022138
 10
57.7266795944
 20
24.9964627401
 10
57.7063380659
 20
25.0135165243
 10
57.6854961544
 20
25.029962083
 10
57.6641551998
 20
25.0458008995
 10
57.6423701673
 20
25.0609913634
 10
57.6201398918
 20
25.0755318368
 10
57.5974655376
 20
25.0894239578
 10
57.5744055642
 20
25.1026310301
 10
57.5509589165
 20
25.1151513305
 10
57.5271266488
 20
25.1269865822
 10
57.502970385
 20
25.1381052597
 10
57.4784892652
 20
25.1485055338
 10
57.4536841487
 20
25.1581892337
 10
57.4286192386
 20
25.1671303216
 10
57.4032936425
 20
25.1753269195
 10
57.3777082523
 20
25.1827809053
 10
57.3519299473
 20
25.1894718751
 10
57.3259568935
 20
25.1953979097
 10
57.2997909245
 20
25.2005609284
 10
57.2735044221
 20
25.2049462849
 10
57.2471215134
 20
25.2085490972
 10
57.2206180711
 20
25.2113742473
 10
57.1939940949
 20
25.2134217353
  0
LINE
  5
384
100
AcDbEntity
  8
RACCORDO
100
AcDbLine
 62
253
  6
CONTINUOUS
 10
58.0371193511
 20
-24.3176710023
 11
58.0371193511
 21
24.3176710023
  0
LINE
  5
385
100
AcDbEntity
  8
RACCORDO
100
AcDbLine
 62
253
  6
CONTINUOUS
 10
58.1340481731
 20
-24.3176710023
 11
58.1340481731
 21
24.3176710023
  0
LINE
  5
386
100
AcDbEntity
  8
RACCORDO
100
AcDbLine
 62
7
  6
CONTINUOUS
 10
58.25
 20
24.4264847976
 11
58.25
 21
-24.4264847976
  0
LINE
  5
387
100
AcDbEntity
  8
RACCORDO
100
AcDbLine
 62
7
  6
CONTINUOUS
 10
58.5078373646
 20
24.5715707119
 11
58.5078373646
 21
-24.571570712
  0
LINE
  5
388
100
AcDbEntity
  8
RACCORDO
100
AcDbLine
 62
253
  6
CONTINUOUS
 10
58.6107966912
 20
24.5715707119
 11
58.6107966912
 21
-24.571570712
  0
LWPOLYLINE
  5
389
100
AcDbEntity
  8
RACCORDO
100
AcDbPolyline
 62
7
  6
CONTINUOUS
 90
52
 70
0
 10
58.25
 20
-24.4264847976
 10
58.2495629379
 20
-24.4560063767
 10
58.2482585016
 20
-24.4854542478
 10
58.2460866909
 20
-24.5148284108
 10
58.2430432653
 20
-24.5441595207
 10
58.2391324652
 20
-24.5734169225
 10
58.2343670123
 20
-24.6025086516
 10
58.2287463703
 20
-24.6314242568
 10
58.2222710751
 20
-24.6601741892
 10
58.2149554558
 20
-24.6886978372
 10
58.2067949198
 20
-24.717003595
 10
58.1977940593
 20
-24.7450830685
 10
58.1879809808
 20
-24.7728504632
 10
58.177357503
 20
-24.8002951078
 10
58.1659218065
 20
-24.8274276735
 10
58.153696541
 20
-24.8541943803
 10
58.1406740406
 20
-24.8806057939
 10
58.1268619702
 20
-24.9066513485
 10
58.1123059751
 20
-24.9322455666
 10
58.0970117815
 20
-24.957374675
 10
58.0809736623
 20
-24.9820524469
 10
58.0642200821
 20
-25.0062347241
 10
58.0467400527
 20
-25.029933047
 10
58.0285445612
 20
-25.0531358752
 10
58.009695036
 20
-25.07576443
 10
57.9902003439
 20
-25.0978050682
 10
57.9700516169
 20
-25.119271433
 10
57.9492836817
 20
-25.1401256746
 10
57.927883517
 20
-25.1603774952
 10
57.9058641429
 20
-25.1800171926
 10
57.8832994482
 20
-25.1989778111
 10
57.8601997884
 20
-25.2172479624
 10
57.8365548069
 20
-25.2348390349
 10
57.8124073241
 20
-25.2517182376
 10
57.7877444809
 20
-25.2678917785
 10
57.7625791353
 20
-25.2833534496
 10
57.7369926839
 20
-25.2980518368
 10
57.7110025205
 20
-25.3119762354
 10
57.6845912504
 20
-25.3251373501
 10
57.6577880872
 20
-25.3375158809
 10
57.6305805638
 20
-25.3491177457
 10
57.6029811464
 20
-25.3599370265
 10
57.5750564492
 20
-25.3699366704
 10
57.5467922106
 20
-25.3791169147
 10
57.5182026913
 20
-25.3874775221
 10
57.4893972894
 20
-25.3949807269
 10
57.460371508
 20
-25.4016201731
 10
57.4311298435
 20
-25.4074022168
 10
57.4017951837
 20
-25.4123081615
 10
57.3724084914
 20
-25.4163317747
 10
57.3429288038
 20
-25.4194792888
 10
57.3133561206
 20
-25.4217507038
  0
LWPOLYLINE
  5
38A
100
AcDbEntity
  8
RACCORDO
100
AcDbPolyline
 62
253
  6
CONTINUOUS
 90
46
 70
0
 10
58.5078370673
 20
-24.571570712
 10
58.5072334285
 20
-24.6080245136
 10
58.505419341
 20
-24.6444852212
 10
58.5023916969
 20
-24.6809124954
 10
58.4981497606
 20
-24.7172676382
 10
58.4926935231
 20
-24.7535078924
 10
58.4860248242
 20
-24.7895866672
 10
58.4781474973
 20
-24.8254646004
 10
58.469066603
 20
-24.8610993968
 10
58.4587904086
 20
-24.8964405586
 10
58.4473279551
 20
-24.931448019
 10
58.4346894642
 20
-24.9660814313
 10
58.4208894745
 20
-25.0002908916
 10
58.405942355
 20
-25.0340363173
 10
58.3898631284
 20
-25.0672800985
 10
58.3726708167
 20
-25.0999772444
 10
58.3543847915
 20
-25.1320882872
 10
58.3350240834
 20
-25.1635787427
 10
58.3146090208
 20
-25.1944118738
 10
58.2931628822
 20
-25.2245497576
 10
58.2707080302
 20
-25.2539603255
 10
58.2472633679
 20
-25.2826153614
 10
58.2228520055
 20
-25.3104820912
 10
58.1975018257
 20
-25.3375265726
 10
58.1712383368
 20
-25.363718116
 10
58.1440862603
 20
-25.389027257
 10
58.116078058
 20
-25.4134212508
 10
58.0872514732
 20
-25.436864867
 10
58.0576359699
 20
-25.4593309516
 10
58.0272666086
 20
-25.4807915969
 10
57.9961913693
 20
-25.5012126078
 10
57.9644444571
 20
-25.5205706601
 10
57.9320632465
 20
-25.5388434028
 10
57.8991028022
 20
-25.5560018585
 10
57.8656099562
 20
-25.572023867
 10
57.8316154671
 20
-25.5868975123
 10
57.7971513172
 20
-25.600611542
 10
57.7621349317
 20
-25.6131926653
 10
57.7267256108
 20
-25.6245776668
 10
57.6913303211
 20
-25.6346581625
 10
57.6563539093
 20
-25.6433782784
 10
57.6214951627
 20
-25.6508706833
 10
57.586095278
 20
-25.6572811582
 10
57.5499503513
 20
-25.6626026112
 10
57.5133279132
 20
-25.6667506506
 10
57.4762659652
 20
-25.6696892524
  0
LWPOLYLINE
  5
38B
100
AcDbEntity
  8
RACCORDO
100
AcDbPolyline
 62
253
  6
CONTINUOUS
 90
5
 70
0
 10
58.6107966912
 20
-24.571570712
 10
58.6101400215
 20
-24.6114095176
 10
58.60815963
 20
-24.6511674638
 10
58.6048555165
 20
-24.6908445506
 10
58.6002255294
 20
-24.73048731
  0
LWPOLYLINE
  5
38C
100
AcDbEntity
  8
RACCORDO
100
AcDbPolyline
 62
253
  6
CONTINUOUS
 90
42
 70
0
 10
58.6002255294
 20
-24.73048731
 10
58.5942718198
 20
-24.77004921
 10
58.5870008419
 20
-24.8093906542
 10
58.5784066499
 20
-24.8485128968
 10
58.5684951885
 20
-24.8874146835
 10
58.5572907477
 20
-24.9259526559
 10
58.5447873635
 20
-24.9641258978
 10
58.5309909985
 20
-25.0019353254
 10
58.5159438316
 20
-25.0392403278
 10
58.4996407826
 20
-25.0760379817
 10
58.48208693
 20
-25.1123312105
 10
58.4633396904
 20
-25.1479881737
 10
58.4433956425
 20
-25.1830045051
 10
58.4222582057
 20
-25.2173845709
 10
58.399995057
 20
-25.2510096294
 10
58.3766043714
 20
-25.2838752518
 10
58.3520879718
 20
-25.3159858669
 10
58.3265190077
 20
-25.3472360194
 10
58.2998927448
 20
-25.3776252707
 10
58.272213915
 20
-25.4071540594
 10
58.2435698676
 20
-25.4357182457
 10
58.2139536971
 20
-25.4633172394
 10
58.1833723066
 20
-25.4899516307
 10
58.1519337584
 20
-25.5155190502
 10
58.1196318334
 20
-25.5400160209
 10
58.0864727483
 20
-25.56344602
 10
58.0525832197
 20
-25.5857171087
 10
58.0179583888
 20
-25.6068236888
 10
57.9826031122
 20
-25.6267713587
 10
57.9466586788
 20
-25.6454849744
 10
57.9101319453
 20
-25.6629549719
 10
57.8730160531
 20
-25.6791909153
 10
57.8354317192
 20
-25.6941463527
 10
57.7972395425
 20
-25.707840441
 10
57.7585789224
 20
-25.7202540234
 10
57.7199887768
 20
-25.7312831777
 10
57.6818577347
 20
-25.7408444884
 10
57.6437971679
 20
-25.7490213711
 10
57.6051801091
 20
-25.755960151
 10
57.565797568
 20
-25.7617096031
 10
57.5258585327
 20
-25.7662209525
 10
57.4853630022
 20
-25.7694941991
  0
LWPOLYLINE
  5
38D
100
AcDbEntity
  8
RACCORDO
100
AcDbPolyline
 62
253
  6
CONTINUOUS
 90
34
 70
0
 10
56.4462892145
 20
-22.7684428616
 10
56.4456387974
 20
-22.7723476568
 10
56.4445642387
 20
-22.7762441323
 10
56.4430678279
 20
-22.7801239863
 10
56.4411527533
 20
-22.7839789527
 10
56.4388230952
 20
-22.7878008183
 10
56.4360838172
 20
-22.7915814403
 10
56.4329407556
 20
-22.795312764
 10
56.4294006069
 20
-22.7989868395
 10
56.4254709137
 20
-22.8025958392
 10
56.4211600486
 20
-22.8061320737
 10
56.4164771961
 20
-22.8095880091
 10
56.4114323334
 20
-22.8129562823
 10
56.406036209
 20
-22.816229717
 10
56.4003003196
 20
-22.819401339
 10
56.3942368859
 20
-22.8224643912
 10
56.3878588264
 20
-22.8254123474
 10
56.3811797301
 20
-22.8282389269
 10
56.3742138269
 20
-22.8309381077
 10
56.3669759583
 20
-22.833504139
 10
56.3594815449
 20
-22.8359315538
 10
56.351746554
 20
-22.8382151804
 10
56.3437874653
 20
-22.8403501534
 10
56.3356212361
 20
-22.8423319243
 10
56.327265265
 20
-22.8441562707
 10
56.3187373547
 20
-22.8458193058
 10
56.3100556745
 20
-22.8473174866
 10
56.3012387209
 20
-22.848647621
 10
56.2923052791
 20
-22.8498068752
 10
56.283274382
 20
-22.8507927794
 10
56.2741652705
 20
-22.851603233
 10
56.2649973518
 20
-22.8522365094
 10
56.2557901587
 20
-22.8526912593
 10
56.2465633075
 20
-22.8529665139
  0
LWPOLYLINE
  5
38E
100
AcDbEntity
  8
RACCORDO
100
AcDbPolyline
 62
253
  6
CONTINUOUS
 90
34
 70
0
 10
56.4547558719
 20
-23.114895349
 10
56.4541054559
 20
-23.1188001394
 10
56.4530308992
 20
-23.1226966105
 10
56.4515344911
 20
-23.1265764605
 10
56.44961942
 20
-23.1304314233
 10
56.447289766
 20
-23.1342532858
 10
56.4445504924
 20
-23.1380339051
 10
56.4414074355
 20
-23.1417652265
 10
56.4378672917
 20
-23.1454393003
 10
56.4339376035
 20
-23.1490482986
 10
56.4296267433
 20
-23.1525845322
 10
56.4249438955
 20
-23.1560404671
 10
56.4198990373
 20
-23.1594087402
 10
56.414502917
 20
-23.1626821752
 10
56.4087670313
 20
-23.1658537978
 10
56.4027036007
 20
-23.1689168509
 10
56.3963255438
 20
-23.1718648083
 10
56.3896464493
 20
-23.1746913893
 10
56.3826805474
 20
-23.1773905718
 10
56.3754426793
 20
-23.1799566049
 10
56.3679482657
 20
-23.1823840217
 10
56.3602132737
 20
-23.1846676503
 10
56.3522541833
 20
-23.1868026254
 10
56.3440879516
 20
-23.1887843983
 10
56.3357319772
 20
-23.1906087468
 10
56.327204063
 20
-23.1922717839
 10
56.3185223781
 20
-23.1937699666
 10
56.3097054193
 20
-23.1951001027
 10
56.3007719717
 20
-23.1962593585
 10
56.2917410683
 20
-23.197245264
 10
56.28263195
 20
-23.1980557187
 10
56.2734640242
 20
-23.1986889959
 10
56.2642568238
 20
-23.1991437464
 10
56.255029965
 20
-23.1994190014
  0
LWPOLYLINE
  5
38F
100
AcDbEntity
  8
RACCORDO
100
AcDbPolyline
 62
253
  6
CONTINUOUS
 90
13
 70
0
 10
56.5750166951
 20
-23.8571880587
 10
56.5690844667
 20
-23.8646525333
 10
56.5629753412
 20
-23.8720990522
 10
56.5567040151
 20
-23.8795097014
 10
56.5502855756
 20
-23.8868666531
 10
56.5437354635
 20
-23.8941522088
 10
56.5370694364
 20
-23.901348842
 10
56.5303035307
 20
-23.9084392396
 10
56.5234540233
 20
-23.9154063445
 10
56.5165373919
 20
-23.9222333961
 10
56.509570276
 20
-23.9289039705
 10
56.5025694364
 20
-23.9354020205
 10
56.4955517148
 20
-23.9417119139
  0
LWPOLYLINE
  5
390
100
AcDbEntity
  8
RACCORDO
100
AcDbPolyline
 62
253
  6
CONTINUOUS
 90
13
 70
0
 10
56.5750164335
 20
23.8571880587
 10
56.5690842098
 20
23.8646525168
 10
56.5629750937
 20
23.8720990175
 10
56.5567037813
 20
23.8795096473
 10
56.5502853593
 20
23.8868665791
 10
56.543735268
 20
23.8941521149
 10
56.5370692645
 20
23.9013487283
 10
56.5303033848
 20
23.908439107
 10
56.5234539051
 20
23.9154061943
 10
56.5165373027
 20
23.92223323
 10
56.5095702165
 20
23.9289037907
 10
56.5025694068
 20
23.9354018297
 10
56.4955517148
 20
23.941711715
  0
LWPOLYLINE
  5
391
100
AcDbEntity
  8
RACCORDO
100
AcDbPolyline
 62
253
  6
CONTINUOUS
 90
34
 70
0
 10
56.4462892145
 20
22.7684428616
 10
56.4456387984
 20
22.772347652
 10
56.4445642417
 20
22.776244123
 10
56.4430678337
 20
22.7801239731
 10
56.4411527626
 20
22.7839789359
 10
56.4388231085
 20
22.7878007983
 10
56.436083835
 20
22.7915814177
 10
56.4329407781
 20
22.7953127391
 10
56.4294006343
 20
22.7989868128
 10
56.4254709461
 20
22.8025958111
 10
56.4211600858
 20
22.8061320448
 10
56.4164772381
 20
22.8095879797
 10
56.4114323799
 20
22.8129562528
 10
56.4060362596
 20
22.8162296877
 10
56.4003003738
 20
22.8194013104
 10
56.3942369433
 20
22.8224643634
 10
56.3878588864
 20
22.8254123209
 10
56.3811797919
 20
22.8282389019
 10
56.37421389
 20
22.8309380844
 10
56.3669760219
 20
22.8335041175
 10
56.3594816082
 20
22.8359315342
 10
56.3517466163
 20
22.8382151629
 10
56.3437875258
 20
22.840350138
 10
56.3356212941
 20
22.8423319109
 10
56.3272653197
 20
22.8441562594
 10
56.3187374055
 20
22.8458192965
 10
56.3100557207
 20
22.8473174791
 10
56.3012387619
 20
22.8486476153
 10
56.2923053142
 20
22.849806871
 10
56.2832744109
 20
22.8507927765
 10
56.2741652926
 20
22.8516032313
 10
56.2649973668
 20
22.8522365085
 10
56.2557901663
 20
22.852691259
 10
56.2465633075
 20
22.8529665139
  0
LWPOLYLINE
  5
392
100
AcDbEntity
  8
RACCORDO
100
AcDbPolyline
 62
253
  6
CONTINUOUS
 90
34
 70
0
 10
56.4547558719
 20
23.114895349
 10
56.4541054539
 20
23.1188001487
 10
56.4530308932
 20
23.1226966287
 10
56.4515344795
 20
23.1265764873
 10
56.449619401
 20
23.1304314582
 10
56.447289738
 20
23.1342533282
 10
56.4445504542
 20
23.1380339545
 10
56.4414073859
 20
23.1417652822
 10
56.4378672298
 20
23.1454393614
 10
56.4339375286
 20
23.1490483644
 10
56.4296266549
 20
23.1525846018
 10
56.4249437935
 20
23.1560405397
 10
56.4198989217
 20
23.1594088147
 10
56.4145027881
 20
23.1626822508
 10
56.4087668896
 20
23.1658538737
 10
56.4027034472
 20
23.1689169261
 10
56.3963253796
 20
23.171864882
 10
56.3896462758
 20
23.1746914607
 10
56.3826803661
 20
23.1773906401
 10
56.3754424922
 20
23.1799566694
 10
56.3679480747
 20
23.1823840818
 10
56.3602130811
 20
23.1846677055
 10
56.3522539915
 20
23.1868026753
 10
56.3440877632
 20
23.1887844426
 10
56.335731795
 20
23.1906087853
 10
56.3272038897
 20
23.1922718165
 10
56.3185222166
 20
23.1937699934
 10
56.3097052726
 20
23.1951001239
 10
56.3007718425
 20
23.1962593744
 10
56.2917409596
 20
23.1972452752
 10
56.2826318645
 20
23.1980557258
 10
56.2734639648
 20
23.1986889997
 10
56.2642567928
 20
23.1991437478
 10
56.255029965
 20
23.1994190014
  0
LWPOLYLINE
  5
393
100
AcDbEntity
  8
RACCORDO
100
AcDbPolyline
 62
253
  6
CONTINUOUS
 90
13
 70
0
 10
75.3223365163
 20
46.2889794759
 10
75.3220629854
 20
46.4025557126
 10
75.3212458419
 20
46.5143159448
 10
75.3198981514
 20
46.6224732049
 10
75.3180414625
 20
46.7252981339
 10
75.3157054623
 20
46.8211466334
 10
75.312927502
 20
46.9084861533
 10
75.3097519989
 20
46.9859201958
 10
75.3062297273
 20
47.0522106447
 10
75.3024170068
 20
47.1062975623
 10
75.2983748005
 20
47.1473161365
 10
75.2941677402
 20
47.174610509
 10
75.2898630938
 20
47.1877442617
  0
LWPOLYLINE
  5
394
100
AcDbEntity
  8
RACCORDO
100
AcDbPolyline
 62
253
  6
CONTINUOUS
 90
13
 70
0
 10
75.3223365139
 20
-46.2889794759
 10
75.3220628555
 20
-46.4025453207
 10
75.3212456113
 20
-46.5142944789
 10
75.3198978464
 20
-46.6224403092
 10
75.3180411082
 20
-46.7252537799
 10
75.3157050818
 20
-46.8210911134
 10
75.3129271155
 20
-46.9084200662
 10
75.3097516234
 20
-46.9858444261
 10
75.3062293757
 20
-47.0521263355
 10
75.3024166876
 20
-47.1062060816
 10
75.2983745172
 20
-47.1472190394
 10
75.2941674915
 20
-47.1745094952
 10
75.289862873
 20
-47.1876411299
  0
LWPOLYLINE
  5
395
100
AcDbEntity
  8
RACCORDO
100
AcDbPolyline
 62
253
  6
CONTINUOUS
 90
16
 70
0
 10
76.3214298494
 20
45.2923555904
 10
76.3155978969
 20
45.3980607937
 10
76.2994146615
 20
45.5005254269
 10
76.2728801333
 20
45.5997494899
 10
76.2354955499
 20
45.6967741033
 10
76.1877596343
 20
45.7905581464
 10
76.1311685999
 20
45.8779782578
 10
76.0654175487
 20
45.9588087257
 10
75.9908113147
 20
46.033275262
 10
75.9097607176
 20
46.0989316398
 10
75.8219807995
 20
46.1554804005
 10
75.7277564543
 20
46.2032190029
 10
75.6303533038
 20
46.2405935966
 10
75.5308598847
 20
46.2670862317
 10
75.4281876286
 20
46.2832148581
 10
75.3223365168
 20
46.2889794759
  0
LWPOLYLINE
  5
396
100
AcDbEntity
  8
RACCORDO
100
AcDbPolyline
 62
253
  6
CONTINUOUS
 90
16
 70
0
 10
77.1853714605
 20
45.2923556221
 10
77.1748550883
 20
45.4902949796
 10
77.1436829505
 20
45.685919862
 10
77.0923037886
 20
45.8771231925
 10
77.0213439929
 20
46.0618411308
 10
76.9314571918
 20
46.2381303265
 10
76.8236280101
 20
46.404250613
 10
76.6989958197
 20
46.5584084154
 10
76.5588206741
 20
46.6987268204
 10
76.4047189429
 20
46.8236865961
 10
76.2384664435
 20
46.9319533925
 10
76.0618082938
 20
47.0222512896
 10
75.8766087822
 20
47.093651415
 10
75.6848312409
 20
47.1454163673
 10
75.4884941254
 20
47.1768408787
 10
75.289862873
 20
47.1876411147
  0
LINE
  5
397
100
AcDbEntity
  8
RACCORDO
100
AcDbLine
 62
253
  6
CONTINUOUS
 10
76.3214298494
 20
-45.2923555904
 11
76.3214298494
 21
45.2923555904
  0
LINE
  5
398
100
AcDbEntity
  8
RACCORDO
100
AcDbLine
 62
253
  6
CONTINUOUS
 10
77.1854697942
 20
-45.2923555904
 11
77.1854697942
 21
45.2923555904
  0
LINE
  5
399
100
AcDbEntity
  8
RACCORDO
100
AcDbLine
 62
7
  6
CONTINUOUS
 10
77.4
 20
45.5064558035
 11
77.4
 21
-45.5064558035
  0
LWPOLYLINE
  5
39A
100
AcDbEntity
  8
RACCORDO
100
AcDbPolyline
 62
7
  6
CONTINUOUS
 90
19
 70
0
 10
77.4
 20
-45.5064558509
 10
77.3932338716
 20
-45.6704088502
 10
77.3722468128
 20
-45.8319446017
 10
77.3370388059
 20
-45.9910631055
 10
77.2869538625
 20
-46.1495842932
 10
77.2226478975
 20
-46.3056882332
 10
77.1460887376
 20
-46.4539151305
 10
77.057221277
 20
-46.5932104232
 10
76.9561005009
 20
-46.7246286732
 10
76.8448593794
 20
-46.8458737714
 10
76.7234551601
 20
-46.9568581998
 10
76.5919304564
 20
-47.0576694763
 10
76.4525463079
 20
-47.146274046
 10
76.3043214159
 20
-47.2226419658
 10
76.1482369417
 20
-47.2868031788
 10
75.9894976759
 20
-47.3368139589
 10
75.829838554
 20
-47.3720263975
 10
75.6675246037
 20
-47.3930884032
 10
75.502555801
 20
-47.399999976
  0
LINE
  5
39B
100
AcDbEntity
  8
RACCORDO
100
AcDbLine
 62
7
  6
CONTINUOUS
 10
-109.6212752351
 20
-47.3999908153
 11
-108.1761573246
 21
-47.399999976
  0
LINE
  5
39C
100
AcDbEntity
  8
RACCORDO
100
AcDbLine
 62
7
  6
CONTINUOUS
 10
-113.6683789025
 20
-47.1878902576
 11
-112.2343708694
 21
-47.1877442616
  0
LINE
  5
39D
100
AcDbEntity
  8
RACCORDO
100
AcDbLine
 62
253
  6
CONTINUOUS
 10
-114.5212752351
 20
-46.2891245857
 11
-113.0866158251
 21
-46.2889794759
  0
LINE
  5
39E
100
AcDbEntity
  8
0
100
AcDbLine
 62
7
  6
CONTINUOUS
 10
-113.6683788949
 20
-47.1878900729
 11
-109.6212752351
 21
-47.3999897882
  0
LINE
  5
39F
100
AcDbEntity
  8
RACCORDO
100
AcDbLine
 62
253
  6
CONTINUOUS
 10
-108.1761573246
 20
-47.399999976
 11
-112.2343708689
 21
-47.1877442624
  0
LINE
  5
3A0
100
AcDbEntity
  8
DRAFT
100
AcDbLine
 62
7
  6
CONTINUOUS
 10
-106.1212752351
 20
-46.5
 11
-108.1113568073
 21
-46.3957042442
  0
LINE
  5
3A1
100
AcDbEntity
  8
DRAFT
100
AcDbLine
 62
253
  6
CONTINUOUS
 10
-105.6212752351
 20
-45.5
 11
-108.1025822067
 21
-45.5
  0
LINE
  5
3A2
100
AcDbEntity
  8
RACCORDO
100
AcDbLine
 62
253
  6
CONTINUOUS
 10
-113.0482898103
 20
-45.2923555904
 11
-112.1960623868
 21
-45.2923555904
  0
LINE
  5
3A3
100
AcDbEntity
  8
RACCORDO
100
AcDbLine
 62
253
  6
CONTINUOUS
 10
-108.1025822067
 20
-45.5064558035
 11
-112.1960623868
 21
-45.2923555904
  0
LINE
  5
3A4
100
AcDbEntity
  8
ASSI
100
AcDbLine
 62
7
  6
CONTINUOUS
 10
-104.9212752351
 20
-26.35
 11
-105.6212752351
 21
-26.3540724809
  0
LINE
  5
3A5
100
AcDbEntity
  8
DRAFT
100
AcDbLine
 62
7
  6
CONTINUOUS
 10
-105.6212752351
 20
-27.2027086909
 11
-104.9212752351
 21
-27.2013647857
  0
LINE
  5
3A6
100
AcDbEntity
  8
DRAFT
100
AcDbLine
 62
253
  6
CONTINUOUS
 10
-105.6212752351
 20
-26.9939451192
 11
-104.9212752351
 21
-26.9935972909
  0
LINE
  5
3A7
100
AcDbEntity
  8
DRAFT
100
AcDbLine
 62
253
  6
CONTINUOUS
 10
-104.9212752351
 20
-26.9276457135
 11
-105.6212752351
 21
-26.927961881
  0
LINE
  5
3A8
100
AcDbEntity
  8
DRAFT
100
AcDbLine
 62
7
  6
CONTINUOUS
 10
-104.9212752351
 20
-26.9301931678
 11
-105.6212752351
 21
-26.9301931678
  0
LINE
  5
3A9
100
AcDbEntity
  8
ASSI
100
AcDbLine
 62
7
  6
CONTINUOUS
 10
-105.1212752351
 20
-25.2
 11
-105.6212752351
 21
-25.2
  0
LINE
  5
3AA
100
AcDbEntity
  8
ASSI
100
AcDbLine
 62
7
  6
CONTINUOUS
 10
-105.4712752351
 20
-25.05
 11
-105.2712752351
 21
-25.05
  0
LINE
  5
3AB
100
AcDbEntity
  8
RACCORDO
100
AcDbLine
 62
253
  6
CONTINUOUS
 10
-113.6527262295
 20
-24.571570712
 11
-113.65277014
 21
-24.571570712
  0
LINE
  5
3AC
100
AcDbEntity
  8
ASSI
100
AcDbLine
 62
7
  6
CONTINUOUS
 10
-105.1108080438
 20
-25.7916264167
 11
-105.6212752351
 21
-25.7690739122
  0
LINE
  5
3AD
100
AcDbEntity
  8
RACCORDO
100
AcDbLine
 62
253
  6
CONTINUOUS
 10
-113.6604297863
 20
-25.3150054224
 11
-113.6994939457
 21
-25.3130842422
  0
LINE
  5
3AE
100
AcDbEntity
  8
DRAFT
100
AcDbLine
 62
7
  6
CONTINUOUS
 10
-114.5265088059
 20
-27.0844285303
 11
-114.3155326018
 21
-27.0954853246
  0
LINE
  5
3AF
100
AcDbEntity
  8
RACCORDO
100
AcDbLine
 62
253
  6
CONTINUOUS
 10
-113.7696492266
 20
-24.3176710023
 11
-113.6749258772
 21
-24.3176710023
  0
LINE
  5
3B0
100
AcDbEntity
  8
ASSI
100
AcDbLine
 62
7
  6
CONTINUOUS
 10
-105.2712752351
 20
25.05
 11
-105.1212752351
 21
25.2
  0
LINE
  5
3B1
100
AcDbEntity
  8
ASSI
100
AcDbLine
 62
7
  6
CONTINUOUS
 10
-105.2712752351
 20
-25.05
 11
-105.1212752351
 21
-25.2
  0
LWPOLYLINE
  5
3B2
100
AcDbEntity
  8
RACCORDO
100
AcDbPolyline
 62
253
  6
CONTINUOUS
 90
3
 70
0
 10
-112.2343654654
 20
-47.1876411299
 10
-112.2351392571
 20
-47.1768409063
 10
-112.235230424
 20
-47.1454164125
  0
LWPOLYLINE
  5
3B3
100
AcDbEntity
  8
RACCORDO
100
AcDbPolyline
 62
253
  6
CONTINUOUS
 90
13
 70
0
 10
-113.0866157481
 20
-46.2889794759
 10
-113.0794184709
 20
-46.4025453207
 10
-113.057957535
 20
-46.5142944789
 10
-113.0225760571
 20
-46.6224403092
 10
-112.9738397149
 20
-46.7252537799
 10
-112.9125277034
 20
-46.8210911134
 10
-112.8396202763
 20
-46.9084200662
 10
-112.7562830749
 20
-46.9858444261
 10
-112.6638484911
 20
-47.0521263355
 10
-112.5637943654
 20
-47.1062060816
 10
-112.4577203591
 20
-47.1472190394
 10
-112.3473223796
 20
-47.1745094952
 10
-112.2343654654
 20
-47.1876411299
  0
LINE
  5
3B4
100
AcDbEntity
  8
RACCORDO
100
AcDbLine
 62
253
  6
CONTINUOUS
 10
-113.7775944637
 20
24.9605810049
 11
-113.7793312708
 21
25.0135165243
  0
LWPOLYLINE
  5
3B5
100
AcDbEntity
  8
RACCORDO
100
AcDbPolyline
 62
253
  6
CONTINUOUS
 90
28
 70
0
 10
-113.7942183635
 20
-25.2134217353
 10
-113.7940506618
 20
-25.2190251583
 10
-113.7935681829
 20
-25.2246109054
 10
-113.7927724486
 20
-25.2301613572
 10
-113.7916659691
 20
-25.2356590055
 10
-113.7902522345
 20
-25.2410865084
 10
-113.7885357044
 20
-25.2464267457
 10
-113.7865217933
 20
-25.2516628721
 10
-113.7842168538
 20
-25.256778371
 10
-113.7816281567
 20
-25.2617571061
 10
-113.7787638677
 20
-25.2665833726
 10
-113.7756330217
 20
-25.2712419465
 10
-113.7722454948
 20
-25.275718133
 10
-113.7686119724
 20
-25.2799978124
 10
-113.7647439161
 20
-25.2840674851
 10
-113.7606535272
 20
-25.2879143137
 10
-113.7563537084
 20
-25.2915261639
 10
-113.7518580228
 20
-25.2948916424
 10
-113.7471806517
 20
-25.2980001334
 10
-113.7423363492
 20
-25.3008418314
 10
-113.7373403961
 20
-25.3034077726
 10
-113.7322085516
 20
-25.3056898632
 10
-113.7269570034
 20
-25.3076809044
 10
-113.721602317
 20
-25.3093746158
 10
-113.716161383
 20
-25.3107656547
 10
-113.7106513643
 20
-25.3118496334
 10
-113.7050896415
 20
-25.3126231325
 10
-113.6994937584
 20
-25.3130837122
  0
LINE
  5
3B6
100
AcDbEntity
  8
RACCORDO
100
AcDbLine
 62
253
  6
CONTINUOUS
 10
-113.6636576897
 20
25.4383083924
 11
-113.6632134425
 21
25.4206606105
  0
LINE
  5
3B7
100
AcDbEntity
  8
RACCORDO
100
AcDbLine
 62
253
  6
CONTINUOUS
 10
-113.6847991163
 20
25.0319673978
 11
-113.6870570695
 21
25.1090742758
  0
LINE
  5
3B8
100
AcDbEntity
  8
RACCORDO
100
AcDbLine
 62
253
  6
CONTINUOUS
 10
-113.7760006271
 20
24.9025993429
 11
-113.7775944637
 21
24.9605810049
  0
LINE
  5
3B9
100
AcDbEntity
  8
RACCORDO
100
AcDbLine
 62
7
  6
CONTINUOUS
 10
-113.6632134425
 20
25.4206606105
 11
-113.6610171868
 21
25.3395803305
  0
LINE
  5
3BA
100
AcDbEntity
  8
RACCORDO
100
AcDbLine
 62
253
  6
CONTINUOUS
 10
-113.6612067113
 20
25.3501772878
 11
-113.6610171868
 21
25.3395803305
  0
LINE
  5
3BB
100
AcDbEntity
  8
RACCORDO
100
AcDbLine
 62
253
  6
CONTINUOUS
 10
-113.6826956235
 20
24.9449052101
 11
-113.6847991163
 21
25.0319673978
  0
LINE
  5
3BC
100
AcDbEntity
  8
RACCORDO
100
AcDbLine
 62
7
  6
CONTINUOUS
 10
-113.6610171868
 20
25.3395803305
 11
-113.6589717692
 21
25.2482256645
  0
LINE
  5
3BD
100
AcDbEntity
  8
RACCORDO
100
AcDbLine
 62
253
  6
CONTINUOUS
 10
-113.7741198751
 20
24.8182337898
 11
-113.7760006271
 21
24.9025993429
  0
LINE
  5
3BE
100
AcDbEntity
  8
RACCORDO
100
AcDbLine
 62
253
  6
CONTINUOUS
 10
-113.680328305
 20
24.8239259282
 11
-113.6826956235
 21
24.9449052101
  0
LINE
  5
3BF
100
AcDbEntity
  8
RACCORDO
100
AcDbLine
 62
253
  6
CONTINUOUS
 10
-113.7725421558
 20
24.7268512466
 11
-113.7741198751
 21
24.8182337898
  0
LINE
  5
3C0
100
AcDbEntity
  8
RACCORDO
100
AcDbLine
 62
7
  6
CONTINUOUS
 10
-113.6589717692
 20
25.2482256645
 11
-113.6565796432
 21
25.111481964
  0
LINE
  5
3C1
100
AcDbEntity
  8
RACCORDO
100
AcDbLine
 62
253
  6
CONTINUOUS
 10
-113.657133462
 20
25.150542535
 11
-113.6565796432
 21
25.111481964
  0
LINE
  5
3C2
100
AcDbEntity
  8
RACCORDO
100
AcDbLine
 62
253
  6
CONTINUOUS
 10
-113.6779413096
 20
24.6643995018
 11
-113.680328305
 21
24.8239259282
  0
LINE
  5
3C3
100
AcDbEntity
  8
RACCORDO
100
AcDbLine
 62
7
  6
CONTINUOUS
 10
-113.6565796432
 20
25.111481964
 11
-113.6546866101
 21
24.9597982959
  0
LINE
  5
3C4
100
AcDbEntity
  8
RACCORDO
100
AcDbLine
 62
253
  6
CONTINUOUS
 10
-113.7710311396
 20
24.6047365691
 11
-113.7725421558
 21
24.7268512466
  0
LINE
  5
3C5
100
AcDbEntity
  8
RACCORDO
100
AcDbLine
 62
253
  6
CONTINUOUS
 10
-113.6546957317
 20
24.9653715413
 11
-113.6546866101
 21
24.9597982959
  0
LINE
  5
3C6
100
AcDbEntity
  8
RACCORDO
100
AcDbLine
 62
253
  6
CONTINUOUS
 10
-113.675876792
 20
24.4647702029
 11
-113.6779413096
 21
24.6643995018
  0
LINE
  5
3C7
100
AcDbEntity
  8
RACCORDO
100
AcDbLine
 62
253
  6
CONTINUOUS
 10
-113.8095870835
 20
-24.0164820226
 11
-113.8096691537
 21
-24.0056999294
  0
LINE
  5
3C8
100
AcDbEntity
  8
RACCORDO
100
AcDbLine
 62
7
  6
CONTINUOUS
 10
-113.6546866101
 20
24.9597982959
 11
-113.6534018779
 21
24.7964927557
  0
LINE
  5
3C9
100
AcDbEntity
  8
RACCORDO
100
AcDbLine
 62
253
  6
CONTINUOUS
 10
-113.7700630727
 20
24.4762588326
 11
-113.7710311396
 21
24.6047365691
  0
LINE
  5
3CA
100
AcDbEntity
  8
RACCORDO
100
AcDbLine
 62
253
  6
CONTINUOUS
 10
-113.6749258772
 20
24.3176710023
 11
-113.675876792
 21
24.4647702029
  0
LINE
  5
3CB
100
AcDbEntity
  8
RACCORDO
100
AcDbLine
 62
7
  6
CONTINUOUS
 10
-113.6534018779
 20
24.7964927557
 11
-113.6528063269
 21
24.6256420147
  0
LINE
  5
3CC
100
AcDbEntity
  8
RACCORDO
100
AcDbLine
 62
253
  6
CONTINUOUS
 10
-113.7696608196
 20
24.344277145
 11
-113.7700630727
 21
24.4762588326
  0
LINE
  5
3CD
100
AcDbEntity
  8
0
100
AcDbLine
 62
7
  6
CONTINUOUS
 10
-114.6212752351
 20
26.9766942251
 11
-114.6212752351
 21
25.7569768395
  0
LINE
  5
3CE
100
AcDbEntity
  8
0
100
AcDbLine
 62
7
  6
CONTINUOUS
 10
-114.6212752351
 20
-25.7569768374
 11
-114.6212752351
 21
-26.9766942251
  0
LINE
  5
3CF
100
AcDbEntity
  8
0
100
AcDbLine
 62
7
  6
CONTINUOUS
 10
-114.5212752351
 20
46.2891084624
 11
-114.5212752351
 21
27.5092169681
  0
LINE
  5
3D0
100
AcDbEntity
  8
0
100
AcDbLine
 62
7
  6
CONTINUOUS
 10
-114.5212752351
 20
-27.509212359
 11
-114.5212752351
 21
-46.2891084624
  0
LINE
  5
3D1
100
AcDbEntity
  8
RACCORDO
100
AcDbLine
 62
7
  6
CONTINUOUS
 10
-113.8096691551
 20
-24.0057469564
 11
-113.8096691551
 21
24.0057469418
  0
LINE
  5
3D2
100
AcDbEntity
  8
RACCORDO
100
AcDbLine
 62
253
  6
CONTINUOUS
 10
-113.8095870835
 20
-24.0164820226
 11
-113.8095870835
 21
-24.0056999294
  0
LINE
  5
3D3
100
AcDbEntity
  8
RACCORDO
100
AcDbLine
 62
253
  6
CONTINUOUS
 10
-113.8095870835
 20
24.0055324604
 11
-113.8095870835
 21
24.0164820226
  0
LINE
  5
3D4
100
AcDbEntity
  8
RACCORDO
100
AcDbLine
 62
7
  6
CONTINUOUS
 10
-113.8096691445
 20
24.0055324604
 11
-113.8096691537
 21
24.0057000609
  0
LINE
  5
3D5
100
AcDbEntity
  8
RACCORDO
100
AcDbLine
 62
253
  6
CONTINUOUS
 10
-113.6749258772
 20
-24.3176710023
 11
-113.6749258772
 21
24.3176710023
  0
LINE
  5
3D6
100
AcDbEntity
  8
RACCORDO
100
AcDbLine
 62
7
  6
CONTINUOUS
 10
-113.6528063269
 20
24.6256420147
 11
-113.65277014
 21
-24.571570712
  0
LINE
  5
3D7
100
AcDbEntity
  8
RACCORDO
100
AcDbLine
 62
253
  6
CONTINUOUS
 10
-113.0482898103
 20
-45.2923555904
 11
-113.0485149962
 21
45.3980607937
  0
LINE
  5
3D8
100
AcDbEntity
  8
RACCORDO
100
AcDbLine
 62
253
  6
CONTINUOUS
 10
-113.7698334197
 20
-24.4237003374
 11
-113.7696608196
 21
24.344277145
  0
LINE
  5
3D9
100
AcDbEntity
  8
RACCORDO
100
AcDbLine
 62
7
  6
CONTINUOUS
 10
-113.6527700958
 20
-24.571570712
 11
-113.6531863034
 21
-24.7544007125
  0
LINE
  5
3DA
100
AcDbEntity
  8
RACCORDO
100
AcDbLine
 62
253
  6
CONTINUOUS
 10
-113.6530395765
 20
-24.73048731
 11
-113.6531863034
 21
-24.7544007125
  0
LINE
  5
3DB
100
AcDbEntity
  8
RACCORDO
100
AcDbLine
 62
253
  6
CONTINUOUS
 10
-113.7705771405
 20
-24.5539505063
 11
-113.7698334197
 21
-24.4237003374
  0
LINE
  5
3DC
100
AcDbEntity
  8
RACCORDO
100
AcDbLine
 62
253
  6
CONTINUOUS
 10
-113.8096691537
 20
24.0057000609
 11
-113.8095870835
 21
24.0164820226
  0
LINE
  5
3DD
100
AcDbEntity
  8
RACCORDO
100
AcDbLine
 62
7
  6
CONTINUOUS
 10
-113.6531863034
 20
-24.7544007125
 11
-113.6541095106
 21
-24.8974486367
  0
LINE
  5
3DE
100
AcDbEntity
  8
RACCORDO
100
AcDbLine
 62
253
  6
CONTINUOUS
 10
-113.6763825347
 20
-24.5228495001
 11
-113.6749258772
 21
-24.3176710023
  0
LINE
  5
3DF
100
AcDbEntity
  8
RACCORDO
100
AcDbLine
 62
7
  6
CONTINUOUS
 10
-113.6541095106
 20
-24.8974486367
 11
-113.6555105879
 21
-25.03307578
  0
LINE
  5
3E0
100
AcDbEntity
  8
RACCORDO
100
AcDbLine
 62
253
  6
CONTINUOUS
 10
-113.7718746163
 20
-24.678945975
 11
-113.7705771405
 21
-24.5539505063
  0
LINE
  5
3E1
100
AcDbEntity
  8
RACCORDO
100
AcDbLine
 62
253
  6
CONTINUOUS
 10
-113.6786774694
 20
-24.7190470312
 11
-113.6763825347
 21
-24.5228495001
  0
LINE
  5
3E2
100
AcDbEntity
  8
RACCORDO
100
AcDbLine
 62
7
  6
CONTINUOUS
 10
-113.6555105879
 20
-25.03307578
 11
-113.6573362182
 21
-25.1593777694
  0
LINE
  5
3E3
100
AcDbEntity
  8
RACCORDO
100
AcDbLine
 62
253
  6
CONTINUOUS
 10
-113.7732915381
 20
-24.7733413242
 11
-113.7718746163
 21
-24.678945975
  0
LINE
  5
3E4
100
AcDbEntity
  8
RACCORDO
100
AcDbLine
 62
253
  6
CONTINUOUS
 10
-113.6812372265
 20
-24.8737963223
 11
-113.6786774694
 21
-24.7190470312
  0
LINE
  5
3E5
100
AcDbEntity
  8
RACCORDO
100
AcDbLine
 62
7
  6
CONTINUOUS
 10
-113.6573362182
 20
-25.1593777694
 11
-113.6595258736
 21
-25.2748163487
  0
LINE
  5
3E6
100
AcDbEntity
  8
RACCORDO
100
AcDbLine
 62
253
  6
CONTINUOUS
 10
-113.7750237196
 20
-24.8613569556
 11
-113.7732915381
 21
-24.7733413242
  0
LINE
  5
3E7
100
AcDbEntity
  8
RACCORDO
100
AcDbLine
 62
253
  6
CONTINUOUS
 10
-113.6837259917
 20
-24.9896083082
 11
-113.6812372265
 21
-24.8737963223
  0
LINE
  5
3E8
100
AcDbEntity
  8
RACCORDO
100
AcDbLine
 62
253
  6
CONTINUOUS
 10
-113.7765150832
 20
-24.9224537185
 11
-113.7750237196
 21
-24.8613569556
  0
LINE
  5
3E9
100
AcDbEntity
  8
RACCORDO
100
AcDbLine
 62
7
  6
CONTINUOUS
 10
-113.6595258736
 20
-25.2748163487
 11
-113.6620140323
 21
-25.3782398549
  0
LINE
  5
3EA
100
AcDbEntity
  8
RACCORDO
100
AcDbLine
 62
253
  6
CONTINUOUS
 10
-113.6619183118
 20
-25.3776252707
 11
-113.6620140323
 21
-25.3782398549
  0
LINE
  5
3EB
100
AcDbEntity
  8
RACCORDO
100
AcDbLine
 62
253
  6
CONTINUOUS
 10
-113.6859111457
 20
-25.0718354902
 11
-113.6837259917
 21
-24.9896083082
  0
LWPOLYLINE
  5
3EC
100
AcDbEntity
  8
RACCORDO
100
AcDbPolyline
 62
253
  6
CONTINUOUS
 90
28
 70
0
 10
-113.7942183633
 20
25.2134217353
 10
-113.794050669
 20
25.2190251637
 10
-113.7935681969
 20
25.2246109166
 10
-113.7927724689
 20
25.2301613745
 10
-113.7916659951
 20
25.2356590292
 10
-113.7902522656
 20
25.2410865388
 10
-113.7885357399
 20
25.2464267829
 10
-113.7865218326
 20
25.2516629163
 10
-113.7842168964
 20
25.2567784223
 10
-113.7816282019
 20
25.2617571644
 10
-113.7787639148
 20
25.266583438
 10
-113.7756330702
 20
25.2712420189
 10
-113.7722455441
 20
25.2757182123
 10
-113.7686120219
 20
25.2799978985
 10
-113.7647439653
 20
25.2840675778
 10
-113.7606535755
 20
25.2879144127
 10
-113.7563537553
 20
25.2915262689
 10
-113.7518580679
 20
25.2948917532
 10
-113.7471806944
 20
25.2980002495
 10
-113.7423363892
 20
25.3008419525
 10
-113.737340433
 20
25.3034078983
 10
-113.732208585
 20
25.3056899929
 10
-113.7269570331
 20
25.3076810378
 10
-113.7216023426
 20
25.3093747523
 10
-113.7161614043
 20
25.3107657939
 10
-113.7106513811
 20
25.3118497747
 10
-113.7050896537
 20
25.3126232754
 10
-113.699493766
 20
25.313083856
  0
LINE
  5
3ED
100
AcDbEntity
  8
RACCORDO
100
AcDbLine
 62
7
  6
CONTINUOUS
 10
-113.6620140323
 20
-25.3782398549
 11
-113.6638050704
 21
-25.4401262399
  0
LINE
  5
3EE
100
AcDbEntity
  8
RACCORDO
100
AcDbLine
 62
253
  6
CONTINUOUS
 10
-113.7781580311
 20
-24.9788022138
 11
-113.7765150832
 21
-24.9224537185
  0
LINE
  5
3EF
100
AcDbEntity
  8
RACCORDO
100
AcDbLine
 62
253
  6
CONTINUOUS
 10
-113.6870570695
 20
-25.1090742762
 11
-113.6859111457
 21
-25.0718354902
  0
LINE
  5
3F0
100
AcDbEntity
  8
RACCORDO
100
AcDbLine
 62
253
  6
CONTINUOUS
 10
-113.809894841
 20
24.0075535919
 11
-113.8095870688
 21
24.016482022
  0
LINE
  5
3F1
100
AcDbEntity
  8
RACCORDO
100
AcDbLine
 62
253
  6
CONTINUOUS
 10
-113.7793312708
 20
-25.0135165243
 11
-113.7781580311
 21
-24.9788022138
  0
LWPOLYLINE
  5
3F2
100
AcDbEntity
  8
RACCORDO
100
AcDbPolyline
 62
253
  6
CONTINUOUS
 90
13
 70
0
 10
-113.0866158107
 20
46.2889794759
 10
-113.0794258273
 20
46.4025557126
 10
-113.0579708749
 20
46.5143159448
 10
-113.0225940034
 20
46.6224732049
 10
-112.973860864
 20
46.7252981339
 10
-112.9125506656
 20
46.8211466334
 10
-112.8396437151
 20
46.9084861533
 10
-112.7563057434
 20
46.9859201958
 10
-112.6638692663
 20
47.0522106447
 10
-112.563812278
 20
47.1062975623
 10
-112.4577346196
 20
47.1473161365
 10
-112.3473323985
 20
47.174610509
 10
-112.2343708689
 20
47.1877442617
  0
LWPOLYLINE
  5
3F3
100
AcDbEntity
  8
RACCORDO
100
AcDbPolyline
 62
253
  6
CONTINUOUS
 90
4
 70
0
 10
-113.6857683472
 20
25.7694941991
 10
-113.6842943601
 20
25.7522385212
 10
-113.679854238
 20
25.7355025405
 10
-113.6764238943
 20
25.7271946014
  0
LINE
  5
3F4
100
AcDbEntity
  8
RACCORDO
100
AcDbLine
 62
253
  6
CONTINUOUS
 10
-113.6748355076
 20
25.6802327709
 11
-113.6744771405
 21
25.679440514
  0
LWPOLYLINE
  5
3F5
100
AcDbEntity
  8
RACCORDO
100
AcDbPolyline
 62
253
  6
CONTINUOUS
 90
14
 70
0
 10
-113.7845536973
 20
25.1269865822
 10
-113.7852563952
 20
25.1381052597
 10
-113.7859682417
 20
25.1485055338
 10
-113.7866891997
 20
25.1581892337
 10
-113.7874173922
 20
25.1671303216
 10
-113.7881528352
 20
25.1753269195
 10
-113.7888954929
 20
25.1827809053
 10
-113.789643415
 20
25.1894718751
 10
-113.7903966474
 20
25.1953979097
 10
-113.7911551291
 20
25.2005609284
 10
-113.7919167558
 20
25.2049462849
 10
-113.792680824
 20
25.2085490972
 10
-113.7934480282
 20
25.2113742473
 10
-113.7942183636
 20
25.2134217353
  0
LINE
  5
3F6
100
AcDbEntity
  8
RACCORDO
100
AcDbLine
 62
7
  6
CONTINUOUS
 10
-113.6740656723
 20
25.669441219
 11
-113.6725119755
 21
25.6453102836
  0
LWPOLYLINE
  5
3F7
100
AcDbEntity
  8
RACCORDO
100
AcDbPolyline
 62
253
  6
CONTINUOUS
 90
3
 70
0
 10
-113.6733987907
 20
25.6633606497
 10
-113.6723366837
 20
25.64606584
 10
-113.6725119755
 20
25.6453102836
  0
LWPOLYLINE
  5
3F8
100
AcDbEntity
  8
RACCORDO
100
AcDbPolyline
 62
253
  6
CONTINUOUS
 90
12
 70
0
 10
-113.692533726
 20
25.2408409039
 10
-113.6931644868
 20
25.2516024364
 10
-113.693796088
 20
25.2615479097
 10
-113.6944295024
 20
25.2706683171
 10
-113.6950654378
 20
25.2789552131
 10
-113.6957003699
 20
25.2864010717
 10
-113.6963353817
 20
25.2929988675
 10
-113.6969713652
 20
25.2987426375
 10
-113.6976045736
 20
25.3036274493
 10
-113.6982344978
 20
25.307648648
 10
-113.6988638744
 20
25.3108020118
 10
-113.6994938834
 20
25.3130842453
  0
LWPOLYLINE
  5
3F9
100
AcDbEntity
  8
RACCORDO
100
AcDbPolyline
 62
253
  6
CONTINUOUS
 90
3
 70
0
 10
-113.6717323649
 20
25.631974181
 10
-113.6712909447
 20
25.6275512126
 10
-113.6709521041
 20
25.6177688617
  0
LINE
  5
3FA
100
AcDbEntity
  8
RACCORDO
100
AcDbLine
 62
7
  6
CONTINUOUS
 10
-113.6725119755
 20
25.6453102836
 11
-113.6709521041
 21
25.6177688617
  0
LINE
  5
3FB
100
AcDbEntity
  8
RACCORDO
100
AcDbLine
 62
253
  6
CONTINUOUS
 10
-113.7831775142
 20
25.1026310301
 11
-113.7845536973
 21
25.1269865822
  0
LINE
  5
3FC
100
AcDbEntity
  8
RACCORDO
100
AcDbLine
 62
253
  6
CONTINUOUS
 10
-113.6912837672
 20
25.2169084112
 11
-113.692533726
 21
25.2408409039
  0
LINE
  5
3FD
100
AcDbEntity
  8
RACCORDO
100
AcDbLine
 62
7
  6
CONTINUOUS
 10
-113.6709521041
 20
25.6177688617
 11
-113.6693889386
 21
25.5865943
  0
LINE
  5
3FE
100
AcDbEntity
  8
RACCORDO
100
AcDbLine
 62
253
  6
CONTINUOUS
 10
-113.7818452139
 20
25.0755318368
 11
-113.7831775142
 21
25.1026310301
  0
LINE
  5
3FF
100
AcDbEntity
  8
RACCORDO
100
AcDbLine
 62
253
  6
CONTINUOUS
 10
-113.6692521647
 20
25.5869419235
 11
-113.6693889386
 21
25.5865943
  0
LINE
  5
400
100
AcDbEntity
  8
RACCORDO
100
AcDbLine
 62
253
  6
CONTINUOUS
 10
-113.6900481338
 20
25.1898360884
 11
-113.6912837672
 21
25.2169084112
  0
LINE
  5
401
100
AcDbEntity
  8
RACCORDO
100
AcDbLine
 62
253
  6
CONTINUOUS
 10
-113.780561991
 20
25.0458008995
 11
-113.7818452139
 21
25.0755318368
  0
LINE
  5
402
100
AcDbEntity
  8
RACCORDO
100
AcDbLine
 62
7
  6
CONTINUOUS
 10
-113.6693889386
 20
25.5865943
 11
-113.6670494647
 21
25.5325377941
  0
LINE
  5
403
100
AcDbEntity
  8
RACCORDO
100
AcDbLine
 62
253
  6
CONTINUOUS
 10
-113.6888327639
 20
25.1597200579
 11
-113.6900481338
 21
25.1898360884
  0
LINE
  5
404
100
AcDbEntity
  8
RACCORDO
100
AcDbLine
 62
253
  6
CONTINUOUS
 10
-113.667294141
 20
25.5417257685
 11
-113.6670494647
 21
25.5325377941
  0
LINE
  5
405
100
AcDbEntity
  8
RACCORDO
100
AcDbLine
 62
253
  6
CONTINUOUS
 10
-113.7793312708
 20
25.0135165243
 11
-113.780561991
 21
25.0458008995
  0
LINE
  5
406
100
AcDbEntity
  8
RACCORDO
100
AcDbLine
 62
7
  6
CONTINUOUS
 10
-113.6670494647
 20
25.5325377941
 11
-113.6647315125
 21
25.4688653794
  0
LINE
  5
407
100
AcDbEntity
  8
RACCORDO
100
AcDbLine
 62
253
  6
CONTINUOUS
 10
-113.6870570695
 20
25.1090742758
 11
-113.6888327639
 21
25.1597200579
  0
LINE
  5
408
100
AcDbEntity
  8
RACCORDO
100
AcDbLine
 62
7
  6
CONTINUOUS
 10
-113.6647315125
 20
25.4688653794
 11
-113.6632134425
 21
25.4206606105
  0
LINE
  5
409
100
AcDbEntity
  8
RACCORDO
100
AcDbLine
 62
253
  6
CONTINUOUS
 10
-112.1960572347
 20
45.2923556221
 11
-112.2056222749
 21
45.685919862
  0
LINE
  5
40A
100
AcDbEntity
  8
RACCORDO
100
AcDbLine
 62
253
  6
CONTINUOUS
 10
-112.2056222749
 20
45.685919862
 11
-112.2182866524
 21
46.2381303265
  0
LINE
  5
40B
100
AcDbEntity
  8
RACCORDO
100
AcDbLine
 62
253
  6
CONTINUOUS
 10
-112.2182866524
 20
46.2381303265
 11
-112.2251765159
 21
46.5584084154
  0
LINE
  5
40C
100
AcDbEntity
  8
RACCORDO
100
AcDbLine
 62
253
  6
CONTINUOUS
 10
-112.2251765159
 20
46.5584084154
 11
-112.23236967
 21
46.9319533925
  0
LWPOLYLINE
  5
40D
100
AcDbEntity
  8
RACCORDO
100
AcDbPolyline
 62
253
  6
CONTINUOUS
 90
5
 70
0
 10
-112.23236967
 20
46.9319533925
 10
-112.2347269731
 20
47.093651415
 10
-112.235230421
 20
47.1454163673
 10
-112.2351392557
 20
47.1768408787
 10
-112.2343654646
 20
47.1876411147
  0
LWPOLYLINE
  5
40E
100
AcDbEntity
  8
RACCORDO
100
AcDbPolyline
 62
253
  6
CONTINUOUS
 90
15
 70
0
 10
-113.0485149962
 20
45.3980607937
 10
-113.04913978
 20
45.5005254269
 10
-113.0501639074
 20
45.5997494899
 10
-113.0516061985
 20
45.6967741033
 10
-113.0534468129
 20
45.7905581464
 10
-113.0556273696
 20
45.8779782578
 10
-113.0581588406
 20
45.9588087257
 10
-113.0610285909
 20
46.033275262
 10
-113.0641430292
 20
46.0989316398
 10
-113.067512293
 20
46.1554804005
 10
-113.0711245691
 20
46.2032190029
 10
-113.0748539825
 20
46.2405935966
 10
-113.0786584661
 20
46.2670862317
 10
-113.0825792454
 20
46.2832148581
 10
-113.0866158251
 20
46.2889794759
  0
LINE
  5
40F
100
AcDbEntity
  8
RACCORDO
100
AcDbLine
 62
253
  6
CONTINUOUS
 10
-112.1960623868
 20
-45.2923555904
 11
-112.1960623868
 21
45.2923555904
  0
LINE
  5
410
100
AcDbEntity
  8
RACCORDO
100
AcDbLine
 62
253
  6
CONTINUOUS
 10
-112.235230424
 20
-47.1454164125
 11
-112.2337669339
 21
-47.022251407
  0
LINE
  5
411
100
AcDbEntity
  8
RACCORDO
100
AcDbLine
 62
253
  6
CONTINUOUS
 10
-112.2337669339
 20
-47.022251407
 11
-112.2304345125
 21
-46.8236868348
  0
LINE
  5
412
100
AcDbEntity
  8
RACCORDO
100
AcDbLine
 62
253
  6
CONTINUOUS
 10
-112.2304345125
 20
-46.8236868348
 11
-112.2219317478
 21
-46.4042509499
  0
LINE
  5
413
100
AcDbEntity
  8
RACCORDO
100
AcDbLine
 62
253
  6
CONTINUOUS
 10
-112.2219317478
 20
-46.4042509499
 11
-112.2100899653
 21
-45.8771239565
  0
LWPOLYLINE
  5
414
100
AcDbEntity
  8
RACCORDO
100
AcDbPolyline
 62
253
  6
CONTINUOUS
 90
3
 70
0
 10
-112.2100899653
 20
-45.8771239565
 10
-112.2009389808
 20
-45.4902956045
 10
-112.1960572324
 20
-45.2923556221
  0
LINE
  5
415
100
AcDbEntity
  8
RACCORDO
100
AcDbLine
 62
253
  6
CONTINUOUS
 10
-113.6635783001
 20
-25.4357182457
 11
-113.6638050704
 21
-25.4401262399
  0
LINE
  5
416
100
AcDbEntity
  8
RACCORDO
100
AcDbLine
 62
7
  6
CONTINUOUS
 10
-113.6638050704
 20
-25.4401262399
 11
-113.6656777761
 21
-25.4961976866
  0
LINE
  5
417
100
AcDbEntity
  8
RACCORDO
100
AcDbLine
 62
253
  6
CONTINUOUS
 10
-113.6888327639
 20
-25.1597200583
 11
-113.6870570695
 21
-25.1090742762
  0
LINE
  5
418
100
AcDbEntity
  8
RACCORDO
100
AcDbLine
 62
253
  6
CONTINUOUS
 10
-113.780561991
 20
-25.0458008995
 11
-113.7793312708
 21
-25.0135165243
  0
LINE
  5
419
100
AcDbEntity
  8
RACCORDO
100
AcDbLine
 62
7
  6
CONTINUOUS
 10
-113.6656777761
 20
-25.4961976866
 11
-113.6676109853
 21
-25.5463814278
  0
LINE
  5
41A
100
AcDbEntity
  8
RACCORDO
100
AcDbLine
 62
253
  6
CONTINUOUS
 10
-113.6900481338
 20
-25.1898360888
 11
-113.6888327639
 21
-25.1597200583
  0
LINE
  5
41B
100
AcDbEntity
  8
RACCORDO
100
AcDbLine
 62
253
  6
CONTINUOUS
 10
-113.6672254359
 20
-25.5400160209
 11
-113.6676109853
 21
-25.5463814278
  0
LINE
  5
41C
100
AcDbEntity
  8
RACCORDO
100
AcDbLine
 62
253
  6
CONTINUOUS
 10
-113.7818452139
 20
-25.0755318368
 11
-113.780561991
 21
-25.0458008995
  0
LINE
  5
41D
100
AcDbEntity
  8
RACCORDO
100
AcDbLine
 62
7
  6
CONTINUOUS
 10
-113.6676109853
 20
-25.5463814278
 11
-113.6695840267
 21
-25.5906901957
  0
LINE
  5
41E
100
AcDbEntity
  8
RACCORDO
100
AcDbLine
 62
253
  6
CONTINUOUS
 10
-113.6912837672
 20
-25.2169084115
 11
-113.6900481338
 21
-25.1898360888
  0
LINE
  5
41F
100
AcDbEntity
  8
RACCORDO
100
AcDbLine
 62
253
  6
CONTINUOUS
 10
-113.6691952405
 20
-25.5857171087
 11
-113.6695840267
 21
-25.5906901957
  0
LINE
  5
420
100
AcDbEntity
  8
RACCORDO
100
AcDbLine
 62
253
  6
CONTINUOUS
 10
-113.7831775142
 20
-25.1026310301
 11
-113.7818452139
 21
-25.0755318368
  0
LWPOLYLINE
  5
421
100
AcDbEntity
  8
RACCORDO
100
AcDbPolyline
 62
7
  6
CONTINUOUS
 90
13
 70
0
 10
-113.6695840267
 20
-25.5906901957
 10
-113.671575291
 20
-25.6291844991
 10
-113.6725678975
 20
-25.64623468
 10
-113.673554635
 20
-25.6618558505
 10
-113.6745318759
 20
-25.6760667784
 10
-113.6754891877
 20
-25.6888068646
 10
-113.6764240815
 20
-25.7001456253
 10
-113.6773310197
 20
-25.7101172177
 10
-113.6781901376
 20
-25.7186298297
 10
-113.6790015024
 20
-25.7258240251
 10
-113.6797481612
 20
-25.7316911207
 10
-113.680360848
 20
-25.7359186997
 10
-113.680534922
 20
-25.7370124299
  0
LINE
  5
422
100
AcDbEntity
  8
RACCORDO
100
AcDbLine
 62
253
  6
CONTINUOUS
 10
-113.6712487415
 20
-25.6267713587
 11
-113.671575291
 21
-25.6291844991
  0
LINE
  5
423
100
AcDbEntity
  8
RACCORDO
100
AcDbLine
 62
253
  6
CONTINUOUS
 10
-113.673554635
 20
-25.6618558505
 11
-113.6733727274
 21
-25.6629549719
  0
LINE
  5
424
100
AcDbEntity
  8
RACCORDO
100
AcDbLine
 62
253
  6
CONTINUOUS
 10
-113.6745318759
 20
-25.6760667784
 11
-113.6744594909
 21
-25.6791909153
  0
LWPOLYLINE
  5
425
100
AcDbEntity
  8
RACCORDO
100
AcDbPolyline
 62
253
  6
CONTINUOUS
 90
5
 70
0
 10
-113.6754891877
 20
-25.6888068646
 10
-113.67555926
 20
-25.6941463527
 10
-113.6766760828
 20
-25.707840441
 10
-113.6778058519
 20
-25.7202540234
 10
-113.6789328071
 20
-25.7312831777
  0
LWPOLYLINE
  5
426
100
AcDbEntity
  8
RACCORDO
100
AcDbPolyline
 62
253
  6
CONTINUOUS
 90
4
 70
0
 10
-113.6857683996
 20
-25.7694941991
 10
-113.6842943645
 20
-25.7522385547
 10
-113.6798542057
 20
-25.7355026136
 10
-113.6764238286
 20
-25.7271946557
  0
LWPOLYLINE
  5
427
100
AcDbEntity
  8
RACCORDO
100
AcDbPolyline
 62
253
  6
CONTINUOUS
 90
6
 70
0
 10
-113.6789328071
 20
-25.7312831777
 10
-113.6800456145
 20
-25.7408444884
 10
-113.6811556312
 20
-25.7490213711
 10
-113.6822811283
 20
-25.755960151
 10
-113.6834281579
 20
-25.7617096031
 10
-113.6845905938
 20
-25.7662209525
  0
LINE
  5
428
100
AcDbEntity
  8
DRAFT
100
AcDbLine
 62
7
  6
CONTINUOUS
 10
-105.6212752351
 20
-3.7997558672
 11
-107.3212752351
 21
-3.5
  0
LINE
  5
429
100
AcDbEntity
  8
RACCORDO
100
AcDbLine
 62
7
  6
CONTINUOUS
 10
-113.6808318611
 20
25.7387480434
 11
-113.6802963101
 21
25.7354889468
  0
LWPOLYLINE
  5
42A
100
AcDbEntity
  8
RACCORDO
100
AcDbPolyline
 62
7
  6
CONTINUOUS
 90
10
 70
0
 10
-113.6802963101
 20
25.7354889468
 10
-113.679775479
 20
25.7318905103
 10
-113.6791634914
 20
25.727159522
 10
-113.6785103236
 20
25.7215681771
 10
-113.6778135576
 20
25.7150105721
 10
-113.6770933467
 20
25.707601549
 10
-113.6763551096
 20
25.6993459245
 10
-113.6755997387
 20
25.6902041753
 10
-113.6748355076
 20
25.6802327709
 10
-113.6740656723
 20
25.669441219
  0
LWPOLYLINE
  5
42B
100
AcDbEntity
  8
RACCORDO
100
AcDbPolyline
 62
253
  6
CONTINUOUS
 90
6
 70
0
 10
-113.6800391101
 20
25.7407356591
 10
-113.6789082444
 20
25.7310584783
 10
-113.6777853398
 20
25.7200775967
 10
-113.6766704401
 20
25.7077989874
 10
-113.6755676864
 20
25.6942552475
 10
-113.6755997387
 20
25.6902041753
  0
LWPOLYLINE
  5
42C
100
AcDbEntity
  8
RACCORDO
100
AcDbPolyline
 62
7
  6
CONTINUOUS
 90
6
 70
0
 10
-108.1125338363
 20
46.4539151305
 10
-108.109536676
 20
46.3056882332
 10
-108.1070169067
 20
46.1495842932
 10
-108.1050529196
 20
45.9910631055
 10
-108.103671541
 20
45.8319446017
 10
-108.1028478186
 20
45.6704088502
  0
LINE
  5
42D
100
AcDbEntity
  8
RACCORDO
100
AcDbLine
 62
7
  6
CONTINUOUS
 10
-108.1028478186
 20
45.6704088502
 11
-108.1025822067
 21
-45.5064558035
  0
LINE
  5
42E
100
AcDbEntity
  8
DRAFT
100
AcDbLine
 62
7
  6
CONTINUOUS
 10
-107.3212752351
 20
3.5
 11
-107.3212752351
 21
-3.5
  0
LINE
  5
42F
100
AcDbEntity
  8
DRAFT
100
AcDbLine
 62
7
  6
CONTINUOUS
 10
-106.1212752351
 20
46.5
 11
-106.1212752351
 21
3.7115923769
  0
LINE
  5
430
100
AcDbEntity
  8
DRAFT
100
AcDbLine
 62
7
  6
CONTINUOUS
 10
-106.1212752351
 20
-3.7115923769
 11
-106.1212752351
 21
-46.5
  0
LWPOLYLINE
  5
431
100
AcDbEntity
  8
RACCORDO
100
AcDbPolyline
 62
7
  6
CONTINUOUS
 90
7
 70
0
 10
-108.1025822067
 20
-45.5064558509
 10
-108.1028478186
 20
-45.6704088502
 10
-108.103671541
 20
-45.8319446017
 10
-108.1050529196
 20
-45.9910631055
 10
-108.1070169067
 20
-46.1495842932
 10
-108.109536676
 20
-46.3056882332
 10
-108.1125338363
 20
-46.4539151305
  0
LWPOLYLINE
  5
432
100
AcDbEntity
  8
RACCORDO
100
AcDbPolyline
 62
7
  6
CONTINUOUS
 90
13
 70
0
 10
-108.1125338363
 20
-46.4539151305
 10
-108.1160091115
 20
-46.5932104232
 10
-108.1199586886
 20
-46.7246286732
 10
-108.1242975464
 20
-46.8458737714
 10
-108.1290256328
 20
-46.9568581998
 10
-108.1341394123
 20
-47.0576694763
 10
-108.1395491824
 20
-47.146274046
 10
-108.1452912517
 20
-47.2226419658
 10
-108.151325729
 20
-47.2868031788
 10
-108.1574501525
 20
-47.3368139589
 10
-108.1635971548
 20
-47.3720263975
 10
-108.1698330974
 20
-47.3930884032
 10
-108.1761573246
 20
-47.399999976
  0
LWPOLYLINE
  5
433
100
AcDbEntity
  8
RACCORDO
100
AcDbPolyline
 62
253
  6
CONTINUOUS
 90
13
 70
0
 10
-113.6994938834
 20
-25.3130842453
 10
-113.6988638744
 20
-25.3108020118
 10
-113.6982344978
 20
-25.3076486481
 10
-113.6976045736
 20
-25.3036274495
 10
-113.6969713652
 20
-25.2987426376
 10
-113.6963353817
 20
-25.2929988676
 10
-113.6957003699
 20
-25.2864010718
 10
-113.6950654378
 20
-25.2789552133
 10
-113.6944295024
 20
-25.2706683173
 10
-113.6937960881
 20
-25.26154791
 10
-113.6931644868
 20
-25.2516024367
 10
-113.6925337261
 20
-25.2408409042
 10
-113.6912837672
 20
-25.2169084115
  0
LINE
  5
434
100
AcDbEntity
  8
DRAFT
100
AcDbLine
 62
7
  6
CONTINUOUS
 10
-105.6212752351
 20
3.7997558672
 11
-107.3212752351
 21
3.5
  0
LINE
  5
435
100
AcDbEntity
  8
SMUSSO
100
AcDbLine
 62
7
  6
CONTINUOUS
 10
-105.6212752351
 20
46.0
 11
-105.6212752351
 21
45.5
  0
LINE
  5
436
100
AcDbEntity
  8
DRAFT
100
AcDbLine
 62
7
  6
CONTINUOUS
 10
-105.6212752351
 20
45.5
 11
-105.6212752351
 21
3.7997558672
  0
LINE
  5
437
100
AcDbEntity
  8
DRAFT
100
AcDbLine
 62
7
  6
CONTINUOUS
 10
-105.6212752351
 20
-3.7997558672
 11
-105.6212752351
 21
-45.5
  0
LINE
  5
438
100
AcDbEntity
  8
SMUSSO
100
AcDbLine
 62
7
  6
CONTINUOUS
 10
-105.6212752351
 20
-45.5
 11
-105.6212752351
 21
-46.0
  0
LINE
  5
439
100
AcDbEntity
  8
ASSI
100
AcDbLine
 62
253
  6
CONTINUOUS
 10
-105.1108080438
 20
25.7916264167
 11
-105.1108080438
 21
25.200274093
  0
LINE
  5
43A
100
AcDbEntity
  8
ASSI
100
AcDbLine
 62
253
  6
CONTINUOUS
 10
-105.1108080438
 20
-25.200274093
 11
-105.1108080438
 21
-25.7916264167
  0
LINE
  5
43B
100
AcDbEntity
  8
DRAFT
100
AcDbLine
 62
7
  6
CONTINUOUS
 10
-104.9212752351
 20
27.2013650296
 11
-104.9212752351
 21
26.9301931678
  0
LINE
  5
43C
100
AcDbEntity
  8
ASSI
100
AcDbLine
 62
7
  6
CONTINUOUS
 10
-104.9212752351
 20
-25.4
 11
-104.9212752351
 21
-26.9301931678
  0
LINE
  5
43D
100
AcDbEntity
  8
DRAFT
100
AcDbLine
 62
7
  6
CONTINUOUS
 10
-104.9212752351
 20
-26.9301931678
 11
-104.9212752351
 21
-27.2013650296
  0
LINE
  5
43E
100
AcDbEntity
  8
ASSI
100
AcDbLine
 62
7
  6
CONTINUOUS
 10
-104.9212752351
 20
25.4
 11
-104.9212752351
 21
26.9301931678
  0
LINE
  5
43F
100
AcDbEntity
  8
RACCORDO
100
AcDbLine
 62
253
  6
CONTINUOUS
 10
-113.6845905938
 20
-25.7662209525
 11
-113.6857684021
 21
-25.7694941991
  0
LWPOLYLINE
  5
440
100
AcDbEntity
  8
RACCORDO
100
AcDbPolyline
 62
253
  6
CONTINUOUS
 90
15
 70
0
 10
-113.7942183636
 20
-25.2134217353
 10
-113.7934480282
 20
-25.2113742473
 10
-113.792680824
 20
-25.2085490972
 10
-113.7919167558
 20
-25.2049462849
 10
-113.7911551291
 20
-25.2005609284
 10
-113.7903966474
 20
-25.1953979097
 10
-113.789643415
 20
-25.1894718751
 10
-113.7888954929
 20
-25.1827809053
 10
-113.7881528352
 20
-25.1753269195
 10
-113.7874173922
 20
-25.1671303216
 10
-113.7866891997
 20
-25.1581892337
 10
-113.7859682417
 20
-25.1485055338
 10
-113.7852563952
 20
-25.1381052597
 10
-113.7845536973
 20
-25.1269865822
 10
-113.7831775142
 20
-25.1026310301
  0
LINE
  5
441
100
AcDbEntity
  8
RACCORDO
100
AcDbLine
 62
253
  6
CONTINUOUS
 10
-113.6857684021
 20
-25.7694941991
 11
-113.8129498618
 21
-26.0462870019
  0
LINE
  5
442
100
AcDbEntity
  8
RACCORDO
100
AcDbLine
 62
7
  6
CONTINUOUS
 10
-113.8096691551
 20
-23.9721431216
 11
-114.6026584551
 21
-25.6727141635
  0
LINE
  5
443
100
AcDbEntity
  8
RACCORDO
100
AcDbLine
 62
253
  6
CONTINUOUS
 10
-113.8095870835
 20
-24.0164820219
 11
-114.6212752351
 21
-25.7569768585
  0
LWPOLYLINE
  5
444
100
AcDbEntity
  8
RACCORDO
100
AcDbPolyline
 62
253
  6
CONTINUOUS
 90
3
 70
0
 10
-113.934637907
 20
-25.5143167503
 10
-113.8660572012
 20
-25.3673688153
 10
-113.7942183636
 20
-25.2134217353
  0
LWPOLYLINE
  5
445
100
AcDbEntity
  8
RACCORDO
100
AcDbPolyline
 62
253
  6
CONTINUOUS
 90
4
 70
0
 10
-113.9672838856
 20
-25.8869419123
 10
-113.9052247894
 20
-25.7539778418
 10
-113.8399062457
 20
-25.6140141239
 10
-113.6994939457
 20
-25.3130842422
  0
LINE
  5
446
100
AcDbEntity
  8
RACCORDO
100
AcDbLine
 62
253
  6
CONTINUOUS
 10
-114.0620219847
 20
-25.7872149048
 11
-113.934637907
 21
-25.5143167503
  0
LINE
  5
447
100
AcDbEntity
  8
RACCORDO
100
AcDbLine
 62
7
  6
CONTINUOUS
 10
-113.6802995835
 20
-25.7354959704
 11
-114.0009868368
 21
-26.4222638484
  0
LINE
  5
448
100
AcDbEntity
  8
RACCORDO
100
AcDbLine
 62
253
  6
CONTINUOUS
 10
-114.6212752351
 20
-26.9845654096
 11
-114.0620219847
 21
-25.7872149048
  0
LINE
  5
449
100
AcDbEntity
  8
RACCORDO
100
AcDbLine
 62
253
  6
CONTINUOUS
 10
-114.5265087849
 20
-27.0844285314
 11
-113.9672838856
 21
-25.8869419123
  0
LINE
  5
44A
100
AcDbEntity
  8
RACCORDO
100
AcDbLine
 62
7
  6
CONTINUOUS
 10
-114.0009868368
 20
-26.4222638484
 11
-114.25116431
 21
-26.9577528594
  0
LINE
  5
44B
100
AcDbEntity
  8
RACCORDO
100
AcDbLine
 62
7
  6
CONTINUOUS
 10
-114.25116431
 20
-26.9577528594
 11
-114.5118633906
 21
-27.5155003078
  0
LWPOLYLINE
  5
44C
100
AcDbEntity
  8
RACCORDO
100
AcDbPolyline
 62
253
  6
CONTINUOUS
 90
5
 70
0
 10
-113.8129498618
 20
-26.0462870019
 10
-113.9337050287
 20
-26.3040170608
 10
-114.0468402466
 20
-26.5426843757
 10
-114.1507776061
 20
-26.7649067749
 10
-114.2446744632
 20
-26.9680664301
  0
LWPOLYLINE
  5
44D
100
AcDbEntity
  8
RACCORDO
100
AcDbPolyline
 62
253
  6
CONTINUOUS
 90
5
 70
0
 10
-114.2446744632
 20
-26.9680664301
 10
-114.3992730283
 20
-27.2949692399
 10
-114.4560437197
 20
-27.4187123945
 10
-114.4959520124
 20
-27.5036892803
 10
-114.5177281948
 20
-27.5465688919
  0
LWPOLYLINE
  5
44E
100
AcDbEntity
  8
RACCORDO
100
AcDbPolyline
 62
253
  6
CONTINUOUS
 90
6
 70
0
 10
-114.3348996844
 20
27.1591629089
 10
-114.2505870943
 20
26.9807955543
 10
-114.155149916
 20
26.7740360886
 10
-114.049584442
 20
26.5485587923
 10
-113.9350657255
 20
26.3075884253
 10
-113.8133253668
 20
26.0479002276
  0
LINE
  5
44F
100
AcDbEntity
  8
RACCORDO
100
AcDbLine
 62
7
  6
CONTINUOUS
 10
-114.5118633916
 20
27.5155003106
 11
-113.8452669139
 21
26.0888322882
  0
LINE
  5
450
100
AcDbEntity
  8
RACCORDO
100
AcDbLine
 62
7
  6
CONTINUOUS
 10
-113.8452669139
 20
26.0888322882
 11
-113.6802963101
 21
25.7354889468
  0
LINE
  5
451
100
AcDbEntity
  8
RACCORDO
100
AcDbLine
 62
253
  6
CONTINUOUS
 10
-113.7942183636
 20
25.2134217353
 11
-114.6212752351
 21
26.9845654096
  0
LWPOLYLINE
  5
452
100
AcDbEntity
  8
RACCORDO
100
AcDbPolyline
 62
253
  6
CONTINUOUS
 90
3
 70
0
 10
-113.6994939457
 20
25.3130842422
 10
-113.7713290499
 20
25.4670499472
 10
-114.5265087849
 20
27.0844285314
  0
LINE
  5
453
100
AcDbEntity
  8
RACCORDO
100
AcDbLine
 62
7
  6
CONTINUOUS
 10
-114.6026550442
 20
25.6727068486
 11
-113.8096691551
 21
23.9721431216
  0
LINE
  5
454
100
AcDbEntity
  8
RACCORDO
100
AcDbLine
 62
253
  6
CONTINUOUS
 10
-114.6212752351
 20
25.7569768585
 11
-113.8095870835
 21
24.0164820219
  0
LWPOLYLINE
  5
455
100
AcDbEntity
  8
RACCORDO
100
AcDbPolyline
 62
253
  6
CONTINUOUS
 90
3
 70
0
 10
-114.5008835534
 20
27.5142380259
 10
-114.4067607276
 20
27.3099936227
 10
-114.3348996844
 20
27.1591629089
  0
LINE
  5
456
100
AcDbEntity
  8
RACCORDO
100
AcDbLine
 62
253
  6
CONTINUOUS
 10
-113.8133253668
 20
26.0479002276
 11
-113.6857684021
 21
25.7694941991
  0
LWPOLYLINE
  5
457
100
AcDbEntity
  8
RACCORDO
100
AcDbPolyline
 62
253
  6
CONTINUOUS
 90
6
 70
0
 10
-113.6857684021
 20
25.7694941991
 10
-113.6846152702
 20
25.7663692578
 10
-113.6834660343
 20
25.7619319116
 10
-113.6823207042
 20
25.7561821606
 10
-113.6811779455
 20
25.7491151122
 10
-113.6800391101
 20
25.7407356591
  0
LINE
  5
458
100
AcDbEntity
  8
RACCORDO
100
AcDbLine
 62
253
  6
CONTINUOUS
 10
-114.5177281948
 20
-27.5465688919
 11
-114.521275073
 21
-27.5537960662
  0
LWPOLYLINE
  5
459
100
AcDbEntity
  8
RACCORDO
100
AcDbPolyline
 62
253
  6
CONTINUOUS
 90
3
 70
0
 10
-114.5212752351
 20
27.5538021474
 10
-114.5194863603
 20
27.5507053863
 10
-114.5008835534
 20
27.5142380259
  0
LINE
  5
45A
100
AcDbEntity
  8
ASSI
100
AcDbLine
 62
7
  6
CONTINUOUS
 10
-105.6212752351
 20
-25.2
 11
-105.4712752351
 21
-25.05
  0
LINE
  5
45B
100
AcDbEntity
  8
ASSI
100
AcDbLine
 62
7
  6
CONTINUOUS
 10
-105.6212752351
 20
25.2
 11
-105.4712752351
 21
25.05
  0
LWPOLYLINE
  5
45C
100
AcDbEntity
  8
RACCORDO
100
AcDbPolyline
 62
253
  6
CONTINUOUS
 90
16
 70
0
 10
-113.0866158251
 20
-46.2889794759
 10
-113.0825792455
 20
-46.2832148521
 10
-113.0786584662
 20
-46.2670862227
 10
-113.0748539826
 20
-46.2405935876
 10
-113.0711245691
 20
-46.203218999
 10
-113.0675122928
 20
-46.1554804047
 10
-113.064143029
 20
-46.0989316481
 10
-113.0610285909
 20
-46.0332752654
 10
-113.0581588411
 20
-45.9588087203
 10
-113.0556273701
 20
-45.8779782475
 10
-113.053446813
 20
-45.7905581405
 10
-113.0516061979
 20
-45.6967741057
 10
-113.0501639065
 20
-45.5997494979
 10
-113.0491397791
 20
-45.5005254351
 10
-113.0485149956
 20
-45.3980607993
 10
-113.0482898103
 20
-45.2923555904
  0
LINE
  5
45D
100
AcDbEntity
  8
RACCORDO
100
AcDbLine
 62
253
  6
CONTINUOUS
 10
-113.7696492266
 20
24.3176710023
 11
-113.6749258772
 21
24.3176710023
  0
LINE
  5
45E
100
AcDbEntity
  8
RACCORDO
100
AcDbLine
 62
253
  6
CONTINUOUS
 10
-113.6527262295
 20
24.5715707119
 11
-113.65277014
 21
24.5715707119
  0
LINE
  5
45F
100
AcDbEntity
  8
ASSI
100
AcDbLine
 62
7
  6
CONTINUOUS
 10
-105.4712752351
 20
25.05
 11
-105.2712752351
 21
25.05
  0
LINE
  5
460
100
AcDbEntity
  8
ASSI
100
AcDbLine
 62
7
  6
CONTINUOUS
 10
-105.1212752351
 20
25.2
 11
-105.6212752351
 21
25.2
  0
LINE
  5
461
100
AcDbEntity
  8
DRAFT
100
AcDbLine
 62
7
  6
CONTINUOUS
 10
-114.3155326782
 20
27.0954853206
 11
-114.5265088059
 21
27.0844285303
  0
LINE
  5
462
100
AcDbEntity
  8
RACCORDO
100
AcDbLine
 62
253
  6
CONTINUOUS
 10
-113.6994939457
 20
25.3130842422
 11
-113.6604294049
 21
25.3150054311
  0
LINE
  5
463
100
AcDbEntity
  8
ASSI
100
AcDbLine
 62
7
  6
CONTINUOUS
 10
-105.1108080438
 20
25.7916264167
 11
-105.6212752351
 21
25.7690739122
  0
LINE
  5
464
100
AcDbEntity
  8
DRAFT
100
AcDbLine
 62
7
  6
CONTINUOUS
 10
-105.6212752351
 20
26.9301931678
 11
-104.9212752351
 21
26.9301931678
  0
LINE
  5
465
100
AcDbEntity
  8
DRAFT
100
AcDbLine
 62
253
  6
CONTINUOUS
 10
-104.9212752351
 20
26.9276457135
 11
-105.6212752351
 21
26.927961881
  0
LINE
  5
466
100
AcDbEntity
  8
DRAFT
100
AcDbLine
 62
253
  6
CONTINUOUS
 10
-105.6212752351
 20
26.9939451192
 11
-104.9212752351
 21
26.9935972909
  0
LINE
  5
467
100
AcDbEntity
  8
DRAFT
100
AcDbLine
 62
7
  6
CONTINUOUS
 10
-105.6212752351
 20
27.2027086909
 11
-104.9212752351
 21
27.2013647857
  0
LINE
  5
468
100
AcDbEntity
  8
ASSI
100
AcDbLine
 62
7
  6
CONTINUOUS
 10
-104.9212752351
 20
26.35
 11
-105.6212752351
 21
26.3540724809
  0
LINE
  5
469
100
AcDbEntity
  8
DRAFT
100
AcDbLine
 62
7
  6
CONTINUOUS
 10
-106.1212752351
 20
-46.5
 11
-105.6212752351
 21
-46.0
  0
LINE
  5
46A
100
AcDbEntity
  8
SMUSSO
100
AcDbLine
 62
7
  6
CONTINUOUS
 10
-105.6212752351
 20
-46.0
 11
-106.1212752351
 21
-46.5
  0
LINE
  5
46B
100
AcDbEntity
  8
SMUSSO
100
AcDbLine
 62
7
  6
CONTINUOUS
 10
-106.1212752351
 20
46.5
 11
-105.6212752351
 21
46.0
  0
LINE
  5
46C
100
AcDbEntity
  8
DRAFT
100
AcDbLine
 62
7
  6
CONTINUOUS
 10
-106.1212752351
 20
46.5
 11
-105.6212752351
 21
46.0
  0
LWPOLYLINE
  5
46D
100
AcDbEntity
  8
RACCORDO
100
AcDbPolyline
 62
7
  6
CONTINUOUS
 90
13
 70
0
 10
-108.1761573246
 20
47.399999976
 10
-108.1698330974
 20
47.3930884032
 10
-108.1635971548
 20
47.3720263975
 10
-108.1574501525
 20
47.3368139589
 10
-108.151325729
 20
47.2868031788
 10
-108.1452912517
 20
47.2226419658
 10
-108.1395491824
 20
47.146274046
 10
-108.1341394123
 20
47.0576694763
 10
-108.1290256328
 20
46.9568581998
 10
-108.1242975464
 20
46.8458737714
 10
-108.1199586886
 20
46.7246286732
 10
-108.1160091115
 20
46.5932104232
 10
-108.1125338363
 20
46.4539151305
  0
LINE
  5
46E
100
AcDbEntity
  8
DRAFT
100
AcDbLine
 62
7
  6
CONTINUOUS
 10
-108.1113568073
 20
46.3957042442
 11
-106.1212752351
 21
46.5
  0
LINE
  5
46F
100
AcDbEntity
  8
RACCORDO
100
AcDbLine
 62
253
  6
CONTINUOUS
 10
-112.1960623868
 20
45.2923555904
 11
-108.1025822067
 21
45.5064558035
  0
LINE
  5
470
100
AcDbEntity
  8
RACCORDO
100
AcDbLine
 62
253
  6
CONTINUOUS
 10
-113.0482898103
 20
45.2923555904
 11
-112.1960623882
 21
45.2923556221
  0
LINE
  5
471
100
AcDbEntity
  8
DRAFT
100
AcDbLine
 62
253
  6
CONTINUOUS
 10
-108.1025822067
 20
45.5
 11
-105.6212752351
 21
45.5
  0
LINE
  5
472
100
AcDbEntity
  8
RACCORDO
100
AcDbLine
 62
253
  6
CONTINUOUS
 10
-113.0866158251
 20
46.2889794759
 11
-114.5212752351
 21
46.2891245857
  0
LINE
  5
473
100
AcDbEntity
  8
0
100
AcDbLine
 62
7
  6
CONTINUOUS
 10
-109.6212752351
 20
47.3999897882
 11
-113.6683788949
 21
47.1878900729
  0
LINE
  5
474
100
AcDbEntity
  8
RACCORDO
100
AcDbLine
 62
253
  6
CONTINUOUS
 10
-112.2343708689
 20
47.1877442624
 11
-108.1761573246
 21
47.399999976
  0
LINE
  5
475
100
AcDbEntity
  8
RACCORDO
100
AcDbLine
 62
7
  6
CONTINUOUS
 10
-109.6212752351
 20
47.3999908153
 11
-108.1761573246
 21
47.399999976
  0
LINE
  5
476
100
AcDbEntity
  8
RACCORDO
100
AcDbLine
 62
7
  6
CONTINUOUS
 10
-112.2343708689
 20
47.1877442617
 11
-113.6683789025
 21
47.1878902576
  0
ARC
  5
477
100
AcDbEntity
  8
RACCORDO
100
AcDbCircle
 62
7
  6
CONTINUOUS
 10
-113.6212765439
 20
-46.2891236762
 40
0.9
100
AcDbArc
 50
179.9999999973
 51
267.0
  0
ARC
  5
478
100
AcDbEntity
  8
RACCORDO
100
AcDbCircle
 62
7
  6
CONTINUOUS
 10
-113.6212765439
 20
46.2891236762
 40
0.9
100
AcDbArc
 50
93.0
 51
180.0000000027
  0
ARC
  5
479
100
AcDbEntity
  8
RACCORDO
100
AcDbCircle
 62
7
  6
CONTINUOUS
 10
-114.4212752114
 20
-25.7569768585
 40
0.2
100
AcDbArc
 50
155.0
 51
179.9999999907
  0
ARC
  5
47A
100
AcDbEntity
  8
RACCORDO
100
AcDbCircle
 62
7
  6
CONTINUOUS
 10
-114.4212752114
 20
25.7569768585
 40
0.2
100
AcDbArc
 50
180.0000000093
 51
205.0
  0
ARC
  5
47B
100
AcDbEntity
  8
ASSI
100
AcDbCircle
 62
7
  6
CONTINUOUS
 10
-105.1212752351
 20
-25.4
 40
0.2
100
AcDbArc
 50
0.0
 51
90.0
  0
ARC
  5
47C
100
AcDbEntity
  8
ASSI
100
AcDbCircle
 62
7
  6
CONTINUOUS
 10
-105.1212752351
 20
25.4
 40
0.2
100
AcDbArc
 50
270.0
 51
360.0
  0
ARC
  5
47D
100
AcDbEntity
  8
RACCORDO
100
AcDbCircle
 62
7
  6
CONTINUOUS
 10
-114.5212752129
 20
26.9845656269
 40
0.1
100
AcDbArc
 50
92.999999999
 51
180.0
  0
ARC
  5
47E
100
AcDbEntity
  8
RACCORDO
100
AcDbCircle
 62
7
  6
CONTINUOUS
 10
-114.5212752129
 20
-26.9845656269
 40
0.1
100
AcDbArc
 50
180.0
 51
267.000000001
  0
ELLIPSE
  5
47F
100
AcDbEntity
  8
RACCORDO
100
AcDbEllipse
 62
7
  6
CONTINUOUS
 10
56.1235216412
 20
22.2735216412
 30
0.0
 11
-0.1418092487
 21
-0.1418092487
 31
0.0
 40
0.9972646886
 41
2.3575640181
 42
3.9256212891
  0
ELLIPSE
  5
480
100
AcDbEntity
  8
RACCORDO
100
AcDbEllipse
 62
7
  6
CONTINUOUS
 10
-56.1235216412
 20
22.2735216412
 30
0.0
 11
0.1418092487
 21
-0.1418092487
 31
0.0
 40
0.9972646886
 41
2.3575640181
 42
3.9256212891
  0
ELLIPSE
  5
481
100
AcDbEntity
  8
RACCORDO
100
AcDbEllipse
 62
7
  6
CONTINUOUS
 10
-56.1235216412
 20
-22.2735216412
 30
0.0
 11
0.1418092487
 21
0.1418092487
 31
0.0
 40
0.9972646886
 41
2.3575640181
 42
3.9256212891
  0
ELLIPSE
  5
482
100
AcDbEntity
  8
RACCORDO
100
AcDbEllipse
 62
7
  6
CONTINUOUS
 10
56.1235216412
 20
-22.2735216412
 30
0.0
 11
0.1418092487
 21
-0.1418092487
 31
0.0
 40
0.9972646886
 41
-0.7840286355
 42
0.7840286355
  0
ELLIPSE
  5
483
100
AcDbEntity
  8
ASSI
100
AcDbEllipse
 62
7
  6
CONTINUOUS
 10
-105.1212752351
 20
-25.9914384441
 30
0.0
 11
0.1417119467
 21
0.1422961243
 31
0.0
 40
0.9918061237
 41
-0.7833412616
 42
0.7350951877
  0
ELLIPSE
  5
484
100
AcDbEntity
  8
ASSI
100
AcDbEllipse
 62
7
  6
CONTINUOUS
 10
-105.1212752351
 20
25.9914384441
 30
0.0
 11
-0.1417119467
 21
0.1422961243
 31
0.0
 40
0.9918061237
 41
-3.8766878413
 42
-2.358251392
  0
ENDSEC
  0
SECTION
  2
OBJECTS
  0
DICTIONARY
  5
C
100
AcDbDictionary
280
0
281
1
  3
ACAD_GROUP
350
D
  3
ACAD_MLINESTYLE
350
17
  3
ACAD_LAYOUT
350
1A
  3
ACAD_PLOTSETTINGS
350
19
  3
ACAD_PLOTSTYLENAME
350
E
  0
DICTIONARY
  5
D
102
{ACAD_REACTORS
330
C
102
}
100
AcDbDictionary
280
0
281
1
  0
ACDBDICTIONARYWDFLT
  5
E
102
{ACAD_REACTORS
330
C
102
}
100
AcDbDictionary
281
1
  3
Normal
350
F
100
AcDbDictionaryWithDefault
340
F
  0
DICTIONARY
  5
17
102
{ACAD_REACTORS
330
C
102
}
100
AcDbDictionary
280
0
281
1
  3
Standard
350
18
  0
DICTIONARY
  5
19
102
{ACAD_REACTORS
330
C
102
}
100
AcDbDictionary
281
1
  0
DICTIONARY
  5
1A
102
{ACAD_REACTORS
330
C
102
}
100
AcDbDictionary
281
1
  3
Model
350
485
  3
Layout1
350
486
  0
ACDBPLACEHOLDER
  5
F
102
{ACAD_REACTORS
330
E
102
}
  0
MLINESTYLE
  5
18
102
{ACAD_REACTORS
330
17
102
}
100
AcDbMlineStyle
  2
STANDARD
 70
0
  3

 62
256
 51
90.0
 52
90.0
 71
2
 49
0.5
 62
256
  6
BYLAYER
 49
-0.5
 62
256
  6
BYLAYER
  0
LAYOUT
  5
485
102
{ACAD_REACTORS
330
1A
102
}
100
AcDbPlotSettings
  1

  2
none_device
  4
ISO_A4_(297.00_x_210.00_MM)
  6

 40
0.0
 41
0.0
 42
0.0
 43
0.0
 44
297.0
 45
210.0
 46
0.0
 47
0.0
 48
0.0
 49
0.0
140
0.0
141
0.0
142
1.0
143
1.0
 70
1024
 72
1
 73
0
 74
0
  7

 75
0
147
1.0
148
0.0
149
0.0
100
AcDbLayout
  1
Model
 70
0
 71
0
 10
0.0
 20
0.0
 11
297.0
 21
210.0
 12
0.0
 22
0.0
 32
0.0
 14
0.0
 24
0.0
 34
0.0
 15
0.0
 25
0.0
 35
0.0
146
0.0
 13
0.0
 23
0.0
 33
0.0
 16
1.0
 26
0.0
 36
0.0
 17
0.0
 27
1.0
 37
0.0
 76
0
330
215
345
0
346
0
  0
LAYOUT
  5
486
102
{ACAD_REACTORS
330
1A
102
}
100
AcDbPlotSettings
  1

  2
none_device
  4
ISO_A4_(297.00_x_210.00_MM)
  6

 40
0.0
 41
0.0
 42
0.0
 43
0.0
 44
297.0
 45
210.0
 46
0.0
 47
0.0
 48
0.0
 49
0.0
140
0.0
141
0.0
142
1.0
143
1.0
 70
0
 72
1
 73
0
 74
0
  7

 75
0
147
1.0
148
0.0
149
0.0
100
AcDbLayout
  1
Layout1
 70
0
 71
1
 10
0.0
 20
0.0
 11
297.0
 21
210.0
 12
0.0
 22
0.0
 32
0.0
 14
0.0
 24
0.0
 34
0.0
 15
0.0
 25
0.0
 35
0.0
146
0.0
 13
0.0
 23
0.0
 33
0.0
 16
1.0
 26
0.0
 36
0.0
 17
0.0
 27
1.0
 37
0.0
 76
0
330
216
345
0
346
0
  0
ENDSEC
  0
EOF
