0
SECTION
2
HEADER
9
$ACADVER
1
AC1015
9
$DWGCODEPAGE
3
ANSI_1252
9
$EXTMAX
10
431.8000000000
20
558.8000000000
30
0.0000000000
9
$EXTMIN
10
0.0000000000
20
0.0000000000
30
0.0000000000
9
$LIMMIN
10
0.0000000000
20
0.0000000000
9
$LIMMAX
10
431.8000000000
20
558.8000000000
9
$VIEWCTR
10
215.9000000000
20
279.4000000000
9
$VIEWSIZE
40
558.8000000000
9
$CLAYER
8
0
9
$LTSCALE
40
36.4254814815
9
$CELTYPE
6
BYLAYER
9
$DIMSCALE
40
1
9
$DIMASZ
40
3.0000000000
9
$DIMEXO
40
4.1392592593
9
$DIMDLI
40
25.1666962963
9
$DIMEXE
40
11.9210666667
9
$DIMCEN
40
5.9605333333
9
$DIMLFAC
40
1.0000000000
9
$DIMBLK
1
_FILLED
9
$DIMTXT
40
3.0000000000
9
$DIMTOL
70
1
9
$DIMLIM
70
0
9
$DIMTFAC
40
1.0000000000
9
$DIMTP
40
0.0100000000
9
$DIMTM
40
0.0100000000
9
$PDMODE
70
3
9
$PDSIZE
40
3.0000000000
9
$HANDSEED
5
3DB
9
$MEASUREMENT
70
1
9
$INSUNITS
70
4
0
ENDSEC
0
SECTION
2
CLASSES
0
CLASS
1
ACDBDICTIONARYWDFLT
2
AcDbDictionaryWithDefault
3
AutoCAD 2000
90
0
280
0
281
0
0
CLASS
1
ACDBPLACEHOLDER
2
AcDbPlaceHolder
3
AutoCAD 2000
90
0
280
0
281
0
0
CLASS
1
LAYOUT
2
AcDbLayout
3
AutoCAD 2000
90
0
280
0
281
0
0
ENDSEC
0
SECTION
2
TABLES
0
TABLE
2
VPORT
5
8
100
AcDbSymbolTable
70
2
0
VPORT
5
1F4
100
AcDbSymbolTableRecord
100
AcDbViewportTableRecord
2
*ACTIVE
70
0
10
0.0
20
0.0
11
1.0
21
1.0
12
215.9000000000
22
279.4000000000
13
0.0
23
0.0
14
1.0
24
1.0
15
0.0
25
0.0
16
0.0
26
0.0
36
1.0
17
0.0
27
0.0
37
0.0
40
558.8000000000
41
0.7727272727
42
50.0
43
0.0
44
0.0
50
0.0
51
0.0
71
0
72
100
73
1
74
1
75
0
76
0
77
0
78
0
0
ENDTAB
0
TABLE
2
LTYPE
5
5
100
AcDbSymbolTable
70
6
0
LTYPE
5
14
100
AcDbSymbolTableRecord
100
AcDbLinetypeTableRecord
2
BYBLOCK
70
0
3

72
65
73
0
40
0.0
0
LTYPE
5
15
100
AcDbSymbolTableRecord
100
AcDbLinetypeTableRecord
2
BYLAYER
70
0
3

72
65
73
0
40
0.0
0
LTYPE
5
16
100
AcDbSymbolTableRecord
100
AcDbLinetypeTableRecord
2
CONTINUOUS
70
64
3
Solid line
72
65
73
0
40
0
0
LTYPE
5
1F5
100
AcDbSymbolTableRecord
100
AcDbLinetypeTableRecord
2
CENTER
70
64
3
____ _ ____ _ ____ _ ____ _ ____ _ ____ _ ____
72
65
73
4
40
0.6
49
0.375
74
0
49
-0.075
74
0
49
0.075
74
0
49
-0.075
74
0
0
LTYPE
5
1F6
100
AcDbSymbolTableRecord
100
AcDbLinetypeTableRecord
2
HIDDEN
70
64
3
- - - - - - - - - - - - - - - - - - - -
72
65
73
2
40
0.2
49
0.1
74
0
49
-0.1
74
0
0
LTYPE
5
1F7
100
AcDbSymbolTableRecord
100
AcDbLinetypeTableRecord
2
PHANTOM
70
64
3
_____ _ _ _____ _ _ _____ _ _ _____
72
65
73
6
40
0.8
49
0.45
74
0
49
-0.05
74
0
49
0.1
74
0
49
-0.05
74
0
49
0.1
74
0
49
-0.05
74
0
0
LTYPE
5
1F8
100
AcDbSymbolTableRecord
100
AcDbLinetypeTableRecord
2
DOT
70
64
3
. . . . . . . . . . . . . . . . . . . .
72
65
73
2
40
0.2
49
0.1
74
0
49
-0.1
74
0
0
LTYPE
5
1F9
100
AcDbSymbolTableRecord
100
AcDbLinetypeTableRecord
2
DASHED
70
64
3
- - - - - - - - - - - - - - - - - - - -
72
65
73
2
40
0.2
49
0.1
74
0
49
-0.1
74
0
0
ENDTAB
0
TABLE
2
LAYER
5
2
100
AcDbSymbolTable
70
36
0
LAYER
5
10
100
AcDbSymbolTableRecord
100
AcDbLayerTableRecord
2
0
70
0
62
7
6
CONTINUOUS
370
-3
390
F
0
LAYER
5
1FA
100
AcDbSymbolTableRecord
100
AcDbLayerTableRecord
2
DEFAULT_1
70
0
62
7
6
CENTER
370
-3
390
F
0
LAYER
5
1FB
100
AcDbSymbolTableRecord
100
AcDbLayerTableRecord
2
DEFAULT_2
70
0
62
9
6
HIDDEN
370
-3
390
F
0
LAYER
5
1FC
100
AcDbSymbolTableRecord
100
AcDbLayerTableRecord
2
DEFAULT_3
70
0
62
7
6
PHANTOM
370
-3
390
F
0
LAYER
5
1FD
100
AcDbSymbolTableRecord
100
AcDbLayerTableRecord
2
_BLACK_HOLE
70
0
62
7
6
CONTINUOUS
370
-3
390
F
0
LAYER
5
1FE
100
AcDbSymbolTableRecord
100
AcDbLayerTableRecord
2
ASSI
70
0
62
7
6
CONTINUOUS
370
-3
390
F
0
LAYER
5
1FF
100
AcDbSymbolTableRecord
100
AcDbLayerTableRecord
2
COORDINATE
70
0
62
7
6
CONTINUOUS
370
-3
390
F
0
LAYER
5
200
100
AcDbSymbolTableRecord
100
AcDbLayerTableRecord
2
COORD_ORIGINE
70
0
62
7
6
CONTINUOUS
370
-3
390
F
0
LAYER
5
201
100
AcDbSymbolTableRecord
100
AcDbLayerTableRecord
2
COPY_PLACCA
70
0
62
7
6
CONTINUOUS
370
-3
390
F
0
LAYER
5
202
100
AcDbSymbolTableRecord
100
AcDbLayerTableRecord
2
CURVE
70
0
62
7
6
CONTINUOUS
370
-3
390
F
0
LAYER
5
203
100
AcDbSymbolTableRecord
100
AcDbLayerTableRecord
2
DRAFT
70
0
62
7
6
CONTINUOUS
370
-3
390
F
0
LAYER
5
204
100
AcDbSymbolTableRecord
100
AcDbLayerTableRecord
2
IMPORT_SCRITTE
70
0
62
7
6
CONTINUOUS
370
-3
390
F
0
LAYER
5
205
100
AcDbSymbolTableRecord
100
AcDbLayerTableRecord
2
NOTE
70
0
62
7
6
CONTINUOUS
370
-3
390
F
0
LAYER
5
206
100
AcDbSymbolTableRecord
100
AcDbLayerTableRecord
2
PIANI
70
0
62
7
6
CONTINUOUS
370
-3
390
F
0
LAYER
5
207
100
AcDbSymbolTableRecord
100
AcDbLayerTableRecord
2
PIANI_ORIGINE
70
0
62
7
6
CONTINUOUS
370
-3
390
F
0
LAYER
5
208
100
AcDbSymbolTableRecord
100
AcDbLayerTableRecord
2
PUNTI
70
0
62
7
6
CONTINUOUS
370
-3
390
F
0
LAYER
5
209
100
AcDbSymbolTableRecord
100
AcDbLayerTableRecord
2
RACCORDO
70
0
62
7
6
CONTINUOUS
370
-3
390
F
0
LAYER
5
20A
100
AcDbSymbolTableRecord
100
AcDbLayerTableRecord
2
SMUSSO
70
0
62
7
6
CONTINUOUS
370
-3
390
F
0
LAYER
5
20B
100
AcDbSymbolTableRecord
100
AcDbLayerTableRecord
2
SUPERFICI
70
0
62
7
6
CONTINUOUS
370
-3
390
F
0
LAYER
5
20C
100
AcDbSymbolTableRecord
100
AcDbLayerTableRecord
2
SUPP
70
0
62
7
6
CONTINUOUS
370
-3
390
F
0
LAYER
5
20D
100
AcDbSymbolTableRecord
100
AcDbLayerTableRecord
2
TRASH
70
0
62
7
6
CONTINUOUS
370
-3
390
F
0
LAYER
5
20E
100
AcDbSymbolTableRecord
100
AcDbLayerTableRecord
2
XSEC_DATUMS
70
0
62
7
6
CONTINUOUS
370
-3
390
F
0
ENDTAB
0
TABLE
2
STYLE
5
3
100
AcDbSymbolTable
70
1
0
STYLE
5
11
100
AcDbSymbolTableRecord
100
AcDbTextStyleTableRecord
2
STANDARD
70
0
40
0.0
41
0.8000000000
50
0.0
71
0
42
0.2
3
txt
4

0
ENDTAB
0
TABLE
2
VIEW
5
6
100
AcDbSymbolTable
70
0
0
ENDTAB
0
TABLE
2
UCS
5
7
100
AcDbSymbolTable
70
0
0
ENDTAB
0
TABLE
2
APPID
5
9
100
AcDbSymbolTable
70
1
0
APPID
5
20F
100
AcDbSymbolTableRecord
100
AcDbRegAppTableRecord
2
ACAD
70
0
0
ENDTAB
0
TABLE
2
BLOCK_RECORD
5
1
100
AcDbSymbolTable
70
0
0
BLOCK_RECORD
5
1F
100
AcDbSymbolTableRecord
100
AcDbBlockTableRecord
2
*MODEL_SPACE
0
BLOCK_RECORD
5
1B
100
AcDbSymbolTableRecord
100
AcDbBlockTableRecord
2
*PAPER_SPACE
0
BLOCK_RECORD
5
210
100
AcDbSymbolTableRecord
100
AcDbBlockTableRecord
2
_FILLED
0
BLOCK_RECORD
5
211
100
AcDbSymbolTableRecord
100
AcDbBlockTableRecord
2
*D0
0
BLOCK_RECORD
5
212
100
AcDbSymbolTableRecord
100
AcDbBlockTableRecord
2
*D1
0
BLOCK_RECORD
5
213
100
AcDbSymbolTableRecord
100
AcDbBlockTableRecord
2
*D2
0
ENDTAB
0
TABLE
2
DIMSTYLE
5
A
100
AcDbSymbolTable
70
1
100
AcDbDimStyleTable
71
0
0
DIMSTYLE
105
214
100
AcDbSymbolTableRecord
100
AcDbDimStyleTableRecord
2
STANDARD
70
0
3

4

40
1.0
41
3.0000000000
42
0.0625
43
0.38
44
0.18
45
0.0
46
0.0
47
0.0100000000
48
0.0100000000
140
3.0000000000
141
0.09
142
0.0
143
25.4
144
1.0000000000
145
0.0
146
1.0000000000
147
0.09
71
1
72
0
73
0
74
0
75
0
76
0
77
1
78
8
170
0
171
2
172
0
173
0
174
0
175
0
176
0
177
0
178
0
270
2
271
2
272
2
273
2
274
2
275
0
280
0
281
0
282
0
283
1
284
8
285
0
286
0
287
3
288
0
340
11
341
210
342
210
343
210
344
210
0
DIMSTYLE
105
215
100
AcDbSymbolTableRecord
100
AcDbDimStyleTableRecord
2
DIMSTYLE_1
70
0
3

4

40
1.0
41
3.0000000000
42
0.0625
43
0.38
44
0.18
45
0.0
46
0.0
47
0.0000000000
48
0.0000000000
140
3.0000000000
141
0.09
142
0.0
143
25.4
144
1.0000000000
145
0.0
146
1.0000000000
147
0.09
71
0
72
0
73
0
74
0
75
0
76
0
77
1
78
8
170
0
171
2
172
0
173
0
174
0
175
0
176
0
177
0
178
0
270
2
271
2
272
2
273
2
274
2
275
0
280
0
281
0
282
0
283
1
284
8
285
0
286
0
287
3
288
0
340
11
341
210
342
210
343
210
344
210
0
ENDTAB
0
ENDSEC
0
SECTION
2
BLOCKS
0
BLOCK
5
20
100
AcDbEntity
8
0
100
AcDbBlockBegin
2
*MODEL_SPACE
70
0
10
0.0
20
0.0
30
0.0
3
*MODEL_SPACE
1

0
ENDBLK
5
21
100
AcDbEntity
8
0
100
AcDbBlockEnd
0
BLOCK
5
1C
100
AcDbEntity
8
0
100
AcDbBlockBegin
2
*PAPER_SPACE
70
0
10
0.0
20
0.0
30
0.0
3
*PAPER_SPACE
1

0
ENDBLK
5
1D
100
AcDbEntity
8
0
100
AcDbBlockEnd
0
BLOCK
5
216
100
AcDbEntity
8
0
100
AcDbBlockBegin
62
0
6
CONTINUOUS
2
*D0
70
65
10
0.0000000000
20
0.0000000000
3
*D0
1

0
TEXT
5
217
100
AcDbEntity
8
0
100
AcDbText
62
0
6
CONTINUOUS
10
75.4891726299
20
53.9676819717
7
STANDARD
40
3.0000000000
1
119,8
41
0.6571428571
72
0
100
AcDbText
0
LINE
5
218
100
AcDbEntity
8
0
100
AcDbLine
62
0
6
CONTINUOUS
10
19.0789158282
20
41.2773586692
11
19.0789158282
21
54.7176819717
0
LINE
5
219
100
AcDbEntity
8
0
100
AcDbLine
62
0
6
CONTINUOUS
10
138.8789158282
20
41.6107731803
11
138.8789158282
21
54.7176819717
0
LINE
5
21A
100
AcDbEntity
8
0
100
AcDbLine
62
0
6
CONTINUOUS
10
19.0789158282
20
53.2176819717
11
78.9789158282
21
53.2176819717
0
LINE
5
21B
100
AcDbEntity
8
0
100
AcDbLine
62
0
6
CONTINUOUS
10
138.8789158282
20
53.2176819717
11
78.9789158282
21
53.2176819717
0
INSERT
5
21C
100
AcDbEntity
8
0
100
AcDbBlockReference
62
0
6
CONTINUOUS
2
_FILLED
10
19.0789158282
20
53.2176819717
41
  3.000000
42
  3.000000
43
  3.000000
50
180.000000
0
INSERT
5
21D
100
AcDbEntity
8
0
100
AcDbBlockReference
62
0
6
CONTINUOUS
2
_FILLED
10
138.8789158282
20
53.2176819717
41
  3.000000
42
  3.000000
43
  3.000000
0
ENDBLK
5
21E
100
AcDbEntity
8
0
6
BYBLOCK
62
0
100
AcDbBlockEnd
0
BLOCK
5
21F
100
AcDbEntity
8
0
100
AcDbBlockBegin
62
0
6
CONTINUOUS
2
*D1
70
65
10
0.0000000000
20
0.0000000000
3
*D1
1

0
TEXT
5
220
100
AcDbEntity
8
0
100
AcDbText
62
0
6
CONTINUOUS
10
150.4223878026
20
-5.2927497930
7
STANDARD
40
3.0000000000
1
84,8
50
90.0000000000
41
0.7321428571
72
0
100
AcDbText
0
LINE
5
221
100
AcDbEntity
8
0
100
AcDbLine
62
0
6
CONTINUOUS
10
137.9750832388
20
42.3322856102
11
152.6723878026
21
42.3322856102
0
LINE
5
222
100
AcDbEntity
8
0
100
AcDbLine
62
0
6
CONTINUOUS
10
138.1891531964
20
-42.4676660520
11
152.6723878026
21
-42.4676660520
0
LINE
5
223
100
AcDbEntity
8
0
100
AcDbLine
62
0
6
CONTINUOUS
10
151.1723878026
20
42.3322856102
11
151.1723878026
21
-0.0676902209
0
LINE
5
224
100
AcDbEntity
8
0
100
AcDbLine
62
0
6
CONTINUOUS
10
151.1723878026
20
-42.4676660520
11
151.1723878026
21
-0.0676902209
0
INSERT
5
225
100
AcDbEntity
8
0
100
AcDbBlockReference
62
0
6
CONTINUOUS
2
_FILLED
10
151.1723878026
20
42.3322856102
41
  3.000000
42
  3.000000
43
  3.000000
50
 90.000000
0
INSERT
5
226
100
AcDbEntity
8
0
100
AcDbBlockReference
62
0
6
CONTINUOUS
2
_FILLED
10
151.1723878026
20
-42.4676660520
41
  3.000000
42
  3.000000
43
  3.000000
50
270.000000
0
ENDBLK
5
227
100
AcDbEntity
8
0
6
BYBLOCK
62
0
100
AcDbBlockEnd
0
BLOCK
5
228
100
AcDbEntity
8
0
100
AcDbBlockBegin
62
0
6
CONTINUOUS
2
*D2
70
65
10
0.0000000000
20
0.0000000000
3
*D2
1

0
TEXT
5
229
100
AcDbEntity
8
0
100
AcDbText
62
0
6
CONTINUOUS
10
-19.9386443472
20
53.8585175670
7
STANDARD
40
3.0000000000
1
9
41
0.7857142857
72
0
100
AcDbText
0
LINE
5
22A
100
AcDbEntity
8
0
100
AcDbLine
62
0
6
CONTINUOUS
10
-23.8350649126
20
42.0709811279
11
-23.8350649126
21
54.6085175670
0
LINE
5
22B
100
AcDbEntity
8
0
100
AcDbLine
62
0
6
CONTINUOUS
10
-14.8350649126
20
41.7258851168
11
-14.8350649126
21
54.6085175670
0
LINE
5
22C
100
AcDbEntity
8
0
100
AcDbLine
62
0
6
CONTINUOUS
10
-23.8350649126
20
53.1085175670
11
-19.3350649126
21
53.1085175670
0
LINE
5
22D
100
AcDbEntity
8
0
100
AcDbLine
62
0
6
CONTINUOUS
10
-14.8350649126
20
53.1085175670
11
-19.3350649126
21
53.1085175670
0
INSERT
5
22E
100
AcDbEntity
8
0
100
AcDbBlockReference
62
0
6
CONTINUOUS
2
_FILLED
10
-23.8350649126
20
53.1085175670
41
  3.000000
42
  3.000000
43
  3.000000
50
180.000000
0
INSERT
5
22F
100
AcDbEntity
8
0
100
AcDbBlockReference
62
0
6
CONTINUOUS
2
_FILLED
10
-14.8350649126
20
53.1085175670
41
  3.000000
42
  3.000000
43
  3.000000
0
ENDBLK
5
230
100
AcDbEntity
8
0
6
BYBLOCK
62
0
100
AcDbBlockEnd
0
BLOCK
5
231
100
AcDbEntity
8
0
100
AcDbBlockBegin
2
_FILLED
70
64
10
0.0000000000
20
0.0000000000
3
_FILLED
1

0
SOLID
5
232
100
AcDbEntity
8
0
6
BYBLOCK
62
0
100
AcDbTrace
10
0.0000000000
20
0.0000000000
11
-1.0000000000
21
0.3166666667
12
-1.0000000000
22
-0.3166666667
13
-1.0000000000
23
-0.3166666667
0
ENDBLK
5
233
100
AcDbEntity
8
0
6
BYBLOCK
62
0
100
AcDbBlockEnd
0
ENDSEC
0
SECTION
2
ENTITIES
0
DIMENSION
5
234
100
AcDbEntity
8
0
100
AcDbDimension
62
0
6
CONTINUOUS
2
*D0
10
138.8789158282
20
53.2176819717
11
80.4177440584
21
55.4676819717
70
160
42
119.800000
3
DIMSTYLE_1
100
AcDbAlignedDimension
13
19.0789158282
23
41.2773586692
14
138.8789158282
24
41.6107731803
100
AcDbRotatedDimension
0
DIMENSION
5
235
100
AcDbEntity
8
0
100
AcDbDimension
62
0
6
CONTINUOUS
2
*D1
10
151.1723878026
20
-42.4676660520
11
148.9223878026
21
-0.8998926502
70
160
42
84.799952
3
DIMSTYLE_1
100
AcDbAlignedDimension
13
137.9750832388
23
42.3322856102
14
138.1891531964
24
-42.4676660520
50
270.000000
100
AcDbRotatedDimension
0
DIMENSION
5
236
100
AcDbEntity
8
0
100
AcDbDimension
62
0
6
CONTINUOUS
2
*D2
10
-14.8350649126
20
53.1085175670
11
-18.7600729186
21
55.3585175670
70
160
42
9.000000
3
DIMSTYLE_1
100
AcDbAlignedDimension
13
-23.8350649126
23
42.0709811279
14
-14.8350649126
24
41.7258851168
100
AcDbRotatedDimension
0
LINE
5
237
100
AcDbEntity
8
0
100
AcDbLine
62
0
6
CONTINUOUS
10
19.0789158282
20
40.4411178179
11
19.0789158282
21
-40.5764982596
0
LINE
5
238
100
AcDbEntity
8
0
100
AcDbLine
62
9
6
CONTINUOUS
10
19.2950899357
20
40.2256391020
11
19.2950899357
21
-40.3610195438
0
LINE
5
239
100
AcDbEntity
8
0
100
AcDbLine
62
9
6
CONTINUOUS
10
20.1381125981
20
40.2256391020
11
20.1381125981
21
-40.3610195438
0
LINE
5
23A
100
AcDbEntity
8
0
100
AcDbLine
62
9
6
CONTINUOUS
10
21.1377035218
20
-41.3564341117
11
136.8201281347
21
-41.3564341117
0
LINE
5
23B
100
AcDbEntity
8
0
100
AcDbLine
62
9
6
CONTINUOUS
10
20.1381125981
20
-40.3610195438
11
19.2950899358
21
-40.3610195502
0
LINE
5
23C
100
AcDbEntity
8
0
100
AcDbLine
62
9
6
CONTINUOUS
10
137.8197190583
20
-40.3610195438
11
138.6627417208
21
-40.3610195438
0
LINE
5
23D
100
AcDbEntity
8
0
100
AcDbLine
62
9
6
CONTINUOUS
10
56.3831638199
20
22.7002154346
11
56.3460180008
21
24.2202085962
0
LINE
5
23E
100
AcDbEntity
8
0
100
AcDbLine
62
9
6
CONTINUOUS
10
56.5828897268
20
22.7847390870
11
56.5273655249
21
25.0567688681
0
LINE
5
23F
100
AcDbEntity
8
0
100
AcDbLine
62
9
6
CONTINUOUS
10
54.2684785361
20
-25.6518935043
11
54.2684785361
21
25.5165130626
0
LINE
5
240
100
AcDbEntity
8
0
100
AcDbLine
62
0
6
CONTINUOUS
10
54.3710758271
20
-25.6518935043
11
54.3710758271
21
25.5165130626
0
LINE
5
241
100
AcDbEntity
8
0
100
AcDbLine
62
9
6
CONTINUOUS
10
54.4885938877
20
25.5025183753
11
54.4885938877
21
-25.6378988171
0
LINE
5
242
100
AcDbEntity
8
0
100
AcDbLine
62
9
6
CONTINUOUS
10
54.5843066650
20
-25.5472385515
11
54.5843066650
21
25.4118581097
0
LINE
5
243
100
AcDbEntity
8
0
100
AcDbLine
62
9
6
CONTINUOUS
10
54.6816106606
20
-25.5472385515
11
54.6816106606
21
25.4118581097
0
LINE
5
244
100
AcDbEntity
8
0
100
AcDbLine
62
9
6
CONTINUOUS
10
56.1414816811
20
-24.3555890380
11
56.1414816811
21
24.2202085962
0
LINE
5
245
100
AcDbEntity
8
0
100
AcDbLine
62
9
6
CONTINUOUS
10
56.3460180008
20
-24.3555890380
11
56.3460180008
21
24.2202085962
0
LINE
5
246
100
AcDbEntity
8
0
100
AcDbLine
62
0
6
CONTINUOUS
10
56.4789158282
20
-22.3679643139
11
56.4789158282
21
22.2325838722
0
LINE
5
247
100
AcDbEntity
8
0
100
AcDbLine
62
9
6
CONTINUOUS
10
56.3831638199
20
-22.8355958763
11
56.3460180008
21
-24.3555890380
0
LINE
5
248
100
AcDbEntity
8
0
100
AcDbLine
62
9
6
CONTINUOUS
10
56.5828897268
20
-22.9201195287
11
56.5273655249
21
-25.1921493099
0
LINE
5
249
100
AcDbEntity
8
0
100
AcDbLine
62
9
6
CONTINUOUS
10
103.6893531203
20
-25.6518935043
11
103.5867558294
21
-25.6518935058
0
LINE
5
24A
100
AcDbEntity
8
0
100
AcDbLine
62
9
6
CONTINUOUS
10
54.2684785361
20
-25.6518935043
11
54.3710758271
21
-25.6518935043
0
LINE
5
24B
100
AcDbEntity
8
0
100
AcDbLine
62
9
6
CONTINUOUS
10
103.5789158282
20
-25.6378988171
11
103.4692377687
21
-25.6378988171
0
LINE
5
24C
100
AcDbEntity
8
0
100
AcDbLine
62
9
6
CONTINUOUS
10
54.3789158282
20
-25.6378988171
11
54.4885938877
21
-25.6378988171
0
LINE
5
24D
100
AcDbEntity
8
0
100
AcDbLine
62
9
6
CONTINUOUS
10
103.3735249915
20
-25.5472385515
11
103.2762209959
21
-25.5472385515
0
LINE
5
24E
100
AcDbEntity
8
0
100
AcDbLine
62
9
6
CONTINUOUS
10
54.5843066650
20
-25.5472385515
11
54.6816106606
21
-25.5472385515
0
LINE
5
24F
100
AcDbEntity
8
0
100
AcDbLine
62
0
6
CONTINUOUS
10
75.2799228282
20
-25.1691172209
11
75.6658288282
21
-25.1691172209
0
LINE
5
250
100
AcDbEntity
8
0
100
AcDbLine
62
0
6
CONTINUOUS
10
76.6222048282
20
-25.1691172209
11
77.0248898282
21
-25.1691172209
0
LINE
5
251
100
AcDbEntity
8
0
100
AcDbLine
62
0
6
CONTINUOUS
10
77.3772388282
20
-25.1691172209
11
77.7799228282
21
-25.1691172209
0
LINE
5
252
100
AcDbEntity
8
0
100
AcDbLine
62
0
6
CONTINUOUS
10
78.1658288282
20
-25.1691172209
11
78.5685138282
21
-25.1691172209
0
LINE
5
253
100
AcDbEntity
8
0
100
AcDbLine
62
0
6
CONTINUOUS
10
78.9544198282
20
-25.1691172209
11
79.3571038282
21
-25.1691172209
0
LINE
5
254
100
AcDbEntity
8
0
100
AcDbLine
62
0
6
CONTINUOUS
10
79.6758958282
20
-25.1691172209
11
80.0785808282
21
-25.1691172209
0
LINE
5
255
100
AcDbEntity
8
0
100
AcDbLine
62
0
6
CONTINUOUS
10
80.9678428282
20
-25.1691172209
11
81.3705268282
21
-25.1691172209
0
LINE
5
256
100
AcDbEntity
8
0
100
AcDbLine
62
0
6
CONTINUOUS
10
81.6893188282
20
-25.1691172209
11
82.0920038282
21
-25.1691172209
0
LINE
5
257
100
AcDbEntity
8
0
100
AcDbLine
62
0
6
CONTINUOUS
10
82.8470368282
20
-25.1691172209
11
83.3000568282
21
-25.1691172209
0
LINE
5
258
100
AcDbEntity
8
0
100
AcDbLine
62
0
6
CONTINUOUS
10
80.1960308282
20
-24.8193672209
11
80.8336138282
21
-24.8193672209
0
LINE
5
259
100
AcDbEntity
8
0
100
AcDbLine
62
0
6
CONTINUOUS
10
80.7161648282
20
-24.4848242209
11
80.3302588282
21
-24.4848242209
0
LINE
5
25A
100
AcDbEntity
8
0
100
AcDbLine
62
0
6
CONTINUOUS
10
82.0920038282
20
-24.4848242209
11
82.4443528282
21
-24.4848242209
0
LINE
5
25B
100
AcDbEntity
8
0
100
AcDbLine
62
9
6
CONTINUOUS
10
101.8163499753
20
-24.3555890380
11
101.6118136557
21
-24.3555890380
0
LINE
5
25C
100
AcDbEntity
8
0
100
AcDbLine
62
9
6
CONTINUOUS
10
56.1414816811
20
-24.3555890380
11
56.3460180008
21
-24.3555890380
0
LINE
5
25D
100
AcDbEntity
8
0
100
AcDbLine
62
0
6
CONTINUOUS
10
82.5785820496
20
-24.1502812540
11
82.0752248282
21
-24.1502812209
0
LINE
5
25E
100
AcDbEntity
8
0
100
AcDbLine
62
0
6
CONTINUOUS
10
82.0752248282
20
-23.6940862209
11
82.5785804570
21
-23.6940862240
0
LINE
5
25F
100
AcDbEntity
8
0
100
AcDbLine
62
0
6
CONTINUOUS
10
82.6289171847
20
-23.3595432020
11
81.6893188282
21
-23.3595432209
0
LINE
5
260
100
AcDbEntity
8
0
100
AcDbLine
62
0
6
CONTINUOUS
10
80.7161648282
20
-23.3595432209
11
80.3134798282
21
-23.3595432209
0
LINE
5
261
100
AcDbEntity
8
0
100
AcDbLine
62
0
6
CONTINUOUS
10
79.3571038282
20
-23.3595432209
11
78.7530778282
21
-23.3595432209
0
LINE
5
262
100
AcDbEntity
8
0
100
AcDbLine
62
0
6
CONTINUOUS
10
77.9980438282
20
-23.3595432209
11
77.3772388282
21
-23.3595432209
0
LINE
5
263
100
AcDbEntity
8
0
100
AcDbLine
62
0
6
CONTINUOUS
10
77.0248898282
20
-23.3595432209
11
76.6222048282
21
-23.3595432209
0
LINE
5
264
100
AcDbEntity
8
0
100
AcDbLine
62
0
6
CONTINUOUS
10
76.3201918282
20
-23.3595432209
11
75.9175068282
21
-23.3595432209
0
LINE
5
265
100
AcDbEntity
8
0
100
AcDbLine
62
0
6
CONTINUOUS
10
75.0282458282
20
-23.3595432209
11
74.6255608282
21
-23.3595432209
0
LINE
5
266
100
AcDbEntity
8
0
100
AcDbLine
62
9
6
CONTINUOUS
10
56.5828897268
20
-22.9201195287
11
101.3749419296
21
-22.9201195287
0
LINE
5
267
100
AcDbEntity
8
0
100
AcDbLine
62
9
6
CONTINUOUS
10
56.6142180639
20
-22.6321138922
11
101.3436135926
21
-22.6321138922
0
LINE
5
268
100
AcDbEntity
8
0
100
AcDbLine
62
0
6
CONTINUOUS
10
101.2791899213
20
-22.5676902209
11
56.6786417352
21
-22.5676902209
0
LINE
5
269
100
AcDbEntity
8
0
100
AcDbLine
62
9
6
CONTINUOUS
10
19.2950899357
20
-40.3610195438
11
19.0789158282
21
-40.5764982596
0
LINE
5
26A
100
AcDbEntity
8
0
100
AcDbLine
62
9
6
CONTINUOUS
10
21.1896152712
20
-42.2551960747
11
20.9764129844
21
-42.4676900907
0
LINE
5
26B
100
AcDbEntity
8
0
100
AcDbLine
62
9
6
CONTINUOUS
10
19.0789158282
20
40.4411178179
11
19.2950899357
21
40.2256391020
0
LINE
5
26C
100
AcDbEntity
8
0
100
AcDbLine
62
9
6
CONTINUOUS
10
20.9764129844
20
42.3323096490
11
21.1896152712
21
42.1198156330
0
LINE
5
26D
100
AcDbEntity
8
0
100
AcDbLine
62
0
6
CONTINUOUS
10
74.6255608282
20
-23.3595432209
11
75.2799228282
21
-25.1691172209
0
LINE
5
26E
100
AcDbEntity
8
0
100
AcDbLine
62
0
6
CONTINUOUS
10
75.4644868282
20
-24.6216832209
11
75.0282458282
21
-23.3595432209
0
LINE
5
26F
100
AcDbEntity
8
0
100
AcDbLine
62
0
6
CONTINUOUS
10
83.3000568282
20
-25.1691172209
11
82.8638156627
21
-24.4392049439
0
LINE
5
270
100
AcDbEntity
8
0
100
AcDbLine
62
0
6
CONTINUOUS
10
82.4443528282
20
-24.4848242209
11
82.8470368282
21
-25.1691172209
0
LINE
5
271
100
AcDbEntity
8
0
100
AcDbLine
62
0
6
CONTINUOUS
10
80.8336138282
20
-24.8193672209
11
80.9678428282
21
-25.1691172209
0
LINE
5
272
100
AcDbEntity
8
0
100
AcDbLine
62
0
6
CONTINUOUS
10
81.3705268282
20
-25.1691172209
11
80.7161648282
21
-23.3595432209
0
LINE
5
273
100
AcDbEntity
8
0
100
AcDbLine
62
0
6
CONTINUOUS
10
80.5148228282
20
-23.9221842209
11
80.7161648282
21
-24.4848242209
0
LINE
5
274
100
AcDbEntity
8
0
100
AcDbLine
62
0
6
CONTINUOUS
10
77.7799228282
20
-23.9830102209
11
78.1658288282
21
-25.1691172209
0
LINE
5
275
100
AcDbEntity
8
0
100
AcDbLine
62
0
6
CONTINUOUS
10
78.3671718282
20
-24.5456502209
11
77.9980438282
21
-23.3595432209
0
LINE
5
276
100
AcDbEntity
8
0
100
AcDbLine
62
0
6
CONTINUOUS
10
76.6222048282
20
-23.3595432209
11
76.6222048282
21
-25.1691172209
0
LINE
5
277
100
AcDbEntity
8
0
100
AcDbLine
62
0
6
CONTINUOUS
10
77.0248898282
20
-25.1691172209
11
77.0248898282
21
-23.3595432209
0
LINE
5
278
100
AcDbEntity
8
0
100
AcDbLine
62
0
6
CONTINUOUS
10
77.3772388282
20
-23.3595432209
11
77.3772388282
21
-25.1691172209
0
LINE
5
279
100
AcDbEntity
8
0
100
AcDbLine
62
0
6
CONTINUOUS
10
77.7799228282
20
-25.1691172209
11
77.7799228282
21
-23.9830102209
0
LINE
5
27A
100
AcDbEntity
8
0
100
AcDbLine
62
0
6
CONTINUOUS
10
78.9544198282
20
-23.9830102209
11
78.9544198282
21
-25.1691172209
0
LINE
5
27B
100
AcDbEntity
8
0
100
AcDbLine
62
0
6
CONTINUOUS
10
79.3571038282
20
-25.1691172209
11
79.3571038282
21
-23.3595432209
0
LINE
5
27C
100
AcDbEntity
8
0
100
AcDbLine
62
9
6
CONTINUOUS
10
56.4789158282
20
-22.3679643139
11
56.4144921569
21
-22.4323879852
0
LINE
5
27D
100
AcDbEntity
8
0
100
AcDbLine
62
9
6
CONTINUOUS
10
101.2791899213
20
22.4323097791
11
101.3436135926
21
22.4967334505
0
LINE
5
27E
100
AcDbEntity
8
0
100
AcDbLine
62
9
6
CONTINUOUS
10
56.6786417352
20
-22.5676902209
11
56.6142180639
21
-22.6321138922
0
LINE
5
27F
100
AcDbEntity
8
0
100
AcDbLine
62
9
6
CONTINUOUS
10
101.4789158282
20
22.2325838722
11
101.5433394995
21
22.2970075435
0
LINE
5
280
100
AcDbEntity
8
0
100
AcDbLine
62
9
6
CONTINUOUS
10
102.5372349373
20
26.6077207941
11
102.5451146963
21
26.6151766590
0
LINE
5
281
100
AcDbEntity
8
0
100
AcDbLine
62
9
6
CONTINUOUS
10
102.5372349372
20
-26.7431012358
11
102.5451146963
21
-26.7505571007
0
LINE
5
282
100
AcDbEntity
8
0
100
AcDbLine
62
9
6
CONTINUOUS
10
101.3436135926
20
-22.6321138922
11
101.2791899213
21
-22.5676902209
0
LINE
5
283
100
AcDbEntity
8
0
100
AcDbLine
62
9
6
CONTINUOUS
10
56.4789158282
20
22.2325838722
11
56.4144921569
21
22.2970075435
0
LINE
5
284
100
AcDbEntity
8
0
100
AcDbLine
62
9
6
CONTINUOUS
10
101.5433394995
20
-22.4323879852
11
101.4789158282
21
-22.3679643139
0
LINE
5
285
100
AcDbEntity
8
0
100
AcDbLine
62
9
6
CONTINUOUS
10
56.6786417352
20
22.4323097791
11
56.6142180639
21
22.4967334505
0
LINE
5
286
100
AcDbEntity
8
0
100
AcDbLine
62
0
6
CONTINUOUS
10
81.6893188282
20
-23.3595432209
11
81.6893188282
21
-25.1691172209
0
LINE
5
287
100
AcDbEntity
8
0
100
AcDbLine
62
0
6
CONTINUOUS
10
82.0752248282
20
-24.1502812209
11
82.0752248282
21
-23.6940862209
0
LINE
5
288
100
AcDbEntity
8
0
100
AcDbLine
62
0
6
CONTINUOUS
10
82.0920038282
20
-25.1691172209
11
82.0920038282
21
-24.4848242209
0
LINE
5
289
100
AcDbEntity
8
0
100
AcDbLine
62
0
6
CONTINUOUS
10
75.9175068282
20
-23.3595432209
11
75.4644868282
21
-24.6216832209
0
LINE
5
28A
100
AcDbEntity
8
0
100
AcDbLine
62
0
6
CONTINUOUS
10
75.6658288282
20
-25.1691172209
11
76.3201918282
21
-23.3595432209
0
LINE
5
28B
100
AcDbEntity
8
0
100
AcDbLine
62
9
6
CONTINUOUS
10
55.4205967192
20
-26.7431012358
11
55.4127169602
21
-26.7505571007
0
LINE
5
28C
100
AcDbEntity
8
0
100
AcDbLine
62
9
6
CONTINUOUS
10
55.4205967192
20
26.6077207941
11
55.4127169602
21
26.6151766590
0
LINE
5
28D
100
AcDbEntity
8
0
100
AcDbLine
62
0
6
CONTINUOUS
10
78.7530778282
20
-23.3595432209
11
78.3671718282
21
-24.5456502209
0
LINE
5
28E
100
AcDbEntity
8
0
100
AcDbLine
62
0
6
CONTINUOUS
10
78.5685138282
20
-25.1691172209
11
78.9544198282
21
-23.9830102209
0
LINE
5
28F
100
AcDbEntity
8
0
100
AcDbLine
62
0
6
CONTINUOUS
10
80.3302588282
20
-24.4848242209
11
80.5148228282
21
-23.9221842209
0
LINE
5
290
100
AcDbEntity
8
0
100
AcDbLine
62
0
6
CONTINUOUS
10
80.0785808282
20
-25.1691172209
11
80.1960308282
21
-24.8193672209
0
LINE
5
291
100
AcDbEntity
8
0
100
AcDbLine
62
0
6
CONTINUOUS
10
80.3134798282
20
-23.3595432209
11
79.6758958282
21
-25.1691172209
0
LINE
5
292
100
AcDbEntity
8
0
100
AcDbLine
62
9
6
CONTINUOUS
10
136.7682163852
20
42.1198156330
11
136.9814186720
21
42.3323096490
0
LINE
5
293
100
AcDbEntity
8
0
100
AcDbLine
62
9
6
CONTINUOUS
10
136.9814186720
20
-42.4676900907
11
136.7682163852
21
-42.2551960747
0
LINE
5
294
100
AcDbEntity
8
0
100
AcDbLine
62
9
6
CONTINUOUS
10
138.6627417208
20
40.2256391020
11
138.8789158282
21
40.4411178179
0
LINE
5
295
100
AcDbEntity
8
0
100
AcDbLine
62
9
6
CONTINUOUS
10
138.8789158282
20
-40.5764982596
11
138.6627417208
21
-40.3610195438
0
LINE
5
296
100
AcDbEntity
8
0
100
AcDbLine
62
9
6
CONTINUOUS
10
101.4304661316
20
-25.1921493099
11
101.3749419296
21
-22.9201195287
0
LINE
5
297
100
AcDbEntity
8
0
100
AcDbLine
62
9
6
CONTINUOUS
10
101.6118136557
20
-24.3555890380
11
101.5746678366
21
-22.8355958763
0
LINE
5
298
100
AcDbEntity
8
0
100
AcDbLine
62
0
6
CONTINUOUS
10
101.4789158282
20
-22.3679643139
11
101.4789158282
21
22.2325838722
0
LINE
5
299
100
AcDbEntity
8
0
100
AcDbLine
62
9
6
CONTINUOUS
10
101.3749419296
20
22.7847390870
11
101.4304661316
21
25.0567688681
0
LINE
5
29A
100
AcDbEntity
8
0
100
AcDbLine
62
9
6
CONTINUOUS
10
101.5746678366
20
22.7002154346
11
101.6118136557
21
24.2202085962
0
LINE
5
29B
100
AcDbEntity
8
0
100
AcDbLine
62
0
6
CONTINUOUS
10
56.6786417352
20
22.4323097791
11
101.2791899213
21
22.4323097791
0
LINE
5
29C
100
AcDbEntity
8
0
100
AcDbLine
62
9
6
CONTINUOUS
10
101.6118136557
20
24.2202085962
11
101.6118136557
21
-24.3555890380
0
LINE
5
29D
100
AcDbEntity
8
0
100
AcDbLine
62
9
6
CONTINUOUS
10
101.8163499753
20
24.2202085962
11
101.8163499753
21
-24.3555890380
0
LINE
5
29E
100
AcDbEntity
8
0
100
AcDbLine
62
9
6
CONTINUOUS
10
103.2762209959
20
25.4118581097
11
103.2762209959
21
-25.5472385515
0
LINE
5
29F
100
AcDbEntity
8
0
100
AcDbLine
62
9
6
CONTINUOUS
10
103.3735249915
20
25.4118581097
11
103.3735249915
21
-25.5472385515
0
LINE
5
2A0
100
AcDbEntity
8
0
100
AcDbLine
62
9
6
CONTINUOUS
10
103.4692377687
20
-25.6378988171
11
103.4692377687
21
25.5025183753
0
LINE
5
2A1
100
AcDbEntity
8
0
100
AcDbLine
62
0
6
CONTINUOUS
10
103.5867558294
20
25.5165130626
11
103.5867558294
21
-25.6518935043
0
LINE
5
2A2
100
AcDbEntity
8
0
100
AcDbLine
62
9
6
CONTINUOUS
10
103.6893531203
20
25.5165130626
11
103.6893531203
21
-25.6518935043
0
LINE
5
2A3
100
AcDbEntity
8
0
100
AcDbLine
62
9
6
CONTINUOUS
10
101.3436135926
20
22.4967334505
11
56.6142180639
21
22.4967334505
0
LINE
5
2A4
100
AcDbEntity
8
0
100
AcDbLine
62
9
6
CONTINUOUS
10
101.3749419296
20
22.7847390870
11
56.5828897268
21
22.7847390870
0
LINE
5
2A5
100
AcDbEntity
8
0
100
AcDbLine
62
9
6
CONTINUOUS
10
101.8163499753
20
24.2202085962
11
101.6118136557
21
24.2202085962
0
LINE
5
2A6
100
AcDbEntity
8
0
100
AcDbLine
62
9
6
CONTINUOUS
10
56.1414816811
20
24.2202085962
11
56.3460180008
21
24.2202085962
0
LINE
5
2A7
100
AcDbEntity
8
0
100
AcDbLine
62
9
6
CONTINUOUS
10
103.3735249915
20
25.4118581097
11
103.2762209959
21
25.4118581097
0
LINE
5
2A8
100
AcDbEntity
8
0
100
AcDbLine
62
9
6
CONTINUOUS
10
54.5843066650
20
25.4118581097
11
54.6816106606
21
25.4118581097
0
LINE
5
2A9
100
AcDbEntity
8
0
100
AcDbLine
62
9
6
CONTINUOUS
10
103.5789158282
20
25.5025183754
11
103.4692377687
21
25.5025183753
0
LINE
5
2AA
100
AcDbEntity
8
0
100
AcDbLine
62
9
6
CONTINUOUS
10
54.3789158282
20
25.5025183753
11
54.4885938877
21
25.5025183753
0
LINE
5
2AB
100
AcDbEntity
8
0
100
AcDbLine
62
9
6
CONTINUOUS
10
103.6893531203
20
25.5165130626
11
103.5867558294
21
25.5165130626
0
LINE
5
2AC
100
AcDbEntity
8
0
100
AcDbLine
62
9
6
CONTINUOUS
10
54.2684785361
20
25.5165130626
11
54.3710758271
21
25.5165130640
0
LINE
5
2AD
100
AcDbEntity
8
0
100
AcDbLine
62
9
6
CONTINUOUS
10
20.1381125981
20
40.2256391020
11
19.2950899357
21
40.2256391020
0
LINE
5
2AE
100
AcDbEntity
8
0
100
AcDbLine
62
9
6
CONTINUOUS
10
137.8197190583
20
40.2256391020
11
138.6627417207
21
40.2256391085
0
LINE
5
2AF
100
AcDbEntity
8
0
100
AcDbLine
62
9
6
CONTINUOUS
10
136.8201281347
20
41.2210536700
11
21.1377035218
21
41.2210536700
0
LINE
5
2B0
100
AcDbEntity
8
0
100
AcDbLine
62
9
6
CONTINUOUS
10
137.8197190583
20
-40.3610195438
11
137.8197190583
21
40.2256391020
0
LINE
5
2B1
100
AcDbEntity
8
0
100
AcDbLine
62
9
6
CONTINUOUS
10
138.6627417208
20
-40.3610195438
11
138.6627417208
21
40.2256391020
0
LINE
5
2B2
100
AcDbEntity
8
0
100
AcDbLine
62
0
6
CONTINUOUS
10
138.8789158282
20
40.4411178179
11
138.8789158282
21
-40.5764982596
0
LINE
5
2B3
100
AcDbEntity
8
0
100
AcDbLine
62
9
6
CONTINUOUS
10
-17.0536456080
20
-42.4676900907
11
-21.1213566559
21
-42.2551960747
0
LINE
5
2B4
100
AcDbEntity
8
0
100
AcDbLine
62
0
6
CONTINUOUS
10
-22.8821672732
20
-42.2555571987
11
-18.8350649126
21
-42.4676568460
0
LINE
5
2B5
100
AcDbEntity
8
0
100
AcDbLine
62
9
6
CONTINUOUS
10
-23.7350649126
20
-41.3567906175
11
-21.9725848193
21
-41.3564341117
0
LINE
5
2B6
100
AcDbEntity
8
0
100
AcDbLine
62
9
6
CONTINUOUS
10
-16.9350649126
20
-40.5676902209
11
-14.8350649126
21
-40.5676902209
0
LINE
5
2B7
100
AcDbEntity
8
0
100
AcDbLine
62
9
6
CONTINUOUS
10
-21.9110822613
20
-40.3610195438
11
-21.0599126055
21
-40.3610195438
0
LINE
5
2B8
100
AcDbEntity
8
0
100
AcDbLine
62
9
6
CONTINUOUS
10
-16.9350649126
20
-40.5764982596
11
-21.0599126055
21
-40.3610195438
0
LINE
5
2B9
100
AcDbEntity
8
0
100
AcDbLine
62
0
6
CONTINUOUS
10
-15.3350649126
20
-41.5676902209
11
-16.9498453273
21
-41.4830631653
0
LINE
5
2BA
100
AcDbEntity
8
0
100
AcDbLine
62
0
6
CONTINUOUS
10
-23.7402982981
20
-27.1625986842
11
-23.6023817781
21
-27.1698265827
0
LINE
5
2BB
100
AcDbEntity
8
0
100
AcDbLine
62
9
6
CONTINUOUS
10
-23.4294014414
20
-25.5472385515
11
-23.5241350991
21
-25.5472385515
0
LWPOLYLINE
5
2BC
100
AcDbEntity
8
0
100
AcDbPolyline
62
0
6
CONTINUOUS
90
20
70
0
10
-23.8350431276
20
-27.0648185887
10
-23.8345657643
20
-27.0727151117
10
-23.8334656922
20
-27.0805492034
10
-23.8317497932
20
-27.0882718345
10
-23.8294288030
20
-27.0958346742
10
-23.8265172468
20
-27.1031903851
10
-23.8230333447
20
-27.1102929318
10
-23.8189988989
20
-27.1170978635
10
-23.8144391608
20
-27.1235625865
10
-23.8093826679
20
-27.1296466412
10
-23.8038610648
20
-27.1353119522
10
-23.7979089096
20
-27.1405230622
10
-23.7915634546
20
-27.1452473577
10
-23.7848644115
20
-27.1494552735
10
-23.7778537045
20
-27.1531204757
10
-23.7705752095
20
-27.1562200265
10
-23.7630744780
20
-27.1587345277
10
-23.7553984512
20
-27.1606482433
10
-23.7475951686
20
-27.1619491965
10
-23.7402983832
20
-27.1626003081
0
LINE
5
2BD
100
AcDbEntity
8
0
100
AcDbLine
62
0
6
CONTINUOUS
10
-23.8350649126
20
26.9137399515
11
-23.8350649126
21
25.7107316650
0
LINE
5
2BE
100
AcDbEntity
8
0
100
AcDbLine
62
0
6
CONTINUOUS
10
-23.8350649126
20
-25.8461121067
11
-23.8350649126
21
-27.0491175002
0
LWPOLYLINE
5
2BF
100
AcDbEntity
8
0
100
AcDbPolyline
62
0
6
CONTINUOUS
90
4
70
0
10
-23.5679106509
20
25.1180990687
10
-23.5679221450
20
25.1182376606
10
-23.5679108180
20
25.1180727376
10
-23.5678811249
20
25.1176280688
0
LINE
5
2C0
100
AcDbEntity
8
0
100
AcDbLine
62
0
6
CONTINUOUS
10
-23.4335394717
20
26.6358337514
11
-23.4323175018
21
26.6167207486
0
LINE
5
2C1
100
AcDbEntity
8
0
100
AcDbLine
62
0
6
CONTINUOUS
10
-23.5678395012
20
25.1169634045
11
-23.5677292920
21
25.1150342363
0
LINE
5
2C2
100
AcDbEntity
8
0
100
AcDbLine
62
0
6
CONTINUOUS
10
-23.4323175018
20
26.6167207486
11
-23.4310755236
21
26.5946802566
0
LINE
5
2C3
100
AcDbEntity
8
0
100
AcDbLine
62
0
6
CONTINUOUS
10
-23.5677292920
20
25.1150342363
11
-23.5675989715
21
25.1124913481
0
LWPOLYLINE
5
2C4
100
AcDbEntity
8
0
100
AcDbPolyline
62
0
6
CONTINUOUS
90
3
70
0
10
-23.4310755236
20
26.5946802566
10
-23.4298197721
20
26.5695758080
10
-23.4291886578
20
26.5558352327
0
LINE
5
2C5
100
AcDbEntity
8
0
100
AcDbLine
62
0
6
CONTINUOUS
10
-23.5675989715
20
25.1124913481
11
-23.5673821983
21
25.1077000550
0
LINE
5
2C6
100
AcDbEntity
8
0
100
AcDbLine
62
0
6
CONTINUOUS
10
-23.5673821983
20
25.1077000550
11
-23.5671501188
21
25.1018061335
0
LINE
5
2C7
100
AcDbEntity
8
0
100
AcDbLine
62
0
6
CONTINUOUS
10
-23.4291886578
20
26.5558352327
11
-23.4266529903
21
26.4924367018
0
LINE
5
2C8
100
AcDbEntity
8
0
100
AcDbLine
62
0
6
CONTINUOUS
10
-23.5671501188
20
25.1018061335
11
-23.5668247202
21
25.0923576706
0
LINE
5
2C9
100
AcDbEntity
8
0
100
AcDbLine
62
0
6
CONTINUOUS
10
-23.4266529903
20
26.4924367018
11
-23.4247684697
21
26.4356852572
0
LINE
5
2CA
100
AcDbEntity
8
0
100
AcDbLine
62
0
6
CONTINUOUS
10
-23.5668247202
20
25.0923576706
11
-23.5664157462
21
25.0784479149
0
LINE
5
2CB
100
AcDbEntity
8
0
100
AcDbLine
62
0
6
CONTINUOUS
10
-23.4247684697
20
26.4356852572
11
-23.4229349292
21
26.3709147243
0
LINE
5
2CC
100
AcDbEntity
8
0
100
AcDbLine
62
0
6
CONTINUOUS
10
-23.5664157462
20
25.0784479149
11
-23.5659215767
21
25.0586466838
0
LINE
5
2CD
100
AcDbEntity
8
0
100
AcDbLine
62
0
6
CONTINUOUS
10
-23.4229349292
20
26.3709147243
11
-23.4206225090
21
26.2721911450
0
LINE
5
2CE
100
AcDbEntity
8
0
100
AcDbLine
62
0
6
CONTINUOUS
10
-23.5659154640
20
25.0583442917
11
-23.5651836460
21
25.0223357235
0
LINE
5
2CF
100
AcDbEntity
8
0
100
AcDbLine
62
0
6
CONTINUOUS
10
-23.4206225090
20
26.2721911450
11
-23.4185339192
21
26.1599448285
0
LINE
5
2D0
100
AcDbEntity
8
0
100
AcDbLine
62
0
6
CONTINUOUS
10
-23.5652023964
20
25.0234132214
11
-23.5641319267
21
24.9549052407
0
LINE
5
2D1
100
AcDbEntity
8
0
100
AcDbLine
62
0
6
CONTINUOUS
10
-23.4185339192
20
26.1599448285
11
-23.4163469604
21
26.0024948095
0
LINE
5
2D2
100
AcDbEntity
8
0
100
AcDbLine
62
0
6
CONTINUOUS
10
-23.5641700014
20
24.9577638074
11
-23.5627701138
21
24.8307556559
0
LINE
5
2D3
100
AcDbEntity
8
0
100
AcDbLine
62
0
6
CONTINUOUS
10
-23.4163469604
20
26.0024948095
11
-23.4147529308
21
25.8291736355
0
LINE
5
2D4
100
AcDbEntity
8
0
100
AcDbLine
62
0
6
CONTINUOUS
10
-23.5628221675
20
24.8365741875
11
-23.5609803470
21
24.5310615674
0
LINE
5
2D5
100
AcDbEntity
8
0
100
AcDbLine
62
0
6
CONTINUOUS
10
-23.5610450117
20
24.5484398693
11
-23.5610122148
21
24.5397741632
0
LINE
5
2D6
100
AcDbEntity
8
0
100
AcDbLine
62
0
6
CONTINUOUS
10
-23.4147529308
20
25.8291736355
11
-23.4137595225
21
25.6063800448
0
LINE
5
2D7
100
AcDbEntity
8
0
100
AcDbLine
62
0
6
CONTINUOUS
10
-23.7350649126
20
41.2214101757
11
-23.7350649126
21
27.3184853244
0
LINE
5
2D8
100
AcDbEntity
8
0
100
AcDbLine
62
0
6
CONTINUOUS
10
-23.7350649126
20
-27.4538634457
11
-23.7350649126
21
-41.3567906174
0
LINE
5
2D9
100
AcDbEntity
8
0
100
AcDbLine
62
0
6
CONTINUOUS
10
-23.5609960649
20
24.5352826270
11
-23.5604393328
21
-24.3555890379
0
LINE
5
2DA
100
AcDbEntity
8
0
100
AcDbLine
62
9
6
CONTINUOUS
10
-23.5241350991
20
25.4118581097
11
-23.5241350991
21
-25.5472385515
0
LINE
5
2DB
100
AcDbEntity
8
0
100
AcDbLine
62
9
6
CONTINUOUS
10
-23.4294014414
20
25.4118581097
11
-23.4294014414
21
-25.5472385515
0
LINE
5
2DC
100
AcDbEntity
8
0
100
AcDbLine
62
0
6
CONTINUOUS
10
-23.4137595225
20
25.6063800448
11
-23.4136729439
21
-25.6518935044
0
LINE
5
2DD
100
AcDbEntity
8
0
100
AcDbLine
62
9
6
CONTINUOUS
10
-21.9110822613
20
-40.3610195438
11
-21.9110822613
21
40.2256391020
0
LINE
5
2DE
100
AcDbEntity
8
0
100
AcDbLine
62
9
6
CONTINUOUS
10
-21.0599126055
20
-40.3610195438
11
-21.0599126055
21
40.2256391020
0
LINE
5
2DF
100
AcDbEntity
8
0
100
AcDbLine
62
0
6
CONTINUOUS
10
-23.5604393625
20
-24.3555890379
11
-23.5604429663
21
-24.3802533610
0
LINE
5
2E0
100
AcDbEntity
8
0
100
AcDbLine
62
0
6
CONTINUOUS
10
-23.5604424445
20
-24.3783189640
11
-23.5610280215
21
-24.6793665736
0
LINE
5
2E1
100
AcDbEntity
8
0
100
AcDbLine
62
0
6
CONTINUOUS
10
-23.5610201005
20
-24.6772644440
11
-23.5610909635
21
-24.6955238873
0
LINE
5
2E2
100
AcDbEntity
8
0
100
AcDbLine
62
0
6
CONTINUOUS
10
-23.4136724641
20
-25.6518935044
11
-23.4141661437
21
-25.8641231050
0
LINE
5
2E3
100
AcDbEntity
8
0
100
AcDbLine
62
0
6
CONTINUOUS
10
-23.5610837048
20
-24.6937060816
11
-23.5611905666
21
-24.7194534433
0
LINE
5
2E4
100
AcDbEntity
8
0
100
AcDbLine
62
0
6
CONTINUOUS
10
-23.5611845255
20
-24.7180518300
11
-23.5612961581
21
-24.7430189205
0
LINE
5
2E5
100
AcDbEntity
8
0
100
AcDbLine
62
0
6
CONTINUOUS
10
-23.5612915247
20
-24.7420206785
11
-23.5614052911
21
-24.7656165161
0
LINE
5
2E6
100
AcDbEntity
8
0
100
AcDbLine
62
0
6
CONTINUOUS
10
-23.5614052911
20
-24.7656165161
11
-23.5615261158
21
-24.7888446628
0
LINE
5
2E7
100
AcDbEntity
8
0
100
AcDbLine
62
0
6
CONTINUOUS
10
-23.5615261158
20
-24.7888446628
11
-23.5616522863
21
-24.8115731940
0
LINE
5
2E8
100
AcDbEntity
8
0
100
AcDbLine
62
0
6
CONTINUOUS
10
-23.5616522863
20
-24.8115731940
11
-23.5618792451
21
-24.8490125466
0
LINE
5
2E9
100
AcDbEntity
8
0
100
AcDbLine
62
0
6
CONTINUOUS
10
-23.5618746491
20
-24.8482961450
11
-23.5620739686
21
-24.8781432372
0
LINE
5
2EA
100
AcDbEntity
8
0
100
AcDbLine
62
0
6
CONTINUOUS
10
-23.5620659514
20
-24.8769870729
11
-23.5624981625
21
-24.9343574486
0
LINE
5
2EB
100
AcDbEntity
8
0
100
AcDbLine
62
0
6
CONTINUOUS
10
-23.4141661437
20
-25.8641231050
11
-23.4156505135
21
-26.0722358722
0
LINE
5
2EC
100
AcDbEntity
8
0
100
AcDbLine
62
0
6
CONTINUOUS
10
-23.5624821579
20
-24.9323950061
11
-23.5639038695
21
-25.0728466130
0
LINE
5
2ED
100
AcDbEntity
8
0
100
AcDbLine
62
0
6
CONTINUOUS
10
-23.4156505135
20
-26.0722358722
11
-23.4174650796
21
-26.2252578330
0
LINE
5
2EE
100
AcDbEntity
8
0
100
AcDbLine
62
0
6
CONTINUOUS
10
-23.5638798407
20
-25.0709319560
11
-23.5649715066
21
-25.1456927009
0
LINE
5
2EF
100
AcDbEntity
8
0
100
AcDbLine
62
0
6
CONTINUOUS
10
-23.4174650796
20
-26.2252578330
11
-23.4197362968
21
-26.3632095228
0
LINE
5
2F0
100
AcDbEntity
8
0
100
AcDbLine
62
0
6
CONTINUOUS
10
-23.5649715066
20
-25.1456927009
11
-23.5657577194
21
-25.1866428953
0
LINE
5
2F1
100
AcDbEntity
8
0
100
AcDbLine
62
0
6
CONTINUOUS
10
-23.4197362968
20
-26.3632095228
11
-23.4223685044
21
-26.4840808931
0
LINE
5
2F2
100
AcDbEntity
8
0
100
AcDbLine
62
0
6
CONTINUOUS
10
-23.5657577194
20
-25.1866428953
11
-23.5663325635
21
-25.2107107601
0
LINE
5
2F3
100
AcDbEntity
8
0
100
AcDbLine
62
0
6
CONTINUOUS
10
-23.4223685044
20
-26.4840808931
11
-23.4245159694
21
-26.5627412820
0
LINE
5
2F4
100
AcDbEntity
8
0
100
AcDbLine
62
0
6
CONTINUOUS
10
-23.5663325635
20
-25.2107107601
11
-23.5667753894
21
-25.2261894127
0
LINE
5
2F5
100
AcDbEntity
8
0
100
AcDbLine
62
0
6
CONTINUOUS
10
-23.4245159694
20
-26.5627412820
11
-23.4267624865
21
-26.6308493271
0
LINE
5
2F6
100
AcDbEntity
8
0
100
AcDbLine
62
0
6
CONTINUOUS
10
-23.5667528071
20
-25.2254693849
11
-23.5670926435
21
-25.2356132908
0
LINE
5
2F7
100
AcDbEntity
8
0
100
AcDbLine
62
0
6
CONTINUOUS
10
-23.4267624865
20
-26.6308493271
11
-23.4282918768
21
-26.6703727790
0
LINE
5
2F8
100
AcDbEntity
8
0
100
AcDbLine
62
0
6
CONTINUOUS
10
-23.5670926435
20
-25.2356132908
11
-23.5673383320
21
-25.2420266448
0
LINE
5
2F9
100
AcDbEntity
8
0
100
AcDbLine
62
0
6
CONTINUOUS
10
-23.5673383320
20
-25.2420266448
11
-23.5674937228
21
-25.2456314369
0
LINE
5
2FA
100
AcDbEntity
8
0
100
AcDbLine
62
0
6
CONTINUOUS
10
-23.4282918768
20
-26.6703727790
11
-23.4298333040
21
-26.7052498973
0
LINE
5
2FB
100
AcDbEntity
8
0
100
AcDbLine
62
0
6
CONTINUOUS
10
-23.5674937228
20
-25.2456314369
11
-23.5676404494
21
-25.2487095986
0
LWPOLYLINE
5
2FC
100
AcDbEntity
8
0
100
AcDbPolyline
62
0
6
CONTINUOUS
90
11
70
0
10
-23.4298333040
20
-26.7052498973
10
-23.4313708210
20
-26.7355259497
10
-23.4321331902
20
-26.7489780292
10
-23.4328853823
20
-26.7612794592
10
-23.4336263480
20
-26.7724727264
10
-23.4343536586
20
-26.7825808548
10
-23.4350588633
20
-26.7915587103
10
-23.4357416049
20
-26.7994807820
10
-23.4363952551
20
-26.8063501985
10
-23.4369961873
20
-26.8120334318
10
-23.4372483277
20
-26.8142311066
0
LINE
5
2FD
100
AcDbEntity
8
0
100
AcDbLine
62
0
6
CONTINUOUS
10
-23.5676404494
20
-25.2487095986
11
-23.5677702017
21
-25.2511565044
0
LWPOLYLINE
5
2FE
100
AcDbEntity
8
0
100
AcDbPolyline
62
0
6
CONTINUOUS
90
3
70
0
10
-23.5677702017
20
-25.2511565044
10
-23.5678722586
20
-25.2528704894
10
-23.5678917287
20
-25.2531706717
0
LINE
5
2FF
100
AcDbEntity
8
0
100
AcDbLine
62
0
6
CONTINUOUS
10
-16.9350649126
20
-3.5500575228
11
-14.8350649126
21
-3.9203441823
0
LINE
5
300
100
AcDbEntity
8
0
100
AcDbLine
62
0
6
CONTINUOUS
10
-23.4384608237
20
26.6876321882
11
-23.4376918622
21
26.6823945378
0
LWPOLYLINE
5
301
100
AcDbEntity
8
0
100
AcDbPolyline
62
0
6
CONTINUOUS
90
9
70
0
10
-23.4376918622
20
26.6823945378
10
-23.4373998164
20
26.6801184262
10
-23.4369276949
20
26.6760399009
10
-23.4364108870
20
26.6711282932
10
-23.4358695398
20
26.6655022219
10
-23.4353090035
20
26.6591693734
10
-23.4347296619
20
26.6520877435
10
-23.4341389115
20
26.6443075153
10
-23.4335394717
20
26.6358337514
0
LINE
5
302
100
AcDbEntity
8
0
100
AcDbLine
62
0
6
CONTINUOUS
10
-16.9350649126
20
40.4411178179
11
-16.9350649126
21
-40.5764982596
0
LINE
5
303
100
AcDbEntity
8
0
100
AcDbLine
62
0
6
CONTINUOUS
10
-16.8350649126
20
3.4323097791
11
-16.8350649126
21
-3.5676902209
0
LINE
5
304
100
AcDbEntity
8
0
100
AcDbLine
62
9
6
CONTINUOUS
10
-15.4298426467
20
-3.8154688202
11
-15.4298426467
21
3.6800883785
0
LINE
5
305
100
AcDbEntity
8
0
100
AcDbLine
62
0
6
CONTINUOUS
10
-15.3350649126
20
41.4323097791
11
-15.3350649126
21
3.6968002502
0
LINE
5
306
100
AcDbEntity
8
0
100
AcDbLine
62
0
6
CONTINUOUS
10
-15.3350649126
20
-3.8321806919
11
-15.3350649126
21
-41.5676902209
0
LINE
5
307
100
AcDbEntity
8
0
100
AcDbLine
62
0
6
CONTINUOUS
10
-14.8350649126
20
40.9323097791
11
-14.8350649126
21
-41.0676902209
0
LINE
5
308
100
AcDbEntity
8
0
100
AcDbLine
62
0
6
CONTINUOUS
10
-23.5667837378
20
-25.2264424310
11
-23.8163264700
21
-25.7615885471
0
LINE
5
309
100
AcDbEntity
8
0
100
AcDbLine
62
0
6
CONTINUOUS
10
-23.4331444715
20
-26.8080520491
11
-23.4893118563
21
-26.9281455408
0
LINE
5
30A
100
AcDbEntity
8
0
100
AcDbLine
62
0
6
CONTINUOUS
10
-23.4893118563
20
-26.9281455408
11
-23.7256303229
21
-27.4331405195
0
LINE
5
30B
100
AcDbEntity
8
0
100
AcDbLine
62
0
6
CONTINUOUS
10
-23.7256303230
20
27.2977600774
11
-23.4398398485
21
26.6869872219
0
LINE
5
30C
100
AcDbEntity
8
0
100
AcDbLine
62
0
6
CONTINUOUS
10
-23.5667837424
20
25.0910619991
11
-23.8163264700
21
25.6262081054
0
LINE
5
30D
100
AcDbEntity
8
0
100
AcDbLine
62
0
6
CONTINUOUS
10
-16.9350649126
20
3.4146770811
11
-14.8350649126
21
3.7849637406
0
LINE
5
30E
100
AcDbEntity
8
0
100
AcDbLine
62
9
6
CONTINUOUS
10
-23.4294014414
20
25.4118581097
11
-23.5241350991
21
25.4118581097
0
LINE
5
30F
100
AcDbEntity
8
0
100
AcDbLine
62
0
6
CONTINUOUS
10
-14.8350649126
20
-41.0676902209
11
-15.3350649126
21
-41.5676902209
0
LWPOLYLINE
5
310
100
AcDbEntity
8
0
100
AcDbPolyline
62
0
6
CONTINUOUS
90
21
70
0
10
-23.7402983833
20
27.0272198658
10
-23.7475953001
20
27.0265687375
10
-23.7553986003
20
27.0252677700
10
-23.7630746428
20
27.0233540373
10
-23.7705753877
20
27.0208395164
10
-23.7778538950
20
27.0177399432
10
-23.7848646127
20
27.0140747156
10
-23.7915636647
20
27.0098667715
10
-23.7979091270
20
27.0051424442
10
-23.8038612886
20
26.9999312978
10
-23.8093828952
20
26.9942659464
10
-23.8144393862
20
26.9881818501
10
-23.8189991175
20
26.9817170837
10
-23.8230335507
20
26.9749121085
10
-23.8265174313
20
26.9678095255
10
-23.8294289590
20
26.9604537871
10
-23.8317499154
20
26.9528909295
10
-23.8334657760
20
26.9451682982
10
-23.8345658089
20
26.9373342243
10
-23.8350431362
20
26.9294377376
10
-23.8350647877
20
26.9273569111
0
LINE
5
311
100
AcDbEntity
8
0
100
AcDbLine
62
0
6
CONTINUOUS
10
-23.6023817790
20
27.0344461410
11
-23.7402982982
21
27.0272182425
0
LINE
5
312
100
AcDbEntity
8
0
100
AcDbLine
62
0
6
CONTINUOUS
10
-15.3350649126
20
41.4323097791
11
-14.8350649126
21
40.9323097791
0
LINE
5
313
100
AcDbEntity
8
0
100
AcDbLine
62
0
6
CONTINUOUS
10
-16.9498453273
20
41.3476827236
11
-15.3350649126
21
41.4323097791
0
LINE
5
314
100
AcDbEntity
8
0
100
AcDbLine
62
0
6
CONTINUOUS
10
-18.8350649126
20
42.3322764043
11
-22.8821672732
21
42.1201767570
0
LINE
5
315
100
AcDbEntity
8
0
100
AcDbLine
62
9
6
CONTINUOUS
10
-21.0599126055
20
40.2256391020
11
-16.9350649126
21
40.4411178179
0
LINE
5
316
100
AcDbEntity
8
0
100
AcDbLine
62
9
6
CONTINUOUS
10
-21.1213566559
20
42.1198156330
11
-17.0536456080
21
42.3323096490
0
LINE
5
317
100
AcDbEntity
8
0
100
AcDbLine
62
9
6
CONTINUOUS
10
-21.9110822613
20
40.2256391020
11
-21.0599126072
21
40.2256391085
0
LINE
5
318
100
AcDbEntity
8
0
100
AcDbLine
62
9
6
CONTINUOUS
10
-16.9350649126
20
40.4323097791
11
-14.8350649126
21
40.4323097791
0
LINE
5
319
100
AcDbEntity
8
0
100
AcDbLine
62
9
6
CONTINUOUS
10
-21.9725848193
20
41.2210536700
11
-23.7350649126
21
41.2214101757
0
ARC
5
31A
100
AcDbEntity
8
0
100
AcDbCircle
62
0
6
CONTINUOUS
10
-23.6350644498
20
27.3401608222
40
0.1000000016
100
AcDbArc
50
179.9999999860
51
205.0814201558
0
ARC
5
31B
100
AcDbEntity
8
0
100
AcDbCircle
62
0
6
CONTINUOUS
10
-23.6350644497
20
-27.4755412642
40
0.1000000016
100
AcDbArc
50
154.9185798697
51
180.0000000140
0
ARC
5
31C
100
AcDbEntity
8
0
100
AcDbCircle
62
0
6
CONTINUOUS
10
-22.8350649126
20
-41.3567906175
40
0.9000000000
100
AcDbArc
50
180.0000000000
51
267.0000000000
0
ARC
5
31D
100
AcDbEntity
8
0
100
AcDbCircle
62
0
6
CONTINUOUS
10
-22.8350649126
20
41.2214101757
40
0.9000000000
100
AcDbArc
50
93.0000000000
51
180.0000000000
0
ARC
5
31E
100
AcDbEntity
8
0
100
AcDbCircle
62
0
6
CONTINUOUS
10
-23.6350649126
20
25.7107317578
40
0.2000000000
100
AcDbArc
50
180.0000000000
51
205.0000000000
0
ARC
5
31F
100
AcDbEntity
8
0
100
AcDbCircle
62
0
6
CONTINUOUS
10
-23.6350649126
20
-25.8461121995
40
0.2000000000
100
AcDbArc
50
155.0000000000
51
180.0000000000
0
SPLINE
5
320
100
AcDbEntity
8
0
100
AcDbSpline
62
0
6
CONTINUOUS
70
0
71
3
72
13
73
9
74
7
42
0.0000001000
43
0.0000001000
44
0.0000000001
12
1.5982003053
22
-0.0000025140
32
0.0000000000
13
-1.4979740492
23
-0.5570613495
33
0.0000000000
40
0.0000000000
40
0.0000000000
40
0.0000000000
40
0.0000000000
40
0.2256550103
40
0.3632763982
40
0.5068412672
40
0.6481249742
40
0.7809164211
40
1.0000000000
40
1.0000000000
40
1.0000000000
40
1.0000000000
10
82.6289171847
20
-23.3595431154
30
0.0000000000
10
82.7491311535
20
-23.3595433045
30
0.0000000000
10
82.9481236983
20
-23.4132610094
30
0.0000000000
10
83.1534262844
20
-23.5966925177
30
0.0000000000
10
83.2529587951
20
-23.8068121262
30
0.0000000000
10
83.2504984703
20
-24.0371639049
30
0.0000000000
10
83.1364000956
20
-24.2808041813
30
0.0000000000
10
82.9732095013
20
-24.3985239458
30
0.0000000000
10
82.8638156627
20
-24.4392049439
30
0.0000000000
11
82.6289171847
21
-23.3595431154
31
0.0000000000
11
82.9763426344
21
-23.4562805278
31
0.0000000000
11
83.1396041943
21
-23.6036648209
31
0.0000000000
11
83.2360228351
21
-23.8118681553
31
0.0000000000
11
83.2340272051
21
-24.0376589640
31
0.0000000000
11
83.1447179526
21
-24.2301798277
31
0.0000000000
11
82.8638156627
21
-24.4392049439
31
0.0000000000
0
SPLINE
5
321
100
AcDbEntity
8
0
100
AcDbSpline
62
0
6
CONTINUOUS
70
0
71
3
72
13
73
9
74
7
42
0.0000001000
43
0.0000001000
44
0.0000000001
12
0.7427839154
22
0.0000042811
32
0.0000000000
13
-0.7427832476
23
-0.0000004072
33
0.0000000000
40
0.0000000000
40
0.0000000000
40
0.0000000000
40
0.0000000000
40
0.2559138609
40
0.3844862660
40
0.4999989279
40
0.6155115898
40
0.7440839950
40
1.0000000000
40
1.0000000000
40
1.0000000000
40
1.0000000000
10
82.5785820496
20
-24.1502814063
30
0.0000000000
10
82.6419449495
20
-24.1502810411
30
0.0000000000
10
82.7422491637
20
-24.1144222212
30
0.0000000000
10
82.8171330731
20
-24.0118050000
30
0.0000000000
10
82.8364699773
20
-23.9221838224
30
0.0000000000
10
82.8171330731
20
-23.8325626448
30
0.0000000000
10
82.7422488426
20
-23.7299449836
30
0.0000000000
10
82.6419438308
20
-23.6940862037
30
0.0000000000
10
82.5785804570
20
-23.6940862385
30
0.0000000000
11
82.5785820496
21
-24.1502814063
31
0.0000000000
11
82.7565437009
21
-24.0834731708
31
0.0000000000
11
82.8125877043
21
-24.0061453363
31
0.0000000000
11
82.8302584328
21
-23.9221838224
31
0.0000000000
11
82.8125877043
21
-23.8382223085
31
0.0000000000
11
82.7565437009
21
-23.7608944740
31
0.0000000000
11
82.5785804570
21
-23.6940862385
31
0.0000000000
0
SPLINE
5
322
100
AcDbEntity
8
0
100
AcDbSpline
62
0
6
CONTINUOUS
70
0
71
3
72
16
73
12
74
10
42
0.0000001000
43
0.0000001000
44
0.0000000001
12
0.0000000000
22
-0.3133692807
32
0.0000000000
13
0.3133692807
23
-0.0000000000
33
0.0000000000
40
0.0000000000
40
0.0000000000
40
0.0000000000
40
0.0000000000
40
0.1108408717
40
0.2219355450
40
0.3324127226
40
0.4438755626
40
0.5561439430
40
0.6674419559
40
0.7779911927
40
0.8891547636
40
1.0000000000
40
1.0000000000
40
1.0000000000
40
1.0000000000
10
56.4789158282
20
-22.3679643139
30
0.0000000000
10
56.4789158282
20
-22.3795423553
30
0.0000000000
10
56.4809362461
20
-22.4027752987
30
0.0000000000
10
56.4899394059
20
-22.4364849131
30
0.0000000000
10
56.5046714748
20
-22.4681942868
30
0.0000000000
10
56.5247566232
20
-22.4969662505
30
0.0000000000
10
56.5496323315
20
-22.5218411614
30
0.0000000000
10
56.5783937920
20
-22.5419232397
30
0.0000000000
10
56.6100986198
20
-22.5566598608
30
0.0000000000
10
56.6438226345
20
-22.5656690582
30
0.0000000000
10
56.6670632378
20
-22.5676902209
30
0.0000000000
10
56.6786417352
20
-22.5676902209
30
0.0000000000
11
56.4789158282
21
-22.3679643139
31
0.0000000000
11
56.4819292919
21
-22.4025674702
31
0.0000000000
11
56.4909115088
21
-22.4362024305
31
0.0000000000
11
56.5055001675
21
-22.4675987054
31
0.0000000000
11
56.5254940661
21
-22.4962392563
31
0.0000000000
11
56.5503714990
21
-22.5211159235
31
0.0000000000
11
56.5789677173
21
-22.5410830919
31
0.0000000000
11
56.6103819562
21
-22.5556866761
31
0.0000000000
11
56.6440372267
21
-22.5646765198
31
0.0000000000
11
56.6786417352
21
-22.5676902209
31
0.0000000000
0
SPLINE
5
323
100
AcDbEntity
8
0
100
AcDbSpline
62
0
6
CONTINUOUS
70
0
71
3
72
16
73
12
74
10
42
0.0000001000
43
0.0000001000
44
0.0000000001
12
0.3133692807
22
0.0000000000
32
0.0000000000
13
0.0000000000
23
0.3133692807
33
0.0000000000
40
0.0000000000
40
0.0000000000
40
0.0000000000
40
0.0000000000
40
0.1108452364
40
0.2220088073
40
0.3325580441
40
0.4438560570
40
0.5561244374
40
0.6675872774
40
0.7780644550
40
0.8891591283
40
1.0000000000
40
1.0000000000
40
1.0000000000
40
1.0000000000
10
101.2791899213
20
-22.5676902209
30
0.0000000000
10
101.2907684186
20
-22.5676902209
30
0.0000000000
10
101.3140090219
20
-22.5656690582
30
0.0000000000
10
101.3477330367
20
-22.5566598608
30
0.0000000000
10
101.3794378644
20
-22.5419232397
30
0.0000000000
10
101.4081993249
20
-22.5218411614
30
0.0000000000
10
101.4330750333
20
-22.4969662505
30
0.0000000000
10
101.4531601817
20
-22.4681942868
30
0.0000000000
10
101.4678922505
20
-22.4364849131
30
0.0000000000
10
101.4768954103
20
-22.4027752987
30
0.0000000000
10
101.4789158282
20
-22.3795423553
30
0.0000000000
10
101.4789158282
20
-22.3679643139
30
0.0000000000
11
101.2791899213
21
-22.5676902209
31
0.0000000000
11
101.3137944298
21
-22.5646765198
31
0.0000000000
11
101.3474497003
21
-22.5556866761
31
0.0000000000
11
101.3788639392
21
-22.5410830919
31
0.0000000000
11
101.4074601575
21
-22.5211159235
31
0.0000000000
11
101.4323375903
21
-22.4962392563
31
0.0000000000
11
101.4523314889
21
-22.4675987054
31
0.0000000000
11
101.4669201476
21
-22.4362024305
31
0.0000000000
11
101.4759023646
21
-22.4025674702
31
0.0000000000
11
101.4789158282
21
-22.3679643139
31
0.0000000000
0
SPLINE
5
324
100
AcDbEntity
8
0
100
AcDbSpline
62
0
6
CONTINUOUS
70
0
71
3
72
16
73
12
74
10
42
0.0000001000
43
0.0000001000
44
0.0000000001
12
0.0000000000
22
0.3133692807
32
0.0000000000
13
-0.3133692807
23
0.0000000000
33
0.0000000000
40
0.0000000000
40
0.0000000000
40
0.0000000000
40
0.0000000000
40
0.1108408717
40
0.2219355450
40
0.3324127226
40
0.4438755626
40
0.5561439430
40
0.6674419559
40
0.7779911927
40
0.8891547636
40
1.0000000000
40
1.0000000000
40
1.0000000000
40
1.0000000000
10
101.4789158282
20
22.2325838722
30
0.0000000000
10
101.4789158282
20
22.2441619136
30
0.0000000000
10
101.4768954103
20
22.2673948569
30
0.0000000000
10
101.4678922505
20
22.3011044713
30
0.0000000000
10
101.4531601817
20
22.3328138450
30
0.0000000000
10
101.4330750333
20
22.3615858088
30
0.0000000000
10
101.4081993249
20
22.3864607197
30
0.0000000000
10
101.3794378644
20
22.4065427980
30
0.0000000000
10
101.3477330367
20
22.4212794191
30
0.0000000000
10
101.3140090219
20
22.4302886165
30
0.0000000000
10
101.2907684186
20
22.4323097791
30
0.0000000000
10
101.2791899213
20
22.4323097791
30
0.0000000000
11
101.4789158282
21
22.2325838722
31
0.0000000000
11
101.4759023646
21
22.2671870284
31
0.0000000000
11
101.4669201476
21
22.3008219887
31
0.0000000000
11
101.4523314889
21
22.3322182636
31
0.0000000000
11
101.4323375903
21
22.3608588145
31
0.0000000000
11
101.4074601575
21
22.3857354818
31
0.0000000000
11
101.3788639392
21
22.4057026502
31
0.0000000000
11
101.3474497003
21
22.4203062343
31
0.0000000000
11
101.3137944298
21
22.4292960781
31
0.0000000000
11
101.2791899213
21
22.4323097791
31
0.0000000000
0
SPLINE
5
325
100
AcDbEntity
8
0
100
AcDbSpline
62
0
6
CONTINUOUS
70
0
71
3
72
16
73
12
74
10
42
0.0000001000
43
0.0000001000
44
0.0000000001
12
-0.3133692807
22
0.0000000000
32
0.0000000000
13
0.0000000000
23
-0.3133692807
33
0.0000000000
40
0.0000000000
40
0.0000000000
40
0.0000000000
40
0.0000000000
40
0.1108408717
40
0.2219355450
40
0.3324127226
40
0.4438755626
40
0.5561439430
40
0.6674419559
40
0.7779911927
40
0.8891547636
40
1.0000000000
40
1.0000000000
40
1.0000000000
40
1.0000000000
10
56.6786417352
20
22.4323097791
30
0.0000000000
10
56.6670636938
20
22.4323097791
30
0.0000000000
10
56.6438307504
20
22.4302893612
30
0.0000000000
10
56.6101211360
20
22.4212862014
30
0.0000000000
10
56.5784117623
20
22.4065541326
30
0.0000000000
10
56.5496397986
20
22.3864689842
30
0.0000000000
10
56.5247648877
20
22.3615932759
30
0.0000000000
10
56.5046828094
20
22.3328318153
30
0.0000000000
10
56.4899461883
20
22.3011269876
30
0.0000000000
10
56.4809369908
20
22.2674029728
30
0.0000000000
10
56.4789158282
20
22.2441623695
30
0.0000000000
10
56.4789158282
20
22.2325838722
30
0.0000000000
11
56.6786417352
21
22.4323097791
31
0.0000000000
11
56.6440385789
21
22.4292963155
31
0.0000000000
11
56.6104036186
21
22.4203140986
31
0.0000000000
11
56.5790073437
21
22.4057254399
31
0.0000000000
11
56.5503667928
21
22.3857315412
31
0.0000000000
11
56.5254901255
21
22.3608541084
31
0.0000000000
11
56.5055229572
21
22.3322578901
31
0.0000000000
11
56.4909193730
21
22.3008436512
31
0.0000000000
11
56.4819295293
21
22.2671883807
31
0.0000000000
11
56.4789158282
21
22.2325838722
31
0.0000000000
0
SPLINE
5
326
100
AcDbEntity
8
0
100
AcDbSpline
62
9
6
CONTINUOUS
70
0
71
3
72
15
73
11
74
9
42
0.0000001000
43
0.0000001000
44
0.0000000001
12
-0.2867022681
22
-0.2867714789
32
0.0000000000
13
-0.0099034029
23
-0.4053862285
33
0.0000000000
40
0.0000000000
40
0.0000000000
40
0.0000000000
40
0.0000000000
40
0.0298844692
40
0.0894677153
40
0.1791029613
40
0.2974941584
40
0.4423187344
40
0.6104219266
40
0.7978511222
40
1.0000000000
40
1.0000000000
40
1.0000000000
40
1.0000000000
10
56.4144921569
20
-22.4323879852
30
0.0000000000
10
56.4116361752
20
-22.4352446564
30
0.0000000000
10
56.4085064868
20
-22.4477384488
30
0.0000000000
10
56.4037897303
20
-22.4709153196
30
0.0000000000
10
56.3996495347
20
-22.5071644400
30
0.0000000000
10
56.3954154996
20
-22.5545500229
30
0.0000000000
10
56.3916191913
20
-22.6127767202
30
0.0000000000
10
56.3882146764
20
-22.6803100442
30
0.0000000000
10
56.3853333704
20
-22.7556427103
30
0.0000000000
10
56.3838311404
20
-22.8082797526
30
0.0000000000
10
56.3831638199
20
-22.8355958763
30
0.0000000000
11
56.4144921569
21
-22.4323879852
31
0.0000000000
11
56.4096316892
21
-22.4434889161
31
0.0000000000
11
56.4048396464
21
-22.4671703692
31
0.0000000000
11
56.4002284972
21
-22.5032244285
31
0.0000000000
11
56.3959029764
21
-22.5510376489
31
0.0000000000
11
56.3919579615
21
-22.6096324010
31
0.0000000000
11
56.3884763340
21
-22.6777104821
31
0.0000000000
11
56.3855275970
21
-22.7536571435
31
0.0000000000
11
56.3831638199
21
-22.8355958763
31
0.0000000000
0
SPLINE
5
327
100
AcDbEntity
8
0
100
AcDbSpline
62
9
6
CONTINUOUS
70
0
71
3
72
13
73
9
74
7
42
0.0000001000
43
0.0000001000
44
0.0000000001
12
44.8641172124
22
2.2760957210
32
0.0000000000
13
44.8641172233
23
-2.2760955070
33
0.0000000000
40
0.0000000000
40
0.0000000000
40
0.0000000000
40
0.0000000000
40
0.1666023396
40
0.3332817571
40
0.4999997626
40
0.6667178330
40
0.8333974454
40
1.0000000000
40
1.0000000000
40
1.0000000000
40
1.0000000000
10
56.5273655249
20
25.0567688681
30
0.0000000000
10
59.0188544887
20
25.1831698256
30
0.0000000000
10
64.0052189266
20
25.3940254935
30
0.0000000000
10
71.4901145839
20
25.5839722579
30
0.0000000000
10
78.9789061346
20
25.6473283921
30
0.0000000000
10
86.4677006061
20
25.5839725667
30
0.0000000000
10
93.9526033787
20
25.3940258693
30
0.0000000000
10
98.9389739513
20
25.1831699768
30
0.0000000000
10
101.4304661316
20
25.0567688681
30
0.0000000000
11
56.5273655249
21
25.0567688681
31
0.0000000000
11
64.0047644802
21
25.3729254632
31
0.0000000000
11
71.4898974030
21
25.5628575347
31
0.0000000000
11
78.9789051629
21
25.6262081054
31
0.0000000000
11
86.4679158420
21
25.5628578457
31
0.0000000000
11
93.9530575215
21
25.3729257907
31
0.0000000000
11
101.4304661316
21
25.0567688681
31
0.0000000000
0
SPLINE
5
328
100
AcDbEntity
8
0
100
AcDbSpline
62
9
6
CONTINUOUS
70
0
71
3
72
15
73
11
74
9
42
0.0000001000
43
0.0000001000
44
0.0000000001
12
-0.0099034034
22
0.4053862284
32
0.0000000000
13
-0.2867024392
23
0.2867713077
33
0.0000000000
40
0.0000000000
40
0.0000000000
40
0.0000000000
40
0.0000000000
40
0.2021488792
40
0.3895780726
40
0.5576812661
40
0.7025058418
40
0.8208970383
40
0.9105322862
40
0.9701155285
40
1.0000000000
40
1.0000000000
40
1.0000000000
40
1.0000000000
10
101.5746678366
20
-22.8355958763
30
0.0000000000
10
101.5740005160
20
-22.8082797524
30
0.0000000000
10
101.5724982862
20
-22.7556427102
30
0.0000000000
10
101.5696169800
20
-22.6803100441
30
0.0000000000
10
101.5662124651
20
-22.6127767203
30
0.0000000000
10
101.5624161571
20
-22.5545500228
30
0.0000000000
10
101.5581821211
20
-22.5071644403
30
0.0000000000
10
101.5540419276
20
-22.4709153188
30
0.0000000000
10
101.5493251674
20
-22.4477384508
30
0.0000000000
10
101.5461954832
20
-22.4352446549
30
0.0000000000
10
101.5433394995
20
-22.4323879852
30
0.0000000000
11
101.5746678366
21
-22.8355958763
31
0.0000000000
11
101.5723040595
21
-22.7536571429
31
0.0000000000
11
101.5693553225
21
-22.6777104825
31
0.0000000000
11
101.5658736950
21
-22.6096324008
31
0.0000000000
11
101.5619286800
21
-22.5510376489
31
0.0000000000
11
101.5576031592
21
-22.5032244287
31
0.0000000000
11
101.5529920101
21
-22.4671703686
31
0.0000000000
11
101.5481999673
21
-22.4434889171
31
0.0000000000
11
101.5433394995
21
-22.4323879852
31
0.0000000000
0
SPLINE
5
329
100
AcDbEntity
8
0
100
AcDbSpline
62
9
6
CONTINUOUS
70
0
71
3
72
15
73
11
74
9
42
0.0000001000
43
0.0000001000
44
0.0000000001
12
0.2867022681
22
0.2867714789
32
0.0000000000
13
0.0099034029
23
0.4053862285
33
0.0000000000
40
0.0000000000
40
0.0000000000
40
0.0000000000
40
0.0000000000
40
0.0298844692
40
0.0894677153
40
0.1791029613
40
0.2974941584
40
0.4423187344
40
0.6104219266
40
0.7978511222
40
1.0000000000
40
1.0000000000
40
1.0000000000
40
1.0000000000
10
101.5433394995
20
22.2970075435
30
0.0000000000
10
101.5461954812
20
22.2998642146
30
0.0000000000
10
101.5493251696
20
22.3123580071
30
0.0000000000
10
101.5540419262
20
22.3355348779
30
0.0000000000
10
101.5581821217
20
22.3717839983
30
0.0000000000
10
101.5624161568
20
22.4191695812
30
0.0000000000
10
101.5662124651
20
22.4773962785
30
0.0000000000
10
101.5696169801
20
22.5449296025
30
0.0000000000
10
101.5724982860
20
22.6202622685
30
0.0000000000
10
101.5740005160
20
22.6728993109
30
0.0000000000
10
101.5746678366
20
22.7002154346
30
0.0000000000
11
101.5433394995
21
22.2970075435
31
0.0000000000
11
101.5481999673
21
22.3081084744
31
0.0000000000
11
101.5529920101
21
22.3317899275
31
0.0000000000
11
101.5576031592
21
22.3678439867
31
0.0000000000
11
101.5619286800
21
22.4156572072
31
0.0000000000
11
101.5658736950
21
22.4742519593
31
0.0000000000
11
101.5693553225
21
22.5423300404
31
0.0000000000
11
101.5723040594
21
22.6182767017
31
0.0000000000
11
101.5746678366
21
22.7002154346
31
0.0000000000
0
SPLINE
5
32A
100
AcDbEntity
8
0
100
AcDbSpline
62
9
6
CONTINUOUS
70
0
71
3
72
13
73
9
74
7
42
0.0000001000
43
0.0000001000
44
0.0000000001
12
-44.8641172233
22
-2.2760955077
32
0.0000000000
13
-44.8641172125
23
2.2760957204
33
0.0000000000
40
0.0000000000
40
0.0000000000
40
0.0000000000
40
0.0000000000
40
0.1666025546
40
0.3332821670
40
0.5000002374
40
0.6667182429
40
0.8333976604
40
1.0000000000
40
1.0000000000
40
1.0000000000
40
1.0000000000
10
101.4304661316
20
-25.1921493099
30
0.0000000000
10
98.9389739513
20
-25.3185504186
30
0.0000000000
10
93.9526033787
20
-25.5294063110
30
0.0000000000
10
86.4677006061
20
-25.7193530084
30
0.0000000000
10
78.9789061346
20
-25.7827088338
30
0.0000000000
10
71.4901145839
20
-25.7193526996
30
0.0000000000
10
64.0052189266
20
-25.5294059352
30
0.0000000000
10
59.0188544887
20
-25.3185502672
30
0.0000000000
10
56.5273655249
20
-25.1921493099
30
0.0000000000
11
101.4304661316
21
-25.1921493099
31
0.0000000000
11
93.9530575215
21
-25.5083062325
31
0.0000000000
11
86.4679158420
21
-25.6982382874
31
0.0000000000
11
78.9789051629
21
-25.7615885471
31
0.0000000000
11
71.4898974030
21
-25.6982379765
31
0.0000000000
11
64.0047644802
21
-25.5083059049
31
0.0000000000
11
56.5273655249
21
-25.1921493099
31
0.0000000000
0
SPLINE
5
32B
100
AcDbEntity
8
0
100
AcDbSpline
62
9
6
CONTINUOUS
70
0
71
3
72
13
73
9
74
7
42
0.0000001000
43
0.0000001000
44
0.0000000001
12
47.0440483527
22
-2.4959342611
32
0.0000000000
13
47.0440483488
23
2.4959343344
33
0.0000000000
40
0.0000000000
40
0.0000000000
40
0.0000000000
40
0.0000000000
40
0.1667065514
40
0.3333590694
40
0.4999999634
40
0.6666408649
40
0.8332933592
40
1.0000000000
40
1.0000000000
40
1.0000000000
40
1.0000000000
10
55.4345314210
20
-26.6336226545
30
0.0000000000
10
58.0487151094
20
-26.7723188522
30
0.0000000000
10
63.2788039625
20
-27.0034734350
30
0.0000000000
10
71.1281374771
20
-27.2115295641
30
0.0000000000
10
78.9789142208
20
-27.2808676744
30
0.0000000000
10
86.8296905934
20
-27.2115296317
30
0.0000000000
10
94.6790252590
20
-27.0034735208
30
0.0000000000
10
99.9091151452
20
-26.7723189301
30
0.0000000000
10
102.5233002354
20
-26.6336226539
30
0.0000000000
11
55.4345314210
21
-26.6336226545
31
0.0000000000
11
63.2804530961
21
-26.9803934657
31
0.0000000000
11
71.1287322994
21
-27.1884174034
31
0.0000000000
11
78.9789141026
21
-27.2577555189
31
0.0000000000
11
86.8290962615
21
-27.1884174608
31
0.0000000000
11
94.6773743507
21
-26.9803936110
31
0.0000000000
11
102.5233002354
21
-26.6336226539
31
0.0000000000
0
SPLINE
5
32C
100
AcDbEntity
8
0
100
AcDbSpline
62
9
6
CONTINUOUS
70
0
71
3
72
12
73
8
74
6
42
0.0000001000
43
0.0000001000
44
0.0000000001
12
0.0044785891
22
0.1087279620
32
0.0000000000
13
-0.0249707476
23
0.1048477250
33
0.0000000000
40
0.0000000000
40
0.0000000000
40
0.0000000000
40
0.0000000000
40
0.2899687005
40
0.5783132388
40
0.8010836036
40
0.9479305093
40
1.0000000000
40
1.0000000000
40
1.0000000000
40
1.0000000000
10
55.4328754265
20
-26.7436801258
30
0.0000000000
10
55.4333083100
20
-26.7331708905
30
0.0000000000
10
55.4341179568
20
-26.7122076188
30
0.0000000000
10
55.4348820721
20
-26.6832141661
30
0.0000000000
10
55.4356475762
20
-26.6592382938
30
0.0000000000
10
55.4350012411
20
-26.6441751030
30
0.0000000000
10
55.4353687959
20
-26.6367088541
30
0.0000000000
10
55.4349353912
20
-26.6348890648
30
0.0000000000
11
55.4328754265
21
-26.7436801258
31
0.0000000000
11
55.4340553625
21
-26.7121569154
31
0.0000000000
11
55.4349787149
21
-26.6808007040
31
0.0000000000
11
55.4353739061
21
-26.6565681192
31
0.0000000000
11
55.4352224460
21
-26.6405929542
31
0.0000000000
11
55.4349353912
21
-26.6348890648
31
0.0000000000
0
SPLINE
5
32D
100
AcDbEntity
8
0
100
AcDbSpline
62
9
6
CONTINUOUS
70
0
71
3
72
8
73
4
74
2
42
0.0000001000
43
0.0000001000
44
0.0000000001
12
-0.0003074922
22
0.0012911052
32
0.0000000000
13
-0.0005080628
23
0.0012396080
33
0.0000000000
40
0.0000000000
40
0.0000000000
40
0.0000000000
40
0.0000000000
40
1.0000000000
40
1.0000000000
40
1.0000000000
40
1.0000000000
10
55.4349353912
20
-26.6348890648
30
0.0000000000
10
55.4348328938
20
-26.6344586964
30
0.0000000000
10
55.4347007753
20
-26.6340358572
30
0.0000000000
10
55.4345314210
20
-26.6336226545
30
0.0000000000
11
55.4349353912
21
-26.6348890648
31
0.0000000000
11
55.4345314210
21
-26.6336226545
31
0.0000000000
0
SPLINE
5
32E
100
AcDbEntity
8
0
100
AcDbSpline
62
9
6
CONTINUOUS
70
0
71
3
72
20
73
16
74
14
42
0.0000001000
43
0.0000001000
44
0.0000000001
12
-0.0007620909
22
-1.5143796333
32
0.0000000000
13
1.5123139241
23
-0.0790749618
33
0.0000000000
40
0.0000000000
40
0.0000000000
40
0.0000000000
40
0.0000000000
40
0.0759406812
40
0.1526691377
40
0.2298466517
40
0.3071163435
40
0.3841676417
40
0.4609975931
40
0.5377714098
40
0.6146503426
40
0.6917946000
40
0.7692162495
40
0.8466309649
40
0.9236760135
40
1.0000000000
40
1.0000000000
40
1.0000000000
40
1.0000000000
10
54.4885946657
20
-25.6378988170
30
0.0000000000
10
54.4885753745
20
-25.6762331574
30
0.0000000000
10
54.4929750090
20
-25.7533753552
30
0.0000000000
10
54.5129827695
20
-25.8679170971
30
0.0000000000
10
54.5464158782
20
-25.9800047400
30
0.0000000000
10
54.5928284475
20
-26.0875448771
30
0.0000000000
10
54.6514422087
20
-26.1887485457
30
0.0000000000
10
54.7213400738
20
-26.2821991278
30
0.0000000000
10
54.8016093544
20
-26.3667869760
30
0.0000000000
10
54.8913250889
20
-26.4415299957
30
0.0000000000
10
54.9894382152
20
-26.5054537942
30
0.0000000000
10
55.0946066849
20
-26.5575657945
30
0.0000000000
10
55.2051126518
20
-26.5969791541
30
0.0000000000
10
55.3189011195
20
-26.6231085178
30
0.0000000000
10
55.3960562042
20
-26.6316097971
30
0.0000000000
10
55.4345314800
20
-26.6336215692
30
0.0000000000
11
54.4885946657
21
-25.6378988170
31
0.0000000000
11
54.4951519185
21
-25.7527147594
31
0.0000000000
11
54.5151460093
21
-25.8671776481
31
0.0000000000
11
54.5485570393
21
-25.9791763930
31
0.0000000000
11
54.5949261038
21
-26.0866127700
31
0.0000000000
11
54.6534068310
21
-26.1875849333
31
0.0000000000
11
54.7230950486
21
-26.2807558067
31
0.0000000000
11
54.8031246424
21
-26.3650929219
31
0.0000000000
11
54.8925724756
21
-26.4396154740
31
0.0000000000
11
54.9904539352
21
-26.5033921599
31
0.0000000000
11
55.0955084314
21
-26.5554510372
31
0.0000000000
11
55.2059286300
21
-26.5948400124
31
0.0000000000
11
55.3196442912
21
-26.6209534772
31
0.0000000000
11
55.4345314800
21
-26.6336215692
31
0.0000000000
0
SPLINE
5
32F
100
AcDbEntity
8
0
100
AcDbSpline
62
9
6
CONTINUOUS
70
0
71
3
72
20
73
16
74
14
42
0.0000001000
43
0.0000001000
44
0.0000000001
12
-1.5123135593
22
-0.0790819217
32
0.0000000000
13
0.0007691032
23
-1.5143796289
33
0.0000000000
40
0.0000000000
40
0.0000000000
40
0.0000000000
40
0.0000000000
40
0.0762138109
40
0.1531857940
40
0.2305688586
40
0.3080009255
40
0.3851685348
40
0.4620619334
40
0.5388356042
40
0.6156505398
40
0.6926775651
40
0.7699363186
40
0.8471457669
40
0.9239480967
40
1.0000000000
40
1.0000000000
40
1.0000000000
40
1.0000000000
10
55.4345314634
20
26.4982414340
30
0.0000000000
10
55.3961117368
20
26.4962323891
30
0.0000000000
10
55.3190487665
20
26.4877476130
30
0.0000000000
10
55.2053608223
20
26.4616682818
30
0.0000000000
10
55.0948881863
20
26.4223041926
30
0.0000000000
10
54.9897020404
20
26.3702252898
30
0.0000000000
10
54.8915496142
20
26.3063167971
30
0.0000000000
10
54.8017993786
20
26.2315852647
30
0.0000000000
10
54.7215089077
20
26.1470180176
30
0.0000000000
10
54.6515982442
20
26.0536020587
30
0.0000000000
10
54.5929674622
20
25.9524378302
30
0.0000000000
10
54.5465208109
20
25.8449143049
30
0.0000000000
10
54.5130397845
20
25.7327906300
30
0.0000000000
10
54.4929868669
20
25.6181448536
30
0.0000000000
10
54.4885754798
20
25.5409088597
30
0.0000000000
10
54.4885949770
20
25.5025183753
30
0.0000000000
11
55.4345314634
21
26.4982414340
31
0.0000000000
11
55.3198090877
21
26.4856009685
31
0.0000000000
11
55.2061954390
21
26.4595376672
31
0.0000000000
11
55.0958085221
21
26.4201980691
31
0.0000000000
11
54.9907232992
21
26.3681656814
31
0.0000000000
11
54.8927935238
21
26.3043983787
31
0.0000000000
11
54.8033091490
21
26.2298854691
31
0.0000000000
11
54.7232583226
21
26.1455688118
31
0.0000000000
11
54.6535590042
21
26.0524346434
31
0.0000000000
11
54.5950668898
21
25.9515115598
31
0.0000000000
11
54.5486697400
21
25.8441053527
31
0.0000000000
11
54.5152106463
21
25.7320704851
31
0.0000000000
11
54.4951713285
21
25.6175019334
31
0.0000000000
11
54.4885949770
21
25.5025183753
31
0.0000000000
0
SPLINE
5
330
100
AcDbEntity
8
0
100
AcDbSpline
62
9
6
CONTINUOUS
70
0
71
3
72
12
73
8
74
6
42
0.0000001000
43
0.0000001000
44
0.0000000001
12
0.0044786375
22
-0.1087287326
32
0.0000000000
13
-0.0249708087
23
-0.1048485054
33
0.0000000000
40
0.0000000000
40
0.0000000000
40
0.0000000000
40
0.0000000000
40
0.2899703397
40
0.5783141248
40
0.8010839861
40
0.9479305994
40
1.0000000000
40
1.0000000000
40
1.0000000000
40
1.0000000000
10
55.4328754317
20
26.6082996843
30
0.0000000000
10
55.4333083224
20
26.5977903151
30
0.0000000000
10
55.4341179796
20
26.5768268626
30
0.0000000000
10
55.4348821048
20
26.5478331900
30
0.0000000000
10
55.4356476150
20
26.5238572050
30
0.0000000000
10
55.4350012822
20
26.5087939370
30
0.0000000000
10
55.4353688390
20
26.5013276515
30
0.0000000000
10
55.4349354340
20
26.4995078519
30
0.0000000000
11
55.4328754317
21
26.6082996843
31
0.0000000000
11
55.4340553874
21
26.5767760721
31
0.0000000000
11
55.4349787480
21
26.5454197201
31
0.0000000000
11
55.4353739451
21
26.5211870182
31
0.0000000000
11
55.4352224881
21
26.5052117716
31
0.0000000000
11
55.4349354340
21
26.4995078519
31
0.0000000000
0
SPLINE
5
331
100
AcDbEntity
8
0
100
AcDbSpline
62
9
6
CONTINUOUS
70
0
71
3
72
8
73
4
74
2
42
0.0000001000
43
0.0000001000
44
0.0000000001
12
-0.0003074925
22
-0.0012911126
32
0.0000000000
13
-0.0005080634
23
-0.0012396156
33
0.0000000000
40
0.0000000000
40
0.0000000000
40
0.0000000000
40
0.0000000000
40
1.0000000000
40
1.0000000000
40
1.0000000000
40
1.0000000000
10
55.4349354340
20
26.4995078519
30
0.0000000000
10
55.4348329365
20
26.4990774810
30
0.0000000000
10
55.4347008178
20
26.4986546392
30
0.0000000000
10
55.4345314634
20
26.4982414340
30
0.0000000000
11
55.4349354340
21
26.4995078519
31
0.0000000000
11
55.4345314634
21
26.4982414340
31
0.0000000000
0
SPLINE
5
332
100
AcDbEntity
8
0
100
AcDbSpline
62
9
6
CONTINUOUS
70
0
71
3
72
13
73
9
74
7
42
0.0000001000
43
0.0000001000
44
0.0000000001
12
-47.0440483527
22
2.4959342611
32
0.0000000000
13
-47.0440483488
23
-2.4959343344
33
0.0000000000
40
0.0000000000
40
0.0000000000
40
0.0000000000
40
0.0000000000
40
0.1667065767
40
0.3333590854
40
0.4999999827
40
0.6666408809
40
0.8332933845
40
1.0000000000
40
1.0000000000
40
1.0000000000
40
1.0000000000
10
102.5233002354
20
26.4982422128
30
0.0000000000
10
99.9091161504
20
26.6369384316
30
0.0000000000
10
94.6790270458
20
26.8680930184
30
0.0000000000
10
86.8296932280
20
27.0761491384
30
0.0000000000
10
78.9789166296
20
27.1454872327
30
0.0000000000
10
71.1281401106
20
27.0761491740
30
0.0000000000
10
63.2788057481
20
26.8680930539
30
0.0000000000
10
58.0487161138
20
26.6369384673
30
0.0000000000
10
55.4345314211
20
26.4982422122
30
0.0000000000
11
102.5233002354
21
26.4982422128
31
0.0000000000
11
94.6773773696
21
26.8450130661
31
0.0000000000
11
86.8290986031
21
27.0530369750
31
0.0000000000
11
78.9789166452
21
27.1223750772
31
0.0000000000
11
71.1287346399
21
27.0530370058
31
0.0000000000
11
63.2804561126
21
26.8450131271
31
0.0000000000
11
55.4345314211
21
26.4982422122
31
0.0000000000
0
SPLINE
5
333
100
AcDbEntity
8
0
100
AcDbSpline
62
9
6
CONTINUOUS
70
0
71
3
72
12
73
8
74
6
42
0.0000001000
43
0.0000001000
44
0.0000000001
12
-0.0044785891
22
-0.1087279620
32
0.0000000000
13
0.0249707476
23
-0.1048477250
33
0.0000000000
40
0.0000000000
40
0.0000000000
40
0.0000000000
40
0.0000000000
40
0.2899687005
40
0.5783132388
40
0.8010836036
40
0.9479305093
40
1.0000000000
40
1.0000000000
40
1.0000000000
40
1.0000000000
10
102.5249562299
20
26.6082996840
30
0.0000000000
10
102.5245233464
20
26.5977904488
30
0.0000000000
10
102.5237136996
20
26.5768271771
30
0.0000000000
10
102.5229495844
20
26.5478337244
30
0.0000000000
10
102.5221840802
20
26.5238578521
30
0.0000000000
10
102.5228304153
20
26.5087946613
30
0.0000000000
10
102.5224628605
20
26.5013284123
30
0.0000000000
10
102.5228962652
20
26.4995086231
30
0.0000000000
11
102.5249562299
21
26.6082996840
31
0.0000000000
11
102.5237762940
21
26.5767764737
31
0.0000000000
11
102.5228529416
21
26.5454202623
31
0.0000000000
11
102.5224577503
21
26.5211876775
31
0.0000000000
11
102.5226092105
21
26.5052125125
31
0.0000000000
11
102.5228962652
21
26.4995086231
31
0.0000000000
0
SPLINE
5
334
100
AcDbEntity
8
0
100
AcDbSpline
62
9
6
CONTINUOUS
70
0
71
3
72
8
73
4
74
2
42
0.0000001000
43
0.0000001000
44
0.0000000001
12
0.0003074922
22
-0.0012911052
32
0.0000000000
13
0.0005080628
23
-0.0012396080
33
0.0000000000
40
0.0000000000
40
0.0000000000
40
0.0000000000
40
0.0000000000
40
1.0000000000
40
1.0000000000
40
1.0000000000
40
1.0000000000
10
102.5228962652
20
26.4995086231
30
0.0000000000
10
102.5229987626
20
26.4990782547
30
0.0000000000
10
102.5231308812
20
26.4986554155
30
0.0000000000
10
102.5233002354
20
26.4982422128
30
0.0000000000
11
102.5228962652
21
26.4995086231
31
0.0000000000
11
102.5233002354
21
26.4982422128
31
0.0000000000
0
SPLINE
5
335
100
AcDbEntity
8
0
100
AcDbSpline
62
9
6
CONTINUOUS
70
0
71
3
72
20
73
16
74
14
42
0.0000001000
43
0.0000001000
44
0.0000000001
12
0.0007690754
22
1.5143796290
32
0.0000000000
13
-1.5123135598
23
0.0790819123
33
0.0000000000
40
0.0000000000
40
0.0000000000
40
0.0000000000
40
0.0000000000
40
0.0760519355
40
0.1528542569
40
0.2300637071
40
0.3073224599
40
0.3843494849
40
0.4611644202
40
0.5379380908
40
0.6148314893
40
0.6919990983
40
0.7694311654
40
0.8468142282
40
0.9237862176
40
1.0000000000
40
1.0000000000
40
1.0000000000
40
1.0000000000
10
103.4692366808
20
25.5025183753
30
0.0000000000
10
103.4692561773
20
25.5409088760
30
0.0000000000
10
103.4648447885
20
25.6181448820
30
0.0000000000
10
103.4447918610
20
25.7327906698
30
0.0000000000
10
103.4113108334
20
25.8449143405
30
0.0000000000
10
103.3648641768
20
25.9524378640
30
0.0000000000
10
103.3062333917
20
26.0536020900
30
0.0000000000
10
103.2363227248
20
26.1470180459
30
0.0000000000
10
103.1560322511
20
26.2315852898
30
0.0000000000
10
103.0662820129
20
26.3063168187
30
0.0000000000
10
102.9681295846
20
26.3702253079
30
0.0000000000
10
102.8629434375
20
26.4223042059
30
0.0000000000
10
102.7524707982
20
26.4616682932
30
0.0000000000
10
102.6387828645
20
26.4877476161
30
0.0000000000
10
102.5617199052
20
26.4962323885
30
0.0000000000
10
102.5233001930
20
26.4982414324
30
0.0000000000
11
103.4692366808
21
25.5025183753
31
0.0000000000
11
103.4626603231
21
25.6175019820
31
0.0000000000
11
103.4426210014
21
25.7320705200
31
0.0000000000
11
103.4091619033
21
25.8441053893
31
0.0000000000
11
103.3627647497
21
25.9515115935
31
0.0000000000
11
103.3042726316
21
26.0524346746
31
0.0000000000
11
103.2345733100
21
26.1455688400
31
0.0000000000
11
103.1545224807
21
26.2298854942
31
0.0000000000
11
103.0650381034
21
26.3043984003
31
0.0000000000
11
102.9671083260
21
26.3681656993
31
0.0000000000
11
102.8620231009
21
26.4201980831
31
0.0000000000
11
102.7516361854
21
26.4595376770
31
0.0000000000
11
102.6380225262
21
26.4856009752
31
0.0000000000
11
102.5233001930
21
26.4982414324
31
0.0000000000
0
SPLINE
5
336
100
AcDbEntity
8
0
100
AcDbSpline
62
9
6
CONTINUOUS
70
0
71
3
72
20
73
16
74
14
42
0.0000001000
43
0.0000001000
44
0.0000000001
12
1.5123135593
22
0.0790819217
32
0.0000000000
13
-0.0007691032
23
1.5143796289
33
0.0000000000
40
0.0000000000
40
0.0000000000
40
0.0000000000
40
0.0000000000
40
0.0762138109
40
0.1531857940
40
0.2305688586
40
0.3080009255
40
0.3851685348
40
0.4620619334
40
0.5388356042
40
0.6156505398
40
0.6926775651
40
0.7699363186
40
0.8471457669
40
0.9239480967
40
1.0000000000
40
1.0000000000
40
1.0000000000
40
1.0000000000
10
102.5233001931
20
-26.6336218757
30
0.0000000000
10
102.5617199196
20
-26.6316128309
30
0.0000000000
10
102.6387828900
20
-26.6231280548
30
0.0000000000
10
102.7524708341
20
-26.5970487235
30
0.0000000000
10
102.8629434702
20
-26.5576846343
30
0.0000000000
10
102.9681296160
20
-26.5056057315
30
0.0000000000
10
103.0662820422
20
-26.4416972389
30
0.0000000000
10
103.1560322778
20
-26.3669657064
30
0.0000000000
10
103.2363227488
20
-26.2823984594
30
0.0000000000
10
103.3062334122
20
-26.1889825004
30
0.0000000000
10
103.3648641943
20
-26.0878182719
30
0.0000000000
10
103.4113108455
20
-25.9802947467
30
0.0000000000
10
103.4447918720
20
-25.8681710717
30
0.0000000000
10
103.4648447896
20
-25.7535252953
30
0.0000000000
10
103.4692561767
20
-25.6762893014
30
0.0000000000
10
103.4692366794
20
-25.6378988170
30
0.0000000000
11
102.5233001931
21
-26.6336218757
31
0.0000000000
11
102.6380225688
21
-26.6209814103
31
0.0000000000
11
102.7516362174
21
-26.5949181090
31
0.0000000000
11
102.8620231343
21
-26.5555785108
31
0.0000000000
11
102.9671083573
21
-26.5035461231
31
0.0000000000
11
103.0650381327
21
-26.4397788205
31
0.0000000000
11
103.1545225074
21
-26.3652659108
31
0.0000000000
11
103.2345733338
21
-26.2809492535
31
0.0000000000
11
103.3042726522
21
-26.1878150851
31
0.0000000000
11
103.3627647667
21
-26.0868920016
31
0.0000000000
11
103.4091619164
21
-25.9794857944
31
0.0000000000
11
103.4426210102
21
-25.8674509268
31
0.0000000000
11
103.4626603279
21
-25.7528823751
31
0.0000000000
11
103.4692366794
21
-25.6378988170
31
0.0000000000
0
SPLINE
5
337
100
AcDbEntity
8
0
100
AcDbSpline
62
9
6
CONTINUOUS
70
0
71
3
72
12
73
8
74
6
42
0.0000001000
43
0.0000001000
44
0.0000000001
12
-0.0044786375
22
0.1087287326
32
0.0000000000
13
0.0249708087
23
0.1048485054
33
0.0000000000
40
0.0000000000
40
0.0000000000
40
0.0000000000
40
0.0000000000
40
0.2899703397
40
0.5783141248
40
0.8010839861
40
0.9479305994
40
1.0000000000
40
1.0000000000
40
1.0000000000
40
1.0000000000
10
102.5249562247
20
-26.7436801260
30
0.0000000000
10
102.5245233340
20
-26.7331707568
30
0.0000000000
10
102.5237136769
20
-26.7122073043
30
0.0000000000
10
102.5229495517
20
-26.6832136317
30
0.0000000000
10
102.5221840415
20
-26.6592376467
30
0.0000000000
10
102.5228303742
20
-26.6441743787
30
0.0000000000
10
102.5224628175
20
-26.6367080932
30
0.0000000000
10
102.5228962225
20
-26.6348882936
30
0.0000000000
11
102.5249562247
21
-26.7436801260
31
0.0000000000
11
102.5237762690
21
-26.7121565138
31
0.0000000000
11
102.5228529084
21
-26.6808001618
31
0.0000000000
11
102.5224577114
21
-26.6565674599
31
0.0000000000
11
102.5226091684
21
-26.6405922133
31
0.0000000000
11
102.5228962225
21
-26.6348882936
31
0.0000000000
0
SPLINE
5
338
100
AcDbEntity
8
0
100
AcDbSpline
62
9
6
CONTINUOUS
70
0
71
3
72
8
73
4
74
2
42
0.0000001000
43
0.0000001000
44
0.0000000001
12
0.0003074925
22
0.0012911126
32
0.0000000000
13
0.0005080634
23
0.0012396156
33
0.0000000000
40
0.0000000000
40
0.0000000000
40
0.0000000000
40
0.0000000000
40
1.0000000000
40
1.0000000000
40
1.0000000000
40
1.0000000000
10
102.5228962225
20
-26.6348882936
30
0.0000000000
10
102.5229987200
20
-26.6344579227
30
0.0000000000
10
102.5231308386
20
-26.6340350809
30
0.0000000000
10
102.5233001931
20
-26.6336218757
30
0.0000000000
11
102.5228962225
21
-26.6348882936
31
0.0000000000
11
102.5233001931
21
-26.6336218757
31
0.0000000000
0
SPLINE
5
339
100
AcDbEntity
8
0
100
AcDbSpline
62
9
6
CONTINUOUS
70
0
71
3
72
24
73
20
74
18
42
0.0000001000
43
0.0000001000
44
0.0000000001
12
1.0630675952
22
-0.0546727054
32
0.0000000000
13
-0.0000108347
23
-1.0644725532
33
0.0000000000
40
0.0000000000
40
0.0000000000
40
0.0000000000
40
0.0000000000
40
0.0283278013
40
0.0587763217
40
0.0912822362
40
0.1263723651
40
0.1649019786
40
0.2073438769
40
0.2534986755
40
0.3028299063
40
0.3557224267
40
0.4128119253
40
0.4747877415
40
0.5423968407
40
0.6166158261
40
0.6985133531
40
0.7890587066
40
0.8891294515
40
1.0000000000
40
1.0000000000
40
1.0000000000
40
1.0000000000
10
101.4351962591
20
25.1412925205
30
0.0000000000
10
101.4452343816
20
25.1407762680
30
0.0000000000
10
101.4660101130
20
25.1378506627
30
0.0000000000
10
101.4969381705
20
25.1277206055
30
0.0000000000
10
101.5278905685
20
25.1115267275
30
0.0000000000
10
101.5584264968
20
25.0892913445
30
0.0000000000
10
101.5884034053
20
25.0609114276
30
0.0000000000
10
101.6175520819
20
25.0263811674
30
0.0000000000
10
101.6454191868
20
24.9860710806
30
0.0000000000
10
101.6717136771
20
24.9404003246
30
0.0000000000
10
101.6963644940
20
24.8894832814
30
0.0000000000
10
101.7194306128
20
24.8329567862
30
0.0000000000
10
101.7408936001
20
24.7702583813
30
0.0000000000
10
101.7606321603
20
24.7006561809
30
0.0000000000
10
101.7783954092
20
24.6232521965
30
0.0000000000
10
101.7937533923
20
24.5370533868
30
0.0000000000
10
101.8060490440
20
24.4411042658
30
0.0000000000
10
101.8143783389
20
24.3344117918
30
0.0000000000
10
101.8163503757
20
24.2595481482
30
0.0000000000
10
101.8163499753
20
24.2202085962
30
0.0000000000
11
101.4351962591
21
25.1412925205
31
0.0000000000
11
101.4650604423
21
25.1371206691
31
0.0000000000
11
101.4959005967
21
25.1271508336
31
0.0000000000
11
101.5266376243
21
25.1112602836
31
0.0000000000
11
101.5569442904
21
25.0894265096
31
0.0000000000
11
101.5868613240
21
25.0613712783
31
0.0000000000
11
101.6161467576
21
25.0269701682
31
0.0000000000
11
101.6442234926
21
24.9866526214
31
0.0000000000
11
101.6705473962
21
24.9412154663
31
0.0000000000
11
101.6951912498
21
24.8905926717
31
0.0000000000
11
101.7182506242
21
24.8343673840
31
0.0000000000
11
101.7397086776
21
24.7719831066
31
0.0000000000
11
101.7594294848
21
24.7027697613
31
0.0000000000
11
101.7771811856
21
24.6257858627
31
0.0000000000
11
101.7925481340
21
24.5399732588
31
0.0000000000
11
101.8048669277
21
24.4443806941
31
0.0000000000
11
101.8132122135
21
24.3381855329
31
0.0000000000
11
101.8163499753
21
24.2202085962
31
0.0000000000
0
SPLINE
5
33A
100
AcDbEntity
8
0
100
AcDbSpline
62
9
6
CONTINUOUS
70
0
71
3
72
13
73
9
74
7
42
0.0000001000
43
0.0000001000
44
0.0000000001
12
44.8735856450
22
2.2760965530
32
0.0000000000
13
44.8735856558
23
-2.2760963388
33
0.0000000000
40
0.0000000000
40
0.0000000000
40
0.0000000000
40
0.0000000000
40
0.1666023167
40
0.3332817323
40
0.4999997559
40
0.6667178445
40
0.8333974550
40
1.0000000000
40
1.0000000000
40
1.0000000000
40
1.0000000000
10
56.5226353973
20
25.1412925205
30
0.0000000000
10
59.0146498404
20
25.2676935068
30
0.0000000000
10
64.0020653256
20
25.4785491808
30
0.0000000000
10
71.4885373713
20
25.6684959155
30
0.0000000000
10
78.9789058330
20
25.7318520405
30
0.0000000000
10
86.4692772171
20
25.6684962345
30
0.0000000000
10
93.9557565798
20
25.4785495718
30
0.0000000000
10
98.9431784005
20
25.2676936681
30
0.0000000000
10
101.4351962591
20
25.1412925205
30
0.0000000000
11
56.5226353973
21
25.1412925205
31
0.0000000000
11
64.0016101762
21
25.4574491315
31
0.0000000000
11
71.4883196923
21
25.6473811886
31
0.0000000000
11
78.9789048607
21
25.7107317578
31
0.0000000000
11
86.4694929503
21
25.6473815096
31
0.0000000000
11
93.9562112280
21
25.4574494793
31
0.0000000000
11
101.4351962591
21
25.1412925205
31
0.0000000000
0
SPLINE
5
33B
100
AcDbEntity
8
0
100
AcDbSpline
62
9
6
CONTINUOUS
70
0
71
3
72
25
73
21
74
19
42
0.0000001000
43
0.0000001000
44
0.0000000001
12
-0.0000003003
22
1.0645086382
32
0.0000000000
13
1.0631108975
23
0.0545331129
33
0.0000000000
40
0.0000000000
40
0.0000000000
40
0.0000000000
40
0.0000000000
40
0.1070494498
40
0.2037824536
40
0.2913430007
40
0.3706864596
40
0.4428711476
40
0.5089357962
40
0.5696712918
40
0.6256580455
40
0.6774552272
40
0.7255599233
40
0.7701970659
40
0.8111287335
40
0.8485357798
40
0.8829707503
40
0.9151682756
40
0.9454869869
40
0.9737344283
40
1.0000000000
40
1.0000000000
40
1.0000000000
40
1.0000000000
10
56.1414816811
20
24.2202085962
30
0.0000000000
10
56.1414816704
20
24.2581936176
30
0.0000000000
10
56.1433202406
20
24.3305179170
30
0.0000000000
10
56.1510892788
20
24.4336427768
30
0.0000000000
10
56.1625558745
20
24.5265205900
30
0.0000000000
10
56.1768821853
20
24.6101706404
30
0.0000000000
10
56.1934788945
20
24.6856050987
30
0.0000000000
10
56.2119599295
20
24.7537799109
30
0.0000000000
10
56.2320739762
20
24.8154722867
30
0.0000000000
10
56.2536544545
20
24.8712725082
30
0.0000000000
10
56.2766058725
20
24.9216392445
30
0.0000000000
10
56.3008712209
20
24.9668690537
30
0.0000000000
10
56.3263102636
20
25.0069590476
30
0.0000000000
10
56.3526943898
20
25.0417863913
30
0.0000000000
10
56.3797966482
20
25.0713182400
30
0.0000000000
10
56.4075940349
20
25.0957345822
30
0.0000000000
10
56.4361248184
20
25.1151346195
30
0.0000000000
10
56.4651606315
20
25.1293526477
30
0.0000000000
10
56.4940569822
20
25.1382284617
30
0.0000000000
10
56.5133276588
20
25.1408150727
30
0.0000000000
10
56.5226353973
20
25.1412925205
30
0.0000000000
11
56.1414816811
21
24.2202085962
31
0.0000000000
11
56.1444055218
21
24.3341261443
31
0.0000000000
11
56.1521882737
21
24.4368047294
31
0.0000000000
11
56.1636678351
21
24.5293040790
31
0.0000000000
11
56.1779905720
21
24.6125426183
31
0.0000000000
11
56.1945714426
21
24.6875736014
31
0.0000000000
11
56.2130456909
21
24.7554300908
31
0.0000000000
11
56.2331659696
21
24.8168731070
31
0.0000000000
11
56.2547484687
21
24.8724263515
31
0.0000000000
11
56.2777041254
21
24.9225591475
31
0.0000000000
11
56.3020129312
21
24.9676293965
31
0.0000000000
11
56.3275798703
21
25.0076813774
31
0.0000000000
11
56.3540018731
21
25.0423282656
31
0.0000000000
11
56.3810340050
21
25.0715670430
31
0.0000000000
11
56.4086740786
21
25.0956442603
31
0.0000000000
11
56.4371026579
21
25.1147900231
31
0.0000000000
11
56.4661485436
21
25.1288606243
31
0.0000000000
11
56.4949205170
21
25.1375988804
31
0.0000000000
11
56.5226353973
21
25.1412925205
31
0.0000000000
0
SPLINE
5
33C
100
AcDbEntity
8
0
100
AcDbSpline
62
9
6
CONTINUOUS
70
0
71
3
72
24
73
20
74
18
42
0.0000001000
43
0.0000001000
44
0.0000000001
12
-1.0630675952
22
0.0546727054
32
0.0000000000
13
0.0000108347
23
1.0644725532
33
0.0000000000
40
0.0000000000
40
0.0000000000
40
0.0000000000
40
0.0000000000
40
0.0283278013
40
0.0587763217
40
0.0912822362
40
0.1263723651
40
0.1649019786
40
0.2073438769
40
0.2534986755
40
0.3028299063
40
0.3557224267
40
0.4128119253
40
0.4747877415
40
0.5423968407
40
0.6166158261
40
0.6985133531
40
0.7890587066
40
0.8891294515
40
1.0000000000
40
1.0000000000
40
1.0000000000
40
1.0000000000
10
56.5226353973
20
-25.2766729622
30
0.0000000000
10
56.5125972748
20
-25.2761567097
30
0.0000000000
10
56.4918215434
20
-25.2732311044
30
0.0000000000
10
56.4608934859
20
-25.2631010472
30
0.0000000000
10
56.4299410879
20
-25.2469071692
30
0.0000000000
10
56.3994051597
20
-25.2246717862
30
0.0000000000
10
56.3694282511
20
-25.1962918693
30
0.0000000000
10
56.3402795746
20
-25.1617616091
30
0.0000000000
10
56.3124124696
20
-25.1214515224
30
0.0000000000
10
56.2861179793
20
-25.0757807663
30
0.0000000000
10
56.2614671625
20
-25.0248637231
30
0.0000000000
10
56.2384010436
20
-24.9683372279
30
0.0000000000
10
56.2169380563
20
-24.9056388230
30
0.0000000000
10
56.1971994962
20
-24.8360366226
30
0.0000000000
10
56.1794362472
20
-24.7586326383
30
0.0000000000
10
56.1640782641
20
-24.6724338285
30
0.0000000000
10
56.1517826124
20
-24.5764847076
30
0.0000000000
10
56.1434533175
20
-24.4697922335
30
0.0000000000
10
56.1414812807
20
-24.3949285899
30
0.0000000000
10
56.1414816811
20
-24.3555890380
30
0.0000000000
11
56.5226353973
21
-25.2766729622
31
0.0000000000
11
56.4927712141
21
-25.2725011108
31
0.0000000000
11
56.4619310598
21
-25.2625312753
31
0.0000000000
11
56.4311940321
21
-25.2466407253
31
0.0000000000
11
56.4008873661
21
-25.2248069513
31
0.0000000000
11
56.3709703325
21
-25.1967517200
31
0.0000000000
11
56.3416848989
21
-25.1623506099
31
0.0000000000
11
56.3136081639
21
-25.1220330631
31
0.0000000000
11
56.2872842602
21
-25.0765959080
31
0.0000000000
11
56.2626404067
21
-25.0259731134
31
0.0000000000
11
56.2395810322
21
-24.9697478257
31
0.0000000000
11
56.2181229788
21
-24.9073635484
31
0.0000000000
11
56.1984021717
21
-24.8381502030
31
0.0000000000
11
56.1806504708
21
-24.7611663045
31
0.0000000000
11
56.1652835224
21
-24.6753537005
31
0.0000000000
11
56.1529647287
21
-24.5797611358
31
0.0000000000
11
56.1446194430
21
-24.4735659746
31
0.0000000000
11
56.1414816811
21
-24.3555890380
31
0.0000000000
0
SPLINE
5
33D
100
AcDbEntity
8
0
100
AcDbSpline
62
9
6
CONTINUOUS
70
0
71
3
72
13
73
9
74
7
42
0.0000001000
43
0.0000001000
44
0.0000000001
12
-44.8735856558
22
-2.2760963395
32
0.0000000000
13
-44.8735856450
23
2.2760965524
33
0.0000000000
40
0.0000000000
40
0.0000000000
40
0.0000000000
40
0.0000000000
40
0.1666025450
40
0.3332821555
40
0.5000002441
40
0.6667182677
40
0.8333976833
40
1.0000000000
40
1.0000000000
40
1.0000000000
40
1.0000000000
10
101.4351962591
20
-25.2766729622
30
0.0000000000
10
98.9431784005
20
-25.4030741098
30
0.0000000000
10
93.9557565798
20
-25.6139300135
30
0.0000000000
10
86.4692772171
20
-25.8038766762
30
0.0000000000
10
78.9789058330
20
-25.8672324822
30
0.0000000000
10
71.4885373713
20
-25.8038763572
30
0.0000000000
10
64.0020653256
20
-25.6139296226
30
0.0000000000
10
59.0146498404
20
-25.4030739485
30
0.0000000000
10
56.5226353973
20
-25.2766729622
30
0.0000000000
11
101.4351962591
21
-25.2766729622
31
0.0000000000
11
93.9562112280
21
-25.5928299210
31
0.0000000000
11
86.4694929503
21
-25.7827619514
31
0.0000000000
11
78.9789048607
21
-25.8461121995
31
0.0000000000
11
71.4883196923
21
-25.7827616303
31
0.0000000000
11
64.0016101762
21
-25.5928295732
31
0.0000000000
11
56.5226353973
21
-25.2766729622
31
0.0000000000
0
SPLINE
5
33E
100
AcDbEntity
8
0
100
AcDbSpline
62
9
6
CONTINUOUS
70
0
71
3
72
24
73
20
74
18
42
0.0000001000
43
0.0000001000
44
0.0000000001
12
0.0000108392
22
-1.0644725532
32
0.0000000000
13
-1.0630675969
23
-0.0546726718
33
0.0000000000
40
0.0000000000
40
0.0000000000
40
0.0000000000
40
0.0000000000
40
0.1108705485
40
0.2109412934
40
0.3014866469
40
0.3833841740
40
0.4576031593
40
0.5252122585
40
0.5871880747
40
0.6442775733
40
0.6971700937
40
0.7465013245
40
0.7926561231
40
0.8350980214
40
0.8736276349
40
0.9087177638
40
0.9412236783
40
0.9716721987
40
1.0000000000
40
1.0000000000
40
1.0000000000
40
1.0000000000
10
101.8163499753
20
-24.3555890380
30
0.0000000000
10
101.8163503759
20
-24.3949285899
30
0.0000000000
10
101.8143783390
20
-24.4697922335
30
0.0000000000
10
101.8060490440
20
-24.5764847076
30
0.0000000000
10
101.7937533923
20
-24.6724338285
30
0.0000000000
10
101.7783954092
20
-24.7586326383
30
0.0000000000
10
101.7606321603
20
-24.8360366226
30
0.0000000000
10
101.7408936001
20
-24.9056388230
30
0.0000000000
10
101.7194306128
20
-24.9683372279
30
0.0000000000
10
101.6963644940
20
-25.0248637231
30
0.0000000000
10
101.6717136771
20
-25.0757807663
30
0.0000000000
10
101.6454191868
20
-25.1214515224
30
0.0000000000
10
101.6175520819
20
-25.1617616091
30
0.0000000000
10
101.5884034053
20
-25.1962918693
30
0.0000000000
10
101.5584264968
20
-25.2246717862
30
0.0000000000
10
101.5278905685
20
-25.2469071691
30
0.0000000000
10
101.4969381706
20
-25.2631010475
30
0.0000000000
10
101.4660101129
20
-25.2732311039
30
0.0000000000
10
101.4452343816
20
-25.2761567100
30
0.0000000000
10
101.4351962591
20
-25.2766729622
30
0.0000000000
11
101.8163499753
21
-24.3555890380
31
0.0000000000
11
101.8132122135
21
-24.4735659746
31
0.0000000000
11
101.8048669277
21
-24.5797611358
31
0.0000000000
11
101.7925481340
21
-24.6753537005
31
0.0000000000
11
101.7771811856
21
-24.7611663045
31
0.0000000000
11
101.7594294848
21
-24.8381502030
31
0.0000000000
11
101.7397086776
21
-24.9073635484
31
0.0000000000
11
101.7182506242
21
-24.9697478257
31
0.0000000000
11
101.6951912498
21
-25.0259731134
31
0.0000000000
11
101.6705473962
21
-25.0765959080
31
0.0000000000
11
101.6442234926
21
-25.1220330631
31
0.0000000000
11
101.6161467576
21
-25.1623506099
31
0.0000000000
11
101.5868613240
21
-25.1967517200
31
0.0000000000
11
101.5569442904
21
-25.2248069513
31
0.0000000000
11
101.5266376243
21
-25.2466407253
31
0.0000000000
11
101.4959005967
21
-25.2625312754
31
0.0000000000
11
101.4650604423
21
-25.2725011107
31
0.0000000000
11
101.4351962591
21
-25.2766729622
31
0.0000000000
0
SPLINE
5
33F
100
AcDbEntity
8
0
100
AcDbSpline
62
9
6
CONTINUOUS
70
0
71
3
72
10
73
6
74
4
42
0.0000001000
43
0.0000001000
44
0.0000000001
12
0.0042869696
22
-0.0845476595
32
0.0000000000
13
0.0052188248
23
-0.0844952584
33
0.0000000000
40
0.0000000000
40
0.0000000000
40
0.0000000000
40
0.0000000000
40
0.3428980561
40
0.6785993827
40
1.0000000000
40
1.0000000000
40
1.0000000000
40
1.0000000000
10
56.5226353974
20
25.1412925205
30
0.0000000000
10
56.5231253952
20
25.1316287778
30
0.0000000000
10
56.5241277166
20
25.1125057502
30
0.0000000000
10
56.5257028366
20
25.0843309337
30
0.0000000000
10
56.5268064137
20
25.0658211442
30
0.0000000000
10
56.5273655249
20
25.0567688681
30
0.0000000000
11
56.5226353974
21
25.1412925205
31
0.0000000000
11
56.5241553398
21
25.1123038682
31
0.0000000000
11
56.5257432568
21
25.0839290414
31
0.0000000000
11
56.5273655249
21
25.0567688681
31
0.0000000000
0
SPLINE
5
340
100
AcDbEntity
8
0
100
AcDbSpline
62
9
6
CONTINUOUS
70
0
71
3
72
10
73
6
74
4
42
0.0000001000
43
0.0000001000
44
0.0000000001
12
0.0042874675
22
0.0845477411
32
0.0000000000
13
0.0052182768
23
0.0844953992
33
0.0000000000
40
0.0000000000
40
0.0000000000
40
0.0000000000
40
0.0000000000
40
0.3428981209
40
0.6785995408
40
1.0000000000
40
1.0000000000
40
1.0000000000
40
1.0000000000
10
56.5226354207
20
-25.2766729622
30
0.0000000000
10
56.5231254755
20
-25.2670092083
30
0.0000000000
10
56.5241278685
20
-25.2478861559
30
0.0000000000
10
56.5257029775
20
-25.2197113033
30
0.0000000000
10
56.5268064727
20
-25.2012014875
30
0.0000000000
10
56.5273655249
20
-25.1921492008
30
0.0000000000
11
56.5226354207
21
-25.2766729622
31
0.0000000000
11
56.5241554723
21
-25.2476842735
31
0.0000000000
11
56.5257433785
21
-25.2193094023
31
0.0000000000
11
56.5273655249
21
-25.1921492008
31
0.0000000000
0
SPLINE
5
341
100
AcDbEntity
8
0
100
AcDbSpline
62
9
6
CONTINUOUS
70
0
71
3
72
10
73
6
74
4
42
0.0000001000
43
0.0000001000
44
0.0000000001
12
-0.0042869697
22
0.0845476595
32
0.0000000000
13
-0.0052188248
23
0.0844952584
33
0.0000000000
40
0.0000000000
40
0.0000000000
40
0.0000000000
40
0.0000000000
40
0.3428980558
40
0.6785993824
40
1.0000000000
40
1.0000000000
40
1.0000000000
40
1.0000000000
10
101.4351962591
20
-25.2766729622
30
0.0000000000
10
101.4347062612
20
-25.2670092195
30
0.0000000000
10
101.4337039399
20
-25.2478861919
30
0.0000000000
10
101.4321288198
20
-25.2197113754
30
0.0000000000
10
101.4310252427
20
-25.2012015859
30
0.0000000000
10
101.4304661316
20
-25.1921493099
30
0.0000000000
11
101.4351962591
21
-25.2766729622
31
0.0000000000
11
101.4336763167
21
-25.2476843099
31
0.0000000000
11
101.4320883996
21
-25.2193094832
31
0.0000000000
11
101.4304661316
21
-25.1921493099
31
0.0000000000
0
SPLINE
5
342
100
AcDbEntity
8
0
100
AcDbSpline
62
9
6
CONTINUOUS
70
0
71
3
72
10
73
6
74
4
42
0.0000001000
43
0.0000001000
44
0.0000000001
12
-0.0042874675
22
-0.0845477411
32
0.0000000000
13
-0.0052182768
23
-0.0844953992
33
0.0000000000
40
0.0000000000
40
0.0000000000
40
0.0000000000
40
0.0000000000
40
0.3428981209
40
0.6785995408
40
1.0000000000
40
1.0000000000
40
1.0000000000
40
1.0000000000
10
101.4351962358
20
25.1412925205
30
0.0000000000
10
101.4347061809
20
25.1316287666
30
0.0000000000
10
101.4337037879
20
25.1125057142
30
0.0000000000
10
101.4321286789
20
25.0843308616
30
0.0000000000
10
101.4310251837
20
25.0658210458
30
0.0000000000
10
101.4304661315
20
25.0567687591
30
0.0000000000
11
101.4351962358
21
25.1412925205
31
0.0000000000
11
101.4336761842
21
25.1123038318
31
0.0000000000
11
101.4320882779
21
25.0839289606
31
0.0000000000
11
101.4304661315
21
25.0567687591
31
0.0000000000
0
SPLINE
5
343
100
AcDbEntity
8
0
100
AcDbSpline
62
9
6
CONTINUOUS
70
0
71
3
72
15
73
11
74
9
42
0.0000001000
43
0.0000001000
44
0.0000000001
12
0.0008572009
22
-0.3129552662
32
0.0000000000
13
0.3129552662
23
-0.0008572009
33
0.0000000000
40
0.0000000000
40
0.0000000000
40
0.0000000000
40
0.0000000000
40
0.1249245763
40
0.2499104380
40
0.3749431249
40
0.5000010726
40
0.6250588793
40
0.7500911491
40
0.8750763339
40
1.0000000000
40
1.0000000000
40
1.0000000000
40
1.0000000000
10
56.4144921569
20
-22.4323879852
30
0.0000000000
10
56.4145278521
20
-22.4454199199
30
0.0000000000
10
56.4171673650
20
-22.4715548864
30
0.0000000000
10
56.4286708870
20
-22.5091883674
30
0.0000000000
10
56.4472786009
20
-22.5438954508
30
0.0000000000
10
56.4722781247
20
-22.5743283836
30
0.0000000000
10
56.5027111046
20
-22.5993277803
30
0.0000000000
10
56.5374181246
20
-22.6179353342
30
0.0000000000
10
56.5750514247
20
-22.6294387200
30
0.0000000000
10
56.6011862241
20
-22.6320781973
30
0.0000000000
10
56.6142180639
20
-22.6321138922
30
0.0000000000
11
56.4144921569
21
-22.4323879852
31
0.0000000000
11
56.4184230806
21
-22.4712858155
31
0.0000000000
11
56.4298522036
21
-22.5086939505
31
0.0000000000
11
56.4483418039
21
-22.5431798132
31
0.0000000000
11
56.4731837776
21
-22.5734227485
31
0.0000000000
11
56.5034267596
21
-22.5982645957
31
0.0000000000
11
56.5379125593
21
-22.6167540372
31
0.0000000000
11
56.5753205142
21
-22.6281830249
31
0.0000000000
11
56.6142180639
21
-22.6321138922
31
0.0000000000
0
SPLINE
5
344
100
AcDbEntity
8
0
100
AcDbSpline
62
9
6
CONTINUOUS
70
0
71
3
72
14
73
10
74
8
42
0.0000001000
43
0.0000001000
44
0.0000000001
12
0.0255646044
22
-0.2280904251
32
0.0000000000
13
0.2294723801
23
-0.0046062781
33
0.0000000000
40
0.0000000000
40
0.0000000000
40
0.0000000000
40
0.0000000000
40
0.0848725164
40
0.1874797355
40
0.3132796063
40
0.4619661083
40
0.6299038014
40
0.8114945961
40
1.0000000000
40
1.0000000000
40
1.0000000000
40
1.0000000000
10
56.3831638199
20
-22.8355958763
30
0.0000000000
10
56.3838870640
20
-22.8420487458
30
0.0000000000
10
56.3895248168
20
-22.8558806341
30
0.0000000000
10
56.4065346842
20
-22.8732332657
30
0.0000000000
10
56.4311655606
20
-22.8885991613
30
0.0000000000
10
56.4625840342
20
-22.9015022245
30
0.0000000000
10
56.4994631553
20
-22.9114525116
30
0.0000000000
10
56.5401697042
20
-22.9179779468
30
0.0000000000
10
56.5684707989
20
-22.9198300926
30
0.0000000000
10
56.5828897268
20
-22.9201195287
30
0.0000000000
11
56.3831638199
21
-22.8355958763
31
0.0000000000
11
56.3899222790
21
-22.8538657063
31
0.0000000000
11
56.4057834428
21
-22.8712737076
31
0.0000000000
11
56.4299991050
21
-22.8869987060
31
0.0000000000
11
56.4614269587
21
-22.9002989184
31
0.0000000000
11
56.4985844820
21
-22.9105469440
31
0.0000000000
11
56.5397188716
21
-22.9172593607
31
0.0000000000
11
56.5828897268
21
-22.9201195287
31
0.0000000000
0
SPLINE
5
345
100
AcDbEntity
8
0
100
AcDbSpline
62
9
6
CONTINUOUS
70
0
71
3
72
24
73
20
74
18
42
0.0000001000
43
0.0000001000
44
0.0000000001
12
-0.8823281896
22
0.0723212037
32
0.0000000000
13
0.0097564986
23
0.8852334163
33
0.0000000000
40
0.0000000000
40
0.0000000000
40
0.0000000000
40
0.0000000000
40
0.0173189961
40
0.0373362210
40
0.0609148604
40
0.0888518799
40
0.1219694610
40
0.1606959510
40
0.2047652124
40
0.2534961320
40
0.3070971132
40
0.3660968006
40
0.4311348500
40
0.5029483035
40
0.5825434469
40
0.6710415645
40
0.7694563281
40
0.8786811498
40
1.0000000000
40
1.0000000000
40
1.0000000000
40
1.0000000000
10
56.5273655249
20
-25.1921493099
30
0.0000000000
10
56.5222718454
20
-25.1917317996
30
0.0000000000
10
56.5113905523
20
-25.1889649364
30
0.0000000000
10
56.4958597587
20
-25.1795288758
30
0.0000000000
10
56.4806177502
20
-25.1647415252
30
0.0000000000
10
56.4657130009
20
-25.1446036463
30
0.0000000000
10
56.4511422291
20
-25.1189555796
30
0.0000000000
10
56.4370279020
20
-25.0877574772
30
0.0000000000
10
56.4235886360
20
-25.0513178240
30
0.0000000000
10
56.4109633430
20
-25.0099819005
30
0.0000000000
10
56.3991913257
20
-24.9638371522
30
0.0000000000
10
56.3882547008
20
-24.9125581428
30
0.0000000000
10
56.3781733632
20
-24.8556387519
30
0.0000000000
10
56.3690182002
20
-24.7924160171
30
0.0000000000
10
56.3609255070
20
-24.7220750226
30
0.0000000000
10
56.3541214235
20
-24.6437146085
30
0.0000000000
10
56.3489445245
20
-24.5564680866
30
0.0000000000
10
56.3458564633
20
-24.4594312618
30
0.0000000000
10
56.3456234517
20
-24.3913875380
30
0.0000000000
10
56.3460180008
20
-24.3555890380
30
0.0000000000
11
56.5273655249
21
-25.1921493099
31
0.0000000000
11
56.5124700081
21
-25.1885157787
31
0.0000000000
11
56.4971527114
21
-25.1796043253
31
0.0000000000
11
56.4819453658
21
-25.1653055503
31
0.0000000000
11
56.4670099013
21
-25.1455921580
31
0.0000000000
11
56.4523316554
21
-25.1202124881
31
0.0000000000
11
56.4380332684
21
-25.0890523654
31
0.0000000000
11
56.4243985766
21
-25.0524985196
31
0.0000000000
11
56.4116912635
21
-25.0112716126
31
0.0000000000
11
56.3998761643
21
-24.9653137999
31
0.0000000000
11
56.3889096874
21
-24.9142463601
31
0.0000000000
11
56.3788057735
21
-24.8575624796
31
0.0000000000
11
56.3696390776
21
-24.7946512750
31
0.0000000000
11
56.3615349653
21
-24.7246542924
31
0.0000000000
11
56.3547118696
21
-24.6466057172
31
0.0000000000
11
56.3495110486
21
-24.5596357549
31
0.0000000000
11
56.3464034673
21
-24.4629903690
31
0.0000000000
11
56.3460180008
21
-24.3555890380
31
0.0000000000
0
SPLINE
5
346
100
AcDbEntity
8
0
100
AcDbSpline
62
9
6
CONTINUOUS
70
0
71
3
72
24
73
20
74
18
42
0.0000001000
43
0.0000001000
44
0.0000000001
12
0.0097564991
22
-0.8852334163
32
0.0000000000
13
-0.8823281942
23
-0.0723211473
33
0.0000000000
40
0.0000000000
40
0.0000000000
40
0.0000000000
40
0.0000000000
40
0.1213188502
40
0.2305436719
40
0.3289584355
40
0.4174565531
40
0.4970516965
40
0.5688651499
40
0.6339031994
40
0.6929028868
40
0.7465038680
40
0.7952347876
40
0.8393040490
40
0.8780305390
40
0.9111481201
40
0.9390851396
40
0.9626637790
40
0.9826810039
40
1.0000000000
40
1.0000000000
40
1.0000000000
40
1.0000000000
10
101.6118136557
20
-24.3555890380
30
0.0000000000
10
101.6122082048
20
-24.3913875380
30
0.0000000000
10
101.6119751931
20
-24.4594312618
30
0.0000000000
10
101.6088871319
20
-24.5564680866
30
0.0000000000
10
101.6037102330
20
-24.6437146085
30
0.0000000000
10
101.5969061495
20
-24.7220750226
30
0.0000000000
10
101.5888134563
20
-24.7924160171
30
0.0000000000
10
101.5796582933
20
-24.8556387519
30
0.0000000000
10
101.5695769557
20
-24.9125581428
30
0.0000000000
10
101.5586403307
20
-24.9638371522
30
0.0000000000
10
101.5468683135
20
-25.0099819005
30
0.0000000000
10
101.5342430205
20
-25.0513178240
30
0.0000000000
10
101.5208037544
20
-25.0877574772
30
0.0000000000
10
101.5066894273
20
-25.1189555796
30
0.0000000000
10
101.4921186555
20
-25.1446036463
30
0.0000000000
10
101.4772139063
20
-25.1647415252
30
0.0000000000
10
101.4619718977
20
-25.1795288758
30
0.0000000000
10
101.4464411042
20
-25.1889649363
30
0.0000000000
10
101.4355598111
20
-25.1917318000
30
0.0000000000
10
101.4304661316
20
-25.1921493099
30
0.0000000000
11
101.6118136557
21
-24.3555890380
31
0.0000000000
11
101.6114281891
21
-24.4629903689
31
0.0000000000
11
101.6083206078
21
-24.5596357549
31
0.0000000000
11
101.6031197868
21
-24.6466057172
31
0.0000000000
11
101.5962966912
21
-24.7246542924
31
0.0000000000
11
101.5881925788
21
-24.7946512750
31
0.0000000000
11
101.5790258830
21
-24.8575624796
31
0.0000000000
11
101.5689219690
21
-24.9142463601
31
0.0000000000
11
101.5579554921
21
-24.9653137999
31
0.0000000000
11
101.5461403929
21
-25.0112716126
31
0.0000000000
11
101.5334330798
21
-25.0524985196
31
0.0000000000
11
101.5197983880
21
-25.0890523654
31
0.0000000000
11
101.5055000011
21
-25.1202124881
31
0.0000000000
11
101.4908217551
21
-25.1455921580
31
0.0000000000
11
101.4758862907
21
-25.1653055503
31
0.0000000000
11
101.4606789450
21
-25.1796043253
31
0.0000000000
11
101.4453616484
21
-25.1885157787
31
0.0000000000
11
101.4304661316
21
-25.1921493099
31
0.0000000000
0
SPLINE
5
347
100
AcDbEntity
8
0
100
AcDbSpline
62
9
6
CONTINUOUS
70
0
71
3
72
14
73
10
74
8
42
0.0000001000
43
0.0000001000
44
0.0000000001
12
-0.0255646042
22
-0.2280904233
32
0.0000000000
13
-0.2294723782
23
-0.0046062783
33
0.0000000000
40
0.0000000000
40
0.0000000000
40
0.0000000000
40
0.0000000000
40
0.0848729243
40
0.1874805701
40
0.3132807857
40
0.4619674096
40
0.6299049201
40
0.8114952441
40
1.0000000000
40
1.0000000000
40
1.0000000000
40
1.0000000000
10
101.5746678366
20
-22.8355958763
30
0.0000000000
10
101.5739445890
20
-22.8420487767
30
0.0000000000
10
101.5683067909
20
-22.8558807230
30
0.0000000000
10
101.5512968252
20
-22.8732333852
30
0.0000000000
10
101.5266658668
20
-22.8885992773
30
0.0000000000
10
101.4952473584
20
-22.9015023108
30
0.0000000000
10
101.4583682695
20
-22.9114525574
30
0.0000000000
10
101.4176618167
20
-22.9179779578
30
0.0000000000
10
101.3893608079
20
-22.9198300936
30
0.0000000000
10
101.3749419296
20
-22.9201195287
30
0.0000000000
11
101.5746678366
21
-22.8355958763
31
0.0000000000
11
101.5679093263
21
-22.8538657870
31
0.0000000000
11
101.5520480643
21
-22.8712738311
31
0.0000000000
11
101.5278323097
21
-22.8869988322
31
0.0000000000
11
101.4964044138
21
-22.9002990159
31
0.0000000000
11
101.4592469225
21
-22.9105469986
31
0.0000000000
11
101.4181126365
21
-22.9172593775
31
0.0000000000
11
101.3749419296
21
-22.9201195287
31
0.0000000000
0
SPLINE
5
348
100
AcDbEntity
8
0
100
AcDbSpline
62
9
6
CONTINUOUS
70
0
71
3
72
15
73
11
74
9
42
0.0000001000
43
0.0000001000
44
0.0000000001
12
-0.0008572008
22
-0.3129552662
32
0.0000000000
13
-0.3129552662
23
-0.0008572008
33
0.0000000000
40
0.0000000000
40
0.0000000000
40
0.0000000000
40
0.0000000000
40
0.1249240452
40
0.2499095567
40
0.3749420676
40
0.5000000000
40
0.6250579323
40
0.7500904433
40
0.8750759548
40
1.0000000000
40
1.0000000000
40
1.0000000000
40
1.0000000000
10
101.5433394995
20
-22.4323879852
30
0.0000000000
10
101.5433038045
20
-22.4454198645
30
0.0000000000
10
101.5406643119
20
-22.4715547382
30
0.0000000000
10
101.5291608646
20
-22.5091881247
30
0.0000000000
10
101.5105532308
20
-22.5438951856
30
0.0000000000
10
101.4855537622
20
-22.5743281548
30
0.0000000000
10
101.4551207929
20
-22.5993276234
30
0.0000000000
10
101.4204137320
20
-22.6179352573
30
0.0000000000
10
101.3827803455
20
-22.6294387046
30
0.0000000000
10
101.3566454719
20
-22.6320781972
30
0.0000000000
10
101.3436135926
20
-22.6321138922
30
0.0000000000
11
101.5433394995
21
-22.4323879852
31
0.0000000000
11
101.5394086088
21
-22.4712856518
31
0.0000000000
11
101.5279795593
21
-22.5086936947
31
0.0000000000
11
101.5094900375
21
-22.5431795370
31
0.0000000000
11
101.4846481174
21
-22.5734225100
31
0.0000000000
11
101.4544051443
21
-22.5982644301
31
0.0000000000
11
101.4199193020
21
-22.6167539519
31
0.0000000000
11
101.3825112591
21
-22.6281830014
31
0.0000000000
11
101.3436135926
21
-22.6321138922
31
0.0000000000
0
SPLINE
5
349
100
AcDbEntity
8
0
100
AcDbSpline
62
9
6
CONTINUOUS
70
0
71
3
72
15
73
11
74
9
42
0.0000001000
43
0.0000001000
44
0.0000000001
12
-0.0008572009
22
0.3129552662
32
0.0000000000
13
-0.3129552662
23
0.0008572009
33
0.0000000000
40
0.0000000000
40
0.0000000000
40
0.0000000000
40
0.0000000000
40
0.1249245763
40
0.2499104380
40
0.3749431249
40
0.5000010726
40
0.6250588793
40
0.7500911491
40
0.8750763339
40
1.0000000000
40
1.0000000000
40
1.0000000000
40
1.0000000000
10
101.5433394995
20
22.2970075435
30
0.0000000000
10
101.5433038044
20
22.3100394782
30
0.0000000000
10
101.5406642914
20
22.3361744447
30
0.0000000000
10
101.5291607694
20
22.3738079257
30
0.0000000000
10
101.5105530556
20
22.4085150091
30
0.0000000000
10
101.4855535318
20
22.4389479419
30
0.0000000000
10
101.4551205518
20
22.4639473386
30
0.0000000000
10
101.4204135318
20
22.4825548925
30
0.0000000000
10
101.3827802318
20
22.4940582783
30
0.0000000000
10
101.3566454323
20
22.4966977556
30
0.0000000000
10
101.3436135926
20
22.4967334505
30
0.0000000000
11
101.5433394995
21
22.2970075435
31
0.0000000000
11
101.5394085758
21
22.3359053738
31
0.0000000000
11
101.5279794528
21
22.3733135088
31
0.0000000000
11
101.5094898525
21
22.4077993715
31
0.0000000000
11
101.4846478789
21
22.4380423068
31
0.0000000000
11
101.4544048969
21
22.4628841540
31
0.0000000000
11
101.4199190971
21
22.4813735955
31
0.0000000000
11
101.3825111423
21
22.4928025832
31
0.0000000000
11
101.3436135926
21
22.4967334505
31
0.0000000000
0
SPLINE
5
34A
100
AcDbEntity
8
0
100
AcDbSpline
62
9
6
CONTINUOUS
70
0
71
3
72
14
73
10
74
8
42
0.0000001000
43
0.0000001000
44
0.0000000001
12
-0.0255646044
22
0.2280904251
32
0.0000000000
13
-0.2294723801
23
0.0046062781
33
0.0000000000
40
0.0000000000
40
0.0000000000
40
0.0000000000
40
0.0000000000
40
0.0848725164
40
0.1874797355
40
0.3132796063
40
0.4619661083
40
0.6299038014
40
0.8114945961
40
1.0000000000
40
1.0000000000
40
1.0000000000
40
1.0000000000
10
101.5746678366
20
22.7002154346
30
0.0000000000
10
101.5739445925
20
22.7066683041
30
0.0000000000
10
101.5683068396
20
22.7205001923
30
0.0000000000
10
101.5512969722
20
22.7378528240
30
0.0000000000
10
101.5266660959
20
22.7532187196
30
0.0000000000
10
101.4952476222
20
22.7661217828
30
0.0000000000
10
101.4583685012
20
22.7760720699
30
0.0000000000
10
101.4176619522
20
22.7825975051
30
0.0000000000
10
101.3893608575
20
22.7844496508
30
0.0000000000
10
101.3749419296
20
22.7847390869
30
0.0000000000
11
101.5746678366
21
22.7002154346
31
0.0000000000
11
101.5679093775
21
22.7184852645
31
0.0000000000
11
101.5520482136
21
22.7358932659
31
0.0000000000
11
101.5278325514
21
22.7516182643
31
0.0000000000
11
101.4964046978
21
22.7649184767
31
0.0000000000
11
101.4592471745
21
22.7751665023
31
0.0000000000
11
101.4181127848
21
22.7818789189
31
0.0000000000
11
101.3749419296
21
22.7847390869
31
0.0000000000
0
SPLINE
5
34B
100
AcDbEntity
8
0
100
AcDbSpline
62
9
6
CONTINUOUS
70
0
71
3
72
24
73
20
74
18
42
0.0000001000
43
0.0000001000
44
0.0000000001
12
0.8823281896
22
-0.0723212037
32
0.0000000000
13
-0.0097564986
23
-0.8852334163
33
0.0000000000
40
0.0000000000
40
0.0000000000
40
0.0000000000
40
0.0000000000
40
0.0173189961
40
0.0373362210
40
0.0609148604
40
0.0888518799
40
0.1219694610
40
0.1606959510
40
0.2047652124
40
0.2534961320
40
0.3070971132
40
0.3660968006
40
0.4311348501
40
0.5029483035
40
0.5825434469
40
0.6710415645
40
0.7694563281
40
0.8786811498
40
1.0000000000
40
1.0000000000
40
1.0000000000
40
1.0000000000
10
101.4304661316
20
25.0567688681
30
0.0000000000
10
101.4355598111
20
25.0563513579
30
0.0000000000
10
101.4464411041
20
25.0535844947
30
0.0000000000
10
101.4619718977
20
25.0441484341
30
0.0000000000
10
101.4772139063
20
25.0293610834
30
0.0000000000
10
101.4921186556
20
25.0092232046
30
0.0000000000
10
101.5066894273
20
24.9835751379
30
0.0000000000
10
101.5208037544
20
24.9523770355
30
0.0000000000
10
101.5342430205
20
24.9159373823
30
0.0000000000
10
101.5468683135
20
24.8746014588
30
0.0000000000
10
101.5586403307
20
24.8284567105
30
0.0000000000
10
101.5695769557
20
24.7771777011
30
0.0000000000
10
101.5796582933
20
24.7202583102
30
0.0000000000
10
101.5888134563
20
24.6570355754
30
0.0000000000
10
101.5969061495
20
24.5866945809
30
0.0000000000
10
101.6037102330
20
24.5083341668
30
0.0000000000
10
101.6088871320
20
24.4210876449
30
0.0000000000
10
101.6119751931
20
24.3240508201
30
0.0000000000
10
101.6122082048
20
24.2560070963
30
0.0000000000
10
101.6118136557
20
24.2202085962
30
0.0000000000
11
101.4304661316
21
25.0567688681
31
0.0000000000
11
101.4453616484
21
25.0531353370
31
0.0000000000
11
101.4606789450
21
25.0442238836
31
0.0000000000
11
101.4758862907
21
25.0299251085
31
0.0000000000
11
101.4908217551
21
25.0102117163
31
0.0000000000
11
101.5055000011
21
24.9848320464
31
0.0000000000
11
101.5197983880
21
24.9536719237
31
0.0000000000
11
101.5334330798
21
24.9171180779
31
0.0000000000
11
101.5461403929
21
24.8758911709
31
0.0000000000
11
101.5579554921
21
24.8299333582
31
0.0000000000
11
101.5689219690
21
24.7788659184
31
0.0000000000
11
101.5790258830
21
24.7221820379
31
0.0000000000
11
101.5881925788
21
24.6592708333
31
0.0000000000
11
101.5962966912
21
24.5892738506
31
0.0000000000
11
101.6031197868
21
24.5112252755
31
0.0000000000
11
101.6083206079
21
24.4242553132
31
0.0000000000
11
101.6114281891
21
24.3276099272
31
0.0000000000
11
101.6118136557
21
24.2202085962
31
0.0000000000
0
SPLINE
5
34C
100
AcDbEntity
8
0
100
AcDbSpline
62
9
6
CONTINUOUS
70
0
71
3
72
15
73
11
74
9
42
0.0000001000
43
0.0000001000
44
0.0000000001
12
-0.3129552662
22
-0.0008572009
32
0.0000000000
13
-0.0008572009
23
-0.3129552662
33
0.0000000000
40
0.0000000000
40
0.0000000000
40
0.0000000000
40
0.0000000000
40
0.1249236887
40
0.2499088931
40
0.3749411775
40
0.4999989918
40
0.6250569387
40
0.7500896152
40
0.8750754558
40
1.0000000000
40
1.0000000000
40
1.0000000000
40
1.0000000000
10
56.6142180639
20
22.4967334505
30
0.0000000000
10
56.6011862218
20
22.4966977556
30
0.0000000000
10
56.5750514179
20
22.4940582774
30
0.0000000000
10
56.5374181126
20
22.4825548879
30
0.0000000000
10
56.5027110902
20
22.4639473292
30
0.0000000000
10
56.4722781108
20
22.4389479282
30
0.0000000000
10
56.4472785903
20
22.4085149931
30
0.0000000000
10
56.4286708813
20
22.3738079111
30
0.0000000000
10
56.4171673638
20
22.3361744357
30
0.0000000000
10
56.4145278520
20
22.3100394748
30
0.0000000000
10
56.4144921569
20
22.2970075435
30
0.0000000000
11
56.6142180639
21
22.4967334505
31
0.0000000000
11
56.5753205072
21
22.4928025818
31
0.0000000000
11
56.5379125471
21
22.4813735904
31
0.0000000000
11
56.5034267447
21
22.4628841441
31
0.0000000000
11
56.4731837632
21
22.4380422925
31
0.0000000000
11
56.4483417928
21
22.4077993549
31
0.0000000000
11
56.4298521972
21
22.3733134934
31
0.0000000000
11
56.4184230786
21
22.3359053639
31
0.0000000000
11
56.4144921569
21
22.2970075435
31
0.0000000000
0
SPLINE
5
34D
100
AcDbEntity
8
0
100
AcDbSpline
62
9
6
CONTINUOUS
70
0
71
3
72
14
73
10
74
8
42
0.0000001000
43
0.0000001000
44
0.0000000001
12
-0.2294723801
22
-0.0046062779
32
0.0000000000
13
-0.0255646044
23
-0.2280904251
33
0.0000000000
40
0.0000000000
40
0.0000000000
40
0.0000000000
40
0.0000000000
40
0.1885054039
40
0.3700961986
40
0.5380338917
40
0.6867203937
40
0.8125202646
40
0.9151274836
40
1.0000000000
40
1.0000000000
40
1.0000000000
40
1.0000000000
10
56.5828897268
20
22.7847390870
30
0.0000000000
10
56.5684707989
20
22.7844496509
30
0.0000000000
10
56.5401697042
20
22.7825975051
30
0.0000000000
10
56.4994631553
20
22.7760720699
30
0.0000000000
10
56.4625840342
20
22.7661217828
30
0.0000000000
10
56.4311655606
20
22.7532187196
30
0.0000000000
10
56.4065346842
20
22.7378528240
30
0.0000000000
10
56.3895248168
20
22.7205001923
30
0.0000000000
10
56.3838870640
20
22.7066683041
30
0.0000000000
10
56.3831638199
20
22.7002154346
30
0.0000000000
11
56.5828897268
21
22.7847390870
31
0.0000000000
11
56.5397188716
21
22.7818789190
31
0.0000000000
11
56.4985844820
21
22.7751665023
31
0.0000000000
11
56.4614269587
21
22.7649184767
31
0.0000000000
11
56.4299991050
21
22.7516182643
31
0.0000000000
11
56.4057834428
21
22.7358932659
31
0.0000000000
11
56.3899222790
21
22.7184852645
31
0.0000000000
11
56.3831638199
21
22.7002154346
31
0.0000000000
0
SPLINE
5
34E
100
AcDbEntity
8
0
100
AcDbSpline
62
9
6
CONTINUOUS
70
0
71
3
72
25
73
21
74
19
42
0.0000001000
43
0.0000001000
44
0.0000000001
12
-0.0097532100
22
0.8852622369
32
0.0000000000
13
0.8823597535
23
0.0722884403
33
0.0000000000
40
0.0000000000
40
0.0000000000
40
0.0000000000
40
0.0000000000
40
0.1171412471
40
0.2227428053
40
0.3179587220
40
0.4037755145
40
0.4813078466
40
0.5516479699
40
0.6156106452
40
0.6737713158
40
0.7266615383
40
0.7747173112
40
0.8180689243
40
0.8563982583
40
0.8898237487
40
0.9188064117
40
0.9439381303
40
0.9655698214
40
0.9839686824
40
1.0000000000
40
1.0000000000
40
1.0000000000
40
1.0000000000
10
56.3460180008
20
24.2202085962
30
0.0000000000
10
56.3456371664
20
24.2547755037
30
0.0000000000
10
56.3458296935
20
24.3205183092
30
0.0000000000
10
56.3486740897
20
24.4143170206
30
0.0000000000
10
56.3534685819
20
24.4987781361
30
0.0000000000
10
56.3597840165
20
24.5748289931
30
0.0000000000
10
56.3673151978
20
24.6433878860
30
0.0000000000
10
56.3758585975
20
24.7053235220
30
0.0000000000
10
56.3852795864
20
24.7613427949
30
0.0000000000
10
56.3954871547
20
24.8119816026
30
0.0000000000
10
56.4064260006
20
24.8576547450
30
0.0000000000
10
56.4180609784
20
24.8986322258
30
0.0000000000
10
56.4303200667
20
24.9349219252
30
0.0000000000
10
56.4430895751
20
24.9664249596
30
0.0000000000
10
56.4562514243
20
24.9931170195
30
0.0000000000
10
56.4697880677
20
25.0151746906
30
0.0000000000
10
56.4837345673
20
25.0327337933
30
0.0000000000
10
56.4980715914
20
25.0457236780
30
0.0000000000
10
56.5126082373
20
25.0539671969
30
0.0000000000
10
56.5226503951
20
25.0563825752
30
0.0000000000
10
56.5273655249
20
25.0567688681
30
0.0000000000
11
56.3460180008
21
24.2202085962
31
0.0000000000
11
56.3463375259
21
24.3239151199
31
0.0000000000
11
56.3491990913
21
24.4173620613
31
0.0000000000
11
56.3540113173
21
24.5015207621
31
0.0000000000
11
56.3603381315
21
24.5772318474
31
0.0000000000
11
56.3678763875
21
24.6454572694
31
0.0000000000
11
56.3764333304
21
24.7071397985
31
0.0000000000
11
56.3858776594
21
24.7629738551
31
0.0000000000
11
56.3961121685
21
24.8134370459
31
0.0000000000
11
56.4070875954
21
24.8589571432
31
0.0000000000
11
56.4187904545
21
24.8998604586
31
0.0000000000
11
56.4311729962
21
24.9361879616
31
0.0000000000
11
56.4440373132
21
24.9675885445
31
0.0000000000
11
56.4572611881
21
24.9940616008
31
0.0000000000
11
56.4708412802
21
25.0158321277
31
0.0000000000
11
56.4848638574
21
25.0331066204
31
0.0000000000
11
56.4992419915
21
25.0457567398
31
0.0000000000
11
56.5135404035
21
25.0535593414
31
0.0000000000
11
56.5273655249
21
25.0567688681
31
0.0000000000
0
SPLINE
5
34F
100
AcDbEntity
8
0
100
AcDbSpline
62
9
6
CONTINUOUS
70
0
71
3
72
15
73
11
74
9
42
0.0000001000
43
0.0000001000
44
0.0000000001
12
-0.2369334538
22
-0.1692280547
32
0.0000000000
13
-0.0099564935
23
-0.2909922066
33
0.0000000000
40
0.0000000000
40
0.0000000000
40
0.0000000000
40
0.0000000000
40
0.0319866358
40
0.0923782506
40
0.1822311137
40
0.3004464776
40
0.4447983784
40
0.6121931395
40
0.7987309188
40
1.0000000000
40
1.0000000000
40
1.0000000000
40
1.0000000000
10
56.6142180639
20
-22.6321138922
30
0.0000000000
10
56.6116918292
20
-22.6339182376
30
0.0000000000
10
56.6080775659
20
-22.6428652009
30
0.0000000000
10
56.6036448680
20
-22.6595476330
30
0.0000000000
10
56.5993324759
20
-22.6854879327
30
0.0000000000
10
56.5951615408
20
-22.7193502112
30
0.0000000000
10
56.5913406487
20
-22.7609428708
30
0.0000000000
10
56.5879442230
20
-22.8091753952
30
0.0000000000
10
56.5850594818
20
-22.8629883991
30
0.0000000000
10
56.5835577049
20
-22.9005969507
30
0.0000000000
10
56.5828897268
20
-22.9201195287
30
0.0000000000
11
56.6142180639
21
-22.6321138922
31
0.0000000000
11
56.6093528188
21
-22.6400553723
31
0.0000000000
11
56.6045620381
21
-22.6569739270
31
0.0000000000
11
56.5999521448
21
-22.6827263598
31
0.0000000000
11
56.5956278030
21
-22.7168735148
31
0.0000000000
11
56.5916838047
21
-22.7587179161
31
0.0000000000
11
56.5882029938
21
-22.8073325379
31
0.0000000000
11
56.5852547629
21
-22.8615652647
31
0.0000000000
11
56.5828897268
21
-22.9201195287
31
0.0000000000
0
SPLINE
5
350
100
AcDbEntity
8
0
100
AcDbSpline
62
9
6
CONTINUOUS
70
0
71
3
72
15
73
11
74
9
42
0.0000001000
43
0.0000001000
44
0.0000000001
12
-0.0099564961
22
0.2909922065
32
0.0000000000
13
-0.2369334950
23
0.1692279970
33
0.0000000000
40
0.0000000000
40
0.0000000000
40
0.0000000000
40
0.0000000000
40
0.2012690812
40
0.3878068605
40
0.5552016217
40
0.6995535224
40
0.8177688863
40
0.9076217495
40
0.9680133643
40
1.0000000000
40
1.0000000000
40
1.0000000000
40
1.0000000000
10
101.3749419296
20
-22.9201195287
30
0.0000000000
10
101.3742739514
20
-22.9005969507
30
0.0000000000
10
101.3727721749
20
-22.8629883991
30
0.0000000000
10
101.3698874333
20
-22.8091753952
30
0.0000000000
10
101.3664910078
20
-22.7609428708
30
0.0000000000
10
101.3626701156
20
-22.7193502111
30
0.0000000000
10
101.3584991804
20
-22.6854879328
30
0.0000000000
10
101.3541867887
20
-22.6595476327
30
0.0000000000
10
101.3497540901
20
-22.6428652015
30
0.0000000000
10
101.3461398277
20
-22.6339182369
30
0.0000000000
10
101.3436135926
20
-22.6321138922
30
0.0000000000
11
101.3749419296
21
-22.9201195287
31
0.0000000000
11
101.3725768936
21
-22.8615652647
31
0.0000000000
11
101.3696286626
21
-22.8073325379
31
0.0000000000
11
101.3661478517
21
-22.7587179161
31
0.0000000000
11
101.3622038534
21
-22.7168735148
31
0.0000000000
11
101.3578795116
21
-22.6827263598
31
0.0000000000
11
101.3532696184
21
-22.6569739270
31
0.0000000000
11
101.3484788376
21
-22.6400553723
31
0.0000000000
11
101.3436135926
21
-22.6321138922
31
0.0000000000
0
SPLINE
5
351
100
AcDbEntity
8
0
100
AcDbSpline
62
9
6
CONTINUOUS
70
0
71
3
72
15
73
11
74
9
42
0.0000001000
43
0.0000001000
44
0.0000000001
12
0.2369334538
22
0.1692280547
32
0.0000000000
13
0.0099564935
23
0.2909922066
33
0.0000000000
40
0.0000000000
40
0.0000000000
40
0.0000000000
40
0.0000000000
40
0.0319866358
40
0.0923782506
40
0.1822311137
40
0.3004464776
40
0.4447983784
40
0.6121931395
40
0.7987309188
40
1.0000000000
40
1.0000000000
40
1.0000000000
40
1.0000000000
10
101.3436135926
20
22.4967334505
30
0.0000000000
10
101.3461398273
20
22.4985377958
30
0.0000000000
10
101.3497540906
20
22.5074847592
30
0.0000000000
10
101.3541867884
20
22.5241671913
30
0.0000000000
10
101.3584991805
20
22.5501074910
30
0.0000000000
10
101.3626701156
20
22.5839697695
30
0.0000000000
10
101.3664910078
20
22.6255624291
30
0.0000000000
10
101.3698874335
20
22.6737949535
30
0.0000000000
10
101.3727721746
20
22.7276079574
30
0.0000000000
10
101.3742739515
20
22.7652165089
30
0.0000000000
10
101.3749419296
20
22.7847390870
30
0.0000000000
11
101.3436135926
21
22.4967334505
31
0.0000000000
11
101.3484788376
21
22.5046749306
31
0.0000000000
11
101.3532696184
21
22.5215934853
31
0.0000000000
11
101.3578795116
21
22.5473459181
31
0.0000000000
11
101.3622038534
21
22.5814930731
31
0.0000000000
11
101.3661478517
21
22.6233374744
31
0.0000000000
11
101.3696286627
21
22.6719520961
31
0.0000000000
11
101.3725768935
21
22.7261848230
31
0.0000000000
11
101.3749419296
21
22.7847390870
31
0.0000000000
0
SPLINE
5
352
100
AcDbEntity
8
0
100
AcDbSpline
62
9
6
CONTINUOUS
70
0
71
3
72
16
73
12
74
10
42
0.0000001000
43
0.0000001000
44
0.0000000001
12
-0.2369580695
22
0.1692358165
32
0.0000000000
13
-0.0099584898
23
0.2910166950
33
0.0000000000
40
0.0000000000
40
0.0000000000
40
0.0000000000
40
0.0000000000
40
0.0271950539
40
0.0766085668
40
0.1493596825
40
0.2449372798
40
0.3620178976
40
0.4987141595
40
0.6525764382
40
0.8207124931
40
1.0000000000
40
1.0000000000
40
1.0000000000
40
1.0000000000
10
56.6142180639
20
22.4967334505
30
0.0000000000
10
56.6120700347
20
22.4982675762
30
0.0000000000
10
56.6087669204
20
22.5054802075
30
0.0000000000
10
56.6048218403
20
22.5191404417
30
0.0000000000
10
56.6008910182
20
22.5400723013
30
0.0000000000
10
56.5970742352
20
22.5674558508
30
0.0000000000
10
56.5934899994
20
22.6012014766
30
0.0000000000
10
56.5902107114
20
22.6406267407
30
0.0000000000
10
56.5873012234
20
22.6850578080
30
0.0000000000
10
56.5848095098
20
22.7336504871
30
0.0000000000
10
56.5834848711
20
22.7673472011
30
0.0000000000
10
56.5828897268
20
22.7847390870
30
0.0000000000
11
56.6142180639
21
22.4967334505
31
0.0000000000
11
56.6098861624
21
22.5033623846
31
0.0000000000
11
56.6056053667
21
22.5170994097
31
0.0000000000
11
56.6014502370
21
22.5378720947
31
0.0000000000
11
56.5974955373
21
22.5654206431
31
0.0000000000
11
56.5938108927
21
22.5993133009
31
0.0000000000
11
56.5904582357
21
22.6389760334
31
0.0000000000
11
56.5874926565
21
22.6836804774
31
0.0000000000
11
56.5849591573
21
22.7325739215
31
0.0000000000
11
56.5828897268
21
22.7847390870
31
0.0000000000
0
SPLINE
5
353
100
AcDbEntity
8
0
100
AcDbSpline
62
9
6
CONTINUOUS
70
0
71
3
72
13
73
9
74
7
42
0.0000001000
43
0.0000001000
44
0.0000000001
12
-0.0376530507
22
0.0924246804
32
0.0000000000
13
0.0052643041
23
0.0996612305
33
0.0000000000
40
0.0000000000
40
0.0000000000
40
0.0000000000
40
0.0000000000
40
0.0453560498
40
0.1512231383
40
0.3110648990
40
0.5147599406
40
0.7493741457
40
1.0000000000
40
1.0000000000
40
1.0000000000
40
1.0000000000
10
55.5300607880
20
-26.5433433555
30
0.0000000000
10
55.5294915235
20
-26.5419460161
30
0.0000000000
10
55.5299093072
20
-26.5367129736
30
0.0000000000
10
55.5294951760
20
-26.5265288945
30
0.0000000000
10
55.5301194638
20
-26.5108356773
30
0.0000000000
10
55.5307332848
20
-26.4909812967
30
0.0000000000
10
55.5317566011
20
-26.4680731418
30
0.0000000000
10
55.5325514048
20
-26.4519532901
30
0.0000000000
10
55.5329911951
20
-26.4436273964
30
0.0000000000
11
55.5300607880
21
-26.5433433555
31
0.0000000000
11
55.5296864402
21
-26.5388323201
31
0.0000000000
11
55.5296792900
21
-26.5282667691
31
0.0000000000
11
55.5300397924
21
-26.5123186084
31
0.0000000000
11
55.5307450213
21
-26.4920020450
31
0.0000000000
11
55.5317501285
21
-26.4686090906
31
0.0000000000
11
55.5329911951
21
-26.4436273964
31
0.0000000000
0
SPLINE
5
354
100
AcDbEntity
8
0
100
AcDbSpline
62
9
6
CONTINUOUS
70
0
71
3
72
19
73
15
74
13
42
0.0000001000
43
0.0000001000
44
0.0000000001
12
-1.3608590903
22
0.0719709788
32
0.0000000000
13
-0.0000502274
23
1.3627609045
33
0.0000000000
40
0.0000000000
40
0.0000000000
40
0.0000000000
40
0.0000000000
40
0.0832055171
40
0.1666695066
40
0.2502078453
40
0.3337169572
40
0.4171378817
40
0.5004933134
40
0.5838153385
40
0.6671439177
40
0.7505112841
40
0.8338596889
40
0.9170848866
40
1.0000000000
40
1.0000000000
40
1.0000000000
40
1.0000000000
10
55.5329911950
20
-26.4436273964
30
0.0000000000
10
55.4952475336
20
-26.4416312689
30
0.0000000000
10
55.4198079600
20
-26.4328762008
30
0.0000000000
10
55.3091719417
20
-26.4056106714
30
0.0000000000
10
55.2027079178
20
-26.3645610777
30
0.0000000000
10
55.1023041308
20
-26.3104004088
30
0.0000000000
10
55.0096174797
20
-26.2440321705
30
0.0000000000
10
54.9261268671
20
-26.1665375615
30
0.0000000000
10
54.8531303069
20
-26.0791417024
30
0.0000000000
10
54.7917679712
20
-25.9832119316
30
0.0000000000
10
54.7430254896
20
-25.8802820894
30
0.0000000000
10
54.7077040947
20
-25.7720556487
30
0.0000000000
10
54.6863614414
20
-25.6604589343
30
0.0000000000
10
54.6816120488
20
-25.5849030431
30
0.0000000000
10
54.6816106606
20
-25.5472385515
30
0.0000000000
11
55.5329911950
21
-26.4436273964
31
0.0000000000
11
55.4203591628
21
-26.4305452766
31
0.0000000000
11
55.3099218616
21
-26.4033290560
31
0.0000000000
11
55.2037032518
21
-26.3623682704
31
0.0000000000
11
55.1035446536
21
-26.3083371007
31
0.0000000000
11
55.0111159497
21
-26.2421501840
31
0.0000000000
11
54.9278603556
21
-26.1648715022
31
0.0000000000
11
54.8550713599
21
-26.0777227213
31
0.0000000000
11
54.7938808961
21
-25.9820623664
31
0.0000000000
11
54.7452569764
21
-25.8793837498
31
0.0000000000
11
54.7100127137
21
-25.7714061823
31
0.0000000000
11
54.6887095479
21
-25.6600088099
31
0.0000000000
11
54.6816106606
21
-25.5472385515
31
0.0000000000
0
SPLINE
5
355
100
AcDbEntity
8
0
100
AcDbSpline
62
9
6
CONTINUOUS
70
0
71
3
72
19
73
15
74
13
42
0.0000001000
43
0.0000001000
44
0.0000000001
12
-1.5117916750
22
0.0805202074
32
0.0000000000
13
-0.0004195824
23
1.5139344096
33
0.0000000000
40
0.0000000000
40
0.0000000000
40
0.0000000000
40
0.0000000000
40
0.0832772727
40
0.1667085093
40
0.2502216042
40
0.3337094856
40
0.4171127338
40
0.5004525744
40
0.5837624665
40
0.6670816245
40
0.7504401805
40
0.8337792709
40
0.9169899231
40
1.0000000000
40
1.0000000000
40
1.0000000000
40
1.0000000000
10
55.5300607880
20
-26.5433433555
30
0.0000000000
10
55.4880948255
20
-26.5411081878
30
0.0000000000
10
55.4042708418
20
-26.5313394719
30
0.0000000000
10
55.2813717523
20
-26.5009811470
30
0.0000000000
10
55.1631577699
20
-26.4553336757
30
0.0000000000
10
55.0516707782
20
-26.3951326368
30
0.0000000000
10
54.9487500992
20
-26.3213834758
30
0.0000000000
10
54.8560349594
20
-26.2352868059
30
0.0000000000
10
54.7749641907
20
-26.1382017245
30
0.0000000000
10
54.7068025580
20
-26.0316443359
30
0.0000000000
10
54.6526448046
20
-25.9173162740
30
0.0000000000
10
54.6133823651
20
-25.7971094361
30
0.0000000000
10
54.5896246382
20
-25.6731061563
30
0.0000000000
10
54.5843192838
20
-25.5891291553
30
0.0000000000
10
54.5843076740
20
-25.5472385514
30
0.0000000000
11
55.5300607880
21
-26.5433433555
31
0.0000000000
11
55.4048331776
21
-26.5287389905
31
0.0000000000
11
55.2822092171
21
-26.4984497998
31
0.0000000000
11
55.1642656039
21
-26.4529009598
31
0.0000000000
11
55.0530499934
21
-26.3928440715
31
0.0000000000
11
54.9504144427
21
-26.3192960449
31
0.0000000000
11
54.8579601270
21
-26.2334395647
31
0.0000000000
11
54.7771191117
21
-26.1366282701
31
0.0000000000
11
54.7091475010
21
-26.0303687038
31
0.0000000000
11
54.6551211726
21
-25.9163185299
31
0.0000000000
11
54.6159438900
21
-25.7963852585
31
0.0000000000
11
54.5922415474
21
-25.6726596785
31
0.0000000000
11
54.5843076740
21
-25.5472385514
31
0.0000000000
0
SPLINE
5
356
100
AcDbEntity
8
0
100
AcDbSpline
62
9
6
CONTINUOUS
70
0
71
3
72
13
73
9
74
7
42
0.0000001000
43
0.0000001000
44
0.0000000001
12
0.0376530058
22
0.0924256903
32
0.0000000000
13
-0.0052643723
23
0.0996621465
33
0.0000000000
40
0.0000000000
40
0.0000000000
40
0.0000000000
40
0.0000000000
40
0.0453561891
40
0.1512235096
40
0.3110655056
40
0.5147606619
40
0.7493747147
40
1.0000000000
40
1.0000000000
40
1.0000000000
40
1.0000000000
10
102.4277709181
20
-26.5433442729
30
0.0000000000
10
102.4283401838
20
-26.5419469139
30
0.0000000000
10
102.4279223979
20
-26.5367138146
30
0.0000000000
10
102.4283365250
20
-26.5265296185
30
0.0000000000
10
102.4277122295
20
-26.5108362393
30
0.0000000000
10
102.4270983977
20
-26.4909816688
30
0.0000000000
10
102.4260750692
20
-26.4680733237
30
0.0000000000
10
102.4252802563
20
-26.4519533477
30
0.0000000000
10
102.4248404614
20
-26.4436273964
30
0.0000000000
11
102.4277709181
21
-26.5433442729
31
0.0000000000
11
102.4281452657
21
-26.5388331817
31
0.0000000000
11
102.4281524116
21
-26.5282675104
31
0.0000000000
11
102.4277919013
21
-26.5123191794
31
0.0000000000
11
102.4270866613
21
-26.4920024179
31
0.0000000000
11
102.4260815413
21
-26.4686092635
31
0.0000000000
11
102.4248404614
21
-26.4436273964
31
0.0000000000
0
SPLINE
5
357
100
AcDbEntity
8
0
100
AcDbSpline
62
9
6
CONTINUOUS
70
0
71
3
72
14
73
10
74
8
42
0.0000001000
43
0.0000001000
44
0.0000000001
12
-46.8478075326
22
-2.4758578346
32
0.0000000000
13
-46.8478074990
23
2.4758584710
33
0.0000000000
40
0.0000000000
40
0.0000000000
40
0.0000000000
40
0.0000000000
40
0.1194622030
40
0.2716146371
40
0.4249690969
40
0.5732837651
40
0.7270364070
40
0.8800001205
40
1.0000000000
40
1.0000000000
40
1.0000000000
40
1.0000000000
10
102.4248404614
20
-26.4436273964
30
0.0000000000
10
100.5593263635
20
-26.5422178735
30
0.0000000000
10
96.3163546014
20
-26.7396236838
30
0.0000000000
10
89.6739506021
20
-26.9532560691
30
0.0000000000
10
82.5778106391
20
-27.0669479992
30
0.0000000000
10
75.4557611559
20
-27.0676048349
30
0.0000000000
10
68.3406894445
20
-26.9547733299
30
0.0000000000
10
61.6709525274
20
-26.7409267616
30
0.0000000000
10
57.4069016131
20
-26.5426616358
30
0.0000000000
10
55.5329911950
20
-26.4436273964
30
0.0000000000
11
102.4248404614
21
-26.4436273964
31
0.0000000000
11
96.8265438341
21
-26.7040909428
31
0.0000000000
11
89.6922773605
21
-26.9335424100
31
0.0000000000
11
82.4988543816
21
-27.0487928199
31
0.0000000000
11
75.5409409227
21
-27.0494346201
31
0.0000000000
11
68.3288215535
21
-26.9350640737
31
0.0000000000
11
61.1564921085
21
-26.7051035798
31
0.0000000000
11
55.5329911950
21
-26.4436273964
31
0.0000000000
0
SPLINE
5
358
100
AcDbEntity
8
0
100
AcDbSpline
62
9
6
CONTINUOUS
70
0
71
3
72
14
73
10
74
8
42
0.0000001000
43
0.0000001000
44
0.0000000001
12
-46.8536533290
22
-2.4764388428
32
0.0000000000
13
-46.8536533118
23
2.4764391700
33
0.0000000000
40
0.0000000000
40
0.0000000000
40
0.0000000000
40
0.0000000000
40
0.1194626105
40
0.2716149332
40
0.4249691995
40
0.5732836690
40
0.7270361157
40
0.8799997160
40
1.0000000000
40
1.0000000000
40
1.0000000000
40
1.0000000000
10
102.4277709181
20
-26.5433442729
30
0.0000000000
10
100.5620176715
20
-26.6419582226
30
0.0000000000
10
96.3185115275
20
-26.8394108691
30
0.0000000000
10
89.6752757229
20
-27.0530934159
30
0.0000000000
10
82.5782561211
20
-27.1668119394
30
0.0000000000
10
75.4553248731
20
-27.1674689277
30
0.0000000000
10
68.3393712033
20
-27.0546110254
30
0.0000000000
10
61.6687991590
20
-26.8407142553
30
0.0000000000
10
57.4042113056
20
-26.6424020755
30
0.0000000000
10
55.5300607383
20
-26.5433442743
30
0.0000000000
11
102.4277709181
21
-26.5433442729
31
0.0000000000
11
96.8287562423
21
-26.8038700036
31
0.0000000000
11
89.6936033870
21
-27.0333751917
31
0.0000000000
11
82.4992898762
21
-27.1486525183
31
0.0000000000
11
75.5405153801
21
-27.1492944668
31
0.0000000000
11
68.3275032119
21
-27.0348972073
31
0.0000000000
11
61.1542827054
21
-26.8048828727
31
0.0000000000
11
55.5300607383
21
-26.5433442743
31
0.0000000000
0
SPLINE
5
359
100
AcDbEntity
8
0
100
AcDbSpline
62
9
6
CONTINUOUS
70
0
71
3
72
19
73
15
74
13
42
0.0000001000
43
0.0000001000
44
0.0000000001
12
-0.0000515986
22
-1.3627609047
32
0.0000000000
13
-1.3608591616
23
-0.0719696363
33
0.0000000000
40
0.0000000000
40
0.0000000000
40
0.0000000000
40
0.0000000000
40
0.0829126769
40
0.1661339234
40
0.2494811321
40
0.3328495525
40
0.4161797466
40
0.4995030433
40
0.5828574595
40
0.6662770565
40
0.7497853432
40
0.8333248583
40
0.9167925328
40
1.0000000000
40
1.0000000000
40
1.0000000000
40
1.0000000000
10
103.2762209959
20
-25.5472385515
30
0.0000000000
10
103.2762195698
20
-25.5849019363
30
0.0000000000
10
103.2714705563
20
-25.6604549159
30
0.0000000000
10
103.2501293646
20
-25.7720483698
30
0.0000000000
10
103.2148096453
20
-25.8802733872
30
0.0000000000
10
103.1660680017
20
-25.9832043760
30
0.0000000000
10
103.1047055081
20
-26.0791361925
30
0.0000000000
10
103.0317089564
20
-26.1665331814
30
0.0000000000
10
102.9482191890
20
-26.2440279725
30
0.0000000000
10
102.8555342442
20
-26.3103960957
30
0.0000000000
10
102.7551313910
20
-26.3645575488
30
0.0000000000
10
102.6486660103
20
-26.4056087565
30
0.0000000000
10
102.5380271306
20
-26.4328757293
30
0.0000000000
10
102.4625850094
20
-26.4416312594
30
0.0000000000
10
102.4248404614
20
-26.4436273964
30
0.0000000000
11
103.2762209959
21
-25.5472385515
31
0.0000000000
11
103.2691225399
21
-25.6600055102
31
0.0000000000
11
103.2478211766
21
-25.7713977451
31
0.0000000000
11
103.2125785432
21
-25.8793741299
31
0.0000000000
11
103.1639551142
21
-25.9820545681
31
0.0000000000
11
103.1027642869
21
-26.0777173030
31
0.0000000000
11
103.0299747383
21
-26.1648678799
31
0.0000000000
11
102.9467206379
21
-26.2421461369
31
0.0000000000
11
102.8542939329
21
-26.3083327376
31
0.0000000000
11
102.7541368507
21
-26.3623643492
31
0.0000000000
11
102.6479171226
21
-26.4033266907
31
0.0000000000
11
102.5374751125
21
-26.4305447908
31
0.0000000000
11
102.4248404614
21
-26.4436273964
31
0.0000000000
0
SPLINE
5
35A
100
AcDbEntity
8
0
100
AcDbSpline
62
9
6
CONTINUOUS
70
0
71
3
72
19
73
15
74
13
42
0.0000001000
43
0.0000001000
44
0.0000000001
12
-0.0004202830
22
-1.5139344099
32
0.0000000000
13
-1.5117917121
23
-0.0805195219
33
0.0000000000
40
0.0000000000
40
0.0000000000
40
0.0000000000
40
0.0000000000
40
0.0830032323
40
0.1662092600
40
0.2495462222
40
0.3329048780
40
0.4162245951
40
0.4995347584
40
0.5828745681
40
0.6662775453
40
0.7497655554
40
0.8332807562
40
0.9167163468
40
1.0000000000
40
1.0000000000
40
1.0000000000
40
1.0000000000
10
103.3735240808
20
-25.5472385514
30
0.0000000000
10
103.3735124525
20
-25.5891257013
30
0.0000000000
10
103.3682077910
20
-25.6730968789
30
0.0000000000
10
103.3444532266
20
-25.7970937230
30
0.0000000000
10
103.3051940495
20
-25.9172980708
30
0.0000000000
10
103.2510390012
20
-26.0316265895
30
0.0000000000
10
103.1828792326
20
-26.1381857379
30
0.0000000000
10
103.1018100870
20
-26.2352727027
30
0.0000000000
10
103.0090966110
20
-26.3213711434
30
0.0000000000
10
102.9061774309
20
-26.3951222373
30
0.0000000000
10
102.7946907569
20
-26.4553259638
30
0.0000000000
10
102.6764744386
20
-26.5009766775
30
0.0000000000
10
102.5535694355
20
-26.5313382966
30
0.0000000000
10
102.4697400421
20
-26.5411079385
30
0.0000000000
10
102.4277708632
20
-26.5433432585
30
0.0000000000
11
103.3735240808
21
-25.5472385514
31
0.0000000000
11
103.3655914327
21
-25.6726493732
31
0.0000000000
11
103.3418921777
21
-25.7963684161
31
0.0000000000
11
103.3027181559
21
-25.9162993632
31
0.0000000000
11
103.2486941169
21
-26.0303507887
31
0.0000000000
11
103.1807241758
21
-26.1366124279
31
0.0000000000
11
103.0998847730
21
-26.2334256041
31
0.0000000000
11
103.0074321387
21
-26.3192838261
31
0.0000000000
11
102.9047983482
21
-26.3928336046
31
0.0000000000
11
102.7935837450
21
-26.4528927682
31
0.0000000000
11
102.6756379624
21
-26.4984448406
31
0.0000000000
11
102.5530080071
21
-26.5287372504
31
0.0000000000
11
102.4277708632
21
-26.5433432585
31
0.0000000000
0
SPLINE
5
35B
100
AcDbEntity
8
0
100
AcDbSpline
62
9
6
CONTINUOUS
70
0
71
3
72
13
73
9
74
7
42
0.0000001000
43
0.0000001000
44
0.0000000001
12
0.0376530542
22
-0.0924245744
32
0.0000000000
13
-0.0052642970
23
-0.0996611339
33
0.0000000000
40
0.0000000000
40
0.0000000000
40
0.0000000000
40
0.0000000000
40
0.0453560357
40
0.1512231004
40
0.3110648369
40
0.5147598667
40
0.7493740873
40
1.0000000000
40
1.0000000000
40
1.0000000000
40
1.0000000000
10
102.4277708632
20
26.4079628171
30
0.0000000000
10
102.4283401276
20
26.4065654797
30
0.0000000000
10
102.4279223442
20
26.4013324431
30
0.0000000000
10
102.4283364757
20
26.3911483763
30
0.0000000000
10
102.4277121888
20
26.3754551762
30
0.0000000000
10
102.4270983689
20
26.3556008155
30
0.0000000000
10
102.4260750539
20
26.3326926808
30
0.0000000000
10
102.4252802511
20
26.3165728422
30
0.0000000000
10
102.4248404614
20
26.3082469547
30
0.0000000000
11
102.4277708632
21
26.4079628171
31
0.0000000000
11
102.4281452111
21
26.4034517874
31
0.0000000000
11
102.4281523616
21
26.3928862491
31
0.0000000000
11
102.4277918602
21
26.3769381062
31
0.0000000000
11
102.4270866324
21
26.3566215638
31
0.0000000000
11
102.4260815266
21
26.3332286304
31
0.0000000000
11
102.4248404614
21
26.3082469547
31
0.0000000000
0
SPLINE
5
35C
100
AcDbEntity
8
0
100
AcDbSpline
62
9
6
CONTINUOUS
70
0
71
3
72
19
73
15
74
13
42
0.0000001000
43
0.0000001000
44
0.0000000001
12
1.3608591614
22
-0.0719696392
32
0.0000000000
13
0.0000515973
23
-1.3627609047
33
0.0000000000
40
0.0000000000
40
0.0000000000
40
0.0000000000
40
0.0000000000
40
0.0832074672
40
0.1666751417
40
0.2502146568
40
0.3337229436
40
0.4171425405
40
0.5004969567
40
0.5838202534
40
0.6671504475
40
0.7505188679
40
0.8338660766
40
0.9170873231
40
1.0000000000
40
1.0000000000
40
1.0000000000
40
1.0000000000
10
102.4248404614
20
26.3082469547
30
0.0000000000
10
102.4625850094
20
26.3062508176
30
0.0000000000
10
102.5380271306
20
26.2974952879
30
0.0000000000
10
102.6486660103
20
26.2702283146
30
0.0000000000
10
102.7551313911
20
26.2291771071
30
0.0000000000
10
102.8555342442
20
26.1750156539
30
0.0000000000
10
102.9482191890
20
26.1086475308
30
0.0000000000
10
103.0317089564
20
26.0311527396
30
0.0000000000
10
103.1047055081
20
25.9437557508
30
0.0000000000
10
103.1660680017
20
25.8478239343
30
0.0000000000
10
103.2148096452
20
25.7448929455
30
0.0000000000
10
103.2501293649
20
25.6366679281
30
0.0000000000
10
103.2714705560
20
25.5250744742
30
0.0000000000
10
103.2762195698
20
25.4495214946
30
0.0000000000
10
103.2762209959
20
25.4118581097
30
0.0000000000
11
102.4248404614
21
26.3082469547
31
0.0000000000
11
102.5374751125
21
26.2951643492
31
0.0000000000
11
102.6479171226
21
26.2679462489
31
0.0000000000
11
102.7541368507
21
26.2269839075
31
0.0000000000
11
102.8542939329
21
26.1729522958
31
0.0000000000
11
102.9467206379
21
26.1067656952
31
0.0000000000
11
103.0299747383
21
26.0294874382
31
0.0000000000
11
103.1027642869
21
25.9423368612
31
0.0000000000
11
103.1639551142
21
25.8466741263
31
0.0000000000
11
103.2125785432
21
25.7439936882
31
0.0000000000
11
103.2478211767
21
25.6360173034
31
0.0000000000
11
103.2691225398
21
25.5246250684
31
0.0000000000
11
103.2762209959
21
25.4118581097
31
0.0000000000
0
SPLINE
5
35D
100
AcDbEntity
8
0
100
AcDbSpline
62
9
6
CONTINUOUS
70
0
71
3
72
19
73
15
74
13
42
0.0000001000
43
0.0000001000
44
0.0000000001
12
1.5117917119
22
-0.0805195244
32
0.0000000000
13
0.0004202810
23
-1.5139344099
33
0.0000000000
40
0.0000000000
40
0.0000000000
40
0.0000000000
40
0.0000000000
40
0.0832836598
40
0.1667192490
40
0.2502344502
40
0.3337224603
40
0.4171254376
40
0.5004652474
40
0.5837754109
40
0.6670951281
40
0.7504537841
40
0.8337907459
40
0.9169967755
40
1.0000000000
40
1.0000000000
40
1.0000000000
40
1.0000000000
10
102.4277708632
20
26.4079628171
30
0.0000000000
10
102.4697400454
20
26.4057274969
30
0.0000000000
10
102.5535694414
20
26.3959578542
30
0.0000000000
10
102.6764744468
20
26.3655962329
30
0.0000000000
10
102.7946907644
20
26.3199455188
30
0.0000000000
10
102.9061774381
20
26.2597417910
30
0.0000000000
10
103.0090966178
20
26.1859906962
30
0.0000000000
10
103.1018100931
20
26.0998922546
30
0.0000000000
10
103.1828792379
20
26.0028052889
30
0.0000000000
10
103.2510390057
20
25.8962461398
30
0.0000000000
10
103.3051940527
20
25.7819176205
30
0.0000000000
10
103.3444532294
20
25.6617132715
30
0.0000000000
10
103.3682077915
20
25.5377164302
30
0.0000000000
10
103.3735124521
20
25.4537452556
30
0.0000000000
10
103.3735240803
20
25.4118581097
30
0.0000000000
11
102.4277708632
21
26.4079628171
31
0.0000000000
11
102.5530080169
21
26.3933568071
31
0.0000000000
11
102.6756379698
21
26.3630643965
31
0.0000000000
11
102.7935837527
21
26.3175123230
31
0.0000000000
11
102.9047983554
21
26.2574531583
31
0.0000000000
11
103.0074321454
21
26.1839033788
31
0.0000000000
11
103.0998847791
21
26.0980451559
31
0.0000000000
11
103.1807241812
21
26.0012319790
31
0.0000000000
11
103.2486941213
21
25.8949703390
31
0.0000000000
11
103.3027181593
21
25.7809189127
31
0.0000000000
11
103.3418921801
21
25.6609879657
31
0.0000000000
11
103.3655914340
21
25.5372689196
31
0.0000000000
11
103.3735240803
21
25.4118581097
31
0.0000000000
0
SPLINE
5
35E
100
AcDbEntity
8
0
100
AcDbSpline
62
9
6
CONTINUOUS
70
0
71
3
72
13
73
9
74
7
42
0.0000001000
43
0.0000001000
44
0.0000000001
12
-0.0376530052
22
-0.0924256910
32
0.0000000000
13
0.0052643724
23
-0.0996621469
33
0.0000000000
40
0.0000000000
40
0.0000000000
40
0.0000000000
40
0.0000000000
40
0.0453561892
40
0.1512235099
40
0.3110655061
40
0.5147606623
40
0.7493747150
40
1.0000000000
40
1.0000000000
40
1.0000000000
40
1.0000000000
10
55.5300607383
20
26.4079638316
30
0.0000000000
10
55.5294914727
20
26.4065664725
30
0.0000000000
10
55.5299092585
20
26.4013333732
30
0.0000000000
10
55.5294951314
20
26.3911491770
30
0.0000000000
10
55.5301194269
20
26.3754557978
30
0.0000000000
10
55.5307332587
20
26.3556012272
30
0.0000000000
10
55.5317565873
20
26.3326928821
30
0.0000000000
10
55.5325514002
20
26.3165729060
30
0.0000000000
10
55.5329911951
20
26.3082469547
30
0.0000000000
11
55.5300607383
21
26.4079638316
31
0.0000000000
11
55.5296863907
21
26.4034527403
31
0.0000000000
11
55.5296792448
21
26.3928870689
31
0.0000000000
11
55.5300397552
21
26.3769387380
31
0.0000000000
11
55.5307449951
21
26.3566219763
31
0.0000000000
11
55.5317501152
21
26.3332288218
31
0.0000000000
11
55.5329911951
21
26.3082469547
31
0.0000000000
0
SPLINE
5
35F
100
AcDbEntity
8
0
100
AcDbSpline
62
9
6
CONTINUOUS
70
0
71
3
72
14
73
10
74
8
42
0.0000001000
43
0.0000001000
44
0.0000000001
12
46.8478075186
22
2.4758579766
32
0.0000000000
13
46.8478075002
23
-2.4758583230
33
0.0000000000
40
0.0000000000
40
0.0000000000
40
0.0000000000
40
0.0000000000
40
0.1202088503
40
0.2733951391
40
0.4272075846
40
0.5755213148
40
0.7288135951
40
0.8807449487
40
1.0000000000
40
1.0000000000
40
1.0000000000
40
1.0000000000
10
55.5329911950
20
26.3082469547
30
0.0000000000
10
57.4101648892
20
26.4074536350
30
0.0000000000
10
61.6809597556
20
26.6059851297
30
0.0000000000
10
68.3583847797
20
26.8198521665
30
0.0000000000
10
75.4778629274
20
26.9324064610
30
0.0000000000
10
82.5998605384
20
26.9313805295
30
0.0000000000
10
89.6915509279
20
26.8174157459
30
0.0000000000
10
96.3262816006
20
26.6038073635
30
0.0000000000
10
100.5625612326
20
26.4066664918
30
0.0000000000
10
102.4248404614
20
26.3082469547
30
0.0000000000
11
55.5329911950
21
26.3082469547
31
0.0000000000
11
61.1662879055
21
26.5701163203
31
0.0000000000
11
68.3490614860
21
26.8001685243
31
0.0000000000
11
75.5639916437
21
26.9142319498
31
0.0000000000
11
82.5218610556
21
26.9132295088
31
0.0000000000
11
89.7123617724
21
26.7976770270
31
0.0000000000
11
96.8362543249
21
26.5683199769
31
0.0000000000
11
102.4248404614
21
26.3082469547
31
0.0000000000
0
SPLINE
5
360
100
AcDbEntity
8
0
100
AcDbSpline
62
9
6
CONTINUOUS
70
0
71
3
72
14
73
10
74
8
42
0.0000001000
43
0.0000001000
44
0.0000000001
12
46.8536533187
22
2.4764389144
32
0.0000000000
13
46.8536533092
23
-2.4764390949
33
0.0000000000
40
0.0000000000
40
0.0000000000
40
0.0000000000
40
0.0000000000
40
0.1202092651
40
0.2733954409
40
0.4272076907
40
0.5755212222
40
0.7288133093
40
0.8807445513
40
1.0000000000
40
1.0000000000
40
1.0000000000
40
1.0000000000
10
55.5300607383
20
26.4079638316
30
0.0000000000
10
57.4074751487
20
26.5071941322
30
0.0000000000
10
61.6788079608
20
26.7057727355
30
0.0000000000
10
68.3570692310
20
26.9196899830
30
0.0000000000
10
75.4774298851
20
27.0322705998
30
0.0000000000
10
82.6003092529
20
27.0312444225
30
0.0000000000
10
89.6928787248
20
26.9172529718
30
0.0000000000
10
96.3284400863
20
26.7035944374
30
0.0000000000
10
100.5652531015
20
26.5064067840
30
0.0000000000
10
102.4277709182
20
26.4079638321
30
0.0000000000
11
55.5300607383
21
26.4079638316
31
0.0000000000
11
61.1640802068
21
26.6698957249
31
0.0000000000
11
68.3477461650
21
26.9000017835
31
0.0000000000
11
75.5635694535
21
27.0140918419
31
0.0000000000
11
82.5222998958
21
27.0130891604
31
0.0000000000
11
89.7136907953
21
26.8975096830
31
0.0000000000
11
96.8384684196
21
26.6680989270
31
0.0000000000
11
102.4277709182
21
26.4079638321
31
0.0000000000
0
SPLINE
5
361
100
AcDbEntity
8
0
100
AcDbSpline
62
9
6
CONTINUOUS
70
0
71
3
72
19
73
15
74
13
42
0.0000001000
43
0.0000001000
44
0.0000000001
12
0.0000515986
22
1.3627609047
32
0.0000000000
13
1.3608591616
23
0.0719696363
33
0.0000000000
40
0.0000000000
40
0.0000000000
40
0.0000000000
40
0.0000000000
40
0.0829126769
40
0.1661339234
40
0.2494811321
40
0.3328495525
40
0.4161797466
40
0.4995030433
40
0.5828574595
40
0.6662770565
40
0.7497853432
40
0.8333248583
40
0.9167925328
40
1.0000000000
40
1.0000000000
40
1.0000000000
40
1.0000000000
10
54.6816106606
20
25.4118581097
30
0.0000000000
10
54.6816120866
20
25.4495214946
30
0.0000000000
10
54.6863611001
20
25.5250744742
30
0.0000000000
10
54.7077022918
20
25.6366679281
30
0.0000000000
10
54.7430220111
20
25.7448929455
30
0.0000000000
10
54.7917636548
20
25.8478239343
30
0.0000000000
10
54.8531261484
20
25.9437557508
30
0.0000000000
10
54.9261227001
20
26.0311527396
30
0.0000000000
10
55.0096124674
20
26.1086475308
30
0.0000000000
10
55.1022974122
20
26.1750156539
30
0.0000000000
10
55.2027002654
20
26.2291771070
30
0.0000000000
10
55.3091656461
20
26.2702283148
30
0.0000000000
10
55.4198045259
20
26.2974952876
30
0.0000000000
10
55.4952466470
20
26.3062508176
30
0.0000000000
10
55.5329911950
20
26.3082469547
30
0.0000000000
11
54.6816106606
21
25.4118581097
31
0.0000000000
11
54.6887091165
21
25.5246250685
31
0.0000000000
11
54.7100104799
21
25.6360173034
31
0.0000000000
11
54.7452531132
21
25.7439936882
31
0.0000000000
11
54.7938765423
21
25.8466741263
31
0.0000000000
11
54.8550673696
21
25.9423368612
31
0.0000000000
11
54.9278569182
21
26.0294874382
31
0.0000000000
11
55.0111110186
21
26.1067656952
31
0.0000000000
11
55.1035377236
21
26.1729522958
31
0.0000000000
11
55.2036948058
21
26.2269839075
31
0.0000000000
11
55.3099145338
21
26.2679462489
31
0.0000000000
11
55.4203565439
21
26.2951643491
31
0.0000000000
11
55.5329911950
21
26.3082469547
31
0.0000000000
0
SPLINE
5
362
100
AcDbEntity
8
0
100
AcDbSpline
62
9
6
CONTINUOUS
70
0
71
3
72
19
73
15
74
13
42
0.0000001000
43
0.0000001000
44
0.0000000001
12
0.0004202830
22
1.5139344099
32
0.0000000000
13
1.5117917121
23
0.0805195219
33
0.0000000000
40
0.0000000000
40
0.0000000000
40
0.0000000000
40
0.0000000000
40
0.0830032323
40
0.1662092600
40
0.2495462222
40
0.3329048780
40
0.4162245951
40
0.4995347584
40
0.5828745681
40
0.6662775453
40
0.7497655554
40
0.8332807562
40
0.9167163468
40
1.0000000000
40
1.0000000000
40
1.0000000000
40
1.0000000000
10
54.5843075757
20
25.4118581097
30
0.0000000000
10
54.5843192040
20
25.4537452596
30
0.0000000000
10
54.5896238654
20
25.5377164372
30
0.0000000000
10
54.6133784299
20
25.6617132812
30
0.0000000000
10
54.6526376070
20
25.7819176291
30
0.0000000000
10
54.7067926553
20
25.8962461478
30
0.0000000000
10
54.7749524239
20
26.0028052962
30
0.0000000000
10
54.8560215694
20
26.0998922610
30
0.0000000000
10
54.9487350454
20
26.1859907017
30
0.0000000000
10
55.0516542255
20
26.2597417956
30
0.0000000000
10
55.1631408996
20
26.3199455221
30
0.0000000000
10
55.2813572179
20
26.3655962358
30
0.0000000000
10
55.4042622209
20
26.3959578549
30
0.0000000000
10
55.4880916144
20
26.4057274968
30
0.0000000000
10
55.5300607933
20
26.4079628168
30
0.0000000000
11
54.5843075757
21
25.4118581097
31
0.0000000000
11
54.5922402238
21
25.5372689315
31
0.0000000000
11
54.6159394787
21
25.6609879743
31
0.0000000000
11
54.6551135006
21
25.7809189214
31
0.0000000000
11
54.7091375396
21
25.8949703470
31
0.0000000000
11
54.7771074806
21
26.0012319862
31
0.0000000000
11
54.8579468834
21
26.0980451623
31
0.0000000000
11
54.9503995178
21
26.1839033843
31
0.0000000000
11
55.0530333083
21
26.2574531629
31
0.0000000000
11
55.1642479115
21
26.3175123265
31
0.0000000000
11
55.2821936940
21
26.3630643989
31
0.0000000000
11
55.4048236494
21
26.3933568087
31
0.0000000000
11
55.5300607933
21
26.4079628168
31
0.0000000000
0
SPLINE
5
363
100
AcDbEntity
8
0
100
AcDbSpline
62
9
6
CONTINUOUS
70
0
71
3
72
10
73
6
74
4
42
0.0000001000
43
0.0000001000
44
0.0000000001
12
-0.0957175254
22
0.0906552527
32
0.0000000000
13
-0.0957080285
23
0.0906652789
33
0.0000000000
40
0.0000000000
40
0.0000000000
40
0.0000000000
40
0.0000000000
40
0.3333098276
40
0.6666431523
40
1.0000000000
40
1.0000000000
40
1.0000000000
40
1.0000000000
10
103.4692377687
20
-25.6378988171
30
0.0000000000
10
103.4586032381
20
-25.6278267215
30
0.0000000000
10
103.4373337788
20
-25.6076814491
30
0.0000000000
10
103.4054295195
20
-25.5774613607
30
0.0000000000
10
103.3841599670
20
-25.5573131820
30
0.0000000000
10
103.3735249915
20
-25.5472385515
30
0.0000000000
11
103.4692377687
21
-25.6378988171
31
0.0000000000
11
103.4373347043
21
-25.6076819735
31
0.0000000000
11
103.4054304459
21
-25.5774618859
31
0.0000000000
11
103.3735249915
21
-25.5472385515
31
0.0000000000
0
SPLINE
5
364
100
AcDbEntity
8
0
100
AcDbSpline
62
9
6
CONTINUOUS
70
0
71
3
72
10
73
6
74
4
42
0.0000001000
43
0.0000001000
44
0.0000000001
12
-0.0955340144
22
0.0902734249
32
0.0000000000
13
-0.0955246209
23
0.0902833648
33
0.0000000000
40
0.0000000000
40
0.0000000000
40
0.0000000000
40
0.0000000000
40
0.3333098649
40
0.6666431890
40
1.0000000000
40
1.0000000000
40
1.0000000000
40
1.0000000000
10
102.5233002353
20
-26.6336226515
30
0.0000000000
10
102.5126860921
20
-26.6235929771
30
0.0000000000
10
102.4914574066
20
-26.6035325545
30
0.0000000000
10
102.4596143004
20
-26.5734397563
30
0.0000000000
10
102.4383855116
20
-26.5533764483
30
0.0000000000
10
102.4277709173
20
-26.5433442568
30
0.0000000000
11
102.5233002353
21
-26.6336226515
31
0.0000000000
11
102.4914583275
21
-26.6035330763
31
0.0000000000
11
102.4596152223
21
-26.5734402791
31
0.0000000000
11
102.4277709173
21
-26.5433442568
31
0.0000000000
0
SPLINE
5
365
100
AcDbEntity
8
0
100
AcDbSpline
62
9
6
CONTINUOUS
70
0
71
3
72
10
73
6
74
4
42
0.0000001000
43
0.0000001000
44
0.0000000001
12
0.0955340144
22
0.0902734249
32
0.0000000000
13
0.0955246209
23
0.0902833648
33
0.0000000000
40
0.0000000000
40
0.0000000000
40
0.0000000000
40
0.0000000000
40
0.3333098629
40
0.6666431873
40
1.0000000000
40
1.0000000000
40
1.0000000000
40
1.0000000000
10
55.4345314212
20
-26.6336226515
30
0.0000000000
10
55.4451455643
20
-26.6235929772
30
0.0000000000
10
55.4663742497
20
-26.6035325546
30
0.0000000000
10
55.4982173559
20
-26.5734397565
30
0.0000000000
10
55.5194461448
20
-26.5533764484
30
0.0000000000
10
55.5300607392
20
-26.5433442568
30
0.0000000000
11
55.4345314212
21
-26.6336226515
31
0.0000000000
11
55.4663733287
21
-26.6035330765
31
0.0000000000
11
55.4982164340
21
-26.5734402792
31
0.0000000000
11
55.5300607392
21
-26.5433442568
31
0.0000000000
0
SPLINE
5
366
100
AcDbEntity
8
0
100
AcDbSpline
62
9
6
CONTINUOUS
70
0
71
3
72
10
73
6
74
4
42
0.0000001000
43
0.0000001000
44
0.0000000001
12
0.0957175254
22
0.0906552527
32
0.0000000000
13
0.0957080285
23
0.0906652789
33
0.0000000000
40
0.0000000000
40
0.0000000000
40
0.0000000000
40
0.0000000000
40
0.3333098263
40
0.6666431527
40
1.0000000000
40
1.0000000000
40
1.0000000000
40
1.0000000000
10
54.4885938877
20
-25.6378988171
30
0.0000000000
10
54.4992284183
20
-25.6278267215
30
0.0000000000
10
54.5204978776
20
-25.6076814491
30
0.0000000000
10
54.5524021369
20
-25.5774613607
30
0.0000000000
10
54.5736716894
20
-25.5573131820
30
0.0000000000
10
54.5843066650
20
-25.5472385515
30
0.0000000000
11
54.4885938877
21
-25.6378988171
31
0.0000000000
11
54.5204969520
21
-25.6076819736
31
0.0000000000
11
54.5524012106
21
-25.5774618858
31
0.0000000000
11
54.5843066650
21
-25.5472385515
31
0.0000000000
0
SPLINE
5
367
100
AcDbEntity
8
0
100
AcDbSpline
62
9
6
CONTINUOUS
70
0
71
3
72
10
73
6
74
4
42
0.0000001000
43
0.0000001000
44
0.0000000001
12
0.0955246209
22
0.0902833648
32
0.0000000000
13
0.0955340144
23
0.0902734249
33
0.0000000000
40
0.0000000000
40
0.0000000000
40
0.0000000000
40
0.0000000000
40
0.3333568112
40
0.6666901352
40
1.0000000000
40
1.0000000000
40
1.0000000000
40
1.0000000000
10
102.4277709173
20
26.4079638151
30
0.0000000000
10
102.4383855116
20
26.4179960066
30
0.0000000000
10
102.4596143004
20
26.4380593146
30
0.0000000000
10
102.4914574066
20
26.4681521127
30
0.0000000000
10
102.5126860921
20
26.4882125354
30
0.0000000000
10
102.5233002353
20
26.4982422098
30
0.0000000000
11
102.4277709173
21
26.4079638151
31
0.0000000000
11
102.4596152223
21
26.4380598374
31
0.0000000000
11
102.4914583275
21
26.4681526346
31
0.0000000000
11
102.5233002353
21
26.4982422098
31
0.0000000000
0
SPLINE
5
368
100
AcDbEntity
8
0
100
AcDbSpline
62
9
6
CONTINUOUS
70
0
71
3
72
10
73
6
74
4
42
0.0000001000
43
0.0000001000
44
0.0000000001
12
0.0957080285
22
0.0906652789
32
0.0000000000
13
0.0957175254
23
0.0906552527
33
0.0000000000
40
0.0000000000
40
0.0000000000
40
0.0000000000
40
0.0000000000
40
0.3333568477
40
0.6666901725
40
1.0000000000
40
1.0000000000
40
1.0000000000
40
1.0000000000
10
103.3735249915
20
25.4118581097
30
0.0000000000
10
103.3841599670
20
25.4219327403
30
0.0000000000
10
103.4054295195
20
25.4420809190
30
0.0000000000
10
103.4373337788
20
25.4723010074
30
0.0000000000
10
103.4586032381
20
25.4924462798
30
0.0000000000
10
103.4692377687
20
25.5025183753
30
0.0000000000
11
103.3735249915
21
25.4118581097
31
0.0000000000
11
103.4054304459
21
25.4420814442
31
0.0000000000
11
103.4373347043
21
25.4723015318
31
0.0000000000
11
103.4692377687
21
25.5025183753
31
0.0000000000
0
SPLINE
5
369
100
AcDbEntity
8
0
100
AcDbSpline
62
9
6
CONTINUOUS
70
0
71
3
72
10
73
6
74
4
42
0.0000001000
43
0.0000001000
44
0.0000000001
12
0.0957175254
22
-0.0906552527
32
0.0000000000
13
0.0957080285
23
-0.0906652789
33
0.0000000000
40
0.0000000000
40
0.0000000000
40
0.0000000000
40
0.0000000000
40
0.3333098276
40
0.6666431524
40
1.0000000000
40
1.0000000000
40
1.0000000000
40
1.0000000000
10
54.4885938877
20
25.5025183753
30
0.0000000000
10
54.4992284183
20
25.4924462798
30
0.0000000000
10
54.5204978777
20
25.4723010074
30
0.0000000000
10
54.5524021369
20
25.4420809190
30
0.0000000000
10
54.5736716894
20
25.4219327403
30
0.0000000000
10
54.5843066650
20
25.4118581097
30
0.0000000000
11
54.4885938877
21
25.5025183753
31
0.0000000000
11
54.5204969521
21
25.4723015318
31
0.0000000000
11
54.5524012105
21
25.4420814442
31
0.0000000000
11
54.5843066650
21
25.4118581097
31
0.0000000000
0
SPLINE
5
36A
100
AcDbEntity
8
0
100
AcDbSpline
62
9
6
CONTINUOUS
70
0
71
3
72
10
73
6
74
4
42
0.0000001000
43
0.0000001000
44
0.0000000001
12
0.0955340144
22
-0.0902734249
32
0.0000000000
13
0.0955246209
23
-0.0902833648
33
0.0000000000
40
0.0000000000
40
0.0000000000
40
0.0000000000
40
0.0000000000
40
0.3333098649
40
0.6666431890
40
1.0000000000
40
1.0000000000
40
1.0000000000
40
1.0000000000
10
55.4345314212
20
26.4982422098
30
0.0000000000
10
55.4451455643
20
26.4882125354
30
0.0000000000
10
55.4663742499
20
26.4681521127
30
0.0000000000
10
55.4982173560
20
26.4380593146
30
0.0000000000
10
55.5194461448
20
26.4179960066
30
0.0000000000
10
55.5300607392
20
26.4079638151
30
0.0000000000
11
55.4345314212
21
26.4982422098
31
0.0000000000
11
55.4663733289
21
26.4681526346
31
0.0000000000
11
55.4982164342
21
26.4380598373
31
0.0000000000
11
55.5300607392
21
26.4079638151
31
0.0000000000
0
SPLINE
5
36B
100
AcDbEntity
8
0
100
AcDbSpline
62
9
6
CONTINUOUS
70
0
71
3
72
16
73
12
74
10
42
0.0000001000
43
0.0000001000
44
0.0000000001
12
-0.2867374709
22
0.2867655378
32
0.0000000000
13
-0.0099092290
23
0.4054067810
33
0.0000000000
40
0.0000000000
40
0.0000000000
40
0.0000000000
40
0.0000000000
40
0.0252145786
40
0.0737829938
40
0.1462216866
40
0.2418522004
40
0.3592779878
40
0.4965279149
40
0.6510945562
40
0.8200487822
40
1.0000000000
40
1.0000000000
40
1.0000000000
40
1.0000000000
10
56.4144921569
20
22.2970075435
30
0.0000000000
10
56.4120821687
20
22.2994177676
30
0.0000000000
10
56.4091282061
20
22.3095438326
30
0.0000000000
10
56.4050030593
20
22.3284803772
30
0.0000000000
10
56.4011919356
20
22.3577349132
30
0.0000000000
10
56.3973332685
20
22.3960518388
30
0.0000000000
10
56.3937653962
20
22.4433051145
30
0.0000000000
10
56.3904802647
20
22.4985181036
30
0.0000000000
10
56.3875725492
20
22.5607401758
30
0.0000000000
10
56.3850816542
20
22.6287517176
30
0.0000000000
10
56.3837582125
20
22.6758976200
30
0.0000000000
10
56.3831638199
20
22.7002154346
30
0.0000000000
11
56.4144921569
21
22.2970075435
31
0.0000000000
11
56.4101650833
21
22.3062720695
31
0.0000000000
11
56.4058834912
21
22.3254969053
31
0.0000000000
11
56.4017272025
21
22.3545772985
31
0.0000000000
11
56.3977708135
21
22.3931557951
31
0.0000000000
11
56.3940841267
21
22.4406322984
31
0.0000000000
11
56.3907300963
21
22.4961898186
31
0.0000000000
11
56.3877640036
21
22.5588006813
31
0.0000000000
11
56.3852305004
21
22.6272694715
31
0.0000000000
11
56.3831638199
21
22.7002154346
31
0.0000000000
0
SPLINE
5
36C
100
AcDbEntity
8
0
100
AcDbSpline
62
0
6
CONTINUOUS
70
0
71
3
72
11
73
7
74
5
42
0.0000001000
43
0.0000001000
44
0.0000000001
12
116.0050056875
22
-0.0000156564
32
0.0000000000
13
116.0050056875
23
0.0000156564
33
0.0000000000
40
0.0000000000
40
0.0000000000
40
0.0000000000
40
0.0000000000
40
0.2498821081
40
0.5000000000
40
0.7501178919
40
1.0000000000
40
1.0000000000
40
1.0000000000
40
1.0000000000
10
20.9764129845
20
42.3323096490
30
0.0000000000
10
30.6389381094
20
42.3323083449
30
0.0000000000
10
49.9731057240
20
42.3322880368
30
0.0000000000
10
78.9789158282
20
42.3322705853
30
0.0000000000
10
107.9847259325
20
42.3322880368
30
0.0000000000
10
127.3188935471
20
42.3323083449
30
0.0000000000
10
136.9814186720
20
42.3323096490
30
0.0000000000
11
20.9764129845
21
42.3323096490
31
0.0000000000
11
49.9639883592
21
42.3322902132
31
0.0000000000
11
78.9789158282
21
42.3322764043
31
0.0000000000
11
107.9938432973
21
42.3322902132
31
0.0000000000
11
136.9814186720
21
42.3323096490
31
0.0000000000
0
SPLINE
5
36D
100
AcDbEntity
8
0
100
AcDbSpline
62
0
6
CONTINUOUS
70
0
71
3
72
11
73
7
74
5
42
0.0000001000
43
0.0000001000
44
0.0000000001
12
116.0050056875
22
0.0000156564
32
0.0000000000
13
116.0050056875
23
-0.0000156564
33
0.0000000000
40
0.0000000000
40
0.0000000000
40
0.0000000000
40
0.0000000000
40
0.2498821081
40
0.5000000000
40
0.7501178919
40
1.0000000000
40
1.0000000000
40
1.0000000000
40
1.0000000000
10
20.9764129845
20
-42.4676900907
30
0.0000000000
10
30.6389381094
20
-42.4676887866
30
0.0000000000
10
49.9731057240
20
-42.4676684785
30
0.0000000000
10
78.9789158282
20
-42.4676510270
30
0.0000000000
10
107.9847259325
20
-42.4676684785
30
0.0000000000
10
127.3188935471
20
-42.4676887866
30
0.0000000000
10
136.9814186720
20
-42.4676900907
30
0.0000000000
11
20.9764129845
21
-42.4676900907
31
0.0000000000
11
49.9639883592
21
-42.4676706549
31
0.0000000000
11
78.9789158282
21
-42.4676568460
31
0.0000000000
11
107.9938432973
21
-42.4676706549
31
0.0000000000
11
136.9814186720
21
-42.4676900907
31
0.0000000000
0
SPLINE
5
36E
100
AcDbEntity
8
0
100
AcDbSpline
62
0
6
CONTINUOUS
70
0
71
3
72
10
73
6
74
4
42
0.0000001000
43
0.0000001000
44
0.0000000001
12
-47.0700352958
22
-2.4976390450
32
0.0000000000
13
-47.0700352958
23
2.4976390450
33
0.0000000000
40
0.0000000000
40
0.0000000000
40
0.0000000000
40
0.0000000000
40
0.3259459175
40
0.6740543032
40
1.0000000000
40
1.0000000000
40
1.0000000000
40
1.0000000000
10
102.5372349373
20
-26.7431012345
30
0.0000000000
10
97.4231396570
20
-27.0144663179
30
0.0000000000
10
86.8366218341
20
-27.3929255740
30
0.0000000000
10
71.1212028870
20
-27.3929253901
30
0.0000000000
10
60.5346885375
20
-27.0144661342
30
0.0000000000
10
55.4205967192
20
-26.7431012345
30
0.0000000000
11
102.5372349373
21
-26.7431012345
31
0.0000000000
11
87.1831732387
21
-27.2919867001
31
0.0000000000
11
70.7746480176
21
-27.2919865081
31
0.0000000000
11
55.4205967192
21
-26.7431012345
31
0.0000000000
0
SPLINE
5
36F
100
AcDbEntity
8
0
100
AcDbSpline
62
0
6
CONTINUOUS
70
0
71
3
72
10
73
6
74
4
42
0.0000001000
43
0.0000001000
44
0.0000000001
12
47.0700352958
22
2.4976390450
32
0.0000000000
13
47.0700352958
23
-2.4976390450
33
0.0000000000
40
0.0000000000
40
0.0000000000
40
0.0000000000
40
0.0000000000
40
0.3259459175
40
0.6740543032
40
1.0000000000
40
1.0000000000
40
1.0000000000
40
1.0000000000
10
55.4205967192
20
26.6077207928
30
0.0000000000
10
60.5346919994
20
26.8790858762
30
0.0000000000
10
71.1212098223
20
27.2575451323
30
0.0000000000
10
86.8366287694
20
27.2575449484
30
0.0000000000
10
97.4231431189
20
26.8790856925
30
0.0000000000
10
102.5372349373
20
26.6077207928
30
0.0000000000
11
55.4205967192
21
26.6077207928
31
0.0000000000
11
70.7746584177
21
27.1566062584
31
0.0000000000
11
87.1831836389
21
27.1566060664
31
0.0000000000
11
102.5372349373
21
26.6077207928
31
0.0000000000
0
SPLINE
5
370
100
AcDbEntity
8
0
100
AcDbSpline
62
0
6
CONTINUOUS
70
0
71
3
72
12
73
8
74
6
42
0.0000001000
43
0.0000001000
44
0.0000000001
12
0.0000000000
22
1.6632760927
32
0.0000000000
13
-1.6609394690
23
0.0881330853
33
0.0000000000
40
0.0000000000
40
0.0000000000
40
0.0000000000
40
0.0000000000
40
0.1994597389
40
0.4000907810
40
0.5997054535
40
0.8007888653
40
1.0000000000
40
1.0000000000
40
1.0000000000
40
1.0000000000
10
103.5789158282
20
25.5090764871
30
0.0000000000
10
103.5789158282
20
25.6196620254
30
0.0000000000
10
103.5449606121
20
25.8429294412
30
0.0000000000
10
103.3966153700
20
26.1460224198
30
0.0000000000
10
103.1636892557
20
26.3917949949
30
0.0000000000
10
102.8687909955
20
26.5561300986
30
0.0000000000
10
102.6475274828
20
26.6018684301
30
0.0000000000
10
102.5372349373
20
26.6077207941
30
0.0000000000
11
103.5789158282
21
25.5090764871
31
0.0000000000
11
103.5289018848
21
25.8370415114
31
0.0000000000
11
103.3822852655
21
26.1368122088
31
0.0000000000
11
103.1538944465
21
26.3777917464
31
0.0000000000
11
102.8616906974
21
26.5405142361
31
0.0000000000
11
102.5372349373
21
26.6077207941
31
0.0000000000
0
SPLINE
5
371
100
AcDbEntity
8
0
100
AcDbSpline
62
0
6
CONTINUOUS
70
0
71
3
72
12
73
8
74
6
42
0.0000001000
43
0.0000001000
44
0.0000000001
12
1.6609394781
22
0.0881330857
32
0.0000000000
13
-0.0000000000
23
1.6632761017
33
0.0000000000
40
0.0000000000
40
0.0000000000
40
0.0000000000
40
0.0000000000
40
0.1994281968
40
0.4000340020
40
0.5996403528
40
0.8007262544
40
1.0000000000
40
1.0000000000
40
1.0000000000
40
1.0000000000
10
102.5372349373
20
-26.7431012358
30
0.0000000000
10
102.6476476590
20
-26.7372424950
30
0.0000000000
10
102.8687710548
20
-26.6914935824
30
0.0000000000
10
103.1635159255
20
-26.5272554734
30
0.0000000000
10
103.3965318668
20
-26.2815926370
30
0.0000000000
10
103.5449722810
20
-25.9783514295
30
0.0000000000
10
103.5789158282
20
-25.7549393484
30
0.0000000000
10
103.5789158282
20
-25.6444569288
30
0.0000000000
11
102.5372349373
21
-26.7431012358
31
0.0000000000
11
102.8620330527
21
-26.6757675156
31
0.0000000000
11
103.1535481771
21
-26.5134412266
31
0.0000000000
11
103.3820270364
21
-26.2725642352
31
0.0000000000
11
103.5289951144
21
-25.9721232342
31
0.0000000000
11
103.5789158282
21
-25.6444569288
31
0.0000000000
0
SPLINE
5
372
100
AcDbEntity
8
0
100
AcDbSpline
62
0
6
CONTINUOUS
70
0
71
3
72
12
73
8
74
6
42
0.0000001000
43
0.0000001000
44
0.0000000001
12
0.0000000000
22
-1.6632760918
32
0.0000000000
13
1.6609394681
23
-0.0881330852
33
0.0000000000
40
0.0000000000
40
0.0000000000
40
0.0000000000
40
0.0000000000
40
0.1994606192
40
0.4000924708
40
0.5997080625
40
0.8007931763
40
1.0000000000
40
1.0000000000
40
1.0000000000
40
1.0000000000
10
54.3789158282
20
-25.6444569288
30
0.0000000000
10
54.3789158282
20
-25.7550429552
30
0.0000000000
10
54.4128713416
20
-25.9783113268
30
0.0000000000
10
54.5612178470
20
-26.2814053681
30
0.0000000000
10
54.7941461167
20
-26.5271786141
30
0.0000000000
10
55.0890445348
20
-26.6915117416
30
0.0000000000
10
55.3103065605
20
-26.7372489985
30
0.0000000000
10
55.4205967191
20
-26.7431012358
30
0.0000000000
11
54.3789158282
21
-25.6444569288
31
0.0000000000
11
54.4289302130
21
-25.9724233667
31
0.0000000000
11
54.5755480129
21
-26.2721949854
31
0.0000000000
11
54.8039406754
21
-26.5131748818
31
0.0000000000
11
55.0961477590
21
-26.6758972022
31
0.0000000000
11
55.4205967191
21
-26.7431012358
31
0.0000000000
0
SPLINE
5
373
100
AcDbEntity
8
0
100
AcDbSpline
62
0
6
CONTINUOUS
70
0
71
3
72
12
73
8
74
6
42
0.0000001000
43
0.0000001000
44
0.0000000001
12
-1.6609394781
22
-0.0881330857
32
0.0000000000
13
0.0000000000
23
-1.6632761017
33
0.0000000000
40
0.0000000000
40
0.0000000000
40
0.0000000000
40
0.0000000000
40
0.1994281968
40
0.4000340020
40
0.5996403528
40
0.8007262544
40
1.0000000000
40
1.0000000000
40
1.0000000000
40
1.0000000000
10
55.4205967191
20
26.6077207941
30
0.0000000000
10
55.3101839974
20
26.6018620533
30
0.0000000000
10
55.0890606016
20
26.5561131407
30
0.0000000000
10
54.7943157309
20
26.3918750317
30
0.0000000000
10
54.5612997897
20
26.1462121953
30
0.0000000000
10
54.4128593754
20
25.8429709878
30
0.0000000000
10
54.3789158282
20
25.6195589067
30
0.0000000000
10
54.3789158282
20
25.5090764870
30
0.0000000000
11
55.4205967191
21
26.6077207941
31
0.0000000000
11
55.0957986037
21
26.5403870739
31
0.0000000000
11
54.8042834794
21
26.3780607848
31
0.0000000000
11
54.5758046201
21
26.1371837935
31
0.0000000000
11
54.4288365421
21
25.8367427925
31
0.0000000000
11
54.3789158282
21
25.5090764870
31
0.0000000000
0
SPLINE
5
374
100
AcDbEntity
8
0
100
AcDbSpline
62
0
6
CONTINUOUS
70
0
71
3
72
13
73
9
74
7
42
0.0000001000
43
0.0000001000
44
0.0000000001
12
0.0000000000
22
2.9679318785
32
0.0000000000
13
2.9679318785
23
-0.0000004005
33
0.0000000000
40
0.0000000000
40
0.0000000000
40
0.0000000000
40
0.0000000000
40
0.1643022696
40
0.3329077852
40
0.4991617849
40
0.6654394910
40
0.8344455496
40
1.0000000000
40
1.0000000000
40
1.0000000000
40
1.0000000000
10
19.0789158282
20
40.4411179080
30
0.0000000000
10
19.0789158282
20
40.6036638892
30
0.0000000000
10
19.1217276987
20
40.9345744120
30
0.0000000000
10
19.3123099819
20
41.3962655498
30
0.0000000000
10
19.6180117766
20
41.7938569840
30
0.0000000000
10
20.0166312472
20
42.0988269069
30
0.0000000000
10
20.4800762521
20
42.2893938910
30
0.0000000000
10
20.8126282075
20
42.3323096711
30
0.0000000000
10
20.9764129845
20
42.3323096490
30
0.0000000000
11
19.0789158282
21
40.4411179080
31
0.0000000000
11
19.1417064882
21
40.9246963371
31
0.0000000000
11
19.3325817639
21
41.3872722569
31
0.0000000000
11
19.6333562931
21
41.7784351207
31
0.0000000000
11
20.0252277459
21
42.0784016310
31
0.0000000000
11
20.4891317984
21
42.2691738884
31
0.0000000000
11
20.9764129845
21
42.3323096490
31
0.0000000000
0
SPLINE
5
375
100
AcDbEntity
8
0
100
AcDbSpline
62
0
6
CONTINUOUS
70
0
71
3
72
13
73
9
74
7
42
0.0000001000
43
0.0000001000
44
0.0000000001
12
-2.9679318785
22
-0.0000004005
32
0.0000000000
13
0.0000000000
23
2.9679318785
33
0.0000000000
40
0.0000000000
40
0.0000000000
40
0.0000000000
40
0.0000000000
40
0.1655544504
40
0.3345605090
40
0.5008382151
40
0.6670922148
40
0.8356977304
40
1.0000000000
40
1.0000000000
40
1.0000000000
40
1.0000000000
10
20.9764129845
20
-42.4676900907
30
0.0000000000
10
20.8126282075
20
-42.4676901128
30
0.0000000000
10
20.4800762521
20
-42.4247743327
30
0.0000000000
10
20.0166312472
20
-42.2342073486
30
0.0000000000
10
19.6180117766
20
-41.9292374257
30
0.0000000000
10
19.3123099819
20
-41.5316459915
30
0.0000000000
10
19.1217276987
20
-41.0699548537
30
0.0000000000
10
19.0789158282
20
-40.7390443309
30
0.0000000000
10
19.0789158282
20
-40.5764983497
30
0.0000000000
11
20.9764129845
21
-42.4676900907
31
0.0000000000
11
20.4891317984
21
-42.4045543301
31
0.0000000000
11
20.0252277459
21
-42.2137820727
31
0.0000000000
11
19.6333562931
21
-41.9138155624
31
0.0000000000
11
19.3325817639
21
-41.5226526986
31
0.0000000000
11
19.1417064882
21
-41.0600767788
31
0.0000000000
11
19.0789158282
21
-40.5764983497
31
0.0000000000
0
SPLINE
5
376
100
AcDbEntity
8
0
100
AcDbSpline
62
0
6
CONTINUOUS
70
0
71
3
72
13
73
9
74
7
42
0.0000001000
43
0.0000001000
44
0.0000000001
12
2.9679318785
22
0.0000004005
32
0.0000000000
13
0.0000000000
23
-2.9679318785
33
0.0000000000
40
0.0000000000
40
0.0000000000
40
0.0000000000
40
0.0000000000
40
0.1655544504
40
0.3345605090
40
0.5008382151
40
0.6670922148
40
0.8356977304
40
1.0000000000
40
1.0000000000
40
1.0000000000
40
1.0000000000
10
136.9814186720
20
42.3323096490
30
0.0000000000
10
137.1452034490
20
42.3323096711
30
0.0000000000
10
137.4777554044
20
42.2893938910
30
0.0000000000
10
137.9412004092
20
42.0988269069
30
0.0000000000
10
138.3398198799
20
41.7938569840
30
0.0000000000
10
138.6455216745
20
41.3962655498
30
0.0000000000
10
138.8361039578
20
40.9345744120
30
0.0000000000
10
138.8789158282
20
40.6036638892
30
0.0000000000
10
138.8789158282
20
40.4411179080
30
0.0000000000
11
136.9814186720
21
42.3323096490
31
0.0000000000
11
137.4686998580
21
42.2691738884
31
0.0000000000
11
137.9326039105
21
42.0784016310
31
0.0000000000
11
138.3244753633
21
41.7784351207
31
0.0000000000
11
138.6252498926
21
41.3872722569
31
0.0000000000
11
138.8161251683
21
40.9246963371
31
0.0000000000
11
138.8789158282
21
40.4411179080
31
0.0000000000
0
SPLINE
5
377
100
AcDbEntity
8
0
100
AcDbSpline
62
0
6
CONTINUOUS
70
0
71
3
72
13
73
9
74
7
42
0.0000001000
43
0.0000001000
44
0.0000000001
12
0.0000000000
22
-2.9679318785
32
0.0000000000
13
-2.9679318785
23
0.0000004005
33
0.0000000000
40
0.0000000000
40
0.0000000000
40
0.0000000000
40
0.0000000000
40
0.1643022696
40
0.3329077852
40
0.4991617849
40
0.6654394910
40
0.8344455496
40
1.0000000000
40
1.0000000000
40
1.0000000000
40
1.0000000000
10
138.8789158282
20
-40.5764983497
30
0.0000000000
10
138.8789158282
20
-40.7390443309
30
0.0000000000
10
138.8361039578
20
-41.0699548537
30
0.0000000000
10
138.6455216745
20
-41.5316459915
30
0.0000000000
10
138.3398198799
20
-41.9292374257
30
0.0000000000
10
137.9412004092
20
-42.2342073486
30
0.0000000000
10
137.4777554044
20
-42.4247743327
30
0.0000000000
10
137.1452034490
20
-42.4676901128
30
0.0000000000
10
136.9814186720
20
-42.4676900907
30
0.0000000000
11
138.8789158282
21
-40.5764983497
31
0.0000000000
11
138.8161251683
21
-41.0600767788
31
0.0000000000
11
138.6252498926
21
-41.5226526986
31
0.0000000000
11
138.3244753633
21
-41.9138155624
31
0.0000000000
11
137.9326039105
21
-42.2137820727
31
0.0000000000
11
137.4686998580
21
-42.4045543301
31
0.0000000000
11
136.9814186720
21
-42.4676900907
31
0.0000000000
0
SPLINE
5
378
100
AcDbEntity
8
0
100
AcDbSpline
62
9
6
CONTINUOUS
70
0
71
3
72
10
73
6
74
4
42
0.0000001000
43
0.0000001000
44
0.0000000001
12
0.0053075021
22
-0.1000543059
32
0.0000000000
13
0.0961341512
23
-0.0282357697
33
0.0000000000
40
0.0000000000
40
0.0000000000
40
0.0000000000
40
0.0000000000
40
0.4970740162
40
0.8626339126
40
1.0000000000
40
1.0000000000
40
1.0000000000
40
1.0000000000
10
55.4049568650
20
26.7150334293
30
0.0000000000
10
55.4058362721
20
26.6984552974
30
0.0000000000
10
55.4052510123
20
26.6675058170
30
0.0000000000
10
55.4142144570
20
26.6404614713
30
0.0000000000
10
55.4083151042
20
26.6164695106
30
0.0000000000
10
55.4127169616
20
26.6151766316
30
0.0000000000
11
55.4049568650
21
26.7150334293
31
0.0000000000
11
55.4079234970
21
26.6653175423
31
0.0000000000
11
55.4107613232
21
26.6288003771
31
0.0000000000
11
55.4127169616
21
26.6151766316
31
0.0000000000
0
SPLINE
5
379
100
AcDbEntity
8
0
100
AcDbSpline
62
9
6
CONTINUOUS
70
0
71
3
72
12
73
8
74
6
42
0.0000001000
43
0.0000001000
44
0.0000000001
12
47.0873177197
22
2.4993394064
32
0.0000000000
13
47.0873176969
23
-2.4993398353
33
0.0000000000
40
0.0000000000
40
0.0000000000
40
0.0000000000
40
0.0000000000
40
0.2140978167
40
0.4073011351
40
0.5934980096
40
0.7864585316
40
1.0000000000
40
1.0000000000
40
1.0000000000
40
1.0000000000
10
55.4127169616
20
26.6151766316
30
0.0000000000
10
58.7731476009
20
26.7935443349
30
0.0000000000
10
65.1701579231
20
27.0603049013
30
0.0000000000
10
74.4974041739
20
27.2475787446
30
0.0000000000
10
83.4942964667
20
27.2471976329
30
0.0000000000
10
92.8089687417
20
27.0595061300
30
0.0000000000
10
99.1934163737
20
26.7930808562
30
0.0000000000
10
102.5451146958
20
26.6151766233
30
0.0000000000
11
55.4127169616
21
26.6151766316
31
0.0000000000
11
65.4994341668
21
27.0357929566
31
0.0000000000
11
74.6078306719
21
27.2186792211
31
0.0000000000
11
83.3876839902
21
27.2183072086
31
0.0000000000
11
92.4846209172
21
27.0349967685
31
0.0000000000
11
102.5451146958
21
26.6151766233
31
0.0000000000
0
SPLINE
5
37A
100
AcDbEntity
8
0
100
AcDbSpline
62
9
6
CONTINUOUS
70
0
71
3
72
12
73
8
74
6
42
0.0000001000
43
0.0000001000
44
0.0000000001
12
47.1028329247
22
2.4998917115
32
0.0000000000
13
47.1028328790
23
-2.4998925729
33
0.0000000000
40
0.0000000000
40
0.0000000000
40
0.0000000000
40
0.0000000000
40
0.2140975421
40
0.4073011153
40
0.5934982076
40
0.7864590106
40
1.0000000000
40
1.0000000000
40
1.0000000000
40
1.0000000000
10
55.4049568649
20
26.7150334293
30
0.0000000000
10
58.7664904499
20
26.8934403196
30
0.0000000000
10
65.1656073216
20
27.1602610091
30
0.0000000000
10
74.4959274381
20
27.3475766196
30
0.0000000000
10
83.4957931690
20
27.3471953425
30
0.0000000000
10
92.8135323672
20
27.1594618246
30
0.0000000000
10
99.2000796120
20
26.8929766072
30
0.0000000000
10
102.5528747916
20
26.7150334293
30
0.0000000000
11
55.4049568649
21
26.7150334293
31
0.0000000000
11
65.4949834681
21
27.1357431907
31
0.0000000000
11
74.6063908044
21
27.3186706150
31
0.0000000000
11
83.3891446678
21
27.3182984361
31
0.0000000000
11
92.4890898872
21
27.1349465315
31
0.0000000000
11
102.5528747916
21
26.7150334293
31
0.0000000000
0
SPLINE
5
37B
100
AcDbEntity
8
0
100
AcDbSpline
62
9
6
CONTINUOUS
70
0
71
3
72
14
73
10
74
8
42
0.0000001000
43
0.0000001000
44
0.0000000001
12
-0.0003497795
22
1.6662854415
32
0.0000000000
13
1.6639581034
23
0.0880382015
33
0.0000000000
40
0.0000000000
40
0.0000000000
40
0.0000000000
40
0.0000000000
40
0.1589727747
40
0.2996555516
40
0.4291304371
40
0.5557512234
40
0.6881363902
40
0.8344489588
40
1.0000000000
40
1.0000000000
40
1.0000000000
40
1.0000000000
10
54.3710792960
20
25.5165130640
30
0.0000000000
10
54.3710607608
20
25.6048110707
30
0.0000000000
10
54.3913213450
20
25.7719864205
30
0.0000000000
10
54.4732516797
20
25.9976140977
30
0.0000000000
10
54.5897407611
20
26.1863852074
30
0.0000000000
10
54.7372627222
20
26.3456472061
30
0.0000000000
10
54.9208088688
20
26.4786348911
30
0.0000000000
10
55.1482419429
20
26.5791493075
30
0.0000000000
10
55.3208962142
20
26.6102691227
30
0.0000000000
10
55.4127195464
20
26.6151273947
30
0.0000000000
11
54.3710792960
21
25.5165130640
31
0.0000000000
11
54.4029576031
21
25.7794819186
31
0.0000000000
11
54.4829127416
21
25.9998425754
31
0.0000000000
11
54.5962181978
21
26.1834359755
31
0.0000000000
11
54.7395989641
21
26.3382171348
31
0.0000000000
11
54.9182187648
21
26.4676604363
31
0.0000000000
11
55.1412532679
21
26.5661151117
31
0.0000000000
11
55.4127195464
21
26.6151273947
31
0.0000000000
0
SPLINE
5
37C
100
AcDbEntity
8
0
100
AcDbSpline
62
9
6
CONTINUOUS
70
0
71
3
72
8
73
4
74
2
42
0.0000001000
43
0.0000001000
44
0.0000000001
12
-0.0000408132
22
0.1009979774
32
0.0000000000
13
0.0085385684
23
0.1008779622
33
0.0000000000
40
0.0000000000
40
0.0000000000
40
0.0000000000
40
0.0000000000
40
1.0000000000
40
1.0000000000
40
1.0000000000
40
1.0000000000
10
54.2684785361
20
25.5165130626
30
0.0000000000
10
54.2684649317
20
25.5501790551
30
0.0000000000
10
54.2698908232
20
25.5838972458
30
0.0000000000
10
54.2727370127
20
25.6175232332
30
0.0000000000
11
54.2684785361
21
25.5165130626
31
0.0000000000
11
54.2727370127
21
25.6175232332
31
0.0000000000
0
SPLINE
5
37D
100
AcDbEntity
8
0
100
AcDbSpline
62
9
6
CONTINUOUS
70
0
71
3
72
14
73
10
74
8
42
0.0000001000
43
0.0000001000
44
0.0000000001
12
0.1451477654
22
1.7148320525
32
0.0000000000
13
1.7144923583
23
0.0903691785
33
0.0000000000
40
0.0000000000
40
0.0000000000
40
0.0000000000
40
0.0000000000
40
0.1096226013
40
0.2586339604
40
0.3957949547
40
0.5299850461
40
0.6703218786
40
0.8254330076
40
1.0000000000
40
1.0000000000
40
1.0000000000
40
1.0000000000
10
54.2727370127
20
25.6175232332
30
0.0000000000
10
54.2780408379
20
25.6801846833
30
0.0000000000
10
54.3021905392
20
25.8272672083
30
0.0000000000
10
54.3801024753
20
26.0416645550
30
0.0000000000
10
54.5073483849
20
26.2476786783
30
0.0000000000
10
54.6685262281
20
26.4214900889
30
0.0000000000
10
54.8691022207
20
26.5665965876
30
0.0000000000
10
55.1171528836
20
26.6758906589
30
0.0000000000
10
55.3051922734
20
26.7097749374
30
0.0000000000
10
55.4049568649
20
26.7150334293
30
0.0000000000
11
54.2727370127
21
25.6175232332
31
0.0000000000
11
54.3033205009
21
25.8036126040
31
0.0000000000
11
54.3906486774
21
26.0440799812
31
0.0000000000
11
54.5144042954
21
26.2444274452
31
0.0000000000
11
54.6710617601
21
26.4133556151
31
0.0000000000
11
54.8662645460
21
26.5545935750
31
0.0000000000
11
55.1099955429
21
26.6618973054
31
0.0000000000
11
55.4049568649
21
26.7150334293
31
0.0000000000
0
SPLINE
5
37E
100
AcDbEntity
8
0
100
AcDbSpline
62
9
6
CONTINUOUS
70
0
71
3
72
10
73
6
74
4
42
0.0000001000
43
0.0000001000
44
0.0000000001
12
0.0053075876
22
0.1000576943
32
0.0000000000
13
0.0961370155
23
0.0282380402
33
0.0000000000
40
0.0000000000
40
0.0000000000
40
0.0000000000
40
0.0000000000
40
0.4970711868
40
0.8626327099
40
1.0000000000
40
1.0000000000
40
1.0000000000
40
1.0000000000
10
55.4049568792
20
-26.8504138710
30
0.0000000000
10
55.4058362955
20
-26.8338352721
30
0.0000000000
10
55.4052509999
20
-26.8028848371
30
0.0000000000
10
55.4142147485
20
-26.7758394694
30
0.0000000000
10
55.4083151121
20
-26.7518466816
30
0.0000000000
10
55.4127171392
20
-26.7505536873
30
0.0000000000
11
55.4049568792
21
-26.8504138710
31
0.0000000000
11
55.4079235537
21
-26.8006965834
31
0.0000000000
11
55.4107614568
21
-26.7641780184
31
0.0000000000
11
55.4127171392
21
-26.7505536873
31
0.0000000000
0
SPLINE
5
37F
100
AcDbEntity
8
0
100
AcDbSpline
62
9
6
CONTINUOUS
70
0
71
3
72
14
73
10
74
8
42
0.0000001000
43
0.0000001000
44
0.0000000001
12
-1.6639600857
22
0.0880046441
32
0.0000000000
13
0.0003153653
23
1.6662856552
33
0.0000000000
40
0.0000000000
40
0.0000000000
40
0.0000000000
40
0.0000000000
40
0.1589002402
40
0.2995459340
40
0.4290132886
40
0.5556483772
40
0.6880613164
40
0.8344094421
40
1.0000000000
40
1.0000000000
40
1.0000000000
40
1.0000000000
10
55.4127171392
20
-26.7505536873
30
0.0000000000
10
55.3245825868
20
-26.7458923676
30
0.0000000000
10
55.1587774531
20
-26.7168014222
30
0.0000000000
10
54.9378792304
20
-26.6230282242
30
0.0000000000
10
54.7555815081
20
-26.4966772518
30
0.0000000000
10
54.6043794661
20
-26.3408773628
30
0.0000000000
10
54.4813227295
20
-26.1504788914
30
0.0000000000
10
54.3930236830
20
-25.9179700108
30
0.0000000000
10
54.3711078293
20
-25.7438672462
30
0.0000000000
10
54.3711252365
20
-25.6518935224
30
0.0000000000
11
55.4127171392
21
-26.7505536873
31
0.0000000000
11
55.1519287932
21
-26.7047903432
31
0.0000000000
11
54.9361819975
21
-26.6132697937
31
0.0000000000
11
54.7588812891
21
-26.4903726052
31
0.0000000000
11
54.6119291688
21
-26.3389447552
31
0.0000000000
11
54.4921463448
21
-26.1536528036
31
0.0000000000
11
54.4056673438
21
-25.9256440261
31
0.0000000000
11
54.3711252365
21
-25.6518935224
31
0.0000000000
0
SPLINE
5
380
100
AcDbEntity
8
0
100
AcDbSpline
62
9
6
CONTINUOUS
70
0
71
3
72
14
73
10
74
8
42
0.0000001000
43
0.0000001000
44
0.0000000001
12
-1.8153543443
22
0.0956125986
32
0.0000000000
13
0.0006599272
23
1.8178703829
33
0.0000000000
40
0.0000000000
40
0.0000000000
40
0.0000000000
40
0.0000000000
40
0.1590375924
40
0.2997459398
40
0.4292853950
40
0.5560347726
40
0.6885965684
40
0.8351126036
40
1.0000000000
40
1.0000000000
40
1.0000000000
40
1.0000000000
10
55.4049568649
20
-26.8504138710
30
0.0000000000
10
55.3087203368
20
-26.8453452052
30
0.0000000000
10
55.1277120742
20
-26.8135422607
30
0.0000000000
10
54.8865824628
20
-26.7111410890
30
0.0000000000
10
54.6876107511
20
-26.5731531371
30
0.0000000000
10
54.5225797469
20
-26.4029652947
30
0.0000000000
10
54.3883023954
20
-26.1949408425
30
0.0000000000
10
54.2923110751
20
-25.9414041356
30
0.0000000000
10
54.2684422649
20
-25.7518081425
30
0.0000000000
10
54.2684785361
20
-25.6518935043
30
0.0000000000
11
55.4049568649
21
-26.8504138710
31
0.0000000000
11
55.1202021023
21
-26.8004221561
31
0.0000000000
11
54.8847418398
21
-26.7004883739
31
0.0000000000
11
54.6912398438
21
-26.5662847511
31
0.0000000000
11
54.5308413979
21
-26.4008673121
31
0.0000000000
11
54.4001392247
21
-26.1984114200
31
0.0000000000
11
54.3059042464
21
-25.9492917933
31
0.0000000000
11
54.2684785361
21
-25.6518935043
31
0.0000000000
0
SPLINE
5
381
100
AcDbEntity
8
0
100
AcDbSpline
62
9
6
CONTINUOUS
70
0
71
3
72
10
73
6
74
4
42
0.0000001000
43
0.0000001000
44
0.0000000001
12
-0.0053075021
22
0.1000543059
32
0.0000000000
13
-0.0961341512
23
0.0282357696
33
0.0000000000
40
0.0000000000
40
0.0000000000
40
0.0000000000
40
0.0000000000
40
0.4970740162
40
0.8626339127
40
1.0000000000
40
1.0000000000
40
1.0000000000
40
1.0000000000
10
102.5528747915
20
-26.8504138710
30
0.0000000000
10
102.5519953843
20
-26.8338357391
30
0.0000000000
10
102.5525806442
20
-26.8028862588
30
0.0000000000
10
102.5436171995
20
-26.7758419131
30
0.0000000000
10
102.5495165522
20
-26.7518499524
30
0.0000000000
10
102.5451146948
20
-26.7505570733
30
0.0000000000
11
102.5528747915
21
-26.8504138710
31
0.0000000000
11
102.5499081595
21
-26.8006979840
31
0.0000000000
11
102.5470703332
21
-26.7641808188
31
0.0000000000
11
102.5451146948
21
-26.7505570733
31
0.0000000000
0
SPLINE
5
382
100
AcDbEntity
8
0
100
AcDbSpline
62
9
6
CONTINUOUS
70
0
71
3
72
12
73
8
74
6
42
0.0000001000
43
0.0000001000
44
0.0000000001
12
-47.0873177326
22
-2.4993394089
32
0.0000000000
13
-47.0873177100
23
2.4993398344
33
0.0000000000
40
0.0000000000
40
0.0000000000
40
0.0000000000
40
0.0000000000
40
0.2140483450
40
0.4072465799
40
0.5934530199
40
0.7864282172
40
1.0000000000
40
1.0000000000
40
1.0000000000
40
1.0000000000
10
102.5451146948
20
-26.7505570733
30
0.0000000000
10
99.1854605515
20
-26.9288835613
30
0.0000000000
10
92.7893080950
20
-27.1956251607
30
0.0000000000
10
83.4627699201
20
-27.3829362717
30
0.0000000000
10
74.4655764294
20
-27.3826026292
30
0.0000000000
10
65.1500459478
20
-27.1949310595
30
0.0000000000
10
58.7648910904
20
-26.9284865531
30
0.0000000000
10
55.4127169607
20
-26.7505570650
30
0.0000000000
11
102.5451146948
21
-26.7505570733
31
0.0000000000
11
92.4607293344
21
-27.1711026632
31
0.0000000000
11
83.3525734914
21
-27.3540343665
31
0.0000000000
11
74.5722691219
21
-27.3537086799
31
0.0000000000
11
65.4746396036
21
-27.1704206322
31
0.0000000000
11
55.4127169607
21
-26.7505570650
31
0.0000000000
0
SPLINE
5
383
100
AcDbEntity
8
0
100
AcDbSpline
62
9
6
CONTINUOUS
70
0
71
3
72
12
73
8
74
6
42
0.0000001000
43
0.0000001000
44
0.0000000001
12
-47.1028329375
22
-2.4998917158
32
0.0000000000
13
-47.1028328921
23
2.4998925703
33
0.0000000000
40
0.0000000000
40
0.0000000000
40
0.0000000000
40
0.0000000000
40
0.2140480703
40
0.4072465600
40
0.5934532179
40
0.7864286962
40
1.0000000000
40
1.0000000000
40
1.0000000000
40
1.0000000000
10
102.5528747916
20
-26.8504138710
30
0.0000000000
10
99.1921179597
20
-27.0287795369
30
0.0000000000
10
92.7938592378
20
-27.2955812549
30
0.0000000000
10
83.4642474313
20
-27.4829341416
30
0.0000000000
10
74.4640804019
20
-27.4826003445
30
0.0000000000
10
65.1454827130
20
-27.2948867642
30
0.0000000000
10
58.7582280088
20
-27.0283823095
30
0.0000000000
10
55.4049568649
20
-26.8504138710
30
0.0000000000
11
102.5528747916
21
-26.8504138710
31
0.0000000000
11
92.4651808051
21
-27.2710528814
31
0.0000000000
11
83.3540142111
21
-27.4540257547
31
0.0000000000
11
74.5708091461
21
-27.4536999122
31
0.0000000000
11
65.4701711038
21
-27.2703704050
31
0.0000000000
11
55.4049568649
21
-26.8504138710
31
0.0000000000
0
SPLINE
5
384
100
AcDbEntity
8
0
100
AcDbSpline
62
9
6
CONTINUOUS
70
0
71
3
72
14
73
10
74
8
42
0.0000001000
43
0.0000001000
44
0.0000000001
12
0.0003497795
22
-1.6662854415
32
0.0000000000
13
-1.6639581034
23
-0.0880382015
33
0.0000000000
40
0.0000000000
40
0.0000000000
40
0.0000000000
40
0.0000000000
40
0.1589727747
40
0.2996555516
40
0.4291304371
40
0.5557512234
40
0.6881363902
40
0.8344489588
40
1.0000000000
40
1.0000000000
40
1.0000000000
40
1.0000000000
10
103.5867523605
20
-25.6518935058
30
0.0000000000
10
103.5867708956
20
-25.7401915124
30
0.0000000000
10
103.5665103115
20
-25.9073668623
30
0.0000000000
10
103.4845799768
20
-26.1329945394
30
0.0000000000
10
103.3680908954
20
-26.3217656491
30
0.0000000000
10
103.2205689342
20
-26.4810276478
30
0.0000000000
10
103.0370227877
20
-26.6140153328
30
0.0000000000
10
102.8095897135
20
-26.7145297492
30
0.0000000000
10
102.6369354423
20
-26.7456495645
30
0.0000000000
10
102.5451121101
20
-26.7505078364
30
0.0000000000
11
103.5867523605
21
-25.6518935058
31
0.0000000000
11
103.5548740533
21
-25.9148623603
31
0.0000000000
11
103.4749189149
21
-26.1352230171
31
0.0000000000
11
103.3616134587
21
-26.3188164172
31
0.0000000000
11
103.2182326923
21
-26.4735975765
31
0.0000000000
11
103.0396128916
21
-26.6030408780
31
0.0000000000
11
102.8165783886
21
-26.7014955534
31
0.0000000000
11
102.5451121101
21
-26.7505078364
31
0.0000000000
0
SPLINE
5
385
100
AcDbEntity
8
0
100
AcDbSpline
62
9
6
CONTINUOUS
70
0
71
3
72
8
73
4
74
2
42
0.0000001000
43
0.0000001000
44
0.0000000001
12
0.0000408132
22
-0.1009979774
32
0.0000000000
13
-0.0085385684
23
-0.1008779622
33
0.0000000000
40
0.0000000000
40
0.0000000000
40
0.0000000000
40
0.0000000000
40
1.0000000000
40
1.0000000000
40
1.0000000000
40
1.0000000000
10
103.6893531203
20
-25.6518935043
30
0.0000000000
10
103.6893667247
20
-25.6855594968
30
0.0000000000
10
103.6879408332
20
-25.7192776875
30
0.0000000000
10
103.6850946437
20
-25.7529036749
30
0.0000000000
11
103.6893531203
21
-25.6518935043
31
0.0000000000
11
103.6850946437
21
-25.7529036749
31
0.0000000000
0
SPLINE
5
386
100
AcDbEntity
8
0
100
AcDbSpline
62
9
6
CONTINUOUS
70
0
71
3
72
14
73
10
74
8
42
0.0000001000
43
0.0000001000
44
0.0000000001
12
-0.1451477654
22
-1.7148320525
32
0.0000000000
13
-1.7144923583
23
-0.0903691785
33
0.0000000000
40
0.0000000000
40
0.0000000000
40
0.0000000000
40
0.0000000000
40
0.1096226013
40
0.2586339604
40
0.3957949547
40
0.5299850461
40
0.6703218786
40
0.8254330076
40
1.0000000000
40
1.0000000000
40
1.0000000000
40
1.0000000000
10
103.6850946437
20
-25.7529036749
30
0.0000000000
10
103.6797908185
20
-25.8155651251
30
0.0000000000
10
103.6556411172
20
-25.9626476500
30
0.0000000000
10
103.5777291811
20
-26.1770449967
30
0.0000000000
10
103.4504832715
20
-26.3830591201
30
0.0000000000
10
103.2893054284
20
-26.5568705306
30
0.0000000000
10
103.0887294357
20
-26.7019770293
30
0.0000000000
10
102.8406787728
20
-26.8112711006
30
0.0000000000
10
102.6526393831
20
-26.8451553791
30
0.0000000000
10
102.5528747916
20
-26.8504138710
30
0.0000000000
11
103.6850946437
21
-25.7529036749
31
0.0000000000
11
103.6545111556
21
-25.9389930457
31
0.0000000000
11
103.5671829791
21
-26.1794604230
31
0.0000000000
11
103.4434273611
21
-26.3798078869
31
0.0000000000
11
103.2867698963
21
-26.5487360569
31
0.0000000000
11
103.0915671105
21
-26.6899740167
31
0.0000000000
11
102.8478361135
21
-26.7972777472
31
0.0000000000
11
102.5528747916
21
-26.8504138710
31
0.0000000000
0
SPLINE
5
387
100
AcDbEntity
8
0
100
AcDbSpline
62
9
6
CONTINUOUS
70
0
71
3
72
10
73
6
74
4
42
0.0000001000
43
0.0000001000
44
0.0000000001
12
-0.0053075876
22
-0.1000576943
32
0.0000000000
13
-0.0961370155
23
-0.0282380402
33
0.0000000000
40
0.0000000000
40
0.0000000000
40
0.0000000000
40
0.0000000000
40
0.4970711868
40
0.8626327099
40
1.0000000000
40
1.0000000000
40
1.0000000000
40
1.0000000000
10
102.5528747772
20
26.7150334293
30
0.0000000000
10
102.5519953609
20
26.6984548304
30
0.0000000000
10
102.5525806565
20
26.6675043954
30
0.0000000000
10
102.5436169080
20
26.6404590277
30
0.0000000000
10
102.5495165443
20
26.6164662399
30
0.0000000000
10
102.5451145172
20
26.6151732456
30
0.0000000000
11
102.5528747772
21
26.7150334293
31
0.0000000000
11
102.5499081028
21
26.6653161417
31
0.0000000000
11
102.5470701996
21
26.6287975767
31
0.0000000000
11
102.5451145172
21
26.6151732456
31
0.0000000000
0
SPLINE
5
388
100
AcDbEntity
8
0
100
AcDbSpline
62
9
6
CONTINUOUS
70
0
71
3
72
14
73
10
74
8
42
0.0000001000
43
0.0000001000
44
0.0000000001
12
1.6639600857
22
-0.0880046441
32
0.0000000000
13
-0.0003153653
23
-1.6662856552
33
0.0000000000
40
0.0000000000
40
0.0000000000
40
0.0000000000
40
0.0000000000
40
0.1589002402
40
0.2995459340
40
0.4290132886
40
0.5556483772
40
0.6880613164
40
0.8344094421
40
1.0000000000
40
1.0000000000
40
1.0000000000
40
1.0000000000
10
102.5451145172
20
26.6151732456
30
0.0000000000
10
102.6332490696
20
26.6105119259
30
0.0000000000
10
102.7990542033
20
26.5814209805
30
0.0000000000
10
103.0199524260
20
26.4876477825
30
0.0000000000
10
103.2022501483
20
26.3612968101
30
0.0000000000
10
103.3534521904
20
26.2054969211
30
0.0000000000
10
103.4765089270
20
26.0150984497
30
0.0000000000
10
103.5648079735
20
25.7825895691
30
0.0000000000
10
103.5867238271
20
25.6084868044
30
0.0000000000
10
103.5867064199
20
25.5165130807
30
0.0000000000
11
102.5451145172
21
26.6151732456
31
0.0000000000
11
102.8059028632
21
26.5694099014
31
0.0000000000
11
103.0216496590
21
26.4778893520
31
0.0000000000
11
103.1989503674
21
26.3549921635
31
0.0000000000
11
103.3459024876
21
26.2035643134
31
0.0000000000
11
103.4656853116
21
26.0182723619
31
0.0000000000
11
103.5521643127
21
25.7902635844
31
0.0000000000
11
103.5867064199
21
25.5165130807
31
0.0000000000
0
SPLINE
5
389
100
AcDbEntity
8
0
100
AcDbSpline
62
9
6
CONTINUOUS
70
0
71
3
72
14
73
10
74
8
42
0.0000001000
43
0.0000001000
44
0.0000000001
12
1.8153543443
22
-0.0956125986
32
0.0000000000
13
-0.0006599272
23
-1.8178703829
33
0.0000000000
40
0.0000000000
40
0.0000000000
40
0.0000000000
40
0.0000000000
40
0.1590375924
40
0.2997459398
40
0.4292853950
40
0.5560347726
40
0.6885965684
40
0.8351126036
40
1.0000000000
40
1.0000000000
40
1.0000000000
40
1.0000000000
10
102.5528747916
20
26.7150334293
30
0.0000000000
10
102.6491113196
20
26.7099647635
30
0.0000000000
10
102.8301195822
20
26.6781618189
30
0.0000000000
10
103.0712491936
20
26.5757606472
30
0.0000000000
10
103.2702209054
20
26.4377726953
30
0.0000000000
10
103.4352519096
20
26.2675848530
30
0.0000000000
10
103.5695292611
20
26.0595604008
30
0.0000000000
10
103.6655205814
20
25.8060236938
30
0.0000000000
10
103.6893893916
20
25.6164277008
30
0.0000000000
10
103.6893531203
20
25.5165130626
30
0.0000000000
11
102.5528747916
21
26.7150334293
31
0.0000000000
11
102.8376295541
21
26.6650417144
31
0.0000000000
11
103.0730898167
21
26.5651079322
31
0.0000000000
11
103.2665918127
21
26.4309043094
31
0.0000000000
11
103.4269902585
21
26.2654868704
31
0.0000000000
11
103.5576924317
21
26.0630309783
31
0.0000000000
11
103.6519274100
21
25.8139113516
31
0.0000000000
11
103.6893531203
21
25.5165130626
31
0.0000000000
0
SPLINE
5
38A
100
AcDbEntity
8
0
100
AcDbSpline
62
9
6
CONTINUOUS
70
0
71
3
72
11
73
7
74
5
42
0.0000001000
43
0.0000001000
44
0.0000000001
12
0.0000104818
22
-0.9020714525
32
0.0000000000
13
-0.6831738609
23
-0.5890724754
33
0.0000000000
40
0.0000000000
40
0.0000000000
40
0.0000000000
40
0.0000000000
40
0.3696812119
40
0.6869481619
40
0.9070049298
40
1.0000000000
40
1.0000000000
40
1.0000000000
40
1.0000000000
10
136.8201281271
20
-41.3564341117
30
0.0000000000
10
136.8201294187
20
-41.4675937343
30
0.0000000000
10
136.8158839087
20
-41.6723958769
30
0.0000000000
10
136.8133405238
20
-41.9513202110
30
0.0000000000
10
136.7847264460
20
-42.1271769399
30
0.0000000000
10
136.7893933778
20
-42.2368568031
30
0.0000000000
10
136.7682161108
20
-42.2551170818
30
0.0000000000
11
136.8201281271
21
-41.3564341117
31
0.0000000000
11
136.8162316284
21
-41.6898902146
31
0.0000000000
11
136.8050890476
21
-41.9758706827
31
0.0000000000
11
136.7882865681
21
-42.1736652155
31
0.0000000000
11
136.7682161108
21
-42.2551170818
31
0.0000000000
0
SPLINE
5
38B
100
AcDbEntity
8
0
100
AcDbSpline
62
9
6
CONTINUOUS
70
0
71
3
72
13
73
9
74
7
42
0.0000001000
43
0.0000001000
44
0.0000000001
12
2.9657230112
22
0.0087113353
32
0.0000000000
13
0.0037178195
23
2.9657334749
33
0.0000000000
40
0.0000000000
40
0.0000000000
40
0.0000000000
40
0.0000000000
40
0.1672341176
40
0.3341231128
40
0.5008117391
40
0.6674358090
40
0.8333445772
40
1.0000000000
40
1.0000000000
40
1.0000000000
40
1.0000000000
10
136.7682161108
20
-42.2551170818
30
0.0000000000
10
136.9335394677
20
-42.2546314710
30
0.0000000000
10
137.2653598932
20
-42.2103969033
30
0.0000000000
10
137.7273886994
20
-42.0179465392
30
0.0000000000
10
138.1239955722
20
-41.7131665604
30
0.0000000000
10
138.4275820804
20
-41.3168606527
30
0.0000000000
10
138.6188075643
20
-40.8561217372
30
0.0000000000
10
138.6624371679
20
-40.5257714056
30
0.0000000000
10
138.6626436995
20
-40.3610195502
30
0.0000000000
11
136.7682161108
21
-42.2551170818
31
0.0000000000
11
137.2597974933
21
-42.1892674207
31
0.0000000000
11
137.7167471425
21
-41.9990801376
31
0.0000000000
11
138.1086439135
21
-41.6977444102
31
0.0000000000
11
138.4092276134
21
-41.3055117235
31
0.0000000000
11
138.5976737903
21
-40.8509867527
31
0.0000000000
11
138.6626436995
21
-40.3610195502
31
0.0000000000
0
SPLINE
5
38C
100
AcDbEntity
8
0
100
AcDbSpline
62
9
6
CONTINUOUS
70
0
71
3
72
13
73
9
74
7
42
0.0000001000
43
0.0000001000
44
0.0000000001
12
1.5628110939
22
0.0004482318
32
0.0000000000
13
-0.0001389231
23
1.5628111520
33
0.0000000000
40
0.0000000000
40
0.0000000000
40
0.0000000000
40
0.0000000000
40
0.1663950094
40
0.3339622267
40
0.5013732548
40
0.6683366237
40
0.8343901584
40
1.0000000000
40
1.0000000000
40
1.0000000000
40
1.0000000000
10
136.8201281347
20
-41.3564341117
30
0.0000000000
10
136.9068094569
20
-41.3564092505
30
0.0000000000
10
137.0816226604
20
-41.3338002003
30
0.0000000000
10
137.3258693311
20
-41.2334132801
30
0.0000000000
10
137.5361032974
20
-41.0728368051
30
0.0000000000
10
137.6966757056
20
-40.8635942813
30
0.0000000000
10
137.7970377791
20
-40.6209172604
30
0.0000000000
10
137.8197267273
20
-40.4472918462
30
0.0000000000
10
137.8197190583
20
-40.3610195438
30
0.0000000000
11
136.8201281347
21
-41.3564341117
31
0.0000000000
11
137.0779998738
21
-41.3228925506
31
0.0000000000
11
137.3202191666
21
-41.2233495446
31
0.0000000000
11
137.5280790802
21
-41.0644613229
31
0.0000000000
11
137.6869565224
21
-40.8574744159
31
0.0000000000
11
137.7860807767
21
-40.6176411680
31
0.0000000000
11
137.8197190583
21
-40.3610195438
31
0.0000000000
0
SPLINE
5
38D
100
AcDbEntity
8
0
100
AcDbSpline
62
9
6
CONTINUOUS
70
0
71
3
72
11
73
7
74
5
42
0.0000001000
43
0.0000001000
44
0.0000000001
12
-0.0000120232
22
-0.9021501277
32
0.0000000000
13
0.6831905650
23
-0.5891735780
33
0.0000000000
40
0.0000000000
40
0.0000000000
40
0.0000000000
40
0.0000000000
40
0.3696767831
40
0.6869442361
40
0.9070033624
40
1.0000000000
40
1.0000000000
40
1.0000000000
40
1.0000000000
10
21.1377035279
20
-41.3564341117
30
0.0000000000
10
21.1377020463
20
-41.4676020974
30
0.0000000000
10
21.1419474614
20
-41.6724212181
30
0.0000000000
10
21.1444902342
20
-41.9513684604
30
0.0000000000
10
21.1731055961
20
-42.1272438151
30
0.0000000000
10
21.1684371295
20
-42.2369323491
30
0.0000000000
10
21.1896152713
20
-42.2551960697
30
0.0000000000
11
21.1377035279
21
-41.3564341117
31
0.0000000000
11
21.1415996053
21
-41.6899153105
31
0.0000000000
11
21.1527420702
21
-41.9759212173
31
0.0000000000
11
21.1695446500
21
-42.1737352523
31
0.0000000000
11
21.1896152713
21
-42.2551960697
31
0.0000000000
0
SPLINE
5
38E
100
AcDbEntity
8
0
100
AcDbSpline
62
9
6
CONTINUOUS
70
0
71
3
72
11
73
7
74
5
42
0.0000001000
43
0.0000001000
44
0.0000000001
12
115.5786010854
22
-0.0015655342
32
0.0000000000
13
115.5786010854
23
0.0015655086
33
0.0000000000
40
0.0000000000
40
0.0000000000
40
0.0000000000
40
0.0000000000
40
0.2498624055
40
0.4999999140
40
0.7501374646
40
1.0000000000
40
1.0000000000
40
1.0000000000
40
1.0000000000
10
21.1896152713
20
-42.2551960697
30
0.0000000000
10
30.8158643693
20
-42.2553264591
30
0.0000000000
10
50.0789612369
20
-42.2555031741
30
0.0000000000
10
78.9789074989
20
-42.2555842258
30
0.0000000000
10
107.8788587653
20
-42.2555031747
30
0.0000000000
10
127.1419622618
20
-42.2553264576
30
0.0000000000
10
136.7682163643
20
-42.2551960703
30
0.0000000000
11
21.1896152713
21
-42.2551960697
31
0.0000000000
11
50.0683625668
21
-42.2554724380
31
0.0000000000
11
78.9789058744
21
-42.2555571987
31
0.0000000000
11
107.8894540554
21
-42.2554724380
31
0.0000000000
11
136.7682163643
21
-42.2551960703
31
0.0000000000
0
SPLINE
5
38F
100
AcDbEntity
8
0
100
AcDbSpline
62
9
6
CONTINUOUS
70
0
71
3
72
13
73
9
74
7
42
0.0000001000
43
0.0000001000
44
0.0000000001
12
0.0037171905
22
-2.9657334664
32
0.0000000000
13
2.9657230014
23
-0.0087114855
33
0.0000000000
40
0.0000000000
40
0.0000000000
40
0.0000000000
40
0.0000000000
40
0.1666550577
40
0.3325639757
40
0.4991880686
40
0.6658767390
40
0.8327657621
40
1.0000000000
40
1.0000000000
40
1.0000000000
40
1.0000000000
10
19.2951879324
20
-40.3610195502
30
0.0000000000
10
19.2953944286
20
-40.5257710442
30
0.0000000000
10
19.3390241569
20
-40.8561211102
30
0.0000000000
10
19.5302490704
20
-41.3168600479
30
0.0000000000
10
19.8338357181
20
-41.7131661555
30
0.0000000000
10
20.2304425536
20
-42.0179463046
30
0.0000000000
10
20.6924714892
20
-42.2103968918
30
0.0000000000
10
21.0242920704
20
-42.2546314493
30
0.0000000000
10
21.1896155457
20
-42.2551170688
30
0.0000000000
11
19.2951879324
21
-40.3610195502
31
0.0000000000
11
19.3601576637
21
-40.8509856823
31
0.0000000000
11
19.5486036944
21
-41.3055111933
31
0.0000000000
11
19.8491873451
21
-41.6977440014
31
0.0000000000
11
20.2410841377
21
-41.9990799131
31
0.0000000000
11
20.6980338134
21
-42.1892673436
31
0.0000000000
11
21.1896155457
21
-42.2551170688
31
0.0000000000
0
SPLINE
5
390
100
AcDbEntity
8
0
100
AcDbSpline
62
9
6
CONTINUOUS
70
0
71
3
72
13
73
9
74
7
42
0.0000001000
43
0.0000001000
44
0.0000000001
12
-0.0001401727
22
-1.5628111500
32
0.0000000000
13
1.5628110920
23
-0.0004483949
33
0.0000000000
40
0.0000000000
40
0.0000000000
40
0.0000000000
40
0.0000000000
40
0.1656098398
40
0.3316633741
40
0.4986267442
40
0.6660377720
40
0.8336049899
40
1.0000000000
40
1.0000000000
40
1.0000000000
40
1.0000000000
10
20.1381125981
20
-40.3610195438
30
0.0000000000
10
20.1381048601
20
-40.4472918451
30
0.0000000000
10
20.1607939586
20
-40.6209172468
30
0.0000000000
10
20.2611559078
20
-40.8635942995
30
0.0000000000
10
20.4217283730
20
-41.0728367974
30
0.0000000000
10
20.6319623249
20
-41.2334132748
30
0.0000000000
10
20.8762089935
20
-41.3338002174
30
0.0000000000
10
21.0510221993
20
-41.3564092415
30
0.0000000000
10
21.1377035218
20
-41.3564341117
30
0.0000000000
11
20.1381125981
21
-40.3610195438
31
0.0000000000
11
20.1717509024
21
-40.6176411619
31
0.0000000000
11
20.2708751208
21
-40.8574744236
31
0.0000000000
11
20.4297525788
21
-41.0644613204
31
0.0000000000
11
20.6376124911
21
-41.2233495425
31
0.0000000000
11
20.8798317809
21
-41.3228925574
31
0.0000000000
11
21.1377035218
21
-41.3564341117
31
0.0000000000
0
SPLINE
5
391
100
AcDbEntity
8
0
100
AcDbSpline
62
9
6
CONTINUOUS
70
0
71
3
72
11
73
7
74
5
42
0.0000001000
43
0.0000001000
44
0.0000000001
12
-0.0000104818
22
0.9020714525
32
0.0000000000
13
0.6831738609
23
0.5890724754
33
0.0000000000
40
0.0000000000
40
0.0000000000
40
0.0000000000
40
0.0000000000
40
0.3696812119
40
0.6869481619
40
0.9070049298
40
1.0000000000
40
1.0000000000
40
1.0000000000
40
1.0000000000
10
21.1377035293
20
41.2210536700
30
0.0000000000
10
21.1377022377
20
41.3322132926
30
0.0000000000
10
21.1419477478
20
41.5370154352
30
0.0000000000
10
21.1444911327
20
41.8159397693
30
0.0000000000
10
21.1731052105
20
41.9917964982
30
0.0000000000
10
21.1684382786
20
42.1014763614
30
0.0000000000
10
21.1896155457
20
42.1197366401
30
0.0000000000
11
21.1377035293
21
41.2210536700
31
0.0000000000
11
21.1416000281
21
41.5545097729
31
0.0000000000
11
21.1527426088
21
41.8404902410
31
0.0000000000
11
21.1695450883
21
42.0382847738
31
0.0000000000
11
21.1896155457
21
42.1197366401
31
0.0000000000
0
SPLINE
5
392
100
AcDbEntity
8
0
100
AcDbSpline
62
9
6
CONTINUOUS
70
0
71
3
72
13
73
9
74
7
42
0.0000001000
43
0.0000001000
44
0.0000000001
12
-2.9657230112
22
-0.0087113353
32
0.0000000000
13
-0.0037178195
23
-2.9657334749
33
0.0000000000
40
0.0000000000
40
0.0000000000
40
0.0000000000
40
0.0000000000
40
0.1672341176
40
0.3341231128
40
0.5008117391
40
0.6674358090
40
0.8333445772
40
1.0000000000
40
1.0000000000
40
1.0000000000
40
1.0000000000
10
21.1896155457
20
42.1197366401
30
0.0000000000
10
21.0242921887
20
42.1192510293
30
0.0000000000
10
20.6924717632
20
42.0750164616
30
0.0000000000
10
20.2304429570
20
41.8825660975
30
0.0000000000
10
19.8338360842
20
41.5777861187
30
0.0000000000
10
19.5302495760
20
41.1814802110
30
0.0000000000
10
19.3390240921
20
40.7207412954
30
0.0000000000
10
19.2953944885
20
40.3903909639
30
0.0000000000
10
19.2951879569
20
40.2256391085
30
0.0000000000
11
21.1896155457
21
42.1197366401
31
0.0000000000
11
20.6980341632
21
42.0538869790
31
0.0000000000
11
20.2410845140
21
41.8636996959
31
0.0000000000
11
19.8491877430
21
41.5623639685
31
0.0000000000
11
19.5486040430
21
41.1701312818
31
0.0000000000
11
19.3601578662
21
40.7156063109
31
0.0000000000
11
19.2951879569
21
40.2256391085
31
0.0000000000
0
SPLINE
5
393
100
AcDbEntity
8
0
100
AcDbSpline
62
9
6
CONTINUOUS
70
0
71
3
72
13
73
9
74
7
42
0.0000001000
43
0.0000001000
44
0.0000000001
12
-1.5628110939
22
-0.0004482318
32
0.0000000000
13
0.0001389231
23
-1.5628111520
33
0.0000000000
40
0.0000000000
40
0.0000000000
40
0.0000000000
40
0.0000000000
40
0.1663950094
40
0.3339622267
40
0.5013732548
40
0.6683366237
40
0.8343901584
40
1.0000000000
40
1.0000000000
40
1.0000000000
40
1.0000000000
10
21.1377035218
20
41.2210536700
30
0.0000000000
10
21.0510221996
20
41.2210288088
30
0.0000000000
10
20.8762089960
20
41.1984197586
30
0.0000000000
10
20.6319623254
20
41.0980328384
30
0.0000000000
10
20.4217283590
20
40.9374563634
30
0.0000000000
10
20.2611559509
20
40.7282138396
30
0.0000000000
10
20.1607938774
20
40.4855368187
30
0.0000000000
10
20.1381049291
20
40.3119114045
30
0.0000000000
10
20.1381125981
20
40.2256391020
30
0.0000000000
11
21.1377035218
21
41.2210536700
31
0.0000000000
11
20.8798317827
21
41.1875121089
31
0.0000000000
11
20.6376124898
21
41.0879691029
31
0.0000000000
11
20.4297525763
21
40.9290808812
31
0.0000000000
11
20.2708751341
21
40.7220939742
31
0.0000000000
11
20.1717508797
21
40.4822607263
31
0.0000000000
11
20.1381125981
21
40.2256391020
31
0.0000000000
0
SPLINE
5
394
100
AcDbEntity
8
0
100
AcDbSpline
62
9
6
CONTINUOUS
70
0
71
3
72
11
73
7
74
5
42
0.0000001000
43
0.0000001000
44
0.0000000001
12
0.0000120232
22
0.9021501277
32
0.0000000000
13
-0.6831905650
23
0.5891735780
33
0.0000000000
40
0.0000000000
40
0.0000000000
40
0.0000000000
40
0.0000000000
40
0.3696767831
40
0.6869442361
40
0.9070033624
40
1.0000000000
40
1.0000000000
40
1.0000000000
40
1.0000000000
10
136.8201281286
20
41.2210536700
30
0.0000000000
10
136.8201296101
20
41.3322216557
30
0.0000000000
10
136.8158841950
20
41.5370407764
30
0.0000000000
10
136.8133414222
20
41.8159880187
30
0.0000000000
10
136.7847260604
20
41.9918633734
30
0.0000000000
10
136.7893945270
20
42.1015519074
30
0.0000000000
10
136.7682163852
20
42.1198156280
30
0.0000000000
11
136.8201281286
21
41.2210536700
31
0.0000000000
11
136.8162320512
21
41.5545348688
31
0.0000000000
11
136.8050895862
21
41.8405407755
31
0.0000000000
11
136.7882870065
21
42.0383548106
31
0.0000000000
11
136.7682163852
21
42.1198156280
31
0.0000000000
0
SPLINE
5
395
100
AcDbEntity
8
0
100
AcDbSpline
62
9
6
CONTINUOUS
70
0
71
3
72
11
73
7
74
5
42
0.0000001000
43
0.0000001000
44
0.0000000001
12
-115.5786010854
22
0.0015655342
32
0.0000000000
13
-115.5786010854
23
-0.0015655086
33
0.0000000000
40
0.0000000000
40
0.0000000000
40
0.0000000000
40
0.0000000000
40
0.2498624685
40
0.4999999980
40
0.7501375275
40
1.0000000000
40
1.0000000000
40
1.0000000000
40
1.0000000000
10
136.7682163852
20
42.1198156280
30
0.0000000000
10
127.1419648619
20
42.1199460174
30
0.0000000000
10
107.8788647573
20
42.1201227324
30
0.0000000000
10
78.9789160696
20
42.1202037840
30
0.0000000000
10
50.0789672284
20
42.1201227330
30
0.0000000000
10
30.8158669688
20
42.1199460159
30
0.0000000000
10
21.1896152921
20
42.1198156286
30
0.0000000000
11
136.7682163852
21
42.1198156280
31
0.0000000000
11
107.8894618139
21
42.1200919963
31
0.0000000000
11
78.9789160712
21
42.1201767570
31
0.0000000000
11
50.0683703236
21
42.1200919963
31
0.0000000000
11
21.1896152921
21
42.1198156286
31
0.0000000000
0
SPLINE
5
396
100
AcDbEntity
8
0
100
AcDbSpline
62
9
6
CONTINUOUS
70
0
71
3
72
13
73
9
74
7
42
0.0000001000
43
0.0000001000
44
0.0000000001
12
-0.0037171905
22
2.9657334664
32
0.0000000000
13
-2.9657230014
23
0.0087114855
33
0.0000000000
40
0.0000000000
40
0.0000000000
40
0.0000000000
40
0.0000000000
40
0.1666550577
40
0.3325639757
40
0.4991880686
40
0.6658767390
40
0.8327657621
40
1.0000000000
40
1.0000000000
40
1.0000000000
40
1.0000000000
10
138.6626437241
20
40.2256391085
30
0.0000000000
10
138.6624372279
20
40.3903906024
30
0.0000000000
10
138.6188074995
20
40.7207406685
30
0.0000000000
10
138.4275825860
20
41.1814796061
30
0.0000000000
10
138.1239959383
20
41.5777857138
30
0.0000000000
10
137.7273891028
20
41.8825658629
30
0.0000000000
10
137.2653601672
20
42.0750164501
30
0.0000000000
10
136.9335395860
20
42.1192510075
30
0.0000000000
10
136.7682161107
20
42.1197366271
30
0.0000000000
11
138.6626437241
21
40.2256391085
31
0.0000000000
11
138.5976739928
21
40.7156052406
31
0.0000000000
11
138.4092279621
21
41.1701307516
31
0.0000000000
11
138.1086443114
21
41.5623635597
31
0.0000000000
11
137.7167475187
21
41.8636994714
31
0.0000000000
11
137.2597978430
21
42.0538869019
31
0.0000000000
11
136.7682161107
21
42.1197366271
31
0.0000000000
0
SPLINE
5
397
100
AcDbEntity
8
0
100
AcDbSpline
62
9
6
CONTINUOUS
70
0
71
3
72
13
73
9
74
7
42
0.0000001000
43
0.0000001000
44
0.0000000001
12
0.0001401727
22
1.5628111500
32
0.0000000000
13
-1.5628110920
23
0.0004483949
33
0.0000000000
40
0.0000000000
40
0.0000000000
40
0.0000000000
40
0.0000000000
40
0.1656098398
40
0.3316633741
40
0.4986267442
40
0.6660377720
40
0.8336049899
40
1.0000000000
40
1.0000000000
40
1.0000000000
40
1.0000000000
10
137.8197190583
20
40.2256391020
30
0.0000000000
10
137.8197267963
20
40.3119114034
30
0.0000000000
10
137.7970376978
20
40.4855368050
30
0.0000000000
10
137.6966757487
20
40.7282138578
30
0.0000000000
10
137.5361032835
20
40.9374563557
30
0.0000000000
10
137.3258693315
20
41.0980328331
30
0.0000000000
10
137.0816226629
20
41.1984197756
30
0.0000000000
10
136.9068094572
20
41.2210287997
30
0.0000000000
10
136.8201281347
20
41.2210536700
30
0.0000000000
11
137.8197190583
21
40.2256391020
31
0.0000000000
11
137.7860807540
21
40.4822607202
31
0.0000000000
11
137.6869565356
21
40.7220939819
31
0.0000000000
11
137.5280790777
21
40.9290808787
31
0.0000000000
11
137.3202191654
21
41.0879691008
31
0.0000000000
11
137.0779998755
21
41.1875121157
31
0.0000000000
11
136.8201281347
21
41.2210536700
31
0.0000000000
0
SPLINE
5
398
100
AcDbEntity
8
0
100
AcDbSpline
62
0
6
CONTINUOUS
70
0
71
3
72
9
73
5
74
3
42
0.0000001000
43
0.0000001000
44
0.0000000001
12
0.0000000000
22
-0.9463287109
32
0.0000000000
13
-0.0362963819
23
-0.9380222884
33
0.0000000000
40
0.0000000000
40
0.0000000000
40
0.0000000000
40
0.0000000000
40
0.5110220636
40
1.0000000000
40
1.0000000000
40
1.0000000000
40
1.0000000000
10
-16.9350649126
20
-40.5764983497
30
0.0000000000
10
-16.9350649126
20
-40.7376966333
30
0.0000000000
10
-16.9377312747
20
-41.0524903282
30
0.0000000000
10
-16.9452231610
20
-41.3697619643
30
0.0000000000
10
-16.9511392043
20
-41.5226526986
30
0.0000000000
11
-16.9350649126
21
-40.5764983497
31
0.0000000000
11
-16.9390502069
21
-41.0600767788
31
0.0000000000
11
-16.9511392043
21
-41.5226526986
31
0.0000000000
0
SPLINE
5
399
100
AcDbEntity
8
0
100
AcDbSpline
62
0
6
CONTINUOUS
70
0
71
3
72
11
73
7
74
5
42
0.0000001000
43
0.0000001000
44
0.0000000001
12
-0.0366472712
22
-0.9470904656
32
0.0000000000
13
-0.9554771891
23
0.0000020970
33
0.0000000000
40
0.0000000000
40
0.0000000000
40
0.0000000000
40
0.0000000000
40
0.4098712367
40
0.7248669799
40
0.9268032506
40
1.0000000000
40
1.0000000000
40
1.0000000000
40
1.0000000000
10
-16.9511392043
20
-41.5226526986
30
0.0000000000
10
-16.9561460917
20
-41.6520477454
30
0.0000000000
10
-16.9678544219
20
-41.8780382185
30
0.0000000000
10
-16.9857159232
20
-42.1917725056
30
0.0000000000
10
-17.0179558201
20
-42.3415398503
30
0.0000000000
10
-17.0303329999
20
-42.4676901419
30
0.0000000000
10
-17.0536456080
20
-42.4676900907
30
0.0000000000
11
-16.9511392043
21
-41.5226526986
31
0.0000000000
11
-16.9701099235
21
-41.9138155624
31
0.0000000000
11
-16.9946819486
21
-42.2137820727
31
0.0000000000
11
-17.0235594814
21
-42.4045543301
31
0.0000000000
11
-17.0536456080
21
-42.4676900907
31
0.0000000000
0
SPLINE
5
39A
100
AcDbEntity
8
0
100
AcDbSpline
62
0
6
CONTINUOUS
70
0
71
3
72
12
73
8
74
6
42
0.0000001000
43
0.0000001000
44
0.0000000001
12
0.9974230014
22
0.0000021890
32
0.0000000000
13
0.0356735694
23
-0.9911527139
33
0.0000000000
40
0.0000000000
40
0.0000000000
40
0.0000000000
40
0.0000000000
40
0.0701185197
40
0.2635625249
40
0.5653113786
40
0.9579458141
40
1.0000000000
40
1.0000000000
40
1.0000000000
40
1.0000000000
10
-17.0536456080
20
42.3323096490
30
0.0000000000
10
-17.0303329999
20
42.3323097001
30
0.0000000000
10
-17.0179558201
20
42.2061594085
30
0.0000000000
10
-16.9857159232
20
42.0563920639
30
0.0000000000
10
-16.9678544219
20
41.7426577767
30
0.0000000000
10
-16.9554369959
20
41.5029805610
30
0.0000000000
10
-16.9500851618
20
41.3595353629
30
0.0000000000
10
-16.9495850875
20
41.3456413228
30
0.0000000000
11
-17.0536456080
21
42.3323096490
31
0.0000000000
11
-17.0235594814
21
42.2691738884
31
0.0000000000
11
-16.9946819486
21
42.0784016310
31
0.0000000000
11
-16.9701099235
21
41.7784351207
31
0.0000000000
11
-16.9511392043
21
41.3872722569
31
0.0000000000
11
-16.9495850875
21
41.3456413228
31
0.0000000000
0
SPLINE
5
39B
100
AcDbEntity
8
0
100
AcDbSpline
62
0
6
CONTINUOUS
70
0
71
3
72
9
73
5
74
3
42
0.0000001000
43
0.0000001000
44
0.0000000001
12
0.0323459215
22
-0.8986975066
32
0.0000000000
13
0.0000000000
23
-0.9043828986
33
0.0000000000
40
0.0000000000
40
0.0000000000
40
0.0000000000
40
0.0000000000
40
0.4652764317
40
1.0000000000
40
1.0000000000
40
1.0000000000
40
1.0000000000
10
-16.9495850875
20
41.3456413228
30
0.0000000000
10
-16.9445684892
20
41.2062603998
30
0.0000000000
10
-16.9376130888
20
40.9031567251
30
0.0000000000
10
-16.9350649126
20
40.6023161916
30
0.0000000000
10
-16.9350649126
20
40.4411179080
30
0.0000000000
11
-16.9495850875
21
41.3456413228
31
0.0000000000
11
-16.9390502069
21
40.9246963371
31
0.0000000000
11
-16.9350649126
21
40.4411179080
31
0.0000000000
0
SPLINE
5
39C
100
AcDbEntity
8
0
100
AcDbSpline
62
0
6
CONTINUOUS
70
0
71
3
72
11
73
7
74
5
42
0.0000001000
43
0.0000001000
44
0.0000000001
12
-3.5628386098
22
0.0000078208
32
0.0000000000
13
3.5628386098
23
-0.0000078208
33
0.0000000000
40
0.0000000000
40
0.0000000000
40
0.0000000000
40
0.0000000000
40
0.3749705263
40
0.5000000000
40
0.6250294737
40
1.0000000000
40
1.0000000000
40
1.0000000000
40
1.0000000000
10
-17.0536456080
20
-42.4676900907
30
0.0000000000
10
-17.4989654309
20
-42.4676891132
30
0.0000000000
10
-17.8701119546
20
-42.4676882845
30
0.0000000000
10
-19.0763600335
20
-42.4676489845
30
0.0000000000
10
-17.8701119546
20
-42.4676882845
30
0.0000000000
10
-17.4989654309
20
-42.4676891132
30
0.0000000000
10
-17.0536456080
20
-42.4676900907
30
0.0000000000
11
-17.0536456080
21
-42.4676900907
31
0.0000000000
11
-18.3896050767
21
-42.4676706549
31
0.0000000000
11
-18.8350649126
21
-42.4676568460
31
0.0000000000
11
-18.3896050767
21
-42.4676706549
31
0.0000000000
11
-17.0536456080
21
-42.4676900907
31
0.0000000000
0
SPLINE
5
39D
100
AcDbEntity
8
0
100
AcDbSpline
62
0
6
CONTINUOUS
70
0
71
3
72
11
73
7
74
5
42
0.0000001000
43
0.0000001000
44
0.0000000001
12
-3.5628386098
22
-0.0000078208
32
0.0000000000
13
3.5628386098
23
0.0000078208
33
0.0000000000
40
0.0000000000
40
0.0000000000
40
0.0000000000
40
0.0000000000
40
0.3749705263
40
0.5000000000
40
0.6250294737
40
1.0000000000
40
1.0000000000
40
1.0000000000
40
1.0000000000
10
-17.0536456080
20
42.3323096490
30
0.0000000000
10
-17.4989654309
20
42.3323086715
30
0.0000000000
10
-17.8701119546
20
42.3323078428
30
0.0000000000
10
-19.0763600335
20
42.3322685428
30
0.0000000000
10
-17.8701119546
20
42.3323078428
30
0.0000000000
10
-17.4989654309
20
42.3323086715
30
0.0000000000
10
-17.0536456080
20
42.3323096490
30
0.0000000000
11
-17.0536456080
21
42.3323096490
31
0.0000000000
11
-18.3896050767
21
42.3322902132
31
0.0000000000
11
-18.8350649126
21
42.3322764043
31
0.0000000000
11
-18.3896050767
21
42.3322902132
31
0.0000000000
11
-17.0536456080
21
42.3323096490
31
0.0000000000
0
SPLINE
5
39E
100
AcDbEntity
8
0
100
AcDbSpline
62
9
6
CONTINUOUS
70
0
71
3
72
13
73
9
74
7
42
0.0000001000
43
0.0000001000
44
0.0000000001
12
0.0000056480
22
1.0008754477
32
0.0000000000
13
-1.0008643762
23
0.0047076744
33
0.0000000000
40
0.0000000000
40
0.0000000000
40
0.0000000000
40
0.0000000000
40
0.2564056338
40
0.4961076980
40
0.7031463329
40
0.8624108466
40
0.9629706870
40
1.0000000000
40
1.0000000000
40
1.0000000000
40
1.0000000000
10
-21.9110822613
20
40.2256391020
30
0.0000000000
10
-21.9110817786
20
40.3111824699
30
0.0000000000
10
-21.9124658752
20
40.4763539493
30
0.0000000000
10
-21.9179118892
20
40.7122893847
30
0.0000000000
10
-21.9280094070
20
40.9101859627
30
0.0000000000
10
-21.9371052494
20
41.0757853980
30
0.0000000000
10
-21.9541353871
20
41.1548114077
30
0.0000000000
10
-21.9602310459
20
41.2209955627
30
0.0000000000
10
-21.9725848193
20
41.2210536700
30
0.0000000000
11
-21.9110822613
21
40.2256391020
31
0.0000000000
11
-21.9131691490
21
40.4822607202
31
0.0000000000
11
-21.9193117530
21
40.7220939819
31
0.0000000000
11
-21.9291354924
21
40.9290808787
31
0.0000000000
11
-21.9419475732
21
41.0879691008
31
0.0000000000
11
-21.9568197953
21
41.1875121157
31
0.0000000000
11
-21.9725848193
21
41.2210536700
31
0.0000000000
0
SPLINE
5
39F
100
AcDbEntity
8
0
100
AcDbSpline
62
9
6
CONTINUOUS
70
0
71
3
72
13
73
9
74
7
42
0.0000001000
43
0.0000001000
44
0.0000000001
12
-0.0465118085
22
1.8946292751
32
0.0000000000
13
-1.7714336036
23
0.6736515615
33
0.0000000000
40
0.0000000000
40
0.0000000000
40
0.0000000000
40
0.0000000000
40
0.2586155258
40
0.4985391074
40
0.7055979121
40
0.8646942146
40
0.9651399920
40
1.0000000000
40
1.0000000000
40
1.0000000000
40
1.0000000000
10
-21.0599074714
20
40.2256391085
30
0.0000000000
10
-21.0639170300
20
40.3889659572
30
0.0000000000
10
-21.0727381533
20
40.7032403810
30
0.0000000000
10
-21.0822814737
20
41.1511018634
30
0.0000000000
10
-21.1022168745
20
41.5271776110
30
0.0000000000
10
-21.0915661748
20
41.8383244754
30
0.0000000000
10
-21.1378506033
20
41.9931790143
30
0.0000000000
10
-21.1007684540
20
42.1119087941
30
0.0000000000
10
-21.1213525172
20
42.1197366271
30
0.0000000000
11
-21.0599074714
21
40.2256391085
31
0.0000000000
11
-21.0725096195
21
40.7156052406
31
0.0000000000
11
-21.0852201331
21
41.1701307516
31
0.0000000000
11
-21.0972703521
21
41.5623635597
31
0.0000000000
11
-21.1077857793
21
41.8636994714
31
0.0000000000
11
-21.1160026270
21
42.0538869019
31
0.0000000000
11
-21.1213525172
21
42.1197366271
31
0.0000000000
0
SPLINE
5
3A0
100
AcDbEntity
8
0
100
AcDbSpline
62
9
6
CONTINUOUS
70
0
71
3
72
9
73
5
74
3
42
0.0000001000
43
0.0000001000
44
0.0000000001
12
-1.7608106107
22
0.0003910221
32
0.0000000000
13
0.0000000000
23
0.0000000001
33
0.0000000000
40
0.0000000000
40
0.0000000000
40
0.0000000000
40
0.0000000000
40
0.7498989796
40
1.0000000000
40
1.0000000000
40
1.0000000000
40
1.0000000000
10
-21.1213566557
20
42.1198156280
30
0.0000000000
10
-21.5615000157
20
42.1199133703
30
0.0000000000
10
-21.9283652053
20
42.1199947107
30
0.0000000000
10
-22.8821672732
20
42.1201767570
30
0.0000000000
10
-22.8821672732
20
42.1201767570
30
0.0000000000
11
-21.1213566557
21
42.1198156280
31
0.0000000000
11
-22.4417867395
21
42.1200919963
31
0.0000000000
11
-22.8821672732
21
42.1201767570
31
0.0000000000
0
SPLINE
5
3A1
100
AcDbEntity
8
0
100
AcDbSpline
62
9
6
CONTINUOUS
70
0
71
3
72
11
73
7
74
5
42
0.0000001000
43
0.0000001000
44
0.0000000001
12
0.0000011028
22
1.3571006580
32
0.0000000000
13
1.3552268954
23
0.0712899567
33
0.0000000000
40
0.0000000000
40
0.0000000000
40
0.0000000000
40
0.0000000000
40
0.2502073180
40
0.5002963656
40
0.7502136506
40
1.0000000000
40
1.0000000000
40
1.0000000000
40
1.0000000000
10
-21.9725847190
20
41.2210536700
30
0.0000000000
10
-21.9725846270
20
41.3342391753
30
0.0000000000
10
-21.9289689954
20
41.5628664805
30
0.0000000000
10
-21.7417491304
20
41.8554272190
30
0.0000000000
10
-21.4599492947
20
42.0581907672
30
0.0000000000
10
-21.2341957152
20
42.1138798753
30
0.0000000000
10
-21.1213566557
20
42.1198156280
30
0.0000000000
11
-21.9725847190
21
41.2210536700
31
0.0000000000
11
-21.9086400748
21
41.5545348688
31
0.0000000000
11
-21.7259100181
21
41.8405407755
31
0.0000000000
11
-21.4504084965
21
42.0383548106
31
0.0000000000
11
-21.1213566557
21
42.1198156280
31
0.0000000000
0
SPLINE
5
3A2
100
AcDbEntity
8
0
100
AcDbSpline
62
9
6
CONTINUOUS
70
0
71
3
72
13
73
9
74
7
42
0.0000001000
43
0.0000001000
44
0.0000000001
12
1.0008643837
22
0.0047059621
32
0.0000000000
13
-0.0000055984
23
1.0008754471
33
0.0000000000
40
0.0000000000
40
0.0000000000
40
0.0000000000
40
0.0000000000
40
0.0370293191
40
0.1375891508
40
0.2968536642
40
0.5038923093
40
0.7435943600
40
1.0000000000
40
1.0000000000
40
1.0000000000
40
1.0000000000
10
-21.9725848193
20
-41.3564341117
30
0.0000000000
10
-21.9602310438
20
-41.3563760255
30
0.0000000000
10
-21.9541353917
20
-41.2901918197
30
0.0000000000
10
-21.9371052461
20
-41.2111658561
30
0.0000000000
10
-21.9280094072
20
-41.0455663960
30
0.0000000000
10
-21.9179118919
20
-40.8476698291
30
0.0000000000
10
-21.9124658700
20
-40.6117343898
30
0.0000000000
10
-21.9110817828
20
-40.4465629136
30
0.0000000000
10
-21.9110822613
20
-40.3610195438
30
0.0000000000
11
-21.9725848193
21
-41.3564341117
31
0.0000000000
11
-21.9568197954
21
-41.3228925506
31
0.0000000000
11
-21.9419475731
21
-41.2233495446
31
0.0000000000
11
-21.9291354923
21
-41.0644613229
31
0.0000000000
11
-21.9193117538
21
-40.8574744159
31
0.0000000000
11
-21.9131691476
21
-40.6176411680
31
0.0000000000
11
-21.9110822613
21
-40.3610195438
31
0.0000000000
0
SPLINE
5
3A3
100
AcDbEntity
8
0
100
AcDbSpline
62
9
6
CONTINUOUS
70
0
71
3
72
13
73
9
74
7
42
0.0000001000
43
0.0000001000
44
0.0000000001
12
1.7714370613
22
0.6736425056
32
0.0000000000
13
0.0465117321
23
1.8946292899
33
0.0000000000
40
0.0000000000
40
0.0000000000
40
0.0000000000
40
0.0000000000
40
0.0348599736
40
0.1353056728
40
0.2944018768
40
0.5014606160
40
0.7413839111
40
1.0000000000
40
1.0000000000
40
1.0000000000
40
1.0000000000
10
-21.1213525178
20
-42.2551170818
30
0.0000000000
10
-21.1007684347
20
-42.2472893618
30
0.0000000000
10
-21.1378506581
20
-42.1285594299
30
0.0000000000
10
-21.0915661428
20
-41.9737052356
30
0.0000000000
10
-21.1022169073
20
-41.6625584042
30
0.0000000000
10
-21.0822815002
20
-41.2864829855
30
0.0000000000
10
-21.0727381465
20
-40.8386213514
30
0.0000000000
10
-21.0639170309
20
-40.5243467558
30
0.0000000000
10
-21.0599074702
20
-40.3610195502
30
0.0000000000
11
-21.1213525178
21
-42.2551170818
31
0.0000000000
11
-21.1160026368
21
-42.1892674207
31
0.0000000000
11
-21.1077857836
21
-41.9990801376
31
0.0000000000
11
-21.0972703672
21
-41.6977444102
31
0.0000000000
11
-21.0852201530
21
-41.3055117235
31
0.0000000000
11
-21.0725096343
21
-40.8509867527
31
0.0000000000
11
-21.0599074702
21
-40.3610195502
31
0.0000000000
0
SPLINE
5
3A4
100
AcDbEntity
8
0
100
AcDbSpline
62
9
6
CONTINUOUS
70
0
71
3
72
11
73
7
74
5
42
0.0000001000
43
0.0000001000
44
0.0000000001
12
0.0000754031
22
-1.3570328614
32
0.0000000000
13
1.3551596463
23
-0.0712778056
33
0.0000000000
40
0.0000000000
40
0.0000000000
40
0.0000000000
40
0.0000000000
40
0.2502036093
40
0.5002910620
40
0.7502098272
40
1.0000000000
40
1.0000000000
40
1.0000000000
40
1.0000000000
10
-21.9725846951
20
-41.3564341117
30
0.0000000000
10
-21.9725784064
20
-41.4696122850
30
0.0000000000
10
-21.9289527072
20
-41.6982233141
30
0.0000000000
10
-21.7417277121
20
-41.9907577224
30
0.0000000000
10
-21.4599326870
20
-42.1934999731
30
0.0000000000
10
-21.2341877052
20
-42.2491822500
30
0.0000000000
10
-21.1213525178
20
-42.2551170818
30
0.0000000000
11
-21.9725846951
21
-41.3564341117
31
0.0000000000
11
-21.9086259743
21
-41.6898902146
31
0.0000000000
11
-21.7258916132
21
-41.9758706827
31
0.0000000000
11
-21.4503944744
21
-42.1736652155
31
0.0000000000
11
-21.1213525178
21
-42.2551170818
31
0.0000000000
0
SPLINE
5
3A5
100
AcDbEntity
8
0
100
AcDbSpline
62
9
6
CONTINUOUS
70
0
71
3
72
8
73
4
74
2
42
0.0000001000
43
0.0000001000
44
0.0000000001
12
0.0148553159
22
-0.0315607822
32
0.0000000000
13
0.0014009874
23
-0.0355768343
33
0.0000000000
40
0.0000000000
40
0.0000000000
40
0.0000000000
40
0.0000000000
40
1.0000000000
40
1.0000000000
40
1.0000000000
40
1.0000000000
10
-23.4425295873
20
26.7150334293
30
0.0000000000
10
-23.4375778153
20
26.7045131686
30
0.0000000000
10
-23.4362184036
20
26.6928824394
30
0.0000000000
10
-23.4357514078
20
26.6810234946
30
0.0000000000
11
-23.4425295873
21
26.7150334293
31
0.0000000000
11
-23.4357514078
21
26.6810234946
31
0.0000000000
0
SPLINE
5
3A6
100
AcDbEntity
8
0
100
AcDbSpline
62
9
6
CONTINUOUS
70
0
71
3
72
10
73
6
74
4
42
0.0000001000
43
0.0000001000
44
0.0000000001
12
0.0063038482
22
-0.1600806417
32
0.0000000000
13
0.0066350302
23
-0.1566492666
33
0.0000000000
40
0.0000000000
40
0.0000000000
40
0.0000000000
40
0.0000000000
40
0.0994731834
40
0.7373028933
40
1.0000000000
40
1.0000000000
40
1.0000000000
40
1.0000000000
10
-23.4357514078
20
26.6810234946
30
0.0000000000
10
-23.4355423866
20
26.6757155843
30
0.0000000000
10
-23.4353182462
20
26.6360340686
30
0.0000000000
10
-23.4302964723
20
26.5847022079
30
0.0000000000
10
-23.4278900253
20
26.5378026959
30
0.0000000000
10
-23.4273090243
20
26.5240855929
30
0.0000000000
11
-23.4357514078
21
26.6810234946
31
0.0000000000
11
-23.4354185923
21
26.6650417144
31
0.0000000000
11
-23.4294740674
21
26.5651079322
31
0.0000000000
11
-23.4273090243
21
26.5240855929
31
0.0000000000
0
SPLINE
5
3A7
100
AcDbEntity
8
0
100
AcDbSpline
62
9
6
CONTINUOUS
70
0
71
3
72
9
73
5
74
3
42
0.0000001000
43
0.0000001000
44
0.0000000001
12
0.0084307792
22
-0.1990458751
32
0.0000000000
13
0.0050148773
23
-0.1992355080
33
0.0000000000
40
0.0000000000
40
0.0000000000
40
0.0000000000
40
0.0000000000
40
0.4666330412
40
1.0000000000
40
1.0000000000
40
1.0000000000
40
1.0000000000
10
-23.4273090243
20
26.5240855929
30
0.0000000000
10
-23.4259976642
20
26.4931251322
30
0.0000000000
10
-23.4245083453
20
26.4263854966
30
0.0000000000
10
-23.4227314229
20
26.3599444442
30
0.0000000000
10
-23.4218398330
20
26.3245225652
30
0.0000000000
11
-23.4273090243
21
26.5240855929
31
0.0000000000
11
-23.4245451088
21
26.4309043094
31
0.0000000000
11
-23.4218398330
21
26.3245225652
31
0.0000000000
0
SPLINE
5
3A8
100
AcDbEntity
8
0
100
AcDbSpline
62
9
6
CONTINUOUS
70
0
71
3
72
11
73
7
74
5
42
0.0000001000
43
0.0000001000
44
0.0000000001
12
0.0139142593
22
-0.5527980757
32
0.0000000000
13
0.0031610836
23
-0.5533270496
33
0.0000000000
40
0.0000000000
40
0.0000000000
40
0.0000000000
40
0.0000000000
40
0.1067989078
40
0.4727234447
40
0.9229484964
40
1.0000000000
40
1.0000000000
40
1.0000000000
40
1.0000000000
10
-23.4218398330
20
26.3245225652
30
0.0000000000
10
-23.4213444904
20
26.3048431549
30
0.0000000000
10
-23.4192286876
20
26.2177575747
30
0.0000000000
10
-23.4166659480
20
26.0474601218
30
0.0000000000
10
-23.4150336704
20
25.8827395999
30
0.0000000000
10
-23.4144273464
20
25.7854889202
30
0.0000000000
10
-23.4143461577
20
25.7712773599
30
0.0000000000
11
-23.4218398330
21
26.3245225652
31
0.0000000000
11
-23.4204294711
21
26.2654868704
31
0.0000000000
11
-23.4170557604
21
26.0630309783
31
0.0000000000
11
-23.4146121808
21
25.8139113516
31
0.0000000000
11
-23.4143461577
21
25.7712773599
31
0.0000000000
0
SPLINE
5
3A9
100
AcDbEntity
8
0
100
AcDbSpline
62
9
6
CONTINUOUS
70
0
71
3
72
8
73
4
74
2
42
0.0000001000
43
0.0000001000
44
0.0000000001
12
0.0002211901
22
-0.0387178751
32
0.0000000000
13
0.0001849862
23
-0.0387187981
33
0.0000000000
40
0.0000000000
40
0.0000000000
40
0.0000000000
40
0.0000000000
40
1.0000000000
40
1.0000000000
40
1.0000000000
40
1.0000000000
10
-23.4143461577
20
25.7712773599
30
0.0000000000
10
-23.4142724277
20
25.7583714015
30
0.0000000000
10
-23.4142048120
20
25.7454652687
30
0.0000000000
10
-23.4141431500
20
25.7325590027
30
0.0000000000
11
-23.4143461577
21
25.7712773599
31
0.0000000000
11
-23.4141431500
21
25.7325590027
31
0.0000000000
0
SPLINE
5
3AA
100
AcDbEntity
8
0
100
AcDbSpline
62
9
6
CONTINUOUS
70
0
71
3
72
8
73
4
74
2
42
0.0000001000
43
0.0000001000
44
0.0000000001
12
0.0010321740
22
-0.2160406432
32
0.0000000000
13
0.0000038394
23
-0.2160440881
33
0.0000000000
40
0.0000000000
40
0.0000000000
40
0.0000000000
40
0.0000000000
40
1.0000000000
40
1.0000000000
40
1.0000000000
40
1.0000000000
10
-23.4141431500
20
25.7325590027
30
0.0000000000
10
-23.4137990920
20
25.6605454550
30
0.0000000000
10
-23.4136403894
20
25.5885277586
30
0.0000000000
10
-23.4136391096
20
25.5165130626
30
0.0000000000
11
-23.4141431500
21
25.7325590027
31
0.0000000000
11
-23.4136391096
21
25.5165130626
31
0.0000000000
0
SPLINE
5
3AB
100
AcDbEntity
8
0
100
AcDbSpline
62
9
6
CONTINUOUS
70
0
71
3
72
8
73
4
74
2
42
0.0000001000
43
0.0000001000
44
0.0000000001
12
-0.0000006499
22
-0.0314896604
32
0.0000000000
13
-0.0000209532
23
-0.0314899749
33
0.0000000000
40
0.0000000000
40
0.0000000000
40
0.0000000000
40
0.0000000000
40
1.0000000000
40
1.0000000000
40
1.0000000000
40
1.0000000000
10
-23.4136391096
20
-25.6518935043
30
0.0000000000
10
-23.4136393262
20
-25.6623900578
30
0.0000000000
10
-23.4136428824
20
-25.6728866751
30
0.0000000000
10
-23.4136498668
20
-25.6833833334
30
0.0000000000
11
-23.4136391096
21
-25.6518935043
31
0.0000000000
11
-23.4136498668
21
-25.6833833334
31
0.0000000000
0
SPLINE
5
3AC
100
AcDbEntity
8
0
100
AcDbSpline
62
9
6
CONTINUOUS
70
0
71
3
72
8
73
4
74
2
42
0.0000001000
43
0.0000001000
44
0.0000000001
12
-0.0000457578
22
-0.0687681421
32
0.0000000000
13
-0.0001466247
23
-0.0687685987
33
0.0000000000
40
0.0000000000
40
0.0000000000
40
0.0000000000
40
0.0000000000
40
1.0000000000
40
1.0000000000
40
1.0000000000
40
1.0000000000
10
-23.4136498668
20
-25.6833833334
30
0.0000000000
10
-23.4136651194
20
-25.7063060475
30
0.0000000000
10
-23.4136967213
20
-25.7292289568
30
0.0000000000
10
-23.4137455962
20
-25.7521518231
30
0.0000000000
11
-23.4136498668
21
-25.6833833334
31
0.0000000000
11
-23.4137455962
21
-25.7521518231
31
0.0000000000
0
SPLINE
5
3AD
100
AcDbEntity
8
0
100
AcDbSpline
62
9
6
CONTINUOUS
70
0
71
3
72
8
73
4
74
2
42
0.0000001000
43
0.0000001000
44
0.0000000001
12
-0.0001866468
22
-0.0875394044
32
0.0000000000
13
-0.0003602990
23
-0.0875375093
33
0.0000000000
40
0.0000000000
40
0.0000000000
40
0.0000000000
40
0.0000000000
40
1.0000000000
40
1.0000000000
40
1.0000000000
40
1.0000000000
10
-23.4137455962
20
-25.7521518231
30
0.0000000000
10
-23.4138078118
20
-25.7813316245
30
0.0000000000
10
-23.4138980168
20
-25.8105113561
30
0.0000000000
10
-23.4140181165
20
-25.8396905258
30
0.0000000000
11
-23.4137455962
21
-25.7521518231
31
0.0000000000
11
-23.4140181165
21
-25.8396905258
31
0.0000000000
0
SPLINE
5
3AE
100
AcDbEntity
8
0
100
AcDbSpline
62
9
6
CONTINUOUS
70
0
71
3
72
8
73
4
74
2
42
0.0000001000
43
0.0000001000
44
0.0000000001
12
-0.0001986361
22
-0.0482602158
32
0.0000000000
13
-0.0002541112
23
-0.0482589440
33
0.0000000000
40
0.0000000000
40
0.0000000000
40
0.0000000000
40
0.0000000000
40
1.0000000000
40
1.0000000000
40
1.0000000000
40
1.0000000000
10
-23.4140181165
20
-25.8396905258
30
0.0000000000
10
-23.4140843285
20
-25.8557772644
30
0.0000000000
10
-23.4141596267
20
-25.8718638323
30
0.0000000000
10
-23.4142443305
20
-25.8879501470
30
0.0000000000
11
-23.4140181165
21
-25.8396905258
31
0.0000000000
11
-23.4142443305
21
-25.8879501470
31
0.0000000000
0
SPLINE
5
3AF
100
AcDbEntity
8
0
100
AcDbSpline
62
9
6
CONTINUOUS
70
0
71
3
72
11
73
7
74
5
42
0.0000001000
43
0.0000001000
44
0.0000000001
12
-0.0029044863
22
-0.5515987718
32
0.0000000000
13
-0.0133174346
23
-0.5510789405
33
0.0000000000
40
0.0000000000
40
0.0000000000
40
0.0000000000
40
0.0000000000
40
0.0925379979
40
0.5284898376
40
0.8917369639
40
1.0000000000
40
1.0000000000
40
1.0000000000
40
1.0000000000
10
-23.4142443305
20
-25.8879501470
30
0.0000000000
10
-23.4143339223
20
-25.9049647623
30
0.0000000000
10
-23.4149056798
20
-26.0021345932
30
0.0000000000
10
-23.4164703031
20
-26.1660712462
30
0.0000000000
10
-23.4188723382
20
-26.3329871799
30
0.0000000000
10
-23.4208936348
20
-26.4195800477
30
0.0000000000
10
-23.4213742301
20
-26.4394672075
30
0.0000000000
11
-23.4142443305
21
-25.8879501470
31
0.0000000000
11
-23.4145450506
21
-25.9389930457
31
0.0000000000
11
-23.4168100875
21
-26.1794604230
31
0.0000000000
11
-23.4200061828
21
-26.3798078869
31
0.0000000000
11
-23.4213742301
21
-26.4394672075
31
0.0000000000
0
SPLINE
5
3B0
100
AcDbEntity
8
0
100
AcDbSpline
62
9
6
CONTINUOUS
70
0
71
3
72
11
73
7
74
5
42
0.0000001000
43
0.0000001000
44
0.0000000001
12
-0.0090961804
22
-0.3764023354
32
0.0000000000
13
-0.0170139874
23
-0.3835651024
33
0.0000000000
40
0.0000000000
40
0.0000000000
40
0.0000000000
40
0.0000000000
40
0.2899823624
40
0.6650809405
40
0.9503490125
40
1.0000000000
40
1.0000000000
40
1.0000000000
40
1.0000000000
10
-23.4213742301
20
-26.4394672075
30
0.0000000000
10
-23.4222534741
20
-26.4758505536
30
0.0000000000
10
-23.4243966029
20
-26.5593322334
30
0.0000000000
10
-23.4267563662
20
-26.6792802885
30
0.0000000000
10
-23.4352698839
20
-26.7667481983
30
0.0000000000
10
-23.4352430038
20
-26.8100798287
30
0.0000000000
10
-23.4355245909
20
-26.8164279574
30
0.0000000000
11
-23.4213742301
21
-26.4394672075
31
0.0000000000
11
-23.4240288532
21
-26.5487360569
31
0.0000000000
11
-23.4290051102
21
-26.6899740167
31
0.0000000000
11
-23.4351621246
21
-26.7972777472
31
0.0000000000
11
-23.4355245909
21
-26.8164279574
31
0.0000000000
0
SPLINE
5
3B1
100
AcDbEntity
8
0
100
AcDbSpline
62
9
6
CONTINUOUS
70
0
71
3
72
8
73
4
74
2
42
0.0000001000
43
0.0000001000
44
0.0000000001
12
-0.0010298858
22
-0.0232178531
32
0.0000000000
13
-0.0056119675
23
-0.0218838373
33
0.0000000000
40
0.0000000000
40
0.0000000000
40
0.0000000000
40
0.0000000000
40
1.0000000000
40
1.0000000000
40
1.0000000000
40
1.0000000000
10
-23.4355245909
20
-26.8164279574
30
0.0000000000
10
-23.4358678862
20
-26.8241672418
30
0.0000000000
10
-23.4366356307
20
-26.8317940319
30
0.0000000000
10
-23.4385062866
20
-26.8390886443
30
0.0000000000
11
-23.4355245909
21
-26.8164279574
31
0.0000000000
11
-23.4385062866
21
-26.8390886443
31
0.0000000000
0
SPLINE
5
3B2
100
AcDbEntity
8
0
100
AcDbSpline
62
9
6
CONTINUOUS
70
0
71
3
72
8
73
4
74
2
42
0.0000001000
43
0.0000001000
44
0.0000000001
12
-0.0029850624
22
-0.0116402349
32
0.0000000000
13
-0.0051636423
23
-0.0109771577
33
0.0000000000
40
0.0000000000
40
0.0000000000
40
0.0000000000
40
0.0000000000
40
1.0000000000
40
1.0000000000
40
1.0000000000
40
1.0000000000
10
-23.4385062866
20
-26.8390886443
30
0.0000000000
10
-23.4395013074
20
-26.8429687227
30
0.0000000000
10
-23.4408083732
20
-26.8467548185
30
0.0000000000
10
-23.4425295873
20
-26.8504138710
30
0.0000000000
11
-23.4385062866
21
-26.8390886443
31
0.0000000000
11
-23.4425295873
21
-26.8504138710
31
0.0000000000
0
SPLINE
5
3B3
100
AcDbEntity
8
0
100
AcDbSpline
62
9
6
CONTINUOUS
70
0
71
3
72
8
73
4
74
2
42
0.0000001000
43
0.0000001000
44
0.0000000001
12
-0.1529831049
22
-0.3270961517
32
0.0000000000
13
-0.1668332879
23
-0.3564900826
33
0.0000000000
40
0.0000000000
40
0.0000000000
40
0.0000000000
40
0.0000000000
40
1.0000000000
40
1.0000000000
40
1.0000000000
40
1.0000000000
10
-23.4425295873
20
-26.8504138710
30
0.0000000000
10
-23.4935239556
20
-26.9594459216
30
0.0000000000
10
-23.5307245101
20
-27.0389893692
30
0.0000000000
10
-23.5863356061
20
-27.1578193968
30
0.0000000000
11
-23.4425295873
21
-26.8504138710
31
0.0000000000
11
-23.5863356061
21
-27.1578193968
31
0.0000000000
0
SPLINE
5
3B4
100
AcDbEntity
8
0
100
AcDbSpline
62
9
6
CONTINUOUS
70
0
71
3
72
9
73
5
74
3
42
0.0000001000
43
0.0000001000
44
0.0000000001
12
-0.1411125117
22
-0.3015298181
32
0.0000000000
13
-0.0000000326
23
0.0000000145
33
0.0000000000
40
0.0000000000
40
0.0000000000
40
0.0000000000
40
0.0000000000
40
0.3382046228
40
1.0000000000
40
1.0000000000
40
1.0000000000
40
1.0000000000
10
-23.5863356061
20
-27.1578193968
30
0.0000000000
10
-23.6022439073
20
-27.1918123229
30
0.0000000000
10
-23.6537360496
20
-27.3018280939
30
0.0000000000
10
-23.7249904229
20
-27.4540258372
30
0.0000000000
10
-23.7249904301
20
-27.4540258340
30
0.0000000000
11
-23.5863356061
21
-27.1578193968
31
0.0000000000
11
-23.6393341192
21
-27.2710528814
31
0.0000000000
11
-23.7249904301
21
-27.4540258340
31
0.0000000000
0
SPLINE
5
3B5
100
AcDbEntity
8
0
100
AcDbSpline
62
9
6
CONTINUOUS
70
0
71
3
72
9
73
5
74
3
42
0.0000001000
43
0.0000001000
44
0.0000000001
12
-1.7608105451
22
-0.0003910221
32
0.0000000000
13
0.0000000000
23
-0.0000000001
33
0.0000000000
40
0.0000000000
40
0.0000000000
40
0.0000000000
40
0.0000000000
40
0.7498988804
40
1.0000000000
40
1.0000000000
40
1.0000000000
40
1.0000000000
10
-21.1213566570
20
-42.2551960697
30
0.0000000000
10
-21.5614999424
20
-42.2552938120
30
0.0000000000
10
-21.9283650537
20
-42.2553751524
30
0.0000000000
10
-22.8821672732
20
-42.2555571987
30
0.0000000000
10
-22.8821672732
20
-42.2555571987
30
0.0000000000
11
-21.1213566570
21
-42.2551960697
31
0.0000000000
11
-22.4417865178
21
-42.2554724380
31
0.0000000000
11
-22.8821672732
21
-42.2555571987
31
0.0000000000
0
SPLINE
5
3B6
100
AcDbEntity
8
0
100
AcDbSpline
62
9
6
CONTINUOUS
70
0
71
3
72
8
73
4
74
2
42
0.0000001000
43
0.0000001000
44
0.0000000001
12
-0.1156831474
22
0.2471359876
32
0.0000000000
13
-0.0000000246
23
-0.0000000109
33
0.0000000000
40
0.0000000000
40
0.0000000000
40
0.0000000000
40
0.0000000000
40
1.0000000000
40
1.0000000000
40
1.0000000000
40
1.0000000000
10
-23.6389943298
20
27.1349465499
30
0.0000000000
10
-23.6775553789
20
27.2173252124
30
0.0000000000
10
-23.7250022832
20
27.3186707267
30
0.0000000000
10
-23.7250022914
20
27.3186707230
30
0.0000000000
11
-23.6389943298
21
27.1349465499
31
0.0000000000
11
-23.7250022914
21
27.3186707230
31
0.0000000000
0
SPLINE
5
3B7
100
AcDbEntity
8
0
100
AcDbSpline
62
9
6
CONTINUOUS
70
0
71
3
72
8
73
4
74
2
42
0.0000001000
43
0.0000001000
44
0.0000000001
12
-0.0476849720
22
0.1018936141
32
0.0000000000
13
-0.0589627000
23
0.1259630761
33
0.0000000000
40
0.0000000000
40
0.0000000000
40
0.0000000000
40
0.0000000000
40
1.0000000000
40
1.0000000000
40
1.0000000000
40
1.0000000000
10
-23.5860477215
20
27.0218238073
30
0.0000000000
10
-23.6019427122
20
27.0557883453
30
0.0000000000
10
-23.6193400964
20
27.0929588579
30
0.0000000000
10
-23.6389943298
20
27.1349465499
30
0.0000000000
11
-23.5860477215
21
27.0218238073
31
0.0000000000
11
-23.6389943298
21
27.1349465499
31
0.0000000000
0
SPLINE
5
3B8
100
AcDbEntity
8
0
100
AcDbSpline
62
9
6
CONTINUOUS
70
0
71
3
72
8
73
4
74
2
42
0.0000001000
43
0.0000001000
44
0.0000000001
12
-0.1527211592
22
0.3265360802
32
0.0000000000
13
-0.1663385243
23
0.3554334348
33
0.0000000000
40
0.0000000000
40
0.0000000000
40
0.0000000000
40
0.0000000000
40
1.0000000000
40
1.0000000000
40
1.0000000000
40
1.0000000000
10
-23.4425295873
20
26.7150334293
30
0.0000000000
10
-23.4934366403
20
26.8238787894
30
0.0000000000
10
-23.5306015468
20
26.9033459957
30
0.0000000000
10
-23.5860477215
20
27.0218238073
30
0.0000000000
11
-23.4425295873
21
26.7150334293
31
0.0000000000
11
-23.5860477215
21
27.0218238073
31
0.0000000000
0
SPLINE
5
3B9
100
AcDbEntity
8
0
100
AcDbSpline
62
9
6
CONTINUOUS
70
0
71
3
72
9
73
5
74
3
42
0.0000001000
43
0.0000001000
44
0.0000000001
12
-0.0876083234
22
0.1873600487
32
0.0000000000
13
-0.0000000644
23
-0.0000000301
33
0.0000000000
40
0.0000000000
40
0.0000000000
40
0.0000000000
40
0.0000000000
40
0.3286665200
40
1.0000000000
40
1.0000000000
40
1.0000000000
40
1.0000000000
10
-23.6489658851
20
26.8319226908
30
0.0000000000
10
-23.6585638593
20
26.8524490159
30
0.0000000000
10
-23.6904511881
20
26.9206392535
30
0.0000000000
10
-23.7341589833
20
27.0140935988
30
0.0000000000
10
-23.7341589977
20
27.0140935921
30
0.0000000000
11
-23.6489658851
21
26.8319226908
31
0.0000000000
11
-23.6808013208
21
26.9000017835
31
0.0000000000
11
-23.7341589977
21
27.0140935921
31
0.0000000000
0
SPLINE
5
3BA
100
AcDbEntity
8
0
100
AcDbSpline
62
9
6
CONTINUOUS
70
0
71
3
72
12
73
8
74
6
42
0.0000001000
43
0.0000001000
44
0.0000000001
12
-0.3554932314
22
0.7602614294
32
0.0000000000
13
0.3333148153
23
-0.7132725164
33
0.0000000000
40
0.0000000000
40
0.0000000000
40
0.0000000000
40
0.0000000000
40
0.0809971055
40
0.2459355960
40
0.4144768002
40
0.7461148173
40
1.0000000000
40
1.0000000000
40
1.0000000000
40
1.0000000000
10
-23.6489658851
20
26.8319226908
30
0.0000000000
10
-23.6585638593
20
26.8524490159
30
0.0000000000
10
-23.6903855583
20
26.9204989059
30
0.0000000000
10
-23.7638558515
20
27.0775903267
30
0.0000000000
10
-23.6448328550
20
26.8230995238
30
0.0000000000
10
-23.5844722712
20
26.6939766664
30
0.0000000000
10
-23.5193080702
20
26.5545510999
30
0.0000000000
10
-23.4911001726
20
26.4941879922
30
0.0000000000
11
-23.6489658851
21
26.8319226908
31
0.0000000000
11
-23.6808013208
21
26.9000017835
31
0.0000000000
11
-23.7341581790
21
27.0140918419
31
0.0000000000
11
-23.6796359816
21
26.8975096830
31
0.0000000000
11
-23.5723793270
21
26.6680989270
31
0.0000000000
11
-23.4911001726
21
26.4941879922
31
0.0000000000
0
SPLINE
5
3BB
100
AcDbEntity
8
0
100
AcDbSpline
62
9
6
CONTINUOUS
70
0
71
3
72
13
73
9
74
7
42
0.0000001000
43
0.0000001000
44
0.0000000001
12
-0.5269637296
22
1.1278736311
32
0.0000000000
13
0.5433924122
23
-1.1628252195
33
0.0000000000
40
0.0000000000
40
0.0000000000
40
0.0000000000
40
0.0000000000
40
0.2322450055
40
0.4362871598
40
0.5374597954
40
0.6408423217
40
0.8442678056
40
1.0000000000
40
1.0000000000
40
1.0000000000
40
1.0000000000
10
-23.4508107224
20
26.4079638321
30
0.0000000000
10
-23.4916056204
20
26.4952781713
30
0.0000000000
10
-23.5753241303
20
26.6744073151
30
0.0000000000
10
-23.6457786618
20
26.8251221155
30
0.0000000000
10
-23.7638558515
20
27.0775903267
30
0.0000000000
10
-23.6448328550
20
26.8230995238
30
0.0000000000
10
-23.5844722712
20
26.6939766664
30
0.0000000000
10
-23.5193080702
20
26.5545510999
30
0.0000000000
10
-23.4911001726
20
26.4941879922
30
0.0000000000
11
-23.4508107224
21
26.4079638321
31
0.0000000000
11
-23.5732192243
21
26.6698957249
31
0.0000000000
11
-23.6808013208
21
26.9000017835
31
0.0000000000
11
-23.7341581790
21
27.0140918419
31
0.0000000000
11
-23.6796359816
21
26.8975096830
31
0.0000000000
11
-23.5723793270
21
26.6680989270
31
0.0000000000
11
-23.4911001726
21
26.4941879922
31
0.0000000000
0
SPLINE
5
3BC
100
AcDbEntity
8
0
100
AcDbSpline
62
9
6
CONTINUOUS
70
0
71
3
72
10
73
6
74
4
42
0.0000001000
43
0.0000001000
44
0.0000000001
12
-0.2834150805
22
0.6063937924
32
0.0000000000
13
-0.0000002317
23
-0.0000001027
33
0.0000000000
40
0.0000000000
40
0.0000000000
40
0.0000000000
40
0.0000000000
40
0.4318654406
40
0.8112887583
40
1.0000000000
40
1.0000000000
40
1.0000000000
40
1.0000000000
10
-23.5455466384
20
26.3082469547
30
0.0000000000
10
-23.5863456979
20
26.3955404621
30
0.0000000000
10
-23.6700727289
20
26.5746266408
30
0.0000000000
10
-23.7405762088
20
26.7253947346
30
0.0000000000
10
-23.8289247242
20
26.9142337060
30
0.0000000000
10
-23.8289247388
20
26.9142336995
30
0.0000000000
11
-23.5455466384
21
26.3082469547
31
0.0000000000
11
-23.6679676851
21
26.5701163203
31
0.0000000000
11
-23.7755613086
21
26.8001685243
31
0.0000000000
11
-23.8289247388
21
26.9142336995
31
0.0000000000
0
SPLINE
5
3BD
100
AcDbEntity
8
0
100
AcDbSpline
62
9
6
CONTINUOUS
70
0
71
3
72
11
73
7
74
5
42
0.0000001000
43
0.0000001000
44
0.0000000001
12
0.0217932674
22
-0.0471917935
32
0.0000000000
13
0.0015699371
23
-0.0519245461
33
0.0000000000
40
0.0000000000
40
0.0000000000
40
0.0000000000
40
0.0000000000
40
0.0814016694
40
0.2737147519
40
0.5797367258
40
1.0000000000
40
1.0000000000
40
1.0000000000
40
1.0000000000
10
-23.5694750923
20
25.1412925205
30
0.0000000000
10
-23.5688837562
20
25.1400120236
30
0.0000000000
10
-23.5687355540
20
25.1351162061
30
0.0000000000
10
-23.5677633595
20
25.1252409493
30
0.0000000000
10
-23.5672503261
20
25.1092588623
30
0.0000000000
10
-23.5668069850
20
25.0967005028
30
0.0000000000
10
-23.5665870560
20
25.0894265096
30
0.0000000000
11
-23.5694750923
21
25.1412925205
31
0.0000000000
11
-23.5687681176
21
25.1371206691
31
0.0000000000
11
-23.5680370522
21
25.1271508336
31
0.0000000000
11
-23.5673074338
21
25.1112602836
31
0.0000000000
11
-23.5665870560
21
25.0894265096
31
0.0000000000
0
SPLINE
5
3BE
100
AcDbEntity
8
0
100
AcDbSpline
62
9
6
CONTINUOUS
70
0
71
3
72
8
73
4
74
2
42
0.0000001000
43
0.0000001000
44
0.0000000001
12
0.0002616147
22
-0.0086527175
32
0.0000000000
13
0.0002311126
23
-0.0086582143
33
0.0000000000
40
0.0000000000
40
0.0000000000
40
0.0000000000
40
0.0000000000
40
1.0000000000
40
1.0000000000
40
1.0000000000
40
1.0000000000
10
-23.5665870560
20
25.0894265096
30
0.0000000000
10
-23.5664998511
20
25.0865422704
30
0.0000000000
10
-23.5664184021
20
25.0836569106
30
0.0000000000
10
-23.5663413646
20
25.0807708392
30
0.0000000000
11
-23.5665870560
21
25.0894265096
31
0.0000000000
11
-23.5663413646
21
25.0807708392
31
0.0000000000
0
SPLINE
5
3BF
100
AcDbEntity
8
0
100
AcDbSpline
62
9
6
CONTINUOUS
70
0
71
3
72
9
73
5
74
3
42
0.0000001000
43
0.0000001000
44
0.0000000001
12
0.0014357074
22
-0.0537861811
32
0.0000000000
13
0.0009919999
23
-0.0537982825
33
0.0000000000
40
0.0000000000
40
0.0000000000
40
0.0000000000
40
0.0000000000
40
0.3605655977
40
1.0000000000
40
1.0000000000
40
1.0000000000
40
1.0000000000
10
-23.5663413646
20
25.0807708392
30
0.0000000000
10
-23.5661688090
20
25.0743063570
30
0.0000000000
10
-23.5657516243
20
25.0563677281
30
0.0000000000
10
-23.5653884830
20
25.0384369924
30
0.0000000000
10
-23.5651770434
20
25.0269701682
30
0.0000000000
11
-23.5663413646
21
25.0807708392
31
0.0000000000
11
-23.5658749901
21
25.0613712783
31
0.0000000000
11
-23.5651770434
21
25.0269701682
31
0.0000000000
0
SPLINE
5
3C0
100
AcDbEntity
8
0
100
AcDbSpline
62
9
6
CONTINUOUS
70
0
71
3
72
18
73
14
74
12
42
0.0000001000
43
0.0000001000
44
0.0000000001
12
0.0148731545
22
-0.8066030757
32
0.0000000000
13
0.0000031251
23
-0.8067840161
33
0.0000000000
40
0.0000000000
40
0.0000000000
40
0.0000000000
40
0.0000000000
40
0.0499800597
40
0.1063043132
40
0.1690549690
40
0.2387489607
40
0.3160762204
40
0.4018674120
40
0.4972895779
40
0.6036543502
40
0.7221408615
40
0.8537688422
40
1.0000000000
40
1.0000000000
40
1.0000000000
40
1.0000000000
10
-23.5651770434
20
25.0269701682
30
0.0000000000
10
-23.5649292563
20
25.0135321449
30
0.0000000000
10
-23.5644628862
20
24.9849465669
30
0.0000000000
10
-23.5638387410
20
24.9394877074
30
0.0000000000
10
-23.5632528443
20
24.8887256494
30
0.0000000000
10
-23.5627026792
20
24.8323148170
30
0.0000000000
10
-23.5621898821
20
24.7697070926
30
0.0000000000
10
-23.5617175217
20
24.7001798691
30
0.0000000000
10
-23.5612919453
20
24.6228432054
30
0.0000000000
10
-23.5609236656
20
24.5367134725
30
0.0000000000
10
-23.5606286733
20
24.4408466456
30
0.0000000000
10
-23.5604286926
20
24.3342583634
30
0.0000000000
10
-23.5603816266
20
24.2595342498
30
0.0000000000
10
-23.5603814742
20
24.2202085962
30
0.0000000000
11
-23.5651770434
21
25.0269701682
31
0.0000000000
11
-23.5645070542
21
24.9866526214
31
0.0000000000
11
-23.5638781377
21
24.9412154663
31
0.0000000000
11
-23.5632886981
21
24.8905926717
31
0.0000000000
11
-23.5627365768
21
24.8343673840
31
0.0000000000
11
-23.5622222932
21
24.7719831066
31
0.0000000000
11
-23.5617492181
21
24.7027697613
31
0.0000000000
11
-23.5613230285
21
24.6257858627
31
0.0000000000
11
-23.5609538247
21
24.5399732588
31
0.0000000000
11
-23.5606576757
21
24.4443806941
31
0.0000000000
11
-23.5604569605
21
24.3381855329
31
0.0000000000
11
-23.5603814742
21
24.2202085962
31
0.0000000000
0
SPLINE
5
3C1
100
AcDbEntity
8
0
100
AcDbSpline
62
9
6
CONTINUOUS
70
0
71
3
72
9
73
5
74
3
42
0.0000001000
43
0.0000001000
44
0.0000000001
12
-0.2179040898
22
-0.4671981581
32
0.0000000000
13
-0.2515186404
23
-0.5392698320
33
0.0000000000
40
0.0000000000
40
0.0000000000
40
0.0000000000
40
0.0000000000
40
0.6767084243
40
1.0000000000
40
1.0000000000
40
1.0000000000
40
1.0000000000
10
-23.5694750923
20
-25.2766729622
30
0.0000000000
10
-23.6186276034
20
-25.3820586053
30
0.0000000000
10
-23.7001145609
20
-25.5567712097
30
0.0000000000
10
-23.7554386774
20
-25.6753891576
30
0.0000000000
10
-23.7825432965
20
-25.7335029555
30
0.0000000000
11
-23.5694750923
21
-25.2766729622
31
0.0000000000
11
-23.7169325625
21
-25.5928299210
31
0.0000000000
11
-23.7825432965
21
-25.7335029555
31
0.0000000000
0
SPLINE
5
3C2
100
AcDbEntity
8
0
100
AcDbSpline
62
9
6
CONTINUOUS
70
0
71
3
72
9
73
5
74
3
42
0.0000001000
43
0.0000001000
44
0.0000000001
12
-0.0550420320
22
-0.1180131511
32
0.0000000000
13
0.0000000001
23
-0.0000000003
33
0.0000000000
40
0.0000000000
40
0.0000000000
40
0.0000000000
40
0.0000000000
40
0.3803831779
40
1.0000000000
40
1.0000000000
40
1.0000000000
40
1.0000000000
10
-23.7825432965
20
-25.7335029555
30
0.0000000000
10
-23.7895223176
20
-25.7484663613
30
0.0000000000
10
-23.8094764378
20
-25.7912490957
30
0.0000000000
10
-23.8350649126
20
-25.8461121994
30
0.0000000000
10
-23.8350649126
20
-25.8461121995
30
0.0000000000
11
-23.7825432965
21
-25.7335029555
31
0.0000000000
11
-23.8055179833
21
-25.7827619514
31
0.0000000000
11
-23.8350649126
21
-25.8461121995
31
0.0000000000
0
SPLINE
5
3C3
100
AcDbEntity
8
0
100
AcDbSpline
62
9
6
CONTINUOUS
70
0
71
3
72
18
73
14
74
12
42
0.0000001000
43
0.0000001000
44
0.0000000001
12
-0.0000031280
22
-0.8067840161
32
0.0000000000
13
-0.0148731546
23
-0.8066030757
33
0.0000000000
40
0.0000000000
40
0.0000000000
40
0.0000000000
40
0.0000000000
40
0.1462311578
40
0.2778591385
40
0.3963456498
40
0.5027104221
40
0.5981325880
40
0.6839237796
40
0.7612510393
40
0.8309450310
40
0.8936956868
40
0.9500199403
40
1.0000000000
40
1.0000000000
40
1.0000000000
40
1.0000000000
10
-23.5603814742
20
-24.3555890380
30
0.0000000000
10
-23.5603816267
20
-24.3949146915
30
0.0000000000
10
-23.5604286925
20
-24.4696388051
30
0.0000000000
10
-23.5606286733
20
-24.5762270873
30
0.0000000000
10
-23.5609236656
20
-24.6720939142
30
0.0000000000
10
-23.5612919453
20
-24.7582236471
30
0.0000000000
10
-23.5617175217
20
-24.8355603108
30
0.0000000000
10
-23.5621898821
20
-24.9050875343
30
0.0000000000
10
-23.5627026792
20
-24.9676952587
30
0.0000000000
10
-23.5632528443
20
-25.0241060911
30
0.0000000000
10
-23.5638387410
20
-25.0748681491
30
0.0000000000
10
-23.5644628862
20
-25.1203270087
30
0.0000000000
10
-23.5649292563
20
-25.1489125866
30
0.0000000000
10
-23.5651770434
20
-25.1623506099
30
0.0000000000
11
-23.5603814742
21
-24.3555890380
31
0.0000000000
11
-23.5604569605
21
-24.4735659746
31
0.0000000000
11
-23.5606576757
21
-24.5797611358
31
0.0000000000
11
-23.5609538247
21
-24.6753537005
31
0.0000000000
11
-23.5613230285
21
-24.7611663045
31
0.0000000000
11
-23.5617492181
21
-24.8381502030
31
0.0000000000
11
-23.5622222932
21
-24.9073635484
31
0.0000000000
11
-23.5627365768
21
-24.9697478257
31
0.0000000000
11
-23.5632886981
21
-25.0259731134
31
0.0000000000
11
-23.5638781377
21
-25.0765959080
31
0.0000000000
11
-23.5645070542
21
-25.1220330631
31
0.0000000000
11
-23.5651770434
21
-25.1623506099
31
0.0000000000
0
SPLINE
5
3C4
100
AcDbEntity
8
0
100
AcDbSpline
62
9
6
CONTINUOUS
70
0
71
3
72
9
73
5
74
3
42
0.0000001000
43
0.0000001000
44
0.0000000001
12
-0.0009919999
22
-0.0537982825
32
0.0000000000
13
-0.0014357075
23
-0.0537861811
33
0.0000000000
40
0.0000000000
40
0.0000000000
40
0.0000000000
40
0.0000000000
40
0.6394344022
40
1.0000000000
40
1.0000000000
40
1.0000000000
40
1.0000000000
10
-23.5651770434
20
-25.1623506099
30
0.0000000000
10
-23.5653884830
20
-25.1738174341
30
0.0000000000
10
-23.5657516243
20
-25.1917481698
30
0.0000000000
10
-23.5661688090
20
-25.2096867987
30
0.0000000000
10
-23.5663413646
20
-25.2161512809
30
0.0000000000
11
-23.5651770434
21
-25.1623506099
31
0.0000000000
11
-23.5658749901
21
-25.1967517200
31
0.0000000000
11
-23.5663413646
21
-25.2161512809
31
0.0000000000
0
SPLINE
5
3C5
100
AcDbEntity
8
0
100
AcDbSpline
62
9
6
CONTINUOUS
70
0
71
3
72
8
73
4
74
2
42
0.0000001000
43
0.0000001000
44
0.0000000001
12
-0.0002311126
22
-0.0086582143
32
0.0000000000
13
-0.0002616147
23
-0.0086527175
33
0.0000000000
40
0.0000000000
40
0.0000000000
40
0.0000000000
40
0.0000000000
40
1.0000000000
40
1.0000000000
40
1.0000000000
40
1.0000000000
10
-23.5663413646
20
-25.2161512809
30
0.0000000000
10
-23.5664184021
20
-25.2190373523
30
0.0000000000
10
-23.5664998511
20
-25.2219227121
30
0.0000000000
10
-23.5665870560
20
-25.2248069513
30
0.0000000000
11
-23.5663413646
21
-25.2161512809
31
0.0000000000
11
-23.5665870560
21
-25.2248069513
31
0.0000000000
0
SPLINE
5
3C6
100
AcDbEntity
8
0
100
AcDbSpline
62
9
6
CONTINUOUS
70
0
71
3
72
11
73
7
74
5
42
0.0000001000
43
0.0000001000
44
0.0000000001
12
-0.0015699373
22
-0.0519245460
32
0.0000000000
13
-0.0217932755
23
-0.0471917898
33
0.0000000000
40
0.0000000000
40
0.0000000000
40
0.0000000000
40
0.0000000000
40
0.4202632738
40
0.7262852494
40
0.9185983273
40
1.0000000000
40
1.0000000000
40
1.0000000000
40
1.0000000000
10
-23.5665870560
20
-25.2248069513
30
0.0000000000
10
-23.5668069850
20
-25.2320809445
30
0.0000000000
10
-23.5672503262
20
-25.2446393040
30
0.0000000000
10
-23.5677633593
20
-25.2606213910
30
0.0000000000
10
-23.5687355543
20
-25.2704966477
30
0.0000000000
10
-23.5688837559
20
-25.2753924653
30
0.0000000000
10
-23.5694750923
20
-25.2766729622
30
0.0000000000
11
-23.5665870560
21
-25.2248069513
31
0.0000000000
11
-23.5673074338
21
-25.2466407253
31
0.0000000000
11
-23.5680370522
21
-25.2625312754
31
0.0000000000
11
-23.5687681176
21
-25.2725011107
31
0.0000000000
11
-23.5694750923
21
-25.2766729622
31
0.0000000000
0
SPLINE
5
3C7
100
AcDbEntity
8
0
100
AcDbSpline
62
9
6
CONTINUOUS
70
0
71
3
72
8
73
4
74
2
42
0.0000001000
43
0.0000001000
44
0.0000000001
12
-0.0000314468
22
0.0262155625
32
0.0000000000
13
0.0034089534
23
0.0260232344
33
0.0000000000
40
0.0000000000
40
0.0000000000
40
0.0000000000
40
0.0000000000
40
1.0000000000
40
1.0000000000
40
1.0000000000
40
1.0000000000
10
-23.5694750913
20
-25.2766729622
30
0.0000000000
10
-23.5694855735
20
-25.2679344414
30
0.0000000000
10
-23.5689198045
20
-25.2591827224
30
0.0000000000
10
-23.5677834867
20
-25.2505083110
30
0.0000000000
11
-23.5694750913
21
-25.2766729622
31
0.0000000000
11
-23.5677834867
21
-25.2505083110
31
0.0000000000
0
SPLINE
5
3C8
100
AcDbEntity
8
0
100
AcDbSpline
62
9
6
CONTINUOUS
70
0
71
3
72
8
73
4
74
2
42
0.0000001000
43
0.0000001000
44
0.0000000001
12
-0.0000320119
22
-0.0262130310
32
0.0000000000
13
0.0034078482
23
-0.0260208274
33
0.0000000000
40
0.0000000000
40
0.0000000000
40
0.0000000000
40
0.0000000000
40
1.0000000000
40
1.0000000000
40
1.0000000000
40
1.0000000000
10
-23.5694741145
20
25.1412925205
30
0.0000000000
10
-23.5694847851
20
25.1325548435
30
0.0000000000
10
-23.5689192973
20
25.1238039574
30
0.0000000000
10
-23.5677833479
20
25.1151303482
30
0.0000000000
11
-23.5694741145
21
25.1412925205
31
0.0000000000
11
-23.5677833479
21
25.1151303482
31
0.0000000000
0
SPLINE
5
3C9
100
AcDbEntity
8
0
100
AcDbSpline
62
9
6
CONTINUOUS
70
0
71
3
72
13
73
9
74
7
42
0.0000001000
43
0.0000001000
44
0.0000000001
12
-0.1510247506
22
0.0081052702
32
0.0000000000
13
-0.0001973056
23
0.1512419643
33
0.0000000000
40
0.0000000000
40
0.0000000000
40
0.0000000000
40
0.0000000000
40
0.1667208232
40
0.3334600118
40
0.5001821681
40
0.6668561488
40
0.8334628504
40
1.0000000000
40
1.0000000000
40
1.0000000000
40
1.0000000000
10
-23.4508107221
20
-26.5433442729
30
0.0000000000
10
-23.4592037124
20
-26.5428938338
30
0.0000000000
10
-23.4759525529
20
-26.5398520221
30
0.0000000000
10
-23.4990801774
20
-26.5291747507
30
0.0000000000
10
-23.5188226359
20
-26.5130583912
30
0.0000000000
10
-23.5339040597
20
-26.4925224320
30
0.0000000000
10
-23.5433705326
20
-26.4688924591
30
0.0000000000
10
-23.5455356835
20
-26.4520231983
30
0.0000000000
10
-23.5455466364
20
-26.4436273964
30
0.0000000000
11
-23.4508107221
21
-26.5433442729
31
0.0000000000
11
-23.4756191215
21
-26.5388331817
31
0.0000000000
11
-23.4985170101
21
-26.5282675104
31
0.0000000000
11
-23.5180482040
21
-26.5123191794
31
0.0000000000
11
-23.5329706233
21
-26.4920024179
31
0.0000000000
11
-23.5423352816
21
-26.4686092635
31
0.0000000000
11
-23.5455466364
21
-26.4436273964
31
0.0000000000
0
SPLINE
5
3CA
100
AcDbEntity
8
0
100
AcDbSpline
62
9
6
CONTINUOUS
70
0
71
3
72
10
73
6
74
4
42
0.0000001000
43
0.0000001000
44
0.0000000001
12
-0.2827686453
22
-0.6050106414
32
0.0000000000
13
0.0000001448
23
-0.0000000644
33
0.0000000000
40
0.0000000000
40
0.0000000000
40
0.0000000000
40
0.0000000000
40
0.4305289224
40
0.8098264185
40
1.0000000000
40
1.0000000000
40
1.0000000000
40
1.0000000000
10
-23.5455466384
20
-26.4436273964
30
0.0000000000
10
-23.5861266651
20
-26.5304522562
30
0.0000000000
10
-23.6695895185
20
-26.7089735845
30
0.0000000000
10
-23.7396254356
20
-26.8587424236
30
0.0000000000
10
-23.8285407367
20
-27.0487934713
30
0.0000000000
10
-23.8285407275
20
-27.0487934754
30
0.0000000000
11
-23.5455466384
21
-26.4436273964
31
0.0000000000
11
-23.6673103223
21
-26.7040909428
31
0.0000000000
11
-23.7746226964
21
-26.9335424100
31
0.0000000000
11
-23.8285407275
21
-27.0487934754
31
0.0000000000
0
SPLINE
5
3CB
100
AcDbEntity
8
0
100
AcDbSpline
62
9
6
CONTINUOUS
70
0
71
3
72
8
73
4
74
2
42
0.0000001000
43
0.0000001000
44
0.0000000001
12
-0.0395505804
22
-0.0846510905
32
0.0000000000
13
-0.0407839551
23
-0.0872750523
33
0.0000000000
40
0.0000000000
40
0.0000000000
40
0.0000000000
40
0.0000000000
40
1.0000000000
40
1.0000000000
40
1.0000000000
40
1.0000000000
10
-23.4508107221
20
-26.5433442729
30
0.0000000000
10
-23.4639942489
20
-26.5715613031
30
0.0000000000
10
-23.4775779803
20
-26.6006317985
30
0.0000000000
10
-23.4911726320
20
-26.6297234826
30
0.0000000000
11
-23.4508107221
21
-26.5433442729
31
0.0000000000
11
-23.4911726320
21
-26.6297234826
31
0.0000000000
0
SPLINE
5
3CC
100
AcDbEntity
8
0
100
AcDbSpline
62
9
6
CONTINUOUS
70
0
71
3
72
9
73
5
74
3
42
0.0000001000
43
0.0000001000
44
0.0000000001
12
-0.1694826941
22
-0.3626821127
32
0.0000000000
13
-0.1823183274
23
-0.3899067501
33
0.0000000000
40
0.0000000000
40
0.0000000000
40
0.0000000000
40
0.0000000000
40
0.4999905691
40
1.0000000000
40
1.0000000000
40
1.0000000000
40
1.0000000000
10
-23.4911726320
20
-26.6297234826
30
0.0000000000
10
-23.5194192149
20
-26.6901693612
30
0.0000000000
10
-23.5760077369
20
-26.8112463513
30
0.0000000000
10
-23.6188167616
20
-26.9028259729
30
0.0000000000
10
-23.6492037226
20
-26.9678116570
30
0.0000000000
11
-23.4911726320
21
-26.6297234826
31
0.0000000000
11
-23.5725619251
21
-26.8038700036
31
0.0000000000
11
-23.6492037226
21
-26.9678116570
31
0.0000000000
0
SPLINE
5
3CD
100
AcDbEntity
8
0
100
AcDbSpline
62
9
6
CONTINUOUS
70
0
71
3
72
9
73
5
74
3
42
0.0000001000
43
0.0000001000
44
0.0000000001
12
-0.0874458970
22
-0.1870121672
32
0.0000000000
13
0.0000000400
23
-0.0000000187
33
0.0000000000
40
0.0000000000
40
0.0000000000
40
0.0000000000
40
0.0000000000
40
0.3179176068
40
1.0000000000
40
1.0000000000
40
1.0000000000
40
1.0000000000
10
-23.6492037226
20
-26.9678116570
30
0.0000000000
10
-23.6584705860
20
-26.9876298106
30
0.0000000000
10
-23.6902467722
20
-27.0555823933
30
0.0000000000
10
-23.7337750358
20
-27.1486531697
30
0.0000000000
10
-23.7337750267
20
-27.1486531739
30
0.0000000000
11
-23.6492037226
21
-26.9678116570
31
0.0000000000
11
-23.6798628055
21
-27.0333751917
31
0.0000000000
11
-23.7337750267
21
-27.1486531739
31
0.0000000000
0
SPLINE
5
3CE
100
AcDbEntity
8
0
100
AcDbSpline
62
9
6
CONTINUOUS
70
0
71
3
72
19
73
15
74
13
42
0.0000001000
43
0.0000001000
44
0.0000000001
12
-0.0000008925
22
-0.8970801202
32
0.0000000000
13
-0.3796223462
23
-0.8127974017
33
0.0000000000
40
0.0000000000
40
0.0000000000
40
0.0000000000
40
0.0000000000
40
0.1257046083
40
0.2498780962
40
0.3702465413
40
0.4847156112
40
0.5913676316
40
0.6885386068
40
0.7747147942
40
0.8485405038
40
0.9088361942
40
0.9545938331
40
0.9850887918
40
1.0000000000
40
1.0000000000
40
1.0000000000
40
1.0000000000
10
-23.5241350991
20
-25.5472385515
30
0.0000000000
10
-23.5241351365
20
-25.5848275865
30
0.0000000000
10
-23.5242544995
20
-25.6595478637
30
0.0000000000
10
-23.5247917139
20
-25.7702603771
30
0.0000000000
10
-23.5256794019
20
-25.8776107477
30
0.0000000000
10
-23.5269006603
20
-25.9797184107
30
0.0000000000
10
-23.5284343784
20
-26.0748834668
30
0.0000000000
10
-23.5302439230
20
-26.1615848145
30
0.0000000000
10
-23.5323181012
20
-26.2384517858
30
0.0000000000
10
-23.5345443338
20
-26.3043107349
30
0.0000000000
10
-23.5370733377
20
-26.3579852004
30
0.0000000000
10
-23.5393037501
20
-26.3988938704
30
0.0000000000
10
-23.5423109903
20
-26.4257417817
30
0.0000000000
10
-23.5436597624
20
-26.4395874660
30
0.0000000000
10
-23.5455466384
20
-26.4436273964
30
0.0000000000
11
-23.5241350991
21
-25.5472385515
31
0.0000000000
11
-23.5243167786
21
-25.6600055102
31
0.0000000000
11
-23.5248616515
21
-25.7713977451
31
0.0000000000
11
-23.5257620812
21
-25.8793741299
31
0.0000000000
11
-23.5270022333
21
-25.9820545681
31
0.0000000000
11
-23.5285593780
21
-26.0777173030
31
0.0000000000
11
-23.5304065390
21
-26.1648678799
31
0.0000000000
11
-23.5325124084
21
-26.2421461369
31
0.0000000000
11
-23.5348417353
21
-26.3083327376
31
0.0000000000
11
-23.5373557154
21
-26.3623643492
31
0.0000000000
11
-23.5400103157
21
-26.4033266907
31
0.0000000000
11
-23.5427578252
21
-26.4305447908
31
0.0000000000
11
-23.5455466384
21
-26.4436273964
31
0.0000000000
0
SPLINE
5
3CF
100
AcDbEntity
8
0
100
AcDbSpline
62
9
6
CONTINUOUS
70
0
71
3
72
9
73
5
74
3
42
0.0000001000
43
0.0000001000
44
0.0000000001
12
-0.0012312351
22
-0.2491334416
32
0.0000000000
13
-0.0023743676
23
-0.2491251982
33
0.0000000000
40
0.0000000000
40
0.0000000000
40
0.0000000000
40
0.0000000000
40
0.5033912572
40
1.0000000000
40
1.0000000000
40
1.0000000000
40
1.0000000000
10
-23.4294013937
20
-25.5472385514
30
0.0000000000
10
-23.4296079914
20
-25.5890424169
30
0.0000000000
10
-23.4301107865
20
-25.6720864695
30
0.0000000000
10
-23.4308019945
20
-25.7551291656
30
0.0000000000
10
-23.4311950384
20
-25.7963684161
30
0.0000000000
11
-23.4294013937
21
-25.5472385514
31
0.0000000000
11
-23.4301619411
21
-25.6726493732
31
0.0000000000
11
-23.4311950384
21
-25.7963684161
31
0.0000000000
0
SPLINE
5
3D0
100
AcDbEntity
8
0
100
AcDbSpline
62
9
6
CONTINUOUS
70
0
71
3
72
8
73
4
74
2
42
0.0000001000
43
0.0000001000
44
0.0000000001
12
-0.0003860064
22
-0.0405008509
32
0.0000000000
13
-0.0004186853
23
-0.0405005263
33
0.0000000000
40
0.0000000000
40
0.0000000000
40
0.0000000000
40
0.0000000000
40
1.0000000000
40
1.0000000000
40
1.0000000000
40
1.0000000000
10
-23.4311950384
20
-25.7963684161
30
0.0000000000
10
-23.4313237072
20
-25.8098686997
30
0.0000000000
10
-23.4314577112
20
-25.8233689321
30
0.0000000000
10
-23.4315972730
20
-25.8368691075
30
0.0000000000
11
-23.4311950384
21
-25.7963684161
31
0.0000000000
11
-23.4315972730
21
-25.8368691075
31
0.0000000000
0
SPLINE
5
3D1
100
AcDbEntity
8
0
100
AcDbSpline
62
9
6
CONTINUOUS
70
0
71
3
72
17
73
13
74
11
42
0.0000001000
43
0.0000001000
44
0.0000000001
12
-0.0073076566
22
-0.7068887007
32
0.0000000000
13
-0.2183516291
23
-0.6723596408
33
0.0000000000
40
0.0000000000
40
0.0000000000
40
0.0000000000
40
0.0000000000
40
0.1123669895
40
0.2737155921
40
0.4240504650
40
0.5610263954
40
0.6825137932
40
0.7866001915
40
0.8716169451
40
0.9361333464
40
0.9791030960
40
1.0000000000
40
1.0000000000
40
1.0000000000
40
1.0000000000
10
-23.4315972730
20
-25.8368691075
30
0.0000000000
10
-23.4318709861
20
-25.8633460926
30
0.0000000000
10
-23.4325897997
20
-25.9278410456
30
0.0000000000
10
-23.4339153598
20
-26.0277566417
30
0.0000000000
10
-23.4356228552
20
-26.1334656517
30
0.0000000000
10
-23.4374951648
20
-26.2297791099
30
0.0000000000
10
-23.4395184684
20
-26.3151832396
30
0.0000000000
10
-23.4415902733
20
-26.3883547831
30
0.0000000000
10
-23.4438447685
20
-26.4480436768
30
0.0000000000
10
-23.4457495167
20
-26.4934459412
30
0.0000000000
10
-23.4482724373
20
-26.5234504541
30
0.0000000000
10
-23.4492897112
20
-26.5386598469
30
0.0000000000
10
-23.4508106689
20
-26.5433432585
30
0.0000000000
11
-23.4315972730
21
-25.8368691075
31
0.0000000000
11
-23.4324842237
21
-25.9162993632
31
0.0000000000
11
-23.4340065704
21
-26.0303507887
31
0.0000000000
11
-23.4357346017
21
-26.1366124279
31
0.0000000000
11
-23.4376387478
21
-26.2334256041
31
0.0000000000
11
-23.4396868825
21
-26.3192838261
31
0.0000000000
11
-23.4418445930
21
-26.3928336046
31
0.0000000000
11
-23.4440755974
21
-26.4528927682
31
0.0000000000
11
-23.4463405445
21
-26.4984448406
31
0.0000000000
11
-23.4485985572
21
-26.5287372504
31
0.0000000000
11
-23.4508106689
21
-26.5433432585
31
0.0000000000
0
SPLINE
5
3D2
100
AcDbEntity
8
0
100
AcDbSpline
62
9
6
CONTINUOUS
70
0
71
3
72
13
73
9
74
7
42
0.0000001000
43
0.0000001000
44
0.0000000001
12
-0.1510238151
22
-0.0081051324
32
0.0000000000
13
-0.0001987497
23
-0.1512410209
33
0.0000000000
40
0.0000000000
40
0.0000000000
40
0.0000000000
40
0.0000000000
40
0.1667208737
40
0.3334600977
40
0.5001822661
40
0.6668562330
40
0.8334628989
40
1.0000000000
40
1.0000000000
40
1.0000000000
40
1.0000000000
10
-23.4508106689
20
26.4079628171
30
0.0000000000
10
-23.4592036097
20
26.4075123855
30
0.0000000000
10
-23.4759523518
20
26.4044706161
30
0.0000000000
10
-23.4990798665
20
26.3937934810
30
0.0000000000
10
-23.5188222753
20
26.3776773141
30
0.0000000000
10
-23.5339037278
20
26.3571415790
30
0.0000000000
10
-23.5433703167
20
26.3335118318
30
0.0000000000
10
-23.5455356033
20
26.3166427018
30
0.0000000000
10
-23.5455466364
20
26.3082469547
30
0.0000000000
11
-23.4508106689
21
26.4079628171
31
0.0000000000
11
-23.4756189277
21
26.4034517874
31
0.0000000000
11
-23.4985167107
21
26.3928862491
31
0.0000000000
11
-23.5180478578
21
26.3769381062
31
0.0000000000
11
-23.5329703068
21
26.3566215638
31
0.0000000000
11
-23.5423350806
21
26.3332286304
31
0.0000000000
11
-23.5455466364
21
26.3082469547
31
0.0000000000
0
SPLINE
5
3D3
100
AcDbEntity
8
0
100
AcDbSpline
62
9
6
CONTINUOUS
70
0
71
3
72
19
73
15
74
13
42
0.0000001000
43
0.0000001000
44
0.0000000001
12
0.3796223338
22
-0.8127974075
32
0.0000000000
13
0.0000008924
23
-0.8970801202
33
0.0000000000
40
0.0000000000
40
0.0000000000
40
0.0000000000
40
0.0000000000
40
0.0149112081
40
0.0454061670
40
0.0911638058
40
0.1514594962
40
0.2252852058
40
0.3114613932
40
0.4086323684
40
0.5152843888
40
0.6297534587
40
0.7501219038
40
0.8742953918
40
1.0000000000
40
1.0000000000
40
1.0000000000
40
1.0000000000
10
-23.5455466384
20
26.3082469547
30
0.0000000000
10
-23.5436597625
20
26.3042070243
30
0.0000000000
10
-23.5423109902
20
26.2903613400
30
0.0000000000
10
-23.5393037502
20
26.2635134287
30
0.0000000000
10
-23.5370733376
20
26.2226047587
30
0.0000000000
10
-23.5345443338
20
26.1689302932
30
0.0000000000
10
-23.5323181012
20
26.1030713441
30
0.0000000000
10
-23.5302439230
20
26.0262043728
30
0.0000000000
10
-23.5284343784
20
25.9395030251
30
0.0000000000
10
-23.5269006603
20
25.8443379690
30
0.0000000000
10
-23.5256794019
20
25.7422303060
30
0.0000000000
10
-23.5247917139
20
25.6348799354
30
0.0000000000
10
-23.5242544995
20
25.5241674219
30
0.0000000000
10
-23.5241351365
20
25.4494471448
30
0.0000000000
10
-23.5241350991
20
25.4118581097
30
0.0000000000
11
-23.5455466384
21
26.3082469547
31
0.0000000000
11
-23.5427578252
21
26.2951643492
31
0.0000000000
11
-23.5400103157
21
26.2679462489
31
0.0000000000
11
-23.5373557154
21
26.2269839075
31
0.0000000000
11
-23.5348417353
21
26.1729522958
31
0.0000000000
11
-23.5325124084
21
26.1067656952
31
0.0000000000
11
-23.5304065390
21
26.0294874382
31
0.0000000000
11
-23.5285593780
21
25.9423368612
31
0.0000000000
11
-23.5270022333
21
25.8466741263
31
0.0000000000
11
-23.5257620812
21
25.7439936882
31
0.0000000000
11
-23.5248616515
21
25.6360173034
31
0.0000000000
11
-23.5243167786
21
25.5246250684
31
0.0000000000
11
-23.5241350991
21
25.4118581097
31
0.0000000000
0
SPLINE
5
3D4
100
AcDbEntity
8
0
100
AcDbSpline
62
9
6
CONTINUOUS
70
0
71
3
72
17
73
13
74
11
42
0.0000001000
43
0.0000001000
44
0.0000000001
12
0.2183516196
22
-0.6723596528
32
0.0000000000
13
0.0073076566
23
-0.7068887092
33
0.0000000000
40
0.0000000000
40
0.0000000000
40
0.0000000000
40
0.0000000000
40
0.0208969065
40
0.0638666567
40
0.1283830588
40
0.2133998128
40
0.3174862112
40
0.4389736088
40
0.5759495387
40
0.7262844108
40
0.8876330127
40
1.0000000000
40
1.0000000000
40
1.0000000000
40
1.0000000000
10
-23.4508106689
20
26.4079628171
30
0.0000000000
10
-23.4492897111
20
26.4032794048
30
0.0000000000
10
-23.4482724371
20
26.3880700112
30
0.0000000000
10
-23.4457495166
20
26.3580654970
30
0.0000000000
10
-23.4438447683
20
26.3126632316
30
0.0000000000
10
-23.4415902732
20
26.2529743368
30
0.0000000000
10
-23.4395184682
20
26.1798027924
30
0.0000000000
10
-23.4374951646
20
26.0943986618
30
0.0000000000
10
-23.4356228551
20
25.9980852028
30
0.0000000000
10
-23.4339153597
20
25.8923761920
30
0.0000000000
10
-23.4325897996
20
25.7924605956
30
0.0000000000
10
-23.4318709860
20
25.7279656425
30
0.0000000000
10
-23.4315972729
20
25.7014886576
30
0.0000000000
11
-23.4508106689
21
26.4079628171
31
0.0000000000
11
-23.4485985570
21
26.3933568071
31
0.0000000000
11
-23.4463405443
21
26.3630643965
31
0.0000000000
11
-23.4440755972
21
26.3175123230
31
0.0000000000
11
-23.4418445929
21
26.2574531583
31
0.0000000000
11
-23.4396868824
21
26.1839033788
31
0.0000000000
11
-23.4376387476
21
26.0980451559
31
0.0000000000
11
-23.4357346015
21
26.0012319790
31
0.0000000000
11
-23.4340065703
21
25.8949703390
31
0.0000000000
11
-23.4324842236
21
25.7809189127
31
0.0000000000
11
-23.4315972729
21
25.7014886576
31
0.0000000000
0
SPLINE
5
3D5
100
AcDbEntity
8
0
100
AcDbSpline
62
9
6
CONTINUOUS
70
0
71
3
72
10
73
6
74
4
42
0.0000001000
43
0.0000001000
44
0.0000000001
12
0.0025613209
22
-0.2477632559
32
0.0000000000
13
0.0014093470
23
-0.2477725029
33
0.0000000000
40
0.0000000000
40
0.0000000000
40
0.0000000000
40
0.0000000000
40
0.1634646211
40
0.6627992087
40
1.0000000000
40
1.0000000000
40
1.0000000000
40
1.0000000000
10
-23.4315972729
20
25.7014886576
30
0.0000000000
10
-23.4314577111
20
25.6879884820
30
0.0000000000
10
-23.4309143657
20
25.6332491545
30
0.0000000000
10
-23.4302269310
20
25.5506597826
30
0.0000000000
10
-23.4297822816
20
25.4815699121
30
0.0000000000
10
-23.4296238706
20
25.4537202174
30
0.0000000000
11
-23.4315972729
21
25.7014886576
31
0.0000000000
11
-23.4311950383
21
25.6609879657
31
0.0000000000
11
-23.4301619410
21
25.5372689196
31
0.0000000000
11
-23.4296238706
21
25.4537202174
31
0.0000000000
0
SPLINE
5
3D6
100
AcDbEntity
8
0
100
AcDbSpline
62
9
6
CONTINUOUS
70
0
71
3
72
8
73
4
74
2
42
0.0000001000
43
0.0000001000
44
0.0000000001
12
0.0002381141
22
-0.0418620261
32
0.0000000000
13
0.0002068859
23
-0.0418621845
33
0.0000000000
40
0.0000000000
40
0.0000000000
40
0.0000000000
40
0.0000000000
40
1.0000000000
40
1.0000000000
40
1.0000000000
40
1.0000000000
10
-23.4296238706
20
25.4537202174
30
0.0000000000
10
-23.4295444993
20
25.4397662087
30
0.0000000000
10
-23.4294703556
20
25.4258121712
30
0.0000000000
10
-23.4294013937
20
25.4118581097
30
0.0000000000
11
-23.4296238706
21
25.4537202174
31
0.0000000000
11
-23.4294013937
21
25.4118581097
31
0.0000000000
0
SPLINE
5
3D7
100
AcDbEntity
8
0
100
AcDbSpline
62
9
6
CONTINUOUS
70
0
71
3
72
8
73
4
74
2
42
0.0000001000
43
0.0000001000
44
0.0000000001
12
-0.0268206070
22
0.0013313815
32
0.0000000000
13
-0.0268206068
23
0.0013313856
33
0.0000000000
40
0.0000000000
40
0.0000000000
40
0.0000000000
40
0.0000000000
40
1.0000000000
40
1.0000000000
40
1.0000000000
40
1.0000000000
10
-23.4239901143
20
-26.5446756404
30
0.0000000000
10
-23.4329303167
20
-26.5442318465
30
0.0000000000
10
-23.4418705190
20
-26.5437880520
30
0.0000000000
10
-23.4508107213
20
-26.5433442568
30
0.0000000000
11
-23.4239901143
21
-26.5446756404
31
0.0000000000
11
-23.4508107213
21
-26.5433442568
31
0.0000000000
0
SPLINE
5
3D8
100
AcDbEntity
8
0
100
AcDbSpline
62
9
6
CONTINUOUS
70
0
71
3
72
8
73
4
74
2
42
0.0000001000
43
0.0000001000
44
0.0000000001
12
0.0268217554
22
0.0013314426
32
0.0000000000
13
0.0268217556
23
0.0013314385
33
0.0000000000
40
0.0000000000
40
0.0000000000
40
0.0000000000
40
0.0000000000
40
1.0000000000
40
1.0000000000
40
1.0000000000
40
1.0000000000
10
-23.4508107213
20
26.4079638151
30
0.0000000000
10
-23.4418701361
20
26.4084076293
30
0.0000000000
10
-23.4329295510
20
26.4088514428
30
0.0000000000
10
-23.4239889658
20
26.4092952557
30
0.0000000000
11
-23.4508107213
21
26.4079638151
31
0.0000000000
11
-23.4239889658
21
26.4092952557
31
0.0000000000
0
SPLINE
5
3D9
100
AcDbEntity
8
0
100
AcDbSpline
62
9
6
CONTINUOUS
70
0
71
3
72
9
73
5
74
3
42
0.0000001000
43
0.0000001000
44
0.0000000001
12
-0.0550420910
22
0.1180132785
32
0.0000000000
13
-0.0000000001
23
-0.0000000003
33
0.0000000000
40
0.0000000000
40
0.0000000000
40
0.0000000000
40
0.0000000000
40
0.3803804453
40
1.0000000000
40
1.0000000000
40
1.0000000000
40
1.0000000000
10
-23.7825432964
20
25.5981225139
30
0.0000000000
10
-23.7895222747
20
25.6130858284
30
0.0000000000
10
-23.8094764107
20
25.6558685965
30
0.0000000000
10
-23.8350649126
20
25.7107317578
30
0.0000000000
10
-23.8350649126
20
25.7107317578
30
0.0000000000
11
-23.7825432964
21
25.5981225139
31
0.0000000000
11
-23.8055178333
21
25.6473811886
31
0.0000000000
11
-23.8350649126
21
25.7107317578
31
0.0000000000
0
SPLINE
5
3DA
100
AcDbEntity
8
0
100
AcDbSpline
62
9
6
CONTINUOUS
70
0
71
3
72
9
73
5
74
3
42
0.0000001000
43
0.0000001000
44
0.0000000001
12
-0.2179040769
22
0.4671981525
32
0.0000000000
13
-0.2515191140
23
0.5392708511
33
0.0000000000
40
0.0000000000
40
0.0000000000
40
0.0000000000
40
0.0000000000
40
0.6767076941
40
1.0000000000
40
1.0000000000
40
1.0000000000
40
1.0000000000
10
-23.5694750923
20
25.1412925205
30
0.0000000000
10
-23.6186275474
20
25.2466780486
30
0.0000000000
10
-23.7001145352
20
25.4213907094
30
0.0000000000
10
-23.7554385649
20
25.5400084749
30
0.0000000000
10
-23.7825432964
20
25.5981225139
30
0.0000000000
11
-23.5694750923
21
25.1412925205
31
0.0000000000
11
-23.7169324008
21
25.4574491315
31
0.0000000000
11
-23.7825432964
21
25.5981225139
31
0.0000000000
0
ENDSEC
0
SECTION
2
OBJECTS
0
DICTIONARY
5
C
100
AcDbDictionary
280
0
281
1
3
ACAD_GROUP
350
D
3
ACAD_MLINESTYLE
350
17
3
ACAD_LAYOUT
350
1A
3
ACAD_PLOTSETTINGS
350
19
3
ACAD_PLOTSTYLENAME
350
E
0
DICTIONARY
5
D
102
{ACAD_REACTORS
330
C
102
}
100
AcDbDictionary
280
0
281
1
0
ACDBDICTIONARYWDFLT
5
E
102
{ACAD_REACTORS
330
C
102
}
100
AcDbDictionary
281
1
3
Normal
350
F
100
AcDbDictionaryWithDefault
340
F
0
DICTIONARY
5
17
102
{ACAD_REACTORS
330
C
102
}
100
AcDbDictionary
280
0
281
1
3
Standard
350
18
0
DICTIONARY
5
19
102
{ACAD_REACTORS
330
C
102
}
100
AcDbDictionary
281
1
0
DICTIONARY
5
1A
102
{ACAD_REACTORS
330
C
102
}
100
AcDbDictionary
281
1
3
Layout1
350
1E
3
Model
350
22
0
ACDBPLACEHOLDER
5
F
102
{ACAD_REACTORS
330
E
102
}
0
MLINESTYLE
5
18
102
{ACAD_REACTORS
330
17
102
}
100
AcDbMlineStyle
2
STANDARD
70
0
3

62
256
51
90.0
52
90.0
71
2
49
0.5
62
256
6
BYLAYER
49
-0.5
62
256
6
BYLAYER
0
LAYOUT
5
1E
102
{ACAD_REACTORS
330
1A
102
}
100
AcDbPlotSettings
1

2

4

6

40
0.0
41
0.0
42
0.0
43
0.0
44
0.0
45
0.0
46
0.0
47
0.0
48
0.0
49
0.0
140
0.0
141
0.0
142
1.0
143
1.0
70
0
72
0
73
0
74
0
7

75
0
147
1.0
148
0.0
149
0.0
100
AcDbLayout
1
Layout1
70
0
71
0
10
0.0
20
0.0
11
0.0
21
0.0
12
0.0
22
0.0
32
0.0
14
0.0
24
0.0
34
0.0
15
0.0
25
0.0
35
0.0
146
0.0
13
0.0
23
0.0
33
0.0
16
0.0
26
0.0
36
0.0
17
0.0
27
0.0
37
0.0
76
0
330
1B
331
0
345
0
346
0
0
LAYOUT
5
22
102
{ACAD_REACTORS
330
1A
102
}
100
AcDbPlotSettings
1

2

4

6

40
0.0
41
0.0
42
0.0
43
0.0
44
0.0
45
0.0
46
0.0
47
0.0
48
0.0
49
0.0
140
0.0
141
0.0
142
1.0
143
1.0
70
0
72
0
73
0
74
0
7

75
0
147
1.0
148
0.0
149
0.0
100
AcDbLayout
1
Model
70
0
71
0
10
0.0
20
0.0
11
0.0
21
0.0
12
0.0
22
0.0
32
0.0
14
0.0
24
0.0
34
0.0
15
0.0
25
0.0
35
0.0
146
0.0
13
0.0
23
0.0
33
0.0
16
0.0
26
0.0
36
0.0
17
0.0
27
0.0
37
0.0
76
0
330
1F
331
0
345
0
346
0
0
ENDSEC
0
EOF
