  0
SECTION
  2
HEADER
  9
$ACADVER
  1
AC1015
  9
$DWGCODEPAGE
  3
ANSI_1252
  9
$EXTMAX
 10
297.0
 20
210.0
 30
0.0
  9
$EXTMIN
 10
0.0
 20
0.0
 30
0.0
  9
$LIMMIN
 10
0.0
 20
0.0
  9
$LIMMAX
 10
297.0
 20
210.0
  9
$VIEWCTR
 10
148.5
 20
105.0
  9
$VIEWSIZE
 40
210.0
  9
$CLAYER
  8
0
  9
$LTSCALE
 40
16.335
  9
$CELTYPE
  6
BYLAYER
  9
$DIMSCALE
 40
1.0
  9
$DIMASZ
 40
3.0
  9
$DIMEXO
 40
0.5
  9
$DIMDLI
 40
11.286
  9
$DIMEXE
 40
1.5
  9
$DIMCEN
 40
2.673
  9
$DIMLFAC
 40
1.0
  9
$DIMBLK
  1
_FILLED
  9
$DIMTXT
 40
3.0
  9
$DIMTOL
 70
1
  9
$DIMLIM
 70
0
  9
$DIMTFAC
 40
1.0
  9
$DIMTP
 40
0.01
  9
$DIMTM
 40
0.01
  9
$DIMGAP
 40
0.625
  9
$DIMDSEP
 70
44
  9
$PDMODE
 70
3
  9
$PDSIZE
 40
3.0
  9
$HANDSEED
  5
437
  9
$TILEMODE
 70
1
  9
$MEASUREMENT
 70
1
  9
$INSUNITS
 70
4
  0
ENDSEC
  0
SECTION
  2
CLASSES
  0
CLASS
  1
ACDBDICTIONARYWDFLT
  2
AcDbDictionaryWithDefault
  3
AutoCAD 2000
 90
0
280
0
281
0
  0
CLASS
  1
ACDBPLACEHOLDER
  2
AcDbPlaceHolder
  3
AutoCAD 2000
 90
0
280
0
281
0
  0
CLASS
  1
LAYOUT
  2
AcDbLayout
  3
AutoCAD 2000
 90
0
280
0
281
0
  0
ENDSEC
  0
SECTION
  2
TABLES
  0
TABLE
  2
VPORT
  5
8
100
AcDbSymbolTable
 70
2
  0
VPORT
  5
1F4
100
AcDbSymbolTableRecord
100
AcDbViewportTableRecord
  2
*ACTIVE
 70
0
 10
0.0
 20
0.0
 11
1.0
 21
1.0
 12
148.5
 22
105.0
 13
0.0
 23
0.0
 14
1.0
 24
1.0
 15
0.0
 25
0.0
 16
0.0
 26
0.0
 36
1.0
 17
0.0
 27
0.0
 37
0.0
 40
210.0
 41
1.4142857143
 42
50.0
 43
0.0
 44
0.0
 50
0.0
 51
0.0
 71
0
 72
100
 73
1
 74
1
 75
0
 76
0
 77
0
 78
0
  0
ENDTAB
  0
TABLE
  2
LTYPE
  5
5
100
AcDbSymbolTable
 70
6
  0
LTYPE
  5
14
100
AcDbSymbolTableRecord
100
AcDbLinetypeTableRecord
  2
BYBLOCK
 70
0
  3

 72
65
 73
0
 40
0.0
  0
LTYPE
  5
15
100
AcDbSymbolTableRecord
100
AcDbLinetypeTableRecord
  2
BYLAYER
 70
0
  3

 72
65
 73
0
 40
0.0
  0
LTYPE
  5
16
100
AcDbSymbolTableRecord
100
AcDbLinetypeTableRecord
  2
CONTINUOUS
 70
64
  3
Solid line
 72
65
 73
0
 40
0.0
  0
LTYPE
  5
1F5
100
AcDbSymbolTableRecord
100
AcDbLinetypeTableRecord
  2
CENTER
 70
64
  3
____ _ ____ _ ____ _ ____ _ ____ _ ____ _ ____
 72
65
 73
4
 40
0.6
 49
0.375
 74
0
 49
-0.075
 74
0
 49
0.075
 74
0
 49
-0.075
 74
0
  0
LTYPE
  5
1F6
100
AcDbSymbolTableRecord
100
AcDbLinetypeTableRecord
  2
HIDDEN
 70
64
  3
- - - - - - - - - - - - - - - - - - - -
 72
65
 73
2
 40
0.2
 49
0.1
 74
0
 49
-0.1
 74
0
  0
LTYPE
  5
1F7
100
AcDbSymbolTableRecord
100
AcDbLinetypeTableRecord
  2
PHANTOM
 70
64
  3
_____ _ _ _____ _ _ _____ _ _ _____
 72
65
 73
6
 40
0.8
 49
0.45
 74
0
 49
-0.05
 74
0
 49
0.1
 74
0
 49
-0.05
 74
0
 49
0.1
 74
0
 49
-0.05
 74
0
  0
LTYPE
  5
1F8
100
AcDbSymbolTableRecord
100
AcDbLinetypeTableRecord
  2
DOT
 70
64
  3
. . . . . . . . . . . . . . . . . . . .
 72
65
 73
2
 40
0.2
 49
0.1
 74
0
 49
-0.1
 74
0
  0
LTYPE
  5
1F9
100
AcDbSymbolTableRecord
100
AcDbLinetypeTableRecord
  2
DASHED
 70
64
  3
- - - - - - - - - - - - - - - - - - - -
 72
65
 73
2
 40
0.2
 49
0.1
 74
0
 49
-0.1
 74
0
  0
ENDTAB
  0
TABLE
  2
LAYER
  5
2
100
AcDbSymbolTable
 70
36
  0
LAYER
  5
10
100
AcDbSymbolTableRecord
100
AcDbLayerTableRecord
  2
0
 70
0
 62
7
  6
CONTINUOUS
370
-3
390
F
  0
LAYER
  5
1FA
100
AcDbSymbolTableRecord
100
AcDbLayerTableRecord
  2
DEFAULT_1
 70
0
 62
7
  6
CENTER
370
-3
390
F
  0
LAYER
  5
1FB
100
AcDbSymbolTableRecord
100
AcDbLayerTableRecord
  2
DEFAULT_2
 70
0
 62
7
  6
HIDDEN
370
-3
390
F
  0
LAYER
  5
1FC
100
AcDbSymbolTableRecord
100
AcDbLayerTableRecord
  2
DEFAULT_3
 70
0
 62
7
  6
PHANTOM
370
-3
390
F
  0
LAYER
  5
1FD
100
AcDbSymbolTableRecord
100
AcDbLayerTableRecord
  2
ASSI
 70
0
 62
7
  6
CONTINUOUS
370
-3
390
F
  0
LAYER
  5
1FE
100
AcDbSymbolTableRecord
100
AcDbLayerTableRecord
  2
COORDINATE
 70
0
 62
7
  6
CONTINUOUS
370
-3
390
F
  0
LAYER
  5
1FF
100
AcDbSymbolTableRecord
100
AcDbLayerTableRecord
  2
COORD_ORIGINE
 70
0
 62
7
  6
CONTINUOUS
370
-3
390
F
  0
LAYER
  5
200
100
AcDbSymbolTableRecord
100
AcDbLayerTableRecord
  2
COPY_DENTI
 70
0
 62
7
  6
CONTINUOUS
370
-3
390
F
  0
LAYER
  5
201
100
AcDbSymbolTableRecord
100
AcDbLayerTableRecord
  2
COPY_PLACCA
 70
0
 62
7
  6
CONTINUOUS
370
-3
390
F
  0
LAYER
  5
202
100
AcDbSymbolTableRecord
100
AcDbLayerTableRecord
  2
COPY_PUBLISH
 70
0
 62
7
  6
CONTINUOUS
370
-3
390
F
  0
LAYER
  5
203
100
AcDbSymbolTableRecord
100
AcDbLayerTableRecord
  2
COPY_SUPP
 70
0
 62
7
  6
CONTINUOUS
370
-3
390
F
  0
LAYER
  5
204
100
AcDbSymbolTableRecord
100
AcDbLayerTableRecord
  2
COSMETIC
 70
0
 62
7
  6
CONTINUOUS
370
-3
390
F
  0
LAYER
  5
205
100
AcDbSymbolTableRecord
100
AcDbLayerTableRecord
  2
CURVE
 70
0
 62
7
  6
CONTINUOUS
370
-3
390
F
  0
LAYER
  5
206
100
AcDbSymbolTableRecord
100
AcDbLayerTableRecord
  2
DRAFT
 70
0
 62
7
  6
CONTINUOUS
370
-3
390
F
  0
LAYER
  5
207
100
AcDbSymbolTableRecord
100
AcDbLayerTableRecord
  2
IMPORT_IGES
 70
0
 62
7
  6
CONTINUOUS
370
-3
390
F
  0
LAYER
  5
208
100
AcDbSymbolTableRecord
100
AcDbLayerTableRecord
  2
NOTE
 70
0
 62
7
  6
CONTINUOUS
370
-3
390
F
  0
LAYER
  5
209
100
AcDbSymbolTableRecord
100
AcDbLayerTableRecord
  2
PIANI
 70
0
 62
7
  6
CONTINUOUS
370
-3
390
F
  0
LAYER
  5
20A
100
AcDbSymbolTableRecord
100
AcDbLayerTableRecord
  2
PIANI_ORIGINE
 70
0
 62
7
  6
CONTINUOUS
370
-3
390
F
  0
LAYER
  5
20B
100
AcDbSymbolTableRecord
100
AcDbLayerTableRecord
  2
RACCORDO
 70
0
 62
7
  6
CONTINUOUS
370
-3
390
F
  0
LAYER
  5
20C
100
AcDbSymbolTableRecord
100
AcDbLayerTableRecord
  2
SKELETON
 70
0
 62
7
  6
CONTINUOUS
370
-3
390
F
  0
LAYER
  5
20D
100
AcDbSymbolTableRecord
100
AcDbLayerTableRecord
  2
SMUSSO
 70
0
 62
7
  6
CONTINUOUS
370
-3
390
F
  0
LAYER
  5
20E
100
AcDbSymbolTableRecord
100
AcDbLayerTableRecord
  2
SUPERFICI
 70
0
 62
7
  6
CONTINUOUS
370
-3
390
F
  0
LAYER
  5
20F
100
AcDbSymbolTableRecord
100
AcDbLayerTableRecord
  2
TRASH
 70
0
 62
7
  6
CONTINUOUS
370
-3
390
F
  0
LAYER
  5
210
100
AcDbSymbolTableRecord
100
AcDbLayerTableRecord
  2
WHITE
 70
0
 62
7
  6
CONTINUOUS
370
-3
390
F
  0
LAYER
  5
211
100
AcDbSymbolTableRecord
100
AcDbLayerTableRecord
  2
XSEC_DATUMS
 70
0
 62
7
  6
CONTINUOUS
370
-3
390
F
  0
ENDTAB
  0
TABLE
  2
STYLE
  5
3
100
AcDbSymbolTable
 70
1
  0
STYLE
  5
11
100
AcDbSymbolTableRecord
100
AcDbTextStyleTableRecord
  2
STANDARD
 70
0
 40
0.0
 41
0.8
 50
0.0
 71
0
 42
0.2
  3
txt
  4

  0
STYLE
  5
212
100
AcDbSymbolTableRecord
100
AcDbTextStyleTableRecord
  2
TEXTSTYLE_1
 70
0
 40
0.0
 41
0.8
 50
0.0
 71
0
 42
0.2
  3
gdt
  4

  0
ENDTAB
  0
TABLE
  2
VIEW
  5
6
100
AcDbSymbolTable
 70
0
  0
ENDTAB
  0
TABLE
  2
UCS
  5
7
100
AcDbSymbolTable
 70
0
  0
ENDTAB
  0
TABLE
  2
APPID
  5
9
100
AcDbSymbolTable
 70
1
  0
APPID
  5
213
100
AcDbSymbolTableRecord
100
AcDbRegAppTableRecord
  2
ACAD
 70
0
  0
ENDTAB
  0
TABLE
  2
BLOCK_RECORD
  5
1
100
AcDbSymbolTable
 70
0
  0
BLOCK_RECORD
  5
214
100
AcDbSymbolTableRecord
100
AcDbBlockTableRecord
  2
*Model_Space
  0
BLOCK_RECORD
  5
215
100
AcDbSymbolTableRecord
100
AcDbBlockTableRecord
  2
*Paper_Space
  0
BLOCK_RECORD
  5
216
100
AcDbSymbolTableRecord
100
AcDbBlockTableRecord
  2
_FILLED
  0
BLOCK_RECORD
  5
217
100
AcDbSymbolTableRecord
100
AcDbBlockTableRecord
  2
*D0
  0
BLOCK_RECORD
  5
218
100
AcDbSymbolTableRecord
100
AcDbBlockTableRecord
  2
*D1
  0
BLOCK_RECORD
  5
219
100
AcDbSymbolTableRecord
100
AcDbBlockTableRecord
  2
*D2
  0
ENDTAB
  0
TABLE
  2
DIMSTYLE
  5
A
100
AcDbSymbolTable
 70
1
100
AcDbDimStyleTable
 71
0
  0
DIMSTYLE
105
21A
100
AcDbSymbolTableRecord
100
AcDbDimStyleTableRecord
  2
STANDARD
 70
0
  3

  4

 40
1.0
 41
3.0
 42
0.5
 43
0.38
 44
1.5
 45
0.0
 46
0.0
 47
0.01
 48
0.01
140
3.0
141
0.09
142
0.0
143
25.4
144
1.0
145
0.0
146
1.0
147
0.625
 71
1.0
 72
0.0
 73
0
 74
0
 75
0
 76
0
 77
1
 78
8
170
0
171
2
172
0
173
0
174
0
175
0
176
0
177
0
178
0
270
2
271
2
272
2
273
2
274
2
275
0
280
0
281
0
282
0
283
1
284
8
285
0
286
0
287
3
288
0
340
11
278
44
341
216
342
216
343
216
344
216
  0
DIMSTYLE
105
21B
100
AcDbSymbolTableRecord
100
AcDbDimStyleTableRecord
  2
DIMSTYLE_1
 70
0
  3

  4

 40
1.0
 41
3.0
 42
0.5
 43
0.38
 44
1.5
 45
0.0
 46
0.0
 47
0.0
 48
0.0
140
3.0
141
0.09
142
0.0
143
25.4
144
1.0
145
0.0
146
1.0
147
0.75
 71
0.0
 72
0.0
 73
0
 74
0
 75
0
 76
0
 77
1
 78
8
170
0
171
2
172
0
173
0
174
0
175
0
176
0
177
0
178
0
270
2
271
2
272
2
273
2
274
2
275
0
280
0
281
0
282
0
283
1
284
8
285
0
286
0
287
3
288
0
340
11
278
44
341
216
342
216
343
216
344
216
  0
ENDTAB
  0
ENDSEC
  0
SECTION
  2
BLOCKS
  0
BLOCK
  5
20
100
AcDbEntity
  8
0
100
AcDbBlockBegin
  2
*Model_Space
 70
0
 10
0.0
 20
0.0
 30
0.0
  3
*Model_Space
  1

  0
ENDBLK
  5
21
100
AcDbEntity
  8
0
100
AcDbBlockEnd
  0
BLOCK
  5
1C
100
AcDbEntity
  8
0
100
AcDbBlockBegin
  2
*Paper_Space
 70
0
 10
0.0
 20
0.0
 30
0.0
  3
*Paper_Space
  1

  0
ENDBLK
  5
1D
100
AcDbEntity
  8
0
100
AcDbBlockEnd
  0
BLOCK
  5
21C
100
AcDbEntity
  8
0
100
AcDbBlockBegin
  2
_FILLED
 70
64
 10
0.0
 20
0.0
  3
_FILLED
  1

  0
SOLID
  5
21D
100
AcDbEntity
  8
0
  6
BYBLOCK
 62
0
100
AcDbTrace
 10
0.0
 20
0.0
 11
-1.0
 21
0.3166666667
 12
-1.0
 22
-0.3166666667
 13
-1.0
 23
-0.3166666667
  0
ENDBLK
  5
21E
100
AcDbEntity
  8
0
  6
BYBLOCK
 62
0
100
AcDbBlockEnd
  0
BLOCK
  5
21F
100
AcDbEntity
  8
0
100
AcDbBlockBegin
 62
7
  6
CONTINUOUS
  2
*D0
 70
65
 10
0.0
 20
0.0
  3
*D0
  1

  0
MTEXT
  5
220
100
AcDbEntity
  8
0
100
AcDbMText
 62
7
  6
CONTINUOUS
  7
STANDARD
 71
2
 72
1
 10
70.3556550615
 20
163.5550425226
 30
0.0
 11
1.0
 21
0.0
 31
0.0
 44
0.9
  1
10
 40
3.0
 41
4.0714285714
  0
LINE
  5
221
100
AcDbEntity
  8
0
100
AcDbLine
 62
7
  6
CONTINUOUS
 10
75.3556550615
 20
144.6948960062
 11
75.3556550615
 21
161.3050425226
  0
LINE
  5
222
100
AcDbEntity
  8
0
100
AcDbLine
 62
7
  6
CONTINUOUS
 10
65.3556550615
 20
131.1191969191
 11
65.3556550615
 21
161.3050425226
  0
LINE
  5
223
100
AcDbEntity
  8
0
100
AcDbLine
 62
7
  6
CONTINUOUS
 10
75.3556550615
 20
159.8050425226
 11
79.3556550615
 21
159.8050425226
  0
LINE
  5
224
100
AcDbEntity
  8
0
100
AcDbLine
 62
7
  6
CONTINUOUS
 10
79.3556550615
 20
159.8050425226
 11
70.3556550615
 21
159.8050425226
  0
LINE
  5
225
100
AcDbEntity
  8
0
100
AcDbLine
 62
7
  6
CONTINUOUS
 10
65.3556550615
 20
159.8050425226
 11
61.3556550615
 21
159.8050425226
  0
LINE
  5
226
100
AcDbEntity
  8
0
100
AcDbLine
 62
7
  6
CONTINUOUS
 10
61.3556550615
 20
159.8050425226
 11
70.3556550615
 21
159.8050425226
  0
INSERT
  5
227
100
AcDbEntity
  8
0
100
AcDbBlockReference
 62
7
  6
CONTINUOUS
  2
_FILLED
 10
75.3556550615
 20
159.8050425226
 41
3.0
 42
3.0
 43
3.0
 50
180.0
  0
INSERT
  5
228
100
AcDbEntity
  8
0
100
AcDbBlockReference
 62
7
  6
CONTINUOUS
  2
_FILLED
 10
65.3556550615
 20
159.8050425226
 41
3.0
 42
3.0
 43
3.0
  0
ENDBLK
  5
229
100
AcDbEntity
  8
0
  6
BYBLOCK
 62
0
100
AcDbBlockEnd
  0
BLOCK
  5
22A
100
AcDbEntity
  8
0
100
AcDbBlockBegin
 62
7
  6
CONTINUOUS
  2
*D1
 70
65
 10
0.0
 20
0.0
  3
*D1
  1

  0
MTEXT
  5
22B
100
AcDbEntity
  8
0
100
AcDbMText
 62
7
  6
CONTINUOUS
  7
STANDARD
 71
2
 72
1
 10
155.9541244491
 20
163.3352566185
 30
0.0
 11
1.0
 21
0.0
 31
0.0
 44
0.9
  1
120
 40
3.0
 41
6.4285714286
  0
LINE
  5
22C
100
AcDbEntity
  8
0
100
AcDbLine
 62
7
  6
CONTINUOUS
 10
95.9541244491
 20
144.6948960062
 11
95.9541244491
 21
161.0852566185
  0
LINE
  5
22D
100
AcDbEntity
  8
0
100
AcDbLine
 62
7
  6
CONTINUOUS
 10
215.9541244491
 20
144.6948960062
 11
215.9541244491
 21
161.0852566185
  0
LINE
  5
22E
100
AcDbEntity
  8
0
100
AcDbLine
 62
7
  6
CONTINUOUS
 10
95.9541244491
 20
159.5852566185
 11
155.9541244491
 21
159.5852566185
  0
LINE
  5
22F
100
AcDbEntity
  8
0
100
AcDbLine
 62
7
  6
CONTINUOUS
 10
215.9541244491
 20
159.5852566185
 11
155.9541244491
 21
159.5852566185
  0
INSERT
  5
230
100
AcDbEntity
  8
0
100
AcDbBlockReference
 62
7
  6
CONTINUOUS
  2
_FILLED
 10
95.9541244491
 20
159.5852566185
 41
3.0
 42
3.0
 43
3.0
 50
180.0
  0
INSERT
  5
231
100
AcDbEntity
  8
0
100
AcDbBlockReference
 62
7
  6
CONTINUOUS
  2
_FILLED
 10
215.9541244491
 20
159.5852566185
 41
3.0
 42
3.0
 43
3.0
  0
ENDBLK
  5
232
100
AcDbEntity
  8
0
  6
BYBLOCK
 62
0
100
AcDbBlockEnd
  0
BLOCK
  5
233
100
AcDbEntity
  8
0
100
AcDbBlockBegin
 62
7
  6
CONTINUOUS
  2
*D2
 70
65
 10
0.0
 20
0.0
  3
*D2
  1

  0
MTEXT
  5
234
100
AcDbEntity
  8
0
100
AcDbMText
 62
7
  6
CONTINUOUS
  7
STANDARD
 71
2
 72
1
 10
227.093223066
 20
103.6948960062
 30
0.0
 11
0.0
 21
1.0
 31
0.0
 44
0.9
  1
85
 40
3.0
 41
4.5
  0
LINE
  5
235
100
AcDbEntity
  8
0
100
AcDbLine
 62
7
  6
CONTINUOUS
 10
214.4541244505
 20
146.1948960062
 11
232.343223066
 21
146.1948960062
  0
LINE
  5
236
100
AcDbEntity
  8
0
100
AcDbLine
 62
7
  6
CONTINUOUS
 10
214.4541244505
 20
61.1948960062
 11
232.343223066
 21
61.1948960062
  0
LINE
  5
237
100
AcDbEntity
  8
0
100
AcDbLine
 62
7
  6
CONTINUOUS
 10
230.843223066
 20
146.1948960062
 11
230.843223066
 21
103.6948960062
  0
LINE
  5
238
100
AcDbEntity
  8
0
100
AcDbLine
 62
7
  6
CONTINUOUS
 10
230.843223066
 20
61.1948960062
 11
230.843223066
 21
103.6948960062
  0
INSERT
  5
239
100
AcDbEntity
  8
0
100
AcDbBlockReference
 62
7
  6
CONTINUOUS
  2
_FILLED
 10
230.843223066
 20
146.1948960062
 41
3.0
 42
3.0
 43
3.0
 50
90.0
  0
INSERT
  5
23A
100
AcDbEntity
  8
0
100
AcDbBlockReference
 62
7
  6
CONTINUOUS
  2
_FILLED
 10
230.843223066
 20
61.1948960062
 41
3.0
 42
3.0
 43
3.0
 50
270.0
  0
ENDBLK
  5
23B
100
AcDbEntity
  8
0
  6
BYBLOCK
 62
0
100
AcDbBlockEnd
  0
ENDSEC
  0
SECTION
  2
ENTITIES
  0
DIMENSION
  5
23C
100
AcDbEntity
  8
0
100
AcDbDimension
 62
7
  6
CONTINUOUS
  2
*D0
 10
65.3556550615
 20
159.8050425226
 11
70.3556550615
 21
159.8050425226
 70
160
 71
2
 42
10.0
  3
DIMSTYLE_1
100
AcDbAlignedDimension
 13
75.3556550615
 23
144.1948960062
 14
65.3556550615
 24
130.6191969191
 50
180.0
100
AcDbRotatedDimension
  0
DIMENSION
  5
23D
100
AcDbEntity
  8
0
100
AcDbDimension
 62
7
  6
CONTINUOUS
  2
*D1
 10
215.9541244491
 20
159.5852566185
 11
155.9541244491
 21
159.5852566185
 70
160
 71
2
 42
120.0
  3
DIMSTYLE_1
100
AcDbAlignedDimension
 13
95.9541244491
 23
144.1948960062
 14
215.9541244491
 24
144.1948960062
100
AcDbRotatedDimension
  0
DIMENSION
  5
23E
100
AcDbEntity
  8
0
100
AcDbDimension
 62
7
  6
CONTINUOUS
  2
*D2
 10
230.843223066
 20
61.1948960062
 11
230.843223066
 21
103.6948960062
 70
160
 71
2
 42
85.0
  3
DIMSTYLE_1
100
AcDbAlignedDimension
 13
213.9541244505
 23
146.1948960062
 14
213.9541244505
 24
61.1948960062
 50
270.0
100
AcDbRotatedDimension
  0
LWPOLYLINE
  5
23F
100
AcDbEntity
  8
RACCORDO
100
AcDbPolyline
 62
253
  6
CONTINUOUS
 90
25
 70
0
 10
96.422792169
 20
63.1948960062
 10
96.4240940742
 20
63.1135619039
 10
96.4311435688
 20
63.0299229352
 10
96.4439406608
 20
62.9439791002
 10
96.4620317329
 20
62.8551527255
 10
96.4858704368
 20
62.7640214845
 10
96.5168176999
 20
62.6723183973
 10
96.5553304252
 20
62.5795587694
 10
96.6009518098
 20
62.4862272953
 10
96.6536722436
 20
62.3955110795
 10
96.7138968764
 20
62.3076135609
 10
96.7812207198
 20
62.2223313006
 10
96.8544189548
 20
62.1422410864
 10
96.9339509841
 20
62.067587044
 10
97.0193575856
 20
61.9981250477
 10
97.1080359536
 20
61.9356995084
 10
97.2002556418
 20
61.8808004958
 10
97.2957472141
 20
61.8329379401
 10
97.3910992759
 20
61.7924860434
 10
97.4862811696
 20
61.7599862395
 10
97.5813235452
 20
61.7348970946
 10
97.6729068441
 20
61.7159685088
 10
97.7599244791
 20
61.7027837821
 10
97.8434829028
 20
61.6957596146
 10
97.9235820584
 20
61.6948960062
  0
LWPOLYLINE
  5
240
100
AcDbEntity
  8
RACCORDO
100
AcDbPolyline
 62
253
  6
CONTINUOUS
 90
13
 70
0
 10
97.9235820584
 20
61.6948960062
 10
97.9238433528
 20
61.6296329071
 10
97.9246227652
 20
61.5654864782
 10
97.9259069596
 20
61.5035542828
 10
97.9276739632
 20
61.4448959977
 10
97.9298935418
 20
61.3905152826
 10
97.9325277181
 20
61.3413426069
 10
97.9355314203
 20
61.2982193285
 10
97.9388532544
 20
61.2618832984
 10
97.9424363828
 20
61.232956236
 10
97.9462194972
 20
61.2119330911
 10
97.9501378674
 20
61.199173575
 10
97.9541244491
 20
61.1948960062
  0
LINE
  5
241
100
AcDbEntity
  8
RACCORDO
100
AcDbLine
 62
7
  6
CONTINUOUS
 10
95.9541244491
 20
144.1948960062
 11
95.9541244491
 21
63.1948960062
  0
LINE
  5
242
100
AcDbEntity
  8
RACCORDO
100
AcDbLine
 62
253
  6
CONTINUOUS
 10
96.422792169
 20
144.1948960062
 11
96.422792169
 21
63.1948960062
  0
LWPOLYLINE
  5
243
100
AcDbEntity
  8
RACCORDO
100
AcDbPolyline
 62
253
  6
CONTINUOUS
 90
13
 70
0
 10
97.9235820584
 20
145.6948960062
 10
97.9238433529
 20
145.7601590313
 10
97.9246227643
 20
145.8243054046
 10
97.9259069571
 20
145.8862375648
 10
97.9276739588
 20
145.9448958357
 10
97.9298935358
 20
145.9992765554
 10
97.9325277107
 20
146.0484492498
 10
97.9355314124
 20
146.0915725578
 10
97.9388532467
 20
146.1279086233
 10
97.9424363761
 20
146.15683572
 10
97.9462194921
 20
146.1778588938
 10
97.9501378646
 20
146.19061843
 10
97.9541244491
 20
146.1948960062
  0
LWPOLYLINE
  5
244
100
AcDbEntity
  8
RACCORDO
100
AcDbPolyline
 62
253
  6
CONTINUOUS
 90
25
 70
0
 10
213.9846668399
 20
61.6948960062
 10
214.0715769791
 20
61.6964160217
 10
214.1607323919
 20
61.7044209594
 10
214.2521330387
 20
61.7189108192
 10
214.3465982361
 20
61.7394992079
 10
214.4433085745
 20
61.7665725187
 10
214.5398059703
 20
61.8012899319
 10
214.6365053689
 20
61.8443022746
 10
214.7329918256
 20
61.8949587197
 10
214.8255625367
 20
61.9524659661
 10
214.913765965
 20
62.0172594417
 10
214.9980537904
 20
62.0889037186
 10
215.0760781398
 20
62.1652992118
 10
215.1473693748
 20
62.2466555725
 10
215.2123973218
 20
62.3327631496
 10
215.2702233449
 20
62.4208934046
 10
215.3204257687
 20
62.511110579
 10
215.3634264251
 20
62.6033504313
 10
215.399551933
 20
62.6946916998
 10
215.4284343532
 20
62.7850173164
 10
215.4504417151
 20
62.8744443491
 10
215.4670045669
 20
62.9604027402
 10
215.4785997659
 20
63.0420358038
 10
215.4847504845
 20
63.1202002258
 10
215.4854567293
 20
63.1948960062
  0
LINE
  5
245
100
AcDbEntity
  8
RACCORDO
100
AcDbLine
 62
7
  6
CONTINUOUS
 10
97.9541244491
 20
61.1948960062
 11
213.9541244491
 21
61.1948960062
  0
LINE
  5
246
100
AcDbEntity
  8
RACCORDO
100
AcDbLine
 62
253
  6
CONTINUOUS
 10
97.9235820584
 20
61.6948960062
 11
213.9846668399
 21
61.6948960062
  0
LINE
  5
247
100
AcDbEntity
  8
RACCORDO
100
AcDbLine
 62
253
  6
CONTINUOUS
 10
96.422792169
 20
63.1948960062
 11
95.9541244491
 21
63.1948960063
  0
LINE
  5
248
100
AcDbEntity
  8
RACCORDO
100
AcDbLine
 62
253
  6
CONTINUOUS
 10
215.4854567293
 20
63.1948960062
 11
215.9541244491
 21
63.1948960062
  0
LINE
  5
249
100
AcDbEntity
  8
RACCORDO
100
AcDbLine
 62
253
  6
CONTINUOUS
 10
131.2515241754
 20
78.01737571
 11
131.2580093405
 21
77.8947349166
  0
LWPOLYLINE
  5
24A
100
AcDbEntity
  8
RACCORDO
100
AcDbPolyline
 62
253
  6
CONTINUOUS
 90
3
 70
0
 10
131.2760990921
 20
129.6139149597
 10
131.2579634372
 20
129.4948540054
 10
131.2515241754
 20
129.3724163025
  0
LWPOLYLINE
  5
24B
100
AcDbEntity
  8
RACCORDO
100
AcDbPolyline
 62
253
  6
CONTINUOUS
 90
12
 70
0
 10
132.1477281233
 20
130.5332523224
 10
132.0336326913
 20
130.4972610526
 10
131.9224484533
 20
130.4491550081
 10
131.8153298096
 20
130.3895485249
 10
131.7157399914
 20
130.3202846108
 10
131.6239925611
 20
130.2410880436
 10
131.5397738405
 20
130.1522340456
 10
131.4656061591
 20
130.0563912912
 10
131.4017817145
 20
129.9532453363
 10
131.3480081958
 20
129.8431106251
 10
131.3059311576
 20
129.7295991654
 10
131.2760990921
 20
129.6139149597
  0
LINE
  5
24C
100
AcDbEntity
  8
RACCORDO
100
AcDbLine
 62
253
  6
CONTINUOUS
 10
179.6423596857
 20
76.8320488589
 11
179.7605207749
 21
76.8565396901
  0
LINE
  5
24D
100
AcDbEntity
  8
RACCORDO
100
AcDbLine
 62
253
  6
CONTINUOUS
 10
179.5201329032
 20
76.8190584666
 11
179.6423596857
 21
76.8320488589
  0
LWPOLYLINE
  5
24E
100
AcDbEntity
  8
RACCORDO
100
AcDbPolyline
 62
253
  6
CONTINUOUS
 90
58
 70
0
 10
179.4439931015
 20
77.1784565654
 10
179.4705850683
 20
77.1802100829
 10
179.4971195551
 20
77.1826709813
 10
179.5235777513
 20
77.1858374282
 10
179.5499407073
 20
77.1897070482
 10
179.5761899385
 20
77.1942770422
 10
179.6023074292
 20
77.1995442448
 10
179.6282749676
 20
77.2055049578
 10
179.6540738437
 20
77.2121548601
 10
179.6796854529
 20
77.2194891404
 10
179.7050915234
 20
77.2275024971
 10
179.7302741886
 20
77.2361892239
 10
179.7552156761
 20
77.2455431652
 10
179.7798983597
 20
77.2555576558
 10
179.8043047184
 20
77.2662255302
 10
179.8284174133
 20
77.2775391861
 10
179.8522193633
 20
77.2894905479
 10
179.875693727
 20
77.3020710955
 10
179.8988238591
 20
77.315271881
 10
179.9215933862
 20
77.3290834965
 10
179.9439861976
 20
77.3434961035
 10
179.9659864277
 20
77.3584994602
 10
179.9875784873
 20
77.3740828687
 10
180.0087471269
 20
77.3902352535
 10
180.0294774227
 20
77.4069451972
 10
180.049754728
 20
77.4242008367
 10
180.06956468
 20
77.4419898884
 10
180.0888932585
 20
77.4602997334
 10
180.1077267745
 20
77.4791173426
 10
180.126051931
 20
77.4984293646
 10
180.1438558173
 20
77.5182221646
 10
180.1611258527
 20
77.5384817052
 10
180.1778498127
 20
77.5591935903
 10
180.194015882
 20
77.5803431593
 10
180.2096126101
 20
77.6019153795
 10
180.2246289894
 20
77.6238949682
 10
180.2390544642
 20
77.6462664507
 10
180.2528788383
 20
77.6690139819
 10
180.2660923212
 20
77.6921214126
 10
180.2786855902
 20
77.7155724229
 10
180.2906497292
 20
77.7393503832
 10
180.3019762764
 20
77.7634384429
 10
180.3126572471
 20
77.7878196101
 10
180.3226850778
 20
77.8124766097
 10
180.3320526674
 20
77.8373919644
 10
180.3407534063
 20
77.8625480914
 10
180.3487811134
 20
77.8879271241
 10
180.3561301147
 20
77.913511122
 10
180.3627952534
 20
77.9392821614
 10
180.3687718171
 20
77.9652221299
 10
180.3740555139
 20
77.9913125106
 10
180.3786425498
 20
78.0175345954
 10
180.3825296237
 20
78.0438694563
 10
180.3857140442
 20
78.0702987803
 10
180.3881936266
 20
78.0968046663
 10
180.3899665612
 20
78.1233686152
 10
180.3910314883
 20
78.1499715345
 10
180.3913875822
 20
78.1765945757
  0
LWPOLYLINE
  5
24F
100
AcDbEntity
  8
RACCORDO
100
AcDbPolyline
 62
253
  6
CONTINUOUS
 90
58
 70
0
 10
179.4383800226
 20
77.3781472349
 10
179.4596740324
 20
77.3795488405
 10
179.4808953264
 20
77.3815130405
 10
179.5020439046
 20
77.384039835
 10
179.5231356178
 20
77.3871318955
 10
179.5441546154
 20
77.3907865504
 10
179.5650533464
 20
77.3949957855
 10
179.5858306402
 20
77.3997607369
 10
179.6064876677
 20
77.4050802684
 10
179.6269803903
 20
77.4109429583
 10
179.6473083851
 20
77.4173499514
 10
179.6674720755
 20
77.4243001027
 10
179.6874286923
 20
77.4317785553
 10
179.7071778171
 20
77.4397864367
 10
179.7267198689
 20
77.4483226193
 10
179.7460133349
 20
77.4573688637
 10
179.7650576772
 20
77.4669262519
 10
179.7838534344
 20
77.4769937019
 10
179.8023607084
 20
77.4875497276
 10
179.8205788806
 20
77.4985953645
 10
179.8385085704
 20
77.5101295773
 10
179.8561117371
 20
77.5221277735
 10
179.8733876748
 20
77.5345909287
 10
179.8903370904
 20
77.5475180674
 10
179.9069240618
 20
77.560881671
 10
179.9231478288
 20
77.5746826734
 10
179.9390091527
 20
77.5889201406
 10
179.9544743938
 20
77.603563752
 10
179.9695426901
 20
77.6186143461
 10
179.9842149046
 20
77.6340710843
 10
179.9984599852
 20
77.6499011304
 10
180.012277036
 20
77.6661052826
 10
180.0256669539
 20
77.6826827426
 10
180.0386013757
 20
77.6995982801
 10
180.0510793233
 20
77.7168525868
 10
180.0631017758
 20
77.7344449708
 10
180.0746433069
 20
77.7523381262
 10
180.0857029101
 20
77.7705327002
 10
180.0962815928
 20
77.7890280456
 10
180.1063569498
 20
77.8077849144
 10
180.1159279153
 20
77.826803854
 10
180.124995556
 20
77.846084317
 10
180.1335406658
 20
77.8655854137
 10
180.1415621399
 20
77.8853076091
 10
180.1490610838
 20
77.9052504382
 10
180.1560216068
 20
77.9253716156
 10
180.1624425714
 20
77.9456714934
 10
180.1683251157
 20
77.9661497195
 10
180.1736567626
 20
77.9867629518
 10
180.178436353
 20
78.0075115437
 10
180.1826650464
 20
78.0283951417
 10
180.1863338433
 20
78.0493693435
 10
180.1894415626
 20
78.0704354169
 10
180.1919893858
 20
78.0915920942
 10
180.1939718572
 20
78.1127911693
 10
180.1953871583
 20
78.1340165736
 10
180.1962371078
 20
78.1552843757
 10
180.1965217057
 20
78.1765945757
  0
LWPOLYLINE
  5
250
100
AcDbEntity
  8
RACCORDO
100
AcDbPolyline
 62
253
  6
CONTINUOUS
 90
25
 70
0
 10
178.4579003749
 20
78.6223716247
 10
176.582634399
 20
78.5308131358
 10
174.7076312725
 20
78.4471781494
 10
172.8328854308
 20
78.3714999226
 10
170.9587131757
 20
78.3038446037
 10
169.0848366297
 20
78.2441991577
 10
167.210363832
 20
78.1924780909
 10
165.3348993652
 20
78.1486817764
 10
163.4589024987
 20
78.1128582557
 10
161.5827602845
 20
78.0849896089
 10
159.7065795969
 20
78.0650766535
 10
157.8302847299
 20
78.0531347011
 10
155.9539783507
 20
78.0491567694
 10
154.0776750548
 20
78.0531360939
 10
152.2013884291
 20
78.0650792422
 10
150.3252196229
 20
78.0849931797
 10
148.4490838102
 20
78.1128627485
 10
146.5730924303
 20
78.1486869795
 10
144.697635791
 20
78.1924840243
 10
142.8231542569
 20
78.2442064756
 10
140.9492560821
 20
78.3038538654
 10
139.0750819333
 20
78.3715105268
 10
137.2003743659
 20
78.447188293
 10
135.3254667793
 20
78.5308198308
 10
133.4503485234
 20
78.6223716247
  0
LWPOLYLINE
  5
251
100
AcDbEntity
  8
RACCORDO
100
AcDbPolyline
 62
253
  6
CONTINUOUS
 90
25
 70
0
 10
178.4655437352
 20
78.492888116
 10
176.5895709141
 20
78.4024063141
 10
174.713875842
 20
78.3197866531
 10
172.8384658781
 20
78.2450291329
 10
170.9636384823
 20
78.1781364887
 10
169.0891109056
 20
78.1191059853
 10
167.214020106
 20
78.0679294177
 10
165.3379475178
 20
78.0245950942
 10
163.4613262383
 20
77.9891147065
 10
161.5845706831
 20
77.9615151242
 10
159.7077880268
 20
77.9418034384
 10
157.8308857395
 20
77.929972558
 10
155.9539787066
 20
77.9260280796
 10
154.0770761049
 20
77.9299737797
 10
152.2001834101
 20
77.9418058818
 10
150.3234099558
 20
77.9615186533
 10
148.4466631566
 20
77.9891190093
 10
146.5700502424
 20
78.0246000346
 10
144.693980243
 20
78.0679352507
 10
142.8188709375
 20
78.1191137382
 10
140.9443190803
 20
78.1781464165
 10
139.0695021973
 20
78.2450395654
 10
137.1941510584
 20
78.3197952783
 10
135.3185495957
 20
78.4024114618
 10
133.4427051631
 20
78.492888116
  0
LWPOLYLINE
  5
252
100
AcDbEntity
  8
RACCORDO
100
AcDbPolyline
 62
253
  6
CONTINUOUS
 90
10
 70
0
 10
132.3881159951
 20
76.8190584666
 10
137.6227439908
 20
76.5724799634
 10
142.8586882352
 20
76.3875460683
 10
148.0957898407
 20
76.2642567813
 10
153.334395668
 20
76.2026120787
 10
158.5738406351
 20
76.2026119842
 10
163.8124477223
 20
76.2642565686
 10
169.0495518473
 20
76.3875458556
 10
174.2854998703
 20
76.5724798216
 10
179.5201329032
 20
76.8190584666
  0
LWPOLYLINE
  5
253
100
AcDbEntity
  8
RACCORDO
100
AcDbPolyline
 62
253
  6
CONTINUOUS
 90
28
 70
0
 10
132.4642557968
 20
77.1784565654
 10
134.2032641794
 20
77.0906550049
 10
135.9425071294
 20
77.0096083027
 10
137.681958614
 20
76.9353165878
 10
139.4215789673
 20
76.8677804109
 10
141.1613557981
 20
76.8069990742
 10
142.9013040092
 20
76.7529711646
 10
144.6414067372
 20
76.7056966588
 10
146.3816288478
 20
76.6651759758
 10
148.1219578608
 20
76.631408856
 10
149.8623663456
 20
76.6043953855
 10
151.6028297505
 20
76.5841355134
 10
153.3433399236
 20
76.5706289942
 10
155.0838646989
 20
76.5638758195
 10
156.8243842736
 20
76.5638758196
 10
158.5649090445
 20
76.5706289946
 10
160.3054192098
 20
76.584135514
 10
162.0458826025
 20
76.6043953862
 10
163.7862910681
 20
76.6314088565
 10
165.5266200371
 20
76.6651759755
 10
167.2668420966
 20
76.7056966572
 10
169.0069448171
 20
76.7529711625
 10
170.7468931141
 20
76.8069990747
 10
172.4866700743
 20
76.8677804162
 10
174.2262905008
 20
76.9353165966
 10
175.9657419693
 20
77.0096083116
 10
177.7049848471
 20
77.0906550111
 10
179.4439931015
 20
77.1784565654
  0
LWPOLYLINE
  5
254
100
AcDbEntity
  8
RACCORDO
100
AcDbPolyline
 62
253
  6
CONTINUOUS
 90
28
 70
0
 10
132.4698688756
 20
77.3781472349
 10
134.2084939902
 20
77.2903854702
 10
135.9473136246
 20
77.2093755753
 10
137.6863219654
 20
77.1351175505
 10
139.425519888
 20
77.0676118118
 10
141.1648948825
 20
77.0068579431
 10
142.9044210521
 20
76.9528546955
 10
144.6441015336
 20
76.9056016775
 10
146.3839215375
 20
76.8650992807
 10
148.123828269
 20
76.8313474312
 10
149.8638144403
 20
76.8043462
 10
151.6038756701
 20
76.784095516
 10
153.3439635173
 20
76.7705950922
 10
155.0840659588
 20
76.7638448329
 10
156.8241833416
 20
76.7638448337
 10
158.5642857784
 20
76.7705950946
 10
160.3043736172
 20
76.7840955198
 10
162.044434834
 20
76.8043462051
 10
163.7844209853
 20
76.8313474374
 10
165.524327672
 20
76.865099287
 10
167.2641476241
 20
76.9056016836
 10
169.0038280974
 20
76.9528547029
 10
170.7433543639
 20
77.0068579556
 10
172.4827294988
 20
77.067611831
 10
174.2219274702
 20
77.1351175723
 10
175.9609357233
 20
77.2093755939
 10
177.6997551786
 20
77.2903854815
 10
179.4383800226
 20
77.3781472349
  0
LWPOLYLINE
  5
255
100
AcDbEntity
  8
RACCORDO
100
AcDbPolyline
 62
253
  6
CONTINUOUS
 90
52
 70
0
 10
133.4427051631
 20
78.492888116
 10
133.4349648446
 20
78.4933934368
 10
133.4272383379
 20
78.4941302857
 10
133.4195256429
 20
78.4950986628
 10
133.4118896747
 20
78.4962771319
 10
133.4042675182
 20
78.4976871292
 10
133.3964704281
 20
78.4993929626
 10
133.3884193862
 20
78.5014018674
 10
133.380193411
 20
78.5037066084
 10
133.3718408123
 20
78.5063497872
 10
133.3633756011
 20
78.5093268256
 10
133.3547837665
 20
78.5126423018
 10
133.3460715862
 20
78.5163525529
 10
133.3372315437
 20
78.5204589784
 10
133.3282711556
 20
78.5249601786
 10
133.319219249
 20
78.5299082914
 10
133.3100744612
 20
78.5353032757
 10
133.300838155
 20
78.5411451726
 10
133.2915432455
 20
78.5474862429
 10
133.2821909487
 20
78.5543235337
 10
133.2727800487
 20
78.561659998
 10
133.2633398134
 20
78.5695567557
 10
133.2538641615
 20
78.5780166561
 10
133.2443591743
 20
78.5870368499
 10
133.234872363
 20
78.5966699085
 10
133.2253990669
 20
78.606920167
 10
133.2159439468
 20
78.6177832903
 10
133.2065684961
 20
78.6292988443
 10
133.1972709859
 20
78.641469203
 10
133.1880531452
 20
78.6542919923
 10
133.1789816542
 20
78.6677996566
 10
133.1700526707
 20
78.6819992296
 10
133.1612700368
 20
78.6968836774
 10
133.1527119592
 20
78.7124643427
 10
133.1443746875
 20
78.7287537065
 10
133.1362619717
 20
78.7457392877
 10
133.1284632688
 20
78.7633949856
 10
133.1209790317
 20
78.7817306783
 10
133.113808807
 20
78.8007364877
 10
133.1070406929
 20
78.8203566792
 10
133.1006775052
 20
78.8405969447
 10
133.0947164277
 20
78.8614515923
 10
133.0892371093
 20
78.8828478114
 10
133.0842423766
 20
78.9047905175
 10
133.0797294026
 20
78.9272747952
 10
133.0757693556
 20
78.9502130866
 10
133.0723648611
 20
78.9736095134
 10
133.0695132932
 20
78.997459954
 10
133.0672779441
 20
79.0216644861
 10
133.0656799109
 20
79.0461898023
 10
133.0646980963
 20
79.0710692101
 10
133.0643325002
 20
79.0963027093
  0
LWPOLYLINE
  5
256
100
AcDbEntity
  8
RACCORDO
100
AcDbPolyline
 62
7
  6
CONTINUOUS
 90
58
 70
0
 10
132.4010519527
 20
77.1186446426
 10
132.3745295584
 20
77.1204015769
 10
132.3480728901
 20
77.1228642597
 10
132.321681948
 20
77.126032691
 10
132.2953270552
 20
77.1299110881
 10
132.2690378886
 20
77.1344952338
 10
132.2429034785
 20
77.1397724765
 10
132.2169287929
 20
77.145746235
 10
132.191108864
 20
77.1524130905
 10
132.1655178187
 20
77.1597501359
 10
132.1401761606
 20
77.1677515523
 10
132.1150633863
 20
77.1764231586
 10
132.0901921125
 20
77.1857595043
 10
132.0655493969
 20
77.1957646851
 10
132.0411481819
 20
77.2064346054
 10
132.0170399114
 20
77.2177515284
 10
131.9932161118
 20
77.2297228802
 10
131.9696852566
 20
77.2423412347
 10
131.9465242106
 20
77.2555665767
 10
131.9237384698
 20
77.2694003963
 10
131.9013225382
 20
77.2838412033
 10
131.8793367912
 20
77.2988445126
 10
131.8578006314
 20
77.3143962561
 10
131.8366946563
 20
77.3305105018
 10
131.8160210344
 20
77.3471849686
 10
131.7957629678
 20
77.3644325237
 10
131.7759372544
 20
77.3822402998
 10
131.7565964569
 20
77.4005674142
 10
131.73773836
 20
77.4194210344
 10
131.7193651789
 20
77.4387939929
 10
131.7015361222
 20
77.4586239047
 10
131.684258139
 20
77.478908323
 10
131.6675242802
 20
77.4996496946
 10
131.6513729074
 20
77.5207929748
 10
131.6358160805
 20
77.5423206313
 10
131.6208417397
 20
77.5642501963
 10
131.6064520672
 20
77.5865792225
 10
131.5926341765
 20
77.6093275516
 10
131.579400954
 20
77.6324753419
 10
131.5667932418
 20
77.6559606208
 10
131.5548126507
 20
77.6797890439
 10
131.5434575698
 20
77.7039549555
 10
131.5327640077
 20
77.7283794157
 10
131.5227389026
 20
77.7530537343
 10
131.5133753162
 20
77.7779866015
 10
131.5046884421
 20
77.8031251478
 10
131.4966817614
 20
77.8284561524
 10
131.4893517931
 20
77.8539928363
 10
131.4827032872
 20
77.8797219928
 10
131.4767315833
 20
77.9056640059
 10
131.4714413419
 20
77.9317984918
 10
131.4668512952
 20
77.9580510918
 10
131.4629650249
 20
77.9844269275
 10
131.4597789493
 20
78.0109208774
 10
131.4573010552
 20
78.0374432187
 10
131.455534005
 20
78.063964044
 10
131.4544751363
 20
78.0905132607
 10
131.4541244491
 20
78.1170908689
  0
LWPOLYLINE
  5
257
100
AcDbEntity
  8
RACCORDO
100
AcDbPolyline
 62
253
  6
CONTINUOUS
 90
52
 70
0
 10
133.4503485234
 20
78.6223716247
 10
133.4464859062
 20
78.6227158869
 10
133.442630297
 20
78.6232431583
 10
133.4387831528
 20
78.6239534175
 10
133.4349790536
 20
78.6248322043
 10
133.4311862063
 20
78.6258930429
 10
133.4273071067
 20
78.6271816329
 10
133.4233056775
 20
78.6287096071
 10
133.4192230486
 20
78.6304739021
 10
133.4150783624
 20
78.6325014066
 10
133.4108822472
 20
78.6347916065
 10
133.4066301517
 20
78.6373513424
 10
133.4023188002
 20
78.6402182832
 10
133.397949369
 20
78.6433973563
 10
133.3935288068
 20
78.6468909709
 10
133.3890630936
 20
78.6507333581
 10
133.3845574513
 20
78.6549279508
 10
133.3800167267
 20
78.659478413
 10
133.3754468824
 20
78.6644193044
 10
133.3708557724
 20
78.6697517526
 10
133.3662477951
 20
78.6754814122
 10
133.3616245838
 20
78.6816499069
 10
133.3569921046
 20
78.6882629308
 10
133.3523596996
 20
78.6953217795
 10
133.3477350827
 20
78.7028617457
 10
133.343126276
 20
78.7108889369
 10
133.3385434901
 20
78.7194035145
 10
133.3339984655
 20
78.7284316325
 10
133.3295019522
 20
78.7379769099
 10
133.3250640623
 20
78.7480405389
 10
133.3206962609
 20
78.7586446396
 10
133.3164096246
 20
78.7697954858
 10
133.3122168513
 20
78.7814900063
 10
133.308132387
 20
78.7937357478
 10
133.3041678767
 20
78.8065416838
 10
133.3003377359
 20
78.819899698
 10
133.2966602301
 20
78.8337906393
 10
133.2931484383
 20
78.8482194882
 10
133.2898157406
 20
78.8631787992
 10
133.2866795194
 20
78.8786293788
 10
133.2837531451
 20
78.8945711907
 10
133.2810487802
 20
78.9109982908
 10
133.2785804194
 20
78.927861338
 10
133.276360695
 20
78.9451582808
 10
133.2744011821
 20
78.9628819521
 10
133.2727129664
 20
78.9809743148
 10
133.2713078446
 20
78.9994304383
 10
133.2701965084
 20
79.0182430131
 10
133.2693875498
 20
79.0373496226
 10
133.2688908127
 20
79.0567244356
 10
133.2687174119
 20
79.0763782127
 10
133.2688773107
 20
79.0963027093
  0
LWPOLYLINE
  5
258
100
AcDbEntity
  8
RACCORDO
100
AcDbPolyline
 62
253
  6
CONTINUOUS
 90
3
 70
0
 10
132.1481075214
 20
76.8564170322
 10
132.2661097288
 20
76.8319849944
 10
132.3881159951
 20
76.8190584666
  0
LWPOLYLINE
  5
259
100
AcDbEntity
  8
RACCORDO
100
AcDbPolyline
 62
253
  6
CONTINUOUS
 90
12
 70
0
 10
131.2761914204
 20
77.7755247043
 10
131.3060704326
 20
77.6597450732
 10
131.3481961731
 20
77.5462074754
 10
131.4020189159
 20
77.4361004587
 10
131.4658894044
 20
77.3329896667
 10
131.5400990367
 20
77.237175586
 10
131.6243565281
 20
77.1483577299
 10
131.7161385851
 20
77.0692002829
 10
131.8157777276
 20
76.9999762726
 10
131.9229415516
 20
76.9404126713
 10
132.0341093375
 20
76.89235458
 10
132.1481075214
 20
76.8564170322
  0
LINE
  5
25A
100
AcDbEntity
  8
RACCORDO
100
AcDbLine
 62
253
  6
CONTINUOUS
 10
131.2580093405
 20
77.8947349166
 11
131.2761914204
 21
77.7755247043
  0
LWPOLYLINE
  5
25B
100
AcDbEntity
  8
RACCORDO
100
AcDbPolyline
 62
253
  6
CONTINUOUS
 90
37
 70
0
 10
133.3570944938
 20
81.0775960494
 10
133.3576134504
 20
81.0720941093
 10
133.3584919386
 20
81.0666020991
 10
133.3597283729
 20
81.0611299308
 10
133.3613205219
 20
81.0556874807
 10
133.3632655119
 20
81.0502845715
 10
133.3655598327
 20
81.0449309543
 10
133.3681993434
 20
81.0396362914
 10
133.3711792801
 20
81.0344101388
 10
133.3744942647
 20
81.0292619287
 10
133.3781383141
 20
81.0242009526
 10
133.3821048517
 20
81.0192363446
 10
133.3863867185
 20
81.014377065
 10
133.3909761864
 20
81.0096318839
 10
133.3958649725
 20
81.0050093654
 10
133.4010442533
 20
81.0005178523
 10
133.4065046812
 20
80.996165451
 10
133.4122364012
 20
80.9919600168
 10
133.4182290685
 20
80.9879091396
 10
133.4244718675
 20
80.9840201306
 10
133.430953531
 20
80.9803000087
 10
133.437662361
 20
80.976755488
 10
133.4445862491
 20
80.9733929657
 10
133.4517126991
 20
80.9702185107
 10
133.4590288491
 20
80.9672378521
 10
133.4665214947
 20
80.9644563695
 10
133.474177113
 20
80.9618790829
 10
133.4819818873
 20
80.959510644
 10
133.4899217311
 20
80.9573553272
 10
133.4979823147
 20
80.9554170226
 10
133.5061490902
 20
80.9536992284
 10
133.514407318
 20
80.9522050449
 10
133.5227420935
 20
80.9509371688
 10
133.5311383741
 20
80.9498978885
 10
133.539581006
 20
80.9490890796
 10
133.5480547518
 20
80.9485122019
 10
133.556544318
 20
80.9481682965
  0
LINE
  5
25C
100
AcDbEntity
  8
RACCORDO
100
AcDbLine
 62
253
  6
CONTINUOUS
 10
133.5600351166
 20
126.3932284268
 11
133.5585761622
 21
126.4118819163
  0
LINE
  5
25D
100
AcDbEntity
  8
RACCORDO
100
AcDbLine
 62
253
  6
CONTINUOUS
 10
133.3644737533
 20
126.1858379317
 11
133.3628522631
 21
126.2080696571
  0
LWPOLYLINE
  5
25E
100
AcDbEntity
  8
RACCORDO
100
AcDbPolyline
 62
253
  6
CONTINUOUS
 90
3
 70
0
 10
133.5585761622
 20
126.4118819163
 10
133.557201028
 20
126.4314851777
 10
133.5565443305
 20
126.4416236157
  0
LINE
  5
25F
100
AcDbEntity
  8
RACCORDO
100
AcDbLine
 62
253
  6
CONTINUOUS
 10
133.4486393477
 20
128.792747198
 11
133.4503485234
 21
128.767420388
  0
LINE
  5
260
100
AcDbEntity
  8
RACCORDO
100
AcDbLine
 62
253
  6
CONTINUOUS
 10
133.3628522631
 20
126.2080696571
 11
133.3612967462
 21
126.2319464963
  0
LINE
  5
261
100
AcDbEntity
  8
RACCORDO
100
AcDbLine
 62
253
  6
CONTINUOUS
 10
133.4469008807
 20
128.8206271736
 11
133.4486393477
 21
128.792747198
  0
LINE
  5
262
100
AcDbEntity
  8
RACCORDO
100
AcDbLine
 62
253
  6
CONTINUOUS
 10
133.3612967462
 20
126.2319464963
 11
133.3598146314
 21
126.2573530522
  0
LINE
  5
263
100
AcDbEntity
  8
RACCORDO
100
AcDbLine
 62
253
  6
CONTINUOUS
 10
133.4447515108
 20
128.8580217774
 11
133.4469008807
 21
128.8206271736
  0
LINE
  5
264
100
AcDbEntity
  8
RACCORDO
100
AcDbLine
 62
253
  6
CONTINUOUS
 10
133.3598146314
 20
126.2573530522
 11
133.3584131432
 21
126.2841192441
  0
LINE
  5
265
100
AcDbEntity
  8
RACCORDO
100
AcDbLine
 62
253
  6
CONTINUOUS
 10
133.4427051631
 20
128.8969038965
 11
133.4447515108
 21
128.8580217774
  0
LINE
  5
266
100
AcDbEntity
  8
RACCORDO
100
AcDbLine
 62
253
  6
CONTINUOUS
 10
132.4698688756
 20
130.0116447775
 11
132.4678975688
 21
130.0511244523
  0
LINE
  5
267
100
AcDbEntity
  8
RACCORDO
100
AcDbLine
 62
253
  6
CONTINUOUS
 10
133.5565443205
 20
126.4416237309
 11
133.4503485234
 21
128.7674203878
  0
LINE
  5
268
100
AcDbEntity
  8
RACCORDO
100
AcDbLine
 62
253
  6
CONTINUOUS
 10
133.3584131432
 20
126.2841192441
 11
133.2688773107
 21
128.2934893032
  0
LINE
  5
269
100
AcDbEntity
  8
RACCORDO
100
AcDbLine
 62
253
  6
CONTINUOUS
 10
132.4678975688
 20
130.0511244523
 11
132.4661991596
 21
130.0890461561
  0
LINE
  5
26A
100
AcDbEntity
  8
RACCORDO
100
AcDbLine
 62
253
  6
CONTINUOUS
 10
132.4661991596
 20
130.0890461561
 11
132.4650823905
 21
130.1172525469
  0
LINE
  5
26B
100
AcDbEntity
  8
RACCORDO
100
AcDbLine
 62
253
  6
CONTINUOUS
 10
132.4650823905
 20
130.1172525469
 11
132.4644049657
 21
130.1366915128
  0
LINE
  5
26C
100
AcDbEntity
  8
RACCORDO
100
AcDbLine
 62
253
  6
CONTINUOUS
 10
132.4644049657
 20
130.1366915128
 11
132.4638757145
 21
130.1543502431
  0
LINE
  5
26D
100
AcDbEntity
  8
RACCORDO
100
AcDbLine
 62
253
  6
CONTINUOUS
 10
132.4638757145
 20
130.1543502431
 11
132.4636090101
 21
130.1650084088
  0
LWPOLYLINE
  5
26E
100
AcDbEntity
  8
RACCORDO
100
AcDbPolyline
 62
253
  6
CONTINUOUS
 90
40
 70
0
 10
133.3831451251
 20
81.3236425234
 10
133.3833285312
 20
81.3156143551
 10
133.3838344685
 20
81.3075991636
 10
133.3846621192
 20
81.2996099042
 10
133.3858101455
 20
81.2916594905
 10
133.3872766918
 20
81.2837607731
 10
133.3890593876
 20
81.2759265191
 10
133.3911553513
 20
81.2681693914
 10
133.3935611951
 20
81.2605019283
 10
133.3962730303
 20
81.2529365231
 10
133.3992864735
 20
81.2454854041
 10
133.402596654
 20
81.238160615
 10
133.4061982213
 20
81.2309739951
 10
133.4100853539
 20
81.2239371606
 10
133.4142517689
 20
81.2170614854
 10
133.4186907318
 20
81.210358083
 10
133.4233950677
 20
81.2038377885
 10
133.4283571727
 20
81.197511141
 10
133.4335690263
 20
81.1913883664
 10
133.4390222042
 20
81.1854793613
 10
133.4447078923
 20
81.1797936767
 10
133.4506169003
 20
81.1743405027
 10
133.4567396773
 20
81.1691286534
 10
133.4630663267
 20
81.1641665531
 10
133.4695866224
 20
81.1594622222
 10
133.4762900253
 20
81.1550232645
 10
133.4831657004
 20
81.1508568549
 10
133.4902025341
 20
81.1469697277
 10
133.4973891525
 20
81.143368166
 10
133.5047139394
 20
81.140057991
 10
133.5121650555
 20
81.1370445532
 10
133.5197304571
 20
81.1343327233
 10
133.5273979159
 20
81.1319268845
 10
133.5351550386
 20
81.1298309255
 10
133.5429892865
 20
81.1280482343
 10
133.5508879971
 20
81.126581692
 10
133.5588384051
 20
81.125433669
 10
133.5668276606
 20
81.124606021
 10
133.5748428495
 20
81.124100086
 10
133.5828710165
 20
81.123916682
  0
LINE
  5
26F
100
AcDbEntity
  8
RACCORDO
100
AcDbLine
 62
253
  6
CONTINUOUS
 10
132.4636090101
 20
130.1650084088
 11
132.4634132438
 21
130.174695547
  0
LWPOLYLINE
  5
270
100
AcDbEntity
  8
RACCORDO
100
AcDbPolyline
 62
253
  6
CONTINUOUS
 90
58
 70
0
 10
131.5168613161
 20
78.1765945757
 10
131.5172174038
 20
78.1499717633
 10
131.5182823161
 20
78.123369007
 10
131.5200552325
 20
78.0968051554
 10
131.5225348011
 20
78.0702992746
 10
131.5257192163
 20
78.0438698905
 10
131.5296062858
 20
78.0175349836
 10
131.5341933111
 20
77.9913128989
 10
131.5394769942
 20
77.9652225317
 10
131.5454535446
 20
77.9392825713
 10
131.5521186734
 20
77.9135115252
 10
131.5594676667
 20
77.8879275155
 10
131.5674953653
 20
77.8625484741
 10
131.5761960932
 20
77.8373923458
 10
131.5855636706
 20
77.8124769927
 10
131.5955914894
 20
77.7878199933
 10
131.606272449
 20
77.7634388236
 10
131.6175989857
 20
77.73935076
 10
131.6295631152
 20
77.7155727938
 10
131.6421563765
 20
77.6921217744
 10
131.655369853
 20
77.6690143329
 10
131.6691942203
 20
77.6462667922
 10
131.6836196865
 20
77.623895303
 10
131.6986360566
 20
77.601915709
 10
131.7142327758
 20
77.5803434829
 10
131.7303988371
 20
77.5591939066
 10
131.7471227895
 20
77.5384820139
 10
131.7643928178
 20
77.5182224652
 10
131.7821966976
 20
77.4984296566
 10
131.8005218482
 20
77.4791176255
 10
131.8193553588
 20
77.4603000067
 10
131.8386839327
 20
77.4419901519
 10
131.8584938807
 20
77.42420109
 10
131.8787711825
 20
77.4069454401
 10
131.899501476
 20
77.3902354853
 10
131.9206701138
 20
77.3740830894
 10
131.9422621702
 20
77.3584996711
 10
131.9642623939
 20
77.3434963069
 10
131.9866551972
 20
77.3290836934
 10
132.0094247177
 20
77.3152720702
 10
132.0325548459
 20
77.3020712756
 10
132.0560292074
 20
77.2894907179
 10
132.0798311571
 20
77.2775393454
 10
132.1039438553
 20
77.2662256773
 10
132.1283502193
 20
77.2555577904
 10
132.1530329058
 20
77.2455432887
 10
132.1779743899
 20
77.236189339
 10
132.203157049
 20
77.2275026047
 10
132.2285631172
 20
77.2194892392
 10
132.2541747366
 20
77.2121549466
 10
132.2799736271
 20
77.2055050318
 10
132.3059411643
 20
77.1995443105
 10
132.3320586061
 20
77.1942771086
 10
132.3583077722
 20
77.1897071154
 10
132.3846707228
 20
77.1858374847
 10
132.4111289993
 20
77.1826710178
 10
132.4376636275
 20
77.1802100989
 10
132.4642557968
 20
77.1784565654
  0
LWPOLYLINE
  5
271
100
AcDbEntity
  8
RACCORDO
100
AcDbPolyline
 62
253
  6
CONTINUOUS
 90
58
 70
0
 10
131.7117271925
 20
78.1765945757
 10
131.7120119107
 20
78.1552822806
 10
131.7128619864
 20
78.1340128738
 10
131.7142774196
 20
78.1127863555
 10
131.7162600262
 20
78.091586823
 10
131.7188079905
 20
78.0704301789
 10
131.7219158652
 20
78.0493641307
 10
131.7255848367
 20
78.0283897761
 10
131.7298137189
 20
78.0075060174
 10
131.7345935062
 20
77.9867572688
 10
131.7399253551
 20
77.9661438874
 10
131.7458081095
 20
77.945665516
 10
131.7522292948
 20
77.9253654976
 10
131.75919005
 20
77.9052441846
 10
131.7666892366
 20
77.8853012246
 10
131.7747109638
 20
77.8655789029
 10
131.7832563364
 20
77.8460776844
 10
131.7923242502
 20
77.8267971042
 10
131.8018955002
 20
77.8077780527
 10
131.8119711541
 20
77.7890210759
 10
131.8225501449
 20
77.7705256278
 10
131.8336100653
 20
77.7523309612
 10
131.8451519295
 20
77.7344377161
 10
131.8571747242
 20
77.7168452524
 10
131.8696530003
 20
77.6995909025
 10
131.8825877366
 20
77.6826753637
 10
131.8959779553
 20
77.6660979387
 10
131.909795272
 20
77.6498938677
 10
131.9240405798
 20
77.6340639551
 10
131.9387129866
 20
77.6186073965
 10
131.9537814311
 20
77.6035570195
 10
131.9692467703
 20
77.5889136667
 10
131.9851081481
 20
77.5746764954
 10
132.0013319334
 20
77.5608758048
 10
132.017918882
 20
77.5475125297
 10
132.034868239
 20
77.5345857351
 10
132.0521441074
 20
77.5221229159
 10
132.0697472008
 20
77.5101250404
 10
132.0876768065
 20
77.4985911401
 10
132.1058948885
 20
77.4875458049
 10
132.1244020674
 20
77.476990069
 10
132.1431977234
 20
77.4669228981
 10
132.1622419598
 20
77.4573657788
 10
132.1815353158
 20
77.4483197935
 10
132.2010772529
 20
77.4397838598
 10
132.220826258
 20
77.4317762172
 10
132.2407827504
 20
77.4242979921
 10
132.2609463114
 20
77.417348058
 10
132.2812741714
 20
77.4109412749
 10
132.30176675
 20
77.4050787908
 10
132.3224236279
 20
77.3997594577
 10
132.3432007774
 20
77.3949946904
 10
132.3640995394
 20
77.3907856112
 10
132.3851185732
 20
77.3871310979
 10
132.4062098287
 20
77.3840391987
 10
132.4273572892
 20
77.3815125966
 10
132.4485769714
 20
77.3795486087
 10
132.4698688756
 20
77.3781472349
  0
LINE
  5
272
100
AcDbEntity
  8
RACCORDO
100
AcDbLine
 62
253
  6
CONTINUOUS
 10
132.4634132438
 20
130.174695547
 11
132.463289655
 21
130.1833503232
  0
LWPOLYLINE
  5
273
100
AcDbEntity
  8
RACCORDO
100
AcDbPolyline
 62
253
  6
CONTINUOUS
 90
52
 70
0
 10
133.2688773107
 20
128.2934893032
 10
133.2687173864
 20
128.3133523774
 10
133.2688890268
 20
128.3329627432
 10
133.2693831808
 20
128.3523121758
 10
133.2701897246
 20
128.3714139264
 10
133.2712996539
 20
128.3902395668
 10
133.2727047028
 20
128.4087190409
 10
133.2743946106
 20
128.4268442897
 10
133.2763580971
 20
128.4446109076
 10
133.2785839612
 20
128.4619551777
 10
133.2810609548
 20
128.4788703081
 10
133.2837765559
 20
128.4953536322
 10
133.2867157978
 20
128.5113487583
 10
133.2898664096
 20
128.5268492162
 10
133.2932149094
 20
128.5418554208
 10
133.2967423957
 20
128.5563227813
 10
133.3004344595
 20
128.5702411786
 10
133.3042783163
 20
128.5836184764
 10
133.3082560332
 20
128.5964385347
 10
133.3123530454
 20
128.6086935651
 10
133.3165574898
 20
128.6203923586
 10
133.3208553241
 20
128.6315446362
 10
133.3252344472
 20
128.6421489014
 10
133.3296830459
 20
128.6522099202
 10
133.3341880063
 20
128.6617474216
 10
133.3387381837
 20
128.670760991
 10
133.3433234687
 20
128.6792561848
 10
133.3479329513
 20
128.6872621201
 10
133.3525556343
 20
128.6947783658
 10
133.357184136
 20
128.7018118307
 10
133.3618139582
 20
128.7084026229
 10
133.3664380561
 20
128.7145548972
 10
133.371048429
 20
128.7202712316
 10
133.3756401781
 20
128.725589097
 10
133.3802085263
 20
128.7305133105
 10
133.3847459121
 20
128.7350460136
 10
133.389243925
 20
128.7392206773
 10
133.3936959099
 20
128.7430397051
 10
133.398098288
 20
128.7465082212
 10
133.4024478258
 20
128.7496637724
 10
133.4067370437
 20
128.7525090932
 10
133.4109653396
 20
128.7550488894
 10
133.4151405267
 20
128.7573229999
 10
133.4192640263
 20
128.7593378816
 10
133.423328471
 20
128.7610931955
 10
133.4273290379
 20
128.762618075
 10
133.4312447876
 20
128.7639133345
 10
133.4350919481
 20
128.7649848672
 10
133.4389220881
 20
128.7658673592
 10
133.4427514913
 20
128.766572137
 10
133.4465607951
 20
128.7670894648
 10
133.4503485234
 20
128.7674203878
  0
LWPOLYLINE
  5
274
100
AcDbEntity
  8
RACCORDO
100
AcDbPolyline
 62
253
  6
CONTINUOUS
 90
13
 70
0
 10
132.463289655
 20
130.1833503232
 10
132.4632390262
 20
130.1909179394
 10
132.4632411901
 20
130.1942788117
 10
132.463261678
 20
130.197350481
 10
132.4633004574
 20
130.2001280833
 10
132.4633574669
 20
130.2026072202
 10
132.4634326163
 20
130.2047839659
 10
132.4635257865
 20
130.2066548737
 10
132.4636368301
 20
130.2082169808
 10
132.4637655711
 20
130.2094678137
 10
132.4639118058
 20
130.2104053916
 10
132.4640753025
 20
130.2110282299
 10
132.4642558023
 20
130.2113353424
  0
LWPOLYLINE
  5
275
100
AcDbEntity
  8
RACCORDO
100
AcDbPolyline
 62
253
  6
CONTINUOUS
 90
12
 70
0
 10
132.4632390209
 20
77.1988739829
 10
132.4632411847
 20
77.1955131085
 10
132.4632616726
 20
77.1924414372
 10
132.4633004519
 20
77.1896638331
 10
132.4633574614
 20
77.1871846946
 10
132.4634326108
 20
77.1850079475
 10
132.463525781
 20
77.1831370385
 10
132.4636368245
 20
77.1815749303
 10
132.4637655656
 20
77.1803240966
 10
132.4639118002
 20
77.179386518
 10
132.4640752969
 20
77.1787636793
 10
132.4642557968
 20
77.1784565666
  0
LINE
  5
276
100
AcDbEntity
  8
RACCORDO
100
AcDbLine
 62
253
  6
CONTINUOUS
 10
131.2515241754
 20
129.3724163025
 11
131.2515241754
 21
78.01737571
  0
LINE
  5
277
100
AcDbEntity
  8
RACCORDO
100
AcDbLine
 62
7
  6
CONTINUOUS
 10
131.3541244491
 20
129.3724163025
 11
131.3541244491
 21
78.01737571
  0
LINE
  5
278
100
AcDbEntity
  8
RACCORDO
100
AcDbLine
 62
7
  6
CONTINUOUS
 10
131.4541244491
 20
78.1170908689
 11
131.4541244491
 21
129.2727011435
  0
LINE
  5
279
100
AcDbEntity
  8
RACCORDO
100
AcDbLine
 62
253
  6
CONTINUOUS
 10
131.5168613161
 20
129.2131974368
 11
131.5168613161
 21
78.1765945757
  0
LINE
  5
27A
100
AcDbEntity
  8
RACCORDO
100
AcDbLine
 62
253
  6
CONTINUOUS
 10
131.7117271925
 20
129.2131974368
 11
131.7117271925
 21
78.1765945757
  0
LINE
  5
27B
100
AcDbEntity
  8
RACCORDO
100
AcDbLine
 62
253
  6
CONTINUOUS
 10
133.0643325002
 20
79.0963027093
 11
133.0643325002
 21
128.2934893032
  0
LINE
  5
27C
100
AcDbEntity
  8
RACCORDO
100
AcDbLine
 62
253
  6
CONTINUOUS
 10
133.2688773107
 20
79.0963027093
 11
133.2688773107
 21
128.2934893032
  0
LINE
  5
27D
100
AcDbEntity
  8
RACCORDO
100
AcDbLine
 62
7
  6
CONTINUOUS
 10
133.4541244491
 20
81.3946219124
 11
133.4541244491
 21
125.9951701001
  0
LINE
  5
27E
100
AcDbEntity
  8
RACCORDO
100
AcDbLine
 62
253
  6
CONTINUOUS
 10
132.4632896499
 20
77.2064416038
 11
132.4632390209
 21
77.1988739829
  0
LWPOLYLINE
  5
27F
100
AcDbEntity
  8
RACCORDO
100
AcDbPolyline
 62
7
  6
CONTINUOUS
 90
58
 70
0
 10
131.4541244491
 20
129.2727011435
 10
131.4544751373
 20
129.2992794328
 10
131.4555340702
 20
129.3258294531
 10
131.4573012478
 20
129.3523512043
 10
131.4597793082
 20
129.3788745386
 10
131.4629656133
 20
129.4053696038
 10
131.4668522493
 20
129.4317468439
 10
131.4714429039
 20
129.4580015193
 10
131.4767338894
 20
129.4841383696
 10
131.4827062287
 20
129.5100820574
 10
131.4893551888
 20
129.5358117544
 10
131.4966855027
 20
129.5613482889
 10
131.504692392
 20
129.5866788088
 10
131.5133792523
 20
129.6118164448
 10
131.522742688
 20
129.6367480662
 10
131.5327677338
 20
129.6614214282
 10
131.5434613603
 20
129.6858454048
 10
131.5548165969
 20
129.7100111221
 10
131.5667975667
 20
129.7338397133
 10
131.5794060679
 20
129.7573257971
 10
131.5926403023
 20
129.7804747548
 10
131.6064589989
 20
129.8032238642
 10
131.6208491217
 20
129.8255529746
 10
131.6358237068
 20
129.8474822367
 10
131.6513805909
 20
129.8690093797
 10
131.6675317221
 20
129.8901518492
 10
131.6842651524
 20
129.9108921996
 10
131.7015428744
 20
129.9311758237
 10
131.7193719372
 20
129.9510053281
 10
131.7377452919
 20
129.970378106
 10
131.7566037842
 20
129.9892317296
 10
131.775945357
 20
130.0075591437
 10
131.7957720675
 20
130.0253674034
 10
131.8160309332
 20
130.0426152457
 10
131.8367050771
 20
130.0592896879
 10
131.8578113763
 20
130.0754037126
 10
131.8793474799
 20
130.0909550058
 10
131.9013324859
 20
130.1059574667
 10
131.9237472963
 20
130.1203971959
 10
131.946532267
 20
130.1342301806
 10
131.9696931599
 20
130.1474551333
 10
131.993224213
 20
130.1600733415
 10
132.0170484964
 20
130.1720446545
 10
132.0411577188
 20
130.1833616883
 10
132.0655601714
 20
130.194031827
 10
132.0902037982
 20
130.2040370719
 10
132.1150755726
 20
130.2133732377
 10
132.1401885211
 20
130.2220445098
 10
132.165529667
 20
130.2300454459
 10
132.191119071
 20
130.2373817684
 10
132.2169366725
 20
130.2440477548
 10
132.2429093129
 20
130.2500207958
 10
132.2690423361
 20
130.2552975992
 10
132.2953303983
 20
130.2598814573
 10
132.32168431
 20
130.2637596367
 10
132.3480743413
 20
130.266927893
 10
132.3745302223
 20
130.2693904708
 10
132.4010519527
 20
130.2711473699
  0
LWPOLYLINE
  5
280
100
AcDbEntity
  8
RACCORDO
100
AcDbPolyline
 62
253
  6
CONTINUOUS
 90
52
 70
0
 10
133.0643325002
 20
128.2934893032
 10
133.0646937962
 20
128.3186545085
 10
133.0656719515
 20
128.3434859905
 10
133.0672669662
 20
128.3679837493
 10
133.0694988735
 20
128.392183559
 10
133.0723476404
 20
128.4160496454
 10
133.0757531677
 20
128.4394746863
 10
133.0797188298
 20
128.4624546089
 10
133.0842412526
 20
128.4849934861
 10
133.0892502145
 20
128.5069962145
 10
133.0947495128
 20
128.5284584046
 10
133.1007353507
 20
128.5493844461
 10
133.1071261156
 20
128.5696924045
 10
133.1139253318
 20
128.5893758217
 10
133.1211294755
 20
128.6084411559
 10
133.1286463621
 20
128.6268258474
 10
133.1364751731
 20
128.6445164086
 10
133.1446167273
 20
128.6615263271
 10
133.1529812955
 20
128.6778335061
 10
133.1615649274
 20
128.6934258271
 10
133.1703715736
 20
128.7083154086
 10
133.179323356
 20
128.722516509
 10
133.1884178423
 20
128.7360240064
 10
133.1976574651
 20
128.7488430228
 10
133.206971643
 20
128.7610031815
 10
133.2163569246
 20
128.772499814
 10
133.2258167615
 20
128.783337589
 10
133.2352909273
 20
128.7935601357
 10
133.2447729705
 20
128.803162411
 10
133.2542693428
 20
128.812149458
 10
133.2637391726
 20
128.8205800349
 10
133.273180786
 20
128.828455124
 10
133.282595857
 20
128.8357737431
 10
133.2919485365
 20
128.8425917042
 10
133.3012395628
 20
128.8489105332
 10
133.3104681975
 20
128.8547287042
 10
133.3195963763
 20
128.8600974517
 10
133.3286191483
 20
128.865014941
 10
133.3375414643
 20
128.8694830069
 10
133.3463401128
 20
128.8735583885
 10
133.3550063316
 20
128.8772403178
 10
133.3635488827
 20
128.8805295629
 10
133.3719708402
 20
128.8834851676
 10
133.3802795829
 20
128.8861119393
 10
133.388467732
 20
128.8884050705
 10
133.3965162254
 20
128.8904091829
 10
133.4043865284
 20
128.8921224767
 10
133.4121171756
 20
128.8935467517
 10
133.4198047085
 20
128.8947320291
 10
133.4274813077
 20
128.8956949826
 10
133.4351147926
 20
128.8964189383
 10
133.4427051631
 20
128.8969038965
  0
LINE
  5
281
100
AcDbEntity
  8
RACCORDO
100
AcDbLine
 62
253
  6
CONTINUOUS
 10
132.4634132389
 20
77.2150963853
 11
132.4632896499
 21
77.2064416038
  0
LINE
  5
282
100
AcDbEntity
  8
RACCORDO
100
AcDbLine
 62
253
  6
CONTINUOUS
 10
132.4636090055
 20
77.2247835293
 11
132.4634132389
 21
77.2150963853
  0
LINE
  5
283
100
AcDbEntity
  8
RACCORDO
100
AcDbLine
 62
253
  6
CONTINUOUS
 10
132.4640351539
 20
77.2411140631
 11
132.4636090055
 21
77.2247835293
  0
LINE
  5
284
100
AcDbEntity
  8
RACCORDO
100
AcDbLine
 62
253
  6
CONTINUOUS
 10
132.4646147407
 20
77.2593954778
 11
132.4640351539
 21
77.2411140631
  0
LINE
  5
285
100
AcDbEntity
  8
RACCORDO
100
AcDbLine
 62
253
  6
CONTINUOUS
 10
132.4656116432
 20
77.2863520184
 11
132.4646147407
 21
77.2593954778
  0
LINE
  5
286
100
AcDbEntity
  8
RACCORDO
100
AcDbLine
 62
253
  6
CONTINUOUS
 10
132.4668412099
 20
77.3156296984
 11
132.4656116432
 21
77.2863520184
  0
LINE
  5
287
100
AcDbEntity
  8
RACCORDO
100
AcDbLine
 62
253
  6
CONTINUOUS
 10
133.556544318
 20
80.9481682965
 11
133.4503485234
 21
78.6223716247
  0
LINE
  5
288
100
AcDbEntity
  8
RACCORDO
100
AcDbLine
 62
253
  6
CONTINUOUS
 10
133.3584145547
 20
81.105700728
 11
133.2688773107
 21
79.0963027093
  0
LINE
  5
289
100
AcDbEntity
  8
RACCORDO
100
AcDbLine
 62
253
  6
CONTINUOUS
 10
132.4686574895
 20
77.3543589888
 11
132.4668412099
 21
77.3156296984
  0
LINE
  5
28A
100
AcDbEntity
  8
RACCORDO
100
AcDbLine
 62
253
  6
CONTINUOUS
 10
132.4698688756
 20
77.3781472349
 11
132.4686574895
 21
77.3543589888
  0
LINE
  5
28B
100
AcDbEntity
  8
RACCORDO
100
AcDbLine
 62
253
  6
CONTINUOUS
 10
133.3598171073
 20
81.1324838684
 11
133.3584145547
 21
81.105700728
  0
LINE
  5
28C
100
AcDbEntity
  8
RACCORDO
100
AcDbLine
 62
253
  6
CONTINUOUS
 10
133.4427051636
 20
78.492888116
 11
133.4447515127
 21
78.5317702362
  0
LINE
  5
28D
100
AcDbEntity
  8
RACCORDO
100
AcDbLine
 62
253
  6
CONTINUOUS
 10
133.4447515127
 20
78.5317702362
 11
133.4469008829
 21
78.5691648416
  0
LINE
  5
28E
100
AcDbEntity
  8
RACCORDO
100
AcDbLine
 62
253
  6
CONTINUOUS
 10
133.3612999372
 20
81.1578972313
 11
133.3598171073
 21
81.1324838684
  0
LINE
  5
28F
100
AcDbEntity
  8
RACCORDO
100
AcDbLine
 62
253
  6
CONTINUOUS
 10
133.4469008829
 20
78.5691648416
 11
133.4486393491
 21
78.5970448185
  0
LINE
  5
290
100
AcDbEntity
  8
RACCORDO
100
AcDbLine
 62
253
  6
CONTINUOUS
 10
133.3628558265
 20
81.1817739206
 11
133.3612999372
 21
81.1578972313
  0
LINE
  5
291
100
AcDbEntity
  8
RACCORDO
100
AcDbLine
 62
253
  6
CONTINUOUS
 10
133.5578795929
 20
80.9682419472
 11
133.5565443245
 21
80.9481684034
  0
LINE
  5
292
100
AcDbEntity
  8
RACCORDO
100
AcDbLine
 62
253
  6
CONTINUOUS
 10
133.4486393491
 20
78.5970448185
 11
133.4503485235
 21
78.6223716295
  0
LWPOLYLINE
  5
293
100
AcDbEntity
  8
RACCORDO
100
AcDbPolyline
 62
253
  6
CONTINUOUS
 90
37
 70
0
 10
178.3517045776
 20
80.9481682811
 10
178.3601941441
 20
80.9485121864
 10
178.3686678902
 20
80.9490890641
 10
178.3771105223
 20
80.9498978729
 10
178.3855068032
 20
80.9509371532
 10
178.3938415791
 20
80.9522050293
 10
178.4020998071
 20
80.9536992128
 10
178.4102665829
 20
80.955417007
 10
178.4183271667
 20
80.9573553116
 10
178.4262670109
 20
80.9595106284
 10
178.4340717854
 20
80.9618790674
 10
178.441727404
 20
80.964456354
 10
178.4492200499
 20
80.9672378367
 10
178.4565362001
 20
80.9702184954
 10
178.4636626503
 20
80.9733929506
 10
178.4705865387
 20
80.976755473
 10
178.4772953688
 20
80.9802999938
 10
178.4837770326
 20
80.9840201159
 10
178.4900198317
 20
80.987909125
 10
178.4960124991
 20
80.9919600024
 10
178.5017442192
 20
80.9961654368
 10
178.5072046472
 20
81.0005178383
 10
178.5123839281
 20
81.0050093516
 10
178.5172727142
 20
81.0096318702
 10
178.5218621823
 20
81.0143770516
 10
178.526144049
 20
81.0192363314
 10
178.5301105866
 20
81.0242009395
 10
178.533754636
 20
81.0292619158
 10
178.5370696205
 20
81.0344101262
 10
178.5400495572
 20
81.039636279
 10
178.5426890677
 20
81.0449309421
 10
178.5449833884
 20
81.0502845595
 10
178.5469283782
 20
81.055687469
 10
178.548520527
 20
81.0611299192
 10
178.5497569611
 20
81.0666020877
 10
178.5506354491
 20
81.0720940981
 10
178.5511544054
 20
81.0775960384
  0
LWPOLYLINE
  5
294
100
AcDbEntity
  8
RACCORDO
100
AcDbPolyline
 62
253
  6
CONTINUOUS
 90
40
 70
0
 10
178.3253778857
 20
81.1239166803
 10
178.3334060536
 20
81.1241000844
 10
178.3414212432
 20
81.1246060196
 10
178.3494104992
 20
81.1254336678
 10
178.3573609074
 20
81.126581691
 10
178.3652596179
 20
81.1280482335
 10
178.3730938656
 20
81.1298309249
 10
178.3808509882
 20
81.131926884
 10
178.388518447
 20
81.1343327229
 10
178.3960838485
 20
81.137044553
 10
178.4035349645
 20
81.140057991
 10
178.4108597513
 20
81.1433681661
 10
178.4180463695
 20
81.1469697279
 10
178.4250832031
 20
81.1508568552
 10
178.431958878
 20
81.1550232649
 10
178.4386622808
 20
81.1594622227
 10
178.4451825763
 20
81.1641665536
 10
178.4515092255
 20
81.169128654
 10
178.4576320023
 20
81.1743405032
 10
178.4635410101
 20
81.1797936772
 10
178.4692266979
 20
81.1854793618
 10
178.4746798756
 20
81.1913883668
 10
178.4798917289
 20
81.1975111413
 10
178.4848538337
 20
81.2038377887
 10
178.4895581694
 20
81.2103580831
 10
178.4939971321
 20
81.2170614852
 10
178.4981635468
 20
81.2239371602
 10
178.5020506793
 20
81.2309739945
 10
178.5056522464
 20
81.2381606141
 10
178.5089624267
 20
81.2454854029
 10
178.5119758697
 20
81.2529365215
 10
178.5146877048
 20
81.2605019263
 10
178.5170935485
 20
81.268169389
 10
178.5191895121
 20
81.2759265162
 10
178.5209722078
 20
81.2837607697
 10
178.5224387541
 20
81.2916594866
 10
178.5235867805
 20
81.2996098998
 10
178.5244144313
 20
81.3075991586
 10
178.5249203687
 20
81.3156143496
 10
178.5251037749
 20
81.3236425173
  0
LWPOLYLINE
  5
295
100
AcDbEntity
  8
0
100
AcDbPolyline
 62
7
  6
CONTINUOUS
 90
85
 70
0
 10
159.5729102429
 20
79.5517961151
 10
159.5809997394
 20
79.5519145761
 10
159.5891808275
 20
79.5523051612
 10
159.5974535068
 20
79.5529678557
 10
159.6058362253
 20
79.5538988243
 10
159.614310534
 20
79.5551018717
 10
159.6228210869
 20
79.55658844
 10
159.6313721917
 20
79.5583624142
 10
159.6399595398
 20
79.5604198724
 10
159.6485148605
 20
79.5627605435
 10
159.6570345161
 20
79.565386319
 10
159.6655221434
 20
79.5682952679
 10
159.6739203839
 20
79.5714813841
 10
159.6822295263
 20
79.5749472373
 10
159.6904492811
 20
79.5786902197
 10
159.6985214229
 20
79.5826965605
 10
159.7064414444
 20
79.5869658757
 10
159.7142138522
 20
79.5914985163
 10
159.7217939417
 20
79.5962818171
 10
159.7291763407
 20
79.6013121493
 10
159.7363664211
 20
79.6065931159
 10
159.7433355938
 20
79.6121229032
 10
159.7500808838
 20
79.6179013672
 10
159.756605266
 20
79.623928633
 10
159.7628890773
 20
79.6302032932
 10
159.7689326648
 20
79.6367253092
 10
159.7747356814
 20
79.6434947088
 10
159.780277422
 20
79.6505101872
 10
159.7855638954
 20
79.6577759908
 10
159.7905890931
 20
79.6652878712
 10
159.7953142844
 20
79.6730317874
 10
159.7997427688
 20
79.6810175551
 10
159.8038712473
 20
79.6892353696
 10
159.8076510915
 20
79.697641767
 10
159.8110784844
 20
79.7062441962
 10
159.814157244
 20
79.7150352371
 10
159.8168501938
 20
79.7239491327
 10
159.8191539787
 20
79.7329800121
 10
159.8210719551
 20
79.7421337918
 10
159.8225770142
 20
79.751362404
 10
159.8236670581
 20
79.7606733644
 10
159.8243441862
 20
79.7700592152
 10
159.8245875853
 20
79.7794494348
 10
159.8243843746
 20
79.7888449255
 10
159.8237474365
 20
79.7982448526
 10
159.8226946027
 20
79.8075760896
 10
159.8212222509
 20
79.8168331742
 10
159.8193340049
 20
79.826021634
 10
159.8170585648
 20
79.8350848223
 10
159.8143951886
 20
79.8440214968
 10
159.8113446196
 20
79.8528329572
 10
159.8079377861
 20
79.8614663625
 10
159.8041662753
 20
79.8699244424
 10
159.8000385009
 20
79.878204514
 10
159.7956106313
 20
79.886245605
 10
159.7908885792
 20
79.8940307731
 10
159.7858664322
 20
79.901576988
 10
159.7805826208
 20
79.9088741337
 10
159.7750421622
 20
79.9159195774
 10
159.7692400393
 20
79.9227159672
 10
159.7631996305
 20
79.9292611018
 10
159.7569245266
 20
79.9355525995
 10
159.7504111368
 20
79.9415928485
 10
159.7436720663
 20
79.9473867985
 10
159.7367006238
 20
79.9529379772
 10
159.7295035005
 20
79.9582428581
 10
159.7221133744
 20
79.9632958053
 10
159.7145291219
 20
79.96809792
 10
159.7067518663
 20
79.9726480928
 10
159.6988176569
 20
79.9769373663
 10
159.6907139601
 20
79.9809697278
 10
159.6824533089
 20
79.9847411733
 10
159.6741093521
 20
79.9882307498
 10
159.6656889566
 20
79.9914324328
 10
159.6571852547
 20
79.9943522159
 10
159.6486512933
 20
79.996987165
 10
159.6400822153
 20
79.9993361349
 10
159.6314828769
 20
80.0014002342
 10
159.6229208948
 20
80.0031799045
 10
159.6144024542
 20
80.0046713301
 10
159.605921369
 20
80.0058782854
 10
159.5975266997
 20
80.0068125941
 10
159.5892347994
 20
80.0074781836
 10
159.5810293139
 20
80.0078710862
 10
159.5729102429
 20
80.0079912824
  0
LINE
  5
296
100
AcDbEntity
  8
RACCORDO
100
AcDbLine
 62
253
  6
CONTINUOUS
 10
131.3541244491
 20
78.01737571
 11
131.2515241814
 21
78.0173757094
  0
LINE
  5
297
100
AcDbEntity
  8
RACCORDO
100
AcDbLine
 62
253
  6
CONTINUOUS
 10
180.5541244491
 20
78.01737571
 11
180.6567247228
 21
78.01737571
  0
LINE
  5
298
100
AcDbEntity
  8
RACCORDO
100
AcDbLine
 62
253
  6
CONTINUOUS
 10
131.7117271925
 20
78.1765945757
 11
131.5168613161
 21
78.1765945757
  0
LINE
  5
299
100
AcDbEntity
  8
RACCORDO
100
AcDbLine
 62
253
  6
CONTINUOUS
 10
180.1965217057
 20
78.1765945757
 11
180.3913875822
 21
78.1765945757
  0
LINE
  5
29A
100
AcDbEntity
  8
0
100
AcDbLine
 62
7
  6
CONTINUOUS
 10
160.2943867081
 20
78.5329602402
 11
159.8413666011
 21
78.5329602402
  0
LINE
  5
29B
100
AcDbEntity
  8
0
100
AcDbLine
 62
7
  6
CONTINUOUS
 10
159.0863330881
 20
78.5329602402
 11
158.6836485481
 21
78.5329602402
  0
LINE
  5
29C
100
AcDbEntity
  8
0
100
AcDbLine
 62
7
  6
CONTINUOUS
 10
158.3648566211
 20
78.5329602402
 11
157.9621720811
 21
78.5329602402
  0
LINE
  5
29D
100
AcDbEntity
  8
0
100
AcDbLine
 62
7
  6
CONTINUOUS
 10
157.0729103881
 20
78.5329602402
 11
156.6702258481
 21
78.5329602402
  0
LINE
  5
29E
100
AcDbEntity
  8
0
100
AcDbLine
 62
7
  6
CONTINUOUS
 10
156.3514339211
 20
78.5329602402
 11
155.9487493811
 21
78.5329602402
  0
LINE
  5
29F
100
AcDbEntity
  8
0
100
AcDbLine
 62
7
  6
CONTINUOUS
 10
155.5628433631
 20
78.5329602402
 11
155.1601588231
 21
78.5329602402
  0
LINE
  5
2A0
100
AcDbEntity
  8
0
100
AcDbLine
 62
7
  6
CONTINUOUS
 10
154.7742528061
 20
78.5329602402
 11
154.3715682661
 21
78.5329602402
  0
LINE
  5
2A1
100
AcDbEntity
  8
0
100
AcDbLine
 62
7
  6
CONTINUOUS
 10
154.0192192931
 20
78.5329602402
 11
153.6165347531
 21
78.5329602402
  0
LINE
  5
2A2
100
AcDbEntity
  8
0
100
AcDbLine
 62
7
  6
CONTINUOUS
 10
152.6601589711
 20
78.5329602402
 11
152.2742529531
 21
78.5329602402
  0
LINE
  5
2A3
100
AcDbEntity
  8
0
100
AcDbLine
 62
7
  6
CONTINUOUS
 10
157.8279439011
 20
78.8827098682
 11
157.1903600461
 21
78.8827098682
  0
LINE
  5
2A4
100
AcDbEntity
  8
RACCORDO
100
AcDbLine
 62
253
  6
CONTINUOUS
 10
178.8439163981
 20
79.0963027093
 11
178.6393715876
 21
79.0963027093
  0
LINE
  5
2A5
100
AcDbEntity
  8
RACCORDO
100
AcDbLine
 62
253
  6
CONTINUOUS
 10
133.0643325002
 20
79.0963027093
 11
133.2688773107
 21
79.0963027093
  0
LINE
  5
2A6
100
AcDbEntity
  8
0
100
AcDbLine
 62
7
  6
CONTINUOUS
 10
159.4386820611
 20
79.2172529912
 11
159.0863330881
 21
79.2172529912
  0
LINE
  5
2A7
100
AcDbEntity
  8
0
100
AcDbLine
 62
7
  6
CONTINUOUS
 10
157.3245882261
 20
79.2172529912
 11
157.7104942431
 21
79.2172529912
  0
LINE
  5
2A8
100
AcDbEntity
  8
0
100
AcDbLine
 62
7
  6
CONTINUOUS
 10
159.0695545661
 20
79.5517961152
 11
159.5729102407
 21
79.5517961152
  0
LINE
  5
2A9
100
AcDbEntity
  8
0
100
AcDbLine
 62
7
  6
CONTINUOUS
 10
159.5729102407
 20
80.0079912822
 11
159.0695545661
 21
80.0079912822
  0
LINE
  5
2AA
100
AcDbEntity
  8
0
100
AcDbLine
 62
7
  6
CONTINUOUS
 10
151.6198905761
 20
80.3425344062
 11
152.0225751161
 21
80.3425344062
  0
LINE
  5
2AB
100
AcDbEntity
  8
0
100
AcDbLine
 62
7
  6
CONTINUOUS
 10
152.9118368081
 20
80.3425344062
 11
153.3145213481
 21
80.3425344062
  0
LINE
  5
2AC
100
AcDbEntity
  8
0
100
AcDbLine
 62
7
  6
CONTINUOUS
 10
153.6165347531
 20
80.3425344062
 11
154.0192192931
 21
80.3425344062
  0
LINE
  5
2AD
100
AcDbEntity
  8
0
100
AcDbLine
 62
7
  6
CONTINUOUS
 10
154.3715682661
 20
80.3425344062
 11
154.9923735981
 21
80.3425344062
  0
LINE
  5
2AE
100
AcDbEntity
  8
0
100
AcDbLine
 62
7
  6
CONTINUOUS
 10
155.7474071111
 20
80.3425344062
 11
156.3514339211
 21
80.3425344062
  0
LINE
  5
2AF
100
AcDbEntity
  8
0
100
AcDbLine
 62
7
  6
CONTINUOUS
 10
157.3078097031
 20
80.3425344062
 11
157.7104942431
 21
80.3425344062
  0
LINE
  5
2B0
100
AcDbEntity
  8
0
100
AcDbLine
 62
7
  6
CONTINUOUS
 10
158.6836485481
 20
80.3425344062
 11
159.6232458082
 21
80.3425344062
  0
LINE
  5
2B1
100
AcDbEntity
  8
RACCORDO
100
AcDbLine
 62
253
  6
CONTINUOUS
 10
133.5828710165
 20
81.123916682
 11
138.326570361
 21
81.1242896563
  0
LINE
  5
2B2
100
AcDbEntity
  8
RACCORDO
100
AcDbLine
 62
7
  6
CONTINUOUS
 10
178.2543985424
 20
81.1948960062
 11
133.6538503559
 21
81.1948960062
  0
LWPOLYLINE
  5
2B3
100
AcDbEntity
  8
RACCORDO
100
AcDbPolyline
 62
253
  6
CONTINUOUS
 90
3
 70
0
 10
138.326570361
 20
81.1242896563
 10
173.5819358498
 20
81.1242896447
 10
178.3253778857
 20
81.1239166803
  0
LWPOLYLINE
  5
2B4
100
AcDbEntity
  8
RACCORDO
100
AcDbPolyline
 62
253
  6
CONTINUOUS
 90
10
 70
0
 10
133.556544318
 20
80.9481682965
 10
138.3055609795
 20
80.9415519461
 10
143.1687751514
 20
80.9374063193
 10
148.1461231843
 20
80.9349435089
 10
153.3136417067
 20
80.9336641299
 10
158.5952453164
 20
80.9336640752
 10
163.7627080478
 20
80.9349437472
 10
168.73993588
 20
80.9374071817
 10
173.6029502272
 20
80.9415526065
 10
178.3517045776
 20
80.9481682811
  0
LWPOLYLINE
  5
2B5
100
AcDbEntity
  8
0
100
AcDbPolyline
 62
7
  6
CONTINUOUS
 90
94
 70
0
 10
159.6232458053
 20
80.3425344061
 10
159.6394871374
 20
80.342338193
 10
159.6557999758
 20
80.3417297477
 10
159.6721843218
 20
80.3407091258
 10
159.6886644614
 20
80.339277224
 10
159.7052161115
 20
80.3374332605
 10
159.7217664197
 20
80.3351747712
 10
159.7383097884
 20
80.3325003315
 10
159.754851818
 20
80.3294114787
 10
159.7713364534
 20
80.3259101864
 10
159.7877514355
 20
80.321999856
 10
159.8041090261
 20
80.3176771927
 10
159.820389952
 20
80.3129341219
 10
159.8365986445
 20
80.3077715784
 10
159.852730675
 20
80.3021887344
 10
159.8687534797
 20
80.2961748701
 10
159.8846821272
 20
80.2897234172
 10
159.9005015515
 20
80.282841049
 10
159.9161339869
 20
80.2755368983
 10
159.9315746121
 20
80.2678099899
 10
159.9468282505
 20
80.2596613819
 10
159.9618316028
 20
80.2511032403
 10
159.9765710195
 20
80.2421401834
 10
159.9910601518
 20
80.2327676512
 10
160.0052766509
 20
80.22298403
 10
160.0192235272
 20
80.2127877935
 10
160.0328977715
 20
80.2021805136
 10
160.0462680052
 20
80.1911652147
 10
160.0593438985
 20
80.1797325621
 10
160.0721157821
 20
80.1678919175
 10
160.084523267
 20
80.155674331
 10
160.0965627913
 20
80.1430791663
 10
160.108237917
 20
80.1301070488
 10
160.119498941
 20
80.1167908954
 10
160.1303359278
 20
80.1031401701
 10
160.1407588122
 20
80.0891453614
 10
160.1507476961
 20
80.074810905
 10
160.1603108449
 20
80.0601256768
 10
160.1694399921
 20
80.0451007347
 10
160.1780904414
 20
80.0297737703
 10
160.1862660515
 20
80.0141354814
 10
160.1939629618
 20
79.9981950678
 10
160.201124897
 20
79.9820179474
 10
160.207748855
 20
79.9656048341
 10
160.213837835
 20
79.9489548694
 10
160.2193445631
 20
79.9321310841
 10
160.2242615231
 20
79.9151460316
 10
160.2285962277
 20
79.8979869802
 10
160.2323239456
 20
79.8806790149
 10
160.2354389417
 20
79.8632043805
 10
160.237946947
 20
79.8455806378
 10
160.2398404295
 20
79.8278858357
 10
160.2411158481
 20
79.8101148979
 10
160.2417767395
 20
79.792272698
 10
160.2418261879
 20
79.774452207
 10
160.241262042
 20
79.7566587525
 10
160.2400864486
 20
79.7388868091
 10
160.2383089397
 20
79.7212130729
 10
160.2359326851
 20
79.7036549003
 10
160.2329545107
 20
79.6861947544
 10
160.2293744331
 20
79.6688569972
 10
160.2251839024
 20
79.6516265256
 10
160.2203914644
 20
79.6345182779
 10
160.2150227787
 20
79.6176016901
 10
160.2090720403
 20
79.6008766916
 10
160.2025450508
 20
79.5843432212
 10
160.1954848797
 20
79.5680707513
 10
160.1878940586
 20
79.552069128
 10
160.1797700532
 20
79.5363284164
 10
160.1711483349
 20
79.5208884398
 10
160.1620327702
 20
79.5057553361
 10
160.1524194905
 20
79.4909229168
 10
160.142332365
 20
79.4764125315
 10
160.1317552842
 20
79.4622145191
 10
160.1207043559
 20
79.4483385207
 10
160.1092517755
 20
79.4348348599
 10
160.0973913934
 20
79.4217062821
 10
160.0851293586
 20
79.4089500677
 10
160.0725563147
 20
79.3966083703
 10
160.059683678
 20
79.3846939937
 10
160.0465000326
 20
79.3731942013
 10
160.0330617744
 20
79.3621128526
 10
160.0193703986
 20
79.3514495308
 10
160.005424411
 20
79.3412047395
 10
159.991275723
 20
79.3313837269
 10
159.9769130908
 20
79.321980366
 10
159.9623477598
 20
79.3130008854
 10
159.9476653757
 20
79.3044690765
 10
159.9328626062
 20
79.2963876381
 10
159.9179427859
 20
79.2887539891
 10
159.9030015614
 20
79.281584008
 10
159.8880708161
 20
79.2748830298
 10
159.8731186695
 20
79.2686458429
 10
159.858145123
 20
79.2628725084
  0
LWPOLYLINE
  5
2B6
100
AcDbEntity
  8
RACCORDO
100
AcDbPolyline
 62
253
  6
CONTINUOUS
 90
10
 70
0
 10
132.3958906481
 20
76.9189189048
 10
132.3953801719
 20
76.9174219789
 10
132.39472411
 20
76.9129313535
 10
132.3939424296
 20
76.9055837028
 10
132.3930589219
 20
76.8956026551
 10
132.3921004763
 20
76.8832919869
 10
132.3910962617
 20
76.8690263763
 10
132.3900768412
 20
76.8532400007
 10
132.3890732415
 20
76.8364133228
 10
132.3881160076
 20
76.8190584666
  0
LINE
  5
2B7
100
AcDbEntity
  8
0
100
AcDbLine
 62
7
  6
CONTINUOUS
 10
159.858145123
 20
79.2628725084
 11
160.2943867081
 21
78.5329602402
  0
LINE
  5
2B8
100
AcDbEntity
  8
0
100
AcDbLine
 62
7
  6
CONTINUOUS
 10
159.8413666011
 20
78.5329602402
 11
159.4386820611
 21
79.2172529912
  0
LINE
  5
2B9
100
AcDbEntity
  8
0
100
AcDbLine
 62
7
  6
CONTINUOUS
 10
152.2742529531
 20
78.5329602402
 11
151.6198905761
 21
80.3425344062
  0
LINE
  5
2BA
100
AcDbEntity
  8
0
100
AcDbLine
 62
7
  6
CONTINUOUS
 10
152.0225751161
 20
80.3425344062
 11
152.4588167011
 21
79.0803944412
  0
LWPOLYLINE
  5
2BB
100
AcDbEntity
  8
RACCORDO
100
AcDbPolyline
 62
253
  6
CONTINUOUS
 90
10
 70
0
 10
132.3958936657
 20
130.4708157453
 10
132.3953830043
 20
130.4723137311
 10
132.3947266546
 20
130.4768076214
 10
132.3939446088
 20
130.4841605334
 10
132.3930606888
 20
130.4941484994
 10
132.3921018178
 20
130.5064672893
 10
132.3910972008
 20
130.520741677
 10
132.3900774376
 20
130.53653687
 10
132.3890735906
 20
130.5533717524
 10
132.3881162366
 20
130.5707335397
  0
LINE
  5
2BC
100
AcDbEntity
  8
0
100
AcDbLine
 62
7
  6
CONTINUOUS
 10
155.1601588231
 20
78.5329602402
 11
154.7742528061
 21
79.7190676762
  0
LINE
  5
2BD
100
AcDbEntity
  8
0
100
AcDbLine
 62
7
  6
CONTINUOUS
 10
154.9923735981
 20
80.3425344062
 11
155.3615010931
 21
79.1564269692
  0
LINE
  5
2BE
100
AcDbEntity
  8
0
100
AcDbLine
 62
7
  6
CONTINUOUS
 10
153.6165347531
 20
78.5329602402
 11
153.6165347531
 21
80.3425344062
  0
LINE
  5
2BF
100
AcDbEntity
  8
0
100
AcDbLine
 62
7
  6
CONTINUOUS
 10
154.0192192931
 20
80.3425344062
 11
154.0192192931
 21
78.5329602402
  0
LINE
  5
2C0
100
AcDbEntity
  8
0
100
AcDbLine
 62
7
  6
CONTINUOUS
 10
154.3715682661
 20
78.5329602402
 11
154.3715682661
 21
80.3425344062
  0
LINE
  5
2C1
100
AcDbEntity
  8
0
100
AcDbLine
 62
7
  6
CONTINUOUS
 10
154.7742528061
 20
79.7190676762
 11
154.7742528061
 21
78.5329602402
  0
LINE
  5
2C2
100
AcDbEntity
  8
0
100
AcDbLine
 62
7
  6
CONTINUOUS
 10
155.9487493811
 20
78.5329602402
 11
155.9487493811
 21
79.7190676762
  0
LINE
  5
2C3
100
AcDbEntity
  8
0
100
AcDbLine
 62
7
  6
CONTINUOUS
 10
156.3514339211
 20
80.3425344062
 11
156.3514339211
 21
78.5329602402
  0
LWPOLYLINE
  5
2C4
100
AcDbEntity
  8
RACCORDO
100
AcDbPolyline
 62
253
  6
CONTINUOUS
 90
22
 70
0
 10
133.3831451251
 20
81.3236425234
 10
133.3821540369
 20
81.3223973904
 10
133.3811651019
 20
81.320637877
 10
133.3801783202
 20
81.3183639834
 10
133.3791926269
 20
81.315573645
 10
133.3782090868
 20
81.3122689263
 10
133.3772308944
 20
81.3084560208
 10
133.3762580808
 20
81.3041317827
 10
133.375290615
 20
81.2992993578
 10
133.3743315979
 20
81.2939743769
 10
133.3733813462
 20
81.288156275
 10
133.3724395434
 20
81.281845617
 10
133.3715083412
 20
81.2750597291
 10
133.3705880417
 20
81.2678004488
 10
133.3696783429
 20
81.2600659387
 10
133.3687804901
 20
81.251868012
 10
133.3678943793
 20
81.2432059077
 10
133.3670201145
 20
81.2340803869
 10
133.3661592533
 20
81.2245055466
 10
133.3653115276
 20
81.2144768918
 10
133.3644772054
 20
81.2039989176
 10
133.3628558265
 20
81.1817739206
  0
LINE
  5
2C5
100
AcDbEntity
  8
RACCORDO
100
AcDbLine
 62
253
  6
CONTINUOUS
 10
133.4541244491
 20
81.3946219124
 11
133.3831451251
 21
81.3236425234
  0
LINE
  5
2C6
100
AcDbEntity
  8
RACCORDO
100
AcDbLine
 62
253
  6
CONTINUOUS
 10
178.2543985424
 20
126.1948960062
 11
178.3253778819
 21
126.2658753305
  0
LINE
  5
2C7
100
AcDbEntity
  8
RACCORDO
100
AcDbLine
 62
253
  6
CONTINUOUS
 10
133.6538503559
 20
81.1948960062
 11
133.5828710165
 21
81.123916682
  0
LINE
  5
2C8
100
AcDbEntity
  8
RACCORDO
100
AcDbLine
 62
253
  6
CONTINUOUS
 10
178.4541244491
 20
125.9951701
 11
178.5251037732
 21
126.0661494891
  0
LINE
  5
2C9
100
AcDbEntity
  8
RACCORDO
100
AcDbLine
 62
253
  6
CONTINUOUS
 10
180.4541244491
 20
129.2727011435
 11
180.3913875822
 21
129.2131974368
  0
LINE
  5
2CA
100
AcDbEntity
  8
RACCORDO
100
AcDbLine
 62
253
  6
CONTINUOUS
 10
179.5071969456
 20
130.2711473699
 11
179.4439931015
 21
130.2113354471
  0
LWPOLYLINE
  5
2CB
100
AcDbEntity
  8
RACCORDO
100
AcDbPolyline
 62
253
  6
CONTINUOUS
 90
28
 70
0
 10
178.3253778974
 20
126.2658754615
 10
178.3263792857
 20
126.2667655549
 10
178.3273784559
 20
126.2680221204
 10
178.328375427
 20
126.269645825
 10
178.3293713055
 20
126.2716377673
 10
178.3303650231
 20
126.2739975911
 10
178.3313533371
 20
126.2767223
 10
178.3323362418
 20
126.2798104141
 10
178.333313781
 20
126.2832601318
 10
178.3342827848
 20
126.2870654261
 10
178.3352429519
 20
126.2912216468
 10
178.3361946203
 20
126.295726219
 10
178.3371355777
 20
126.3005746505
 10
178.3380655356
 20
126.3057610115
 10
178.3389848177
 20
126.3112822782
 10
178.3398921307
 20
126.3171386596
 10
178.3407875976
 20
126.3233267122
 10
178.3416711307
 20
126.3298414138
 10
178.3425411211
 20
126.336681532
 10
178.3433978567
 20
126.3438451901
 10
178.344241085
 20
126.3513253825
 10
178.3450683858
 20
126.3591127589
 10
178.3458798083
 20
126.3672028543
 10
178.3466753363
 20
126.3755886366
 10
178.3474524489
 20
126.3842551762
 10
178.348211037
 20
126.393195256
 10
178.3489512381
 20
126.4024015555
 10
178.3503693048
 20
126.4215500653
  0
LWPOLYLINE
  5
2CC
100
AcDbEntity
  8
RACCORDO
100
AcDbPolyline
 62
253
  6
CONTINUOUS
 90
26
 70
0
 10
178.3253779034
 20
81.1239165405
 10
178.3263797889
 20
81.1230259129
 10
178.3273793926
 20
81.1217685377
 10
178.3283767335
 20
81.1201438152
 10
178.3293729178
 20
81.1181507139
 10
178.3303668776
 20
81.1157896581
 10
178.3313553703
 20
81.1130637142
 10
178.3323383843
 20
81.1099744494
 10
178.3333159693
 20
81.1065237181
 10
178.334284975
 20
81.1027175466
 10
178.3352450799
 20
81.0985607302
 10
178.336196642
 20
81.0940558092
 10
178.3371375291
 20
81.0892068988
 10
178.3380674647
 20
81.0840198368
 10
178.3389867606
 20
81.0784976505
 10
178.3398941672
 20
81.072639755
 10
178.3407898547
 20
81.0664491646
 10
178.3416736885
 20
81.0599311126
 10
178.3425439619
 20
81.053087463
 10
178.3434009634
 20
81.0459200378
 10
178.3442444399
 20
81.0384359174
 10
178.3450718715
 20
81.0306454978
 10
178.3458832651
 20
81.0225537574
 10
178.3466786462
 20
81.0141674967
 10
178.3474555209
 20
81.0055016789
 10
178.3482137811
 20
80.9965635857
  0
LINE
  5
2CD
100
AcDbEntity
  8
RACCORDO
100
AcDbLine
 62
253
  6
CONTINUOUS
 10
179.5071969456
 20
77.1186446426
 11
179.4439931015
 21
77.1784565654
  0
LINE
  5
2CE
100
AcDbEntity
  8
RACCORDO
100
AcDbLine
 62
253
  6
CONTINUOUS
 10
180.4541244491
 20
78.1170908689
 11
180.3913875822
 21
78.1765945757
  0
LINE
  5
2CF
100
AcDbEntity
  8
RACCORDO
100
AcDbLine
 62
253
  6
CONTINUOUS
 10
133.4541244491
 20
125.9951701001
 11
133.3831451235
 21
126.0661494951
  0
LINE
  5
2D0
100
AcDbEntity
  8
RACCORDO
100
AcDbLine
 62
253
  6
CONTINUOUS
 10
178.2543985424
 20
81.1948960062
 11
178.3253778857
 21
81.1239166803
  0
LINE
  5
2D1
100
AcDbEntity
  8
RACCORDO
100
AcDbLine
 62
253
  6
CONTINUOUS
 10
133.6538503559
 20
126.1948960062
 11
133.5828710126
 21
126.2658753321
  0
LINE
  5
2D2
100
AcDbEntity
  8
RACCORDO
100
AcDbLine
 62
253
  6
CONTINUOUS
 10
178.4541244491
 20
81.3946219124
 11
178.5251037749
 21
81.3236425173
  0
LWPOLYLINE
  5
2D3
100
AcDbEntity
  8
RACCORDO
100
AcDbPolyline
 62
253
  6
CONTINUOUS
 90
21
 70
0
 10
133.3831451235
 20
126.0661494951
 10
133.3821535141
 20
126.0673955987
 10
133.3811641286
 20
126.0691562681
 10
133.3801769669
 20
126.0714315034
 10
133.3791909674
 20
126.0742234576
 10
133.3782071917
 20
126.0775299776
 10
133.3772288248
 20
126.0813446047
 10
133.3762559006
 20
126.0856704513
 10
133.3752883852
 20
126.0905044051
 10
133.3743293618
 20
126.0958306704
 10
133.3733791672
 20
126.1016495837
 10
133.3724374645
 20
126.1079608086
 10
133.3715063266
 20
126.1147475396
 10
133.3705860436
 20
126.1220078754
 10
133.3696763254
 20
126.1297437173
 10
133.3687783741
 20
126.1379439642
 10
133.3678920392
 20
126.1466098714
 10
133.3670174711
 20
126.1557401836
 10
133.3661563239
 20
126.1653200336
 10
133.3653083282
 20
126.1753542138
 10
133.3644737533
 20
126.1858379317
  0
LINE
  5
2D4
100
AcDbEntity
  8
0
100
AcDbLine
 62
7
  6
CONTINUOUS
 10
157.9621720811
 20
78.5329602402
 11
157.8279439011
 21
78.8827098682
  0
LINE
  5
2D5
100
AcDbEntity
  8
0
100
AcDbLine
 62
7
  6
CONTINUOUS
 10
157.7104942431
 20
80.3425344062
 11
158.3648566211
 21
78.5329602402
  0
LINE
  5
2D6
100
AcDbEntity
  8
0
100
AcDbLine
 62
7
  6
CONTINUOUS
 10
157.7104942431
 20
79.2172529912
 11
157.5091519731
 21
79.7798936992
  0
LINE
  5
2D7
100
AcDbEntity
  8
0
100
AcDbLine
 62
7
  6
CONTINUOUS
 10
158.6836485481
 20
78.5329602402
 11
158.6836485481
 21
80.3425344062
  0
LINE
  5
2D8
100
AcDbEntity
  8
0
100
AcDbLine
 62
7
  6
CONTINUOUS
 10
159.0695545661
 20
80.0079912822
 11
159.0695545661
 21
79.5517961152
  0
LINE
  5
2D9
100
AcDbEntity
  8
0
100
AcDbLine
 62
7
  6
CONTINUOUS
 10
159.0863330881
 20
79.2172529912
 11
159.0863330881
 21
78.5329602402
  0
LINE
  5
2DA
100
AcDbEntity
  8
0
100
AcDbLine
 62
7
  6
CONTINUOUS
 10
155.3615010931
 20
79.1564269692
 11
155.7474071111
 21
80.3425344062
  0
LINE
  5
2DB
100
AcDbEntity
  8
0
100
AcDbLine
 62
7
  6
CONTINUOUS
 10
155.9487493811
 20
79.7190676762
 11
155.5628433631
 21
78.5329602402
  0
LINE
  5
2DC
100
AcDbEntity
  8
0
100
AcDbLine
 62
7
  6
CONTINUOUS
 10
157.5091519731
 20
79.7798936992
 11
157.3245882261
 21
79.2172529912
  0
LINE
  5
2DD
100
AcDbEntity
  8
0
100
AcDbLine
 62
7
  6
CONTINUOUS
 10
157.1903600461
 20
78.8827098682
 11
157.0729103881
 21
78.5329602402
  0
LINE
  5
2DE
100
AcDbEntity
  8
0
100
AcDbLine
 62
7
  6
CONTINUOUS
 10
156.6702258481
 20
78.5329602402
 11
157.3078097031
 21
80.3425344062
  0
LINE
  5
2DF
100
AcDbEntity
  8
0
100
AcDbLine
 62
7
  6
CONTINUOUS
 10
152.4588167011
 20
79.0803944412
 11
152.9118368081
 21
80.3425344062
  0
LINE
  5
2E0
100
AcDbEntity
  8
0
100
AcDbLine
 62
7
  6
CONTINUOUS
 10
153.3145213481
 20
80.3425344062
 11
152.6601589711
 21
78.5329602402
  0
LWPOLYLINE
  5
2E1
100
AcDbEntity
  8
RACCORDO
100
AcDbPolyline
 62
253
  6
CONTINUOUS
 90
22
 70
0
 10
178.5251037732
 20
126.0661494891
 10
178.5260948614
 20
126.0673946222
 10
178.5270837964
 20
126.0691541355
 10
178.5280705781
 20
126.0714280292
 10
178.5290562714
 20
126.0742183676
 10
178.5300398115
 20
126.0775230862
 10
178.5310180039
 20
126.0813359917
 10
178.5319908175
 20
126.0856602298
 10
178.5329582834
 20
126.0904926547
 10
178.5339173004
 20
126.0958176356
 10
178.5348675521
 20
126.1016357376
 10
178.5358093549
 20
126.1079463956
 10
178.5367405571
 20
126.1147322835
 10
178.5376608566
 20
126.1219915637
 10
178.5385705555
 20
126.1297260739
 10
178.5394684083
 20
126.1379240005
 10
178.5403545191
 20
126.1465861049
 10
178.5412287838
 20
126.1557116257
 10
178.542089645
 20
126.1652864659
 10
178.5429373707
 20
126.1753151207
 10
178.5437716929
 20
126.185793095
 10
178.5453930718
 20
126.2080180919
  0
LINE
  5
2E2
100
AcDbEntity
  8
RACCORDO
100
AcDbLine
 62
253
  6
CONTINUOUS
 10
131.4541244491
 20
78.1170908689
 11
131.5168613161
 21
78.1765945757
  0
LINE
  5
2E3
100
AcDbEntity
  8
RACCORDO
100
AcDbLine
 62
253
  6
CONTINUOUS
 10
132.4010519527
 20
77.1186446426
 11
132.4642557968
 21
77.1784565654
  0
LWPOLYLINE
  5
2E4
100
AcDbEntity
  8
RACCORDO
100
AcDbPolyline
 62
253
  6
CONTINUOUS
 90
28
 70
0
 10
133.5828710009
 20
81.123916551
 10
133.5818696126
 20
81.1230264576
 10
133.5808704423
 20
81.1217698921
 10
133.5798734712
 20
81.1201461875
 10
133.5788775927
 20
81.1181542452
 10
133.577883875
 20
81.1157944214
 10
133.5768955611
 20
81.1130697125
 10
133.5759126563
 20
81.1099815984
 10
133.5749351171
 20
81.1065318807
 10
133.5739661133
 20
81.1027265864
 10
133.5730059461
 20
81.0985703657
 10
133.5720542777
 20
81.0940657935
 10
133.5711133203
 20
81.089217362
 10
133.5701833624
 20
81.0840310011
 10
133.5692640802
 20
81.0785097343
 10
133.5683567673
 20
81.0726533529
 10
133.5674613003
 20
81.0664653003
 10
133.5665777672
 20
81.0599505987
 10
133.5657077768
 20
81.0531104806
 10
133.5648510412
 20
81.0459468224
 10
133.5640078129
 20
81.0384666301
 10
133.5631805121
 20
81.0306792536
 10
133.5623690894
 20
81.0225891582
 10
133.5615735615
 20
81.014203376
 10
133.5607964489
 20
81.0055368363
 10
133.5600378607
 20
80.9965967565
 10
133.5592976596
 20
80.9873904571
 10
133.5578795929
 20
80.9682419472
  0
LWPOLYLINE
  5
2E5
100
AcDbEntity
  8
RACCORDO
100
AcDbPolyline
 62
253
  6
CONTINUOUS
 90
26
 70
0
 10
133.5828709949
 20
126.265875472
 10
133.5818691094
 20
126.2667660995
 10
133.5808695056
 20
126.2680234748
 10
133.5798721647
 20
126.2696481973
 10
133.5788759804
 20
126.2716412986
 10
133.5778820206
 20
126.2740023544
 10
133.5768935278
 20
126.2767282983
 10
133.5759105138
 20
126.279817563
 10
133.5749329288
 20
126.2832682944
 10
133.5739639231
 20
126.2870744659
 10
133.5730038181
 20
126.2912312823
 10
133.572052256
 20
126.2957362033
 10
133.5711113689
 20
126.3005851137
 10
133.5701814332
 20
126.3057721757
 10
133.5692621373
 20
126.311294362
 10
133.5683547307
 20
126.3171522575
 10
133.5674590431
 20
126.3233428479
 10
133.5665752093
 20
126.3298608999
 10
133.565704936
 20
126.3367045495
 10
133.5648479344
 20
126.3438719746
 10
133.5640044579
 20
126.3513560951
 10
133.5631770263
 20
126.3591465147
 10
133.5623656327
 20
126.3672382551
 10
133.5615702515
 20
126.3756245157
 10
133.5607933767
 20
126.3842903336
 10
133.5600351166
 20
126.3932284268
  0
LINE
  5
2E6
100
AcDbEntity
  8
RACCORDO
100
AcDbLine
 62
253
  6
CONTINUOUS
 10
132.4010519527
 20
130.2711473699
 11
132.4642557968
 21
130.2113354471
  0
LINE
  5
2E7
100
AcDbEntity
  8
RACCORDO
100
AcDbLine
 62
253
  6
CONTINUOUS
 10
131.4541244491
 20
129.2727011435
 11
131.5168613161
 21
129.2131974368
  0
LWPOLYLINE
  5
2E8
100
AcDbEntity
  8
RACCORDO
100
AcDbPolyline
 62
253
  6
CONTINUOUS
 90
21
 70
0
 10
178.5251037749
 20
81.3236425173
 10
178.5260953842
 20
81.3223964138
 10
178.5270847697
 20
81.3206357444
 10
178.5280719314
 20
81.318360509
 10
178.529057931
 20
81.3155685549
 10
178.5300417067
 20
81.3122620349
 10
178.5310200736
 20
81.3084474078
 10
178.5319929977
 20
81.3041215611
 10
178.5329605131
 20
81.2992876074
 10
178.5339195365
 20
81.2939613421
 10
178.5348697312
 20
81.2881424287
 10
178.5358114338
 20
81.2818312039
 10
178.5367425718
 20
81.2750444729
 10
178.5376628547
 20
81.2677841371
 10
178.5385725729
 20
81.2600482952
 10
178.5394705242
 20
81.2518480483
 10
178.5403568592
 20
81.2431821411
 10
178.5412314272
 20
81.2340518289
 10
178.5420925744
 20
81.2244719789
 10
178.5429405701
 20
81.2144377987
 10
178.543775145
 20
81.2039540807
  0
LWPOLYLINE
  5
2E9
100
AcDbEntity
  8
RACCORDO
100
AcDbPolyline
 62
253
  6
CONTINUOUS
 90
10
 70
0
 10
179.5123582502
 20
130.4708731076
 10
179.5128687263
 20
130.4723700336
 10
179.5135247883
 20
130.476860659
 10
179.5143064687
 20
130.4842083097
 10
179.5151899763
 20
130.4941893574
 10
179.5161484219
 20
130.5065000256
 10
179.5171526365
 20
130.5207656362
 10
179.5181720571
 20
130.5365520118
 10
179.5191756567
 20
130.5533786897
 10
179.5201328906
 20
130.5707335459
  0
LWPOLYLINE
  5
2EA
100
AcDbEntity
  8
RACCORDO
100
AcDbPolyline
 62
253
  6
CONTINUOUS
 90
10
 70
0
 10
179.5123552326
 20
76.9189762672
 10
179.512865894
 20
76.9174782814
 10
179.5135222437
 20
76.9129843911
 10
179.5143042894
 20
76.9056314791
 10
179.5151882095
 20
76.895643513
 10
179.5161470805
 20
76.8833247232
 10
179.5171516974
 20
76.8690503355
 10
179.5181714607
 20
76.8532551424
 10
179.5191753077
 20
76.8364202601
 10
179.5201326616
 20
76.8190584728
  0
LWPOLYLINE
  5
2EB
100
AcDbEntity
  8
RACCORDO
100
AcDbPolyline
 62
253
  6
CONTINUOUS
 90
37
 70
0
 10
178.5511544045
 20
126.3121959634
 10
178.550635448
 20
126.3176979035
 10
178.5497569598
 20
126.3231899137
 10
178.5485205254
 20
126.328662082
 10
178.5469283765
 20
126.3341045321
 10
178.5449833864
 20
126.3395074413
 10
178.5426890657
 20
126.3448610585
 10
178.540049555
 20
126.3501557214
 10
178.5370696183
 20
126.355381874
 10
178.5337546337
 20
126.3605300842
 10
178.5301105842
 20
126.3655910603
 10
178.5261440467
 20
126.3705556683
 10
178.5218621799
 20
126.3754149479
 10
178.5172727119
 20
126.380160129
 10
178.5123839259
 20
126.3847826475
 10
178.507204645
 20
126.3892741606
 10
178.5017442171
 20
126.3936265619
 10
178.4960124972
 20
126.3978319962
 10
178.4900198299
 20
126.4018828733
 10
178.4837770309
 20
126.4057718824
 10
178.4772953673
 20
126.4094920043
 10
178.4705865373
 20
126.413036525
 10
178.4636626492
 20
126.4163990472
 10
178.4565361992
 20
126.4195735023
 10
178.4492200492
 20
126.4225541609
 10
178.4417274036
 20
126.4253356435
 10
178.4340717852
 20
126.4279129301
 10
178.426267011
 20
126.430281369
 10
178.4183271671
 20
126.4324366858
 10
178.4102665835
 20
126.4343749904
 10
178.402099808
 20
126.4360927846
 10
178.3938415802
 20
126.4375869681
 10
178.3855068047
 20
126.4388548441
 10
178.3771105241
 20
126.4398941245
 10
178.3686678922
 20
126.4407029334
 10
178.3601941463
 20
126.4412798111
 10
178.3517045802
 20
126.4416237165
  0
LINE
  5
2EC
100
AcDbEntity
  8
RACCORDO
100
AcDbLine
 62
253
  6
CONTINUOUS
 10
178.3482137811
 20
80.9965635857
 11
178.3496727354
 21
80.9779100961
  0
LINE
  5
2ED
100
AcDbEntity
  8
RACCORDO
100
AcDbLine
 62
253
  6
CONTINUOUS
 10
178.543775145
 20
81.2039540807
 11
178.5453966352
 21
81.1817223553
  0
LWPOLYLINE
  5
2EE
100
AcDbEntity
  8
RACCORDO
100
AcDbPolyline
 62
253
  6
CONTINUOUS
 90
3
 70
0
 10
178.3496727354
 20
80.9779100961
 10
178.3510478697
 20
80.9583068347
 10
178.3517045674
 20
80.9481683968
  0
LINE
  5
2EF
100
AcDbEntity
  8
RACCORDO
100
AcDbLine
 62
253
  6
CONTINUOUS
 10
178.4596095506
 20
78.5970448144
 11
178.4579003749
 21
78.6223716244
  0
LINE
  5
2F0
100
AcDbEntity
  8
RACCORDO
100
AcDbLine
 62
253
  6
CONTINUOUS
 10
178.5453966352
 20
81.1817223553
 11
178.5469521521
 21
81.1578455161
  0
LINE
  5
2F1
100
AcDbEntity
  8
RACCORDO
100
AcDbLine
 62
253
  6
CONTINUOUS
 10
178.4613480175
 20
78.5691648388
 11
178.4596095506
 21
78.5970448144
  0
LINE
  5
2F2
100
AcDbEntity
  8
RACCORDO
100
AcDbLine
 62
253
  6
CONTINUOUS
 10
178.5469521521
 20
81.1578455161
 11
178.5484342669
 21
81.1324389603
  0
LINE
  5
2F3
100
AcDbEntity
  8
RACCORDO
100
AcDbLine
 62
253
  6
CONTINUOUS
 10
178.4634973875
 20
78.531770235
 11
178.4613480175
 21
78.5691648388
  0
LINE
  5
2F4
100
AcDbEntity
  8
RACCORDO
100
AcDbLine
 62
253
  6
CONTINUOUS
 10
180.6567247228
 20
129.3724163025
 11
180.6502395578
 21
129.4950570959
  0
LINE
  5
2F5
100
AcDbEntity
  8
RACCORDO
100
AcDbLine
 62
253
  6
CONTINUOUS
 10
178.5484342669
 20
81.1324389603
 11
178.5498357551
 21
81.1056727683
  0
LINE
  5
2F6
100
AcDbEntity
  8
RACCORDO
100
AcDbLine
 62
253
  6
CONTINUOUS
 10
178.4655437351
 20
78.492888116
 11
178.4634973875
 21
78.531770235
  0
LINE
  5
2F7
100
AcDbEntity
  8
RACCORDO
100
AcDbLine
 62
253
  6
CONTINUOUS
 10
179.4383800226
 20
77.3781472349
 11
179.4403513295
 21
77.3386675601
  0
LINE
  5
2F8
100
AcDbEntity
  8
RACCORDO
100
AcDbLine
 62
253
  6
CONTINUOUS
 10
178.3517045776
 20
80.9481682811
 11
178.4579003749
 21
78.6223716247
  0
LINE
  5
2F9
100
AcDbEntity
  8
RACCORDO
100
AcDbLine
 62
253
  6
CONTINUOUS
 10
178.5498357551
 20
81.1056727683
 11
178.6393715876
 21
79.0963027092
  0
LINE
  5
2FA
100
AcDbEntity
  8
RACCORDO
100
AcDbLine
 62
253
  6
CONTINUOUS
 10
179.4403513295
 20
77.3386675601
 11
179.4420497386
 21
77.3007458564
  0
LINE
  5
2FB
100
AcDbEntity
  8
RACCORDO
100
AcDbLine
 62
253
  6
CONTINUOUS
 10
179.4420497386
 20
77.3007458564
 11
179.4431665078
 21
77.2725394656
  0
LINE
  5
2FC
100
AcDbEntity
  8
RACCORDO
100
AcDbLine
 62
253
  6
CONTINUOUS
 10
179.4431665078
 20
77.2725394656
 11
179.4438439326
 21
77.2531004997
  0
LINE
  5
2FD
100
AcDbEntity
  8
RACCORDO
100
AcDbLine
 62
253
  6
CONTINUOUS
 10
179.4438439326
 20
77.2531004997
 11
179.4443731838
 21
77.2354417693
  0
LINE
  5
2FE
100
AcDbEntity
  8
RACCORDO
100
AcDbLine
 62
253
  6
CONTINUOUS
 10
179.4443731838
 20
77.2354417693
 11
179.4446398881
 21
77.2247836037
  0
LWPOLYLINE
  5
2FF
100
AcDbEntity
  8
RACCORDO
100
AcDbPolyline
 62
253
  6
CONTINUOUS
 90
40
 70
0
 10
178.5251037732
 20
126.0661494891
 10
178.5249203672
 20
126.0741776574
 10
178.5244144299
 20
126.0821928489
 10
178.5235867791
 20
126.0901821083
 10
178.5224387528
 20
126.098132522
 10
178.5209722065
 20
126.1060312394
 10
178.5191895108
 20
126.1138654934
 10
178.517093547
 20
126.1216226211
 10
178.5146877032
 20
126.1292900842
 10
178.511975868
 20
126.1368554894
 10
178.5089624248
 20
126.1443066084
 10
178.5056522443
 20
126.1516313975
 10
178.502050677
 20
126.1588180174
 10
178.4981635444
 20
126.1658548519
 10
178.4939971294
 20
126.1727305271
 10
178.4895581665
 20
126.1794339295
 10
178.4848538306
 20
126.185954224
 10
178.4798917256
 20
126.1922808716
 10
178.474679872
 20
126.1984036462
 10
178.4692266941
 20
126.2043126513
 10
178.4635410061
 20
126.2099983358
 10
178.457631998
 20
126.2154515099
 10
178.451509221
 20
126.2206633591
 10
178.4451825716
 20
126.2256254594
 10
178.4386622759
 20
126.2303297904
 10
178.431958873
 20
126.2347687481
 10
178.4250831979
 20
126.2389351577
 10
178.4180463642
 20
126.2428222848
 10
178.4108597458
 20
126.2464238466
 10
178.4035349589
 20
126.2497340215
 10
178.3960838428
 20
126.2527474594
 10
178.3885184412
 20
126.2554592893
 10
178.3808509824
 20
126.2578651281
 10
178.3730938597
 20
126.259961087
 10
178.3652596118
 20
126.2617437783
 10
178.3573609012
 20
126.2632103205
 10
178.3494104932
 20
126.2643583435
 10
178.3414212377
 20
126.2651859916
 10
178.3334060488
 20
126.2656919265
 10
178.3253778819
 20
126.2658753305
  0
LINE
  5
300
100
AcDbEntity
  8
RACCORDO
100
AcDbLine
 62
253
  6
CONTINUOUS
 10
179.4446398881
 20
77.2247836037
 11
179.4448356545
 21
77.2150964655
  0
LWPOLYLINE
  5
301
100
AcDbEntity
  8
RACCORDO
100
AcDbPolyline
 62
253
  6
CONTINUOUS
 90
58
 70
0
 10
180.1965217057
 20
129.2131974368
 10
180.1962369875
 20
129.2345097319
 10
180.1953869119
 20
129.2557791387
 10
180.1939714786
 20
129.277005657
 10
180.191988872
 20
129.2982051895
 10
180.1894409077
 20
129.3193618336
 10
180.186333033
 20
129.3404278818
 10
180.1826640616
 20
129.3614022364
 10
180.1784351794
 20
129.3822859951
 10
180.1736553921
 20
129.4030347437
 10
180.1683235432
 20
129.4236481251
 10
180.1624407887
 20
129.4441264965
 10
180.1560196034
 20
129.4644265149
 10
180.1490588482
 20
129.4845478279
 10
180.1415596616
 20
129.5044907879
 10
180.1335379345
 20
129.5242131096
 10
180.1249925619
 20
129.5437143281
 10
180.115924648
 20
129.5629949083
 10
180.1063533981
 20
129.5820139598
 10
180.0962777442
 20
129.6007709366
 10
180.0856987533
 20
129.6192663846
 10
180.074638833
 20
129.6374610513
 10
180.0630969687
 20
129.6553542964
 10
180.0510741741
 20
129.6729467601
 10
180.038595898
 20
129.69020111
 10
180.0256611617
 20
129.7071166488
 10
180.012270943
 20
129.7236940738
 10
179.9984536262
 20
129.7398981448
 10
179.9842083185
 20
129.7557280574
 10
179.9695359117
 20
129.771184616
 10
179.9544674672
 20
129.786234993
 10
179.939002128
 20
129.8008783458
 10
179.9231407502
 20
129.815115517
 10
179.9069169648
 20
129.8289162077
 10
179.8903300163
 20
129.8422794828
 10
179.8733806593
 20
129.8552062774
 10
179.8561047908
 20
129.8676690966
 10
179.8385016975
 20
129.8796669721
 10
179.8205720918
 20
129.8912008724
 10
179.8023540098
 20
129.9022462076
 10
179.7838468309
 20
129.9128019435
 10
179.7650511749
 20
129.9228691144
 10
179.7460069385
 20
129.9324262336
 10
179.7267135825
 20
129.9414722189
 10
179.7071716454
 20
129.9500081526
 10
179.6874226403
 20
129.9580157953
 10
179.6674661479
 20
129.9654940204
 10
179.6473025868
 20
129.9724439544
 10
179.6269747268
 20
129.9788507376
 10
179.6064821483
 20
129.9847132216
 10
179.5858252704
 20
129.9900325548
 10
179.5650481209
 20
129.9947973221
 10
179.5441493589
 20
129.9990064013
 10
179.523130325
 20
130.0026609146
 10
179.5020390695
 20
130.0057528138
 10
179.4808916091
 20
130.0082794159
 10
179.4596719268
 20
130.0102434038
 10
179.4383800226
 20
130.0116447775
  0
LWPOLYLINE
  5
302
100
AcDbEntity
  8
RACCORDO
100
AcDbPolyline
 62
253
  6
CONTINUOUS
 90
58
 70
0
 10
180.3913875822
 20
129.2131974368
 10
180.3910314945
 20
129.2398202491
 10
180.3899665821
 20
129.2664230054
 10
180.3881936658
 20
129.2929868571
 10
180.3857140971
 20
129.3194927379
 10
180.3825296819
 20
129.345922122
 10
180.3786426124
 20
129.3722570289
 10
180.3740555872
 20
129.3984791136
 10
180.3687719041
 20
129.4245694807
 10
180.3627953537
 20
129.4505094412
 10
180.3561302248
 20
129.4762804873
 10
180.3487812315
 20
129.501864497
 10
180.340753533
 20
129.5272435384
 10
180.3320528051
 20
129.5523996667
 10
180.3226852277
 20
129.5773150198
 10
180.3126574089
 20
129.6019720192
 10
180.3019764492
 20
129.6263531888
 10
180.2906499126
 20
129.6504412525
 10
180.2786857831
 20
129.6742192187
 10
180.2660925218
 20
129.6976702381
 10
180.2528790453
 20
129.7207776796
 10
180.2390546779
 20
129.7435252203
 10
180.2246292117
 20
129.7658967094
 10
180.2096128417
 20
129.7878763034
 10
180.1940161225
 20
129.8094485296
 10
180.1778500612
 20
129.8305981058
 10
180.1611261088
 20
129.8513099985
 10
180.1438560805
 20
129.8715695473
 10
180.1260522007
 20
129.8913623559
 10
180.1077270501
 20
129.910674387
 10
180.0888935394
 20
129.9294920057
 10
180.0695649656
 20
129.9478018606
 10
180.0497550176
 20
129.9655909225
 10
180.0294777158
 20
129.9828465724
 10
180.0087474223
 20
129.9995565272
 10
179.9875787845
 20
130.0157089231
 10
179.9659867281
 20
130.0312923414
 10
179.9439865044
 20
130.0462957056
 10
179.9215937011
 20
130.0607083191
 10
179.8988241806
 20
130.0745199423
 10
179.8756940524
 20
130.0877207369
 10
179.8522196908
 20
130.1003012946
 10
179.8284177411
 20
130.1122526671
 10
179.804305043
 20
130.1235663352
 10
179.779898679
 20
130.1342342221
 10
179.7552159924
 20
130.1442487238
 10
179.7302745083
 20
130.1536026735
 10
179.7050918493
 20
130.1622894078
 10
179.6796857811
 20
130.1703027733
 10
179.6540741617
 20
130.1776370659
 10
179.6282752712
 20
130.1842869807
 10
179.602307734
 20
130.190247702
 10
179.5761902921
 20
130.1955149039
 10
179.549941126
 20
130.2000848971
 10
179.5235781755
 20
130.2039545277
 10
179.4971198989
 20
130.2071209947
 10
179.4705852708
 20
130.2095819136
 10
179.4439931015
 20
130.2113354471
  0
LINE
  5
303
100
AcDbEntity
  8
RACCORDO
100
AcDbLine
 62
253
  6
CONTINUOUS
 10
179.4448356545
 20
77.2150964655
 11
179.4449592433
 21
77.2064416893
  0
LWPOLYLINE
  5
304
100
AcDbEntity
  8
RACCORDO
100
AcDbPolyline
 62
253
  6
CONTINUOUS
 90
52
 70
0
 10
178.6393715876
 20
79.0963027093
 10
178.6395315119
 20
79.0764396351
 10
178.6393598714
 20
79.0568292693
 10
178.6388657175
 20
79.0374798367
 10
178.6380591737
 20
79.0183780861
 10
178.6369492444
 20
78.9995524458
 10
178.6355441954
 20
78.9810729716
 10
178.6338542877
 20
78.9629477229
 10
178.6318908012
 20
78.9451811049
 10
178.6296649371
 20
78.9278368348
 10
178.6271879434
 20
78.9109217044
 10
178.6244723424
 20
78.8944383803
 10
178.6215331005
 20
78.8784432543
 10
178.6183824887
 20
78.8629427963
 10
178.6150339888
 20
78.8479365917
 10
178.6115065026
 20
78.8334692312
 10
178.6078144388
 20
78.8195508339
 10
178.6039705819
 20
78.8061735361
 10
178.599992865
 20
78.7933534778
 10
178.5958958529
 20
78.7810984474
 10
178.5916914085
 20
78.7693996539
 10
178.5873935742
 20
78.7582473763
 10
178.583014451
 20
78.7476431111
 10
178.5785658524
 20
78.7375820923
 10
178.574060892
 20
78.7280445909
 10
178.5695107146
 20
78.7190310215
 10
178.5649254296
 20
78.7105358277
 10
178.560315947
 20
78.7025298924
 10
178.555693264
 20
78.6950136467
 10
178.5510647623
 20
78.6879801818
 10
178.5464349401
 20
78.6813893896
 10
178.5418108422
 20
78.6752371153
 10
178.5372004693
 20
78.6695207809
 10
178.5326087202
 20
78.6642029155
 10
178.528040372
 20
78.659278702
 10
178.5235029862
 20
78.6547459989
 10
178.5190049732
 20
78.6505713352
 10
178.5145529884
 20
78.6467523074
 10
178.5101506103
 20
78.6432837913
 10
178.5058010725
 20
78.64012824
 10
178.5015118546
 20
78.6372829193
 10
178.4972835587
 20
78.6347431231
 10
178.4931083716
 20
78.6324690126
 10
178.488984872
 20
78.6304541309
 10
178.4849204273
 20
78.628698817
 10
178.4809198604
 20
78.6271739375
 10
178.4770041107
 20
78.625878678
 10
178.4731569501
 20
78.6248071453
 10
178.4693268102
 20
78.6239246533
 10
178.465497407
 20
78.6232198755
 10
178.4616881032
 20
78.6227025477
 10
178.4579003749
 20
78.6223716247
  0
LWPOLYLINE
  5
305
100
AcDbEntity
  8
RACCORDO
100
AcDbPolyline
 62
253
  6
CONTINUOUS
 90
13
 70
0
 10
179.4449592433
 20
77.2064416893
 10
179.4450098721
 20
77.1988740731
 10
179.4450077082
 20
77.1955132008
 10
179.4449872203
 20
77.1924415315
 10
179.4449484409
 20
77.1896639292
 10
179.4448914314
 20
77.1871847923
 10
179.444816282
 20
77.1850080466
 10
179.4447231117
 20
77.1831371388
 10
179.4446120682
 20
77.1815750317
 10
179.4444833271
 20
77.1803241988
 10
179.4443370925
 20
77.1793866209
 10
179.4441735958
 20
77.1787637826
 10
179.443993096
 20
77.1784566701
  0
LWPOLYLINE
  5
306
100
AcDbEntity
  8
RACCORDO
100
AcDbPolyline
 62
253
  6
CONTINUOUS
 90
12
 70
0
 10
179.4450098774
 20
130.1909180296
 10
179.4450077135
 20
130.194278904
 10
179.4449872257
 20
130.1973505753
 10
179.4449484464
 20
130.2001281793
 10
179.4448914369
 20
130.2026073178
 10
179.4448162875
 20
130.204784065
 10
179.4447231173
 20
130.206654974
 10
179.4446120737
 20
130.2082170822
 10
179.4444833327
 20
130.2094679159
 10
179.444337098
 20
130.2104054945
 10
179.4441736013
 20
130.2110283332
 10
179.4439931014
 20
130.2113354459
  0
LINE
  5
307
100
AcDbEntity
  8
RACCORDO
100
AcDbLine
 62
7
  6
CONTINUOUS
 10
178.4541244491
 20
125.9951701
 11
178.4541244491
 21
81.3946219124
  0
LINE
  5
308
100
AcDbEntity
  8
RACCORDO
100
AcDbLine
 62
253
  6
CONTINUOUS
 10
178.6393715876
 20
128.2934893032
 11
178.6393715876
 21
79.0963027092
  0
LINE
  5
309
100
AcDbEntity
  8
RACCORDO
100
AcDbLine
 62
253
  6
CONTINUOUS
 10
178.8439163981
 20
128.2934893032
 11
178.8439163981
 21
79.0963027093
  0
LINE
  5
30A
100
AcDbEntity
  8
RACCORDO
100
AcDbLine
 62
253
  6
CONTINUOUS
 10
180.1965217057
 20
78.1765945757
 11
180.1965217057
 21
129.2131974368
  0
LINE
  5
30B
100
AcDbEntity
  8
RACCORDO
100
AcDbLine
 62
253
  6
CONTINUOUS
 10
180.3913875822
 20
78.1765945757
 11
180.3913875822
 21
129.2131974368
  0
LINE
  5
30C
100
AcDbEntity
  8
RACCORDO
100
AcDbLine
 62
7
  6
CONTINUOUS
 10
180.4541244491
 20
129.2727011435
 11
180.4541244491
 21
78.1170908689
  0
LINE
  5
30D
100
AcDbEntity
  8
RACCORDO
100
AcDbLine
 62
7
  6
CONTINUOUS
 10
180.5541244491
 20
78.01737571
 11
180.5541244491
 21
129.3724163025
  0
LINE
  5
30E
100
AcDbEntity
  8
RACCORDO
100
AcDbLine
 62
253
  6
CONTINUOUS
 10
180.6567247228
 20
78.01737571
 11
180.6567247228
 21
129.3724163025
  0
LINE
  5
30F
100
AcDbEntity
  8
RACCORDO
100
AcDbLine
 62
253
  6
CONTINUOUS
 10
179.4449592484
 20
130.1833504087
 11
179.4450098774
 21
130.1909180296
  0
LWPOLYLINE
  5
310
100
AcDbEntity
  8
RACCORDO
100
AcDbPolyline
 62
7
  6
CONTINUOUS
 90
58
 70
0
 10
180.4541244491
 20
78.1170908689
 10
180.453773761
 20
78.0905125797
 10
180.4527148281
 20
78.0639625594
 10
180.4509476504
 20
78.0374408082
 10
180.4484695901
 20
78.0109174739
 10
180.4452832849
 20
77.9844224087
 10
180.4413966489
 20
77.9580451686
 10
180.4368059943
 20
77.9317904932
 10
180.4315150088
 20
77.9056536429
 10
180.4255426696
 20
77.879709955
 10
180.4188937095
 20
77.8539802581
 10
180.4115633955
 20
77.8284437236
 10
180.4035565063
 20
77.8031132037
 10
180.394869646
 20
77.7779755677
 10
180.3855062103
 20
77.7530439463
 10
180.3754811645
 20
77.7283705843
 10
180.364787538
 20
77.7039466077
 10
180.3534323014
 20
77.6797808904
 10
180.3414513315
 20
77.6559522992
 10
180.3288428304
 20
77.6324662154
 10
180.315608596
 20
77.6093172577
 10
180.3017898994
 20
77.5865681483
 10
180.2873997765
 20
77.5642390379
 10
180.2724251915
 20
77.5423097758
 10
180.2568683074
 20
77.5207826328
 10
180.2407171762
 20
77.4996401633
 10
180.2239837459
 20
77.4788998128
 10
180.2067060238
 20
77.4586161888
 10
180.188876961
 20
77.4387866844
 10
180.1705036064
 20
77.4194139065
 10
180.1516451141
 20
77.4005602829
 10
180.1323035413
 20
77.3822328688
 10
180.1124768308
 20
77.3644246091
 10
180.092217965
 20
77.3471767668
 10
180.0715438212
 20
77.3305023246
 10
180.050437522
 20
77.3143882998
 10
180.0289014184
 20
77.2988370067
 10
180.0069164124
 20
77.2838345458
 10
179.984501602
 20
77.2693948166
 10
179.9617166313
 20
77.2555618319
 10
179.9385557384
 20
77.2423368791
 10
179.9150246852
 20
77.229718671
 10
179.8912004018
 20
77.217747358
 10
179.8670911795
 20
77.2064303242
 10
179.8426887268
 20
77.1957601855
 10
179.8180451001
 20
77.1857549406
 10
179.7931733257
 20
77.1764187747
 10
179.7680603772
 20
77.1677475026
 10
179.7427192312
 20
77.1597465666
 10
179.7171298272
 20
77.1524102441
 10
179.6913122258
 20
77.1457442577
 10
179.6653395853
 20
77.1397712167
 10
179.6392065622
 20
77.1344944132
 10
179.6129185
 20
77.1299105552
 10
179.5865645883
 20
77.1260323758
 10
179.5601745569
 20
77.1228641194
 10
179.533718676
 20
77.1204015417
 10
179.5071969455
 20
77.1186446426
  0
LWPOLYLINE
  5
311
100
AcDbEntity
  8
RACCORDO
100
AcDbPolyline
 62
253
  6
CONTINUOUS
 90
52
 70
0
 10
178.8439163981
 20
79.0963027093
 10
178.8435551021
 20
79.071137504
 10
178.8425769468
 20
79.046306022
 10
178.840981932
 20
79.0218082632
 10
178.8387500247
 20
78.9976084535
 10
178.8359012579
 20
78.9737423671
 10
178.8324957305
 20
78.9503173262
 10
178.8285300685
 20
78.9273374036
 10
178.8240076457
 20
78.9047985264
 10
178.8189986837
 20
78.882795798
 10
178.8134993855
 20
78.8613336079
 10
178.8075135476
 20
78.8404075664
 10
178.8011227827
 20
78.820099608
 10
178.7943235665
 20
78.8004161908
 10
178.7871194228
 20
78.7813508566
 10
178.7796025362
 20
78.7629661651
 10
178.7717737252
 20
78.7452756039
 10
178.763632171
 20
78.7282656854
 10
178.7552676027
 20
78.7119585064
 10
178.7466839708
 20
78.6963661854
 10
178.7378773247
 20
78.6814766039
 10
178.7289255423
 20
78.6672755035
 10
178.719831056
 20
78.6537680061
 10
178.7105914332
 20
78.6409489897
 10
178.7012772553
 20
78.628788831
 10
178.6918919737
 20
78.6172921985
 10
178.6824321368
 20
78.6064544235
 10
178.6729579709
 20
78.5962318768
 10
178.6634759277
 20
78.5866296015
 10
178.6539795555
 20
78.5776425545
 10
178.6445097257
 20
78.5692119776
 10
178.6350681123
 20
78.5613368885
 10
178.6256530413
 20
78.5540182694
 10
178.6163003618
 20
78.5472003083
 10
178.6070093355
 20
78.5408814793
 10
178.5977807008
 20
78.5350633083
 10
178.588652522
 20
78.5296945608
 10
178.57962975
 20
78.5247770715
 10
178.5707074339
 20
78.5203090056
 10
178.5619087855
 20
78.516233624
 10
178.5532425667
 20
78.5125516947
 10
178.5447000156
 20
78.5092624495
 10
178.5362780581
 20
78.5063068449
 10
178.5279693154
 20
78.5036800732
 10
178.5197811663
 20
78.501386942
 10
178.5117326729
 20
78.4993828296
 10
178.5038623699
 20
78.4976695358
 10
178.4961317227
 20
78.4962452607
 10
178.4884441898
 20
78.4950599834
 10
178.4807675906
 20
78.4940970299
 10
178.4731341057
 20
78.4933730741
 10
178.4655437352
 20
78.492888116
  0
LINE
  5
312
100
AcDbEntity
  8
RACCORDO
100
AcDbLine
 62
253
  6
CONTINUOUS
 10
179.4448356593
 20
130.1746956272
 11
179.4449592484
 21
130.1833504087
  0
LINE
  5
313
100
AcDbEntity
  8
RACCORDO
100
AcDbLine
 62
253
  6
CONTINUOUS
 10
179.4446398927
 20
130.1650084832
 11
179.4448356593
 21
130.1746956272
  0
LINE
  5
314
100
AcDbEntity
  8
RACCORDO
100
AcDbLine
 62
253
  6
CONTINUOUS
 10
179.4442137444
 20
130.1486779494
 11
179.4446398927
 21
130.1650084832
  0
LINE
  5
315
100
AcDbEntity
  8
RACCORDO
100
AcDbLine
 62
253
  6
CONTINUOUS
 10
179.4436341576
 20
130.1303965347
 11
179.4442137444
 21
130.1486779494
  0
LINE
  5
316
100
AcDbEntity
  8
RACCORDO
100
AcDbLine
 62
253
  6
CONTINUOUS
 10
179.4426372551
 20
130.1034399941
 11
179.4436341576
 21
130.1303965347
  0
LINE
  5
317
100
AcDbEntity
  8
RACCORDO
100
AcDbLine
 62
253
  6
CONTINUOUS
 10
179.4414076884
 20
130.0741623141
 11
179.4426372551
 21
130.1034399941
  0
LINE
  5
318
100
AcDbEntity
  8
RACCORDO
100
AcDbLine
 62
253
  6
CONTINUOUS
 10
178.3517045802
 20
126.4416237165
 11
178.4579003749
 21
128.7674203878
  0
LINE
  5
319
100
AcDbEntity
  8
RACCORDO
100
AcDbLine
 62
253
  6
CONTINUOUS
 10
178.5498343436
 20
126.2840912846
 11
178.6393715876
 21
128.2934893032
  0
LINE
  5
31A
100
AcDbEntity
  8
RACCORDO
100
AcDbLine
 62
253
  6
CONTINUOUS
 10
179.4395914087
 20
130.0354330237
 11
179.4414076884
 21
130.0741623141
  0
LINE
  5
31B
100
AcDbEntity
  8
RACCORDO
100
AcDbLine
 62
253
  6
CONTINUOUS
 10
179.4383800226
 20
130.0116447775
 11
179.4395914087
 21
130.0354330237
  0
LINE
  5
31C
100
AcDbEntity
  8
RACCORDO
100
AcDbLine
 62
253
  6
CONTINUOUS
 10
178.548431791
 20
126.2573081441
 11
178.5498343436
 21
126.2840912846
  0
LINE
  5
31D
100
AcDbEntity
  8
RACCORDO
100
AcDbLine
 62
253
  6
CONTINUOUS
 10
178.4655437347
 20
128.8969038965
 11
178.4634973856
 21
128.8580217763
  0
LINE
  5
31E
100
AcDbEntity
  8
RACCORDO
100
AcDbLine
 62
253
  6
CONTINUOUS
 10
178.4634973856
 20
128.8580217763
 11
178.4613480154
 21
128.8206271709
  0
LINE
  5
31F
100
AcDbEntity
  8
RACCORDO
100
AcDbLine
 62
253
  6
CONTINUOUS
 10
178.5469489611
 20
126.2318947812
 11
178.548431791
 21
126.2573081441
  0
LINE
  5
320
100
AcDbEntity
  8
RACCORDO
100
AcDbLine
 62
253
  6
CONTINUOUS
 10
178.4613480154
 20
128.8206271709
 11
178.4596095492
 21
128.792747194
  0
LINE
  5
321
100
AcDbEntity
  8
RACCORDO
100
AcDbLine
 62
253
  6
CONTINUOUS
 10
178.5453930718
 20
126.2080180919
 11
178.5469489611
 21
126.2318947812
  0
LINE
  5
322
100
AcDbEntity
  8
RACCORDO
100
AcDbLine
 62
253
  6
CONTINUOUS
 10
178.3503693048
 20
126.4215500653
 11
178.3517045734
 21
126.4416236091
  0
LINE
  5
323
100
AcDbEntity
  8
RACCORDO
100
AcDbLine
 62
253
  6
CONTINUOUS
 10
178.4596095492
 20
128.792747194
 11
178.4579003748
 21
128.767420383
  0
LWPOLYLINE
  5
324
100
AcDbEntity
  8
RACCORDO
100
AcDbPolyline
 62
253
  6
CONTINUOUS
 90
58
 70
0
 10
132.4642557968
 20
130.2113354471
 10
132.43766383
 20
130.2095819296
 10
132.4111293432
 20
130.2071210312
 10
132.384671147
 20
130.2039545843
 10
132.358308191
 20
130.2000849643
 10
132.3320589597
 20
130.1955149703
 10
132.3059414691
 20
130.1902477677
 10
132.2799739307
 20
130.1842870546
 10
132.2541750545
 20
130.1776371524
 10
132.2285634454
 20
130.1703028721
 10
132.2031573749
 20
130.1622895154
 10
132.1779747097
 20
130.1536027886
 10
132.1530332222
 20
130.1442488473
 10
132.1283505385
 20
130.1342343567
 10
132.1039441798
 20
130.1235664823
 10
132.079831485
 20
130.1122528264
 10
132.056029535
 20
130.1003014646
 10
132.0325551713
 20
130.087720917
 10
132.0094250391
 20
130.0745201315
 10
131.9866555121
 20
130.060708516
 10
131.9642627007
 20
130.046295909
 10
131.9422624706
 20
130.0312925523
 10
131.920670411
 20
130.0157091438
 10
131.8995017714
 20
129.999556759
 10
131.8787714756
 20
129.9828468153
 10
131.8584941702
 20
129.9655911758
 10
131.8386842182
 20
129.947802124
 10
131.8193556397
 20
129.9294922791
 10
131.8005221237
 20
129.9106746699
 10
131.7821969673
 20
129.8913626478
 10
131.764393081
 20
129.8715698479
 10
131.7471230456
 20
129.8513103073
 10
131.7303990856
 20
129.8305984222
 10
131.7142330163
 20
129.8094488531
 10
131.6986362882
 20
129.7878766329
 10
131.6836199088
 20
129.7658970443
 10
131.6691944341
 20
129.7435255617
 10
131.6553700599
 20
129.7207780305
 10
131.642156577
 20
129.6976705999
 10
131.6295633081
 20
129.6742195896
 10
131.617599169
 20
129.6504416293
 10
131.6062726219
 20
129.6263535695
 10
131.5955916512
 20
129.6019724024
 10
131.5855638205
 20
129.5773154028
 10
131.5761962309
 20
129.5524000481
 10
131.567495492
 20
129.5272439211
 10
131.5594677848
 20
129.5018648883
 10
131.5521187835
 20
129.4762808905
 10
131.5454536448
 20
129.450509851
 10
131.5394770812
 20
129.4245698826
 10
131.5341933844
 20
129.3984795019
 10
131.5296063485
 20
129.3722574171
 10
131.5257192746
 20
129.3459225562
 10
131.5225348541
 20
129.3194932321
 10
131.5200552717
 20
129.2929873462
 10
131.5182823371
 20
129.2664233973
 10
131.5172174099
 20
129.239820478
 10
131.5168613161
 20
129.2131974368
  0
LWPOLYLINE
  5
325
100
AcDbEntity
  8
RACCORDO
100
AcDbPolyline
 62
253
  6
CONTINUOUS
 90
58
 70
0
 10
132.4698688756
 20
130.0116447775
 10
132.4485748659
 20
130.010243172
 10
132.4273535719
 20
130.008278972
 10
132.4062049936
 20
130.0057521774
 10
132.3851132805
 20
130.002660117
 10
132.3640942828
 20
129.9990054621
 10
132.3431955518
 20
129.9947962269
 10
132.322418258
 20
129.9900312756
 10
132.3017612305
 20
129.984711744
 10
132.2812685079
 20
129.9788490542
 10
132.2609405132
 20
129.9724420611
 10
132.2407768228
 20
129.9654919098
 10
132.220820206
 20
129.9580134572
 10
132.2010710812
 20
129.9500055758
 10
132.1815290293
 20
129.9414693932
 10
132.1622355633
 20
129.9324231488
 10
132.143191221
 20
129.9228657606
 10
132.1243954639
 20
129.9127983106
 10
132.1058881899
 20
129.9022422849
 10
132.0876700177
 20
129.891196648
 10
132.0697403279
 20
129.8796624352
 10
132.0521371612
 20
129.867664239
 10
132.0348612234
 20
129.8552010838
 10
132.0179118079
 20
129.8422739451
 10
132.0013248365
 20
129.8289103415
 10
131.9851010694
 20
129.8151093391
 10
131.9692397456
 20
129.8008718718
 10
131.9537745045
 20
129.7862282604
 10
131.9387062082
 20
129.7711776664
 10
131.9240339936
 20
129.7557209282
 10
131.909788913
 20
129.739890882
 10
131.8959718622
 20
129.7236867299
 10
131.8825819444
 20
129.7071092698
 10
131.8696475225
 20
129.6901937324
 10
131.857169575
 20
129.6729394257
 10
131.8451471225
 20
129.6553470417
 10
131.8336055914
 20
129.6374538863
 10
131.8225459882
 20
129.6192593123
 10
131.8119673055
 20
129.6007639669
 10
131.8018919484
 20
129.5820070981
 10
131.792320983
 20
129.5629881585
 10
131.7832533423
 20
129.5437076955
 10
131.7747082325
 20
129.5242065988
 10
131.7666867584
 20
129.5044844034
 10
131.7591878145
 20
129.4845415743
 10
131.7522272915
 20
129.4644203969
 10
131.7458063269
 20
129.4441205191
 10
131.7399237825
 20
129.4236422929
 10
131.7345921357
 20
129.4030290607
 10
131.7298125453
 20
129.3822804688
 10
131.7255838519
 20
129.3613968708
 10
131.721915055
 20
129.340422669
 10
131.7188073357
 20
129.3193565956
 10
131.7162595125
 20
129.2981999183
 10
131.7142770411
 20
129.2770008432
 10
131.71286174
 20
129.2557754389
 10
131.7120117904
 20
129.2345076368
 10
131.7117271925
 20
129.2131974368
  0
LWPOLYLINE
  5
326
100
AcDbEntity
  8
RACCORDO
100
AcDbPolyline
 62
253
  6
CONTINUOUS
 90
25
 70
0
 10
133.4503485234
 20
128.7674203878
 10
135.3254667792
 20
128.8589721817
 10
137.2003743658
 20
128.9426037195
 10
139.0750819331
 20
129.0182814857
 10
140.949256082
 20
129.0859381471
 10
142.8231542567
 20
129.1455855369
 10
144.6976357909
 20
129.1973079882
 10
146.5730924301
 20
129.241105033
 10
148.44908381
 20
129.276929264
 10
150.3252196228
 20
129.3047988328
 10
152.2013884289
 20
129.3247127703
 10
154.0776750547
 20
129.3366559186
 10
155.9539783506
 20
129.3406352431
 10
157.8302847298
 20
129.3366573113
 10
159.7065795968
 20
129.324715359
 10
161.5827602843
 20
129.3048024036
 10
163.4589024986
 20
129.2769337568
 10
165.3348993651
 20
129.2411102361
 10
167.2103638319
 20
129.1973139216
 10
169.0848366296
 20
129.1455928548
 10
170.9587131755
 20
129.0859474088
 10
172.8328854307
 20
129.0182920899
 10
174.7076312724
 20
128.9426138631
 10
176.5826343989
 20
128.8589788767
 10
178.4579003749
 20
128.7674203878
  0
LWPOLYLINE
  5
327
100
AcDbEntity
  8
RACCORDO
100
AcDbPolyline
 62
253
  6
CONTINUOUS
 90
25
 70
0
 10
133.4427051631
 20
128.8969038965
 10
135.3185495956
 20
128.9873805506
 10
137.1941510583
 20
129.0699967342
 10
139.0695021972
 20
129.144752447
 10
140.9443190801
 20
129.211645596
 10
142.8188709374
 20
129.2706782743
 10
144.6939802429
 20
129.3218567618
 10
146.5700502423
 20
129.3651919779
 10
148.4466631565
 20
129.4006730032
 10
150.3234099557
 20
129.4282733592
 10
152.20018341
 20
129.4479861306
 10
154.0770761049
 20
129.4598182328
 10
155.9539787065
 20
129.4637639329
 10
157.8308857394
 20
129.4598194545
 10
159.7077880267
 20
129.4479885741
 10
161.584570683
 20
129.4282768883
 10
163.4613262383
 20
129.400677306
 10
165.3379475178
 20
129.3651969183
 10
167.214020106
 20
129.3218625948
 10
169.0891109056
 20
129.2706860272
 10
170.9636384822
 20
129.2116555238
 10
172.8384658781
 20
129.1447628795
 10
174.713875842
 20
129.0700053594
 10
176.5895709141
 20
128.9873856984
 10
178.4655437352
 20
128.8969038965
  0
LWPOLYLINE
  5
328
100
AcDbEntity
  8
RACCORDO
100
AcDbPolyline
 62
253
  6
CONTINUOUS
 90
37
 70
0
 10
133.5565443205
 20
126.4416237308
 10
133.548054754
 20
126.4412798255
 10
133.5395810079
 20
126.4407029479
 10
133.5311383758
 20
126.439894139
 10
133.5227420949
 20
126.4388548587
 10
133.5144073191
 20
126.4375869826
 10
133.5061490911
 20
126.4360927991
 10
133.4979823153
 20
126.4343750049
 10
133.4899217315
 20
126.4324367003
 10
133.4819818873
 20
126.4302813835
 10
133.4741771129
 20
126.4279129445
 10
133.4665214942
 20
126.4253356579
 10
133.4590288484
 20
126.4225541752
 10
133.4517126982
 20
126.4195735165
 10
133.444586248
 20
126.4163990613
 10
133.4376623597
 20
126.413036539
 10
133.4309535295
 20
126.4094920181
 10
133.4244718658
 20
126.4057718961
 10
133.4182290667
 20
126.4018828869
 10
133.4122363992
 20
126.3978320096
 10
133.4065046792
 20
126.3936265752
 10
133.4010442512
 20
126.3892741737
 10
133.3958649703
 20
126.3847826605
 10
133.3909761841
 20
126.3801601418
 10
133.3863867161
 20
126.3754149605
 10
133.3821048494
 20
126.3705556807
 10
133.3781383118
 20
126.3655910725
 10
133.3744942624
 20
126.3605300962
 10
133.3711792778
 20
126.3553818859
 10
133.3681993412
 20
126.3501557331
 10
133.3655598306
 20
126.34486107
 10
133.36326551
 20
126.3395074526
 10
133.3613205201
 20
126.3341045432
 10
133.3597283713
 20
126.3286620929
 10
133.3584919372
 20
126.3231899245
 10
133.3576134492
 20
126.3176979141
 10
133.3570944929
 20
126.3121959738
  0
LWPOLYLINE
  5
329
100
AcDbEntity
  8
RACCORDO
100
AcDbPolyline
 62
253
  6
CONTINUOUS
 90
40
 70
0
 10
133.5828710126
 20
126.2658753321
 10
133.5748428447
 20
126.265691928
 10
133.5668276551
 20
126.2651859929
 10
133.5588383991
 20
126.2643583446
 10
133.5508879909
 20
126.2632103214
 10
133.5429892804
 20
126.261743779
 10
133.5351550327
 20
126.2599610876
 10
133.5273979101
 20
126.2578651284
 10
133.5197304514
 20
126.2554592895
 10
133.5121650498
 20
126.2527474594
 10
133.5047139338
 20
126.2497340215
 10
133.497389147
 20
126.2464238464
 10
133.4902025288
 20
126.2428222845
 10
133.4831656952
 20
126.2389351572
 10
133.4762900203
 20
126.2347687476
 10
133.4695866176
 20
126.2303297898
 10
133.4630663221
 20
126.2256254588
 10
133.4567396729
 20
126.2206633585
 10
133.4506168961
 20
126.2154515092
 10
133.4447078882
 20
126.2099983352
 10
133.4390222004
 20
126.2043126507
 10
133.4335690227
 20
126.1984036457
 10
133.4283571694
 20
126.1922808712
 10
133.4233950646
 20
126.1859542237
 10
133.418690729
 20
126.1794339294
 10
133.4142517663
 20
126.1727305272
 10
133.4100853515
 20
126.1658548522
 10
133.4061982191
 20
126.158818018
 10
133.402596652
 20
126.1516313984
 10
133.3992864717
 20
126.1443066096
 10
133.3962730286
 20
126.1368554909
 10
133.3935611935
 20
126.1292900861
 10
133.3911553498
 20
126.1216226234
 10
133.3890593862
 20
126.1138654962
 10
133.3872766905
 20
126.1060312427
 10
133.3858101442
 20
126.0981325258
 10
133.3846621179
 20
126.0901821126
 10
133.3838344671
 20
126.0821928538
 10
133.3833285297
 20
126.0741776628
 10
133.3831451235
 20
126.0661494951
  0
LINE
  5
32A
100
AcDbEntity
  8
RACCORDO
100
AcDbLine
 62
7
  6
CONTINUOUS
 10
133.6538503559
 20
126.1948960062
 11
178.2543985424
 21
126.1948960062
  0
LINE
  5
32B
100
AcDbEntity
  8
RACCORDO
100
AcDbLine
 62
253
  6
CONTINUOUS
 10
178.3253778819
 20
126.2658753305
 11
163.7531775008
 21
126.2650361564
  0
LINE
  5
32C
100
AcDbEntity
  8
RACCORDO
100
AcDbLine
 62
253
  6
CONTINUOUS
 10
163.7531775008
 20
126.2650361564
 11
153.3167998349
 21
126.2649429057
  0
LINE
  5
32D
100
AcDbEntity
  8
RACCORDO
100
AcDbLine
 62
253
  6
CONTINUOUS
 10
178.8439163981
 20
128.2934893032
 11
178.6393715876
 21
128.2934893032
  0
LINE
  5
32E
100
AcDbEntity
  8
RACCORDO
100
AcDbLine
 62
253
  6
CONTINUOUS
 10
133.0643325002
 20
128.2934893032
 11
133.2688773107
 21
128.2934893032
  0
LINE
  5
32F
100
AcDbEntity
  8
RACCORDO
100
AcDbLine
 62
253
  6
CONTINUOUS
 10
131.7117271925
 20
129.2131974368
 11
131.5168613161
 21
129.2131974368
  0
LINE
  5
330
100
AcDbEntity
  8
RACCORDO
100
AcDbLine
 62
253
  6
CONTINUOUS
 10
180.1965217057
 20
129.2131974368
 11
180.3913875822
 21
129.2131974368
  0
LINE
  5
331
100
AcDbEntity
  8
RACCORDO
100
AcDbLine
 62
253
  6
CONTINUOUS
 10
131.3541244491
 20
129.3724163025
 11
131.2515241754
 21
129.3724163025
  0
LINE
  5
332
100
AcDbEntity
  8
RACCORDO
100
AcDbLine
 62
253
  6
CONTINUOUS
 10
180.5541244491
 20
129.3724163025
 11
180.6567247169
 21
129.3724163031
  0
LINE
  5
333
100
AcDbEntity
  8
RACCORDO
100
AcDbLine
 62
253
  6
CONTINUOUS
 10
153.3167998349
 20
126.2649429057
 11
133.5828710126
 21
126.2658753321
  0
LWPOLYLINE
  5
334
100
AcDbEntity
  8
RACCORDO
100
AcDbPolyline
 62
253
  6
CONTINUOUS
 90
10
 70
0
 10
178.3517045802
 20
126.4416237165
 10
173.6029298389
 20
126.4482394304
 10
168.7398983414
 20
126.452384859
 10
163.7626566001
 20
126.4548482804
 10
158.5951807258
 20
126.4561279501
 10
153.3135672148
 20
126.4561278914
 10
148.1460494588
 20
126.4548484793
 10
143.1687153351
 20
126.4523856276
 10
138.3055257398
 20
126.4482399988
 10
133.5565443205
 20
126.4416237309
  0
LWPOLYLINE
  5
335
100
AcDbEntity
  8
RACCORDO
100
AcDbPolyline
 62
253
  6
CONTINUOUS
 90
10
 70
0
 10
179.5201329032
 20
130.5707335459
 10
174.2854998128
 20
130.8173121842
 10
169.0495517429
 20
131.0022461469
 10
163.8124475814
 20
131.1255354338
 10
158.5738404633
 20
131.1871800236
 10
153.3343954758
 20
131.1871799376
 10
148.0957896539
 20
131.1255352405
 10
142.8586880848
 20
131.0022459535
 10
137.6227439027
 20
130.8173120554
 10
132.3881159951
 20
130.5707335459
  0
LWPOLYLINE
  5
336
100
AcDbEntity
  8
RACCORDO
100
AcDbPolyline
 62
253
  6
CONTINUOUS
 90
28
 70
0
 10
179.4383800226
 20
130.0116447775
 10
177.6997548683
 20
130.0994065439
 10
175.9609352097
 20
130.1804164398
 10
174.2219268604
 20
130.254674465
 10
172.4827289542
 20
130.322180203
 10
170.7433539917
 20
130.3829340704
 10
169.0038278417
 20
130.4369373171
 10
167.2641473527
 20
130.4841903351
 10
165.5243273291
 20
130.5246927323
 10
163.7844205823
 20
130.5584445821
 10
162.0444344071
 20
130.5854458133
 10
160.3043731778
 20
130.605696497
 10
158.5642853314
 20
130.6191969205
 10
156.8241828896
 20
130.6259471797
 10
155.0840655066
 20
130.6259471787
 10
153.3439630699
 20
130.6191969176
 10
151.6038752302
 20
130.6056964922
 10
149.8638140127
 20
130.5854458066
 10
148.1238278651
 20
130.5584445743
 10
146.3839211935
 20
130.5246927249
 10
144.6441012609
 20
130.4841903287
 10
142.9044207949
 20
130.4369373094
 10
141.1648945085
 20
130.3829340558
 10
139.4255193414
 20
130.3221801791
 10
137.6863213536
 20
130.2546744372
 10
135.9473131094
 20
130.1804164159
 10
134.208493679
 20
130.0994065294
 10
132.4698688756
 20
130.0116447775
  0
LWPOLYLINE
  5
337
100
AcDbEntity
  8
RACCORDO
100
AcDbPolyline
 62
253
  6
CONTINUOUS
 90
28
 70
0
 10
179.4439931015
 20
130.2113354471
 10
177.7049846791
 20
130.2991370095
 10
175.9657417049
 20
130.3801837127
 10
174.2262902118
 20
130.4544754277
 10
172.4866698748
 20
130.5220116036
 10
170.746893076
 20
130.5827929391
 10
169.0069448847
 20
130.636820848
 10
167.2668421491
 20
130.684095354
 10
165.5266200188
 20
130.7246160374
 10
163.7862909904
 20
130.7583831573
 10
162.0458825018
 20
130.7853966277
 10
160.3054190974
 20
130.8056564996
 10
158.5649089251
 20
130.8191630186
 10
156.8243841495
 20
130.8259161931
 10
155.0838645746
 20
130.8259161927
 10
153.3433398038
 20
130.8191630176
 10
151.6028296376
 20
130.805656498
 10
149.8623662441
 20
130.7853966256
 10
148.1219577823
 20
130.7583831551
 10
146.3816288284
 20
130.7246160363
 10
144.6414067884
 20
130.684095355
 10
142.9013040752
 20
130.6368208498
 10
141.1613557582
 20
130.5827929369
 10
139.4215787659
 20
130.5220115941
 10
137.681958323
 20
130.4544754129
 10
135.9425068635
 20
130.3801836979
 10
134.2032640105
 20
130.2991369994
 10
132.4642557968
 20
130.2113354471
  0
LWPOLYLINE
  5
338
100
AcDbEntity
  8
RACCORDO
100
AcDbPolyline
 62
253
  6
CONTINUOUS
 90
52
 70
0
 10
178.4655437352
 20
128.8969038965
 10
178.4732840537
 20
128.8963985757
 10
178.4810105604
 20
128.8956617268
 10
178.4887232554
 20
128.8946933497
 10
178.4963592236
 20
128.8935148806
 10
178.5039813801
 20
128.8921048833
 10
178.5117784702
 20
128.8903990499
 10
178.5198295121
 20
128.888390145
 10
178.5280554873
 20
128.8860854041
 10
178.5364080859
 20
128.8834422253
 10
178.5448732972
 20
128.8804651869
 10
178.5534651318
 20
128.8771497106
 10
178.5621773121
 20
128.8734394596
 10
178.5710173546
 20
128.8693330341
 10
178.5799777427
 20
128.8648318339
 10
178.5890296493
 20
128.8598837211
 10
178.5981744371
 20
128.8544887368
 10
178.6074107433
 20
128.8486468399
 10
178.6167056528
 20
128.8423057696
 10
178.6260579496
 20
128.8354684787
 10
178.6354688496
 20
128.8281320144
 10
178.6449090849
 20
128.8202352568
 10
178.6543847368
 20
128.8117753563
 10
178.663889724
 20
128.8027551625
 10
178.6733765353
 20
128.7931221039
 10
178.6828498314
 20
128.7828718454
 10
178.6923049515
 20
128.7720087222
 10
178.7016804022
 20
128.7604931682
 10
178.7109779123
 20
128.7483228095
 10
178.7201957531
 20
128.7355000201
 10
178.7292672441
 20
128.7219923559
 10
178.7381962276
 20
128.7077927829
 10
178.7469788615
 20
128.692908335
 10
178.7555369391
 20
128.6773276697
 10
178.7638742108
 20
128.661038306
 10
178.7719869266
 20
128.6440527248
 10
178.7797856294
 20
128.6263970269
 10
178.7872698666
 20
128.6080613342
 10
178.7944400913
 20
128.5890555248
 10
178.8012082054
 20
128.5694353333
 10
178.807571393
 20
128.5491950678
 10
178.8135324706
 20
128.5283404201
 10
178.819011789
 20
128.5069442011
 10
178.8240065217
 20
128.4850014949
 10
178.8285194957
 20
128.4625172173
 10
178.8324795426
 20
128.4395789259
 10
178.8358840372
 20
128.4161824991
 10
178.8387356051
 20
128.3923320585
 10
178.8409709542
 20
128.3681275263
 10
178.8425689873
 20
128.3436022101
 10
178.843550802
 20
128.3187228024
 10
178.8439163981
 20
128.2934893032
  0
LWPOLYLINE
  5
339
100
AcDbEntity
  8
RACCORDO
100
AcDbPolyline
 62
7
  6
CONTINUOUS
 90
58
 70
0
 10
179.5071969455
 20
130.2711473699
 10
179.5337193399
 20
130.2693904356
 10
179.5601760081
 20
130.2669277528
 10
179.5865669502
 20
130.2637593215
 10
179.612921843
 20
130.2598809244
 10
179.6392110097
 20
130.2552967787
 10
179.6653454197
 20
130.2500195359
 10
179.6913201053
 20
130.2440457775
 10
179.7171400343
 20
130.237378922
 10
179.7427310795
 20
130.2300418766
 10
179.7680727376
 20
130.2220404602
 10
179.793185512
 20
130.2133688539
 10
179.8180567858
 20
130.2040325082
 10
179.8426995013
 20
130.1940273274
 10
179.8671007163
 20
130.1833574071
 10
179.8912089869
 20
130.1720404841
 10
179.9150327865
 20
130.1600691323
 10
179.9385636416
 20
130.1474507778
 10
179.9617246877
 20
130.1342254358
 10
179.9845104284
 20
130.1203916162
 10
180.0069263601
 20
130.1059508092
 10
180.028912107
 20
130.0909474999
 10
180.0504482669
 20
130.0753957564
 10
180.071554242
 20
130.0592815107
 10
180.0922278638
 20
130.0426070439
 10
180.1124859305
 20
130.0253594888
 10
180.1323116438
 20
130.0075517127
 10
180.1516524413
 20
129.9892245983
 10
180.1705105383
 20
129.9703709781
 10
180.1888837194
 20
129.9509980196
 10
180.2067127761
 20
129.9311681078
 10
180.2239907593
 20
129.9108836895
 10
180.2407246181
 20
129.8901423179
 10
180.2568759909
 20
129.8689990377
 10
180.2724328177
 20
129.8474713812
 10
180.2874071585
 20
129.8255418162
 10
180.301796831
 20
129.80321279
 10
180.3156147218
 20
129.7804644609
 10
180.3288479442
 20
129.7573166706
 10
180.3414556565
 20
129.7338313917
 10
180.3534362476
 20
129.7100029686
 10
180.3647913284
 20
129.685837057
 10
180.3754848906
 20
129.6614125968
 10
180.3855099957
 20
129.6367382782
 10
180.3948735821
 20
129.611805411
 10
180.4035604562
 20
129.5866668647
 10
180.4115671368
 20
129.56133586
 10
180.4188971052
 20
129.5357991762
 10
180.425545611
 20
129.5100700197
 10
180.431517315
 20
129.4841280066
 10
180.4368075564
 20
129.4579935207
 10
180.4413976031
 20
129.4317409206
 10
180.4452838734
 20
129.405365085
 10
180.448469949
 20
129.3788711351
 10
180.450947843
 20
129.3523487937
 10
180.4527148933
 20
129.3258279685
 10
180.453773762
 20
129.2992787518
 10
180.4541244491
 20
129.2727011435
  0
LWPOLYLINE
  5
33A
100
AcDbEntity
  8
RACCORDO
100
AcDbPolyline
 62
253
  6
CONTINUOUS
 90
52
 70
0
 10
178.4579003749
 20
128.7674203878
 10
178.4617629921
 20
128.7670761256
 10
178.4656186013
 20
128.7665488542
 10
178.4694657454
 20
128.7658385949
 10
178.4732698447
 20
128.7649598082
 10
178.477062692
 20
128.7638989695
 10
178.4809417916
 20
128.7626103796
 10
178.4849432208
 20
128.7610824054
 10
178.4890258497
 20
128.7593181104
 10
178.4931705359
 20
128.7572906059
 10
178.4973666511
 20
128.7550004059
 10
178.5016187466
 20
128.7524406701
 10
178.5059300981
 20
128.7495737293
 10
178.5102995293
 20
128.7463946562
 10
178.5147200915
 20
128.7429010415
 10
178.5191858046
 20
128.7390586544
 10
178.523691447
 20
128.7348640617
 10
178.5282321716
 20
128.7303135995
 10
178.5328020159
 20
128.7253727081
 10
178.5373931259
 20
128.7200402598
 10
178.5420011032
 20
128.7143106003
 10
178.5466243145
 20
128.7081421056
 10
178.5512567937
 20
128.7015290817
 10
178.5558891987
 20
128.694470233
 10
178.5605138156
 20
128.6869302668
 10
178.5651226223
 20
128.6789030755
 10
178.5697054082
 20
128.6703884979
 10
178.5742504328
 20
128.6613603799
 10
178.5787469461
 20
128.6518151026
 10
178.583184836
 20
128.6417514736
 10
178.5875526373
 20
128.6311473728
 10
178.5918392736
 20
128.6199965267
 10
178.596032047
 20
128.6083020061
 10
178.6001165113
 20
128.5960562646
 10
178.6040810216
 20
128.5832503287
 10
178.6079111624
 20
128.5698923144
 10
178.6115886682
 20
128.5560013732
 10
178.61510046
 20
128.5415725243
 10
178.6184331576
 20
128.5266132132
 10
178.6215693789
 20
128.5111626337
 10
178.6244957532
 20
128.4952208218
 10
178.6272001181
 20
128.4787937217
 10
178.6296684788
 20
128.4619306744
 10
178.6318882033
 20
128.4446337317
 10
178.6338477162
 20
128.4269100603
 10
178.6355359318
 20
128.4088176977
 10
178.6369410536
 20
128.3903615741
 10
178.6380523898
 20
128.3715489994
 10
178.6388613484
 20
128.3524423898
 10
178.6393580856
 20
128.3330675769
 10
178.6395314864
 20
128.3134137997
 10
178.6393715876
 20
128.2934893032
  0
LWPOLYLINE
  5
33B
100
AcDbEntity
  8
RACCORDO
100
AcDbPolyline
 62
253
  6
CONTINUOUS
 90
3
 70
0
 10
180.6321498062
 20
77.7758770528
 10
180.6502854611
 20
77.8949380071
 10
180.6567247228
 20
78.01737571
  0
LWPOLYLINE
  5
33C
100
AcDbEntity
  8
RACCORDO
100
AcDbPolyline
 62
253
  6
CONTINUOUS
 90
12
 70
0
 10
179.7605207749
 20
76.8565396901
 10
179.874616207
 20
76.8925309599
 10
179.985800445
 20
76.9406370044
 10
180.0929190887
 20
77.0002434876
 10
180.1925089068
 20
77.0695074017
 10
180.2842563371
 20
77.1487039689
 10
180.3684750578
 20
77.2375579669
 10
180.4426427391
 20
77.3334007213
 10
180.5064671838
 20
77.4365466762
 10
180.5602407024
 20
77.5466813874
 10
180.6023177406
 20
77.6601928471
 10
180.6321498062
 20
77.7758770528
  0
LINE
  5
33D
100
AcDbEntity
  8
RACCORDO
100
AcDbLine
 62
253
  6
CONTINUOUS
 10
132.2658892126
 20
130.5577431535
 11
132.1477281233
 21
130.5332523224
  0
LINE
  5
33E
100
AcDbEntity
  8
RACCORDO
100
AcDbLine
 62
253
  6
CONTINUOUS
 10
132.3881159951
 20
130.5707335459
 11
132.2658892126
 21
130.5577431535
  0
LWPOLYLINE
  5
33F
100
AcDbEntity
  8
RACCORDO
100
AcDbPolyline
 62
253
  6
CONTINUOUS
 90
3
 70
0
 10
179.7601413768
 20
130.5333749803
 10
179.6421391695
 20
130.5578070181
 10
179.5201329032
 20
130.5707335459
  0
LWPOLYLINE
  5
340
100
AcDbEntity
  8
RACCORDO
100
AcDbPolyline
 62
253
  6
CONTINUOUS
 90
12
 70
0
 10
180.6320574779
 20
129.6142673082
 10
180.6021784657
 20
129.7300469393
 10
180.5600527252
 20
129.8435845371
 10
180.5062299824
 20
129.9536915538
 10
180.4423594939
 20
130.0568023458
 10
180.3681498616
 20
130.1526164265
 10
180.2838923702
 20
130.2414342826
 10
180.1921103132
 20
130.3205917296
 10
180.0924711707
 20
130.3898157399
 10
179.9853073467
 20
130.4493793412
 10
179.8741395608
 20
130.4974374325
 10
179.7601413768
 20
130.5333749803
  0
LINE
  5
341
100
AcDbEntity
  8
RACCORDO
100
AcDbLine
 62
253
  6
CONTINUOUS
 10
180.6502395578
 20
129.4950570959
 11
180.6320574779
 21
129.6142673082
  0
LWPOLYLINE
  5
342
100
AcDbEntity
  8
RACCORDO
100
AcDbPolyline
 62
253
  6
CONTINUOUS
 90
25
 70
0
 10
97.9235820584
 20
145.6948960062
 10
97.8439365739
 20
145.6940820234
 10
97.7607277447
 20
145.6871169538
 10
97.6739556289
 20
145.6740007974
 10
97.582500331
 20
145.6551626757
 10
97.4874818846
 20
145.6301734672
 10
97.3922601833
 20
145.5977458075
 10
97.2968015683
 20
145.5573297116
 10
97.2011397084
 20
145.5094751645
 10
97.1087353631
 20
145.4545447564
 10
97.0198614778
 20
145.3920382291
 10
96.9342449897
 20
145.3224558408
 10
96.8545275403
 20
145.2476609569
 10
96.7811772827
 20
145.1674043841
 10
96.7137258821
 20
145.0819353156
 10
96.6534101973
 20
144.9938646975
 10
96.6006436331
 20
144.9029896469
 10
96.5550126224
 20
144.8095130466
 10
96.5165135651
 20
144.7166544906
 10
96.485607773
 20
144.62489552
 10
96.4618338341
 20
144.5337545937
 10
96.4438040843
 20
144.4450066821
 10
96.4310559602
 20
144.3592434421
 10
96.4240519911
 20
144.2758732168
 10
96.422792169
 20
144.1948960062
  0
LINE
  5
343
100
AcDbEntity
  8
RACCORDO
100
AcDbLine
 62
253
  6
CONTINUOUS
 10
96.422792169
 20
144.1948960062
 11
95.9541244491
 21
144.1948960062
  0
LINE
  5
344
100
AcDbEntity
  8
RACCORDO
100
AcDbLine
 62
253
  6
CONTINUOUS
 10
215.4854567293
 20
144.1948960062
 11
215.9541244491
 21
144.1948960062
  0
LINE
  5
345
100
AcDbEntity
  8
RACCORDO
100
AcDbLine
 62
253
  6
CONTINUOUS
 10
213.9846668399
 20
145.6948960062
 11
97.9235820584
 21
145.6948960062
  0
LINE
  5
346
100
AcDbEntity
  8
RACCORDO
100
AcDbLine
 62
7
  6
CONTINUOUS
 10
213.9541244491
 20
146.1948960062
 11
97.9541244491
 21
146.1948960062
  0
LWPOLYLINE
  5
347
100
AcDbEntity
  8
RACCORDO
100
AcDbPolyline
 62
253
  6
CONTINUOUS
 90
25
 70
0
 10
215.4854567293
 20
144.1948960062
 10
215.484154824
 20
144.2762301086
 10
215.4771053294
 20
144.3598690773
 10
215.4643082375
 20
144.4458129123
 10
215.4462171653
 20
144.534639287
 10
215.4223784615
 20
144.625770528
 10
215.3914311984
 20
144.7174736151
 10
215.352918473
 20
144.8102332431
 10
215.3072970885
 20
144.9035647172
 10
215.2545766547
 20
144.994280933
 10
215.1943520218
 20
145.0821784516
 10
215.1270281785
 20
145.1674607119
 10
215.0538299434
 20
145.2475509261
 10
214.9742979141
 20
145.3222049685
 10
214.8888913126
 20
145.3916669648
 10
214.8002129447
 20
145.4540925041
 10
214.7079932565
 20
145.5089915167
 10
214.6125016841
 20
145.5568540724
 10
214.5171496224
 20
145.5973059691
 10
214.4219677286
 20
145.6298057729
 10
214.326925353
 20
145.6548949179
 10
214.2353420542
 20
145.6738235037
 10
214.1483244192
 20
145.6870082304
 10
214.0647659955
 20
145.6940323979
 10
213.9846668399
 20
145.6948960062
  0
LWPOLYLINE
  5
348
100
AcDbEntity
  8
RACCORDO
100
AcDbPolyline
 62
253
  6
CONTINUOUS
 90
13
 70
0
 10
213.9846668399
 20
145.6948960062
 10
213.9844055454
 20
145.7601591067
 10
213.983626133
 20
145.8243055367
 10
213.9823419385
 20
145.886237733
 10
213.980574935
 20
145.9448960186
 10
213.9783553562
 20
145.9992767339
 10
213.97572118
 20
146.0484494095
 10
213.9727174777
 20
146.0915726874
 10
213.9693956436
 20
146.1279087167
 10
213.9658125152
 20
146.1568357782
 10
213.9620294009
 20
146.1778589223
 10
213.9581110307
 20
146.1906184378
 10
213.9541244491
 20
146.1948960062
  0
LINE
  5
349
100
AcDbEntity
  8
RACCORDO
100
AcDbLine
 62
253
  6
CONTINUOUS
 10
215.4854567293
 20
63.1948960062
 11
215.4854567293
 21
144.1948960062
  0
LINE
  5
34A
100
AcDbEntity
  8
RACCORDO
100
AcDbLine
 62
7
  6
CONTINUOUS
 10
215.9541244491
 20
63.1948960062
 11
215.9541244491
 21
144.1948960062
  0
LWPOLYLINE
  5
34B
100
AcDbEntity
  8
RACCORDO
100
AcDbPolyline
 62
253
  6
CONTINUOUS
 90
13
 70
0
 10
213.9846668399
 20
61.6948960062
 10
213.9844055467
 20
61.6296329889
 10
213.9836261365
 20
61.5654866215
 10
213.9823419448
 20
61.5035544652
 10
213.9805749439
 20
61.4448961962
 10
213.9783553675
 20
61.3905154765
 10
213.9757211928
 20
61.3413427804
 10
213.9727174911
 20
61.2982194693
 10
213.9693956564
 20
61.2618834
 10
213.9658125263
 20
61.2329562994
 10
213.9620294092
 20
61.2119331221
 10
213.9581110353
 20
61.1991735834
 10
213.9541244491
 20
61.1948960062
  0
LINE
  5
34C
100
AcDbEntity
  8
RACCORDO
100
AcDbLine
 62
7
  6
CONTINUOUS
 10
65.9556550615
 20
61.1948960062
 11
72.6372286088
 21
61.1948960062
  0
LINE
  5
34D
100
AcDbEntity
  8
RACCORDO
100
AcDbLine
 62
253
  6
CONTINUOUS
 10
65.4556550615
 20
61.6948960062
 11
67.2297030069
 21
61.6948960062
  0
LINE
  5
34E
100
AcDbEntity
  8
RACCORDO
100
AcDbLine
 62
253
  6
CONTINUOUS
 10
67.3227421865
 20
63.1948960062
 11
72.7623404844
 21
63.1948960062
  0
LINE
  5
34F
100
AcDbEntity
  8
DRAFT
100
AcDbLine
 62
253
  6
CONTINUOUS
 10
72.7623404844
 20
63.1948960062
 11
75.3556550615
 21
63.1948960062
  0
LINE
  5
350
100
AcDbEntity
  8
DRAFT
100
AcDbLine
 62
7
  6
CONTINUOUS
 10
74.8556550615
 20
62.1948960062
 11
72.748947412
 21
62.3053038758
  0
LINE
  5
351
100
AcDbEntity
  8
DRAFT
100
AcDbLine
 62
7
  6
CONTINUOUS
 10
65.617147129
 20
76.5618974114
 11
65.5557495894
 21
76.5629691095
  0
LINE
  5
352
100
AcDbEntity
  8
RACCORDO
100
AcDbLine
 62
253
  6
CONTINUOUS
 10
65.7768431665
 20
78.01737571
 11
65.7768769793
 21
78.01737571
  0
LINE
  5
353
100
AcDbEntity
  8
RACCORDO
100
AcDbLine
 62
253
  6
CONTINUOUS
 10
65.6650179721
 20
78.1765945757
 11
65.7768431665
 21
78.1765945757
  0
LINE
  5
354
100
AcDbEntity
  8
RACCORDO
100
AcDbLine
 62
253
  6
CONTINUOUS
 10
65.6314543461
 20
79.0963027093
 11
65.6313962831
 21
79.0963027093
  0
LINE
  5
355
100
AcDbEntity
  8
RACCORDO
100
AcDbLine
 62
7
  6
CONTINUOUS
 10
65.624558328
 20
128.8689969671
 11
65.6246429438
 21
128.8677411529
  0
LWPOLYLINE
  5
356
100
AcDbEntity
  8
RACCORDO
100
AcDbPolyline
 62
253
  6
CONTINUOUS
 90
13
 70
0
 10
67.2297030069
 20
61.6948960062
 10
67.2339725779
 20
61.6296329889
 10
67.2467082416
 20
61.5654866215
 10
67.2676920939
 20
61.5035544652
 10
67.2965651023
 20
61.4448961962
 10
67.3328332475
 20
61.3905154765
 10
67.3758759749
 20
61.3413427804
 10
67.4249568161
 20
61.2982194693
 10
67.4792359869
 20
61.2618834
 10
67.5377847534
 20
61.2329562994
 10
67.5996013287
 20
61.2119331221
 10
67.6636280152
 20
61.1991735834
 10
67.7287692975
 20
61.1948960062
  0
LINE
  5
357
100
AcDbEntity
  8
RACCORDO
100
AcDbLine
 62
7
  6
CONTINUOUS
 10
65.6246429438
 20
128.8677411529
 11
65.6247419806
 21
128.8661569234
  0
LWPOLYLINE
  5
358
100
AcDbEntity
  8
RACCORDO
100
AcDbPolyline
 62
253
  6
CONTINUOUS
 90
3
 70
0
 10
65.7579587579
 20
130.4764767826
 10
65.756843397
 20
130.4974374325
 10
65.7563021014
 20
130.50113461
  0
LINE
  5
359
100
AcDbEntity
  8
RACCORDO
100
AcDbLine
 62
253
  6
CONTINUOUS
 10
65.6531416364
 20
129.9414722189
 11
65.6521589339
 21
129.9580157953
  0
LINE
  5
35A
100
AcDbEntity
  8
RACCORDO
100
AcDbLine
 62
7
  6
CONTINUOUS
 10
65.7579587579
 20
130.4764767826
 11
65.759084463
 21
130.4570728701
  0
LINE
  5
35B
100
AcDbEntity
  8
RACCORDO
100
AcDbLine
 62
7
  6
CONTINUOUS
 10
65.6247419806
 20
128.8661569234
 11
65.6249119935
 21
128.8631781293
  0
LWPOLYLINE
  5
35C
100
AcDbEntity
  8
RACCORDO
100
AcDbPolyline
 62
7
  6
CONTINUOUS
 90
3
 70
0
 10
65.759084463
 20
130.4570728701
 10
65.7602197548
 20
130.4352417652
 10
65.7607894898
 20
130.4234010176
  0
LINE
  5
35D
100
AcDbEntity
  8
RACCORDO
100
AcDbLine
 62
7
  6
CONTINUOUS
 10
65.6249119935
 20
128.8631781293
 11
65.625102203
 21
128.8594920868
  0
LINE
  5
35E
100
AcDbEntity
  8
RACCORDO
100
AcDbLine
 62
253
  6
CONTINUOUS
 10
65.6541020626
 20
129.9228691144
 11
65.6531416364
 21
129.9414722189
  0
LINE
  5
35F
100
AcDbEntity
  8
RACCORDO
100
AcDbLine
 62
253
  6
CONTINUOUS
 10
65.6247058208
 20
128.8734394596
 11
65.6251297214
 21
128.8648318339
  0
LWPOLYLINE
  5
360
100
AcDbEntity
  8
RACCORDO
100
AcDbPolyline
 62
253
  6
CONTINUOUS
 90
3
 70
0
 10
65.7602197548
 20
130.4352417652
 10
65.7596498848
 20
130.4493793412
 10
65.759084463
 20
130.4570728701
  0
LINE
  5
361
100
AcDbEntity
  8
RACCORDO
100
AcDbLine
 62
7
  6
CONTINUOUS
 10
65.625102203
 20
128.8594920868
 11
65.6253765913
 21
128.8535548677
  0
LINE
  5
362
100
AcDbEntity
  8
RACCORDO
100
AcDbLine
 62
253
  6
CONTINUOUS
 10
65.6550380528
 20
129.9022462076
 11
65.6541020626
 21
129.9228691144
  0
LINE
  5
363
100
AcDbEntity
  8
RACCORDO
100
AcDbLine
 62
253
  6
CONTINUOUS
 10
65.6251297214
 20
128.8648318339
 11
65.6255634038
 21
128.8544887368
  0
LINE
  5
364
100
AcDbEntity
  8
RACCORDO
100
AcDbLine
 62
7
  6
CONTINUOUS
 10
65.7607894898
 20
130.4234010176
 11
65.763067817
 21
130.369734399
  0
LINE
  5
365
100
AcDbEntity
  8
RACCORDO
100
AcDbLine
 62
7
  6
CONTINUOUS
 10
65.6253765913
 20
128.8535548677
 11
65.6256665605
 21
128.8464932598
  0
LINE
  5
366
100
AcDbEntity
  8
RACCORDO
100
AcDbLine
 62
253
  6
CONTINUOUS
 10
65.655946457
 20
129.8796669721
 11
65.6550380528
 21
129.9022462076
  0
LINE
  5
367
100
AcDbEntity
  8
RACCORDO
100
AcDbLine
 62
253
  6
CONTINUOUS
 10
65.763067817
 20
130.369734399
 11
65.7623676168
 21
130.3898157399
  0
LINE
  5
368
100
AcDbEntity
  8
RACCORDO
100
AcDbLine
 62
253
  6
CONTINUOUS
 10
65.6255634038
 20
128.8544887368
 11
65.6256665605
 21
128.8464932598
  0
LINE
  5
369
100
AcDbEntity
  8
RACCORDO
100
AcDbLine
 62
7
  6
CONTINUOUS
 10
65.763067817
 20
130.369734399
 11
65.764751685
 21
130.3227967302
  0
LINE
  5
36A
100
AcDbEntity
  8
RACCORDO
100
AcDbLine
 62
7
  6
CONTINUOUS
 10
65.6256665605
 20
128.8464932598
 11
65.6260706661
 21
128.8353070914
  0
LINE
  5
36B
100
AcDbEntity
  8
RACCORDO
100
AcDbLine
 62
253
  6
CONTINUOUS
 10
65.6572513232
 20
129.8422794828
 11
65.655946457
 21
129.8796669721
  0
LINE
  5
36C
100
AcDbEntity
  8
RACCORDO
100
AcDbLine
 62
253
  6
CONTINUOUS
 10
65.6260054174
 20
128.8423057696
 11
65.6260424902
 21
128.8361433258
  0
LINE
  5
36D
100
AcDbEntity
  8
RACCORDO
100
AcDbLine
 62
253
  6
CONTINUOUS
 10
65.7663916146
 20
130.2700836162
 11
65.7658508783
 21
130.2882984942
  0
LINE
  5
36E
100
AcDbEntity
  8
RACCORDO
100
AcDbLine
 62
7
  6
CONTINUOUS
 10
65.6260424902
 20
128.8361433258
 11
65.6265337854
 21
128.8204978234
  0
LINE
  5
36F
100
AcDbEntity
  8
RACCORDO
100
AcDbLine
 62
253
  6
CONTINUOUS
 10
65.6264533328
 20
128.8281320144
 11
65.6265010049
 21
128.8216124826
  0
LINE
  5
370
100
AcDbEntity
  8
RACCORDO
100
AcDbLine
 62
7
  6
CONTINUOUS
 10
65.764751685
 20
130.3227967302
 11
65.7669256416
 21
130.2512281594
  0
LINE
  5
371
100
AcDbEntity
  8
RACCORDO
100
AcDbLine
 62
253
  6
CONTINUOUS
 10
65.6584793035
 20
129.8008783458
 11
65.6572513232
 21
129.8422794828
  0
LINE
  5
372
100
AcDbEntity
  8
RACCORDO
100
AcDbLine
 62
7
  6
CONTINUOUS
 10
65.6265010049
 20
128.8216124826
 11
65.627110705
 21
128.7988354658
  0
LINE
  5
373
100
AcDbEntity
  8
RACCORDO
100
AcDbLine
 62
253
  6
CONTINUOUS
 10
65.627132503
 20
128.8027551625
 11
65.627080994
 21
128.8000601821
  0
LINE
  5
374
100
AcDbEntity
  8
RACCORDO
100
AcDbLine
 62
7
  6
CONTINUOUS
 10
65.7669256416
 20
130.2512281594
 11
65.7689869857
 21
130.1694062963
  0
LINE
  5
375
100
AcDbEntity
  8
RACCORDO
100
AcDbLine
 62
253
  6
CONTINUOUS
 10
65.6599826304
 20
129.7398981448
 11
65.6584793035
 21
129.8008783458
  0
LWPOLYLINE
  5
376
100
AcDbEntity
  8
RACCORDO
100
AcDbPolyline
 62
253
  6
CONTINUOUS
 90
31
 70
0
 10
65.6459679782
 20
77.3781472349
 10
65.6461365813
 20
77.3702010519
 10
65.6466215227
 20
77.3622674518
 10
65.6474220344
 20
77.3543589977
 10
65.6485368489
 20
77.3464882127
 10
65.6499642008
 20
77.3386675601
 10
65.6517018299
 20
77.3309094242
 10
65.6537469847
 20
77.32322609
 10
65.6560964266
 20
77.3156297242
 10
65.6587464353
 20
77.3081323556
 10
65.6616928144
 20
77.3007458564
 10
65.6649308983
 20
77.2934819232
 10
65.6684555595
 20
77.2863520586
 10
65.6722612166
 20
77.2793675527
 10
65.6763418434
 20
77.2725394656
 10
65.6806909782
 20
77.2658786097
 10
65.6853017339
 20
77.2593955324
 10
65.6901668096
 20
77.2531004997
 10
65.6952785012
 20
77.24700348
 10
65.7006287143
 20
77.241114128
 10
65.7062089769
 20
77.2354417693
 10
65.7120104524
 20
77.2299953864
 10
65.7180239544
 20
77.2247836037
 10
65.7242399602
 20
77.2198146739
 10
65.7306486267
 20
77.2150964655
 10
65.7372398059
 20
77.2106364498
 10
65.7440030605
 20
77.2064416893
 10
65.7509276807
 20
77.2025188265
 10
65.7580027015
 20
77.1988740731
 10
65.7652169194
 20
77.1955132008
 10
65.7683656403
 20
77.1941958703
  0
LINE
  5
377
100
AcDbEntity
  8
RACCORDO
100
AcDbLine
 62
7
  6
CONTINUOUS
 10
65.627080994
 20
128.8000601821
 11
65.6277789131
 21
128.7687701091
  0
LWPOLYLINE
  5
378
100
AcDbEntity
  8
RACCORDO
100
AcDbPolyline
 62
253
  6
CONTINUOUS
 90
5
 70
0
 10
65.6224104282
 20
128.8969038965
 10
65.6225545536
 20
128.8890795085
 10
65.6230053696
 20
128.8812671308
 10
65.623762184
 20
128.8734787553
 10
65.6247233719
 20
128.8664599431
  0
LINE
  5
379
100
AcDbEntity
  8
RACCORDO
100
AcDbLine
 62
7
  6
CONTINUOUS
 10
65.7689869857
 20
130.1694062963
 11
65.7713489759
 21
130.053088096
  0
LINE
  5
37A
100
AcDbEntity
  8
RACCORDO
100
AcDbLine
 62
253
  6
CONTINUOUS
 10
65.6616214675
 20
129.6553542964
 11
65.6599826304
 21
129.7398981448
  0
LINE
  5
37B
100
AcDbEntity
  8
RACCORDO
100
AcDbLine
 62
7
  6
CONTINUOUS
 10
65.6276962858
 20
128.7728270464
 11
65.6285674991
 21
128.7250095939
  0
LINE
  5
37C
100
AcDbEntity
  8
RACCORDO
100
AcDbLine
 62
253
  6
CONTINUOUS
 10
65.6284805543
 20
128.7355000201
 11
65.6284843709
 21
128.7300889837
  0
LINE
  5
37D
100
AcDbEntity
  8
RACCORDO
100
AcDbLine
 62
253
  6
CONTINUOUS
 10
65.6285523
 20
128.7259200066
 11
65.6286980519
 21
128.7219923559
  0
LINE
  5
37E
100
AcDbEntity
  8
RACCORDO
100
AcDbLine
 62
253
  6
CONTINUOUS
 10
65.7713489759
 20
130.053088096
 11
65.7713252211
 21
130.0568023458
  0
LINE
  5
37F
100
AcDbEntity
  8
RACCORDO
100
AcDbLine
 62
7
  6
CONTINUOUS
 10
65.7713489759
 20
130.053088096
 11
65.7733761763
 21
129.9222576627
  0
LWPOLYLINE
  5
380
100
AcDbEntity
  8
RACCORDO
100
AcDbPolyline
 62
7
  6
CONTINUOUS
 90
13
 70
0
 10
65.3556550615
 20
129.4637639329
 10
65.3557250846
 20
129.4584720192
 10
65.3560608351
 20
129.4510303245
 10
65.3566732292
 20
129.4436087746
 10
65.3575611406
 20
129.4362176357
 10
65.3587230629
 20
129.4288671144
 10
65.3601571126
 20
129.4215673458
 10
65.3618610319
 20
129.4143283782
 10
65.3638321946
 20
129.4071601546
 10
65.3660676107
 20
129.400072501
 10
65.3685639298
 20
129.3930751189
 10
65.3713174455
 20
129.3861775724
 10
65.3743241037
 20
129.3793892701
  0
LINE
  5
381
100
AcDbEntity
  8
RACCORDO
100
AcDbLine
 62
253
  6
CONTINUOUS
 10
65.6629640234
 20
129.5629949083
 11
65.6616214675
 21
129.6553542964
  0
LINE
  5
382
100
AcDbEntity
  8
RACCORDO
100
AcDbLine
 62
253
  6
CONTINUOUS
 10
65.7733761763
 20
129.9222576627
 11
65.7729743129
 21
129.9536915538
  0
LWPOLYLINE
  5
383
100
AcDbEntity
  8
RACCORDO
100
AcDbPolyline
 62
253
  6
CONTINUOUS
 90
3
 70
0
 10
65.6294183452
 20
128.6641686412
 10
65.629528583
 20
128.661038306
 10
65.6294793955
 20
128.6590965627
  0
LINE
  5
384
100
AcDbEntity
  8
RACCORDO
100
AcDbLine
 62
7
  6
CONTINUOUS
 10
65.6284843709
 20
128.7300889837
 11
65.6295050133
 21
128.6569934029
  0
LINE
  5
385
100
AcDbEntity
  8
RACCORDO
100
AcDbLine
 62
253
  6
CONTINUOUS
 10
65.6295398658
 20
128.6539686118
 11
65.6297234623
 21
128.6440527248
  0
LINE
  5
386
100
AcDbEntity
  8
RACCORDO
100
AcDbLine
 62
7
  6
CONTINUOUS
 10
65.7733761763
 20
129.9222576627
 11
65.7750012356
 21
129.7784392364
  0
LINE
  5
387
100
AcDbEntity
  8
RACCORDO
100
AcDbLine
 62
253
  6
CONTINUOUS
 10
65.6641486132
 20
129.4441264965
 11
65.6629640234
 21
129.5629949083
  0
LINE
  5
388
100
AcDbEntity
  8
RACCORDO
100
AcDbLine
 62
7
  6
CONTINUOUS
 10
65.6294793955
 20
128.6590965627
 11
65.6304910472
 21
128.5525267711
  0
LINE
  5
389
100
AcDbEntity
  8
RACCORDO
100
AcDbLine
 62
253
  6
CONTINUOUS
 10
65.6304259748
 20
128.5694353333
 11
65.6304428891
 21
128.5589658927
  0
LINE
  5
38A
100
AcDbEntity
  8
RACCORDO
100
AcDbLine
 62
253
  6
CONTINUOUS
 10
65.6304873864
 20
128.5530667679
 11
65.6305790723
 21
128.5491950678
  0
LINE
  5
38B
100
AcDbEntity
  8
RACCORDO
100
AcDbLine
 62
253
  6
CONTINUOUS
 10
65.6307821934
 20
128.5087619648
 11
65.630854434
 21
128.5069442011
  0
LINE
  5
38C
100
AcDbEntity
  8
RACCORDO
100
AcDbLine
 62
7
  6
CONTINUOUS
 10
65.7750012356
 20
129.7784392364
 11
65.776150786
 21
129.6236769987
  0
LINE
  5
38D
100
AcDbEntity
  8
RACCORDO
100
AcDbLine
 62
253
  6
CONTINUOUS
 10
65.6308784047
 20
128.4916901732
 11
65.6309746967
 21
128.4850014949
  0
LINE
  5
38E
100
AcDbEntity
  8
RACCORDO
100
AcDbLine
 62
253
  6
CONTINUOUS
 10
65.6310514544
 20
128.4561311714
 11
65.6310649284
 21
128.452911779
  0
LINE
  5
38F
100
AcDbEntity
  8
RACCORDO
100
AcDbLine
 62
253
  6
CONTINUOUS
 10
65.6311075191
 20
128.4425687759
 11
65.6311787695
 21
128.4395789259
  0
LINE
  5
390
100
AcDbEntity
  8
RACCORDO
100
AcDbLine
 62
7
  6
CONTINUOUS
 10
65.6304428891
 20
128.5589658927
 11
65.6312124365
 21
128.4127915495
  0
LINE
  5
391
100
AcDbEntity
  8
RACCORDO
100
AcDbLine
 62
253
  6
CONTINUOUS
 10
65.664902275
 20
129.2982051895
 11
65.6641486132
 21
129.4441264965
  0
LINE
  5
392
100
AcDbEntity
  8
RACCORDO
100
AcDbLine
 62
253
  6
CONTINUOUS
 10
65.631260788
 20
128.4161824991
 11
65.6312051658
 21
128.4149875203
  0
LINE
  5
393
100
AcDbEntity
  8
RACCORDO
100
AcDbLine
 62
253
  6
CONTINUOUS
 10
65.63125262
 20
128.399139041
 11
65.6313294953
 21
128.3923320585
  0
LINE
  5
394
100
AcDbEntity
  8
RACCORDO
100
AcDbLine
 62
7
  6
CONTINUOUS
 10
65.776150786
 20
129.6236769987
 11
65.7767607464
 21
129.4605236637
  0
LINE
  5
395
100
AcDbEntity
  8
RACCORDO
100
AcDbLine
 62
253
  6
CONTINUOUS
 10
65.7767607464
 20
129.4605236637
 11
65.7767083124
 21
129.4950570959
  0
LINE
  5
396
100
AcDbEntity
  8
RACCORDO
100
AcDbLine
 62
253
  6
CONTINUOUS
 10
65.6313907007
 20
128.3141657486
 11
65.6313935904
 21
128.3073412934
  0
LINE
  5
397
100
AcDbEntity
  8
RACCORDO
100
AcDbLine
 62
253
  6
CONTINUOUS
 10
65.6313953328
 20
128.3000809969
 11
65.6314543461
 21
128.2934893032
  0
LINE
  5
398
100
AcDbEntity
  8
0
100
AcDbLine
 62
7
  6
CONTINUOUS
 10
65.3556550615
 20
130.6191969191
 11
65.3556550615
 21
129.4637630144
  0
LINE
  5
399
100
AcDbEntity
  8
0
100
AcDbLine
 62
7
  6
CONTINUOUS
 10
65.3556550615
 20
77.9260289981
 11
65.3556550615
 21
76.7705950934
  0
LINE
  5
39A
100
AcDbEntity
  8
ASSI
100
AcDbLine
 62
7
  6
CONTINUOUS
 10
65.4556550615
 20
145.6948960062
 11
65.4556550615
 21
131.1255353371
  0
LINE
  5
39B
100
AcDbEntity
  8
ASSI
100
AcDbLine
 62
7
  6
CONTINUOUS
 10
65.4556550615
 20
76.2642566749
 11
65.4556550615
 21
61.6948960062
  0
LINE
  5
39C
100
AcDbEntity
  8
RACCORDO
100
AcDbLine
 62
7
  6
CONTINUOUS
 10
65.6312051658
 20
128.4149875203
 11
65.631395333
 21
79.0876688796
  0
LINE
  5
39D
100
AcDbEntity
  8
RACCORDO
100
AcDbLine
 62
7
  6
CONTINUOUS
 10
65.7767607464
 20
129.4605236637
 11
65.7768374921
 21
77.9830256907
  0
LINE
  5
39E
100
AcDbEntity
  8
RACCORDO
100
AcDbLine
 62
253
  6
CONTINUOUS
 10
67.322697843
 20
63.1202002258
 11
67.3226604434
 21
144.2762301086
  0
LINE
  5
39F
100
AcDbEntity
  8
RACCORDO
100
AcDbLine
 62
7
  6
CONTINUOUS
 10
65.6313957874
 20
79.0963027093
 11
65.6313685916
 21
79.0502189319
  0
LINE
  5
3A0
100
AcDbEntity
  8
RACCORDO
100
AcDbLine
 62
253
  6
CONTINUOUS
 10
65.7768374921
 20
77.9830256907
 11
65.7768769793
 21
78.01737571
  0
LINE
  5
3A1
100
AcDbEntity
  8
RACCORDO
100
AcDbLine
 62
7
  6
CONTINUOUS
 10
65.6313747379
 20
79.0553374531
 11
65.6313506753
 21
79.0369344802
  0
LINE
  5
3A2
100
AcDbEntity
  8
RACCORDO
100
AcDbLine
 62
253
  6
CONTINUOUS
 10
65.6314220642
 20
79.046306022
 11
65.6313521909
 21
79.0379039961
  0
LINE
  5
3A3
100
AcDbEntity
  8
RACCORDO
100
AcDbLine
 62
253
  6
CONTINUOUS
 10
65.6313426463
 20
79.0317798472
 11
65.6313836256
 21
79.0218082632
  0
LINE
  5
3A4
100
AcDbEntity
  8
RACCORDO
100
AcDbLine
 62
253
  6
CONTINUOUS
 10
65.6649528865
 20
78.1127911693
 11
65.664902275
 21
129.2982051895
  0
LINE
  5
3A5
100
AcDbEntity
  8
RACCORDO
100
AcDbLine
 62
7
  6
CONTINUOUS
 10
65.6313521909
 20
79.0379039961
 11
65.631174193
 21
78.9654074317
  0
LINE
  5
3A6
100
AcDbEntity
  8
RACCORDO
100
AcDbLine
 62
253
  6
CONTINUOUS
 10
65.6312612029
 20
78.9737423671
 11
65.6311761494
 21
78.9659833253
  0
LINE
  5
3A7
100
AcDbEntity
  8
RACCORDO
100
AcDbLine
 62
253
  6
CONTINUOUS
 10
65.631155856
 20
78.9601535351
 11
65.6311791594
 21
78.9503173262
  0
LINE
  5
3A8
100
AcDbEntity
  8
RACCORDO
100
AcDbLine
 62
7
  6
CONTINUOUS
 10
65.7768374921
 20
77.9830256907
 11
65.7763739975
 21
77.8104126804
  0
LINE
  5
3A9
100
AcDbEntity
  8
RACCORDO
100
AcDbLine
 62
253
  6
CONTINUOUS
 10
65.6642986272
 20
77.9661497195
 11
65.6649528865
 21
78.1127911693
  0
LINE
  5
3AA
100
AcDbEntity
  8
RACCORDO
100
AcDbLine
 62
7
  6
CONTINUOUS
 10
65.6311761494
 20
78.9659833253
 11
65.6303896024
 21
78.823916327
  0
LINE
  5
3AB
100
AcDbEntity
  8
RACCORDO
100
AcDbLine
 62
7
  6
CONTINUOUS
 10
65.7763739975
 20
77.8104126804
 11
65.7753054356
 21
77.6453945214
  0
LINE
  5
3AC
100
AcDbEntity
  8
RACCORDO
100
AcDbLine
 62
253
  6
CONTINUOUS
 10
65.7753054356
 20
77.6453945214
 11
65.7754633299
 21
77.6601928471
  0
LINE
  5
3AD
100
AcDbEntity
  8
RACCORDO
100
AcDbLine
 62
253
  6
CONTINUOUS
 10
65.6631948461
 20
77.846084317
 11
65.6642986272
 21
77.9661497195
  0
LINE
  5
3AE
100
AcDbEntity
  8
RACCORDO
100
AcDbLine
 62
253
  6
CONTINUOUS
 10
65.6295310572
 20
78.7350193664
 11
65.62952277
 21
78.7282656854
  0
LINE
  5
3AF
100
AcDbEntity
  8
RACCORDO
100
AcDbLine
 62
7
  6
CONTINUOUS
 10
65.7753054356
 20
77.6453945214
 11
65.7736838281
 21
77.4913036615
  0
LINE
  5
3B0
100
AcDbEntity
  8
RACCORDO
100
AcDbLine
 62
253
  6
CONTINUOUS
 10
65.628651654
 20
78.6701034171
 11
65.6286898577
 21
78.6672755035
  0
LINE
  5
3B1
100
AcDbEntity
  8
RACCORDO
100
AcDbLine
 62
253
  6
CONTINUOUS
 10
65.6619146536
 20
77.7523381262
 11
65.6631948461
 21
77.846084317
  0
LINE
  5
3B2
100
AcDbEntity
  8
RACCORDO
100
AcDbLine
 62
7
  6
CONTINUOUS
 10
65.6304296597
 20
78.829102087
 11
65.6285351617
 21
78.6627745089
  0
LINE
  5
3B3
100
AcDbEntity
  8
RACCORDO
100
AcDbLine
 62
7
  6
CONTINUOUS
 10
65.7736838281
 20
77.4913036615
 11
65.7715984127
 21
77.3508977421
  0
LWPOLYLINE
  5
3B4
100
AcDbEntity
  8
RACCORDO
100
AcDbPolyline
 62
253
  6
CONTINUOUS
 90
5
 70
0
 10
65.6224104078
 20
78.492888116
 10
65.6225545353
 20
78.5007125038
 10
65.6230053533
 20
78.5085248813
 10
65.6237621697
 20
78.5163132565
 10
65.6247233029
 20
78.5233316561
  0
LINE
  5
3B5
100
AcDbEntity
  8
RACCORDO
100
AcDbLine
 62
253
  6
CONTINUOUS
 10
65.6603327112
 20
77.6661052826
 11
65.6619146536
 21
77.7523381262
  0
LINE
  5
3B6
100
AcDbEntity
  8
RACCORDO
100
AcDbLine
 62
7
  6
CONTINUOUS
 10
65.6285461644
 20
78.6634922243
 11
65.627693184
 21
78.6168270886
  0
LWPOLYLINE
  5
3B7
100
AcDbEntity
  8
RACCORDO
100
AcDbPolyline
 62
253
  6
CONTINUOUS
 90
31
 70
0
 10
65.6459679787
 20
130.0116447775
 10
65.6461365782
 20
130.0195909634
 10
65.6466215162
 20
130.0275245665
 10
65.6474220248
 20
130.0354330237
 10
65.6485368364
 20
130.0433038119
 10
65.6499641855
 20
130.0511244678
 10
65.6517018121
 20
130.0588826071
 10
65.6537469645
 20
130.0665659447
 10
65.6560964042
 20
130.0741623141
 10
65.658746411
 20
130.0816596863
 10
65.6616927883
 20
130.089046189
 10
65.6649308707
 20
130.0963101258
 10
65.6684555306
 20
130.1034399941
 10
65.6722611867
 20
130.1104245036
 10
65.6763418126
 20
130.1172525943
 10
65.6806909466
 20
130.1239134538
 10
65.6853017019
 20
130.1303965347
 10
65.6901667772
 20
130.1366915708
 10
65.6952784687
 20
130.1427885939
 10
65.7006286819
 20
130.1486779494
 10
65.7062089448
 20
130.1543503113
 10
65.7120104208
 20
130.1597966974
 10
65.7180239233
 20
130.1650084832
 10
65.7242399299
 20
130.169977416
 10
65.7306485975
 20
130.1746956272
 10
65.7372397777
 20
130.1791556456
 10
65.7440030335
 20
130.1833504087
 10
65.7509276552
 20
130.187273274
 10
65.7580026775
 20
130.1909180296
 10
65.765216897
 20
130.194278904
 10
65.7683658966
 20
130.1955963517
  0
LINE
  5
3B8
100
AcDbEntity
  8
RACCORDO
100
AcDbLine
 62
7
  6
CONTINUOUS
 10
65.7715984127
 20
77.3508977421
 11
65.7691218385
 21
77.2262634901
  0
LINE
  5
3B9
100
AcDbEntity
  8
RACCORDO
100
AcDbLine
 62
253
  6
CONTINUOUS
 10
65.7691218385
 20
77.2262634901
 11
65.7694229383
 21
77.2375579669
  0
LINE
  5
3BA
100
AcDbEntity
  8
RACCORDO
100
AcDbLine
 62
7
  6
CONTINUOUS
 10
65.6277401853
 20
78.6190934191
 11
65.627028986
 21
78.5876456399
  0
LINE
  5
3BB
100
AcDbEntity
  8
RACCORDO
100
AcDbLine
 62
253
  6
CONTINUOUS
 10
65.6588701862
 20
77.603563752
 11
65.6603327112
 21
77.6661052826
  0
LINE
  5
3BC
100
AcDbEntity
  8
RACCORDO
100
AcDbLine
 62
7
  6
CONTINUOUS
 10
65.7691218385
 20
77.2262634901
 11
65.7670774493
 21
77.1441196289
  0
LINE
  5
3BD
100
AcDbEntity
  8
RACCORDO
100
AcDbLine
 62
253
  6
CONTINUOUS
 10
65.6264566581
 20
78.5666808692
 11
65.6264437626
 21
78.5613368885
  0
LINE
  5
3BE
100
AcDbEntity
  8
RACCORDO
100
AcDbLine
 62
7
  6
CONTINUOUS
 10
65.6270492126
 20
78.5884663582
 11
65.6264566581
 21
78.5666808692
  0
LINE
  5
3BF
100
AcDbEntity
  8
RACCORDO
100
AcDbLine
 62
253
  6
CONTINUOUS
 10
65.6576697047
 20
77.560881671
 11
65.6588701862
 21
77.603563752
  0
LINE
  5
3C0
100
AcDbEntity
  8
RACCORDO
100
AcDbLine
 62
253
  6
CONTINUOUS
 10
65.7670774493
 20
77.1441196289
 11
65.7672615964
 21
77.1487039689
  0
LINE
  5
3C1
100
AcDbEntity
  8
RACCORDO
100
AcDbLine
 62
7
  6
CONTINUOUS
 10
65.7670774493
 20
77.1441196289
 11
65.7649205283
 21
77.0720901906
  0
LINE
  5
3C2
100
AcDbEntity
  8
RACCORDO
100
AcDbLine
 62
7
  6
CONTINUOUS
 10
65.6264991468
 20
78.5681084209
 11
65.6260352999
 21
78.5534423399
  0
LINE
  5
3C3
100
AcDbEntity
  8
RACCORDO
100
AcDbLine
 62
253
  6
CONTINUOUS
 10
65.6563895023
 20
77.5221277735
 11
65.6576697047
 21
77.560881671
  0
LINE
  5
3C4
100
AcDbEntity
  8
RACCORDO
100
AcDbLine
 62
253
  6
CONTINUOUS
 10
65.6259039379
 20
78.5496757873
 11
65.625774092
 21
78.5408814793
  0
LINE
  5
3C5
100
AcDbEntity
  8
RACCORDO
100
AcDbLine
 62
7
  6
CONTINUOUS
 10
65.7649205283
 20
77.0720901906
 11
65.7634356615
 21
77.0297295751
  0
LINE
  5
3C6
100
AcDbEntity
  8
RACCORDO
100
AcDbLine
 62
253
  6
CONTINUOUS
 10
65.7623790016
 20
77.0002434876
 11
65.762683528
 21
77.0102364069
  0
LINE
  5
3C7
100
AcDbEntity
  8
RACCORDO
100
AcDbLine
 62
7
  6
CONTINUOUS
 10
65.6260618327
 20
78.5542183104
 11
65.6257088054
 21
78.5443911606
  0
LINE
  5
3C8
100
AcDbEntity
  8
RACCORDO
100
AcDbLine
 62
253
  6
CONTINUOUS
 10
65.6554958782
 20
77.4985953645
 11
65.6563895023
 21
77.5221277735
  0
LINE
  5
3C9
100
AcDbEntity
  8
RACCORDO
100
AcDbLine
 62
253
  6
CONTINUOUS
 10
65.6254529969
 20
78.5380213427
 11
65.6253364242
 21
78.5296945608
  0
LINE
  5
3CA
100
AcDbEntity
  8
RACCORDO
100
AcDbLine
 62
7
  6
CONTINUOUS
 10
65.7634356615
 20
77.0297295751
 11
65.7619278087
 21
76.9918740717
  0
LINE
  5
3CB
100
AcDbEntity
  8
RACCORDO
100
AcDbLine
 62
7
  6
CONTINUOUS
 10
65.6257088054
 20
78.5443911606
 11
65.625390137
 21
78.5365513236
  0
LINE
  5
3CC
100
AcDbEntity
  8
RACCORDO
100
AcDbLine
 62
253
  6
CONTINUOUS
 10
65.6545736593
 20
77.4769937019
 11
65.6554958782
 21
77.4985953645
  0
LINE
  5
3CD
100
AcDbEntity
  8
RACCORDO
100
AcDbLine
 62
253
  6
CONTINUOUS
 10
65.7619278087
 20
76.9918740717
 11
65.7623790016
 21
77.0002434876
  0
LINE
  5
3CE
100
AcDbEntity
  8
RACCORDO
100
AcDbLine
 62
7
  6
CONTINUOUS
 10
65.7619278087
 20
76.9918740717
 11
65.7604123282
 21
76.958482588
  0
LINE
  5
3CF
100
AcDbEntity
  8
RACCORDO
100
AcDbLine
 62
7
  6
CONTINUOUS
 10
65.625390137
 20
78.5365513236
 11
65.6251453763
 21
78.5311849657
  0
LWPOLYLINE
  5
3D0
100
AcDbEntity
  8
RACCORDO
100
AcDbPolyline
 62
253
  6
CONTINUOUS
 90
15
 70
0
 10
65.6253364242
 20
78.5296945608
 10
65.624908916
 20
78.5203090056
 10
65.6246994286
 20
78.516233624
 10
65.6244931739
 20
78.5125516947
 10
65.62428994
 20
78.5092624495
 10
65.6240896503
 20
78.5063068449
 10
65.6238921263
 20
78.5036800732
 10
65.6236975404
 20
78.501386942
 10
65.6235063421
 20
78.4993828296
 10
65.6233194428
 20
78.4976695358
 10
65.6231359236
 20
78.4962452607
 10
65.6229534903
 20
78.4950599834
 10
65.6227713785
 20
78.4940970299
 10
65.6225903512
 20
78.4933730741
 10
65.6224104071
 20
78.492888116
  0
LINE
  5
3D1
100
AcDbEntity
  8
RACCORDO
100
AcDbLine
 62
253
  6
CONTINUOUS
 10
65.6536249367
 20
77.4573688637
 11
65.6545736593
 21
77.4769937019
  0
LINE
  5
3D2
100
AcDbEntity
  8
RACCORDO
100
AcDbLine
 62
7
  6
CONTINUOUS
 10
65.6251453763
 20
78.5311849657
 11
65.6249716196
 21
78.5277292422
  0
LWPOLYLINE
  5
3D3
100
AcDbEntity
  8
RACCORDO
100
AcDbPolyline
 62
7
  6
CONTINUOUS
 90
11
 70
0
 10
65.7604123282
 20
76.958482588
 10
65.7589080972
 20
76.9295395596
 10
65.7581637497
 20
76.9166910343
 10
65.7574295949
 20
76.9049449385
 10
65.7567066995
 20
76.8942602673
 10
65.7559976169
 20
76.8846159363
 10
65.7553109077
 20
76.876057336
 10
65.7546469787
 20
76.8685121337
 10
65.7540126323
 20
76.8619793347
 10
65.7534318612
 20
76.8565934756
 10
65.7531891363
 20
76.8545178628
  0
LINE
  5
3D4
100
AcDbEntity
  8
RACCORDO
100
AcDbLine
 62
7
  6
CONTINUOUS
 10
65.6249716196
 20
78.5277292422
 11
65.6248094231
 21
78.5247809588
  0
LWPOLYLINE
  5
3D5
100
AcDbEntity
  8
RACCORDO
100
AcDbPolyline
 62
253
  6
CONTINUOUS
 90
3
 70
0
 10
65.7589080972
 20
76.9295395596
 10
65.7596623624
 20
76.9406370044
 10
65.7604123282
 20
76.958482588
  0
LINE
  5
3D6
100
AcDbEntity
  8
RACCORDO
100
AcDbLine
 62
7
  6
CONTINUOUS
 10
65.6248094231
 20
78.5247809588
 11
65.6246641603
 21
78.5223802798
  0
LWPOLYLINE
  5
3D7
100
AcDbEntity
  8
RACCORDO
100
AcDbPolyline
 62
253
  6
CONTINUOUS
 90
13
 70
0
 10
67.2297030069
 20
145.6948960062
 10
67.2339725888
 20
145.7601591067
 10
67.2467082805
 20
145.8243055367
 10
67.2676921706
 20
145.886237733
 10
67.2965652188
 20
145.9448960186
 10
67.3328333989
 20
145.9992767339
 10
67.3758761518
 20
146.0484494095
 10
67.4249570036
 20
146.0915726874
 10
67.4792361671
 20
146.1279087167
 10
67.5377849103
 20
146.1568357782
 10
67.5996014476
 20
146.1778589223
 10
67.6636280812
 20
146.1906184378
 10
67.7287692975
 20
146.1948960062
  0
LWPOLYLINE
  5
3D8
100
AcDbEntity
  8
RACCORDO
100
AcDbPolyline
 62
7
  6
CONTINUOUS
 90
4
 70
0
 10
65.6246641603
 20
78.5223802798
 10
65.6245817182
 20
78.5211305983
 10
65.6245459316
 20
78.5206177209
 10
65.6245145241
 20
78.5201844134
  0
LWPOLYLINE
  5
3D9
100
AcDbEntity
  8
RACCORDO
100
AcDbPolyline
 62
7
  6
CONTINUOUS
 90
3
 70
0
 10
65.6244485116
 20
128.8704604566
 10
65.624443652
 20
128.8705131733
 10
65.6244529891
 20
128.8704023739
  0
LINE
  5
3DA
100
AcDbEntity
  8
RACCORDO
100
AcDbLine
 62
253
  6
CONTINUOUS
 10
65.7552342066
 20
130.5146402999
 11
65.7539789768
 21
130.5333749803
  0
LWPOLYLINE
  5
3DB
100
AcDbEntity
  8
RACCORDO
100
AcDbPolyline
 62
7
  6
CONTINUOUS
 90
3
 70
0
 10
65.6244694277
 20
128.8701990884
 10
65.6245231001
 20
128.8694900995
 10
65.624558328
 20
128.8689969671
  0
LWPOLYLINE
  5
3DC
100
AcDbEntity
  8
RACCORDO
100
AcDbPolyline
 62
7
  6
CONTINUOUS
 90
3
 70
0
 10
65.7563021014
 20
130.50113461
 10
65.7574010568
 20
130.485287902
 10
65.7579587579
 20
130.4764767826
  0
LWPOLYLINE
  5
3DD
100
AcDbEntity
  8
RACCORDO
100
AcDbPolyline
 62
253
  6
CONTINUOUS
 90
13
 70
0
 10
65.6521589339
 20
129.9580157953
 10
65.6516604266
 20
129.9654940204
 10
65.651157173
 20
129.9724439544
 10
65.6506502523
 20
129.9788507376
 10
65.6501396646
 20
129.9847132216
 10
65.6496254311
 20
129.9900325548
 10
65.6491086571
 20
129.9947973221
 10
65.6485893172
 20
129.9990064013
 10
65.6480674526
 20
130.0026609146
 10
65.6475442627
 20
130.0057528138
 10
65.6470201492
 20
130.0082794159
 10
65.6464947194
 20
130.0102434038
 10
65.6459679781
 20
130.0116447775
  0
LWPOLYLINE
  5
3DE
100
AcDbEntity
  8
RACCORDO
100
AcDbPolyline
 62
253
  6
CONTINUOUS
 90
20
 70
0
 10
67.3187837372
 20
144.625770528
 10
67.3168431957
 20
144.7174736151
 10
67.3144296797
 20
144.8102332431
 10
67.3115727103
 20
144.9035647172
 10
67.3082739186
 20
144.994280933
 10
67.3045091796
 20
145.0821784516
 10
67.3003052036
 20
145.1674607119
 10
67.2957398518
 20
145.2475509261
 10
67.2907858936
 20
145.3222049685
 10
67.2854734724
 20
145.3916669648
 10
67.2799657145
 20
145.4540925041
 10
67.2742468383
 20
145.5089915167
 10
67.2683345493
 20
145.5568540724
 10
67.2624405306
 20
145.5973059691
 10
67.2565666301
 20
145.6298057729
 10
67.2507109093
 20
145.6548949179
 10
67.245077355
 20
145.6738235037
 10
67.239732874
 20
145.6870082304
 10
67.2346083962
 20
145.6940323979
 10
67.2297030069
 20
145.6948960062
  0
LWPOLYLINE
  5
3DF
100
AcDbEntity
  8
RACCORDO
100
AcDbPolyline
 62
253
  6
CONTINUOUS
 90
20
 70
0
 10
67.8178019265
 20
144.7690787533
 10
67.8158625435
 20
144.8917333043
 10
67.8134499043
 20
145.0157179906
 10
67.8105931955
 20
145.1396287574
 10
67.8072961846
 20
145.2608428329
 10
67.8035332732
 20
145.3784320766
 10
67.7993300597
 20
145.491661461
 10
67.7947671072
 20
145.5985406116
 10
67.7898161077
 20
145.6985307784
 10
67.7845053691
 20
145.7908872637
 10
67.7790003779
 20
145.8739063055
 10
67.7732854819
 20
145.9474527935
 10
67.7673763333
 20
146.0113734234
 10
67.7614853749
 20
146.064817147
 10
67.7556159105
 20
146.1082430005
 10
67.7497646363
 20
146.1421757276
 10
67.7441340847
 20
146.1668062785
 10
67.7387917664
 20
146.1830575655
 10
67.7336701707
 20
146.1920954868
 10
67.7287692975
 20
146.1948960062
  0
LWPOLYLINE
  5
3E0
100
AcDbEntity
  8
RACCORDO
100
AcDbPolyline
 62
253
  6
CONTINUOUS
 90
4
 70
0
 10
67.3226604434
 20
144.2762301086
 10
67.322217856
 20
144.3598690773
 10
67.3214145526
 20
144.4458129123
 10
67.3187837372
 20
144.625770528
  0
LWPOLYLINE
  5
3E1
100
AcDbEntity
  8
RACCORDO
100
AcDbPolyline
 62
253
  6
CONTINUOUS
 90
4
 70
0
 10
67.8216773756
 20
144.3025206113
 10
67.8212349645
 20
144.4141879347
 10
67.8204322757
 20
144.5294865897
 10
67.8178019265
 20
144.7690787533
  0
LINE
  5
3E2
100
AcDbEntity
  8
RACCORDO
100
AcDbLine
 62
253
  6
CONTINUOUS
 10
67.8217148488
 20
63.0960844511
 11
67.8216773756
 21
144.3025206113
  0
LINE
  5
3E3
100
AcDbEntity
  8
RACCORDO
100
AcDbLine
 62
253
  6
CONTINUOUS
 10
67.8206019842
 20
62.8822767858
 11
67.8217148488
 21
63.0960844511
  0
LINE
  5
3E4
100
AcDbEntity
  8
RACCORDO
100
AcDbLine
 62
253
  6
CONTINUOUS
 10
67.3215837931
 20
62.9604027402
 11
67.322697843
 21
63.1202002258
  0
LWPOLYLINE
  5
3E5
100
AcDbEntity
  8
RACCORDO
100
AcDbPolyline
 62
253
  6
CONTINUOUS
 90
3
 70
0
 10
65.7559976169
 20
76.8846159363
 10
65.7568554023
 20
76.8925309599
 10
65.7581637497
 20
76.9166910343
  0
LWPOLYLINE
  5
3E6
100
AcDbEntity
  8
RACCORDO
100
AcDbPolyline
 62
253
  6
CONTINUOUS
 90
3
 70
0
 10
65.7510338706
 20
76.8320488589
 10
65.7539884872
 20
76.8565396901
 10
65.7553109077
 20
76.876057336
  0
LINE
  5
3E7
100
AcDbEntity
  8
DRAFT
100
AcDbLine
 62
7
  6
CONTINUOUS
 10
73.6556550615
 20
100.1948960062
 11
75.3556550615
 21
99.895140139
  0
LWPOLYLINE
  5
3E8
100
AcDbEntity
  8
RACCORDO
100
AcDbPolyline
 62
7
  6
CONTINUOUS
 90
9
 70
0
 10
65.7528390322
 20
130.5380690659
 10
65.7528565636
 20
130.5379406119
 10
65.7532796457
 20
130.5345117238
 10
65.7537352937
 20
130.5304552453
 10
65.7542141662
 20
130.5258071307
 10
65.7547170123
 20
130.5205151101
 10
65.7552342066
 20
130.5146402999
 10
65.7557627641
 20
130.5081872833
 10
65.7563021014
 20
130.50113461
  0
LINE
  5
3E9
100
AcDbEntity
  8
RACCORDO
100
AcDbLine
 62
253
  6
CONTINUOUS
 10
65.7539789768
 20
130.5333749803
 11
65.7510283703
 21
130.5578070181
  0
LWPOLYLINE
  5
3EA
100
AcDbEntity
  8
RACCORDO
100
AcDbPolyline
 62
7
  6
CONTINUOUS
 90
7
 70
0
 10
72.7452620774
 20
145.1967965194
 10
72.7503818962
 20
145.0407230723
 10
72.754699011
 20
144.8762355045
 10
72.7580697087
 20
144.7088567232
 10
72.7604444493
 20
144.5404276976
 10
72.7618683965
 20
144.3691074586
 10
72.7623404844
 20
144.1948960062
  0
LINE
  5
3EB
100
AcDbEntity
  8
RACCORDO
100
AcDbLine
 62
7
  6
CONTINUOUS
 10
72.7623404844
 20
144.1948960062
 11
72.7623404844
 21
63.1948960062
  0
LINE
  5
3EC
100
AcDbEntity
  8
DRAFT
100
AcDbLine
 62
7
  6
CONTINUOUS
 10
73.6556550615
 20
107.1948960062
 11
73.6556550615
 21
100.1948960062
  0
LINE
  5
3ED
100
AcDbEntity
  8
DRAFT
100
AcDbLine
 62
7
  6
CONTINUOUS
 10
74.8556550615
 20
145.1948960062
 11
74.8556550615
 21
107.4064883831
  0
LINE
  5
3EE
100
AcDbEntity
  8
DRAFT
100
AcDbLine
 62
7
  6
CONTINUOUS
 10
74.8556550615
 20
99.9833036294
 11
74.8556550615
 21
62.1948960062
  0
LWPOLYLINE
  5
3EF
100
AcDbEntity
  8
RACCORDO
100
AcDbPolyline
 62
7
  6
CONTINUOUS
 90
7
 70
0
 10
72.7623404844
 20
63.1948960062
 10
72.7618653378
 20
63.0205867838
 10
72.7604411164
 20
62.8492502661
 10
72.7580688834
 20
62.680886453
 10
72.7547045977
 20
62.5137059088
 10
72.7503966556
 20
62.3494980693
 10
72.7452853733
 20
62.1936312422
  0
LWPOLYLINE
  5
3F0
100
AcDbEntity
  8
RACCORDO
100
AcDbPolyline
 62
7
  6
CONTINUOUS
 90
13
 70
0
 10
72.7452853733
 20
62.1936312422
 10
72.7393747521
 20
62.047145787
 10
72.7326678531
 20
61.9090013442
 10
72.7253031776
 20
61.7814451433
 10
72.7172838486
 20
61.6645106094
 10
72.7086150045
 20
61.5581643174
 10
72.6994370421
 20
61.4645532211
 10
72.6896844629
 20
61.3836419959
 10
72.6794312672
 20
61.3154659664
 10
72.6690236234
 20
61.2622780599
 10
72.6585766933
 20
61.2248292523
 10
72.6479778178
 20
61.2023685677
 10
72.6372286088
 20
61.1948960062
  0
LINE
  5
3F1
100
AcDbEntity
  8
RACCORDO
100
AcDbLine
 62
253
  6
CONTINUOUS
 10
65.7479930699
 20
76.8190584666
 11
65.7510338706
 21
76.8320488589
  0
LINE
  5
3F2
100
AcDbEntity
  8
DRAFT
100
AcDbLine
 62
7
  6
CONTINUOUS
 10
73.6556550615
 20
107.1948960062
 11
75.3556550615
 21
107.4946518734
  0
LWPOLYLINE
  5
3F3
100
AcDbEntity
  8
RACCORDO
100
AcDbPolyline
 62
253
  6
CONTINUOUS
 90
13
 70
0
 10
65.6224104071
 20
128.8969038965
 10
65.6225939066
 20
128.8963985757
 10
65.6227771416
 20
128.8956617268
 10
65.6229601117
 20
128.8946933497
 10
65.6231413234
 20
128.8935148806
 10
65.6233222685
 20
128.8921048833
 10
65.6235074298
 20
128.8903990499
 10
65.6236986891
 20
128.888390145
 10
65.6238941745
 20
128.8860854041
 10
65.6240927421
 20
128.8834422253
 10
65.6242940617
 20
128.8804651869
 10
65.62449847
 20
128.8771497106
 10
65.6247058208
 20
128.8734394596
  0
LINE
  5
3F4
100
AcDbEntity
  8
RACCORDO
100
AcDbLine
 62
253
  6
CONTINUOUS
 10
65.7510283703
 20
130.5578070181
 11
65.7479930699
 21
130.5707335459
  0
LINE
  5
3F5
100
AcDbEntity
  8
0
100
AcDbLine
 62
7
  6
CONTINUOUS
 10
75.3556550615
 20
144.6948960062
 11
75.3556550615
 21
107.4946518734
  0
LINE
  5
3F6
100
AcDbEntity
  8
0
100
AcDbLine
 62
7
  6
CONTINUOUS
 10
75.3556550615
 20
99.895140139
 11
75.3556550615
 21
62.6948960062
  0
LWPOLYLINE
  5
3F7
100
AcDbEntity
  8
RACCORDO
100
AcDbPolyline
 62
253
  6
CONTINUOUS
 90
15
 70
0
 10
65.6459679781
 20
77.3781472349
 10
65.6464947715
 20
77.3795488405
 10
65.6470202413
 20
77.3815130405
 10
65.6475443826
 20
77.384039835
 10
65.6480675839
 20
77.3871318955
 10
65.6485894477
 20
77.3907865504
 10
65.649108787
 20
77.3949957855
 10
65.6496255648
 20
77.3997607369
 10
65.6501398021
 20
77.4050802684
 10
65.6506503934
 20
77.4109429583
 10
65.6511573176
 20
77.4173499514
 10
65.6516605746
 20
77.4243001027
 10
65.6521590852
 20
77.4317785553
 10
65.6526528257
 20
77.4397864367
 10
65.6536249367
 20
77.4573688637
  0
LWPOLYLINE
  5
3F8
100
AcDbEntity
  8
RACCORDO
100
AcDbPolyline
 62
7
  6
CONTINUOUS
 90
13
 70
0
 10
65.3743241037
 20
78.0104027425
 10
65.3713174452
 20
78.0036144393
 10
65.3685639292
 20
77.9967168921
 10
65.36606761
 20
77.9897195093
 10
65.3638321938
 20
77.9826318552
 10
65.3618610311
 20
77.9754636312
 10
65.3601571118
 20
77.9682246633
 10
65.3587230623
 20
77.9609248945
 10
65.3575611401
 20
77.9535743733
 10
65.3566732288
 20
77.9461832344
 10
65.3560608349
 20
77.9387616848
 10
65.3557250846
 20
77.9313199905
 10
65.3556550615
 20
77.9260280796
  0
LINE
  5
3F9
100
AcDbEntity
  8
RACCORDO
100
AcDbLine
 62
7
  6
CONTINUOUS
 10
65.757392866
 20
76.8614511793
 11
65.7003672821
 21
76.7396288866
  0
LINE
  5
3FA
100
AcDbEntity
  8
RACCORDO
100
AcDbLine
 62
7
  6
CONTINUOUS
 10
65.7003672821
 20
76.7396288866
 11
65.5974688739
 21
76.519876735
  0
LINE
  5
3FB
100
AcDbEntity
  8
RACCORDO
100
AcDbLine
 62
7
  6
CONTINUOUS
 10
65.5974688739
 20
76.519876735
 11
65.4651001359
 21
76.2373148876
  0
LINE
  5
3FC
100
AcDbEntity
  8
RACCORDO
100
AcDbLine
 62
253
  6
CONTINUOUS
 10
65.4556550615
 20
76.194906451
 11
65.7479930699
 21
76.8190584666
  0
LINE
  5
3FD
100
AcDbEntity
  8
RACCORDO
100
AcDbLine
 62
7
  6
CONTINUOUS
 10
65.3913254668
 20
78.0465730773
 11
65.3743241037
 21
78.0104027425
  0
LINE
  5
3FE
100
AcDbEntity
  8
RACCORDO
100
AcDbLine
 62
7
  6
CONTINUOUS
 10
65.4043227038
 20
78.0742186741
 11
65.3913254668
 21
78.0465730773
  0
LWPOLYLINE
  5
3FF
100
AcDbEntity
  8
RACCORDO
100
AcDbPolyline
 62
7
  6
CONTINUOUS
 90
3
 70
0
 10
65.4654889802
 20
78.2042910896
 10
65.441378349
 20
78.153024311
 10
65.4043227038
 20
78.0742186741
  0
LINE
  5
400
100
AcDbEntity
  8
RACCORDO
100
AcDbLine
 62
7
  6
CONTINUOUS
 10
65.5248589846
 20
78.3304962432
 11
65.4654889802
 21
78.2042910896
  0
LWPOLYLINE
  5
401
100
AcDbEntity
  8
RACCORDO
100
AcDbPolyline
 62
253
  6
CONTINUOUS
 90
3
 70
0
 10
65.4742337838
 20
78.1781364887
 10
65.4223864843
 20
78.0679294177
 10
65.3556550615
 20
77.9260280796
  0
LINE
  5
402
100
AcDbEntity
  8
RACCORDO
100
AcDbLine
 62
253
  6
CONTINUOUS
 10
65.5408985286
 20
78.3197866531
 11
65.4742337838
 21
78.1781364887
  0
LINE
  5
403
100
AcDbEntity
  8
RACCORDO
100
AcDbLine
 62
7
  6
CONTINUOUS
 10
65.625723376
 20
78.5447764581
 11
65.5248589846
 21
78.3304962432
  0
LINE
  5
404
100
AcDbEntity
  8
RACCORDO
100
AcDbLine
 62
253
  6
CONTINUOUS
 10
65.6224104071
 20
78.492888116
 11
65.5408985286
 21
78.3197866531
  0
LWPOLYLINE
  5
405
100
AcDbEntity
  8
RACCORDO
100
AcDbPolyline
 62
253
  6
CONTINUOUS
 90
3
 70
0
 10
65.566348161
 20
77.2093755939
 10
65.6045679107
 20
77.2903854815
 10
65.6459679781
 20
77.3781472349
  0
LINE
  5
406
100
AcDbEntity
  8
RACCORDO
100
AcDbLine
 62
253
  6
CONTINUOUS
 10
65.552164712
 20
76.5630316837
 11
65.7626428987
 21
77.0092492042
  0
LINE
  5
407
100
AcDbEntity
  8
RACCORDO
100
AcDbLine
 62
253
  6
CONTINUOUS
 10
65.4994526734
 20
77.067611831
 11
65.566348161
 21
77.2093755939
  0
LINE
  5
408
100
AcDbEntity
  8
RACCORDO
100
AcDbLine
 62
253
  6
CONTINUOUS
 10
65.3556550615
 20
76.7630010508
 11
65.4994526734
 21
77.067611831
  0
LINE
  5
409
100
AcDbEntity
  8
RACCORDO
100
AcDbLine
 62
253
  6
CONTINUOUS
 10
65.6459679781
 20
130.0116447775
 11
65.3556550615
 21
130.6267909617
  0
LINE
  5
40A
100
AcDbEntity
  8
RACCORDO
100
AcDbLine
 62
253
  6
CONTINUOUS
 10
65.7626405555
 20
130.380547779
 11
65.552164712
 21
130.8267603287
  0
LINE
  5
40B
100
AcDbEntity
  8
RACCORDO
100
AcDbLine
 62
253
  6
CONTINUOUS
 10
65.3556550615
 20
129.4637639329
 11
65.6224104071
 21
128.8969038965
  0
LINE
  5
40C
100
AcDbEntity
  8
RACCORDO
100
AcDbLine
 62
7
  6
CONTINUOUS
 10
65.3743241037
 20
129.3793892701
 11
65.6257231807
 21
128.8450159731
  0
LINE
  5
40D
100
AcDbEntity
  8
RACCORDO
100
AcDbLine
 62
253
  6
CONTINUOUS
 10
65.7479930699
 20
130.5707335459
 11
65.4556550615
 21
131.194885561
  0
LINE
  5
40E
100
AcDbEntity
  8
RACCORDO
100
AcDbLine
 62
7
  6
CONTINUOUS
 10
65.7394258995
 20
130.5667232161
 11
65.7528390322
 21
130.5380690659
  0
LINE
  5
40F
100
AcDbEntity
  8
RACCORDO
100
AcDbLine
 62
7
  6
CONTINUOUS
 10
65.4651001359
 20
131.1524771249
 11
65.7394258995
 21
130.5667232161
  0
LINE
  5
410
100
AcDbEntity
  8
DRAFT
100
AcDbLine
 62
7
  6
CONTINUOUS
 10
65.6171471291
 20
130.8278946011
 11
65.5557495894
 21
130.826822903
  0
LINE
  5
411
100
AcDbEntity
  8
RACCORDO
100
AcDbLine
 62
253
  6
CONTINUOUS
 10
65.6314543461
 20
128.2934893032
 11
65.6313962831
 21
128.2934893032
  0
LINE
  5
412
100
AcDbEntity
  8
RACCORDO
100
AcDbLine
 62
253
  6
CONTINUOUS
 10
65.6650179721
 20
129.2131974368
 11
65.7768431665
 21
129.2131974369
  0
LINE
  5
413
100
AcDbEntity
  8
RACCORDO
100
AcDbLine
 62
253
  6
CONTINUOUS
 10
65.7768431665
 20
129.3724163033
 11
65.7768769792
 21
129.3724163031
  0
LINE
  5
414
100
AcDbEntity
  8
DRAFT
100
AcDbLine
 62
7
  6
CONTINUOUS
 10
74.8556550615
 20
62.1948960062
 11
75.3556550615
 21
62.6948960062
  0
LWPOLYLINE
  5
415
100
AcDbEntity
  8
RACCORDO
100
AcDbPolyline
 62
253
  6
CONTINUOUS
 90
21
 70
0
 10
67.7287692975
 20
61.1948960062
 10
67.7340890898
 20
61.1981958703
 10
67.7395558898
 20
61.2086132914
 10
67.7451696976
 20
61.2269251358
 10
67.7509807104
 20
61.253979033
 10
67.7569387311
 20
61.2904861609
 10
67.7628931674
 20
61.3367974241
 10
67.7688708772
 20
61.3936461147
 10
67.7748450026
 20
61.4612600566
 10
67.7805843784
 20
61.5384163917
 10
67.7860618841
 20
61.6246889044
 10
67.79130464
 20
61.7198944189
 10
67.7961628422
 20
61.822226192
 10
67.8006074074
 20
61.9308541337
 10
67.8046674188
 20
62.045139392
 10
67.808280322
 20
62.1630171208
 10
67.8114193902
 20
62.2835966363
 10
67.8141113502
 20
62.4060289805
 10
67.8163738271
 20
62.5280481099
 10
67.818183262
 20
62.6488111052
 10
67.8206019842
 20
62.8822767858
  0
LINE
  5
416
100
AcDbEntity
  8
0
100
AcDbLine
 62
7
  6
CONTINUOUS
 10
74.8556550615
 20
145.1948960062
 11
75.3556550615
 21
144.6948960062
  0
LINE
  5
417
100
AcDbEntity
  8
DRAFT
100
AcDbLine
 62
7
  6
CONTINUOUS
 10
74.8556550615
 20
145.1948960062
 11
75.3556550615
 21
144.6948960062
  0
LWPOLYLINE
  5
418
100
AcDbEntity
  8
RACCORDO
100
AcDbPolyline
 62
7
  6
CONTINUOUS
 90
13
 70
0
 10
72.6372286088
 20
146.1948960062
 10
72.6479834153
 20
146.1873767693
 10
72.6585830072
 20
146.1649130709
 10
72.6690257292
 20
146.127504911
 10
72.6794210162
 20
146.074419439
 10
72.6896568294
 20
146.0063895056
 10
72.699396565
 20
145.9256136627
 10
72.7085703026
 20
145.8321171718
 10
72.71723956
 20
145.7258747715
 10
72.7252614762
 20
145.6090092293
 10
72.7326306104
 20
145.4814917941
 10
72.7393441632
 20
145.3433512171
 10
72.7452620774
 20
145.1967965194
  0
LWPOLYLINE
  5
419
100
AcDbEntity
  8
RACCORDO
100
AcDbPolyline
 62
253
  6
CONTINUOUS
 90
21
 70
0
 10
67.2297030069
 20
61.6948960062
 10
67.2350258241
 20
61.6964160217
 10
67.2404944615
 20
61.7044209594
 10
67.2461095525
 20
61.7189108192
 10
67.2519222039
 20
61.7394992079
 10
67.2578827902
 20
61.7665725187
 10
67.2638401207
 20
61.8012899319
 10
67.2698198111
 20
61.8443022746
 10
67.2757962004
 20
61.8949587197
 10
67.2815393119
 20
61.9524659661
 10
67.2870199167
 20
62.0172594417
 10
67.2922649183
 20
62.0889037186
 10
67.297126865
 20
62.1652992118
 10
67.3015748851
 20
62.2466555725
 10
67.3056368175
 20
62.3327631496
 10
67.3092526469
 20
62.4208934046
 10
67.312394648
 20
62.511110579
 10
67.3150880364
 20
62.6033504313
 10
67.3173523064
 20
62.6946916998
 10
67.3191635892
 20
62.7850173164
 10
67.3215837931
 20
62.9604027402
  0
LINE
  5
41A
100
AcDbEntity
  8
DRAFT
100
AcDbLine
 62
7
  6
CONTINUOUS
 10
72.7489462331
 20
145.084488075
 11
74.8556550615
 21
145.1948960062
  0
LINE
  5
41B
100
AcDbEntity
  8
RACCORDO
100
AcDbLine
 62
253
  6
CONTINUOUS
 10
67.3227421865
 20
144.1948960062
 11
72.7623404844
 21
144.1948960062
  0
LINE
  5
41C
100
AcDbEntity
  8
DRAFT
100
AcDbLine
 62
253
  6
CONTINUOUS
 10
72.7623404844
 20
144.1948960062
 11
75.3556550615
 21
144.1948960062
  0
LINE
  5
41D
100
AcDbEntity
  8
RACCORDO
100
AcDbLine
 62
253
  6
CONTINUOUS
 10
67.2297030069
 20
145.6948960062
 11
65.4556550615
 21
145.6948960062
  0
LINE
  5
41E
100
AcDbEntity
  8
RACCORDO
100
AcDbLine
 62
7
  6
CONTINUOUS
 10
65.9556550616
 20
146.1948960062
 11
72.6372286088
 21
146.1948960062
  0
ARC
  5
41F
100
AcDbEntity
  8
RACCORDO
100
AcDbCircle
 62
7
  6
CONTINUOUS
 10
155.9541244491
 20
521.4948960062
 40
445.0
100
AcDbArc
 50
266.9660168048
 51
273.0339831952
  0
ARC
  5
420
100
AcDbEntity
  8
RACCORDO
100
AcDbCircle
 62
7
  6
CONTINUOUS
 10
155.9541244491
 20
-314.1051039938
 40
445.0
100
AcDbArc
 50
86.9660168048
 51
93.0339831952
  0
ARC
  5
421
100
AcDbEntity
  8
RACCORDO
100
AcDbCircle
 62
7
  6
CONTINUOUS
 10
155.9541244491
 20
521.2948960062
 40
445.0
100
AcDbArc
 50
266.9653513257
 51
273.0346486743
  0
ARC
  5
422
100
AcDbEntity
  8
RACCORDO
100
AcDbCircle
 62
7
  6
CONTINUOUS
 10
155.9541244491
 20
-313.9051039938
 40
445.0
100
AcDbArc
 50
86.9653513257
 51
93.0346486743
  0
ARC
  5
423
100
AcDbEntity
  8
RACCORDO
100
AcDbCircle
 62
7
  6
CONTINUOUS
 10
97.9541244491
 20
63.1948960062
 40
2.0
100
AcDbArc
 50
180.0
 51
270.0
  0
ARC
  5
424
100
AcDbEntity
  8
RACCORDO
100
AcDbCircle
 62
7
  6
CONTINUOUS
 10
97.9541244491
 20
144.1948960062
 40
2.0
100
AcDbArc
 50
90.0
 51
180.0
  0
ARC
  5
425
100
AcDbEntity
  8
RACCORDO
100
AcDbCircle
 62
7
  6
CONTINUOUS
 10
213.9541244491
 20
144.1948960062
 40
2.0
100
AcDbArc
 50
0.0
 51
90.0
  0
ARC
  5
426
100
AcDbEntity
  8
RACCORDO
100
AcDbCircle
 62
7
  6
CONTINUOUS
 10
213.9541244491
 20
63.1948960062
 40
2.0
100
AcDbArc
 50
270.0
 51
360.0
  0
ARC
  5
427
100
AcDbEntity
  8
RACCORDO
100
AcDbCircle
 62
7
  6
CONTINUOUS
 10
179.4541244491
 20
78.01737571
 40
1.1
100
AcDbArc
 50
273.0346486743
 51
360.0
  0
ARC
  5
428
100
AcDbEntity
  8
RACCORDO
100
AcDbCircle
 62
7
  6
CONTINUOUS
 10
179.4541244491
 20
129.3724163025
 40
1.1
100
AcDbArc
 50
0.0
 51
86.9653513257
  0
ARC
  5
429
100
AcDbEntity
  8
RACCORDO
100
AcDbCircle
 62
7
  6
CONTINUOUS
 10
132.4541244491
 20
129.3724163025
 40
1.1
100
AcDbArc
 50
93.0346486743
 51
180.0
  0
ARC
  5
42A
100
AcDbEntity
  8
RACCORDO
100
AcDbCircle
 62
7
  6
CONTINUOUS
 10
132.4541244491
 20
78.01737571
 40
1.1
100
AcDbArc
 50
180.0
 51
266.9653513257
  0
ARC
  5
42B
100
AcDbEntity
  8
RACCORDO
100
AcDbCircle
 62
7
  6
CONTINUOUS
 10
65.9556550615
 20
61.6948960062
 40
0.5
100
AcDbArc
 50
180.0
 51
270.0000000074
  0
ARC
  5
42C
100
AcDbEntity
  8
RACCORDO
100
AcDbCircle
 62
7
  6
CONTINUOUS
 10
65.9556550615
 20
145.6948960062
 40
0.5
100
AcDbArc
 50
89.9999999925
 51
180.0
  0
ARC
  5
42D
100
AcDbEntity
  8
RACCORDO
100
AcDbCircle
 62
7
  6
CONTINUOUS
 10
65.5556551059
 20
76.7630012681
 40
0.2
100
AcDbArc
 50
180.0
 51
268.9999999993
  0
ARC
  5
42E
100
AcDbEntity
  8
RACCORDO
100
AcDbCircle
 62
7
  6
CONTINUOUS
 10
65.5556551059
 20
130.6267907444
 40
0.2
100
AcDbArc
 50
91.4237670074
 51
180.0
  0
ARC
  5
42F
100
AcDbEntity
  8
RACCORDO
100
AcDbCircle
 62
7
  6
CONTINUOUS
 10
65.5556574589
 20
131.1948961167
 40
0.1
100
AcDbArc
 50
180.0
 51
205.0993991759
  0
ARC
  5
430
100
AcDbEntity
  8
RACCORDO
100
AcDbCircle
 62
7
  6
CONTINUOUS
 10
65.5556574589
 20
76.1948958958
 40
0.1
100
AcDbArc
 50
154.9006008241
 51
180.0
  0
ELLIPSE
  5
431
100
AcDbEntity
  8
RACCORDO
100
AcDbEllipse
 62
7
  6
CONTINUOUS
 10
133.6543989183
 20
81.3951704754
 30
0.0
 11
0.1418092487
 21
0.1418092487
 31
0.0
 40
0.9972646886
 41
2.3575640181
 42
3.9256212891
  0
ELLIPSE
  5
432
100
AcDbEntity
  8
RACCORDO
100
AcDbEllipse
 62
7
  6
CONTINUOUS
 10
178.2538499799
 20
81.3951704754
 30
0.0
 11
-0.1418092487
 21
0.1418092487
 31
0.0
 40
0.9972646886
 41
2.3575640181
 42
3.9256212891
  0
ELLIPSE
  5
433
100
AcDbEntity
  8
RACCORDO
100
AcDbEllipse
 62
7
  6
CONTINUOUS
 10
178.2538499799
 20
125.994621537
 30
0.0
 11
-0.1418092487
 21
-0.1418092487
 31
0.0
 40
0.9972646886
 41
2.3575640181
 42
3.9256212891
  0
ELLIPSE
  5
434
100
AcDbEntity
  8
RACCORDO
100
AcDbEllipse
 62
7
  6
CONTINUOUS
 10
133.6543989183
 20
125.994621537
 30
0.0
 11
0.1418092487
 21
-0.1418092487
 31
0.0
 40
0.9972646886
 41
2.3575640181
 42
3.9256212891
  0
ENDSEC
  0
SECTION
  2
OBJECTS
  0
DICTIONARY
  5
C
100
AcDbDictionary
280
0
281
1
  3
ACAD_GROUP
350
D
  3
ACAD_MLINESTYLE
350
17
  3
ACAD_LAYOUT
350
1A
  3
ACAD_PLOTSETTINGS
350
19
  3
ACAD_PLOTSTYLENAME
350
E
  0
DICTIONARY
  5
D
102
{ACAD_REACTORS
330
C
102
}
100
AcDbDictionary
280
0
281
1
  0
ACDBDICTIONARYWDFLT
  5
E
102
{ACAD_REACTORS
330
C
102
}
100
AcDbDictionary
281
1
  3
Normal
350
F
100
AcDbDictionaryWithDefault
340
F
  0
DICTIONARY
  5
17
102
{ACAD_REACTORS
330
C
102
}
100
AcDbDictionary
280
0
281
1
  3
Standard
350
18
  0
DICTIONARY
  5
19
102
{ACAD_REACTORS
330
C
102
}
100
AcDbDictionary
281
1
  0
DICTIONARY
  5
1A
102
{ACAD_REACTORS
330
C
102
}
100
AcDbDictionary
281
1
  3
Model
350
435
  3
Layout1
350
436
  0
ACDBPLACEHOLDER
  5
F
102
{ACAD_REACTORS
330
E
102
}
  0
MLINESTYLE
  5
18
102
{ACAD_REACTORS
330
17
102
}
100
AcDbMlineStyle
  2
STANDARD
 70
0
  3

 62
256
 51
90.0
 52
90.0
 71
2
 49
0.5
 62
256
  6
BYLAYER
 49
-0.5
 62
256
  6
BYLAYER
  0
LAYOUT
  5
435
102
{ACAD_REACTORS
330
1A
102
}
100
AcDbPlotSettings
  1

  2
none_device
  4
ISO_A4_(297.00_x_210.00_MM)
  6

 40
0.0
 41
0.0
 42
0.0
 43
0.0
 44
297.0
 45
210.0
 46
0.0
 47
0.0
 48
0.0
 49
0.0
140
0.0
141
0.0
142
1.0
143
1.0
 70
1024
 72
1
 73
0
 74
0
  7

 75
0
147
1.0
148
0.0
149
0.0
100
AcDbLayout
  1
Model
 70
0
 71
0
 10
0.0
 20
0.0
 11
297.0
 21
210.0
 12
0.0
 22
0.0
 32
0.0
 14
0.0
 24
0.0
 34
0.0
 15
0.0
 25
0.0
 35
0.0
146
0.0
 13
0.0
 23
0.0
 33
0.0
 16
1.0
 26
0.0
 36
0.0
 17
0.0
 27
1.0
 37
0.0
 76
0
330
214
345
0
346
0
  0
LAYOUT
  5
436
102
{ACAD_REACTORS
330
1A
102
}
100
AcDbPlotSettings
  1

  2
none_device
  4
ISO_A4_(297.00_x_210.00_MM)
  6

 40
0.0
 41
0.0
 42
0.0
 43
0.0
 44
297.0
 45
210.0
 46
0.0
 47
0.0
 48
0.0
 49
0.0
140
0.0
141
0.0
142
1.0
143
1.0
 70
0
 72
1
 73
0
 74
0
  7

 75
0
147
1.0
148
0.0
149
0.0
100
AcDbLayout
  1
Layout1
 70
0
 71
1
 10
0.0
 20
0.0
 11
297.0
 21
210.0
 12
0.0
 22
0.0
 32
0.0
 14
0.0
 24
0.0
 34
0.0
 15
0.0
 25
0.0
 35
0.0
146
0.0
 13
0.0
 23
0.0
 33
0.0
 16
1.0
 26
0.0
 36
0.0
 17
0.0
 27
1.0
 37
0.0
 76
0
330
215
345
0
346
0
  0
ENDSEC
  0
EOF
