0
SECTION
2
HEADER
9
$ACADVER
1
AC1015
9
$DWGCODEPAGE
3
ANSI_1252
9
$EXTMAX
10
431.8000000000
20
558.8000000000
30
0.0000000000
9
$EXTMIN
10
0.0000000000
20
0.0000000000
30
0.0000000000
9
$LIMMIN
10
0.0000000000
20
0.0000000000
9
$LIMMAX
10
431.8000000000
20
558.8000000000
9
$VIEWCTR
10
215.9000000000
20
279.4000000000
9
$VIEWSIZE
40
558.8000000000
9
$CLAYER
8
0
9
$LTSCALE
40
36.4254814815
9
$CELTYPE
6
BYLAYER
9
$DIMSCALE
40
1
9
$DIMASZ
40
3.0000000000
9
$DIMEXO
40
4.1392592593
9
$DIMDLI
40
25.1666962963
9
$DIMEXE
40
11.9210666667
9
$DIMCEN
40
5.9605333333
9
$DIMLFAC
40
1.0000000000
9
$DIMBLK
1
_FILLED
9
$DIMTXT
40
3.0000000000
9
$DIMTOL
70
1
9
$DIMLIM
70
0
9
$DIMTFAC
40
1.0000000000
9
$DIMTP
40
0.0100000000
9
$DIMTM
40
0.0100000000
9
$PDMODE
70
3
9
$PDSIZE
40
3.0000000000
9
$HANDSEED
5
3E8
9
$MEASUREMENT
70
1
9
$INSUNITS
70
4
0
ENDSEC
0
SECTION
2
CLASSES
0
CLASS
1
ACDBDICTIONARYWDFLT
2
AcDbDictionaryWithDefault
3
AutoCAD 2000
90
0
280
0
281
0
0
CLASS
1
ACDBPLACEHOLDER
2
AcDbPlaceHolder
3
AutoCAD 2000
90
0
280
0
281
0
0
CLASS
1
LAYOUT
2
AcDbLayout
3
AutoCAD 2000
90
0
280
0
281
0
0
ENDSEC
0
SECTION
2
TABLES
0
TABLE
2
VPORT
5
8
100
AcDbSymbolTable
70
2
0
VPORT
5
1F4
100
AcDbSymbolTableRecord
100
AcDbViewportTableRecord
2
*ACTIVE
70
0
10
0.0
20
0.0
11
1.0
21
1.0
12
215.9000000000
22
279.4000000000
13
0.0
23
0.0
14
1.0
24
1.0
15
0.0
25
0.0
16
0.0
26
0.0
36
1.0
17
0.0
27
0.0
37
0.0
40
558.8000000000
41
0.7727272727
42
50.0
43
0.0
44
0.0
50
0.0
51
0.0
71
0
72
100
73
1
74
1
75
0
76
0
77
0
78
0
0
ENDTAB
0
TABLE
2
LTYPE
5
5
100
AcDbSymbolTable
70
6
0
LTYPE
5
14
100
AcDbSymbolTableRecord
100
AcDbLinetypeTableRecord
2
BYBLOCK
70
0
3

72
65
73
0
40
0.0
0
LTYPE
5
15
100
AcDbSymbolTableRecord
100
AcDbLinetypeTableRecord
2
BYLAYER
70
0
3

72
65
73
0
40
0.0
0
LTYPE
5
16
100
AcDbSymbolTableRecord
100
AcDbLinetypeTableRecord
2
CONTINUOUS
70
64
3
Solid line
72
65
73
0
40
0
0
LTYPE
5
1F5
100
AcDbSymbolTableRecord
100
AcDbLinetypeTableRecord
2
CENTER
70
64
3
____ _ ____ _ ____ _ ____ _ ____ _ ____ _ ____
72
65
73
4
40
0.6
49
0.375
74
0
49
-0.075
74
0
49
0.075
74
0
49
-0.075
74
0
0
LTYPE
5
1F6
100
AcDbSymbolTableRecord
100
AcDbLinetypeTableRecord
2
HIDDEN
70
64
3
- - - - - - - - - - - - - - - - - - - -
72
65
73
2
40
0.2
49
0.1
74
0
49
-0.1
74
0
0
LTYPE
5
1F7
100
AcDbSymbolTableRecord
100
AcDbLinetypeTableRecord
2
PHANTOM
70
64
3
_____ _ _ _____ _ _ _____ _ _ _____
72
65
73
6
40
0.8
49
0.45
74
0
49
-0.05
74
0
49
0.1
74
0
49
-0.05
74
0
49
0.1
74
0
49
-0.05
74
0
0
LTYPE
5
1F8
100
AcDbSymbolTableRecord
100
AcDbLinetypeTableRecord
2
DOT
70
64
3
. . . . . . . . . . . . . . . . . . . .
72
65
73
2
40
0.2
49
0.1
74
0
49
-0.1
74
0
0
LTYPE
5
1F9
100
AcDbSymbolTableRecord
100
AcDbLinetypeTableRecord
2
DASHED
70
64
3
- - - - - - - - - - - - - - - - - - - -
72
65
73
2
40
0.2
49
0.1
74
0
49
-0.1
74
0
0
ENDTAB
0
TABLE
2
LAYER
5
2
100
AcDbSymbolTable
70
36
0
LAYER
5
10
100
AcDbSymbolTableRecord
100
AcDbLayerTableRecord
2
0
70
0
62
7
6
CONTINUOUS
370
-3
390
F
0
LAYER
5
1FA
100
AcDbSymbolTableRecord
100
AcDbLayerTableRecord
2
DEFAULT_1
70
0
62
7
6
CENTER
370
-3
390
F
0
LAYER
5
1FB
100
AcDbSymbolTableRecord
100
AcDbLayerTableRecord
2
DEFAULT_2
70
0
62
9
6
HIDDEN
370
-3
390
F
0
LAYER
5
1FC
100
AcDbSymbolTableRecord
100
AcDbLayerTableRecord
2
DEFAULT_3
70
0
62
7
6
PHANTOM
370
-3
390
F
0
LAYER
5
1FD
100
AcDbSymbolTableRecord
100
AcDbLayerTableRecord
2
ASSI
70
0
62
7
6
CONTINUOUS
370
-3
390
F
0
LAYER
5
1FE
100
AcDbSymbolTableRecord
100
AcDbLayerTableRecord
2
COORDINATE
70
0
62
7
6
CONTINUOUS
370
-3
390
F
0
LAYER
5
1FF
100
AcDbSymbolTableRecord
100
AcDbLayerTableRecord
2
COORD_ORIGINE
70
0
62
7
6
CONTINUOUS
370
-3
390
F
0
LAYER
5
200
100
AcDbSymbolTableRecord
100
AcDbLayerTableRecord
2
COPY_PLACCA
70
0
62
7
6
CONTINUOUS
370
-3
390
F
0
LAYER
5
201
100
AcDbSymbolTableRecord
100
AcDbLayerTableRecord
2
CURVE
70
0
62
7
6
CONTINUOUS
370
-3
390
F
0
LAYER
5
202
100
AcDbSymbolTableRecord
100
AcDbLayerTableRecord
2
DRAFT
70
0
62
7
6
CONTINUOUS
370
-3
390
F
0
LAYER
5
203
100
AcDbSymbolTableRecord
100
AcDbLayerTableRecord
2
IMPORT_SCRITTE
70
0
62
7
6
CONTINUOUS
370
-3
390
F
0
LAYER
5
204
100
AcDbSymbolTableRecord
100
AcDbLayerTableRecord
2
NOTE
70
0
62
7
6
CONTINUOUS
370
-3
390
F
0
LAYER
5
205
100
AcDbSymbolTableRecord
100
AcDbLayerTableRecord
2
PIANI
70
0
62
7
6
CONTINUOUS
370
-3
390
F
0
LAYER
5
206
100
AcDbSymbolTableRecord
100
AcDbLayerTableRecord
2
PIANI_ORIGINE
70
0
62
7
6
CONTINUOUS
370
-3
390
F
0
LAYER
5
207
100
AcDbSymbolTableRecord
100
AcDbLayerTableRecord
2
PUNTI
70
0
62
7
6
CONTINUOUS
370
-3
390
F
0
LAYER
5
208
100
AcDbSymbolTableRecord
100
AcDbLayerTableRecord
2
RACCORDO
70
0
62
7
6
CONTINUOUS
370
-3
390
F
0
LAYER
5
209
100
AcDbSymbolTableRecord
100
AcDbLayerTableRecord
2
SKELETON
70
0
62
7
6
CONTINUOUS
370
-3
390
F
0
LAYER
5
20A
100
AcDbSymbolTableRecord
100
AcDbLayerTableRecord
2
SUPERFICI
70
0
62
7
6
CONTINUOUS
370
-3
390
F
0
LAYER
5
20B
100
AcDbSymbolTableRecord
100
AcDbLayerTableRecord
2
SUPP
70
0
62
7
6
CONTINUOUS
370
-3
390
F
0
LAYER
5
20C
100
AcDbSymbolTableRecord
100
AcDbLayerTableRecord
2
TRASH
70
0
62
7
6
CONTINUOUS
370
-3
390
F
0
LAYER
5
20D
100
AcDbSymbolTableRecord
100
AcDbLayerTableRecord
2
XSEC_DATUMS
70
0
62
7
6
CONTINUOUS
370
-3
390
F
0
ENDTAB
0
TABLE
2
STYLE
5
3
100
AcDbSymbolTable
70
1
0
STYLE
5
11
100
AcDbSymbolTableRecord
100
AcDbTextStyleTableRecord
2
STANDARD
70
0
40
0.0
41
0.8000000000
50
0.0
71
0
42
0.2
3
txt
4

0
ENDTAB
0
TABLE
2
VIEW
5
6
100
AcDbSymbolTable
70
0
0
ENDTAB
0
TABLE
2
UCS
5
7
100
AcDbSymbolTable
70
0
0
ENDTAB
0
TABLE
2
APPID
5
9
100
AcDbSymbolTable
70
1
0
APPID
5
20E
100
AcDbSymbolTableRecord
100
AcDbRegAppTableRecord
2
ACAD
70
0
0
ENDTAB
0
TABLE
2
BLOCK_RECORD
5
1
100
AcDbSymbolTable
70
0
0
BLOCK_RECORD
5
1F
100
AcDbSymbolTableRecord
100
AcDbBlockTableRecord
2
*MODEL_SPACE
0
BLOCK_RECORD
5
1B
100
AcDbSymbolTableRecord
100
AcDbBlockTableRecord
2
*PAPER_SPACE
0
BLOCK_RECORD
5
20F
100
AcDbSymbolTableRecord
100
AcDbBlockTableRecord
2
_FILLED
0
BLOCK_RECORD
5
210
100
AcDbSymbolTableRecord
100
AcDbBlockTableRecord
2
*D0
0
BLOCK_RECORD
5
211
100
AcDbSymbolTableRecord
100
AcDbBlockTableRecord
2
*D1
0
BLOCK_RECORD
5
212
100
AcDbSymbolTableRecord
100
AcDbBlockTableRecord
2
*D2
0
ENDTAB
0
TABLE
2
DIMSTYLE
5
A
100
AcDbSymbolTable
70
1
100
AcDbDimStyleTable
71
0
0
DIMSTYLE
105
213
100
AcDbSymbolTableRecord
100
AcDbDimStyleTableRecord
2
STANDARD
70
0
3

4

40
1.0
41
3.0000000000
42
0.0625
43
0.38
44
0.18
45
0.0
46
0.0
47
0.0100000000
48
0.0100000000
140
3.0000000000
141
0.09
142
0.0
143
25.4
144
1.0000000000
145
0.0
146
1.0000000000
147
0.09
71
1
72
0
73
0
74
0
75
0
76
0
77
1
78
8
170
0
171
2
172
0
173
0
174
0
175
0
176
0
177
0
178
0
270
2
271
2
272
2
273
2
274
2
275
0
280
0
281
0
282
0
283
1
284
8
285
0
286
0
287
3
288
0
340
11
341
20F
342
20F
343
20F
344
20F
0
DIMSTYLE
105
214
100
AcDbSymbolTableRecord
100
AcDbDimStyleTableRecord
2
DIMSTYLE_1
70
0
3

4

40
1.0
41
3.0000000000
42
0.0625
43
0.38
44
0.18
45
0.0
46
0.0
47
0.0000000000
48
0.0000000000
140
3.0000000000
141
0.09
142
0.0
143
25.4
144
1.0000000000
145
0.0
146
1.0000000000
147
0.09
71
0
72
0
73
0
74
0
75
0
76
0
77
1
78
8
170
0
171
2
172
0
173
0
174
0
175
0
176
0
177
0
178
0
270
2
271
2
272
2
273
2
274
2
275
0
280
0
281
0
282
0
283
1
284
8
285
0
286
0
287
3
288
0
340
11
341
20F
342
20F
343
20F
344
20F
0
ENDTAB
0
ENDSEC
0
SECTION
2
BLOCKS
0
BLOCK
5
20
100
AcDbEntity
8
0
100
AcDbBlockBegin
2
*MODEL_SPACE
70
0
10
0.0
20
0.0
30
0.0
3
*MODEL_SPACE
1

0
ENDBLK
5
21
100
AcDbEntity
8
0
100
AcDbBlockEnd
0
BLOCK
5
1C
100
AcDbEntity
8
0
100
AcDbBlockBegin
2
*PAPER_SPACE
70
0
10
0.0
20
0.0
30
0.0
3
*PAPER_SPACE
1

0
ENDBLK
5
1D
100
AcDbEntity
8
0
100
AcDbBlockEnd
0
BLOCK
5
215
100
AcDbEntity
8
0
100
AcDbBlockBegin
62
0
6
CONTINUOUS
2
*D0
70
65
10
0.0000000000
20
0.0000000000
3
*D0
1

0
TEXT
5
216
100
AcDbEntity
8
0
100
AcDbText
62
0
6
CONTINUOUS
10
71.5167048578
20
54.0384486112
7
STANDARD
40
3.0000000000
1
119,8
41
0.6571428571
72
0
100
AcDbText
0
LINE
5
217
100
AcDbEntity
8
0
100
AcDbLine
62
0
6
CONTINUOUS
10
135.8906015274
20
41.7715371439
11
135.8906015274
21
54.7884486112
0
LINE
5
218
100
AcDbEntity
8
0
100
AcDbLine
62
0
6
CONTINUOUS
10
16.0906015274
20
41.6695675994
11
16.0906015274
21
54.7884486112
0
LINE
5
219
100
AcDbEntity
8
0
100
AcDbLine
62
0
6
CONTINUOUS
10
135.8906015274
20
53.2884486112
11
75.9906015274
21
53.2884486112
0
LINE
5
21A
100
AcDbEntity
8
0
100
AcDbLine
62
0
6
CONTINUOUS
10
16.0906015274
20
53.2884486112
11
75.9906015274
21
53.2884486112
0
INSERT
5
21B
100
AcDbEntity
8
0
100
AcDbBlockReference
62
0
6
CONTINUOUS
2
_FILLED
10
135.8906015274
20
53.2884486112
41
  3.000000
42
  3.000000
43
  3.000000
0
INSERT
5
21C
100
AcDbEntity
8
0
100
AcDbBlockReference
62
0
6
CONTINUOUS
2
_FILLED
10
16.0906015274
20
53.2884486112
41
  3.000000
42
  3.000000
43
  3.000000
50
180.000000
0
ENDBLK
5
21D
100
AcDbEntity
8
0
6
BYBLOCK
62
0
100
AcDbBlockEnd
0
BLOCK
5
21E
100
AcDbEntity
8
0
100
AcDbBlockBegin
62
0
6
CONTINUOUS
2
*D1
70
65
10
0.0000000000
20
0.0000000000
3
*D1
1

0
TEXT
5
21F
100
AcDbEntity
8
0
100
AcDbText
62
0
6
CONTINUOUS
10
146.8915700616
20
-4.5804411424
7
STANDARD
40
3.0000000000
1
84,8
50
90.0000000000
41
0.7321428571
72
0
100
AcDbText
0
LINE
5
220
100
AcDbEntity
8
0
100
AcDbLine
62
0
6
CONTINUOUS
10
135.0880880421
20
42.3915766774
11
149.1415700616
21
42.3915766774
0
LINE
5
221
100
AcDbEntity
8
0
100
AcDbLine
62
0
6
CONTINUOUS
10
135.0149996748
20
-42.4083749597
11
149.1415700616
21
-42.4083749597
0
LINE
5
222
100
AcDbEntity
8
0
100
AcDbLine
62
0
6
CONTINUOUS
10
147.6415700616
20
42.3915766774
11
147.6415700616
21
-0.0083991411
0
LINE
5
223
100
AcDbEntity
8
0
100
AcDbLine
62
0
6
CONTINUOUS
10
147.6415700616
20
-42.4083749597
11
147.6415700616
21
-0.0083991411
0
INSERT
5
224
100
AcDbEntity
8
0
100
AcDbBlockReference
62
0
6
CONTINUOUS
2
_FILLED
10
147.6415700616
20
42.3915766774
41
  3.000000
42
  3.000000
43
  3.000000
50
 90.000000
0
INSERT
5
225
100
AcDbEntity
8
0
100
AcDbBlockReference
62
0
6
CONTINUOUS
2
_FILLED
10
147.6415700616
20
-42.4083749597
41
  3.000000
42
  3.000000
43
  3.000000
50
270.000000
0
ENDBLK
5
226
100
AcDbEntity
8
0
6
BYBLOCK
62
0
100
AcDbBlockEnd
0
BLOCK
5
227
100
AcDbEntity
8
0
100
AcDbBlockBegin
62
0
6
CONTINUOUS
2
*D2
70
65
10
0.0000000000
20
0.0000000000
3
*D2
1

0
TEXT
5
228
100
AcDbEntity
8
0
100
AcDbText
62
0
6
CONTINUOUS
10
-18.5416286244
20
54.0099976571
7
STANDARD
40
3.0000000000
1
9
41
0.7857142857
72
0
100
AcDbText
0
LINE
5
229
100
AcDbEntity
8
0
100
AcDbLine
62
0
6
CONTINUOUS
10
-22.2842362753
20
42.4207910014
11
-22.2842362753
21
54.7599976571
0
LINE
5
22A
100
AcDbEntity
8
0
100
AcDbLine
62
0
6
CONTINUOUS
10
-13.2842362753
20
41.5373452131
11
-13.2842362753
21
54.7599976571
0
LINE
5
22B
100
AcDbEntity
8
0
100
AcDbLine
62
0
6
CONTINUOUS
10
-22.2842362753
20
53.2599976571
11
-17.7842362753
21
53.2599976571
0
LINE
5
22C
100
AcDbEntity
8
0
100
AcDbLine
62
0
6
CONTINUOUS
10
-13.2842362753
20
53.2599976571
11
-17.7842362753
21
53.2599976571
0
INSERT
5
22D
100
AcDbEntity
8
0
100
AcDbBlockReference
62
0
6
CONTINUOUS
2
_FILLED
10
-22.2842362753
20
53.2599976571
41
  3.000000
42
  3.000000
43
  3.000000
50
180.000000
0
INSERT
5
22E
100
AcDbEntity
8
0
100
AcDbBlockReference
62
0
6
CONTINUOUS
2
_FILLED
10
-13.2842362753
20
53.2599976571
41
  3.000000
42
  3.000000
43
  3.000000
0
ENDBLK
5
22F
100
AcDbEntity
8
0
6
BYBLOCK
62
0
100
AcDbBlockEnd
0
BLOCK
5
230
100
AcDbEntity
8
0
100
AcDbBlockBegin
2
_FILLED
70
64
10
0.0000000000
20
0.0000000000
3
_FILLED
1

0
SOLID
5
231
100
AcDbEntity
8
0
6
BYBLOCK
62
0
100
AcDbTrace
10
0.0000000000
20
0.0000000000
11
-1.0000000000
21
0.3166666667
12
-1.0000000000
22
-0.3166666667
13
-1.0000000000
23
-0.3166666667
0
ENDBLK
5
232
100
AcDbEntity
8
0
6
BYBLOCK
62
0
100
AcDbBlockEnd
0
ENDSEC
0
SECTION
2
ENTITIES
0
DIMENSION
5
233
100
AcDbEntity
8
0
100
AcDbDimension
62
0
6
CONTINUOUS
2
*D0
10
16.0906015274
20
53.2884486112
11
76.4452762864
21
55.5384486112
70
160
42
119.800000
3
DIMSTYLE_1
100
AcDbAlignedDimension
13
135.8906015274
23
41.7715371439
14
16.0906015274
24
41.6695675994
50
180.000000
100
AcDbRotatedDimension
0
DIMENSION
5
234
100
AcDbEntity
8
0
100
AcDbDimension
62
0
6
CONTINUOUS
2
*D1
10
147.6415700616
20
-42.4083749597
11
145.3915700616
21
-0.1875839995
70
160
42
84.799952
3
DIMSTYLE_1
100
AcDbAlignedDimension
13
135.0880880421
23
42.3915766774
14
135.0149996748
24
-42.4083749597
50
270.000000
100
AcDbRotatedDimension
0
DIMENSION
5
235
100
AcDbEntity
8
0
100
AcDbDimension
62
0
6
CONTINUOUS
2
*D2
10
-13.2842362753
20
53.2599976571
11
-17.3630571958
21
55.5099976571
70
160
42
9.000000
3
DIMSTYLE_1
100
AcDbAlignedDimension
13
-22.2842362753
23
42.4207910014
14
-13.2842362753
24
41.5373452131
100
AcDbRotatedDimension
0
LINE
5
236
100
AcDbEntity
8
0
100
AcDbLine
62
0
6
CONTINUOUS
10
16.0906015274
20
40.5004099821
11
16.0906015274
21
-40.5172082643
0
LINE
5
237
100
AcDbEntity
8
0
100
AcDbLine
62
9
6
CONTINUOUS
10
16.3067756348
20
-40.3017296581
11
16.3067756348
21
40.2849313759
0
LINE
5
238
100
AcDbEntity
8
0
100
AcDbLine
62
9
6
CONTINUOUS
10
17.1497982973
20
-40.3017296581
11
17.1497982973
21
40.2849313759
0
LINE
5
239
100
AcDbEntity
8
0
100
AcDbLine
62
9
6
CONTINUOUS
10
133.8318143917
20
-41.2971442278
11
18.1493886630
21
-41.2971442278
0
LINE
5
23A
100
AcDbEntity
8
0
100
AcDbLine
62
9
6
CONTINUOUS
10
135.6744274199
20
-40.3017296581
11
134.8314047575
21
-40.3017296581
0
LINE
5
23B
100
AcDbEntity
8
0
100
AcDbLine
62
9
6
CONTINUOUS
10
16.3067756348
20
-40.3017296581
11
17.1497982973
21
-40.3017296581
0
LINE
5
23C
100
AcDbEntity
8
0
100
AcDbLine
62
9
6
CONTINUOUS
10
42.0448495190
20
22.7595065144
11
42.0255411897
21
23.5495961995
0
LINE
5
23D
100
AcDbEntity
8
0
100
AcDbLine
62
9
6
CONTINUOUS
10
42.2445754259
20
22.8440301667
11
42.2252670966
21
23.6341198519
0
LINE
5
23E
100
AcDbEntity
8
0
100
AcDbLine
62
9
6
CONTINUOUS
10
39.9082176408
20
-24.9659919041
11
39.9082176408
21
24.9491936220
0
LINE
5
23F
100
AcDbEntity
8
0
100
AcDbLine
62
9
6
CONTINUOUS
10
40.0116352562
20
-24.9659919041
11
40.0116352562
21
24.9491936220
0
LINE
5
240
100
AcDbEntity
8
0
100
AcDbLine
62
0
6
CONTINUOUS
10
40.0906015274
20
24.8759627911
11
40.0906015274
21
-24.8927612577
0
LINE
5
241
100
AcDbEntity
8
0
100
AcDbLine
62
9
6
CONTINUOUS
10
40.2549459877
20
24.8194753411
11
40.2549459877
21
17.4916008589
0
LINE
5
242
100
AcDbEntity
8
0
100
AcDbLine
62
9
6
CONTINUOUS
10
40.2549459877
20
17.3272563985
11
40.2549459877
21
-17.3440546807
0
LINE
5
243
100
AcDbEntity
8
0
100
AcDbLine
62
9
6
CONTINUOUS
10
40.2549459877
20
-17.5083991411
11
40.2549459877
21
-24.8362736233
0
LINE
5
244
100
AcDbEntity
8
0
100
AcDbLine
62
0
6
CONTINUOUS
10
40.3231083219
20
-17.5083991411
11
40.3231083219
21
-17.2758923466
0
LINE
5
245
100
AcDbEntity
8
0
100
AcDbLine
62
0
6
CONTINUOUS
10
40.3231083219
20
17.2590940644
11
40.3231083219
21
17.4916008589
0
LINE
5
246
100
AcDbEntity
8
0
100
AcDbLine
62
9
6
CONTINUOUS
10
40.3461479993
20
-24.7521032554
11
40.3461479993
21
24.7353049732
0
LINE
5
247
100
AcDbEntity
8
0
100
AcDbLine
62
9
6
CONTINUOUS
10
40.4422670523
20
-24.7521032554
11
40.4422670523
21
24.7353049732
0
LINE
5
248
100
AcDbEntity
8
0
100
AcDbLine
62
9
6
CONTINUOUS
10
41.8186173924
20
24.4511828008
11
41.8186173924
21
-24.4679810796
0
LINE
5
249
100
AcDbEntity
8
0
100
AcDbLine
62
9
6
CONTINUOUS
10
42.0255411897
20
23.5495961995
11
42.0255411897
21
-23.5663944817
0
LINE
5
24A
100
AcDbEntity
8
0
100
AcDbLine
62
0
6
CONTINUOUS
10
42.1406015274
20
-22.3086732342
11
42.1406015274
21
22.2918749519
0
LINE
5
24B
100
AcDbEntity
8
0
100
AcDbLine
62
9
6
CONTINUOUS
10
42.0448495190
20
-22.7763047966
11
42.0255411897
21
-23.5663944817
0
LINE
5
24C
100
AcDbEntity
8
0
100
AcDbLine
62
9
6
CONTINUOUS
10
42.2445754259
20
-22.8608284489
11
42.2252670966
21
-23.6509181341
0
LINE
5
24D
100
AcDbEntity
8
0
100
AcDbLine
62
0
6
CONTINUOUS
10
45.9906015274
20
-26.3460115809
11
45.9906015274
21
-26.1237888335
0
LINE
5
24E
100
AcDbEntity
8
0
100
AcDbLine
62
0
6
CONTINUOUS
10
45.9906015274
20
26.1069905513
11
45.9906015274
21
26.3292132987
0
LINE
5
24F
100
AcDbEntity
8
0
100
AcDbLine
62
0
6
CONTINUOUS
10
72.2916085274
20
-25.1598261411
11
72.6775145274
21
-25.1598261411
0
LINE
5
250
100
AcDbEntity
8
0
100
AcDbLine
62
0
6
CONTINUOUS
10
73.6338905274
20
-25.1598261411
11
74.0365755274
21
-25.1598261411
0
LINE
5
251
100
AcDbEntity
8
0
100
AcDbLine
62
0
6
CONTINUOUS
10
74.3889245274
20
-25.1598261411
11
74.7916085274
21
-25.1598261411
0
LINE
5
252
100
AcDbEntity
8
0
100
AcDbLine
62
0
6
CONTINUOUS
10
75.1775145274
20
-25.1598261411
11
75.5801995274
21
-25.1598261411
0
LINE
5
253
100
AcDbEntity
8
0
100
AcDbLine
62
0
6
CONTINUOUS
10
75.9661055274
20
-25.1598261411
11
76.3687895274
21
-25.1598261411
0
LINE
5
254
100
AcDbEntity
8
0
100
AcDbLine
62
0
6
CONTINUOUS
10
76.6875815274
20
-25.1598261411
11
77.0902665274
21
-25.1598261411
0
LINE
5
255
100
AcDbEntity
8
0
100
AcDbLine
62
0
6
CONTINUOUS
10
77.9795285274
20
-25.1598261411
11
78.3822125274
21
-25.1598261411
0
LINE
5
256
100
AcDbEntity
8
0
100
AcDbLine
62
0
6
CONTINUOUS
10
78.7010045274
20
-25.1598261411
11
79.1036895274
21
-25.1598261411
0
LINE
5
257
100
AcDbEntity
8
0
100
AcDbLine
62
0
6
CONTINUOUS
10
79.8587225274
20
-25.1598261411
11
80.3117425274
21
-25.1598261411
0
LINE
5
258
100
AcDbEntity
8
0
100
AcDbLine
62
9
6
CONTINUOUS
10
112.0729854140
20
-24.9659919042
11
111.9695677985
21
-24.9659919044
0
LINE
5
259
100
AcDbEntity
8
0
100
AcDbLine
62
9
6
CONTINUOUS
10
39.9082176408
20
-24.9659919041
11
40.0116352562
21
-24.9659919041
0
LINE
5
25A
100
AcDbEntity
8
0
100
AcDbLine
62
9
6
CONTINUOUS
10
111.8906015274
20
-24.8362736233
11
111.7262570670
21
-24.8362736233
0
LINE
5
25B
100
AcDbEntity
8
0
100
AcDbLine
62
9
6
CONTINUOUS
10
40.0906015274
20
-24.8362736233
11
40.2549459877
21
-24.8362736233
0
LINE
5
25C
100
AcDbEntity
8
0
100
AcDbLine
62
0
6
CONTINUOUS
10
77.2077165274
20
-24.8100761411
11
77.8452995274
21
-24.8100761411
0
LINE
5
25D
100
AcDbEntity
8
0
100
AcDbLine
62
9
6
CONTINUOUS
10
111.6350550555
20
-24.7521032554
11
111.5389360024
21
-24.7521032554
0
LINE
5
25E
100
AcDbEntity
8
0
100
AcDbLine
62
9
6
CONTINUOUS
10
40.3461479993
20
-24.7521032554
11
40.4422670523
21
-24.7521032554
0
LINE
5
25F
100
AcDbEntity
8
0
100
AcDbLine
62
0
6
CONTINUOUS
10
77.7278505274
20
-24.4755331411
11
77.3419445274
21
-24.4755331411
0
LINE
5
260
100
AcDbEntity
8
0
100
AcDbLine
62
0
6
CONTINUOUS
10
79.1036895274
20
-24.4755331411
11
79.4560385274
21
-24.4755331411
0
LINE
5
261
100
AcDbEntity
8
0
100
AcDbLine
62
0
6
CONTINUOUS
10
79.5902682809
20
-24.1409901742
11
79.0869105274
21
-24.1409901411
0
LINE
5
262
100
AcDbEntity
8
0
100
AcDbLine
62
0
6
CONTINUOUS
10
79.0869105274
20
-23.6847951411
11
79.5902661075
21
-23.6847951442
0
LINE
5
263
100
AcDbEntity
8
0
100
AcDbLine
62
0
6
CONTINUOUS
10
79.6406033202
20
-23.3502521223
11
78.7010045274
21
-23.3502521411
0
LINE
5
264
100
AcDbEntity
8
0
100
AcDbLine
62
0
6
CONTINUOUS
10
77.7278505274
20
-23.3502521411
11
77.3251655274
21
-23.3502521411
0
LINE
5
265
100
AcDbEntity
8
0
100
AcDbLine
62
0
6
CONTINUOUS
10
76.3687895274
20
-23.3502521411
11
75.7647635274
21
-23.3502521411
0
LINE
5
266
100
AcDbEntity
8
0
100
AcDbLine
62
0
6
CONTINUOUS
10
75.0097295274
20
-23.3502521411
11
74.3889245274
21
-23.3502521411
0
LINE
5
267
100
AcDbEntity
8
0
100
AcDbLine
62
0
6
CONTINUOUS
10
74.0365755274
20
-23.3502521411
11
73.6338905274
21
-23.3502521411
0
LINE
5
268
100
AcDbEntity
8
0
100
AcDbLine
62
0
6
CONTINUOUS
10
73.3318775274
20
-23.3502521411
11
72.9291925274
21
-23.3502521411
0
LINE
5
269
100
AcDbEntity
8
0
100
AcDbLine
62
0
6
CONTINUOUS
10
72.0399315274
20
-23.3502521411
11
71.6372465274
21
-23.3502521411
0
LINE
5
26A
100
AcDbEntity
8
0
100
AcDbLine
62
9
6
CONTINUOUS
10
42.2445754259
20
-22.8608284489
11
109.7366276288
21
-22.8608284489
0
LINE
5
26B
100
AcDbEntity
8
0
100
AcDbLine
62
9
6
CONTINUOUS
10
42.2759037630
20
-22.5728228124
11
109.7052992917
21
-22.5728228124
0
LINE
5
26C
100
AcDbEntity
8
0
100
AcDbLine
62
0
6
CONTINUOUS
10
109.6408756204
20
-22.5083991411
11
42.3403274343
21
-22.5083991411
0
LINE
5
26D
100
AcDbEntity
8
0
100
AcDbLine
62
0
6
CONTINUOUS
10
40.0906015274
20
-17.5083991411
11
40.3231083219
21
-17.5083991411
0
LINE
5
26E
100
AcDbEntity
8
0
100
AcDbLine
62
0
6
CONTINUOUS
10
111.6580947328
20
-17.5083991411
11
111.8906015274
21
-17.5083991411
0
LINE
5
26F
100
AcDbEntity
8
0
100
AcDbLine
62
0
6
CONTINUOUS
10
40.3231083219
20
-17.2758923466
11
40.0906015274
21
-17.5083991411
0
LINE
5
270
100
AcDbEntity
8
0
100
AcDbLine
62
9
6
CONTINUOUS
10
16.3067756348
20
-40.3017296581
11
16.0906015274
21
-40.5172082643
0
LINE
5
271
100
AcDbEntity
8
0
100
AcDbLine
62
9
6
CONTINUOUS
10
18.2012999130
20
-42.1959061892
11
17.9880987014
21
-42.4083990109
0
LINE
5
272
100
AcDbEntity
8
0
100
AcDbLine
62
9
6
CONTINUOUS
10
16.0906015274
20
40.5004099821
11
16.3067756348
21
40.2849313759
0
LINE
5
273
100
AcDbEntity
8
0
100
AcDbLine
62
9
6
CONTINUOUS
10
17.9880987014
20
42.3916007287
11
18.2012999130
21
42.1791079070
0
LINE
5
274
100
AcDbEntity
8
0
100
AcDbLine
62
0
6
CONTINUOUS
10
40.0906015274
20
17.4916008589
11
40.3231083219
21
17.2590940644
0
LINE
5
275
100
AcDbEntity
8
0
100
AcDbLine
62
0
6
CONTINUOUS
10
71.6372465274
20
-23.3502521411
11
72.2916085274
21
-25.1598261411
0
LINE
5
276
100
AcDbEntity
8
0
100
AcDbLine
62
0
6
CONTINUOUS
10
72.4761725274
20
-24.6123921411
11
72.0399315274
21
-23.3502521411
0
LINE
5
277
100
AcDbEntity
8
0
100
AcDbLine
62
9
6
CONTINUOUS
10
42.1406015274
20
-22.3086732342
11
42.0761797370
21
-22.3730950245
0
LINE
5
278
100
AcDbEntity
8
0
100
AcDbLine
62
9
6
CONTINUOUS
10
42.3403274343
20
-22.5083991411
11
42.2759037630
21
-22.5728228124
0
LINE
5
279
100
AcDbEntity
8
0
100
AcDbLine
62
9
6
CONTINUOUS
10
40.0906015274
20
-24.8927612577
11
40.0116352562
21
-24.9659919041
0
LINE
5
27A
100
AcDbEntity
8
0
100
AcDbLine
62
9
6
CONTINUOUS
10
40.0906015274
20
24.8759627911
11
40.0116352562
21
24.9491936220
0
LINE
5
27B
100
AcDbEntity
8
0
100
AcDbLine
62
9
6
CONTINUOUS
10
42.1406015274
20
22.2918749519
11
42.0761797610
21
22.3562967183
0
LINE
5
27C
100
AcDbEntity
8
0
100
AcDbLine
62
9
6
CONTINUOUS
10
42.3403274343
20
22.4916008589
11
42.2759037630
21
22.5560245302
0
LINE
5
27D
100
AcDbEntity
8
0
100
AcDbLine
62
0
6
CONTINUOUS
10
80.3117425274
20
-25.1598261411
11
79.8755013618
21
-24.4299138641
0
LINE
5
27E
100
AcDbEntity
8
0
100
AcDbLine
62
0
6
CONTINUOUS
10
79.4560385274
20
-24.4755331411
11
79.8587225274
21
-25.1598261411
0
LINE
5
27F
100
AcDbEntity
8
0
100
AcDbLine
62
0
6
CONTINUOUS
10
77.8452995274
20
-24.8100761411
11
77.9795285274
21
-25.1598261411
0
LINE
5
280
100
AcDbEntity
8
0
100
AcDbLine
62
0
6
CONTINUOUS
10
78.3822125274
20
-25.1598261411
11
77.7278505274
21
-23.3502521411
0
LINE
5
281
100
AcDbEntity
8
0
100
AcDbLine
62
0
6
CONTINUOUS
10
77.5265085274
20
-23.9128931411
11
77.7278505274
21
-24.4755331411
0
LINE
5
282
100
AcDbEntity
8
0
100
AcDbLine
62
0
6
CONTINUOUS
10
74.7916085274
20
-23.9737191411
11
75.1775145274
21
-25.1598261411
0
LINE
5
283
100
AcDbEntity
8
0
100
AcDbLine
62
0
6
CONTINUOUS
10
75.3788575274
20
-24.5363591411
11
75.0097295274
21
-23.3502521411
0
LINE
5
284
100
AcDbEntity
8
0
100
AcDbLine
62
0
6
CONTINUOUS
10
73.6338905274
20
-23.3502521411
11
73.6338905274
21
-25.1598261411
0
LINE
5
285
100
AcDbEntity
8
0
100
AcDbLine
62
0
6
CONTINUOUS
10
74.0365755274
20
-25.1598261411
11
74.0365755274
21
-23.3502521411
0
LINE
5
286
100
AcDbEntity
8
0
100
AcDbLine
62
0
6
CONTINUOUS
10
74.3889245274
20
-23.3502521411
11
74.3889245274
21
-25.1598261411
0
LINE
5
287
100
AcDbEntity
8
0
100
AcDbLine
62
0
6
CONTINUOUS
10
74.7916085274
20
-25.1598261411
11
74.7916085274
21
-23.9737191411
0
LINE
5
288
100
AcDbEntity
8
0
100
AcDbLine
62
0
6
CONTINUOUS
10
75.9661055274
20
-23.9737191411
11
75.9661055274
21
-25.1598261411
0
LINE
5
289
100
AcDbEntity
8
0
100
AcDbLine
62
0
6
CONTINUOUS
10
76.3687895274
20
-25.1598261411
11
76.3687895274
21
-23.3502521411
0
LINE
5
28A
100
AcDbEntity
8
0
100
AcDbLine
62
0
6
CONTINUOUS
10
46.1984799918
20
-26.1381331164
11
45.9906015274
21
-26.3460115809
0
LINE
5
28B
100
AcDbEntity
8
0
100
AcDbLine
62
9
6
CONTINUOUS
10
41.1007067535
20
-25.9885325077
11
41.0212575781
21
-26.0620349800
0
LINE
5
28C
100
AcDbEntity
8
0
100
AcDbLine
62
9
6
CONTINUOUS
10
41.1007067541
20
25.9717342257
11
41.0212575778
21
26.0452366979
0
LINE
5
28D
100
AcDbEntity
8
0
100
AcDbLine
62
0
6
CONTINUOUS
10
45.9906015274
20
26.3292132987
11
46.1984799919
21
26.1213348342
0
LINE
5
28E
100
AcDbEntity
8
0
100
AcDbLine
62
0
6
CONTINUOUS
10
78.7010045274
20
-23.3502521411
11
78.7010045274
21
-25.1598261411
0
LINE
5
28F
100
AcDbEntity
8
0
100
AcDbLine
62
0
6
CONTINUOUS
10
79.0869105274
20
-24.1409901411
11
79.0869105274
21
-23.6847951411
0
LINE
5
290
100
AcDbEntity
8
0
100
AcDbLine
62
0
6
CONTINUOUS
10
79.1036895274
20
-25.1598261411
11
79.1036895274
21
-24.4755331411
0
LINE
5
291
100
AcDbEntity
8
0
100
AcDbLine
62
0
6
CONTINUOUS
10
72.9291925274
20
-23.3502521411
11
72.4761725274
21
-24.6123921411
0
LINE
5
292
100
AcDbEntity
8
0
100
AcDbLine
62
0
6
CONTINUOUS
10
72.6775145274
20
-25.1598261411
11
73.3318775274
21
-23.3502521411
0
LINE
5
293
100
AcDbEntity
8
0
100
AcDbLine
62
0
6
CONTINUOUS
10
105.7827230629
20
26.1213348342
11
105.9906015274
21
26.3292132987
0
LINE
5
294
100
AcDbEntity
8
0
100
AcDbLine
62
9
6
CONTINUOUS
10
111.8906015274
20
24.8759629755
11
111.9695677985
21
24.9491936219
0
LINE
5
295
100
AcDbEntity
8
0
100
AcDbLine
62
9
6
CONTINUOUS
10
110.8804963012
20
25.9717342255
11
110.9599454767
21
26.0452366978
0
LINE
5
296
100
AcDbEntity
8
0
100
AcDbLine
62
9
6
CONTINUOUS
10
110.8804963006
20
-25.9885325079
11
110.9599454769
21
-26.0620349801
0
LINE
5
297
100
AcDbEntity
8
0
100
AcDbLine
62
9
6
CONTINUOUS
10
111.8906015274
20
-24.8927610733
11
111.9695677985
21
-24.9659919042
0
LINE
5
298
100
AcDbEntity
8
0
100
AcDbLine
62
0
6
CONTINUOUS
10
105.9906015274
20
-26.3460115809
11
105.7827230629
21
-26.1381331164
0
LINE
5
299
100
AcDbEntity
8
0
100
AcDbLine
62
0
6
CONTINUOUS
10
75.7647635274
20
-23.3502521411
11
75.3788575274
21
-24.5363591411
0
LINE
5
29A
100
AcDbEntity
8
0
100
AcDbLine
62
0
6
CONTINUOUS
10
75.5801995274
20
-25.1598261411
11
75.9661055274
21
-23.9737191411
0
LINE
5
29B
100
AcDbEntity
8
0
100
AcDbLine
62
0
6
CONTINUOUS
10
77.3419445274
20
-24.4755331411
11
77.5265085274
21
-23.9128931411
0
LINE
5
29C
100
AcDbEntity
8
0
100
AcDbLine
62
0
6
CONTINUOUS
10
77.0902665274
20
-25.1598261411
11
77.2077165274
21
-24.8100761411
0
LINE
5
29D
100
AcDbEntity
8
0
100
AcDbLine
62
0
6
CONTINUOUS
10
77.3251655274
20
-23.3502521411
11
76.6875815274
21
-25.1598261411
0
LINE
5
29E
100
AcDbEntity
8
0
100
AcDbLine
62
9
6
CONTINUOUS
10
109.6408756204
20
22.4916008589
11
109.7052992917
21
22.5560245302
0
LINE
5
29F
100
AcDbEntity
8
0
100
AcDbLine
62
9
6
CONTINUOUS
10
109.8406015274
20
22.2918749519
11
109.9050440935
21
22.3563175180
0
LINE
5
2A0
100
AcDbEntity
8
0
100
AcDbLine
62
9
6
CONTINUOUS
10
133.7799031417
20
42.1791079070
11
133.9931043534
21
42.3916007287
0
LINE
5
2A1
100
AcDbEntity
8
0
100
AcDbLine
62
9
6
CONTINUOUS
10
133.9931043534
20
-42.4083990109
11
133.7799031417
21
-42.1959061892
0
LINE
5
2A2
100
AcDbEntity
8
0
100
AcDbLine
62
9
6
CONTINUOUS
10
109.6408756204
20
-22.5083991411
11
109.7052992917
21
-22.5728228124
0
LINE
5
2A3
100
AcDbEntity
8
0
100
AcDbLine
62
9
6
CONTINUOUS
10
109.8406015274
20
-22.3086732342
11
109.9050232937
21
-22.3730950004
0
LINE
5
2A4
100
AcDbEntity
8
0
100
AcDbLine
62
0
6
CONTINUOUS
10
111.6580947328
20
17.2590940644
11
111.8906015274
21
17.4916008589
0
LINE
5
2A5
100
AcDbEntity
8
0
100
AcDbLine
62
9
6
CONTINUOUS
10
135.6744274199
20
40.2849313759
11
135.8906015274
21
40.5004099821
0
LINE
5
2A6
100
AcDbEntity
8
0
100
AcDbLine
62
9
6
CONTINUOUS
10
135.8906015274
20
-40.5172082643
11
135.6744274199
21
-40.3017296581
0
LINE
5
2A7
100
AcDbEntity
8
0
100
AcDbLine
62
0
6
CONTINUOUS
10
111.8906015274
20
-17.5083991411
11
111.6580947328
21
-17.2758923466
0
LINE
5
2A8
100
AcDbEntity
8
0
100
AcDbLine
62
0
6
CONTINUOUS
10
111.8906015274
20
17.4916008589
11
111.6580947328
21
17.4916008589
0
LINE
5
2A9
100
AcDbEntity
8
0
100
AcDbLine
62
0
6
CONTINUOUS
10
40.3231083219
20
17.4916008589
11
40.0906015274
21
17.4916008589
0
LINE
5
2AA
100
AcDbEntity
8
0
100
AcDbLine
62
0
6
CONTINUOUS
10
42.3403274343
20
22.4916008589
11
109.6408756204
21
22.4916008589
0
LINE
5
2AB
100
AcDbEntity
8
0
100
AcDbLine
62
9
6
CONTINUOUS
10
109.7052992917
20
22.5560245302
11
42.2759037630
21
22.5560245302
0
LINE
5
2AC
100
AcDbEntity
8
0
100
AcDbLine
62
9
6
CONTINUOUS
10
109.7366276288
20
22.8440301667
11
42.2445754259
21
22.8440301667
0
LINE
5
2AD
100
AcDbEntity
8
0
100
AcDbLine
62
9
6
CONTINUOUS
10
111.6350550555
20
24.7353049732
11
111.5389360024
21
24.7353049732
0
LINE
5
2AE
100
AcDbEntity
8
0
100
AcDbLine
62
9
6
CONTINUOUS
10
40.3461479993
20
24.7353049732
11
40.4422670523
21
24.7353049732
0
LINE
5
2AF
100
AcDbEntity
8
0
100
AcDbLine
62
9
6
CONTINUOUS
10
111.8906015274
20
24.8194753411
11
111.7262570670
21
24.8194753411
0
LINE
5
2B0
100
AcDbEntity
8
0
100
AcDbLine
62
9
6
CONTINUOUS
10
40.0906015274
20
24.8194753411
11
40.2549459877
21
24.8194753411
0
LINE
5
2B1
100
AcDbEntity
8
0
100
AcDbLine
62
9
6
CONTINUOUS
10
112.0729854140
20
24.9491936219
11
111.9695677985
21
24.9491936219
0
LINE
5
2B2
100
AcDbEntity
8
0
100
AcDbLine
62
9
6
CONTINUOUS
10
39.9082176408
20
24.9491936220
11
40.0116352562
21
24.9491936222
0
LINE
5
2B3
100
AcDbEntity
8
0
100
AcDbLine
62
9
6
CONTINUOUS
10
109.7366276288
20
-22.8608284489
11
109.7559359581
21
-23.6509181341
0
LINE
5
2B4
100
AcDbEntity
8
0
100
AcDbLine
62
9
6
CONTINUOUS
10
109.9363535357
20
-22.7763047966
11
109.9556618650
21
-23.5663944817
0
LINE
5
2B5
100
AcDbEntity
8
0
100
AcDbLine
62
0
6
CONTINUOUS
10
105.9906015274
20
26.3292132987
11
105.9906015274
21
26.1069905513
0
LINE
5
2B6
100
AcDbEntity
8
0
100
AcDbLine
62
0
6
CONTINUOUS
10
105.9906015274
20
-26.1237888335
11
105.9906015274
21
-26.3460115809
0
LINE
5
2B7
100
AcDbEntity
8
0
100
AcDbLine
62
0
6
CONTINUOUS
10
109.8406015274
20
22.2918749519
11
109.8406015274
21
-22.3086732342
0
LINE
5
2B8
100
AcDbEntity
8
0
100
AcDbLine
62
9
6
CONTINUOUS
10
109.7559359581
20
23.6341198519
11
109.7366276288
21
22.8440301667
0
LINE
5
2B9
100
AcDbEntity
8
0
100
AcDbLine
62
9
6
CONTINUOUS
10
109.9556618650
20
23.5495961995
11
109.9363535357
21
22.7595065144
0
LINE
5
2BA
100
AcDbEntity
8
0
100
AcDbLine
62
9
6
CONTINUOUS
10
109.9556618650
20
-23.5663944817
11
109.9556618650
21
23.5495961995
0
LINE
5
2BB
100
AcDbEntity
8
0
100
AcDbLine
62
9
6
CONTINUOUS
10
110.1625856623
20
-24.4679810822
11
110.1625856623
21
24.4511827968
0
LINE
5
2BC
100
AcDbEntity
8
0
100
AcDbLine
62
9
6
CONTINUOUS
10
111.5389360024
20
24.7353049732
11
111.5389360024
21
-24.7521032554
0
LINE
5
2BD
100
AcDbEntity
8
0
100
AcDbLine
62
9
6
CONTINUOUS
10
111.6350550555
20
24.7353049732
11
111.6350550555
21
-24.7521032554
0
LINE
5
2BE
100
AcDbEntity
8
0
100
AcDbLine
62
0
6
CONTINUOUS
10
111.6580947328
20
-17.5083991411
11
111.6580947328
21
-17.2758923466
0
LINE
5
2BF
100
AcDbEntity
8
0
100
AcDbLine
62
0
6
CONTINUOUS
10
111.6580947328
20
17.2590940644
11
111.6580947328
21
17.4916008589
0
LINE
5
2C0
100
AcDbEntity
8
0
100
AcDbLine
62
9
6
CONTINUOUS
10
111.7262570670
20
-24.8362736233
11
111.7262570670
21
-17.5083991411
0
LINE
5
2C1
100
AcDbEntity
8
0
100
AcDbLine
62
9
6
CONTINUOUS
10
111.7262570670
20
-17.3440546807
11
111.7262570670
21
17.3272563985
0
LINE
5
2C2
100
AcDbEntity
8
0
100
AcDbLine
62
9
6
CONTINUOUS
10
111.7262570670
20
17.4916008589
11
111.7262570670
21
24.8194753411
0
LINE
5
2C3
100
AcDbEntity
8
0
100
AcDbLine
62
0
6
CONTINUOUS
10
111.8906015274
20
24.8759629755
11
111.8906015274
21
-24.8927610733
0
LINE
5
2C4
100
AcDbEntity
8
0
100
AcDbLine
62
9
6
CONTINUOUS
10
111.9695677985
20
24.9491936219
11
111.9695677985
21
-24.9659919042
0
LINE
5
2C5
100
AcDbEntity
8
0
100
AcDbLine
62
9
6
CONTINUOUS
10
112.0729854140
20
24.9491936219
11
112.0729854140
21
-24.9659919042
0
LINE
5
2C6
100
AcDbEntity
8
0
100
AcDbLine
62
9
6
CONTINUOUS
10
135.6744274199
20
40.2849313759
11
134.8314047575
21
40.2849313759
0
LINE
5
2C7
100
AcDbEntity
8
0
100
AcDbLine
62
9
6
CONTINUOUS
10
16.3067756348
20
40.2849313759
11
17.1497982973
21
40.2849313759
0
LINE
5
2C8
100
AcDbEntity
8
0
100
AcDbLine
62
9
6
CONTINUOUS
10
18.1493886630
20
41.2803459456
11
133.8318143917
21
41.2803459456
0
LINE
5
2C9
100
AcDbEntity
8
0
100
AcDbLine
62
9
6
CONTINUOUS
10
134.8314047575
20
40.2849313759
11
134.8314047575
21
-40.3017296581
0
LINE
5
2CA
100
AcDbEntity
8
0
100
AcDbLine
62
9
6
CONTINUOUS
10
135.6744274199
20
40.2849313759
11
135.6744274199
21
-40.3017296581
0
LINE
5
2CB
100
AcDbEntity
8
0
100
AcDbLine
62
0
6
CONTINUOUS
10
135.8906015274
20
40.5004099821
11
135.8906015274
21
-40.5172082643
0
LINE
5
2CC
100
AcDbEntity
8
0
100
AcDbLine
62
9
6
CONTINUOUS
10
-15.5028375253
20
-42.4083990109
11
-19.5705279846
21
-42.1959061892
0
LINE
5
2CD
100
AcDbEntity
8
0
100
AcDbLine
62
0
6
CONTINUOUS
10
-21.3313386360
20
-42.1962833283
11
-17.2845649786
21
-42.4083657489
0
LINE
5
2CE
100
AcDbEntity
8
0
100
AcDbLine
62
9
6
CONTINUOUS
10
-20.4217561481
20
-41.2971442278
11
-22.1842362753
21
-41.2975167470
0
LINE
5
2CF
100
AcDbEntity
8
0
100
AcDbLine
62
9
6
CONTINUOUS
10
-15.3842362753
20
-40.5083991411
11
-13.2842362753
21
-40.5083991411
0
LINE
5
2D0
100
AcDbEntity
8
0
100
AcDbLine
62
9
6
CONTINUOUS
10
-19.5090839682
20
-40.3017296581
11
-20.3602536240
21
-40.3017296581
0
LINE
5
2D1
100
AcDbEntity
8
0
100
AcDbLine
62
9
6
CONTINUOUS
10
-15.3842362753
20
-40.5172082643
11
-19.5090839682
21
-40.3017296581
0
LINE
5
2D2
100
AcDbEntity
8
0
100
AcDbLine
62
0
6
CONTINUOUS
10
-13.7842362753
20
-41.5083991411
11
-15.3990192245
21
-41.4237719527
0
LINE
5
2D3
100
AcDbEntity
8
0
100
AcDbLine
62
0
6
CONTINUOUS
10
-22.1894698324
20
-27.1033094531
11
-21.9959896363
21
-27.1134493205
0
LINE
5
2D4
100
AcDbEntity
8
0
100
AcDbLine
62
9
6
CONTINUOUS
10
-21.4987582190
20
-24.9659919042
11
-21.4988303745
21
-24.9659919042
0
LINE
5
2D5
100
AcDbEntity
8
0
100
AcDbLine
62
9
6
CONTINUOUS
10
-21.5238595085
20
-24.7521032554
11
-21.6185558043
21
-24.7521032554
0
LINE
5
2D6
100
AcDbEntity
8
0
100
AcDbLine
62
0
6
CONTINUOUS
10
-22.2842362753
20
26.9786192155
11
-22.2842362753
21
25.7700226975
0
LINE
5
2D7
100
AcDbEntity
8
0
100
AcDbLine
62
0
6
CONTINUOUS
10
-22.2842362753
20
-25.7868209797
11
-22.2842362753
21
-26.9954174977
0
LINE
5
2D8
100
AcDbEntity
8
0
100
AcDbLine
62
0
6
CONTINUOUS
10
-21.5221306550
20
25.9961664238
11
-21.5199655829
21
25.9624346770
0
LINE
5
2D9
100
AcDbEntity
8
0
100
AcDbLine
62
0
6
CONTINUOUS
10
-21.5199655829
20
25.9624346770
11
-21.5177931109
21
25.9239469933
0
LINE
5
2DA
100
AcDbEntity
8
0
100
AcDbLine
62
0
6
CONTINUOUS
10
-21.5177931109
20
25.9239469933
11
-21.5156271298
21
25.8804033678
0
LINE
5
2DB
100
AcDbEntity
8
0
100
AcDbLine
62
0
6
CONTINUOUS
10
-21.5156271298
20
25.8804033678
11
-21.5134800171
21
25.8313944005
0
LINE
5
2DC
100
AcDbEntity
8
0
100
AcDbLine
62
0
6
CONTINUOUS
10
-21.5134800171
20
25.8313944005
11
-21.5113793403
21
25.7768623923
0
LINE
5
2DD
100
AcDbEntity
8
0
100
AcDbLine
62
0
6
CONTINUOUS
10
-21.5113793403
20
25.7768623923
11
-21.5093513630
21
25.7167734940
0
LINE
5
2DE
100
AcDbEntity
8
0
100
AcDbLine
62
0
6
CONTINUOUS
10
-21.5093513630
20
25.7167734940
11
-21.5065152381
21
25.6166031478
0
LINE
5
2DF
100
AcDbEntity
8
0
100
AcDbLine
62
0
6
CONTINUOUS
10
-21.5065152381
20
25.6166031478
11
-21.5040067189
21
25.5051624725
0
LINE
5
2E0
100
AcDbEntity
8
0
100
AcDbLine
62
0
6
CONTINUOUS
10
-21.5040067189
20
25.5051624725
11
-21.5019183244
21
25.3837388411
0
LINE
5
2E1
100
AcDbEntity
8
0
100
AcDbLine
62
0
6
CONTINUOUS
10
-21.5019183244
20
25.3837388411
11
-21.5003230281
21
25.2540027593
0
LINE
5
2E2
100
AcDbEntity
8
0
100
AcDbLine
62
9
6
CONTINUOUS
10
-21.6692511125
20
-24.4546519763
11
-21.6691215487
21
-24.4679810474
0
LINE
5
2E3
100
AcDbEntity
8
0
100
AcDbLine
62
0
6
CONTINUOUS
10
-21.5003230281
20
25.2540027593
11
-21.4992833607
21
25.1179346417
0
LINE
5
2E4
100
AcDbEntity
8
0
100
AcDbLine
62
0
6
CONTINUOUS
10
-21.4992833607
20
25.1179346417
11
-21.4988251274
21
24.9491936222
0
LINE
5
2E5
100
AcDbEntity
8
0
100
AcDbLine
62
0
6
CONTINUOUS
10
-22.1842362753
20
41.2807184647
11
-22.1842362753
21
27.5205300101
0
LINE
5
2E6
100
AcDbEntity
8
0
100
AcDbLine
62
0
6
CONTINUOUS
10
-22.1842362753
20
-27.5374394347
11
-22.1842362753
21
-41.2975167469
0
LINE
5
2E7
100
AcDbEntity
8
0
100
AcDbLine
62
0
6
CONTINUOUS
10
-21.6692511148
20
-24.4547036211
11
-21.6692511148
21
24.4379053528
0
LINE
5
2E8
100
AcDbEntity
8
0
100
AcDbLine
62
9
6
CONTINUOUS
10
-21.6691215487
20
-24.4679810822
11
-21.6691215487
21
-24.4544647870
0
LINE
5
2E9
100
AcDbEntity
8
0
100
AcDbLine
62
9
6
CONTINUOUS
10
-21.6691215487
20
24.4378535768
11
-21.6691215487
21
24.4511827968
0
LINE
5
2EA
100
AcDbEntity
8
0
100
AcDbLine
62
0
6
CONTINUOUS
10
-21.6692511125
20
24.4378535768
11
-21.6692511021
21
24.4376665430
0
LINE
5
2EB
100
AcDbEntity
8
0
100
AcDbLine
62
9
6
CONTINUOUS
10
-21.6185558043
20
24.7353049732
11
-21.6185558043
21
-24.7521032554
0
LINE
5
2EC
100
AcDbEntity
8
0
100
AcDbLine
62
9
6
CONTINUOUS
10
-21.5238595085
20
24.7353049732
11
-21.5238595085
21
-24.7521032554
0
LINE
5
2ED
100
AcDbEntity
8
0
100
AcDbLine
62
9
6
CONTINUOUS
10
-20.3602536240
20
40.2849313759
11
-20.3602536240
21
-40.3017296581
0
LINE
5
2EE
100
AcDbEntity
8
0
100
AcDbLine
62
9
6
CONTINUOUS
10
-19.5090839682
20
40.2849313759
11
-19.5090839682
21
-40.3017296581
0
LINE
5
2EF
100
AcDbEntity
8
0
100
AcDbLine
62
0
6
CONTINUOUS
10
-21.4988303745
20
24.9491936219
11
-21.4991458418
21
-25.1069612513
0
LINE
5
2F0
100
AcDbEntity
8
0
100
AcDbLine
62
0
6
CONTINUOUS
10
-21.4991458418
20
-25.1069612513
11
-21.5001909904
21
-25.2572258497
0
LINE
5
2F1
100
AcDbEntity
8
0
100
AcDbLine
62
9
6
CONTINUOUS
10
-21.6691215487
20
24.4511827679
11
-21.6692511125
21
24.4378535768
0
LINE
5
2F2
100
AcDbEntity
8
0
100
AcDbLine
62
0
6
CONTINUOUS
10
-21.5001909904
20
-25.2572258497
11
-21.5019100598
21
-25.4000584156
0
LINE
5
2F3
100
AcDbEntity
8
0
100
AcDbLine
62
0
6
CONTINUOUS
10
-21.5019100598
20
-25.4000584156
11
-21.5042348720
21
-25.5332518403
0
LINE
5
2F4
100
AcDbEntity
8
0
100
AcDbLine
62
0
6
CONTINUOUS
10
-21.5042348720
20
-25.5332518403
11
-21.5070741016
21
-25.6549558672
0
LINE
5
2F5
100
AcDbEntity
8
0
100
AcDbLine
62
0
6
CONTINUOUS
10
-21.5070741016
20
-25.6549558672
11
-21.5092084483
21
-25.7289970979
0
LINE
5
2F6
100
AcDbEntity
8
0
100
AcDbLine
62
0
6
CONTINUOUS
10
-21.5092084483
20
-25.7289970979
11
-21.5115000094
21
-25.7970016077
0
LINE
5
2F7
100
AcDbEntity
8
0
100
AcDbLine
62
0
6
CONTINUOUS
10
-21.5115000094
20
-25.7970016077
11
-21.5139199790
21
-25.8587527329
0
LINE
5
2F8
100
AcDbEntity
8
0
100
AcDbLine
62
0
6
CONTINUOUS
10
-21.5139199790
20
-25.8587527329
11
-21.5164368402
21
-25.9141184887
0
LWPOLYLINE
5
2F9
100
AcDbEntity
8
0
100
AcDbPolyline
62
0
6
CONTINUOUS
90
15
70
0
10
-21.5164368402
20
-25.9141184887
10
-21.5190178533
20
-25.9630609967
10
-21.5203232721
20
-25.9851300028
10
-21.5216339696
20
-26.0056185167
10
-21.5229422047
20
-26.0244915362
10
-21.5242454055
20
-26.0418025271
10
-21.5255373515
20
-26.0575587092
10
-21.5268030984
20
-26.0716812381
10
-21.5280397780
20
-26.0842510709
10
-21.5292396833
20
-26.0953030498
10
-21.5303742325
20
-26.1047193917
10
-21.5314425938
20
-26.1126554492
10
-21.5324218793
20
-26.1191048577
10
-21.5332188002
20
-26.1237173670
10
-21.5334542412
20
-26.1249575132
0
LINE
5
2FA
100
AcDbEntity
8
0
100
AcDbLine
62
0
6
CONTINUOUS
10
-15.3842362753
20
-3.4907664430
11
-13.2842362753
21
-3.8610531025
0
LWPOLYLINE
5
2FB
100
AcDbEntity
8
0
100
AcDbPolyline
62
0
6
CONTINUOUS
90
13
70
0
10
-21.5334815575
20
26.1082662946
10
-21.5330202497
20
26.1058290732
10
-21.5322429178
20
26.1011893148
10
-21.5313839326
20
26.0954455747
10
-21.5304685488
20
26.0886580340
10
-21.5294943664
20
26.0807045989
10
-21.5284893265
20
26.0717230143
10
-21.5274614660
20
26.0617246450
10
-21.5264117621
20
26.0506584968
10
-21.5253505194
20
26.0385766796
10
-21.5242830379
20
26.0254948587
10
-21.5232095469
20
26.0113717729
10
-21.5221306550
20
25.9961664238
0
LINE
5
2FC
100
AcDbEntity
8
0
100
AcDbLine
62
0
6
CONTINUOUS
10
-15.3842362753
20
40.5004099821
11
-15.3842362753
21
-40.5172082643
0
LINE
5
2FD
100
AcDbEntity
8
0
100
AcDbLine
62
0
6
CONTINUOUS
10
-15.2842362753
20
3.4916008589
11
-15.2842362753
21
-3.5083991411
0
LINE
5
2FE
100
AcDbEntity
8
0
100
AcDbLine
62
0
6
CONTINUOUS
10
-13.7842362753
20
41.4916008589
11
-13.7842362753
21
3.7560913300
0
LINE
5
2FF
100
AcDbEntity
8
0
100
AcDbLine
62
0
6
CONTINUOUS
10
-13.7842362753
20
-3.7728896122
11
-13.7842362753
21
-41.5083991411
0
LINE
5
300
100
AcDbEntity
8
0
100
AcDbLine
62
0
6
CONTINUOUS
10
-13.2842362753
20
40.9916008589
11
-13.2842362753
21
3.8442548203
0
LINE
5
301
100
AcDbEntity
8
0
100
AcDbLine
62
0
6
CONTINUOUS
10
-13.2842362753
20
-3.8610531025
11
-13.2842362753
21
-41.0083991411
0
LINE
5
302
100
AcDbEntity
8
0
100
AcDbLine
62
0
6
CONTINUOUS
10
-21.6692511148
20
-24.4236422543
11
-22.2654979930
21
-25.7022978111
0
LINE
5
303
100
AcDbEntity
8
0
100
AcDbLine
62
0
6
CONTINUOUS
10
-21.5306540994
20
-26.1190183851
11
-22.0269044799
21
-27.1794524948
0
LINE
5
304
100
AcDbEntity
8
0
100
AcDbLine
62
0
6
CONTINUOUS
10
-22.0269044799
20
-27.1794524948
11
-22.1747894771
21
-27.4950931278
0
LINE
5
305
100
AcDbEntity
8
0
100
AcDbLine
62
0
6
CONTINUOUS
10
-22.1747894436
20
27.4782947719
11
-21.6586764802
21
26.3759811460
0
LINE
5
306
100
AcDbEntity
8
0
100
AcDbLine
62
0
6
CONTINUOUS
10
-21.6586764802
20
26.3759811460
11
-21.5334815575
21
26.1082662946
0
LINE
5
307
100
AcDbEntity
8
0
100
AcDbLine
62
0
6
CONTINUOUS
10
-21.6692511148
20
24.4068439721
11
-22.2656002541
21
25.6857188284
0
LINE
5
308
100
AcDbEntity
8
0
100
AcDbLine
62
0
6
CONTINUOUS
10
-15.3842362753
20
3.4739681608
11
-13.2842362753
21
3.8442548203
0
LINE
5
309
100
AcDbEntity
8
0
100
AcDbLine
62
9
6
CONTINUOUS
10
-21.5238595085
20
24.7353049732
11
-21.6185558043
21
24.7353049732
0
LINE
5
30A
100
AcDbEntity
8
0
100
AcDbLine
62
9
6
CONTINUOUS
10
-21.4987582190
20
24.9491936219
11
-21.4988303745
21
24.9491936218
0
LINE
5
30B
100
AcDbEntity
8
0
100
AcDbLine
62
0
6
CONTINUOUS
10
-13.7842362753
20
-41.5083991411
11
-13.2842362753
21
-41.0083991411
0
LINE
5
30C
100
AcDbEntity
8
0
100
AcDbLine
62
0
6
CONTINUOUS
10
-21.9959896152
20
27.0966510394
11
-22.1894698324
21
27.0865111709
0
LINE
5
30D
100
AcDbEntity
8
0
100
AcDbLine
62
0
6
CONTINUOUS
10
-13.7842362753
20
41.4916008589
11
-13.2842362753
21
40.9916008589
0
LINE
5
30E
100
AcDbEntity
8
0
100
AcDbLine
62
0
6
CONTINUOUS
10
-15.3990192245
20
41.4069736705
11
-13.7842362753
21
41.4916008589
0
LINE
5
30F
100
AcDbEntity
8
0
100
AcDbLine
62
0
6
CONTINUOUS
10
-17.2845649786
20
42.3915674667
11
-21.3313386360
21
42.1794850461
0
LINE
5
310
100
AcDbEntity
8
0
100
AcDbLine
62
9
6
CONTINUOUS
10
-19.5090839682
20
40.2849313759
11
-15.3842362753
21
40.5004099821
0
LINE
5
311
100
AcDbEntity
8
0
100
AcDbLine
62
9
6
CONTINUOUS
10
-19.5705279846
20
42.1791079070
11
-15.5028375253
21
42.3916007287
0
LINE
5
312
100
AcDbEntity
8
0
100
AcDbLine
62
9
6
CONTINUOUS
10
-19.5090839682
20
40.2849313759
11
-20.3602536240
21
40.2849313759
0
LINE
5
313
100
AcDbEntity
8
0
100
AcDbLine
62
9
6
CONTINUOUS
10
-15.3842362753
20
40.4916008589
11
-13.2842362753
21
40.4916008589
0
LINE
5
314
100
AcDbEntity
8
0
100
AcDbLine
62
9
6
CONTINUOUS
10
-22.1842362753
20
41.2807184648
11
-20.4217561481
21
41.2803459456
0
ARC
5
315
100
AcDbEntity
8
0
100
AcDbCircle
62
0
6
CONTINUOUS
10
-21.2842362753
20
-41.2975167470
40
0.9000000000
100
AcDbArc
50
180.0000000000
51
267.0000000000
0
ARC
5
316
100
AcDbEntity
8
0
100
AcDbCircle
62
0
6
CONTINUOUS
10
-21.2842362753
20
41.2807184648
40
0.9000000000
100
AcDbArc
50
93.0000000000
51
180.0000000000
0
ARC
5
317
100
AcDbEntity
8
0
100
AcDbCircle
62
0
6
CONTINUOUS
10
-22.1842362269
20
-27.0034463101
40
0.1000000000
100
AcDbArc
50
180.0000000000
51
266.9999999923
0
ARC
5
318
100
AcDbEntity
8
0
100
AcDbCircle
62
0
6
CONTINUOUS
10
-22.1842362269
20
26.9866480279
40
0.1000000000
100
AcDbArc
50
93.0000000077
51
180.0000000000
0
ARC
5
319
100
AcDbEntity
8
0
100
AcDbCircle
62
0
6
CONTINUOUS
10
-22.0842362214
20
25.7700227218
40
0.2000000000
100
AcDbArc
50
180.0000000437
51
205.0000000000
0
ARC
5
31A
100
AcDbEntity
8
0
100
AcDbCircle
62
0
6
CONTINUOUS
10
-22.0842362214
20
-25.7868210040
40
0.2000000000
100
AcDbArc
50
155.0000000000
51
179.9999999563
0
SPLINE
5
31B
100
AcDbEntity
8
0
100
AcDbSpline
62
0
6
CONTINUOUS
70
0
71
3
72
13
73
9
74
7
42
0.0000001000
43
0.0000001000
44
0.0000000001
12
1.5981999782
22
-0.0000035874
32
0.0000000000
13
-1.4979736402
23
-0.5570611974
33
0.0000000000
40
0.0000000000
40
0.0000000000
40
0.0000000000
40
0.0000000000
40
0.2256547989
40
0.3632762243
40
0.5068411325
40
0.6481248782
40
0.7809163612
40
1.0000000000
40
1.0000000000
40
1.0000000000
40
1.0000000000
10
79.6406033202
20
-23.3502520356
30
0.0000000000
10
79.7608171518
20
-23.3502523054
30
0.0000000000
10
79.9598095080
20
-23.4039700284
30
0.0000000000
10
80.1651119835
20
-23.5874014380
30
0.0000000000
10
80.2646444943
20
-23.7975210464
30
0.0000000000
10
80.2621841694
20
-24.0278728251
30
0.0000000000
10
80.1480857947
20
-24.2715131015
30
0.0000000000
10
79.9848952005
20
-24.3892328661
30
0.0000000000
10
79.8755013618
20
-24.4299138641
30
0.0000000000
11
79.6406033202
21
-23.3502520356
31
0.0000000000
11
79.9880283335
21
-23.4469894481
31
0.0000000000
11
80.1512898935
21
-23.5943737411
31
0.0000000000
11
80.2477085342
21
-23.8025770755
31
0.0000000000
11
80.2457129043
21
-24.0283678842
31
0.0000000000
11
80.1564036518
21
-24.2208887480
31
0.0000000000
11
79.8755013618
21
-24.4299138641
31
0.0000000000
0
SPLINE
5
31C
100
AcDbEntity
8
0
100
AcDbSpline
62
0
6
CONTINUOUS
70
0
71
3
72
13
73
9
74
7
42
0.0000001000
43
0.0000001000
44
0.0000000001
12
0.7427836551
22
0.0000058476
32
0.0000000000
13
-0.7427827437
23
-0.0000005506
33
0.0000000000
40
0.0000000000
40
0.0000000000
40
0.0000000000
40
0.0000000000
40
0.2559133111
40
0.3844857999
40
0.4999985370
40
0.6155112740
40
0.7440837628
40
1.0000000000
40
1.0000000000
40
1.0000000000
40
1.0000000000
10
79.5902682809
20
-24.1409903266
30
0.0000000000
10
79.6536310224
20
-24.1409898277
30
0.0000000000
10
79.7539349701
20
-24.1051309944
30
0.0000000000
10
79.8288187722
20
-24.0025139202
30
0.0000000000
10
79.8481556764
20
-23.9128927426
30
0.0000000000
10
79.8288187722
20
-23.8232715650
30
0.0000000000
10
79.7539345319
20
-23.7206538904
30
0.0000000000
10
79.6536294957
20
-23.6847951117
30
0.0000000000
10
79.5902661075
20
-23.6847951587
30
0.0000000000
11
79.5902682809
21
-24.1409903266
31
0.0000000000
11
79.7682294000
21
-24.0741820910
31
0.0000000000
11
79.8242734034
21
-23.9968542566
31
0.0000000000
11
79.8419441320
21
-23.9128927426
31
0.0000000000
11
79.8242734034
21
-23.8289312287
31
0.0000000000
11
79.7682294000
21
-23.7516033943
31
0.0000000000
11
79.5902661075
21
-23.6847951587
31
0.0000000000
0
SPLINE
5
31D
100
AcDbEntity
8
0
100
AcDbSpline
62
0
6
CONTINUOUS
70
0
71
3
72
19
73
15
74
13
42
0.0000001000
43
0.0000001000
44
0.0000000001
12
0.3135434297
22
0.0000000000
32
0.0000000000
13
-0.0000000000
23
0.3135434297
33
0.0000000000
40
0.0000000000
40
0.0000000000
40
0.0000000000
40
0.0000000000
40
0.0833621727
40
0.1672970080
40
0.2510694444
40
0.3341670572
40
0.4170790557
40
0.4999444689
40
0.5828272608
40
0.6657212176
40
0.7488639344
40
0.8326852706
40
0.9166479247
40
1.0000000000
40
1.0000000000
40
1.0000000000
40
1.0000000000
10
109.6408756204
20
-22.5083991411
30
0.0000000000
10
109.6495881743
20
-22.5083991411
30
0.0000000000
10
109.6670945853
20
-22.5072549279
30
0.0000000000
10
109.6929009903
20
-22.5021171403
30
0.0000000000
10
109.7177878285
20
-22.4936447531
30
0.0000000000
10
109.7412551218
20
-22.4820399234
30
0.0000000000
10
109.7629337851
20
-22.4675327349
30
0.0000000000
10
109.7825253098
20
-22.4503451053
30
0.0000000000
10
109.7997148825
20
-22.4307577388
30
0.0000000000
10
109.8142281411
20
-22.4090775931
30
0.0000000000
10
109.8258398386
20
-22.3856047116
30
0.0000000000
10
109.8343180194
20
-22.3607062636
30
0.0000000000
10
109.8394573336
20
-22.3348929877
30
0.0000000000
10
109.8406015274
20
-22.3173847327
30
0.0000000000
10
109.8406015274
20
-22.3086732342
30
0.0000000000
11
109.6408756204
21
-22.5083991411
31
0.0000000000
11
109.6669575327
21
-22.5066929170
31
0.0000000000
11
109.6927682163
21
-22.5015543882
31
0.0000000000
11
109.7176328706
21
-22.4930887326
31
0.0000000000
11
109.7409878635
21
-22.4815391765
31
0.0000000000
11
109.7625929033
21
-22.4670809292
31
0.0000000000
11
109.7821239680
21
-22.4499462584
31
0.0000000000
11
109.7992653826
21
-22.4304138618
31
0.0000000000
11
109.8137239774
21
-22.4088158617
31
0.0000000000
11
109.8252830824
21
-22.3854498145
31
0.0000000000
11
109.8337553300
21
-22.3605712081
31
0.0000000000
11
109.8388957166
21
-22.3347520008
31
0.0000000000
11
109.8406015274
21
-22.3086732342
31
0.0000000000
0
SPLINE
5
31E
100
AcDbEntity
8
0
100
AcDbSpline
62
0
6
CONTINUOUS
70
0
71
3
72
19
73
15
74
13
42
0.0000001000
43
0.0000001000
44
0.0000000001
12
0.0000000000
22
-0.3135434297
32
0.0000000000
13
0.3135434297
23
0.0000000000
33
0.0000000000
40
0.0000000000
40
0.0000000000
40
0.0000000000
40
0.0000000000
40
0.0833621727
40
0.1672970080
40
0.2510694444
40
0.3341670572
40
0.4170790557
40
0.4999444689
40
0.5828272608
40
0.6657212176
40
0.7488639344
40
0.8326852706
40
0.9166479247
40
1.0000000000
40
1.0000000000
40
1.0000000000
40
1.0000000000
10
42.1406015274
20
-22.3086732342
30
0.0000000000
10
42.1406015274
20
-22.3173857880
30
0.0000000000
10
42.1417457406
20
-22.3348921990
30
0.0000000000
10
42.1468835282
20
-22.3606986041
30
0.0000000000
10
42.1553559154
20
-22.3855854423
30
0.0000000000
10
42.1669607451
20
-22.4090527356
30
0.0000000000
10
42.1814679335
20
-22.4307313988
30
0.0000000000
10
42.1986555632
20
-22.4503229235
30
0.0000000000
10
42.2182429296
20
-22.4675124962
30
0.0000000000
10
42.2399230753
20
-22.4820257548
30
0.0000000000
10
42.2633959568
20
-22.4936374524
30
0.0000000000
10
42.2882944049
20
-22.5021156331
30
0.0000000000
10
42.3141076808
20
-22.5072549474
30
0.0000000000
10
42.3316159358
20
-22.5083991411
30
0.0000000000
10
42.3403274343
20
-22.5083991411
30
0.0000000000
11
42.1406015274
21
-22.3086732342
31
0.0000000000
11
42.1423077515
21
-22.3347551465
31
0.0000000000
11
42.1474462802
21
-22.3605658301
31
0.0000000000
11
42.1559119358
21
-22.3854304844
31
0.0000000000
11
42.1674614920
21
-22.4087854773
31
0.0000000000
11
42.1819197392
21
-22.4303905170
31
0.0000000000
11
42.1990544101
21
-22.4499215817
31
0.0000000000
11
42.2185868067
21
-22.4670629963
31
0.0000000000
11
42.2401848067
21
-22.4815215911
31
0.0000000000
11
42.2635508540
21
-22.4930806962
31
0.0000000000
11
42.2884294604
21
-22.5015529438
31
0.0000000000
11
42.3142486677
21
-22.5066933304
31
0.0000000000
11
42.3403274343
21
-22.5083991411
31
0.0000000000
0
SPLINE
5
31F
100
AcDbEntity
8
0
100
AcDbSpline
62
0
6
CONTINUOUS
70
0
71
3
72
19
73
15
74
13
42
0.0000001000
43
0.0000001000
44
0.0000000001
12
-0.3135434297
22
0.0000000000
32
0.0000000000
13
0.0000000000
23
-0.3135434297
33
0.0000000000
40
0.0000000000
40
0.0000000000
40
0.0000000000
40
0.0000000000
40
0.0833621727
40
0.1672970080
40
0.2510694444
40
0.3341670572
40
0.4170790557
40
0.4999444689
40
0.5828272608
40
0.6657212176
40
0.7488639344
40
0.8326852706
40
0.9166479247
40
1.0000000000
40
1.0000000000
40
1.0000000000
40
1.0000000000
10
42.3403274343
20
22.4916008589
30
0.0000000000
10
42.3316148805
20
22.4916008589
30
0.0000000000
10
42.3141084695
20
22.4904566457
30
0.0000000000
10
42.2883020644
20
22.4853188581
30
0.0000000000
10
42.2634152262
20
22.4768464709
30
0.0000000000
10
42.2399479329
20
22.4652416412
30
0.0000000000
10
42.2182692697
20
22.4507344527
30
0.0000000000
10
42.1986777449
20
22.4335468231
30
0.0000000000
10
42.1814881722
20
22.4139594566
30
0.0000000000
10
42.1669749136
20
22.3922793109
30
0.0000000000
10
42.1553632161
20
22.3688064294
30
0.0000000000
10
42.1468850353
20
22.3439079814
30
0.0000000000
10
42.1417457211
20
22.3180947055
30
0.0000000000
10
42.1406015274
20
22.3005864505
30
0.0000000000
10
42.1406015274
20
22.2918749519
30
0.0000000000
11
42.3403274343
21
22.4916008589
31
0.0000000000
11
42.3142455220
21
22.4898946348
31
0.0000000000
11
42.2884348384
21
22.4847561060
31
0.0000000000
11
42.2635701841
21
22.4762904504
31
0.0000000000
11
42.2402151912
21
22.4647408943
31
0.0000000000
11
42.2186101514
21
22.4502826470
31
0.0000000000
11
42.1990790868
21
22.4331479762
31
0.0000000000
11
42.1819376721
21
22.4136155796
31
0.0000000000
11
42.1674790774
21
22.3920175795
31
0.0000000000
11
42.1559199723
21
22.3686515323
31
0.0000000000
11
42.1474477247
21
22.3437729259
31
0.0000000000
11
42.1423073381
21
22.3179537186
31
0.0000000000
11
42.1406015274
21
22.2918749519
31
0.0000000000
0
SPLINE
5
320
100
AcDbEntity
8
0
100
AcDbSpline
62
0
6
CONTINUOUS
70
0
71
3
72
19
73
15
74
13
42
0.0000001000
43
0.0000001000
44
0.0000000001
12
0.0000000000
22
0.3135434297
32
0.0000000000
13
-0.3135434297
23
0.0000000000
33
0.0000000000
40
0.0000000000
40
0.0000000000
40
0.0000000000
40
0.0000000000
40
0.0833621727
40
0.1672970080
40
0.2510694444
40
0.3341670572
40
0.4170790557
40
0.4999444689
40
0.5828272608
40
0.6657212176
40
0.7488639344
40
0.8326852706
40
0.9166479247
40
1.0000000000
40
1.0000000000
40
1.0000000000
40
1.0000000000
10
109.8406015274
20
22.2918749519
30
0.0000000000
10
109.8406015274
20
22.3005875058
30
0.0000000000
10
109.8394573142
20
22.3180939168
30
0.0000000000
10
109.8343195265
20
22.3439003219
30
0.0000000000
10
109.8258471394
20
22.3687871600
30
0.0000000000
10
109.8142423096
20
22.3922544533
30
0.0000000000
10
109.7997351212
20
22.4139331166
30
0.0000000000
10
109.7825474916
20
22.4335246413
30
0.0000000000
10
109.7629601251
20
22.4507142140
30
0.0000000000
10
109.7412799794
20
22.4652274726
30
0.0000000000
10
109.7178070979
20
22.4768391702
30
0.0000000000
10
109.6929086498
20
22.4853173509
30
0.0000000000
10
109.6670953739
20
22.4904566652
30
0.0000000000
10
109.6495871189
20
22.4916008589
30
0.0000000000
10
109.6408756204
20
22.4916008589
30
0.0000000000
11
109.8406015274
21
22.2918749519
31
0.0000000000
11
109.8388953032
21
22.3179568642
31
0.0000000000
11
109.8337567745
21
22.3437675478
31
0.0000000000
11
109.8252911189
21
22.3686322022
31
0.0000000000
11
109.8137415627
21
22.3919871951
31
0.0000000000
11
109.7992833155
21
22.4135922348
31
0.0000000000
11
109.7821486447
21
22.4331232995
31
0.0000000000
11
109.7626162481
21
22.4502647141
31
0.0000000000
11
109.7410182480
21
22.4647233089
31
0.0000000000
11
109.7176522007
21
22.4762824140
31
0.0000000000
11
109.6927735943
21
22.4847546616
31
0.0000000000
11
109.6669543870
21
22.4898950482
31
0.0000000000
11
109.6408756204
21
22.4916008589
31
0.0000000000
0
SPLINE
5
321
100
AcDbEntity
8
0
100
AcDbSpline
62
9
6
CONTINUOUS
70
0
71
3
72
24
73
20
74
18
42
0.0000001000
43
0.0000001000
44
0.0000000001
12
-0.0000165123
22
-1.3400279309
32
0.0000000000
13
-1.3359392388
23
-0.1046002197
33
0.0000000000
40
0.0000000000
40
0.0000000000
40
0.0000000000
40
0.0000000000
40
0.0588014377
40
0.1175909738
40
0.1763514160
40
0.2350869044
40
0.2938047603
40
0.3525153685
40
0.4112273346
40
0.4699498967
40
0.5286907879
40
0.5874587244
40
0.6462604025
40
0.7051022125
40
0.7639881269
40
0.8229230180
40
0.8819086221
40
0.9409429520
40
1.0000000000
40
1.0000000000
40
1.0000000000
40
1.0000000000
10
111.5389360024
20
-24.7521032554
30
0.0000000000
10
111.5389356788
20
-24.7783684450
30
0.0000000000
10
111.5366314073
20
-24.8309227095
30
0.0000000000
10
111.5262811128
20
-24.9091089332
30
0.0000000000
10
111.5091200903
20
-24.9860637463
30
0.0000000000
10
111.4852835111
20
-25.0611840646
30
0.0000000000
10
111.4549557036
20
-25.1339028861
30
0.0000000000
10
111.4183676768
20
-25.2036699957
30
0.0000000000
10
111.3757960635
20
-25.2699582202
30
0.0000000000
10
111.3275620048
20
-25.3322645569
30
0.0000000000
10
111.2740284333
20
-25.3901152568
30
0.0000000000
10
111.2155982533
20
-25.4430683965
30
0.0000000000
10
111.1527112136
20
-25.4907176917
30
0.0000000000
10
111.0858421623
20
-25.5326948443
30
0.0000000000
10
111.0154965015
20
-25.5686733972
30
0.0000000000
10
110.9422086352
20
-25.5983709918
30
0.0000000000
10
110.8665352066
20
-25.6215514759
30
0.0000000000
10
110.7890752028
20
-25.6380260531
30
0.0000000000
10
110.7366387055
20
-25.6444489621
30
0.0000000000
10
110.7103398296
20
-25.6465080888
30
0.0000000000
11
111.5389360024
21
-24.7521032554
31
0.0000000000
11
111.5354816174
21
-24.8308230681
31
0.0000000000
11
111.5251428219
21
-24.9089213260
31
0.0000000000
11
111.5080032418
21
-24.9857739265
31
0.0000000000
11
111.4841977071
21
-25.0607947173
31
0.0000000000
11
111.4539102688
21
-25.1334154774
31
0.0000000000
11
111.4173709442
21
-25.2030893836
31
0.0000000000
11
111.3748563998
21
-25.2692888946
31
0.0000000000
11
111.3266867806
21
-25.3315125554
31
0.0000000000
11
111.2732251443
21
-25.3892863877
31
0.0000000000
11
111.2148728608
21
-25.4421700341
31
0.0000000000
11
111.1520695471
21
-25.4897571776
31
0.0000000000
11
111.0852885014
21
-25.5316804673
31
0.0000000000
11
111.0150357830
21
-25.5676130368
31
0.0000000000
11
110.9418428109
21
-25.5972735275
31
0.0000000000
11
110.8662673033
21
-25.6204259973
31
0.0000000000
11
110.7888904724
21
-25.6368834111
31
0.0000000000
11
110.7103398296
21
-25.6465080888
31
0.0000000000
0
SPLINE
5
322
100
AcDbEntity
8
0
100
AcDbSpline
62
9
6
CONTINUOUS
70
0
71
3
72
24
73
20
74
18
42
0.0000001000
43
0.0000001000
44
0.0000000001
12
-0.0003845789
22
-1.4886730288
32
0.0000000000
13
-1.4840790614
23
-0.1168626287
33
0.0000000000
40
0.0000000000
40
0.0000000000
40
0.0000000000
40
0.0000000000
40
0.0588260854
40
0.1176128758
40
0.1763737965
40
0.2351116188
40
0.2938332361
40
0.3525483264
40
0.4112648120
40
0.4699912318
40
0.5287347825
40
0.5875037795
40
0.6463043317
40
0.7051423088
40
0.7640212635
40
0.8229456918
40
0.8819173212
40
0.9409331859
40
1.0000000000
40
1.0000000000
40
1.0000000000
40
1.0000000000
10
111.6350549209
20
-24.7521032554
30
0.0000000000
10
111.6350473798
20
-24.7812941909
30
0.0000000000
10
111.6324718498
20
-24.8396883774
30
0.0000000000
10
111.6209515472
20
-24.9265557246
30
0.0000000000
10
111.6018714093
20
-25.0120433284
30
0.0000000000
10
111.5753797603
20
-25.0954962860
30
0.0000000000
10
111.5416815724
20
-25.1762844928
30
0.0000000000
10
111.5010335303
20
-25.2537968584
30
0.0000000000
10
111.4537429845
20
-25.3274477866
30
0.0000000000
10
111.4001666287
20
-25.3966785873
30
0.0000000000
10
111.3407074317
20
-25.4609631138
30
0.0000000000
10
111.2758126655
20
-25.5198104946
30
0.0000000000
10
111.2059705139
20
-25.5727693157
30
0.0000000000
10
111.1317082082
20
-25.6194302328
30
0.0000000000
10
111.0535869248
20
-25.6594303306
30
0.0000000000
10
110.9721999531
20
-25.6924556892
30
0.0000000000
10
110.8881656762
20
-25.7182435431
30
0.0000000000
10
110.8021336759
20
-25.7365871652
30
0.0000000000
10
110.7438881744
20
-25.7437502395
30
0.0000000000
10
110.7146682337
20
-25.7460511406
30
0.0000000000
11
111.6350549209
21
-24.7521032554
31
0.0000000000
11
111.6311934726
21
-24.8395908899
31
0.0000000000
11
111.6196881111
21
-24.9263456103
31
0.0000000000
11
111.6006318008
21
-25.0117205056
31
0.0000000000
11
111.5741746545
21
-25.0950632943
31
0.0000000000
11
111.5405211936
21
-25.1757430768
31
0.0000000000
11
111.4999270461
21
-25.2531523736
31
0.0000000000
11
111.4526995980
21
-25.3267051796
31
0.0000000000
11
111.3991944997
21
-25.3958444390
31
0.0000000000
11
111.3398148738
21
-25.4600437574
31
0.0000000000
11
111.2750061944
21
-25.5188141102
31
0.0000000000
11
111.2052566047
21
-25.5717039560
31
0.0000000000
11
111.1310916492
21
-25.6183049994
31
0.0000000000
11
111.0530732298
21
-25.6582538952
31
0.0000000000
11
110.9717914823
21
-25.6912377902
31
0.0000000000
11
110.8878653805
21
-25.7169943764
31
0.0000000000
11
110.8019415566
21
-25.7353152748
31
0.0000000000
11
110.7146682337
21
-25.7460511406
31
0.0000000000
0
SPLINE
5
323
100
AcDbEntity
8
0
100
AcDbSpline
62
9
6
CONTINUOUS
70
0
71
3
72
16
73
12
74
10
42
0.0000001000
43
0.0000001000
44
0.0000000001
12
0.0503615898
22
-0.0860869737
32
0.0000000000
13
-0.0077744647
23
-0.0994324618
33
0.0000000000
40
0.0000000000
40
0.0000000000
40
0.0000000000
40
0.0000000000
40
0.0237572637
40
0.0747349196
40
0.1518120288
40
0.2528831273
40
0.3751202198
40
0.5150824833
40
0.6688217585
40
0.8319973002
40
1.0000000000
40
1.0000000000
40
1.0000000000
40
1.0000000000
10
110.7146682337
20
25.7292528583
30
0.0000000000
10
110.7150670515
20
25.7285711280
30
0.0000000000
10
110.7150915926
20
25.7259462323
30
0.0000000000
10
110.7153907972
20
25.7210137733
30
0.0000000000
10
110.7152164020
20
25.7133391438
30
0.0000000000
10
110.7149408875
20
25.7033801410
30
0.0000000000
10
110.7143927545
20
25.6913065233
30
0.0000000000
10
110.7136492324
20
25.6775012757
30
0.0000000000
10
110.7127074082
20
25.6623404298
30
0.0000000000
10
110.7116002531
20
25.6462574289
30
0.0000000000
10
110.7107752066
20
25.6352781139
30
0.0000000000
10
110.7103398296
20
25.6297098066
30
0.0000000000
11
110.7146682337
21
25.7292528583
31
0.0000000000
11
110.7150950586
21
25.7269221658
31
0.0000000000
11
110.7152839149
21
25.7218413704
31
0.0000000000
11
110.7152294599
21
25.7141542057
31
0.0000000000
11
110.7149332343
21
25.7040781386
31
0.0000000000
11
110.7144036180
21
25.6918982170
31
0.0000000000
11
110.7136555937
21
25.6779590060
31
0.0000000000
11
110.7127103227
21
25.6626548405
31
0.0000000000
11
110.7115945464
21
25.6464186690
31
0.0000000000
11
110.7103398296
21
25.6297098066
31
0.0000000000
0
SPLINE
5
324
100
AcDbEntity
8
0
100
AcDbSpline
62
9
6
CONTINUOUS
70
0
71
3
72
24
73
20
74
18
42
0.0000001000
43
0.0000001000
44
0.0000000001
12
1.3359392388
22
-0.1046002202
32
0.0000000000
13
0.0000165115
23
-1.3400279309
33
0.0000000000
40
0.0000000000
40
0.0000000000
40
0.0000000000
40
0.0000000000
40
0.0590570480
40
0.1180913779
40
0.1770769820
40
0.2360118731
40
0.2948977875
40
0.3537395975
40
0.4125412756
40
0.4713092121
40
0.5300501033
40
0.5887726654
40
0.6474846315
40
0.7061952397
40
0.7649130956
40
0.8236485840
40
0.8824090262
40
0.9411985623
40
1.0000000000
40
1.0000000000
40
1.0000000000
40
1.0000000000
10
110.7103398296
20
25.6297098066
30
0.0000000000
10
110.7366387055
20
25.6276506798
30
0.0000000000
10
110.7890752028
20
25.6212277709
30
0.0000000000
10
110.8665352066
20
25.6047531937
30
0.0000000000
10
110.9422086352
20
25.5815727096
30
0.0000000000
10
111.0154965015
20
25.5518751150
30
0.0000000000
10
111.0858421623
20
25.5158965621
30
0.0000000000
10
111.1527112136
20
25.4739194095
30
0.0000000000
10
111.2155982533
20
25.4262701142
30
0.0000000000
10
111.2740284333
20
25.3733169745
30
0.0000000000
10
111.3275620048
20
25.3154662747
30
0.0000000000
10
111.3757960635
20
25.2531599380
30
0.0000000000
10
111.4183676768
20
25.1868717135
30
0.0000000000
10
111.4549557036
20
25.1171046039
30
0.0000000000
10
111.4852835111
20
25.0443857824
30
0.0000000000
10
111.5091200904
20
24.9692654641
30
0.0000000000
10
111.5262811128
20
24.8923106509
30
0.0000000000
10
111.5366314073
20
24.8141244273
30
0.0000000000
10
111.5389356788
20
24.7615701628
30
0.0000000000
10
111.5389360024
20
24.7353049732
30
0.0000000000
11
110.7103398296
21
25.6297098066
31
0.0000000000
11
110.7888904723
21
25.6200851289
31
0.0000000000
11
110.8662673033
21
25.6036277151
31
0.0000000000
11
110.9418428109
21
25.5804752453
31
0.0000000000
11
111.0150357830
21
25.5508147546
31
0.0000000000
11
111.0852885014
21
25.5148821850
31
0.0000000000
11
111.1520695471
21
25.4729588954
31
0.0000000000
11
111.2148728608
21
25.4253717519
31
0.0000000000
11
111.2732251443
21
25.3724881055
31
0.0000000000
11
111.3266867805
21
25.3147142732
31
0.0000000000
11
111.3748563998
21
25.2524906124
31
0.0000000000
11
111.4173709442
21
25.1862911014
31
0.0000000000
11
111.4539102688
21
25.1166171952
31
0.0000000000
11
111.4841977071
21
25.0439964351
31
0.0000000000
11
111.5080032418
21
24.9689756443
31
0.0000000000
11
111.5251428219
21
24.8921230438
31
0.0000000000
11
111.5354816174
21
24.8140247859
31
0.0000000000
11
111.5389360024
21
24.7353049732
31
0.0000000000
0
SPLINE
5
325
100
AcDbEntity
8
0
100
AcDbSpline
62
9
6
CONTINUOUS
70
0
71
3
72
24
73
20
74
18
42
0.0000001000
43
0.0000001000
44
0.0000000001
12
1.4840790614
22
-0.1168626288
32
0.0000000000
13
0.0003845786
23
-1.4886730288
33
0.0000000000
40
0.0000000000
40
0.0000000000
40
0.0000000000
40
0.0000000000
40
0.0590668134
40
0.1180826782
40
0.1770543077
40
0.2359787360
40
0.2948576907
40
0.3536956678
40
0.4124962200
40
0.4712652170
40
0.5300087677
40
0.5887351876
40
0.6474516731
40
0.7061667634
40
0.7648883807
40
0.8236262030
40
0.8823871238
40
0.9411739141
40
1.0000000000
40
1.0000000000
40
1.0000000000
40
1.0000000000
10
110.7146682337
20
25.7292528583
30
0.0000000000
10
110.7438881740
20
25.7269519573
30
0.0000000000
10
110.8021336752
20
25.7197888830
30
0.0000000000
10
110.8881656753
20
25.7014452612
30
0.0000000000
10
110.9721999523
20
25.6756574072
30
0.0000000000
10
111.0535869240
20
25.6426320488
30
0.0000000000
10
111.1317082075
20
25.6026319509
30
0.0000000000
10
111.2059705132
20
25.5559710340
30
0.0000000000
10
111.2758126649
20
25.5030122129
30
0.0000000000
10
111.3407074312
20
25.4441648321
30
0.0000000000
10
111.4001666282
20
25.3798803057
30
0.0000000000
10
111.4537429840
20
25.3106495050
30
0.0000000000
10
111.5010335299
20
25.2369985768
30
0.0000000000
10
111.5416815721
20
25.1594862112
30
0.0000000000
10
111.5753797601
20
25.0786980045
30
0.0000000000
10
111.6018714091
20
24.9952450468
30
0.0000000000
10
111.6209515471
20
24.9097574431
30
0.0000000000
10
111.6324718497
20
24.8228900956
30
0.0000000000
10
111.6350473798
20
24.7644959090
30
0.0000000000
10
111.6350549209
20
24.7353049732
30
0.0000000000
11
110.7146682337
21
25.7292528583
31
0.0000000000
11
110.8019415555
21
25.7185169928
31
0.0000000000
11
110.8878653797
21
25.7001960944
31
0.0000000000
11
110.9717914815
21
25.6744395082
31
0.0000000000
11
111.0530732291
21
25.6414556133
31
0.0000000000
11
111.1310916485
21
25.6015067176
31
0.0000000000
11
111.2052566041
21
25.5549056742
31
0.0000000000
11
111.2750061938
21
25.5020158285
31
0.0000000000
11
111.3398148733
21
25.4432454757
31
0.0000000000
11
111.3991944992
21
25.3790461574
31
0.0000000000
11
111.4526995976
21
25.3099068980
31
0.0000000000
11
111.4999270458
21
25.2363540920
31
0.0000000000
11
111.5405211933
21
25.1589447952
31
0.0000000000
11
111.5741746542
21
25.0782650127
31
0.0000000000
11
111.6006318006
21
24.9949222241
31
0.0000000000
11
111.6196881110
21
24.9095473287
31
0.0000000000
11
111.6311934726
21
24.8227926085
31
0.0000000000
11
111.6350549209
21
24.7353049732
31
0.0000000000
0
SPLINE
5
326
100
AcDbEntity
8
0
100
AcDbSpline
62
9
6
CONTINUOUS
70
0
71
3
72
16
73
12
74
10
42
0.0000001000
43
0.0000001000
44
0.0000000001
12
-0.0503615863
22
-0.0860871438
32
0.0000000000
13
0.0077744807
23
-0.0994326060
33
0.0000000000
40
0.0000000000
40
0.0000000000
40
0.0000000000
40
0.0000000000
40
0.0237572766
40
0.0747349539
40
0.1518120891
40
0.2528832137
40
0.3751203269
40
0.5150825991
40
0.6688218639
40
0.8319973693
40
1.0000000000
40
1.0000000000
40
1.0000000000
40
1.0000000000
10
41.2665348094
20
25.7292530030
30
0.0000000000
10
41.2661359914
20
25.7285712710
30
0.0000000000
10
41.2661114506
20
25.7259463706
30
0.0000000000
10
41.2658122463
20
25.7210139021
30
0.0000000000
10
41.2659866423
20
25.7133392592
30
0.0000000000
10
41.2662621579
20
25.7033802395
30
0.0000000000
10
41.2668102923
20
25.6913066024
30
0.0000000000
10
41.2675538162
20
25.6775013342
30
0.0000000000
10
41.2684956424
20
25.6623404675
30
0.0000000000
10
41.2696027995
20
25.6462574472
30
0.0000000000
10
41.2704278474
20
25.6352781197
30
0.0000000000
10
41.2708632252
20
25.6297098066
30
0.0000000000
11
41.2665348094
21
25.7292530030
31
0.0000000000
11
41.2661079845
21
25.7269223057
31
0.0000000000
11
41.2659191285
21
25.7218415007
31
0.0000000000
11
41.2659735842
21
25.7141543222
31
0.0000000000
11
41.2662698111
21
25.7040782379
31
0.0000000000
11
41.2667994289
21
25.6918982965
31
0.0000000000
11
41.2675474550
21
25.6779590645
31
0.0000000000
11
41.2684927279
21
25.6626548778
31
0.0000000000
11
41.2696085063
21
25.6464186864
31
0.0000000000
11
41.2708632252
21
25.6297098066
31
0.0000000000
0
SPLINE
5
327
100
AcDbEntity
8
0
100
AcDbSpline
62
9
6
CONTINUOUS
70
0
71
3
72
20
73
16
74
14
42
0.0000001000
43
0.0000001000
44
0.0000000001
12
69.2977250656
22
5.4249620177
32
0.0000000000
13
69.2977250654
23
-5.4249620198
33
0.0000000000
40
0.0000000000
40
0.0000000000
40
0.0000000000
40
0.0000000000
40
0.0769606568
40
0.1539018987
40
0.2308279559
40
0.3077425619
40
0.3846487201
40
0.4615490506
40
0.5384509455
40
0.6153512765
40
0.6922574408
40
0.7691720450
40
0.8460981006
40
0.9230393446
40
1.0000000000
40
1.0000000000
40
1.0000000000
40
1.0000000000
10
41.2708632251
20
25.6297098066
30
0.0000000000
10
43.0485960363
20
25.7688793532
30
0.0000000000
10
46.6053236655
20
26.0258108381
30
0.0000000000
10
51.9440576011
20
26.3469977963
30
0.0000000000
10
57.2852088489
20
26.6039357493
30
0.0000000000
10
62.6282478035
20
26.7966324554
30
0.0000000000
10
67.9726212128
20
26.9250935542
30
0.0000000000
10
73.3178576897
20
26.9893243268
30
0.0000000000
10
78.6633451091
20
26.9893243285
30
0.0000000000
10
84.0085817383
20
26.9250935570
30
0.0000000000
10
89.3529552591
20
26.7966324556
30
0.0000000000
10
94.6959942759
20
26.6039357461
30
0.0000000000
10
100.0371454916
20
26.3469977941
30
0.0000000000
10
105.3758794049
20
26.0258108373
30
0.0000000000
10
108.9326070496
20
25.7688793508
30
0.0000000000
10
110.7103398296
20
25.6297098066
30
0.0000000000
11
41.2708632251
21
25.6297098066
31
0.0000000000
11
46.6064755616
21
26.0151446126
31
0.0000000000
11
51.9449893665
21
26.3363184429
31
0.0000000000
11
57.2859239127
21
26.5932458835
31
0.0000000000
11
62.6287651608
21
26.7859355145
31
0.0000000000
11
67.9729491361
21
26.9143920503
31
0.0000000000
11
73.3178857694
21
26.9786192147
31
0.0000000000
11
78.6633170180
21
26.9786192164
31
0.0000000000
11
84.0082536853
21
26.9143920546
31
0.0000000000
11
89.3524380835
21
26.7859355087
31
0.0000000000
11
94.6952792093
21
26.5932458807
31
0.0000000000
11
100.0362136416
21
26.3363184453
31
0.0000000000
11
105.3747275867
21
26.0151446065
31
0.0000000000
11
110.7103398296
21
25.6297098066
31
0.0000000000
0
SPLINE
5
328
100
AcDbEntity
8
0
100
AcDbSpline
62
9
6
CONTINUOUS
70
0
71
3
72
20
73
16
74
14
42
0.0000001000
43
0.0000001000
44
0.0000000001
12
69.3063328151
22
5.4262392106
32
0.0000000000
13
69.3063328150
23
-5.4262392110
33
0.0000000000
40
0.0000000000
40
0.0000000000
40
0.0000000000
40
0.0000000000
40
0.0769607787
40
0.1539020129
40
0.2308280552
40
0.3077426384
40
0.3846487684
40
0.4615490672
40
0.5384509296
40
0.6153512289
40
0.6922573650
40
0.7691719464
40
0.8460979871
40
0.9230392234
40
1.0000000000
40
1.0000000000
40
1.0000000000
40
1.0000000000
10
41.2665348094
20
25.7292530030
30
0.0000000000
10
43.0444912561
20
25.8684555346
30
0.0000000000
10
46.6016637076
20
26.1254476058
30
0.0000000000
10
51.9410645953
20
26.4467102849
30
0.0000000000
10
57.2828805183
20
26.7037086706
30
0.0000000000
10
62.6265845066
20
26.8964507083
30
0.0000000000
10
67.9716231530
20
27.0249420269
30
0.0000000000
10
73.3175250082
20
27.0891879100
30
0.0000000000
10
78.6636778399
20
27.0891879114
30
0.0000000000
10
84.0095798472
20
27.0249420288
30
0.0000000000
10
89.3546186050
20
26.8964507070
30
0.0000000000
10
94.6983226549
20
26.7037086654
30
0.0000000000
10
100.0401385460
20
26.4467102800
30
0.0000000000
10
105.3795393950
20
26.1254476028
30
0.0000000000
10
108.9367118460
20
25.8684555309
30
0.0000000000
10
110.7146682453
20
25.7292530030
30
0.0000000000
11
41.2665348094
21
25.7292530030
31
0.0000000000
11
46.6028188991
21
26.1147790773
31
0.0000000000
11
51.9419967713
21
26.4360284322
31
0.0000000000
11
57.2835959549
21
26.6930163030
31
0.0000000000
11
62.6271021224
21
26.8857512566
31
0.0000000000
11
67.9719512426
21
27.0142380079
31
0.0000000000
11
73.3175531228
21
27.0784802797
31
0.0000000000
11
78.6636497141
21
27.0784802810
31
0.0000000000
11
84.0092516281
21
27.0142380113
31
0.0000000000
11
89.3541011707
21
26.8857512494
31
0.0000000000
11
94.6976072157
21
26.6930162983
31
0.0000000000
11
100.0392062849
21
26.4360284321
31
0.0000000000
11
105.3783842980
21
26.1147790679
31
0.0000000000
11
110.7146682453
21
25.7292530030
31
0.0000000000
0
SPLINE
5
329
100
AcDbEntity
8
0
100
AcDbSpline
62
9
6
CONTINUOUS
70
0
71
3
72
24
73
20
74
18
42
0.0000001000
43
0.0000001000
44
0.0000000001
12
0.0000165123
22
1.3400279309
32
0.0000000000
13
1.3359392389
23
0.1046002197
33
0.0000000000
40
0.0000000000
40
0.0000000000
40
0.0000000000
40
0.0000000000
40
0.0588014377
40
0.1175909738
40
0.1763514160
40
0.2350869044
40
0.2938047603
40
0.3525153685
40
0.4112273346
40
0.4699498967
40
0.5286907879
40
0.5874587244
40
0.6462604025
40
0.7051022125
40
0.7639881269
40
0.8229230180
40
0.8819086221
40
0.9409429520
40
1.0000000000
40
1.0000000000
40
1.0000000000
40
1.0000000000
10
40.4422670523
20
24.7353049732
30
0.0000000000
10
40.4422673760
20
24.7615701628
30
0.0000000000
10
40.4445716474
20
24.8141244273
30
0.0000000000
10
40.4549219419
20
24.8923106510
30
0.0000000000
10
40.4720829644
20
24.9692654641
30
0.0000000000
10
40.4959195436
20
25.0443857824
30
0.0000000000
10
40.5262473511
20
25.1171046039
30
0.0000000000
10
40.5628353780
20
25.1868717135
30
0.0000000000
10
40.6054069912
20
25.2531599380
30
0.0000000000
10
40.6536410499
20
25.3154662747
30
0.0000000000
10
40.7071746214
20
25.3733169745
30
0.0000000000
10
40.7656048014
20
25.4262701143
30
0.0000000000
10
40.8284918411
20
25.4739194095
30
0.0000000000
10
40.8953608924
20
25.5158965621
30
0.0000000000
10
40.9657065532
20
25.5518751150
30
0.0000000000
10
41.0389944195
20
25.5815727096
30
0.0000000000
10
41.1146678482
20
25.6047531937
30
0.0000000000
10
41.1921278519
20
25.6212277709
30
0.0000000000
10
41.2445643492
20
25.6276506799
30
0.0000000000
10
41.2708632251
20
25.6297098066
30
0.0000000000
11
40.4422670523
21
24.7353049732
31
0.0000000000
11
40.4457214373
21
24.8140247859
31
0.0000000000
11
40.4560602328
21
24.8921230438
31
0.0000000000
11
40.4731998129
21
24.9689756443
31
0.0000000000
11
40.4970053477
21
25.0439964351
31
0.0000000000
11
40.5272927860
21
25.1166171952
31
0.0000000000
11
40.5638321105
21
25.1862911014
31
0.0000000000
11
40.6063466549
21
25.2524906124
31
0.0000000000
11
40.6545162742
21
25.3147142732
31
0.0000000000
11
40.7079779104
21
25.3724881055
31
0.0000000000
11
40.7663301939
21
25.4253717519
31
0.0000000000
11
40.8291335076
21
25.4729588954
31
0.0000000000
11
40.8959145533
21
25.5148821850
31
0.0000000000
11
40.9661672717
21
25.5508147546
31
0.0000000000
11
41.0393602439
21
25.5804752453
31
0.0000000000
11
41.1149357515
21
25.6036277151
31
0.0000000000
11
41.1923125824
21
25.6200851289
31
0.0000000000
11
41.2708632251
21
25.6297098066
31
0.0000000000
0
SPLINE
5
32A
100
AcDbEntity
8
0
100
AcDbSpline
62
9
6
CONTINUOUS
70
0
71
3
72
24
73
20
74
18
42
0.0000001000
43
0.0000001000
44
0.0000000001
12
0.0003845789
22
1.4886730288
32
0.0000000000
13
1.4840790614
23
0.1168626287
33
0.0000000000
40
0.0000000000
40
0.0000000000
40
0.0000000000
40
0.0000000000
40
0.0588260854
40
0.1176128758
40
0.1763737965
40
0.2351116188
40
0.2938332361
40
0.3525483264
40
0.4112648120
40
0.4699912318
40
0.5287347825
40
0.5875037795
40
0.6463043317
40
0.7051423088
40
0.7640212635
40
0.8229456918
40
0.8819173212
40
0.9409331859
40
1.0000000000
40
1.0000000000
40
1.0000000000
40
1.0000000000
10
40.3461481338
20
24.7353049732
30
0.0000000000
10
40.3461556749
20
24.7644959087
30
0.0000000000
10
40.3487312050
20
24.8228900952
30
0.0000000000
10
40.3602515075
20
24.9097574424
30
0.0000000000
10
40.3793316454
20
24.9952450462
30
0.0000000000
10
40.4058232944
20
25.0786980038
30
0.0000000000
10
40.4395214823
20
25.1594862106
30
0.0000000000
10
40.4801695244
20
25.2369985762
30
0.0000000000
10
40.5274600703
20
25.3106495044
30
0.0000000000
10
40.5810364260
20
25.3798803051
30
0.0000000000
10
40.6404956230
20
25.4441648316
30
0.0000000000
10
40.7053903892
20
25.5030122124
30
0.0000000000
10
40.7752325408
20
25.5559710335
30
0.0000000000
10
40.8494948465
20
25.6026319506
30
0.0000000000
10
40.9276161299
20
25.6426320484
30
0.0000000000
10
41.0090031016
20
25.6756574070
30
0.0000000000
10
41.0930373786
20
25.7014452609
30
0.0000000000
10
41.1790693789
20
25.7197888830
30
0.0000000000
10
41.2373148804
20
25.7269519573
30
0.0000000000
10
41.2665348210
20
25.7292528584
30
0.0000000000
11
40.3461481338
21
24.7353049732
31
0.0000000000
11
40.3500095821
21
24.8227926077
31
0.0000000000
11
40.3615149436
21
24.9095473281
31
0.0000000000
11
40.3805712539
21
24.9949222234
31
0.0000000000
11
40.4070284003
21
25.0782650121
31
0.0000000000
11
40.4406818611
21
25.1589447945
31
0.0000000000
11
40.4812760086
21
25.2363540913
31
0.0000000000
11
40.5285034567
21
25.3099068974
31
0.0000000000
11
40.5820085551
21
25.3790461568
31
0.0000000000
11
40.6413881809
21
25.4432454752
31
0.0000000000
11
40.7061968603
21
25.5020158280
31
0.0000000000
11
40.7759464500
21
25.5549056738
31
0.0000000000
11
40.8501114055
21
25.6015067172
31
0.0000000000
11
40.9281298249
21
25.6414556130
31
0.0000000000
11
41.0094115725
21
25.6744395080
31
0.0000000000
11
41.0933376743
21
25.7001960942
31
0.0000000000
11
41.1792614981
21
25.7185169926
31
0.0000000000
11
41.2665348210
21
25.7292528584
31
0.0000000000
0
SPLINE
5
32B
100
AcDbEntity
8
0
100
AcDbSpline
62
9
6
CONTINUOUS
70
0
71
3
72
16
73
12
74
10
42
0.0000001000
43
0.0000001000
44
0.0000000001
12
-0.0503615903
22
0.0860869916
32
0.0000000000
13
0.0077744664
23
0.0994324775
33
0.0000000000
40
0.0000000000
40
0.0000000000
40
0.0000000000
40
0.0000000000
40
0.0237572650
40
0.0747349231
40
0.1518120349
40
0.2528831362
40
0.3751202309
40
0.5150824954
40
0.6688217695
40
0.8319973074
40
1.0000000000
40
1.0000000000
40
1.0000000000
40
1.0000000000
10
41.2665348198
20
-25.7460511562
30
0.0000000000
10
41.2661360019
20
-25.7453694257
30
0.0000000000
10
41.2661114609
20
-25.7427445295
30
0.0000000000
10
41.2658122563
20
-25.7378120695
30
0.0000000000
10
41.2659866516
20
-25.7301374386
30
0.0000000000
10
41.2662621662
20
-25.7201784340
30
0.0000000000
10
41.2668102993
20
-25.7081048142
30
0.0000000000
10
41.2675538217
20
-25.6942995643
30
0.0000000000
10
41.2684956461
20
-25.6791387161
30
0.0000000000
10
41.2696028014
20
-25.6630557131
30
0.0000000000
10
41.2704278481
20
-25.6520763968
30
0.0000000000
10
41.2708632252
20
-25.6465080888
30
0.0000000000
11
41.2665348198
21
-25.7460511562
31
0.0000000000
11
41.2661079949
21
-25.7437204632
31
0.0000000000
11
41.2659191386
21
-25.7386396667
31
0.0000000000
11
41.2659735936
21
-25.7309525006
31
0.0000000000
11
41.2662698194
21
-25.7208764316
31
0.0000000000
11
41.2667994359
21
-25.7086965079
31
0.0000000000
11
41.2675474604
21
-25.6947572946
31
0.0000000000
11
41.2684927316
21
-25.6794531268
31
0.0000000000
11
41.2696085081
21
-25.6632169532
31
0.0000000000
11
41.2708632252
21
-25.6465080888
31
0.0000000000
0
SPLINE
5
32C
100
AcDbEntity
8
0
100
AcDbSpline
62
9
6
CONTINUOUS
70
0
71
3
72
24
73
20
74
18
42
0.0000001000
43
0.0000001000
44
0.0000000001
12
-1.3359392482
22
0.1046001002
32
0.0000000000
13
-0.0000166363
23
1.3400279308
33
0.0000000000
40
0.0000000000
40
0.0000000000
40
0.0000000000
40
0.0000000000
40
0.0590586294
40
0.1180930383
40
0.1770787394
40
0.2360137493
40
0.2948997723
40
0.3537416976
40
0.4125434993
40
0.4713115685
40
0.5300524497
40
0.5887748664
40
0.6474866993
40
0.7061971806
40
0.7649149114
40
0.8236502678
40
0.8824106139
40
0.9412000876
40
1.0000000000
40
1.0000000000
40
1.0000000000
40
1.0000000000
10
41.2708632252
20
-25.6465080888
30
0.0000000000
10
41.2445636448
20
-25.6444489093
30
0.0000000000
10
41.1921264141
20
-25.6380258417
30
0.0000000000
10
41.1146656780
20
-25.6215509316
30
0.0000000000
10
41.0389921849
20
-25.5983702048
30
0.0000000000
10
40.9657042626
20
-25.5686723621
30
0.0000000000
10
40.8953585698
20
-25.5326935338
30
0.0000000000
10
40.8284895145
20
-25.4907160946
30
0.0000000000
10
40.7656024967
20
-25.4430664944
30
0.0000000000
10
40.7071724168
20
-25.3901130795
30
0.0000000000
10
40.6536390569
20
-25.3322621978
30
0.0000000000
10
40.6054052904
20
-25.2699557987
30
0.0000000000
10
40.5628339885
20
-25.2036675905
30
0.0000000000
10
40.5262462511
20
-25.1339005240
30
0.0000000000
10
40.4959187175
20
-25.0611817751
30
0.0000000000
10
40.4720823778
20
-24.9860615466
30
0.0000000000
10
40.4549215839
20
-24.9091068164
30
0.0000000000
10
40.4445715526
20
-24.8309213170
30
0.0000000000
10
40.4422673784
20
-24.7783677637
30
0.0000000000
10
40.4422670523
20
-24.7521032554
30
0.0000000000
11
41.2708632252
21
-25.6465080888
31
0.0000000000
11
41.1923104902
21
-25.6368830618
31
0.0000000000
11
41.1149335937
21
-25.6204254475
31
0.0000000000
11
41.0393580220
21
-25.5972727434
31
0.0000000000
11
40.9661649822
21
-25.5676119956
31
0.0000000000
11
40.8959122383
21
-25.5316791565
31
0.0000000000
11
40.8291311899
21
-25.4897555805
31
0.0000000000
11
40.7663278985
21
-25.4421681332
31
0.0000000000
11
40.7079756652
21
-25.3892841667
31
0.0000000000
11
40.6545142423
21
-25.3315101552
31
0.0000000000
11
40.6063449551
21
-25.2692864838
31
0.0000000000
11
40.5638307196
21
-25.2030869865
31
0.0000000000
11
40.5272916838
21
-25.1334131210
31
0.0000000000
11
40.4970045154
21
-25.0607924299
31
0.0000000000
11
40.4731992297
21
-24.9857717457
31
0.0000000000
11
40.4560598698
21
-24.9089192280
31
0.0000000000
11
40.4457212589
21
-24.8308210299
31
0.0000000000
11
40.4422670523
21
-24.7521032554
31
0.0000000000
0
SPLINE
5
32D
100
AcDbEntity
8
0
100
AcDbSpline
62
9
6
CONTINUOUS
70
0
71
3
72
24
73
20
74
18
42
0.0000001000
43
0.0000001000
44
0.0000000001
12
-1.4840790677
22
0.1168625479
32
0.0000000000
13
-0.0003846651
23
1.4886730287
33
0.0000000000
40
0.0000000000
40
0.0000000000
40
0.0000000000
40
0.0000000000
40
0.0590667340
40
0.1180826138
40
0.1770542196
40
0.2359786550
40
0.2948575964
40
0.3536955622
40
0.4124961050
40
0.4712650957
40
0.5300086387
40
0.5887350521
40
0.6474515374
40
0.7061666273
40
0.7648882411
40
0.8236260426
40
0.8823869875
40
0.9411737790
40
1.0000000000
40
1.0000000000
40
1.0000000000
40
1.0000000000
10
41.2665348198
20
-25.7460511562
30
0.0000000000
10
41.2373149186
20
-25.7437502599
30
0.0000000000
10
41.1790694527
20
-25.7365871651
30
0.0000000000
10
41.0930374882
20
-25.7182435889
30
0.0000000000
10
41.0090032130
20
-25.6924557298
30
0.0000000000
10
40.9276162488
20
-25.6594303933
30
0.0000000000
10
40.8494949693
20
-25.6194303064
30
0.0000000000
10
40.7752326709
20
-25.5727694099
30
0.0000000000
10
40.7053905221
20
-25.5198106073
30
0.0000000000
10
40.6404957547
20
-25.4609632451
30
0.0000000000
10
40.5810365537
20
-25.3966787363
30
0.0000000000
10
40.5274601894
20
-25.3274479513
30
0.0000000000
10
40.4801696317
20
-25.2537970350
30
0.0000000000
10
40.4395215744
20
-25.1762846795
30
0.0000000000
10
40.4058233780
20
-25.0954964899
30
0.0000000000
10
40.3793317040
20
-25.0120435398
30
0.0000000000
10
40.3602515619
20
-24.9265559353
30
0.0000000000
10
40.3487312033
20
-24.8396885143
30
0.0000000000
10
40.3461556927
20
-24.7812942583
30
0.0000000000
10
40.3461481499
20
-24.7521032554
30
0.0000000000
11
41.2665348198
21
-25.7460511562
31
0.0000000000
11
41.1792616163
21
-25.7353152955
31
0.0000000000
11
41.0933377667
21
-25.7169944105
31
0.0000000000
11
41.0094116970
21
-25.6912378398
31
0.0000000000
11
40.9281299349
21
-25.6582539521
31
0.0000000000
11
40.8501115285
21
-25.6183050746
31
0.0000000000
11
40.7759465806
21
-25.5717040507
31
0.0000000000
11
40.7061969939
21
-25.5188142241
31
0.0000000000
11
40.6413883118
21
-25.4600438882
31
0.0000000000
11
40.5820086826
21
-25.3958445885
31
0.0000000000
11
40.5285035774
21
-25.3267053467
31
0.0000000000
11
40.4812761155
21
-25.2531525499
31
0.0000000000
11
40.4406819530
21
-25.1757432617
31
0.0000000000
11
40.4070284787
21
-25.0950634905
31
0.0000000000
11
40.3805713219
21
-25.0117207375
31
0.0000000000
11
40.3615149893
21
-24.9263458103
31
0.0000000000
11
40.3500096010
21
-24.8395910920
31
0.0000000000
11
40.3461481499
21
-24.7521032554
31
0.0000000000
0
SPLINE
5
32E
100
AcDbEntity
8
0
100
AcDbSpline
62
9
6
CONTINUOUS
70
0
71
3
72
18
73
14
74
12
42
0.0000001000
43
0.0000001000
44
0.0000000001
12
0.2369692953
22
-0.1692749712
32
0.0000000000
13
0.0099580897
23
-0.2910486201
33
0.0000000000
40
0.0000000000
40
0.0000000000
40
0.0000000000
40
0.0000000000
40
0.0211063856
40
0.0567971731
40
0.1078517528
40
0.1741207605
40
0.2551106269
40
0.3501110525
40
0.4582486331
40
0.5785024155
40
0.7097306728
40
0.8506800049
40
1.0000000000
40
1.0000000000
40
1.0000000000
40
1.0000000000
10
109.7052990831
20
-22.5728228124
30
0.0000000000
10
109.7069662715
20
-22.5740137400
30
0.0000000000
10
109.7097528016
20
-22.5791104945
30
0.0000000000
10
109.7130212142
20
-22.5889194473
30
0.0000000000
10
109.7163239597
20
-22.6034869289
30
0.0000000000
10
109.7195470386
20
-22.6224430273
30
0.0000000000
10
109.7226518999
20
-22.6457679327
30
0.0000000000
10
109.7255895357
20
-22.6731908527
30
0.0000000000
10
109.7283269345
20
-22.7044665726
30
0.0000000000
10
109.7308329733
20
-22.7392866216
30
0.0000000000
10
109.7330813023
20
-22.7773156932
30
0.0000000000
10
109.7350487041
20
-22.8181850447
30
0.0000000000
10
109.7361319815
20
-22.8463419894
30
0.0000000000
10
109.7366276288
20
-22.8608284489
30
0.0000000000
11
109.7052990831
21
-22.5728228124
31
0.0000000000
11
109.7088901625
21
-22.5778112572
31
0.0000000000
11
109.7124275666
21
-22.5875846155
31
0.0000000000
11
109.7158771004
21
-22.6020469777
31
0.0000000000
11
109.7192053144
21
-22.6210566136
31
0.0000000000
11
109.7223800109
21
-22.6444277584
31
0.0000000000
11
109.7253704289
21
-22.6719315879
31
0.0000000000
11
109.7281477757
21
-22.7033005877
31
0.0000000000
11
109.7306852302
21
-22.7382287160
31
0.0000000000
11
109.7329584411
21
-22.7763771995
31
0.0000000000
11
109.7349455931
21
-22.8173761839
31
0.0000000000
11
109.7366276288
21
-22.8608284489
31
0.0000000000
0
SPLINE
5
32F
100
AcDbEntity
8
0
100
AcDbSpline
62
9
6
CONTINUOUS
70
0
71
3
72
18
73
14
74
12
42
0.0000001000
43
0.0000001000
44
0.0000000001
12
0.2867446002
22
-0.2868004340
32
0.0000000000
13
0.0099094521
23
-0.4054365024
33
0.0000000000
40
0.0000000000
40
0.0000000000
40
0.0000000000
40
0.0000000000
40
0.0193688577
40
0.0542140978
40
0.1048553231
40
0.1709853164
40
0.2520392007
40
0.3472668661
40
0.4557687827
40
0.5765044718
40
0.7083160971
40
0.8499347865
40
1.0000000000
40
1.0000000000
40
1.0000000000
40
1.0000000000
10
109.9050232937
20
-22.3730950004
30
0.0000000000
10
109.9068745988
20
-22.3749466660
30
0.0000000000
10
109.9094662525
20
-22.3821682432
30
0.0000000000
10
109.9128052988
20
-22.3957375540
30
0.0000000000
10
109.9160427152
20
-22.4160941479
30
0.0000000000
10
109.9192824822
20
-22.4426004618
30
0.0000000000
10
109.9223777001
20
-22.4752433128
30
0.0000000000
10
109.9253170042
20
-22.5136256509
30
0.0000000000
10
109.9280530630
20
-22.5574062861
30
0.0000000000
10
109.9305591367
20
-22.6061508889
30
0.0000000000
10
109.9328072778
20
-22.6593899254
30
0.0000000000
10
109.9347747107
20
-22.7166071555
30
0.0000000000
10
109.9358578477
20
-22.7560241581
30
0.0000000000
10
109.9363535357
20
-22.7763047966
30
0.0000000000
11
109.9050232937
21
-22.3730950004
31
0.0000000000
11
109.9086159799
21
-22.3800804547
31
0.0000000000
11
109.9121532703
21
-22.3937623396
31
0.0000000000
11
109.9156027111
21
-22.4140085257
31
0.0000000000
11
109.9189308583
21
-22.4406207430
31
0.0000000000
11
109.9221055178
21
-22.4733391029
31
0.0000000000
11
109.9250959305
21
-22.5118434553
31
0.0000000000
11
109.9278733080
21
-22.5557594936
31
0.0000000000
11
109.9304108261
21
-22.6046589732
31
0.0000000000
11
109.9326841256
21
-22.6580678190
31
0.0000000000
11
109.9346713664
21
-22.7154679630
31
0.0000000000
11
109.9363535357
21
-22.7763047966
31
0.0000000000
0
SPLINE
5
330
100
AcDbEntity
8
0
100
AcDbSpline
62
9
6
CONTINUOUS
70
0
71
3
72
19
73
15
74
13
42
0.0000001000
43
0.0000001000
44
0.0000000001
12
0.3132328585
22
0.0008579588
32
0.0000000000
13
0.0008579662
23
0.3132328585
33
0.0000000000
40
0.0000000000
40
0.0000000000
40
0.0000000000
40
0.0000000000
40
0.0832755735
40
0.1665798297
40
0.2499097833
40
0.3332607077
40
0.4166264566
40
0.4999998807
40
0.5833733118
40
0.6667390818
40
0.7500900408
40
0.8334200417
40
0.9167243569
40
1.0000000000
40
1.0000000000
40
1.0000000000
40
1.0000000000
10
109.7052992917
20
-22.5728228124
30
0.0000000000
10
109.7139941737
20
-22.5727989967
30
0.0000000000
10
109.7314051571
20
-22.5716123168
30
0.0000000000
10
109.7570544660
20
-22.5664479458
30
0.0000000000
10
109.7818256873
20
-22.5579870119
30
0.0000000000
10
109.8052907275
20
-22.5463738613
30
0.0000000000
10
109.8270511735
20
-22.5318065275
30
0.0000000000
10
109.8467356949
20
-22.5145333621
30
0.0000000000
10
109.8640088698
20
-22.4948488460
30
0.0000000000
10
109.8785762157
20
-22.4730884000
30
0.0000000000
10
109.8901893790
20
-22.4496233540
30
0.0000000000
10
109.8986503245
20
-22.4248521210
30
0.0000000000
10
109.9038147039
20
-22.3992027950
30
0.0000000000
10
109.9050013862
20
-22.3817917981
30
0.0000000000
10
109.9050252021
20
-22.3730969089
30
0.0000000000
11
109.7052992917
21
-22.5728228124
31
0.0000000000
11
109.7313236403
21
-22.5710487947
31
0.0000000000
11
109.7569042572
21
-22.5658995529
31
0.0000000000
11
109.7816049740
21
-22.5574628843
31
0.0000000000
11
109.8050046252
21
-22.5458826396
31
0.0000000000
11
109.8267042291
21
-22.5313562696
31
0.0000000000
11
109.8463337907
21
-22.5141314587
31
0.0000000000
11
109.8635586110
21
-22.4945019024
31
0.0000000000
11
109.8780849931
21
-22.4728022986
31
0.0000000000
11
109.8896652505
21
-22.4494026416
31
0.0000000000
11
109.8981019305
21
-22.4247019131
31
0.0000000000
11
109.9032511807
21
-22.3991212790
31
0.0000000000
11
109.9050252021
21
-22.3730969089
31
0.0000000000
0
SPLINE
5
331
100
AcDbEntity
8
0
100
AcDbSpline
62
9
6
CONTINUOUS
70
0
71
3
72
18
73
14
74
12
42
0.0000001000
43
0.0000001000
44
0.0000000001
12
0.2297130578
22
0.0046111092
32
0.0000000000
13
0.0255914174
23
0.2283296534
33
0.0000000000
40
0.0000000000
40
0.0000000000
40
0.0000000000
40
0.0000000000
40
0.1202807776
40
0.2388149137
40
0.3537667071
40
0.4634113230
40
0.5661988692
40
0.6608295277
40
0.7463498925
40
0.8222886510
40
0.8888601931
40
0.9472614946
40
1.0000000000
40
1.0000000000
40
1.0000000000
40
1.0000000000
10
109.7366276288
20
-22.8608284489
30
0.0000000000
10
109.7458376505
20
-22.8606435730
30
0.0000000000
10
109.7641178634
20
-22.8597443272
30
0.0000000000
10
109.7910689579
20
-22.8568204437
30
0.0000000000
10
109.8169885757
20
-22.8523805568
30
0.0000000000
10
109.8413857817
20
-22.8465101676
30
0.0000000000
10
109.8638028369
20
-22.8393215081
30
0.0000000000
10
109.8838236609
20
-22.8309501674
30
0.0000000000
10
109.9010840679
20
-22.8215477854
30
0.0000000000
10
109.9152795312
20
-22.8112737016
30
0.0000000000
10
109.9261612275
20
-22.8002657063
30
0.0000000000
10
109.9335032725
20
-22.7886510896
30
0.0000000000
10
109.9359036514
20
-22.7803187181
30
0.0000000000
10
109.9363535357
20
-22.7763047966
30
0.0000000000
11
109.7366276288
21
-22.8608284489
31
0.0000000000
11
109.7642296138
21
-22.8594651662
31
0.0000000000
11
109.7913030831
21
-22.8565095503
31
0.0000000000
11
109.8173296410
21
-22.8520181944
31
0.0000000000
11
109.8418109375
21
-22.8460770979
31
0.0000000000
11
109.8642782112
21
-22.8388000193
31
0.0000000000
11
109.8843012645
21
-22.8303262984
31
0.0000000000
11
109.9014967011
21
-22.8208181877
31
0.0000000000
11
109.9155352673
21
-22.8104577461
31
0.0000000000
11
109.9261481562
21
-22.7994433526
31
0.0000000000
11
109.9331321549
21
-22.7879859081
31
0.0000000000
11
109.9363535357
21
-22.7763047966
31
0.0000000000
0
SPLINE
5
332
100
AcDbEntity
8
0
100
AcDbSpline
62
9
6
CONTINUOUS
70
0
71
3
72
19
73
15
74
13
42
0.0000001000
43
0.0000001000
44
0.0000000001
12
0.0092838431
22
-0.7596842213
32
0.0000000000
13
0.3654904193
23
-0.6660503428
33
0.0000000000
40
0.0000000000
40
0.0000000000
40
0.0000000000
40
0.0000000000
40
0.1443919504
40
0.2731425945
40
0.3880396565
40
0.4907947530
40
0.5828264502
40
0.6650860814
40
0.7385509260
40
0.8041098134
40
0.8625362967
40
0.9145244713
40
0.9602503378
40
1.0000000000
40
1.0000000000
40
1.0000000000
40
1.0000000000
10
109.9556618650
20
-23.5663944817
30
0.0000000000
10
109.9561087024
20
-23.6029585772
30
0.0000000000
10
109.9579848590
20
-23.6721184271
30
0.0000000000
10
109.9635402503
20
-23.7702439225
30
0.0000000000
10
109.9709909759
20
-23.8576643298
30
0.0000000000
10
109.9798712480
20
-23.9355972266
30
0.0000000000
10
109.9898492664
20
-24.0050557978
30
0.0000000000
10
110.0006792819
20
-24.0668682830
30
0.0000000000
10
110.0121753490
20
-24.1217271595
30
0.0000000000
10
110.0242120383
20
-24.1702733150
30
0.0000000000
10
110.0367105012
20
-24.2130641911
30
0.0000000000
10
110.0495956945
20
-24.2504673850
30
0.0000000000
10
110.0627802795
20
-24.2827074022
30
0.0000000000
10
110.0723301751
20
-24.3021619995
30
0.0000000000
10
110.0771728820
20
-24.3109870915
30
0.0000000000
11
109.9556618650
21
-23.5663944817
31
0.0000000000
11
109.9586607860
21
-23.6760539599
31
0.0000000000
11
109.9642279182
21
-23.7737125446
31
0.0000000000
11
109.9716868039
21
-23.8606852918
31
0.0000000000
11
109.9805766386
21
-23.9382447337
31
0.0000000000
11
109.9905752419
21
-24.0074463891
31
0.0000000000
11
110.0014217470
21
-24.0689939691
31
0.0000000000
11
110.0129358125
21
-24.1236076749
31
0.0000000000
11
110.0249957053
21
-24.1719333726
31
0.0000000000
11
110.0375232718
21
-24.2145179081
31
0.0000000000
11
110.0504828509
21
-24.2518288363
31
0.0000000000
11
110.0637402964
21
-24.2839395005
31
0.0000000000
11
110.0771728820
21
-24.3109870915
31
0.0000000000
0
SPLINE
5
333
100
AcDbEntity
8
0
100
AcDbSpline
62
9
6
CONTINUOUS
70
0
71
3
72
18
73
14
74
12
42
0.0000001000
43
0.0000001000
44
0.0000000001
12
0.2297130581
22
0.0046111061
32
0.0000000000
13
0.0255914164
23
0.2283296537
33
0.0000000000
40
0.0000000000
40
0.0000000000
40
0.0000000000
40
0.0000000000
40
0.1202803173
40
0.2388141177
40
0.3537657079
40
0.4634102483
40
0.5661978306
40
0.6608286119
40
0.7463491561
40
0.8222881185
40
0.8888598604
40
0.9472613396
40
1.0000000000
40
1.0000000000
40
1.0000000000
40
1.0000000000
10
109.7559359581
20
-23.6509181341
30
0.0000000000
10
109.7651459446
20
-23.6507332590
30
0.0000000000
10
109.7834260966
20
-23.6498340185
30
0.0000000000
10
109.8103771159
20
-23.6469101520
30
0.0000000000
10
109.8362966894
20
-23.6424702860
30
0.0000000000
10
109.8606938811
20
-23.6365999174
30
0.0000000000
10
109.8831109482
20
-23.6294112742
30
0.0000000000
10
109.9031318042
20
-23.6210399429
30
0.0000000000
10
109.9203922556
20
-23.6116375613
30
0.0000000000
10
109.9345877676
20
-23.6013634686
30
0.0000000000
10
109.9454695091
20
-23.5903554549
30
0.0000000000
10
109.9528115890
20
-23.5787408111
30
0.0000000000
10
109.9552119794
20
-23.5704084151
30
0.0000000000
10
109.9556618650
20
-23.5663944817
30
0.0000000000
11
109.7559359581
21
-23.6509181341
31
0.0000000000
11
109.7835378377
21
-23.6495548601
31
0.0000000000
11
109.8106112313
21
-23.6465992615
31
0.0000000000
11
109.8366377455
21
-23.6421079268
31
0.0000000000
11
109.8611190292
21
-23.6361668509
31
0.0000000000
11
109.8835863169
21
-23.6288897885
31
0.0000000000
11
109.9036094045
21
-23.6204160762
31
0.0000000000
11
109.9208048878
21
-23.6109079647
31
0.0000000000
11
109.9348435042
21
-23.6005475123
31
0.0000000000
11
109.9454564384
21
-23.5895330986
31
0.0000000000
11
109.9524404699
21
-23.5780756262
31
0.0000000000
11
109.9556618650
21
-23.5663944817
31
0.0000000000
0
SPLINE
5
334
100
AcDbEntity
8
0
100
AcDbSpline
62
9
6
CONTINUOUS
70
0
71
3
72
19
73
15
74
13
42
0.0000001000
43
0.0000001000
44
0.0000000001
12
0.0195740644
22
-0.8008661939
32
0.0000000000
13
0.5922818347
23
-0.5394182355
33
0.0000000000
40
0.0000000000
40
0.0000000000
40
0.0000000000
40
0.0000000000
40
0.1370767918
40
0.2597716496
40
0.3699235180
40
0.4692512748
40
0.5591690597
40
0.6406309668
40
0.7146179975
40
0.7820398979
40
0.8437174147
40
0.9004287329
40
0.9524121886
40
1.0000000000
40
1.0000000000
40
1.0000000000
40
1.0000000000
10
109.7559359581
20
-23.6509181341
30
0.0000000000
10
109.7568303414
20
-23.6875115236
30
0.0000000000
10
109.7605947705
20
-23.7568285343
30
0.0000000000
10
109.7717285575
20
-23.8550323835
30
0.0000000000
10
109.7866577275
20
-23.9425160544
30
0.0000000000
10
109.8044512278
20
-24.0205020992
30
0.0000000000
10
109.8244463499
20
-24.0900100342
30
0.0000000000
10
109.8461532873
20
-24.1518709324
30
0.0000000000
10
109.8692033911
20
-24.2067810517
30
0.0000000000
10
109.8933503182
20
-24.2553836770
30
0.0000000000
10
109.9184425120
20
-24.2982378113
30
0.0000000000
10
109.9443345819
20
-24.3357053340
30
0.0000000000
10
109.9708495896
20
-24.3679955356
30
0.0000000000
10
109.9895628505
20
-24.3869541566
30
0.0000000000
10
109.9989579826
20
-24.3955107343
30
0.0000000000
11
109.7559359581
21
-23.6509181341
31
0.0000000000
11
109.7619320284
21
-23.7605672647
31
0.0000000000
11
109.7730659099
21
-23.8582261474
31
0.0000000000
11
109.7879833331
21
-23.9451993738
31
0.0000000000
11
109.8057628311
21
-24.0227596243
31
0.0000000000
11
109.8257599374
21
-24.0919619228
31
0.0000000000
11
109.8474530459
21
-24.1535104452
31
0.0000000000
11
109.8704814776
21
-24.2081253795
31
0.0000000000
11
109.8946016967
21
-24.2564525577
31
0.0000000000
11
109.9196572150
21
-24.2990387977
31
0.0000000000
11
109.9455764384
21
-24.3363514894
31
0.0000000000
11
109.9720913987
21
-24.3684637671
31
0.0000000000
11
109.9989579826
21
-24.3955107343
31
0.0000000000
0
SPLINE
5
335
100
AcDbEntity
8
0
100
AcDbSpline
62
9
6
CONTINUOUS
70
0
71
3
72
10
73
6
74
4
42
0.0000001000
43
0.0000001000
44
0.0000000001
12
0.0859929231
22
-0.1566772741
32
0.0000000000
13
0.0848450237
23
-0.1573018531
33
0.0000000000
40
0.0000000000
40
0.0000000000
40
0.0000000000
40
0.0000000000
40
0.3098655381
40
0.6467813320
40
1.0000000000
40
1.0000000000
40
1.0000000000
40
1.0000000000
10
110.0771728820
20
-24.3109870915
30
0.0000000000
10
110.0860549632
20
-24.3271700541
30
0.0000000000
10
110.1045448682
20
-24.3609759553
30
0.0000000000
10
110.1330136028
20
-24.4133086026
30
0.0000000000
10
110.1525960469
20
-24.4494603971
30
0.0000000000
10
110.1625856623
20
-24.4679810474
30
0.0000000000
11
110.0771728820
21
-24.3109870915
31
0.0000000000
11
110.1037539261
21
-24.3595717074
31
0.0000000000
11
110.1325340344
21
-24.4124638266
31
0.0000000000
11
110.1625856623
21
-24.4679810474
31
0.0000000000
0
SPLINE
5
336
100
AcDbEntity
8
0
100
AcDbSpline
62
9
6
CONTINUOUS
70
0
71
3
72
11
73
7
74
5
42
0.0000001000
43
0.0000001000
44
0.0000000001
12
0.0856419173
22
0.0771990105
32
0.0000000000
13
0.0704513314
23
0.0912734086
33
0.0000000000
40
0.0000000000
40
0.0000000000
40
0.0000000000
40
0.0000000000
40
0.2462796306
40
0.4982925835
40
0.7511650885
40
1.0000000000
40
1.0000000000
40
1.0000000000
40
1.0000000000
10
109.9989579921
20
-24.3955107436
30
0.0000000000
10
110.0059886120
20
-24.3891732290
30
0.0000000000
10
110.0199036152
20
-24.3760032612
30
0.0000000000
10
110.0399725132
20
-24.3552374020
30
0.0000000000
10
110.0591857961
20
-24.3335461464
30
0.0000000000
10
110.0713290555
20
-24.3185577617
30
0.0000000000
10
110.0771726391
20
-24.3109870915
30
0.0000000000
11
109.9989579921
21
-24.3955107436
31
0.0000000000
11
110.0195964273
21
-24.3760069399
31
0.0000000000
11
110.0397953571
21
-24.3551185100
31
0.0000000000
11
110.0591246362
21
-24.3332902805
31
0.0000000000
11
110.0771726391
21
-24.3109870915
31
0.0000000000
0
SPLINE
5
337
100
AcDbEntity
8
0
100
AcDbSpline
62
9
6
CONTINUOUS
70
0
71
3
72
10
73
6
74
4
42
0.0000001000
43
0.0000001000
44
0.0000000001
12
0.1637440105
22
-0.0722072357
32
0.0000000000
13
0.1635470884
23
-0.0726521558
33
0.0000000000
40
0.0000000000
40
0.0000000000
40
0.0000000000
40
0.0000000000
40
0.3103393363
40
0.6472442998
40
1.0000000000
40
1.0000000000
40
1.0000000000
40
1.0000000000
10
109.9989579921
20
-24.3955107436
30
0.0000000000
10
110.0158967279
20
-24.4029803255
30
0.0000000000
10
110.0512151790
20
-24.4185793248
30
0.0000000000
10
110.1057611038
20
-24.4427285884
30
0.0000000000
10
110.1433549371
20
-24.4594382568
30
0.0000000000
10
110.1625856597
20
-24.4679810775
30
0.0000000000
11
109.9989579921
21
-24.3955107436
31
0.0000000000
11
110.0497623629
21
-24.4179463121
31
0.0000000000
11
110.1048907009
21
-24.4423588993
31
0.0000000000
11
110.1625856597
21
-24.4679810775
31
0.0000000000
0
SPLINE
5
338
100
AcDbEntity
8
0
100
AcDbSpline
62
0
6
CONTINUOUS
70
0
71
3
72
9
73
5
74
3
42
0.0000001000
43
0.0000001000
44
0.0000000001
12
-0.2078750191
22
-0.0143941482
32
0.0000000000
13
-0.2078819009
23
-0.0142944170
33
0.0000000000
40
0.0000000000
40
0.0000000000
40
0.0000000000
40
0.0000000000
40
0.5000003579
40
1.0000000000
40
1.0000000000
40
1.0000000000
40
1.0000000000
10
105.9906015274
20
-26.1237888335
30
0.0000000000
10
105.9559556660
20
-26.1261878599
30
0.0000000000
10
105.8866634173
20
-26.1309775985
30
0.0000000000
10
105.8173700215
20
-26.1357507153
30
0.0000000000
10
105.7827230629
20
-26.1381331164
30
0.0000000000
11
105.9906015274
21
-26.1237888335
31
0.0000000000
11
105.8866630809
21
-26.1309734465
31
0.0000000000
11
105.7827230629
21
-26.1381331164
31
0.0000000000
0
SPLINE
5
339
100
AcDbEntity
8
0
100
AcDbSpline
62
9
6
CONTINUOUS
70
0
71
3
72
10
73
6
74
4
42
0.0000001000
43
0.0000001000
44
0.0000000001
12
-0.1637476442
22
-0.0721989844
32
0.0000000000
13
-0.1635512706
23
-0.0726427298
33
0.0000000000
40
0.0000000000
40
0.0000000000
40
0.0000000000
40
0.0000000000
40
0.3104238414
40
0.6469726384
40
1.0000000000
40
1.0000000000
40
1.0000000000
40
1.0000000000
10
41.9822450619
20
-24.3955107510
30
0.0000000000
10
41.9653013377
20
-24.4029815130
30
0.0000000000
10
41.9299989791
20
-24.4185768357
30
0.0000000000
10
41.8754514604
20
-24.4427224950
30
0.0000000000
10
41.8378634199
20
-24.4594327874
30
0.0000000000
10
41.8186173954
20
-24.4679810778
30
0.0000000000
11
41.9822450619
21
-24.3955107510
31
0.0000000000
11
41.9314271713
21
-24.4179531368
31
0.0000000000
11
41.8763566679
21
-24.4423389059
31
0.0000000000
11
41.8186173954
21
-24.4679810778
31
0.0000000000
0
SPLINE
5
33A
100
AcDbEntity
8
0
100
AcDbSpline
62
9
6
CONTINUOUS
70
0
71
3
72
11
73
7
74
5
42
0.0000001000
43
0.0000001000
44
0.0000000001
12
0.0704513267
22
-0.0912733683
32
0.0000000000
13
0.0856418155
23
-0.0771990714
33
0.0000000000
40
0.0000000000
40
0.0000000000
40
0.0000000000
40
0.0000000000
40
0.2488349332
40
0.5017074243
40
0.7537203595
40
1.0000000000
40
1.0000000000
40
1.0000000000
40
1.0000000000
10
41.9040304705
20
-24.3109870922
30
0.0000000000
10
41.9098740543
20
-24.3185577597
30
0.0000000000
10
41.9220173104
20
-24.3335461398
30
0.0000000000
10
41.9412305817
20
-24.3552373934
30
0.0000000000
10
41.9612994621
20
-24.3760032562
30
0.0000000000
10
41.9752144501
20
-24.3891732311
30
0.0000000000
10
41.9822450619
20
-24.3955107510
30
0.0000000000
11
41.9040304705
21
-24.3109870922
31
0.0000000000
11
41.9220784703
21
-24.3332902758
31
0.0000000000
11
41.9414077370
21
-24.3551185025
31
0.0000000000
11
41.9616066481
21
-24.3760069354
31
0.0000000000
11
41.9822450619
21
-24.3955107510
31
0.0000000000
0
SPLINE
5
33B
100
AcDbEntity
8
0
100
AcDbSpline
62
9
6
CONTINUOUS
70
0
71
3
72
10
73
6
74
4
42
0.0000001000
43
0.0000001000
44
0.0000000001
12
-0.0859918809
22
-0.1566778389
32
0.0000000000
13
-0.0848356284
23
-0.1573069131
33
0.0000000000
40
0.0000000000
40
0.0000000000
40
0.0000000000
40
0.0000000000
40
0.3099648319
40
0.6464978585
40
1.0000000000
40
1.0000000000
40
1.0000000000
40
1.0000000000
10
41.9040301723
20
-24.3109870922
30
0.0000000000
10
41.8951453527
20
-24.3271752989
30
0.0000000000
10
41.8766620745
20
-24.3609655758
30
0.0000000000
10
41.8481961730
20
-24.4132997600
30
0.0000000000
10
41.8286139179
20
-24.4494449301
30
0.0000000000
10
41.8186173924
20
-24.4679810404
30
0.0000000000
11
41.9040301723
21
-24.3109870922
31
0.0000000000
11
41.8774400760
21
-24.3595869818
31
0.0000000000
11
41.8486935373
21
-24.4124194832
31
0.0000000000
11
41.8186173924
21
-24.4679810404
31
0.0000000000
0
SPLINE
5
33C
100
AcDbEntity
8
0
100
AcDbSpline
62
9
6
CONTINUOUS
70
0
71
3
72
19
73
15
74
13
42
0.0000001000
43
0.0000001000
44
0.0000000001
12
-0.0195771175
22
-0.8008662464
32
0.0000000000
13
-0.5922070725
23
-0.5395005018
33
0.0000000000
40
0.0000000000
40
0.0000000000
40
0.0000000000
40
0.0000000000
40
0.1367537004
40
0.2592104063
40
0.3692244209
40
0.4685091685
40
0.5584243292
40
0.6399298061
40
0.7140116749
40
0.7815647394
40
0.8434055967
40
0.9002313120
40
0.9522643982
40
1.0000000000
40
1.0000000000
40
1.0000000000
40
1.0000000000
10
42.2252670966
20
-23.6509181341
30
0.0000000000
10
42.2243746822
20
-23.6874252750
30
0.0000000000
10
42.2206233857
20
-23.7565925541
30
0.0000000000
10
42.2095305582
20
-23.8546128711
30
0.0000000000
10
42.1946477834
20
-23.9419907301
30
0.0000000000
10
42.1768963663
20
-24.0199360004
30
0.0000000000
10
42.1569337688
20
-24.0894526334
30
0.0000000000
10
42.1352469650
20
-24.1513589837
30
0.0000000000
10
42.1121990372
20
-24.2063481317
30
0.0000000000
10
42.0880317098
20
-24.2550568360
30
0.0000000000
10
42.0629041767
20
-24.2980171006
30
0.0000000000
10
42.0369753445
20
-24.3355657047
30
0.0000000000
10
42.0104170220
20
-24.3679283557
30
0.0000000000
10
41.9916681819
20
-24.3869262846
30
0.0000000000
10
41.9822450615
20
-24.3955107450
30
0.0000000000
11
42.2252670966
21
-23.6509181341
31
0.0000000000
11
42.2192930175
21
-23.7603092674
31
0.0000000000
11
42.2082009513
21
-23.8577809103
31
0.0000000000
11
42.1933299288
21
-23.9446500568
31
0.0000000000
11
42.1755894111
21
-24.0221839006
31
0.0000000000
11
42.1556253393
21
-24.0913935604
31
0.0000000000
11
42.1339527598
21
-24.1529863285
31
0.0000000000
11
42.1109247201
21
-24.2076838816
31
0.0000000000
11
42.0867832461
21
-24.2561178891
31
0.0000000000
11
42.0616808062
21
-24.2988283468
31
0.0000000000
11
42.0357222472
21
-24.3362253050
31
0.0000000000
11
42.0091909186
21
-24.3683756349
31
0.0000000000
11
41.9822450615
21
-24.3955107450
31
0.0000000000
0
SPLINE
5
33D
100
AcDbEntity
8
0
100
AcDbSpline
62
9
6
CONTINUOUS
70
0
71
3
72
18
73
14
74
12
42
0.0000001000
43
0.0000001000
44
0.0000000001
12
0.0255914163
22
-0.2283296538
32
0.0000000000
13
0.2297130582
23
-0.0046111058
33
0.0000000000
40
0.0000000000
40
0.0000000000
40
0.0000000000
40
0.0000000000
40
0.0527386535
40
0.1111401247
40
0.1777118577
40
0.2536508108
40
0.3391713468
40
0.4338021226
40
0.5365897032
40
0.6462342469
40
0.7611858463
40
0.8797196619
40
1.0000000000
40
1.0000000000
40
1.0000000000
40
1.0000000000
10
42.0255411897
20
-23.5663944817
30
0.0000000000
10
42.0259910753
20
-23.5704084146
30
0.0000000000
10
42.0283914652
20
-23.5787408095
30
0.0000000000
10
42.0357335434
20
-23.5903554521
30
0.0000000000
10
42.0466152829
20
-23.6013634650
30
0.0000000000
10
42.0608107927
20
-23.6116375573
30
0.0000000000
10
42.0780712421
20
-23.6210399389
30
0.0000000000
10
42.0980920966
20
-23.6294112707
30
0.0000000000
10
42.1205091632
20
-23.6365999146
30
0.0000000000
10
42.1449063556
20
-23.6424702841
30
0.0000000000
10
42.1708259311
20
-23.6469101510
30
0.0000000000
10
42.1977769538
20
-23.6498340182
30
0.0000000000
10
42.2160571085
20
-23.6507332590
30
0.0000000000
10
42.2252670966
20
-23.6509181341
30
0.0000000000
11
42.0255411897
21
-23.5663944817
31
0.0000000000
11
42.0287625842
21
-23.5780756248
31
0.0000000000
11
42.0357466142
21
-23.5895330960
31
0.0000000000
11
42.0463595463
21
-23.6005475087
31
0.0000000000
11
42.0603981605
21
-23.6109079607
31
0.0000000000
11
42.0775936417
21
-23.6204160721
31
0.0000000000
11
42.0976167277
21
-23.6288897848
31
0.0000000000
11
42.1200840147
21
-23.6361668480
31
0.0000000000
11
42.1445652990
21
-23.6421079248
31
0.0000000000
11
42.1705918152
21
-23.6465992604
31
0.0000000000
11
42.1976652123
21
-23.6495548597
31
0.0000000000
11
42.2252670966
21
-23.6509181341
31
0.0000000000
0
SPLINE
5
33E
100
AcDbEntity
8
0
100
AcDbSpline
62
9
6
CONTINUOUS
70
0
71
3
72
19
73
15
74
13
42
0.0000001000
43
0.0000001000
44
0.0000000001
12
-0.0092845411
22
-0.7596843067
32
0.0000000000
13
-0.3653314127
23
-0.6661376790
33
0.0000000000
40
0.0000000000
40
0.0000000000
40
0.0000000000
40
0.0000000000
40
0.1440504203
40
0.2725531668
40
0.3873110289
40
0.4900287338
40
0.5820671488
40
0.6643821665
40
0.7379539214
40
0.8036532726
40
0.8622459937
40
0.9143484076
40
0.9601246728
40
1.0000000000
40
1.0000000000
40
1.0000000000
40
1.0000000000
10
42.0255411897
20
-23.5663944817
30
0.0000000000
10
42.0250953757
20
-23.6028720963
30
0.0000000000
10
42.0232257176
20
-23.6718827151
30
0.0000000000
10
42.0176907818
20
-23.7698244825
30
0.0000000000
10
42.0102632106
20
-23.8571389230
30
0.0000000000
10
42.0014039447
20
-23.9350308880
30
0.0000000000
10
41.9914421445
20
-24.0044980924
30
0.0000000000
10
41.9806221895
20
-24.0663557826
30
0.0000000000
10
41.9691273205
20
-24.1212932646
30
0.0000000000
10
41.9570806316
20
-24.1699448738
30
0.0000000000
10
41.9445650238
20
-24.2128419129
30
0.0000000000
10
41.9316610961
20
-24.2503272594
30
0.0000000000
10
41.9184572184
20
-24.2826390751
30
0.0000000000
10
41.9088860755
20
-24.3021329396
30
0.0000000000
10
41.9040301723
20
-24.3109870922
30
0.0000000000
11
42.0255411897
21
-23.5663944817
31
0.0000000000
11
42.0225533221
21
-23.6757947042
31
0.0000000000
11
42.0170071274
21
-23.7732658504
31
0.0000000000
11
42.0095714631
21
-23.8601344546
31
0.0000000000
11
42.0007011236
21
-23.9376675451
31
0.0000000000
11
41.9907190203
21
-24.0068767479
31
0.0000000000
11
41.9798827442
21
-24.0684688635
31
0.0000000000
11
41.9683688254
21
-24.1231656143
31
0.0000000000
11
41.9562982905
21
-24.1715986489
31
0.0000000000
11
41.9437473659
21
-24.2143079660
31
0.0000000000
11
41.9307682166
21
-24.2517039796
31
0.0000000000
11
41.9175027617
21
-24.2838527658
31
0.0000000000
11
41.9040301723
21
-24.3109870922
31
0.0000000000
0
SPLINE
5
33F
100
AcDbEntity
8
0
100
AcDbSpline
62
9
6
CONTINUOUS
70
0
71
3
72
18
73
14
74
12
42
0.0000001000
43
0.0000001000
44
0.0000000001
12
0.0255914174
22
-0.2283296534
32
0.0000000000
13
0.2297130578
23
-0.0046111092
33
0.0000000000
40
0.0000000000
40
0.0000000000
40
0.0000000000
40
0.0000000000
40
0.0527385054
40
0.1111398069
40
0.1777113490
40
0.2536501075
40
0.3391704723
40
0.4338011308
40
0.5365886770
40
0.6462332929
40
0.7611850863
40
0.8797192224
40
1.0000000000
40
1.0000000000
40
1.0000000000
40
1.0000000000
10
42.0448495190
20
-22.7763047966
30
0.0000000000
10
42.0452994034
20
-22.7803187181
30
0.0000000000
10
42.0476997822
20
-22.7886510896
30
0.0000000000
10
42.0550418273
20
-22.8002657063
30
0.0000000000
10
42.0659235235
20
-22.8112737016
30
0.0000000000
10
42.0801189868
20
-22.8215477854
30
0.0000000000
10
42.0973793938
20
-22.8309501674
30
0.0000000000
10
42.1174002178
20
-22.8393215081
30
0.0000000000
10
42.1398172730
20
-22.8465101676
30
0.0000000000
10
42.1642144790
20
-22.8523805568
30
0.0000000000
10
42.1901340968
20
-22.8568204437
30
0.0000000000
10
42.2170851913
20
-22.8597443272
30
0.0000000000
10
42.2353654042
20
-22.8606435730
30
0.0000000000
10
42.2445754259
20
-22.8608284489
30
0.0000000000
11
42.0448495190
21
-22.7763047966
31
0.0000000000
11
42.0480708998
21
-22.7879859081
31
0.0000000000
11
42.0550548985
21
-22.7994433526
31
0.0000000000
11
42.0656677874
21
-22.8104577461
31
0.0000000000
11
42.0797063536
21
-22.8208181877
31
0.0000000000
11
42.0969017902
21
-22.8303262984
31
0.0000000000
11
42.1169248435
21
-22.8388000193
31
0.0000000000
11
42.1393921172
21
-22.8460770979
31
0.0000000000
11
42.1638734137
21
-22.8520181944
31
0.0000000000
11
42.1898999716
21
-22.8565095503
31
0.0000000000
11
42.2169734409
21
-22.8594651662
31
0.0000000000
11
42.2445754259
21
-22.8608284489
31
0.0000000000
0
SPLINE
5
340
100
AcDbEntity
8
0
100
AcDbSpline
62
9
6
CONTINUOUS
70
0
71
3
72
18
73
14
74
12
42
0.0000001000
43
0.0000001000
44
0.0000000001
12
-0.2867435768
22
-0.2868014146
32
0.0000000000
13
-0.0099093759
23
-0.4054364741
33
0.0000000000
40
0.0000000000
40
0.0000000000
40
0.0000000000
40
0.0000000000
40
0.0193687694
40
0.0542140923
40
0.1048554724
40
0.1709856322
40
0.2520396960
40
0.3472675669
40
0.4557695346
40
0.5765053128
40
0.7083167782
40
0.8499352834
40
1.0000000000
40
1.0000000000
40
1.0000000000
40
1.0000000000
10
42.0761797370
20
-22.3730950245
30
0.0000000000
10
42.0743284470
20
-22.3749466880
30
0.0000000000
10
42.0717367846
20
-22.3821682530
30
0.0000000000
10
42.0683977473
20
-22.3957375908
30
0.0000000000
10
42.0651603230
20
-22.4160942347
30
0.0000000000
10
42.0619205549
20
-22.4426006157
30
0.0000000000
10
42.0588253348
20
-22.4752435386
30
0.0000000000
10
42.0558860318
20
-22.5136259331
30
0.0000000000
10
42.0531499745
20
-22.5574066119
30
0.0000000000
10
42.0506439049
20
-22.6061512087
30
0.0000000000
10
42.0483957674
20
-22.6593902069
30
0.0000000000
10
42.0464283431
20
-22.7166073192
30
0.0000000000
10
42.0453452016
20
-22.7560242267
30
0.0000000000
10
42.0448495190
20
-22.7763047966
30
0.0000000000
11
42.0761797370
21
-22.3730950245
31
0.0000000000
11
42.0725870689
21
-22.3800804471
31
0.0000000000
11
42.0690497745
21
-22.3937623646
31
0.0000000000
11
42.0656003283
21
-22.4140086119
31
0.0000000000
11
42.0622721783
21
-22.4406208949
31
0.0000000000
11
42.0590975174
21
-22.4733393254
31
0.0000000000
11
42.0561071036
21
-22.5118437584
31
0.0000000000
11
42.0533297296
21
-22.5557598144
31
0.0000000000
11
42.0507922134
21
-22.6046593266
31
0.0000000000
11
42.0485189197
21
-22.6580681038
31
0.0000000000
11
42.0465316834
21
-22.7154681690
31
0.0000000000
11
42.0448495190
21
-22.7763047966
31
0.0000000000
0
SPLINE
5
341
100
AcDbEntity
8
0
100
AcDbSpline
62
9
6
CONTINUOUS
70
0
71
3
72
18
73
14
74
12
42
0.0000001000
43
0.0000001000
44
0.0000000001
12
-0.2369681102
22
-0.1692766715
32
0.0000000000
13
-0.0099581856
23
-0.2910486408
33
0.0000000000
40
0.0000000000
40
0.0000000000
40
0.0000000000
40
0.0000000000
40
0.0211064631
40
0.0567972389
40
0.1078518281
40
0.1741208195
40
0.2551106672
40
0.3501111150
40
0.4582486198
40
0.5785024552
40
0.7097306422
40
0.8506799672
40
1.0000000000
40
1.0000000000
40
1.0000000000
40
1.0000000000
10
42.2759040092
20
-22.5728228124
30
0.0000000000
10
42.2742368230
20
-22.5740137564
30
0.0000000000
10
42.2714502285
20
-22.5791104632
30
0.0000000000
10
42.2681818487
20
-22.5889194575
30
0.0000000000
10
42.2648790836
20
-22.6034869223
30
0.0000000000
10
42.2616560093
20
-22.6224430256
30
0.0000000000
10
42.2585511419
20
-22.6457679291
30
0.0000000000
10
42.2556135111
20
-22.6731908455
30
0.0000000000
10
42.2528761153
20
-22.7044665680
30
0.0000000000
10
42.2503700797
20
-22.7392866111
30
0.0000000000
10
42.2481217530
20
-22.7773156836
30
0.0000000000
10
42.2461543509
20
-22.8181850346
30
0.0000000000
10
42.2450710781
20
-22.8463419847
30
0.0000000000
10
42.2445754259
20
-22.8608284489
30
0.0000000000
11
42.2759040092
21
-22.5728228124
31
0.0000000000
11
42.2723128908
21
-22.5778112576
31
0.0000000000
11
42.2687754851
21
-22.5875846126
31
0.0000000000
11
42.2653259478
21
-22.6020469781
31
0.0000000000
11
42.2619977317
21
-22.6210566104
31
0.0000000000
11
42.2588230333
21
-22.6444277515
31
0.0000000000
11
42.2558326166
21
-22.6719315898
31
0.0000000000
11
42.2530552749
21
-22.7033005705
31
0.0000000000
11
42.2505178218
21
-22.7382287173
31
0.0000000000
11
42.2482446141
21
-22.7763771837
31
0.0000000000
11
42.2462574633
21
-22.8173761694
31
0.0000000000
11
42.2445754259
21
-22.8608284489
31
0.0000000000
0
SPLINE
5
342
100
AcDbEntity
8
0
100
AcDbSpline
62
9
6
CONTINUOUS
70
0
71
3
72
19
73
15
74
13
42
0.0000001000
43
0.0000001000
44
0.0000000001
12
0.0008579669
22
-0.3132328584
32
0.0000000000
13
0.3132328585
23
-0.0008579585
33
0.0000000000
40
0.0000000000
40
0.0000000000
40
0.0000000000
40
0.0000000000
40
0.0832756364
40
0.1665799458
40
0.2499099417
40
0.3332608968
40
0.4166266641
40
0.5000000940
40
0.5833735183
40
0.6667392690
40
0.7500901968
40
0.8334201555
40
0.9167244183
40
1.0000000000
40
1.0000000000
40
1.0000000000
40
1.0000000000
10
42.0761778522
20
-22.3730969094
30
0.0000000000
10
42.0762016681
20
-22.3817917979
30
0.0000000000
10
42.0773883502
20
-22.3992027935
30
0.0000000000
10
42.0825527289
20
-22.4248521177
30
0.0000000000
10
42.0910136734
20
-22.4496233495
30
0.0000000000
10
42.1026268355
20
-22.4730883947
30
0.0000000000
10
42.1171941802
20
-22.4948488404
30
0.0000000000
10
42.1344673542
20
-22.5145333568
30
0.0000000000
10
42.1541518750
20
-22.5318065230
30
0.0000000000
10
42.1759123210
20
-22.5463738580
30
0.0000000000
10
42.1993773618
20
-22.5579870097
30
0.0000000000
10
42.2241485844
20
-22.5664479448
30
0.0000000000
10
42.2497978952
20
-22.5716123166
30
0.0000000000
10
42.2672088802
20
-22.5727989968
30
0.0000000000
10
42.2759037630
20
-22.5728228124
30
0.0000000000
11
42.0761778522
21
-22.3730969094
31
0.0000000000
11
42.0779518733
21
-22.3991212775
31
0.0000000000
11
42.0831011228
21
-22.4247019097
31
0.0000000000
11
42.0915378018
21
-22.4494026370
31
0.0000000000
11
42.1031180581
21
-22.4728022932
31
0.0000000000
11
42.1176444390
21
-22.4945018967
31
0.0000000000
11
42.1348692583
21
-22.5141314534
31
0.0000000000
11
42.1544988194
21
-22.5313562650
31
0.0000000000
11
42.1761984232
21
-22.5458826361
31
0.0000000000
11
42.1995980750
21
-22.5574628821
31
0.0000000000
11
42.2242987931
21
-22.5658995517
31
0.0000000000
11
42.2498794119
21
-22.5710487944
31
0.0000000000
11
42.2759037630
21
-22.5728228124
31
0.0000000000
0
SPLINE
5
343
100
AcDbEntity
8
0
100
AcDbSpline
62
9
6
CONTINUOUS
70
0
71
3
72
18
73
14
74
12
42
0.0000001000
43
0.0000001000
44
0.0000000001
12
-0.2369692953
22
0.1692749712
32
0.0000000000
13
-0.0099580897
23
0.2910486201
33
0.0000000000
40
0.0000000000
40
0.0000000000
40
0.0000000000
40
0.0000000000
40
0.0211063856
40
0.0567971731
40
0.1078517528
40
0.1741207605
40
0.2551106269
40
0.3501110525
40
0.4582486331
40
0.5785024155
40
0.7097306728
40
0.8506800049
40
1.0000000000
40
1.0000000000
40
1.0000000000
40
1.0000000000
10
42.2759039717
20
22.5560245302
30
0.0000000000
10
42.2742367832
20
22.5572154578
30
0.0000000000
10
42.2714502531
20
22.5623122123
30
0.0000000000
10
42.2681818405
20
22.5721211651
30
0.0000000000
10
42.2648790950
20
22.5866886466
30
0.0000000000
10
42.2616560162
20
22.6056447450
30
0.0000000000
10
42.2585511548
20
22.6289696505
30
0.0000000000
10
42.2556135190
20
22.6563925705
30
0.0000000000
10
42.2528761202
20
22.6876682904
30
0.0000000000
10
42.2503700815
20
22.7224883394
30
0.0000000000
10
42.2481217524
20
22.7605174110
30
0.0000000000
10
42.2461543506
20
22.8013867625
30
0.0000000000
10
42.2450710732
20
22.8295437072
30
0.0000000000
10
42.2445754259
20
22.8440301667
30
0.0000000000
11
42.2759039717
21
22.5560245302
31
0.0000000000
11
42.2723128922
21
22.5610129750
31
0.0000000000
11
42.2687754881
21
22.5707863333
31
0.0000000000
11
42.2653259543
21
22.5852486955
31
0.0000000000
11
42.2619977403
21
22.6042583314
31
0.0000000000
11
42.2588230438
21
22.6276294762
31
0.0000000000
11
42.2558326258
21
22.6551333057
31
0.0000000000
11
42.2530552790
21
22.6865023055
31
0.0000000000
11
42.2505178245
21
22.7214304338
31
0.0000000000
11
42.2482446137
21
22.7595789173
31
0.0000000000
11
42.2462574616
21
22.8005779017
31
0.0000000000
11
42.2445754259
21
22.8440301667
31
0.0000000000
0
SPLINE
5
344
100
AcDbEntity
8
0
100
AcDbSpline
62
9
6
CONTINUOUS
70
0
71
3
72
18
73
14
74
12
42
0.0000001000
43
0.0000001000
44
0.0000000001
12
-0.2867445916
22
0.2868004424
32
0.0000000000
13
-0.0099094521
23
0.4054365022
33
0.0000000000
40
0.0000000000
40
0.0000000000
40
0.0000000000
40
0.0000000000
40
0.0193688581
40
0.0542140985
40
0.1048553241
40
0.1709853176
40
0.2520392019
40
0.3472668673
40
0.4557687838
40
0.5765044727
40
0.7083160978
40
0.8499347868
40
1.0000000000
40
1.0000000000
40
1.0000000000
40
1.0000000000
10
42.0761797610
20
22.3562967183
30
0.0000000000
10
42.0743284559
20
22.3581483840
30
0.0000000000
10
42.0717368021
20
22.3653699613
30
0.0000000000
10
42.0683977558
20
22.3789392722
30
0.0000000000
10
42.0651603394
20
22.3992958662
30
0.0000000000
10
42.0619205725
20
22.4258021802
30
0.0000000000
10
42.0588253546
20
22.4584450312
30
0.0000000000
10
42.0558860505
20
22.4968273692
30
0.0000000000
10
42.0531499917
20
22.5406080044
30
0.0000000000
10
42.0506439180
20
22.5893526071
30
0.0000000000
10
42.0483957769
20
22.6425916435
30
0.0000000000
10
42.0464283440
20
22.6998088735
30
0.0000000000
10
42.0453452070
20
22.7392258760
30
0.0000000000
10
42.0448495190
20
22.7595065144
30
0.0000000000
11
42.0761797610
21
22.3562967183
31
0.0000000000
11
42.0725870747
21
22.3632821728
31
0.0000000000
11
42.0690497843
21
22.3769640578
31
0.0000000000
11
42.0656003435
21
22.3972102440
31
0.0000000000
11
42.0622721964
21
22.4238224614
31
0.0000000000
11
42.0590975369
21
22.4565408213
31
0.0000000000
11
42.0561071242
21
22.4950451737
31
0.0000000000
11
42.0533297467
21
22.5389612119
31
0.0000000000
11
42.0507922286
21
22.5878606914
31
0.0000000000
11
42.0485189291
21
22.6412695371
31
0.0000000000
11
42.0465316884
21
22.6986696809
31
0.0000000000
11
42.0448495190
21
22.7595065144
31
0.0000000000
0
SPLINE
5
345
100
AcDbEntity
8
0
100
AcDbSpline
62
9
6
CONTINUOUS
70
0
71
3
72
19
73
15
74
13
42
0.0000001000
43
0.0000001000
44
0.0000000001
12
-0.3132328585
22
-0.0008579587
32
0.0000000000
13
-0.0008579663
23
-0.3132328585
33
0.0000000000
40
0.0000000000
40
0.0000000000
40
0.0000000000
40
0.0000000000
40
0.0832755735
40
0.1665798298
40
0.2499097834
40
0.3332607078
40
0.4166264567
40
0.4999998808
40
0.5833733119
40
0.6667390819
40
0.7500900409
40
0.8334200418
40
0.9167243570
40
1.0000000000
40
1.0000000000
40
1.0000000000
40
1.0000000000
10
42.2759037630
20
22.5560245302
30
0.0000000000
10
42.2672088810
20
22.5560007145
30
0.0000000000
10
42.2497978976
20
22.5548140346
30
0.0000000000
10
42.2241485887
20
22.5496496636
30
0.0000000000
10
42.1993773674
20
22.5411887297
30
0.0000000000
10
42.1759123272
20
22.5295755791
30
0.0000000000
10
42.1541518812
20
22.5150082453
30
0.0000000000
10
42.1344673597
20
22.4977350799
30
0.0000000000
10
42.1171941848
20
22.4780505638
30
0.0000000000
10
42.1026268390
20
22.4562901179
30
0.0000000000
10
42.0910136756
20
22.4328250719
30
0.0000000000
10
42.0825527301
20
22.4080538389
30
0.0000000000
10
42.0773883508
20
22.3824045129
30
0.0000000000
10
42.0762016685
20
22.3649935160
30
0.0000000000
10
42.0761778526
20
22.3562986268
30
0.0000000000
11
42.2759037630
21
22.5560245302
31
0.0000000000
11
42.2498794144
21
22.5542505125
31
0.0000000000
11
42.2242987975
21
22.5491012707
31
0.0000000000
11
42.1995980807
21
22.5406646022
31
0.0000000000
11
42.1761984295
21
22.5290843574
31
0.0000000000
11
42.1544988256
21
22.5145579874
31
0.0000000000
11
42.1348692639
21
22.4973331766
31
0.0000000000
11
42.1176444437
21
22.4777036202
31
0.0000000000
11
42.1031180616
21
22.4560040165
31
0.0000000000
11
42.0915378041
21
22.4326043595
31
0.0000000000
11
42.0831011241
21
22.4079036309
31
0.0000000000
11
42.0779518739
21
22.3823229969
31
0.0000000000
11
42.0761778526
21
22.3562986268
31
0.0000000000
0
SPLINE
5
346
100
AcDbEntity
8
0
100
AcDbSpline
62
9
6
CONTINUOUS
70
0
71
3
72
18
73
14
74
12
42
0.0000001000
43
0.0000001000
44
0.0000000001
12
-0.2297130578
22
-0.0046111092
32
0.0000000000
13
-0.0255914174
23
-0.2283296534
33
0.0000000000
40
0.0000000000
40
0.0000000000
40
0.0000000000
40
0.0000000000
40
0.1202807776
40
0.2388149137
40
0.3537667071
40
0.4634113230
40
0.5661988692
40
0.6608295277
40
0.7463498925
40
0.8222886510
40
0.8888601931
40
0.9472614946
40
1.0000000000
40
1.0000000000
40
1.0000000000
40
1.0000000000
10
42.2445754259
20
22.8440301667
30
0.0000000000
10
42.2353654042
20
22.8438452908
30
0.0000000000
10
42.2170851913
20
22.8429460450
30
0.0000000000
10
42.1901340968
20
22.8400221615
30
0.0000000000
10
42.1642144790
20
22.8355822745
30
0.0000000000
10
42.1398172730
20
22.8297118854
30
0.0000000000
10
42.1174002178
20
22.8225232259
30
0.0000000000
10
42.0973793938
20
22.8141518852
30
0.0000000000
10
42.0801189868
20
22.8047495032
30
0.0000000000
10
42.0659235235
20
22.7944754194
30
0.0000000000
10
42.0550418273
20
22.7834674241
30
0.0000000000
10
42.0476997822
20
22.7718528074
30
0.0000000000
10
42.0452994034
20
22.7635204359
30
0.0000000000
10
42.0448495190
20
22.7595065144
30
0.0000000000
11
42.2445754259
21
22.8440301667
31
0.0000000000
11
42.2169734409
21
22.8426668840
31
0.0000000000
11
42.1898999716
21
22.8397112681
31
0.0000000000
11
42.1638734137
21
22.8352199122
31
0.0000000000
11
42.1393921172
21
22.8292788157
31
0.0000000000
11
42.1169248435
21
22.8220017371
31
0.0000000000
11
42.0969017902
21
22.8135280162
31
0.0000000000
11
42.0797063536
21
22.8040199055
31
0.0000000000
11
42.0656677874
21
22.7936594639
31
0.0000000000
11
42.0550548985
21
22.7826450704
31
0.0000000000
11
42.0480708998
21
22.7711876259
31
0.0000000000
11
42.0448495190
21
22.7595065144
31
0.0000000000
0
SPLINE
5
347
100
AcDbEntity
8
0
100
AcDbSpline
62
9
6
CONTINUOUS
70
0
71
3
72
19
73
15
74
13
42
0.0000001000
43
0.0000001000
44
0.0000000001
12
-0.0092838586
22
0.7596842354
32
0.0000000000
13
-0.3654705830
23
0.6660612438
33
0.0000000000
40
0.0000000000
40
0.0000000000
40
0.0000000000
40
0.0000000000
40
0.1443728549
40
0.2731118121
40
0.3880022703
40
0.4907549699
40
0.5827865232
40
0.6650498218
40
0.7385209188
40
0.8040876391
40
0.8625205879
40
0.9145115907
40
0.9602430373
40
1.0000000000
40
1.0000000000
40
1.0000000000
40
1.0000000000
10
42.0255411897
20
23.5495961995
30
0.0000000000
10
42.0250944106
20
23.5861554602
30
0.0000000000
10
42.0232186011
20
23.6553075173
30
0.0000000000
10
42.0176642837
20
23.7534235885
30
0.0000000000
10
42.0102147290
20
23.8408388363
30
0.0000000000
10
42.0013355521
20
23.9187695266
30
0.0000000000
10
41.9913583880
20
23.9882285086
30
0.0000000000
10
41.9805288560
20
24.0500435922
30
0.0000000000
10
41.9690327399
20
24.1049070546
30
0.0000000000
10
41.9569955544
20
24.1534584490
30
0.0000000000
10
41.9444965815
20
24.1962537038
30
0.0000000000
10
41.9316106148
20
24.2336606040
30
0.0000000000
10
41.9184251728
20
24.2659046014
30
0.0000000000
10
41.9088735058
20
24.2853619527
30
0.0000000000
10
41.9040301723
20
24.2941888100
30
0.0000000000
11
42.0255411897
21
23.5495961995
31
0.0000000000
11
42.0225428871
21
23.6592411835
31
0.0000000000
11
42.0169768080
21
23.7568909368
31
0.0000000000
11
42.0095190850
21
23.8438587497
31
0.0000000000
11
42.0006302976
21
23.9214164802
31
0.0000000000
11
41.9906326118
21
23.9906181591
31
0.0000000000
11
41.9797865388
21
24.0521686456
31
0.0000000000
11
41.9682723611
21
24.1067871835
31
0.0000000000
11
41.9562117946
21
24.1551188474
31
0.0000000000
11
41.9436834954
21
24.1977082885
31
0.0000000000
11
41.9307237455
21
24.2350214328
31
0.0000000000
11
41.9174651023
21
24.2671361898
31
0.0000000000
11
41.9040301723
21
24.2941888100
31
0.0000000000
0
SPLINE
5
348
100
AcDbEntity
8
0
100
AcDbSpline
62
9
6
CONTINUOUS
70
0
71
3
72
18
73
14
74
12
42
0.0000001000
43
0.0000001000
44
0.0000000001
12
-0.2297130581
22
-0.0046111061
32
0.0000000000
13
-0.0255914164
23
-0.2283296537
33
0.0000000000
40
0.0000000000
40
0.0000000000
40
0.0000000000
40
0.0000000000
40
0.1202803202
40
0.2388141226
40
0.3537657142
40
0.4634102550
40
0.5661978370
40
0.6608286176
40
0.7463491606
40
0.8222881218
40
0.8888598625
40
0.9472613406
40
1.0000000000
40
1.0000000000
40
1.0000000000
40
1.0000000000
10
42.2252670966
20
23.6341198519
30
0.0000000000
10
42.2160571099
20
23.6339349768
30
0.0000000000
10
42.1977769576
20
23.6330357362
30
0.0000000000
10
42.1708259378
20
23.6301118697
30
0.0000000000
10
42.1449063640
20
23.6256720035
30
0.0000000000
10
42.1205091722
20
23.6198016347
30
0.0000000000
10
42.0980921051
20
23.6126129915
30
0.0000000000
10
42.0780712494
20
23.6042416601
30
0.0000000000
10
42.0608107983
20
23.5948392786
30
0.0000000000
10
42.0466152866
20
23.5845651859
30
0.0000000000
10
42.0357335453
20
23.5735571723
30
0.0000000000
10
42.0283914657
20
23.5619425287
30
0.0000000000
10
42.0259910753
20
23.5536101328
30
0.0000000000
10
42.0255411897
20
23.5495961995
30
0.0000000000
11
42.2252670966
21
23.6341198519
31
0.0000000000
11
42.1976652164
21
23.6327565778
31
0.0000000000
11
42.1705918223
21
23.6298009791
31
0.0000000000
11
42.1445653078
21
23.6253096443
31
0.0000000000
11
42.1200840240
21
23.6193685683
31
0.0000000000
11
42.0976167365
21
23.6120915058
31
0.0000000000
11
42.0775936491
21
23.6036177934
31
0.0000000000
11
42.0603981661
21
23.5941096819
31
0.0000000000
11
42.0463595499
21
23.5837492296
31
0.0000000000
11
42.0357466160
21
23.5727348161
31
0.0000000000
11
42.0287625848
21
23.5612773438
31
0.0000000000
11
42.0255411897
21
23.5495961995
31
0.0000000000
0
SPLINE
5
349
100
AcDbEntity
8
0
100
AcDbSpline
62
9
6
CONTINUOUS
70
0
71
3
72
19
73
15
74
13
42
0.0000001000
43
0.0000001000
44
0.0000000001
12
-0.0195741405
22
0.8008661948
32
0.0000000000
13
-0.5922753456
23
0.5394253645
33
0.0000000000
40
0.0000000000
40
0.0000000000
40
0.0000000000
40
0.0000000000
40
0.1370587504
40
0.2597423700
40
0.3698876691
40
0.4692127377
40
0.5591298704
40
0.6405947676
40
0.7145873713
40
0.7820165764
40
0.8437002099
40
0.9004140645
40
0.9524034323
40
1.0000000000
40
1.0000000000
40
1.0000000000
40
1.0000000000
10
42.2252670966
20
23.6341198519
30
0.0000000000
10
42.2243728276
20
23.6707084252
30
0.0000000000
10
42.2206090918
20
23.7400176235
30
0.0000000000
10
42.2094774581
20
23.8382120678
30
0.0000000000
10
42.1945506378
20
23.9256905766
30
0.0000000000
10
42.1767593415
20
24.0036744032
30
0.0000000000
10
42.1567659443
20
24.0731827321
30
0.0000000000
10
42.1350599916
20
24.1350462135
30
0.0000000000
10
42.1120097907
20
24.1899608910
30
0.0000000000
10
42.0878618988
20
24.2385687083
30
0.0000000000
10
42.0627685548
20
24.2814271184
30
0.0000000000
10
42.0368750493
20
24.3188983789
30
0.0000000000
10
42.0103577159
20
24.3511926382
30
0.0000000000
10
41.9916418295
20
24.3701541873
30
0.0000000000
10
41.9822450716
20
24.3787124526
30
0.0000000000
11
42.2252670966
21
23.6341198519
31
0.0000000000
11
42.2192722524
21
23.7437545752
31
0.0000000000
11
42.2081404753
21
23.8414046369
31
0.0000000000
11
42.1932253795
21
23.9283729233
31
0.0000000000
11
42.1754479834
21
24.0059314464
31
0.0000000000
11
42.1554527261
21
24.0751337356
31
0.0000000000
11
42.1337605038
21
24.1366851104
31
0.0000000000
11
42.1107318714
21
24.1913048055
31
0.0000000000
11
42.0866103177
21
24.2396378579
31
0.0000000000
11
42.0615533000
21
24.2822289012
31
0.0000000000
11
42.0356336984
21
24.3195438046
31
0.0000000000
11
42.0091162991
21
24.3516602104
31
0.0000000000
11
41.9822450716
21
24.3787124526
31
0.0000000000
0
SPLINE
5
34A
100
AcDbEntity
8
0
100
AcDbSpline
62
9
6
CONTINUOUS
70
0
71
3
72
10
73
6
74
4
42
0.0000001000
43
0.0000001000
44
0.0000000001
12
-0.0859929234
22
0.1566772739
32
0.0000000000
13
-0.0848450138
23
0.1573018584
33
0.0000000000
40
0.0000000000
40
0.0000000000
40
0.0000000000
40
0.0000000000
40
0.3098655448
40
0.6467813410
40
1.0000000000
40
1.0000000000
40
1.0000000000
40
1.0000000000
10
41.9040301723
20
24.2941888100
30
0.0000000000
10
41.8951480910
20
24.3103717729
30
0.0000000000
10
41.8766581856
20
24.3441776745
30
0.0000000000
10
41.8481894504
20
24.3965103214
30
0.0000000000
10
41.8286070064
20
24.4326621155
30
0.0000000000
10
41.8186173924
20
24.4511827660
30
0.0000000000
11
41.9040301723
21
24.2941888100
31
0.0000000000
11
41.8774491276
21
24.3427734268
31
0.0000000000
11
41.8486690186
21
24.3956655461
31
0.0000000000
11
41.8186173924
21
24.4511827660
31
0.0000000000
0
SPLINE
5
34B
100
AcDbEntity
8
0
100
AcDbSpline
62
9
6
CONTINUOUS
70
0
71
3
72
11
73
7
74
5
42
0.0000001000
43
0.0000001000
44
0.0000000001
12
-0.0856419169
22
-0.0771990105
32
0.0000000000
13
-0.0704513311
23
-0.0912734085
33
0.0000000000
40
0.0000000000
40
0.0000000000
40
0.0000000000
40
0.0000000000
40
0.2462796306
40
0.4982925834
40
0.7511650884
40
1.0000000000
40
1.0000000000
40
1.0000000000
40
1.0000000000
10
41.9822450619
20
24.3787124621
30
0.0000000000
10
41.9752144420
20
24.3723749475
30
0.0000000000
10
41.9612994389
20
24.3592049797
30
0.0000000000
10
41.9412305410
20
24.3384391205
30
0.0000000000
10
41.9220172581
20
24.3167478648
30
0.0000000000
10
41.9098739988
20
24.3017594802
30
0.0000000000
10
41.9040304152
20
24.2941888100
30
0.0000000000
11
41.9822450619
21
24.3787124621
31
0.0000000000
11
41.9616066268
21
24.3592086584
31
0.0000000000
11
41.9414076971
21
24.3383202284
31
0.0000000000
11
41.9220784181
21
24.3164919989
31
0.0000000000
11
41.9040304152
21
24.2941888100
31
0.0000000000
0
SPLINE
5
34C
100
AcDbEntity
8
0
100
AcDbSpline
62
9
6
CONTINUOUS
70
0
71
3
72
10
73
6
74
4
42
0.0000001000
43
0.0000001000
44
0.0000000001
12
-0.1637440100
22
0.0722072350
32
0.0000000000
13
-0.1635470837
23
0.0726521646
33
0.0000000000
40
0.0000000000
40
0.0000000000
40
0.0000000000
40
0.0000000000
40
0.3103393461
40
0.6472443165
40
1.0000000000
40
1.0000000000
40
1.0000000000
40
1.0000000000
10
41.9822450619
20
24.3787124621
30
0.0000000000
10
41.9653063256
20
24.3861820441
30
0.0000000000
10
41.9299878737
20
24.4017810437
30
0.0000000000
10
41.8754419488
20
24.4259303066
30
0.0000000000
10
41.8378481162
20
24.4426399747
30
0.0000000000
10
41.8186173951
20
24.4511827960
30
0.0000000000
11
41.9822450619
21
24.3787124621
31
0.0000000000
11
41.9314406896
21
24.4011480310
31
0.0000000000
11
41.8763123505
21
24.4255606181
31
0.0000000000
11
41.8186173951
21
24.4511827960
31
0.0000000000
0
SPLINE
5
34D
100
AcDbEntity
8
0
100
AcDbSpline
62
9
6
CONTINUOUS
70
0
71
3
72
18
73
14
74
12
42
0.0000001000
43
0.0000001000
44
0.0000000001
12
-0.0099087562
22
-0.4054080319
32
0.0000000000
13
-0.2851632018
23
-0.2883328010
33
0.0000000000
40
0.0000000000
40
0.0000000000
40
0.0000000000
40
0.0000000000
40
0.1499989399
40
0.2915602639
40
0.4233255224
40
0.5440276066
40
0.6525102323
40
0.7477342036
40
0.8288009345
40
0.8949609067
40
0.9456492684
40
0.9805577331
40
1.0000000000
40
1.0000000000
40
1.0000000000
40
1.0000000000
10
109.9363535357
20
22.7595065144
30
0.0000000000
10
109.9358581014
20
22.7392362560
30
0.0000000000
10
109.9347755601
20
22.6998387272
30
0.0000000000
10
109.9328093712
20
22.6426484710
30
0.0000000000
10
109.9305627418
20
22.5894317021
30
0.0000000000
10
109.9280584070
20
22.5407038665
30
0.0000000000
10
109.9253242567
20
22.4969339054
30
0.0000000000
10
109.9223869889
20
22.4585553800
30
0.0000000000
10
109.9192937940
20
22.4259096936
30
0.0000000000
10
109.9160560740
20
22.3993918456
30
0.0000000000
10
109.9128201442
20
22.3790195722
30
0.0000000000
10
109.9094822761
20
22.3654210056
30
0.0000000000
10
109.9068921665
20
22.3581861325
30
0.0000000000
10
109.9050440935
20
22.3563175180
30
0.0000000000
11
109.9363535357
21
22.7595065144
31
0.0000000000
11
109.9346723326
21
22.6987008155
31
0.0000000000
11
109.9326863709
21
22.6413279401
31
0.0000000000
11
109.9304146303
21
22.5879416053
31
0.0000000000
11
109.9278789134
21
22.5390591214
31
0.0000000000
11
109.9251035365
21
22.4951538916
31
0.0000000000
11
109.9221152759
21
22.4566535947
31
0.0000000000
11
109.9189428693
21
22.4239321013
31
0.0000000000
11
109.9156170205
21
22.3973092428
31
0.0000000000
11
109.9121698680
21
22.3770447399
31
0.0000000000
11
109.9086347974
21
22.3633368264
31
0.0000000000
11
109.9050440935
21
22.3563175180
31
0.0000000000
0
SPLINE
5
34E
100
AcDbEntity
8
0
100
AcDbSpline
62
9
6
CONTINUOUS
70
0
71
3
72
18
73
14
74
12
42
0.0000001000
43
0.0000001000
44
0.0000000001
12
0.2297130577
22
-0.0046111092
32
0.0000000000
13
0.0255914173
23
-0.2283296533
33
0.0000000000
40
0.0000000000
40
0.0000000000
40
0.0000000000
40
0.0000000000
40
0.1202807080
40
0.2388147834
40
0.3537665309
40
0.4634111189
40
0.5661986571
40
0.6608293267
40
0.7463497189
40
0.8222885162
40
0.8888601025
40
0.9472614492
40
1.0000000000
40
1.0000000000
40
1.0000000000
40
1.0000000000
10
109.7366276288
20
22.8440301667
30
0.0000000000
10
109.7458376452
20
22.8438452909
30
0.0000000000
10
109.7641178481
20
22.8429460459
30
0.0000000000
10
109.7910689293
20
22.8400221652
30
0.0000000000
10
109.8169885372
20
22.8355822822
30
0.0000000000
10
109.8413857378
20
22.8297118974
30
0.0000000000
10
109.8638027924
20
22.8225232421
30
0.0000000000
10
109.8838236202
20
22.8141519046
30
0.0000000000
10
109.9010840347
20
22.8047495241
30
0.0000000000
10
109.9152795078
20
22.7944754396
30
0.0000000000
10
109.9261612146
20
22.7834674408
30
0.0000000000
10
109.9335032688
20
22.7718528175
30
0.0000000000
10
109.9359036510
20
22.7635204394
30
0.0000000000
10
109.9363535357
20
22.7595065144
30
0.0000000000
11
109.7366276288
21
22.8440301667
31
0.0000000000
11
109.7642295978
21
22.8426668853
31
0.0000000000
11
109.7913030535
21
22.8397112722
31
0.0000000000
11
109.8173296013
21
22.8352199204
31
0.0000000000
11
109.8418108923
21
22.8292788284
31
0.0000000000
11
109.8642781654
21
22.8220017541
31
0.0000000000
11
109.8843012228
21
22.8135280364
31
0.0000000000
11
109.9014966674
21
22.8040199270
31
0.0000000000
11
109.9155352438
21
22.7936594843
31
0.0000000000
11
109.9261481433
21
22.7826450869
31
0.0000000000
11
109.9331321507
21
22.7711876355
31
0.0000000000
11
109.9363535357
21
22.7595065144
31
0.0000000000
0
SPLINE
5
34F
100
AcDbEntity
8
0
100
AcDbSpline
62
9
6
CONTINUOUS
70
0
71
3
72
18
73
14
74
12
42
0.0000001000
43
0.0000001000
44
0.0000000001
12
-0.0099580897
22
-0.2910486201
32
0.0000000000
13
-0.2369692953
23
-0.1692749713
33
0.0000000000
40
0.0000000000
40
0.0000000000
40
0.0000000000
40
0.0000000000
40
0.1493199951
40
0.2902693272
40
0.4214975845
40
0.5417513669
40
0.6498889475
40
0.7448893731
40
0.8258792395
40
0.8921482472
40
0.9432028269
40
0.9788936144
40
1.0000000000
40
1.0000000000
40
1.0000000000
40
1.0000000000
10
109.7366276288
20
22.8440301667
30
0.0000000000
10
109.7361319815
20
22.8295437072
30
0.0000000000
10
109.7350487041
20
22.8013867625
30
0.0000000000
10
109.7330813023
20
22.7605174110
30
0.0000000000
10
109.7308329733
20
22.7224883394
30
0.0000000000
10
109.7283269345
20
22.6876682904
30
0.0000000000
10
109.7255895357
20
22.6563925705
30
0.0000000000
10
109.7226518999
20
22.6289696505
30
0.0000000000
10
109.7195470386
20
22.6056447450
30
0.0000000000
10
109.7163239597
20
22.5866886466
30
0.0000000000
10
109.7130212142
20
22.5721211651
30
0.0000000000
10
109.7097528016
20
22.5623122123
30
0.0000000000
10
109.7069662715
20
22.5572154578
30
0.0000000000
10
109.7052990831
20
22.5560245302
30
0.0000000000
11
109.7366276288
21
22.8440301667
31
0.0000000000
11
109.7349455931
21
22.8005779017
31
0.0000000000
11
109.7329584411
21
22.7595789173
31
0.0000000000
11
109.7306852302
21
22.7214304338
31
0.0000000000
11
109.7281477757
21
22.6865023055
31
0.0000000000
11
109.7253704289
21
22.6551333057
31
0.0000000000
11
109.7223800109
21
22.6276294762
31
0.0000000000
11
109.7192053144
21
22.6042583314
31
0.0000000000
11
109.7158771004
21
22.5852486955
31
0.0000000000
11
109.7124275666
21
22.5707863333
31
0.0000000000
11
109.7088901625
21
22.5610129750
31
0.0000000000
11
109.7052990831
21
22.5560245302
31
0.0000000000
0
SPLINE
5
350
100
AcDbEntity
8
0
100
AcDbSpline
62
9
6
CONTINUOUS
70
0
71
3
72
19
73
15
74
13
42
0.0000001000
43
0.0000001000
44
0.0000000001
12
0.3132300387
22
-0.0008433231
32
0.0000000000
13
0.0008886845
23
-0.3132299132
33
0.0000000000
40
0.0000000000
40
0.0000000000
40
0.0000000000
40
0.0000000000
40
0.0832800398
40
0.1665882761
40
0.2499216674
40
0.3332754068
40
0.4166432439
40
0.5000179051
40
0.5833915840
40
0.6667564682
40
0.7501052680
40
0.8334317112
40
0.9167309716
40
1.0000000000
40
1.0000000000
40
1.0000000000
40
1.0000000000
10
109.7052992917
20
22.5560245302
30
0.0000000000
10
109.7139945618
20
22.5560011195
30
0.0000000000
10
109.7314063228
20
22.5548152734
30
0.0000000000
10
109.7570569068
20
22.5496521804
30
0.0000000000
10
109.7818294562
20
22.5411925862
30
0.0000000000
10
109.8052958969
20
22.5295808545
30
0.0000000000
10
109.8270578342
20
22.5150150377
30
0.0000000000
10
109.8467439556
20
22.4977435031
30
0.0000000000
10
109.8640188555
20
22.4780607449
30
0.0000000000
10
109.8785880658
20
22.4563021941
30
0.0000000000
10
109.8902032444
20
22.4328391878
30
0.0000000000
10
109.8986663646
20
22.4080701431
30
0.0000000000
10
109.9038330823
20
22.3824231562
30
0.0000000000
10
109.9050214465
20
22.3650136545
30
0.0000000000
10
109.9050461131
20
22.3563195377
30
0.0000000000
11
109.7052992917
21
22.5560245302
31
0.0000000000
11
109.7313248879
21
22.5542517462
31
0.0000000000
11
109.7569067892
21
22.5491037751
31
0.0000000000
11
109.7816088454
21
22.5406684338
31
0.0000000000
11
109.8050099085
21
22.5290895916
31
0.0000000000
11
109.8267110136
21
22.5145647170
31
0.0000000000
11
109.8463421817
21
22.4973415110
31
0.0000000000
11
109.8635687279
21
22.4777136832
31
0.0000000000
11
109.8780969681
21
22.4560159443
31
0.0000000000
11
109.8896792266
21
22.4326182983
31
0.0000000000
11
109.8981180592
21
22.4079197345
31
0.0000000000
11
109.9032696198
21
22.3823414238
31
0.0000000000
11
109.9050461131
21
22.3563195377
31
0.0000000000
0
SPLINE
5
351
100
AcDbEntity
8
0
100
AcDbSpline
62
9
6
CONTINUOUS
70
0
71
3
72
18
73
14
74
12
42
0.0000001000
43
0.0000001000
44
0.0000000001
12
0.2297130578
22
-0.0046111092
32
0.0000000000
13
0.0255914174
23
-0.2283296534
33
0.0000000000
40
0.0000000000
40
0.0000000000
40
0.0000000000
40
0.0000000000
40
0.1202807777
40
0.2388149137
40
0.3537667071
40
0.4634113230
40
0.5661988692
40
0.6608295277
40
0.7463498925
40
0.8222886510
40
0.8888601931
40
0.9472614946
40
1.0000000000
40
1.0000000000
40
1.0000000000
40
1.0000000000
10
109.7559359581
20
23.6341198519
30
0.0000000000
10
109.7651459798
20
23.6339349759
30
0.0000000000
10
109.7834261927
20
23.6330357302
30
0.0000000000
10
109.8103772873
20
23.6301118467
30
0.0000000000
10
109.8362969050
20
23.6256719597
30
0.0000000000
10
109.8606941110
20
23.6198015705
30
0.0000000000
10
109.8831111663
20
23.6126129110
30
0.0000000000
10
109.9031319902
20
23.6042415704
30
0.0000000000
10
109.9203923972
20
23.5948391883
30
0.0000000000
10
109.9345878605
20
23.5845651045
30
0.0000000000
10
109.9454695568
20
23.5735571093
30
0.0000000000
10
109.9528116018
20
23.5619424926
30
0.0000000000
10
109.9552119807
20
23.5536101211
30
0.0000000000
10
109.9556618650
20
23.5495961995
30
0.0000000000
11
109.7559359581
21
23.6341198519
31
0.0000000000
11
109.7835379431
21
23.6327565692
31
0.0000000000
11
109.8106114125
21
23.6298009532
31
0.0000000000
11
109.8366379703
21
23.6253095973
31
0.0000000000
11
109.8611192668
21
23.6193685008
31
0.0000000000
11
109.8835865405
21
23.6120914223
31
0.0000000000
11
109.9036095938
21
23.6036177014
31
0.0000000000
11
109.9208050304
21
23.5941095907
31
0.0000000000
11
109.9348435966
21
23.5837491491
31
0.0000000000
11
109.9454564855
21
23.5727347556
31
0.0000000000
11
109.9524404843
21
23.5612773110
31
0.0000000000
11
109.9556618650
21
23.5495961995
31
0.0000000000
0
SPLINE
5
352
100
AcDbEntity
8
0
100
AcDbSpline
62
9
6
CONTINUOUS
70
0
71
3
72
19
73
15
74
13
42
0.0000001000
43
0.0000001000
44
0.0000000001
12
-0.3654906385
22
-0.6660502226
32
0.0000000000
13
-0.0092838538
23
-0.7596842212
33
0.0000000000
40
0.0000000000
40
0.0000000000
40
0.0000000000
40
0.0000000000
40
0.0397496621
40
0.0854755288
40
0.1374637033
40
0.1958901866
40
0.2614490740
40
0.3349139186
40
0.4171735498
40
0.5092052470
40
0.6119603435
40
0.7268574055
40
0.8556080496
40
1.0000000000
40
1.0000000000
40
1.0000000000
40
1.0000000000
10
110.0771728820
20
24.2941888093
30
0.0000000000
10
110.0723301722
20
24.2853637189
30
0.0000000000
10
110.0627802801
20
24.2659091195
30
0.0000000000
10
110.0495956947
20
24.2336691029
30
0.0000000000
10
110.0367105010
20
24.1962659090
30
0.0000000000
10
110.0242120385
20
24.1534750327
30
0.0000000000
10
110.0121753490
20
24.1049288773
30
0.0000000000
10
110.0006792819
20
24.0500700008
30
0.0000000000
10
109.9898492664
20
23.9882575156
30
0.0000000000
10
109.9798712481
20
23.9187989444
30
0.0000000000
10
109.9709909759
20
23.8408660476
30
0.0000000000
10
109.9635402504
20
23.7534456403
30
0.0000000000
10
109.9579848587
20
23.6553201449
30
0.0000000000
10
109.9561087030
20
23.5861602950
30
0.0000000000
10
109.9556618650
20
23.5495961995
30
0.0000000000
11
110.0771728820
21
24.2941888093
31
0.0000000000
11
110.0637402959
21
24.2671412186
31
0.0000000000
11
110.0504828511
21
24.2350305540
31
0.0000000000
11
110.0375232717
21
24.1977196259
31
0.0000000000
11
110.0249957054
21
24.1551350903
31
0.0000000000
11
110.0129358125
21
24.1068093927
31
0.0000000000
11
110.0014217470
21
24.0521956869
31
0.0000000000
11
109.9905752419
21
23.9906481069
31
0.0000000000
11
109.9805766386
21
23.9214464515
31
0.0000000000
11
109.9716868039
21
23.8438870096
31
0.0000000000
11
109.9642279182
21
23.7569142624
31
0.0000000000
11
109.9586607860
21
23.6592556777
31
0.0000000000
11
109.9556618650
21
23.5495961995
31
0.0000000000
0
SPLINE
5
353
100
AcDbEntity
8
0
100
AcDbSpline
62
9
6
CONTINUOUS
70
0
71
3
72
11
73
7
74
5
42
0.0000001000
43
0.0000001000
44
0.0000000001
12
0.0856421669
22
-0.0771991042
32
0.0000000000
13
0.0704514452
23
-0.0912736342
33
0.0000000000
40
0.0000000000
40
0.0000000000
40
0.0000000000
40
0.0000000000
40
0.2462796853
40
0.4982927298
40
0.7511652524
40
1.0000000000
40
1.0000000000
40
1.0000000000
40
1.0000000000
10
109.9989579921
20
24.3787126155
30
0.0000000000
10
110.0059886341
20
24.3723750918
30
0.0000000000
10
110.0199036809
20
24.3592051018
30
0.0000000000
10
110.0399726371
20
24.3384392036
30
0.0000000000
10
110.0591859654
20
24.3167479074
30
0.0000000000
10
110.0713292457
20
24.3017594932
30
0.0000000000
10
110.0771728349
20
24.2941888093
30
0.0000000000
11
109.9989579921
21
24.3787126155
31
0.0000000000
11
110.0195964906
21
24.3592087805
31
0.0000000000
11
110.0397954816
21
24.3383203082
31
0.0000000000
11
110.0591248086
21
24.3164920345
31
0.0000000000
11
110.0771728349
21
24.2941888093
31
0.0000000000
0
SPLINE
5
354
100
AcDbEntity
8
0
100
AcDbSpline
62
9
6
CONTINUOUS
70
0
71
3
72
19
73
15
74
13
42
0.0000001000
43
0.0000001000
44
0.0000000001
12
-0.5922819832
22
-0.5394180894
32
0.0000000000
13
-0.0195741089
23
-0.8008662042
33
0.0000000000
40
0.0000000000
40
0.0000000000
40
0.0000000000
40
0.0000000000
40
0.0475878249
40
0.0995712799
40
0.1562825972
40
0.2179601132
40
0.2853820126
40
0.3593690423
40
0.4408309482
40
0.5307487318
40
0.6300764873
40
0.7402283540
40
0.8629232101
40
1.0000000000
40
1.0000000000
40
1.0000000000
40
1.0000000000
10
109.9989579906
20
24.3787124602
30
0.0000000000
10
109.9895628535
20
24.3701558824
30
0.0000000000
10
109.9708495943
20
24.3511972541
30
0.0000000000
10
109.9443345810
20
24.3189070526
30
0.0000000000
10
109.9184425122
20
24.2814395289
30
0.0000000000
10
109.8933503182
20
24.2385853949
30
0.0000000000
10
109.8692033911
20
24.1899827695
30
0.0000000000
10
109.8461532874
20
24.1350726501
30
0.0000000000
10
109.8244463499
20
24.0732117520
30
0.0000000000
10
109.8044512279
20
24.0037038169
30
0.0000000000
10
109.7866577271
20
23.9257177723
30
0.0000000000
10
109.7717285585
20
23.8382341012
30
0.0000000000
10
109.7605947686
20
23.7400302522
30
0.0000000000
10
109.7568303434
20
23.6707132414
30
0.0000000000
10
109.7559359581
20
23.6341198519
30
0.0000000000
11
109.9989579906
21
24.3787124602
31
0.0000000000
11
109.9720913993
21
24.3516654844
31
0.0000000000
11
109.9455764383
21
24.3195532073
31
0.0000000000
11
109.9196572150
21
24.2822405155
31
0.0000000000
11
109.8946016967
21
24.2396542755
31
0.0000000000
11
109.8704814776
21
24.1913270973
31
0.0000000000
11
109.8474530459
21
24.1367121630
31
0.0000000000
11
109.8257599374
21
24.0751636406
31
0.0000000000
11
109.8057628311
21
24.0059613421
31
0.0000000000
11
109.7879833330
21
23.9284010916
31
0.0000000000
11
109.7730659102
21
23.8414278652
31
0.0000000000
11
109.7619320279
21
23.7437689825
31
0.0000000000
11
109.7559359581
21
23.6341198519
31
0.0000000000
0
SPLINE
5
355
100
AcDbEntity
8
0
100
AcDbSpline
62
9
6
CONTINUOUS
70
0
71
3
72
10
73
6
74
4
42
0.0000001000
43
0.0000001000
44
0.0000000001
12
-0.1635466708
22
-0.0726530932
32
0.0000000000
13
-0.1637440394
23
-0.0722071676
33
0.0000000000
40
0.0000000000
40
0.0000000000
40
0.0000000000
40
0.0000000000
40
0.3527547057
40
0.6896610604
40
1.0000000000
40
1.0000000000
40
1.0000000000
40
1.0000000000
10
110.1625856598
20
24.4511827955
30
0.0000000000
10
110.1433550405
20
24.4426398887
30
0.0000000000
10
110.1057611364
20
24.4259303220
30
0.0000000000
10
110.0512152073
20
24.4017810691
30
0.0000000000
10
110.0158967093
20
24.3861820298
30
0.0000000000
10
109.9989579921
20
24.3787124645
30
0.0000000000
11
110.1625856598
21
24.4511827955
31
0.0000000000
11
110.1048908746
21
24.4255606659
31
0.0000000000
11
110.0497622963
21
24.4011480074
31
0.0000000000
11
109.9989579921
21
24.3787124645
31
0.0000000000
0
SPLINE
5
356
100
AcDbEntity
8
0
100
AcDbSpline
62
9
6
CONTINUOUS
70
0
71
3
72
10
73
6
74
4
42
0.0000001000
43
0.0000001000
44
0.0000000001
12
-0.0848459182
22
-0.1573013733
32
0.0000000000
13
-0.0859928464
23
-0.1566773188
33
0.0000000000
40
0.0000000000
40
0.0000000000
40
0.0000000000
40
0.0000000000
40
0.3532176436
40
0.6901339833
40
1.0000000000
40
1.0000000000
40
1.0000000000
40
1.0000000000
10
110.1625856623
20
24.4511827679
30
0.0000000000
10
110.1525959705
20
24.4326622277
30
0.0000000000
10
110.1330136500
20
24.3965103985
30
0.0000000000
10
110.1045449222
20
24.3441777463
30
0.0000000000
10
110.0860549690
20
24.3103718016
30
0.0000000000
10
110.0771728820
20
24.2941888093
30
0.0000000000
11
110.1625856623
21
24.4511827679
31
0.0000000000
11
110.1325341012
21
24.3956657181
31
0.0000000000
11
110.1037539720
21
24.3427734984
31
0.0000000000
11
110.0771728820
21
24.2941888093
31
0.0000000000
0
SPLINE
5
357
100
AcDbEntity
8
0
100
AcDbSpline
62
0
6
CONTINUOUS
70
0
71
3
72
9
73
5
74
3
42
0.0000001000
43
0.0000001000
44
0.0000000001
12
-0.2078819009
22
0.0142944170
32
0.0000000000
13
-0.2078750191
23
0.0143941482
33
0.0000000000
40
0.0000000000
40
0.0000000000
40
0.0000000000
40
0.0000000000
40
0.4999996415
40
1.0000000000
40
1.0000000000
40
1.0000000000
40
1.0000000000
10
46.1984799918
20
-26.1381331164
30
0.0000000000
10
46.1638330332
20
-26.1357507153
30
0.0000000000
10
46.0945396375
20
-26.1309775985
30
0.0000000000
10
46.0252473887
20
-26.1261878599
30
0.0000000000
10
45.9906015274
20
-26.1237888335
30
0.0000000000
11
46.1984799918
21
-26.1381331164
31
0.0000000000
11
46.0945399739
21
-26.1309734465
31
0.0000000000
11
45.9906015274
21
-26.1237888335
31
0.0000000000
0
SPLINE
5
358
100
AcDbEntity
8
0
100
AcDbSpline
62
9
6
CONTINUOUS
70
0
71
3
72
10
73
6
74
4
42
0.0000001000
43
0.0000001000
44
0.0000000001
12
0.0906526426
22
0.0834793634
32
0.0000000000
13
0.0906606627
23
0.0834706533
33
0.0000000000
40
0.0000000000
40
0.0000000000
40
0.0000000000
40
0.0000000000
40
0.3333551634
40
0.6666884953
40
1.0000000000
40
1.0000000000
40
1.0000000000
40
1.0000000000
10
110.7146682455
20
25.7292530060
30
0.0000000000
10
110.7247414210
20
25.7385290983
30
0.0000000000
10
110.7448874095
20
25.7570803527
30
0.0000000000
10
110.7751062939
20
25.7849053553
30
0.0000000000
10
110.7952521512
20
25.8034541045
30
0.0000000000
10
110.8053248985
20
25.8127280142
30
0.0000000000
11
110.7146682455
21
25.7292530060
31
0.0000000000
11
110.7448882177
21
25.7570807989
31
0.0000000000
11
110.7751071020
21
25.7849058014
31
0.0000000000
11
110.8053248985
21
25.8127280142
31
0.0000000000
0
SPLINE
5
359
100
AcDbEntity
8
0
100
AcDbSpline
62
9
6
CONTINUOUS
70
0
71
3
72
10
73
6
74
4
42
0.0000001000
43
0.0000001000
44
0.0000000001
12
0.0911979239
22
0.0841747970
32
0.0000000000
13
0.0912060986
23
0.0841659393
33
0.0000000000
40
0.0000000000
40
0.0000000000
40
0.0000000000
40
0.0000000000
40
0.3333552851
40
0.6666886120
40
1.0000000000
40
1.0000000000
40
1.0000000000
40
1.0000000000
10
111.6350550555
20
24.7353049732
30
0.0000000000
10
111.6451888254
20
24.7446583443
30
0.0000000000
10
111.6654560007
20
24.7633641424
30
0.0000000000
10
111.6958566714
20
24.7914209316
30
0.0000000000
10
111.7161237232
20
24.8101241858
30
0.0000000000
10
111.7262570670
20
24.8194753411
30
0.0000000000
11
111.6350550555
21
24.7353049732
31
0.0000000000
11
111.6654568197
21
24.7633645944
31
0.0000000000
11
111.6958574897
21
24.7914213831
31
0.0000000000
11
111.7262570670
21
24.8194753411
31
0.0000000000
0
SPLINE
5
35A
100
AcDbEntity
8
0
100
AcDbSpline
62
9
6
CONTINUOUS
70
0
71
3
72
10
73
6
74
4
42
0.0000001000
43
0.0000001000
44
0.0000000001
12
0.0912060986
22
-0.0841659393
32
0.0000000000
13
0.0911979239
23
-0.0841747970
33
0.0000000000
40
0.0000000000
40
0.0000000000
40
0.0000000000
40
0.0000000000
40
0.3333113879
40
0.6666447149
40
1.0000000000
40
1.0000000000
40
1.0000000000
40
1.0000000000
10
40.2549459877
20
24.8194753411
30
0.0000000000
10
40.2650793315
20
24.8101241858
30
0.0000000000
10
40.2853463834
20
24.7914209316
30
0.0000000000
10
40.3157470540
20
24.7633641424
30
0.0000000000
10
40.3360142293
20
24.7446583443
30
0.0000000000
10
40.3461479993
20
24.7353049732
30
0.0000000000
11
40.2549459877
21
24.8194753411
31
0.0000000000
11
40.2853455650
21
24.7914213831
31
0.0000000000
11
40.3157462351
21
24.7633645944
31
0.0000000000
11
40.3461479993
21
24.7353049732
31
0.0000000000
0
SPLINE
5
35B
100
AcDbEntity
8
0
100
AcDbSpline
62
9
6
CONTINUOUS
70
0
71
3
72
10
73
6
74
4
42
0.0000001000
43
0.0000001000
44
0.0000000001
12
0.0906606627
22
-0.0834706533
32
0.0000000000
13
0.0906526426
23
-0.0834793634
33
0.0000000000
40
0.0000000000
40
0.0000000000
40
0.0000000000
40
0.0000000000
40
0.3333115046
40
0.6666448366
40
1.0000000000
40
1.0000000000
40
1.0000000000
40
1.0000000000
10
41.1758781562
20
25.8127280142
30
0.0000000000
10
41.1859509035
20
25.8034541045
30
0.0000000000
10
41.2060967608
20
25.7849053553
30
0.0000000000
10
41.2363156452
20
25.7570803527
30
0.0000000000
10
41.2564616337
20
25.7385290983
30
0.0000000000
10
41.2665348092
20
25.7292530060
30
0.0000000000
11
41.1758781562
21
25.8127280142
31
0.0000000000
11
41.2060959527
21
25.7849058014
31
0.0000000000
11
41.2363148370
21
25.7570807989
31
0.0000000000
11
41.2665348092
21
25.7292530060
31
0.0000000000
0
SPLINE
5
35C
100
AcDbEntity
8
0
100
AcDbSpline
62
9
6
CONTINUOUS
70
0
71
3
72
10
73
6
74
4
42
0.0000001000
43
0.0000001000
44
0.0000000001
12
0.0906606627
22
0.0834706533
32
0.0000000000
13
0.0906526426
23
0.0834793634
33
0.0000000000
40
0.0000000000
40
0.0000000000
40
0.0000000000
40
0.0000000000
40
0.3333115188
40
0.6666448435
40
1.0000000000
40
1.0000000000
40
1.0000000000
40
1.0000000000
10
41.1758781562
20
-25.8295262964
30
0.0000000000
10
41.1859509040
20
-25.8202523864
30
0.0000000000
10
41.2060967615
20
-25.8017036370
30
0.0000000000
10
41.2363156459
20
-25.7738786343
30
0.0000000000
10
41.2564616339
20
-25.7553273803
30
0.0000000000
10
41.2665348092
20
-25.7460512882
30
0.0000000000
11
41.1758781562
21
-25.8295262964
31
0.0000000000
11
41.2060959540
21
-25.8017040824
31
0.0000000000
11
41.2363148376
21
-25.7738790805
31
0.0000000000
11
41.2665348092
21
-25.7460512882
31
0.0000000000
0
SPLINE
5
35D
100
AcDbEntity
8
0
100
AcDbSpline
62
9
6
CONTINUOUS
70
0
71
3
72
10
73
6
74
4
42
0.0000001000
43
0.0000001000
44
0.0000000001
12
0.0912060986
22
0.0841659393
32
0.0000000000
13
0.0911979239
23
0.0841747970
33
0.0000000000
40
0.0000000000
40
0.0000000000
40
0.0000000000
40
0.0000000000
40
0.3333113785
40
0.6666447103
40
1.0000000000
40
1.0000000000
40
1.0000000000
40
1.0000000000
10
40.2549459877
20
-24.8362736233
30
0.0000000000
10
40.2650793312
20
-24.8269224683
30
0.0000000000
10
40.2853463829
20
-24.8082192142
30
0.0000000000
10
40.3157470536
20
-24.7801624250
30
0.0000000000
10
40.3360142292
20
-24.7614566267
30
0.0000000000
10
40.3461479993
20
-24.7521032554
30
0.0000000000
11
40.2549459877
21
-24.8362736233
31
0.0000000000
11
40.2853455642
21
-24.8082196661
31
0.0000000000
11
40.3157462346
21
-24.7801628770
31
0.0000000000
11
40.3461479993
21
-24.7521032554
31
0.0000000000
0
SPLINE
5
35E
100
AcDbEntity
8
0
100
AcDbSpline
62
9
6
CONTINUOUS
70
0
71
3
72
10
73
6
74
4
42
0.0000001000
43
0.0000001000
44
0.0000000001
12
-0.0912060986
22
0.0841659393
32
0.0000000000
13
-0.0911979239
23
0.0841747970
33
0.0000000000
40
0.0000000000
40
0.0000000000
40
0.0000000000
40
0.0000000000
40
0.3333113879
40
0.6666447149
40
1.0000000000
40
1.0000000000
40
1.0000000000
40
1.0000000000
10
111.7262570670
20
-24.8362736233
30
0.0000000000
10
111.7161237232
20
-24.8269224680
30
0.0000000000
10
111.6958566714
20
-24.8082192138
30
0.0000000000
10
111.6654560007
20
-24.7801624246
30
0.0000000000
10
111.6451888254
20
-24.7614566265
30
0.0000000000
10
111.6350550555
20
-24.7521032554
30
0.0000000000
11
111.7262570670
21
-24.8362736233
31
0.0000000000
11
111.6958574897
21
-24.8082196653
31
0.0000000000
11
111.6654568197
21
-24.7801628766
31
0.0000000000
11
111.6350550555
21
-24.7521032554
31
0.0000000000
0
SPLINE
5
35F
100
AcDbEntity
8
0
100
AcDbSpline
62
9
6
CONTINUOUS
70
0
71
3
72
10
73
6
74
4
42
0.0000001000
43
0.0000001000
44
0.0000000001
12
-0.0906606627
22
0.0834706533
32
0.0000000000
13
-0.0906526426
23
0.0834793634
33
0.0000000000
40
0.0000000000
40
0.0000000000
40
0.0000000000
40
0.0000000000
40
0.3333115046
40
0.6666448366
40
1.0000000000
40
1.0000000000
40
1.0000000000
40
1.0000000000
10
110.8053248985
20
-25.8295262964
30
0.0000000000
10
110.7952521512
20
-25.8202523868
30
0.0000000000
10
110.7751062939
20
-25.8017036376
30
0.0000000000
10
110.7448874095
20
-25.7738786349
30
0.0000000000
10
110.7247414211
20
-25.7553273805
30
0.0000000000
10
110.7146682456
20
-25.7460512883
30
0.0000000000
11
110.8053248985
21
-25.8295262964
31
0.0000000000
11
110.7751071020
21
-25.8017040836
31
0.0000000000
11
110.7448882177
21
-25.7738790811
31
0.0000000000
11
110.7146682456
21
-25.7460512883
31
0.0000000000
0
SPLINE
5
360
100
AcDbEntity
8
0
100
AcDbSpline
62
9
6
CONTINUOUS
70
0
71
3
72
31
73
27
74
25
42
0.0000001000
43
0.0000001000
44
0.0000000001
12
67.8830679420
22
5.2185464448
32
0.0000000000
13
67.8830679396
23
-5.2185464766
33
0.0000000000
40
0.0000000000
40
0.0000000000
40
0.0000000000
40
0.0000000000
40
0.0807381706
40
0.1614002742
40
0.2419962027
40
0.3225301671
40
0.4008155542
40
0.4716496692
40
0.5337607290
40
0.5887830539
40
0.6378249030
40
0.6816871161
40
0.7211061560
40
0.7566568686
40
0.7888325003
40
0.8180147069
40
0.8445173341
40
0.8686434967
40
0.8906645732
40
0.9108442892
40
0.9294459272
40
0.9465693678
40
0.9621200253
40
0.9760667520
40
0.9886052528
40
1.0000000000
40
1.0000000000
40
1.0000000000
40
1.0000000000
10
41.9822450716
20
24.3787124526
30
0.0000000000
10
43.8091633122
20
24.5191577503
30
0.0000000000
10
47.4630501140
20
24.7773990729
30
0.0000000000
10
52.9458538589
20
25.0968930210
30
0.0000000000
10
58.4275673199
20
25.3483738148
30
0.0000000000
10
63.8580605472
20
25.5302297203
30
0.0000000000
10
69.0688682940
20
25.6410917719
30
0.0000000000
10
73.8624948447
20
25.6881065114
30
0.0000000000
10
78.1283789159
20
25.6863308367
30
0.0000000000
10
81.8995125815
20
25.6507908302
30
0.0000000000
10
85.2561432747
20
25.5922959273
30
0.0000000000
10
88.2582604451
20
25.5185317981
30
0.0000000000
10
90.9538107215
20
25.4350391079
30
0.0000000000
10
93.3837894311
20
25.3457654157
30
0.0000000000
10
95.5811528348
20
25.2535966270
30
0.0000000000
10
97.5729375307
20
25.1606554381
30
0.0000000000
10
99.3818637967
20
25.0685041227
30
0.0000000000
10
101.0281434559
20
24.9782319361
30
0.0000000000
10
102.5308416559
20
24.8905029069
30
0.0000000000
10
103.9081091680
20
24.8056299068
30
0.0000000000
10
105.1742002548
20
24.7238348528
30
0.0000000000
10
106.3352461590
20
24.6456388140
30
0.0000000000
10
107.3907088693
20
24.5719037577
30
0.0000000000
10
108.3422192532
20
24.5032743709
30
0.0000000000
10
109.1995307488
20
24.4396947951
30
0.0000000000
10
109.7411211902
20
24.3985337996
30
0.0000000000
10
109.9989579906
20
24.3787124602
30
0.0000000000
11
41.9822450716
21
24.3787124526
31
0.0000000000
11
47.4654952772
21
24.7662217286
31
0.0000000000
11
52.9479432627
21
25.0856760856
31
0.0000000000
11
58.4294204845
21
25.3371308497
31
0.0000000000
11
63.9093720192
21
25.5206320659
31
0.0000000000
11
69.2380986142
21
25.6339965287
31
0.0000000000
11
74.0604913735
21
25.6812913216
31
0.0000000000
11
78.2892207578
21
25.6795311763
31
0.0000000000
11
82.0351592699
21
25.6442297473
31
0.0000000000
11
85.3735863609
21
25.5860532970
31
0.0000000000
11
88.3589722804
21
25.5127016416
31
0.0000000000
11
91.0414665726
21
25.4296145012
31
0.0000000000
11
93.4602468577
21
25.3407533482
31
0.0000000000
11
95.6489475141
21
25.2489486726
31
0.0000000000
11
97.6336107801
21
25.1563406421
31
0.0000000000
11
99.4356619907
21
25.0645401109
31
0.0000000000
11
101.0757883716
21
24.9746057700
31
0.0000000000
11
102.5725088194
21
24.8872261732
31
0.0000000000
11
103.9438104209
21
24.8027211348
31
0.0000000000
11
105.2076377940
21
24.7210725676
31
0.0000000000
11
106.3708240984
21
24.6427325633
31
0.0000000000
11
107.4269909936
21
24.5689485022
31
0.0000000000
11
108.3740707524
21
24.5006388116
31
0.0000000000
11
109.2253961304
21
24.4375032668
31
0.0000000000
11
109.9989579906
21
24.3787124602
31
0.0000000000
0
SPLINE
5
361
100
AcDbEntity
8
0
100
AcDbSpline
62
0
6
CONTINUOUS
70
0
71
3
72
9
73
5
74
3
42
0.0000001000
43
0.0000001000
44
0.0000000001
12
0.2078750191
22
0.0143941482
32
0.0000000000
13
0.2078819009
23
0.0142944170
33
0.0000000000
40
0.0000000000
40
0.0000000000
40
0.0000000000
40
0.0000000000
40
0.5000003625
40
1.0000000000
40
1.0000000000
40
1.0000000000
40
1.0000000000
10
45.9906015274
20
26.1069905513
30
0.0000000000
10
46.0252473890
20
26.1093895777
30
0.0000000000
10
46.0945396378
20
26.1141793163
30
0.0000000000
10
46.1638330335
20
26.1189524331
30
0.0000000000
10
46.1984799919
20
26.1213348342
30
0.0000000000
11
45.9906015274
21
26.1069905513
31
0.0000000000
11
46.0945399747
21
26.1141751643
31
0.0000000000
11
46.1984799919
21
26.1213348342
31
0.0000000000
0
SPLINE
5
362
100
AcDbEntity
8
0
100
AcDbSpline
62
0
6
CONTINUOUS
70
0
71
3
72
9
73
5
74
3
42
0.0000001000
43
0.0000001000
44
0.0000000001
12
0.2078819009
22
-0.0142944170
32
0.0000000000
13
0.2078750191
23
-0.0143941482
33
0.0000000000
40
0.0000000000
40
0.0000000000
40
0.0000000000
40
0.0000000000
40
0.4999996379
40
1.0000000000
40
1.0000000000
40
1.0000000000
40
1.0000000000
10
105.7827230629
20
26.1213348342
30
0.0000000000
10
105.8173700213
20
26.1189524331
30
0.0000000000
10
105.8866634170
20
26.1141793163
30
0.0000000000
10
105.9559556658
20
26.1093895777
30
0.0000000000
10
105.9906015274
20
26.1069905513
30
0.0000000000
11
105.7827230629
21
26.1213348342
31
0.0000000000
11
105.8866630801
21
26.1141751643
31
0.0000000000
11
105.9906015274
21
26.1069905513
31
0.0000000000
0
SPLINE
5
363
100
AcDbEntity
8
0
100
AcDbSpline
62
9
6
CONTINUOUS
70
0
71
3
72
16
73
12
74
10
42
0.0000001000
43
0.0000001000
44
0.0000000001
12
0.0503615863
22
0.0860871438
32
0.0000000000
13
-0.0077744807
23
0.0994326060
33
0.0000000000
40
0.0000000000
40
0.0000000000
40
0.0000000000
40
0.0000000000
40
0.0237572766
40
0.0747349539
40
0.1518120891
40
0.2528832137
40
0.3751203269
40
0.5150825991
40
0.6688218639
40
0.8319973693
40
1.0000000000
40
1.0000000000
40
1.0000000000
40
1.0000000000
10
110.7146682453
20
-25.7460512852
30
0.0000000000
10
110.7150670634
20
-25.7453695532
30
0.0000000000
10
110.7150916042
20
-25.7427446528
30
0.0000000000
10
110.7153908085
20
-25.7378121843
30
0.0000000000
10
110.7152164125
20
-25.7301375414
30
0.0000000000
10
110.7149408969
20
-25.7201785217
30
0.0000000000
10
110.7143927624
20
-25.7081048846
30
0.0000000000
10
110.7136492385
20
-25.6942996164
30
0.0000000000
10
110.7127074123
20
-25.6791387497
30
0.0000000000
10
110.7116002552
20
-25.6630557294
30
0.0000000000
10
110.7107752073
20
-25.6520764019
30
0.0000000000
10
110.7103398295
20
-25.6465080888
30
0.0000000000
11
110.7146682453
21
-25.7460512852
31
0.0000000000
11
110.7150950702
21
-25.7437205879
31
0.0000000000
11
110.7152839262
21
-25.7386397829
31
0.0000000000
11
110.7152294705
21
-25.7309526044
31
0.0000000000
11
110.7149332437
21
-25.7208765201
31
0.0000000000
11
110.7144036258
21
-25.7086965788
31
0.0000000000
11
110.7136555998
21
-25.6947573467
31
0.0000000000
11
110.7127103268
21
-25.6794531600
31
0.0000000000
11
110.7115945484
21
-25.6632169686
31
0.0000000000
11
110.7103398295
21
-25.6465080888
31
0.0000000000
0
SPLINE
5
364
100
AcDbEntity
8
0
100
AcDbSpline
62
9
6
CONTINUOUS
70
0
71
3
72
20
73
16
74
14
42
0.0000001000
43
0.0000001000
44
0.0000000001
12
-69.2977250656
22
-5.4249620177
32
0.0000000000
13
-69.2977250654
23
5.4249620198
33
0.0000000000
40
0.0000000000
40
0.0000000000
40
0.0000000000
40
0.0000000000
40
0.0769606577
40
0.1539019028
40
0.2308279579
40
0.3077425622
40
0.3846487278
40
0.4615490599
40
0.5384509548
40
0.6153512842
40
0.6922574411
40
0.7691720470
40
0.8460981047
40
0.9230393455
40
1.0000000000
40
1.0000000000
40
1.0000000000
40
1.0000000000
10
110.7103398296
20
-25.6465080888
30
0.0000000000
10
108.9326069973
20
-25.7856776371
30
0.0000000000
10
105.3758792735
20
-26.0426091286
30
0.0000000000
10
100.0371452928
20
-26.3637960874
30
0.0000000000
10
94.6959940596
20
-26.6207340371
30
0.0000000000
10
89.3529550211
20
-26.8134307453
30
0.0000000000
10
84.0085814426
20
-26.9418918449
30
0.0000000000
10
78.6633447580
20
-27.0061226129
30
0.0000000000
10
73.3178573386
20
-27.0061226069
30
0.0000000000
10
67.9726209171
20
-26.9418918308
30
0.0000000000
10
62.6282475654
20
-26.8134307301
30
0.0000000000
10
57.2852086324
20
-26.6207340227
30
0.0000000000
10
51.9440574022
20
-26.3637960674
30
0.0000000000
10
46.6053235341
20
-26.0426091113
30
0.0000000000
10
43.0485959840
20
-25.7856776314
30
0.0000000000
10
41.2708632252
20
-25.6465080888
30
0.0000000000
11
110.7103398296
21
-25.6465080888
31
0.0000000000
11
105.3747274298
21
-26.0319428990
31
0.0000000000
11
100.0362134043
21
-26.3531167405
31
0.0000000000
11
94.6952790070
21
-26.6100441713
31
0.0000000000
11
89.3524378743
21
-26.8027337973
31
0.0000000000
11
84.0082533828
21
-26.9311903422
31
0.0000000000
11
78.6633166427
21
-26.9954175008
31
0.0000000000
11
73.3178853942
21
-26.9954174947
31
0.0000000000
11
67.9729488336
21
-26.9311903271
31
0.0000000000
11
62.6287649515
21
-26.8027337903
31
0.0000000000
11
57.2859237103
21
-26.6100441573
31
0.0000000000
11
51.9449891290
21
-26.3531167121
31
0.0000000000
11
46.6064754046
21
-26.0319428845
31
0.0000000000
11
41.2708632252
21
-25.6465080888
31
0.0000000000
0
SPLINE
5
365
100
AcDbEntity
8
0
100
AcDbSpline
62
9
6
CONTINUOUS
70
0
71
3
72
21
73
17
74
15
42
0.0000001000
43
0.0000001000
44
0.0000000001
12
68.2084135475
22
5.2665978142
32
0.0000000000
13
68.2084135456
23
-5.2665978388
33
0.0000000000
40
0.0000000000
40
0.0000000000
40
0.0000000000
40
0.0000000000
40
0.0715249238
40
0.1430165365
40
0.2144749791
40
0.2859007816
40
0.3572942862
40
0.4286569801
40
0.4999999359
40
0.5713428660
40
0.6427055087
40
0.7140989867
40
0.7855248063
40
0.8569832862
40
0.9284749668
40
1.0000000000
40
1.0000000000
40
1.0000000000
40
1.0000000000
10
41.8186173924
20
24.4511828008
30
0.0000000000
10
43.4448179204
20
24.5767471367
30
0.0000000000
10
46.6978674257
20
24.8099802308
30
0.0000000000
10
51.5798352824
20
25.1061106365
30
0.0000000000
10
56.4625144028
20
25.3483991170
30
0.0000000000
10
61.3453282994
20
25.5368219537
30
0.0000000000
10
66.2277396161
20
25.6713780529
30
0.0000000000
10
71.1094481982
20
25.7520894513
30
0.0000000000
10
75.9905965550
20
25.7789880892
30
0.0000000000
10
80.8717437451
20
25.7520895645
30
0.0000000000
10
85.7534499707
20
25.6713783408
30
0.0000000000
10
90.6358599075
20
25.5368224442
30
0.0000000000
10
95.5186744439
20
25.3483997512
30
0.0000000000
10
100.4013563579
20
25.1061112781
30
0.0000000000
10
105.2833291076
20
24.8099806856
30
0.0000000000
10
108.5363826481
20
24.5767473252
30
0.0000000000
10
110.1625856623
20
24.4511827968
30
0.0000000000
11
41.8186173924
21
24.4511828008
31
0.0000000000
11
46.6992133533
21
24.8010886492
31
0.0000000000
11
51.5810852400
21
25.0971993802
31
0.0000000000
11
56.4636529759
21
25.3394707526
31
0.0000000000
11
61.3463610290
21
25.5278805767
31
0.0000000000
11
66.2286397162
21
25.6624266242
31
0.0000000000
11
71.1099971028
21
25.7431283815
31
0.0000000000
11
75.9905971406
21
25.7700227217
31
0.0000000000
11
80.8711954225
21
25.7431284979
31
0.0000000000
11
85.7525493100
21
25.6624269341
31
0.0000000000
11
90.6348261843
21
25.5278811013
31
0.0000000000
11
95.5175354082
21
25.3394714000
31
0.0000000000
11
100.4001057022
21
25.0972000476
31
0.0000000000
11
105.2819822369
21
24.8010891426
31
0.0000000000
11
110.1625856623
21
24.4511827968
31
0.0000000000
0
SPLINE
5
366
100
AcDbEntity
8
0
100
AcDbSpline
62
9
6
CONTINUOUS
70
0
71
3
72
21
73
17
74
15
42
0.0000001000
43
0.0000001000
44
0.0000000001
12
-68.2084135456
22
-5.2665978394
32
0.0000000000
13
-68.2084135477
23
5.2665978120
33
0.0000000000
40
0.0000000000
40
0.0000000000
40
0.0000000000
40
0.0000000000
40
0.0715250332
40
0.1430167138
40
0.2144751937
40
0.2859010133
40
0.3572944913
40
0.4286571340
40
0.5000000641
40
0.5713430199
40
0.6427057138
40
0.7140992184
40
0.7855250209
40
0.8569834635
40
0.9284750762
40
1.0000000000
40
1.0000000000
40
1.0000000000
40
1.0000000000
10
110.1625856623
20
-24.4679810822
30
0.0000000000
10
108.5363826482
20
-24.5935456106
30
0.0000000000
10
105.2833291074
20
-24.8267789663
30
0.0000000000
10
100.4013563580
20
-25.1229095607
30
0.0000000000
10
95.5186744439
20
-25.3651980333
30
0.0000000000
10
90.6358599076
20
-25.5536207265
30
0.0000000000
10
85.7534499708
20
-25.6881766230
30
0.0000000000
10
80.8717437452
20
-25.7688878467
30
0.0000000000
10
75.9905965551
20
-25.7957863714
30
0.0000000000
10
71.1094481983
20
-25.7688877335
30
0.0000000000
10
66.2277396163
20
-25.6881763351
30
0.0000000000
10
61.3453282996
20
-25.5536202359
30
0.0000000000
10
56.4625144030
20
-25.3651973993
30
0.0000000000
10
51.5798352826
20
-25.1229089183
30
0.0000000000
10
46.6978674256
20
-24.8267785146
30
0.0000000000
10
43.4448179206
20
-24.5935454154
30
0.0000000000
10
41.8186173924
20
-24.4679810796
30
0.0000000000
11
110.1625856623
21
-24.4679810822
31
0.0000000000
11
105.2819822369
21
-24.8178874248
31
0.0000000000
11
100.4001057023
21
-25.1139983298
31
0.0000000000
11
95.5175354083
21
-25.3562696822
31
0.0000000000
11
90.6348261844
21
-25.5446793835
31
0.0000000000
11
85.7525493101
21
-25.6792252163
31
0.0000000000
11
80.8711954226
21
-25.7599267801
31
0.0000000000
11
75.9905971407
21
-25.7868210039
31
0.0000000000
11
71.1099971030
21
-25.7599266637
31
0.0000000000
11
66.2286397164
21
-25.6792249064
31
0.0000000000
11
61.3463610292
21
-25.5446788590
31
0.0000000000
11
56.4636529761
21
-25.3562690349
31
0.0000000000
11
51.5810852402
21
-25.1139976624
31
0.0000000000
11
46.6992133536
21
-24.8178869314
31
0.0000000000
11
41.8186173924
21
-24.4679810796
31
0.0000000000
0
SPLINE
5
367
100
AcDbEntity
8
0
100
AcDbSpline
62
9
6
CONTINUOUS
70
0
71
3
72
20
73
16
74
14
42
0.0000001000
43
0.0000001000
44
0.0000000001
12
-69.3063328151
22
-5.4262392106
32
0.0000000000
13
-69.3063328150
23
5.4262392110
33
0.0000000000
40
0.0000000000
40
0.0000000000
40
0.0000000000
40
0.0000000000
40
0.0769607796
40
0.1539020170
40
0.2308280572
40
0.3077426387
40
0.3846487761
40
0.4615490765
40
0.5384509389
40
0.6153512367
40
0.6922573653
40
0.7691719484
40
0.8460979912
40
0.9230392243
40
1.0000000000
40
1.0000000000
40
1.0000000000
40
1.0000000000
10
110.7146682453
20
-25.7460512852
30
0.0000000000
10
108.9367117775
20
-25.8852538185
30
0.0000000000
10
105.3795392314
20
-26.1422458963
30
0.0000000000
10
100.0401382986
20
-26.4635085760
30
0.0000000000
10
94.6983223901
20
-26.7205069584
30
0.0000000000
10
89.3546183180
20
-26.9132489982
30
0.0000000000
10
84.0095795023
20
-27.0417403176
30
0.0000000000
10
78.6636774394
20
-27.1059861961
30
0.0000000000
10
73.3175246077
20
-27.1059861897
30
0.0000000000
10
67.9716228081
20
-27.0417403026
30
0.0000000000
10
62.6265842195
20
-26.9132489815
30
0.0000000000
10
57.2828802534
20
-26.7205069420
30
0.0000000000
10
51.9410643478
20
-26.4635085534
30
0.0000000000
10
46.6016635439
20
-26.1422458767
30
0.0000000000
10
43.0444911875
20
-25.8852538115
30
0.0000000000
10
41.2665348094
20
-25.7460512852
30
0.0000000000
11
110.7146682453
21
-25.7460512852
31
0.0000000000
11
105.3783840922
21
-26.1315773637
31
0.0000000000
11
100.0392059995
21
-26.4528267298
31
0.0000000000
11
94.6976069647
21
-26.7098145909
31
0.0000000000
11
89.3541009127
21
-26.9025495394
31
0.0000000000
11
84.0092512763
21
-27.0310362998
31
0.0000000000
11
78.6636492893
21
-27.0952785658
31
0.0000000000
11
73.3175526980
21
-27.0952785594
31
0.0000000000
11
67.9719508907
21
-27.0310362838
31
0.0000000000
11
62.6271018643
21
-26.9025495310
31
0.0000000000
11
57.2835957038
21
-26.7098145748
31
0.0000000000
11
51.9419964857
21
-26.4528266989
31
0.0000000000
11
46.6028186932
21
-26.1315773459
31
0.0000000000
11
41.2665348094
21
-25.7460512852
31
0.0000000000
0
SPLINE
5
368
100
AcDbEntity
8
0
100
AcDbSpline
62
9
6
CONTINUOUS
70
0
71
3
72
20
73
16
74
14
42
0.0000001000
43
0.0000001000
44
0.0000000001
12
-67.8829255316
22
-5.2185355290
32
0.0000000000
13
-67.8829255340
23
5.2185354969
33
0.0000000000
40
0.0000000000
40
0.0000000000
40
0.0000000000
40
0.0000000000
40
0.0761546241
40
0.1532056677
40
0.2302359637
40
0.3071965133
40
0.3841306467
40
0.4610414981
40
0.5379457954
40
0.6148570949
40
0.6917891331
40
0.7687557584
40
0.8457705426
40
0.9228472965
40
1.0000000000
40
1.0000000000
40
1.0000000000
40
1.0000000000
10
109.9989579826
20
-24.3955107343
30
0.0000000000
10
108.2757584240
20
-24.5279826048
30
0.0000000000
10
104.8074916481
20
-24.7743254370
30
0.0000000000
10
99.5914561706
20
-25.0833961321
30
0.0000000000
10
94.3538571971
20
-25.3317120820
30
0.0000000000
10
89.1163427649
20
-25.5180163995
30
0.0000000000
10
83.8797011617
20
-25.6423222645
30
0.0000000000
10
78.6432323237
20
-25.7046725611
30
0.0000000000
10
73.4069104600
20
-25.7050803807
30
0.0000000000
10
68.1704693540
20
-25.6435458729
30
0.0000000000
10
62.9337079764
20
-25.5200532768
30
0.0000000000
10
57.6964262037
20
-25.3345717273
30
0.0000000000
10
52.4584196100
20
-25.0870547190
30
0.0000000000
10
47.2194937325
20
-24.7774417998
30
0.0000000000
10
43.7280288027
20
-24.5297187855
30
0.0000000000
10
41.9822450615
20
-24.3955107450
30
0.0000000000
11
109.9989579826
21
-24.3955107343
31
0.0000000000
11
104.8271339451
21
-24.7628331581
31
0.0000000000
11
99.5904349360
21
-25.0731115290
31
0.0000000000
11
94.3518479559
21
-25.3214606275
31
0.0000000000
11
89.1154374373
21
-25.5077155229
31
0.0000000000
11
83.8789889373
21
-25.6320099867
31
0.0000000000
11
78.6430217184
21
-25.6943509012
31
0.0000000000
11
73.4071296268
21
-25.6947586652
31
0.0000000000
11
68.1711222602
21
-25.6332326189
31
0.0000000000
11
62.9347970753
21
-25.5097570818
31
0.0000000000
11
57.6979442953
21
-25.3243008368
31
0.0000000000
11
52.4603735882
21
-25.0768180692
31
0.0000000000
11
47.2218792021
21
-24.7672473389
31
0.0000000000
11
41.9822450615
21
-24.3955107450
31
0.0000000000
0
SPLINE
5
369
100
AcDbEntity
8
0
100
AcDbSpline
62
9
6
CONTINUOUS
70
0
71
3
72
25
73
21
74
19
42
0.0000001000
43
0.0000001000
44
0.0000000001
12
1.4848134617
22
0.1145498055
32
0.0000000000
13
-0.0011187313
23
1.4892251081
33
0.0000000000
40
0.0000000000
40
0.0000000000
40
0.0000000000
40
0.0000000000
40
0.0554275902
40
0.1111412307
40
0.1669993587
40
0.2228599513
40
0.2785944190
40
0.3341882563
40
0.3897266365
40
0.4452640114
40
0.5007916164
40
0.5562961600
40
0.6117634457
40
0.6671832843
40
0.7226119738
40
0.7781433449
40
0.8337753917
40
0.8893885924
40
0.9448430480
40
1.0000000000
40
1.0000000000
40
1.0000000000
40
1.0000000000
10
110.8053248885
20
-25.8295261716
30
0.0000000000
10
110.8327580991
20
-25.8274097651
30
0.0000000000
10
110.8876186436
20
-25.8209056007
30
0.0000000000
10
110.9689468772
20
-25.8043811861
30
0.0000000000
10
111.0488411874
20
-25.7811200256
30
0.0000000000
10
111.1265364634
20
-25.7513012923
30
0.0000000000
10
111.2013677756
20
-25.7151878196
30
0.0000000000
10
111.2728047620
20
-25.6730686150
30
0.0000000000
10
111.3404204386
20
-25.6252233489
30
0.0000000000
10
111.4038045521
20
-25.5719496517
30
0.0000000000
10
111.4625298170
20
-25.5136040150
30
0.0000000000
10
111.5161777511
20
-25.4506039401
30
0.0000000000
10
111.5643706497
20
-25.3834051051
30
0.0000000000
10
111.6067935362
20
-25.3124665588
30
0.0000000000
10
111.6431918873
20
-25.2382210448
30
0.0000000000
10
111.6733323557
20
-25.1611087810
30
0.0000000000
10
111.6969785772
20
-25.0816684283
30
0.0000000000
10
111.7139261736
20
-25.0005724415
30
0.0000000000
10
111.7240594618
20
-24.9185909604
30
0.0000000000
10
111.7262774455
20
-24.8636539959
30
0.0000000000
10
111.7262568769
20
-24.8362736233
30
0.0000000000
11
110.8053248885
21
-25.8295261716
31
0.0000000000
11
110.8872946239
21
-25.8198048290
31
0.0000000000
11
110.9686032113
21
-25.8032832171
31
0.0000000000
11
111.0484715910
21
-25.7800271549
31
0.0000000000
11
111.1261365022
21
-25.7502181848
31
0.0000000000
11
111.2008872563
21
-25.7141415628
31
0.0000000000
11
111.2722049523
21
-25.6720908548
31
0.0000000000
11
111.3397200083
21
-25.6243150806
31
0.0000000000
11
111.4030336737
21
-25.5710991099
31
0.0000000000
11
111.4616952474
21
-25.5128155530
31
0.0000000000
11
111.5152854050
21
-25.4498824977
31
0.0000000000
11
111.5634254792
21
-25.3827569581
31
0.0000000000
11
111.6057852737
21
-25.3119241674
31
0.0000000000
11
111.6421216070
21
-25.2378061321
31
0.0000000000
11
111.6722283776
21
-25.1607823486
31
0.0000000000
11
111.6958651268
21
-25.0813770260
31
0.0000000000
11
111.7128088548
21
-25.0003081568
31
0.0000000000
11
111.7229402433
21
-24.9183477787
31
0.0000000000
11
111.7262568769
21
-24.8362736233
31
0.0000000000
0
SPLINE
5
36A
100
AcDbEntity
8
0
100
AcDbSpline
62
9
6
CONTINUOUS
70
0
71
3
72
16
73
12
74
10
42
0.0000001000
43
0.0000001000
44
0.0000000001
12
-0.0098184488
22
0.1641363409
32
0.0000000000
13
0.0833128427
23
0.1417606615
33
0.0000000000
40
0.0000000000
40
0.0000000000
40
0.0000000000
40
0.0000000000
40
0.0626274829
40
0.2563957740
40
0.4329698243
40
0.5895480705
40
0.7236523929
40
0.8331724630
40
0.9164123097
40
0.9721629442
40
1.0000000000
40
1.0000000000
40
1.0000000000
40
1.0000000000
10
110.8089545747
20
-25.9936872865
30
0.0000000000
10
110.8087496065
20
-25.9902608046
30
0.0000000000
10
110.8079229379
20
-25.9762321267
30
0.0000000000
10
110.8066177164
20
-25.9525371704
30
0.0000000000
10
110.8052292116
20
-25.9236884797
30
0.0000000000
10
110.8042242735
20
-25.8981016667
30
0.0000000000
10
110.8035892042
20
-25.8761631196
30
0.0000000000
10
110.8034025412
20
-25.8582801974
30
0.0000000000
10
110.8034559058
20
-25.8445788945
30
0.0000000000
10
110.8041558588
20
-25.8356068961
30
0.0000000000
10
110.8045518270
20
-25.8308415715
30
0.0000000000
10
110.8053248885
20
-25.8295261716
30
0.0000000000
11
110.8089545747
21
-25.9936872865
31
0.0000000000
11
110.8083489672
21
-25.9834073093
31
0.0000000000
11
110.8066043522
21
-25.9515938544
31
0.0000000000
11
110.8052218541
21
-25.9225927760
31
0.0000000000
11
110.8042234947
21
-25.8968660313
31
0.0000000000
11
110.8036251768
21
-25.8748234212
31
0.0000000000
11
110.8034364309
21
-25.8568160619
31
0.0000000000
11
110.8036602638
21
-25.8431307921
31
0.0000000000
11
110.8042931098
21
-25.8339856042
31
0.0000000000
11
110.8053248885
21
-25.8295261716
31
0.0000000000
0
SPLINE
5
36B
100
AcDbEntity
8
0
100
AcDbSpline
62
9
6
CONTINUOUS
70
0
71
3
72
9
73
5
74
3
42
0.0000001000
43
0.0000001000
44
0.0000000001
12
4.8127631832
22
-0.3776893622
32
0.0000000000
13
4.8165772930
23
-0.3254564375
33
0.0000000000
40
0.0000000000
40
0.0000000000
40
0.0000000000
40
0.0000000000
40
0.5000255876
40
1.0000000000
40
1.0000000000
40
1.0000000000
40
1.0000000000
10
41.1758781563
20
-25.8295262958
30
0.0000000000
10
41.9780464025
20
-25.8924777442
30
0.0000000000
10
43.5826452297
20
-26.0140230374
30
0.0000000000
10
45.1878797271
20
-26.1268629862
30
0.0000000000
10
45.9906015278
20
-26.1811029499
30
0.0000000000
11
41.1758781563
21
-25.8295262958
31
0.0000000000
11
43.5828862792
21
-26.0118526987
31
0.0000000000
11
45.9906015278
21
-26.1811029499
31
0.0000000000
0
SPLINE
5
36C
100
AcDbEntity
8
0
100
AcDbSpline
62
9
6
CONTINUOUS
70
0
71
3
72
16
73
12
74
10
42
0.0000001000
43
0.0000001000
44
0.0000000001
12
0.0098184373
22
0.1641362209
32
0.0000000000
13
-0.0833128180
23
0.1417605363
33
0.0000000000
40
0.0000000000
40
0.0000000000
40
0.0000000000
40
0.0000000000
40
0.0626272651
40
0.2563956133
40
0.4329697098
40
0.5895479929
40
0.7236523438
40
0.8331724350
40
0.9164122963
40
0.9721629399
40
1.0000000000
40
1.0000000000
40
1.0000000000
40
1.0000000000
10
41.1722484790
20
-25.9936872904
30
0.0000000000
10
41.1724534462
20
-25.9902608229
30
0.0000000000
10
41.1732801134
20
-25.9762321641
30
0.0000000000
10
41.1745853331
20
-25.9525372314
30
0.0000000000
10
41.1759738367
20
-25.9236885541
30
0.0000000000
10
41.1769787736
20
-25.8981017537
30
0.0000000000
10
41.1776138420
20
-25.8761632178
30
0.0000000000
10
41.1778005043
20
-25.8582803053
30
0.0000000000
10
41.1777471392
20
-25.8445790099
30
0.0000000000
10
41.1770471860
20
-25.8356070167
30
0.0000000000
10
41.1766512176
20
-25.8308416947
30
0.0000000000
10
41.1758781563
20
-25.8295262958
30
0.0000000000
11
41.1722484790
21
-25.9936872904
31
0.0000000000
11
41.1728540836
21
-25.9834073564
31
0.0000000000
11
41.1745986972
21
-25.9515939155
31
0.0000000000
11
41.1759811941
21
-25.9225928506
31
0.0000000000
11
41.1769795524
21
-25.8968661187
31
0.0000000000
11
41.1775778694
21
-25.8748235201
31
0.0000000000
11
41.1777666145
21
-25.8568161705
31
0.0000000000
11
41.1775427812
21
-25.8431309083
31
0.0000000000
11
41.1769099350
21
-25.8339857256
31
0.0000000000
11
41.1758781563
21
-25.8295262958
31
0.0000000000
0
SPLINE
5
36D
100
AcDbEntity
8
0
100
AcDbSpline
62
9
6
CONTINUOUS
70
0
71
3
72
9
73
5
74
3
42
0.0000001000
43
0.0000001000
44
0.0000000001
12
4.8165772930
22
0.3254564373
32
0.0000000000
13
4.8127631832
23
0.3776893631
33
0.0000000000
40
0.0000000000
40
0.0000000000
40
0.0000000000
40
0.0000000000
40
0.4999743857
40
1.0000000000
40
1.0000000000
40
1.0000000000
40
1.0000000000
10
105.9906015270
20
-26.1811029498
30
0.0000000000
10
106.7933232847
20
-26.1268629891
30
0.0000000000
10
108.3985577821
20
-26.0140230409
30
0.0000000000
10
110.0031566094
20
-25.8924777478
30
0.0000000000
10
110.8053248985
20
-25.8295262959
30
0.0000000000
11
105.9906015270
21
-26.1811029498
31
0.0000000000
11
108.3983166469
21
-26.0118527083
31
0.0000000000
11
110.8053248985
21
-25.8295262959
31
0.0000000000
0
SPLINE
5
36E
100
AcDbEntity
8
0
100
AcDbSpline
62
9
6
CONTINUOUS
70
0
71
3
72
19
73
15
74
13
42
0.0000001000
43
0.0000001000
44
0.0000000001
12
59.6010330447
22
-4.0064119540
32
0.0000000000
13
59.6010330448
23
4.0064119532
33
0.0000000000
40
0.0000000000
40
0.0000000000
40
0.0000000000
40
0.0000000000
40
0.0833640761
40
0.1667114662
40
0.2500457741
40
0.3333702222
40
0.4166865790
40
0.5000000007
40
0.5833134243
40
0.6666297831
40
0.7499542310
40
0.8332885395
40
0.9166359261
40
1.0000000000
40
1.0000000000
40
1.0000000000
40
1.0000000000
10
46.1450978304
20
-26.1915152752
30
0.0000000000
10
47.8012928494
20
-26.3028455522
30
0.0000000000
10
51.1146270853
20
-26.5069533457
30
0.0000000000
10
56.0872928442
20
-26.7574619576
30
0.0000000000
10
61.0616678839
20
-26.9522932865
30
0.0000000000
10
66.0372916074
20
-27.0914525315
30
0.0000000000
10
71.0137451571
20
-27.1749457256
30
0.0000000000
10
75.9906016084
20
-27.2027763935
30
0.0000000000
10
80.9674580986
20
-27.1749457240
30
0.0000000000
10
85.9439117195
20
-27.0914525252
30
0.0000000000
10
90.9195354909
20
-26.9522932760
30
0.0000000000
10
95.8939104693
20
-26.7574619455
30
0.0000000000
10
100.8665761271
20
-26.5069533361
30
0.0000000000
10
104.1799102490
20
-26.3028455492
30
0.0000000000
10
105.8361052243
20
-26.1915152751
30
0.0000000000
11
46.1450978304
21
-26.1915152752
31
0.0000000000
11
51.1154738997
21
-26.4976999830
31
0.0000000000
11
56.0879693312
21
-26.7482000697
31
0.0000000000
11
61.0621751426
21
-26.9430247398
31
0.0000000000
11
66.0376602772
21
-27.0821801387
31
0.0000000000
11
71.0139073302
21
-27.1656698509
31
0.0000000000
11
75.9906015719
21
-27.1934996129
31
0.0000000000
11
80.9672959231
21
-27.1656698488
31
0.0000000000
11
85.9435430925
21
-27.0821801314
31
0.0000000000
11
90.9190282152
21
-26.9430247296
31
0.0000000000
11
95.8932340657
21
-26.7482000543
31
0.0000000000
11
100.8657292863
21
-26.4976999755
31
0.0000000000
11
105.8361052243
21
-26.1915152751
31
0.0000000000
0
SPLINE
5
36F
100
AcDbEntity
8
0
100
AcDbSpline
62
9
6
CONTINUOUS
70
0
71
3
72
25
73
21
74
19
42
0.0000001000
43
0.0000001000
44
0.0000000001
12
-0.0011181238
22
-1.4892251084
32
0.0000000000
13
1.4848135138
23
-0.1145491292
33
0.0000000000
40
0.0000000000
40
0.0000000000
40
0.0000000000
40
0.0000000000
40
0.0551254919
40
0.1105584763
40
0.1661615574
40
0.2217956908
40
0.2773343391
40
0.3327663610
40
0.3881845101
40
0.4436494038
40
0.4991531713
40
0.5546817734
40
0.6102216590
40
0.6657618884
40
0.7213527825
40
0.7770804243
40
0.8329390741
40
0.8888071016
40
0.9445417066
40
1.0000000000
40
1.0000000000
40
1.0000000000
40
1.0000000000
10
40.2549461128
20
-24.8362736233
30
0.0000000000
10
40.2549255671
20
-24.8636383789
30
0.0000000000
10
40.2571412747
20
-24.9185490150
30
0.0000000000
10
40.2672654494
20
-25.0004999811
30
0.0000000000
10
40.2842030485
20
-25.0815830413
30
0.0000000000
10
40.3078417596
20
-25.1610252445
30
0.0000000000
10
40.3379779154
20
-25.2381459978
30
0.0000000000
10
40.3743724250
20
-25.3123983443
30
0.0000000000
10
40.4167896695
20
-25.3833398230
30
0.0000000000
10
40.4649757895
20
-25.4505405377
30
0.0000000000
10
40.5186178438
20
-25.5135441988
30
0.0000000000
10
40.5773392906
20
-25.5718956093
30
0.0000000000
10
40.6407212240
20
-25.6251760518
30
0.0000000000
10
40.7083338474
20
-25.6730268635
30
0.0000000000
10
40.7797642029
20
-25.7151495459
30
0.0000000000
10
40.8545872252
20
-25.7512667451
30
0.0000000000
10
40.9322803186
20
-25.7810927147
30
0.0000000000
10
41.0121865157
20
-25.8043645861
30
0.0000000000
10
41.0935437694
20
-25.8209001695
30
0.0000000000
10
41.1484297636
20
-25.8274085417
30
0.0000000000
10
41.1758781714
20
-25.8295261081
30
0.0000000000
11
40.2549461128
21
-24.8362736233
31
0.0000000000
11
40.2582589814
21
-24.9183010414
31
0.0000000000
11
40.2683812453
21
-25.0002303284
31
0.0000000000
11
40.2853148671
21
-25.0812859135
31
0.0000000000
11
40.3089451188
21
-25.1606964121
31
0.0000000000
11
40.3390492152
21
-25.2377328762
31
0.0000000000
11
40.3753819483
21
-25.3118582035
31
0.0000000000
11
40.4177350111
21
-25.3826920878
31
0.0000000000
11
40.4658676492
21
-25.4498185764
31
0.0000000000
11
40.5194518845
21
-25.5127551565
31
0.0000000000
11
40.5781097331
21
-25.5710445690
31
0.0000000000
11
40.6414220404
21
-25.6242679660
31
0.0000000000
11
40.7089357152
21
-25.6720504592
31
0.0000000000
11
40.7802464103
21
-25.7141044107
31
0.0000000000
11
40.8549849847
21
-25.7501828813
31
0.0000000000
11
40.9326445011
21
-25.7799978317
31
0.0000000000
11
41.0125250799
21
-25.8032647303
31
0.0000000000
11
41.0938632454
21
-25.8197975663
31
0.0000000000
11
41.1758781714
21
-25.8295261081
31
0.0000000000
0
SPLINE
5
370
100
AcDbEntity
8
0
100
AcDbSpline
62
9
6
CONTINUOUS
70
0
71
3
72
25
73
21
74
19
42
0.0000001000
43
0.0000001000
44
0.0000000001
12
-1.4848134617
22
-0.1145498055
32
0.0000000000
13
0.0011187313
23
-1.4892251081
33
0.0000000000
40
0.0000000000
40
0.0000000000
40
0.0000000000
40
0.0000000000
40
0.0554275902
40
0.1111412307
40
0.1669993587
40
0.2228599513
40
0.2785944190
40
0.3341882563
40
0.3897266365
40
0.4452640114
40
0.5007916164
40
0.5562961600
40
0.6117634457
40
0.6671832843
40
0.7226119738
40
0.7781433449
40
0.8337753917
40
0.8893885924
40
0.9448430480
40
1.0000000000
40
1.0000000000
40
1.0000000000
40
1.0000000000
10
41.1758781663
20
25.8127278894
30
0.0000000000
10
41.1484449556
20
25.8106114829
30
0.0000000000
10
41.0935844112
20
25.8041073185
30
0.0000000000
10
41.0122561775
20
25.7875829039
30
0.0000000000
10
40.9323618673
20
25.7643217433
30
0.0000000000
10
40.8546665914
20
25.7345030101
30
0.0000000000
10
40.7798352791
20
25.6983895374
30
0.0000000000
10
40.7083982927
20
25.6562703328
30
0.0000000000
10
40.6407826161
20
25.6084250667
30
0.0000000000
10
40.5773985026
20
25.5551513695
30
0.0000000000
10
40.5186732377
20
25.4968057328
30
0.0000000000
10
40.4650253036
20
25.4338056579
30
0.0000000000
10
40.4168324051
20
25.3666068229
30
0.0000000000
10
40.3744095186
20
25.2956682766
30
0.0000000000
10
40.3380111674
20
25.2214227626
30
0.0000000000
10
40.3078706990
20
25.1443104988
30
0.0000000000
10
40.2842244775
20
25.0648701461
30
0.0000000000
10
40.2672768811
20
24.9837741593
30
0.0000000000
10
40.2571435929
20
24.9017926782
30
0.0000000000
10
40.2549256092
20
24.8468557137
30
0.0000000000
10
40.2549461778
20
24.8194753411
30
0.0000000000
11
41.1758781663
21
25.8127278894
31
0.0000000000
11
41.0939084309
21
25.8030065468
31
0.0000000000
11
41.0125998434
21
25.7864849349
31
0.0000000000
11
40.9327314637
21
25.7632288726
31
0.0000000000
11
40.8550665525
21
25.7334199026
31
0.0000000000
11
40.7803157985
21
25.6973432806
31
0.0000000000
11
40.7089981024
21
25.6552925726
31
0.0000000000
11
40.6414830465
21
25.6075167984
31
0.0000000000
11
40.5781693811
21
25.5543008277
31
0.0000000000
11
40.5195078073
21
25.4960172708
31
0.0000000000
11
40.4659176498
21
25.4330842155
31
0.0000000000
11
40.4177775755
21
25.3659586759
31
0.0000000000
11
40.3754177810
21
25.2951258852
31
0.0000000000
11
40.3390814478
21
25.2210078499
31
0.0000000000
11
40.3089746771
21
25.1439840664
31
0.0000000000
11
40.2853379279
21
25.0645787438
31
0.0000000000
11
40.2683942000
21
24.9835098746
31
0.0000000000
11
40.2582628114
21
24.9015494965
31
0.0000000000
11
40.2549461778
21
24.8194753411
31
0.0000000000
0
SPLINE
5
371
100
AcDbEntity
8
0
100
AcDbSpline
62
9
6
CONTINUOUS
70
0
71
3
72
16
73
12
74
10
42
0.0000001000
43
0.0000001000
44
0.0000000001
12
0.0098184489
22
-0.1641363419
32
0.0000000000
13
-0.0833128433
23
-0.1417606624
33
0.0000000000
40
0.0000000000
40
0.0000000000
40
0.0000000000
40
0.0000000000
40
0.0626274889
40
0.2563957788
40
0.4329698279
40
0.5895480731
40
0.7236523947
40
0.8331724641
40
0.9164123102
40
0.9721629444
40
1.0000000000
40
1.0000000000
40
1.0000000000
40
1.0000000000
10
41.1722484800
20
25.9768890054
30
0.0000000000
10
41.1724534482
20
25.9734625231
30
0.0000000000
10
41.1732801168
20
25.9594338449
30
0.0000000000
10
41.1745853384
20
25.9357388882
30
0.0000000000
10
41.1759738432
20
25.9068901975
30
0.0000000000
10
41.1769787812
20
25.8813033845
30
0.0000000000
10
41.1776138505
20
25.8593648373
30
0.0000000000
10
41.1778005135
20
25.8414819152
30
0.0000000000
10
41.1777471490
20
25.8277806123
30
0.0000000000
10
41.1770471959
20
25.8188086138
30
0.0000000000
10
41.1766512277
20
25.8140432893
30
0.0000000000
10
41.1758781663
20
25.8127278894
30
0.0000000000
11
41.1722484800
21
25.9768890054
31
0.0000000000
11
41.1728540875
21
25.9666090271
31
0.0000000000
11
41.1745987025
21
25.9347955722
31
0.0000000000
11
41.1759812006
21
25.9057944938
31
0.0000000000
11
41.1769795600
21
25.8800677491
31
0.0000000000
11
41.1775778780
21
25.8580251390
31
0.0000000000
11
41.1777666238
21
25.8400177797
31
0.0000000000
11
41.1775427910
21
25.8263325099
31
0.0000000000
11
41.1769099449
21
25.8171873220
31
0.0000000000
11
41.1758781663
21
25.8127278894
31
0.0000000000
0
SPLINE
5
372
100
AcDbEntity
8
0
100
AcDbSpline
62
9
6
CONTINUOUS
70
0
71
3
72
19
73
15
74
13
42
0.0000001000
43
0.0000001000
44
0.0000000001
12
-59.6010330447
22
4.0064119540
32
0.0000000000
13
-59.6010330448
23
-4.0064119532
33
0.0000000000
40
0.0000000000
40
0.0000000000
40
0.0000000000
40
0.0000000000
40
0.0833640755
40
0.1667114647
40
0.2500457728
40
0.3333702206
40
0.4166865780
40
0.5000000003
40
0.5833134233
40
0.6666297816
40
0.7499542297
40
0.8332885380
40
0.9166359254
40
1.0000000000
40
1.0000000000
40
1.0000000000
40
1.0000000000
10
105.8361052244
20
26.1747169930
30
0.0000000000
10
104.1799102191
20
26.2860472691
30
0.0000000000
10
100.8665760129
20
26.4901550609
30
0.0000000000
10
95.8939102794
20
26.7406636722
30
0.0000000000
10
90.9195352564
20
26.9354950014
30
0.0000000000
10
85.9439115237
20
27.0746542477
30
0.0000000000
10
80.9674579581
20
27.1581474429
30
0.0000000000
10
75.9906014969
20
27.1859781113
30
0.0000000000
10
71.0137450167
20
27.1581474424
30
0.0000000000
10
66.0372914117
20
27.0746542447
30
0.0000000000
10
61.0616676494
20
26.9354949967
30
0.0000000000
10
56.0872926544
20
26.7406636664
30
0.0000000000
10
51.1146269711
20
26.4901550565
30
0.0000000000
10
47.8012928195
20
26.2860472679
30
0.0000000000
10
46.1450978304
20
26.1747169929
30
0.0000000000
11
105.8361052244
21
26.1747169930
31
0.0000000000
11
100.8657291964
21
26.4809016985
31
0.0000000000
11
95.8932338127
21
26.7314017835
31
0.0000000000
11
90.9190279885
21
26.9262264550
31
0.0000000000
11
85.9435428688
21
27.0653818544
31
0.0000000000
11
80.9672957862
21
27.1488715680
31
0.0000000000
11
75.9906015112
21
27.1767013307
31
0.0000000000
11
71.0139071933
21
27.1488715673
31
0.0000000000
11
66.0376600536
21
27.0653818513
31
0.0000000000
11
61.0621749159
21
26.9262264500
31
0.0000000000
11
56.0879690782
21
26.7314017761
31
0.0000000000
11
51.1154738098
21
26.4809016956
31
0.0000000000
11
46.1450978304
21
26.1747169929
31
0.0000000000
0
SPLINE
5
373
100
AcDbEntity
8
0
100
AcDbSpline
62
9
6
CONTINUOUS
70
0
71
3
72
9
73
5
74
3
42
0.0000001000
43
0.0000001000
44
0.0000000001
12
-4.8127631832
22
0.3776893622
32
0.0000000000
13
-4.8165772930
23
0.3254564375
33
0.0000000000
40
0.0000000000
40
0.0000000000
40
0.0000000000
40
0.0000000000
40
0.5000255961
40
1.0000000000
40
1.0000000000
40
1.0000000000
40
1.0000000000
10
110.8053248984
20
25.8127280136
30
0.0000000000
10
110.0031566386
20
25.8756794631
30
0.0000000000
10
108.3985578114
20
25.9972247562
30
0.0000000000
10
106.7933233140
20
26.1100647049
30
0.0000000000
10
105.9906015270
20
26.1643046677
30
0.0000000000
11
110.8053248984
21
25.8127280136
31
0.0000000000
11
108.3983167348
21
25.9950544194
31
0.0000000000
11
105.9906015270
21
26.1643046677
31
0.0000000000
0
SPLINE
5
374
100
AcDbEntity
8
0
100
AcDbSpline
62
9
6
CONTINUOUS
70
0
71
3
72
16
73
12
74
10
42
0.0000001000
43
0.0000001000
44
0.0000000001
12
-0.0098184373
22
-0.1641362209
32
0.0000000000
13
0.0833128180
23
-0.1417605364
33
0.0000000000
40
0.0000000000
40
0.0000000000
40
0.0000000000
40
0.0000000000
40
0.0626272651
40
0.2563956133
40
0.4329697098
40
0.5895479929
40
0.7236523438
40
0.8331724350
40
0.9164122963
40
0.9721629399
40
1.0000000000
40
1.0000000000
40
1.0000000000
40
1.0000000000
10
110.8089545758
20
25.9768890082
30
0.0000000000
10
110.8087496085
20
25.9734625407
30
0.0000000000
10
110.8079229414
20
25.9594338819
30
0.0000000000
10
110.8066177216
20
25.9357389492
30
0.0000000000
10
110.8052292181
20
25.9068902719
30
0.0000000000
10
110.8042242811
20
25.8813034715
30
0.0000000000
10
110.8035892127
20
25.8593649356
30
0.0000000000
10
110.8034025504
20
25.8414820231
30
0.0000000000
10
110.8034559155
20
25.8277807277
30
0.0000000000
10
110.8041558687
20
25.8188087345
30
0.0000000000
10
110.8045518371
20
25.8140434125
30
0.0000000000
10
110.8053248984
20
25.8127280136
30
0.0000000000
11
110.8089545758
21
25.9768890082
31
0.0000000000
11
110.8083489711
21
25.9666090742
31
0.0000000000
11
110.8066043575
21
25.9347956333
31
0.0000000000
11
110.8052218606
21
25.9057945684
31
0.0000000000
11
110.8042235023
21
25.8800678365
31
0.0000000000
11
110.8036251853
21
25.8580252379
31
0.0000000000
11
110.8034364402
21
25.8400178882
31
0.0000000000
11
110.8036602735
21
25.8263326261
31
0.0000000000
11
110.8042931198
21
25.8171874434
31
0.0000000000
11
110.8053248984
21
25.8127280136
31
0.0000000000
0
SPLINE
5
375
100
AcDbEntity
8
0
100
AcDbSpline
62
9
6
CONTINUOUS
70
0
71
3
72
9
73
5
74
3
42
0.0000001000
43
0.0000001000
44
0.0000000001
12
-4.8165772930
22
-0.3254564373
32
0.0000000000
13
-4.8127631832
23
-0.3776893631
33
0.0000000000
40
0.0000000000
40
0.0000000000
40
0.0000000000
40
0.0000000000
40
0.4999743942
40
1.0000000000
40
1.0000000000
40
1.0000000000
40
1.0000000000
10
45.9906015278
20
26.1643046676
30
0.0000000000
10
45.1878797564
20
26.1100647059
30
0.0000000000
10
43.5826452590
20
25.9972247577
30
0.0000000000
10
41.9780464317
20
25.8756794646
30
0.0000000000
10
41.1758781563
20
25.8127280137
30
0.0000000000
11
45.9906015278
21
26.1643046676
31
0.0000000000
11
43.5828863670
21
25.9950544231
31
0.0000000000
11
41.1758781563
21
25.8127280137
31
0.0000000000
0
SPLINE
5
376
100
AcDbEntity
8
0
100
AcDbSpline
62
9
6
CONTINUOUS
70
0
71
3
72
25
73
21
74
19
42
0.0000001000
43
0.0000001000
44
0.0000000001
12
0.0011187293
22
1.4892251081
32
0.0000000000
13
-1.4848134616
23
0.1145498070
33
0.0000000000
40
0.0000000000
40
0.0000000000
40
0.0000000000
40
0.0000000000
40
0.0551569572
40
0.1106114115
40
0.1662246125
40
0.2218566591
40
0.2773880302
40
0.3328167196
40
0.3882365582
40
0.4437038439
40
0.4992083874
40
0.5547359923
40
0.6102733672
40
0.6658117473
40
0.7214055846
40
0.7771400522
40
0.8330006448
40
0.8888587726
40
0.9445724140
40
1.0000000000
40
1.0000000000
40
1.0000000000
40
1.0000000000
10
111.7262568771
20
24.8194753411
30
0.0000000000
10
111.7262774457
20
24.8468557163
30
0.0000000000
10
111.7240594616
20
24.9017926828
30
0.0000000000
10
111.7139261724
20
24.9837741658
30
0.0000000000
10
111.6969785758
20
25.0648701520
30
0.0000000000
10
111.6733323537
20
25.1443105045
30
0.0000000000
10
111.6431918849
20
25.2214227680
30
0.0000000000
10
111.6067935334
20
25.2956682818
30
0.0000000000
10
111.5643706465
20
25.3666068277
30
0.0000000000
10
111.5161777476
20
25.4338056624
30
0.0000000000
10
111.4625298132
20
25.4968057369
30
0.0000000000
10
111.4038045480
20
25.5551513733
30
0.0000000000
10
111.3404204343
20
25.6084250701
30
0.0000000000
10
111.2728047574
20
25.6562703357
30
0.0000000000
10
111.2013677709
20
25.6983895399
30
0.0000000000
10
111.1265364585
20
25.7345030122
30
0.0000000000
10
111.0488411825
20
25.7643217449
30
0.0000000000
10
110.9689468720
20
25.7875829052
30
0.0000000000
10
110.8876186399
20
25.8041073190
30
0.0000000000
10
110.8327580970
20
25.8106114828
30
0.0000000000
10
110.8053248884
20
25.8127278892
30
0.0000000000
11
111.7262568771
21
24.8194753411
31
0.0000000000
11
111.7229402428
21
24.9015495043
31
0.0000000000
11
111.7128088538
21
24.9835098803
31
0.0000000000
11
111.6958651253
21
25.0645787498
31
0.0000000000
11
111.6722283756
21
25.1439840721
31
0.0000000000
11
111.6421216046
21
25.2210078553
31
0.0000000000
11
111.6057852709
21
25.2951258904
31
0.0000000000
11
111.5634254761
21
25.3659586807
31
0.0000000000
11
111.5152854014
21
25.4330842200
31
0.0000000000
11
111.4616952436
21
25.4960172749
31
0.0000000000
11
111.4030336696
21
25.5543008315
31
0.0000000000
11
111.3397200039
21
25.6075168017
31
0.0000000000
11
111.2722049477
21
25.6552925755
31
0.0000000000
11
111.2008872515
21
25.6973432831
31
0.0000000000
11
111.1261364974
21
25.7334199046
31
0.0000000000
11
111.0484715860
21
25.7632288743
31
0.0000000000
11
110.9686032066
21
25.7864849360
31
0.0000000000
11
110.8872946177
21
25.8030065477
31
0.0000000000
11
110.8053248884
21
25.8127278892
31
0.0000000000
0
SPLINE
5
377
100
AcDbEntity
8
0
100
AcDbSpline
62
0
6
CONTINUOUS
70
0
71
3
72
11
73
7
74
5
42
0.0000001000
43
0.0000001000
44
0.0000000001
12
116.0050056519
22
-0.0000156646
32
0.0000000000
13
116.0050056519
23
0.0000156646
33
0.0000000000
40
0.0000000000
40
0.0000000000
40
0.0000000000
40
0.0000000000
40
0.2498820673
40
0.5000000000
40
0.7501179327
40
1.0000000000
40
1.0000000000
40
1.0000000000
40
1.0000000000
10
17.9880987014
20
42.3916007287
30
0.0000000000
10
27.6506222463
20
42.3915994239
30
0.0000000000
10
46.9847898550
20
42.3915791053
30
0.0000000000
10
75.9906015274
20
42.3915616447
30
0.0000000000
10
104.9964131997
20
42.3915791053
30
0.0000000000
10
124.3305808084
20
42.3915994239
30
0.0000000000
10
133.9931043533
20
42.3916007287
30
0.0000000000
11
17.9880987014
21
42.3916007287
31
0.0000000000
11
46.9756693362
21
42.3915812828
31
0.0000000000
11
75.9906015274
21
42.3915674667
31
0.0000000000
11
105.0055337185
21
42.3915812828
31
0.0000000000
11
133.9931043533
21
42.3916007287
31
0.0000000000
0
SPLINE
5
378
100
AcDbEntity
8
0
100
AcDbSpline
62
0
6
CONTINUOUS
70
0
71
3
72
11
73
7
74
5
42
0.0000001000
43
0.0000001000
44
0.0000000001
12
116.0050056519
22
0.0000156646
32
0.0000000000
13
116.0050056519
23
-0.0000156646
33
0.0000000000
40
0.0000000000
40
0.0000000000
40
0.0000000000
40
0.0000000000
40
0.2498820675
40
0.5000000003
40
0.7501179331
40
1.0000000000
40
1.0000000000
40
1.0000000000
40
1.0000000000
10
17.9880987014
20
-42.4083990109
30
0.0000000000
10
27.6506222517
20
-42.4083977061
30
0.0000000000
10
46.9847898712
20
-42.4083773875
30
0.0000000000
10
75.9906015597
20
-42.4083599269
30
0.0000000000
10
104.9964132267
20
-42.4083773875
30
0.0000000000
10
124.3305808246
20
-42.4083977061
30
0.0000000000
10
133.9931043533
20
-42.4083990109
30
0.0000000000
11
17.9880987014
21
-42.4083990109
31
0.0000000000
11
46.9756693524
21
-42.4083795650
31
0.0000000000
11
75.9906015598
21
-42.4083657489
31
0.0000000000
11
105.0055337671
21
-42.4083795650
31
0.0000000000
11
133.9931043533
21
-42.4083990109
31
0.0000000000
0
SPLINE
5
379
100
AcDbEntity
8
0
100
AcDbSpline
62
0
6
CONTINUOUS
70
0
71
3
72
12
73
8
74
6
42
0.0000001000
43
0.0000001000
44
0.0000000001
12
0.0000000000
22
-1.6322975514
32
0.0000000000
13
1.6272727687
23
-0.1279790317
33
0.0000000000
40
0.0000000000
40
0.0000000000
40
0.0000000000
40
0.0000000000
40
0.2001447370
40
0.4008484906
40
0.6002762750
40
0.8009709486
40
1.0000000000
40
1.0000000000
40
1.0000000000
40
1.0000000000
10
40.0906015274
20
-24.8927626275
30
0.0000000000
10
40.0906015274
20
-25.0016612155
30
0.0000000000
10
40.1232684211
20
-25.2211420218
30
0.0000000000
10
40.2662789319
20
-25.5199906597
30
0.0000000000
10
40.4912164175
20
-25.7640018548
30
0.0000000000
10
40.7771190564
20
-25.9302826760
30
0.0000000000
10
40.9927485604
20
-25.9800419920
30
0.0000000000
10
41.1007067456
20
-25.9885325071
30
0.0000000000
11
40.0906015274
21
-24.8927626275
31
0.0000000000
11
40.1388870109
21
-25.2158704027
31
0.0000000000
11
40.2802883032
21
-25.5113916999
31
0.0000000000
11
40.5009601441
21
-25.7507048409
31
0.0000000000
11
40.7841882355
21
-25.9153234908
31
0.0000000000
11
41.1007067456
21
-25.9885325071
31
0.0000000000
0
SPLINE
5
37A
100
AcDbEntity
8
0
100
AcDbSpline
62
0
6
CONTINUOUS
70
0
71
3
72
12
73
8
74
6
42
0.0000001000
43
0.0000001000
44
0.0000000001
12
1.6272727563
22
0.1279790298
32
0.0000000000
13
0.0000000000
23
1.6322975389
33
0.0000000000
40
0.0000000000
40
0.0000000000
40
0.0000000000
40
0.0000000000
40
0.1991948170
40
0.3994338222
40
0.5988518470
40
0.8000157587
40
1.0000000000
40
1.0000000000
40
1.0000000000
40
1.0000000000
10
110.8804963348
20
-25.9885325013
30
0.0000000000
10
110.9885444344
20
-25.9800349148
30
0.0000000000
10
111.2040199786
20
-25.9302816778
30
0.0000000000
10
111.4897714973
20
-25.7641234977
30
0.0000000000
10
111.7148173958
20
-25.5202169333
30
0.0000000000
10
111.8579388947
20
-25.2212140374
30
0.0000000000
10
111.8906015274
20
-25.0015738892
30
0.0000000000
10
111.8906015274
20
-24.8927626276
30
0.0000000000
11
110.8804963348
21
-25.9885325013
31
0.0000000000
11
111.1972693025
21
-25.9152229238
31
0.0000000000
11
111.4798697156
21
-25.7510045000
31
0.0000000000
11
111.7006370036
21
-25.5118010879
31
0.0000000000
11
111.8423935073
21
-25.2156170882
31
0.0000000000
11
111.8906015274
21
-24.8927626276
31
0.0000000000
0
SPLINE
5
37B
100
AcDbEntity
8
0
100
AcDbSpline
62
0
6
CONTINUOUS
70
0
71
3
72
12
73
8
74
6
42
0.0000001000
43
0.0000001000
44
0.0000000001
12
0.0000000000
22
1.6322975514
32
0.0000000000
13
-1.6272727687
23
0.1279790317
33
0.0000000000
40
0.0000000000
40
0.0000000000
40
0.0000000000
40
0.0000000000
40
0.2001465589
40
0.4008511120
40
0.6002771414
40
0.8009714191
40
1.0000000000
40
1.0000000000
40
1.0000000000
40
1.0000000000
10
111.8906015274
20
24.8759643453
30
0.0000000000
10
111.8906015274
20
24.9848639246
30
0.0000000000
10
111.8579341141
20
25.2043461935
30
0.0000000000
10
111.7149223710
20
25.5031948211
30
0.0000000000
10
111.4899848185
20
25.7472048003
30
0.0000000000
10
111.2040832744
20
25.9134846036
30
0.0000000000
10
110.9884542391
20
25.9632437299
30
0.0000000000
10
110.8804963091
20
25.9717342249
30
0.0000000000
11
111.8906015274
21
24.8759643453
31
0.0000000000
11
111.8423151641
21
25.1990749959
31
0.0000000000
11
111.7009123231
21
25.4945969987
31
0.0000000000
11
111.4802417957
21
25.7339074544
31
0.0000000000
11
111.1970140971
21
25.8985254938
31
0.0000000000
11
110.8804963091
21
25.9717342249
31
0.0000000000
0
SPLINE
5
37C
100
AcDbEntity
8
0
100
AcDbSpline
62
0
6
CONTINUOUS
70
0
71
3
72
12
73
8
74
6
42
0.0000001000
43
0.0000001000
44
0.0000000001
12
-1.6272727631
22
-0.1279790304
32
0.0000000000
13
0.0000000000
23
-1.6322975457
33
0.0000000000
40
0.0000000000
40
0.0000000000
40
0.0000000000
40
0.0000000000
40
0.1991948203
40
0.3994338247
40
0.5988518486
40
0.8000157595
40
1.0000000000
40
1.0000000000
40
1.0000000000
40
1.0000000000
10
41.1007067266
20
25.9717342206
30
0.0000000000
10
40.9926586247
20
25.9632366340
30
0.0000000000
10
40.7771830782
20
25.9134833966
30
0.0000000000
10
40.4914315574
20
25.7473252156
30
0.0000000000
10
40.2663856589
20
25.5034186511
30
0.0000000000
10
40.1232641600
20
25.2044157552
30
0.0000000000
10
40.0906015274
20
24.9847756070
30
0.0000000000
10
40.0906015274
20
24.8759643454
30
0.0000000000
11
41.1007067266
21
25.9717342206
31
0.0000000000
11
40.7839337522
21
25.8984246416
31
0.0000000000
11
40.5013333391
21
25.7342062178
31
0.0000000000
11
40.2805660511
21
25.4950028057
31
0.0000000000
11
40.1388095474
21
25.1988188059
31
0.0000000000
11
40.0906015274
21
24.8759643454
31
0.0000000000
0
SPLINE
5
37D
100
AcDbEntity
8
0
100
AcDbSpline
62
0
6
CONTINUOUS
70
0
71
3
72
13
73
9
74
7
42
0.0000001000
43
0.0000001000
44
0.0000000001
12
0.0000000000
22
2.9679311262
32
0.0000000000
13
2.9679311262
23
-0.0000004007
33
0.0000000000
40
0.0000000000
40
0.0000000000
40
0.0000000000
40
0.0000000000
40
0.1643021712
40
0.3329076086
40
0.4991615708
40
0.6654392660
40
0.8344453914
40
1.0000000000
40
1.0000000000
40
1.0000000000
40
1.0000000000
10
16.0906015274
20
40.5004100614
30
0.0000000000
10
16.0906015274
20
40.6629559041
30
0.0000000000
10
16.1334133535
20
40.9938661680
30
0.0000000000
10
16.3239955088
20
41.4555569933
30
0.0000000000
10
16.6296971848
20
41.8531482031
30
0.0000000000
10
17.0283166088
20
42.1581180074
30
0.0000000000
10
17.4917617139
20
42.3486849720
30
0.0000000000
10
17.8243138094
20
42.3916007508
30
0.0000000000
10
17.9880987014
20
42.3916007287
30
0.0000000000
11
16.0906015274
21
40.5004100614
31
0.0000000000
11
16.1533921248
21
40.9839880796
31
0.0000000000
11
16.3442672646
21
41.4465636672
31
0.0000000000
11
16.6450416771
21
41.8377263224
31
0.0000000000
11
17.0369130369
21
42.1376926954
31
0.0000000000
11
17.5008171709
21
42.3284649409
31
0.0000000000
11
17.9880987014
21
42.3916007287
31
0.0000000000
0
SPLINE
5
37E
100
AcDbEntity
8
0
100
AcDbSpline
62
0
6
CONTINUOUS
70
0
71
3
72
13
73
9
74
7
42
0.0000001000
43
0.0000001000
44
0.0000000001
12
-2.9679311262
22
-0.0000004007
32
0.0000000000
13
0.0000000000
23
2.9679311262
33
0.0000000000
40
0.0000000000
40
0.0000000000
40
0.0000000000
40
0.0000000000
40
0.1655546086
40
0.3345607340
40
0.5008384292
40
0.6670923914
40
0.8356978288
40
1.0000000000
40
1.0000000000
40
1.0000000000
40
1.0000000000
10
17.9880987014
20
-42.4083990109
30
0.0000000000
10
17.8243138094
20
-42.4083990330
30
0.0000000000
10
17.4917617139
20
-42.3654832542
30
0.0000000000
10
17.0283166088
20
-42.1749162897
30
0.0000000000
10
16.6296971848
20
-41.8699464853
30
0.0000000000
10
16.3239955088
20
-41.4723552755
30
0.0000000000
10
16.1334133535
20
-41.0106644502
30
0.0000000000
10
16.0906015274
20
-40.6797541863
30
0.0000000000
10
16.0906015274
20
-40.5172083436
30
0.0000000000
11
17.9880987014
21
-42.4083990109
31
0.0000000000
11
17.5008171709
21
-42.3452632231
31
0.0000000000
11
17.0369130369
21
-42.1544909776
31
0.0000000000
11
16.6450416771
21
-41.8545246046
31
0.0000000000
11
16.3442672646
21
-41.4633619494
31
0.0000000000
11
16.1533921248
21
-41.0007863618
31
0.0000000000
11
16.0906015274
21
-40.5172083436
31
0.0000000000
0
SPLINE
5
37F
100
AcDbEntity
8
0
100
AcDbSpline
62
0
6
CONTINUOUS
70
0
71
3
72
13
73
9
74
7
42
0.0000001000
43
0.0000001000
44
0.0000000001
12
2.9679311262
22
0.0000004007
32
0.0000000000
13
0.0000000000
23
-2.9679311262
33
0.0000000000
40
0.0000000000
40
0.0000000000
40
0.0000000000
40
0.0000000000
40
0.1655546086
40
0.3345607340
40
0.5008384292
40
0.6670923914
40
0.8356978288
40
1.0000000000
40
1.0000000000
40
1.0000000000
40
1.0000000000
10
133.9931043533
20
42.3916007287
30
0.0000000000
10
134.1568892453
20
42.3916007508
30
0.0000000000
10
134.4894413409
20
42.3486849720
30
0.0000000000
10
134.9528864459
20
42.1581180074
30
0.0000000000
10
135.3515058700
20
41.8531482031
30
0.0000000000
10
135.6572075459
20
41.4555569933
30
0.0000000000
10
135.8477897012
20
40.9938661680
30
0.0000000000
10
135.8906015274
20
40.6629559041
30
0.0000000000
10
135.8906015274
20
40.5004100614
30
0.0000000000
11
133.9931043533
21
42.3916007287
31
0.0000000000
11
134.4803858838
21
42.3284649409
31
0.0000000000
11
134.9442900179
21
42.1376926954
31
0.0000000000
11
135.3361613777
21
41.8377263224
31
0.0000000000
11
135.6369357901
21
41.4465636672
31
0.0000000000
11
135.8278109300
21
40.9839880796
31
0.0000000000
11
135.8906015274
21
40.5004100614
31
0.0000000000
0
SPLINE
5
380
100
AcDbEntity
8
0
100
AcDbSpline
62
0
6
CONTINUOUS
70
0
71
3
72
13
73
9
74
7
42
0.0000001000
43
0.0000001000
44
0.0000000001
12
0.0000000000
22
-2.9679311262
32
0.0000000000
13
-2.9679311262
23
0.0000004007
33
0.0000000000
40
0.0000000000
40
0.0000000000
40
0.0000000000
40
0.0000000000
40
0.1643021712
40
0.3329076086
40
0.4991615708
40
0.6654392660
40
0.8344453914
40
1.0000000000
40
1.0000000000
40
1.0000000000
40
1.0000000000
10
135.8906015274
20
-40.5172083436
30
0.0000000000
10
135.8906015274
20
-40.6797541863
30
0.0000000000
10
135.8477897012
20
-41.0106644502
30
0.0000000000
10
135.6572075459
20
-41.4723552755
30
0.0000000000
10
135.3515058700
20
-41.8699464853
30
0.0000000000
10
134.9528864459
20
-42.1749162897
30
0.0000000000
10
134.4894413409
20
-42.3654832542
30
0.0000000000
10
134.1568892453
20
-42.4083990330
30
0.0000000000
10
133.9931043533
20
-42.4083990109
30
0.0000000000
11
135.8906015274
21
-40.5172083436
31
0.0000000000
11
135.8278109300
21
-41.0007863619
31
0.0000000000
11
135.6369357901
21
-41.4633619494
31
0.0000000000
11
135.3361613777
21
-41.8545246046
31
0.0000000000
11
134.9442900179
21
-42.1544909776
31
0.0000000000
11
134.4803858838
21
-42.3452632231
31
0.0000000000
11
133.9931043533
21
-42.4083990109
31
0.0000000000
0
SPLINE
5
381
100
AcDbEntity
8
0
100
AcDbSpline
62
0
6
CONTINUOUS
70
0
71
3
72
8
73
4
74
2
42
0.0000001000
43
0.0000001000
44
0.0000000001
12
-4.8877734918
22
-0.3844053545
32
0.0000000000
13
-4.8919470361
23
-0.3305420345
33
0.0000000000
40
0.0000000000
40
0.0000000000
40
0.0000000000
40
0.0000000000
40
1.0000000000
40
1.0000000000
40
1.0000000000
40
1.0000000000
10
110.8804963339
20
-25.9885324908
30
0.0000000000
10
109.2512385034
20
-26.1166676089
30
0.0000000000
10
107.6212274584
20
-26.2358291836
30
0.0000000000
10
105.9905784464
20
-26.3460098617
30
0.0000000000
11
110.8804963339
21
-25.9885324908
31
0.0000000000
11
105.9905784464
21
-26.3460098617
31
0.0000000000
0
SPLINE
5
382
100
AcDbEntity
8
0
100
AcDbSpline
62
0
6
CONTINUOUS
70
0
71
3
72
8
73
4
74
2
42
0.0000001000
43
0.0000001000
44
0.0000000001
12
-0.1919634838
22
-0.0129707047
32
0.0000000000
13
-0.1919693571
23
-0.0128877289
33
0.0000000000
40
0.0000000000
40
0.0000000000
40
0.0000000000
40
0.0000000000
40
1.0000000000
40
1.0000000000
40
1.0000000000
40
1.0000000000
10
105.9905784464
20
-26.3460098617
30
0.0000000000
10
105.9265906184
20
-26.3503334300
30
0.0000000000
10
105.8626018081
20
-26.3546431691
30
0.0000000000
10
105.7986120224
20
-26.3589390787
30
0.0000000000
11
105.9905784464
21
-26.3460098617
31
0.0000000000
11
105.7986120224
21
-26.3589390787
31
0.0000000000
0
SPLINE
5
383
100
AcDbEntity
8
0
100
AcDbSpline
62
0
6
CONTINUOUS
70
0
71
3
72
11
73
7
74
5
42
0.0000001000
43
0.0000001000
44
0.0000000001
12
-59.5254304773
22
-3.9961982508
32
0.0000000000
13
-59.5254304721
23
3.9961982489
33
0.0000000000
40
0.0000000000
40
0.0000000000
40
0.0000000000
40
0.0000000000
40
0.1987499839
40
0.5000002560
40
0.8012503868
40
1.0000000000
40
1.0000000000
40
1.0000000000
40
1.0000000000
10
105.7986120224
20
-26.3589390787
30
0.0000000000
10
101.8550525725
20
-26.6236871914
30
0.0000000000
10
91.9248227332
20
-27.1575831025
30
0.0000000000
10
75.9905890592
20
-27.4793911243
30
0.0000000000
10
60.0563627793
20
-27.1575823090
30
0.0000000000
10
50.1261431269
20
-26.6236866968
30
0.0000000000
10
46.1825910323
20
-26.3589390780
30
0.0000000000
11
105.7986120224
21
-26.3589390787
31
0.0000000000
11
93.9584499116
21
-26.9955055823
31
0.0000000000
11
75.9905862542
21
-27.3583991411
31
0.0000000000
11
58.0227310439
21
-26.9955046893
31
0.0000000000
11
46.1825910323
21
-26.3589390780
31
0.0000000000
0
SPLINE
5
384
100
AcDbEntity
8
0
100
AcDbSpline
62
0
6
CONTINUOUS
70
0
71
3
72
8
73
4
74
2
42
0.0000001000
43
0.0000001000
44
0.0000000001
12
-0.1919693570
22
0.0128877289
32
0.0000000000
13
-0.1919634838
23
0.0129707047
33
0.0000000000
40
0.0000000000
40
0.0000000000
40
0.0000000000
40
0.0000000000
40
1.0000000000
40
1.0000000000
40
1.0000000000
40
1.0000000000
10
46.1825910323
20
-26.3589390780
30
0.0000000000
10
46.1186012466
20
-26.3546431684
30
0.0000000000
10
46.0546124363
20
-26.3503334293
30
0.0000000000
10
45.9906246084
20
-26.3460098610
30
0.0000000000
11
46.1825910323
21
-26.3589390780
31
0.0000000000
11
45.9906246084
21
-26.3460098610
31
0.0000000000
0
SPLINE
5
385
100
AcDbEntity
8
0
100
AcDbSpline
62
0
6
CONTINUOUS
70
0
71
3
72
8
73
4
74
2
42
0.0000001000
43
0.0000001000
44
0.0000000001
12
-4.8919470099
22
0.3305420326
32
0.0000000000
13
-4.8877734662
23
0.3844053511
33
0.0000000000
40
0.0000000000
40
0.0000000000
40
0.0000000000
40
0.0000000000
40
1.0000000000
40
1.0000000000
40
1.0000000000
40
1.0000000000
10
45.9906246084
20
-26.3460098610
30
0.0000000000
10
44.3599756051
20
-26.2358291835
30
0.0000000000
10
42.7299645688
20
-26.1166676097
30
0.0000000000
10
41.1007067467
20
-25.9885324927
30
0.0000000000
11
45.9906246084
21
-26.3460098610
31
0.0000000000
11
41.1007067467
21
-25.9885324927
31
0.0000000000
0
SPLINE
5
386
100
AcDbEntity
8
0
100
AcDbSpline
62
0
6
CONTINUOUS
70
0
71
3
72
8
73
4
74
2
42
0.0000001000
43
0.0000001000
44
0.0000000001
12
4.8877734851
22
0.3844053539
32
0.0000000000
13
4.8919470293
23
0.3305420340
33
0.0000000000
40
0.0000000000
40
0.0000000000
40
0.0000000000
40
0.0000000000
40
1.0000000000
40
1.0000000000
40
1.0000000000
40
1.0000000000
10
41.1007067275
20
25.9717342091
30
0.0000000000
10
42.7299645559
20
26.0998693271
30
0.0000000000
10
44.3599755986
20
26.2190309015
30
0.0000000000
10
45.9906246084
20
26.3292115795
30
0.0000000000
11
41.1007067275
21
25.9717342091
31
0.0000000000
11
45.9906246084
21
26.3292115795
31
0.0000000000
0
SPLINE
5
387
100
AcDbEntity
8
0
100
AcDbSpline
62
0
6
CONTINUOUS
70
0
71
3
72
8
73
4
74
2
42
0.0000001000
43
0.0000001000
44
0.0000000001
12
0.1919634839
22
0.0129707047
32
0.0000000000
13
0.1919693572
23
0.0128877289
33
0.0000000000
40
0.0000000000
40
0.0000000000
40
0.0000000000
40
0.0000000000
40
1.0000000000
40
1.0000000000
40
1.0000000000
40
1.0000000000
10
45.9906246084
20
26.3292115795
30
0.0000000000
10
46.0546124363
20
26.3335351478
30
0.0000000000
10
46.1186012467
20
26.3378448869
30
0.0000000000
10
46.1825910324
20
26.3421407965
30
0.0000000000
11
45.9906246084
21
26.3292115795
31
0.0000000000
11
46.1825910324
21
26.3421407965
31
0.0000000000
0
SPLINE
5
388
100
AcDbEntity
8
0
100
AcDbSpline
62
0
6
CONTINUOUS
70
0
71
3
72
11
73
7
74
5
42
0.0000001000
43
0.0000001000
44
0.0000000001
12
59.5254304773
22
3.9961982508
32
0.0000000000
13
59.5254304721
23
-3.9961982489
33
0.0000000000
40
0.0000000000
40
0.0000000000
40
0.0000000000
40
0.0000000000
40
0.1987499839
40
0.5000002560
40
0.8012503868
40
1.0000000000
40
1.0000000000
40
1.0000000000
40
1.0000000000
10
46.1825910324
20
26.3421407965
30
0.0000000000
10
50.1261504823
20
26.6068889092
30
0.0000000000
10
60.0563803215
20
27.1407848203
30
0.0000000000
10
75.9906139955
20
27.4625928421
30
0.0000000000
10
91.9248402754
20
27.1407840268
30
0.0000000000
10
101.8550599279
20
26.6068884146
30
0.0000000000
10
105.7986120225
20
26.3421407958
30
0.0000000000
11
46.1825910324
21
26.3421407965
31
0.0000000000
11
58.0227531432
21
26.9787073001
31
0.0000000000
11
75.9906168006
21
27.3416008589
31
0.0000000000
11
93.9584720108
21
26.9787064071
31
0.0000000000
11
105.7986120225
21
26.3421407958
31
0.0000000000
0
SPLINE
5
389
100
AcDbEntity
8
0
100
AcDbSpline
62
0
6
CONTINUOUS
70
0
71
3
72
8
73
4
74
2
42
0.0000001000
43
0.0000001000
44
0.0000000001
12
0.1919693570
22
-0.0128877289
32
0.0000000000
13
0.1919634838
23
-0.0129707047
33
0.0000000000
40
0.0000000000
40
0.0000000000
40
0.0000000000
40
0.0000000000
40
1.0000000000
40
1.0000000000
40
1.0000000000
40
1.0000000000
10
105.7986120225
20
26.3421407958
30
0.0000000000
10
105.8626018081
20
26.3378448862
30
0.0000000000
10
105.9265906184
20
26.3335351470
30
0.0000000000
10
105.9905784463
20
26.3292115788
30
0.0000000000
11
105.7986120225
21
26.3421407958
31
0.0000000000
11
105.9905784463
21
26.3292115788
31
0.0000000000
0
SPLINE
5
38A
100
AcDbEntity
8
0
100
AcDbSpline
62
0
6
CONTINUOUS
70
0
71
3
72
8
73
4
74
2
42
0.0000001000
43
0.0000001000
44
0.0000000001
12
4.8919470099
22
-0.3305420326
32
0.0000000000
13
4.8877734662
23
-0.3844053511
33
0.0000000000
40
0.0000000000
40
0.0000000000
40
0.0000000000
40
0.0000000000
40
1.0000000000
40
1.0000000000
40
1.0000000000
40
1.0000000000
10
105.9905784463
20
26.3292115788
30
0.0000000000
10
107.6212274496
20
26.2190309013
30
0.0000000000
10
109.2512384860
20
26.0998693275
30
0.0000000000
10
110.8804963080
20
25.9717342105
30
0.0000000000
11
105.9905784463
21
26.3292115788
31
0.0000000000
11
110.8804963080
21
25.9717342105
31
0.0000000000
0
SPLINE
5
38B
100
AcDbEntity
8
0
100
AcDbSpline
62
9
6
CONTINUOUS
70
0
71
3
72
10
73
6
74
4
42
0.0000001000
43
0.0000001000
44
0.0000000001
12
0.0078477350
22
-0.0997116354
32
0.0000000000
13
0.0458030721
23
-0.0889161165
33
0.0000000000
40
0.0000000000
40
0.0000000000
40
0.0000000000
40
0.0000000000
40
0.4757025782
40
0.8378851032
40
1.0000000000
40
1.0000000000
40
1.0000000000
40
1.0000000000
10
41.0100677562
20
26.1445728674
30
0.0000000000
10
41.0113121521
20
26.1287618401
30
0.0000000000
10
41.0132078418
20
26.1007044068
30
0.0000000000
10
41.0183441242
20
26.0682306509
30
0.0000000000
10
41.0187824578
20
26.0500415732
30
0.0000000000
10
41.0212575779
20
26.0452366975
30
0.0000000000
11
41.0100677562
21
26.1445728674
31
0.0000000000
11
41.0142408263
21
26.0971764599
31
0.0000000000
11
41.0182958323
21
26.0611786394
31
0.0000000000
11
41.0212575779
21
26.0452366975
31
0.0000000000
0
SPLINE
5
38C
100
AcDbEntity
8
0
100
AcDbSpline
62
9
6
CONTINUOUS
70
0
71
3
72
8
73
4
74
2
42
0.0000001000
43
0.0000001000
44
0.0000000001
12
0.0732536462
22
0.0057732550
32
0.0000000000
13
0.0732546047
23
0.0057611616
33
0.0000000000
40
0.0000000000
40
0.0000000000
40
0.0000000000
40
0.0000000000
40
1.0000000000
40
1.0000000000
40
1.0000000000
40
1.0000000000
10
41.0212575779
20
26.0452366975
30
0.0000000000
10
41.0456754599
20
26.0471611159
30
0.0000000000
10
41.0700935020
20
26.0490835186
30
0.0000000000
10
41.0945117035
20
26.0510039058
30
0.0000000000
11
41.0212575779
21
26.0452366975
31
0.0000000000
11
41.0945117035
21
26.0510039058
31
0.0000000000
0
SPLINE
5
38D
100
AcDbEntity
8
0
100
AcDbSpline
62
9
6
CONTINUOUS
70
0
71
3
72
25
73
21
74
19
42
0.0000001000
43
0.0000001000
44
0.0000000001
12
69.6485608266
22
5.4775616287
32
0.0000000000
13
69.6485608214
23
-5.4775616090
33
0.0000000000
40
0.0000000000
40
0.0000000000
40
0.0000000000
40
0.0000000000
40
0.0272702835
40
0.0652384553
40
0.1116098692
40
0.1651926062
40
0.2247942310
40
0.2892215701
40
0.3572801413
40
0.4277742311
40
0.4995073770
40
0.5712794894
40
0.6418769715
40
0.7100830378
40
0.7746818057
40
0.8344586565
40
0.8882003182
40
0.9346942747
40
0.9727285433
40
1.0000000000
40
1.0000000000
40
1.0000000000
40
1.0000000000
10
41.0945117035
20
26.0510039058
30
0.0000000000
10
41.7276237036
20
26.1007954587
30
0.0000000000
10
43.2424685006
20
26.2166698248
30
0.0000000000
10
45.8350502016
20
26.4016362130
30
0.0000000000
10
49.0402955166
20
26.6089985320
30
0.0000000000
10
52.7500699575
20
26.8197914416
30
0.0000000000
10
56.8815894102
20
27.0177453826
30
0.0000000000
10
61.3517223855
20
27.1883218154
30
0.0000000000
10
66.0769656521
20
27.3194476240
30
0.0000000000
10
70.9734777378
20
27.4020634356
30
0.0000000000
10
75.9570914505
20
27.4305147853
30
0.0000000000
10
80.9431173370
20
27.4028056806
30
0.0000000000
10
85.8463905446
20
27.3207644055
30
0.0000000000
10
90.5814812766
20
27.1899372996
30
0.0000000000
10
95.0631305409
20
27.0193510560
30
0.0000000000
10
99.2064244904
20
26.8211173693
30
0.0000000000
10
102.9268265388
20
26.6098783683
30
0.0000000000
10
106.1401534114
20
26.4020583157
30
0.0000000000
10
108.7371453118
20
26.2167913078
30
0.0000000000
10
110.2535521369
20
26.1007975987
30
0.0000000000
10
110.8866913743
20
26.0510039039
30
0.0000000000
11
41.0945117035
21
26.0510039058
31
0.0000000000
11
42.9941630612
21
26.1963131299
31
0.0000000000
11
45.6400316010
21
26.3850812585
31
0.0000000000
11
48.8729478050
21
26.5942336665
31
0.0000000000
11
52.6104030385
21
26.8065992080
31
0.0000000000
11
56.7696167633
21
27.0058791929
31
0.0000000000
11
61.2674700824
21
27.1775148622
31
0.0000000000
11
66.0204582284
21
27.3094118650
31
0.0000000000
11
70.9447294143
21
27.3924949283
31
0.0000000000
11
75.9561847316
21
27.4211018363
31
0.0000000000
11
80.9703666286
21
27.3932396084
31
0.0000000000
11
85.9018717776
21
27.3107271031
31
0.0000000000
11
90.6651764225
21
27.1791192442
31
0.0000000000
11
95.1750141162
21
27.0074585319
31
0.0000000000
11
99.3464694225
21
26.8078783905
31
0.0000000000
11
103.0950188277
21
26.5950414293
31
0.0000000000
11
106.3364826642
21
26.3854017108
31
0.0000000000
11
108.9869582772
21
26.1963192040
31
0.0000000000
11
110.8866913743
21
26.0510039039
31
0.0000000000
0
SPLINE
5
38E
100
AcDbEntity
8
0
100
AcDbSpline
62
9
6
CONTINUOUS
70
0
71
3
72
8
73
4
74
2
42
0.0000001000
43
0.0000001000
44
0.0000000001
12
0.0732545817
22
-0.0057611597
32
0.0000000000
13
0.0732536232
23
-0.0057732532
33
0.0000000000
40
0.0000000000
40
0.0000000000
40
0.0000000000
40
0.0000000000
40
1.0000000000
40
1.0000000000
40
1.0000000000
40
1.0000000000
10
110.8866913743
20
26.0510039039
30
0.0000000000
10
110.9111095683
20
26.0490835174
30
0.0000000000
10
110.9355276026
20
26.0471611152
30
0.0000000000
10
110.9599454770
20
26.0452366975
30
0.0000000000
11
110.8866913743
21
26.0510039039
31
0.0000000000
11
110.9599454770
21
26.0452366975
31
0.0000000000
0
SPLINE
5
38F
100
AcDbEntity
8
0
100
AcDbSpline
62
9
6
CONTINUOUS
70
0
71
3
72
25
73
21
74
19
42
0.0000001000
43
0.0000001000
44
0.0000000001
12
69.8165229779
22
5.5017412172
32
0.0000000000
13
69.8165229805
23
-5.5017411839
33
0.0000000000
40
0.0000000000
40
0.0000000000
40
0.0000000000
40
0.0000000000
40
0.0282625398
40
0.0661509855
40
0.1124250374
40
0.1658952830
40
0.2253717933
40
0.2896639004
40
0.3575796261
40
0.4279257680
40
0.4995083755
40
0.5711298704
40
0.6415791942
40
0.7096421141
40
0.7741052997
40
0.8337566777
40
0.8873855231
40
0.9337818676
40
0.9717362770
40
1.0000000000
40
1.0000000000
40
1.0000000000
40
1.0000000000
10
41.0100677562
20
26.1445728674
30
0.0000000000
10
41.6677985101
20
26.1964039275
30
0.0000000000
10
43.2075472473
20
26.3142976616
30
0.0000000000
10
45.8253962269
20
26.5010454511
30
0.0000000000
10
49.0316665038
20
26.7084504569
30
0.0000000000
10
52.7426276054
20
26.9192867917
30
0.0000000000
10
56.8754690292
20
27.1172815447
30
0.0000000000
10
61.3470326694
20
27.2878931718
30
0.0000000000
10
66.0737885748
20
27.4190460570
30
0.0000000000
10
70.9718684958
20
27.5016789474
30
0.0000000000
10
75.9570782951
20
27.5301361986
30
0.0000000000
10
80.9447011953
20
27.5024213993
30
0.0000000000
10
85.8495448191
20
27.4203632072
30
0.0000000000
10
90.5861519183
20
27.2895091133
30
0.0000000000
10
95.0692361759
20
27.1188876831
30
0.0000000000
10
99.2138565073
20
26.9206131214
30
0.0000000000
10
102.9354492119
20
26.7093305871
30
0.0000000000
10
106.1498041383
20
26.5014677319
30
0.0000000000
10
108.7720653326
20
26.3144193562
30
0.0000000000
10
110.3133770095
20
26.1964060970
30
0.0000000000
10
110.9711352983
20
26.1445728673
30
0.0000000000
11
41.0100677562
21
26.1445728674
31
0.0000000000
11
42.9836007377
21
26.2956801199
31
0.0000000000
11
45.6303150310
21
26.4844870751
31
0.0000000000
11
48.8642649585
21
26.6936825338
31
0.0000000000
11
52.6029156473
21
26.9060918227
31
0.0000000000
11
56.7634601999
21
27.1054128948
31
0.0000000000
11
61.2627531458
21
27.2770839821
31
0.0000000000
11
66.0172628005
21
27.4090082215
31
0.0000000000
11
70.9431107105
21
27.4921084614
31
0.0000000000
11
75.9561712249
21
27.5207213057
31
0.0000000000
11
80.9719593742
21
27.4928533493
31
0.0000000000
11
85.9050440279
21
27.4103238278
31
0.0000000000
11
90.6698740872
21
27.2786888182
31
0.0000000000
11
95.1811559054
21
27.1069926921
31
0.0000000000
11
99.3539466205
21
26.9073713954
31
0.0000000000
11
103.1036956343
21
26.6944905731
31
0.0000000000
11
106.3461964464
21
26.4848076813
31
0.0000000000
11
108.9975196839
21
26.2956862614
31
0.0000000000
11
110.9711352983
21
26.1445728673
31
0.0000000000
0
SPLINE
5
390
100
AcDbEntity
8
0
100
AcDbSpline
62
9
6
CONTINUOUS
70
0
71
3
72
14
73
10
74
8
42
0.0000001000
43
0.0000001000
44
0.0000000001
12
-0.0013069324
22
1.6352679814
32
0.0000000000
13
1.6302820830
23
0.1276064611
33
0.0000000000
40
0.0000000000
40
0.0000000000
40
0.0000000000
40
0.0000000000
40
0.1585518571
40
0.2992544871
40
0.4290513926
40
0.5560813959
40
0.6887410155
40
0.8349859009
40
1.0000000000
40
1.0000000000
40
1.0000000000
40
1.0000000000
10
40.0116360625
20
24.9491936222
30
0.0000000000
10
40.0115669904
20
25.0356185473
30
0.0000000000
10
40.0307608669
20
25.1994404300
30
0.0000000000
10
40.1091042024
20
25.4214953069
30
0.0000000000
10
40.2212984029
20
25.6084838028
30
0.0000000000
10
40.3640938652
20
25.7672985703
30
0.0000000000
10
40.5422429111
20
25.9010135596
30
0.0000000000
10
40.7632943438
20
26.0038410674
30
0.0000000000
10
40.9315877301
20
26.0381734798
30
0.0000000000
10
41.0212609065
20
26.0451924349
30
0.0000000000
11
40.0116360625
21
24.9491936222
31
0.0000000000
11
40.0418566607
21
25.2067012288
31
0.0000000000
11
40.1183873820
21
25.4236871331
31
0.0000000000
11
40.2276155004
21
25.6056774231
31
0.0000000000
11
40.3665185557
21
25.7601343138
31
0.0000000000
11
40.5400095859
21
25.8903697359
31
0.0000000000
11
40.7568843125
21
25.9911561953
31
0.0000000000
11
41.0212609065
21
26.0451924349
31
0.0000000000
0
SPLINE
5
391
100
AcDbEntity
8
0
100
AcDbSpline
62
9
6
CONTINUOUS
70
0
71
3
72
14
73
10
74
8
42
0.0000001000
43
0.0000001000
44
0.0000000001
12
-0.0005837608
22
1.7837370521
32
0.0000000000
13
1.7782767605
23
0.1394631670
33
0.0000000000
40
0.0000000000
40
0.0000000000
40
0.0000000000
40
0.0000000000
40
0.1586557431
40
0.2993912673
40
0.4292515621
40
0.5564033992
40
0.6892251985
40
0.8356411909
40
1.0000000000
40
1.0000000000
40
1.0000000000
40
1.0000000000
10
39.9082176408
20
24.9491936220
30
0.0000000000
10
39.9081867684
20
25.0435269978
30
0.0000000000
10
39.9293006064
20
25.2222917716
30
0.0000000000
10
40.0150122215
20
25.4645404753
30
0.0000000000
10
40.1376414505
20
25.6685093724
30
0.0000000000
10
40.2936844985
20
25.8417655725
30
0.0000000000
10
40.4883419551
20
25.9876343716
30
0.0000000000
10
40.7293860675
20
26.0994914744
30
0.0000000000
10
40.9126426060
20
26.1369322007
30
0.0000000000
10
41.0100677562
20
26.1445728674
30
0.0000000000
11
39.9082176408
21
24.9491936220
31
0.0000000000
11
39.9414231760
21
25.2302389442
31
0.0000000000
11
40.0251351808
21
25.4669052983
31
0.0000000000
11
40.1445111609
21
25.6654119847
31
0.0000000000
11
40.2963099291
21
25.8339285966
31
0.0000000000
11
40.4858986926
21
25.9760088464
31
0.0000000000
11
40.7228293706
21
26.0858832859
31
0.0000000000
11
41.0100677562
21
26.1445728674
31
0.0000000000
0
SPLINE
5
392
100
AcDbEntity
8
0
100
AcDbSpline
62
9
6
CONTINUOUS
70
0
71
3
72
10
73
6
74
4
42
0.0000001000
43
0.0000001000
44
0.0000000001
12
0.0078477729
22
0.0997126736
32
0.0000000000
13
0.0458030134
23
0.0889173143
33
0.0000000000
40
0.0000000000
40
0.0000000000
40
0.0000000000
40
0.0000000000
40
0.4757016634
40
0.8378846262
40
1.0000000000
40
1.0000000000
40
1.0000000000
40
1.0000000000
10
41.0100677628
20
-26.1613711495
30
0.0000000000
10
41.0113121623
20
-26.1455599880
30
0.0000000000
10
41.0132078686
20
-26.1175022852
30
0.0000000000
10
41.0183441750
20
-26.0850281728
30
0.0000000000
10
41.0187825319
20
-26.0668388973
30
0.0000000000
10
41.0212576561
20
-26.0620339428
30
0.0000000000
11
41.0100677628
21
-26.1613711495
31
0.0000000000
11
41.0142408507
21
-26.1139743397
31
0.0000000000
11
41.0182958917
21
-26.0779761009
31
0.0000000000
11
41.0212576561
21
-26.0620339428
31
0.0000000000
0
SPLINE
5
393
100
AcDbEntity
8
0
100
AcDbSpline
62
9
6
CONTINUOUS
70
0
71
3
72
14
73
10
74
8
42
0.0000001000
43
0.0000001000
44
0.0000000001
12
-1.6302815331
22
0.1276344427
32
0.0000000000
13
0.0013364644
23
1.6352695931
33
0.0000000000
40
0.0000000000
40
0.0000000000
40
0.0000000000
40
0.0000000000
40
0.1584374932
40
0.2990115362
40
0.4287143208
40
0.5557117766
40
0.6884207329
40
0.8347964547
40
1.0000000000
40
1.0000000000
40
1.0000000000
40
1.0000000000
10
41.0212576561
20
-26.0620339428
30
0.0000000000
10
40.9351584163
20
-26.0552932491
30
0.0000000000
10
40.7734946516
20
-26.0230796119
30
0.0000000000
10
40.5587380924
20
-25.9269111775
30
0.0000000000
10
40.3817823564
20
-25.7997025320
30
0.0000000000
10
40.2354108522
20
-25.6442354415
30
0.0000000000
10
40.1168609208
20
-25.4555702481
30
0.0000000000
10
40.0323876772
20
-25.2266826322
30
0.0000000000
10
40.0116045674
20
-25.0560426977
30
0.0000000000
10
40.0116781636
20
-24.9659919196
30
0.0000000000
11
41.0212576561
21
-26.0620339428
31
0.0000000000
11
40.7671718935
21
-26.0113676856
31
0.0000000000
11
40.5573506846
21
-25.9174619797
31
0.0000000000
11
40.3851348679
21
-25.7936567428
31
0.0000000000
11
40.2427708776
21
-25.6424566732
31
0.0000000000
11
40.1272751051
21
-25.4587279767
31
0.0000000000
11
40.0444550884
21
-25.2341486007
31
0.0000000000
11
40.0116781636
21
-24.9659919196
31
0.0000000000
0
SPLINE
5
394
100
AcDbEntity
8
0
100
AcDbSpline
62
9
6
CONTINUOUS
70
0
71
3
72
14
73
10
74
8
42
0.0000001000
43
0.0000001000
44
0.0000000001
12
-1.7782733313
22
0.1395215247
32
0.0000000000
13
0.0006444138
23
1.7837381762
33
0.0000000000
40
0.0000000000
40
0.0000000000
40
0.0000000000
40
0.0000000000
40
0.1585942746
40
0.2992382929
40
0.4290235347
40
0.5561430176
40
0.6889939203
40
0.8354989178
40
1.0000000000
40
1.0000000000
40
1.0000000000
40
1.0000000000
10
41.0100677564
20
-26.1613711495
30
0.0000000000
10
40.9160597667
20
-26.1539953779
30
0.0000000000
10
40.7395996315
20
-26.1187332065
30
0.0000000000
10
40.5052169200
20
-26.0136809252
30
0.0000000000
10
40.3120954888
20
-25.8747809588
30
0.0000000000
10
40.1523199586
20
-25.7050249780
30
0.0000000000
10
40.0229036496
20
-25.4990131324
30
0.0000000000
10
39.9309361080
20
-25.2495590847
30
0.0000000000
10
39.9081823052
20
-25.0638008575
30
0.0000000000
10
39.9082176408
20
-24.9659919041
30
0.0000000000
11
41.0100677564
21
-26.1613711495
31
0.0000000000
11
40.7326607511
21
-26.1059410981
31
0.0000000000
11
40.5037125501
21
-26.0033762778
31
0.0000000000
11
40.3157732221
21
-25.8682008202
31
0.0000000000
11
40.1603601622
21
-25.7030905959
31
0.0000000000
11
40.0342755086
21
-25.5024465584
31
0.0000000000
11
39.9439154485
21
-25.2572392219
31
0.0000000000
11
39.9082176408
21
-24.9659919041
31
0.0000000000
0
SPLINE
5
395
100
AcDbEntity
8
0
100
AcDbSpline
62
9
6
CONTINUOUS
70
0
71
3
72
10
73
6
74
4
42
0.0000001000
43
0.0000001000
44
0.0000000001
12
-0.0078477350
22
0.0997116354
32
0.0000000000
13
-0.0458030721
23
0.0889161165
33
0.0000000000
40
0.0000000000
40
0.0000000000
40
0.0000000000
40
0.0000000000
40
0.4757025782
40
0.8378851032
40
1.0000000000
40
1.0000000000
40
1.0000000000
40
1.0000000000
10
110.9711352986
20
-26.1613711496
30
0.0000000000
10
110.9698909026
20
-26.1455601223
30
0.0000000000
10
110.9679952129
20
-26.1175026890
30
0.0000000000
10
110.9628589305
20
-26.0850289331
30
0.0000000000
10
110.9624205970
20
-26.0668398554
30
0.0000000000
10
110.9599454769
20
-26.0620349797
30
0.0000000000
11
110.9711352986
21
-26.1613711496
31
0.0000000000
11
110.9669622284
21
-26.1139747421
31
0.0000000000
11
110.9629072225
21
-26.0779769216
31
0.0000000000
11
110.9599454769
21
-26.0620349797
31
0.0000000000
0
SPLINE
5
396
100
AcDbEntity
8
0
100
AcDbSpline
62
9
6
CONTINUOUS
70
0
71
3
72
8
73
4
74
2
42
0.0000001000
43
0.0000001000
44
0.0000000001
12
-0.0732537348
22
-0.0057732620
32
0.0000000000
13
-0.0732546933
23
-0.0057611685
33
0.0000000000
40
0.0000000000
40
0.0000000000
40
0.0000000000
40
0.0000000000
40
1.0000000000
40
1.0000000000
40
1.0000000000
40
1.0000000000
10
110.9599454769
20
-26.0620349797
30
0.0000000000
10
110.9355275653
20
-26.0639594004
30
0.0000000000
10
110.9111094937
20
-26.0658818055
30
0.0000000000
10
110.8866912626
20
-26.0678021950
30
0.0000000000
11
110.9599454769
21
-26.0620349797
31
0.0000000000
11
110.8866912626
21
-26.0678021950
31
0.0000000000
0
SPLINE
5
397
100
AcDbEntity
8
0
100
AcDbSpline
62
9
6
CONTINUOUS
70
0
71
3
72
25
73
21
74
19
42
0.0000001000
43
0.0000001000
44
0.0000000001
12
-69.6485608849
22
-5.4775616192
32
0.0000000000
13
-69.6485608397
23
5.4775616432
33
0.0000000000
40
0.0000000000
40
0.0000000000
40
0.0000000000
40
0.0000000000
40
0.0273241731
40
0.0653699039
40
0.1118348069
40
0.1655194705
40
0.2252239593
40
0.2897475906
40
0.3578883600
40
0.4284430303
40
0.5002076330
40
0.5719766339
40
0.6425396515
40
0.7106853463
40
0.7752032706
40
0.8348842386
40
0.8885203997
40
0.9349046506
40
0.9728304140
40
1.0000000000
40
1.0000000000
40
1.0000000000
40
1.0000000000
10
110.8866912626
20
-26.0678021950
30
0.0000000000
10
110.2523281520
20
-26.1176921422
30
0.0000000000
10
108.7344305894
20
-26.2337935644
30
0.0000000000
10
106.1366210577
20
-26.4190949495
30
0.0000000000
10
102.9250260201
20
-26.6267778568
30
0.0000000000
10
99.2083070726
20
-26.8378038771
30
0.0000000000
10
95.0697719961
20
-27.0358476259
30
0.0000000000
10
90.5930784917
20
-27.2063380609
30
0.0000000000
10
85.8622579214
20
-27.3371972466
30
0.0000000000
10
80.9616803176
20
-27.4193904381
30
0.0000000000
10
75.9759925755
20
-27.4473178108
30
0.0000000000
10
70.9901122706
20
-27.4190625734
30
0.0000000000
10
66.0891286518
20
-27.3365364991
30
0.0000000000
10
61.3581407971
20
-27.2053527667
30
0.0000000000
10
56.8820243742
20
-27.0345817017
30
0.0000000000
10
52.7453103958
20
-26.8363546235
30
0.0000000000
10
49.0321539004
20
-26.6253090070
30
0.0000000000
10
45.8263586932
20
-26.4178420382
30
0.0000000000
10
43.2368065690
20
-26.2330419934
30
0.0000000000
10
41.7252856610
20
-26.1174098639
30
0.0000000000
10
41.0945114739
20
-26.0678021699
30
0.0000000000
11
110.8866912626
21
-26.0678021950
31
0.0000000000
11
108.9832853342
21
-26.2133905181
31
0.0000000000
11
106.3320092223
21
-26.4025056853
31
0.0000000000
11
103.0925692930
21
-26.6119891559
31
0.0000000000
11
99.3479953577
21
-26.8245964928
31
0.0000000000
11
95.1815915653
21
-27.0239729823
31
0.0000000000
11
90.6770029361
21
-27.1955272536
31
0.0000000000
11
85.9182625894
21
-27.3271599838
31
0.0000000000
11
80.9897513243
21
-27.4098205389
31
0.0000000000
11
75.9760953093
21
-27.4379012144
31
0.0000000000
11
70.9621338696
21
-27.4094902248
31
0.0000000000
11
66.0330450278
21
-27.3264920048
31
0.0000000000
11
61.2739696132
21
-27.1945282010
31
0.0000000000
11
56.7697909972
21
-27.0226850215
31
0.0000000000
11
52.6050415825
21
-26.8231154226
31
0.0000000000
11
48.8638634115
21
-26.6104773333
31
0.0000000000
11
45.6300567322
21
-26.4011976426
31
0.0000000000
11
42.9871470844
21
-26.2125897870
31
0.0000000000
11
41.0945114739
21
-26.0678021699
31
0.0000000000
0
SPLINE
5
398
100
AcDbEntity
8
0
100
AcDbSpline
62
9
6
CONTINUOUS
70
0
71
3
72
8
73
4
74
2
42
0.0000001000
43
0.0000001000
44
0.0000000001
12
-0.0732543752
22
0.0057611435
32
0.0000000000
13
-0.0732534167
23
0.0057732369
33
0.0000000000
40
0.0000000000
40
0.0000000000
40
0.0000000000
40
0.0000000000
40
1.0000000000
40
1.0000000000
40
1.0000000000
40
1.0000000000
10
41.0945114739
20
-26.0678021699
30
0.0000000000
10
41.0700933488
20
-26.0658817887
30
0.0000000000
10
41.0456753833
20
-26.0639593920
30
0.0000000000
10
41.0212575777
20
-26.0620349797
30
0.0000000000
11
41.0945114739
21
-26.0678021699
31
0.0000000000
11
41.0212575777
21
-26.0620349797
31
0.0000000000
0
SPLINE
5
399
100
AcDbEntity
8
0
100
AcDbSpline
62
9
6
CONTINUOUS
70
0
71
3
72
25
73
21
74
19
42
0.0000001000
43
0.0000001000
44
0.0000000001
12
-69.8165229061
22
-5.5017412116
32
0.0000000000
13
-69.8165229088
23
5.5017411780
33
0.0000000000
40
0.0000000000
40
0.0000000000
40
0.0000000000
40
0.0000000000
40
0.0283163173
40
0.0662821591
40
0.1126495039
40
0.1662214622
40
0.2258006207
40
0.2901888181
40
0.3581865699
40
0.4285931654
40
0.5002071640
40
0.5718255540
40
0.6422404857
40
0.7102431609
40
0.7746256725
40
0.8341813689
40
0.8877049352
40
0.9339918045
40
0.9718379366
40
1.0000000000
40
1.0000000000
40
1.0000000000
40
1.0000000000
10
110.9711352986
20
-26.1613711496
30
0.0000000000
10
110.3121530277
20
-26.2133008328
30
0.0000000000
10
108.7693505370
20
-26.3314218204
30
0.0000000000
10
106.1462720088
20
-26.5185043219
30
0.0000000000
10
102.9336499813
20
-26.7262299820
30
0.0000000000
10
99.2157421515
20
-26.9372994758
30
0.0000000000
10
95.0758828565
20
-27.1353840557
30
0.0000000000
10
90.5977565823
20
-27.3059096679
30
0.0000000000
10
85.8654215803
20
-27.4367958757
30
0.0000000000
10
80.9632748296
20
-27.5190060590
30
0.0000000000
10
75.9759903289
20
-27.5469392254
30
0.0000000000
10
70.9885130531
20
-27.5186781807
30
0.0000000000
10
66.0859597526
20
-27.4361350893
30
0.0000000000
10
61.3534568476
20
-27.3049242954
30
0.0000000000
10
56.8759072071
20
-27.1341180058
30
0.0000000000
10
52.7378689576
20
-26.9358500543
30
0.0000000000
10
49.0235241285
20
-26.7247609448
30
0.0000000000
10
45.8167032792
20
-26.5172512463
30
0.0000000000
10
43.2018843498
20
-26.3306693359
30
0.0000000000
10
41.6654602051
20
-26.2130179442
30
0.0000000000
10
41.0100677564
20
-26.1613711495
30
0.0000000000
11
110.9711352986
21
-26.1613711496
31
0.0000000000
11
108.9938464775
21
-26.3127575640
31
0.0000000000
11
106.3417228884
21
-26.5019116290
31
0.0000000000
11
103.1012471523
21
-26.7114382184
31
0.0000000000
11
99.3554754847
21
-26.9240893530
31
0.0000000000
11
95.1877385601
21
-27.1235069501
31
0.0000000000
11
90.6817081432
21
-27.2950966232
31
0.0000000000
11
85.9214444389
21
-27.4267565361
31
0.0000000000
11
80.9913550814
21
-27.5094341811
31
0.0000000000
11
75.9760931521
21
-27.5375206842
31
0.0000000000
11
70.9605255297
21
-27.5091038529
31
0.0000000000
11
66.0298579590
21
-27.4260885164
31
0.0000000000
11
61.2692584879
21
-27.2940974887
31
0.0000000000
11
56.7636375637
21
-27.1222188579
31
0.0000000000
11
52.5975548930
21
-26.9226081063
31
0.0000000000
11
48.8551794763
21
-26.7099261972
31
0.0000000000
11
45.6203382731
21
-26.5006034077
31
0.0000000000
11
42.9765834212
21
-26.3119567368
31
0.0000000000
11
41.0100677564
21
-26.1613711495
31
0.0000000000
0
SPLINE
5
39A
100
AcDbEntity
8
0
100
AcDbSpline
62
9
6
CONTINUOUS
70
0
71
3
72
14
73
10
74
8
42
0.0000001000
43
0.0000001000
44
0.0000000001
12
0.0013069324
22
-1.6352679814
32
0.0000000000
13
-1.6302820830
23
-0.1276064611
33
0.0000000000
40
0.0000000000
40
0.0000000000
40
0.0000000000
40
0.0000000000
40
0.1585518571
40
0.2992544871
40
0.4290513926
40
0.5560813959
40
0.6887410155
40
0.8349859009
40
1.0000000000
40
1.0000000000
40
1.0000000000
40
1.0000000000
10
111.9695669922
20
-24.9659919044
30
0.0000000000
10
111.9696360644
20
-25.0524168295
30
0.0000000000
10
111.9504421879
20
-25.2162387122
30
0.0000000000
10
111.8720988523
20
-25.4382935891
30
0.0000000000
10
111.7599046518
20
-25.6252820850
30
0.0000000000
10
111.6171091895
20
-25.7840968525
30
0.0000000000
10
111.4389601437
20
-25.9178118418
30
0.0000000000
10
111.2179087109
20
-26.0206393496
30
0.0000000000
10
111.0496153246
20
-26.0549717620
30
0.0000000000
10
110.9599421482
20
-26.0619907171
30
0.0000000000
11
111.9695669922
21
-24.9659919044
31
0.0000000000
11
111.9393463941
21
-25.2234995110
31
0.0000000000
11
111.8628156727
21
-25.4404854154
31
0.0000000000
11
111.7535875543
21
-25.6224757053
31
0.0000000000
11
111.6146844990
21
-25.7769325960
31
0.0000000000
11
111.4411934688
21
-25.9071680181
31
0.0000000000
11
111.2243187423
21
-26.0079544775
31
0.0000000000
11
110.9599421482
21
-26.0619907171
31
0.0000000000
0
SPLINE
5
39B
100
AcDbEntity
8
0
100
AcDbSpline
62
9
6
CONTINUOUS
70
0
71
3
72
14
73
10
74
8
42
0.0000001000
43
0.0000001000
44
0.0000000001
12
0.0005837608
22
-1.7837370521
32
0.0000000000
13
-1.7782767605
23
-0.1394631670
33
0.0000000000
40
0.0000000000
40
0.0000000000
40
0.0000000000
40
0.0000000000
40
0.1586557431
40
0.2993912673
40
0.4292515621
40
0.5564033992
40
0.6892251985
40
0.8356411909
40
1.0000000000
40
1.0000000000
40
1.0000000000
40
1.0000000000
10
112.0729854140
20
-24.9659919042
30
0.0000000000
10
112.0730162863
20
-25.0603252800
30
0.0000000000
10
112.0519024483
20
-25.2390900538
30
0.0000000000
10
111.9661908332
20
-25.4813387576
30
0.0000000000
10
111.8435616042
20
-25.6853076547
30
0.0000000000
10
111.6875185562
20
-25.8585638547
30
0.0000000000
10
111.4928610996
20
-26.0044326538
30
0.0000000000
10
111.2518169873
20
-26.1162897566
30
0.0000000000
10
111.0685604488
20
-26.1537304829
30
0.0000000000
10
110.9711352986
20
-26.1613711496
30
0.0000000000
11
112.0729854140
21
-24.9659919042
31
0.0000000000
11
112.0397798788
21
-25.2470372264
31
0.0000000000
11
111.9560678739
21
-25.4837035805
31
0.0000000000
11
111.8366918938
21
-25.6822102669
31
0.0000000000
11
111.6848931256
21
-25.8507268788
31
0.0000000000
11
111.4953043621
21
-25.9928071286
31
0.0000000000
11
111.2583736841
21
-26.1026815681
31
0.0000000000
11
110.9711352986
21
-26.1613711496
31
0.0000000000
0
SPLINE
5
39C
100
AcDbEntity
8
0
100
AcDbSpline
62
9
6
CONTINUOUS
70
0
71
3
72
10
73
6
74
4
42
0.0000001000
43
0.0000001000
44
0.0000000001
12
-0.0078477729
22
-0.0997126736
32
0.0000000000
13
-0.0458030134
23
-0.0889173143
33
0.0000000000
40
0.0000000000
40
0.0000000000
40
0.0000000000
40
0.0000000000
40
0.4757016634
40
0.8378846262
40
1.0000000000
40
1.0000000000
40
1.0000000000
40
1.0000000000
10
110.9711352920
20
26.1445728673
30
0.0000000000
10
110.9698908924
20
26.1287617058
30
0.0000000000
10
110.9679951861
20
26.1007040030
30
0.0000000000
10
110.9628588797
20
26.0682298906
30
0.0000000000
10
110.9624205228
20
26.0500406151
30
0.0000000000
10
110.9599453986
20
26.0452356606
30
0.0000000000
11
110.9711352920
21
26.1445728673
31
0.0000000000
11
110.9669622040
21
26.0971760575
31
0.0000000000
11
110.9629071630
21
26.0611778186
31
0.0000000000
11
110.9599453986
21
26.0452356606
31
0.0000000000
0
SPLINE
5
39D
100
AcDbEntity
8
0
100
AcDbSpline
62
9
6
CONTINUOUS
70
0
71
3
72
14
73
10
74
8
42
0.0000001000
43
0.0000001000
44
0.0000000001
12
1.6302815331
22
-0.1276344427
32
0.0000000000
13
-0.0013364644
23
-1.6352695931
33
0.0000000000
40
0.0000000000
40
0.0000000000
40
0.0000000000
40
0.0000000000
40
0.1584374932
40
0.2990115362
40
0.4287143208
40
0.5557117766
40
0.6884207329
40
0.8347964547
40
1.0000000000
40
1.0000000000
40
1.0000000000
40
1.0000000000
10
110.9599453986
20
26.0452356606
30
0.0000000000
10
111.0460446384
20
26.0384949668
30
0.0000000000
10
111.2077084031
20
26.0062813297
30
0.0000000000
10
111.4224649623
20
25.9101128953
30
0.0000000000
10
111.5994206983
20
25.7829042498
30
0.0000000000
10
111.7457922026
20
25.6274371593
30
0.0000000000
10
111.8643421339
20
25.4387719659
30
0.0000000000
10
111.9488153776
20
25.2098843500
30
0.0000000000
10
111.9695984874
20
25.0392444155
30
0.0000000000
10
111.9695248911
20
24.9491936374
30
0.0000000000
11
110.9599453986
21
26.0452356606
31
0.0000000000
11
111.2140311612
21
25.9945694034
31
0.0000000000
11
111.4238523701
21
25.9006636975
31
0.0000000000
11
111.5960681868
21
25.7768584606
31
0.0000000000
11
111.7384321771
21
25.6256583910
31
0.0000000000
11
111.8539279496
21
25.4419296945
31
0.0000000000
11
111.9367479663
21
25.2173503185
31
0.0000000000
11
111.9695248911
21
24.9491936374
31
0.0000000000
0
SPLINE
5
39E
100
AcDbEntity
8
0
100
AcDbSpline
62
9
6
CONTINUOUS
70
0
71
3
72
14
73
10
74
8
42
0.0000001000
43
0.0000001000
44
0.0000000001
12
1.7782733313
22
-0.1395215247
32
0.0000000000
13
-0.0006444138
23
-1.7837381762
33
0.0000000000
40
0.0000000000
40
0.0000000000
40
0.0000000000
40
0.0000000000
40
0.1585942746
40
0.2992382929
40
0.4290235347
40
0.5561430176
40
0.6889939203
40
0.8354989178
40
1.0000000000
40
1.0000000000
40
1.0000000000
40
1.0000000000
10
110.9711352983
20
26.1445728673
30
0.0000000000
10
111.0651432880
20
26.1371970957
30
0.0000000000
10
111.2416034232
20
26.1019349243
30
0.0000000000
10
111.4759861348
20
25.9968826430
30
0.0000000000
10
111.6691075660
20
25.8579826766
30
0.0000000000
10
111.8288830961
20
25.6882266958
30
0.0000000000
10
111.9582994051
20
25.4822148502
30
0.0000000000
10
112.0502669467
20
25.2327608025
30
0.0000000000
10
112.0730207496
20
25.0470025753
30
0.0000000000
10
112.0729854140
20
24.9491936219
30
0.0000000000
11
110.9711352983
21
26.1445728673
31
0.0000000000
11
111.2485423036
21
26.0891428159
31
0.0000000000
11
111.4774905047
21
25.9865779956
31
0.0000000000
11
111.6654298326
21
25.8514025380
31
0.0000000000
11
111.8208428925
21
25.6862923137
31
0.0000000000
11
111.9469275461
21
25.4856482762
31
0.0000000000
11
112.0372876062
21
25.2404409397
31
0.0000000000
11
112.0729854140
21
24.9491936219
31
0.0000000000
0
SPLINE
5
39F
100
AcDbEntity
8
0
100
AcDbSpline
62
9
6
CONTINUOUS
70
0
71
3
72
11
73
7
74
5
42
0.0000001000
43
0.0000001000
44
0.0000000001
12
0.6831903728
22
0.5891737564
32
0.0000000000
13
-0.0000125232
23
0.9021500987
33
0.0000000000
40
0.0000000000
40
0.0000000000
40
0.0000000000
40
0.0000000000
40
0.0929966335
40
0.3130557572
40
0.6303232114
40
1.0000000000
40
1.0000000000
40
1.0000000000
40
1.0000000000
10
133.7799031417
20
-42.1959061849
30
0.0000000000
10
133.8010812766
20
-42.1776424596
30
0.0000000000
10
133.7964127477
20
-42.0679539243
30
0.0000000000
10
133.8250280116
20
-41.8920785689
30
0.0000000000
10
133.8275706282
20
-41.6131313290
30
0.0000000000
10
133.8318159297
20
-41.4083122116
30
0.0000000000
10
133.8318143865
20
-41.2971442278
30
0.0000000000
11
133.7799031417
21
-42.1959061849
31
0.0000000000
11
133.7999737203
21
-42.1144453636
31
0.0000000000
11
133.8167761890
21
-41.9166313279
31
0.0000000000
11
133.8279184943
21
-41.6306254231
31
0.0000000000
11
133.8318143865
21
-41.2971442278
31
0.0000000000
0
SPLINE
5
3A0
100
AcDbEntity
8
0
100
AcDbSpline
62
9
6
CONTINUOUS
70
0
71
3
72
11
73
7
74
5
42
0.0000001000
43
0.0000001000
44
0.0000000001
12
-115.5786032058
22
-0.0016298054
32
0.0000000000
13
-115.5786032058
23
0.0016298109
33
0.0000000000
40
0.0000000000
40
0.0000000000
40
0.0000000000
40
0.0000000000
40
0.2498623003
40
0.4999998052
40
0.7501374081
40
1.0000000000
40
1.0000000000
40
1.0000000000
40
1.0000000000
10
133.7799031417
20
-42.1959061849
30
0.0000000000
10
124.1536579227
20
-42.1960419273
30
0.0000000000
10
104.8905648915
20
-42.1962266461
30
0.0000000000
10
75.9906202758
20
-42.1963116849
30
0.0000000000
10
47.0906644233
20
-42.1962266462
30
0.0000000000
10
27.8275563834
20
-42.1960419277
30
0.0000000000
10
18.2012999275
20
-42.1959061848
30
0.0000000000
11
133.7799031417
21
-42.1959061849
31
0.0000000000
11
104.9011674833
21
-42.1961945705
31
0.0000000000
11
75.9906240477
21
-42.1962833283
31
0.0000000000
11
47.0800692965
21
-42.1961945707
31
0.0000000000
11
18.2012999275
21
-42.1959061848
31
0.0000000000
0
SPLINE
5
3A1
100
AcDbEntity
8
0
100
AcDbSpline
62
9
6
CONTINUOUS
70
0
71
3
72
13
73
9
74
7
42
0.0000001000
43
0.0000001000
44
0.0000000001
12
-0.0004219486
22
-1.5628134635
32
0.0000000000
13
-1.5628134860
23
-0.0003283348
33
0.0000000000
40
0.0000000000
40
0.0000000000
40
0.0000000000
40
0.0000000000
40
0.1654750105
40
0.3321889092
40
0.4991495589
40
0.6662816449
40
0.8336071019
40
1.0000000000
40
1.0000000000
40
1.0000000000
40
1.0000000000
10
134.8314047575
20
-40.3017296581
30
0.0000000000
10
134.8313814835
20
-40.3879318495
30
0.0000000000
10
134.8087246661
20
-40.5618278395
30
0.0000000000
10
134.7081668034
20
-40.8047622470
30
0.0000000000
10
134.5472893260
20
-41.0140180482
30
0.0000000000
10
134.3371811415
20
-41.1742877662
30
0.0000000000
10
134.0931815650
20
-41.2745223814
30
0.0000000000
10
133.9184947467
20
-41.2971260170
30
0.0000000000
10
133.8318143917
20
-41.2971442278
30
0.0000000000
11
134.8314047575
21
-40.3017296581
31
0.0000000000
11
134.7978251976
21
-40.5581468538
31
0.0000000000
11
134.6982395406
21
-40.7989065133
31
0.0000000000
11
134.5391849513
21
-41.0057524636
31
0.0000000000
11
134.3315710467
21
-41.1642452560
31
0.0000000000
11
134.0896830397
21
-41.2636014360
31
0.0000000000
11
133.8318143917
21
-41.2971442278
31
0.0000000000
0
SPLINE
5
3A2
100
AcDbEntity
8
0
100
AcDbSpline
62
9
6
CONTINUOUS
70
0
71
3
72
13
73
9
74
7
42
0.0000001000
43
0.0000001000
44
0.0000000001
12
-0.0042278075
22
-2.9657414864
32
0.0000000000
13
-2.9657320060
23
-0.0086085532
33
0.0000000000
40
0.0000000000
40
0.0000000000
40
0.0000000000
40
0.0000000000
40
0.1666144904
40
0.3330358419
40
0.4995040158
40
0.6660964359
40
0.8328783169
40
1.0000000000
40
1.0000000000
40
1.0000000000
40
1.0000000000
10
135.6743516618
20
-40.3017296375
30
0.0000000000
10
135.6741168571
20
-40.4664414730
30
0.0000000000
10
135.6304552260
20
-40.7972513785
30
0.0000000000
10
135.4389564163
20
-41.2582723560
30
0.0000000000
10
135.1349455422
20
-41.6545650350
30
0.0000000000
10
134.7384933032
20
-41.9589464266
30
0.0000000000
10
134.2767167716
20
-42.1511598448
30
0.0000000000
10
133.9451155958
20
-42.1953520225
30
0.0000000000
10
133.7799028877
20
-42.1958315811
30
0.0000000000
11
135.6743516618
21
-40.3017296375
31
0.0000000000
11
135.6094012968
21
-40.7915784357
31
0.0000000000
11
135.4202317635
21
-41.2474507071
31
0.0000000000
11
135.1196700397
21
-41.6391194256
31
0.0000000000
11
134.7278642218
21
-41.9401076531
31
0.0000000000
11
134.2711599737
21
-42.1300615596
31
0.0000000000
11
133.7799028877
21
-42.1958315811
31
0.0000000000
0
SPLINE
5
3A3
100
AcDbEntity
8
0
100
AcDbSpline
62
9
6
CONTINUOUS
70
0
71
3
72
11
73
7
74
5
42
0.0000001000
43
0.0000001000
44
0.0000000001
12
0.6831741421
22
-0.5890787952
32
0.0000000000
13
-0.0000109953
23
-0.9020757924
33
0.0000000000
40
0.0000000000
40
0.0000000000
40
0.0000000000
40
0.0000000000
40
0.0929951541
40
0.3130520632
40
0.6303190484
40
1.0000000000
40
1.0000000000
40
1.0000000000
40
1.0000000000
10
133.7799028877
20
42.1790333076
30
0.0000000000
10
133.8010801826
20
42.1607728164
30
0.0000000000
10
133.7964130823
20
42.0510924876
30
0.0000000000
10
133.8250271333
20
41.8752346992
30
0.0000000000
10
133.8275703337
20
41.5963091051
30
0.0000000000
10
133.8318157395
20
41.3915060247
30
0.0000000000
10
133.8318143846
20
41.2803459456
30
0.0000000000
11
133.7799028877
21
42.1790333076
31
0.0000000000
11
133.7999732870
21
42.0975809333
31
0.0000000000
11
133.8167756515
21
41.8997853044
31
0.0000000000
11
133.8279180729
21
41.6138034204
31
0.0000000000
11
133.8318143846
21
41.2803459456
31
0.0000000000
0
SPLINE
5
3A4
100
AcDbEntity
8
0
100
AcDbSpline
62
9
6
CONTINUOUS
70
0
71
3
72
13
73
9
74
7
42
0.0000001000
43
0.0000001000
44
0.0000000001
12
1.5628134854
22
-0.0003281875
32
0.0000000000
13
0.0004220161
23
-1.5628134629
33
0.0000000000
40
0.0000000000
40
0.0000000000
40
0.0000000000
40
0.0000000000
40
0.1663928977
40
0.3337183545
40
0.5008504408
40
0.6678110905
40
0.8345249893
40
1.0000000000
40
1.0000000000
40
1.0000000000
40
1.0000000000
10
133.8318143917
20
41.2803459456
30
0.0000000000
10
133.9184947465
20
41.2803277429
30
0.0000000000
10
134.0931815623
20
41.2577240853
30
0.0000000000
10
134.3371811442
20
41.1574894905
30
0.0000000000
10
134.5472893257
20
40.9972197645
30
0.0000000000
10
134.7081668010
20
40.7879639641
30
0.0000000000
10
134.8087246713
20
40.5450295581
30
0.0000000000
10
134.8313814798
20
40.3711335674
30
0.0000000000
10
134.8314047575
20
40.2849313759
30
0.0000000000
11
133.8318143917
21
41.2803459456
31
0.0000000000
11
134.0896830384
21
41.2468031488
31
0.0000000000
11
134.3315710478
21
41.1474469756
31
0.0000000000
11
134.5391849512
21
40.9889541813
31
0.0000000000
11
134.6982395397
21
40.7821082307
31
0.0000000000
11
134.7978251993
21
40.5413485721
31
0.0000000000
11
134.8314047575
21
40.2849313759
31
0.0000000000
0
SPLINE
5
3A5
100
AcDbEntity
8
0
100
AcDbSpline
62
9
6
CONTINUOUS
70
0
71
3
72
13
73
9
74
7
42
0.0000001000
43
0.0000001000
44
0.0000000001
12
2.9657320059
22
-0.0086084302
32
0.0000000000
13
0.0042278712
23
-2.9657414858
33
0.0000000000
40
0.0000000000
40
0.0000000000
40
0.0000000000
40
0.0000000000
40
0.1671216168
40
0.3339035187
40
0.5004959420
40
0.6669641217
40
0.8333854714
40
1.0000000000
40
1.0000000000
40
1.0000000000
40
1.0000000000
10
133.7799028877
20
42.1790333076
30
0.0000000000
10
133.9451155304
20
42.1785537560
30
0.0000000000
10
134.2767166519
20
42.1343615529
30
0.0000000000
10
134.7384931787
20
41.9421482394
30
0.0000000000
10
135.1349454544
20
41.6377668377
30
0.0000000000
10
135.4389563529
20
41.2414741731
30
0.0000000000
10
135.6304552233
20
40.7804531730
30
0.0000000000
10
135.6741168532
20
40.4496432284
30
0.0000000000
10
135.6743516615
20
40.2849313553
30
0.0000000000
11
133.7799028877
21
42.1790333076
31
0.0000000000
11
134.2711597793
21
42.1132633157
31
0.0000000000
11
134.7278641083
21
41.9233094423
31
0.0000000000
11
135.1196699508
21
41.6223212318
31
0.0000000000
11
135.4202317077
21
41.2306525170
31
0.0000000000
11
135.6094012726
21
40.7747802643
31
0.0000000000
11
135.6743516615
21
40.2849313553
31
0.0000000000
0
SPLINE
5
3A6
100
AcDbEntity
8
0
100
AcDbSpline
62
9
6
CONTINUOUS
70
0
71
3
72
11
73
7
74
5
42
0.0000001000
43
0.0000001000
44
0.0000000001
12
-0.6831903728
22
-0.5891737564
32
0.0000000000
13
0.0000125232
23
-0.9021500987
33
0.0000000000
40
0.0000000000
40
0.0000000000
40
0.0000000000
40
0.0000000000
40
0.0929966335
40
0.3130557572
40
0.6303232114
40
1.0000000000
40
1.0000000000
40
1.0000000000
40
1.0000000000
10
18.2012999130
20
42.1791079027
30
0.0000000000
10
18.1801217781
20
42.1608441774
30
0.0000000000
10
18.1847903070
20
42.0511556421
30
0.0000000000
10
18.1561750431
20
41.8752802867
30
0.0000000000
10
18.1536324266
20
41.5963330468
30
0.0000000000
10
18.1493871251
20
41.3915139294
30
0.0000000000
10
18.1493886682
20
41.2803459456
30
0.0000000000
11
18.2012999130
21
42.1791079027
31
0.0000000000
11
18.1812293345
21
42.0976470814
31
0.0000000000
11
18.1644268657
21
41.8998330457
31
0.0000000000
11
18.1532845604
21
41.6138271409
31
0.0000000000
11
18.1493886682
21
41.2803459456
31
0.0000000000
0
SPLINE
5
3A7
100
AcDbEntity
8
0
100
AcDbSpline
62
9
6
CONTINUOUS
70
0
71
3
72
11
73
7
74
5
42
0.0000001000
43
0.0000001000
44
0.0000000001
12
115.5786032058
22
0.0016298054
32
0.0000000000
13
115.5786032058
23
-0.0016298109
33
0.0000000000
40
0.0000000000
40
0.0000000000
40
0.0000000000
40
0.0000000000
40
0.2498626059
40
0.5000002131
40
0.7501377137
40
1.0000000000
40
1.0000000000
40
1.0000000000
40
1.0000000000
10
18.2012999130
20
42.1791079027
30
0.0000000000
10
27.8275569080
20
42.1792436452
30
0.0000000000
10
47.0906656544
20
42.1794283641
30
0.0000000000
10
75.9906220455
20
42.1795134027
30
0.0000000000
10
104.8905661220
20
42.1794283638
30
0.0000000000
10
124.1536584468
20
42.1792436454
30
0.0000000000
10
133.7799031272
20
42.1791079026
30
0.0000000000
11
18.2012999130
21
42.1791079027
31
0.0000000000
11
47.0800708995
21
42.1793962885
31
0.0000000000
11
75.9906261524
21
42.1794850461
31
0.0000000000
11
104.9011690846
21
42.1793962883
31
0.0000000000
11
133.7799031272
21
42.1791079026
31
0.0000000000
0
SPLINE
5
3A8
100
AcDbEntity
8
0
100
AcDbSpline
62
9
6
CONTINUOUS
70
0
71
3
72
13
73
9
74
7
42
0.0000001000
43
0.0000001000
44
0.0000000001
12
0.0004219486
22
1.5628134635
32
0.0000000000
13
1.5628134860
23
0.0003283348
33
0.0000000000
40
0.0000000000
40
0.0000000000
40
0.0000000000
40
0.0000000000
40
0.1654750105
40
0.3321889092
40
0.4991495589
40
0.6662816449
40
0.8336071019
40
1.0000000000
40
1.0000000000
40
1.0000000000
40
1.0000000000
10
17.1497982973
20
40.2849313759
30
0.0000000000
10
17.1498215712
20
40.3711335673
30
0.0000000000
10
17.1724783886
20
40.5450295573
30
0.0000000000
10
17.2730362513
20
40.7879639648
30
0.0000000000
10
17.4339137287
20
40.9972197660
30
0.0000000000
10
17.6440219133
20
41.1574894840
30
0.0000000000
10
17.8880214897
20
41.2577240992
30
0.0000000000
10
18.0627083080
20
41.2803277348
30
0.0000000000
10
18.1493886630
20
41.2803459456
30
0.0000000000
11
17.1497982973
21
40.2849313759
31
0.0000000000
11
17.1833778571
21
40.5413485716
31
0.0000000000
11
17.2829635141
21
40.7821082311
31
0.0000000000
11
17.4420181034
21
40.9889541814
31
0.0000000000
11
17.6496320080
21
41.1474469738
31
0.0000000000
11
17.8915200150
21
41.2468031538
31
0.0000000000
11
18.1493886630
21
41.2803459456
31
0.0000000000
0
SPLINE
5
3A9
100
AcDbEntity
8
0
100
AcDbSpline
62
9
6
CONTINUOUS
70
0
71
3
72
13
73
9
74
7
42
0.0000001000
43
0.0000001000
44
0.0000000001
12
0.0042278075
22
2.9657414864
32
0.0000000000
13
2.9657320060
23
0.0086085532
33
0.0000000000
40
0.0000000000
40
0.0000000000
40
0.0000000000
40
0.0000000000
40
0.1666144904
40
0.3330358419
40
0.4995040158
40
0.6660964359
40
0.8328783169
40
1.0000000000
40
1.0000000000
40
1.0000000000
40
1.0000000000
10
16.3068513929
20
40.2849313553
30
0.0000000000
10
16.3070861976
20
40.4496431908
30
0.0000000000
10
16.3507478287
20
40.7804530963
30
0.0000000000
10
16.5422466384
20
41.2414740738
30
0.0000000000
10
16.8462575126
20
41.6377667528
30
0.0000000000
10
17.2427097515
20
41.9421481444
30
0.0000000000
10
17.7044862831
20
42.1343615626
30
0.0000000000
10
18.0360874589
20
42.1785537403
30
0.0000000000
10
18.2013001671
20
42.1790332989
30
0.0000000000
11
16.3068513929
21
40.2849313553
31
0.0000000000
11
16.3718017580
21
40.7747801535
31
0.0000000000
11
16.5609712912
21
41.2306524249
31
0.0000000000
11
16.8615330150
21
41.6223211433
31
0.0000000000
11
17.2533388329
21
41.9233093708
31
0.0000000000
11
17.7100430811
21
42.1132632774
31
0.0000000000
11
18.2013001671
21
42.1790332989
31
0.0000000000
0
SPLINE
5
3AA
100
AcDbEntity
8
0
100
AcDbSpline
62
9
6
CONTINUOUS
70
0
71
3
72
11
73
7
74
5
42
0.0000001000
43
0.0000001000
44
0.0000000001
12
-0.6831741421
22
0.5890787952
32
0.0000000000
13
0.0000109953
23
0.9020757924
33
0.0000000000
40
0.0000000000
40
0.0000000000
40
0.0000000000
40
0.0000000000
40
0.0929951541
40
0.3130520632
40
0.6303190484
40
1.0000000000
40
1.0000000000
40
1.0000000000
40
1.0000000000
10
18.2013001670
20
-42.1958315898
30
0.0000000000
10
18.1801228721
20
-42.1775710986
30
0.0000000000
10
18.1847899724
20
-42.0678907698
30
0.0000000000
10
18.1561759214
20
-41.8920329814
30
0.0000000000
10
18.1536327211
20
-41.6131073873
30
0.0000000000
10
18.1493873152
20
-41.4083043070
30
0.0000000000
10
18.1493886702
20
-41.2971442278
30
0.0000000000
11
18.2013001670
21
-42.1958315898
31
0.0000000000
11
18.1812297678
21
-42.1143792156
31
0.0000000000
11
18.1644274033
21
-41.9165835866
31
0.0000000000
11
18.1532849818
21
-41.6306017026
31
0.0000000000
11
18.1493886702
21
-41.2971442278
31
0.0000000000
0
SPLINE
5
3AB
100
AcDbEntity
8
0
100
AcDbSpline
62
9
6
CONTINUOUS
70
0
71
3
72
13
73
9
74
7
42
0.0000001000
43
0.0000001000
44
0.0000000001
12
-1.5628134854
22
0.0003281875
32
0.0000000000
13
-0.0004220161
23
1.5628134629
33
0.0000000000
40
0.0000000000
40
0.0000000000
40
0.0000000000
40
0.0000000000
40
0.1663928977
40
0.3337183545
40
0.5008504408
40
0.6678110905
40
0.8345249893
40
1.0000000000
40
1.0000000000
40
1.0000000000
40
1.0000000000
10
18.1493886630
20
-41.2971442278
30
0.0000000000
10
18.0627083082
20
-41.2971260251
30
0.0000000000
10
17.8880214924
20
-41.2745223675
30
0.0000000000
10
17.6440219106
20
-41.1742877727
30
0.0000000000
10
17.4339137290
20
-41.0140180467
30
0.0000000000
10
17.2730362537
20
-40.8047622464
30
0.0000000000
10
17.1724783835
20
-40.5618278403
30
0.0000000000
10
17.1498215750
20
-40.3879318496
30
0.0000000000
10
17.1497982973
20
-40.3017296581
30
0.0000000000
11
18.1493886630
21
-41.2971442278
31
0.0000000000
11
17.8915200163
21
-41.2636014311
31
0.0000000000
11
17.6496320069
21
-41.1642452579
31
0.0000000000
11
17.4420181035
21
-41.0057524635
31
0.0000000000
11
17.2829635150
21
-40.7989065129
31
0.0000000000
11
17.1833778554
21
-40.5581468543
31
0.0000000000
11
17.1497982973
21
-40.3017296581
31
0.0000000000
0
SPLINE
5
3AC
100
AcDbEntity
8
0
100
AcDbSpline
62
9
6
CONTINUOUS
70
0
71
3
72
13
73
9
74
7
42
0.0000001000
43
0.0000001000
44
0.0000000001
12
-2.9657320059
22
0.0086084302
32
0.0000000000
13
-0.0042278712
23
2.9657414858
33
0.0000000000
40
0.0000000000
40
0.0000000000
40
0.0000000000
40
0.0000000000
40
0.1671216168
40
0.3339035187
40
0.5004959420
40
0.6669641217
40
0.8333854714
40
1.0000000000
40
1.0000000000
40
1.0000000000
40
1.0000000000
10
18.2013001670
20
-42.1958315898
30
0.0000000000
10
18.0360875244
20
-42.1953520382
30
0.0000000000
10
17.7044864028
20
-42.1511598351
30
0.0000000000
10
17.2427098760
20
-41.9589465216
30
0.0000000000
10
16.8462576003
20
-41.6545651199
30
0.0000000000
10
16.5422467018
20
-41.2582724553
30
0.0000000000
10
16.3507478314
20
-40.7972514552
30
0.0000000000
10
16.3070862015
20
-40.4664415107
30
0.0000000000
10
16.3068513932
20
-40.3017296375
30
0.0000000000
11
18.2013001670
21
-42.1958315898
31
0.0000000000
11
17.7100432754
21
-42.1300615979
31
0.0000000000
11
17.2533389465
21
-41.9401077245
31
0.0000000000
11
16.8615331040
21
-41.6391195140
31
0.0000000000
11
16.5609713470
21
-41.2474507992
31
0.0000000000
11
16.3718017821
21
-40.7915785465
31
0.0000000000
11
16.3068513932
21
-40.3017296375
31
0.0000000000
0
SPLINE
5
3AD
100
AcDbEntity
8
0
100
AcDbSpline
62
0
6
CONTINUOUS
70
0
71
3
72
9
73
5
74
3
42
0.0000001000
43
0.0000001000
44
0.0000000001
12
0.0000000000
22
-0.9463280282
32
0.0000000000
13
-0.0363012593
23
-0.9380221884
33
0.0000000000
40
0.0000000000
40
0.0000000000
40
0.0000000000
40
0.0000000000
40
0.5110220041
40
1.0000000000
40
1.0000000000
40
1.0000000000
40
1.0000000000
10
-15.3842362753
20
-40.5172083436
30
0.0000000000
10
-15.3842362753
20
-40.6784064921
30
0.0000000000
10
-15.3869029795
20
-40.9932000293
30
0.0000000000
10
-15.3943965019
20
-41.3104712128
30
0.0000000000
10
-15.4003133409
20
-41.4633619494
30
0.0000000000
11
-15.3842362753
21
-40.5172083436
31
0.0000000000
11
-15.3882222565
21
-41.0007863619
31
0.0000000000
11
-15.4003133409
21
-41.4633619494
31
0.0000000000
0
SPLINE
5
3AE
100
AcDbEntity
8
0
100
AcDbSpline
62
0
6
CONTINUOUS
70
0
71
3
72
11
73
7
74
5
42
0.0000001000
43
0.0000001000
44
0.0000000001
12
-0.0366523441
22
-0.9470941963
32
0.0000000000
13
-0.9554803653
23
0.0000020977
33
0.0000000000
40
0.0000000000
40
0.0000000000
40
0.0000000000
40
0.0000000000
40
0.4098698225
40
0.7248647388
40
0.9268011108
40
1.0000000000
40
1.0000000000
40
1.0000000000
40
1.0000000000
10
-15.4003133409
20
-41.4633619494
30
0.0000000000
10
-15.4053209042
20
-41.5927570594
30
0.0000000000
10
-15.4170304302
20
-41.8187479820
30
0.0000000000
10
-15.4348985058
20
-42.1324803539
30
0.0000000000
10
-15.4671375442
20
-42.2822517680
30
0.0000000000
10
-15.4795241582
20
-42.4083990621
30
0.0000000000
10
-15.5028375253
20
-42.4083990109
30
0.0000000000
11
-15.4003133409
21
-41.4633619494
31
0.0000000000
11
-15.4192873412
21
-41.8545246046
31
0.0000000000
11
-15.4438636198
21
-42.1544909776
31
0.0000000000
11
-15.4727461630
21
-42.3452632231
31
0.0000000000
11
-15.5028375253
21
-42.4083990109
31
0.0000000000
0
SPLINE
5
3AF
100
AcDbEntity
8
0
100
AcDbSpline
62
0
6
CONTINUOUS
70
0
71
3
72
12
73
8
74
6
42
0.0000001000
43
0.0000001000
44
0.0000000001
12
0.9974263875
22
0.0000021898
32
0.0000000000
13
0.0356788321
23
-0.9911564757
33
0.0000000000
40
0.0000000000
40
0.0000000000
40
0.0000000000
40
0.0000000000
40
0.0701205645
40
0.2635646532
40
0.5653126935
40
0.9579457465
40
1.0000000000
40
1.0000000000
40
1.0000000000
40
1.0000000000
10
-15.5028375253
20
42.3916007287
30
0.0000000000
10
-15.4795241582
20
42.3916007798
30
0.0000000000
10
-15.4671375442
20
42.2654534858
30
0.0000000000
10
-15.4348985058
20
42.1156820716
30
0.0000000000
10
-15.4170304302
20
41.8019496998
30
0.0000000000
10
-15.4046117325
20
41.5622719421
30
0.0000000000
10
-15.3992591484
20
41.4188266190
30
0.0000000000
10
-15.3987589995
20
41.4049325038
30
0.0000000000
11
-15.5028375253
21
42.3916007287
31
0.0000000000
11
-15.4727461630
21
42.3284649409
31
0.0000000000
11
-15.4438636198
21
42.1376926954
31
0.0000000000
11
-15.4192873412
21
41.8377263224
31
0.0000000000
11
-15.4003133409
21
41.4465636672
31
0.0000000000
11
-15.3987589995
21
41.4049325038
31
0.0000000000
0
SPLINE
5
3B0
100
AcDbEntity
8
0
100
AcDbSpline
62
0
6
CONTINUOUS
70
0
71
3
72
9
73
5
74
3
42
0.0000001000
43
0.0000001000
44
0.0000000001
12
0.0323505516
22
-0.8986969797
32
0.0000000000
13
0.0000000000
23
-0.9043820061
33
0.0000000000
40
0.0000000000
40
0.0000000000
40
0.0000000000
40
0.0000000000
40
0.4652763519
40
1.0000000000
40
1.0000000000
40
1.0000000000
40
1.0000000000
10
-15.3987589995
20
41.4049325038
30
0.0000000000
10
-15.3937416839
20
41.2655516864
30
0.0000000000
10
-15.3867847777
20
40.9624485128
30
0.0000000000
10
-15.3842362753
20
40.6616082099
30
0.0000000000
10
-15.3842362753
20
40.5004100614
30
0.0000000000
11
-15.3987589995
21
41.4049325038
31
0.0000000000
11
-15.3882222565
21
40.9839880796
31
0.0000000000
11
-15.3842362753
21
40.5004100614
31
0.0000000000
0
SPLINE
5
3B1
100
AcDbEntity
8
0
100
AcDbSpline
62
0
6
CONTINUOUS
70
0
71
3
72
9
73
5
74
3
42
0.0000001000
43
0.0000001000
44
0.0000000001
12
-1.7817274537
22
0.0000039125
32
0.0000000000
13
-0.0000000037
23
0.0000000000
33
0.0000000000
40
0.0000000000
40
0.0000000000
40
0.0000000000
40
0.0000000000
40
0.7499410326
40
1.0000000000
40
1.0000000000
40
1.0000000000
40
1.0000000000
10
-15.5028375253
20
-42.4083990109
30
0.0000000000
10
-15.9482343674
20
-42.4083980328
30
0.0000000000
10
-16.3194450982
20
-42.4083972037
30
0.0000000000
10
-17.2845649783
20
-42.4083657489
30
0.0000000000
10
-17.2845649786
20
-42.4083657489
30
0.0000000000
11
-15.5028375253
21
-42.4083990109
31
0.0000000000
11
-16.8390280515
21
-42.4083795650
31
0.0000000000
11
-17.2845649786
21
-42.4083657489
31
0.0000000000
0
SPLINE
5
3B2
100
AcDbEntity
8
0
100
AcDbSpline
62
0
6
CONTINUOUS
70
0
71
3
72
11
73
7
74
5
42
0.0000001000
43
0.0000001000
44
0.0000000001
12
-3.5634549074
22
-0.0000078249
32
0.0000000000
13
3.5634549074
23
0.0000078249
33
0.0000000000
40
0.0000000000
40
0.0000000000
40
0.0000000000
40
0.0000000000
40
0.3749705161
40
0.5000000000
40
0.6250294839
40
1.0000000000
40
1.0000000000
40
1.0000000000
40
1.0000000000
10
-15.5028375253
20
42.3916007287
30
0.0000000000
10
-15.9482343672
20
42.3915997506
30
0.0000000000
10
-16.3194450976
20
42.3915989215
30
0.0000000000
10
-17.5259018598
20
42.3915596011
30
0.0000000000
10
-16.3194450976
20
42.3915989215
30
0.0000000000
10
-15.9482343672
20
42.3915997506
30
0.0000000000
10
-15.5028375253
20
42.3916007287
30
0.0000000000
11
-15.5028375253
21
42.3916007287
31
0.0000000000
11
-16.8390280510
21
42.3915812828
31
0.0000000000
11
-17.2845649786
21
42.3915674667
31
0.0000000000
11
-16.8390280510
21
42.3915812828
31
0.0000000000
11
-15.5028375253
21
42.3916007287
31
0.0000000000
0
SPLINE
5
3B3
100
AcDbEntity
8
0
100
AcDbSpline
62
9
6
CONTINUOUS
70
0
71
3
72
8
73
4
74
2
42
0.0000001000
43
0.0000001000
44
0.0000000001
12
-0.0000015227
22
-0.1290941871
32
0.0000000000
13
-0.0005243572
23
-0.1290950996
33
0.0000000000
40
0.0000000000
40
0.0000000000
40
0.0000000000
40
0.0000000000
40
1.0000000000
40
1.0000000000
40
1.0000000000
40
1.0000000000
10
-21.4987582190
20
-24.9659919042
30
0.0000000000
10
-21.4987587265
20
-25.0090232999
30
0.0000000000
10
-21.4988433852
20
-25.0520556257
30
0.0000000000
10
-21.4990181710
20
-25.0950873256
30
0.0000000000
11
-21.4987582190
21
-24.9659919042
31
0.0000000000
11
-21.4990181710
21
-25.0950873256
31
0.0000000000
0
SPLINE
5
3B4
100
AcDbEntity
8
0
100
AcDbSpline
62
9
6
CONTINUOUS
70
0
71
3
72
11
73
7
74
5
42
0.0000001000
43
0.0000001000
44
0.0000000001
12
-0.0026265041
22
-0.6466371230
32
0.0000000000
13
-0.0213462571
23
-0.6459414831
33
0.0000000000
40
0.0000000000
40
0.0000000000
40
0.0000000000
40
0.0000000000
40
0.2349927571
40
0.6010239004
40
0.9080885970
40
1.0000000000
40
1.0000000000
40
1.0000000000
40
1.0000000000
10
-21.4990181710
20
-25.0950873256
30
0.0000000000
10
-21.4992239074
20
-25.1457390057
30
0.0000000000
10
-21.5000694811
20
-25.2752849095
30
0.0000000000
10
-21.5026775579
20
-25.4709825044
30
0.0000000000
10
-21.5062121776
20
-25.6358972988
30
0.0000000000
10
-21.5089060557
20
-25.7217905074
30
0.0000000000
10
-21.5095600438
20
-25.7415803034
30
0.0000000000
11
-21.4990181710
21
-25.0950873256
31
0.0000000000
11
-21.5000197427
21
-25.2470372264
31
0.0000000000
11
-21.5031949138
21
-25.4837035805
31
0.0000000000
11
-21.5077100215
21
-25.6822102669
31
0.0000000000
11
-21.5095600438
21
-25.7415803034
31
0.0000000000
0
SPLINE
5
3B5
100
AcDbEntity
8
0
100
AcDbSpline
62
9
6
CONTINUOUS
70
0
71
3
72
11
73
7
74
5
42
0.0000001000
43
0.0000001000
44
0.0000000001
12
-0.0125591026
22
-0.3800406467
32
0.0000000000
13
-0.0349497351
23
-0.3847658756
33
0.0000000000
40
0.0000000000
40
0.0000000000
40
0.0000000000
40
0.0000000000
40
0.2869799950
40
0.6609030996
40
0.9506378776
40
1.0000000000
40
1.0000000000
40
1.0000000000
40
1.0000000000
10
-21.5095600438
20
-25.7415803034
30
0.0000000000
10
-21.5107614476
20
-25.7779349910
30
0.0000000000
10
-21.5137878441
20
-25.8616795767
30
0.0000000000
10
-21.5184462542
20
-25.9826258914
30
0.0000000000
10
-21.5276274460
20
-26.0715480434
30
0.0000000000
10
-21.5301420280
20
-26.1154211785
30
0.0000000000
10
-21.5307170924
20
-26.1217521319
30
0.0000000000
11
-21.5095600438
21
-25.7415803034
31
0.0000000000
11
-21.5134297311
21
-25.8507268788
31
0.0000000000
11
-21.5205392137
21
-25.9928071286
31
0.0000000000
11
-21.5293706954
21
-26.1026815681
31
0.0000000000
11
-21.5307170924
21
-26.1217521319
31
0.0000000000
0
SPLINE
5
3B6
100
AcDbEntity
8
0
100
AcDbSpline
62
9
6
CONTINUOUS
70
0
71
3
72
8
73
4
74
2
42
0.0000001000
43
0.0000001000
44
0.0000000001
12
-0.0024205632
22
-0.0266482741
32
0.0000000000
13
-0.0069465325
23
-0.0252521289
33
0.0000000000
40
0.0000000000
40
0.0000000000
40
0.0000000000
40
0.0000000000
40
1.0000000000
40
1.0000000000
40
1.0000000000
40
1.0000000000
10
-21.5307170924
20
-26.1217521319
30
0.0000000000
10
-21.5315239468
20
-26.1306348900
30
0.0000000000
10
-21.5327422745
20
-26.1394081323
30
0.0000000000
10
-21.5350577853
20
-26.1478255086
30
0.0000000000
11
-21.5307170924
21
-26.1217521319
31
0.0000000000
11
-21.5350577853
21
-26.1478255086
31
0.0000000000
0
SPLINE
5
3B7
100
AcDbEntity
8
0
100
AcDbSpline
62
9
6
CONTINUOUS
70
0
71
3
72
8
73
4
74
2
42
0.0000001000
43
0.0000001000
44
0.0000000001
12
-0.0038266809
22
-0.0139108023
32
0.0000000000
13
-0.0061683136
23
-0.0131392969
33
0.0000000000
40
0.0000000000
40
0.0000000000
40
0.0000000000
40
0.0000000000
40
1.0000000000
40
1.0000000000
40
1.0000000000
40
1.0000000000
10
-21.5350577853
20
-26.1478255086
30
0.0000000000
10
-21.5363333456
20
-26.1524624427
30
0.0000000000
10
-21.5379418624
20
-26.1569913840
30
0.0000000000
10
-21.5399979670
20
-26.1613711496
30
0.0000000000
11
-21.5350577853
21
-26.1478255086
31
0.0000000000
11
-21.5399979670
21
-26.1613711496
31
0.0000000000
0
SPLINE
5
3B8
100
AcDbEntity
8
0
100
AcDbSpline
62
9
6
CONTINUOUS
70
0
71
3
72
25
73
21
74
19
42
0.0000001000
43
0.0000001000
44
0.0000000001
12
-1.2420129595
22
-2.6562603202
32
0.0000000000
13
1.2421889447
23
2.6561850132
33
0.0000000000
40
0.0000000000
40
0.0000000000
40
0.0000000000
40
0.0000000000
40
0.0569936729
40
0.1282098571
40
0.2071011984
40
0.2871743199
40
0.3622693825
40
0.4268893357
40
0.4764742792
40
0.5076124701
40
0.5181903884
40
0.5288927159
40
0.5601580879
40
0.6098677215
40
0.6745964707
40
0.7497642339
40
0.8298489058
40
0.9086634771
40
0.9796886049
40
1.0000000000
40
1.0000000000
40
1.0000000000
40
1.0000000000
10
-21.5399979670
20
-26.1613711496
30
0.0000000000
10
-21.5635935937
20
-26.2118344935
30
0.0000000000
10
-21.6166812153
20
-26.3253564375
30
0.0000000000
10
-21.7024389686
20
-26.5086851016
30
0.0000000000
10
-21.7978527944
20
-26.7125848496
30
0.0000000000
10
-21.8946308074
20
-26.9193240992
30
0.0000000000
10
-21.9864588972
20
-27.1154165159
30
0.0000000000
10
-22.0628186655
20
-27.2784202349
30
0.0000000000
10
-22.1284114308
20
-27.4184000673
30
0.0000000000
10
-22.1564028591
20
-27.4781258437
30
0.0000000000
10
-22.1913457531
20
-27.5526921760
30
0.0000000000
10
-22.1561533363
20
-27.4775934077
30
0.0000000000
10
-22.1281446079
20
-27.4178307220
30
0.0000000000
10
-22.0623401942
20
-27.2773990219
30
0.0000000000
10
-21.9858758759
20
-27.1141717731
30
0.0000000000
10
-21.8939611952
20
-26.9178939107
30
0.0000000000
10
-21.7971820413
20
-26.7111517001
30
0.0000000000
10
-21.7018742045
20
-26.5074779454
30
0.0000000000
10
-21.6314171612
20
-26.3568581035
30
0.0000000000
10
-21.5935971816
20
-26.2759910945
30
0.0000000000
10
-21.5851869848
20
-26.2580074867
30
0.0000000000
11
-21.5399979670
21
-26.1613711496
31
0.0000000000
11
-21.6107925833
21
-26.3127575640
31
0.0000000000
11
-21.6992753517
21
-26.5019116290
31
0.0000000000
11
-21.7973221655
21
-26.7114382184
31
0.0000000000
11
-21.8968678987
21
-26.9240893530
31
0.0000000000
11
-21.9902532755
21
-27.1235069501
31
0.0000000000
11
-22.0706354760
21
-27.2950966232
31
0.0000000000
11
-22.1323287304
21
-27.4267565361
31
0.0000000000
11
-22.1710743231
21
-27.5094341811
31
0.0000000000
11
-22.1842361646
21
-27.5375206842
31
0.0000000000
11
-22.1709195165
21
-27.5091038529
31
0.0000000000
11
-22.1320156756
21
-27.4260885164
31
0.0000000000
11
-22.0701673529
21
-27.2940974887
31
0.0000000000
11
-21.9896499558
21
-27.1222188579
31
0.0000000000
11
-21.8961743751
21
-26.9226081063
31
0.0000000000
11
-21.7966144961
21
-26.7099261972
31
0.0000000000
11
-21.6986632905
21
-26.5006034077
31
0.0000000000
11
-21.6104180338
21
-26.3119567368
31
0.0000000000
11
-21.5851869848
21
-26.2580074867
31
0.0000000000
0
SPLINE
5
3B9
100
AcDbEntity
8
0
100
AcDbSpline
62
9
6
CONTINUOUS
70
0
71
3
72
23
73
19
74
17
42
0.0000001000
43
0.0000001000
44
0.0000000001
12
-1.0835235681
22
-2.3159190986
32
0.0000000000
13
1.0829280776
23
2.3156359122
33
0.0000000000
40
0.0000000000
40
0.0000000000
40
0.0000000000
40
0.0000000000
40
0.0904935000
40
0.1823425788
40
0.2684815001
40
0.3426047897
40
0.3994819452
40
0.4351994755
40
0.4473330359
40
0.4596093017
40
0.4954727171
40
0.5524929001
40
0.6267409859
40
0.7129632995
40
0.8048256274
40
0.8952310672
40
0.9767015086
40
1.0000000000
40
1.0000000000
40
1.0000000000
40
1.0000000000
10
-21.6992753517
20
-26.5019116290
30
0.0000000000
10
-21.7319592983
20
-26.5717701706
30
0.0000000000
10
-21.7978527944
20
-26.7125848496
30
0.0000000000
10
-21.8946308074
20
-26.9193240992
30
0.0000000000
10
-21.9864588972
20
-27.1154165159
30
0.0000000000
10
-22.0628186655
20
-27.2784202349
30
0.0000000000
10
-22.1284114308
20
-27.4184000673
30
0.0000000000
10
-22.1564028591
20
-27.4781258437
30
0.0000000000
10
-22.1913457531
20
-27.5526921760
30
0.0000000000
10
-22.1561533363
20
-27.4775934077
30
0.0000000000
10
-22.1281446079
20
-27.4178307220
30
0.0000000000
10
-22.0623401942
20
-27.2773990219
30
0.0000000000
10
-21.9858758759
20
-27.1141717731
30
0.0000000000
10
-21.8939611952
20
-26.9178939107
30
0.0000000000
10
-21.7971820413
20
-26.7111517001
30
0.0000000000
10
-21.7018742045
20
-26.5074779454
30
0.0000000000
10
-21.6314171612
20
-26.3568581035
30
0.0000000000
10
-21.5935971816
20
-26.2759910945
30
0.0000000000
10
-21.5851869848
20
-26.2580074867
30
0.0000000000
11
-21.6992753517
21
-26.5019116290
31
0.0000000000
11
-21.7973221655
21
-26.7114382184
31
0.0000000000
11
-21.8968678987
21
-26.9240893530
31
0.0000000000
11
-21.9902532755
21
-27.1235069501
31
0.0000000000
11
-22.0706354760
21
-27.2950966232
31
0.0000000000
11
-22.1323287304
21
-27.4267565361
31
0.0000000000
11
-22.1710743231
21
-27.5094341811
31
0.0000000000
11
-22.1842361646
21
-27.5375206842
31
0.0000000000
11
-22.1709195165
21
-27.5091038529
31
0.0000000000
11
-22.1320156756
21
-27.4260885164
31
0.0000000000
11
-22.0701673529
21
-27.2940974887
31
0.0000000000
11
-21.9896499558
21
-27.1222188579
31
0.0000000000
11
-21.8961743751
21
-26.9226081063
31
0.0000000000
11
-21.7966144961
21
-26.7099261972
31
0.0000000000
11
-21.6986632905
21
-26.5006034077
31
0.0000000000
11
-21.6104180338
21
-26.3119567368
31
0.0000000000
11
-21.5851869848
21
-26.2580074867
31
0.0000000000
0
SPLINE
5
3BA
100
AcDbEntity
8
0
100
AcDbSpline
62
9
6
CONTINUOUS
70
0
71
3
72
10
73
6
74
4
42
0.0000001000
43
0.0000001000
44
0.0000000001
12
-0.2909060330
22
-0.6217814337
32
0.0000000000
13
-0.2879287232
23
-0.6147374897
33
0.0000000000
40
0.0000000000
40
0.0000000000
40
0.0000000000
40
0.0000000000
40
0.3370567430
40
0.6791625446
40
1.0000000000
40
1.0000000000
40
1.0000000000
40
1.0000000000
10
-21.6992753517
20
-26.5019116290
30
0.0000000000
10
-21.7319592983
20
-26.5717701706
30
0.0000000000
10
-21.7978527944
20
-26.7125848496
30
0.0000000000
10
-21.8946308074
20
-26.9193240992
30
0.0000000000
10
-21.9594605026
20
-27.0577633462
30
0.0000000000
10
-21.9902532755
20
-27.1235069501
30
0.0000000000
11
-21.6992753517
21
-26.5019116290
31
0.0000000000
11
-21.7973221655
21
-26.7114382184
31
0.0000000000
11
-21.8968678987
21
-26.9240893530
31
0.0000000000
11
-21.9902532755
21
-27.1235069501
31
0.0000000000
0
SPLINE
5
3BB
100
AcDbEntity
8
0
100
AcDbSpline
62
9
6
CONTINUOUS
70
0
71
3
72
11
73
7
74
5
42
0.0000001000
43
0.0000001000
44
0.0000000001
12
-0.1918294212
22
-0.4095622539
32
0.0000000000
13
0.0000000557
23
-0.0000000269
33
0.0000000000
40
0.0000000000
40
0.0000000000
40
0.0000000000
40
0.0000000000
40
0.4143907897
40
0.7323660109
40
0.9320470515
40
1.0000000000
40
1.0000000000
40
1.0000000000
40
1.0000000000
10
-21.9902532755
20
-27.1235069501
30
0.0000000000
10
-22.0167507240
20
-27.1800798921
30
0.0000000000
10
-22.0628186845
20
-27.2784202755
30
0.0000000000
10
-22.1284113885
20
-27.4183999769
30
0.0000000000
10
-22.1564086434
20
-27.4781381857
30
0.0000000000
10
-22.1842362312
20
-27.5375208231
30
0.0000000000
10
-22.1842362299
20
-27.5375208237
30
0.0000000000
11
-21.9902532755
21
-27.1235069501
31
0.0000000000
11
-22.0706354760
21
-27.2950966232
31
0.0000000000
11
-22.1323287304
21
-27.4267565361
31
0.0000000000
11
-22.1710743231
21
-27.5094341811
31
0.0000000000
11
-22.1842362299
21
-27.5375208237
31
0.0000000000
0
SPLINE
5
3BC
100
AcDbEntity
8
0
100
AcDbSpline
62
9
6
CONTINUOUS
70
0
71
3
72
8
73
4
74
2
42
0.0000001000
43
0.0000001000
44
0.0000000001
12
-0.0001255307
22
0.0432865896
32
0.0000000000
13
0.0184723816
23
0.0397686123
33
0.0000000000
40
0.0000000000
40
0.0000000000
40
0.0000000000
40
0.0000000000
40
1.0000000000
40
1.0000000000
40
1.0000000000
40
1.0000000000
10
-21.5399979668
20
-26.1613711496
30
0.0000000000
10
-21.5400398104
20
-26.1469422864
30
0.0000000000
10
-21.5368001047
20
-26.1322799101
30
0.0000000000
10
-21.5306426442
20
-26.1190237060
30
0.0000000000
11
-21.5399979668
21
-26.1613711496
31
0.0000000000
11
-21.5306426442
21
-26.1190237060
31
0.0000000000
0
SPLINE
5
3BD
100
AcDbEntity
8
0
100
AcDbSpline
62
9
6
CONTINUOUS
70
0
71
3
72
11
73
7
74
5
42
0.0000001000
43
0.0000001000
44
0.0000000001
12
-0.1915289868
22
0.4089206496
32
0.0000000000
13
-0.0000000550
23
-0.0000000337
33
0.0000000000
40
0.0000000000
40
0.0000000000
40
0.0000000000
40
0.0000000000
40
0.4111893034
40
0.7301600370
40
0.9310867292
40
1.0000000000
40
1.0000000000
40
1.0000000000
40
1.0000000000
10
-21.9903863038
20
27.1069926899
30
0.0000000000
10
-22.0166378607
20
27.1630406222
30
0.0000000000
10
-22.0625270400
20
27.2609994743
30
0.0000000000
10
-22.1280553783
20
27.4008420094
30
0.0000000000
10
-22.1560167362
20
27.4605036335
30
0.0000000000
10
-22.1842359796
20
27.5207220096
30
0.0000000000
10
-22.1842359809
20
27.5207220088
30
0.0000000000
11
-21.9903863038
21
27.1069926899
31
0.0000000000
11
-22.0700665108
21
27.2770839821
31
0.0000000000
11
-22.1318835247
21
27.4090082215
31
0.0000000000
11
-22.1708271473
21
27.4921084614
31
0.0000000000
11
-22.1842359809
21
27.5207220088
31
0.0000000000
0
SPLINE
5
3BE
100
AcDbEntity
8
0
100
AcDbSpline
62
9
6
CONTINUOUS
70
0
71
3
72
10
73
6
74
4
42
0.0000001000
43
0.0000001000
44
0.0000000001
12
-0.2911913901
22
0.6223916835
32
0.0000000000
13
-0.2880814581
23
0.6150633332
33
0.0000000000
40
0.0000000000
40
0.0000000000
40
0.0000000000
40
0.0000000000
40
0.3356801878
40
0.6770630537
40
1.0000000000
40
1.0000000000
40
1.0000000000
40
1.0000000000
10
-21.6991323436
20
26.4848076817
30
0.0000000000
10
-21.7317147371
20
26.5544492008
30
0.0000000000
10
-21.7974690125
20
26.6949665177
30
0.0000000000
10
-21.8943388918
20
26.9019024134
30
0.0000000000
10
-21.9593755883
20
27.0407837983
30
0.0000000000
10
-21.9903863038
20
27.1069926899
30
0.0000000000
11
-21.6991323436
21
26.4848076817
31
0.0000000000
11
-21.7968740726
21
26.6936825338
31
0.0000000000
11
-21.8963064046
21
26.9060918227
31
0.0000000000
11
-21.9903863038
21
27.1069926899
31
0.0000000000
0
SPLINE
5
3BF
100
AcDbEntity
8
0
100
AcDbSpline
62
9
6
CONTINUOUS
70
0
71
3
72
9
73
5
74
3
42
0.0000001000
43
0.0000001000
44
0.0000000001
12
-0.1590953354
22
0.3402529928
32
0.0000000000
13
-0.1592058996
23
0.3402862558
33
0.0000000000
40
0.0000000000
40
0.0000000000
40
0.0000000000
40
0.0000000000
40
0.4441132329
40
1.0000000000
40
1.0000000000
40
1.0000000000
40
1.0000000000
10
-21.5399979669
20
26.1445728674
30
0.0000000000
10
-21.5635500815
20
26.1949431529
30
0.0000000000
10
-21.6165900583
20
26.3083632415
30
0.0000000000
10
-21.6696321927
20
26.4217541395
30
0.0000000000
10
-21.6991323436
20
26.4848076817
30
0.0000000000
11
-21.5399979669
21
26.1445728674
31
0.0000000000
11
-21.6106620182
21
26.2956801199
31
0.0000000000
11
-21.6991323436
21
26.4848076817
31
0.0000000000
0
SPLINE
5
3C0
100
AcDbEntity
8
0
100
AcDbSpline
62
9
6
CONTINUOUS
70
0
71
3
72
13
73
9
74
7
42
0.0000001000
43
0.0000001000
44
0.0000000001
12
1.7742672947
22
-0.6661649286
32
0.0000000000
13
0.0466232778
23
-1.8946309443
33
0.0000000000
40
0.0000000000
40
0.0000000000
40
0.0000000000
40
0.0000000000
40
0.0348178014
40
0.1351400114
40
0.2940523823
40
0.5008130806
40
0.7414469816
40
1.0000000000
40
1.0000000000
40
1.0000000000
40
1.0000000000
10
-19.5705240763
20
42.1790333076
30
0.0000000000
10
-19.5499320476
20
42.1713018415
30
0.0000000000
10
-19.5870424661
20
42.0525109235
30
0.0000000000
10
-19.5407438334
20
41.8980309929
30
0.0000000000
10
-19.5514197231
20
41.5871845600
30
0.0000000000
10
-19.5314530363
20
41.2110032039
30
0.0000000000
10
-19.5219169785
20
40.7628991135
30
0.0000000000
10
-19.5130981953
20
40.4482188718
30
0.0000000000
10
-19.5090799989
20
40.2849313553
30
0.0000000000
11
-19.5705240763
21
42.1790333076
31
0.0000000000
11
-19.5651786944
21
42.1132633157
31
0.0000000000
11
-19.5569711895
21
41.9233094423
31
0.0000000000
11
-19.5464671461
21
41.6223212318
31
0.0000000000
11
-19.5344245124
21
41.2306525170
31
0.0000000000
11
-19.5216766985
21
40.7747802643
31
0.0000000000
11
-19.5090799989
21
40.2849313553
31
0.0000000000
0
SPLINE
5
3C1
100
AcDbEntity
8
0
100
AcDbSpline
62
9
6
CONTINUOUS
70
0
71
3
72
13
73
9
74
7
42
0.0000001000
43
0.0000001000
44
0.0000000001
12
1.0008694922
22
-0.0034456421
32
0.0000000000
13
0.0000169926
23
-1.0008754231
33
0.0000000000
40
0.0000000000
40
0.0000000000
40
0.0000000000
40
0.0000000000
40
0.0370303569
40
0.1374025617
40
0.2962720507
40
0.5031705416
40
0.7437986260
40
1.0000000000
40
1.0000000000
40
1.0000000000
40
1.0000000000
10
-20.4217561481
20
41.2803459456
30
0.0000000000
10
-20.4094019632
20
41.2803034145
30
0.0000000000
10
-20.4033172947
20
41.2141666298
30
0.0000000000
10
-20.3863088633
20
41.1353229164
30
0.0000000000
10
-20.3772097057
20
40.9699734079
30
0.0000000000
10
-20.3670900020
20
40.7719548842
30
0.0000000000
10
-20.3616375160
20
40.5358178153
30
0.0000000000
10
-20.3602550752
20
40.3704065954
30
0.0000000000
10
-20.3602536240
20
40.2849313759
30
0.0000000000
11
-20.4217561481
21
41.2803459456
31
0.0000000000
11
-20.4059913135
21
41.2468031488
31
0.0000000000
11
-20.3911394750
21
41.1474469756
31
0.0000000000
11
-20.3783426581
21
40.9889541813
31
0.0000000000
11
-20.3685080490
21
40.7821082307
31
0.0000000000
11
-20.3623368683
21
40.5413485721
31
0.0000000000
11
-20.3602536240
21
40.2849313759
31
0.0000000000
0
SPLINE
5
3C2
100
AcDbEntity
8
0
100
AcDbSpline
62
9
6
CONTINUOUS
70
0
71
3
72
11
73
7
74
5
42
0.0000001000
43
0.0000001000
44
0.0000000001
12
-1.3551634329
22
-0.0712784986
32
0.0000000000
13
-0.0000708994
23
-1.3570366794
33
0.0000000000
40
0.0000000000
40
0.0000000000
40
0.0000000000
40
0.0000000000
40
0.2497899947
40
0.4997086924
40
0.7497962199
40
1.0000000000
40
1.0000000000
40
1.0000000000
40
1.0000000000
10
-19.5705240763
20
42.1790333076
30
0.0000000000
10
-19.6833594985
20
42.1730984223
30
0.0000000000
10
-19.9091049882
20
42.1174157632
30
0.0000000000
10
-20.1909003144
20
41.9146723243
30
0.0000000000
10
-20.3781250201
20
41.6221364480
30
0.0000000000
10
-20.4217501181
20
41.3935245146
30
0.0000000000
10
-20.4217560312
20
41.2803459456
30
0.0000000000
11
-19.5705240763
21
42.1790333076
31
0.0000000000
11
-19.8995666406
21
42.0975809333
31
0.0000000000
11
-20.1750640542
21
41.8997853044
31
0.0000000000
11
-20.3577981611
21
41.6138034204
31
0.0000000000
11
-20.4217560312
21
41.2803459456
31
0.0000000000
0
SPLINE
5
3C3
100
AcDbEntity
8
0
100
AcDbSpline
62
9
6
CONTINUOUS
70
0
71
3
72
13
73
9
74
7
42
0.0000001000
43
0.0000001000
44
0.0000000001
12
-0.0466232685
22
-1.8946309360
32
0.0000000000
13
-1.7742645472
23
-0.6661722219
33
0.0000000000
40
0.0000000000
40
0.0000000000
40
0.0000000000
40
0.0000000000
40
0.2585529611
40
0.4991868730
40
0.7059475741
40
0.8648599548
40
0.9651821827
40
1.0000000000
40
1.0000000000
40
1.0000000000
40
1.0000000000
10
-19.5090799989
20
-40.3017296375
30
0.0000000000
10
-19.5130981937
20
-40.4650171171
30
0.0000000000
10
-19.5219169771
20
-40.7796973317
30
0.0000000000
10
-19.5314530385
20
-41.2278013784
30
0.0000000000
10
-19.5514197039
20
-41.6039827886
30
0.0000000000
10
-19.5407438665
20
-41.9148291381
30
0.0000000000
10
-19.5870424157
20
-42.0693092803
30
0.0000000000
10
-19.5499320696
20
-42.1881000269
30
0.0000000000
10
-19.5705240759
20
-42.1958315811
30
0.0000000000
11
-19.5090799989
21
-40.3017296375
31
0.0000000000
11
-19.5216766965
21
-40.7915784357
31
0.0000000000
11
-19.5344245095
21
-41.2474507071
31
0.0000000000
11
-19.5464671426
21
-41.6391194256
31
0.0000000000
11
-19.5569711887
21
-41.9401076531
31
0.0000000000
11
-19.5651786887
21
-42.1300615596
31
0.0000000000
11
-19.5705240759
21
-42.1958315811
31
0.0000000000
0
SPLINE
5
3C4
100
AcDbEntity
8
0
100
AcDbSpline
62
9
6
CONTINUOUS
70
0
71
3
72
13
73
9
74
7
42
0.0000001000
43
0.0000001000
44
0.0000000001
12
-0.0000169899
22
-1.0008754235
32
0.0000000000
13
-1.0008694873
23
-0.0034471882
33
0.0000000000
40
0.0000000000
40
0.0000000000
40
0.0000000000
40
0.0000000000
40
0.2562013734
40
0.4968294586
40
0.7037279491
40
0.8625974361
40
0.9629696475
40
1.0000000000
40
1.0000000000
40
1.0000000000
40
1.0000000000
10
-20.3602536240
20
-40.3017296581
30
0.0000000000
10
-20.3602550750
20
-40.3872048775
30
0.0000000000
10
-20.3616375162
20
-40.5526160982
30
0.0000000000
10
-20.3670900022
20
-40.7887531642
30
0.0000000000
10
-20.3772097046
20
-40.9867716961
30
0.0000000000
10
-20.3863088660
20
-41.1521211843
30
0.0000000000
10
-20.4033172914
20
-41.2309649382
30
0.0000000000
10
-20.4094019648
20
-41.2971016776
30
0.0000000000
10
-20.4217561481
20
-41.2971442278
30
0.0000000000
11
-20.3602536240
21
-40.3017296581
31
0.0000000000
11
-20.3623368684
21
-40.5581468538
31
0.0000000000
11
-20.3685080490
21
-40.7989065133
31
0.0000000000
11
-20.3783426581
21
-41.0057524636
31
0.0000000000
11
-20.3911394750
21
-41.1642452560
31
0.0000000000
11
-20.4059913134
21
-41.2636014360
31
0.0000000000
11
-20.4217561481
21
-41.2971442278
31
0.0000000000
0
SPLINE
5
3C5
100
AcDbEntity
8
0
100
AcDbSpline
62
9
6
CONTINUOUS
70
0
71
3
72
9
73
5
74
3
42
0.0000001000
43
0.0000001000
44
0.0000000001
12
-1.7608104987
22
-0.0004070750
32
0.0000000000
13
-0.0000000000
23
0.0000000000
33
0.0000000000
40
0.0000000000
40
0.0000000000
40
0.0000000000
40
0.0000000000
40
0.7498987000
40
1.0000000000
40
1.0000000000
40
1.0000000000
40
1.0000000000
10
-19.5705279844
20
-42.1959061849
30
0.0000000000
10
-20.0106711523
20
-42.1960079399
30
0.0000000000
10
-20.3775361822
20
-42.1960926276
30
0.0000000000
10
-21.3313386360
20
-42.1962833283
30
0.0000000000
10
-21.3313386360
20
-42.1962833283
30
0.0000000000
11
-19.5705279844
21
-42.1959061849
31
0.0000000000
11
-20.8909574921
21
-42.1961945705
31
0.0000000000
11
-21.3313386360
21
-42.1962833283
31
0.0000000000
0
SPLINE
5
3C6
100
AcDbEntity
8
0
100
AcDbSpline
62
9
6
CONTINUOUS
70
0
71
3
72
11
73
7
74
5
42
0.0000001000
43
0.0000001000
44
0.0000000001
12
-1.3552268942
22
0.0712899801
32
0.0000000000
13
-0.0000011488
23
1.3571006581
33
0.0000000000
40
0.0000000000
40
0.0000000000
40
0.0000000000
40
0.0000000000
40
0.2497863483
40
0.4997036345
40
0.7497926832
40
1.0000000000
40
1.0000000000
40
1.0000000000
40
1.0000000000
10
-19.5705279844
20
-42.1959061849
30
0.0000000000
10
-19.6833670433
20
-42.1899704303
30
0.0000000000
10
-19.9091206217
20
-42.1342813188
30
0.0000000000
10
-20.1909204572
20
-41.9315177709
30
0.0000000000
10
-20.3781403277
20
-41.6389570361
30
0.0000000000
10
-20.4217559668
20
-41.4103297326
30
0.0000000000
10
-20.4217560626
20
-41.2971442278
30
0.0000000000
11
-19.5705279844
21
-42.1959061849
31
0.0000000000
11
-19.8995798227
21
-42.1144453636
31
0.0000000000
11
-20.1750813458
21
-41.9166313279
31
0.0000000000
11
-20.3578114085
21
-41.6306254231
31
0.0000000000
11
-20.4217560626
21
-41.2971442278
31
0.0000000000
0
SPLINE
5
3C7
100
AcDbEntity
8
0
100
AcDbSpline
62
9
6
CONTINUOUS
70
0
71
3
72
8
73
4
74
2
42
0.0000001000
43
0.0000001000
44
0.0000000001
12
0.0173491259
22
-0.0369682375
32
0.0000000000
13
0.0036524988
23
-0.0413419684
33
0.0000000000
40
0.0000000000
40
0.0000000000
40
0.0000000000
40
0.0000000000
40
1.0000000000
40
1.0000000000
40
1.0000000000
40
1.0000000000
10
-21.5399979670
20
26.1445728673
30
0.0000000000
10
-21.5342149250
20
26.1322501215
30
0.0000000000
10
-21.5321126790
20
26.1186913793
30
0.0000000000
10
-21.5308951794
20
26.1049107232
30
0.0000000000
11
-21.5399979670
21
26.1445728673
31
0.0000000000
11
-21.5308951794
21
26.1049107232
31
0.0000000000
0
SPLINE
5
3C8
100
AcDbEntity
8
0
100
AcDbSpline
62
9
6
CONTINUOUS
70
0
71
3
72
10
73
6
74
4
42
0.0000001000
43
0.0000001000
44
0.0000000001
12
0.0143268516
22
-0.1621630250
32
0.0000000000
13
0.0092233982
23
-0.1597916616
33
0.0000000000
40
0.0000000000
40
0.0000000000
40
0.0000000000
40
0.0000000000
40
0.0969850612
40
0.7394999796
40
1.0000000000
40
1.0000000000
40
1.0000000000
40
1.0000000000
10
-21.5308951794
20
26.1049107232
30
0.0000000000
10
-21.5304320159
20
26.0996682596
30
0.0000000000
10
-21.5278767468
20
26.0594501974
30
0.0000000000
10
-21.5223854863
20
26.0069291479
30
0.0000000000
10
-21.5192391582
20
25.9589343074
30
0.0000000000
10
-21.5184382597
20
25.9450590637
30
0.0000000000
11
-21.5308951794
21
26.1049107232
31
0.0000000000
11
-21.5297358761
21
26.0891428159
31
0.0000000000
11
-21.5212052757
21
25.9865779956
31
0.0000000000
11
-21.5184382597
21
25.9450590637
31
0.0000000000
0
SPLINE
5
3C9
100
AcDbEntity
8
0
100
AcDbSpline
62
9
6
CONTINUOUS
70
0
71
3
72
9
73
5
74
3
42
0.0000001000
43
0.0000001000
44
0.0000000001
12
0.0115165486
22
-0.1995195677
32
0.0000000000
13
0.0068871870
23
-0.1997846802
33
0.0000000000
40
0.0000000000
40
0.0000000000
40
0.0000000000
40
0.0000000000
40
0.4681433205
40
1.0000000000
40
1.0000000000
40
1.0000000000
40
1.0000000000
10
-21.5184382597
20
25.9450590637
30
0.0000000000
10
-21.5166411279
20
25.9139244794
30
0.0000000000
10
-21.5139503970
20
25.8470976183
30
0.0000000000
10
-21.5114399404
20
25.7804859258
30
0.0000000000
10
-21.5102189416
20
25.7450669869
30
0.0000000000
11
-21.5184382597
21
25.9450590637
31
0.0000000000
11
-21.5141613411
21
25.8514025380
31
0.0000000000
11
-21.5102189416
21
25.7450669869
31
0.0000000000
0
SPLINE
5
3CA
100
AcDbEntity
8
0
100
AcDbSpline
62
9
6
CONTINUOUS
70
0
71
3
72
11
73
7
74
5
42
0.0000001000
43
0.0000001000
44
0.0000000001
12
0.0214563823
22
-0.6224103468
32
0.0000000000
13
0.0034246139
23
-0.6230974146
33
0.0000000000
40
0.0000000000
40
0.0000000000
40
0.0000000000
40
0.0000000000
40
0.0944298018
40
0.4165297131
40
0.8100957963
40
1.0000000000
40
1.0000000000
40
1.0000000000
40
1.0000000000
10
-21.5102189416
20
25.7450669869
30
0.0000000000
10
-21.5095435676
20
25.7254756250
30
0.0000000000
10
-21.5067186206
20
25.6390702153
30
0.0000000000
10
-21.5029514879
20
25.4707938796
30
0.0000000000
10
-21.5003478674
20
25.2827424262
30
0.0000000000
10
-21.4994441152
20
25.1615589604
30
0.0000000000
10
-21.4992273324
20
25.1221160209
30
0.0000000000
11
-21.5102189416
21
25.7450669869
31
0.0000000000
11
-21.5083083412
21
25.6862923137
31
0.0000000000
11
-21.5035411561
21
25.4856482762
31
0.0000000000
11
-21.5001143806
21
25.2404409397
31
0.0000000000
11
-21.4992273324
21
25.1221160209
31
0.0000000000
0
SPLINE
5
3CB
100
AcDbEntity
8
0
100
AcDbSpline
62
9
6
CONTINUOUS
70
0
71
3
72
8
73
4
74
2
42
0.0000001000
43
0.0000001000
44
0.0000000001
12
0.0002985925
22
-0.0543279340
32
0.0000000000
13
0.0002020801
23
-0.0543287551
33
0.0000000000
40
0.0000000000
40
0.0000000000
40
0.0000000000
40
0.0000000000
40
1.0000000000
40
1.0000000000
40
1.0000000000
40
1.0000000000
10
-21.4992273324
20
25.1221160209
30
0.0000000000
10
-21.4991278015
20
25.1040067096
30
0.0000000000
10
-21.4990445790
20
25.0858972055
30
0.0000000000
10
-21.4989772190
20
25.0677876204
30
0.0000000000
11
-21.4992273324
21
25.1221160209
31
0.0000000000
11
-21.4989772190
21
25.0677876204
31
0.0000000000
0
SPLINE
5
3CC
100
AcDbEntity
8
0
100
AcDbSpline
62
9
6
CONTINUOUS
70
0
71
3
72
8
73
4
74
2
42
0.0000001000
43
0.0000001000
44
0.0000000001
12
0.0001501807
22
-0.0403757198
32
0.0000000000
13
0.0000981636
23
-0.0403758501
33
0.0000000000
40
0.0000000000
40
0.0000000000
40
0.0000000000
40
0.0000000000
40
1.0000000000
40
1.0000000000
40
1.0000000000
40
1.0000000000
10
-21.4989772190
20
25.0677876204
30
0.0000000000
10
-21.4989271587
20
25.0543290472
30
0.0000000000
10
-21.4988858595
20
25.0408704292
30
0.0000000000
10
-21.4988531383
20
25.0274118125
30
0.0000000000
11
-21.4989772190
21
25.0677876204
31
0.0000000000
11
-21.4988531383
21
25.0274118125
31
0.0000000000
0
SPLINE
5
3CD
100
AcDbEntity
8
0
100
AcDbSpline
62
9
6
CONTINUOUS
70
0
71
3
72
8
73
4
74
2
42
0.0000001000
43
0.0000001000
44
0.0000000001
12
0.0001901685
22
-0.0782185384
32
0.0000000000
13
0.0000010003
23
-0.0782175091
33
0.0000000000
40
0.0000000000
40
0.0000000000
40
0.0000000000
40
0.0000000000
40
1.0000000000
40
1.0000000000
40
1.0000000000
40
1.0000000000
10
-21.4988531383
20
25.0274118125
30
0.0000000000
10
-21.4987897488
20
25.0013389664
30
0.0000000000
10
-21.4987585524
20
24.9752661249
30
0.0000000000
10
-21.4987582190
20
24.9491936219
30
0.0000000000
11
-21.4988531383
21
25.0274118125
31
0.0000000000
11
-21.4987582190
21
24.9491936219
31
0.0000000000
0
SPLINE
5
3CE
100
AcDbEntity
8
0
100
AcDbSpline
62
9
6
CONTINUOUS
70
0
71
3
72
9
73
5
74
3
42
0.0000001000
43
0.0000001000
44
0.0000000001
12
-1.7608108027
22
0.0004070751
32
0.0000000000
13
-0.0000000000
23
-0.0000000000
33
0.0000000000
40
0.0000000000
40
0.0000000000
40
0.0000000000
40
0.0000000000
40
0.7498991810
40
1.0000000000
40
1.0000000000
40
1.0000000000
40
1.0000000000
10
-19.5705279852
20
42.1791079027
30
0.0000000000
10
-20.0106715115
20
42.1792096578
30
0.0000000000
10
-20.3775369223
20
42.1792943456
30
0.0000000000
10
-21.3313386360
20
42.1794850461
30
0.0000000000
10
-21.3313386360
20
42.1794850461
30
0.0000000000
11
-19.5705279852
21
42.1791079027
31
0.0000000000
11
-20.8909585686
21
42.1793962885
31
0.0000000000
11
-21.3313386360
21
42.1794850461
31
0.0000000000
0
SPLINE
5
3CF
100
AcDbEntity
8
0
100
AcDbSpline
62
9
6
CONTINUOUS
70
0
71
3
72
8
73
4
74
2
42
0.0000001000
43
0.0000001000
44
0.0000000001
12
-0.0001260323
22
-0.0432866220
32
0.0000000000
13
0.0184719592
23
-0.0397688556
33
0.0000000000
40
0.0000000000
40
0.0000000000
40
0.0000000000
40
0.0000000000
40
1.0000000000
40
1.0000000000
40
1.0000000000
40
1.0000000000
10
-21.5399977938
20
26.1445728673
30
0.0000000000
10
-21.5400398046
20
26.1301439933
30
0.0000000000
10
-21.5368002619
20
26.1154815661
30
0.0000000000
10
-21.5306429422
20
26.1022252809
30
0.0000000000
11
-21.5399977938
21
26.1445728673
31
0.0000000000
11
-21.5306429422
21
26.1022252809
31
0.0000000000
0
SPLINE
5
3D0
100
AcDbEntity
8
0
100
AcDbSpline
62
9
6
CONTINUOUS
70
0
71
3
72
13
73
9
74
7
42
0.0000001000
43
0.0000001000
44
0.0000000001
12
-0.6306226802
22
1.3491970065
32
0.0000000000
13
0.0000000000
23
0.0000000000
33
0.0000000000
40
0.0000000000
40
0.0000000000
40
0.0000000000
40
0.0000000000
40
0.2856946088
40
0.5237838363
40
0.7142639891
40
0.8571298473
40
0.9523761970
40
1.0000000000
40
1.0000000000
40
1.0000000000
40
1.0000000000
10
-21.6492370906
20
25.6297098066
30
0.0000000000
10
-21.7092922573
20
25.7581959102
30
0.0000000000
10
-21.8191210967
20
25.9930925326
30
0.0000000000
10
-21.9704934131
20
26.3166339935
30
0.0000000000
10
-22.0878498589
20
26.5673511504
30
0.0000000000
10
-22.1851378051
20
26.7751000155
30
0.0000000000
10
-22.2308885905
20
26.8727793116
30
0.0000000000
10
-22.2804745988
20
26.9786192147
30
0.0000000000
10
-22.2804745988
20
26.9786192147
30
0.0000000000
11
-21.6492370906
21
25.6297098066
31
0.0000000000
11
-21.8294528700
21
26.0151446126
31
0.0000000000
11
-21.9797158978
21
26.3363184429
31
0.0000000000
11
-22.0999819761
21
26.5932458835
31
0.0000000000
11
-22.1902144158
21
26.7859355145
31
0.0000000000
11
-22.2503848294
21
26.9143920503
31
0.0000000000
11
-22.2804745988
21
26.9786192147
31
0.0000000000
0
SPLINE
5
3D1
100
AcDbEntity
8
0
100
AcDbSpline
62
9
6
CONTINUOUS
70
0
71
3
72
16
73
12
74
10
42
0.0000001000
43
0.0000001000
44
0.0000000001
12
-0.1510015048
22
0.0083299648
32
0.0000000000
13
-0.0004326717
23
0.1512304716
33
0.0000000000
40
0.0000000000
40
0.0000000000
40
0.0000000000
40
0.0000000000
40
0.1111815746
40
0.2223919546
40
0.3336087630
40
0.4448089038
40
0.5559711447
40
0.6670784927
40
0.7781201025
40
0.8890925030
40
1.0000000000
40
1.0000000000
40
1.0000000000
40
1.0000000000
10
-21.5545375537
20
-25.7460512852
30
0.0000000000
10
-21.5601337488
20
-25.7457425723
30
0.0000000000
10
-21.5712982045
20
-25.7441803964
30
0.0000000000
10
-21.5874012497
20
-25.7390760336
30
0.0000000000
10
-21.6024315820
20
-25.7313532467
30
0.0000000000
10
-21.6159580716
20
-25.7212307282
30
0.0000000000
10
-21.6275998607
20
-25.7089943738
30
0.0000000000
10
-21.6370271674
20
-25.6949905236
30
0.0000000000
10
-21.6439732813
20
-25.6796134009
30
0.0000000000
10
-21.6482414033
20
-25.6633040951
30
0.0000000000
10
-21.6492210941
20
-25.6520989532
30
0.0000000000
10
-21.6492370896
20
-25.6465080888
30
0.0000000000
11
-21.5545375537
21
-25.7460512852
31
0.0000000000
11
-21.5711893456
21
-25.7437205879
31
0.0000000000
11
-21.5872220077
21
-25.7386397829
31
0.0000000000
11
-21.6021819817
21
-25.7309526044
31
0.0000000000
11
-21.6156460552
21
-25.7208765201
31
0.0000000000
11
-21.6272333342
21
-25.7086965788
31
0.0000000000
11
-21.6366160187
21
-25.6947573467
31
0.0000000000
11
-21.6435286758
21
-25.6794531600
31
0.0000000000
11
-21.6477757488
21
-25.6632169686
31
0.0000000000
11
-21.6492370896
21
-25.6465080888
31
0.0000000000
0
SPLINE
5
3D2
100
AcDbEntity
8
0
100
AcDbSpline
62
9
6
CONTINUOUS
70
0
71
3
72
13
73
9
74
7
42
0.0000001000
43
0.0000001000
44
0.0000000001
12
-0.6306226832
22
-1.3491970131
32
0.0000000000
13
0.0000000000
23
-0.0000000000
33
0.0000000000
40
0.0000000000
40
0.0000000000
40
0.0000000000
40
0.0000000000
40
0.2856946105
40
0.5237838452
40
0.7142639899
40
0.8571298436
40
0.9523761996
40
1.0000000000
40
1.0000000000
40
1.0000000000
40
1.0000000000
10
-21.6492370906
20
-25.6465080888
30
0.0000000000
10
-21.7092922579
20
-25.7749941938
30
0.0000000000
10
-21.8191210998
20
-26.0098908214
30
0.0000000000
10
-21.9704934170
20
-26.3334322840
30
0.0000000000
10
-22.0878498626
20
-26.5841494405
30
0.0000000000
10
-22.1851378070
20
-26.7918983018
30
0.0000000000
10
-22.2308885935
20
-26.8895776004
30
0.0000000000
10
-22.2804746006
20
-26.9954175008
30
0.0000000000
10
-22.2804746006
20
-26.9954175008
30
0.0000000000
11
-21.6492370906
21
-25.6465080888
31
0.0000000000
11
-21.8294528720
21
-26.0319428990
31
0.0000000000
11
-21.9797159050
21
-26.3531167405
31
0.0000000000
11
-22.0999819787
21
-26.6100441713
31
0.0000000000
11
-22.1902144161
21
-26.8027337973
31
0.0000000000
11
-22.2503848339
21
-26.9311903422
31
0.0000000000
11
-22.2804746006
21
-26.9954175008
31
0.0000000000
0
SPLINE
5
3D3
100
AcDbEntity
8
0
100
AcDbSpline
62
9
6
CONTINUOUS
70
0
71
3
72
13
73
9
74
7
42
0.0000001000
43
0.0000001000
44
0.0000000001
12
-0.6305560353
22
1.3495148592
32
0.0000000000
13
0.0000000000
23
0.0000000000
33
0.0000000000
40
0.0000000000
40
0.0000000000
40
0.0000000000
40
0.0000000000
40
0.2856949615
40
0.5237840763
40
0.7142641389
40
0.8571299241
40
0.9523762231
40
1.0000000000
40
1.0000000000
40
1.0000000000
40
1.0000000000
10
-21.5545375537
20
25.7292530030
30
0.0000000000
10
-21.6145864478
20
25.8577695349
30
0.0000000000
10
-21.7244037907
20
26.0927215844
30
0.0000000000
10
-21.8757601869
20
26.4163393519
30
0.0000000000
10
-21.9931042236
20
26.6671154742
30
0.0000000000
10
-22.0903818812
20
26.8749132076
30
0.0000000000
10
-22.1361278281
20
26.9726154799
30
0.0000000000
10
-22.1857085924
20
27.0784802797
30
0.0000000000
10
-22.1857085924
20
27.0784802797
30
0.0000000000
11
-21.5545375537
21
25.7292530030
31
0.0000000000
11
-21.7347345679
21
26.1147790773
31
0.0000000000
11
-21.8849816988
21
26.4360284322
31
0.0000000000
11
-22.0052350592
21
26.6930163030
31
0.0000000000
11
-22.0954579557
21
26.8857512566
31
0.0000000000
11
-22.1556220055
21
27.0142380079
31
0.0000000000
11
-22.1857085924
21
27.0784802797
31
0.0000000000
0
SPLINE
5
3D4
100
AcDbEntity
8
0
100
AcDbSpline
62
9
6
CONTINUOUS
70
0
71
3
72
13
73
9
74
7
42
0.0000001000
43
0.0000001000
44
0.0000000001
12
-0.6305560384
22
-1.3495148657
32
0.0000000000
13
0.0000000000
23
-0.0000000000
33
0.0000000000
40
0.0000000000
40
0.0000000000
40
0.0000000000
40
0.0000000000
40
0.2856949632
40
0.5237840852
40
0.7142641396
40
0.8571299204
40
0.9523762257
40
1.0000000000
40
1.0000000000
40
1.0000000000
40
1.0000000000
10
-21.5545375537
20
-25.7460512852
30
0.0000000000
10
-21.6145864485
20
-25.8745678185
30
0.0000000000
10
-21.7244037938
20
-26.1095198732
30
0.0000000000
10
-21.8757601907
20
-26.4331376424
30
0.0000000000
10
-21.9931042273
20
-26.6839137644
30
0.0000000000
10
-22.0903818831
20
-26.8917114938
30
0.0000000000
10
-22.1361278311
20
-26.9894137686
30
0.0000000000
10
-22.1857085942
20
-27.0952785658
30
0.0000000000
10
-22.1857085942
20
-27.0952785658
30
0.0000000000
11
-21.5545375537
21
-25.7460512852
31
0.0000000000
11
-21.7347345698
21
-26.1315773637
31
0.0000000000
11
-21.8849817060
21
-26.4528267298
31
0.0000000000
11
-22.0052350619
21
-26.7098145909
31
0.0000000000
11
-22.0954579560
21
-26.9025495394
31
0.0000000000
11
-22.1556220100
21
-27.0310362998
31
0.0000000000
11
-22.1857085942
21
-27.0952785658
31
0.0000000000
0
SPLINE
5
3D5
100
AcDbEntity
8
0
100
AcDbSpline
62
9
6
CONTINUOUS
70
0
71
3
72
24
73
20
74
18
42
0.0000001000
43
0.0000001000
44
0.0000000001
12
-0.0000004206
22
-0.8957363497
32
0.0000000000
13
-0.3792377374
23
-0.8114938981
33
0.0000000000
40
0.0000000000
40
0.0000000000
40
0.0000000000
40
0.0000000000
40
0.0878829123
40
0.1750728740
40
0.2608741031
40
0.3446332130
40
0.4257168823
40
0.5035157519
40
0.5774420994
40
0.6469374924
40
0.7114744249
40
0.7705633164
40
0.8237532097
40
0.8706376837
40
0.9108573407
40
0.9441071113
40
0.9701402989
40
0.9887850776
40
1.0000000000
40
1.0000000000
40
1.0000000000
40
1.0000000000
10
-21.6185558043
20
-24.7521032554
30
0.0000000000
10
-21.6185558167
20
-24.7783432284
30
0.0000000000
10
-21.6186413798
20
-24.8306163154
30
0.0000000000
10
-21.6190261060
20
-24.9085069750
30
0.0000000000
10
-21.6196636638
20
-24.9851646688
30
0.0000000000
10
-21.6205485463
20
-25.0599965808
30
0.0000000000
10
-21.6216732302
20
-25.1324356757
30
0.0000000000
10
-21.6230282747
20
-25.2019344582
30
0.0000000000
10
-21.6246023451
20
-25.2679677135
30
0.0000000000
10
-21.6263822753
20
-25.3300345047
30
0.0000000000
10
-21.6283529841
20
-25.3876630966
30
0.0000000000
10
-21.6304979042
20
-25.4404132249
30
0.0000000000
10
-21.6327973937
20
-25.4878813525
30
0.0000000000
10
-21.6352331493
20
-25.5296988078
30
0.0000000000
10
-21.6377727786
20
-25.5655492289
30
0.0000000000
10
-21.6404110151
20
-25.5951327728
30
0.0000000000
10
-21.6430437329
20
-25.6182815809
30
0.0000000000
10
-21.6457625621
20
-25.6346993251
30
0.0000000000
10
-21.6478193834
20
-25.6434744751
30
0.0000000000
10
-21.6492370906
20
-25.6465080888
30
0.0000000000
11
-21.6185558043
21
-24.7521032554
31
0.0000000000
11
-21.6186852175
21
-24.8308230681
31
0.0000000000
11
-21.6190724692
21
-24.9089213260
31
0.0000000000
11
-21.6197142037
21
-24.9857739265
31
0.0000000000
11
-21.6206050082
21
-25.0607947173
31
0.0000000000
11
-21.6217375015
21
-25.1334154774
31
0.0000000000
11
-21.6231024737
21
-25.2030893836
31
0.0000000000
11
-21.6246888843
21
-25.2692888946
31
0.0000000000
11
-21.6264840062
21
-25.3315125554
31
0.0000000000
11
-21.6284734769
21
-25.3892863877
31
0.0000000000
11
-21.6306415007
21
-25.4421700341
31
0.0000000000
11
-21.6329708831
21
-25.4897571776
31
0.0000000000
11
-21.6354432336
21
-25.5316804673
31
0.0000000000
11
-21.6380390316
21
-25.5676130368
31
0.0000000000
11
-21.6407379302
21
-25.5972735275
31
0.0000000000
11
-21.6435187491
21
-25.6204259973
31
0.0000000000
11
-21.6463596033
21
-25.6368834111
31
0.0000000000
11
-21.6492370906
21
-25.6465080888
31
0.0000000000
0
SPLINE
5
3D6
100
AcDbEntity
8
0
100
AcDbSpline
62
9
6
CONTINUOUS
70
0
71
3
72
24
73
20
74
18
42
0.0000001000
43
0.0000001000
44
0.0000000001
12
-0.0047902665
22
-0.9949255736
32
0.0000000000
13
-0.3346549356
23
-0.9369663376
33
0.0000000000
40
0.0000000000
40
0.0000000000
40
0.0000000000
40
0.0000000000
40
0.0879344470
40
0.1751338493
40
0.2609485423
40
0.3447234701
40
0.4258250861
40
0.5036434173
40
0.5775901298
40
0.6471060744
40
0.7116630564
40
0.7707706596
40
0.8239764910
40
0.8708722121
40
0.9110957070
40
0.9443376300
40
0.9703438507
40
0.9889261550
40
1.0000000000
40
1.0000000000
40
1.0000000000
40
1.0000000000
10
-21.5238595014
20
-24.7521032554
30
0.0000000000
10
-21.5239999112
20
-24.7812659988
30
0.0000000000
10
-21.5243519112
20
-24.8393473923
30
0.0000000000
10
-21.5250940245
20
-24.9258867613
30
0.0000000000
10
-21.5260431776
20
-25.0110445458
30
0.0000000000
10
-21.5271916470
20
-25.0941773876
30
0.0000000000
10
-21.5285299452
20
-25.1746550866
30
0.0000000000
10
-21.5300470747
20
-25.2518695368
30
0.0000000000
10
-21.5317305332
20
-25.3252372638
30
0.0000000000
10
-21.5335664019
20
-25.3942018172
30
0.0000000000
10
-21.5355392714
20
-25.4582391735
30
0.0000000000
10
-21.5376327267
20
-25.5168602958
30
0.0000000000
10
-21.5398276867
20
-25.5696163761
30
0.0000000000
10
-21.5421072172
20
-25.6160982853
30
0.0000000000
10
-21.5444402034
20
-25.6559509301
30
0.0000000000
10
-21.5468258591
20
-25.6888475997
30
0.0000000000
10
-21.5491599574
20
-25.7145757138
30
0.0000000000
10
-21.5515513502
20
-25.7328457822
30
0.0000000000
10
-21.5533022405
20
-25.7425925339
30
0.0000000000
10
-21.5545375461
20
-25.7460511406
30
0.0000000000
11
-21.5238595014
21
-24.7521032554
31
0.0000000000
11
-21.5243902118
21
-24.8395908899
31
0.0000000000
11
-21.5251354212
21
-24.9263456103
31
0.0000000000
11
-21.5260891456
21
-25.0117205056
31
0.0000000000
11
-21.5272436135
21
-25.0950632943
31
0.0000000000
11
-21.5285894674
21
-25.1757430768
31
0.0000000000
11
-21.5301159019
21
-25.2531523736
31
0.0000000000
11
-21.5318106534
21
-25.3267051796
31
0.0000000000
11
-21.5336601634
21
-25.3958444390
31
0.0000000000
11
-21.5356496379
21
-25.4600437574
31
0.0000000000
11
-21.5377632559
21
-25.5188141102
31
0.0000000000
11
-21.5399841939
21
-25.5717039560
31
0.0000000000
11
-21.5422948343
21
-25.6183049994
31
0.0000000000
11
-21.5446768358
21
-25.6582538952
31
0.0000000000
11
-21.5471114163
21
-25.6912377902
31
0.0000000000
11
-21.5495793721
21
-25.7169943764
31
0.0000000000
11
-21.5520611278
21
-25.7353152748
31
0.0000000000
11
-21.5545375461
21
-25.7460511406
31
0.0000000000
0
SPLINE
5
3D7
100
AcDbEntity
8
0
100
AcDbSpline
62
9
6
CONTINUOUS
70
0
71
3
72
16
73
12
74
10
42
0.0000001000
43
0.0000001000
44
0.0000000001
12
-0.1510013715
22
-0.0083299436
32
0.0000000000
13
-0.0004328797
23
-0.1512303368
33
0.0000000000
40
0.0000000000
40
0.0000000000
40
0.0000000000
40
0.0000000000
40
0.1111815788
40
0.2223919625
40
0.3336087734
40
0.4448089156
40
0.5559711564
40
0.6670785029
40
0.7781201101
40
0.8890925070
40
1.0000000000
40
1.0000000000
40
1.0000000000
40
1.0000000000
10
-21.5545375461
20
25.7292528583
30
0.0000000000
10
-21.5601337364
20
25.7289441462
30
0.0000000000
10
-21.5712981828
20
25.7273819735
30
0.0000000000
10
-21.5874012158
20
25.7222776204
30
0.0000000000
10
-21.6024315386
20
25.7145548474
30
0.0000000000
10
-21.6159580226
20
25.7044323463
30
0.0000000000
10
-21.6275998106
20
25.6921960119
30
0.0000000000
10
-21.6370271216
20
25.6781921830
30
0.0000000000
10
-21.6439732452
20
25.6628150816
30
0.0000000000
10
-21.6482413825
20
25.6465057960
30
0.0000000000
10
-21.6492210872
20
25.6353006658
30
0.0000000000
10
-21.6492370904
20
25.6297098066
30
0.0000000000
11
-21.5545375461
21
25.7292528583
31
0.0000000000
11
-21.5711893242
21
25.7269221658
31
0.0000000000
11
-21.5872219743
21
25.7218413704
31
0.0000000000
11
-21.6021819390
21
25.7141542057
31
0.0000000000
11
-21.6156460070
21
25.7040781386
31
0.0000000000
11
-21.6272332851
21
25.6918982170
31
0.0000000000
11
-21.6366159739
21
25.6779590060
31
0.0000000000
11
-21.6435286407
21
25.6626548405
31
0.0000000000
11
-21.6477757290
21
25.6464186690
31
0.0000000000
11
-21.6492370904
21
25.6297098066
31
0.0000000000
0
SPLINE
5
3D8
100
AcDbEntity
8
0
100
AcDbSpline
62
9
6
CONTINUOUS
70
0
71
3
72
24
73
20
74
18
42
0.0000001000
43
0.0000001000
44
0.0000000001
12
0.3792377359
22
-0.8114938989
32
0.0000000000
13
0.0000004206
23
-0.8957363497
33
0.0000000000
40
0.0000000000
40
0.0000000000
40
0.0000000000
40
0.0000000000
40
0.0112149224
40
0.0298597011
40
0.0558928887
40
0.0891426593
40
0.1293623163
40
0.1762467903
40
0.2294366836
40
0.2885255751
40
0.3530625076
40
0.4225579006
40
0.4964842481
40
0.5742831177
40
0.6553667870
40
0.7391258969
40
0.8249271260
40
0.9121170877
40
1.0000000000
40
1.0000000000
40
1.0000000000
40
1.0000000000
10
-21.6492370906
20
25.6297098066
30
0.0000000000
10
-21.6478193834
20
25.6266761929
30
0.0000000000
10
-21.6457625621
20
25.6179010429
30
0.0000000000
10
-21.6430437329
20
25.6014832987
30
0.0000000000
10
-21.6404110151
20
25.5783344906
30
0.0000000000
10
-21.6377727786
20
25.5487509467
30
0.0000000000
10
-21.6352331493
20
25.5129005255
30
0.0000000000
10
-21.6327973937
20
25.4710830703
30
0.0000000000
10
-21.6304979043
20
25.4236149427
30
0.0000000000
10
-21.6283529841
20
25.3708648144
30
0.0000000000
10
-21.6263822753
20
25.3132362225
30
0.0000000000
10
-21.6246023451
20
25.2511694313
30
0.0000000000
10
-21.6230282747
20
25.1851361760
30
0.0000000000
10
-21.6216732302
20
25.1156373935
30
0.0000000000
10
-21.6205485463
20
25.0431982986
30
0.0000000000
10
-21.6196636638
20
24.9683663866
30
0.0000000000
10
-21.6190261060
20
24.8917086928
30
0.0000000000
10
-21.6186413798
20
24.8138180332
30
0.0000000000
10
-21.6185558167
20
24.7615449462
30
0.0000000000
10
-21.6185558043
20
24.7353049732
30
0.0000000000
11
-21.6492370906
21
25.6297098066
31
0.0000000000
11
-21.6463596033
21
25.6200851289
31
0.0000000000
11
-21.6435187491
21
25.6036277151
31
0.0000000000
11
-21.6407379302
21
25.5804752453
31
0.0000000000
11
-21.6380390316
21
25.5508147546
31
0.0000000000
11
-21.6354432336
21
25.5148821850
31
0.0000000000
11
-21.6329708831
21
25.4729588954
31
0.0000000000
11
-21.6306415007
21
25.4253717519
31
0.0000000000
11
-21.6284734769
21
25.3724881055
31
0.0000000000
11
-21.6264840062
21
25.3147142732
31
0.0000000000
11
-21.6246888843
21
25.2524906124
31
0.0000000000
11
-21.6231024737
21
25.1862911014
31
0.0000000000
11
-21.6217375015
21
25.1166171952
31
0.0000000000
11
-21.6206050082
21
25.0439964351
31
0.0000000000
11
-21.6197142037
21
24.9689756443
31
0.0000000000
11
-21.6190724692
21
24.8921230438
31
0.0000000000
11
-21.6186852175
21
24.8140247859
31
0.0000000000
11
-21.6185558043
21
24.7353049732
31
0.0000000000
0
SPLINE
5
3D9
100
AcDbEntity
8
0
100
AcDbSpline
62
9
6
CONTINUOUS
70
0
71
3
72
24
73
20
74
18
42
0.0000001000
43
0.0000001000
44
0.0000000001
12
0.3346549366
22
-0.9369663372
32
0.0000000000
13
0.0047902666
23
-0.9949255736
33
0.0000000000
40
0.0000000000
40
0.0000000000
40
0.0000000000
40
0.0000000000
40
0.0110738448
40
0.0296561491
40
0.0556623697
40
0.0889042926
40
0.1291277875
40
0.1760235086
40
0.2292293398
40
0.2883369430
40
0.3528939250
40
0.4224098696
40
0.4963565821
40
0.5741749133
40
0.6552765292
40
0.7390514570
40
0.8248661501
40
0.9120655522
40
1.0000000000
40
1.0000000000
40
1.0000000000
40
1.0000000000
10
-21.5545375461
20
25.7292528583
30
0.0000000000
10
-21.5533022405
20
25.7257942517
30
0.0000000000
10
-21.5515513503
20
25.7160475001
30
0.0000000000
10
-21.5491599575
20
25.6977774318
30
0.0000000000
10
-21.5468258591
20
25.6720493178
30
0.0000000000
10
-21.5444402034
20
25.6391526483
30
0.0000000000
10
-21.5421072172
20
25.5993000035
30
0.0000000000
10
-21.5398276868
20
25.5528180943
30
0.0000000000
10
-21.5376327268
20
25.5000620141
30
0.0000000000
10
-21.5355392715
20
25.4414408918
30
0.0000000000
10
-21.5335664019
20
25.3774035355
30
0.0000000000
10
-21.5317305333
20
25.3084389822
30
0.0000000000
10
-21.5300470747
20
25.2350712552
30
0.0000000000
10
-21.5285299452
20
25.1578568051
30
0.0000000000
10
-21.5271916470
20
25.0773791061
30
0.0000000000
10
-21.5260431776
20
24.9942462643
30
0.0000000000
10
-21.5250940245
20
24.9090884797
30
0.0000000000
10
-21.5243519112
20
24.8225491105
30
0.0000000000
10
-21.5239999112
20
24.7644677168
30
0.0000000000
10
-21.5238595014
20
24.7353049732
30
0.0000000000
11
-21.5545375461
21
25.7292528583
31
0.0000000000
11
-21.5520611279
21
25.7185169928
31
0.0000000000
11
-21.5495793722
21
25.7001960944
31
0.0000000000
11
-21.5471114164
21
25.6744395082
31
0.0000000000
11
-21.5446768358
21
25.6414556133
31
0.0000000000
11
-21.5422948343
21
25.6015067176
31
0.0000000000
11
-21.5399841940
21
25.5549056742
31
0.0000000000
11
-21.5377632560
21
25.5020158285
31
0.0000000000
11
-21.5356496379
21
25.4432454757
31
0.0000000000
11
-21.5336601634
21
25.3790461574
31
0.0000000000
11
-21.5318106535
21
25.3099068980
31
0.0000000000
11
-21.5301159019
21
25.2363540920
31
0.0000000000
11
-21.5285894674
21
25.1589447952
31
0.0000000000
11
-21.5272436135
21
25.0782650127
31
0.0000000000
11
-21.5260891456
21
24.9949222241
31
0.0000000000
11
-21.5251354212
21
24.9095473287
31
0.0000000000
11
-21.5243902118
21
24.8227926085
31
0.0000000000
11
-21.5238595014
21
24.7353049732
31
0.0000000000
0
SPLINE
5
3DA
100
AcDbEntity
8
0
100
AcDbSpline
62
9
6
CONTINUOUS
70
0
71
3
72
8
73
4
74
2
42
0.0000001000
43
0.0000001000
44
0.0000000001
12
0.0001860467
22
-0.0086918485
32
0.0000000000
13
0.0007012804
23
-0.0086545692
33
0.0000000000
40
0.0000000000
40
0.0000000000
40
0.0000000000
40
0.0000000000
40
1.0000000000
40
1.0000000000
40
1.0000000000
40
1.0000000000
10
-21.6695656373
20
-24.4593047315
30
0.0000000000
10
-21.6695036218
20
-24.4622020144
30
0.0000000000
10
-21.6693553089
20
-24.4650962211
30
0.0000000000
10
-21.6691215488
20
-24.4679810775
30
0.0000000000
11
-21.6695656373
21
-24.4593047315
31
0.0000000000
11
-21.6691215488
21
-24.4679810775
31
0.0000000000
0
SPLINE
5
3DB
100
AcDbEntity
8
0
100
AcDbSpline
62
9
6
CONTINUOUS
70
0
71
3
72
8
73
4
74
2
42
0.0000001000
43
0.0000001000
44
0.0000000001
12
-0.0013900527
22
-0.0171544265
32
0.0000000000
13
0.0006440775
23
-0.0172282640
33
0.0000000000
40
0.0000000000
40
0.0000000000
40
0.0000000000
40
0.0000000000
40
1.0000000000
40
1.0000000000
40
1.0000000000
40
1.0000000000
10
-21.6691215488
20
24.4511827955
30
0.0000000000
10
-21.6695848997
20
24.4454646533
30
0.0000000000
10
-21.6697125349
20
24.4397097744
30
0.0000000000
10
-21.6694978424
20
24.4339670198
30
0.0000000000
11
-21.6691215488
21
24.4511827955
31
0.0000000000
11
-21.6694978424
21
24.4339670198
31
0.0000000000
0
SPLINE
5
3DC
100
AcDbEntity
8
0
100
AcDbSpline
62
9
6
CONTINUOUS
70
0
71
3
72
8
73
4
74
2
42
0.0000001000
43
0.0000001000
44
0.0000000001
12
0.0447084047
22
0.0021622381
32
0.0000000000
13
0.0447084052
23
0.0021622272
33
0.0000000000
40
0.0000000000
40
0.0000000000
40
0.0000000000
40
0.0000000000
40
1.0000000000
40
1.0000000000
40
1.0000000000
40
1.0000000000
10
-21.5545375539
20
25.7292530060
30
0.0000000000
10
-21.5396347523
20
25.7299737521
30
0.0000000000
10
-21.5247319507
20
25.7306944963
30
0.0000000000
10
-21.5098291489
20
25.7314152387
30
0.0000000000
11
-21.5545375539
21
25.7292530060
31
0.0000000000
11
-21.5098291489
21
25.7314152387
31
0.0000000000
0
SPLINE
5
3DD
100
AcDbEntity
8
0
100
AcDbSpline
62
9
6
CONTINUOUS
70
0
71
3
72
8
73
4
74
2
42
0.0000001000
43
0.0000001000
44
0.0000000001
12
-0.0250291335
22
0.0012107026
32
0.0000000000
13
-0.0250291333
23
0.0012107060
33
0.0000000000
40
0.0000000000
40
0.0000000000
40
0.0000000000
40
0.0000000000
40
1.0000000000
40
1.0000000000
40
1.0000000000
40
1.0000000000
10
-21.4988303751
20
-24.7533139597
30
0.0000000000
10
-21.5071734196
20
-24.7529103922
30
0.0000000000
10
-21.5155164641
20
-24.7525068241
30
0.0000000000
10
-21.5238595085
20
-24.7521032554
30
0.0000000000
11
-21.4988303751
21
-24.7533139597
31
0.0000000000
11
-21.5238595085
21
-24.7521032554
31
0.0000000000
0
SPLINE
5
3DE
100
AcDbEntity
8
0
100
AcDbSpline
62
9
6
CONTINUOUS
70
0
71
3
72
8
73
4
74
2
42
0.0000001000
43
0.0000001000
44
0.0000000001
12
-0.0447057480
22
0.0021620987
32
0.0000000000
13
-0.0447057474
23
0.0021621095
33
0.0000000000
40
0.0000000000
40
0.0000000000
40
0.0000000000
40
0.0000000000
40
1.0000000000
40
1.0000000000
40
1.0000000000
40
1.0000000000
10
-21.5098318062
20
-25.7482133924
30
0.0000000000
10
-21.5247337222
20
-25.7474926928
30
0.0000000000
10
-21.5396356381
20
-25.7467719914
30
0.0000000000
10
-21.5545375539
20
-25.7460512883
30
0.0000000000
11
-21.5098318062
21
-25.7482133924
31
0.0000000000
11
-21.5545375539
21
-25.7460512883
31
0.0000000000
0
SPLINE
5
3DF
100
AcDbEntity
8
0
100
AcDbSpline
62
9
6
CONTINUOUS
70
0
71
3
72
8
73
4
74
2
42
0.0000001000
43
0.0000001000
44
0.0000000001
12
-0.0072390660
22
-0.0155209495
32
0.0000000000
13
-0.0072396426
23
-0.0155221877
33
0.0000000000
40
0.0000000000
40
0.0000000000
40
0.0000000000
40
0.0000000000
40
1.0000000000
40
1.0000000000
40
1.0000000000
40
1.0000000000
10
-21.6691215487
20
-24.4679810822
30
0.0000000000
10
-21.6715345707
20
-24.4731547321
30
0.0000000000
10
-21.6739476957
20
-24.4783286030
30
0.0000000000
10
-21.6763609098
20
-24.4835026655
30
0.0000000000
11
-21.6691215487
21
-24.4679810822
31
0.0000000000
11
-21.6763609098
21
-24.4835026655
31
0.0000000000
0
SPLINE
5
3E0
100
AcDbEntity
8
0
100
AcDbSpline
62
9
6
CONTINUOUS
70
0
71
3
72
8
73
4
74
2
42
0.0000001000
43
0.0000001000
44
0.0000000001
12
-0.1559717978
22
-0.3344120224
32
0.0000000000
13
-0.1558090768
23
-0.3340633675
33
0.0000000000
40
0.0000000000
40
0.0000000000
40
0.0000000000
40
0.0000000000
40
1.0000000000
40
1.0000000000
40
1.0000000000
40
1.0000000000
10
-21.6763609098
20
-24.4835026655
30
0.0000000000
10
-21.7283515091
20
-24.5949733397
30
0.0000000000
10
-21.7803835329
20
-24.7065329690
30
0.0000000000
10
-21.8323198918
20
-24.8178874248
30
0.0000000000
11
-21.6763609098
21
-24.4835026655
31
0.0000000000
11
-21.8323198918
21
-24.8178874248
31
0.0000000000
0
SPLINE
5
3E1
100
AcDbEntity
8
0
100
AcDbSpline
62
9
6
CONTINUOUS
70
0
71
3
72
9
73
5
74
3
42
0.0000001000
43
0.0000001000
44
0.0000000001
12
-0.1628558632
22
-0.3491720711
32
0.0000000000
13
-0.1637502256
23
-0.3510895298
33
0.0000000000
40
0.0000000000
40
0.0000000000
40
0.0000000000
40
0.0000000000
40
0.8468016492
40
1.0000000000
40
1.0000000000
40
1.0000000000
40
1.0000000000
10
-21.8323878897
20
-24.8180332161
30
0.0000000000
10
-21.8783567609
20
-24.9165930446
30
0.0000000000
10
-21.9325537540
20
-25.0327943685
30
0.0000000000
10
-21.9871451187
20
-25.1498412684
30
0.0000000000
10
-21.9955072069
20
-25.1677700474
30
0.0000000000
11
-21.8323878897
21
-24.8180332161
31
0.0000000000
11
-21.9704277604
21
-25.1139983298
31
0.0000000000
11
-21.9955072069
21
-25.1677700474
31
0.0000000000
0
SPLINE
5
3E2
100
AcDbEntity
8
0
100
AcDbSpline
62
9
6
CONTINUOUS
70
0
71
3
72
11
73
7
74
5
42
0.0000001000
43
0.0000001000
44
0.0000000001
12
-0.2565512915
22
-0.5500601419
32
0.0000000000
13
-0.2319780524
23
-0.4973735840
33
0.0000000000
40
0.0000000000
40
0.0000000000
40
0.0000000000
40
0.0000000000
40
0.3446540539
40
0.6887284493
40
0.9344364841
40
1.0000000000
40
1.0000000000
40
1.0000000000
40
1.0000000000
10
-21.9955072069
20
-25.1677700474
30
0.0000000000
10
-22.0249810211
20
-25.2309635333
30
0.0000000000
10
-22.0838488191
20
-25.3571793514
30
0.0000000000
10
-22.1611509643
20
-25.5229193966
30
0.0000000000
10
-22.2219323768
20
-25.6532380549
30
0.0000000000
10
-22.2434398642
20
-25.6993512816
30
0.0000000000
10
-22.2485096298
20
-25.7102211352
30
0.0000000000
11
-21.9955072069
21
-25.1677700474
31
0.0000000000
11
-22.0834245470
21
-25.3562696822
31
0.0000000000
11
-22.1712999560
21
-25.5446793835
31
0.0000000000
11
-22.2340529458
21
-25.6792252163
31
0.0000000000
11
-22.2485096298
21
-25.7102211352
31
0.0000000000
0
SPLINE
5
3E3
100
AcDbEntity
8
0
100
AcDbSpline
62
9
6
CONTINUOUS
70
0
71
3
72
8
73
4
74
2
42
0.0000001000
43
0.0000001000
44
0.0000000001
12
-0.0008740467
22
-0.0018740037
32
0.0000000000
13
-0.0008852326
23
-0.0018979869
33
0.0000000000
40
0.0000000000
40
0.0000000000
40
0.0000000000
40
0.0000000000
40
1.0000000000
40
1.0000000000
40
1.0000000000
40
1.0000000000
10
-22.2485096298
20
-25.7102211352
30
0.0000000000
10
-22.2488009787
20
-25.7108458031
30
0.0000000000
10
-22.2490941097
20
-25.7114742920
30
0.0000000000
10
-22.2493891872
20
-25.7121069543
30
0.0000000000
11
-22.2485096298
21
-25.7102211352
31
0.0000000000
11
-22.2493891872
21
-25.7121069543
31
0.0000000000
0
SPLINE
5
3E4
100
AcDbEntity
8
0
100
AcDbSpline
62
9
6
CONTINUOUS
70
0
71
3
72
9
73
5
74
3
42
0.0000001000
43
0.0000001000
44
0.0000000001
12
-0.0298759571
22
-0.0640556795
32
0.0000000000
13
-0.0000000326
23
-0.0000000693
33
0.0000000000
40
0.0000000000
40
0.0000000000
40
0.0000000000
40
0.0000000000
40
0.6137609995
40
1.0000000000
40
1.0000000000
40
1.0000000000
40
1.0000000000
10
-22.2493891872
20
-25.7121069543
30
0.0000000000
10
-22.2555014196
20
-25.7252119136
30
0.0000000000
10
-22.2668208503
20
-25.7494813887
30
0.0000000000
10
-22.2842362711
20
-25.7868209950
30
0.0000000000
10
-22.2842362753
20
-25.7868210039
30
0.0000000000
11
-22.2493891872
21
-25.7121069543
31
0.0000000000
11
-22.2716926449
21
-25.7599267801
31
0.0000000000
11
-22.2842362753
21
-25.7868210039
31
0.0000000000
0
SPLINE
5
3E5
100
AcDbEntity
8
0
100
AcDbSpline
62
9
6
CONTINUOUS
70
0
71
3
72
9
73
5
74
3
42
0.0000001000
43
0.0000001000
44
0.0000000001
12
-0.0298759646
22
0.0640556959
32
0.0000000000
13
0.0000000008
23
-0.0000000012
33
0.0000000000
40
0.0000000000
40
0.0000000000
40
0.0000000000
40
0.0000000000
40
0.6137592719
40
1.0000000000
40
1.0000000000
40
1.0000000000
40
1.0000000000
10
-22.2493891875
20
25.6953086719
30
0.0000000000
10
-22.2555014042
20
25.7084135977
30
0.0000000000
10
-22.2668208474
20
25.7326830996
30
0.0000000000
10
-22.2842362754
20
25.7700227218
30
0.0000000000
10
-22.2842362753
20
25.7700227217
30
0.0000000000
11
-22.2493891875
21
25.6953086719
31
0.0000000000
11
-22.2716925908
21
25.7431283815
31
0.0000000000
11
-22.2842362753
21
25.7700227217
31
0.0000000000
0
SPLINE
5
3E6
100
AcDbEntity
8
0
100
AcDbSpline
62
9
6
CONTINUOUS
70
0
71
3
72
8
73
4
74
2
42
0.0000001000
43
0.0000001000
44
0.0000000001
12
-0.0007729513
22
0.0016572497
32
0.0000000000
13
-0.0007817192
23
0.0016760486
33
0.0000000000
40
0.0000000000
40
0.0000000000
40
0.0000000000
40
0.0000000000
40
1.0000000000
40
1.0000000000
40
1.0000000000
40
1.0000000000
10
-22.2486119088
20
25.6936421442
30
0.0000000000
10
-22.2488695592
20
25.6941945607
30
0.0000000000
10
-22.2491286144
20
25.6947499891
30
0.0000000000
10
-22.2493891875
20
25.6953086719
30
0.0000000000
11
-22.2486119088
21
25.6936421442
31
0.0000000000
11
-22.2493891875
21
25.6953086719
31
0.0000000000
0
SPLINE
5
3E7
100
AcDbEntity
8
0
100
AcDbSpline
62
9
6
CONTINUOUS
70
0
71
3
72
13
73
9
74
7
42
0.0000001000
43
0.0000001000
44
0.0000000001
12
-0.5817888855
22
1.2473868794
32
0.0000000000
13
-0.5292025318
23
1.1346390642
33
0.0000000000
40
0.0000000000
40
0.0000000000
40
0.0000000000
40
0.0000000000
40
0.2805110521
40
0.5178958668
40
0.7121189702
40
0.8631625763
40
0.9710248966
40
1.0000000000
40
1.0000000000
40
1.0000000000
40
1.0000000000
10
-21.6691215472
20
24.4511827975
30
0.0000000000
10
-21.7235209513
20
24.5678180661
30
0.0000000000
10
-21.8240529134
20
24.7833643373
30
0.0000000000
10
-21.9617957480
20
25.0786925249
30
0.0000000000
10
-22.0757593733
20
25.3230368525
30
0.0000000000
10
-22.1611507269
20
25.5061206048
30
0.0000000000
10
-22.2219731394
20
25.6365271692
30
0.0000000000
10
-22.2435006761
20
25.6826833828
30
0.0000000000
10
-22.2486119088
20
25.6936421442
30
0.0000000000
11
-21.6691215472
21
24.4511827975
31
0.0000000000
11
-21.8323196614
21
24.8010886492
31
0.0000000000
11
-21.9704274489
21
25.0971993802
31
0.0000000000
11
-22.0834242452
21
25.3394707526
31
0.0000000000
11
-22.1712997117
21
25.5278805767
31
0.0000000000
11
-22.2340528015
21
25.6624266242
31
0.0000000000
11
-22.2486119088
21
25.6936421442
31
0.0000000000
0
ENDSEC
0
SECTION
2
OBJECTS
0
DICTIONARY
5
C
100
AcDbDictionary
280
0
281
1
3
ACAD_GROUP
350
D
3
ACAD_MLINESTYLE
350
17
3
ACAD_LAYOUT
350
1A
3
ACAD_PLOTSETTINGS
350
19
3
ACAD_PLOTSTYLENAME
350
E
0
DICTIONARY
5
D
102
{ACAD_REACTORS
330
C
102
}
100
AcDbDictionary
280
0
281
1
0
ACDBDICTIONARYWDFLT
5
E
102
{ACAD_REACTORS
330
C
102
}
100
AcDbDictionary
281
1
3
Normal
350
F
100
AcDbDictionaryWithDefault
340
F
0
DICTIONARY
5
17
102
{ACAD_REACTORS
330
C
102
}
100
AcDbDictionary
280
0
281
1
3
Standard
350
18
0
DICTIONARY
5
19
102
{ACAD_REACTORS
330
C
102
}
100
AcDbDictionary
281
1
0
DICTIONARY
5
1A
102
{ACAD_REACTORS
330
C
102
}
100
AcDbDictionary
281
1
3
Layout1
350
1E
3
Model
350
22
0
ACDBPLACEHOLDER
5
F
102
{ACAD_REACTORS
330
E
102
}
0
MLINESTYLE
5
18
102
{ACAD_REACTORS
330
17
102
}
100
AcDbMlineStyle
2
STANDARD
70
0
3

62
256
51
90.0
52
90.0
71
2
49
0.5
62
256
6
BYLAYER
49
-0.5
62
256
6
BYLAYER
0
LAYOUT
5
1E
102
{ACAD_REACTORS
330
1A
102
}
100
AcDbPlotSettings
1

2

4

6

40
0.0
41
0.0
42
0.0
43
0.0
44
0.0
45
0.0
46
0.0
47
0.0
48
0.0
49
0.0
140
0.0
141
0.0
142
1.0
143
1.0
70
0
72
0
73
0
74
0
7

75
0
147
1.0
148
0.0
149
0.0
100
AcDbLayout
1
Layout1
70
0
71
0
10
0.0
20
0.0
11
0.0
21
0.0
12
0.0
22
0.0
32
0.0
14
0.0
24
0.0
34
0.0
15
0.0
25
0.0
35
0.0
146
0.0
13
0.0
23
0.0
33
0.0
16
0.0
26
0.0
36
0.0
17
0.0
27
0.0
37
0.0
76
0
330
1B
331
0
345
0
346
0
0
LAYOUT
5
22
102
{ACAD_REACTORS
330
1A
102
}
100
AcDbPlotSettings
1

2

4

6

40
0.0
41
0.0
42
0.0
43
0.0
44
0.0
45
0.0
46
0.0
47
0.0
48
0.0
49
0.0
140
0.0
141
0.0
142
1.0
143
1.0
70
0
72
0
73
0
74
0
7

75
0
147
1.0
148
0.0
149
0.0
100
AcDbLayout
1
Model
70
0
71
0
10
0.0
20
0.0
11
0.0
21
0.0
12
0.0
22
0.0
32
0.0
14
0.0
24
0.0
34
0.0
15
0.0
25
0.0
35
0.0
146
0.0
13
0.0
23
0.0
33
0.0
16
0.0
26
0.0
36
0.0
17
0.0
27
0.0
37
0.0
76
0
330
1F
331
0
345
0
346
0
0
ENDSEC
0
EOF
