  0
SECTION
  2
HEADER
  9
$ACADVER
  1
AC1015
  9
$DWGCODEPAGE
  3
ANSI_1252
  9
$EXTMAX
 10
297.0
 20
210.0
 30
0.0
  9
$EXTMIN
 10
0.0
 20
0.0
 30
0.0
  9
$LIMMIN
 10
0.0
 20
0.0
  9
$LIMMAX
 10
297.0
 20
210.0
  9
$VIEWCTR
 10
148.5
 20
105.0
  9
$VIEWSIZE
 40
210.0
  9
$CLAYER
  8
0
  9
$LTSCALE
 40
16.335
  9
$CELTYPE
  6
BYLAYER
  9
$DIMSCALE
 40
1.0
  9
$DIMASZ
 40
3.0
  9
$DIMEXO
 40
0.5
  9
$DIMDLI
 40
11.286
  9
$DIMEXE
 40
1.5
  9
$DIMCEN
 40
2.673
  9
$DIMLFAC
 40
1.0
  9
$DIMBLK
  1
_FILLED
  9
$DIMTXT
 40
3.0
  9
$DIMTOL
 70
1
  9
$DIMLIM
 70
0
  9
$DIMTFAC
 40
1.0
  9
$DIMTP
 40
0.01
  9
$DIMTM
 40
0.01
  9
$DIMGAP
 40
0.625
  9
$DIMDSEP
 70
44
  9
$PDMODE
 70
3
  9
$PDSIZE
 40
3.0
  9
$HANDSEED
  5
45C
  9
$TILEMODE
 70
1
  9
$MEASUREMENT
 70
1
  9
$INSUNITS
 70
4
  0
ENDSEC
  0
SECTION
  2
CLASSES
  0
CLASS
  1
ACDBDICTIONARYWDFLT
  2
AcDbDictionaryWithDefault
  3
AutoCAD 2000
 90
0
280
0
281
0
  0
CLASS
  1
ACDBPLACEHOLDER
  2
AcDbPlaceHolder
  3
AutoCAD 2000
 90
0
280
0
281
0
  0
CLASS
  1
LAYOUT
  2
AcDbLayout
  3
AutoCAD 2000
 90
0
280
0
281
0
  0
ENDSEC
  0
SECTION
  2
TABLES
  0
TABLE
  2
VPORT
  5
8
100
AcDbSymbolTable
 70
2
  0
VPORT
  5
1F4
100
AcDbSymbolTableRecord
100
AcDbViewportTableRecord
  2
*ACTIVE
 70
0
 10
0.0
 20
0.0
 11
1.0
 21
1.0
 12
148.5
 22
105.0
 13
0.0
 23
0.0
 14
1.0
 24
1.0
 15
0.0
 25
0.0
 16
0.0
 26
0.0
 36
1.0
 17
0.0
 27
0.0
 37
0.0
 40
210.0
 41
1.4142857143
 42
50.0
 43
0.0
 44
0.0
 50
0.0
 51
0.0
 71
0
 72
100
 73
1
 74
1
 75
0
 76
0
 77
0
 78
0
  0
ENDTAB
  0
TABLE
  2
LTYPE
  5
5
100
AcDbSymbolTable
 70
6
  0
LTYPE
  5
14
100
AcDbSymbolTableRecord
100
AcDbLinetypeTableRecord
  2
BYBLOCK
 70
0
  3

 72
65
 73
0
 40
0.0
  0
LTYPE
  5
15
100
AcDbSymbolTableRecord
100
AcDbLinetypeTableRecord
  2
BYLAYER
 70
0
  3

 72
65
 73
0
 40
0.0
  0
LTYPE
  5
16
100
AcDbSymbolTableRecord
100
AcDbLinetypeTableRecord
  2
CONTINUOUS
 70
64
  3
Solid line
 72
65
 73
0
 40
0.0
  0
LTYPE
  5
1F5
100
AcDbSymbolTableRecord
100
AcDbLinetypeTableRecord
  2
CENTER
 70
64
  3
____ _ ____ _ ____ _ ____ _ ____ _ ____ _ ____
 72
65
 73
4
 40
0.6
 49
0.375
 74
0
 49
-0.075
 74
0
 49
0.075
 74
0
 49
-0.075
 74
0
  0
LTYPE
  5
1F6
100
AcDbSymbolTableRecord
100
AcDbLinetypeTableRecord
  2
HIDDEN
 70
64
  3
- - - - - - - - - - - - - - - - - - - -
 72
65
 73
2
 40
0.2
 49
0.1
 74
0
 49
-0.1
 74
0
  0
LTYPE
  5
1F7
100
AcDbSymbolTableRecord
100
AcDbLinetypeTableRecord
  2
PHANTOM
 70
64
  3
_____ _ _ _____ _ _ _____ _ _ _____
 72
65
 73
6
 40
0.8
 49
0.45
 74
0
 49
-0.05
 74
0
 49
0.1
 74
0
 49
-0.05
 74
0
 49
0.1
 74
0
 49
-0.05
 74
0
  0
LTYPE
  5
1F8
100
AcDbSymbolTableRecord
100
AcDbLinetypeTableRecord
  2
DOT
 70
64
  3
. . . . . . . . . . . . . . . . . . . .
 72
65
 73
2
 40
0.2
 49
0.1
 74
0
 49
-0.1
 74
0
  0
LTYPE
  5
1F9
100
AcDbSymbolTableRecord
100
AcDbLinetypeTableRecord
  2
DASHED
 70
64
  3
- - - - - - - - - - - - - - - - - - - -
 72
65
 73
2
 40
0.2
 49
0.1
 74
0
 49
-0.1
 74
0
  0
ENDTAB
  0
TABLE
  2
LAYER
  5
2
100
AcDbSymbolTable
 70
36
  0
LAYER
  5
10
100
AcDbSymbolTableRecord
100
AcDbLayerTableRecord
  2
0
 70
0
 62
7
  6
CONTINUOUS
370
-3
390
F
  0
LAYER
  5
1FA
100
AcDbSymbolTableRecord
100
AcDbLayerTableRecord
  2
DEFAULT_1
 70
0
 62
7
  6
CENTER
370
-3
390
F
  0
LAYER
  5
1FB
100
AcDbSymbolTableRecord
100
AcDbLayerTableRecord
  2
DEFAULT_2
 70
0
 62
7
  6
HIDDEN
370
-3
390
F
  0
LAYER
  5
1FC
100
AcDbSymbolTableRecord
100
AcDbLayerTableRecord
  2
DEFAULT_3
 70
0
 62
7
  6
PHANTOM
370
-3
390
F
  0
LAYER
  5
1FD
100
AcDbSymbolTableRecord
100
AcDbLayerTableRecord
  2
ASSI
 70
0
 62
7
  6
CONTINUOUS
370
-3
390
F
  0
LAYER
  5
1FE
100
AcDbSymbolTableRecord
100
AcDbLayerTableRecord
  2
COORDINATE
 70
0
 62
7
  6
CONTINUOUS
370
-3
390
F
  0
LAYER
  5
1FF
100
AcDbSymbolTableRecord
100
AcDbLayerTableRecord
  2
COORD_ORIGINE
 70
0
 62
7
  6
CONTINUOUS
370
-3
390
F
  0
LAYER
  5
200
100
AcDbSymbolTableRecord
100
AcDbLayerTableRecord
  2
COPY_PLACCA
 70
0
 62
7
  6
CONTINUOUS
370
-3
390
F
  0
LAYER
  5
201
100
AcDbSymbolTableRecord
100
AcDbLayerTableRecord
  2
COPY_SUPP
 70
0
 62
7
  6
CONTINUOUS
370
-3
390
F
  0
LAYER
  5
202
100
AcDbSymbolTableRecord
100
AcDbLayerTableRecord
  2
CURVE
 70
0
 62
7
  6
CONTINUOUS
370
-3
390
F
  0
LAYER
  5
203
100
AcDbSymbolTableRecord
100
AcDbLayerTableRecord
  2
DRAFT
 70
0
 62
7
  6
CONTINUOUS
370
-3
390
F
  0
LAYER
  5
204
100
AcDbSymbolTableRecord
100
AcDbLayerTableRecord
  2
NOTE
 70
0
 62
7
  6
CONTINUOUS
370
-3
390
F
  0
LAYER
  5
205
100
AcDbSymbolTableRecord
100
AcDbLayerTableRecord
  2
PIANI
 70
0
 62
7
  6
CONTINUOUS
370
-3
390
F
  0
LAYER
  5
206
100
AcDbSymbolTableRecord
100
AcDbLayerTableRecord
  2
PIANI_ORIGINE
 70
0
 62
7
  6
CONTINUOUS
370
-3
390
F
  0
LAYER
  5
207
100
AcDbSymbolTableRecord
100
AcDbLayerTableRecord
  2
RACCORDO
 70
0
 62
7
  6
CONTINUOUS
370
-3
390
F
  0
LAYER
  5
208
100
AcDbSymbolTableRecord
100
AcDbLayerTableRecord
  2
SKELETON
 70
0
 62
7
  6
CONTINUOUS
370
-3
390
F
  0
LAYER
  5
209
100
AcDbSymbolTableRecord
100
AcDbLayerTableRecord
  2
SMUSSO
 70
0
 62
7
  6
CONTINUOUS
370
-3
390
F
  0
LAYER
  5
20A
100
AcDbSymbolTableRecord
100
AcDbLayerTableRecord
  2
SUPERFICI
 70
0
 62
7
  6
CONTINUOUS
370
-3
390
F
  0
LAYER
  5
20B
100
AcDbSymbolTableRecord
100
AcDbLayerTableRecord
  2
TRASH
 70
0
 62
7
  6
CONTINUOUS
370
-3
390
F
  0
LAYER
  5
20C
100
AcDbSymbolTableRecord
100
AcDbLayerTableRecord
  2
WHITE
 70
0
 62
7
  6
CONTINUOUS
370
-3
390
F
  0
LAYER
  5
20D
100
AcDbSymbolTableRecord
100
AcDbLayerTableRecord
  2
XSEC_DATUMS
 70
0
 62
7
  6
CONTINUOUS
370
-3
390
F
  0
ENDTAB
  0
TABLE
  2
STYLE
  5
3
100
AcDbSymbolTable
 70
1
  0
STYLE
  5
11
100
AcDbSymbolTableRecord
100
AcDbTextStyleTableRecord
  2
STANDARD
 70
0
 40
0.0
 41
0.8
 50
0.0
 71
0
 42
0.2
  3
txt
  4

  0
STYLE
  5
20E
100
AcDbSymbolTableRecord
100
AcDbTextStyleTableRecord
  2
TEXTSTYLE_1
 70
0
 40
0.0
 41
0.8
 50
0.0
 71
0
 42
0.2
  3
gdt
  4

  0
ENDTAB
  0
TABLE
  2
VIEW
  5
6
100
AcDbSymbolTable
 70
0
  0
ENDTAB
  0
TABLE
  2
UCS
  5
7
100
AcDbSymbolTable
 70
0
  0
ENDTAB
  0
TABLE
  2
APPID
  5
9
100
AcDbSymbolTable
 70
1
  0
APPID
  5
20F
100
AcDbSymbolTableRecord
100
AcDbRegAppTableRecord
  2
ACAD
 70
0
  0
ENDTAB
  0
TABLE
  2
BLOCK_RECORD
  5
1
100
AcDbSymbolTable
 70
0
  0
BLOCK_RECORD
  5
210
100
AcDbSymbolTableRecord
100
AcDbBlockTableRecord
  2
*Model_Space
  0
BLOCK_RECORD
  5
211
100
AcDbSymbolTableRecord
100
AcDbBlockTableRecord
  2
*Paper_Space
  0
BLOCK_RECORD
  5
212
100
AcDbSymbolTableRecord
100
AcDbBlockTableRecord
  2
_FILLED
  0
BLOCK_RECORD
  5
213
100
AcDbSymbolTableRecord
100
AcDbBlockTableRecord
  2
*D0
  0
BLOCK_RECORD
  5
214
100
AcDbSymbolTableRecord
100
AcDbBlockTableRecord
  2
*D1
  0
BLOCK_RECORD
  5
215
100
AcDbSymbolTableRecord
100
AcDbBlockTableRecord
  2
*D2
  0
ENDTAB
  0
TABLE
  2
DIMSTYLE
  5
A
100
AcDbSymbolTable
 70
1
100
AcDbDimStyleTable
 71
0
  0
DIMSTYLE
105
216
100
AcDbSymbolTableRecord
100
AcDbDimStyleTableRecord
  2
STANDARD
 70
0
  3

  4

 40
1.0
 41
3.0
 42
0.5
 43
0.38
 44
1.5
 45
0.0
 46
0.0
 47
0.01
 48
0.01
140
3.0
141
0.09
142
0.0
143
25.4
144
1.0
145
0.0
146
1.0
147
0.625
 71
1.0
 72
0.0
 73
0
 74
0
 75
0
 76
0
 77
1
 78
8
170
0
171
2
172
0
173
0
174
0
175
0
176
0
177
0
178
0
270
2
271
2
272
2
273
2
274
2
275
0
280
0
281
0
282
0
283
1
284
8
285
0
286
0
287
3
288
0
340
11
278
44
341
212
342
212
343
212
344
212
  0
DIMSTYLE
105
217
100
AcDbSymbolTableRecord
100
AcDbDimStyleTableRecord
  2
DIMSTYLE_1
 70
0
  3

  4

 40
1.0
 41
3.0
 42
0.5
 43
0.38
 44
1.5
 45
0.0
 46
0.0
 47
0.0
 48
0.0
140
3.0
141
0.09
142
0.0
143
25.4
144
1.0
145
0.0
146
1.0
147
0.75
 71
0.0
 72
0.0
 73
0
 74
0
 75
0
 76
0
 77
1
 78
8
170
0
171
2
172
0
173
0
174
0
175
0
176
0
177
0
178
0
270
2
271
2
272
2
273
2
274
2
275
0
280
0
281
0
282
0
283
1
284
8
285
0
286
0
287
3
288
0
340
11
278
44
341
212
342
212
343
212
344
212
  0
ENDTAB
  0
ENDSEC
  0
SECTION
  2
BLOCKS
  0
BLOCK
  5
20
100
AcDbEntity
  8
0
100
AcDbBlockBegin
  2
*Model_Space
 70
0
 10
0.0
 20
0.0
 30
0.0
  3
*Model_Space
  1

  0
ENDBLK
  5
21
100
AcDbEntity
  8
0
100
AcDbBlockEnd
  0
BLOCK
  5
1C
100
AcDbEntity
  8
0
100
AcDbBlockBegin
  2
*Paper_Space
 70
0
 10
0.0
 20
0.0
 30
0.0
  3
*Paper_Space
  1

  0
ENDBLK
  5
1D
100
AcDbEntity
  8
0
100
AcDbBlockEnd
  0
BLOCK
  5
218
100
AcDbEntity
  8
0
100
AcDbBlockBegin
  2
_FILLED
 70
64
 10
0.0
 20
0.0
  3
_FILLED
  1

  0
SOLID
  5
219
100
AcDbEntity
  8
0
  6
BYBLOCK
 62
0
100
AcDbTrace
 10
0.0
 20
0.0
 11
-1.0
 21
0.3166666667
 12
-1.0
 22
-0.3166666667
 13
-1.0
 23
-0.3166666667
  0
ENDBLK
  5
21A
100
AcDbEntity
  8
0
  6
BYBLOCK
 62
0
100
AcDbBlockEnd
  0
BLOCK
  5
21B
100
AcDbEntity
  8
0
100
AcDbBlockBegin
 62
7
  6
CONTINUOUS
  2
*D0
 70
65
 10
0.0
 20
0.0
  3
*D0
  1

  0
MTEXT
  5
21C
100
AcDbEntity
  8
0
100
AcDbMText
 62
7
  6
CONTINUOUS
  7
STANDARD
 71
2
 72
1
 10
70.5223557468
 20
167.7998830673
 30
0.0
 11
1.0
 21
0.0
 31
0.0
 44
0.9
  1
10
 40
3.0
 41
4.0714285714
  0
LINE
  5
21D
100
AcDbEntity
  8
0
100
AcDbLine
 62
7
  6
CONTINUOUS
 10
75.5223557468
 20
148.6582967953
 11
75.5223557468
 21
165.5498830673
  0
LINE
  5
21E
100
AcDbEntity
  8
0
100
AcDbLine
 62
7
  6
CONTINUOUS
 10
65.5223557468
 20
135.0822101913
 11
65.5223557468
 21
165.5498830673
  0
LINE
  5
21F
100
AcDbEntity
  8
0
100
AcDbLine
 62
7
  6
CONTINUOUS
 10
75.5223557468
 20
164.0498830673
 11
79.5223557468
 21
164.0498830673
  0
LINE
  5
220
100
AcDbEntity
  8
0
100
AcDbLine
 62
7
  6
CONTINUOUS
 10
79.5223557468
 20
164.0498830673
 11
70.5223557468
 21
164.0498830673
  0
LINE
  5
221
100
AcDbEntity
  8
0
100
AcDbLine
 62
7
  6
CONTINUOUS
 10
65.5223557468
 20
164.0498830673
 11
61.5223557468
 21
164.0498830673
  0
LINE
  5
222
100
AcDbEntity
  8
0
100
AcDbLine
 62
7
  6
CONTINUOUS
 10
61.5223557468
 20
164.0498830673
 11
70.5223557468
 21
164.0498830673
  0
INSERT
  5
223
100
AcDbEntity
  8
0
100
AcDbBlockReference
 62
7
  6
CONTINUOUS
  2
_FILLED
 10
75.5223557468
 20
164.0498830673
 41
3.0
 42
3.0
 43
3.0
 50
180.0
  0
INSERT
  5
224
100
AcDbEntity
  8
0
100
AcDbBlockReference
 62
7
  6
CONTINUOUS
  2
_FILLED
 10
65.5223557468
 20
164.0498830673
 41
3.0
 42
3.0
 43
3.0
  0
ENDBLK
  5
225
100
AcDbEntity
  8
0
  6
BYBLOCK
 62
0
100
AcDbBlockEnd
  0
BLOCK
  5
226
100
AcDbEntity
  8
0
100
AcDbBlockBegin
 62
7
  6
CONTINUOUS
  2
*D1
 70
65
 10
0.0
 20
0.0
  3
*D1
  1

  0
MTEXT
  5
227
100
AcDbEntity
  8
0
100
AcDbMText
 62
7
  6
CONTINUOUS
  7
STANDARD
 71
2
 72
1
 10
157.7267936862
 20
167.4114582543
 30
0.0
 11
1.0
 21
0.0
 31
0.0
 44
0.9
  1
120
 40
3.0
 41
6.4285714286
  0
LINE
  5
228
100
AcDbEntity
  8
0
100
AcDbLine
 62
7
  6
CONTINUOUS
 10
97.7267936862
 20
148.6582967953
 11
97.7267936862
 21
165.1614582543
  0
LINE
  5
229
100
AcDbEntity
  8
0
100
AcDbLine
 62
7
  6
CONTINUOUS
 10
217.7267936862
 20
148.6582967952
 11
217.7267936862
 21
165.1614582543
  0
LINE
  5
22A
100
AcDbEntity
  8
0
100
AcDbLine
 62
7
  6
CONTINUOUS
 10
97.7267936862
 20
163.6614582543
 11
157.7267936862
 21
163.6614582543
  0
LINE
  5
22B
100
AcDbEntity
  8
0
100
AcDbLine
 62
7
  6
CONTINUOUS
 10
217.7267936862
 20
163.6614582543
 11
157.7267936862
 21
163.6614582543
  0
INSERT
  5
22C
100
AcDbEntity
  8
0
100
AcDbBlockReference
 62
7
  6
CONTINUOUS
  2
_FILLED
 10
97.7267936862
 20
163.6614582543
 41
3.0
 42
3.0
 43
3.0
 50
180.0
  0
INSERT
  5
22D
100
AcDbEntity
  8
0
100
AcDbBlockReference
 62
7
  6
CONTINUOUS
  2
_FILLED
 10
217.7267936862
 20
163.6614582543
 41
3.0
 42
3.0
 43
3.0
  0
ENDBLK
  5
22E
100
AcDbEntity
  8
0
  6
BYBLOCK
 62
0
100
AcDbBlockEnd
  0
BLOCK
  5
22F
100
AcDbEntity
  8
0
100
AcDbBlockBegin
 62
7
  6
CONTINUOUS
  2
*D2
 70
65
 10
0.0
 20
0.0
  3
*D2
  1

  0
MTEXT
  5
230
100
AcDbEntity
  8
0
100
AcDbMText
 62
7
  6
CONTINUOUS
  7
STANDARD
 71
2
 72
1
 10
226.6996445749
 20
107.6582967953
 30
0.0
 11
0.0
 21
1.0
 31
0.0
 44
0.9
  1
85
 40
3.0
 41
4.5
  0
LINE
  5
231
100
AcDbEntity
  8
0
100
AcDbLine
 62
7
  6
CONTINUOUS
 10
216.2267936876
 20
150.1582967953
 11
231.9496445749
 21
150.1582967953
  0
LINE
  5
232
100
AcDbEntity
  8
0
100
AcDbLine
 62
7
  6
CONTINUOUS
 10
216.2267936876
 20
65.1582967953
 11
231.9496445749
 21
65.1582967953
  0
LINE
  5
233
100
AcDbEntity
  8
0
100
AcDbLine
 62
7
  6
CONTINUOUS
 10
230.4496445749
 20
150.1582967953
 11
230.4496445749
 21
107.6582967953
  0
LINE
  5
234
100
AcDbEntity
  8
0
100
AcDbLine
 62
7
  6
CONTINUOUS
 10
230.4496445749
 20
65.1582967953
 11
230.4496445749
 21
107.6582967953
  0
INSERT
  5
235
100
AcDbEntity
  8
0
100
AcDbBlockReference
 62
7
  6
CONTINUOUS
  2
_FILLED
 10
230.4496445749
 20
150.1582967953
 41
3.0
 42
3.0
 43
3.0
 50
90.0
  0
INSERT
  5
236
100
AcDbEntity
  8
0
100
AcDbBlockReference
 62
7
  6
CONTINUOUS
  2
_FILLED
 10
230.4496445749
 20
65.1582967953
 41
3.0
 42
3.0
 43
3.0
 50
270.0
  0
ENDBLK
  5
237
100
AcDbEntity
  8
0
  6
BYBLOCK
 62
0
100
AcDbBlockEnd
  0
ENDSEC
  0
SECTION
  2
ENTITIES
  0
DIMENSION
  5
238
100
AcDbEntity
  8
0
100
AcDbDimension
 62
7
  6
CONTINUOUS
  2
*D0
 10
65.5223557468
 20
164.0498830673
 11
70.5223557468
 21
164.0498830673
 70
160
 71
2
 42
10.0
  3
DIMSTYLE_1
100
AcDbAlignedDimension
 13
75.5223557468
 23
148.1582967953
 14
65.5223557468
 24
134.5822101913
 50
180.0
100
AcDbRotatedDimension
  0
DIMENSION
  5
239
100
AcDbEntity
  8
0
100
AcDbDimension
 62
7
  6
CONTINUOUS
  2
*D1
 10
217.7267936862
 20
163.6614582543
 11
157.7267936862
 21
163.6614582543
 70
160
 71
2
 42
120.0
  3
DIMSTYLE_1
100
AcDbAlignedDimension
 13
97.7267936862
 23
148.1582967953
 14
217.7267936862
 24
148.1582967952
100
AcDbRotatedDimension
  0
DIMENSION
  5
23A
100
AcDbEntity
  8
0
100
AcDbDimension
 62
7
  6
CONTINUOUS
  2
*D2
 10
230.4496445749
 20
65.1582967953
 11
230.4496445749
 21
107.6582967953
 70
160
 71
2
 42
85.0
  3
DIMSTYLE_1
100
AcDbAlignedDimension
 13
215.7267936876
 23
150.1582967953
 14
215.7267936876
 24
65.1582967953
 50
270.0
100
AcDbRotatedDimension
  0
LWPOLYLINE
  5
23B
100
AcDbEntity
  8
RACCORDO
100
AcDbPolyline
 62
253
  6
CONTINUOUS
 90
25
 70
0
 10
98.1954614061
 20
67.1582967953
 10
98.1967633113
 20
67.0769626929
 10
98.2038128059
 20
66.9933237242
 10
98.2166098979
 20
66.9073798892
 10
98.23470097
 20
66.8185535145
 10
98.2585396738
 20
66.7274222735
 10
98.289486937
 20
66.6357191864
 10
98.3279996623
 20
66.5429595584
 10
98.3736210469
 20
66.4496280843
 10
98.4263414807
 20
66.3589118685
 10
98.4865661135
 20
66.2710143499
 10
98.5538899569
 20
66.1857320896
 10
98.6270881919
 20
66.1056418755
 10
98.7066202212
 20
66.030987833
 10
98.7920268227
 20
65.9615258367
 10
98.8807051907
 20
65.8991002974
 10
98.9729248789
 20
65.8442012848
 10
99.0684164512
 20
65.7963387292
 10
99.163768513
 20
65.7558868325
 10
99.2589504067
 20
65.7233870286
 10
99.3539927823
 20
65.6982978836
 10
99.4455760811
 20
65.6793692978
 10
99.5325937162
 20
65.6661845712
 10
99.6161521399
 20
65.6591604037
 10
99.6962512955
 20
65.6582967953
  0
LWPOLYLINE
  5
23C
100
AcDbEntity
  8
RACCORDO
100
AcDbPolyline
 62
253
  6
CONTINUOUS
 90
13
 70
0
 10
99.6962512955
 20
65.6582967953
 10
99.6965125899
 20
65.5930336962
 10
99.6972920023
 20
65.5288872673
 10
99.6985761967
 20
65.4669550718
 10
99.7003432003
 20
65.4082967867
 10
99.7025627789
 20
65.3539160717
 10
99.7051969551
 20
65.304743396
 10
99.7082006574
 20
65.2616201175
 10
99.7115224915
 20
65.2252840874
 10
99.7151056199
 20
65.1963570251
 10
99.7188887343
 20
65.1753338801
 10
99.7228071045
 20
65.162574364
 10
99.7267936862
 20
65.1582967953
  0
LINE
  5
23D
100
AcDbEntity
  8
RACCORDO
100
AcDbLine
 62
7
  6
CONTINUOUS
 10
97.7267936862
 20
148.1582967953
 11
97.7267936862
 21
67.1582967953
  0
LINE
  5
23E
100
AcDbEntity
  8
RACCORDO
100
AcDbLine
 62
253
  6
CONTINUOUS
 10
98.1954614061
 20
148.1582967953
 11
98.1954614061
 21
67.1582967953
  0
LWPOLYLINE
  5
23F
100
AcDbEntity
  8
RACCORDO
100
AcDbPolyline
 62
253
  6
CONTINUOUS
 90
13
 70
0
 10
99.6962512955
 20
149.6582967953
 10
99.69651259
 20
149.7235598203
 10
99.6972920014
 20
149.7877061936
 10
99.6985761942
 20
149.8496383538
 10
99.7003431959
 20
149.9082966247
 10
99.7025627729
 20
149.9626773444
 10
99.7051969478
 20
150.0118500388
 10
99.7082006495
 20
150.0549733468
 10
99.7115224838
 20
150.0913094123
 10
99.7151056132
 20
150.1202365091
 10
99.7188887292
 20
150.1412596829
 10
99.7228071017
 20
150.154019219
 10
99.7267936862
 20
150.1582967953
  0
LWPOLYLINE
  5
240
100
AcDbEntity
  8
RACCORDO
100
AcDbPolyline
 62
253
  6
CONTINUOUS
 90
25
 70
0
 10
215.757336077
 20
65.6582967953
 10
215.8442462161
 20
65.6598168107
 10
215.933401629
 20
65.6678217484
 10
216.0248022758
 20
65.6823116082
 10
216.1192674732
 20
65.7028999969
 10
216.2159778116
 20
65.7299733077
 10
216.3124752074
 20
65.764690721
 10
216.409174606
 20
65.8077030637
 10
216.5056610627
 20
65.8583595088
 10
216.5982317738
 20
65.9158667552
 10
216.6864352021
 20
65.9806602308
 10
216.7707230275
 20
66.0523045076
 10
216.8487473769
 20
66.1287000009
 10
216.9200386118
 20
66.2100563616
 10
216.9850665589
 20
66.2961639386
 10
217.042892582
 20
66.3842941937
 10
217.0930950058
 20
66.474511368
 10
217.1360956622
 20
66.5667512204
 10
217.1722211701
 20
66.6580924889
 10
217.2011035903
 20
66.7484181054
 10
217.2231109521
 20
66.8378451381
 10
217.239673804
 20
66.9238035293
 10
217.251269003
 20
67.0054365929
 10
217.2574197215
 20
67.0836010149
 10
217.2581259664
 20
67.1582967953
  0
LWPOLYLINE
  5
241
100
AcDbEntity
  8
RACCORDO
100
AcDbPolyline
 62
253
  6
CONTINUOUS
 90
37
 70
0
 10
123.7798523622
 20
85.0793400789
 10
123.7803482189
 20
85.0733468386
 10
123.7812040565
 20
85.0673644272
 10
123.7824183286
 20
85.061403654
 10
123.7839888412
 20
85.0554752894
 10
123.7859127567
 20
85.049590045
 10
123.7881865987
 20
85.0437585547
 10
123.7908062588
 20
85.0379913552
 10
123.7937670036
 20
85.032298867
 10
123.7970634834
 20
85.0266913757
 10
123.800689742
 20
85.0211790131
 10
123.8046392273
 20
85.0157717394
 10
123.8089048029
 20
85.0104793247
 10
123.8134787618
 20
85.0053113317
 10
123.8183528393
 20
85.0002770983
 10
123.8235182286
 20
84.9953857206
 10
123.8289655967
 20
84.9906460367
 10
123.8346851009
 20
84.9860666104
 10
123.8406664068
 20
84.9816557162
 10
123.8468987071
 20
84.977421324
 10
123.8533707408
 20
84.9733710846
 10
123.860070814
 20
84.9695123164
 10
123.8669868205
 20
84.9658519915
 10
123.874106264
 20
84.9623967237
 10
123.8814162807
 20
84.9591527562
 10
123.8889036625
 20
84.9561259503
 10
123.8965548806
 20
84.9533217751
 10
123.9043561104
 20
84.9507452974
 10
123.9122932562
 20
84.9484011724
 10
123.9203519766
 20
84.9462936356
 10
123.9285177106
 20
84.9444264952
 10
123.936775704
 20
84.9428031247
 10
123.9451110356
 20
84.9414264573
 10
123.9535086448
 20
84.9402989806
 10
123.9619533581
 20
84.9394227317
 10
123.9704299171
 20
84.9387992938
 10
123.978923006
 20
84.9384297935
  0
LWPOLYLINE
  5
242
100
AcDbEntity
  8
RACCORDO
100
AcDbPolyline
 62
253
  6
CONTINUOUS
 90
40
 70
0
 10
123.8039727864
 20
85.2852017184
 10
123.8041561933
 20
85.2771735478
 10
123.8046621317
 20
85.269158354
 10
123.8054897836
 20
85.2611690924
 10
123.8066378114
 20
85.2532186764
 10
123.8081043593
 20
85.2453199567
 10
123.8098870569
 20
85.2374857005
 10
123.8119830226
 20
85.2297285707
 10
123.8143888687
 20
85.2220611055
 10
123.8171007063
 20
85.2144956983
 10
123.8201141522
 20
85.2070445773
 10
123.8234243355
 20
85.1997197864
 10
123.8270259058
 20
85.1925331648
 10
123.8309130417
 20
85.1854963287
 10
123.8350794601
 20
85.1786206521
 10
123.8395184266
 20
85.1719172484
 10
123.8442227663
 20
85.1653969528
 10
123.8491848752
 20
85.1590703043
 10
123.8543967329
 20
85.152947529
 10
123.8598499151
 20
85.1470385235
 10
123.8655356075
 20
85.1413528386
 10
123.8714446201
 20
85.1358996646
 10
123.8775674018
 20
85.1306878156
 10
123.8838940559
 20
85.1257257158
 10
123.8904143565
 20
85.1210213857
 10
123.8971177643
 20
85.1165824291
 10
123.9039934443
 20
85.1124160208
 10
123.9110302831
 20
85.1085288954
 10
123.9182169065
 20
85.1049273356
 10
123.9255416984
 20
85.101617163
 10
123.9329928195
 20
85.0986037278
 10
123.9405582261
 20
85.0958919008
 10
123.9482256898
 20
85.0934860654
 10
123.9559828174
 20
85.09139011
 10
123.9638170726
 20
85.0896074222
 10
123.9717157905
 20
85.088140884
 10
123.9796661978
 20
85.0869928664
 10
123.9876554417
 20
85.0861652246
 10
123.9956706107
 20
85.0856592952
 10
124.0036987497
 20
85.0854758952
  0
LWPOLYLINE
  5
243
100
AcDbEntity
  8
RACCORDO
100
AcDbPolyline
 62
253
  6
CONTINUOUS
 90
58
 70
0
 10
122.0333493798
 20
82.8724053275
 10
122.033693577
 20
82.8462325698
 10
122.0347229565
 20
82.8200790841
 10
122.0364367429
 20
82.7939627797
 10
122.0388336577
 20
82.7679018439
 10
122.0419120082
 20
82.7419138092
 10
122.0456697702
 20
82.7160155498
 10
122.0501044446
 20
82.6902244282
 10
122.0552129477
 20
82.6645584835
 10
122.0609917402
 20
82.6390355014
 10
122.0674368239
 20
82.6136730731
 10
122.0745437976
 20
82.5884884492
 10
122.0823078279
 20
82.5634987391
 10
122.0907235881
 20
82.5387210915
 10
122.0997853246
 20
82.5141724413
 10
122.1094869245
 20
82.4898693705
 10
122.1198217897
 20
82.4658284768
 10
122.1307828391
 20
82.4420662911
 10
122.1423626078
 20
82.4185990357
 10
122.1545531774
 20
82.3954428225
 10
122.1673462344
 20
82.3726134996
 10
122.1807331077
 20
82.3501265844
 10
122.1947046772
 20
82.3279974822
 10
122.2092513942
 20
82.3062413945
 10
122.2243633582
 20
82.2848731767
 10
122.2400302397
 20
82.2639075195
 10
122.2562413601
 20
82.2433587912
 10
122.2729857389
 20
82.2232409635
 10
122.2902519865
 20
82.2035678239
 10
122.3080282873
 20
82.1843529317
 10
122.3263024944
 20
82.1656094712
 10
122.3450621053
 20
82.1473503585
 10
122.3642943355
 20
82.1295881241
 10
122.3839861217
 20
82.1123348866
 10
122.4041240484
 20
82.0956025047
 10
122.4246943341
 20
82.0794025284
 10
122.445682913
 20
82.0637460898
 10
122.4670754394
 20
82.0486439881
 10
122.4888573011
 20
82.0341066327
 10
122.5110136166
 20
82.0201440074
 10
122.5335292799
 20
82.0067657319
 10
122.5563888605
 20
81.9939810711
 10
122.579576615
 20
81.9817988748
 10
122.6030766364
 20
81.9702275844
 10
122.6268728902
 20
81.9592751763
 10
122.650949116
 20
81.9489491753
 10
122.6752888539
 20
81.9392567306
 10
122.6998754286
 20
81.9302045694
 10
122.7246919846
 20
81.9217989396
 10
122.7497216611
 20
81.914045645
 10
122.7749471895
 20
81.9069501256
 10
122.8003508716
 20
81.9005173847
 10
122.8259149156
 20
81.894751965
 10
122.8516221789
 20
81.8896577685
 10
122.8774557738
 20
81.8852381825
 10
122.9033982466
 20
81.881496303
 10
122.9294315762
 20
81.8784348663
 10
122.9555379181
 20
81.8760560835
  0
LWPOLYLINE
  5
244
100
AcDbEntity
  8
RACCORDO
100
AcDbPolyline
 62
253
  6
CONTINUOUS
 90
58
 70
0
 10
122.2258450349
 20
82.8724053275
 10
122.226120239
 20
82.8514539416
 10
122.2269420144
 20
82.830543464
 10
122.2283103611
 20
82.8096738948
 10
122.2302269697
 20
82.7888301653
 10
122.2326901498
 20
82.7680273441
 10
122.2356948298
 20
82.7473106371
 10
122.2392421197
 20
82.7266810319
 10
122.2433309099
 20
82.7061375409
 10
122.2479527989
 20
82.6857224068
 10
122.2531088737
 20
82.6654359508
 10
122.2587980479
 20
82.6452778516
 10
122.2650086599
 20
82.6252893889
 10
122.2717417534
 20
82.6054709396
 10
122.2789962854
 20
82.5858221268
 10
122.2867574648
 20
82.5663830991
 10
122.2950263411
 20
82.547154234
 10
122.3038018657
 20
82.528135154
 10
122.3130660997
 20
82.5093648757
 10
122.3228200309
 20
82.4908439233
 10
122.3330626726
 20
82.4725717726
 10
122.3437731248
 20
82.4545858674
 10
122.3549523606
 20
82.4368867624
 10
122.3665994081
 20
82.4194739029
 10
122.3786904488
 20
82.4023830686
 10
122.3912263763
 20
82.3856149358
 10
122.4042062983
 20
82.3691688282
 10
122.4176037178
 20
82.3530784969
 10
122.4314195138
 20
82.3373446397
 10
122.4456528086
 20
82.3219665587
 10
122.4602744706
 20
82.306975912
 10
122.475285277
 20
82.2923735091
 10
122.490684452
 20
82.2781585403
 10
122.5064405337
 20
82.264360235
 10
122.5225542799
 20
82.2509794217
 10
122.5390249343
 20
82.2380152717
 10
122.5558187639
 20
82.2254945283
 10
122.5729364321
 20
82.2134181015
 10
122.5903772768
 20
82.2017850811
 10
122.6081055771
 20
82.1906194808
 10
122.6261219615
 20
82.179922241
 10
122.6444258026
 20
82.1696924212
 10
122.6629794957
 20
82.1599512129
 10
122.6817835232
 20
82.1506996392
 10
122.7008374038
 20
82.141936677
 10
122.7201020867
 20
82.1336804487
 10
122.7395780332
 20
82.1259319798
 10
122.7592647831
 20
82.1186902448
 10
122.7791219027
 20
82.1119702895
 10
122.7991498128
 20
82.1057731858
 10
122.8193480935
 20
82.1000978618
 10
122.8396750506
 20
82.094956148
 10
122.8601319369
 20
82.0903490718
 10
122.8807175001
 20
82.0862756056
 10
122.9013862888
 20
82.082744498
 10
122.9221231522
 20
82.0797586651
 10
122.9429432413
 20
82.0773151906
 10
122.9638465563
 20
82.0754140746
  0
LINE
  5
245
100
AcDbEntity
  8
RACCORDO
100
AcDbLine
 62
253
  6
CONTINUOUS
 10
121.7730090773
 20
82.7205611162
 11
121.7730090773
 21
132.5960324744
  0
LINE
  5
246
100
AcDbEntity
  8
RACCORDO
100
AcDbLine
 62
7
  6
CONTINUOUS
 10
121.8767936862
 20
82.7205611162
 11
121.8767936862
 21
132.5960324747
  0
LINE
  5
247
100
AcDbEntity
  8
RACCORDO
100
AcDbLine
 62
7
  6
CONTINUOUS
 10
121.9767936862
 20
82.8201125392
 11
121.9767936862
 21
132.4964810514
  0
LINE
  5
248
100
AcDbEntity
  8
RACCORDO
100
AcDbLine
 62
253
  6
CONTINUOUS
 10
122.0333493798
 20
132.4441882631
 11
122.0333493798
 21
82.8724053275
  0
LINE
  5
249
100
AcDbEntity
  8
RACCORDO
100
AcDbLine
 62
253
  6
CONTINUOUS
 10
122.2258450349
 20
132.4441882631
 11
122.2258450349
 21
82.8724053275
  0
LINE
  5
24A
100
AcDbEntity
  8
RACCORDO
100
AcDbLine
 62
253
  6
CONTINUOUS
 10
123.5024763462
 20
83.7278586387
 11
123.5024763462
 21
131.5887349519
  0
LWPOLYLINE
  5
24B
100
AcDbEntity
  8
RACCORDO
100
AcDbPolyline
 62
7
  6
CONTINUOUS
 90
58
 70
0
 10
121.9767936862
 20
132.4964810514
 10
121.9771328559
 20
132.5226159866
 10
121.9781567871
 20
132.5487240522
 10
121.9798654798
 20
132.5748052481
 10
121.9822614021
 20
132.6008879668
 10
121.985342086
 20
132.6269438158
 10
121.9891001268
 20
132.6528876179
 10
121.9935389618
 20
132.6787148414
 10
121.9986551539
 20
132.7044300181
 10
122.0044309863
 20
132.7299615652
 10
122.0108620413
 20
132.7552897146
 10
122.0179527367
 20
132.7804342346
 10
122.0256986101
 20
132.8053828469
 10
122.0341028455
 20
132.8301480583
 10
122.0431622589
 20
132.8547173622
 10
122.0528628358
 20
132.8790409603
 10
122.0632110966
 20
132.9031273256
 10
122.0742005208
 20
132.9269679851
 10
122.0857975326
 20
132.9504877218
 10
122.0980038197
 20
132.9736814561
 10
122.1108176943
 20
132.9965542676
 10
122.124200517
 20
133.0190461775
 10
122.1381400797
 20
133.0411379161
 10
122.1526485905
 20
133.0628487531
 10
122.1677240346
 20
133.0841765189
 10
122.1833776111
 20
133.105137922
 10
122.1995981209
 20
133.1257162537
 10
122.2163499517
 20
133.1458592184
 10
122.2336397245
 20
133.1655694022
 10
122.2514608183
 20
133.1848442188
 10
122.2697577577
 20
133.2036236143
 10
122.2885286456
 20
133.2219009043
 10
122.3077753791
 20
133.2396827731
 10
122.327448174
 20
133.2569292189
 10
122.3475311676
 20
133.273627647
 10
122.3680402227
 20
133.2897906522
 10
122.3889731427
 20
133.3054160171
 10
122.4103478643
 20
133.3205172367
 10
122.4321464508
 20
133.3350808161
 10
122.4543128966
 20
133.349064052
 10
122.4768526747
 20
133.3624658778
 10
122.4997603121
 20
133.3752873603
 10
122.5229633838
 20
133.3874889968
 10
122.546454145
 20
133.3990636728
 10
122.5702403406
 20
133.4100185029
 10
122.5942727804
 20
133.4203353285
 10
122.618539159
 20
133.4300099008
 10
122.6430517819
 20
133.4390464686
 10
122.6677983744
 20
133.4474396197
 10
122.6927978306
 20
133.4551951922
 10
122.7180312565
 20
133.4623073479
 10
122.743429696
 20
133.4687531599
 10
122.7689983296
 20
133.4745296982
 10
122.7947319767
 20
133.4796398928
 10
122.8205461392
 20
133.4840696059
 10
122.8464126508
 20
133.4878141251
 10
122.8723596776
 20
133.4908781628
 10
122.8983872197
 20
133.4932617192
  0
LWPOLYLINE
  5
24C
100
AcDbEntity
  8
RACCORDO
100
AcDbPolyline
 62
253
  6
CONTINUOUS
 90
49
 70
0
 10
123.5024763462
 20
131.5887349519
 10
123.5028214011
 20
131.6114950565
 10
123.5037732168
 20
131.6340017359
 10
123.5053317934
 20
131.6562549902
 10
123.5075137333
 20
131.678288839
 10
123.5103024343
 20
131.7000692626
 10
123.5136480892
 20
131.7214942021
 10
123.5175542621
 20
131.7425600213
 10
123.5220173895
 20
131.7632703563
 10
123.5269769731
 20
131.7835340572
 10
123.5324372544
 20
131.8033482942
 10
123.5383939924
 20
131.822715897
 10
123.5447739653
 20
131.8415542046
 10
123.5515810557
 20
131.8598576608
 10
123.5588113816
 20
131.8776318217
 10
123.5663800732
 20
131.8948106945
 10
123.5742867586
 20
131.9113822438
 10
123.5825318103
 20
131.9273585048
 10
123.5910314763
 20
131.9427095904
 10
123.5997822677
 20
131.9574245653
 10
123.6087876738
 20
131.9715143647
 10
123.6179744094
 20
131.9849819067
 10
123.6273406482
 20
131.9978227169
 10
123.6368882168
 20
132.0100412698
 10
123.6465493086
 20
132.0216539065
 10
123.6563218356
 20
132.032656902
 10
123.666207886
 20
132.0430539814
 10
123.6761459181
 20
132.0528726614
 10
123.6861311895
 20
132.062108387
 10
123.6961684427
 20
132.0707657132
 10
123.7062103621
 20
132.0788858212
 10
123.7162558224
 20
132.086468349
 10
123.726305949
 20
132.0935136587
 10
123.7363168024
 20
132.1000640169
 10
123.7462874992
 20
132.1061187509
 10
123.7562189227
 20
132.1116785335
 10
123.7660697829
 20
132.1167876494
 10
123.7758346573
 20
132.1214439317
 10
123.7855189682
 20
132.1256495473
 10
123.7950976926
 20
132.1294552818
 10
123.8045638903
 20
132.1328608842
 10
123.8139245013
 20
132.1358666055
 10
123.8231753221
 20
132.1385239846
 10
123.8323127456
 20
132.1408354903
 10
123.8413403787
 20
132.1427986537
 10
123.850264839
 20
132.1444576069
 10
123.8590883323
 20
132.1458270605
 10
123.8678086526
 20
132.1468923039
 10
123.8764257998
 20
132.147653337
  0
LWPOLYLINE
  5
24D
100
AcDbEntity
  8
RACCORDO
100
AcDbPolyline
 62
253
  6
CONTINUOUS
 90
15
 70
0
 10
122.9543225038
 20
81.9135073672
 10
122.954204899
 20
81.9086463006
 10
122.9541187498
 20
81.9040945347
 10
122.9540642161
 20
81.8998605114
 10
122.954041399
 20
81.8959520834
 10
122.9540503408
 20
81.8923764998
 10
122.9540910248
 20
81.889140392
 10
122.9541633758
 20
81.886249762
 10
122.9542672595
 20
81.883709971
 10
122.9544024831
 20
81.8815257294
 10
122.954568796
 20
81.8797010883
 10
122.9547658896
 20
81.8782394319
 10
122.9549933984
 20
81.877143471
 10
122.9552509005
 20
81.8764152384
 10
122.9555379182
 20
81.8760560846
  0
LINE
  5
24E
100
AcDbEntity
  8
RACCORDO
100
AcDbLine
 62
253
  6
CONTINUOUS
 10
121.7730090773
 20
132.5960324744
 11
121.7784927949
 21
132.6946604136
  0
LWPOLYLINE
  5
24F
100
AcDbEntity
  8
RACCORDO
100
AcDbPolyline
 62
253
  6
CONTINUOUS
 90
3
 70
0
 10
121.7784927949
 20
132.6946604136
 10
121.7896291203
 20
132.7883862122
 10
121.8064180611
 20
132.8772098702
  0
LWPOLYLINE
  5
250
100
AcDbEntity
  8
RACCORDO
100
AcDbPolyline
 62
253
  6
CONTINUOUS
 90
16
 70
0
 10
121.8064180611
 20
132.8772098702
 10
121.8294118468
 20
132.9609080886
 10
121.8580582756
 20
133.0397041663
 10
121.8907007085
 20
133.1142680006
 10
121.9269119919
 20
133.1845279206
 10
121.9671193108
 20
133.2505555971
 10
122.0109475301
 20
133.3132359395
 10
122.0580811118
 20
133.3727373101
 10
122.1088356317
 20
133.4288913465
 10
122.1637826292
 20
133.4820778713
 10
122.2227699742
 20
133.5326367403
 10
122.2859498523
 20
133.5802280977
 10
122.35435029
 20
133.624212198
 10
122.4282124346
 20
133.6650696841
 10
122.507295227
 20
133.7023199131
 10
122.5919033992
 20
133.7338812115
  0
LWPOLYLINE
  5
251
100
AcDbEntity
  8
RACCORDO
100
AcDbPolyline
 62
253
  6
CONTINUOUS
 90
4
 70
0
 10
192.8616839732
 20
81.5827123791
 10
192.7714488052
 20
81.5575339025
 10
192.675688145
 20
81.5380443565
 10
192.5744019321
 20
81.524243741
  0
LINE
  5
252
100
AcDbEntity
  8
RACCORDO
100
AcDbLine
 62
7
  6
CONTINUOUS
 10
99.7267936862
 20
65.1582967953
 11
215.7267936862
 21
65.1582967953
  0
LINE
  5
253
100
AcDbEntity
  8
RACCORDO
100
AcDbLine
 62
253
  6
CONTINUOUS
 10
99.6962512955
 20
65.6582967953
 11
215.757336077
 21
65.6582967953
  0
LINE
  5
254
100
AcDbEntity
  8
RACCORDO
100
AcDbLine
 62
253
  6
CONTINUOUS
 10
98.1954614061
 20
67.1582967953
 11
97.7267936862
 21
67.1582967953
  0
LINE
  5
255
100
AcDbEntity
  8
RACCORDO
100
AcDbLine
 62
253
  6
CONTINUOUS
 10
217.2581259664
 20
67.1582967953
 11
217.7267936862
 21
67.1582967953
  0
LWPOLYLINE
  5
256
100
AcDbEntity
  8
RACCORDO
100
AcDbPolyline
 62
253
  6
CONTINUOUS
 90
16
 70
0
 10
122.6016876659
 20
81.5794830203
 10
122.5200798807
 20
81.6089216986
 10
122.4437856471
 20
81.6436078706
 10
122.3720123418
 20
81.6819497431
 10
122.3047978512
 20
81.7235173738
 10
122.2421042155
 20
81.7687407049
 10
122.18302506
 20
81.8173177702
 10
122.1273679837
 20
81.8689481004
 10
122.0753253398
 20
81.9239321648
 10
122.0265678954
 20
81.9828694044
 10
121.9807453086
 20
82.0456347978
 10
121.938207886
 20
82.1123533664
 10
121.8996773676
 20
82.1839996163
 10
121.8646933095
 20
82.2608519503
 10
121.833716122
 20
82.3426319655
 10
121.8088488184
 20
82.42947896
  0
LWPOLYLINE
  5
257
100
AcDbEntity
  8
RACCORDO
100
AcDbPolyline
 62
253
  6
CONTINUOUS
 90
4
 70
0
 10
121.8088488184
 20
82.42947896
 10
121.7907923895
 20
82.5214393662
 10
121.7788458121
 20
82.6184667516
 10
121.7730090773
 20
82.7205611162
  0
LINE
  5
258
100
AcDbEntity
  8
RACCORDO
100
AcDbLine
 62
253
  6
CONTINUOUS
 10
123.8877276551
 20
132.0194880369
 11
123.8891117486
 21
132.0066616024
  0
LINE
  5
259
100
AcDbEntity
  8
RACCORDO
100
AcDbLine
 62
253
  6
CONTINUOUS
 10
123.8863118017
 20
132.0332893386
 11
123.8877276551
 21
132.0194880369
  0
LINE
  5
25A
100
AcDbEntity
  8
RACCORDO
100
AcDbLine
 62
253
  6
CONTINUOUS
 10
123.8841520758
 20
132.0555876975
 11
123.8863118017
 21
132.0332893386
  0
LINE
  5
25B
100
AcDbEntity
  8
RACCORDO
100
AcDbLine
 62
253
  6
CONTINUOUS
 10
123.8819820915
 20
132.0794604407
 11
123.8841520758
 21
132.0555876975
  0
LINE
  5
25C
100
AcDbEntity
  8
RACCORDO
100
AcDbLine
 62
253
  6
CONTINUOUS
 10
123.8798389569
 20
132.1044993282
 11
123.8819820915
 21
132.0794604407
  0
LWPOLYLINE
  5
25D
100
AcDbEntity
  8
RACCORDO
100
AcDbPolyline
 62
253
  6
CONTINUOUS
 90
10
 70
0
 10
122.8791854715
 20
133.7923498495
 10
122.8806014099
 20
133.7750068545
 10
122.8820860343
 20
133.7581927034
 10
122.8835940701
 20
133.7424201539
 10
122.8850795284
 20
133.728170199
 10
122.8864971098
 20
133.7158773997
 10
122.8878035855
 20
133.7059166321
 10
122.8889591144
 20
133.6985916561
 10
122.8899284573
 20
133.6941258514
 10
122.8906820537
 20
133.6926554058
  0
LINE
  5
25E
100
AcDbEntity
  8
RACCORDO
100
AcDbLine
 62
253
  6
CONTINUOUS
 10
123.8777593212
 20
132.1302761782
 11
123.8798389569
 21
132.1044993282
  0
LINE
  5
25F
100
AcDbEntity
  8
RACCORDO
100
AcDbLine
 62
253
  6
CONTINUOUS
 10
123.9804002252
 20
130.3594865759
 11
123.9789229504
 21
130.3781637621
  0
LINE
  5
260
100
AcDbEntity
  8
RACCORDO
100
AcDbLine
 62
253
  6
CONTINUOUS
 10
123.8764257998
 20
132.147653337
 11
123.8777593212
 21
132.1302761782
  0
LINE
  5
261
100
AcDbEntity
  8
RACCORDO
100
AcDbLine
 62
253
  6
CONTINUOUS
 10
122.9638465563
 20
133.2411795159
 11
122.9619127555
 21
133.2668718197
  0
LINE
  5
262
100
AcDbEntity
  8
RACCORDO
100
AcDbLine
 62
253
  6
CONTINUOUS
 10
123.7852123648
 20
130.1521996778
 11
123.7835890766
 21
130.1745884088
  0
LINE
  5
263
100
AcDbEntity
  8
RACCORDO
100
AcDbLine
 62
253
  6
CONTINUOUS
 10
122.9619127555
 20
133.2668718197
 11
122.9601332045
 21
133.2921357937
  0
LINE
  5
264
100
AcDbEntity
  8
RACCORDO
100
AcDbLine
 62
253
  6
CONTINUOUS
 10
122.9601332045
 20
133.2921357937
 11
122.958537571
 21
133.3165502505
  0
LINE
  5
265
100
AcDbEntity
  8
RACCORDO
100
AcDbLine
 62
253
  6
CONTINUOUS
 10
123.7835890766
 20
130.1745884088
 11
123.7820356092
 21
130.1985783604
  0
LINE
  5
266
100
AcDbEntity
  8
RACCORDO
100
AcDbLine
 62
253
  6
CONTINUOUS
 10
122.958537571
 20
133.3165502505
 11
122.9571524565
 21
133.3397081653
  0
LINE
  5
267
100
AcDbEntity
  8
RACCORDO
100
AcDbLine
 62
253
  6
CONTINUOUS
 10
123.7820356092
 20
130.1985783604
 11
123.7805608397
 21
130.2239969784
  0
LINE
  5
268
100
AcDbEntity
  8
RACCORDO
100
AcDbLine
 62
253
  6
CONTINUOUS
 10
123.9789230158
 20
130.3781638771
 11
123.8891117486
 21
132.0066616026
  0
LINE
  5
269
100
AcDbEntity
  8
RACCORDO
100
AcDbLine
 62
253
  6
CONTINUOUS
 10
122.9571524565
 20
133.3397081653
 11
122.9563575617
 21
133.3542569822
  0
LINE
  5
26A
100
AcDbEntity
  8
RACCORDO
100
AcDbLine
 62
253
  6
CONTINUOUS
 10
123.7805608397
 20
130.2239969784
 11
123.7094073726
 21
131.588734952
  0
LINE
  5
26B
100
AcDbEntity
  8
RACCORDO
100
AcDbLine
 62
253
  6
CONTINUOUS
 10
122.9563575617
 20
133.3542569822
 11
122.9556724687
 21
133.3679672986
  0
LINE
  5
26C
100
AcDbEntity
  8
RACCORDO
100
AcDbLine
 62
253
  6
CONTINUOUS
 10
122.9556724687
 20
133.3679672986
 11
122.9551022575
 21
133.3807374487
  0
LINE
  5
26D
100
AcDbEntity
  8
RACCORDO
100
AcDbLine
 62
253
  6
CONTINUOUS
 10
122.9551022575
 20
133.3807374487
 11
122.9546511565
 21
133.3924727384
  0
LWPOLYLINE
  5
26E
100
AcDbEntity
  8
RACCORDO
100
AcDbPolyline
 62
253
  6
CONTINUOUS
 90
16
 70
0
 10
122.9546511565
 20
133.3924727384
 10
122.9543225107
 20
133.4030861474
 10
122.954204906
 20
133.4079472111
 10
122.954118757
 20
133.4124989744
 10
122.9540642234
 20
133.4167329952
 10
122.9540414064
 20
133.4206414208
 10
122.9540503483
 20
133.4242170023
 10
122.9540910325
 20
133.4274531081
 10
122.9541633836
 20
133.4303437364
 10
122.9542672673
 20
133.4328835259
 10
122.9544024909
 20
133.4350677661
 10
122.9545688038
 20
133.436892406
 10
122.9547658974
 20
133.4383540615
 10
122.9549934062
 20
133.4394500216
 10
122.9552509083
 20
133.4401782538
 10
122.955537926
 20
133.4405374073
  0
LWPOLYLINE
  5
26F
100
AcDbEntity
  8
RACCORDO
100
AcDbPolyline
 62
253
  6
CONTINUOUS
 90
49
 70
0
 10
123.7094073726
 20
131.5887349519
 10
123.7092697095
 20
131.6058049837
 10
123.7094536942
 20
131.6226984814
 10
123.7099522001
 20
131.6394067679
 10
123.7107570856
 20
131.6559393036
 10
123.7118611656
 20
131.6722703358
 10
123.7132577196
 20
131.6883389725
 10
123.7149380615
 20
131.7041368142
 10
123.7168926564
 20
131.7196583763
 10
123.7191119592
 20
131.7348479484
 10
123.7215862586
 20
131.7496992067
 10
123.724304516
 20
131.7642073631
 10
123.7272532443
 20
131.7783201331
 10
123.730421368
 20
131.7920311325
 10
123.7337966965
 20
131.8053389642
 10
123.7373618257
 20
131.8182003379
 10
123.74110332
 20
131.8306059557
 10
123.7450093793
 20
131.8425611857
 10
123.7490634857
 20
131.8540462659
 10
123.7532517982
 20
131.8650540244
 10
123.7575631462
 20
131.8755910737
 10
123.7619847743
 20
131.8856593447
 10
123.7665051362
 20
131.8952573517
 10
123.7711127771
 20
131.9043883967
 10
123.77579549
 20
131.9130622261
 10
123.780542777
 20
131.9212787974
 10
123.7853443056
 20
131.9290420207
 10
123.7901885936
 20
131.9363681172
 10
123.7950651422
 20
131.9432569839
 10
123.7999659256
 20
131.9497143075
 10
123.804883869
 20
131.9557652334
 10
123.8098116384
 20
131.9614129709
 10
123.814740827
 20
131.9666606771
 10
123.8196634959
 20
131.9715334847
 10
123.8245734834
 20
131.97603481
 10
123.8294635883
 20
131.9801683913
 10
123.8343248563
 20
131.9839600805
 10
123.8391499162
 20
131.9874123731
 10
123.8439349077
 20
131.9905307413
 10
123.84867672
 20
131.9933455229
 10
123.8533683348
 20
131.995860137
 10
123.8580077839
 20
131.9980791005
 10
123.8626002441
 20
132.0000337438
 10
123.8671412803
 20
132.0017287004
 10
123.8716284362
 20
132.0031662905
 10
123.8760705135
 20
132.0043732417
 10
123.880468732
 20
132.0053601018
 10
123.8848165969
 20
132.0061219289
 10
123.8891117486
 20
132.0066616026
  0
LINE
  5
270
100
AcDbEntity
  8
RACCORDO
100
AcDbLine
 62
253
  6
CONTINUOUS
 10
123.7094073726
 20
83.7278586386
 11
123.7094073726
 21
131.588734952
  0
LINE
  5
271
100
AcDbEntity
  8
RACCORDO
100
AcDbLine
 62
7
  6
CONTINUOUS
 10
123.8767936862
 20
85.3580227013
 11
123.8767936862
 21
129.9585708896
  0
LINE
  5
272
100
AcDbEntity
  8
RACCORDO
100
AcDbLine
 62
253
  6
CONTINUOUS
 10
122.95465115
 20
81.9241207823
 11
122.9543225038
 21
81.9135073672
  0
LINE
  5
273
100
AcDbEntity
  8
RACCORDO
100
AcDbLine
 62
253
  6
CONTINUOUS
 10
122.9551022515
 20
81.9358560786
 11
122.95465115
 21
81.9241207823
  0
LINE
  5
274
100
AcDbEntity
  8
RACCORDO
100
AcDbLine
 62
253
  6
CONTINUOUS
 10
122.9556724632
 20
81.9486262356
 11
122.9551022515
 21
81.9358560786
  0
LINE
  5
275
100
AcDbEntity
  8
RACCORDO
100
AcDbLine
 62
253
  6
CONTINUOUS
 10
122.9563575568
 20
81.9623365592
 11
122.9556724632
 21
81.9486262356
  0
LINE
  5
276
100
AcDbEntity
  8
RACCORDO
100
AcDbLine
 62
253
  6
CONTINUOUS
 10
123.978923006
 20
84.9384297939
 11
123.8891117486
 21
83.309931988
  0
LINE
  5
277
100
AcDbEntity
  8
RACCORDO
100
AcDbLine
 62
253
  6
CONTINUOUS
 10
123.7812900447
 20
85.1055129131
 11
123.7094073726
 21
83.7278586386
  0
LINE
  5
278
100
AcDbEntity
  8
RACCORDO
100
AcDbLine
 62
253
  6
CONTINUOUS
 10
122.9575892643
 20
81.9844407412
 11
122.9563575568
 21
81.9623365592
  0
LINE
  5
279
100
AcDbEntity
  8
RACCORDO
100
AcDbLine
 62
253
  6
CONTINUOUS
 10
123.782805213
 20
85.130231369
 11
123.7812900447
 21
85.1055129131
  0
LINE
  5
27A
100
AcDbEntity
  8
RACCORDO
100
AcDbLine
 62
253
  6
CONTINUOUS
 10
122.9590473004
 20
82.0080615826
 11
122.9575892643
 21
81.9844407412
  0
LINE
  5
27B
100
AcDbEntity
  8
RACCORDO
100
AcDbLine
 62
253
  6
CONTINUOUS
 10
122.9607073576
 20
82.0328052893
 11
122.9590473004
 21
82.0080615826
  0
LINE
  5
27C
100
AcDbEntity
  8
RACCORDO
100
AcDbLine
 62
253
  6
CONTINUOUS
 10
122.9625417604
 20
82.0582593473
 11
122.9607073576
 21
82.0328052893
  0
LINE
  5
27D
100
AcDbEntity
  8
RACCORDO
100
AcDbLine
 62
253
  6
CONTINUOUS
 10
122.9638465563
 20
82.0754140746
 11
122.9625417604
 21
82.0582593473
  0
LINE
  5
27E
100
AcDbEntity
  8
RACCORDO
100
AcDbLine
 62
253
  6
CONTINUOUS
 10
123.8764257999
 20
83.1689402535
 11
123.8784432535
 21
83.1949646591
  0
LWPOLYLINE
  5
27F
100
AcDbEntity
  8
RACCORDO
100
AcDbPolyline
 62
253
  6
CONTINUOUS
 90
10
 70
0
 10
122.8791854453
 20
81.524243741
 10
122.8806013888
 20
81.5415867614
 10
122.8820860175
 20
81.5584009202
 10
122.8835940566
 20
81.5741734572
 10
122.8850795174
 20
81.5884233771
 10
122.8864970995
 20
81.600716118
 10
122.8878035728
 20
81.6106768036
 10
122.8889590954
 20
81.6180016754
 10
122.8899284288
 20
81.6224673559
 10
122.8906820123
 20
81.623937661
  0
LINE
  5
280
100
AcDbEntity
  8
RACCORDO
100
AcDbLine
 62
253
  6
CONTINUOUS
 10
123.8784432535
 20
83.1949646591
 11
123.8805480734
 21
83.2205440299
  0
LINE
  5
281
100
AcDbEntity
  8
RACCORDO
100
AcDbLine
 62
253
  6
CONTINUOUS
 10
123.8805480734
 20
83.2205440299
 11
123.8827042657
 21
83.2452409415
  0
LINE
  5
282
100
AcDbEntity
  8
RACCORDO
100
AcDbLine
 62
253
  6
CONTINUOUS
 10
123.8827042657
 20
83.2452409415
 11
123.884874958
 21
83.2686330601
  0
LINE
  5
283
100
AcDbEntity
  8
RACCORDO
100
AcDbLine
 62
253
  6
CONTINUOUS
 10
123.884874958
 20
83.2686330601
 11
123.8863118019
 21
83.2833042519
  0
LINE
  5
284
100
AcDbEntity
  8
RACCORDO
100
AcDbLine
 62
253
  6
CONTINUOUS
 10
123.8863118019
 20
83.2833042519
 11
123.8877276552
 21
83.2971055537
  0
LINE
  5
285
100
AcDbEntity
  8
RACCORDO
100
AcDbLine
 62
253
  6
CONTINUOUS
 10
123.8877276552
 20
83.2971055537
 11
123.8891117486
 21
83.3099319882
  0
LWPOLYLINE
  5
286
100
AcDbEntity
  8
RACCORDO
100
AcDbPolyline
 62
253
  6
CONTINUOUS
 90
58
 70
0
 10
192.4980494543
 20
81.8760560835
 10
192.5241556606
 20
81.8784348521
 10
192.5501888959
 20
81.8814962728
 10
192.5761313155
 20
81.8852381378
 10
192.6019649167
 20
81.8896577174
 10
192.6276722264
 20
81.8947519162
 10
192.653236301
 20
81.9005173369
 10
192.678639971
 20
81.9069500689
 10
192.7038654722
 20
81.9140455743
 10
192.7288951332
 20
81.921798857
 10
192.7537117009
 20
81.9302044835
 10
192.778298298
 20
81.939256646
 10
192.8026380483
 20
81.9489490892
 10
192.8267142658
 20
81.95927508
 10
192.8505105021
 20
81.9702274729
 10
192.8740105101
 20
81.9817987489
 10
192.8971982606
 20
81.9939809347
 10
192.9200578408
 20
82.0067655867
 10
192.9425735046
 20
82.0201438536
 10
192.9647298205
 20
82.0341064699
 10
192.9865116834
 20
82.0486438166
 10
193.0079042122
 20
82.0637459102
 10
193.0288927956
 20
82.0794023423
 10
193.0494630871
 20
82.0956023129
 10
193.0696010177
 20
82.1123346877
 10
193.0892928049
 20
82.1295879152
 10
193.1085250347
 20
82.147350138
 10
193.1272846462
 20
82.1656092394
 10
193.1455588554
 20
82.1843526897
 10
193.1633351591
 20
82.2035675721
 10
193.1806014107
 20
82.2232407027
 10
193.197345795
 20
82.2433585228
 10
193.2135569216
 20
82.2639072446
 10
193.2292238088
 20
82.284872894
 10
193.2443357768
 20
82.3062411014
 10
193.2588824972
 20
82.3279971774
 10
193.2728540716
 20
82.3501262695
 10
193.286240952
 20
82.3726131775
 10
193.2990340171
 20
82.395442495
 10
193.3112245952
 20
82.4185987033
 10
193.3228043719
 20
82.442065953
 10
193.3337654297
 20
82.4658281333
 10
193.3441003044
 20
82.4898690242
 10
193.3538019166
 20
82.5141720996
 10
193.3628636659
 20
82.5387207572
 10
193.3712794352
 20
82.5634984031
 10
193.3790434683
 20
82.58848809
 10
193.3861504434
 20
82.6136726811
 10
193.3925955337
 20
82.639035091
 10
193.3983743403
 20
82.6645580868
 10
193.4034828596
 20
82.6902240604
 10
193.4079175467
 20
82.7160151996
 10
193.411675315
 20
82.7419134358
 10
193.4147536718
 20
82.7679014355
 10
193.4171505984
 20
82.7939623848
 10
193.4188643995
 20
82.8200787719
 10
193.4198937907
 20
82.8462323891
 10
193.4202379927
 20
82.8724053275
  0
LWPOLYLINE
  5
287
100
AcDbEntity
  8
RACCORDO
100
AcDbPolyline
 62
253
  6
CONTINUOUS
 90
58
 70
0
 10
192.4897408161
 20
82.0754140746
 10
192.5106461331
 20
82.0773154603
 10
192.531467753
 20
82.0797591735
 10
192.5522056759
 20
82.0827452141
 10
192.5728748941
 20
82.0862764836
 10
192.5934604158
 20
82.0903500805
 10
192.6139172652
 20
82.094957301
 10
192.6342443502
 20
82.1000991886
 10
192.6544427636
 20
82.1057746998
 10
192.6744708073
 20
82.1119719999
 10
192.6943280641
 20
82.1186921598
 10
192.714014952
 20
82.1259341086
 10
192.7334910265
 20
82.1336827988
 10
192.7527558209
 20
82.1419392547
 10
192.7718098029
 20
82.1507024522
 10
192.790613929
 20
82.1599542715
 10
192.8091677217
 20
82.1696957368
 10
192.8274716596
 20
82.1799258241
 10
192.8454881346
 20
82.1906233413
 10
192.8632165188
 20
82.2017892291
 10
192.8806574413
 20
82.2134225469
 10
192.8977751791
 20
82.2254992807
 10
192.9145690789
 20
82.2380203491
 10
192.9310397952
 20
82.2509848336
 10
192.9471535674
 20
82.2643659641
 10
192.9629096319
 20
82.2781645671
 10
192.9783087536
 20
82.2923798162
 10
192.9933194644
 20
82.3069824625
 10
193.0079409834
 20
82.3219733117
 10
193.0221740928
 20
82.3373515581
 10
193.0359896703
 20
82.3530855356
 10
193.0493868347
 20
82.3691759365
 10
193.0623664684
 20
82.3856220686
 10
193.0749020939
 20
82.4023901892
 10
193.0869928176
 20
82.4194809674
 10
193.0986395343
 20
82.4368937341
 10
193.1098184501
 20
82.4545927393
 10
193.1205286007
 20
82.4725785473
 10
193.1307709515
 20
82.4908505938
 10
193.1405246022
 20
82.5093714362
 10
193.1497885662
 20
82.5281415982
 10
193.1585638313
 20
82.547160556
 10
193.1668324586
 20
82.566389296
 10
193.1745934
 20
82.5858281986
 10
193.1818477045
 20
82.6054768833
 10
193.1885805794
 20
82.6252951953
 10
193.1947909809
 20
82.6452835049
 10
193.2004799536
 20
82.6654414417
 10
193.2056358366
 20
82.6857277399
 10
193.2102575429
 20
82.7061427235
 10
193.2143461602
 20
82.7266860686
 10
193.2178932905
 20
82.7473155367
 10
193.2208978277
 20
82.7680322756
 10
193.2233608783
 20
82.7888351376
 10
193.2252773625
 20
82.8096784418
 10
193.226645587
 20
82.8305469614
 10
193.2274672454
 20
82.8514559233
 10
193.2277423376
 20
82.8724053275
  0
LINE
  5
288
100
AcDbEntity
  8
RACCORDO
100
AcDbLine
 62
7
  6
CONTINUOUS
 10
192.5552001527
 20
81.8233318714
 11
192.5477326854
 21
81.8227456869
  0
LWPOLYLINE
  5
289
100
AcDbEntity
  8
RACCORDO
100
AcDbPolyline
 62
253
  6
CONTINUOUS
 90
55
 70
0
 10
191.5644756238
 20
83.309931988
 10
190.8427748158
 20
83.255079301
 10
190.0771035413
 20
83.1982000102
 10
189.2674566147
 20
83.139515228
 10
188.4130224439
 20
83.0791982926
 10
187.514602328
 20
83.0175622585
 10
186.5746108985
 20
82.9550464397
 10
185.5930489724
 20
82.8919194175
 10
184.5699073325
 20
82.8284512936
 10
183.5075865755
 20
82.7650747089
 10
182.406527512
 20
82.7021009093
 10
181.2662755474
 20
82.6397941242
 10
180.0878871476
 20
82.5785092469
 10
178.8753746089
 20
82.5187445265
 10
177.6247064642
 20
82.4606031092
 10
176.324870367
 20
82.4039438754
 10
174.9777908814
 20
82.3492688345
 10
173.5815139515
 20
82.2969432977
 10
172.119200927
 20
82.2468908204
 10
170.5805663755
 20
82.1994580166
 10
168.9758452435
 20
82.1556949292
 10
167.3189829378
 20
82.1166320482
 10
165.6018465581
 20
82.0827103291
 10
163.8325941574
 20
82.0547316017
 10
162.0496455918
 20
82.0336977128
 10
160.2587270897
 20
82.0198138706
 10
158.4541835144
 20
82.0131624016
 10
156.657374306
 20
82.0138555796
 10
154.8663104478
 20
82.0218167076
 10
153.0830551233
 20
82.0369518467
 10
151.3350411908
 20
82.0587660275
 10
149.6208483481
 20
82.0868778391
 10
147.9419478304
 20
82.1208587827
 10
146.3300898375
 20
82.1594781023
 10
144.7984262145
 20
82.2016299616
 10
143.33375257
 20
82.2469177805
 10
141.9282777171
 20
82.2949433001
 10
140.585367585
 20
82.3450121607
 10
139.3015998449
 20
82.3967063093
 10
138.059023201
 20
82.450305365
 10
136.8541062132
 20
82.5056250879
 10
135.6903781314
 20
82.5621863659
 10
134.5604835986
 20
82.6200513922
 10
133.4609951635
 20
82.6791467532
 10
132.3953366718
 20
82.739047165
 10
131.3664296054
 20
82.7993342129
 10
130.3741256084
 20
82.8597633618
 10
129.4185655721
 20
82.9200751473
 10
128.5031029379
 20
82.9798030825
 10
127.6277259538
 20
83.0387067364
 10
126.7924340032
 20
83.096545402
 10
126.0005953149
 20
83.1528338396
 10
125.2533283517
 20
83.207257429
 10
124.5495023794
 20
83.2596897396
 10
123.8891117486
 20
83.309931988
  0
LWPOLYLINE
  5
28A
100
AcDbEntity
  8
RACCORDO
100
AcDbPolyline
 62
253
  6
CONTINUOUS
 90
55
 70
0
 10
191.5771615725
 20
83.1689402535
 10
190.8550839833
 20
83.1147633693
 10
190.0890223649
 20
83.0590150883
 10
189.2789735483
 20
83.0016954107
 10
188.424128498
 20
82.9424931923
 10
187.5252898102
 20
82.8817195773
 10
186.5848719826
 20
82.8203079978
 10
185.6028785016
 20
82.7582431119
 10
184.5793001951
 20
82.6955402615
 10
183.5165331516
 20
82.633178904
 10
182.4150261278
 20
82.5711690281
 10
181.2743259483
 20
82.5095006452
 10
180.0954763832
 20
82.4491232461
 10
178.882503419
 20
82.3901488771
 10
177.6313783311
 20
82.3324654921
 10
176.33106236
 20
82.2766864434
 10
174.983501048
 20
82.2226734742
 10
173.5867460769
 20
82.1705648413
 10
172.1239162949
 20
82.1213886683
 10
170.5847375273
 20
82.0747322438
 10
168.9794815253
 20
82.0310082791
 10
167.3220867988
 20
81.9924830316
 10
165.6043809803
 20
81.9593312796
 10
163.8345412291
 20
81.9313782447
 10
162.0510341563
 20
81.9103658491
 10
160.2595481565
 20
81.8968131786
 10
158.45440689
 20
81.8902011474
 10
156.6570320765
 20
81.8907144199
 10
154.8654074296
 20
81.8987442215
 10
153.0815619519
 20
81.9138993269
 10
151.3329846499
 20
81.9351907243
 10
149.6182570048
 20
81.9630629819
 10
147.9388065001
 20
81.9970715316
 10
146.3263879506
 20
82.0348936574
 10
144.7942003959
 20
82.0763019634
 10
143.3290449712
 20
82.1215238455
 10
141.9230771802
 20
82.1689187746
 10
140.579676588
 20
82.2181440906
 10
139.2954607212
 20
82.2695424537
 10
138.0524430666
 20
82.322501315
 10
136.8470805575
 20
82.3769961813
 10
135.6829139387
 20
82.4330515458
 10
134.5525839409
 20
82.4901283396
 10
133.4526627533
 20
82.5483539287
 10
132.3865756563
 20
82.6076009471
 10
131.3572430839
 20
82.6669482275
 10
130.3645192601
 20
82.7264041628
 10
129.4085457587
 20
82.7859603601
 10
128.4926732869
 20
82.844670473
 10
127.6168939794
 20
82.902527587
 10
126.7812103249
 20
82.9595386166
 10
125.9889878925
 20
83.0147779584
 10
125.241346391
 20
83.067937078
 10
124.5371600111
 20
83.1193245097
 10
123.8764257998
 20
83.1689402535
  0
LWPOLYLINE
  5
28B
100
AcDbEntity
  8
RACCORDO
100
AcDbPolyline
 62
253
  6
CONTINUOUS
 90
13
 70
0
 10
192.5744019321
 20
81.524243741
 10
186.7735063897
 20
81.1069141359
 10
180.9695077463
 20
80.7654532431
 10
175.1626217853
 20
80.4998610628
 10
169.3523908304
 20
80.3101261758
 10
163.5397054953
 20
80.1962600012
 10
157.7268050545
 20
80.1582967958
 10
151.913911366
 20
80.1962592635
 10
146.1012378477
 20
80.3101247005
 10
140.2910111148
 20
80.4998592522
 10
134.4841175644
 20
80.7654516338
 10
128.6801037433
 20
81.10691313
 10
122.8791854403
 20
81.524243741
  0
LWPOLYLINE
  5
28C
100
AcDbEntity
  8
RACCORDO
100
AcDbPolyline
 62
253
  6
CONTINUOUS
 90
40
 70
0
 10
122.9555379181
 20
81.8760560835
 10
124.7364373811
 20
81.7411635572
 10
126.5176883194
 20
81.6133746449
 10
128.2992625907
 20
81.4926893089
 10
130.0811098886
 20
81.3791088031
 10
131.8632242505
 20
81.2726312887
 10
133.6456441117
 20
81.1732527242
 10
135.4283546054
 20
81.080972772
 10
137.2113144835
 20
80.9957924093
 10
138.99452268
 20
80.917710527
 10
140.7779625093
 20
80.8467270056
 10
142.5615945915
 20
80.7828425797
 10
144.345383837
 20
80.7260574977
 10
146.1292855065
 20
80.676372087
 10
147.9132882832
 20
80.633785582
 10
149.697407229
 20
80.5982968596
 10
151.4816181385
 20
80.5699059552
 10
153.2658892104
 20
80.5486129388
 10
155.0502241318
 20
80.5344174754
 10
156.8346013806
 20
80.5273196909
 10
158.618986486
 20
80.5273196919
 10
160.4033637176
 20
80.5344174782
 10
162.1876985912
 20
80.5486129431
 10
163.9719695979
 20
80.5699059602
 10
165.7561804655
 20
80.5982968654
 10
167.5402994265
 20
80.6337855894
 10
169.3243022415
 20
80.6763720967
 10
171.1082039112
 20
80.7260575089
 10
172.8919930694
 20
80.7828425895
 10
174.6756250261
 20
80.8467270117
 10
176.4590647791
 20
80.9177105306
 10
178.2422729851
 20
80.9957924137
 10
180.0252329218
 20
81.0809727797
 10
181.8079434999
 20
81.173252737
 10
183.5903635096
 20
81.2726313111
 10
185.3724780457
 20
81.3791088378
 10
187.1543254056
 20
81.4926893499
 10
188.9358995809
 20
81.6133746818
 10
190.7171503112
 20
81.7411635808
 10
192.4980494543
 20
81.8760560835
  0
LWPOLYLINE
  5
28D
100
AcDbEntity
  8
RACCORDO
100
AcDbPolyline
 62
253
  6
CONTINUOUS
 90
40
 70
0
 10
122.9638465563
 20
82.0754140746
 10
124.7443555684
 20
81.9405830131
 10
126.52517258
 20
81.812852058
 10
128.3062913628
 20
81.6922212094
 10
130.0877054947
 20
81.5786917822
 10
131.869408928
 20
81.4722624615
 10
133.6513959893
 20
81.3729293018
 10
135.4336734148
 20
81.2806911811
 10
137.2162219736
 20
81.1955492214
 10
138.9989970306
 20
81.1175028432
 10
140.7820036322
 20
81.0465517341
 10
142.5652242032
 20
80.9826962065
 10
144.3485801599
 20
80.9259366181
 10
146.1320484883
 20
80.8762735008
 10
147.915639642
 20
80.8337063227
 10
149.6993252278
 20
80.7982338469
 10
151.4831027356
 20
80.7698557303
 10
153.2669621036
 20
80.7485723161
 10
155.0508636066
 20
80.7343833968
 10
156.8348074212
 20
80.7272889036
 10
158.6187807907
 20
80.7272889053
 10
160.4027245879
 20
80.7343834017
 10
162.1866260426
 20
80.7485723234
 10
163.970485345
 20
80.7698557398
 10
165.7542628104
 20
80.7982338588
 10
167.5379484108
 20
80.8337063381
 10
169.3215396023
 20
80.8762735199
 10
171.1050079304
 20
80.9259366396
 10
172.8883637993
 20
80.982696227
 10
174.6715842444
 20
81.0465517523
 10
176.4545907692
 20
81.117502861
 10
178.2373658352
 20
81.1955492417
 10
180.0199144521
 20
81.2806912058
 10
181.8021919614
 20
81.3729293329
 10
183.5841791831
 20
81.4722625055
 10
185.3658828025
 20
81.578691841
 10
187.1472969711
 20
81.6922212725
 10
188.9284155827
 20
81.8128521107
 10
190.7092322739
 20
81.9405830447
 10
192.4897408161
 20
82.0754140746
  0
LINE
  5
28E
100
AcDbEntity
  8
RACCORDO
100
AcDbLine
 62
7
  6
CONTINUOUS
 10
122.9058546869
 20
81.8227456869
 11
122.8983872196
 21
81.8233318714
  0
LWPOLYLINE
  5
28F
100
AcDbEntity
  8
RACCORDO
100
AcDbPolyline
 62
253
  6
CONTINUOUS
 90
49
 70
0
 10
123.8764257998
 20
83.1689402535
 10
123.8679232357
 20
83.1696834324
 10
123.85928224
 20
83.1707350884
 10
123.8505028129
 20
83.1720952215
 10
123.841576358
 20
83.1737496195
 10
123.8325114719
 20
83.1757124945
 10
123.8233339442
 20
83.1780264835
 10
123.8140495776
 20
83.180688894
 10
123.8046525697
 20
83.1837024185
 10
123.7951513026
 20
83.1871177716
 10
123.7855392529
 20
83.1909355833
 10
123.7758229443
 20
83.1951552236
 10
123.7660303301
 20
83.1998255176
 10
123.7561574082
 20
83.2049481028
 10
123.7462081808
 20
83.2105213417
 10
123.7362226081
 20
83.2165891469
 10
123.7262009269
 20
83.223150934
 10
123.7161429004
 20
83.2302072874
 10
123.7060877782
 20
83.237803873
 10
123.6960309226
 20
83.2459439516
 10
123.6859769713
 20
83.2546242625
 10
123.6759790867
 20
83.2638806889
 10
123.6660343988
 20
83.2737168717
 10
123.6561457776
 20
83.2841291701
 10
123.6463749957
 20
83.295142545
 10
123.6367214169
 20
83.3067586679
 10
123.6271856773
 20
83.3189758672
 10
123.6178314575
 20
83.3318140889
 10
123.6086553686
 20
83.3452796166
 10
123.5996607991
 20
83.3593661667
 10
123.5909215968
 20
83.374074834
 10
123.582434286
 20
83.3894171894
 10
123.5742023419
 20
83.4053816621
 10
123.5663100376
 20
83.4219346352
 10
123.5587581466
 20
83.4390854203
 10
123.551545895
 20
83.4568247057
 10
123.5447552345
 20
83.4750909394
 10
123.538389634
 20
83.4938886445
 10
123.532445624
 20
83.5132132979
 10
123.5269947484
 20
83.5329897783
 10
123.522040318
 20
83.5532220382
 10
123.5175790215
 20
83.5739061251
 10
123.5136724702
 20
83.5949550611
 10
123.5103237818
 20
83.6163723686
 10
123.5075298381
 20
83.6381545251
 10
123.505342897
 20
83.6602039849
 10
123.5037803778
 20
83.6824882329
 10
123.5028248608
 20
83.7050397841
 10
123.5024763462
 20
83.7278586387
  0
LWPOLYLINE
  5
290
100
AcDbEntity
  8
RACCORDO
100
AcDbPolyline
 62
7
  6
CONTINUOUS
 90
58
 70
0
 10
122.8983872197
 20
81.8233318714
 10
122.8723590638
 20
81.8257154743
 10
122.8464112982
 20
81.8287796288
 10
122.8205439231
 20
81.8325243349
 10
122.794728821
 20
81.836954278
 10
122.7689941094
 20
81.8420647728
 10
122.74342414
 20
81.8478417632
 10
122.7180237332
 20
81.8542883094
 10
122.6927880685
 20
81.8614013513
 10
122.6677870371
 20
81.8691576525
 10
122.6430399619
 20
81.8775512706
 10
122.6185275199
 20
81.886588148
 10
122.594261633
 20
81.8962628753
 10
122.5702300743
 20
81.9065796139
 10
122.5464450708
 20
81.9175342024
 10
122.5229552256
 20
81.9291087473
 10
122.4997526183
 20
81.9413104082
 10
122.4768451694
 20
81.9541320254
 10
122.4543052433
 20
81.9675342269
 10
122.4321380592
 20
81.9815182798
 10
122.4103383979
 20
81.9960829171
 10
122.3889629671
 20
82.0111849654
 10
122.3680299964
 20
82.0268107604
 10
122.3475212561
 20
82.0429739664
 10
122.3274387651
 20
82.0596724038
 10
122.3077667348
 20
82.0769185559
 10
122.2885209537
 20
82.0946999394
 10
122.2697508064
 20
82.112976925
 10
122.2514542454
 20
82.1317563074
 10
122.2336333183
 20
82.1510312918
 10
122.2163435524
 20
82.1707418647
 10
122.1995914735
 20
82.1908855953
 10
122.1833705558
 20
82.2114649144
 10
122.1677167489
 20
82.2324271004
 10
122.1526413577
 20
82.2537553608
 10
122.1381330773
 20
82.2754664881
 10
122.1241939425
 20
82.2975581388
 10
122.1108118886
 20
82.3200492807
 10
122.0979989802
 20
82.3429209461
 10
122.0857934463
 20
82.3661138875
 10
122.0741967961
 20
82.389633452
 10
122.0632075202
 20
82.4134742927
 10
122.0528593199
 20
82.4375611213
 10
122.0431586849
 20
82.461885643
 10
122.0340991255
 20
82.4864561527
 10
122.0256948741
 20
82.5112222466
 10
122.0179491957
 20
82.5361713323
 10
122.0108588253
 20
82.5613160023
 10
122.0044281998
 20
82.5866436308
 10
121.9986529706
 20
82.6121735527
 10
121.9935374863
 20
82.6378864331
 10
121.9890992291
 20
82.663711642
 10
121.9853415348
 20
82.6896540803
 10
121.9822610676
 20
82.715708847
 10
121.9798653017
 20
82.7417906095
 10
121.9781567286
 20
82.7678709236
 10
121.9771328567
 20
82.7939782335
 10
121.9767936862
 20
82.8201125392
  0
LWPOLYLINE
  5
291
100
AcDbEntity
  8
RACCORDO
100
AcDbPolyline
 62
253
  6
CONTINUOUS
 90
49
 70
0
 10
123.8891117486
 20
83.309931988
 10
123.8848739885
 20
83.3104602142
 10
123.880565904
 20
83.3112119651
 10
123.8761898623
 20
83.3121909036
 10
123.8717471088
 20
83.3133936344
 10
123.8672418763
 20
83.314830969
 10
123.8626813661
 20
83.3165277592
 10
123.8580726809
 20
83.3184856514
 10
123.8534156698
 20
83.3207099742
 10
123.8487071537
 20
83.3232313692
 10
123.843949311
 20
83.3260544863
 10
123.8391490008
 20
83.3291825775
 10
123.8343107183
 20
83.3326446655
 10
123.8294389704
 20
83.3364456843
 10
123.8245404385
 20
83.3405884493
 10
123.8196234326
 20
83.3450987395
 10
123.8146957275
 20
83.3499793966
 10
123.8097628557
 20
83.3552345722
 10
123.8048304138
 20
83.3608919501
 10
123.7999051657
 20
83.3669569309
 10
123.7949963034
 20
83.3734306981
 10
123.7901137688
 20
83.3803345037
 10
123.7852662789
 20
83.3876730906
 10
123.780463464
 20
83.3954470404
 10
123.775717132
 20
83.4036709074
 10
123.7710381918
 20
83.4123469736
 10
123.7664362196
 20
83.4214765095
 10
123.761921591
 20
83.4310721002
 10
123.7575050454
 20
83.4411384633
 10
123.7531988268
 20
83.4516727066
 10
123.7490160747
 20
83.4626754546
 10
123.7449677573
 20
83.474153715
 10
123.7410677378
 20
83.4860998467
 10
123.7373330848
 20
83.4984914011
 10
123.7337758911
 20
83.5113316509
 10
123.7304087604
 20
83.5246132114
 10
123.7272480129
 20
83.5382961523
 10
123.7243058346
 20
83.5523784233
 10
123.7215931335
 20
83.5668543342
 10
123.7191225185
 20
83.5816771462
 10
123.7169050885
 20
83.5968430853
 10
123.7149509494
 20
83.6123450183
 10
123.7132696811
 20
83.6281301394
 10
123.7118712484
 20
83.644192285
 10
123.7107646301
 20
83.6605238889
 10
123.709956778
 20
83.6770692631
 10
123.7094555236
 20
83.6938044218
 10
123.7092697798
 20
83.7107371168
 10
123.7094073726
 20
83.7278586387
  0
LINE
  5
292
100
AcDbEntity
  8
RACCORDO
100
AcDbLine
 62
253
  6
CONTINUOUS
 10
122.8791854403
 20
81.524243741
 11
122.7813724877
 21
81.5374093404
  0
LWPOLYLINE
  5
293
100
AcDbEntity
  8
RACCORDO
100
AcDbPolyline
 62
253
  6
CONTINUOUS
 90
3
 70
0
 10
122.7813724877
 20
81.5374093404
 10
122.6888732484
 20
81.5558224335
 10
122.6016876659
 20
81.5794830203
  0
LWPOLYLINE
  5
294
100
AcDbEntity
  8
RACCORDO
100
AcDbPolyline
 62
253
  6
CONTINUOUS
 90
37
 70
0
 10
191.4746643556
 20
84.9384297065
 10
191.4831574457
 20
84.9387992064
 10
191.491634006
 20
84.939422644
 10
191.5000787206
 20
84.9402988926
 10
191.508476331
 20
84.9414263692
 10
191.5168116639
 20
84.9428030364
 10
191.5250696585
 20
84.9444264069
 10
191.5332353938
 20
84.9462935474
 10
191.5412941154
 20
84.9484010842
 10
191.5492312624
 20
84.9507452094
 10
191.5570324934
 20
84.9533216874
 10
191.5646837126
 20
84.9561258629
 10
191.5721710955
 20
84.9591526692
 10
191.5794811132
 20
84.9623966371
 10
191.5866005577
 20
84.9658519054
 10
191.5935165651
 20
84.9695122308
 10
191.6002166391
 20
84.9733709997
 10
191.6066886737
 20
84.9774212397
 10
191.6129209747
 20
84.9816556326
 10
191.6189022813
 20
84.9860665276
 10
191.624621786
 20
84.9906459546
 10
191.6300691545
 20
84.9953856394
 10
191.6352345443
 20
85.000277018
 10
191.640108622
 20
85.0053112523
 10
191.6446825811
 20
85.0104792462
 10
191.6489481568
 20
85.0157716618
 10
191.652897642
 20
85.0211789364
 10
191.6565239005
 20
85.0266913
 10
191.6598203801
 20
85.0322987923
 10
191.6627811246
 20
85.0379912815
 10
191.6654007842
 20
85.0437584819
 10
191.6676746257
 20
85.0495899732
 10
191.6695985405
 20
85.0554752185
 10
191.6711690524
 20
85.0614035841
 10
191.6723833236
 20
85.0673643582
 10
191.6732391602
 20
85.0733467705
 10
191.6737350158
 20
85.0793400117
  0
LWPOLYLINE
  5
295
100
AcDbEntity
  8
RACCORDO
100
AcDbPolyline
 62
253
  6
CONTINUOUS
 90
40
 70
0
 10
191.4498886492
 20
85.0854758855
 10
191.457916793
 20
85.0856592863
 10
191.4659319651
 20
85.0861652168
 10
191.4739212101
 20
85.0869928597
 10
191.4818716161
 20
85.0881408781
 10
191.4897703308
 20
85.0896074167
 10
191.4976045828
 20
85.0913901046
 10
191.5053617078
 20
85.09348606
 10
191.5130291691
 20
85.0958918953
 10
191.5205945733
 20
85.0986037219
 10
191.5280456921
 20
85.1016171566
 10
191.5353704818
 20
85.1049273286
 10
191.5425571031
 20
85.1085288875
 10
191.5495939398
 20
85.112416012
 10
191.556469618
 20
85.1165824192
 10
191.5631730241
 20
85.1210213746
 10
191.569693323
 20
85.1257257034
 10
191.5760199757
 20
85.1306878018
 10
191.5821427561
 20
85.1358996493
 10
191.5880517675
 20
85.1413528218
 10
191.5937374589
 20
85.147038505
 10
191.5991906403
 20
85.152947509
 10
191.6044024973
 20
85.1590702826
 10
191.6093646058
 20
85.1653969294
 10
191.6140689452
 20
85.1719172234
 10
191.6185079115
 20
85.1786206253
 10
191.6226743299
 20
85.1854963003
 10
191.6265614659
 20
85.1925331349
 10
191.6301630365
 20
85.199719755
 10
191.6334732203
 20
85.2070445445
 10
191.6364866667
 20
85.2144956641
 10
191.639198505
 20
85.2220610701
 10
191.6416043518
 20
85.2297285341
 10
191.6437003185
 20
85.2374856629
 10
191.645483017
 20
85.2453199182
 10
191.646949566
 20
85.253218637
 10
191.6480975949
 20
85.2611690523
 10
191.648925248
 20
85.2691583134
 10
191.6494311876
 20
85.2771735069
 10
191.6496145957
 20
85.2852016772
  0
LWPOLYLINE
  5
296
100
AcDbEntity
  8
0
100
AcDbPolyline
 62
7
  6
CONTINUOUS
 90
85
 70
0
 10
161.34557948
 20
83.5151969041
 10
161.3536733248
 20
83.5153154981
 10
161.3618587708
 20
83.5157064964
 10
161.3701358164
 20
83.5163698841
 10
161.3785228448
 20
83.5173018014
 10
161.3870014696
 20
83.5185060775
 10
161.3955165347
 20
83.5199942289
 10
161.4040723414
 20
83.5217701051
 10
161.4126645849
 20
83.5238298195
 10
161.4212251998
 20
83.5261732815
 10
161.4297507718
 20
83.5288024514
 10
161.438244712
 20
83.5317153292
 10
161.4466491929
 20
83.5349058826
 10
161.4549647458
 20
83.5383768962
 10
161.4631908367
 20
83.542125547
 10
161.4712680399
 20
83.5461373929
 10
161.4791913207
 20
83.5504118534
 10
161.486965712
 20
83.554949476
 10
161.4945468899
 20
83.5597375138
 10
161.5019285537
 20
83.5647713268
 10
161.5091170031
 20
83.5700555292
 10
161.5160868151
 20
83.5755912592
 10
161.5228354449
 20
83.5813778472
 10
161.529365437
 20
83.5874159434
 10
161.535659002
 20
83.5937086679
 10
161.5417192269
 20
83.6002590576
 10
161.5475430248
 20
83.6070640634
 10
161.5531033469
 20
83.6141176796
 10
161.5584071339
 20
83.621429217
 10
161.5634474458
 20
83.6289893627
 10
161.568176414
 20
83.636764182
 10
161.5725918826
 20
83.6447578003
 10
161.5766960095
 20
83.6529661061
 10
161.5804473965
 20
83.661342818
 10
161.5838404845
 20
83.6698839187
 10
161.5868808358
 20
83.6785934562
 10
161.5895437352
 20
83.6874372557
 10
161.5918316247
 20
83.6964158122
 10
161.5937420663
 20
83.7055286742
 10
161.5952430246
 20
83.714740254
 10
161.5963330542
 20
83.7240696848
 10
161.5970136054
 20
83.7334978903
 10
161.5972569871
 20
83.7429319755
 10
161.5970461431
 20
83.7523729684
 10
161.5963981352
 20
83.7618199098
 10
161.5953364488
 20
83.7711769255
 10
161.5938561767
 20
83.7804314712
 10
161.591962231
 20
83.7895961559
 10
161.5896928259
 20
83.7986128288
 10
161.5870535258
 20
83.807467986
 10
161.5840387702
 20
83.8161751853
 10
161.5806700853
 20
83.8247168616
 10
161.5769416603
 20
83.8331021333
 10
161.5728593094
 20
83.8413219288
 10
161.5684619955
 20
83.8493313905
 10
161.5637473529
 20
83.8571271142
 10
161.5587177495
 20
83.8647125368
 10
161.5534192474
 20
83.8720530512
 10
161.5478554136
 20
83.8791422494
 10
161.542022682
 20
83.8859865564
 10
161.535956415
 20
83.8925706053
 10
161.5296641627
 20
83.8988863034
 10
161.5231383747
 20
83.9049417481
 10
161.5163917624
 20
83.9107458531
 10
161.5094193346
 20
83.9163017506
 10
161.5022260818
 20
83.9216063082
 10
161.4948396873
 20
83.9266590397
 10
161.4872579818
 20
83.9314625247
 10
161.4794831333
 20
83.9360141754
 10
161.4715493309
 20
83.9403057489
 10
161.4634428994
 20
83.9443418322
 10
161.4551775122
 20
83.9481178219
 10
161.4468283811
 20
83.9516116807
 10
161.4384025869
 20
83.9548171024
 10
161.429893046
 20
83.9577403624
 10
161.4213537233
 20
83.9603782867
 10
161.412780149
 20
83.9627295828
 10
161.4041767897
 20
83.9647955067
 10
161.3956110148
 20
83.9665767023
 10
161.3870890133
 20
83.9680693946
 10
161.3786045929
 20
83.9692773171
 10
161.370206551
 20
83.9702123739
 10
161.3619111524
 20
83.9708785191
 10
161.3537021293
 20
83.9712717581
 10
161.34557948
 20
83.9713920714
  0
LINE
  5
297
100
AcDbEntity
  8
0
100
AcDbLine
 62
7
  6
CONTINUOUS
 10
162.0670559452
 20
82.4963610293
 11
161.6140358382
 21
82.4963610293
  0
LINE
  5
298
100
AcDbEntity
  8
0
100
AcDbLine
 62
7
  6
CONTINUOUS
 10
160.8590023252
 20
82.4963610293
 11
160.4563177852
 21
82.4963610293
  0
LINE
  5
299
100
AcDbEntity
  8
0
100
AcDbLine
 62
7
  6
CONTINUOUS
 10
160.1375258582
 20
82.4963610293
 11
159.7348413182
 21
82.4963610293
  0
LINE
  5
29A
100
AcDbEntity
  8
0
100
AcDbLine
 62
7
  6
CONTINUOUS
 10
158.8455796252
 20
82.4963610293
 11
158.4428950852
 21
82.4963610293
  0
LINE
  5
29B
100
AcDbEntity
  8
0
100
AcDbLine
 62
7
  6
CONTINUOUS
 10
158.1241031582
 20
82.4963610293
 11
157.7214186182
 21
82.4963610293
  0
LINE
  5
29C
100
AcDbEntity
  8
0
100
AcDbLine
 62
7
  6
CONTINUOUS
 10
157.3355126002
 20
82.4963610293
 11
156.9328280602
 21
82.4963610293
  0
LINE
  5
29D
100
AcDbEntity
  8
0
100
AcDbLine
 62
7
  6
CONTINUOUS
 10
156.5469220432
 20
82.4963610293
 11
156.1442375032
 21
82.4963610293
  0
LINE
  5
29E
100
AcDbEntity
  8
0
100
AcDbLine
 62
7
  6
CONTINUOUS
 10
155.7918885302
 20
82.4963610293
 11
155.3892039902
 21
82.4963610293
  0
LINE
  5
29F
100
AcDbEntity
  8
0
100
AcDbLine
 62
7
  6
CONTINUOUS
 10
154.4328282082
 20
82.4963610293
 11
154.0469221902
 21
82.4963610293
  0
LINE
  5
2A0
100
AcDbEntity
  8
RACCORDO
100
AcDbLine
 62
253
  6
CONTINUOUS
 10
193.6805782951
 20
82.7205611162
 11
193.5767936862
 21
82.7205611159
  0
LINE
  5
2A1
100
AcDbEntity
  8
RACCORDO
100
AcDbLine
 62
253
  6
CONTINUOUS
 10
121.7730090773
 20
82.7205611162
 11
121.8767936862
 21
82.7205611162
  0
LINE
  5
2A2
100
AcDbEntity
  8
0
100
AcDbLine
 62
7
  6
CONTINUOUS
 10
159.6006131382
 20
82.8461106573
 11
158.9630292832
 21
82.8461106573
  0
LINE
  5
2A3
100
AcDbEntity
  8
RACCORDO
100
AcDbLine
 62
253
  6
CONTINUOUS
 10
122.2258450349
 20
82.8724053275
 11
122.0333493798
 21
82.8724053275
  0
LINE
  5
2A4
100
AcDbEntity
  8
RACCORDO
100
AcDbLine
 62
253
  6
CONTINUOUS
 10
193.2277423376
 20
82.8724053275
 11
193.4202379927
 21
82.8724053275
  0
LINE
  5
2A5
100
AcDbEntity
  8
0
100
AcDbLine
 62
7
  6
CONTINUOUS
 10
161.2113512982
 20
83.1806537803
 11
160.8590023252
 21
83.1806537803
  0
LINE
  5
2A6
100
AcDbEntity
  8
0
100
AcDbLine
 62
7
  6
CONTINUOUS
 10
159.0972574632
 20
83.1806537803
 11
159.4831634802
 21
83.1806537803
  0
LINE
  5
2A7
100
AcDbEntity
  8
0
100
AcDbLine
 62
7
  6
CONTINUOUS
 10
160.8422238032
 20
83.5151969043
 11
161.3455794778
 21
83.5151969043
  0
LINE
  5
2A8
100
AcDbEntity
  8
RACCORDO
100
AcDbLine
 62
253
  6
CONTINUOUS
 10
191.9511110262
 20
83.7278586387
 11
191.7441799999
 21
83.7278586387
  0
LINE
  5
2A9
100
AcDbEntity
  8
RACCORDO
100
AcDbLine
 62
253
  6
CONTINUOUS
 10
123.5024763462
 20
83.7278586387
 11
123.7094073726
 21
83.7278586387
  0
LINE
  5
2AA
100
AcDbEntity
  8
0
100
AcDbLine
 62
7
  6
CONTINUOUS
 10
161.3455794778
 20
83.9713920713
 11
160.8422238032
 21
83.9713920713
  0
LINE
  5
2AB
100
AcDbEntity
  8
0
100
AcDbLine
 62
7
  6
CONTINUOUS
 10
153.3925598132
 20
84.3059351953
 11
153.7952443532
 21
84.3059351953
  0
LINE
  5
2AC
100
AcDbEntity
  8
0
100
AcDbLine
 62
7
  6
CONTINUOUS
 10
154.6845060452
 20
84.3059351953
 11
155.0871905852
 21
84.3059351953
  0
LINE
  5
2AD
100
AcDbEntity
  8
0
100
AcDbLine
 62
7
  6
CONTINUOUS
 10
155.3892039902
 20
84.3059351953
 11
155.7918885302
 21
84.3059351953
  0
LINE
  5
2AE
100
AcDbEntity
  8
0
100
AcDbLine
 62
7
  6
CONTINUOUS
 10
156.1442375032
 20
84.3059351953
 11
156.7650428352
 21
84.3059351953
  0
LINE
  5
2AF
100
AcDbEntity
  8
0
100
AcDbLine
 62
7
  6
CONTINUOUS
 10
157.5200763482
 20
84.3059351953
 11
158.1241031582
 21
84.3059351953
  0
LINE
  5
2B0
100
AcDbEntity
  8
0
100
AcDbLine
 62
7
  6
CONTINUOUS
 10
159.0804789402
 20
84.3059351953
 11
159.4831634802
 21
84.3059351953
  0
LINE
  5
2B1
100
AcDbEntity
  8
0
100
AcDbLine
 62
7
  6
CONTINUOUS
 10
160.4563177852
 20
84.3059351953
 11
161.3959150453
 21
84.3059351953
  0
LWPOLYLINE
  5
2B2
100
AcDbEntity
  8
RACCORDO
100
AcDbPolyline
 62
253
  6
CONTINUOUS
 90
3
 70
0
 10
124.0036987497
 20
85.0854758952
 10
137.5632330144
 20
85.0875312153
 10
170.1953031553
 20
85.0879960495
  0
LINE
  5
2B3
100
AcDbEntity
  8
RACCORDO
100
AcDbLine
 62
7
  6
CONTINUOUS
 10
191.3770677788
 20
85.1582967953
 11
124.0765195938
 21
85.1582967953
  0
LINE
  5
2B4
100
AcDbEntity
  8
RACCORDO
100
AcDbLine
 62
253
  6
CONTINUOUS
 10
170.1953031553
 20
85.0879960495
 11
181.4436465135
 21
85.0871760441
  0
LWPOLYLINE
  5
2B5
100
AcDbEntity
  8
RACCORDO
100
AcDbPolyline
 62
253
  6
CONTINUOUS
 90
3
 70
0
 10
181.4436465135
 20
85.0871760441
 10
188.2524858509
 20
85.0861403998
 10
191.4498886492
 20
85.0854758855
  0
LWPOLYLINE
  5
2B6
100
AcDbEntity
  8
RACCORDO
100
AcDbPolyline
 62
253
  6
CONTINUOUS
 90
19
 70
0
 10
123.978923006
 20
84.9384297939
 10
127.1777256684
 20
84.9278514806
 10
130.5063025211
 20
84.9198578652
 10
133.9646385489
 20
84.9137654442
 10
137.5467086585
 20
84.908722631
 10
141.2585049203
 20
84.9043591128
 10
145.1180499569
 20
84.9010064187
 10
149.1761229915
 20
84.8986925438
 10
153.3819791056
 20
84.897254088
 10
157.6013707038
 20
84.8967625166
 10
161.8439352492
 20
84.8971665942
 10
166.0999662979
 20
84.8985887135
 10
170.206199353
 20
84.9009159438
 10
174.10438228
 20
84.9042623446
 10
177.8527627352
 20
84.9086394837
 10
181.4628347028
 20
84.9137214024
 10
184.9384292478
 20
84.9198573331
 10
188.2757116082
 20
84.9278746542
 10
191.4746643556
 20
84.9384297068
  0
LWPOLYLINE
  5
2B7
100
AcDbEntity
  8
0
100
AcDbPolyline
 62
7
  6
CONTINUOUS
 90
94
 70
0
 10
161.3959150424
 20
84.3059351951
 10
161.412154602
 20
84.3057390242
 10
161.4284656501
 20
84.3051307118
 10
161.4448481911
 20
84.3041103137
 10
161.4613265082
 20
84.3026787267
 10
161.4778763275
 20
84.3008351688
 10
161.4944248176
 20
84.2985771752
 10
161.5109663908
 20
84.2959033207
 10
161.5275066439
 20
84.2928151432
 10
161.5439895219
 20
84.2893146173
 10
161.5604027716
 20
84.285405142
 10
161.576758655
 20
84.281083425
 10
161.5930378892
 20
84.2763414004
 10
161.6092448915
 20
84.2711800087
 10
161.6253752532
 20
84.2655984164
 10
161.6413964531
 20
84.2595858955
 10
161.6573235693
 20
84.253135878
 10
161.6731415321
 20
84.2462550366
 10
161.6887725975
 20
84.238952494
 10
161.7042119551
 20
84.2312272721
 10
161.7194644223
 20
84.2230804316
 10
161.7344666958
 20
84.2145241358
 10
161.7492051385
 20
84.2055629938
 10
161.7636933927
 20
84.1961924547
 10
161.7779090731
 20
84.1864109286
 10
161.7918551588
 20
84.1762169103
 10
161.805528675
 20
84.1656119505
 10
161.8188983046
 20
84.1545990344
 10
161.8319737367
 20
84.1431688181
 10
161.8447452851
 20
84.1313306724
 10
161.857152569
 20
84.1191156363
 10
161.8691920303
 20
84.1065230685
 10
161.8808672274
 20
84.0935535994
 10
161.8921284524
 20
84.080240149
 10
161.9029657702
 20
84.0665921741
 10
161.9133891136
 20
84.0526001705
 10
161.9233785756
 20
84.0382685997
 10
161.9329423892
 20
84.0235863842
 10
161.9420723176
 20
84.008564535
 10
161.9507237485
 20
83.9932406299
 10
161.958900561
 20
83.977605343
 10
161.9665988696
 20
83.9616678977
 10
161.9737624136
 20
83.9454936672
 10
161.9803881932
 20
83.9290833522
 10
161.9864791989
 20
83.9124361075
 10
161.991988153
 20
83.8956149585
 10
161.9969075467
 20
83.8786324736
 10
162.0012448769
 20
83.8614759062
 10
162.004975373
 20
83.8441702913
 10
162.0080932941
 20
83.8266979148
 10
162.0106043677
 20
83.8090762964
 10
162.0125010256
 20
83.7913833129
 10
162.0137797306
 20
83.7736138577
 10
162.0144440055
 20
83.7557728346
 10
162.0144968719
 20
83.7379531327
 10
162.013936174
 20
83.7201600398
 10
162.0127640531
 20
83.7023880702
 10
162.0109899765
 20
83.6847139567
 10
162.0086171164
 20
83.6671550721
 10
162.0056422869
 20
83.6496938629
 10
162.0020654184
 20
83.63235468
 10
161.9978779659
 20
83.6151224069
 10
161.9930884611
 20
83.598011995
 10
161.9877224504
 20
83.5810929083
 10
161.9817741047
 20
83.5643650556
 10
161.9752492414
 20
83.5478283964
 10
161.9681908773
 20
83.5315524919
 10
161.9606015128
 20
83.5155471608
 10
161.9524786384
 20
83.4998024957
 10
161.9438577582
 20
83.484358492
 10
161.9347427613
 20
83.4692213364
 10
161.9251297517
 20
83.4543847914
 10
161.9150425577
 20
83.4398702334
 10
161.9044650486
 20
83.4256679758
 10
161.89341335
 20
83.411787685
 10
161.8819596751
 20
83.398279787
 10
161.8700978496
 20
83.3851470289
 10
161.8578340463
 20
83.3723866896
 10
161.8452590017
 20
83.3600410194
 10
161.832384115
 20
83.348122825
 10
161.8191979888
 20
83.3366193672
 10
161.8057571677
 20
83.325534595
 10
161.7920631686
 20
83.3148681188
 10
161.7781144781
 20
83.3046204152
 10
161.7639630964
 20
83.294796741
 10
161.7495977653
 20
83.2853909658
 10
161.7350297481
 20
83.2764093216
 10
161.720344828
 20
83.267875618
 10
161.7055396677
 20
83.2597925627
 10
161.690617612
 20
83.2521575657
 10
161.6756744684
 20
83.2449864979
 10
161.6607421761
 20
83.2382846914
 10
161.6457888052
 20
83.2320469376
 10
161.6308143601
 20
83.2262732975
  0
LWPOLYLINE
  5
2B8
100
AcDbEntity
  8
RACCORDO
100
AcDbPolyline
 62
253
  6
CONTINUOUS
 90
23
 70
0
 10
123.8039727864
 20
85.2852017184
 10
123.8029719919
 20
85.2839394091
 10
123.8019743472
 20
85.2821577281
 10
123.8009798521
 20
85.2798566753
 10
123.7999874383
 20
85.2770326817
 10
123.7989981743
 20
85.2736893163
 10
123.7980152651
 20
85.2698372865
 10
123.7970390113
 20
85.2654753826
 10
123.7960691124
 20
85.2606048144
 10
123.7951078711
 20
85.255239918
 10
123.7941556087
 20
85.249382031
 10
123.7932120038
 20
85.2430298158
 10
123.7922783958
 20
85.2361935961
 10
123.791354696
 20
85.2288729094
 10
123.790440993
 20
85.2210682181
 10
123.7895388915
 20
85.2127912335
 10
123.7886481003
 20
85.2040378747
 10
123.7877689107
 20
85.1948122225
 10
123.786903801
 20
85.1851382303
 10
123.7860527136
 20
85.1750119851
 10
123.7852157062
 20
85.1644373998
 10
123.7843954298
 20
85.1534501672
 10
123.782805213
 20
85.130231369
  0
LINE
  5
2B9
100
AcDbEntity
  8
RACCORDO
100
AcDbLine
 62
253
  6
CONTINUOUS
 10
123.8767936862
 20
85.3580227013
 11
123.8039727864
 21
85.2852017184
  0
LINE
  5
2BA
100
AcDbEntity
  8
RACCORDO
100
AcDbLine
 62
253
  6
CONTINUOUS
 10
124.0765195938
 20
85.1582967953
 11
124.0036987497
 21
85.0854758952
  0
LINE
  5
2BB
100
AcDbEntity
  8
RACCORDO
100
AcDbLine
 62
253
  6
CONTINUOUS
 10
123.8767936862
 20
129.9585708896
 11
123.8039727774
 21
130.0313919111
  0
LINE
  5
2BC
100
AcDbEntity
  8
RACCORDO
100
AcDbLine
 62
253
  6
CONTINUOUS
 10
124.0765195936
 20
130.1582967953
 11
124.0036987244
 21
130.2311177044
  0
LWPOLYLINE
  5
2BD
100
AcDbEntity
  8
RACCORDO
100
AcDbPolyline
 62
253
  6
CONTINUOUS
 90
21
 70
0
 10
123.8039727774
 20
130.0313919111
 10
123.8029716129
 20
130.0326549443
 10
123.8019736597
 20
130.0344374227
 10
123.8009789178
 20
130.0367393463
 10
123.7999863232
 20
130.0395643563
 10
123.79899694
 20
130.0429088114
 10
123.7980139601
 20
130.0467617886
 10
123.7970377079
 20
130.0511242935
 10
123.796067859
 20
130.0559953204
 10
123.7951066328
 20
130.061360929
 10
123.7941543394
 20
130.0672196868
 10
123.7932106687
 20
130.0735730263
 10
123.792276909
 20
130.0804113044
 10
123.7913529214
 20
130.0877354163
 10
123.7904388448
 20
130.0955444668
 10
123.7895363848
 20
130.1038261268
 10
123.7886452473
 20
130.1125847814
 10
123.7877657264
 20
130.1218160454
 10
123.7869004099
 20
130.1314944346
 10
123.7860492851
 20
130.1416234936
 10
123.7852123648
 20
130.1521996778
  0
LINE
  5
2BE
100
AcDbEntity
  8
0
100
AcDbLine
 62
7
  6
CONTINUOUS
 10
161.6308143601
 20
83.2262732975
 11
162.0670559452
 21
82.4963610293
  0
LINE
  5
2BF
100
AcDbEntity
  8
0
100
AcDbLine
 62
7
  6
CONTINUOUS
 10
161.6140358382
 20
82.4963610293
 11
161.2113512982
 21
83.1806537803
  0
LINE
  5
2C0
100
AcDbEntity
  8
0
100
AcDbLine
 62
7
  6
CONTINUOUS
 10
154.0469221902
 20
82.4963610293
 11
153.3925598132
 21
84.3059351953
  0
LINE
  5
2C1
100
AcDbEntity
  8
0
100
AcDbLine
 62
7
  6
CONTINUOUS
 10
153.7952443532
 20
84.3059351953
 11
154.2314859382
 21
83.0437952303
  0
LINE
  5
2C2
100
AcDbEntity
  8
0
100
AcDbLine
 62
7
  6
CONTINUOUS
 10
156.9328280602
 20
82.4963610293
 11
156.5469220432
 21
83.6824684653
  0
LINE
  5
2C3
100
AcDbEntity
  8
0
100
AcDbLine
 62
7
  6
CONTINUOUS
 10
156.7650428352
 20
84.3059351953
 11
157.1341703302
 21
83.1198277583
  0
LINE
  5
2C4
100
AcDbEntity
  8
0
100
AcDbLine
 62
7
  6
CONTINUOUS
 10
155.3892039902
 20
82.4963610293
 11
155.3892039902
 21
84.3059351953
  0
LINE
  5
2C5
100
AcDbEntity
  8
0
100
AcDbLine
 62
7
  6
CONTINUOUS
 10
155.7918885302
 20
84.3059351953
 11
155.7918885302
 21
82.4963610293
  0
LINE
  5
2C6
100
AcDbEntity
  8
0
100
AcDbLine
 62
7
  6
CONTINUOUS
 10
156.1442375032
 20
82.4963610293
 11
156.1442375032
 21
84.3059351953
  0
LINE
  5
2C7
100
AcDbEntity
  8
0
100
AcDbLine
 62
7
  6
CONTINUOUS
 10
156.5469220432
 20
83.6824684653
 11
156.5469220432
 21
82.4963610293
  0
LINE
  5
2C8
100
AcDbEntity
  8
0
100
AcDbLine
 62
7
  6
CONTINUOUS
 10
157.7214186182
 20
82.4963610293
 11
157.7214186182
 21
83.6824684653
  0
LINE
  5
2C9
100
AcDbEntity
  8
0
100
AcDbLine
 62
7
  6
CONTINUOUS
 10
158.1241031582
 20
84.3059351953
 11
158.1241031582
 21
82.4963610293
  0
LINE
  5
2CA
100
AcDbEntity
  8
RACCORDO
100
AcDbLine
 62
253
  6
CONTINUOUS
 10
121.9767936862
 20
82.8201125392
 11
122.0333493798
 21
82.8724053275
  0
LINE
  5
2CB
100
AcDbEntity
  8
RACCORDO
100
AcDbLine
 62
253
  6
CONTINUOUS
 10
122.8983872197
 20
81.8233318714
 11
122.9555379181
 21
81.8760560835
  0
LWPOLYLINE
  5
2CC
100
AcDbEntity
  8
RACCORDO
100
AcDbPolyline
 62
253
  6
CONTINUOUS
 90
27
 70
0
 10
124.003698806
 20
85.0854757277
 10
124.0026714016
 20
85.0845752034
 10
124.0016472801
 20
85.0833025362
 10
124.0006263918
 20
85.0816580862
 10
123.9996075389
 20
85.0796417519
 10
123.9985918193
 20
85.0772549471
 10
123.9975826277
 20
85.0745018405
 10
123.9965802263
 20
85.0713859372
 10
123.9955842552
 20
85.0679093761
 10
123.9945971771
 20
85.064075984
 10
123.9936192757
 20
85.0598907336
 10
123.9926501727
 20
85.0553562592
 10
123.9916913378
 20
85.0504726188
 10
123.9907426322
 20
85.0452428157
 10
123.9898040999
 20
85.0396710277
 10
123.9888774836
 20
85.0337581019
 10
123.9879624377
 20
85.0275055328
 10
123.9870592127
 20
85.0209193551
 10
123.9861704454
 20
85.0140076182
 10
123.9852960335
 20
85.006774201
 10
123.9844359897
 20
84.9992254687
 10
123.9835931282
 20
84.9913750284
 10
123.982767527
 20
84.9832295932
 10
123.9819590289
 20
84.9747959963
 10
123.9811701019
 20
84.9660901298
 10
123.980401548
 20
84.9571230992
 10
123.9789229251
 20
84.9384298738
  0
LWPOLYLINE
  5
2CD
100
AcDbEntity
  8
RACCORDO
100
AcDbPolyline
 62
253
  6
CONTINUOUS
 90
26
 70
0
 10
124.0036987645
 20
130.2311179317
 10
124.0026709788
 20
130.2320188564
 10
124.0016465425
 20
130.2332921081
 10
124.0006254057
 20
130.2349372579
 10
123.9996063761
 20
130.2369543283
 10
123.9985905462
 20
130.239341843
 10
123.9975812941
 20
130.242095602
 10
123.9965789054
 20
130.2452119655
 10
123.9955829971
 20
130.2486888044
 10
123.994595946
 20
130.2525225868
 10
123.9936180243
 20
130.2567084184
 10
123.9926488652
 20
130.2612436731
 10
123.9916898863
 20
130.2661286395
 10
123.9907408966
 20
130.2713607107
 10
123.9898019919
 20
130.2769355487
 10
123.9888750187
 20
130.2828517736
 10
123.9879596294
 20
130.2891079436
 10
123.9870560765
 20
130.2956979568
 10
123.9861671079
 20
130.3026128167
 10
123.9852926671
 20
130.3098481583
 10
123.9844327217
 20
130.3173978026
 10
123.9835900604
 20
130.3252480885
 10
123.9827647615
 20
130.3333922243
 10
123.9819566683
 20
130.3418232344
 10
123.9811682248
 20
130.3505250906
 10
123.9804002252
 20
130.3594865759
  0
LINE
  5
2CE
100
AcDbEntity
  8
RACCORDO
100
AcDbLine
 62
253
  6
CONTINUOUS
 10
122.8983872197
 20
133.4932617192
 11
122.9555379181
 21
133.4405375071
  0
LINE
  5
2CF
100
AcDbEntity
  8
RACCORDO
100
AcDbLine
 62
253
  6
CONTINUOUS
 10
121.9767936862
 20
132.4964810514
 11
122.0333493798
 21
132.4441882631
  0
LINE
  5
2D0
100
AcDbEntity
  8
0
100
AcDbLine
 62
7
  6
CONTINUOUS
 10
159.7348413182
 20
82.4963610293
 11
159.6006131382
 21
82.8461106573
  0
LINE
  5
2D1
100
AcDbEntity
  8
0
100
AcDbLine
 62
7
  6
CONTINUOUS
 10
159.4831634802
 20
84.3059351953
 11
160.1375258582
 21
82.4963610293
  0
LINE
  5
2D2
100
AcDbEntity
  8
0
100
AcDbLine
 62
7
  6
CONTINUOUS
 10
159.4831634802
 20
83.1806537803
 11
159.2818212102
 21
83.7432944883
  0
LINE
  5
2D3
100
AcDbEntity
  8
0
100
AcDbLine
 62
7
  6
CONTINUOUS
 10
160.4563177852
 20
82.4963610293
 11
160.4563177852
 21
84.3059351953
  0
LINE
  5
2D4
100
AcDbEntity
  8
0
100
AcDbLine
 62
7
  6
CONTINUOUS
 10
160.8422238032
 20
83.9713920713
 11
160.8422238032
 21
83.5151969043
  0
LINE
  5
2D5
100
AcDbEntity
  8
0
100
AcDbLine
 62
7
  6
CONTINUOUS
 10
160.8590023252
 20
83.1806537803
 11
160.8590023252
 21
82.4963610293
  0
LINE
  5
2D6
100
AcDbEntity
  8
0
100
AcDbLine
 62
7
  6
CONTINUOUS
 10
157.1341703302
 20
83.1198277583
 11
157.5200763482
 21
84.3059351953
  0
LINE
  5
2D7
100
AcDbEntity
  8
0
100
AcDbLine
 62
7
  6
CONTINUOUS
 10
157.7214186182
 20
83.6824684653
 11
157.3355126002
 21
82.4963610293
  0
LINE
  5
2D8
100
AcDbEntity
  8
0
100
AcDbLine
 62
7
  6
CONTINUOUS
 10
159.2818212102
 20
83.7432944883
 11
159.0972574632
 21
83.1806537803
  0
LINE
  5
2D9
100
AcDbEntity
  8
0
100
AcDbLine
 62
7
  6
CONTINUOUS
 10
158.9630292832
 20
82.8461106573
 11
158.8455796252
 21
82.4963610293
  0
LINE
  5
2DA
100
AcDbEntity
  8
0
100
AcDbLine
 62
7
  6
CONTINUOUS
 10
158.4428950852
 20
82.4963610293
 11
159.0804789402
 21
84.3059351953
  0
LINE
  5
2DB
100
AcDbEntity
  8
0
100
AcDbLine
 62
7
  6
CONTINUOUS
 10
154.2314859382
 20
83.0437952303
 11
154.6845060452
 21
84.3059351953
  0
LINE
  5
2DC
100
AcDbEntity
  8
0
100
AcDbLine
 62
7
  6
CONTINUOUS
 10
155.0871905852
 20
84.3059351953
 11
154.4328282082
 21
82.4963610293
  0
LINE
  5
2DD
100
AcDbEntity
  8
RACCORDO
100
AcDbLine
 62
253
  6
CONTINUOUS
 10
191.3770677786
 20
130.1582967953
 11
191.4498886236
 21
130.2311176959
  0
LINE
  5
2DE
100
AcDbEntity
  8
RACCORDO
100
AcDbLine
 62
253
  6
CONTINUOUS
 10
191.5767936862
 20
129.9585708893
 11
191.6496145866
 21
130.0313918736
  0
LINE
  5
2DF
100
AcDbEntity
  8
RACCORDO
100
AcDbLine
 62
253
  6
CONTINUOUS
 10
193.4767936862
 20
132.4964810514
 11
193.4202379927
 21
132.4441882631
  0
LINE
  5
2E0
100
AcDbEntity
  8
RACCORDO
100
AcDbLine
 62
253
  6
CONTINUOUS
 10
192.5552001527
 20
133.4932617192
 11
192.4980494543
 21
133.4405375071
  0
LWPOLYLINE
  5
2E1
100
AcDbEntity
  8
RACCORDO
100
AcDbPolyline
 62
253
  6
CONTINUOUS
 90
27
 70
0
 10
191.4498885674
 20
130.2311178653
 10
191.4509159718
 20
130.2320183896
 10
191.4519400932
 20
130.2332910568
 10
191.4529609814
 20
130.2349355069
 10
191.4539798342
 20
130.2369518412
 10
191.4549955536
 20
130.2393386461
 10
191.456004745
 20
130.2420917526
 10
191.4570071463
 20
130.2452076559
 10
191.4580031172
 20
130.248684217
 10
191.4589901951
 20
130.252517609
 10
191.4599680964
 20
130.2567028594
 10
191.4609371992
 20
130.2612373338
 10
191.4618960339
 20
130.266120974
 10
191.4628447394
 20
130.2713507771
 10
191.4637832715
 20
130.2769225652
 10
191.4647098877
 20
130.282835491
 10
191.4656249334
 20
130.2890880601
 10
191.4665281583
 20
130.2956742379
 10
191.4674169254
 20
130.3025859748
 10
191.4682913371
 20
130.309819392
 10
191.4691513807
 20
130.3173681243
 10
191.4699942421
 20
130.3252185645
 10
191.4708198431
 20
130.3333639997
 10
191.471628341
 20
130.3417975966
 10
191.4724172679
 20
130.3505034629
 10
191.4731858219
 20
130.3594704934
 10
191.4746644452
 20
130.3781637184
  0
LWPOLYLINE
  5
2E2
100
AcDbEntity
  8
RACCORDO
100
AcDbPolyline
 62
253
  6
CONTINUOUS
 90
26
 70
0
 10
191.4498886096
 20
85.0854756551
 10
191.4509163952
 20
85.0845747304
 10
191.4519408315
 20
85.0833014787
 10
191.4529619682
 20
85.0816563291
 10
191.4539809976
 20
85.0796392587
 10
191.4549968273
 20
85.0772517441
 10
191.4560060791
 20
85.0744979851
 10
191.4570084676
 20
85.0713816216
 10
191.4580043757
 20
85.0679047827
 10
191.4589914266
 20
85.0640710003
 10
191.4599693481
 20
85.0598851688
 10
191.460938507
 20
85.0553499141
 10
191.4618974857
 20
85.0504649477
 10
191.4628464752
 20
85.0452328766
 10
191.4637853797
 20
85.0396580387
 10
191.4647123527
 20
85.0337418138
 10
191.4656277417
 20
85.027485644
 10
191.4665312944
 20
85.0208956309
 10
191.4674202628
 20
85.013980771
 10
191.4682947034
 20
85.0067454295
 10
191.4691546486
 20
84.9991957853
 10
191.4699973097
 20
84.9913454995
 10
191.4708226084
 20
84.9832013637
 10
191.4716307013
 20
84.9747703536
 10
191.4724191447
 20
84.9660684974
 10
191.4731871444
 20
84.9571070121
  0
LINE
  5
2E3
100
AcDbEntity
  8
RACCORDO
100
AcDbLine
 62
253
  6
CONTINUOUS
 10
192.5552001527
 20
81.8233318714
 11
192.4980494543
 21
81.8760560835
  0
LINE
  5
2E4
100
AcDbEntity
  8
RACCORDO
100
AcDbLine
 62
253
  6
CONTINUOUS
 10
193.4767936862
 20
82.8201125392
 11
193.4202379927
 21
82.8724053275
  0
LINE
  5
2E5
100
AcDbEntity
  8
RACCORDO
100
AcDbLine
 62
253
  6
CONTINUOUS
 10
191.3770677788
 20
85.1582967953
 11
191.4498886492
 21
85.0854758855
  0
LINE
  5
2E6
100
AcDbEntity
  8
RACCORDO
100
AcDbLine
 62
253
  6
CONTINUOUS
 10
191.5767936862
 20
85.3580227009
 11
191.6496145957
 21
85.2852016772
  0
LWPOLYLINE
  5
2E7
100
AcDbEntity
  8
RACCORDO
100
AcDbPolyline
 62
253
  6
CONTINUOUS
 90
23
 70
0
 10
191.6496145866
 20
130.0313918736
 10
191.6506153811
 20
130.0326541834
 10
191.6516130259
 20
130.0344358648
 10
191.652607521
 20
130.0367369178
 10
191.6535999347
 20
130.0395609116
 10
191.6545891988
 20
130.042904277
 10
191.655572108
 20
130.0467563067
 10
191.6565483617
 20
130.0511182105
 10
191.6575182606
 20
130.0559887787
 10
191.6584795019
 20
130.0613536751
 10
191.6594317644
 20
130.067211562
 10
191.6603753692
 20
130.0735637771
 10
191.6613089772
 20
130.0803999968
 10
191.662232677
 20
130.0877206835
 10
191.66314638
 20
130.0955253748
 10
191.6640484815
 20
130.1038023595
 10
191.6649392727
 20
130.1125557184
 10
191.6658184623
 20
130.1217813706
 10
191.666683572
 20
130.1314553628
 10
191.6675346594
 20
130.1415816081
 10
191.6683716668
 20
130.1521561934
 10
191.6691919431
 20
130.1631434259
 10
191.67078216
 20
130.1863622239
  0
LWPOLYLINE
  5
2E8
100
AcDbEntity
  8
RACCORDO
100
AcDbPolyline
 62
253
  6
CONTINUOUS
 90
21
 70
0
 10
191.6496145957
 20
85.2852016772
 10
191.6506157603
 20
85.2839386434
 10
191.6516137135
 20
85.2821561645
 10
191.6526084553
 20
85.2798542406
 10
191.6536010499
 20
85.2770292306
 10
191.6545904331
 20
85.2736847756
 10
191.655573413
 20
85.2698317986
 10
191.6565496652
 20
85.2654692937
 10
191.6575195141
 20
85.2605982668
 10
191.6584807403
 20
85.2552326583
 10
191.6594330337
 20
85.2493739004
 10
191.6603767044
 20
85.2430205609
 10
191.6613104641
 20
85.2361822829
 10
191.6622344517
 20
85.228858171
 10
191.6631485283
 20
85.2210491206
 10
191.6640509883
 20
85.2127674608
 10
191.6649421258
 20
85.2040088063
 10
191.6658216467
 20
85.1947775424
 10
191.6666869632
 20
85.1850991534
 10
191.6675380879
 20
85.1749700944
 10
191.6683750083
 20
85.1643939103
  0
LWPOLYLINE
  5
2E9
100
AcDbEntity
  8
RACCORDO
100
AcDbPolyline
 62
253
  6
CONTINUOUS
 90
55
 70
0
 10
123.8891117486
 20
132.0066616026
 10
124.5495023804
 20
132.056903851
 10
125.2533283533
 20
132.1093361617
 10
126.0005953172
 20
132.1637597512
 10
126.7924340058
 20
132.2200481888
 10
127.6277259566
 20
132.2778868543
 10
128.5031029409
 20
132.3367905082
 10
129.4185655755
 20
132.3965184434
 10
130.3741256123
 20
132.456830229
 10
131.3664296097
 20
132.5172593779
 10
132.3953366765
 20
132.5775464258
 10
133.4609951686
 20
132.6374468376
 10
134.560483604
 20
132.6965421987
 10
135.6903781372
 20
132.7544072249
 10
136.8541062194
 20
132.810968503
 10
138.0590232076
 20
132.8662882259
 10
139.301599852
 20
132.9198872816
 10
140.5853675926
 20
132.9715814301
 10
141.9282777252
 20
133.0216502907
 10
143.3337525787
 20
133.0696758103
 10
144.7984262238
 20
133.1149636292
 10
146.3300898474
 20
133.1571154886
 10
147.9419478409
 20
133.1957348081
 10
149.6208483592
 20
133.2297157517
 10
151.3350412023
 20
133.2578275633
 10
153.0830551349
 20
133.279641744
 10
154.8663104595
 20
133.294776883
 10
156.6573743175
 20
133.302738011
 10
158.4541835256
 20
133.3034311889
 10
160.2587271005
 20
133.2967797199
 10
162.049645602
 20
133.2828958777
 10
163.8325941671
 20
133.2618619887
 10
165.6018465672
 20
133.2338832613
 10
167.3189829464
 20
133.1999615421
 10
168.9758452514
 20
133.1608986611
 10
170.5805663828
 20
133.1171355737
 10
172.1192009337
 20
133.0697027699
 10
173.5815139578
 20
133.0196502926
 10
174.9777908872
 20
132.9673247558
 10
176.3248703724
 20
132.9126497149
 10
177.6247064692
 20
132.8559904811
 10
178.8753746136
 20
132.7978490639
 10
180.087887152
 20
132.7380843434
 10
181.2662755515
 20
132.6767994662
 10
182.4065275158
 20
132.6144926811
 10
183.507586579
 20
132.5515188814
 10
184.5699073357
 20
132.4881422967
 10
185.5930489753
 20
132.4246741729
 10
186.5746109011
 20
132.3615471507
 10
187.5146023306
 20
132.2990313318
 10
188.4130224466
 20
132.2373952978
 10
189.2674566173
 20
132.1770783624
 10
190.0771035433
 20
132.1183935802
 10
190.8427748169
 20
132.0615142894
 10
191.5644756238
 20
132.0066616026
  0
LWPOLYLINE
  5
2EA
100
AcDbEntity
  8
RACCORDO
100
AcDbPolyline
 62
253
  6
CONTINUOUS
 90
55
 70
0
 10
123.8764257998
 20
132.147653337
 10
124.5371600114
 20
132.1972690809
 10
125.2413463915
 20
132.2486565126
 10
125.9889878934
 20
132.3018156322
 10
126.781210326
 20
132.357054974
 10
127.6168939808
 20
132.4140660036
 10
128.4926732887
 20
132.4719231177
 10
129.4085457607
 20
132.5306332306
 10
130.3645192625
 20
132.5901894279
 10
131.3572430866
 20
132.6496453632
 10
132.3865756593
 20
132.7089926436
 10
133.4526627566
 20
132.768239662
 10
134.5525839445
 20
132.8264652512
 10
135.6829139426
 20
132.883542045
 10
136.8470805617
 20
132.9395974095
 10
138.0524430712
 20
132.9940922758
 10
139.2954607262
 20
133.0470511371
 10
140.5796765933
 20
133.0984495002
 10
141.9230771859
 20
133.1476748162
 10
143.3290449775
 20
133.1950697453
 10
144.7942004026
 20
133.2402916273
 10
146.3263879579
 20
133.2816999334
 10
147.9388065078
 20
133.3195220591
 10
149.6182570129
 20
133.3535306088
 10
151.3329846583
 20
133.3814028664
 10
153.0815619604
 20
133.4026942638
 10
154.865407438
 20
133.4178493691
 10
156.6570320848
 20
133.4258791707
 10
158.4544068978
 20
133.4263924432
 10
160.2595481639
 20
133.4197804119
 10
162.0510341632
 20
133.4062277414
 10
163.8345412355
 20
133.3852153457
 10
165.6043809861
 20
133.3572623109
 10
167.322086804
 20
133.3241105589
 10
168.9794815301
 20
133.2855853113
 10
170.5847375316
 20
133.2418613466
 10
172.1239162987
 20
133.1952049221
 10
173.5867460803
 20
133.1460287491
 10
174.9835010511
 20
133.0939201163
 10
176.3310623627
 20
133.039907147
 10
177.6313783335
 20
132.9841280984
 10
178.8825034211
 20
132.9264447133
 10
180.0954763852
 20
132.8674703444
 10
181.27432595
 20
132.8070929453
 10
182.4150261293
 20
132.7454245624
 10
183.5165331528
 20
132.6834146865
 10
184.5793001961
 20
132.621053329
 10
185.6028785024
 20
132.5583504786
 10
186.5848719833
 20
132.4962855927
 10
187.5252898107
 20
132.4348740132
 10
188.4241284984
 20
132.3741003982
 10
189.2789735485
 20
132.3148981799
 10
190.0890223651
 20
132.2575785023
 10
190.8550839833
 20
132.2018302213
 10
191.5771615725
 20
132.147653337
  0
LWPOLYLINE
  5
2EB
100
AcDbEntity
  8
RACCORDO
100
AcDbPolyline
 62
253
  6
CONTINUOUS
 90
37
 70
0
 10
123.9789230158
 20
130.3781638774
 10
123.9704299259
 20
130.3777943774
 10
123.9619533657
 20
130.3771709398
 10
123.9535086513
 20
130.3762946911
 10
123.945111041
 20
130.3751672146
 10
123.9367757082
 20
130.3737905474
 10
123.9285177137
 20
130.3721671769
 10
123.9203519785
 20
130.3703000364
 10
123.912293257
 20
130.3681924996
 10
123.9043561102
 20
130.3658483744
 10
123.8965548793
 20
130.3632718964
 10
123.8889036602
 20
130.360467721
 10
123.8814162774
 20
130.3574409148
 10
123.8741062598
 20
130.3541969468
 10
123.8669868153
 20
130.3507416786
 10
123.860070808
 20
130.3470813533
 10
123.8533707341
 20
130.3432225845
 10
123.8468986996
 20
130.3391723446
 10
123.8406663987
 20
130.3349379517
 10
123.8346850922
 20
130.3305270568
 10
123.8289655875
 20
130.3259476298
 10
123.823518219
 20
130.3212079451
 10
123.8183528293
 20
130.3163165666
 10
123.8134787515
 20
130.3112823324
 10
123.8089047925
 20
130.3061143387
 10
123.8046392168
 20
130.3008219232
 10
123.8006897316
 20
130.2954146486
 10
123.7970634731
 20
130.2899022852
 10
123.7937669934
 20
130.2842947929
 10
123.7908062489
 20
130.2786023038
 10
123.7881865892
 20
130.2728351035
 10
123.7859127477
 20
130.2670036123
 10
123.7839888328
 20
130.2611183671
 10
123.7824183209
 20
130.2551900016
 10
123.7812040495
 20
130.2492292276
 10
123.7803482128
 20
130.2432468154
 10
123.7798523571
 20
130.2372535743
  0
LWPOLYLINE
  5
2EC
100
AcDbEntity
  8
RACCORDO
100
AcDbPolyline
 62
253
  6
CONTINUOUS
 90
40
 70
0
 10
124.0036987244
 20
130.2311177044
 10
123.9956705807
 20
130.2309343035
 10
123.9876554086
 20
130.2304283731
 10
123.9796661636
 20
130.2296007302
 10
123.9717157576
 20
130.2284527118
 10
123.9638170428
 20
130.2269861732
 10
123.9559827906
 20
130.2252034853
 10
123.9482256655
 20
130.2231075299
 10
123.9405582041
 20
130.2207016945
 10
123.9329927998
 20
130.2179898679
 10
123.925541681
 20
130.2149764331
 10
123.9182168911
 20
130.2116662611
 10
123.9110302698
 20
130.2080647021
 10
123.903993433
 20
130.2041775776
 10
123.8971177548
 20
130.2000111704
 10
123.8904143486
 20
130.1955722149
 10
123.8838940496
 20
130.190867886
 10
123.8775673969
 20
130.1859057875
 10
123.8714446165
 20
130.1806939399
 10
123.865535605
 20
130.1752407674
 10
123.8598499136
 20
130.1695550841
 10
123.8543967322
 20
130.1636460801
 10
123.8491848751
 20
130.1575233064
 10
123.8442227667
 20
130.1511966595
 10
123.8395184273
 20
130.1446763655
 10
123.835079461
 20
130.1379729634
 10
123.8309130426
 20
130.1310972883
 10
123.8270259066
 20
130.1240604537
 10
123.8234243361
 20
130.1168738336
 10
123.8201141524
 20
130.109549044
 10
123.817100706
 20
130.1020979244
 10
123.8143888677
 20
130.0945325183
 10
123.8119830209
 20
130.0868650543
 10
123.8098870544
 20
130.0791079255
 10
123.8081043559
 20
130.0712736702
 10
123.806637807
 20
130.0633749513
 10
123.8054897781
 20
130.055424536
 10
123.804662125
 20
130.0474352748
 10
123.8041561855
 20
130.0394200814
 10
123.8039727774
 20
130.0313919111
  0
LINE
  5
2ED
100
AcDbEntity
  8
RACCORDO
100
AcDbLine
 62
253
  6
CONTINUOUS
 10
191.4498886236
 20
130.2311176959
 11
188.2443156615
 21
130.2304528218
  0
LINE
  5
2EE
100
AcDbEntity
  8
RACCORDO
100
AcDbLine
 62
253
  6
CONTINUOUS
 10
188.2443156615
 20
130.2304528218
 11
181.4434827539
 21
130.2294175276
  0
LINE
  5
2EF
100
AcDbEntity
  8
RACCORDO
100
AcDbLine
 62
7
  6
CONTINUOUS
 10
124.0765195936
 20
130.1582967953
 11
191.3770677786
 21
130.1582967953
  0
LINE
  5
2F0
100
AcDbEntity
  8
RACCORDO
100
AcDbLine
 62
253
  6
CONTINUOUS
 10
181.4434827539
 20
130.2294175276
 11
170.2680159338
 21
130.2286007216
  0
LINE
  5
2F1
100
AcDbEntity
  8
RACCORDO
100
AcDbLine
 62
253
  6
CONTINUOUS
 10
170.2680159338
 20
130.2286007216
 11
157.7633079923
 21
130.228338734
  0
LINE
  5
2F2
100
AcDbEntity
  8
RACCORDO
100
AcDbLine
 62
253
  6
CONTINUOUS
 10
191.9511110262
 20
131.5887349519
 11
191.7441799999
 21
131.5887349519
  0
LINE
  5
2F3
100
AcDbEntity
  8
RACCORDO
100
AcDbLine
 62
253
  6
CONTINUOUS
 10
123.5024763462
 20
131.5887349519
 11
123.7094073726
 21
131.5887349519
  0
LINE
  5
2F4
100
AcDbEntity
  8
RACCORDO
100
AcDbLine
 62
253
  6
CONTINUOUS
 10
122.2258450349
 20
132.4441882631
 11
122.0333493798
 21
132.4441882631
  0
LINE
  5
2F5
100
AcDbEntity
  8
RACCORDO
100
AcDbLine
 62
253
  6
CONTINUOUS
 10
193.2277423376
 20
132.4441882631
 11
193.4202379927
 21
132.4441882631
  0
LINE
  5
2F6
100
AcDbEntity
  8
RACCORDO
100
AcDbLine
 62
253
  6
CONTINUOUS
 10
193.6805782951
 20
132.5960324744
 11
193.5767936862
 21
132.5960324744
  0
LINE
  5
2F7
100
AcDbEntity
  8
RACCORDO
100
AcDbLine
 62
253
  6
CONTINUOUS
 10
121.7730090773
 20
132.5960324744
 11
121.8767936862
 21
132.5960324747
  0
LINE
  5
2F8
100
AcDbEntity
  8
RACCORDO
100
AcDbLine
 62
253
  6
CONTINUOUS
 10
127.1914298357
 20
130.2304548041
 11
124.0036987244
 21
130.2311177044
  0
LINE
  5
2F9
100
AcDbEntity
  8
RACCORDO
100
AcDbLine
 62
253
  6
CONTINUOUS
 10
137.5709793158
 20
130.2290620796
 11
127.1914298357
 21
130.2304548041
  0
LINE
  5
2FA
100
AcDbEntity
  8
RACCORDO
100
AcDbLine
 62
253
  6
CONTINUOUS
 10
157.7633079923
 20
130.228338734
 11
137.5709793158
 21
130.2290620796
  0
LWPOLYLINE
  5
2FB
100
AcDbEntity
  8
RACCORDO
100
AcDbPolyline
 62
253
  6
CONTINUOUS
 90
19
 70
0
 10
191.4746643655
 20
130.3781638019
 10
188.2674622629
 20
130.3887696549
 10
184.9300628632
 20
130.3967763302
 10
181.4624841848
 20
130.4028727679
 10
177.870662813
 20
130.4079165012
 10
174.1486669041
 20
130.4122793375
 10
170.2786986742
 20
130.4156270976
 10
166.2082830853
 20
130.4179361621
 10
161.9898988961
 20
130.419363742
 10
157.7631870041
 20
130.4198314405
 10
153.5210230233
 20
130.4194052022
 10
149.2706007317
 20
130.4179692869
 10
145.1730370324
 20
130.4156257503
 10
141.2872315703
 20
130.412265782
 10
137.5542501547
 20
130.4078913404
 10
133.9584746422
 20
130.4028177667
 10
130.4947143673
 20
130.3966894346
 10
127.1681923684
 20
130.3886888242
 10
123.9789230158
 20
130.3781638771
  0
LWPOLYLINE
  5
2FC
100
AcDbEntity
  8
RACCORDO
100
AcDbPolyline
 62
253
  6
CONTINUOUS
 90
49
 70
0
 10
191.5771615725
 20
132.147653337
 10
191.5856641366
 20
132.1469101581
 10
191.5943051323
 20
132.1458585021
 10
191.6030845595
 20
132.144498369
 10
191.6120110144
 20
132.1428439711
 10
191.6210759005
 20
132.1408810961
 10
191.6302534282
 20
132.1385671071
 10
191.6395377948
 20
132.1359046966
 10
191.6489348028
 20
132.1328911721
 10
191.6584360698
 20
132.1294758189
 10
191.6680481195
 20
132.1256580073
 10
191.6777644281
 20
132.1214383669
 10
191.6875570423
 20
132.1167680729
 10
191.6974299643
 20
132.1116454878
 10
191.7073791916
 20
132.1060722489
 10
191.7173647643
 20
132.1000044437
 10
191.7273864455
 20
132.0934426566
 10
191.737444472
 20
132.0863863032
 10
191.7474995942
 20
132.0787897176
 10
191.7575564498
 20
132.0706496389
 10
191.7676104012
 20
132.0619693281
 10
191.7776082857
 20
132.0527129017
 10
191.7875529736
 20
132.0428767189
 10
191.7974415948
 20
132.0324644205
 10
191.8072123767
 20
132.0214510456
 10
191.8168659555
 20
132.0098349227
 10
191.8264016952
 20
131.9976177233
 10
191.8357559149
 20
131.9847795016
 10
191.8449320039
 20
131.9713139739
 10
191.8539265733
 20
131.9572274239
 10
191.8626657757
 20
131.9425187565
 10
191.8711530864
 20
131.9271764011
 10
191.8793850306
 20
131.9112119284
 10
191.8872773349
 20
131.8946589553
 10
191.8948292258
 20
131.8775081703
 10
191.9020414775
 20
131.8597688848
 10
191.908832138
 20
131.8415026511
 10
191.9151977385
 20
131.822704946
 10
191.9211417485
 20
131.8033802926
 10
191.926592624
 20
131.7836038121
 10
191.9315470545
 20
131.7633715523
 10
191.936008351
 20
131.7426874653
 10
191.9399149022
 20
131.7216385294
 10
191.9432635907
 20
131.7002212219
 10
191.9460575344
 20
131.6784390653
 10
191.9482444754
 20
131.6563896055
 10
191.9498069947
 20
131.6341053576
 10
191.9507625116
 20
131.6115538064
 10
191.9511110262
 20
131.5887349519
  0
LINE
  5
2FD
100
AcDbEntity
  8
RACCORDO
100
AcDbLine
 62
253
  6
CONTINUOUS
 10
191.5658597173
 20
83.2971055538
 11
191.5644756238
 21
83.3099319883
  0
LINE
  5
2FE
100
AcDbEntity
  8
RACCORDO
100
AcDbLine
 62
253
  6
CONTINUOUS
 10
191.5672755707
 20
83.2833042521
 11
191.5658597173
 21
83.2971055538
  0
LINE
  5
2FF
100
AcDbEntity
  8
RACCORDO
100
AcDbLine
 62
253
  6
CONTINUOUS
 10
191.5694352966
 20
83.2610058931
 11
191.5672755707
 21
83.2833042521
  0
LINE
  5
300
100
AcDbEntity
  8
RACCORDO
100
AcDbLine
 62
253
  6
CONTINUOUS
 10
191.5716052809
 20
83.2371331499
 11
191.5694352966
 21
83.2610058931
  0
LINE
  5
301
100
AcDbEntity
  8
RACCORDO
100
AcDbLine
 62
253
  6
CONTINUOUS
 10
191.5737484154
 20
83.2120942624
 11
191.5716052809
 21
83.2371331499
  0
LWPOLYLINE
  5
302
100
AcDbEntity
  8
RACCORDO
100
AcDbPolyline
 62
253
  6
CONTINUOUS
 90
37
 70
0
 10
191.6737350106
 20
130.237253515
 10
191.673239154
 20
130.2432467554
 10
191.6723833165
 20
130.2492291669
 10
191.6711690445
 20
130.2551899402
 10
191.6695985319
 20
130.2611183049
 10
191.6676746165
 20
130.2670035494
 10
191.6654007745
 20
130.2728350397
 10
191.6627811145
 20
130.2786022393
 10
191.6598203697
 20
130.2842947276
 10
191.6565238899
 20
130.289902219
 10
191.6528976313
 20
130.2954145817
 10
191.6489481461
 20
130.3008218555
 10
191.6446825704
 20
130.3061142702
 10
191.6401086116
 20
130.3112822633
 10
191.6352345341
 20
130.3163164968
 10
191.6300691447
 20
130.3212078745
 10
191.6246217766
 20
130.3259475586
 10
191.6189022724
 20
130.3305269849
 10
191.6129209664
 20
130.3349378792
 10
191.6066886661
 20
130.3391722715
 10
191.6002166322
 20
130.3432225109
 10
191.593516559
 20
130.3470812792
 10
191.5866005525
 20
130.3507416041
 10
191.5794811089
 20
130.3541968719
 10
191.5721710921
 20
130.3574408395
 10
191.5646837102
 20
130.3604676454
 10
191.557032492
 20
130.3632718206
 10
191.5492312621
 20
130.3658482984
 10
191.5412941162
 20
130.3681924235
 10
191.5332353957
 20
130.3702999602
 10
191.5250696616
 20
130.3721671007
 10
191.5168116681
 20
130.3737904712
 10
191.5084763363
 20
130.3751671385
 10
191.5000787271
 20
130.3762946152
 10
191.4916340137
 20
130.3771708641
 10
191.4831574545
 20
130.377794302
 10
191.4746643656
 20
130.3781638023
  0
LWPOLYLINE
  5
303
100
AcDbEntity
  8
RACCORDO
100
AcDbPolyline
 62
253
  6
CONTINUOUS
 90
10
 70
0
 10
192.5744019009
 20
81.5242437411
 10
192.5729859625
 20
81.5415867361
 10
192.5715013382
 20
81.5584008871
 10
192.5699933024
 20
81.5741734367
 10
192.568507844
 20
81.5884233916
 10
192.5670902627
 20
81.6007161909
 10
192.5657837869
 20
81.6106769585
 10
192.564628258
 20
81.6180019345
 10
192.5636589151
 20
81.6224677391
 10
192.5629053187
 20
81.6239381848
  0
LINE
  5
304
100
AcDbEntity
  8
RACCORDO
100
AcDbLine
 62
253
  6
CONTINUOUS
 10
191.5758280511
 20
83.1863174124
 11
191.5737484154
 21
83.2120942624
  0
LINE
  5
305
100
AcDbEntity
  8
RACCORDO
100
AcDbLine
 62
253
  6
CONTINUOUS
 10
191.4731871444
 20
84.9571070121
 11
191.4746644197
 21
84.9384298259
  0
LINE
  5
306
100
AcDbEntity
  8
RACCORDO
100
AcDbLine
 62
253
  6
CONTINUOUS
 10
191.5771615725
 20
83.1689402535
 11
191.5758280511
 21
83.1863174124
  0
LINE
  5
307
100
AcDbEntity
  8
RACCORDO
100
AcDbLine
 62
253
  6
CONTINUOUS
 10
192.4897408161
 20
82.0754140746
 11
192.4916746169
 21
82.0497217708
  0
LINE
  5
308
100
AcDbEntity
  8
RACCORDO
100
AcDbLine
 62
253
  6
CONTINUOUS
 10
191.6683750083
 20
85.1643939103
 11
191.6699982964
 21
85.1420051795
  0
LINE
  5
309
100
AcDbEntity
  8
RACCORDO
100
AcDbLine
 62
253
  6
CONTINUOUS
 10
192.4916746169
 20
82.0497217708
 11
192.4934541679
 21
82.0244577969
  0
LINE
  5
30A
100
AcDbEntity
  8
RACCORDO
100
AcDbLine
 62
253
  6
CONTINUOUS
 10
192.4934541679
 20
82.0244577969
 11
192.4950498015
 21
82.0000433401
  0
LINE
  5
30B
100
AcDbEntity
  8
RACCORDO
100
AcDbLine
 62
253
  6
CONTINUOUS
 10
191.6699982964
 20
85.1420051795
 11
191.6715517638
 21
85.1180152278
  0
LINE
  5
30C
100
AcDbEntity
  8
RACCORDO
100
AcDbLine
 62
253
  6
CONTINUOUS
 10
192.4950498015
 20
82.0000433401
 11
192.496434916
 21
81.9768854252
  0
LINE
  5
30D
100
AcDbEntity
  8
RACCORDO
100
AcDbLine
 62
253
  6
CONTINUOUS
 10
191.6715517638
 20
85.1180152278
 11
191.6730265333
 21
85.0925966086
  0
LINE
  5
30E
100
AcDbEntity
  8
RACCORDO
100
AcDbLine
 62
253
  6
CONTINUOUS
 10
191.4746643556
 20
84.9384297068
 11
191.5644756238
 21
83.309931988
  0
LINE
  5
30F
100
AcDbEntity
  8
RACCORDO
100
AcDbLine
 62
253
  6
CONTINUOUS
 10
192.496434916
 20
81.9768854252
 11
192.4972298108
 21
81.9623366083
  0
LINE
  5
310
100
AcDbEntity
  8
RACCORDO
100
AcDbLine
 62
253
  6
CONTINUOUS
 10
191.6730265333
 20
85.0925966086
 11
191.7441799999
 21
83.7278586386
  0
LINE
  5
311
100
AcDbEntity
  8
RACCORDO
100
AcDbLine
 62
253
  6
CONTINUOUS
 10
192.4972298108
 20
81.9623366083
 11
192.4979149038
 21
81.948626292
  0
LINE
  5
312
100
AcDbEntity
  8
RACCORDO
100
AcDbLine
 62
253
  6
CONTINUOUS
 10
192.4979149038
 20
81.948626292
 11
192.498485115
 21
81.9358561419
  0
LINE
  5
313
100
AcDbEntity
  8
RACCORDO
100
AcDbLine
 62
253
  6
CONTINUOUS
 10
192.498485115
 20
81.9358561419
 11
192.498936216
 21
81.9241208522
  0
LWPOLYLINE
  5
314
100
AcDbEntity
  8
RACCORDO
100
AcDbPolyline
 62
253
  6
CONTINUOUS
 90
16
 70
0
 10
192.498936216
 20
81.9241208522
 10
192.4992648618
 20
81.9135074431
 10
192.4993824664
 20
81.9086463794
 10
192.4994686154
 20
81.9040946161
 10
192.499523149
 20
81.8998605953
 10
192.499545966
 20
81.8959521697
 10
192.4995370241
 20
81.8923765883
 10
192.4994963399
 20
81.8891404824
 10
192.4994239889
 20
81.8862498542
 10
192.4993201052
 20
81.8837100647
 10
192.4991848815
 20
81.8815258245
 10
192.4990185686
 20
81.8797011846
 10
192.498821475
 20
81.8782395291
 10
192.4985939662
 20
81.877143569
 10
192.4983364642
 20
81.8764153368
 10
192.4980494465
 20
81.8760561833
  0
LWPOLYLINE
  5
315
100
AcDbEntity
  8
RACCORDO
100
AcDbPolyline
 62
253
  6
CONTINUOUS
 90
40
 70
0
 10
191.6496145866
 20
130.0313918736
 10
191.6494311797
 20
130.0394200442
 10
191.6489252413
 20
130.0474352381
 10
191.6480975893
 20
130.0554244997
 10
191.6469495615
 20
130.0633749157
 10
191.6454830135
 20
130.0712736354
 10
191.6437003159
 20
130.0791078916
 10
191.6416043501
 20
130.0868650214
 10
191.6391985041
 20
130.0945324865
 10
191.6364866664
 20
130.1020978938
 10
191.6334732205
 20
130.1095490147
 10
191.6301630371
 20
130.1168738056
 10
191.6265614668
 20
130.1240604272
 10
191.6226743309
 20
130.1310972632
 10
191.6185079125
 20
130.1379729398
 10
191.614068946
 20
130.1446763434
 10
191.6093646063
 20
130.151196639
 10
191.6044024973
 20
130.1575232874
 10
191.5991906396
 20
130.1636460627
 10
191.5937374574
 20
130.1695550682
 10
191.588051765
 20
130.1752407529
 10
191.5821427525
 20
130.1806939269
 10
191.5760199708
 20
130.1859057759
 10
191.5696933167
 20
130.1908678756
 10
191.5631730162
 20
130.1955722057
 10
191.5564696084
 20
130.2000111623
 10
191.5495939284
 20
130.2041775705
 10
191.5425570897
 20
130.2080646959
 10
191.5353704663
 20
130.2116662556
 10
191.5280456744
 20
130.2149764282
 10
191.5205945533
 20
130.2179898634
 10
191.5130291468
 20
130.2207016903
 10
191.5053616831
 20
130.2231075258
 10
191.4976045556
 20
130.2252034811
 10
191.4897703005
 20
130.2269861689
 10
191.4818715827
 20
130.2284527072
 10
191.4739211754
 20
130.2296007247
 10
191.4659319316
 20
130.2304283665
 10
191.4579167625
 20
130.2309342959
 10
191.4498886235
 20
130.2311176959
  0
LWPOLYLINE
  5
316
100
AcDbEntity
  8
RACCORDO
100
AcDbPolyline
 62
253
  6
CONTINUOUS
 90
58
 70
0
 10
193.2277423376
 20
132.4441882631
 10
193.2274671334
 20
132.465139649
 10
193.226645358
 20
132.4860501266
 10
193.2252770114
 20
132.5069196958
 10
193.2233604027
 20
132.5277634253
 10
193.2208972226
 20
132.5485662465
 10
193.2178925427
 20
132.5692829535
 10
193.2143452527
 20
132.5899125587
 10
193.2102564625
 20
132.6104560496
 10
193.2056345736
 20
132.6308711837
 10
193.2004784988
 20
132.6511576398
 10
193.1947893246
 20
132.671315739
 10
193.1885787126
 20
132.6913042017
 10
193.1818456191
 20
132.711122651
 10
193.174591087
 20
132.7307714638
 10
193.1668299076
 20
132.7502104915
 10
193.1585610313
 20
132.7694393566
 10
193.1497855067
 20
132.7884584366
 10
193.1405212727
 20
132.8072287149
 10
193.1307673415
 20
132.8257496672
 10
193.1205246998
 20
132.844021818
 10
193.1098142477
 20
132.8620077232
 10
193.0986350118
 20
132.8797068282
 10
193.0869879643
 20
132.8971196877
 10
193.0748969236
 20
132.914210522
 10
193.0623609962
 20
132.9309786548
 10
193.0493810742
 20
132.9474247624
 10
193.0359836547
 20
132.9635150936
 10
193.0221678587
 20
132.9792489509
 10
193.0079345638
 20
132.9946270318
 10
192.9933129018
 20
133.0096176786
 10
192.9783020954
 20
133.0242200815
 10
192.9629029205
 20
133.0384350502
 10
192.9471468387
 20
133.0522333556
 10
192.9310330925
 20
133.0656141689
 10
192.9145624382
 20
133.0785783188
 10
192.8977686086
 20
133.0910990622
 10
192.8806509404
 20
133.1031754891
 10
192.8632100956
 20
133.1148085094
 10
192.8454817953
 20
133.1259741098
 10
192.827465411
 20
133.1366713496
 10
192.8091615698
 20
133.1469011694
 10
192.7906078768
 20
133.1566423776
 10
192.7718038493
 20
133.1658939514
 10
192.7527499687
 20
133.1746569136
 10
192.7334852858
 20
133.1829131419
 10
192.7140093392
 20
133.1906616108
 10
192.6943225894
 20
133.1979033458
 10
192.6744654697
 20
133.2046233011
 10
192.6544375596
 20
133.2108204048
 10
192.634239279
 20
133.2164957287
 10
192.6139123219
 20
133.2216374425
 10
192.5934554356
 20
133.2262445188
 10
192.5728698723
 20
133.2303179849
 10
192.5522010837
 20
133.2338490925
 10
192.5314642203
 20
133.2368349255
 10
192.5106441311
 20
133.2392784
 10
192.4897408161
 20
133.2411795159
  0
LWPOLYLINE
  5
317
100
AcDbEntity
  8
RACCORDO
100
AcDbPolyline
 62
253
  6
CONTINUOUS
 90
58
 70
0
 10
193.4202379927
 20
132.4441882631
 10
193.4198937955
 20
132.4703610208
 10
193.4188644159
 20
132.4965145064
 10
193.4171506295
 20
132.5226308109
 10
193.4147537148
 20
132.5486917466
 10
193.4116753642
 20
132.5746797814
 10
193.4079176023
 20
132.6005780407
 10
193.4034829279
 20
132.6263691623
 10
193.3983744247
 20
132.652035107
 10
193.3925956323
 20
132.6775580891
 10
193.3861505486
 20
132.7029205174
 10
193.3790435748
 20
132.7281051414
 10
193.3712795445
 20
132.7530948514
 10
193.3628637844
 20
132.7778724991
 10
193.3538020478
 20
132.8024211492
 10
193.3441004479
 20
132.8267242201
 10
193.3337655828
 20
132.8507651138
 10
193.3228045333
 20
132.8745272995
 10
193.3112247646
 20
132.8979945548
 10
193.299034195
 20
132.9211507681
 10
193.2862411381
 20
132.943980091
 10
193.2728542648
 20
132.9664670062
 10
193.2588826952
 20
132.9885961083
 10
193.2443359783
 20
133.0103521961
 10
193.2292240143
 20
133.0317204139
 10
193.2135571327
 20
133.052686071
 10
193.1973460124
 20
133.0732347994
 10
193.1806016336
 20
133.0933526271
 10
193.1633353859
 20
133.1130257667
 10
193.1455590851
 20
133.1322406589
 10
193.127284878
 20
133.1509841194
 10
193.1085252671
 20
133.169243232
 10
193.0892930369
 20
133.1870054665
 10
193.0696012507
 20
133.204258704
 10
193.0494633241
 20
133.2209910858
 10
193.0288930383
 20
133.2371910621
 10
193.0079044594
 20
133.2528475008
 10
192.9865119331
 20
133.2679496025
 10
192.9647300714
 20
133.2824869578
 10
192.9425737559
 20
133.2964495831
 10
192.9200580925
 20
133.3098278586
 10
192.897198512
 20
133.3226125195
 10
192.8740107574
 20
133.3347947158
 10
192.850510736
 20
133.3463660062
 10
192.8267144823
 20
133.3573184143
 10
192.8026382564
 20
133.3676444152
 10
192.7782985185
 20
133.37733686
 10
192.7537119439
 20
133.3863890211
 10
192.7288953878
 20
133.394794651
 10
192.7038657113
 20
133.4025479456
 10
192.678640183
 20
133.409643465
 10
192.6532365008
 20
133.4160762058
 10
192.6276724568
 20
133.4218416256
 10
192.6019651935
 20
133.426935822
 10
192.5761315986
 20
133.4313554081
 10
192.5501891259
 20
133.4350972876
 10
192.5241557963
 20
133.4381587243
 10
192.4980494543
 20
133.4405375071
  0
LWPOLYLINE
  5
318
100
AcDbEntity
  8
RACCORDO
100
AcDbPolyline
 62
253
  6
CONTINUOUS
 90
49
 70
0
 10
191.7441799999
 20
83.7278586387
 10
191.744317663
 20
83.7107886069
 10
191.7441336783
 20
83.6938951092
 10
191.7436351724
 20
83.6771868227
 10
191.7428302869
 20
83.6606542871
 10
191.7417262068
 20
83.6443232549
 10
191.7403296529
 20
83.6282546181
 10
191.738649311
 20
83.6124567764
 10
191.736694716
 20
83.5969352143
 10
191.7344754133
 20
83.5817456422
 10
191.7320011138
 20
83.5668943839
 10
191.7292828564
 20
83.5523862275
 10
191.7263341281
 20
83.5382734575
 10
191.7231660044
 20
83.5245624581
 10
191.719790676
 20
83.5112546264
 10
191.7162255468
 20
83.4983932526
 10
191.7124840525
 20
83.4859876349
 10
191.7085779931
 20
83.4740324049
 10
191.7045238867
 20
83.4625473246
 10
191.7003355742
 20
83.4515395662
 10
191.6960242263
 20
83.4410025169
 10
191.6916025982
 20
83.4309342458
 10
191.6870822362
 20
83.4213362388
 10
191.6824745953
 20
83.4122051939
 10
191.6777918824
 20
83.4035313644
 10
191.6730445955
 20
83.3953147931
 10
191.6682430668
 20
83.3875515698
 10
191.6633987788
 20
83.3802254734
 10
191.6585222302
 20
83.3733366066
 10
191.6536214468
 20
83.366879283
 10
191.6487035035
 20
83.3608283571
 10
191.643775734
 20
83.3551806197
 10
191.6388465454
 20
83.3499329135
 10
191.6339238766
 20
83.3450601059
 10
191.629013889
 20
83.3405587805
 10
191.6241237842
 20
83.3364251993
 10
191.6192625161
 20
83.33263351
 10
191.6144374562
 20
83.3291812174
 10
191.6096524647
 20
83.3260628492
 10
191.6049106525
 20
83.3232480677
 10
191.6002190376
 20
83.3207334536
 10
191.5955795886
 20
83.31851449
 10
191.5909871284
 20
83.3165598468
 10
191.5864460921
 20
83.3148648902
 10
191.5819589363
 20
83.3134273
 10
191.5775168589
 20
83.3122203489
 10
191.5731186404
 20
83.3112334888
 10
191.5687707755
 20
83.3104716617
 10
191.5644756238
 20
83.309931988
  0
LINE
  5
319
100
AcDbEntity
  8
RACCORDO
100
AcDbLine
 62
7
  6
CONTINUOUS
 10
191.5767936862
 20
129.9585708893
 11
191.5767936862
 21
85.3580227009
  0
LINE
  5
31A
100
AcDbEntity
  8
RACCORDO
100
AcDbLine
 62
253
  6
CONTINUOUS
 10
191.7441799999
 20
131.5887349519
 11
191.7441799999
 21
83.7278586386
  0
LINE
  5
31B
100
AcDbEntity
  8
RACCORDO
100
AcDbLine
 62
253
  6
CONTINUOUS
 10
191.9511110262
 20
131.5887349519
 11
191.9511110262
 21
83.7278586387
  0
LINE
  5
31C
100
AcDbEntity
  8
RACCORDO
100
AcDbLine
 62
253
  6
CONTINUOUS
 10
193.2277423376
 20
82.8724053275
 11
193.2277423376
 21
132.4441882631
  0
LINE
  5
31D
100
AcDbEntity
  8
RACCORDO
100
AcDbLine
 62
253
  6
CONTINUOUS
 10
193.4202379927
 20
82.8724053275
 11
193.4202379927
 21
132.4441882631
  0
LINE
  5
31E
100
AcDbEntity
  8
RACCORDO
100
AcDbLine
 62
7
  6
CONTINUOUS
 10
193.4767936862
 20
132.4964810514
 11
193.4767936862
 21
82.8201125392
  0
LINE
  5
31F
100
AcDbEntity
  8
RACCORDO
100
AcDbLine
 62
7
  6
CONTINUOUS
 10
193.5767936862
 20
132.5960324744
 11
193.5767936862
 21
82.7205611159
  0
LINE
  5
320
100
AcDbEntity
  8
RACCORDO
100
AcDbLine
 62
253
  6
CONTINUOUS
 10
193.6805782951
 20
132.5960324744
 11
193.6805782951
 21
82.7205611162
  0
LWPOLYLINE
  5
321
100
AcDbEntity
  8
RACCORDO
100
AcDbPolyline
 62
7
  6
CONTINUOUS
 90
58
 70
0
 10
193.4767936862
 20
82.8201125392
 10
193.4764545165
 20
82.793977604
 10
193.4754305853
 20
82.7678695384
 10
193.4737218927
 20
82.7417883425
 10
193.4713259703
 20
82.7157056238
 10
193.4682452865
 20
82.6896497748
 10
193.4644872457
 20
82.6637059727
 10
193.4600484106
 20
82.6378787491
 10
193.4549322186
 20
82.6121635725
 10
193.4491563861
 20
82.5866320254
 10
193.4427253312
 20
82.5613038759
 10
193.4356346358
 20
82.536159356
 10
193.4278887624
 20
82.5112107437
 10
193.4194845269
 20
82.4864455322
 10
193.4104251135
 20
82.4618762284
 10
193.4007245366
 20
82.4375526303
 10
193.3903762759
 20
82.413466265
 10
193.3793868516
 20
82.3896256054
 10
193.3677898399
 20
82.3661058688
 10
193.3555835528
 20
82.3429121344
 10
193.3427696781
 20
82.320039323
 10
193.3293868554
 20
82.2975474131
 10
193.3154472927
 20
82.2754556745
 10
193.300938782
 20
82.2537448374
 10
193.2858633379
 20
82.2324170717
 10
193.2702097613
 20
82.2114556686
 10
193.2539892515
 20
82.1908773368
 10
193.2372374207
 20
82.1707343721
 10
193.2199476479
 20
82.1510241884
 10
193.2021265541
 20
82.1317493717
 10
193.1838296148
 20
82.1129699763
 10
193.1650587269
 20
82.0946926863
 10
193.1458119934
 20
82.0769108175
 10
193.1261391985
 20
82.0596643717
 10
193.1060562048
 20
82.0429659435
 10
193.0855471498
 20
82.0268029383
 10
193.0646142297
 20
82.0111775735
 10
193.0432395082
 20
81.9960763538
 10
193.0214409216
 20
81.9815127745
 10
192.9992744758
 20
81.9675295385
 10
192.9767346977
 20
81.9541277127
 10
192.9538270604
 20
81.9413062303
 10
192.9306239886
 20
81.9291045937
 10
192.9071332274
 20
81.9175299177
 10
192.8833470318
 20
81.9065750876
 10
192.8593145921
 20
81.896258262
 10
192.8350482134
 20
81.8865836897
 10
192.8105355906
 20
81.8775471219
 10
192.785788998
 20
81.8691539709
 10
192.7607895418
 20
81.8613983984
 10
192.7355561159
 20
81.8542862426
 10
192.7101576765
 20
81.8478404307
 10
192.6845890429
 20
81.8420638924
 10
192.6588553957
 20
81.8369536978
 10
192.6330412333
 20
81.8325239847
 10
192.6071747217
 20
81.8287794655
 10
192.5812276948
 20
81.8257154277
 10
192.5552001527
 20
81.8233318714
  0
LWPOLYLINE
  5
322
100
AcDbEntity
  8
RACCORDO
100
AcDbPolyline
 62
253
  6
CONTINUOUS
 90
49
 70
0
 10
191.9511110262
 20
83.7278586387
 10
191.9507659713
 20
83.7050985341
 10
191.9498141556
 20
83.6825918547
 10
191.9482555791
 20
83.6603386004
 10
191.9460736392
 20
83.6383047517
 10
191.9432849382
 20
83.6165243281
 10
191.9399392832
 20
83.5950993885
 10
191.9360331103
 20
83.5740335694
 10
191.931569983
 20
83.5533232343
 10
191.9266103994
 20
83.5330595334
 10
191.9211501181
 20
83.5132452964
 10
191.91519338
 20
83.4938776936
 10
191.9088134071
 20
83.475039386
 10
191.9020063167
 20
83.4567359298
 10
191.8947759909
 20
83.4389617688
 10
191.8872072992
 20
83.4217828961
 10
191.8793006139
 20
83.4052113468
 10
191.8710555621
 20
83.3892350857
 10
191.8625558962
 20
83.3738840002
 10
191.8538051048
 20
83.3591690253
 10
191.8447996986
 20
83.3450792259
 10
191.8356129631
 20
83.3316116838
 10
191.8262467242
 20
83.3187708736
 10
191.8166991557
 20
83.3065523207
 10
191.8070380638
 20
83.294939684
 10
191.7972655368
 20
83.2839366885
 10
191.7873794864
 20
83.2735396091
 10
191.7774414543
 20
83.2637209291
 10
191.7674561829
 20
83.2544852035
 10
191.7574189297
 20
83.2458278773
 10
191.7473770103
 20
83.2377077694
 10
191.73733155
 20
83.2301252415
 10
191.7272814234
 20
83.2230799319
 10
191.71727057
 20
83.2165295737
 10
191.7072998732
 20
83.2104748396
 10
191.6973684497
 20
83.204915057
 10
191.6875175896
 20
83.1998059411
 10
191.6777527151
 20
83.1951496589
 10
191.6680684042
 20
83.1909440433
 10
191.6584896799
 20
83.1871383088
 10
191.6490234821
 20
83.1837327063
 10
191.6396628711
 20
83.180726985
 10
191.6304120503
 20
83.178069606
 10
191.6212746268
 20
83.1757581003
 10
191.6122469937
 20
83.1737949368
 10
191.6033225334
 20
83.1721359836
 10
191.5944990401
 20
83.17076653
 10
191.5857787197
 20
83.1697012867
 10
191.5771615725
 20
83.1689402535
  0
LWPOLYLINE
  5
323
100
AcDbEntity
  8
RACCORDO
100
AcDbPolyline
 62
253
  6
CONTINUOUS
 90
15
 70
0
 10
192.4992648686
 20
133.4030862234
 10
192.4993824735
 20
133.4079472899
 10
192.4994686226
 20
133.4124990559
 10
192.4995231563
 20
133.4167330792
 10
192.4995459735
 20
133.4206415071
 10
192.4995370317
 20
133.4242170907
 10
192.4994963476
 20
133.4274531985
 10
192.4994239966
 20
133.4303438286
 10
192.499320113
 20
133.4328836196
 10
192.4991848893
 20
133.4350678612
 10
192.4990185765
 20
133.4368925023
 10
192.4988214829
 20
133.4383541587
 10
192.498593974
 20
133.4394501195
 10
192.498336472
 20
133.4401783522
 10
192.4980494542
 20
133.440537506
  0
LINE
  5
324
100
AcDbEntity
  8
RACCORDO
100
AcDbLine
 62
253
  6
CONTINUOUS
 10
192.4989362224
 20
133.3924728083
 11
192.4992648686
 21
133.4030862234
  0
LINE
  5
325
100
AcDbEntity
  8
RACCORDO
100
AcDbLine
 62
253
  6
CONTINUOUS
 10
192.4984851209
 20
133.380737512
 11
192.4989362224
 21
133.3924728083
  0
LINE
  5
326
100
AcDbEntity
  8
RACCORDO
100
AcDbLine
 62
253
  6
CONTINUOUS
 10
192.4979149092
 20
133.3679673549
 11
192.4984851209
 21
133.380737512
  0
LINE
  5
327
100
AcDbEntity
  8
RACCORDO
100
AcDbLine
 62
253
  6
CONTINUOUS
 10
192.4972298156
 20
133.3542570314
 11
192.4979149092
 21
133.3679673549
  0
LINE
  5
328
100
AcDbEntity
  8
RACCORDO
100
AcDbLine
 62
253
  6
CONTINUOUS
 10
191.4746643655
 20
130.3781638019
 11
191.5644756238
 21
132.0066616026
  0
LINE
  5
329
100
AcDbEntity
  8
RACCORDO
100
AcDbLine
 62
253
  6
CONTINUOUS
 10
191.6722973282
 20
130.21108068
 11
191.7441799999
 21
131.5887349519
  0
LINE
  5
32A
100
AcDbEntity
  8
RACCORDO
100
AcDbLine
 62
253
  6
CONTINUOUS
 10
192.4959981082
 20
133.3321528494
 11
192.4972298156
 21
133.3542570314
  0
LINE
  5
32B
100
AcDbEntity
  8
RACCORDO
100
AcDbLine
 62
253
  6
CONTINUOUS
 10
191.67078216
 20
130.1863622239
 11
191.6722973282
 21
130.21108068
  0
LINE
  5
32C
100
AcDbEntity
  8
RACCORDO
100
AcDbLine
 62
253
  6
CONTINUOUS
 10
192.494540072
 20
133.308532008
 11
192.4959981082
 21
133.3321528494
  0
LINE
  5
32D
100
AcDbEntity
  8
RACCORDO
100
AcDbLine
 62
253
  6
CONTINUOUS
 10
192.4928800148
 20
133.2837883012
 11
192.494540072
 21
133.308532008
  0
LINE
  5
32E
100
AcDbEntity
  8
RACCORDO
100
AcDbLine
 62
253
  6
CONTINUOUS
 10
192.4910456121
 20
133.2583342433
 11
192.4928800148
 21
133.2837883012
  0
LINE
  5
32F
100
AcDbEntity
  8
RACCORDO
100
AcDbLine
 62
253
  6
CONTINUOUS
 10
192.4897408161
 20
133.2411795159
 11
192.4910456121
 21
133.2583342433
  0
LINE
  5
330
100
AcDbEntity
  8
RACCORDO
100
AcDbLine
 62
253
  6
CONTINUOUS
 10
191.5771615725
 20
132.147653337
 11
191.5751441189
 21
132.1216289314
  0
LWPOLYLINE
  5
331
100
AcDbEntity
  8
RACCORDO
100
AcDbPolyline
 62
253
  6
CONTINUOUS
 90
10
 70
0
 10
192.5744019271
 20
133.7923498495
 10
192.5729859837
 20
133.7750068292
 10
192.571501355
 20
133.7581926704
 10
192.5699933158
 20
133.7424201334
 10
192.5685078551
 20
133.7281702135
 10
192.5670902729
 20
133.7158774726
 10
192.5657837996
 20
133.705916787
 10
192.564628277
 20
133.6985919152
 10
192.5636589437
 20
133.6941262346
 10
192.5629053601
 20
133.6926559296
  0
LINE
  5
332
100
AcDbEntity
  8
RACCORDO
100
AcDbLine
 62
253
  6
CONTINUOUS
 10
191.5751441189
 20
132.1216289314
 11
191.573039299
 21
132.0960495606
  0
LINE
  5
333
100
AcDbEntity
  8
RACCORDO
100
AcDbLine
 62
253
  6
CONTINUOUS
 10
191.573039299
 20
132.0960495606
 11
191.5708831067
 21
132.071352649
  0
LINE
  5
334
100
AcDbEntity
  8
RACCORDO
100
AcDbLine
 62
253
  6
CONTINUOUS
 10
191.5708831067
 20
132.071352649
 11
191.5687124144
 21
132.0479605304
  0
LINE
  5
335
100
AcDbEntity
  8
RACCORDO
100
AcDbLine
 62
253
  6
CONTINUOUS
 10
191.5687124144
 20
132.0479605304
 11
191.5672755705
 21
132.0332893386
  0
LINE
  5
336
100
AcDbEntity
  8
RACCORDO
100
AcDbLine
 62
253
  6
CONTINUOUS
 10
191.5672755705
 20
132.0332893386
 11
191.5658597172
 21
132.0194880369
  0
LINE
  5
337
100
AcDbEntity
  8
RACCORDO
100
AcDbLine
 62
253
  6
CONTINUOUS
 10
191.5658597172
 20
132.0194880369
 11
191.5644756238
 21
132.0066616024
  0
LWPOLYLINE
  5
338
100
AcDbEntity
  8
RACCORDO
100
AcDbPolyline
 62
253
  6
CONTINUOUS
 90
4
 70
0
 10
122.5919033992
 20
133.7338812115
 10
122.6821385673
 20
133.7590596881
 10
122.7778992274
 20
133.7785492341
 10
122.8791854403
 20
133.7923498495
  0
LWPOLYLINE
  5
339
100
AcDbEntity
  8
RACCORDO
100
AcDbPolyline
 62
253
  6
CONTINUOUS
 90
58
 70
0
 10
122.9555379181
 20
133.4405375071
 10
122.9294317118
 20
133.4381587384
 10
122.9033984765
 20
133.4350973177
 10
122.877456057
 20
133.4313554528
 10
122.8516224558
 20
133.4269358732
 10
122.8259151461
 20
133.4218416744
 10
122.8003510715
 20
133.4160762537
 10
122.7749474015
 20
133.4096435216
 10
122.7497219003
 20
133.4025480163
 10
122.7246922392
 20
133.3947947336
 10
122.6998756716
 20
133.3863891071
 10
122.6752890745
 20
133.3773369445
 10
122.6509493241
 20
133.3676445013
 10
122.6268731066
 20
133.3573185106
 10
122.6030768704
 20
133.3463661177
 10
122.5795768623
 20
133.3347948417
 10
122.5563891119
 20
133.3226126559
 10
122.5335295317
 20
133.3098280039
 10
122.5110138678
 20
133.296449737
 10
122.488857552
 20
133.2824871207
 10
122.467075689
 20
133.267949774
 10
122.4456831603
 20
133.2528476804
 10
122.4246945768
 20
133.2371912483
 10
122.4041242854
 20
133.2209912777
 10
122.3839863547
 20
133.2042589029
 10
122.3642945676
 20
133.1870056754
 10
122.3450623377
 20
133.1692434525
 10
122.3263027263
 20
133.1509843511
 10
122.3080285171
 20
133.1322409009
 10
122.2902522133
 20
133.1130260185
 10
122.2729859617
 20
133.0933528879
 10
122.2562415775
 20
133.0732350677
 10
122.2400304508
 20
133.052686346
 10
122.2243635637
 20
133.0317206965
 10
122.2092515957
 20
133.0103524892
 10
122.1947048752
 20
132.9885964131
 10
122.1807333008
 20
132.9664673211
 10
122.1673464205
 20
132.9439804131
 10
122.1545533554
 20
132.9211510956
 10
122.1423627773
 20
132.8979948872
 10
122.1307830005
 20
132.8745276376
 10
122.1198219427
 20
132.8507654572
 10
122.109487068
 20
132.8267245663
 10
122.0997854559
 20
132.8024214909
 10
122.0907237065
 20
132.7778728334
 10
122.0823079372
 20
132.7530951875
 10
122.0745439041
 20
132.7281055006
 10
122.067436929
 20
132.7029209095
 10
122.0609918388
 20
132.6775584996
 10
122.0552130322
 20
132.6520355038
 10
122.0501045128
 20
132.6263695302
 10
122.0456698258
 20
132.600578391
 10
122.0419120575
 20
132.5746801548
 10
122.0388337007
 20
132.5486921551
 10
122.0364367741
 20
132.5226312058
 10
122.034722973
 20
132.4965148187
 10
122.0336935817
 20
132.4703612014
 10
122.0333493798
 20
132.4441882631
  0
LWPOLYLINE
  5
33A
100
AcDbEntity
  8
RACCORDO
100
AcDbPolyline
 62
253
  6
CONTINUOUS
 90
58
 70
0
 10
122.9638465563
 20
133.2411795159
 10
122.9429412393
 20
133.2392781302
 10
122.9221196195
 20
133.2368344171
 10
122.9013816965
 20
133.2338483764
 10
122.8807124783
 20
133.230317107
 10
122.8601269567
 20
133.2262435101
 10
122.8396701072
 20
133.2216362896
 10
122.8193430223
 20
133.216494402
 10
122.7991446089
 20
133.2108188907
 10
122.7791165652
 20
133.2046215906
 10
122.7592593084
 20
133.1979014308
 10
122.7395724205
 20
133.190659482
 10
122.720096346
 20
133.1829107917
 10
122.7008315515
 20
133.1746543358
 10
122.6817775696
 20
133.1658911384
 10
122.6629734434
 20
133.1566393191
 10
122.6444196508
 20
133.1468978537
 10
122.6261157129
 20
133.1366677665
 10
122.6080992379
 20
133.1259702493
 10
122.5903708536
 20
133.1148043614
 10
122.5729299312
 20
133.1031710437
 10
122.5558121933
 20
133.0910943099
 10
122.5390182936
 20
133.0785732414
 10
122.5225475772
 20
133.065608757
 10
122.506433805
 20
133.0522276264
 10
122.4906777405
 20
133.0384290234
 10
122.4752786189
 20
133.0242137744
 10
122.460267908
 20
133.0096111281
 10
122.4456463891
 20
132.9946202789
 10
122.4314132796
 20
132.9792420325
 10
122.4175977021
 20
132.9635080549
 10
122.4042005378
 20
132.947417654
 10
122.3912209041
 20
132.930971522
 10
122.3786852785
 20
132.9142034014
 10
122.3665945549
 20
132.8971126232
 10
122.3549478381
 20
132.8796998565
 10
122.3437689224
 20
132.8620008512
 10
122.3330587718
 20
132.8440150432
 10
122.322816421
 20
132.8257429967
 10
122.3130627702
 20
132.8072221543
 10
122.3037988062
 20
132.7884519924
 10
122.2950235412
 20
132.7694330345
 10
122.2867549139
 20
132.7502042945
 10
122.2789939725
 20
132.730765392
 10
122.2717396679
 20
132.7111167072
 10
122.265006793
 20
132.6912983952
 10
122.2587963915
 20
132.6713100857
 10
122.2531074189
 20
132.6511521489
 10
122.2479515358
 20
132.6308658507
 10
122.2433298296
 20
132.610450867
 10
122.2392412122
 20
132.589907522
 10
122.235694082
 20
132.5692780538
 10
122.2326895447
 20
132.548561315
 10
122.2302264941
 20
132.527758453
 10
122.22831001
 20
132.5069151487
 10
122.2269417854
 20
132.4860466291
 10
122.2261201271
 20
132.4651376672
 10
122.2258450349
 20
132.4441882631
  0
LINE
  5
33B
100
AcDbEntity
  8
RACCORDO
100
AcDbLine
 62
7
  6
CONTINUOUS
 10
122.8983872197
 20
133.4932617192
 11
122.905854687
 21
133.4938479036
  0
LWPOLYLINE
  5
33C
100
AcDbEntity
  8
RACCORDO
100
AcDbPolyline
 62
253
  6
CONTINUOUS
 90
13
 70
0
 10
122.8791854403
 20
133.7923498495
 10
128.6800850236
 20
134.2096796212
 10
134.4840862168
 20
134.5511406139
 10
140.2909732356
 20
134.8167328276
 10
146.1012028262
 20
135.0064676592
 10
151.9138853038
 20
135.1203337118
 10
157.7267841822
 20
135.1582967948
 10
163.5396794687
 20
135.1203342038
 10
169.35235588
 20
135.0064686431
 10
175.1625839932
 20
134.8167340352
 10
180.9694764762
 20
134.5511416873
 10
186.7734877184
 20
134.2096802921
 10
192.5744019321
 20
133.7923498495
  0
LWPOLYLINE
  5
33D
100
AcDbEntity
  8
RACCORDO
100
AcDbPolyline
 62
253
  6
CONTINUOUS
 90
40
 70
0
 10
192.4897408161
 20
133.2411795159
 10
190.7092317315
 20
133.3760105822
 10
188.9284146748
 20
133.5037415403
 10
187.1472958743
 20
133.6243723901
 10
185.3658817656
 20
133.7379018156
 10
183.584178383
 20
133.8443311329
 10
181.8021913593
 20
133.9436642901
 10
180.0199139431
 20
134.0359024101
 10
178.2373653807
 20
134.12104437
 10
176.4545903121
 20
134.1990907486
 10
174.6715836862
 20
134.2700418584
 10
172.888363083
 20
134.3338973868
 10
171.1050071064
 20
134.3906569756
 10
169.3215387846
 20
134.4403200926
 10
167.5379476498
 20
134.4828872698
 10
165.7542620733
 20
134.5183597449
 10
163.9704845529
 20
134.5467378613
 10
162.1866251628
 20
134.5680212754
 10
160.4027236434
 20
134.5822101945
 10
158.6187798232
 20
134.5893046873
 10
156.8348064539
 20
134.589304685
 10
155.0508626627
 20
134.5822101881
 10
153.2669612247
 20
134.5680212662
 10
151.4831019448
 20
134.5467378497
 10
149.6993244925
 20
134.5183597305
 10
147.9156388832
 20
134.4828872506
 10
146.1320476734
 20
134.440320068
 10
144.3485793394
 20
134.3906569479
 10
142.565223491
 20
134.3338973609
 10
140.7820030789
 20
134.2700418365
 10
138.9989965796
 20
134.1990907285
 10
137.2162215266
 20
134.1210443484
 10
135.4336729153
 20
134.0359023846
 10
133.6513953981
 20
133.9436642569
 10
131.8694081402
 20
133.844331082
 10
130.0877044714
 20
133.7379017431
 10
128.3062902791
 20
133.6243723101
 10
126.5251716824
 20
133.5037414728
 10
124.7443550321
 20
133.3760105415
 10
122.9638465563
 20
133.2411795159
  0
LWPOLYLINE
  5
33E
100
AcDbEntity
  8
RACCORDO
100
AcDbPolyline
 62
253
  6
CONTINUOUS
 90
40
 70
0
 10
192.4980494543
 20
133.4405375071
 10
190.7171499188
 20
133.5754300387
 10
188.9358989354
 20
133.7032189538
 10
187.1543246464
 20
133.8239042905
 10
185.3724773717
 20
133.9374847944
 10
183.5903630605
 20
134.0439623054
 10
181.8079432369
 20
134.1433408677
 10
180.0252327525
 20
134.2356208193
 10
178.2422728708
 20
134.3208011821
 10
176.4590646628
 20
134.3988830648
 10
174.6756248091
 20
134.4698665871
 10
172.8919926947
 20
134.5337510137
 10
171.1082034293
 20
134.5905360961
 10
169.3243017664
 20
134.6402215061
 10
167.5402990085
 20
134.6828080103
 10
165.7561800721
 20
134.7182967322
 10
163.9719691499
 20
134.7466876366
 10
162.1876980559
 20
134.7679806528
 10
160.4033631181
 20
134.7821761159
 10
158.6189858638
 20
134.7892738999
 10
156.8346007585
 20
134.7892738984
 10
155.0502235329
 20
134.7821761116
 10
153.2658886761
 20
134.7679806464
 10
151.4816176919
 20
134.7466876292
 10
149.6974068373
 20
134.7182967239
 10
147.9132878675
 20
134.6828079995
 10
146.1292850341
 20
134.6402214914
 10
144.3453833585
 20
134.5905360786
 10
142.5615942209
 20
134.5337509983
 10
140.7779622972
 20
134.469866577
 10
138.9945225697
 20
134.3988830589
 10
137.2113143767
 20
134.3208011764
 10
135.4283544456
 20
134.2356208106
 10
133.6456438596
 20
134.1433408528
 10
131.8632238138
 20
134.0439622766
 10
130.0811092282
 20
133.9374847467
 10
128.2992618445
 20
133.8239042326
 10
126.5176876843
 20
133.7032189013
 10
124.7364369948
 20
133.5754300048
 10
122.9555379181
 20
133.4405375071
  0
LINE
  5
33F
100
AcDbEntity
  8
RACCORDO
100
AcDbLine
 62
7
  6
CONTINUOUS
 10
192.5477326855
 20
133.4938479036
 11
192.5552001528
 21
133.4932617191
  0
LWPOLYLINE
  5
340
100
AcDbEntity
  8
RACCORDO
100
AcDbPolyline
 62
7
  6
CONTINUOUS
 90
58
 70
0
 10
192.5552001527
 20
133.4932617192
 10
192.5812283087
 20
133.4908781163
 10
192.6071760742
 20
133.4878139618
 10
192.6330434494
 20
133.4840692557
 10
192.6588585514
 20
133.4796393125
 10
192.6845932631
 20
133.4745288178
 10
192.7101632324
 20
133.4687518274
 10
192.7355636393
 20
133.4623052811
 10
192.7607993039
 20
133.4551922392
 10
192.7858003353
 20
133.447435938
 10
192.8105474105
 20
133.4390423199
 10
192.8350598526
 20
133.4300054426
 10
192.8593257394
 20
133.4203307153
 10
192.8833572981
 20
133.4100139767
 10
192.9071423017
 20
133.3990593881
 10
192.9306321469
 20
133.3874848432
 10
192.9538347542
 20
133.3752831824
 10
192.9767422031
 20
133.3624615652
 10
192.9992821291
 20
133.3490593636
 10
193.0214493133
 20
133.3350753107
 10
193.0432489745
 20
133.3205106735
 10
193.0646244053
 20
133.3054086251
 10
193.085557376
 20
133.2897828302
 10
193.1060661163
 20
133.2736196242
 10
193.1261486073
 20
133.2569211868
 10
193.1458206377
 20
133.2396750347
 10
193.1650664188
 20
133.2218936511
 10
193.183836566
 20
133.2036166656
 10
193.202133127
 20
133.1848372832
 10
193.2199540541
 20
133.1655622988
 10
193.2372438201
 20
133.1458517259
 10
193.253995899
 20
133.1257079953
 10
193.2702168167
 20
133.1051286762
 10
193.2858706236
 20
133.0841664902
 10
193.3009460148
 20
133.0628382298
 10
193.3154542952
 20
133.0411271025
 10
193.32939343
 20
133.0190354518
 10
193.3427754839
 20
132.9965443098
 10
193.3555883922
 20
132.9736726445
 10
193.3677939261
 20
132.9504797031
 10
193.3793905764
 20
132.9269601385
 10
193.3903798523
 20
132.9031192979
 10
193.4007280525
 20
132.8790324693
 10
193.4104286875
 20
132.8547079476
 10
193.4194882469
 20
132.8301374379
 10
193.4278924984
 20
132.8053713439
 10
193.4356381767
 20
132.7804222582
 10
193.4427285471
 20
132.7552775883
 10
193.4491591727
 20
132.7299499597
 10
193.4549344018
 20
132.7044200379
 10
193.4600498861
 20
132.6787071574
 10
193.4644881434
 20
132.6528819485
 10
193.4682458376
 20
132.6269395103
 10
193.4713263049
 20
132.6008847435
 10
193.4737220708
 20
132.574802981
 10
193.4754306439
 20
132.5487226669
 10
193.4764545157
 20
132.522615357
 10
193.4767936862
 20
132.4964810514
  0
LWPOLYLINE
  5
341
100
AcDbEntity
  8
RACCORDO
100
AcDbPolyline
 62
253
  6
CONTINUOUS
 90
49
 70
0
 10
191.5644756238
 20
132.0066616026
 10
191.5687133839
 20
132.0061333763
 10
191.5730214684
 20
132.0053816254
 10
191.5773975101
 20
132.0044026869
 10
191.5818402637
 20
132.0031999562
 10
191.5863454961
 20
132.0017626216
 10
191.5909060063
 20
132.0000658314
 10
191.5955146916
 20
131.9981079392
 10
191.6001717026
 20
131.9958836164
 10
191.6048802188
 20
131.9933622213
 10
191.6096380614
 20
131.9905391043
 10
191.6144383717
 20
131.987411013
 10
191.6192766541
 20
131.983948925
 10
191.624148402
 20
131.9801479063
 10
191.629046934
 20
131.9760051413
 10
191.6339639398
 20
131.9714948511
 10
191.6388916449
 20
131.966614194
 10
191.6438245168
 20
131.9613590183
 10
191.6487569586
 20
131.9557016405
 10
191.6536822067
 20
131.9496366597
 10
191.658591069
 20
131.9431628925
 10
191.6634736036
 20
131.9362590869
 10
191.6683210935
 20
131.9289205
 10
191.6731239084
 20
131.9211465502
 10
191.6778702405
 20
131.9129226832
 10
191.6825491806
 20
131.904246617
 10
191.6871511529
 20
131.895117081
 10
191.6916657814
 20
131.8855214904
 10
191.696082327
 20
131.8754551272
 10
191.7003885457
 20
131.864920884
 10
191.7045712978
 20
131.8539181359
 10
191.7086196151
 20
131.8424398756
 10
191.7125196346
 20
131.8304937438
 10
191.7162542877
 20
131.8181021895
 10
191.7198114814
 20
131.8052619396
 10
191.7231786121
 20
131.7919803791
 10
191.7263393595
 20
131.7782974382
 10
191.7292815378
 20
131.7642151672
 10
191.731994239
 20
131.7497392563
 10
191.7344648539
 20
131.7349164443
 10
191.736682284
 20
131.7197505052
 10
191.7386364231
 20
131.7042485722
 10
191.7403176914
 20
131.688463451
 10
191.741716124
 20
131.6724013055
 10
191.7428227423
 20
131.6560697016
 10
191.7436305944
 20
131.6395243274
 10
191.7441318489
 20
131.6227891687
 10
191.7443175926
 20
131.6058564737
 10
191.7441799999
 20
131.5887349519
  0
LINE
  5
342
100
AcDbEntity
  8
RACCORDO
100
AcDbLine
 62
253
  6
CONTINUOUS
 10
192.5744019321
 20
133.7923498495
 11
192.6722148847
 21
133.7791842502
  0
LWPOLYLINE
  5
343
100
AcDbEntity
  8
RACCORDO
100
AcDbPolyline
 62
253
  6
CONTINUOUS
 90
3
 70
0
 10
192.6722148847
 20
133.7791842502
 10
192.7647141241
 20
133.7607711571
 10
192.8518997065
 20
133.7371105703
  0
LWPOLYLINE
  5
344
100
AcDbEntity
  8
RACCORDO
100
AcDbPolyline
 62
253
  6
CONTINUOUS
 90
16
 70
0
 10
192.8518997065
 20
133.7371105703
 10
192.9335074918
 20
133.707671892
 10
193.0098017254
 20
133.6729857199
 10
193.0815750306
 20
133.6346438474
 10
193.1487895213
 20
133.5930762168
 10
193.2114831569
 20
133.5478528856
 10
193.2705623125
 20
133.4992758204
 10
193.3262193888
 20
133.4476454901
 10
193.3782620327
 20
133.3926614258
 10
193.4270194771
 20
133.3337241861
 10
193.4728420639
 20
133.2709587928
 10
193.5153794865
 20
133.2042402242
 10
193.5539100048
 20
133.1325939742
 10
193.588894063
 20
133.0557416403
 10
193.6198712505
 20
132.973961625
 10
193.6447385541
 20
132.8871146306
  0
LINE
  5
345
100
AcDbEntity
  8
RACCORDO
100
AcDbLine
 62
253
  6
CONTINUOUS
 10
193.6805782951
 20
82.7205611162
 11
193.6750945776
 21
82.621933177
  0
LWPOLYLINE
  5
346
100
AcDbEntity
  8
RACCORDO
100
AcDbPolyline
 62
253
  6
CONTINUOUS
 90
3
 70
0
 10
193.6750945776
 20
82.621933177
 10
193.6639582522
 20
82.5282073784
 10
193.6471693113
 20
82.4393837204
  0
LWPOLYLINE
  5
347
100
AcDbEntity
  8
RACCORDO
100
AcDbPolyline
 62
253
  6
CONTINUOUS
 90
16
 70
0
 10
193.6471693113
 20
82.4393837204
 10
193.6241755257
 20
82.355685502
 10
193.5955290968
 20
82.2768894242
 10
193.5628866639
 20
82.2023255899
 10
193.5266753806
 20
82.1320656699
 10
193.4864680617
 20
82.0660379934
 10
193.4426398423
 20
82.0033576511
 10
193.3955062606
 20
81.9438562805
 10
193.3447517407
 20
81.8877022441
 10
193.2898047432
 20
81.8345157193
 10
193.2308173982
 20
81.7839568503
 10
193.1676375202
 20
81.7363654929
 10
193.0992370824
 20
81.6923813925
 10
193.0253749378
 20
81.6515239065
 10
192.9462921455
 20
81.6142736775
 10
192.8616839732
 20
81.5827123791
  0
LWPOLYLINE
  5
348
100
AcDbEntity
  8
RACCORDO
100
AcDbPolyline
 62
253
  6
CONTINUOUS
 90
25
 70
0
 10
99.6962512955
 20
149.6582967953
 10
99.616605811
 20
149.6574828125
 10
99.5333969818
 20
149.6505177429
 10
99.4466248659
 20
149.6374015865
 10
99.3551695681
 20
149.6185634647
 10
99.2601511216
 20
149.5935742562
 10
99.1649294204
 20
149.5611465965
 10
99.0694708054
 20
149.5207305006
 10
98.9738089454
 20
149.4728759535
 10
98.8814046002
 20
149.4179455455
 10
98.7925307149
 20
149.3554390181
 10
98.7069142268
 20
149.2858566298
 10
98.6271967774
 20
149.211061746
 10
98.5538465198
 20
149.1308051731
 10
98.4863951192
 20
149.0453361047
 10
98.4260794344
 20
148.9572654865
 10
98.3733128702
 20
148.866390436
 10
98.3276818595
 20
148.7729138357
 10
98.2891828022
 20
148.6800552797
 10
98.25827701
 20
148.5882963091
 10
98.2345030711
 20
148.4971553827
 10
98.2164733214
 20
148.4084074711
 10
98.2037251973
 20
148.3226442311
 10
98.1967212282
 20
148.2392740058
 10
98.1954614061
 20
148.1582967953
  0
LINE
  5
349
100
AcDbEntity
  8
RACCORDO
100
AcDbLine
 62
253
  6
CONTINUOUS
 10
98.1954614061
 20
148.1582967953
 11
97.7267936862
 21
148.1582967953
  0
LINE
  5
34A
100
AcDbEntity
  8
RACCORDO
100
AcDbLine
 62
253
  6
CONTINUOUS
 10
217.2581259664
 20
148.1582967953
 11
217.7267936862
 21
148.1582967952
  0
LINE
  5
34B
100
AcDbEntity
  8
RACCORDO
100
AcDbLine
 62
253
  6
CONTINUOUS
 10
215.757336077
 20
149.6582967953
 11
99.6962512955
 21
149.6582967953
  0
LINE
  5
34C
100
AcDbEntity
  8
RACCORDO
100
AcDbLine
 62
7
  6
CONTINUOUS
 10
215.7267936862
 20
150.1582967953
 11
99.7267936862
 21
150.1582967953
  0
LWPOLYLINE
  5
34D
100
AcDbEntity
  8
RACCORDO
100
AcDbPolyline
 62
253
  6
CONTINUOUS
 90
4
 70
0
 10
193.6447385541
 20
132.8871146306
 10
193.6627949829
 20
132.7951542244
 10
193.6747415604
 20
132.698126839
 10
193.6805782951
 20
132.5960324744
  0
LWPOLYLINE
  5
34E
100
AcDbEntity
  8
RACCORDO
100
AcDbPolyline
 62
253
  6
CONTINUOUS
 90
25
 70
0
 10
217.2581259664
 20
148.1582967953
 10
217.2568240611
 20
148.2396308977
 10
217.2497745665
 20
148.3232698664
 10
217.2369774745
 20
148.4092137014
 10
217.2188864024
 20
148.4980400761
 10
217.1950476986
 20
148.5891713171
 10
217.1641004355
 20
148.6808744042
 10
217.1255877101
 20
148.7736340322
 10
217.0799663256
 20
148.8669655063
 10
217.0272458917
 20
148.957681722
 10
216.9670212589
 20
149.0455792406
 10
216.8996974156
 20
149.1308615009
 10
216.8264991805
 20
149.2109517151
 10
216.7469671512
 20
149.2856057575
 10
216.6615605497
 20
149.3550677538
 10
216.5728821818
 20
149.4174932931
 10
216.4806624936
 20
149.4723923058
 10
216.3851709212
 20
149.5202548614
 10
216.2898188595
 20
149.5607067581
 10
216.1946369657
 20
149.593206562
 10
216.0995945901
 20
149.6182957069
 10
216.0080112913
 20
149.6372242928
 10
215.9209936563
 20
149.6504090194
 10
215.8374352326
 20
149.6574331869
 10
215.757336077
 20
149.6582967953
  0
LWPOLYLINE
  5
34F
100
AcDbEntity
  8
RACCORDO
100
AcDbPolyline
 62
253
  6
CONTINUOUS
 90
13
 70
0
 10
215.757336077
 20
149.6582967953
 10
215.7570747825
 20
149.7235598957
 10
215.7562953701
 20
149.7877063257
 10
215.7550111756
 20
149.849638522
 10
215.7532441721
 20
149.9082968077
 10
215.7510245933
 20
149.9626775229
 10
215.7483904171
 20
150.0118501985
 10
215.7453867148
 20
150.0549734764
 10
215.7420648807
 20
150.0913095058
 10
215.7384817523
 20
150.1202365673
 10
215.734698638
 20
150.1412597114
 10
215.7307802678
 20
150.1540192268
 10
215.7267936862
 20
150.1582967953
  0
LINE
  5
350
100
AcDbEntity
  8
RACCORDO
100
AcDbLine
 62
253
  6
CONTINUOUS
 10
217.2581259664
 20
67.1582967953
 11
217.2581259664
 21
148.1582967953
  0
LINE
  5
351
100
AcDbEntity
  8
RACCORDO
100
AcDbLine
 62
7
  6
CONTINUOUS
 10
217.7267936862
 20
67.1582967953
 11
217.7267936862
 21
148.1582967953
  0
LWPOLYLINE
  5
352
100
AcDbEntity
  8
RACCORDO
100
AcDbPolyline
 62
253
  6
CONTINUOUS
 90
13
 70
0
 10
215.757336077
 20
65.6582967953
 10
215.7570747838
 20
65.5930337779
 10
215.7562953736
 20
65.5288874105
 10
215.7550111819
 20
65.4669552543
 10
215.753244181
 20
65.4082969853
 10
215.7510246046
 20
65.3539162655
 10
215.7483904299
 20
65.3047435694
 10
215.7453867282
 20
65.2616202584
 10
215.7420648935
 20
65.2252841891
 10
215.7384817634
 20
65.1963570884
 10
215.7346986463
 20
65.1753339111
 10
215.7307802724
 20
65.1625743725
 10
215.7267936862
 20
65.1582967953
  0
LINE
  5
353
100
AcDbEntity
  8
DRAFT
100
AcDbLine
 62
7
  6
CONTINUOUS
 10
72.912338077
 20
66.1677667165
 11
75.0242581087
 21
66.3525324277
  0
LINE
  5
354
100
AcDbEntity
  8
RACCORDO
100
AcDbLine
 62
7
  6
CONTINUOUS
 10
66.1223557468
 20
65.1582967953
 11
72.803929294
 21
65.1582967953
  0
LINE
  5
355
100
AcDbEntity
  8
RACCORDO
100
AcDbLine
 62
253
  6
CONTINUOUS
 10
65.6223557468
 20
65.6582967953
 11
67.3964036922
 21
65.6582967953
  0
LINE
  5
356
100
AcDbEntity
  8
RACCORDO
100
AcDbLine
 62
253
  6
CONTINUOUS
 10
67.4894428717
 20
67.1582967953
 11
72.9290411697
 21
67.1582967953
  0
LINE
  5
357
100
AcDbEntity
  8
SMUSSO
100
AcDbLine
 62
253
  6
CONTINUOUS
 10
72.9290411697
 20
67.1582967953
 11
75.5223557468
 21
67.1582967953
  0
LINE
  5
358
100
AcDbEntity
  8
DRAFT
100
AcDbLine
 62
7
  6
CONTINUOUS
 10
65.78384502
 20
80.5252982492
 11
65.7226332176
 21
80.5263667052
  0
LINE
  5
359
100
AcDbEntity
  8
RACCORDO
100
AcDbLine
 62
253
  6
CONTINUOUS
 10
66.3029546112
 20
82.7205611162
 11
66.3028829693
 21
82.7205611162
  0
LINE
  5
35A
100
AcDbEntity
  8
RACCORDO
100
AcDbLine
 62
253
  6
CONTINUOUS
 10
66.1859124113
 20
82.8724053275
 11
66.3028829693
 21
82.8724053275
  0
LINE
  5
35B
100
AcDbEntity
  8
RACCORDO
100
AcDbLine
 62
253
  6
CONTINUOUS
 10
66.1390316344
 20
83.7278586387
 11
66.1389018079
 21
83.7278586387
  0
LWPOLYLINE
  5
35C
100
AcDbEntity
  8
RACCORDO
100
AcDbPolyline
 62
253
  6
CONTINUOUS
 90
13
 70
0
 10
67.3964036922
 20
65.6582967953
 10
67.4006732632
 20
65.5930337779
 10
67.4134089269
 20
65.5288874105
 10
67.4343927792
 20
65.4669552543
 10
67.4632657876
 20
65.4082969853
 10
67.4995339327
 20
65.3539162655
 10
67.5425766601
 20
65.3047435694
 10
67.5916575013
 20
65.2616202584
 10
67.6459366722
 20
65.2252841891
 10
67.7044854387
 20
65.1963570884
 10
67.766302014
 20
65.1753339111
 10
67.8303287005
 20
65.1625743725
 10
67.8954699827
 20
65.1582967953
  0
LWPOLYLINE
  5
35D
100
AcDbEntity
  8
RACCORDO
100
AcDbPolyline
 62
253
  6
CONTINUOUS
 90
13
 70
0
 10
67.3964036922
 20
149.6582967953
 10
67.400673274
 20
149.7235598957
 10
67.4134089658
 20
149.7877063257
 10
67.4343928559
 20
149.849638522
 10
67.4632659041
 20
149.9082968077
 10
67.4995340842
 20
149.9626775229
 10
67.542576837
 20
150.0118501985
 10
67.5916576888
 20
150.0549734764
 10
67.6459368523
 20
150.0913095058
 10
67.7044855955
 20
150.1202365673
 10
67.7663021329
 20
150.1412597114
 10
67.8303287664
 20
150.1540192268
 10
67.8954699827
 20
150.1582967953
  0
LINE
  5
35E
100
AcDbEntity
  8
RACCORDO
100
AcDbLine
 62
7
  6
CONTINUOUS
 10
66.1291698041
 20
132.1118346775
 11
66.1292718733
 21
132.1108047774
  0
LINE
  5
35F
100
AcDbEntity
  8
RACCORDO
100
AcDbLine
 62
7
  6
CONTINUOUS
 10
66.1292718733
 20
132.1108047774
 11
66.1294032946
 21
132.1093775661
  0
LWPOLYLINE
  5
360
100
AcDbEntity
  8
RACCORDO
100
AcDbPolyline
 62
253
  6
CONTINUOUS
 90
4
 70
0
 10
66.2617056557
 20
133.7923498495
 10
66.2631793403
 20
133.7750068292
 10
66.2676556016
 20
133.7581926704
 10
66.2710475858
 20
133.7500014506
  0
LINE
  5
361
100
AcDbEntity
  8
RACCORDO
100
AcDbLine
 62
7
  6
CONTINUOUS
 10
66.1294032946
 20
132.1093775661
 11
66.1295578546
 21
132.1075776695
  0
LINE
  5
362
100
AcDbEntity
  8
RACCORDO
100
AcDbLine
 62
7
  6
CONTINUOUS
 10
66.1295578546
 20
132.1075776695
 11
66.1297287168
 21
132.1054489231
  0
LWPOLYLINE
  5
363
100
AcDbEntity
  8
RACCORDO
100
AcDbPolyline
 62
7
  6
CONTINUOUS
 90
12
 70
0
 10
65.5226847677
 20
133.4156925665
 10
65.5232281173
 20
133.4085000698
 10
65.5240235849
 20
133.4013847558
 10
65.5250645071
 20
133.3943548145
 10
65.5263439176
 20
133.3874185852
 10
65.5278544643
 20
133.3805845552
 10
65.5295884061
 20
133.3738610599
 10
65.5315384287
 20
133.3672535783
 10
65.5336977742
 20
133.3607657139
 10
65.5360592536
 20
133.3544025126
 10
65.5386149569
 20
133.3481703748
 10
65.5413571764
 20
133.3420743981
  0
LWPOLYLINE
  5
364
100
AcDbEntity
  8
RACCORDO
100
AcDbPolyline
 62
253
  6
CONTINUOUS
 90
16
 70
0
 10
66.1696663134
 20
133.1566423776
 10
66.1689719835
 20
133.1658939514
 10
66.1682688084
 20
133.1746569136
 10
66.1675582431
 20
133.1829131419
 10
66.1668402833
 20
133.1906616108
 10
66.1661149591
 20
133.1979033458
 10
66.1653837721
 20
133.2046233011
 10
66.1646467174
 20
133.2108204048
 10
66.1639038214
 20
133.2164957287
 10
66.163156627
 20
133.2216374425
 10
66.1624050966
 20
133.2262445188
 10
66.1616492845
 20
133.2303179849
 10
66.1608908665
 20
133.2338490925
 10
66.1601304033
 20
133.2368349255
 10
66.1593673444
 20
133.2392784
 10
66.1586016952
 20
133.2411795159
  0
LINE
  5
365
100
AcDbEntity
  8
RACCORDO
100
AcDbLine
 62
7
  6
CONTINUOUS
 10
66.1297287168
 20
132.1054489231
 11
66.129913289
 21
132.1029954539
  0
LINE
  5
366
100
AcDbEntity
  8
RACCORDO
100
AcDbLine
 62
253
  6
CONTINUOUS
 10
66.2796650737
 20
133.6422882794
 11
66.2804576742
 21
133.6346438474
  0
LINE
  5
367
100
AcDbEntity
  8
RACCORDO
100
AcDbLine
 62
7
  6
CONTINUOUS
 10
66.129913289
 20
132.1029954539
 11
66.1302104677
 21
132.0987279809
  0
LINE
  5
368
100
AcDbEntity
  8
RACCORDO
100
AcDbLine
 62
253
  6
CONTINUOUS
 10
66.1710283424
 20
133.1366713496
 11
66.1696663134
 21
133.1566423776
  0
LINE
  5
369
100
AcDbEntity
  8
RACCORDO
100
AcDbLine
 62
7
  6
CONTINUOUS
 10
66.2786584809
 20
133.6566182039
 11
66.2806714165
 21
133.6270430751
  0
LINE
  5
36A
100
AcDbEntity
  8
RACCORDO
100
AcDbLine
 62
7
  6
CONTINUOUS
 10
66.1302104677
 20
132.0987279809
 11
66.1305253113
 21
132.0937968601
  0
LINE
  5
36B
100
AcDbEntity
  8
RACCORDO
100
AcDbLine
 62
253
  6
CONTINUOUS
 10
66.2804576742
 20
133.6346438474
 11
66.2806714165
 21
133.6270430751
  0
LINE
  5
36C
100
AcDbEntity
  8
RACCORDO
100
AcDbLine
 62
253
  6
CONTINUOUS
 10
66.2816744627
 20
133.6108986973
 11
66.2829632158
 21
133.5930762168
  0
LINE
  5
36D
100
AcDbEntity
  8
RACCORDO
100
AcDbLine
 62
253
  6
CONTINUOUS
 10
66.1723506159
 20
133.1148085094
 11
66.1710283424
 21
133.1366713496
  0
LINE
  5
36E
100
AcDbEntity
  8
RACCORDO
100
AcDbLine
 62
7
  6
CONTINUOUS
 10
66.2806714165
 20
133.6270430751
 11
66.2826727296
 21
133.5938524801
  0
LINE
  5
36F
100
AcDbEntity
  8
RACCORDO
100
AcDbLine
 62
7
  6
CONTINUOUS
 10
66.1305253113
 20
132.0937968601
 11
66.1308519763
 21
132.0882386953
  0
LINE
  5
370
100
AcDbEntity
  8
RACCORDO
100
AcDbLine
 62
253
  6
CONTINUOUS
 10
66.1302766726
 20
132.1060722489
 11
66.1309929822
 21
132.0934426566
  0
LINE
  5
371
100
AcDbEntity
  8
RACCORDO
100
AcDbLine
 62
253
  6
CONTINUOUS
 10
66.1736302918
 20
133.0910990622
 11
66.1723506159
 21
133.1148085094
  0
LINE
  5
372
100
AcDbEntity
  8
RACCORDO
100
AcDbLine
 62
7
  6
CONTINUOUS
 10
66.2826727296
 20
133.5938524801
 11
66.2846490732
 21
133.5570349679
  0
LINE
  5
373
100
AcDbEntity
  8
RACCORDO
100
AcDbLine
 62
7
  6
CONTINUOUS
 10
66.1308519763
 20
132.0882386953
 11
66.1312995732
 21
132.0798847683
  0
LINE
  5
374
100
AcDbEntity
  8
RACCORDO
100
AcDbLine
 62
253
  6
CONTINUOUS
 10
66.1309929822
 20
132.0934426566
 11
66.1317135085
 21
132.0787897176
  0
LINE
  5
375
100
AcDbEntity
  8
RACCORDO
100
AcDbLine
 62
253
  6
CONTINUOUS
 10
66.1748632406
 20
133.0656141689
 11
66.1736302918
 21
133.0910990622
  0
LINE
  5
376
100
AcDbEntity
  8
RACCORDO
100
AcDbLine
 62
7
  6
CONTINUOUS
 10
66.1312995732
 20
132.0798847683
 11
66.1317550086
 21
132.0704988266
  0
LINE
  5
377
100
AcDbEntity
  8
RACCORDO
100
AcDbLine
 62
7
  6
CONTINUOUS
 10
66.2846490732
 20
133.5570349679
 11
66.2865855113
 21
133.5166086445
  0
LINE
  5
378
100
AcDbEntity
  8
RACCORDO
100
AcDbLine
 62
253
  6
CONTINUOUS
 10
66.1760455912
 20
133.0384350502
 11
66.1748632406
 21
133.0656141689
  0
LINE
  5
379
100
AcDbEntity
  8
RACCORDO
100
AcDbLine
 62
253
  6
CONTINUOUS
 10
66.1317135085
 20
132.0787897176
 11
66.1317550086
 21
132.0704988266
  0
LINE
  5
37A
100
AcDbEntity
  8
RACCORDO
100
AcDbLine
 62
7
  6
CONTINUOUS
 10
66.1317550086
 20
132.0704988266
 11
66.1323258196
 21
132.057404633
  0
LINE
  5
37B
100
AcDbEntity
  8
RACCORDO
100
AcDbLine
 62
7
  6
CONTINUOUS
 10
66.2865855113
 20
133.5166086445
 11
66.2884696687
 21
133.4725786409
  0
LWPOLYLINE
  5
37C
100
AcDbEntity
  8
RACCORDO
100
AcDbPolyline
 62
7
  6
CONTINUOUS
 90
5
 70
0
 10
65.6223557474
 20
135.1582967948
 10
65.6226755397
 20
135.1503057876
 10
65.6243352527
 20
135.1384982438
 10
65.6273885382
 20
135.1269722169
 10
65.6317919743
 20
135.115891571
  0
LINE
  5
37D
100
AcDbEntity
  8
RACCORDO
100
AcDbLine
 62
253
  6
CONTINUOUS
 10
66.1324343776
 20
132.0619693281
 11
66.1323258196
 21
132.057404633
  0
LINE
  5
37E
100
AcDbEntity
  8
RACCORDO
100
AcDbLine
 62
7
  6
CONTINUOUS
 10
66.1323258196
 20
132.057404633
 11
66.133005594
 21
132.0397616719
  0
LINE
  5
37F
100
AcDbEntity
  8
RACCORDO
100
AcDbLine
 62
253
  6
CONTINUOUS
 10
66.1777180633
 20
132.9946270318
 11
66.1760455912
 21
133.0384350502
  0
LINE
  5
380
100
AcDbEntity
  8
RACCORDO
100
AcDbLine
 62
7
  6
CONTINUOUS
 10
66.2884696687
 20
133.4725786409
 11
66.2911740938
 21
133.3998171646
  0
LINE
  5
381
100
AcDbEntity
  8
RACCORDO
100
AcDbLine
 62
253
  6
CONTINUOUS
 10
66.1327929091
 20
132.0527129017
 11
66.133005594
 21
132.0397616719
  0
LINE
  5
382
100
AcDbEntity
  8
RACCORDO
100
AcDbLine
 62
253
  6
CONTINUOUS
 10
66.1332288201
 20
132.0334378381
 11
66.1335044582
 21
132.0324644205
  0
LINE
  5
383
100
AcDbEntity
  8
RACCORDO
100
AcDbLine
 62
7
  6
CONTINUOUS
 10
66.133005594
 20
132.0397616719
 11
66.1337782125
 21
132.0166695797
  0
LINE
  5
384
100
AcDbEntity
  8
RACCORDO
100
AcDbLine
 62
253
  6
CONTINUOUS
 10
66.1792592741
 20
132.9474247624
 11
66.1777180633
 21
132.9946270318
  0
LINE
  5
385
100
AcDbEntity
  8
RACCORDO
100
AcDbLine
 62
253
  6
CONTINUOUS
 10
66.1338551518
 20
132.0214510456
 11
66.1337782125
 21
132.0166695797
  0
LINE
  5
386
100
AcDbEntity
  8
RACCORDO
100
AcDbLine
 62
7
  6
CONTINUOUS
 10
66.2911740938
 20
133.3998171646
 11
66.2936952513
 21
133.3191530005
  0
LINE
  5
387
100
AcDbEntity
  8
RACCORDO
100
AcDbLine
 62
253
  6
CONTINUOUS
 10
66.2933854322
 20
133.3337241861
 11
66.2936952513
 21
133.3191530005
  0
LINE
  5
388
100
AcDbEntity
  8
RACCORDO
100
AcDbLine
 62
7
  6
CONTINUOUS
 10
66.1337782125
 20
132.0166695797
 11
66.1346239568
 21
131.9871017838
  0
LINE
  5
389
100
AcDbEntity
  8
RACCORDO
100
AcDbLine
 62
253
  6
CONTINUOUS
 10
66.1806592746
 20
132.8971196877
 11
66.1792592741
 21
132.9474247624
  0
LINE
  5
38A
100
AcDbEntity
  8
RACCORDO
100
AcDbLine
 62
253
  6
CONTINUOUS
 10
66.1345441894
 20
131.9976177233
 11
66.1346239568
 21
131.9871017838
  0
LWPOLYLINE
  5
38B
100
AcDbEntity
  8
RACCORDO
100
AcDbPolyline
 62
253
  6
CONTINUOUS
 90
30
 70
0
 10
66.1586016954
 20
82.0754140746
 10
66.158811451
 20
82.0668287524
 10
66.1593915047
 20
82.0582593533
 10
66.1603407806
 20
82.0497217708
 10
66.1616575181
 20
82.0412318395
 10
66.1633392751
 20
82.0328053053
 10
66.1653829324
 20
82.0244577969
 10
66.1677846998
 20
82.016204796
 10
66.1705401227
 20
82.0080616094
 10
66.1736440907
 20
82.0000433401
 10
66.177090847
 20
81.9921648593
 10
66.180873999
 20
81.9844407791
 10
66.18498653
 20
81.9768854252
 10
66.1894208128
 20
81.9695128104
 10
66.1941686231
 20
81.9623366083
 10
66.1992211552
 20
81.9553701287
 10
66.2045690384
 20
81.948626292
 10
66.2102023541
 20
81.9421176059
 10
66.2161106542
 20
81.9358561419
 10
66.2222829808
 20
81.929853513
 10
66.2287078862
 20
81.9241208522
 10
66.2353734543
 20
81.9186687916
 10
66.2422673227
 20
81.9135074431
 10
66.2493767053
 20
81.9086463794
 10
66.2566884166
 20
81.9040946161
 10
66.2641888957
 20
81.8998605953
 10
66.2718642317
 20
81.8959521697
 10
66.2797001893
 20
81.8923765883
 10
66.2876822352
 20
81.8891404824
 10
66.290161785
 20
81.8882570651
  0
LINE
  5
38C
100
AcDbEntity
  8
RACCORDO
100
AcDbLine
 62
7
  6
CONTINUOUS
 10
66.2936952513
 20
133.3191530005
 11
66.2959920622
 21
133.2308737388
  0
LINE
  5
38D
100
AcDbEntity
  8
RACCORDO
100
AcDbLine
 62
7
  6
CONTINUOUS
 10
66.1346239568
 20
131.9871017838
 11
66.1355189945
 21
131.9497641316
  0
LINE
  5
38E
100
AcDbEntity
  8
RACCORDO
100
AcDbLine
 62
253
  6
CONTINUOUS
 10
66.1355332129
 20
131.9572274239
 11
66.1355189945
 21
131.9497641316
  0
LINE
  5
38F
100
AcDbEntity
  8
RACCORDO
100
AcDbLine
 62
253
  6
CONTINUOUS
 10
66.1356142557
 20
131.9453444259
 11
66.1358473969
 21
131.9425187565
  0
LWPOLYLINE
  5
390
100
AcDbEntity
  8
RACCORDO
100
AcDbPolyline
 62
253
  6
CONTINUOUS
 90
20
 70
0
 10
67.4854844224
 20
148.5891713171
 10
67.4835438809
 20
148.6808744042
 10
67.481130365
 20
148.7736340322
 10
67.4782733955
 20
148.8669655063
 10
67.4749746038
 20
148.957681722
 10
67.4712098649
 20
149.0455792406
 10
67.4670058888
 20
149.1308615009
 10
67.4624405371
 20
149.2109517151
 10
67.4574865789
 20
149.2856057575
 10
67.4521741576
 20
149.3550677538
 10
67.4466663997
 20
149.4174932931
 10
67.4409475235
 20
149.4723923058
 10
67.4350352345
 20
149.5202548614
 10
67.4291412158
 20
149.5607067581
 10
67.4232673153
 20
149.593206562
 10
67.4174115946
 20
149.6182957069
 10
67.4117780403
 20
149.6372242928
 10
67.4064335593
 20
149.6504090194
 10
67.4013090814
 20
149.6574331869
 10
67.3964036922
 20
149.6582967953
  0
LINE
  5
391
100
AcDbEntity
  8
RACCORDO
100
AcDbLine
 62
253
  6
CONTINUOUS
 10
66.1822909389
 20
132.8257496672
 11
66.1806592746
 21
132.8971196877
  0
LINE
  5
392
100
AcDbEntity
  8
RACCORDO
100
AcDbLine
 62
7
  6
CONTINUOUS
 10
66.2959920622
 20
133.2308737388
 11
66.2980259703
 21
133.1353789705
  0
LWPOLYLINE
  5
393
100
AcDbEntity
  8
RACCORDO
100
AcDbPolyline
 62
253
  6
CONTINUOUS
 90
6
 70
0
 10
66.1256248731
 20
132.147653337
 10
66.1257916888
 20
132.1389564848
 10
66.1263384429
 20
132.1302761782
 10
66.1272640952
 20
132.1216289314
 10
66.1285668847
 20
132.1130311957
 10
66.129496674
 20
132.108302084
  0
LINE
  5
394
100
AcDbEntity
  8
RACCORDO
100
AcDbLine
 62
253
  6
CONTINUOUS
 10
66.1364486971
 20
131.9112119284
 11
66.1365158396
 21
131.8981557437
  0
LINE
  5
395
100
AcDbEntity
  8
RACCORDO
100
AcDbLine
 62
7
  6
CONTINUOUS
 10
66.1355189945
 20
131.9497641316
 11
66.1365158396
 21
131.8981557437
  0
LINE
  5
396
100
AcDbEntity
  8
RACCORDO
100
AcDbLine
 62
253
  6
CONTINUOUS
 10
66.183636515
 20
132.7502104915
 11
66.1822909389
 21
132.8257496672
  0
LWPOLYLINE
  5
397
100
AcDbEntity
  8
RACCORDO
100
AcDbPolyline
 62
253
  6
CONTINUOUS
 90
20
 70
0
 10
67.9845026118
 20
148.7324795424
 10
67.9825632287
 20
148.8551340933
 10
67.9801505895
 20
148.9791187797
 10
67.9772938807
 20
149.1030295465
 10
67.9739968698
 20
149.2242436219
 10
67.9702339584
 20
149.3418328657
 10
67.966030745
 20
149.45506225
 10
67.9614677924
 20
149.5619414006
 10
67.9565167929
 20
149.6619315675
 10
67.9512060544
 20
149.7542880527
 10
67.9457010632
 20
149.8373070946
 10
67.9399861672
 20
149.9108535825
 10
67.9340770185
 20
149.9747742124
 10
67.9281860602
 20
150.028217936
 10
67.9223165957
 20
150.0716437895
 10
67.9164653216
 20
150.1055765166
 10
67.91083477
 20
150.1302070676
 10
67.9054924517
 20
150.1464583546
 10
67.9003708559
 20
150.1554962758
 10
67.8954699827
 20
150.1582967953
  0
LINE
  5
398
100
AcDbEntity
  8
RACCORDO
100
AcDbLine
 62
7
  6
CONTINUOUS
 10
66.2980259703
 20
133.1353789705
 11
66.3002540026
 21
132.9977588013
  0
LINE
  5
399
100
AcDbEntity
  8
RACCORDO
100
AcDbLine
 62
7
  6
CONTINUOUS
 10
66.1365158396
 20
131.8981557437
 11
66.1374490987
 21
131.8346483773
  0
LINE
  5
39A
100
AcDbEntity
  8
RACCORDO
100
AcDbLine
 62
253
  6
CONTINUOUS
 10
66.1375084655
 20
131.8415026511
 11
66.1374490987
 21
131.8346483773
  0
LINE
  5
39B
100
AcDbEntity
  8
RACCORDO
100
AcDbLine
 62
253
  6
CONTINUOUS
 10
66.137518449
 20
131.8290399358
 11
66.1377376765
 21
131.822704946
  0
LWPOLYLINE
  5
39C
100
AcDbEntity
  8
RACCORDO
100
AcDbPolyline
 62
7
  6
CONTINUOUS
 90
3
 70
0
 10
65.5223557573
 20
133.4271597321
 10
65.5223999973
 20
133.422953306
 10
65.5226847677
 20
133.4156925665
  0
LINE
  5
39D
100
AcDbEntity
  8
RACCORDO
100
AcDbLine
 62
253
  6
CONTINUOUS
 10
66.1848932574
 20
132.6511576398
 11
66.183636515
 21
132.7502104915
  0
LINE
  5
39E
100
AcDbEntity
  8
RACCORDO
100
AcDbLine
 62
7
  6
CONTINUOUS
 10
66.3002540026
 20
132.9977588013
 11
66.3018515661
 21
132.8498163746
  0
LINE
  5
39F
100
AcDbEntity
  8
RACCORDO
100
AcDbLine
 62
7
  6
CONTINUOUS
 10
66.1374490987
 20
131.8346483773
 11
66.1382317954
 21
131.7583093872
  0
LINE
  5
3A0
100
AcDbEntity
  8
RACCORDO
100
AcDbLine
 62
253
  6
CONTINUOUS
 10
66.1383265747
 20
131.7633715523
 11
66.1382317954
 21
131.7583093872
  0
LINE
  5
3A1
100
AcDbEntity
  8
RACCORDO
100
AcDbLine
 62
253
  6
CONTINUOUS
 10
66.1382808983
 20
131.7521459013
 11
66.1384873184
 21
131.7426874653
  0
LINE
  5
3A2
100
AcDbEntity
  8
RACCORDO
100
AcDbLine
 62
253
  6
CONTINUOUS
 10
66.3015979223
 20
132.8871146306
 11
66.3018515661
 21
132.8498163746
  0
LINE
  5
3A3
100
AcDbEntity
  8
RACCORDO
100
AcDbLine
 62
253
  6
CONTINUOUS
 10
66.1856564592
 20
132.5485662465
 11
66.1848932574
 21
132.6511576398
  0
LWPOLYLINE
  5
3A4
100
AcDbEntity
  8
RACCORDO
100
AcDbPolyline
 62
253
  6
CONTINUOUS
 90
4
 70
0
 10
67.4893611286
 20
148.2396308977
 10
67.4889185413
 20
148.3232698664
 10
67.4881152378
 20
148.4092137014
 10
67.4854844224
 20
148.5891713171
  0
LINE
  5
3A5
100
AcDbEntity
  8
RACCORDO
100
AcDbLine
 62
7
  6
CONTINUOUS
 10
66.1382317954
 20
131.7583093872
 11
66.138755558
 21
131.6687058118
  0
LWPOLYLINE
  5
3A6
100
AcDbEntity
  8
RACCORDO
100
AcDbPolyline
 62
253
  6
CONTINUOUS
 90
4
 70
0
 10
67.9883780608
 20
148.2659214004
 10
67.9879356497
 20
148.3775887237
 10
67.987132961
 20
148.4928873788
 10
67.9845026118
 20
148.7324795424
  0
LINE
  5
3A7
100
AcDbEntity
  8
RACCORDO
100
AcDbLine
 62
7
  6
CONTINUOUS
 10
66.3018515661
 20
132.8498163746
 11
66.3027328106
 21
132.6934678248
  0
LINE
  5
3A8
100
AcDbEntity
  8
RACCORDO
100
AcDbLine
 62
253
  6
CONTINUOUS
 10
66.1388494746
 20
131.6784390653
 11
66.138755558
 21
131.6687058118
  0
LINE
  5
3A9
100
AcDbEntity
  8
RACCORDO
100
AcDbLine
 62
253
  6
CONTINUOUS
 10
66.3027335733
 20
132.698126839
 11
66.3027328106
 21
132.6934678248
  0
LINE
  5
3AA
100
AcDbEntity
  8
RACCORDO
100
AcDbLine
 62
253
  6
CONTINUOUS
 10
66.138865945
 20
131.6283567984
 11
66.13887733
 21
131.6215341117
  0
LINE
  5
3AB
100
AcDbEntity
  8
RACCORDO
100
AcDbLine
 62
253
  6
CONTINUOUS
 10
66.138886529
 20
131.6146855817
 11
66.1390190709
 21
131.6115538064
  0
LINE
  5
3AC
100
AcDbEntity
  8
RACCORDO
100
AcDbLine
 62
253
  6
CONTINUOUS
 10
66.1859124113
 20
132.4441882631
 11
66.1856564592
 21
132.5485662465
  0
LINE
  5
3AD
100
AcDbEntity
  8
0
100
AcDbLine
 62
7
  6
CONTINUOUS
 10
65.5223557468
 20
134.5822101913
 11
65.5223557468
 21
133.4219818252
  0
LINE
  5
3AE
100
AcDbEntity
  8
0
100
AcDbLine
 62
7
  6
CONTINUOUS
 10
65.5223557468
 20
81.8946117654
 11
65.5223557468
 21
80.7343833993
  0
LINE
  5
3AF
100
AcDbEntity
  8
ASSI
100
AcDbLine
 62
7
  6
CONTINUOUS
 10
65.6223557468
 20
149.6582967953
 11
65.6223557468
 21
135.1582966086
  0
LINE
  5
3B0
100
AcDbEntity
  8
ASSI
100
AcDbLine
 62
7
  6
CONTINUOUS
 10
65.6223557468
 20
80.1582970185
 11
65.6223557468
 21
65.6582967953
  0
LINE
  5
3B1
100
AcDbEntity
  8
RACCORDO
100
AcDbLine
 62
253
  6
CONTINUOUS
 10
66.138900856
 20
131.5939905481
 11
66.1389018079
 21
131.5887349519
  0
LINE
  5
3B2
100
AcDbEntity
  8
RACCORDO
100
AcDbLine
 62
7
  6
CONTINUOUS
 10
66.3027328106
 20
132.6934678248
 11
66.3028829693
 21
82.7205611162
  0
LINE
  5
3B3
100
AcDbEntity
  8
RACCORDO
100
AcDbLine
 62
7
  6
CONTINUOUS
 10
66.138755558
 20
131.6687058118
 11
66.1389013537
 21
83.7234459711
  0
LINE
  5
3B4
100
AcDbEntity
  8
RACCORDO
100
AcDbLine
 62
253
  6
CONTINUOUS
 10
67.988415534
 20
67.0594852401
 11
67.9883780608
 21
148.2659214004
  0
LINE
  5
3B5
100
AcDbEntity
  8
RACCORDO
100
AcDbLine
 62
253
  6
CONTINUOUS
 10
67.4893985283
 20
67.0836010149
 11
67.4893611286
 21
148.2396308977
  0
LINE
  5
3B6
100
AcDbEntity
  8
RACCORDO
100
AcDbLine
 62
253
  6
CONTINUOUS
 10
66.1857485744
 20
82.7888351376
 11
66.1859124113
 21
132.4441882631
  0
LINE
  5
3B7
100
AcDbEntity
  8
RACCORDO
100
AcDbLine
 62
7
  6
CONTINUOUS
 10
66.302883084
 20
82.7205611162
 11
66.3024677668
 21
82.5590314709
  0
LINE
  5
3B8
100
AcDbEntity
  8
RACCORDO
100
AcDbLine
 62
7
  6
CONTINUOUS
 10
66.1389014056
 20
83.7278586387
 11
66.1386660413
 21
83.6264899144
  0
LINE
  5
3B9
100
AcDbEntity
  8
RACCORDO
100
AcDbLine
 62
253
  6
CONTINUOUS
 10
67.9873026694
 20
66.8456775748
 11
67.988415534
 21
67.0594852401
  0
LINE
  5
3BA
100
AcDbEntity
  8
RACCORDO
100
AcDbLine
 62
253
  6
CONTINUOUS
 10
66.1850859845
 20
82.6857277399
 11
66.1857485744
 21
82.7888351376
  0
LINE
  5
3BB
100
AcDbEntity
  8
RACCORDO
100
AcDbLine
 62
253
  6
CONTINUOUS
 10
67.4882844783
 20
66.9238035293
 11
67.4893985283
 21
67.0836010149
  0
LINE
  5
3BC
100
AcDbEntity
  8
RACCORDO
100
AcDbLine
 62
7
  6
CONTINUOUS
 10
66.1386858302
 20
83.630714815
 11
66.1380673122
 21
83.5392570324
  0
LINE
  5
3BD
100
AcDbEntity
  8
RACCORDO
100
AcDbLine
 62
7
  6
CONTINUOUS
 10
66.3024677668
 20
82.5590314709
 11
66.3013417469
 21
82.4111264247
  0
LINE
  5
3BE
100
AcDbEntity
  8
RACCORDO
100
AcDbLine
 62
7
  6
CONTINUOUS
 10
65.5223999973
 20
81.8936402844
 11
65.5223557573
 21
81.8894338585
  0
LINE
  5
3BF
100
AcDbEntity
  8
RACCORDO
100
AcDbLine
 62
253
  6
CONTINUOUS
 10
66.3016898941
 20
82.4393837204
 11
66.3013417469
 21
82.4111264247
  0
LINE
  5
3C0
100
AcDbEntity
  8
RACCORDO
100
AcDbLine
 62
253
  6
CONTINUOUS
 10
66.3008186186
 20
82.3634011947
 11
66.3008201346
 21
82.355685502
  0
LINE
  5
3C1
100
AcDbEntity
  8
RACCORDO
100
AcDbLine
 62
7
  6
CONTINUOUS
 10
66.1380968504
 20
83.5425031198
 11
66.1372390913
 21
83.4657990385
  0
LINE
  5
3C2
100
AcDbEntity
  8
RACCORDO
100
AcDbLine
 62
253
  6
CONTINUOUS
 10
66.1839263679
 20
82.5858281986
 11
66.1850859845
 21
82.6857277399
  0
LINE
  5
3C3
100
AcDbEntity
  8
RACCORDO
100
AcDbLine
 62
7
  6
CONTINUOUS
 10
66.3013417469
 20
82.4111264247
 11
66.2995639296
 21
82.2707962971
  0
LINE
  5
3C4
100
AcDbEntity
  8
RACCORDO
100
AcDbLine
 62
253
  6
CONTINUOUS
 10
66.2997373393
 20
82.2768894242
 11
66.2995639296
 21
82.2707962971
  0
LINE
  5
3C5
100
AcDbEntity
  8
RACCORDO
100
AcDbLine
 62
7
  6
CONTINUOUS
 10
66.1372642997
 20
83.4677036987
 11
66.1363255754
 21
83.407531442
  0
LINE
  5
3C6
100
AcDbEntity
  8
RACCORDO
100
AcDbLine
 62
253
  6
CONTINUOUS
 10
66.182654869
 20
82.5093714362
 11
66.1839263679
 21
82.5858281986
  0
LWPOLYLINE
  5
3C7
100
AcDbEntity
  8
RACCORDO
100
AcDbPolyline
 62
253
  6
CONTINUOUS
 90
6
 70
0
 10
66.1256248728
 20
83.1689402535
 10
66.1257916886
 20
83.1776371058
 10
66.1263384427
 20
83.1863174124
 10
66.127264095
 20
83.1949646592
 10
66.1285668845
 20
83.2035623949
 10
66.1294967579
 20
83.2082919343
  0
LINE
  5
3C8
100
AcDbEntity
  8
RACCORDO
100
AcDbLine
 62
7
  6
CONTINUOUS
 10
66.2995639296
 20
82.2707962971
 11
66.2972033208
 21
82.1401560454
  0
LINE
  5
3C9
100
AcDbEntity
  8
RACCORDO
100
AcDbLine
 62
7
  6
CONTINUOUS
 10
66.1363445715
 20
83.4086077011
 11
66.135377625
 21
83.3604277039
  0
LINE
  5
3CA
100
AcDbEntity
  8
RACCORDO
100
AcDbLine
 62
253
  6
CONTINUOUS
 10
66.181093333
 20
82.4368937341
 11
66.182654869
 21
82.5093714362
  0
LWPOLYLINE
  5
3CB
100
AcDbEntity
  8
RACCORDO
100
AcDbPolyline
 62
253
  6
CONTINUOUS
 90
30
 70
0
 10
66.1586016958
 20
133.2411795159
 10
66.1588114478
 20
133.2497648411
 10
66.1593914981
 20
133.2583342433
 10
66.1603407707
 20
133.266871829
 10
66.1616575052
 20
133.2753617636
 10
66.1633392594
 20
133.2837883012
 10
66.1653829142
 20
133.2921358132
 10
66.1677846793
 20
133.3003888177
 10
66.1705401002
 20
133.308532008
 10
66.1736440664
 20
133.316550281
 10
66.177090821
 20
133.3244287655
 10
66.1808739716
 20
133.3321528494
 10
66.1849865015
 20
133.339708207
 10
66.1894207833
 20
133.3470808256
 10
66.1941685929
 20
133.3542570314
 10
66.1992211246
 20
133.3612235147
 10
66.2045690076
 20
133.3679673549
 10
66.2102023232
 20
133.3744760446
 10
66.2161106235
 20
133.380737512
 10
66.2222829505
 20
133.3867401442
 10
66.2287078565
 20
133.3924728083
 10
66.2353734254
 20
133.3979248719
 10
66.2422672946
 20
133.4030862234
 10
66.2493766783
 20
133.4079472899
 10
66.2566883909
 20
133.4124990559
 10
66.2641888715
 20
133.4167330792
 10
66.271864209
 20
133.4206415071
 10
66.2797001683
 20
133.4242170907
 10
66.2876822161
 20
133.4274531985
 10
66.2901651441
 20
133.4283378198
  0
LINE
  5
3CC
100
AcDbEntity
  8
RACCORDO
100
AcDbLine
 62
7
  6
CONTINUOUS
 10
66.2972033208
 20
82.1401560454
 11
66.2943505446
 21
82.0209517785
  0
LINE
  5
3CD
100
AcDbEntity
  8
RACCORDO
100
AcDbLine
 62
253
  6
CONTINUOUS
 10
66.2956229047
 20
82.0660379934
 11
66.2943505446
 21
82.0209517785
  0
LINE
  5
3CE
100
AcDbEntity
  8
RACCORDO
100
AcDbLine
 62
7
  6
CONTINUOUS
 10
66.1353871956
 20
83.3608628996
 11
66.1344468446
 21
83.3228807326
  0
LINE
  5
3CF
100
AcDbEntity
  8
RACCORDO
100
AcDbLine
 62
253
  6
CONTINUOUS
 10
66.1797425158
 20
82.3856220686
 11
66.181093333
 21
82.4368937341
  0
LINE
  5
3D0
100
AcDbEntity
  8
RACCORDO
100
AcDbLine
 62
7
  6
CONTINUOUS
 10
66.2943505446
 20
82.0209517785
 11
66.2922188376
 21
81.948495797
  0
LINE
  5
3D1
100
AcDbEntity
  8
RACCORDO
100
AcDbLine
 62
7
  6
CONTINUOUS
 10
66.1344478405
 20
83.3229033473
 11
66.1336818028
 21
83.2968484688
  0
LWPOLYLINE
  5
3D2
100
AcDbEntity
  8
RACCORDO
100
AcDbPolyline
 62
253
  6
CONTINUOUS
 90
3
 70
0
 10
66.1335590218
 20
83.293026596
 10
66.13349814
 20
83.2839366885
 10
66.1332303729
 20
83.2832016308
  0
LINE
  5
3D3
100
AcDbEntity
  8
RACCORDO
100
AcDbLine
 62
253
  6
CONTINUOUS
 10
66.1782473635
 20
82.3373515581
 11
66.1797425158
 21
82.3856220686
  0
LINE
  5
3D4
100
AcDbEntity
  8
RACCORDO
100
AcDbLine
 62
253
  6
CONTINUOUS
 10
66.1331159392
 20
83.2799296385
 11
66.1331434134
 21
83.2735396091
  0
LINE
  5
3D5
100
AcDbEntity
  8
RACCORDO
100
AcDbLine
 62
7
  6
CONTINUOUS
 10
66.2922188376
 20
81.948495797
 11
66.289938301
 21
81.8819799148
  0
LINE
  5
3D6
100
AcDbEntity
  8
RACCORDO
100
AcDbLine
 62
7
  6
CONTINUOUS
 10
66.1337853101
 20
83.3001521117
 11
66.133001022
 21
83.276714275
  0
LINE
  5
3D7
100
AcDbEntity
  8
RACCORDO
100
AcDbLine
 62
253
  6
CONTINUOUS
 10
66.176617522
 20
82.2923798162
 11
66.1782473635
 21
82.3373515581
  0
LINE
  5
3D8
100
AcDbEntity
  8
RACCORDO
100
AcDbLine
 62
253
  6
CONTINUOUS
 10
66.1323975858
 20
83.2609445322
 11
66.132428848
 21
83.2544852035
  0
LINE
  5
3D9
100
AcDbEntity
  8
RACCORDO
100
AcDbLine
 62
253
  6
CONTINUOUS
 10
66.2902952621
 20
81.8877022441
 11
66.289938301
 21
81.8819799148
  0
LWPOLYLINE
  5
3DA
100
AcDbEntity
  8
RACCORDO
100
AcDbPolyline
 62
253
  6
CONTINUOUS
 90
3
 70
0
 10
66.2887510341
 20
81.8510181281
 10
66.2882352999
 20
81.8345157193
 10
66.2875366783
 20
81.8215957369
  0
LINE
  5
3DB
100
AcDbEntity
  8
RACCORDO
100
AcDbLine
 62
7
  6
CONTINUOUS
 10
66.1331003042
 20
83.279480495
 11
66.1323975858
 21
83.2609445322
  0
LINE
  5
3DC
100
AcDbEntity
  8
RACCORDO
100
AcDbLine
 62
7
  6
CONTINUOUS
 10
66.289938301
 20
81.8819799148
 11
66.2875366783
 21
81.8215957369
  0
LINE
  5
3DD
100
AcDbEntity
  8
RACCORDO
100
AcDbLine
 62
253
  6
CONTINUOUS
 10
66.1754611662
 20
82.2643659641
 11
66.176617522
 21
82.2923798162
  0
LWPOLYLINE
  5
3DE
100
AcDbEntity
  8
RACCORDO
100
AcDbPolyline
 62
253
  6
CONTINUOUS
 90
3
 70
0
 10
66.2863000266
 20
81.7937442126
 10
66.2860274098
 20
81.7839568503
 10
66.2850448448
 20
81.7674599224
  0
LINE
  5
3DF
100
AcDbEntity
  8
RACCORDO
100
AcDbLine
 62
253
  6
CONTINUOUS
 10
66.1318060901
 20
83.2472045912
 11
66.1317091158
 21
83.2377077694
  0
LINE
  5
3E0
100
AcDbEntity
  8
RACCORDO
100
AcDbLine
 62
7
  6
CONTINUOUS
 10
66.1324215673
 20
83.261529581
 11
66.1318060901
 21
83.2472045912
  0
LINE
  5
3E1
100
AcDbEntity
  8
RACCORDO
100
AcDbLine
 62
253
  6
CONTINUOUS
 10
66.1742528557
 20
82.2380203491
 11
66.1754611662
 21
82.2643659641
  0
LINE
  5
3E2
100
AcDbEntity
  8
RACCORDO
100
AcDbLine
 62
7
  6
CONTINUOUS
 10
66.2875366783
 20
81.8215957369
 11
66.2850448448
 21
81.7674599224
  0
LINE
  5
3E3
100
AcDbEntity
  8
RACCORDO
100
AcDbLine
 62
253
  6
CONTINUOUS
 10
66.1317091158
 20
83.2377077694
 11
66.130989221
 21
83.2230799319
  0
LWPOLYLINE
  5
3E4
100
AcDbEntity
  8
RACCORDO
100
AcDbPolyline
 62
253
  6
CONTINUOUS
 90
3
 70
0
 10
66.2837746993
 20
81.7427382765
 10
66.2836666645
 20
81.7363654929
 10
66.2824940512
 20
81.7195972447
  0
LINE
  5
3E5
100
AcDbEntity
  8
RACCORDO
100
AcDbLine
 62
7
  6
CONTINUOUS
 10
66.1318359483
 20
83.247862749
 11
66.131333201
 21
83.2373710915
  0
LINE
  5
3E6
100
AcDbEntity
  8
RACCORDO
100
AcDbLine
 62
253
  6
CONTINUOUS
 10
66.1729965206
 20
82.2134225469
 11
66.1742528557
 21
82.2380203491
  0
LINE
  5
3E7
100
AcDbEntity
  8
RACCORDO
100
AcDbLine
 62
7
  6
CONTINUOUS
 10
66.1313682545
 20
83.2380634868
 11
66.1309065348
 21
83.2293287159
  0
LWPOLYLINE
  5
3E8
100
AcDbEntity
  8
RACCORDO
100
AcDbPolyline
 62
7
  6
CONTINUOUS
 90
15
 70
0
 10
66.2850448448
 20
81.7674599224
 10
66.2824940512
 20
81.7195972447
 10
66.281205365
 20
81.69800881
 10
66.2799124025
 20
81.6779615787
 10
66.2786226322
 20
81.6594880825
 10
66.277338532
 20
81.6425364542
 10
66.2760661194
 20
81.6270995152
 10
66.2748198101
 20
81.6132522728
 10
66.2736024878
 20
81.6009172363
 10
66.2724216888
 20
81.5900609959
 10
66.2713048779
 20
81.5807957622
 10
66.270253307
 20
81.5729752819
 10
66.2692886961
 20
81.5666028755
 10
66.2684983827
 20
81.5620045129
 10
66.2682633574
 20
81.5607580712
  0
LINE
  5
3E9
100
AcDbEntity
  8
RACCORDO
100
AcDbLine
 62
253
  6
CONTINUOUS
 10
66.281205365
 20
81.69800881
 11
66.2811155975
 21
81.6923813925
  0
LINE
  5
3EA
100
AcDbEntity
  8
RACCORDO
100
AcDbLine
 62
253
  6
CONTINUOUS
 10
66.1716948736
 20
82.1906233413
 11
66.1729965206
 21
82.2134225469
  0
LWPOLYLINE
  5
3EB
100
AcDbEntity
  8
RACCORDO
100
AcDbPolyline
 62
253
  6
CONTINUOUS
 90
16
 70
0
 10
66.130989221
 20
83.2230799319
 10
66.1302738337
 20
83.2104748396
 10
66.1299184216
 20
83.204915057
 10
66.1295659954
 20
83.1998059411
 10
66.1292167464
 20
83.1951496589
 10
66.1288704781
 20
83.1909440433
 10
66.1285280825
 20
83.1871383088
 10
66.1281898043
 20
83.1837327063
 10
66.1278553921
 20
83.180726985
 10
66.1275249931
 20
83.178069606
 10
66.1271987327
 20
83.1757581003
 10
66.126876479
 20
83.1737949368
 10
66.1265579926
 20
83.1721359836
 10
66.126243192
 20
83.17076653
 10
66.1259321531
 20
83.1697012867
 10
66.1256248729
 20
83.1689402535
  0
LINE
  5
3EC
100
AcDbEntity
  8
RACCORDO
100
AcDbLine
 62
7
  6
CONTINUOUS
 10
66.1309065348
 20
83.2293287159
 11
66.1305681611
 21
83.2235010316
  0
LINE
  5
3ED
100
AcDbEntity
  8
RACCORDO
100
AcDbLine
 62
7
  6
CONTINUOUS
 10
66.1305681611
 20
83.2235010316
 11
66.1302418045
 21
83.2183361063
  0
LWPOLYLINE
  5
3EE
100
AcDbEntity
  8
RACCORDO
100
AcDbPolyline
 62
253
  6
CONTINUOUS
 90
4
 70
0
 10
66.2786226322
 20
81.6594880825
 10
66.2783663722
 20
81.6515239065
 10
66.2754292082
 20
81.6142736775
 10
66.2722941338
 20
81.5827123791
  0
LINE
  5
3EF
100
AcDbEntity
  8
RACCORDO
100
AcDbLine
 62
7
  6
CONTINUOUS
 10
66.1302418045
 20
83.2183361063
 11
66.1299330469
 21
83.2138701851
  0
LINE
  5
3F0
100
AcDbEntity
  8
RACCORDO
100
AcDbLine
 62
7
  6
CONTINUOUS
 10
66.1299330469
 20
83.2138701851
 11
66.1297404412
 21
83.2112975439
  0
LINE
  5
3F1
100
AcDbEntity
  8
RACCORDO
100
AcDbLine
 62
7
  6
CONTINUOUS
 10
66.1297404412
 20
83.2112975439
 11
66.1295619477
 21
83.209065738
  0
LWPOLYLINE
  5
3F2
100
AcDbEntity
  8
RACCORDO
100
AcDbPolyline
 62
253
  6
CONTINUOUS
 90
4
 70
0
 10
66.2617063698
 20
81.5242437411
 10
66.2631799702
 20
81.5415867361
 10
66.2676561386
 20
81.5584008871
 10
66.2710479418
 20
81.5665918296
  0
LINE
  5
3F3
100
AcDbEntity
  8
RACCORDO
100
AcDbLine
 62
7
  6
CONTINUOUS
 10
66.1295619477
 20
83.209065738
 11
66.1294030069
 21
83.207211216
  0
LINE
  5
3F4
100
AcDbEntity
  8
RACCORDO
100
AcDbLine
 62
7
  6
CONTINUOUS
 10
66.1294030069
 20
83.207211216
 11
66.1292687203
 21
83.2057552032
  0
LWPOLYLINE
  5
3F5
100
AcDbEntity
  8
RACCORDO
100
AcDbPolyline
 62
7
  6
CONTINUOUS
 90
3
 70
0
 10
66.1292687203
 20
83.2057552032
 10
66.1291651697
 20
83.2047154745
 10
66.1291360026
 20
83.204438909
  0
LINE
  5
3F6
100
AcDbEntity
  8
RACCORDO
100
AcDbLine
 62
7
  6
CONTINUOUS
 10
66.1291061449
 20
132.1124290905
 11
66.1291698041
 21
132.1118346775
  0
LWPOLYLINE
  5
3F7
100
AcDbEntity
  8
RACCORDO
100
AcDbPolyline
 62
253
  6
CONTINUOUS
 90
3
 70
0
 10
66.2722941338
 20
81.5827123791
 10
66.2689588773
 20
81.5575339025
 10
66.2654287819
 20
81.5380443565
  0
LINE
  5
3F8
100
AcDbEntity
  8
SMUSSO
100
AcDbLine
 62
7
  6
CONTINUOUS
 10
73.8223557468
 20
104.1582967953
 11
75.5223557468
 21
103.8585409281
  0
LWPOLYLINE
  5
3F9
100
AcDbEntity
  8
RACCORDO
100
AcDbPolyline
 62
7
  6
CONTINUOUS
 90
13
 70
0
 10
66.2682110948
 20
133.7560692067
 10
66.2685905
 20
133.754085614
 10
66.2693037196
 20
133.7498972505
 10
66.2700921213
 20
133.7447381474
 10
66.2709320298
 20
133.7386726232
 10
66.2718261866
 20
133.7315945139
 10
66.2727510772
 20
133.7236129551
 10
66.2737000388
 20
133.7147309424
 10
66.2746716221
 20
133.7049084392
 10
66.2756562915
 20
133.6941924011
 10
66.2766506324
 20
133.6825788371
 10
66.2776529956
 20
133.6700462505
 10
66.2786584809
 20
133.6566182039
  0
LWPOLYLINE
  5
3FA
100
AcDbEntity
  8
RACCORDO
100
AcDbPolyline
 62
253
  6
CONTINUOUS
 90
5
 70
0
 10
66.2687102956
 20
133.7607711571
 10
66.2719320743
 20
133.7371105703
 10
66.2749550009
 20
133.707671892
 10
66.2777874557
 20
133.6729857199
 10
66.2786584809
 20
133.6566182039
  0
LINE
  5
3FB
100
AcDbEntity
  8
RACCORDO
100
AcDbLine
 62
7
  6
CONTINUOUS
 10
66.1290922554
 20
132.1125506882
 11
66.1291061449
 21
132.1124290905
  0
LWPOLYLINE
  5
3FC
100
AcDbEntity
  8
RACCORDO
100
AcDbPolyline
 62
7
  6
CONTINUOUS
 90
6
 70
0
 10
72.9170825815
 20
149.0041238613
 10
72.9213996963
 20
148.8396362935
 10
72.9247703939
 20
148.6722575122
 10
72.9271451345
 20
148.5038284867
 10
72.9285690818
 20
148.3325082477
 10
72.9290411697
 20
148.1582967953
  0
LINE
  5
3FD
100
AcDbEntity
  8
RACCORDO
100
AcDbLine
 62
7
  6
CONTINUOUS
 10
72.9290411697
 20
148.1582967953
 11
72.9290411697
 21
67.1582967953
  0
LINE
  5
3FE
100
AcDbEntity
  8
DRAFT
100
AcDbLine
 62
7
  6
CONTINUOUS
 10
73.8223557468
 20
111.1582967953
 11
73.8223557468
 21
104.1582967953
  0
LINE
  5
3FF
100
AcDbEntity
  8
SMUSSO
100
AcDbLine
 62
7
  6
CONTINUOUS
 10
75.0242583135
 20
148.9640609392
 11
75.0242583977
 21
111.3702246608
  0
LINE
  5
400
100
AcDbEntity
  8
SMUSSO
100
AcDbLine
 62
7
  6
CONTINUOUS
 10
75.0242583977
 20
103.9463689297
 11
75.0242583135
 21
66.3525326512
  0
LINE
  5
401
100
AcDbEntity
  8
SMUSSO
100
AcDbLine
 62
7
  6
CONTINUOUS
 10
75.5223557468
 20
148.4204837664
 11
75.5223557468
 21
111.4580526625
  0
LINE
  5
402
100
AcDbEntity
  8
SMUSSO
100
AcDbLine
 62
7
  6
CONTINUOUS
 10
75.5223557468
 20
103.8585409281
 11
75.5223557468
 21
66.8961098242
  0
LWPOLYLINE
  5
403
100
AcDbEntity
  8
RACCORDO
100
AcDbPolyline
 62
7
  6
CONTINUOUS
 90
6
 70
0
 10
72.9290411697
 20
67.1582967953
 10
72.9285660231
 20
66.9839875728
 10
72.9271418017
 20
66.8126510551
 10
72.9247695686
 20
66.6442872421
 10
72.921405283
 20
66.4771066978
 10
72.9170973408
 20
66.3128988583
  0
LWPOLYLINE
  5
404
100
AcDbEntity
  8
RACCORDO
100
AcDbPolyline
 62
7
  6
CONTINUOUS
 90
14
 70
0
 10
72.9170973408
 20
66.3128988583
 10
72.9119860585
 20
66.1570320312
 10
72.9060754374
 20
66.010546576
 10
72.8993685384
 20
65.8724021332
 10
72.8920038629
 20
65.7448459323
 10
72.8839845338
 20
65.6279113984
 10
72.8753156898
 20
65.5215651065
 10
72.8661377273
 20
65.4279540101
 10
72.8563851482
 20
65.3470427849
 10
72.8461319524
 20
65.2788667554
 10
72.8357243086
 20
65.225678849
 10
72.8252773785
 20
65.1882300413
 10
72.8146785031
 20
65.1657693568
 10
72.803929294
 20
65.1582967953
  0
LINE
  5
405
100
AcDbEntity
  8
RACCORDO
100
AcDbLine
 62
253
  6
CONTINUOUS
 10
66.2654287819
 20
81.5380443565
 11
66.2617055197
 21
81.524243741
  0
LWPOLYLINE
  5
406
100
AcDbEntity
  8
RACCORDO
100
AcDbPolyline
 62
253
  6
CONTINUOUS
 90
3
 70
0
 10
66.2617055197
 20
133.7923498495
 10
66.2653009264
 20
133.7791842502
 10
66.2687102956
 20
133.7607711571
  0
LWPOLYLINE
  5
407
100
AcDbEntity
  8
RACCORDO
100
AcDbPolyline
 62
7
  6
CONTINUOUS
 90
5
 70
0
 10
65.6317919743
 20
80.2007020195
 10
65.6273885382
 20
80.1896213737
 10
65.6243352527
 20
80.1780953468
 10
65.6226755397
 20
80.166287803
 10
65.6223557474
 20
80.1582967958
  0
LWPOLYLINE
  5
408
100
AcDbEntity
  8
RACCORDO
100
AcDbPolyline
 62
253
  6
CONTINUOUS
 90
18
 70
0
 10
66.1586016952
 20
82.0754140746
 10
66.1593674178
 20
82.0773154603
 10
66.1601305329
 20
82.0797591735
 10
66.160891035
 20
82.0827452141
 10
66.1616494689
 20
82.0862764836
 10
66.1624052795
 20
82.0903500805
 10
66.1631568087
 20
82.094957301
 10
66.1639040078
 20
82.1000991886
 10
66.1646469089
 20
82.1057746998
 10
66.1653839686
 20
82.1119719999
 10
66.1661151608
 20
82.1186921598
 10
66.1668404902
 20
82.1259341086
 10
66.1675584548
 20
82.1336827988
 10
66.1682690244
 20
82.1419392547
 10
66.1689722033
 20
82.1507024522
 10
66.1696665369
 20
82.1599542715
 10
66.1703519926
 20
82.1696957368
 10
66.1716948736
 20
82.1906233413
  0
LINE
  5
409
100
AcDbEntity
  8
RACCORDO
100
AcDbLine
 62
253
  6
CONTINUOUS
 10
65.5226343894
 20
81.8902011474
 11
65.5223557468
 21
81.8895403435
  0
LWPOLYLINE
  5
40A
100
AcDbEntity
  8
RACCORDO
100
AcDbPolyline
 62
7
  6
CONTINUOUS
 90
13
 70
0
 10
65.5413571764
 20
81.9745191924
 10
65.5386149568
 20
81.9684232157
 10
65.5360592536
 20
81.9621910779
 10
65.5336977742
 20
81.9558278766
 10
65.5315384286
 20
81.9493400122
 10
65.5295884061
 20
81.9427325305
 10
65.5278544642
 20
81.9360090352
 10
65.5263439175
 20
81.9291750052
 10
65.525064507
 20
81.9222387759
 10
65.5240235849
 20
81.9152088346
 10
65.5232281173
 20
81.9080935206
 10
65.5226847676
 20
81.9009010239
 10
65.5223999973
 20
81.8936402844
  0
LINE
  5
40B
100
AcDbEntity
  8
RACCORDO
100
AcDbLine
 62
253
  6
CONTINUOUS
 10
65.6093737952
 20
82.0747322438
 11
65.5890017601
 21
82.0310082791
  0
LWPOLYLINE
  5
40C
100
AcDbEntity
  8
RACCORDO
100
AcDbPolyline
 62
7
  6
CONTINUOUS
 90
3
 70
0
 10
66.2710479418
 20
81.5665918296
 10
65.8319396271
 20
80.6280020308
 10
65.7598969515
 20
80.4741582702
  0
LINE
  5
40D
100
AcDbEntity
  8
RACCORDO
100
AcDbLine
 62
7
  6
CONTINUOUS
 10
65.7598969515
 20
80.4741582702
 11
65.6318090307
 21
80.2007384275
  0
LINE
  5
40E
100
AcDbEntity
  8
RACCORDO
100
AcDbLine
 62
253
  6
CONTINUOUS
 10
66.2617055197
 20
81.524243741
 11
65.7818050884
 21
80.4986476993
  0
LINE
  5
40F
100
AcDbEntity
  8
RACCORDO
100
AcDbLine
 62
253
  6
CONTINUOUS
 10
65.7818050884
 20
80.4986476993
 11
65.6223557468
 21
80.1582967958
  0
LINE
  5
410
100
AcDbEntity
  8
RACCORDO
100
AcDbLine
 62
7
  6
CONTINUOUS
 10
65.5580684391
 20
82.0100682778
 11
65.5413571764
 21
81.9745191924
  0
LINE
  5
411
100
AcDbEntity
  8
RACCORDO
100
AcDbLine
 62
7
  6
CONTINUOUS
 10
65.5878122045
 20
82.0733285503
 11
65.5580684391
 21
82.0100682778
  0
LINE
  5
412
100
AcDbEntity
  8
RACCORDO
100
AcDbLine
 62
7
  6
CONTINUOUS
 10
65.632446698
 20
82.1682391148
 11
65.5878122045
 21
82.0733285503
  0
LINE
  5
413
100
AcDbEntity
  8
RACCORDO
100
AcDbLine
 62
7
  6
CONTINUOUS
 10
65.692019371
 20
82.2948758924
 11
65.632446698
 21
82.1682391148
  0
LINE
  5
414
100
AcDbEntity
  8
RACCORDO
100
AcDbLine
 62
253
  6
CONTINUOUS
 10
66.0950764121
 20
81.9405830447
 11
66.1586016952
 21
82.0754140746
  0
LINE
  5
415
100
AcDbEntity
  8
RACCORDO
100
AcDbLine
 62
253
  6
CONTINUOUS
 10
66.1209288145
 20
81.3791088378
 11
66.282652123
 21
81.7224535675
  0
LINE
  5
416
100
AcDbEntity
  8
RACCORDO
100
AcDbLine
 62
253
  6
CONTINUOUS
 10
65.9780260883
 20
81.6922212725
 11
66.0950764121
 21
81.9405830447
  0
LWPOLYLINE
  5
417
100
AcDbEntity
  8
RACCORDO
100
AcDbPolyline
 62
253
  6
CONTINUOUS
 90
3
 70
0
 10
65.9804168197
 20
81.0809727797
 10
66.0239156422
 20
81.173252737
 10
66.1209288145
 20
81.3791088378
  0
LINE
  5
418
100
AcDbEntity
  8
RACCORDO
100
AcDbLine
 62
253
  6
CONTINUOUS
 10
65.87431799
 20
81.4722625055
 11
65.9780260883
 21
81.6922212725
  0
LWPOLYLINE
  5
419
100
AcDbEntity
  8
RACCORDO
100
AcDbPolyline
 62
253
  6
CONTINUOUS
 90
3
 70
0
 10
65.8699649125
 20
80.8467270117
 10
65.903439232
 20
80.9177105306
 10
65.9804168197
 20
81.0809727797
  0
LWPOLYLINE
  5
41A
100
AcDbEntity
  8
RACCORDO
100
AcDbPolyline
 62
253
  6
CONTINUOUS
 90
3
 70
0
 10
65.7437939598
 20
81.1955492417
 10
65.7839618895
 20
81.2806912058
 10
65.87431799
 20
81.4722625055
  0
LINE
  5
41B
100
AcDbEntity
  8
RACCORDO
100
AcDbLine
 62
253
  6
CONTINUOUS
 10
65.7896101647
 20
80.6763720967
 11
65.8699649125
 21
80.8467270117
  0
LINE
  5
41C
100
AcDbEntity
  8
RACCORDO
100
AcDbLine
 62
253
  6
CONTINUOUS
 10
65.7393791393
 20
80.5699059602
 11
65.7896101647
 21
80.6763720967
  0
LINE
  5
41D
100
AcDbEntity
  8
RACCORDO
100
AcDbLine
 62
253
  6
CONTINUOUS
 10
65.718865539
 20
80.5264324703
 11
65.7393791393
 21
80.5699059602
  0
LINE
  5
41E
100
AcDbEntity
  8
RACCORDO
100
AcDbLine
 62
253
  6
CONTINUOUS
 10
65.843204044
 20
82.5711690281
 11
65.7309009999
 21
82.3324654921
  0
LINE
  5
41F
100
AcDbEntity
  8
RACCORDO
100
AcDbLine
 62
253
  6
CONTINUOUS
 10
65.6734866771
 20
81.0465517523
 11
65.7437939598
 21
81.1955492417
  0
LWPOLYLINE
  5
420
100
AcDbEntity
  8
RACCORDO
100
AcDbPolyline
 62
253
  6
CONTINUOUS
 90
3
 70
0
 10
65.593115294
 20
80.8762735199
 10
65.6165586365
 20
80.9259366396
 10
65.6734866771
 20
81.0465517523
  0
LINE
  5
421
100
AcDbEntity
  8
RACCORDO
100
AcDbLine
 62
253
  6
CONTINUOUS
 10
65.5223557468
 20
80.7264020926
 11
65.593115294
 21
80.8762735199
  0
LINE
  5
422
100
AcDbEntity
  8
RACCORDO
100
AcDbLine
 62
253
  6
CONTINUOUS
 10
65.7309009999
 20
82.3324654921
 11
65.654753441
 21
82.1705648413
  0
LINE
  5
423
100
AcDbEntity
  8
RACCORDO
100
AcDbLine
 62
7
  6
CONTINUOUS
 10
66.1306426694
 20
83.2247488806
 11
65.692019371
 21
82.2948758924
  0
LINE
  5
424
100
AcDbEntity
  8
RACCORDO
100
AcDbLine
 62
253
  6
CONTINUOUS
 10
65.654753441
 20
82.1705648413
 11
65.6093737952
 21
82.0747322438
  0
LINE
  5
425
100
AcDbEntity
  8
RACCORDO
100
AcDbLine
 62
253
  6
CONTINUOUS
 10
66.1256248729
 20
83.1689402535
 11
65.843204044
 21
82.5711690281
  0
LWPOLYLINE
  5
426
100
AcDbEntity
  8
RACCORDO
100
AcDbPolyline
 62
253
  6
CONTINUOUS
 90
3
 70
0
 10
65.5890017601
 20
82.0310082791
 10
65.5550175617
 20
81.9593312796
 10
65.532197406
 20
81.9103658491
  0
LWPOLYLINE
  5
427
100
AcDbEntity
  8
RACCORDO
100
AcDbPolyline
 62
253
  6
CONTINUOUS
 90
3
 70
0
 10
65.532197406
 20
81.9103658491
 10
65.5257319871
 20
81.8968131786
 10
65.5226343894
 20
81.8902011474
  0
LINE
  5
428
100
AcDbEntity
  8
SMUSSO
100
AcDbLine
 62
7
  6
CONTINUOUS
 10
73.8223557468
 20
111.1582967953
 11
75.5223557468
 21
111.4580526625
  0
LWPOLYLINE
  5
429
100
AcDbEntity
  8
RACCORDO
100
AcDbPolyline
 62
253
  6
CONTINUOUS
 90
3
 70
0
 10
65.5257319871
 20
133.4197804119
 10
65.532197406
 20
133.4062277414
 10
65.5550175617
 20
133.3572623109
  0
LWPOLYLINE
  5
42A
100
AcDbEntity
  8
RACCORDO
100
AcDbPolyline
 62
253
  6
CONTINUOUS
 90
4
 70
0
 10
65.5550175617
 20
133.3572623109
 10
65.5890017601
 20
133.2855853113
 10
65.6093737952
 20
133.2418613466
 10
65.654753441
 20
133.1460287491
  0
LWPOLYLINE
  5
42B
100
AcDbEntity
  8
RACCORDO
100
AcDbPolyline
 62
253
  6
CONTINUOUS
 90
4
 70
0
 10
66.1586016952
 20
133.2411795159
 10
66.0950763933
 20
133.3760105822
 10
66.0348840823
 20
133.5037415403
 10
65.5223557468
 20
134.590191498
  0
LINE
  5
42C
100
AcDbEntity
  8
RACCORDO
100
AcDbLine
 62
253
  6
CONTINUOUS
 10
66.2826564253
 20
133.59413089
 11
66.174439547
 21
133.8239042905
  0
LINE
  5
42D
100
AcDbEntity
  8
RACCORDO
100
AcDbLine
 62
253
  6
CONTINUOUS
 10
66.174439547
 20
133.8239042905
 11
65.718865539
 21
134.7901611203
  0
LINE
  5
42E
100
AcDbEntity
  8
RACCORDO
100
AcDbLine
 62
7
  6
CONTINUOUS
 10
65.7274150791
 20
132.9465117583
 11
66.1306430184
 21
132.0918439872
  0
LINE
  5
42F
100
AcDbEntity
  8
RACCORDO
100
AcDbLine
 62
7
  6
CONTINUOUS
 10
65.5413571764
 20
133.3420743981
 11
65.5580671628
 21
133.3065280274
  0
LWPOLYLINE
  5
430
100
AcDbEntity
  8
RACCORDO
100
AcDbPolyline
 62
7
  6
CONTINUOUS
 90
4
 70
0
 10
65.5580671628
 20
133.3065280274
 10
65.5710749256
 20
133.2788607949
 10
65.587808643
 20
133.2432726142
 10
65.7274243918
 20
132.9464806443
  0
LINE
  5
431
100
AcDbEntity
  8
RACCORDO
100
AcDbLine
 62
253
  6
CONTINUOUS
 10
65.7579449871
 20
132.9264447133
 11
66.1256248729
 21
132.147653337
  0
LWPOLYLINE
  5
432
100
AcDbEntity
  8
RACCORDO
100
AcDbPolyline
 62
253
  6
CONTINUOUS
 90
3
 70
0
 10
65.6223557468
 20
135.1582967948
 10
66.0665177015
 20
134.2096802921
 10
66.2617055197
 20
133.7923498495
  0
LINE
  5
433
100
AcDbEntity
  8
RACCORDO
100
AcDbLine
 62
7
  6
CONTINUOUS
 10
65.6318090307
 20
135.1158551631
 11
66.1433519564
 21
134.0231147231
  0
LINE
  5
434
100
AcDbEntity
  8
RACCORDO
100
AcDbLine
 62
7
  6
CONTINUOUS
 10
66.1433519564
 20
134.0231147231
 11
66.2682110948
 21
133.7560692067
  0
LINE
  5
435
100
AcDbEntity
  8
RACCORDO
100
AcDbLine
 62
253
  6
CONTINUOUS
 10
65.654753441
 20
133.1460287491
 11
65.7579449871
 21
132.9264447133
  0
LINE
  5
436
100
AcDbEntity
  8
RACCORDO
100
AcDbLine
 62
253
  6
CONTINUOUS
 10
65.5223557468
 20
133.4270532471
 11
65.5257319871
 21
133.4197804119
  0
LWPOLYLINE
  5
437
100
AcDbEntity
  8
RACCORDO
100
AcDbPolyline
 62
253
  6
CONTINUOUS
 90
15
 70
0
 10
66.1256248729
 20
132.147653337
 10
66.1259280666
 20
132.1469101581
 10
66.1262362748
 20
132.1458585021
 10
66.1265495012
 20
132.144498369
 10
66.1268680565
 20
132.1428439711
 10
66.127191638
 20
132.1408810961
 10
66.1275193286
 20
132.1385671071
 10
66.1278509243
 20
132.1359046966
 10
66.1281866357
 20
132.1328911721
 10
66.1285261665
 20
132.1294758189
 10
66.1288697529
 20
132.1256580073
 10
66.1292171652
 20
132.1214383669
 10
66.1295674066
 20
132.1167680729
 10
66.1299206227
 20
132.1116454878
 10
66.1302766726
 20
132.1060722489
  0
LINE
  5
438
100
AcDbEntity
  8
RACCORDO
100
AcDbLine
 62
253
  6
CONTINUOUS
 10
66.1390316344
 20
131.5887349519
 11
66.1389018079
 21
131.5887349519
  0
LINE
  5
439
100
AcDbEntity
  8
RACCORDO
100
AcDbLine
 62
253
  6
CONTINUOUS
 10
66.1859124113
 20
132.4441882631
 11
66.3028829693
 21
132.4441882631
  0
LINE
  5
43A
100
AcDbEntity
  8
RACCORDO
100
AcDbLine
 62
253
  6
CONTINUOUS
 10
66.3029546112
 20
132.5960324744
 11
66.3028829693
 21
132.5960324744
  0
LINE
  5
43B
100
AcDbEntity
  8
SMUSSO
100
AcDbLine
 62
7
  6
CONTINUOUS
 10
75.0242581095
 20
66.3525324282
 11
75.5223557468
 21
66.8961094584
  0
LINE
  5
43C
100
AcDbEntity
  8
DRAFT
100
AcDbLine
 62
7
  6
CONTINUOUS
 10
65.7838450399
 20
134.7912953417
 11
65.7226332176
 21
134.7902268853
  0
LINE
  5
43D
100
AcDbEntity
  8
SMUSSO
100
AcDbLine
 62
7
  6
CONTINUOUS
 10
75.5223557468
 20
148.4204841321
 11
75.0242581094
 21
148.9640611624
  0
LWPOLYLINE
  5
43E
100
AcDbEntity
  8
RACCORDO
100
AcDbPolyline
 62
253
  6
CONTINUOUS
 90
21
 70
0
 10
67.8954699827
 20
65.1582967953
 10
67.900789775
 20
65.1615966593
 10
67.906256575
 20
65.1720140804
 10
67.9118703828
 20
65.1903259248
 10
67.9176813957
 20
65.2173798221
 10
67.9236394163
 20
65.2538869499
 10
67.9295938526
 20
65.3001982132
 10
67.9355715624
 20
65.3570469038
 10
67.9415456879
 20
65.4246608456
 10
67.9472850637
 20
65.5018171807
 10
67.9527625693
 20
65.5880896935
 10
67.9580053252
 20
65.683295208
 10
67.9628635274
 20
65.7856269811
 10
67.9673080926
 20
65.8942549227
 10
67.9713681041
 20
66.0085401811
 10
67.9749810072
 20
66.1264179098
 10
67.9781200755
 20
66.2469974253
 10
67.9808120355
 20
66.3694297695
 10
67.9830745123
 20
66.491448899
 10
67.9848839472
 20
66.6122118943
 10
67.9873026694
 20
66.8456775748
  0
LWPOLYLINE
  5
43F
100
AcDbEntity
  8
RACCORDO
100
AcDbPolyline
 62
7
  6
CONTINUOUS
 90
14
 70
0
 10
72.803929294
 20
150.1582967953
 10
72.8146841005
 20
150.1507775583
 10
72.8252836924
 20
150.1283138599
 10
72.8357264145
 20
150.0909057001
 10
72.8461217014
 20
150.0378202281
 10
72.8563575146
 20
149.9697902947
 10
72.8660972503
 20
149.8890144518
 10
72.8752709878
 20
149.7955179609
 10
72.8839402453
 20
149.6892755605
 10
72.8919621614
 20
149.5724100183
 10
72.8993312956
 20
149.4448925831
 10
72.9060448485
 20
149.3067520062
 10
72.9119627626
 20
149.1601973085
 10
72.9170825815
 20
149.0041238613
  0
LWPOLYLINE
  5
440
100
AcDbEntity
  8
RACCORDO
100
AcDbPolyline
 62
253
  6
CONTINUOUS
 90
21
 70
0
 10
67.3964036922
 20
65.6582967953
 10
67.4017265093
 20
65.6598168107
 10
67.4071951467
 20
65.6678217484
 10
67.4128102377
 20
65.6823116082
 10
67.4186228892
 20
65.7028999969
 10
67.4245834754
 20
65.7299733077
 10
67.430540806
 20
65.764690721
 10
67.4365204963
 20
65.8077030637
 10
67.4424968856
 20
65.8583595088
 10
67.4482399972
 20
65.9158667552
 10
67.453720602
 20
65.9806602308
 10
67.4589656035
 20
66.0523045076
 10
67.4638275502
 20
66.1287000009
 10
67.4682755704
 20
66.2100563616
 10
67.4723375027
 20
66.2961639386
 10
67.4759533321
 20
66.3842941937
 10
67.4790953332
 20
66.474511368
 10
67.4817887216
 20
66.5667512204
 10
67.4840529917
 20
66.6580924889
 10
67.4858642744
 20
66.7484181054
 10
67.4882844783
 20
66.9238035293
  0
LINE
  5
441
100
AcDbEntity
  8
RACCORDO
100
AcDbLine
 62
253
  6
CONTINUOUS
 10
67.4894428717
 20
148.1582967953
 11
72.9290411697
 21
148.1582967953
  0
LINE
  5
442
100
AcDbEntity
  8
SMUSSO
100
AcDbLine
 62
253
  6
CONTINUOUS
 10
72.9290411697
 20
148.1582967953
 11
75.5223557468
 21
148.1582967953
  0
LINE
  5
443
100
AcDbEntity
  8
RACCORDO
100
AcDbLine
 62
253
  6
CONTINUOUS
 10
67.3964036922
 20
149.6582967953
 11
65.6223557468
 21
149.6582967953
  0
LINE
  5
444
100
AcDbEntity
  8
RACCORDO
100
AcDbLine
 62
7
  6
CONTINUOUS
 10
66.1223557468
 20
150.1582967953
 11
72.803929294
 21
150.1582967953
  0
LINE
  5
445
100
AcDbEntity
  8
DRAFT
100
AcDbLine
 62
7
  6
CONTINUOUS
 10
75.0242581085
 20
148.9640611629
 11
72.9123357506
 21
149.1488270776
  0
ARC
  5
446
100
AcDbEntity
  8
RACCORDO
100
AcDbCircle
 62
7
  6
CONTINUOUS
 10
157.7267936862
 20
525.4582967953
 40
445.0
100
AcDbArc
 50
265.512057415
 51
274.487942585
  0
ARC
  5
447
100
AcDbEntity
  8
RACCORDO
100
AcDbCircle
 62
7
  6
CONTINUOUS
 10
157.7267936862
 20
-310.1417032047
 40
445.0
100
AcDbArc
 50
85.512057415
 51
94.487942585
  0
ARC
  5
448
100
AcDbEntity
  8
RACCORDO
100
AcDbCircle
 62
7
  6
CONTINUOUS
 10
157.7267936862
 20
525.2582967953
 40
445.0
100
AcDbArc
 50
265.5100978448
 51
274.4899021552
  0
ARC
  5
449
100
AcDbEntity
  8
RACCORDO
100
AcDbCircle
 62
7
  6
CONTINUOUS
 10
157.7267936862
 20
-309.9417032047
 40
445.0
100
AcDbArc
 50
85.5100978448
 51
94.4899021552
  0
ARC
  5
44A
100
AcDbEntity
  8
RACCORDO
100
AcDbCircle
 62
7
  6
CONTINUOUS
 10
215.7267936862
 20
67.1582967953
 40
2.0
100
AcDbArc
 50
270.0
 51
360.0
  0
ARC
  5
44B
100
AcDbEntity
  8
RACCORDO
100
AcDbCircle
 62
7
  6
CONTINUOUS
 10
99.7267936862
 20
67.1582967953
 40
2.0
100
AcDbArc
 50
180.0
 51
270.0
  0
ARC
  5
44C
100
AcDbEntity
  8
RACCORDO
100
AcDbCircle
 62
7
  6
CONTINUOUS
 10
99.7267936862
 20
148.1582967953
 40
2.0
100
AcDbArc
 50
90.0
 51
180.0
  0
ARC
  5
44D
100
AcDbEntity
  8
RACCORDO
100
AcDbCircle
 62
7
  6
CONTINUOUS
 10
215.7267936862
 20
148.1582967953
 40
2.0
100
AcDbArc
 50
0.0
 51
90.0
  0
ARC
  5
44E
100
AcDbEntity
  8
RACCORDO
100
AcDbCircle
 62
7
  6
CONTINUOUS
 10
192.4767936862
 20
82.7205611162
 40
1.1
100
AcDbArc
 50
274.4899021552
 51
360.0
  0
ARC
  5
44F
100
AcDbEntity
  8
RACCORDO
100
AcDbCircle
 62
7
  6
CONTINUOUS
 10
192.4767936862
 20
132.5960324744
 40
1.1
100
AcDbArc
 50
0.0
 51
85.5100978448
  0
ARC
  5
450
100
AcDbEntity
  8
RACCORDO
100
AcDbCircle
 62
7
  6
CONTINUOUS
 10
122.9767936862
 20
132.5960324744
 40
1.1
100
AcDbArc
 50
94.4899021552
 51
180.0
  0
ARC
  5
451
100
AcDbEntity
  8
RACCORDO
100
AcDbCircle
 62
7
  6
CONTINUOUS
 10
122.9767936862
 20
82.7205611162
 40
1.1
100
AcDbArc
 50
180.0
 51
265.5100978448
  0
ARC
  5
452
100
AcDbEntity
  8
RACCORDO
100
AcDbCircle
 62
7
  6
CONTINUOUS
 10
66.1223557468
 20
149.6582967953
 40
0.5
100
AcDbArc
 50
89.9999999925
 51
180.0
  0
ARC
  5
453
100
AcDbEntity
  8
RACCORDO
100
AcDbCircle
 62
7
  6
CONTINUOUS
 10
66.1223557468
 20
65.6582967953
 40
0.5
100
AcDbArc
 50
180.0
 51
270.0000000074
  0
ARC
  5
454
100
AcDbEntity
  8
RACCORDO
100
AcDbCircle
 62
7
  6
CONTINUOUS
 10
65.7223557945
 20
80.7264020591
 40
0.2
100
AcDbArc
 50
180.0
 51
268.9999999993
  0
ARC
  5
455
100
AcDbEntity
  8
RACCORDO
100
AcDbCircle
 62
7
  6
CONTINUOUS
 10
65.7223557945
 20
134.5901915315
 40
0.2
100
AcDbArc
 50
91.4237536415
 51
180.0
  0
ELLIPSE
  5
456
100
AcDbEntity
  8
RACCORDO
100
AcDbEllipse
 62
7
  6
CONTINUOUS
 10
124.0770681554
 20
85.3585712645
 30
0.0
 11
0.1418092487
 21
0.1418092487
 31
0.0
 40
0.9972646886
 41
2.3575640181
 42
3.9256212891
  0
ELLIPSE
  5
457
100
AcDbEntity
  8
RACCORDO
100
AcDbEllipse
 62
7
  6
CONTINUOUS
 10
191.376519217
 20
85.3585712645
 30
0.0
 11
-0.1418092487
 21
0.1418092487
 31
0.0
 40
0.9972646886
 41
2.3575640181
 42
3.9256212891
  0
ELLIPSE
  5
458
100
AcDbEntity
  8
RACCORDO
100
AcDbEllipse
 62
7
  6
CONTINUOUS
 10
191.376519217
 20
129.9580223261
 30
0.0
 11
-0.1418092487
 21
-0.1418092487
 31
0.0
 40
0.9972646886
 41
2.3575640181
 42
3.9256212891
  0
ELLIPSE
  5
459
100
AcDbEntity
  8
RACCORDO
100
AcDbEllipse
 62
7
  6
CONTINUOUS
 10
124.0770681554
 20
129.9580223261
 30
0.0
 11
0.1418092487
 21
-0.1418092487
 31
0.0
 40
0.9972646886
 41
2.3575640181
 42
3.9256212891
  0
ENDSEC
  0
SECTION
  2
OBJECTS
  0
DICTIONARY
  5
C
100
AcDbDictionary
280
0
281
1
  3
ACAD_GROUP
350
D
  3
ACAD_MLINESTYLE
350
17
  3
ACAD_LAYOUT
350
1A
  3
ACAD_PLOTSETTINGS
350
19
  3
ACAD_PLOTSTYLENAME
350
E
  0
DICTIONARY
  5
D
102
{ACAD_REACTORS
330
C
102
}
100
AcDbDictionary
280
0
281
1
  0
ACDBDICTIONARYWDFLT
  5
E
102
{ACAD_REACTORS
330
C
102
}
100
AcDbDictionary
281
1
  3
Normal
350
F
100
AcDbDictionaryWithDefault
340
F
  0
DICTIONARY
  5
17
102
{ACAD_REACTORS
330
C
102
}
100
AcDbDictionary
280
0
281
1
  3
Standard
350
18
  0
DICTIONARY
  5
19
102
{ACAD_REACTORS
330
C
102
}
100
AcDbDictionary
281
1
  0
DICTIONARY
  5
1A
102
{ACAD_REACTORS
330
C
102
}
100
AcDbDictionary
281
1
  3
Model
350
45A
  3
Layout1
350
45B
  0
ACDBPLACEHOLDER
  5
F
102
{ACAD_REACTORS
330
E
102
}
  0
MLINESTYLE
  5
18
102
{ACAD_REACTORS
330
17
102
}
100
AcDbMlineStyle
  2
STANDARD
 70
0
  3

 62
256
 51
90.0
 52
90.0
 71
2
 49
0.5
 62
256
  6
BYLAYER
 49
-0.5
 62
256
  6
BYLAYER
  0
LAYOUT
  5
45A
102
{ACAD_REACTORS
330
1A
102
}
100
AcDbPlotSettings
  1

  2
none_device
  4
ISO_A4_(297.00_x_210.00_MM)
  6

 40
0.0
 41
0.0
 42
0.0
 43
0.0
 44
297.0
 45
210.0
 46
0.0
 47
0.0
 48
0.0
 49
0.0
140
0.0
141
0.0
142
1.0
143
1.0
 70
1024
 72
1
 73
0
 74
0
  7

 75
0
147
1.0
148
0.0
149
0.0
100
AcDbLayout
  1
Model
 70
0
 71
0
 10
0.0
 20
0.0
 11
297.0
 21
210.0
 12
0.0
 22
0.0
 32
0.0
 14
0.0
 24
0.0
 34
0.0
 15
0.0
 25
0.0
 35
0.0
146
0.0
 13
0.0
 23
0.0
 33
0.0
 16
1.0
 26
0.0
 36
0.0
 17
0.0
 27
1.0
 37
0.0
 76
0
330
210
345
0
346
0
  0
LAYOUT
  5
45B
102
{ACAD_REACTORS
330
1A
102
}
100
AcDbPlotSettings
  1

  2
none_device
  4
ISO_A4_(297.00_x_210.00_MM)
  6

 40
0.0
 41
0.0
 42
0.0
 43
0.0
 44
297.0
 45
210.0
 46
0.0
 47
0.0
 48
0.0
 49
0.0
140
0.0
141
0.0
142
1.0
143
1.0
 70
0
 72
1
 73
0
 74
0
  7

 75
0
147
1.0
148
0.0
149
0.0
100
AcDbLayout
  1
Layout1
 70
0
 71
1
 10
0.0
 20
0.0
 11
297.0
 21
210.0
 12
0.0
 22
0.0
 32
0.0
 14
0.0
 24
0.0
 34
0.0
 15
0.0
 25
0.0
 35
0.0
146
0.0
 13
0.0
 23
0.0
 33
0.0
 16
1.0
 26
0.0
 36
0.0
 17
0.0
 27
1.0
 37
0.0
 76
0
330
211
345
0
346
0
  0
ENDSEC
  0
EOF
