  0
SECTION
  2
HEADER
  9
$ACADVER
  1
AC1015
  9
$DWGCODEPAGE
  3
ANSI_1252
  9
$EXTMAX
 10
297.0
 20
210.0
 30
0.0
  9
$EXTMIN
 10
0.0
 20
0.0
 30
0.0
  9
$LIMMIN
 10
0.0
 20
0.0
  9
$LIMMAX
 10
297.0
 20
210.0
  9
$VIEWCTR
 10
148.5
 20
105.0
  9
$VIEWSIZE
 40
210.0
  9
$CLAYER
  8
0
  9
$LTSCALE
 40
16.335
  9
$CELTYPE
  6
BYLAYER
  9
$DIMSCALE
 40
1.0
  9
$DIMASZ
 40
3.0
  9
$DIMEXO
 40
0.5
  9
$DIMDLI
 40
11.286
  9
$DIMEXE
 40
1.5
  9
$DIMCEN
 40
2.673
  9
$DIMLFAC
 40
1.0
  9
$DIMBLK
  1
_FILLED
  9
$DIMTXT
 40
3.0
  9
$DIMTOL
 70
1
  9
$DIMLIM
 70
0
  9
$DIMTFAC
 40
1.0
  9
$DIMTP
 40
0.01
  9
$DIMTM
 40
0.01
  9
$DIMGAP
 40
0.625
  9
$DIMDSEP
 70
44
  9
$PDMODE
 70
3
  9
$PDSIZE
 40
3.0
  9
$HANDSEED
  5
473
  9
$TILEMODE
 70
1
  9
$MEASUREMENT
 70
1
  9
$INSUNITS
 70
4
  0
ENDSEC
  0
SECTION
  2
CLASSES
  0
CLASS
  1
ACDBDICTIONARYWDFLT
  2
AcDbDictionaryWithDefault
  3
AutoCAD 2000
 90
0
280
0
281
0
  0
CLASS
  1
ACDBPLACEHOLDER
  2
AcDbPlaceHolder
  3
AutoCAD 2000
 90
0
280
0
281
0
  0
CLASS
  1
LAYOUT
  2
AcDbLayout
  3
AutoCAD 2000
 90
0
280
0
281
0
  0
ENDSEC
  0
SECTION
  2
TABLES
  0
TABLE
  2
VPORT
  5
8
100
AcDbSymbolTable
 70
2
  0
VPORT
  5
1F4
100
AcDbSymbolTableRecord
100
AcDbViewportTableRecord
  2
*ACTIVE
 70
0
 10
0.0
 20
0.0
 11
1.0
 21
1.0
 12
148.5
 22
105.0
 13
0.0
 23
0.0
 14
1.0
 24
1.0
 15
0.0
 25
0.0
 16
0.0
 26
0.0
 36
1.0
 17
0.0
 27
0.0
 37
0.0
 40
210.0
 41
1.4142857143
 42
50.0
 43
0.0
 44
0.0
 50
0.0
 51
0.0
 71
0
 72
100
 73
1
 74
1
 75
0
 76
0
 77
0
 78
0
  0
ENDTAB
  0
TABLE
  2
LTYPE
  5
5
100
AcDbSymbolTable
 70
6
  0
LTYPE
  5
14
100
AcDbSymbolTableRecord
100
AcDbLinetypeTableRecord
  2
BYBLOCK
 70
0
  3

 72
65
 73
0
 40
0.0
  0
LTYPE
  5
15
100
AcDbSymbolTableRecord
100
AcDbLinetypeTableRecord
  2
BYLAYER
 70
0
  3

 72
65
 73
0
 40
0.0
  0
LTYPE
  5
16
100
AcDbSymbolTableRecord
100
AcDbLinetypeTableRecord
  2
CONTINUOUS
 70
64
  3
Solid line
 72
65
 73
0
 40
0.0
  0
LTYPE
  5
1F5
100
AcDbSymbolTableRecord
100
AcDbLinetypeTableRecord
  2
CENTER
 70
64
  3
____ _ ____ _ ____ _ ____ _ ____ _ ____ _ ____
 72
65
 73
4
 40
0.6
 49
0.375
 74
0
 49
-0.075
 74
0
 49
0.075
 74
0
 49
-0.075
 74
0
  0
LTYPE
  5
1F6
100
AcDbSymbolTableRecord
100
AcDbLinetypeTableRecord
  2
HIDDEN
 70
64
  3
- - - - - - - - - - - - - - - - - - - -
 72
65
 73
2
 40
0.2
 49
0.1
 74
0
 49
-0.1
 74
0
  0
LTYPE
  5
1F7
100
AcDbSymbolTableRecord
100
AcDbLinetypeTableRecord
  2
PHANTOM
 70
64
  3
_____ _ _ _____ _ _ _____ _ _ _____
 72
65
 73
6
 40
0.8
 49
0.45
 74
0
 49
-0.05
 74
0
 49
0.1
 74
0
 49
-0.05
 74
0
 49
0.1
 74
0
 49
-0.05
 74
0
  0
LTYPE
  5
1F8
100
AcDbSymbolTableRecord
100
AcDbLinetypeTableRecord
  2
DOT
 70
64
  3
. . . . . . . . . . . . . . . . . . . .
 72
65
 73
2
 40
0.2
 49
0.1
 74
0
 49
-0.1
 74
0
  0
LTYPE
  5
1F9
100
AcDbSymbolTableRecord
100
AcDbLinetypeTableRecord
  2
DASHED
 70
64
  3
- - - - - - - - - - - - - - - - - - - -
 72
65
 73
2
 40
0.2
 49
0.1
 74
0
 49
-0.1
 74
0
  0
ENDTAB
  0
TABLE
  2
LAYER
  5
2
100
AcDbSymbolTable
 70
36
  0
LAYER
  5
10
100
AcDbSymbolTableRecord
100
AcDbLayerTableRecord
  2
0
 70
0
 62
7
  6
CONTINUOUS
370
-3
390
F
  0
LAYER
  5
1FA
100
AcDbSymbolTableRecord
100
AcDbLayerTableRecord
  2
DEFAULT_1
 70
0
 62
7
  6
CENTER
370
-3
390
F
  0
LAYER
  5
1FB
100
AcDbSymbolTableRecord
100
AcDbLayerTableRecord
  2
DEFAULT_2
 70
0
 62
7
  6
HIDDEN
370
-3
390
F
  0
LAYER
  5
1FC
100
AcDbSymbolTableRecord
100
AcDbLayerTableRecord
  2
DEFAULT_3
 70
0
 62
7
  6
PHANTOM
370
-3
390
F
  0
LAYER
  5
1FD
100
AcDbSymbolTableRecord
100
AcDbLayerTableRecord
  2
ASSI
 70
0
 62
7
  6
CONTINUOUS
370
-3
390
F
  0
LAYER
  5
1FE
100
AcDbSymbolTableRecord
100
AcDbLayerTableRecord
  2
COORDINATE
 70
0
 62
7
  6
CONTINUOUS
370
-3
390
F
  0
LAYER
  5
1FF
100
AcDbSymbolTableRecord
100
AcDbLayerTableRecord
  2
COORD_ORIGINE
 70
0
 62
7
  6
CONTINUOUS
370
-3
390
F
  0
LAYER
  5
200
100
AcDbSymbolTableRecord
100
AcDbLayerTableRecord
  2
COPY_DENTE
 70
0
 62
7
  6
CONTINUOUS
370
-3
390
F
  0
LAYER
  5
201
100
AcDbSymbolTableRecord
100
AcDbLayerTableRecord
  2
COPY_PLACCA
 70
0
 62
7
  6
CONTINUOUS
370
-3
390
F
  0
LAYER
  5
202
100
AcDbSymbolTableRecord
100
AcDbLayerTableRecord
  2
COPY_SUPP
 70
0
 62
7
  6
CONTINUOUS
370
-3
390
F
  0
LAYER
  5
203
100
AcDbSymbolTableRecord
100
AcDbLayerTableRecord
  2
CURVE
 70
0
 62
7
  6
CONTINUOUS
370
-3
390
F
  0
LAYER
  5
204
100
AcDbSymbolTableRecord
100
AcDbLayerTableRecord
  2
DRAFT
 70
0
 62
7
  6
CONTINUOUS
370
-3
390
F
  0
LAYER
  5
205
100
AcDbSymbolTableRecord
100
AcDbLayerTableRecord
  2
NOTE
 70
0
 62
7
  6
CONTINUOUS
370
-3
390
F
  0
LAYER
  5
206
100
AcDbSymbolTableRecord
100
AcDbLayerTableRecord
  2
PIANI
 70
0
 62
7
  6
CONTINUOUS
370
-3
390
F
  0
LAYER
  5
207
100
AcDbSymbolTableRecord
100
AcDbLayerTableRecord
  2
PIANI_ORIGINE
 70
0
 62
7
  6
CONTINUOUS
370
-3
390
F
  0
LAYER
  5
208
100
AcDbSymbolTableRecord
100
AcDbLayerTableRecord
  2
RACCORDO
 70
0
 62
7
  6
CONTINUOUS
370
-3
390
F
  0
LAYER
  5
209
100
AcDbSymbolTableRecord
100
AcDbLayerTableRecord
  2
SCRITTE
 70
0
 62
7
  6
CONTINUOUS
370
-3
390
F
  0
LAYER
  5
20A
100
AcDbSymbolTableRecord
100
AcDbLayerTableRecord
  2
SKELETON
 70
0
 62
7
  6
CONTINUOUS
370
-3
390
F
  0
LAYER
  5
20B
100
AcDbSymbolTableRecord
100
AcDbLayerTableRecord
  2
SMUSSO
 70
0
 62
7
  6
CONTINUOUS
370
-3
390
F
  0
LAYER
  5
20C
100
AcDbSymbolTableRecord
100
AcDbLayerTableRecord
  2
SUPERFICI
 70
0
 62
7
  6
CONTINUOUS
370
-3
390
F
  0
LAYER
  5
20D
100
AcDbSymbolTableRecord
100
AcDbLayerTableRecord
  2
TRASH
 70
0
 62
7
  6
CONTINUOUS
370
-3
390
F
  0
LAYER
  5
20E
100
AcDbSymbolTableRecord
100
AcDbLayerTableRecord
  2
WHITE
 70
0
 62
7
  6
CONTINUOUS
370
-3
390
F
  0
LAYER
  5
20F
100
AcDbSymbolTableRecord
100
AcDbLayerTableRecord
  2
XSEC_DATUMS
 70
0
 62
7
  6
CONTINUOUS
370
-3
390
F
  0
ENDTAB
  0
TABLE
  2
STYLE
  5
3
100
AcDbSymbolTable
 70
1
  0
STYLE
  5
11
100
AcDbSymbolTableRecord
100
AcDbTextStyleTableRecord
  2
STANDARD
 70
0
 40
0.0
 41
0.8
 50
0.0
 71
0
 42
0.2
  3
txt
  4

  0
STYLE
  5
210
100
AcDbSymbolTableRecord
100
AcDbTextStyleTableRecord
  2
TEXTSTYLE_1
 70
0
 40
0.0
 41
0.8
 50
0.0
 71
0
 42
0.2
  3
gdt
  4

  0
ENDTAB
  0
TABLE
  2
VIEW
  5
6
100
AcDbSymbolTable
 70
0
  0
ENDTAB
  0
TABLE
  2
UCS
  5
7
100
AcDbSymbolTable
 70
0
  0
ENDTAB
  0
TABLE
  2
APPID
  5
9
100
AcDbSymbolTable
 70
1
  0
APPID
  5
211
100
AcDbSymbolTableRecord
100
AcDbRegAppTableRecord
  2
ACAD
 70
0
  0
ENDTAB
  0
TABLE
  2
BLOCK_RECORD
  5
1
100
AcDbSymbolTable
 70
0
  0
BLOCK_RECORD
  5
212
100
AcDbSymbolTableRecord
100
AcDbBlockTableRecord
  2
*Model_Space
  0
BLOCK_RECORD
  5
213
100
AcDbSymbolTableRecord
100
AcDbBlockTableRecord
  2
*Paper_Space
  0
BLOCK_RECORD
  5
214
100
AcDbSymbolTableRecord
100
AcDbBlockTableRecord
  2
_FILLED
  0
BLOCK_RECORD
  5
215
100
AcDbSymbolTableRecord
100
AcDbBlockTableRecord
  2
*D0
  0
BLOCK_RECORD
  5
216
100
AcDbSymbolTableRecord
100
AcDbBlockTableRecord
  2
*D1
  0
BLOCK_RECORD
  5
217
100
AcDbSymbolTableRecord
100
AcDbBlockTableRecord
  2
*D2
  0
ENDTAB
  0
TABLE
  2
DIMSTYLE
  5
A
100
AcDbSymbolTable
 70
1
100
AcDbDimStyleTable
 71
0
  0
DIMSTYLE
105
218
100
AcDbSymbolTableRecord
100
AcDbDimStyleTableRecord
  2
STANDARD
 70
0
  3

  4

 40
1.0
 41
3.0
 42
0.5
 43
0.38
 44
1.5
 45
0.0
 46
0.0
 47
0.01
 48
0.01
140
3.0
141
0.09
142
0.0
143
25.4
144
1.0
145
0.0
146
1.0
147
0.625
 71
1.0
 72
0.0
 73
0
 74
0
 75
0
 76
0
 77
1
 78
8
170
0
171
2
172
0
173
0
174
0
175
0
176
0
177
0
178
0
270
2
271
2
272
2
273
2
274
2
275
0
280
0
281
0
282
0
283
1
284
8
285
0
286
0
287
3
288
0
340
11
278
44
341
214
342
214
343
214
344
214
  0
DIMSTYLE
105
219
100
AcDbSymbolTableRecord
100
AcDbDimStyleTableRecord
  2
DIMSTYLE_1
 70
0
  3

  4

 40
1.0
 41
3.0
 42
0.5
 43
0.38
 44
1.5
 45
0.0
 46
0.0
 47
0.0
 48
0.0
140
3.0
141
0.09
142
0.0
143
25.4
144
1.0
145
0.0
146
1.0
147
0.75
 71
0.0
 72
0.0
 73
0
 74
0
 75
0
 76
0
 77
1
 78
8
170
0
171
2
172
0
173
0
174
0
175
0
176
0
177
0
178
0
270
2
271
2
272
2
273
2
274
2
275
0
280
0
281
0
282
0
283
1
284
8
285
0
286
0
287
3
288
0
340
11
278
44
341
214
342
214
343
214
344
214
  0
ENDTAB
  0
ENDSEC
  0
SECTION
  2
BLOCKS
  0
BLOCK
  5
20
100
AcDbEntity
  8
0
100
AcDbBlockBegin
  2
*Model_Space
 70
0
 10
0.0
 20
0.0
 30
0.0
  3
*Model_Space
  1

  0
ENDBLK
  5
21
100
AcDbEntity
  8
0
100
AcDbBlockEnd
  0
BLOCK
  5
1C
100
AcDbEntity
  8
0
100
AcDbBlockBegin
  2
*Paper_Space
 70
0
 10
0.0
 20
0.0
 30
0.0
  3
*Paper_Space
  1

  0
ENDBLK
  5
1D
100
AcDbEntity
  8
0
100
AcDbBlockEnd
  0
BLOCK
  5
21A
100
AcDbEntity
  8
0
100
AcDbBlockBegin
  2
_FILLED
 70
64
 10
0.0
 20
0.0
  3
_FILLED
  1

  0
SOLID
  5
21B
100
AcDbEntity
  8
0
  6
BYBLOCK
 62
0
100
AcDbTrace
 10
0.0
 20
0.0
 11
-1.0
 21
0.3166666667
 12
-1.0
 22
-0.3166666667
 13
-1.0
 23
-0.3166666667
  0
ENDBLK
  5
21C
100
AcDbEntity
  8
0
  6
BYBLOCK
 62
0
100
AcDbBlockEnd
  0
BLOCK
  5
21D
100
AcDbEntity
  8
0
100
AcDbBlockBegin
 62
7
  6
CONTINUOUS
  2
*D0
 70
65
 10
0.0
 20
0.0
  3
*D0
  1

  0
MTEXT
  5
21E
100
AcDbEntity
  8
0
100
AcDbMText
 62
7
  6
CONTINUOUS
  7
STANDARD
 71
2
 72
1
 10
75.4938460239
 20
163.7727778886
 30
0.0
 11
1.0
 21
0.0
 31
0.0
 44
0.9
  1
10
 40
3.0
 41
4.0714285714
  0
LINE
  5
21F
100
AcDbEntity
  8
0
100
AcDbLine
 62
7
  6
CONTINUOUS
 10
80.4938460239
 20
143.4139408284
 11
80.4938460239
 21
161.5227778886
  0
LINE
  5
220
100
AcDbEntity
  8
0
100
AcDbLine
 62
7
  6
CONTINUOUS
 10
70.4938460239
 20
129.8458356096
 11
70.4938460239
 21
161.5227778886
  0
LINE
  5
221
100
AcDbEntity
  8
0
100
AcDbLine
 62
7
  6
CONTINUOUS
 10
80.4938460239
 20
160.0227778886
 11
84.4938460239
 21
160.0227778886
  0
LINE
  5
222
100
AcDbEntity
  8
0
100
AcDbLine
 62
7
  6
CONTINUOUS
 10
84.4938460239
 20
160.0227778886
 11
75.4938460239
 21
160.0227778886
  0
LINE
  5
223
100
AcDbEntity
  8
0
100
AcDbLine
 62
7
  6
CONTINUOUS
 10
70.4938460239
 20
160.0227778886
 11
66.4938460239
 21
160.0227778886
  0
LINE
  5
224
100
AcDbEntity
  8
0
100
AcDbLine
 62
7
  6
CONTINUOUS
 10
66.4938460239
 20
160.0227778886
 11
75.4938460239
 21
160.0227778886
  0
INSERT
  5
225
100
AcDbEntity
  8
0
100
AcDbBlockReference
 62
7
  6
CONTINUOUS
  2
_FILLED
 10
80.4938460239
 20
160.0227778886
 41
3.0
 42
3.0
 43
3.0
 50
180.0
  0
INSERT
  5
226
100
AcDbEntity
  8
0
100
AcDbBlockReference
 62
7
  6
CONTINUOUS
  2
_FILLED
 10
70.4938460239
 20
160.0227778886
 41
3.0
 42
3.0
 43
3.0
  0
ENDBLK
  5
227
100
AcDbEntity
  8
0
  6
BYBLOCK
 62
0
100
AcDbBlockEnd
  0
BLOCK
  5
228
100
AcDbEntity
  8
0
100
AcDbBlockBegin
 62
7
  6
CONTINUOUS
  2
*D1
 70
65
 10
0.0
 20
0.0
  3
*D1
  1

  0
MTEXT
  5
229
100
AcDbEntity
  8
0
100
AcDbMText
 62
7
  6
CONTINUOUS
  7
STANDARD
 71
2
 72
1
 10
168.8112847993
 20
162.7833440245
 30
0.0
 11
1.0
 21
0.0
 31
0.0
 44
0.9
  1
142,5
 40
3.0
 41
10.2857142857
  0
LINE
  5
22A
100
AcDbEntity
  8
0
100
AcDbLine
 62
7
  6
CONTINUOUS
 10
97.5612847993
 20
143.4139408284
 11
97.5612847993
 21
160.5333440245
  0
LINE
  5
22B
100
AcDbEntity
  8
0
100
AcDbLine
 62
7
  6
CONTINUOUS
 10
240.0612847993
 20
143.4139408284
 11
240.0612847993
 21
160.5333440245
  0
LINE
  5
22C
100
AcDbEntity
  8
0
100
AcDbLine
 62
7
  6
CONTINUOUS
 10
97.5612847993
 20
159.0333440245
 11
168.8112847993
 21
159.0333440245
  0
LINE
  5
22D
100
AcDbEntity
  8
0
100
AcDbLine
 62
7
  6
CONTINUOUS
 10
240.0612847993
 20
159.0333440245
 11
168.8112847993
 21
159.0333440245
  0
INSERT
  5
22E
100
AcDbEntity
  8
0
100
AcDbBlockReference
 62
7
  6
CONTINUOUS
  2
_FILLED
 10
97.5612847993
 20
159.0333440245
 41
3.0
 42
3.0
 43
3.0
 50
180.0
  0
INSERT
  5
22F
100
AcDbEntity
  8
0
100
AcDbBlockReference
 62
7
  6
CONTINUOUS
  2
_FILLED
 10
240.0612847993
 20
159.0333440245
 41
3.0
 42
3.0
 43
3.0
  0
ENDBLK
  5
230
100
AcDbEntity
  8
0
  6
BYBLOCK
 62
0
100
AcDbBlockEnd
  0
BLOCK
  5
231
100
AcDbEntity
  8
0
100
AcDbBlockBegin
 62
7
  6
CONTINUOUS
  2
*D2
 70
65
 10
0.0
 20
0.0
  3
*D2
  1

  0
MTEXT
  5
232
100
AcDbEntity
  8
0
100
AcDbMText
 62
7
  6
CONTINUOUS
  7
STANDARD
 71
2
 72
1
 10
253.6479448537
 20
102.4139408284
 30
0.0
 11
0.0
 21
1.0
 31
0.0
 44
0.9
  1
85
 40
3.0
 41
4.5
  0
LINE
  5
233
100
AcDbEntity
  8
0
100
AcDbLine
 62
7
  6
CONTINUOUS
 10
238.5612848
 20
59.9139408284
 11
258.8979448537
 21
59.9139408284
  0
LINE
  5
234
100
AcDbEntity
  8
0
100
AcDbLine
 62
7
  6
CONTINUOUS
 10
238.5612848
 20
144.9139408284
 11
258.8979448537
 21
144.9139408284
  0
LINE
  5
235
100
AcDbEntity
  8
0
100
AcDbLine
 62
7
  6
CONTINUOUS
 10
257.3979448537
 20
59.9139408284
 11
257.3979448537
 21
102.4139408284
  0
LINE
  5
236
100
AcDbEntity
  8
0
100
AcDbLine
 62
7
  6
CONTINUOUS
 10
257.3979448537
 20
144.9139408284
 11
257.3979448537
 21
102.4139408284
  0
INSERT
  5
237
100
AcDbEntity
  8
0
100
AcDbBlockReference
 62
7
  6
CONTINUOUS
  2
_FILLED
 10
257.3979448537
 20
59.9139408284
 41
3.0
 42
3.0
 43
3.0
 50
270.0
  0
INSERT
  5
238
100
AcDbEntity
  8
0
100
AcDbBlockReference
 62
7
  6
CONTINUOUS
  2
_FILLED
 10
257.3979448537
 20
144.9139408284
 41
3.0
 42
3.0
 43
3.0
 50
90.0
  0
ENDBLK
  5
239
100
AcDbEntity
  8
0
  6
BYBLOCK
 62
0
100
AcDbBlockEnd
  0
ENDSEC
  0
SECTION
  2
ENTITIES
  0
DIMENSION
  5
23A
100
AcDbEntity
  8
0
100
AcDbDimension
 62
7
  6
CONTINUOUS
  2
*D0
 10
70.4938460239
 20
160.0227778886
 11
75.4938460239
 21
160.0227778886
 70
160
 71
2
 42
10.0
  3
DIMSTYLE_1
100
AcDbAlignedDimension
 13
80.4938460239
 23
142.9139408284
 14
70.4938460239
 24
129.3458356096
 50
180.0
100
AcDbRotatedDimension
  0
DIMENSION
  5
23B
100
AcDbEntity
  8
0
100
AcDbDimension
 62
7
  6
CONTINUOUS
  2
*D1
 10
240.0612847993
 20
159.0333440245
 11
168.8112847993
 21
159.0333440245
 70
160
 71
2
 42
142.5
  3
DIMSTYLE_1
100
AcDbAlignedDimension
 13
97.5612847993
 23
142.9139408284
 14
240.0612847993
 24
142.9139408284
100
AcDbRotatedDimension
  0
DIMENSION
  5
23C
100
AcDbEntity
  8
0
100
AcDbDimension
 62
7
  6
CONTINUOUS
  2
*D2
 10
257.3979448537
 20
144.9139408284
 11
257.3979448537
 21
102.4139408284
 70
160
 71
2
 42
85.0
  3
DIMSTYLE_1
100
AcDbAlignedDimension
 13
238.0612848
 23
59.9139408284
 14
238.0612848
 24
144.9139408284
 50
90.0
100
AcDbRotatedDimension
  0
LWPOLYLINE
  5
23D
100
AcDbEntity
  8
RACCORDO
100
AcDbPolyline
 62
253
  6
CONTINUOUS
 90
28
 70
0
 10
98.0350713869
 20
61.9139408284
 10
98.0361068356
 20
61.84185409
 10
98.0416517849
 20
61.7676167149
 10
98.0517062377
 20
61.6912287031
 10
98.0659289621
 20
61.6122360899
 10
98.0846612026
 20
61.5310928399
 10
98.1089266822
 20
61.4491608476
 10
98.1390036705
 20
61.366149272
 10
98.1746139336
 20
61.2823489541
 10
98.2159464474
 20
61.199994311
 10
98.2632572387
 20
61.1191870416
 10
98.3162903406
 20
61.039825447
 10
98.3744667412
 20
60.963838848
 10
98.4380605677
 20
60.8913491151
 10
98.5067977669
 20
60.8222343778
 10
98.579277046
 20
60.7580583449
 10
98.6557445738
 20
60.6990488698
 10
98.7359542471
 20
60.644978099
 10
98.8177663365
 20
60.5967261811
 10
98.9012654104
 20
60.554628933
 10
98.9863669308
 20
60.5183505378
 10
99.0706774658
 20
60.4877636933
 10
99.1541219711
 20
60.4631804014
 10
99.2367754745
 20
60.4442886603
 10
99.3164696086
 20
60.4300251632
 10
99.3924815572
 20
60.4200354743
 10
99.4655340788
 20
60.4146740294
 10
99.5356271483
 20
60.4139408284
  0
LINE
  5
23E
100
AcDbEntity
  8
RACCORDO
100
AcDbLine
 62
7
  6
CONTINUOUS
 10
97.5612847993
 20
142.9139408284
 11
97.5612847993
 21
61.9139408284
  0
LWPOLYLINE
  5
23F
100
AcDbEntity
  8
RACCORDO
100
AcDbPolyline
 62
253
  6
CONTINUOUS
 90
10
 70
0
 10
99.5356271483
 20
60.4139408284
 10
99.5360169457
 20
60.3271167368
 10
99.5371744941
 20
60.2429307521
 10
99.5390646219
 20
60.1639408227
 10
99.5416298986
 20
60.0925470176
 10
99.5447923795
 20
60.0309186015
 10
99.5484559742
 20
59.9809281226
 10
99.5525093661
 20
59.9440945159
 10
99.5568293951
 20
59.9215369513
 10
99.5612847993
 20
59.9139408284
  0
LINE
  5
240
100
AcDbEntity
  8
RACCORDO
100
AcDbLine
 62
253
  6
CONTINUOUS
 10
98.0350713869
 20
142.9139408284
 11
98.0350713869
 21
61.9139408284
  0
LWPOLYLINE
  5
241
100
AcDbEntity
  8
RACCORDO
100
AcDbPolyline
 62
253
  6
CONTINUOUS
 90
10
 70
0
 10
99.5356271483
 20
144.4139408284
 10
99.5360169455
 20
144.5007649101
 10
99.5371744935
 20
144.5849508882
 10
99.539064621
 20
144.6639408146
 10
99.5416298974
 20
144.7353346201
 10
99.5447923782
 20
144.7969630395
 10
99.5484559729
 20
144.8469535232
 10
99.5525093651
 20
144.8837871351
 10
99.5568293945
 20
144.9063447039
 10
99.5612847993
 20
144.9139408284
  0
LWPOLYLINE
  5
242
100
AcDbEntity
  8
RACCORDO
100
AcDbPolyline
 62
253
  6
CONTINUOUS
 90
4
 70
0
 10
121.6610124622
 20
127.38810528
 10
121.6318903152
 20
127.273684892
 10
121.6141489143
 20
127.1558953767
 10
121.607788244
 20
127.034736734
  0
LWPOLYLINE
  5
243
100
AcDbEntity
  8
RACCORDO
100
AcDbPolyline
 62
253
  6
CONTINUOUS
 90
10
 70
0
 10
121.6612004715
 20
77.4391613556
 10
121.7022864235
 20
77.3269780061
 10
121.7547449989
 20
77.2182507701
 10
121.8169660337
 20
77.1162828102
 10
121.8891752094
 20
77.0213502571
 10
121.9711469468
 20
76.9331769802
 10
122.0605941802
 20
76.8542377498
 10
122.1578403163
 20
76.7847326024
 10
122.2625620567
 20
76.7244615015
 10
122.3715022448
 20
76.6752991091
  0
LWPOLYLINE
  5
244
100
AcDbEntity
  8
RACCORDO
100
AcDbPolyline
 62
253
  6
CONTINUOUS
 90
3
 70
0
 10
121.61421977
 20
77.6716942869
 10
121.6320238406
 20
77.5536997645
 10
121.6612004715
 20
77.4391613556
  0
LINE
  5
245
100
AcDbEntity
  8
RACCORDO
100
AcDbLine
 62
253
  6
CONTINUOUS
 10
123.8305886387
 20
126.4587543383
 11
123.8317428362
 21
126.4476504872
  0
LINE
  5
246
100
AcDbEntity
  8
RACCORDO
100
AcDbLine
 62
253
  6
CONTINUOUS
 10
123.8294047451
 20
126.4707213835
 11
123.8305886387
 21
126.4587543383
  0
LWPOLYLINE
  5
247
100
AcDbEntity
  8
RACCORDO
100
AcDbPolyline
 62
253
  6
CONTINUOUS
 90
26
 70
0
 10
123.9148429734
 20
125.101367742
 10
123.9155923364
 20
125.0934399636
 10
123.9163587614
 20
125.0857488323
 10
123.9171415758
 20
125.0783030413
 10
123.9179386953
 20
125.0711149382
 10
123.9187502468
 20
125.0641899673
 10
123.9195761852
 20
125.0575333894
 10
123.920414175
 20
125.0511556636
 10
123.9212642914
 20
125.0450612833
 10
123.9221265502
 20
125.0392540205
 10
123.9229985314
 20
125.0337416386
 10
123.9238800462
 20
125.0285287196
 10
123.9247713808
 20
125.0236163665
 10
123.9256708286
 20
125.0190063579
 10
123.9265782171
 20
125.0147022827
 10
123.9274938167
 20
125.0107053854
 10
123.9284165844
 20
125.0070146307
 10
123.9293467853
 20
125.003632094
 10
123.9302842508
 20
125.0005613088
 10
123.931227287
 20
124.9978041707
 10
123.9321762472
 20
124.99536243
 10
123.9331308766
 20
124.9932392113
 10
123.934088569
 20
124.9914376992
 10
123.9350484893
 20
124.9899593602
 10
123.9360115735
 20
124.9888046873
 10
123.9369778721
 20
124.9879744192
  0
LINE
  5
248
100
AcDbEntity
  8
RACCORDO
100
AcDbLine
 62
253
  6
CONTINUOUS
 10
123.8275896139
 20
126.4901237999
 11
123.8294047451
 21
126.4707213835
  0
LINE
  5
249
100
AcDbEntity
  8
RACCORDO
100
AcDbLine
 62
253
  6
CONTINUOUS
 10
123.825750283
 20
126.511021823
 11
123.8275896139
 21
126.4901237999
  0
LWPOLYLINE
  5
24A
100
AcDbEntity
  8
RACCORDO
100
AcDbPolyline
 62
253
  6
CONTINUOUS
 90
21
 70
0
 10
123.7196169314
 20
124.8949659348
 10
123.7204154972
 20
124.8856416646
 10
123.7212258259
 20
124.8767132098
 10
123.7220479461
 20
124.8681829215
 10
123.7228818293
 20
124.8600484487
 10
123.7237252276
 20
124.8523306036
 10
123.7245779118
 20
124.8450329274
 10
123.7254401111
 20
124.8381518788
 10
123.7263102659
 20
124.8316976461
 10
123.7271881703
 20
124.8256716147
 10
123.7280740302
 20
124.8200723992
 10
123.7289669038
 20
124.8149060315
 10
123.7298669917
 20
124.810171296
 10
123.7307740932
 20
124.8058694082
 10
123.731686665
 20
124.8020100473
 10
123.7326050019
 20
124.7985934103
 10
123.7335288092
 20
124.7956193002
 10
123.7344556595
 20
124.7930968049
 10
123.7353847436
 20
124.7910289539
 10
123.7363168708
 20
124.7894127178
 10
123.7372520409
 20
124.7882480966
  0
LINE
  5
24B
100
AcDbEntity
  8
RACCORDO
100
AcDbLine
 62
253
  6
CONTINUOUS
 10
123.9133931739
 20
125.1179138484
 11
123.9148429734
 21
125.101367742
  0
LINE
  5
24C
100
AcDbEntity
  8
RACCORDO
100
AcDbLine
 62
253
  6
CONTINUOUS
 10
123.8239128623
 20
126.5331187966
 11
123.825750283
 21
126.511021823
  0
LINE
  5
24D
100
AcDbEntity
  8
RACCORDO
100
AcDbLine
 62
253
  6
CONTINUOUS
 10
123.7180616089
 20
124.9147209577
 11
123.7196169314
 21
124.8949659348
  0
LINE
  5
24E
100
AcDbEntity
  8
RACCORDO
100
AcDbLine
 62
253
  6
CONTINUOUS
 10
123.8215109709
 20
126.5639024087
 11
123.8239128623
 21
126.5331187966
  0
LINE
  5
24F
100
AcDbEntity
  8
RACCORDO
100
AcDbLine
 62
253
  6
CONTINUOUS
 10
123.8192193583
 20
126.5954822447
 11
123.8215109709
 21
126.5639024087
  0
LINE
  5
250
100
AcDbEntity
  8
RACCORDO
100
AcDbLine
 62
253
  6
CONTINUOUS
 10
123.7165640822
 20
124.9359146483
 11
123.7180616089
 21
124.9147209577
  0
LINE
  5
251
100
AcDbEntity
  8
RACCORDO
100
AcDbLine
 62
253
  6
CONTINUOUS
 10
122.8005163816
 20
127.6822845054
 11
122.798316983
 21
127.7138806072
  0
LINE
  5
252
100
AcDbEntity
  8
RACCORDO
100
AcDbLine
 62
253
  6
CONTINUOUS
 10
123.7151318776
 20
124.9584132363
 11
123.7165640822
 21
124.9359146483
  0
LINE
  5
253
100
AcDbEntity
  8
RACCORDO
100
AcDbLine
 62
253
  6
CONTINUOUS
 10
122.798316983
 20
127.7138806072
 11
122.7963452152
 21
127.7446789695
  0
LINE
  5
254
100
AcDbEntity
  8
RACCORDO
100
AcDbLine
 62
253
  6
CONTINUOUS
 10
123.8317428362
 20
126.447650487
 11
123.9133931532
 21
125.1179143466
  0
LINE
  5
255
100
AcDbEntity
  8
RACCORDO
100
AcDbLine
 62
253
  6
CONTINUOUS
 10
123.6515401869
 20
126.0629003035
 11
123.7151318776
 21
124.9584132363
  0
LINE
  5
256
100
AcDbEntity
  8
RACCORDO
100
AcDbLine
 62
253
  6
CONTINUOUS
 10
122.7963452152
 20
127.7446789695
 11
122.7950459723
 21
127.7667851365
  0
LINE
  5
257
100
AcDbEntity
  8
RACCORDO
100
AcDbLine
 62
253
  6
CONTINUOUS
 10
121.607788244
 20
77.7931449229
 11
121.61421977
 21
77.6716942869
  0
LINE
  5
258
100
AcDbEntity
  8
RACCORDO
100
AcDbLine
 62
253
  6
CONTINUOUS
 10
122.7950459723
 20
127.7667851365
 11
122.7939213876
 21
127.7876901185
  0
LINE
  5
259
100
AcDbEntity
  8
RACCORDO
100
AcDbLine
 62
253
  6
CONTINUOUS
 10
122.7939213876
 20
127.7876901185
 11
122.7929874473
 21
127.8070967495
  0
LINE
  5
25A
100
AcDbEntity
  8
RACCORDO
100
AcDbLine
 62
253
  6
CONTINUOUS
 10
122.7929874473
 20
127.8070967495
 11
122.7924774075
 21
127.8190648587
  0
LINE
  5
25B
100
AcDbEntity
  8
RACCORDO
100
AcDbLine
 62
253
  6
CONTINUOUS
 10
122.7924774075
 20
127.8190648587
 11
122.7920612831
 21
127.8301682447
  0
LINE
  5
25C
100
AcDbEntity
  8
RACCORDO
100
AcDbLine
 62
253
  6
CONTINUOUS
 10
122.7920612831
 20
127.8301682447
 11
122.791741705
 21
127.8403367121
  0
LWPOLYLINE
  5
25D
100
AcDbEntity
  8
RACCORDO
100
AcDbPolyline
 62
253
  6
CONTINUOUS
 90
16
 70
0
 10
122.791741705
 20
127.8403367121
 10
122.7915206934
 20
127.8495059761
 10
122.7914476113
 20
127.8536975349
 10
122.7913996456
 20
127.8576180689
 10
122.7913768721
 20
127.8612613794
 10
122.7913793269
 20
127.8646217059
 10
122.791407006
 20
127.8676937352
 10
122.7914598657
 20
127.8704726103
 10
122.7915378224
 20
127.8729539372
 10
122.7916407528
 20
127.8751337927
 10
122.7917684943
 20
127.8770087303
 10
122.7919208448
 20
127.8785757854
 10
122.7920975634
 20
127.8798324804
 10
122.7922983708
 20
127.8807768282
 10
122.7925229494
 20
127.8814073356
 10
122.7927709441
 20
127.8817230059
  0
LWPOLYLINE
  5
25E
100
AcDbEntity
  8
RACCORDO
100
AcDbPolyline
 62
253
  6
CONTINUOUS
 90
61
 70
0
 10
121.8652872383
 20
77.942937728
 10
121.8656001952
 20
77.9179831775
 10
121.8665360219
 20
77.8930453498
 10
121.868094076
 20
77.8681397687
 10
121.8702733007
 20
77.8432821853
 10
121.873072295
 20
77.8184878186
 10
121.8764893773
 20
77.7937713536
 10
121.8805224733
 20
77.7691478709
 10
121.8851690309
 20
77.7446330071
 10
121.8904261204
 20
77.7202421982
 10
121.8962904271
 20
77.6959907404
 10
121.9027583089
 20
77.6718936122
 10
121.9098257794
 20
77.6479656434
 10
121.9174884441
 20
77.624221718
 10
121.925741528
 20
77.6006766308
 10
121.9345799413
 20
77.5773449139
 10
121.9439981994
 20
77.5542410819
 10
121.9539904424
 20
77.5313795389
 10
121.9645504913
 20
77.5087744454
 10
121.975671787
 20
77.486439888
 10
121.9873474228
 20
77.4643897767
 10
121.9995701862
 20
77.4426377616
 10
122.0123324887
 20
77.4211974039
 10
122.0256264079
 20
77.4000820637
 10
122.0394437397
 20
77.3793048071
 10
122.0537759144
 20
77.3588785876
 10
122.0686140323
 20
77.3388161507
 10
122.083948925
 20
77.3191299325
 10
122.0997710816
 20
77.2998322158
 10
122.1160706778
 20
77.280935051
 10
122.1328376276
 20
77.2624501727
 10
122.1500615297
 20
77.2443891244
 10
122.167731688
 20
77.2267631933
 10
122.1858371536
 20
77.2095833426
 10
122.2043666884
 20
77.1928603129
 10
122.223308785
 20
77.1766045628
 10
122.2426516979
 20
77.1608262133
 10
122.2623834156
 20
77.1455351401
 10
122.2824916811
 20
77.1307409162
 10
122.302964019
 20
77.116452761
 10
122.323787722
 20
77.1026796227
 10
122.3449498401
 20
77.0894301426
 10
122.3664372065
 20
77.0767126041
 10
122.388236481
 20
77.06453498
 10
122.4103340966
 20
77.052904924
 10
122.4327162506
 20
77.0418297355
 10
122.4553690108
 20
77.0313163787
 10
122.4782782986
 20
77.0213714553
 10
122.5014298341
 20
77.0120011956
 10
122.5248092014
 20
77.0032115023
 10
122.5484018624
 20
76.9950079073
 10
122.5721931398
 20
76.9873955456
 10
122.5961683285
 20
76.9803791964
 10
122.6203124011
 20
76.9739633296
 10
122.6446100184
 20
76.9681520425
 10
122.6690457763
 20
76.9629490551
 10
122.6936047183
 20
76.9583575867
 10
122.7182720472
 20
76.9543804347
 10
122.7430325679
 20
76.9510201305
 10
122.7678706889
 20
76.9482788936
 10
122.7927709343
 20
76.9461585172
  0
LWPOLYLINE
  5
25F
100
AcDbEntity
  8
RACCORDO
100
AcDbPolyline
 62
253
  6
CONTINUOUS
 90
61
 70
0
 10
122.0583304138
 20
77.942937728
 10
122.0585803811
 20
77.9229645761
 10
122.0593273177
 20
77.9030264287
 10
122.0605712236
 20
77.8831232859
 10
122.0623135034
 20
77.8632419013
 10
122.0645527525
 20
77.8433955211
 10
122.0672847576
 20
77.8236238847
 10
122.0705104305
 20
77.8039280222
 10
122.0742288595
 20
77.7843069033
 10
122.0784330952
 20
77.7647971764
 10
122.0831240365
 20
77.7453991011
 10
122.088300785
 20
77.7261124178
 10
122.0939536948
 20
77.7069729962
 10
122.1000836419
 20
77.6879811063
 10
122.1066897508
 20
77.6691364782
 10
122.1137597487
 20
77.6504741714
 10
122.1212945008
 20
77.6319945069
 10
122.1292931424
 20
77.6136971638
 10
122.1377408054
 20
77.5956162383
 10
122.1466383212
 20
77.5777521332
 10
122.155984859
 20
77.5601044456
 10
122.1657630582
 20
77.5427060636
 10
122.175973718
 20
77.5255574489
 10
122.1866160398
 20
77.5086581396
 10
122.1976702665
 20
77.4920396378
 10
122.2091371659
 20
77.4757024566
 10
122.2210159708
 20
77.4596460828
 10
122.2332846217
 20
77.4439004793
 10
122.2459438477
 20
77.4284662155
 10
122.2589929205
 20
77.413342722
 10
122.2724075939
 20
77.398558253
 10
122.2861885541
 20
77.3841134318
 10
122.3003351157
 20
77.3700076351
 10
122.3148209759
 20
77.3562672477
 10
122.3296467791
 20
77.3428929393
 10
122.3448118817
 20
77.3298840401
 10
122.3602880475
 20
77.3172649255
 10
122.3760758563
 20
77.3050363234
 10
122.3921747292
 20
77.2931975058
 10
122.4085546923
 20
77.2817706648
 10
122.4252162789
 20
77.270756563
 10
122.4421589564
 20
77.2601544377
 10
122.4593511516
 20
77.2499841932
 10
122.4767933481
 20
77.240246628
 10
122.494485063
 20
77.2309409436
 10
122.5123932726
 20
77.2220846481
 10
122.5305183757
 20
77.2136785867
 10
122.5488599742
 20
77.2057219142
 10
122.5673838487
 20
77.1982296035
 10
122.5860903419
 20
77.1912025191
 10
122.6049791116
 20
77.1846397963
 10
122.6240149113
 20
77.1785538139
 10
122.6431980742
 20
77.1729454579
 10
122.6625282676
 20
77.1678138422
 10
122.6819692452
 20
77.1631686865
 10
122.7015219883
 20
77.1590108495
 10
122.721185516
 20
77.1553394725
 10
122.7409206381
 20
77.1521616998
 10
122.7607142913
 20
77.1494799127
 10
122.7805795391
 20
77.14729173
 10
122.8005163816
 20
77.1455971515
  0
LWPOLYLINE
  5
260
100
AcDbEntity
  8
RACCORDO
100
AcDbPolyline
 62
253
  6
CONTINUOUS
 90
52
 70
0
 10
123.6515401869
 20
126.0629003035
 10
123.6514157149
 20
126.0772076385
 10
123.6515573227
 20
126.0913941733
 10
123.6519602378
 20
126.1054530067
 10
123.6526188649
 20
126.1193883006
 10
123.6535284294
 20
126.1331827725
 10
123.6546848479
 20
126.1467977187
 10
123.6560824452
 20
126.1602275502
 10
123.657714829
 20
126.1734662099
 10
123.6595759757
 20
126.1864747698
 10
123.6616596554
 20
126.1992499089
 10
123.6639581811
 20
126.2117850273
 10
123.6664617736
 20
126.2240370529
 10
123.6691628263
 20
126.2360017223
 10
123.6720524963
 20
126.2476757099
 10
123.675116948
 20
126.2590185617
 10
123.6783456413
 20
126.2700212096
 10
123.6817301563
 20
126.280688134
 10
123.685258271
 20
126.291000424
 10
123.6889186897
 20
126.3009504109
 10
123.6927034752
 20
126.3105437124
 10
123.696605414
 20
126.319781946
 10
123.7006157883
 20
126.3286638386
 10
123.7047257308
 20
126.3371900796
 10
123.7089284627
 20
126.3453653936
 10
123.7132164485
 20
126.3531900329
 10
123.7175811432
 20
126.3606644509
 10
123.7220147305
 20
126.3677938976
 10
123.7265097191
 20
126.3745783059
 10
123.7310587745
 20
126.3810197698
 10
123.7356546733
 20
126.3871270565
 10
123.7402917237
 20
126.3929019831
 10
123.7449622149
 20
126.3983457844
 10
123.7496561111
 20
126.4034667781
 10
123.7543670203
 20
126.4082658731
 10
123.7590890557
 20
126.4127465535
 10
123.7638130773
 20
126.4169215504
 10
123.7685325877
 20
126.4207920988
 10
123.7732431627
 20
126.4243624107
 10
123.7779390776
 20
126.4276499835
 10
123.7826152291
 20
126.4306572824
 10
123.7872673945
 20
126.4333877588
 10
123.7918915832
 20
126.4358604217
 10
123.7964825887
 20
126.4380778821
 10
123.8010378189
 20
126.4400436875
 10
123.8055576539
 20
126.4417780017
 10
123.810041252
 20
126.4432845871
 10
123.814483155
 20
126.444565418
 10
123.8188771743
 20
126.4456378884
 10
123.8232195238
 20
126.4465099054
 10
123.8275088381
 20
126.4471797454
 10
123.8317428362
 20
126.447650487
  0
LINE
  5
261
100
AcDbEntity
  8
RACCORDO
100
AcDbLine
 62
253
  6
CONTINUOUS
 10
121.607788244
 20
127.034736734
 11
121.607788244
 21
77.7931449229
  0
LINE
  5
262
100
AcDbEntity
  8
RACCORDO
100
AcDbLine
 62
7
  6
CONTINUOUS
 10
121.7112847993
 20
127.034736734
 11
121.7112847993
 21
77.7931449229
  0
LINE
  5
263
100
AcDbEntity
  8
RACCORDO
100
AcDbLine
 62
7
  6
CONTINUOUS
 10
121.8109634968
 20
126.9354438144
 11
121.8109634968
 21
77.8924378424
  0
LINE
  5
264
100
AcDbEntity
  8
RACCORDO
100
AcDbLine
 62
253
  6
CONTINUOUS
 10
121.8652872383
 20
126.8849439288
 11
121.8652872383
 21
77.942937728
  0
LINE
  5
265
100
AcDbEntity
  8
RACCORDO
100
AcDbLine
 62
253
  6
CONTINUOUS
 10
122.0583304138
 20
126.8849439288
 11
122.0583304138
 21
77.942937728
  0
LINE
  5
266
100
AcDbEntity
  8
RACCORDO
100
AcDbLine
 62
7
  6
CONTINUOUS
 10
122.3423704586
 20
128.0284609499
 11
122.3423704586
 21
127.8183116906
  0
LINE
  5
267
100
AcDbEntity
  8
RACCORDO
100
AcDbLine
 62
7
  6
CONTINUOUS
 10
122.3423704586
 20
77.0095699662
 11
122.3423704586
 21
76.7994194792
  0
LINE
  5
268
100
AcDbEntity
  8
RACCORDO
100
AcDbLine
 62
253
  6
CONTINUOUS
 10
123.4450933627
 20
78.7649813534
 11
123.4450933627
 21
126.0629003035
  0
LINE
  5
269
100
AcDbEntity
  8
RACCORDO
100
AcDbLine
 62
253
  6
CONTINUOUS
 10
123.6515401869
 20
78.7649813534
 11
123.6515401869
 21
126.0629003035
  0
LINE
  5
26A
100
AcDbEntity
  8
RACCORDO
100
AcDbLine
 62
7
  6
CONTINUOUS
 10
123.8112847993
 20
80.1136667317
 11
123.8112847993
 21
124.714214926
  0
LWPOLYLINE
  5
26B
100
AcDbEntity
  8
RACCORDO
100
AcDbPolyline
 62
7
  6
CONTINUOUS
 90
46
 70
0
 10
121.8109634968
 20
126.9354438144
 10
121.8112498497
 20
126.9594576178
 10
121.8121152072
 20
126.9834541805
 10
121.8135595695
 20
127.0074335024
 10
121.815584434
 20
127.0314177588
 10
121.8181883033
 20
127.0553847744
 10
121.8213666853
 20
127.0792680238
 10
121.8251225942
 20
127.1030658492
 10
121.829453016
 20
127.1267799083
 10
121.834344416
 20
127.1503486497
 10
121.8397946515
 20
127.1737578018
 10
121.8458058657
 20
127.1970216361
 10
121.8523709529
 20
127.2201214155
 10
121.8594887665
 20
127.2430572345
 10
121.8671604537
 20
127.2658289987
 10
121.8753823486
 20
127.288417687
 10
121.8841603806
 20
127.3108364462
 10
121.8934886212
 20
127.3330721295
 10
121.9033456178
 20
127.3550662749
 10
121.9137348195
 20
127.3768187965
 10
121.9246527782
 20
127.3983297802
 10
121.9360676954
 20
127.4195410218
 10
121.9479742016
 20
127.4404399278
 10
121.9603776673
 20
127.4610390916
 10
121.973262404
 20
127.4813180889
 10
121.9866258499
 20
127.5012748254
 10
122.0004705678
 20
127.5209113954
 10
122.0147885555
 20
127.5402136573
 10
122.029587348
 20
127.5591910595
 10
122.0448594114
 20
127.5778341536
 10
122.0605741406
 20
127.5961004535
 10
122.0767368656
 20
127.6139918872
 10
122.0933422574
 20
127.6315065267
 10
122.1103437223
 20
127.648596102
 10
122.1277369456
 20
127.6652532265
 10
122.1455262429
 20
127.6814852867
 10
122.1636779657
 20
127.6972661723
 10
122.1821879499
 20
127.7125920078
 10
122.2010603607
 20
127.7274666687
 10
122.2202740427
 20
127.7418756709
 10
122.2398334295
 20
127.7558219712
 10
122.2597340886
 20
127.7693026128
 10
122.279941566
 20
127.7822942409
 10
122.3004443774
 20
127.7947890709
 10
122.3212540081
 20
127.8067948874
 10
122.3423704586
 20
127.8183116906
  0
LWPOLYLINE
  5
26C
100
AcDbEntity
  8
RACCORDO
100
AcDbPolyline
 62
253
  6
CONTINUOUS
 90
52
 70
0
 10
123.4450933627
 20
126.0629003035
 10
123.4453743871
 20
126.0826210871
 10
123.4461626631
 20
126.1021623782
 10
123.4474581909
 20
126.1215241768
 10
123.4492718312
 20
126.1407306749
 10
123.4515927233
 20
126.1597576805
 10
123.4543882851
 20
126.1785326174
 10
123.4576609648
 20
126.1970541746
 10
123.4614083144
 20
126.2153236632
 10
123.4655904079
 20
126.2332724399
 10
123.4702112467
 20
126.2509015374
 10
123.4752668296
 20
126.2682099231
 10
123.4807052271
 20
126.2851258558
 10
123.4865306558
 20
126.3016469393
 10
123.4927388995
 20
126.3177755699
 10
123.4992653786
 20
126.3334471945
 10
123.5061095905
 20
126.3486506815
 10
123.5132720381
 20
126.3633971626
 10
123.5206896512
 20
126.3776554801
 10
123.528358434
 20
126.3914152632
 10
123.5362823825
 20
126.4046868827
 10
123.5444104133
 20
126.417470294
 10
123.5527411937
 20
126.429763394
 10
123.5612760566
 20
126.4415682858
 10
123.5699679167
 20
126.4528912344
 10
123.5788165131
 20
126.4637313904
 10
123.5878221068
 20
126.4740896032
 10
123.596938395
 20
126.4839746855
 10
123.6061640356
 20
126.4933844729
 10
123.6155003707
 20
126.5023211297
 10
123.6249051233
 20
126.510799962
 10
123.634379298
 20
126.5188206385
 10
123.6439218903
 20
126.5263834904
 10
123.6534876102
 20
126.5335048174
 10
123.6630749552
 20
126.5401820588
 10
123.6726854279
 20
126.5464177753
 10
123.6822782446
 20
126.5522359485
 10
123.6918500929
 20
126.5576340203
 10
123.7014042853
 20
126.5626145487
 10
123.7109099759
 20
126.5672091896
 10
123.7203649586
 20
126.5714170664
 10
123.7297714396
 20
126.5752390557
 10
123.7391051916
 20
126.578709443
 10
123.7483622912
 20
126.5818276832
 10
123.7575466617
 20
126.5845943214
 10
123.7666458462
 20
126.5870452781
 10
123.7756633874
 20
126.5891818343
 10
123.7845957425
 20
126.5910027089
 10
123.7934198258
 20
126.5925399795
 10
123.802127942
 20
126.5938043386
 10
123.8107277861
 20
126.5947850937
 10
123.8192193583
 20
126.5954822447
  0
LWPOLYLINE
  5
26D
100
AcDbEntity
  8
RACCORDO
100
AcDbPolyline
 62
253
  6
CONTINUOUS
 90
15
 70
0
 10
122.7915206845
 20
76.978375574
 10
122.7914476022
 20
76.9741840119
 10
122.7913996364
 20
76.9702634748
 10
122.7913768628
 20
76.9666201614
 10
122.7913793174
 20
76.9632598322
 10
122.7914069964
 20
76.9601878003
 10
122.791459856
 20
76.957408923
 10
122.7915378126
 20
76.9549275941
 10
122.791640743
 20
76.9527477367
 10
122.7917684844
 20
76.9508727975
 10
122.7919208349
 20
76.9493057411
 10
122.7920975536
 20
76.9480490451
 10
122.7922983609
 20
76.9471046965
 10
122.7925229396
 20
76.9464741884
 10
122.7927709344
 20
76.9461585178
  0
LWPOLYLINE
  5
26E
100
AcDbEntity
  8
RACCORDO
100
AcDbPolyline
 62
253
  6
CONTINUOUS
 90
40
 70
0
 10
123.7372520409
 20
124.7882480966
 10
123.7374354604
 20
124.7962762504
 10
123.7379414101
 20
124.8042914272
 10
123.738769072
 20
124.8122806717
 10
123.7399171084
 20
124.8202310706
 10
123.7413836637
 20
124.8281297732
 10
123.7431663675
 20
124.8359640124
 10
123.7452623382
 20
124.8437211254
 10
123.747668188
 20
124.8513885741
 10
123.7503800283
 20
124.858953965
 10
123.7533934758
 20
124.8664050701
 10
123.7567036597
 20
124.8737298456
 10
123.7603052295
 20
124.8809164521
 10
123.7641923639
 20
124.8879532737
 10
123.76835878
 20
124.8948289363
 10
123.7727977433
 20
124.9015323266
 10
123.7775020789
 20
124.9080526094
 10
123.7824641831
 20
124.9143792458
 10
123.7876760352
 20
124.9205020097
 10
123.7931292112
 20
124.9264110046
 10
123.7988148968
 20
124.9320966794
 10
123.804723902
 20
124.9375498443
 10
123.8108466757
 20
124.9427616848
 10
123.8171733215
 20
124.947723777
 10
123.8236936132
 20
124.9524281003
 10
123.8303970119
 20
124.9568670509
 10
123.8372726824
 20
124.9610334539
 10
123.8443095113
 20
124.964920575
 10
123.8514961246
 20
124.9685221313
 10
123.8588209064
 20
124.9718323012
 10
123.8662720171
 20
124.9748457346
 10
123.8738374132
 20
124.9775575605
 10
123.8815048663
 20
124.9799633959
 10
123.8892619833
 20
124.9820593519
 10
123.8970962258
 20
124.9838420408
 10
123.9049949311
 20
124.9853085811
 10
123.9129453321
 20
124.9864566025
 10
123.9209345782
 20
124.9872842492
 10
123.9289497559
 20
124.9877901837
 10
123.93697791
 20
124.987973588
  0
LINE
  5
26F
100
AcDbEntity
  8
RACCORDO
100
AcDbLine
 62
253
  6
CONTINUOUS
 10
122.7917416965
 20
76.9875448451
 11
122.7915206845
 21
76.978375574
  0
LINE
  5
270
100
AcDbEntity
  8
RACCORDO
100
AcDbLine
 62
253
  6
CONTINUOUS
 10
122.7920612752
 20
76.9977133203
 11
122.7917416965
 21
76.9875448451
  0
LINE
  5
271
100
AcDbEntity
  8
RACCORDO
100
AcDbLine
 62
253
  6
CONTINUOUS
 10
122.7924774001
 20
77.0088167146
 11
122.7920612752
 21
76.9977133203
  0
LINE
  5
272
100
AcDbEntity
  8
RACCORDO
100
AcDbLine
 62
253
  6
CONTINUOUS
 10
122.7929874405
 20
77.0207848325
 11
122.7924774001
 21
77.0088167146
  0
LINE
  5
273
100
AcDbEntity
  8
RACCORDO
100
AcDbLine
 62
253
  6
CONTINUOUS
 10
122.7939213819
 20
77.0401914772
 11
122.7929874405
 21
77.0207848325
  0
LINE
  5
274
100
AcDbEntity
  8
RACCORDO
100
AcDbLine
 62
253
  6
CONTINUOUS
 10
122.7950459677
 20
77.0610964732
 11
122.7939213819
 21
77.0401914772
  0
LINE
  5
275
100
AcDbEntity
  8
RACCORDO
100
AcDbLine
 62
253
  6
CONTINUOUS
 10
123.6515401869
 20
78.7649813534
 11
123.7151311687
 21
79.8694570613
  0
LINE
  5
276
100
AcDbEntity
  8
RACCORDO
100
AcDbLine
 62
253
  6
CONTINUOUS
 10
122.7963452119
 20
77.083202654
 11
122.7950459677
 21
77.0610964732
  0
LINE
  5
277
100
AcDbEntity
  8
RACCORDO
100
AcDbLine
 62
253
  6
CONTINUOUS
 10
123.8317428362
 20
78.3802311698
 11
123.9133931285
 21
79.7099675381
  0
LINE
  5
278
100
AcDbEntity
  8
RACCORDO
100
AcDbLine
 62
253
  6
CONTINUOUS
 10
123.7151311687
 20
79.8694570613
 11
123.7165622282
 21
79.891939231
  0
LINE
  5
279
100
AcDbEntity
  8
RACCORDO
100
AcDbLine
 62
253
  6
CONTINUOUS
 10
122.7983169813
 20
77.1140010339
 11
122.7963452119
 21
77.083202654
  0
LINE
  5
27A
100
AcDbEntity
  8
RACCORDO
100
AcDbLine
 62
253
  6
CONTINUOUS
 10
122.8005163816
 20
77.1455971515
 11
122.7983169813
 21
77.1140010339
  0
LINE
  5
27B
100
AcDbEntity
  8
RACCORDO
100
AcDbLine
 62
253
  6
CONTINUOUS
 10
123.7165622282
 20
79.891939231
 11
123.7180590208
 21
79.9131259476
  0
LWPOLYLINE
  5
27C
100
AcDbEntity
  8
RACCORDO
100
AcDbPolyline
 62
253
  6
CONTINUOUS
 90
40
 70
0
 10
123.7144398601
 20
124.970160808
 10
123.7148705986
 20
124.9759665126
 10
123.7156086879
 20
124.9817632635
 10
123.7166529897
 20
124.9875421211
 10
123.7180018936
 20
124.9932941733
 10
123.7196533192
 20
124.9990105493
 10
123.7216047198
 20
125.0046824333
 10
123.7238530859
 20
125.0103010783
 10
123.7263949502
 20
125.0158578192
 10
123.7292263925
 20
125.0213440866
 10
123.7323430463
 20
125.0267514194
 10
123.7357401051
 20
125.0320714786
 10
123.7394123299
 20
125.0372960597
 10
123.7433540576
 20
125.0424171053
 10
123.7475592092
 20
125.0474267178
 10
123.7520212995
 20
125.0523171715
 10
123.7567334473
 20
125.0570809243
 10
123.7616883854
 20
125.0617106296
 10
123.7668784724
 20
125.0661991476
 10
123.7722957042
 20
125.0705395561
 10
123.7779317264
 20
125.0747251613
 10
123.7837778472
 20
125.0787495083
 10
123.7898250508
 20
125.0826063908
 10
123.7960640112
 20
125.0862898607
 10
123.8024851068
 20
125.0897942374
 10
123.8090784349
 20
125.0931141165
 10
123.8158338275
 20
125.096244378
 10
123.8227408665
 20
125.0991801947
 10
123.8297888999
 20
125.1019170388
 10
123.8369670582
 20
125.1044506896
 10
123.8442642714
 20
125.1067772398
 10
123.8516692859
 20
125.1088931013
 10
123.8591706816
 20
125.1107950112
 10
123.86675689
 20
125.1124800362
 10
123.8744162117
 20
125.1139455779
 10
123.8821368347
 20
125.115189376
 10
123.8899068521
 20
125.1162095123
 10
123.8977142813
 20
125.1170044137
 10
123.9055470815
 20
125.1175728542
 10
123.9133931733
 20
125.1179139572
  0
LINE
  5
27D
100
AcDbEntity
  8
RACCORDO
100
AcDbLine
 62
253
  6
CONTINUOUS
 10
123.8192193632
 20
78.2323994121
 11
123.8215109761
 21
78.2639792541
  0
LINE
  5
27E
100
AcDbEntity
  8
RACCORDO
100
AcDbLine
 62
253
  6
CONTINUOUS
 10
123.8215109761
 20
78.2639792541
 11
123.8239128673
 21
78.2947628733
  0
LWPOLYLINE
  5
27F
100
AcDbEntity
  8
RACCORDO
100
AcDbPolyline
 62
253
  6
CONTINUOUS
 90
22
 70
0
 10
123.7180590208
 20
79.9131259476
 10
123.7196139806
 20
79.9328801723
 10
123.7204125001
 20
79.942206022
 10
123.7212228848
 20
79.9511369637
 10
123.7220451932
 20
79.9596708598
 10
123.7228793668
 20
79.9678098479
 10
123.7237230774
 20
79.9755320183
 10
123.7245760909
 20
79.9828336083
 10
123.7254386413
 20
79.9897183806
 10
123.7263091026
 20
79.9961757139
 10
123.7271872523
 20
80.0022040229
 10
123.7280733128
 20
80.0078048929
 10
123.7289663248
 20
80.0129724592
 10
123.7298664637
 20
80.017707848
 10
123.730773554
 20
80.022009933
 10
123.7316861101
 20
80.0258694699
 10
123.7326044214
 20
80.0292863782
 10
123.7335281985
 20
80.0322607383
 10
123.7344550869
 20
80.0347835475
 10
123.735384302
 20
80.0368518049
 10
123.7363166286
 20
80.0384685112
 10
123.7372520665
 20
80.0396336667
  0
LINE
  5
280
100
AcDbEntity
  8
RACCORDO
100
AcDbLine
 62
253
  6
CONTINUOUS
 10
123.8239128673
 20
78.2947628733
 11
123.8257502876
 21
78.3168598522
  0
LINE
  5
281
100
AcDbEntity
  8
RACCORDO
100
AcDbLine
 62
253
  6
CONTINUOUS
 10
123.8257502876
 20
78.3168598522
 11
123.8275896178
 21
78.3377578797
  0
LWPOLYLINE
  5
282
100
AcDbEntity
  8
RACCORDO
100
AcDbPolyline
 62
253
  6
CONTINUOUS
 90
27
 70
0
 10
123.9133931072
 20
79.709967937
 10
123.9148416082
 20
79.7265002267
 10
123.9155904477
 20
79.7344232274
 10
123.9163564286
 20
79.7421109102
 10
123.9171388815
 20
79.7495544719
 10
123.9179357328
 20
79.7567414153
 10
123.9187471085
 20
79.7636661877
 10
123.9195729635
 20
79.770323452
 10
123.9204109741
 20
79.7767026483
 10
123.921261243
 20
79.7827993619
 10
123.9221237578
 20
79.7886095193
 10
123.922996027
 20
79.7941247613
 10
123.9238778568
 20
79.7993404214
 10
123.9247695384
 20
79.8042554312
 10
123.9256693105
 20
79.808867725
 10
123.926576998
 20
79.8131737228
 10
123.9274928742
 20
79.8171722229
 10
123.9284158494
 20
79.82086412
 10
123.929346154
 20
79.8242472883
 10
123.9302836545
 20
79.8273184103
 10
123.931226715
 20
79.8300758329
 10
123.9321756846
 20
79.8325178064
 10
123.9331303128
 20
79.8346412324
 10
123.9340880651
 20
79.8364430689
 10
123.9350481304
 20
79.8379218192
 10
123.9360114206
 20
79.8390768726
 10
123.9369779863
 20
79.8399074247
  0
LINE
  5
283
100
AcDbEntity
  8
RACCORDO
100
AcDbLine
 62
253
  6
CONTINUOUS
 10
123.8275896178
 20
78.3377578797
 11
123.8294047479
 21
78.3571602993
  0
LINE
  5
284
100
AcDbEntity
  8
RACCORDO
100
AcDbLine
 62
253
  6
CONTINUOUS
 10
123.8294047479
 20
78.3571602993
 11
123.8305886407
 21
78.3691273456
  0
LINE
  5
285
100
AcDbEntity
  8
RACCORDO
100
AcDbLine
 62
253
  6
CONTINUOUS
 10
123.8305886407
 20
78.3691273456
 11
123.8317428373
 21
78.3802311969
  0
LWPOLYLINE
  5
286
100
AcDbEntity
  8
RACCORDO
100
AcDbPolyline
 62
7
  6
CONTINUOUS
 90
19
 70
0
 10
122.3423704586
 20
127.8183116906
 10
122.3628230518
 20
127.8288661985
 10
122.3834946609
 20
127.8389389992
 10
122.4043852859
 20
127.8485300928
 10
122.4255032005
 20
127.8576434644
 10
122.4468401309
 20
127.8662751289
 10
122.4683712564
 20
127.8744131311
 10
122.490097588
 20
127.8820576988
 10
122.5120181145
 20
127.8892086043
 10
122.5341049821
 20
127.8958532099
 10
122.5563675736
 20
127.9019926199
 10
122.578796506
 20
127.90762573
 10
122.6013357765
 20
127.912736589
 10
122.6239864682
 20
127.9173224762
 10
122.6467474979
 20
127.9213861122
 10
122.6695596127
 20
127.9249197084
 10
122.6924030618
 20
127.9279206682
 10
122.7152975959
 20
127.9303915881
 10
122.7382432153
 20
127.9323324681
  0
LWPOLYLINE
  5
287
100
AcDbEntity
  8
RACCORDO
100
AcDbPolyline
 62
253
  6
CONTINUOUS
 90
10
 70
0
 10
122.3709143892
 20
128.1523545867
 10
122.261976035
 20
128.1031490095
 10
122.1573400958
 20
128.0428485803
 10
122.0601741823
 20
127.9733126933
 10
121.9707700078
 20
127.8943376749
 10
121.8888357512
 20
127.8061271986
 10
121.8166636877
 20
127.7111516795
 10
121.7544782821
 20
127.6091026173
 10
121.7020549675
 20
127.5002885124
 10
121.6610124622
 20
127.38810528
  0
LWPOLYLINE
  5
288
100
AcDbEntity
  8
RACCORDO
100
AcDbPolyline
 62
253
  6
CONTINUOUS
 90
28
 70
0
 10
238.0869424503
 20
60.4139408284
 10
238.1622540916
 20
60.415069334
 10
238.2397622354
 20
60.4211099888
 10
238.319466862
 20
60.4320627928
 10
238.4019363565
 20
60.4475957751
 10
238.4866022887
 20
60.4680409066
 10
238.5717594322
 20
60.4943941001
 10
238.6577045286
 20
60.5270297852
 10
238.744140824
 20
60.5655735323
 10
238.8284728908
 20
60.6098979656
 10
238.9105021981
 20
60.6603116621
 10
238.990427318
 20
60.7165060448
 10
239.0662485209
 20
60.7774280064
 10
239.1377155148
 20
60.8432945063
 10
239.2050786628
 20
60.9138885851
 10
239.2670892439
 20
60.9875062577
 10
239.323471692
 20
61.0642725395
 10
239.3745016478
 20
61.1440624149
 10
239.419757208
 20
61.2247968523
 10
239.4589649648
 20
61.3065449468
 10
239.4923983836
 20
61.3892376031
 10
239.520455865
 20
61.4705885044
 10
239.5428704174
 20
61.5502801224
 10
239.5599090647
 20
61.6286299854
 10
239.5727712221
 20
61.7043043607
 10
239.5818566974
 20
61.7768586709
 10
239.5867656931
 20
61.8467374935
 10
239.5874982117
 20
61.9139408284
  0
LINE
  5
289
100
AcDbEntity
  8
RACCORDO
100
AcDbLine
 62
7
  6
CONTINUOUS
 10
99.5612847993
 20
59.9139408284
 11
238.0612847993
 21
59.9139408284
  0
LINE
  5
28A
100
AcDbEntity
  8
RACCORDO
100
AcDbLine
 62
253
  6
CONTINUOUS
 10
99.5356271483
 20
60.4139408284
 11
238.0869424503
 21
60.4139408284
  0
LINE
  5
28B
100
AcDbEntity
  8
RACCORDO
100
AcDbLine
 62
253
  6
CONTINUOUS
 10
98.0350713869
 20
61.9139408284
 11
97.5612847993
 21
61.9139408284
  0
LINE
  5
28C
100
AcDbEntity
  8
RACCORDO
100
AcDbLine
 62
253
  6
CONTINUOUS
 10
239.5874982117
 20
61.9139408284
 11
240.0612847993
 21
61.9139408284
  0
LWPOLYLINE
  5
28D
100
AcDbEntity
  8
RACCORDO
100
AcDbPolyline
 62
7
  6
CONTINUOUS
 90
46
 70
0
 10
122.3423704586
 20
77.0095699662
 10
122.3212538303
 20
77.0210869213
 10
122.3004443237
 20
77.0330926601
 10
122.2799419384
 20
77.0455871828
 10
122.259735424
 20
77.0585781106
 10
122.23983603
 20
77.0720578222
 10
122.2202775054
 20
77.0860034535
 10
122.2010640048
 20
77.1004122053
 10
122.1821913725
 20
77.1152868767
 10
122.1636808925
 20
77.1306130015
 10
122.1455282311
 20
77.1463946585
 10
122.127737721
 20
77.162627769
 10
122.1103436459
 20
77.1792856298
 10
122.0933419146
 20
77.1963754701
 10
122.0767366173
 20
77.2138900608
 10
122.0605743098
 20
77.2317810114
 10
122.0448605127
 20
77.250046112
 10
122.0295897042
 20
77.2686875726
 10
122.0147918764
 20
77.287663633
 10
122.0004743496
 20
77.3069650429
 10
121.9866298024
 20
77.3266010526
 10
121.9732662631
 20
77.3465576525
 10
121.9603810344
 20
77.3668372061
 10
121.9479768127
 20
77.38743735
 10
121.9360697176
 20
77.4083369843
 10
121.9246545249
 20
77.4295485324
 10
121.913736458
 20
77.4510595709
 10
121.9033473081
 20
77.4728117295
 10
121.893490609
 20
77.4948048568
 10
121.8841628262
 20
77.5170391043
 10
121.8753851487
 20
77.5394565549
 10
121.8671634316
 20
77.5620441291
 10
121.8594918192
 20
77.5848149065
 10
121.8523739346
 20
77.6077502096
 10
121.8458085734
 20
77.6308501116
 10
121.8397969395
 20
77.6541145392
 10
121.8343462684
 20
77.6775245957
 10
121.8294544256
 20
77.7010946703
 10
121.8251235453
 20
77.7248103739
 10
121.8213672658
 20
77.7486096418
 10
121.818188651
 20
77.7724939392
 10
121.8155846367
 20
77.796461801
 10
121.8135596696
 20
77.8204467682
 10
121.8121152317
 20
77.8444266876
 10
121.8112498408
 20
77.8684237124
 10
121.8109634968
 20
77.8924378424
  0
LWPOLYLINE
  5
28E
100
AcDbEntity
  8
RACCORDO
100
AcDbPolyline
 62
253
  6
CONTINUOUS
 90
10
 70
0
 10
122.7310819874
 20
76.6960736806
 10
122.7303802186
 20
76.694596771
 10
122.729477602
 20
76.6901249125
 10
122.72840165
 20
76.6827944116
 10
122.7271851591
 20
76.6728287083
 10
122.7258652084
 20
76.6605315654
 10
122.7244820285
 20
76.6462778096
 10
122.7230777792
 20
76.6305019063
 10
122.7216952639
 20
76.6136847175
 10
122.7203766228
 20
76.5963388441
  0
LWPOLYLINE
  5
28F
100
AcDbEntity
  8
RACCORDO
100
AcDbPolyline
 62
253
  6
CONTINUOUS
 90
3
 70
0
 10
215.0229829062
 20
76.6116400676
 10
215.139470298
 20
76.6380361429
 10
215.2516552094
 20
76.6755270702
  0
LINE
  5
290
100
AcDbEntity
  8
RACCORDO
100
AcDbLine
 62
253
  6
CONTINUOUS
 10
214.9021929968
 20
76.5963388441
 11
215.0229829062
 21
76.6116400676
  0
LWPOLYLINE
  5
291
100
AcDbEntity
  8
RACCORDO
100
AcDbPolyline
 62
253
  6
CONTINUOUS
 90
4
 70
0
 10
122.3715022448
 20
76.6752991091
 10
122.4835751735
 20
76.6378703123
 10
122.5998666136
 20
76.611550224
 10
122.7203766018
 20
76.5963388441
  0
LWPOLYLINE
  5
292
100
AcDbEntity
  8
RACCORDO
100
AcDbPolyline
 62
253
  6
CONTINUOUS
 90
10
 70
0
 10
122.731085493
 20
128.1317596529
 10
122.7303835132
 20
128.1332374051
 10
122.7294805648
 20
128.1377119781
 10
122.7284041893
 20
128.1450468904
 10
122.7271872186
 20
128.1550184158
 10
122.7258667716
 20
128.1673224077
 10
122.7244831217
 20
128.1815835758
 10
122.7230784717
 20
128.1973669334
 10
122.7216956663
 20
128.2141910645
 10
122.7203768834
 20
128.2315428082
  0
LWPOLYLINE
  5
293
100
AcDbEntity
  8
RACCORDO
100
AcDbPolyline
 62
253
  6
CONTINUOUS
 90
61
 70
0
 10
214.8297986642
 20
76.9461585172
 10
214.8546990483
 20
76.9482789072
 10
214.8795372662
 20
76.9510201595
 10
214.9042978423
 20
76.9543804779
 10
214.9289651678
 20
76.9583576367
 10
214.9535240659
 20
76.9629491038
 10
214.9779597919
 20
76.9681520903
 10
215.0022574122
 20
76.9739633838
 10
215.0264014995
 20
76.9803792605
 10
215.0503766973
 20
76.9873956187
 10
215.0741679698
 20
76.9950079853
 10
215.0977606207
 20
77.0032115832
 10
215.1211399828
 20
77.0120012809
 10
215.1442915237
 20
77.0213715492
 10
215.1672008212
 20
77.0313164836
 10
215.1898535885
 20
77.0418298509
 10
215.2122357443
 20
77.0529050477
 10
215.2343333592
 20
77.0645351111
 10
215.2561326318
 20
77.076712742
 10
215.277619995
 20
77.0894302866
 10
215.2987821088
 20
77.1026797722
 10
215.3196058081
 20
77.1164529164
 10
215.3400781435
 20
77.1307410783
 10
215.360186407
 20
77.1455353094
 10
215.3799181232
 20
77.1608263903
 10
215.3992610351
 20
77.1766047483
 10
215.4182031312
 20
77.1928605075
 10
215.4367326648
 20
77.2095835461
 10
215.4548381286
 20
77.2267634055
 10
215.4725082845
 20
77.244389345
 10
215.4897321835
 20
77.2624504013
 10
215.5064991293
 20
77.2809352868
 10
215.5227987209
 20
77.2998324583
 10
215.5386208724
 20
77.3191301814
 10
215.5539557596
 20
77.3388164054
 10
215.5687938716
 20
77.3588788478
 10
215.5831260405
 20
77.3793050729
 10
215.5969433667
 20
77.4000823358
 10
215.6102372804
 20
77.4211976824
 10
215.6229995773
 20
77.4426380466
 10
215.6352223352
 20
77.4643900689
 10
215.6468979653
 20
77.4864401874
 10
215.6580192546
 20
77.5087747508
 10
215.6685792963
 20
77.5313798487
 10
215.6785715313
 20
77.5542413947
 10
215.6879897809
 20
77.5773452283
 10
215.6968281844
 20
77.600676943
 10
215.7050812583
 20
77.6242220264
 10
215.7127439148
 20
77.6479659529
 10
215.7198113805
 20
77.6718939343
 10
215.7262792582
 20
77.6959910804
 10
215.7321435583
 20
77.7202425485
 10
215.7374006372
 20
77.7446333503
 10
215.7420471833
 20
77.7691481991
 10
215.7460802699
 20
77.7937716756
 10
215.7494973474
 20
77.8184881674
 10
215.7522963365
 20
77.8432825699
 10
215.7544755507
 20
77.8681401423
 10
215.7560335915
 20
77.8930456461
 10
215.7569694077
 20
77.9179833493
 10
215.7572823602
 20
77.942937728
  0
LWPOLYLINE
  5
294
100
AcDbEntity
  8
RACCORDO
100
AcDbPolyline
 62
253
  6
CONTINUOUS
 90
61
 70
0
 10
214.822053217
 20
77.1455971515
 10
214.8419884667
 20
77.1472915291
 10
214.8618524926
 20
77.1494795328
 10
214.881645295
 20
77.1521611628
 10
214.9013800628
 20
77.1553388116
 10
214.9210436073
 20
77.1590100866
 10
214.9405963614
 20
77.16316781
 10
214.960037216
 20
77.1678128275
 10
214.9793672806
 20
77.1729442934
 10
214.9985503168
 20
77.1785524928
 10
215.0175859929
 20
77.1846383139
 10
215.036474641
 20
77.1912008685
 10
215.0551810176
 20
77.198227777
 10
215.0737047826
 20
77.2057199042
 10
215.0920462766
 20
77.2136763852
 10
215.1101712773
 20
77.2220822462
 10
215.128079385
 20
77.2309383322
 10
215.145771
 20
77.2402437982
 10
215.1632131007
 20
77.2499811358
 10
215.1804052037
 20
77.2601511431
 10
215.1973477931
 20
77.270753022
 10
215.2140092985
 20
77.2817668694
 10
215.2303891844
 20
77.2931934451
 10
215.2464879869
 20
77.3050319894
 10
215.2622757427
 20
77.3172603193
 10
215.2777518696
 20
77.329879157
 10
215.2929169507
 20
77.3428877804
 10
215.3077427706
 20
77.3562618398
 10
215.3222286944
 20
77.3700020111
 10
215.3363753578
 20
77.3841076184
 10
215.3501564521
 20
77.3985522853
 10
215.363571293
 20
77.4133366359
 10
215.3766205655
 20
77.4284600461
 10
215.3892800151
 20
77.4438942666
 10
215.4015489186
 20
77.4596398762
 10
215.413428
 20
77.4756962962
 10
215.424895175
 20
77.4920335407
 10
215.4359496712
 20
77.5086521191
 10
215.4465922618
 20
77.5255515221
 10
215.4568031814
 20
77.5427002363
 10
215.466581629
 20
77.5600987208
 10
215.4759284063
 20
77.5777465166
 10
215.4848261519
 20
77.5956107332
 10
215.4932740347
 20
77.6136917731
 10
215.5012728865
 20
77.6319892338
 10
215.5088078399
 20
77.650469018
 10
215.5158780303
 20
77.6691314459
 10
215.5224843228
 20
77.6879761973
 10
215.5286144453
 20
77.7069682151
 10
215.5342675219
 20
77.7261077718
 10
215.5394444287
 20
77.7453945948
 10
215.5441355212
 20
77.7647928094
 10
215.5483399021
 20
77.7843026762
 10
215.5520584689
 20
77.8039239344
 10
215.5552842683
 20
77.8236199273
 10
215.5580163847
 20
77.8433915569
 10
215.5602557339
 20
77.863237921
 10
215.5619981091
 20
77.8831196565
 10
215.5632421082
 20
77.9030236423
 10
215.5639891334
 20
77.9229629995
 10
215.5642391848
 20
77.942937728
  0
LINE
  5
295
100
AcDbEntity
  8
RACCORDO
100
AcDbLine
 62
7
  6
CONTINUOUS
 10
214.8843263833
 20
76.8955491888
 11
214.8772919285
 21
76.8950350457
  0
LWPOLYLINE
  5
296
100
AcDbEntity
  8
RACCORDO
100
AcDbPolyline
 62
253
  6
CONTINUOUS
 90
58
 70
0
 10
213.7908267624
 20
78.3802311699
 10
212.868701049
 20
78.3147701514
 10
211.9134147692
 20
78.2483659715
 10
210.9249625946
 20
78.1811775978
 10
209.9058920248
 20
78.1135424142
 10
208.8536451781
 20
78.0454527451
 10
207.7605572931
 20
77.9765912983
 10
206.6266094821
 20
77.9071711037
 10
205.4518073066
 20
77.8374240235
 10
204.2285198909
 20
77.7671442759
 10
202.9565733416
 20
77.6966058077
 10
201.6361259793
 20
77.6261189267
 10
200.2600426448
 20
77.5556298266
 10
198.8282948504
 20
77.48550245
 10
197.340894955
 20
77.4161220064
 10
195.7907668009
 20
77.3475785438
 10
194.1784194634
 20
77.2803550928
 10
192.5033282804
 20
77.214913399
 10
190.7568644152
 20
77.1514540485
 10
188.9351568731
 20
77.090444806
 10
187.0420628928
 20
77.0326502048
 10
185.0805466992
 20
76.9787928027
 10
183.042541815
 20
76.9293297418
 10
180.9361133334
 20
76.8851544297
 10
178.7884329601
 20
76.8473844124
 10
176.5946836928
 20
76.816388334
 10
174.3597131337
 20
76.7926850712
 10
172.1252006885
 20
76.7769272192
 10
169.9053670767
 20
76.7691388524
 10
167.6860357052
 20
76.769193806
 10
165.4662931156
 20
76.7770916197
 10
163.2318888544
 20
76.7929589117
 10
160.997117749
 20
76.816769795
 10
158.8038800496
 20
76.8478651064
 10
156.6571358652
 20
76.8857205258
 10
154.5519533204
 20
76.9299661432
 10
152.5153813414
 20
76.9794834512
 10
150.5554816346
 20
77.0333774778
 10
148.6641631586
 20
77.091191165
 10
146.8442309287
 20
77.1522064821
 10
145.0995192781
 20
77.2156599153
 10
143.4261755929
 20
77.2810837708
 10
141.8154767616
 20
77.3482825164
 10
140.2668685595
 20
77.4167970888
 10
138.7809034852
 20
77.4861437455
 10
137.3505182675
 20
77.5562329889
 10
135.975729212
 20
77.6266804144
 10
134.6565113948
 20
77.6971227318
 10
133.3857406259
 20
77.7676138687
 10
132.163581359
 20
77.8378438306
 10
130.9898576135
 20
77.907539364
 10
129.8569354249
 20
77.9769068928
 10
128.7648128353
 20
78.0457154933
 10
127.7134750017
 20
78.1137524311
 10
126.6952697723
 20
78.1813346452
 10
125.7076427856
 20
78.2484699377
 10
124.7531358608
 20
78.314821637
 10
123.8317428362
 20
78.3802311698
  0
LWPOLYLINE
  5
297
100
AcDbEntity
  8
RACCORDO
100
AcDbPolyline
 62
253
  6
CONTINUOUS
 90
58
 70
0
 10
213.8033502404
 20
78.2323994121
 10
212.8808250806
 20
78.168208221
 10
211.9251342481
 20
78.1033536179
 10
210.9362759479
 20
78.0378356028
 10
209.9168061694
 20
77.9716280375
 10
208.8641655381
 20
77.9047570602
 10
207.7706787244
 20
77.8373010856
 10
206.6363323984
 20
77.7691825673
 10
205.461135578
 20
77.7004790518
 10
204.237445455
 20
77.6315015926
 10
202.9650942816
 20
77.5621496078
 10
201.6442448851
 20
77.4925236793
 10
200.2677494172
 20
77.4232366069
 10
198.8355855597
 20
77.3541802361
 10
197.3477705962
 20
77.2854627213
 10
195.797215356
 20
77.2180213255
 10
194.1844350648
 20
77.1517426296
 10
192.5089100756
 20
77.0867400527
 10
190.7619983323
 20
77.0242911143
 10
188.9398316942
 20
76.9641659081
 10
187.0462752093
 20
76.9065943404
 10
185.0842870479
 20
76.8535436506
 10
183.045792783
 20
76.8049435614
 10
180.9388680491
 20
76.76086435
 10
178.7906986865
 20
76.723484088
 10
176.5964476574
 20
76.6931717132
 10
174.3609601941
 20
76.6695582878
 10
172.1259487114
 20
76.6537150691
 10
169.9056189641
 20
76.645999609
 10
167.6857774565
 20
76.6460543557
 10
165.4655387346
 20
76.6538779117
 10
163.2306360649
 20
76.6698303487
 10
160.995348438
 20
76.6935515951
 10
158.8016079676
 20
76.7239600386
 10
156.654379141
 20
76.7614226961
 10
154.5487056211
 20
76.8055725507
 10
152.5116351051
 20
76.854226939
 10
150.551255358
 20
76.907312646
 10
148.6594797769
 20
76.9649028867
 10
146.8390919433
 20
77.0250346426
 10
145.0939287794
 20
77.0874772821
 10
143.4201502535
 20
77.1524614367
 10
141.8090240921
 20
77.2187159822
 10
140.2599926869
 20
77.2861289075
 10
138.77360923
 20
77.3548122237
 10
137.3428082305
 20
77.4238308393
 10
135.9676092967
 20
77.4930768669
 10
134.6479877915
 20
77.5626581941
 10
133.3768125785
 20
77.6319633915
 10
132.1542529934
 20
77.7008917486
 10
130.9801347862
 20
77.7695439761
 10
129.8468123441
 20
77.8376107766
 10
128.7542904216
 20
77.9050149625
 10
127.7025599605
 20
77.9718337214
 10
126.6839556283
 20
78.0379893192
 10
125.6959213848
 20
78.1034558446
 10
124.7410098919
 20
78.1682592089
 10
123.8192193583
 20
78.2323994121
  0
LWPOLYLINE
  5
298
100
AcDbEntity
  8
RACCORDO
100
AcDbPolyline
 62
253
  6
CONTINUOUS
 90
40
 70
0
 10
213.7091764455
 20
79.7099673102
 10
213.7170225523
 20
79.7103084151
 10
213.7248553676
 20
79.7108768581
 10
213.7326628115
 20
79.7116717627
 10
213.7404328435
 20
79.712691903
 10
213.7481534807
 20
79.7139357057
 10
213.7558128164
 20
79.7154012526
 10
213.7633990383
 20
79.7170862836
 10
213.7709004471
 20
79.7189882
 10
213.7783054741
 20
79.7211040687
 10
213.7856026994
 20
79.7234306266
 10
213.7927808691
 20
79.7259642858
 10
213.7998289133
 20
79.7287011387
 10
213.8067359623
 20
79.7316369648
 10
213.8134913642
 20
79.7347672362
 10
213.8200847009
 20
79.7380871257
 10
213.8265058042
 20
79.7415915132
 10
213.8327447714
 20
79.7452749943
 10
213.8387919809
 20
79.7491318883
 10
213.8446381067
 20
79.7531562473
 10
213.8502741329
 20
79.7573418647
 10
213.8556913677
 20
79.7616822857
 10
213.8608814567
 20
79.7661708164
 10
213.8658363957
 20
79.7708005346
 10
213.8705485432
 20
79.7755643005
 10
213.8750106323
 20
79.7804547673
 10
213.8792157814
 20
79.7854643931
 10
213.8831575056
 20
79.7905854519
 10
213.8868297257
 20
79.7958100462
 10
213.8902267786
 20
79.8011301186
 10
213.8933434254
 20
79.8065374645
 10
213.8961748596
 20
79.8120237447
 10
213.8987167145
 20
79.8175804984
 10
213.9009650701
 20
79.8231991558
 10
213.902916459
 20
79.8288710521
 10
213.9045678718
 20
79.8345874399
 10
213.9059167618
 20
79.8403395036
 10
213.9069610486
 20
79.8461183723
 10
213.9076991217
 20
79.8519151339
 10
213.908129843
 20
79.8577208486
  0
LWPOLYLINE
  5
299
100
AcDbEntity
  8
RACCORDO
100
AcDbPolyline
 62
253
  6
CONTINUOUS
 90
40
 70
0
 10
213.6855916887
 20
79.8399080689
 10
213.6936198441
 20
79.8400914732
 10
213.7016350192
 20
79.8405974074
 10
213.7096242587
 20
79.8414250533
 10
213.7175746478
 20
79.8425730723
 10
213.7254733375
 20
79.8440396086
 10
213.7333075651
 20
79.8458222923
 10
213.7410646693
 20
79.8479182424
 10
213.7487321104
 20
79.8503240709
 10
213.7562974955
 20
79.8530358893
 10
213.7637485962
 20
79.8560493143
 10
213.771073369
 20
79.8593594754
 10
213.7782599747
 20
79.8629610223
 10
213.7852967971
 20
79.8668481338
 10
213.7921724624
 20
79.871014527
 10
213.7988758572
 20
79.8754534677
 10
213.8053961464
 20
79.8801577813
 10
213.811722791
 20
79.885119864
 10
213.8178455648
 20
79.8903316955
 10
213.8237545714
 20
79.8957848519
 10
213.8294402595
 20
79.901470519
 10
213.8348934393
 20
79.9073795069
 10
213.8401052964
 20
79.913502265
 10
213.8450674064
 20
79.9198288966
 10
213.8497717488
 20
79.926349176
 10
213.8542107197
 20
79.9330525642
 10
213.858377144
 20
79.9399282262
 10
213.8622642872
 20
79.9469650489
 10
213.8658658661
 20
79.9541516582
 10
213.8691760593
 20
79.9614764381
 10
213.8721895161
 20
79.9689275495
 10
213.8749013656
 20
79.9764929487
 10
213.8773072243
 20
79.9841604075
 10
213.8794032033
 20
79.9919175326
 10
213.8811859147
 20
79.9997517859
 10
213.8826524767
 20
80.0076505043
 10
213.8838005187
 20
80.015600921
 10
213.8846281848
 20
80.0235901851
 10
213.8851341372
 20
80.0316053833
 10
213.8853175577
 20
80.0396335601
  0
LWPOLYLINE
  5
29A
100
AcDbEntity
  8
0
100
AcDbPolyline
 62
7
  6
CONTINUOUS
 90
91
 70
0
 10
172.4300705932
 20
78.2708409373
 10
172.4376729266
 20
78.2709482946
 10
172.445343743
 20
78.2712919932
 10
172.4530830414
 20
78.2718720245
 10
172.4609029638
 20
78.2726856037
 10
172.4687913661
 20
78.2737354978
 10
172.4767118183
 20
78.2750300244
 10
172.4846739687
 20
78.2765734363
 10
172.4926681668
 20
78.27836146
 10
172.5006290338
 20
78.2803896219
 10
172.5085398958
 20
78.28265437
 10
172.5164174248
 20
78.2851592344
 10
172.5242462614
 20
78.2879103644
 10
172.5320336006
 20
78.2909092052
 10
172.5397722454
 20
78.2941542894
 10
172.5474252483
 20
78.2976473968
 10
172.5549999276
 20
78.3013937109
 10
172.5624889632
 20
78.3053880265
 10
172.5698334505
 20
78.3096165416
 10
172.5770272585
 20
78.3140780173
 10
172.584076517
 20
78.3187736748
 10
172.5909407133
 20
78.3236934035
 10
172.5976132779
 20
78.3288335239
 10
172.6041007798
 20
78.3341977024
 10
172.6103824144
 20
78.3397868496
 10
172.6164589758
 20
78.3456054664
 10
172.6223296698
 20
78.3516490426
 10
172.6279713092
 20
78.3579049738
 10
172.6333871564
 20
78.3643789968
 10
172.6385739494
 20
78.3710653712
 10
172.6434987157
 20
78.3779342808
 10
172.6481579931
 20
78.3849820691
 10
172.6525552449
 20
78.3922123971
 10
172.6566678869
 20
78.3996064284
 10
172.6604948849
 20
78.4071627316
 10
172.6640372749
 20
78.4148827496
 10
172.6672755782
 20
78.4227519602
 10
172.6702122704
 20
78.4307816619
 10
172.6728448782
 20
78.4389605741
 10
172.6751464994
 20
78.4472403096
 10
172.6771157275
 20
78.4556251695
 10
172.6787539719
 20
78.4641108789
 10
172.680038555
 20
78.4726361906
 10
172.680965281
 20
78.4811954011
 10
172.6815383488
 20
78.4897942468
 10
172.6817476733
 20
78.4983886443
 10
172.6815866862
 20
78.5069735892
 10
172.6810619591
 20
78.5155541221
 10
172.680183116
 20
78.5241012284
 10
172.6789468982
 20
78.5326243555
 10
172.6773565676
 20
78.5411140921
 10
172.6754315289
 20
78.5495131327
 10
172.673169805
 20
78.5578198852
 10
172.6705733756
 20
78.5660359747
 10
172.6676675807
 20
78.5741089175
 10
172.6644528879
 20
78.5820296606
 10
172.6609288316
 20
78.589807284
 10
172.6571193509
 20
78.5974164998
 10
172.6530269522
 20
78.6048519333
 10
172.6486491307
 20
78.6121189803
 10
172.6440023084
 20
78.6192085055
 10
172.6390809949
 20
78.6261284728
 10
172.6338906818
 20
78.6328709351
 10
172.6284642643
 20
78.6394028864
 10
172.6228020867
 20
78.6457204303
 10
172.6169038051
 20
78.6518274714
 10
172.610801281
 20
78.6577026999
 10
172.6044977671
 20
78.6633382005
 10
172.5979900104
 20
78.6687418893
 10
172.5913001139
 20
78.6739161986
 10
172.5844246475
 20
78.6788633185
 10
172.5773670405
 20
78.683581056
 10
172.5701596854
 20
78.6880652662
 10
172.5627938833
 20
78.6923195193
 10
172.555278332
 20
78.6963402372
 10
172.5476715188
 20
78.7001125474
 10
172.5399756918
 20
78.7036326173
 10
172.5321886012
 20
78.7069042639
 10
172.5243619874
 20
78.7099240845
 10
172.5165087056
 20
78.7126877897
 10
172.5086158986
 20
78.7151996486
 10
172.5006967378
 20
78.7174690947
 10
172.4927430546
 20
78.7194992829
 10
172.4847630157
 20
78.7212870385
 10
172.4767942958
 20
78.7228322992
 10
172.4688207254
 20
78.7241340971
 10
172.4608584719
 20
78.7251933784
 10
172.4529937149
 20
78.7260129501
 10
172.4452551802
 20
78.7265937393
 10
172.43761414
 20
78.7269347946
 10
172.4300705933
 20
78.7270361046
  0
LINE
  5
29B
100
AcDbEntity
  8
0
100
AcDbLine
 62
7
  6
CONTINUOUS
 10
173.1515470583
 20
77.2520050624
 11
172.6985269513
 21
77.2520050624
  0
LINE
  5
29C
100
AcDbEntity
  8
0
100
AcDbLine
 62
7
  6
CONTINUOUS
 10
171.9434934383
 20
77.2520050624
 11
171.5408088983
 21
77.2520050624
  0
LINE
  5
29D
100
AcDbEntity
  8
0
100
AcDbLine
 62
7
  6
CONTINUOUS
 10
171.2220169713
 20
77.2520050624
 11
170.8193324313
 21
77.2520050624
  0
LINE
  5
29E
100
AcDbEntity
  8
0
100
AcDbLine
 62
7
  6
CONTINUOUS
 10
169.9300707383
 20
77.2520050624
 11
169.5273861983
 21
77.2520050624
  0
LINE
  5
29F
100
AcDbEntity
  8
0
100
AcDbLine
 62
7
  6
CONTINUOUS
 10
169.2085942713
 20
77.2520050624
 11
168.8059097313
 21
77.2520050624
  0
LINE
  5
2A0
100
AcDbEntity
  8
0
100
AcDbLine
 62
7
  6
CONTINUOUS
 10
168.4200037133
 20
77.2520050624
 11
168.0173191733
 21
77.2520050624
  0
LINE
  5
2A1
100
AcDbEntity
  8
0
100
AcDbLine
 62
7
  6
CONTINUOUS
 10
167.6314131563
 20
77.2520050624
 11
167.2287286163
 21
77.2520050624
  0
LINE
  5
2A2
100
AcDbEntity
  8
0
100
AcDbLine
 62
7
  6
CONTINUOUS
 10
166.8763796433
 20
77.2520050624
 11
166.4736951033
 21
77.2520050624
  0
LINE
  5
2A3
100
AcDbEntity
  8
0
100
AcDbLine
 62
7
  6
CONTINUOUS
 10
165.5173193213
 20
77.2520050624
 11
165.1314133033
 21
77.2520050624
  0
LINE
  5
2A4
100
AcDbEntity
  8
0
100
AcDbLine
 62
7
  6
CONTINUOUS
 10
170.6851042513
 20
77.6017546904
 11
170.0475203963
 21
77.6017546904
  0
LINE
  5
2A5
100
AcDbEntity
  8
RACCORDO
100
AcDbLine
 62
253
  6
CONTINUOUS
 10
121.7112847993
 20
77.7931449229
 11
121.6077882483
 21
77.7931449222
  0
LINE
  5
2A6
100
AcDbEntity
  8
RACCORDO
100
AcDbLine
 62
253
  6
CONTINUOUS
 10
215.9112847993
 20
77.7931449229
 11
216.0147813546
 21
77.7931449229
  0
LINE
  5
2A7
100
AcDbEntity
  8
0
100
AcDbLine
 62
7
  6
CONTINUOUS
 10
172.2958424113
 20
77.9362978134
 11
171.9434934383
 21
77.9362978134
  0
LINE
  5
2A8
100
AcDbEntity
  8
0
100
AcDbLine
 62
7
  6
CONTINUOUS
 10
170.1817485763
 20
77.9362978134
 11
170.5676545933
 21
77.9362978134
  0
LINE
  5
2A9
100
AcDbEntity
  8
RACCORDO
100
AcDbLine
 62
253
  6
CONTINUOUS
 10
122.0583304138
 20
77.942937728
 11
121.8652872383
 21
77.942937728
  0
LINE
  5
2AA
100
AcDbEntity
  8
RACCORDO
100
AcDbLine
 62
253
  6
CONTINUOUS
 10
215.5642391848
 20
77.942937728
 11
215.7572823602
 21
77.942937728
  0
LINE
  5
2AB
100
AcDbEntity
  8
0
100
AcDbLine
 62
7
  6
CONTINUOUS
 10
171.9267149163
 20
78.2708409374
 11
172.4300705909
 21
78.2708409374
  0
LINE
  5
2AC
100
AcDbEntity
  8
0
100
AcDbLine
 62
7
  6
CONTINUOUS
 10
172.4300705909
 20
78.7270361044
 11
171.9267149163
 21
78.7270361044
  0
LINE
  5
2AD
100
AcDbEntity
  8
RACCORDO
100
AcDbLine
 62
253
  6
CONTINUOUS
 10
214.1774762359
 20
78.7649813533
 11
213.9710294117
 21
78.7649813533
  0
LINE
  5
2AE
100
AcDbEntity
  8
RACCORDO
100
AcDbLine
 62
253
  6
CONTINUOUS
 10
123.4450933627
 20
78.7649813534
 11
123.6515401869
 21
78.7649813534
  0
LINE
  5
2AF
100
AcDbEntity
  8
0
100
AcDbLine
 62
7
  6
CONTINUOUS
 10
164.4770509263
 20
79.0615792284
 11
164.8797354663
 21
79.0615792284
  0
LINE
  5
2B0
100
AcDbEntity
  8
0
100
AcDbLine
 62
7
  6
CONTINUOUS
 10
165.7689971583
 20
79.0615792284
 11
166.1716816983
 21
79.0615792284
  0
LINE
  5
2B1
100
AcDbEntity
  8
0
100
AcDbLine
 62
7
  6
CONTINUOUS
 10
166.4736951033
 20
79.0615792284
 11
166.8763796433
 21
79.0615792284
  0
LINE
  5
2B2
100
AcDbEntity
  8
0
100
AcDbLine
 62
7
  6
CONTINUOUS
 10
167.2287286163
 20
79.0615792284
 11
167.8495339483
 21
79.0615792284
  0
LINE
  5
2B3
100
AcDbEntity
  8
0
100
AcDbLine
 62
7
  6
CONTINUOUS
 10
168.6045674613
 20
79.0615792284
 11
169.2085942713
 21
79.0615792284
  0
LINE
  5
2B4
100
AcDbEntity
  8
0
100
AcDbLine
 62
7
  6
CONTINUOUS
 10
170.1649700533
 20
79.0615792284
 11
170.5676545933
 21
79.0615792284
  0
LINE
  5
2B5
100
AcDbEntity
  8
0
100
AcDbLine
 62
7
  6
CONTINUOUS
 10
171.5408088983
 20
79.0615792284
 11
172.4804061584
 21
79.0615792284
  0
LINE
  5
2B6
100
AcDbEntity
  8
RACCORDO
100
AcDbLine
 62
253
  6
CONTINUOUS
 10
152.1693632221
 20
79.8435707089
 11
185.4234653606
 21
79.8435719527
  0
LWPOLYLINE
  5
2B7
100
AcDbEntity
  8
RACCORDO
100
AcDbPolyline
 62
253
  6
CONTINUOUS
 90
3
 70
0
 10
123.9369779799
 20
79.8399080947
 10
142.0241172875
 20
79.8429818008
 10
152.1693632221
 20
79.8435707089
  0
LINE
  5
2B8
100
AcDbEntity
  8
RACCORDO
100
AcDbLine
 62
7
  6
CONTINUOUS
 10
213.6115588927
 20
79.9139408284
 11
124.0110107063
 21
79.9139408284
  0
LWPOLYLINE
  5
2B9
100
AcDbEntity
  8
RACCORDO
100
AcDbPolyline
 62
253
  6
CONTINUOUS
 90
4
 70
0
 10
185.4234653606
 20
79.8435719527
 10
195.5926872025
 20
79.8429821855
 10
200.3961642516
 20
79.8424803102
 10
205.0130035589
 20
79.8417874074
  0
LINE
  5
2BA
100
AcDbEntity
  8
RACCORDO
100
AcDbLine
 62
253
  6
CONTINUOUS
 10
205.0130035589
 20
79.8417874074
 11
213.6855916887
 21
79.8399080689
  0
LWPOLYLINE
  5
2BB
100
AcDbEntity
  8
RACCORDO
100
AcDbPolyline
 62
253
  6
CONTINUOUS
 90
19
 70
0
 10
123.9133931285
 20
79.7099675381
 10
128.1608722396
 20
79.693875537
 10
132.5924460997
 20
79.6825281899
 10
137.2080766481
 20
79.6744892136
 10
142.0080320062
 20
79.6678937307
 10
146.9919626907
 20
79.6620060055
 10
152.1589108167
 20
79.6576627573
 10
157.5666339971
 20
79.6548705683
 10
163.1573751233
 20
79.6530451932
 10
168.7569218642
 20
79.6524053113
 10
174.3729274699
 20
79.6529981785
 10
179.9976972159
 20
79.6548240888
 10
185.4339963053
 20
79.6576430526
 10
190.615675617
 20
79.6619951229
 10
195.6088546014
 20
79.6678850405
 10
200.4147037965
 20
79.6744898513
 10
205.0335941302
 20
79.6825451348
 10
209.4650974681
 20
79.6938972025
 10
213.7091764455
 20
79.7099673101
  0
LWPOLYLINE
  5
2BC
100
AcDbEntity
  8
0
100
AcDbPolyline
 62
7
  6
CONTINUOUS
 90
97
 70
0
 10
172.4804061553
 20
79.0615792283
 10
172.4959739092
 20
79.0614027077
 10
172.5116426976
 20
79.0608411964
 10
172.5274125236
 20
79.0598947301
 10
172.543308261
 20
79.0585659022
 10
172.5593050426
 20
79.0568521936
 10
172.5753282602
 20
79.054745971
 10
172.5913743357
 20
79.0522447718
 10
172.607446854
 20
79.0493511331
 10
172.6234819508
 20
79.0460649172
 10
172.6394745318
 20
79.0423856155
 10
172.6554296979
 20
79.0383138078
 10
172.6712988778
 20
79.0338509849
 10
172.687074984
 20
79.0289996102
 10
172.70276511
 20
79.0237572864
 10
172.7183419553
 20
79.0181182105
 10
172.733815358
 20
79.0120787577
 10
172.7491754857
 20
79.0056426169
 10
172.7643655321
 20
78.9988149502
 10
172.7793841355
 20
78.9915948029
 10
172.7942326625
 20
78.9839831832
 10
172.8088583981
 20
78.9759881893
 10
172.8232523259
 20
78.9676124549
 10
172.8374234662
 20
78.9588533864
 10
172.8513461582
 20
78.9497112338
 10
172.8650170618
 20
78.9401885619
 10
172.8784395203
 20
78.9302828369
 10
172.8915978983
 20
78.9199866567
 10
172.9045059978
 20
78.9092889998
 10
172.9171500193
 20
78.8982009124
 10
172.9294729249
 20
78.8867480853
 10
172.9414727561
 20
78.8749285077
 10
172.953151472
 20
78.862744192
 10
172.9644579096
 20
78.8502268481
 10
172.9753852687
 20
78.837380554
 10
172.9859403482
 20
78.8242012096
 10
172.9960923835
 20
78.8107082444
 10
173.0058384311
 20
78.7969051332
 10
173.0151814318
 20
78.7827883617
 10
173.0240994461
 20
78.768366865
 10
173.0326026469
 20
78.7536248146
 10
173.0406808577
 20
78.7385779862
 10
173.0482816132
 20
78.7232827078
 10
173.0554029352
 20
78.7077377928
 10
173.062046796
 20
78.6919443474
 10
173.0681666542
 20
78.6759621206
 10
173.0737584948
 20
78.6597976727
 10
173.0788263251
 20
78.6434443399
 10
173.083335636
 20
78.6269420211
 10
173.0872791794
 20
78.6102926616
 10
173.0906641943
 20
78.593494197
 10
173.0934779021
 20
78.5765805031
 10
173.0957170683
 20
78.5595353986
 10
173.0973849175
 20
78.5423749387
 10
173.0984783592
 20
78.5251813505
 10
173.0989945085
 20
78.5079543677
 10
173.0989362398
 20
78.4906941282
 10
173.0983091024
 20
78.4734834647
 10
173.0971134171
 20
78.4563346101
 10
173.0953488528
 20
78.4392352094
 10
173.0930199804
 20
78.4222312163
 10
173.0901270926
 20
78.4053258642
 10
173.0866698868
 20
78.3885158078
 10
173.0826520416
 20
78.3718371369
 10
173.0780641359
 20
78.3552784569
 10
173.0729155815
 20
78.3388510624
 10
173.0672383068
 20
78.3226250864
 10
173.061027931
 20
78.3066019598
 10
173.0542888272
 20
78.2907801755
 10
173.0470660558
 20
78.2752254745
 10
173.0393655828
 20
78.259952337
 10
173.0311814365
 20
78.2449462353
 10
173.0225407717
 20
78.2302294115
 10
173.0134447313
 20
78.2158032867
 10
173.003892168
 20
78.2016664129
 10
172.993906802
 20
78.187836738
 10
172.9834777129
 20
78.174309354
 10
172.9726158182
 20
78.1610891611
 10
172.9613775957
 20
78.1482088319
 10
172.9497608793
 20
78.1356701191
 10
172.9377678341
 20
78.123471287
 10
172.9254614376
 20
78.1116397898
 10
172.9128485331
 20
78.1001820452
 10
172.8999222782
 20
78.0890916743
 10
172.8867251226
 20
78.0783769454
 10
172.8732451941
 20
78.0680297417
 10
172.8594943672
 20
78.0580582315
 10
172.8455507124
 20
78.0484951197
 10
172.8314083802
 20
78.0393415051
 10
172.8170732244
 20
78.0305963572
 10
172.8026408716
 20
78.022289197
 10
172.7881021471
 20
78.014422037
 10
172.7734662315
 20
78.0069929443
 10
172.7588562868
 20
78.0000255285
 10
172.7443133694
 20
77.9935276881
 10
172.7297964304
 20
77.9874916085
 10
172.7153054732
 20
77.9819173306
  0
LWPOLYLINE
  5
2BD
100
AcDbEntity
  8
RACCORDO
100
AcDbPolyline
 62
253
  6
CONTINUOUS
 90
40
 70
0
 10
123.9369779799
 20
79.8399080947
 10
123.9289498226
 20
79.8400914973
 10
123.9209346416
 20
79.8405974304
 10
123.9129453922
 20
79.841425076
 10
123.9049949878
 20
79.8425730966
 10
123.8970962792
 20
79.8440396363
 10
123.8892620333
 20
79.8458223249
 10
123.881504913
 20
79.8479182808
 10
123.8738374565
 20
79.8503241163
 10
123.8662720572
 20
79.8530359427
 10
123.8588209433
 20
79.8560493768
 10
123.8514961585
 20
79.8593595477
 10
123.8443095422
 20
79.8629611051
 10
123.8372727104
 20
79.8668482276
 10
123.8303970371
 20
79.8710146322
 10
123.8236936358
 20
79.8754535847
 10
123.8171733416
 20
79.88015791
 10
123.8108466936
 20
79.8851200044
 10
123.8047239177
 20
79.8903318474
 10
123.7988149106
 20
79.8957850149
 10
123.7931292232
 20
79.9014706925
 10
123.7876760457
 20
79.9073796903
 10
123.7824641922
 20
79.9135024573
 10
123.777502087
 20
79.9198290969
 10
123.7727977505
 20
79.926349383
 10
123.7683587865
 20
79.9330527767
 10
123.7641923701
 20
79.9399284429
 10
123.7603052356
 20
79.946965268
 10
123.7567036659
 20
79.9541518782
 10
123.7533934824
 20
79.9614766574
 10
123.7503800356
 20
79.9689277662
 10
123.7476681963
 20
79.9764931609
 10
123.7452623477
 20
79.9841606132
 10
123.7431663784
 20
79.99191773
 10
123.7413836764
 20
79.9997519729
 10
123.7399171231
 20
80.0076506791
 10
123.738769089
 20
80.0156010815
 10
123.7379414297
 20
80.0235903295
 10
123.7374354829
 20
80.0316055096
 10
123.7372520665
 20
80.0396336667
  0
LWPOLYLINE
  5
2BE
100
AcDbEntity
  8
RACCORDO
100
AcDbPolyline
 62
253
  6
CONTINUOUS
 90
40
 70
0
 10
123.9133931067
 20
79.7099678488
 10
123.9055470156
 20
79.7103089542
 10
123.897714216
 20
79.7108773969
 10
123.8899067877
 20
79.7116723005
 10
123.8821367712
 20
79.712692439
 10
123.8744161493
 20
79.7139362391
 10
123.8667568287
 20
79.7154017827
 10
123.8591706215
 20
79.7170868096
 10
123.8516692271
 20
79.7189887213
 10
123.8442642141
 20
79.7211045845
 10
123.8369670023
 20
79.7234311363
 10
123.8297888455
 20
79.7259647886
 10
123.8227408138
 20
79.7287016341
 10
123.8158337765
 20
79.731637452
 10
123.8090783856
 20
79.7347677148
 10
123.8024850592
 20
79.738087595
 10
123.7960639654
 20
79.7415919727
 10
123.7898250068
 20
79.7452754435
 10
123.7837778051
 20
79.7491323269
 10
123.7779316862
 20
79.7531566746
 10
123.7722956658
 20
79.7573422805
 10
123.7668784359
 20
79.7616826896
 10
123.7616883508
 20
79.766171208
 10
123.7567334145
 20
79.7708009138
 10
123.7520212686
 20
79.7755646669
 10
123.7475591801
 20
79.7804551208
 10
123.7433540303
 20
79.7854647334
 10
123.7394123045
 20
79.7905857791
 10
123.7357400814
 20
79.7958103602
 10
123.7323430243
 20
79.8011304193
 10
123.7292263722
 20
79.806537752
 10
123.7263949315
 20
79.812024019
 10
123.7238530688
 20
79.8175807597
 10
123.7216047042
 20
79.8231994043
 10
123.7196533051
 20
79.828871288
 10
123.7180018808
 20
79.8345876635
 10
123.7166529783
 20
79.8403397152
 10
123.7156086777
 20
79.8461185722
 10
123.7148705896
 20
79.8519153226
 10
123.7144398523
 20
79.8577210265
  0
LWPOLYLINE
  5
2BF
100
AcDbEntity
  8
RACCORDO
100
AcDbPolyline
 62
253
  6
CONTINUOUS
 90
13
 70
0
 10
122.7203766018
 20
76.5963388441
 10
130.3941718652
 20
76.0823169534
 10
138.0715061194
 20
75.6617439512
 10
145.7521319126
 20
75.3346198376
 10
153.4365681003
 20
75.1009328975
 10
161.1237995723
 20
74.960694846
 10
168.811276888
 20
74.9139408284
 10
176.4987455988
 20
74.9606941482
 10
184.185961594
 20
75.100931502
 10
191.8703909386
 20
75.3346181249
 10
199.5510236884
 20
75.6617424288
 10
207.2283735267
 20
76.0823160019
 10
214.9021929968
 20
76.5963388441
  0
LWPOLYLINE
  5
2C0
100
AcDbEntity
  8
RACCORDO
100
AcDbPolyline
 62
253
  6
CONTINUOUS
 90
43
 70
0
 10
122.8005163816
 20
77.1455971515
 10
124.9890277537
 20
76.990923853
 10
127.1778865047
 20
76.8437970133
 10
129.3670869104
 20
76.7042166326
 10
131.5566400059
 20
76.5721827709
 10
133.7465232973
 20
76.4476953682
 10
135.9366807543
 20
76.3307542434
 10
138.1271025494
 20
76.2213596399
 10
140.317787015
 20
76.1195113144
 10
142.508690346
 20
76.0252083567
 10
144.6998028924
 20
75.938450797
 10
146.8911227845
 20
75.8592386051
 10
149.0826178777
 20
75.7875707799
 10
151.2742933704
 20
75.7234469986
 10
153.4661325276
 20
75.666867584
 10
155.6580702951
 20
75.6178325028
 10
157.8500826495
 20
75.5763419996
 10
160.0421820605
 20
75.5423958299
 10
162.2343582091
 20
75.5159932265
 10
164.4266216749
 20
75.49713385
 10
166.6189503193
 20
75.4858180399
 10
168.8112847438
 20
75.4820460473
 10
171.003619161
 20
75.4858180394
 10
173.1959477949
 20
75.497133849
 10
175.3882112646
 20
75.5159932252
 10
177.5803874422
 20
75.5423958287
 10
179.7724868966
 20
75.5763419988
 10
181.9644992933
 20
75.6178325025
 10
184.1564371042
 20
75.6668675849
 10
186.3482763036
 20
75.7234470009
 10
188.5399518169
 20
75.7875707829
 10
190.7314468884
 20
75.8592386074
 10
192.9227667372
 20
75.9384507979
 10
195.1138792583
 20
76.0252083569
 10
197.3047825975
 20
76.1195113151
 10
199.4954670894
 20
76.2213596419
 10
201.6858889229
 20
76.3307542475
 10
203.8760464489
 20
76.4476953767
 10
206.0659298215
 20
76.5721827848
 10
208.2554829489
 20
76.7042166487
 10
210.4446833169
 20
76.8437970272
 10
212.633541981
 20
76.9909238615
 10
214.822053217
 20
77.1455971515
  0
LWPOLYLINE
  5
2C1
100
AcDbEntity
  8
RACCORDO
100
AcDbPolyline
 62
253
  6
CONTINUOUS
 90
43
 70
0
 10
122.7927709343
 20
76.9461585172
 10
124.9816182298
 20
76.791436255
 10
127.1708528896
 20
76.6442622938
 10
129.3604490725
 20
76.5046369996
 10
131.5503775238
 20
76.3725608811
 10
133.7406158258
 20
76.2480338756
 10
135.9311484065
 20
76.1310554677
 10
138.1219455037
 20
76.0216259644
 10
140.3129852457
 20
75.9197451888
 10
142.5042639212
 20
75.8254121049
 10
144.6957518799
 20
75.7386269447
 10
146.8874271838
 20
75.6593895423
 10
149.0792977194
 20
75.5876987149
 10
151.2713487074
 20
75.5235543334
 10
153.463543384
 20
75.4669568734
 10
155.6558566753
 20
75.4179062858
 10
157.8482445814
 20
75.3764028042
 10
160.0406995691
 20
75.3424458298
 10
162.2332512782
 20
75.3160345189
 10
164.4258903281
 20
75.2971689947
 10
166.618574595
 20
75.2858496394
 10
168.8112846137
 20
75.2820765082
 10
171.0039946252
 20
75.2858496381
 10
173.196678882
 20
75.2971689921
 10
175.389317936
 20
75.3160345149
 10
177.5818696744
 20
75.3424458249
 10
179.7743247057
 20
75.3764027988
 10
181.9667126545
 20
75.4179062803
 10
184.1590259893
 20
75.4669568679
 10
186.3512207085
 20
75.5235543284
 10
188.5432717173
 20
75.5876987099
 10
190.7351422316
 20
75.659389536
 10
192.9268174923
 20
75.7386269361
 10
195.1183054261
 20
75.8254120945
 10
197.30958411
 20
75.9197451779
 10
199.5006238786
 20
76.021625954
 10
201.6914210144
 20
76.1310554585
 10
203.8819536551
 20
76.2480338692
 10
206.0721920291
 20
76.3725608785
 10
208.2621205314
 20
76.5046369999
 10
210.4517167335
 20
76.6442622954
 10
212.6409513915
 20
76.7914362566
 10
214.8297986642
 20
76.9461585172
  0
LINE
  5
2C2
100
AcDbEntity
  8
RACCORDO
100
AcDbLine
 62
7
  6
CONTINUOUS
 10
122.7452776704
 20
76.8950350456
 11
122.7382432156
 21
76.8955491888
  0
LWPOLYLINE
  5
2C3
100
AcDbEntity
  8
RACCORDO
100
AcDbPolyline
 62
253
  6
CONTINUOUS
 90
52
 70
0
 10
123.8192193583
 20
78.2323994121
 10
123.8107072321
 20
78.2331016936
 10
123.8021057952
 20
78.2340828434
 10
123.7934150476
 20
78.2353428615
 10
123.7846363816
 20
78.2368697392
 10
123.7757684051
 20
78.2386754852
 10
123.7668069416
 20
78.2407961262
 10
123.7577456544
 20
78.2432313185
 10
123.7485908804
 20
78.2459814058
 10
123.7393574532
 20
78.2490834451
 10
123.7300422957
 20
78.2525377371
 10
123.7206484851
 20
78.2563439811
 10
123.7112000861
 20
78.2605383328
 10
123.7016937059
 20
78.2651223699
 10
123.6921327374
 20
78.2700945147
 10
123.6825514239
 20
78.2754861899
 10
123.6729472167
 20
78.2812997915
 10
123.6633226645
 20
78.2875329236
 10
123.653719656
 20
78.2942098197
 10
123.6441363321
 20
78.3013335531
 10
123.6345745518
 20
78.3089010506
 10
123.6250817809
 20
78.3169273271
 10
123.6156589552
 20
78.3254132868
 10
123.6063051387
 20
78.3343580256
 10
123.5970649905
 20
78.343773846
 10
123.5879391808
 20
78.353660659
 10
123.5789270391
 20
78.3640185536
 10
123.5700712129
 20
78.3748600996
 10
123.5613696557
 20
78.3861881512
 10
123.5528244137
 20
78.3979998543
 10
123.5444842732
 20
78.4102992155
 10
123.5363482132
 20
78.4230884204
 10
123.5284172544
 20
78.4363652836
 10
123.5207432462
 20
78.4501272557
 10
123.5133237373
 20
78.4643810044
 10
123.5061611787
 20
78.479119862
 10
123.4993147722
 20
78.4943212767
 10
123.4927822565
 20
78.5099991173
 10
123.4865658925
 20
78.5261395149
 10
123.4807316654
 20
78.5426783108
 10
123.4752832975
 20
78.5596210237
 10
123.4702170661
 20
78.5769621348
 10
123.465587789
 20
78.5946209289
 10
123.4614005972
 20
78.6125947321
 10
123.4576503593
 20
78.6308862183
 10
123.4543765001
 20
78.6494226942
 10
123.4515818932
 20
78.6682043579
 10
123.4492636647
 20
78.6872310112
 10
123.4474526172
 20
78.7064293662
 10
123.4461590182
 20
78.7257749936
 10
123.4453726
 20
78.7452923226
 10
123.4450933627
 20
78.7649813534
  0
LWPOLYLINE
  5
2C4
100
AcDbEntity
  8
RACCORDO
100
AcDbPolyline
 62
7
  6
CONTINUOUS
 90
19
 70
0
 10
122.7382432153
 20
76.8955491888
 10
122.7152975394
 20
76.8974900899
 10
122.6924030808
 20
76.899960999
 10
122.6695598394
 20
76.9029619161
 10
122.6467481183
 20
76.9064954317
 10
122.6239876144
 20
76.9105589554
 10
122.601337419
 20
76.9151447154
 10
122.5787985397
 20
76.9202554443
 10
122.556369969
 20
76.9258884096
 10
122.5341077753
 20
76.9320276416
 10
122.512021488
 20
76.9386719777
 10
122.4901015778
 20
76.9458225805
 10
122.4683755254
 20
76.9534669681
 10
122.4468441477
 20
76.9616049739
 10
122.4255066279
 20
76.9702367645
 10
122.4043879961
 20
76.9793503573
 10
122.3834965956
 20
76.9889417581
 10
122.3628240831
 20
76.999014961
 10
122.3423704586
 20
77.0095699662
  0
LWPOLYLINE
  5
2C5
100
AcDbEntity
  8
RACCORDO
100
AcDbPolyline
 62
253
  6
CONTINUOUS
 90
52
 70
0
 10
123.8317428362
 20
78.3802311698
 10
123.8274983458
 20
78.3807046926
 10
123.8232080051
 20
78.381374956
 10
123.8188740586
 20
78.3822445811
 10
123.8145022717
 20
78.3833103589
 10
123.8100918433
 20
78.3845805865
 10
123.8056355155
 20
78.3860756689
 10
123.8011339258
 20
78.3877988914
 10
123.7965927774
 20
78.3897532503
 10
123.7920128849
 20
78.3919594232
 10
123.7873972957
 20
78.3944209043
 10
123.7827508013
 20
78.3971406289
 10
123.7780772849
 20
78.4001386405
 10
123.7733804577
 20
78.4034190247
 10
123.7686660658
 20
78.4069839581
 10
123.7639414374
 20
78.4108505147
 10
123.7592114071
 20
78.4150227913
 10
123.7544821505
 20
78.4195022786
 10
123.749763266
 20
78.4243017293
 10
123.7450605008
 20
78.4294249893
 10
123.740380496
 20
78.4348727185
 10
123.7357342763
 20
78.4406522544
 10
123.7311294597
 20
78.4467651374
 10
123.7265718637
 20
78.4532128634
 10
123.722069908
 20
78.4600021364
 10
123.7176318287
 20
78.4671333383
 10
123.713264018
 20
78.4746078893
 10
123.7089725299
 20
78.4824338162
 10
123.7047651472
 20
78.4906131088
 10
123.7006503095
 20
78.4991445783
 10
123.696635594
 20
78.5080313198
 10
123.6927298933
 20
78.5172739966
 10
123.6889418462
 20
78.5268713016
 10
123.6852791603
 20
78.536823114
 10
123.6817504952
 20
78.5471323562
 10
123.6783661161
 20
78.5577938845
 10
123.6751363305
 20
78.5687949953
 10
123.6720691596
 20
78.5801423192
 10
123.6691760066
 20
78.5918248347
 10
123.6664709947
 20
78.6038022715
 10
123.6639627883
 20
78.6160735495
 10
123.6616596756
 20
78.6286322777
 10
123.6595726725
 20
78.6414288878
 10
123.6577095449
 20
78.6544554344
 10
123.6560761522
 20
78.6677098075
 10
123.6546786014
 20
78.6811502984
 10
123.6535230358
 20
78.6947704671
 10
123.6526148181
 20
78.7085649919
 10
123.6519577914
 20
78.7224933484
 10
123.6515563559
 20
78.7365376324
 10
123.6514156943
 20
78.7507025957
 10
123.6515401869
 20
78.7649813534
  0
LINE
  5
2C6
100
AcDbEntity
  8
RACCORDO
100
AcDbLine
 62
253
  6
CONTINUOUS
 10
123.7372520665
 20
80.0396336667
 11
123.8112847993
 21
80.1136667317
  0
LINE
  5
2C7
100
AcDbEntity
  8
RACCORDO
100
AcDbLine
 62
253
  6
CONTINUOUS
 10
123.9369779799
 20
79.8399080947
 11
124.0110107063
 21
79.9139408284
  0
LINE
  5
2C8
100
AcDbEntity
  8
RACCORDO
100
AcDbLine
 62
253
  6
CONTINUOUS
 10
121.8652872383
 20
77.942937728
 11
121.8109634968
 21
77.8924378424
  0
LINE
  5
2C9
100
AcDbEntity
  8
RACCORDO
100
AcDbLine
 62
253
  6
CONTINUOUS
 10
122.7927709343
 20
76.9461585172
 11
122.7382432153
 21
76.8955491888
  0
LINE
  5
2CA
100
AcDbEntity
  8
RACCORDO
100
AcDbLine
 62
253
  6
CONTINUOUS
 10
122.7927709343
 20
127.8817231397
 11
122.7382432153
 21
127.9323324681
  0
LINE
  5
2CB
100
AcDbEntity
  8
RACCORDO
100
AcDbLine
 62
253
  6
CONTINUOUS
 10
121.8652872383
 20
126.8849439288
 11
121.8109634968
 21
126.9354438144
  0
LINE
  5
2CC
100
AcDbEntity
  8
RACCORDO
100
AcDbLine
 62
253
  6
CONTINUOUS
 10
123.7372520409
 20
124.7882480966
 11
123.8112847993
 21
124.714214926
  0
LINE
  5
2CD
100
AcDbEntity
  8
RACCORDO
100
AcDbLine
 62
253
  6
CONTINUOUS
 10
123.93697791
 20
124.9879735879
 11
124.0110107058
 21
124.9139408284
  0
LINE
  5
2CE
100
AcDbEntity
  8
0
100
AcDbLine
 62
7
  6
CONTINUOUS
 10
172.7153054732
 20
77.9819173306
 11
173.1515470583
 21
77.2520050624
  0
LINE
  5
2CF
100
AcDbEntity
  8
0
100
AcDbLine
 62
7
  6
CONTINUOUS
 10
172.6985269513
 20
77.2520050624
 11
172.2958424113
 21
77.9362978134
  0
LINE
  5
2D0
100
AcDbEntity
  8
0
100
AcDbLine
 62
7
  6
CONTINUOUS
 10
165.1314133033
 20
77.2520050624
 11
164.4770509263
 21
79.0615792284
  0
LINE
  5
2D1
100
AcDbEntity
  8
0
100
AcDbLine
 62
7
  6
CONTINUOUS
 10
164.8797354663
 20
79.0615792284
 11
165.3159770513
 21
77.7994392634
  0
LINE
  5
2D2
100
AcDbEntity
  8
0
100
AcDbLine
 62
7
  6
CONTINUOUS
 10
166.4736951033
 20
77.2520050624
 11
166.4736951033
 21
79.0615792284
  0
LINE
  5
2D3
100
AcDbEntity
  8
0
100
AcDbLine
 62
7
  6
CONTINUOUS
 10
166.8763796433
 20
79.0615792284
 11
166.8763796433
 21
77.2520050624
  0
LINE
  5
2D4
100
AcDbEntity
  8
0
100
AcDbLine
 62
7
  6
CONTINUOUS
 10
167.2287286163
 20
77.2520050624
 11
167.2287286163
 21
79.0615792284
  0
LINE
  5
2D5
100
AcDbEntity
  8
0
100
AcDbLine
 62
7
  6
CONTINUOUS
 10
167.6314131563
 20
78.4381124984
 11
167.6314131563
 21
77.2520050624
  0
LINE
  5
2D6
100
AcDbEntity
  8
0
100
AcDbLine
 62
7
  6
CONTINUOUS
 10
168.8059097313
 20
77.2520050624
 11
168.8059097313
 21
78.4381124984
  0
LINE
  5
2D7
100
AcDbEntity
  8
0
100
AcDbLine
 62
7
  6
CONTINUOUS
 10
169.2085942713
 20
79.0615792284
 11
169.2085942713
 21
77.2520050624
  0
LINE
  5
2D8
100
AcDbEntity
  8
0
100
AcDbLine
 62
7
  6
CONTINUOUS
 10
170.8193324313
 20
77.2520050624
 11
170.6851042513
 21
77.6017546904
  0
LINE
  5
2D9
100
AcDbEntity
  8
0
100
AcDbLine
 62
7
  6
CONTINUOUS
 10
170.5676545933
 20
79.0615792284
 11
171.2220169713
 21
77.2520050624
  0
LINE
  5
2DA
100
AcDbEntity
  8
0
100
AcDbLine
 62
7
  6
CONTINUOUS
 10
170.5676545933
 20
77.9362978134
 11
170.3663123233
 21
78.4989385214
  0
LINE
  5
2DB
100
AcDbEntity
  8
0
100
AcDbLine
 62
7
  6
CONTINUOUS
 10
168.0173191733
 20
77.2520050624
 11
167.6314131563
 21
78.4381124984
  0
LINE
  5
2DC
100
AcDbEntity
  8
0
100
AcDbLine
 62
7
  6
CONTINUOUS
 10
167.8495339483
 20
79.0615792284
 11
168.2186614433
 21
77.8754717914
  0
LINE
  5
2DD
100
AcDbEntity
  8
0
100
AcDbLine
 62
7
  6
CONTINUOUS
 10
171.5408088983
 20
77.2520050624
 11
171.5408088983
 21
79.0615792284
  0
LINE
  5
2DE
100
AcDbEntity
  8
0
100
AcDbLine
 62
7
  6
CONTINUOUS
 10
171.9267149163
 20
78.7270361044
 11
171.9267149163
 21
78.2708409374
  0
LINE
  5
2DF
100
AcDbEntity
  8
0
100
AcDbLine
 62
7
  6
CONTINUOUS
 10
171.9434934383
 20
77.9362978134
 11
171.9434934383
 21
77.2520050624
  0
LINE
  5
2E0
100
AcDbEntity
  8
0
100
AcDbLine
 62
7
  6
CONTINUOUS
 10
168.2186614433
 20
77.8754717914
 11
168.6045674613
 21
79.0615792284
  0
LINE
  5
2E1
100
AcDbEntity
  8
0
100
AcDbLine
 62
7
  6
CONTINUOUS
 10
168.8059097313
 20
78.4381124984
 11
168.4200037133
 21
77.2520050624
  0
LINE
  5
2E2
100
AcDbEntity
  8
0
100
AcDbLine
 62
7
  6
CONTINUOUS
 10
170.3663123233
 20
78.4989385214
 11
170.1817485763
 21
77.9362978134
  0
LINE
  5
2E3
100
AcDbEntity
  8
0
100
AcDbLine
 62
7
  6
CONTINUOUS
 10
170.0475203963
 20
77.6017546904
 11
169.9300707383
 21
77.2520050624
  0
LINE
  5
2E4
100
AcDbEntity
  8
0
100
AcDbLine
 62
7
  6
CONTINUOUS
 10
169.5273861983
 20
77.2520050624
 11
170.1649700533
 21
79.0615792284
  0
LINE
  5
2E5
100
AcDbEntity
  8
0
100
AcDbLine
 62
7
  6
CONTINUOUS
 10
165.3159770513
 20
77.7994392634
 11
165.7689971583
 21
79.0615792284
  0
LINE
  5
2E6
100
AcDbEntity
  8
0
100
AcDbLine
 62
7
  6
CONTINUOUS
 10
166.1716816983
 20
79.0615792284
 11
165.5173193213
 21
77.2520050624
  0
LINE
  5
2E7
100
AcDbEntity
  8
RACCORDO
100
AcDbLine
 62
253
  6
CONTINUOUS
 10
213.6855916188
 20
124.9879735622
 11
213.6115588923
 21
124.9139408284
  0
LINE
  5
2E8
100
AcDbEntity
  8
RACCORDO
100
AcDbLine
 62
253
  6
CONTINUOUS
 10
213.8853175321
 20
124.7882479903
 11
213.8112847993
 21
124.7142149252
  0
LINE
  5
2E9
100
AcDbEntity
  8
RACCORDO
100
AcDbLine
 62
253
  6
CONTINUOUS
 10
215.8116061017
 20
126.9354438144
 11
215.7572823602
 21
126.8849439288
  0
LINE
  5
2EA
100
AcDbEntity
  8
RACCORDO
100
AcDbLine
 62
253
  6
CONTINUOUS
 10
214.8843263833
 20
127.9323324681
 11
214.8297986642
 21
127.8817231397
  0
LWPOLYLINE
  5
2EB
100
AcDbEntity
  8
RACCORDO
100
AcDbPolyline
 62
253
  6
CONTINUOUS
 90
28
 70
0
 10
213.6855917266
 20
79.8399072373
 10
213.6865583014
 20
79.8390766863
 10
213.6875215957
 20
79.8379216342
 10
213.6884816603
 20
79.8364428852
 10
213.6894394053
 20
79.8346410501
 10
213.6903940213
 20
79.8325176256
 10
213.6913429788
 20
79.8300756537
 10
213.6922860289
 20
79.8273182327
 10
213.693223519
 20
79.8242471125
 10
213.6941538133
 20
79.820863946
 10
213.6950767783
 20
79.8171720508
 10
213.6959926443
 20
79.8131735525
 10
213.6969003217
 20
79.8088675566
 10
213.6978000838
 20
79.8042552649
 10
213.6986917555
 20
79.799340257
 10
213.6995735754
 20
79.7941245989
 10
213.7004458349
 20
79.7886093589
 10
213.70130834
 20
79.7827992037
 10
213.7021585994
 20
79.7767024922
 10
213.7029966005
 20
79.7703232983
 10
213.7038224462
 20
79.7636660364
 10
213.7046338127
 20
79.7567412664
 10
213.7054306536
 20
79.7495543252
 10
213.7062130962
 20
79.7421107657
 10
213.7069790712
 20
79.7344230856
 10
213.7077279107
 20
79.7265000885
 10
213.7084603509
 20
79.7183461157
 10
213.7091764249
 20
79.7099678082
  0
LINE
  5
2EC
100
AcDbEntity
  8
RACCORDO
100
AcDbLine
 62
253
  6
CONTINUOUS
 10
214.8297986642
 20
76.9461585172
 11
214.8843263833
 21
76.8955491888
  0
LINE
  5
2ED
100
AcDbEntity
  8
RACCORDO
100
AcDbLine
 62
253
  6
CONTINUOUS
 10
215.7572823602
 20
77.942937728
 11
215.8116061017
 21
77.8924378424
  0
LINE
  5
2EE
100
AcDbEntity
  8
RACCORDO
100
AcDbLine
 62
253
  6
CONTINUOUS
 10
213.6115588927
 20
79.9139408284
 11
213.6855916887
 21
79.8399080689
  0
LINE
  5
2EF
100
AcDbEntity
  8
RACCORDO
100
AcDbLine
 62
253
  6
CONTINUOUS
 10
213.8112847993
 20
80.1136667308
 11
213.8853175577
 21
80.0396335601
  0
LWPOLYLINE
  5
2F0
100
AcDbEntity
  8
RACCORDO
100
AcDbPolyline
 62
253
  6
CONTINUOUS
 90
21
 70
0
 10
213.8853175577
 20
80.0396335601
 10
213.8862529952
 20
80.0384683697
 10
213.8871853213
 20
80.0368516376
 10
213.888114536
 20
80.0347833636
 10
213.8890414241
 20
80.0322605498
 10
213.8899652009
 20
80.0292861942
 10
213.8908835119
 20
80.0258692905
 10
213.8917960676
 20
80.0220097554
 10
213.8927031576
 20
80.0177076723
 10
213.8936032962
 20
80.0129722854
 10
213.8944963079
 20
80.0078047211
 10
213.8953823681
 20
80.0022038531
 10
213.8962605176
 20
79.9961755462
 10
213.8971309785
 20
79.989718215
 10
213.8979935287
 20
79.9828334449
 10
213.8988465419
 20
79.9755318571
 10
213.8996902522
 20
79.9678096889
 10
213.9005244256
 20
79.9596707031
 10
213.9013467338
 20
79.9511368093
 10
213.9021571182
 20
79.9422058701
 10
213.9029556375
 20
79.932880023
  0
LWPOLYLINE
  5
2F1
100
AcDbEntity
  8
RACCORDO
100
AcDbPolyline
 62
253
  6
CONTINUOUS
 90
10
 70
0
 10
214.8914876112
 20
128.1318079762
 10
214.89218938
 20
128.1332848858
 10
214.8930919966
 20
128.1377567443
 10
214.8941679486
 20
128.1450872452
 10
214.8953844395
 20
128.1550529486
 10
214.8967043902
 20
128.1673500914
 10
214.8980875701
 20
128.1816038473
 10
214.8994918194
 20
128.1973797506
 10
214.9008743347
 20
128.2141969393
 10
214.9021929758
 20
128.2315428127
  0
LINE
  5
2F2
100
AcDbEntity
  8
RACCORDO
100
AcDbLine
 62
253
  6
CONTINUOUS
 10
122.7203766018
 20
128.2315428127
 11
122.5995866924
 21
128.2162415893
  0
LWPOLYLINE
  5
2F3
100
AcDbEntity
  8
RACCORDO
100
AcDbPolyline
 62
253
  6
CONTINUOUS
 90
61
 70
0
 10
122.8005163816
 20
127.6822845054
 10
122.7805811319
 20
127.6805901278
 10
122.7607171059
 20
127.678402124
 10
122.7409243036
 20
127.675720494
 10
122.7211895357
 20
127.6725428452
 10
122.7015259913
 20
127.6688715703
 10
122.6819732372
 20
127.6647138469
 10
122.6625323826
 20
127.6600688294
 10
122.6432023179
 20
127.6549373635
 10
122.6240192818
 20
127.6493291641
 10
122.6049836057
 20
127.6432433429
 10
122.5860949576
 20
127.6366807883
 10
122.567388581
 20
127.6296538798
 10
122.548864816
 20
127.6221617527
 10
122.530523322
 20
127.6142052717
 10
122.5123983212
 20
127.6057994106
 10
122.4944902136
 20
127.5969433246
 10
122.4767985986
 20
127.5876378586
 10
122.4593564979
 20
127.577900521
 10
122.4421643949
 20
127.5677305137
 10
122.4252218055
 20
127.5571286348
 10
122.4085603001
 20
127.5461147875
 10
122.3921804142
 20
127.5346882117
 10
122.3760816117
 20
127.5228496675
 10
122.3602938559
 20
127.5106213376
 10
122.3448177289
 20
127.4980024998
 10
122.3296526479
 20
127.4849938765
 10
122.314826828
 20
127.471619817
 10
122.3003409042
 20
127.4578796458
 10
122.2861942408
 20
127.4437740384
 10
122.2724131464
 20
127.4293293716
 10
122.2589983056
 20
127.4145450209
 10
122.2459490331
 20
127.3994216108
 10
122.2332895835
 20
127.3839873903
 10
122.22102068
 20
127.3682417806
 10
122.2091415986
 20
127.3521853607
 10
122.1976744236
 20
127.3358481161
 10
122.1866199274
 20
127.3192295377
 10
122.1759773368
 20
127.3023301347
 10
122.1657664172
 20
127.2851814205
 10
122.1559879696
 20
127.267782936
 10
122.1466411923
 20
127.2501351402
 10
122.1377434467
 20
127.2322709236
 10
122.1292955639
 20
127.2141898838
 10
122.1212967121
 20
127.1958924231
 10
122.1137617587
 20
127.1774126388
 10
122.1066915683
 20
127.158750211
 10
122.1000852757
 20
127.1399054596
 10
122.0939551533
 20
127.1209134418
 10
122.0883020767
 20
127.1017738851
 10
122.0831251698
 20
127.082487062
 10
122.0784340774
 20
127.0630888475
 10
122.0742296965
 20
127.0435789807
 10
122.0705111297
 20
127.0239577224
 10
122.0672853303
 20
127.0042617295
 10
122.0645532139
 20
126.9844901
 10
122.0623138647
 20
126.9646437358
 10
122.0605714894
 20
126.9447620003
 10
122.0593274904
 20
126.9248580145
 10
122.0585804652
 20
126.9049186574
 10
122.0583304138
 20
126.8849439288
  0
LWPOLYLINE
  5
2F4
100
AcDbEntity
  8
RACCORDO
100
AcDbPolyline
 62
253
  6
CONTINUOUS
 90
61
 70
0
 10
122.7927709343
 20
127.8817231397
 10
122.7678705503
 20
127.8796027497
 10
122.7430323324
 20
127.8768614974
 10
122.7182717563
 20
127.873501179
 10
122.6936044308
 20
127.8695240201
 10
122.6690455327
 20
127.8649325531
 10
122.6446098067
 20
127.8597295665
 10
122.6203121864
 20
127.853918273
 10
122.5961680991
 20
127.8475023964
 10
122.5721929013
 20
127.8404860381
 10
122.5484016288
 20
127.8328736716
 10
122.5248089779
 20
127.8246700736
 10
122.5014296158
 20
127.815880376
 10
122.4782780749
 20
127.8065101077
 10
122.4553687774
 20
127.7965651733
 10
122.43271601
 20
127.7860518059
 10
122.4103338543
 20
127.7749766091
 10
122.3882362394
 20
127.7633465457
 10
122.3664369668
 20
127.7511689148
 10
122.3449496036
 20
127.7384513702
 10
122.3237874898
 20
127.7252018846
 10
122.3029637905
 20
127.7114287404
 10
122.2824914551
 20
127.6971405785
 10
122.2623831916
 20
127.6823463475
 10
122.2426514754
 20
127.6670552666
 10
122.2233085635
 20
127.6512769086
 10
122.2043664674
 20
127.6350211494
 10
122.1858369337
 20
127.6182981107
 10
122.16773147
 20
127.6011182514
 10
122.1500613141
 20
127.5834923118
 10
122.1328374151
 20
127.5654312555
 10
122.1160704693
 20
127.54694637
 10
122.0997708777
 20
127.5280491986
 10
122.0839487261
 20
127.5087514755
 10
122.068613839
 20
127.4890652515
 10
122.053775727
 20
127.4690028091
 10
122.0394435581
 20
127.4485765839
 10
122.0256262319
 20
127.427799321
 10
122.0123323182
 20
127.4066839744
 10
121.9995700213
 20
127.3852436102
 10
121.9873472634
 20
127.363491588
 10
121.9756716333
 20
127.3414414695
 10
121.9645503439
 20
127.3191069061
 10
121.9539903023
 20
127.2965018082
 10
121.9439980673
 20
127.2736402621
 10
121.9345798176
 20
127.2505364285
 10
121.9257414141
 20
127.2272047138
 10
121.9174883403
 20
127.2036596305
 10
121.9098256838
 20
127.1799157039
 10
121.9027582181
 20
127.1559877226
 10
121.8962903404
 20
127.1318905765
 10
121.8904260403
 20
127.1076391084
 10
121.8851689613
 20
127.0832483066
 10
121.8805224153
 20
127.0587334577
 10
121.8764893287
 20
127.0341099813
 10
121.8730722512
 20
127.0093934895
 10
121.8702732621
 20
126.9845990869
 10
121.8680940479
 20
126.9597415146
 10
121.866536007
 20
126.9348360107
 10
121.8656001909
 20
126.9098983075
 10
121.8652872383
 20
126.8849439288
  0
LINE
  5
2F5
100
AcDbEntity
  8
RACCORDO
100
AcDbLine
 62
7
  6
CONTINUOUS
 10
122.7382432153
 20
127.9323324681
 11
122.7452776701
 21
127.9328466112
  0
LWPOLYLINE
  5
2F6
100
AcDbEntity
  8
RACCORDO
100
AcDbPolyline
 62
253
  6
CONTINUOUS
 90
58
 70
0
 10
123.8317428362
 20
126.447650487
 10
124.7531358611
 20
126.5130600199
 10
125.7076427861
 20
126.5794117192
 10
126.6952697729
 20
126.6465470117
 10
127.7134750023
 20
126.7141292258
 10
128.7648128358
 20
126.7821661636
 10
129.8569354254
 20
126.850974764
 10
130.989857614
 20
126.9203422929
 10
132.1635813596
 20
126.9900378263
 10
133.3857406265
 20
127.0602677882
 10
134.6565113954
 20
127.1307589251
 10
135.9757292126
 20
127.2012012425
 10
137.3505182682
 20
127.271648668
 10
138.780903486
 20
127.3417379114
 10
140.2668685603
 20
127.4110845681
 10
141.8154767624
 20
127.4795991405
 10
143.4261755937
 20
127.5467978861
 10
145.099519279
 20
127.6122217416
 10
146.8442309297
 20
127.6756751748
 10
148.6641631596
 20
127.7366904919
 10
150.5554816357
 20
127.7945041791
 10
152.5153813425
 20
127.8483982057
 10
154.5519533216
 20
127.8979155137
 10
156.6571358665
 20
127.9421611311
 10
158.8038800509
 20
127.9800165505
 10
160.9971177504
 20
128.0111118619
 10
163.2318888557
 20
128.0349227452
 10
165.466293117
 20
128.0507900372
 10
167.6860357067
 20
128.0586878508
 10
169.9053670782
 20
128.0587428044
 10
172.1252006901
 20
128.0509544377
 10
174.3597131353
 20
128.0351965857
 10
176.5946836944
 20
128.0114933229
 10
178.7884329617
 20
127.9804972444
 10
180.9361133351
 20
127.9427272271
 10
183.0425418167
 20
127.898551915
 10
185.0805467008
 20
127.8490888541
 10
187.0420628944
 20
127.795231452
 10
188.9351568746
 20
127.7374368508
 10
190.7568644166
 20
127.6764276083
 10
192.5033282818
 20
127.6129682578
 10
194.1784194647
 20
127.547526564
 10
195.7907668021
 20
127.480303113
 10
197.3408949562
 20
127.4117596504
 10
198.8282948515
 20
127.3423792068
 10
200.2600426459
 20
127.2722518302
 10
201.6361259803
 20
127.2017627301
 10
202.9565733426
 20
127.1312758491
 10
204.2285198919
 20
127.0607373809
 10
205.4518073075
 20
126.9904576333
 10
206.626609483
 20
126.9207105531
 10
207.760557294
 20
126.8512903585
 10
208.8536451789
 20
126.7824289117
 10
209.9058920257
 20
126.7143392426
 10
210.9249625955
 20
126.646704059
 10
211.9134147699
 20
126.5795156853
 10
212.8687010494
 20
126.5131115055
 10
213.7908267624
 20
126.447650487
  0
LWPOLYLINE
  5
2F7
100
AcDbEntity
  8
RACCORDO
100
AcDbPolyline
 62
253
  6
CONTINUOUS
 90
58
 70
0
 10
123.8192193583
 20
126.5954822447
 10
124.7410098919
 20
126.6596224479
 10
125.6959213848
 20
126.7244258123
 10
126.6839556283
 20
126.7898923376
 10
127.7025599605
 20
126.8560479355
 10
128.7542904215
 20
126.9228666944
 10
129.8468123441
 20
126.9902708802
 10
130.9801347862
 20
127.0583376808
 10
132.1542529934
 20
127.1269899082
 10
133.3768125785
 20
127.1959182654
 10
134.6479877914
 20
127.2652234628
 10
135.9676092967
 20
127.3348047899
 10
137.3428082305
 20
127.4040508176
 10
138.77360923
 20
127.4730694332
 10
140.2599926869
 20
127.5417527493
 10
141.8090240921
 20
127.6091656746
 10
143.4201502535
 20
127.6754202201
 10
145.0939287794
 20
127.7404043748
 10
146.8390919432
 20
127.8028470143
 10
148.6594797768
 20
127.8629787701
 10
150.551255358
 20
127.9205690108
 10
152.5116351051
 20
127.9736547179
 10
154.5487056211
 20
128.0223091062
 10
156.654379141
 20
128.0664589608
 10
158.8016079677
 20
128.1039216183
 10
160.995348438
 20
128.1343300617
 10
163.230636065
 20
128.1580513081
 10
165.4655387347
 20
128.1740037451
 10
167.6857774566
 20
128.1818273012
 10
169.9056189643
 20
128.1818820479
 10
172.1259487116
 20
128.1741665877
 10
174.3609601943
 20
128.1583233691
 10
176.5964476576
 20
128.1347099436
 10
178.7906986868
 20
128.1043975688
 10
180.9388680494
 20
128.0670173068
 10
183.0457927833
 20
128.0229380955
 10
185.0842870482
 20
127.9743380063
 10
187.0462752096
 20
127.9212873165
 10
188.9398316945
 20
127.8637157488
 10
190.7619983326
 20
127.8035905425
 10
192.5089100759
 20
127.7411416042
 10
194.1844350651
 20
127.6761390272
 10
195.7972153562
 20
127.6098603314
 10
197.3477705964
 20
127.5424189355
 10
198.8355855599
 20
127.4737014208
 10
200.2677494173
 20
127.40464505
 10
201.6442448852
 20
127.3353579776
 10
202.9650942818
 20
127.2657320491
 10
204.2374454551
 20
127.1963800643
 10
205.4611355781
 20
127.1274026051
 10
206.6363323985
 20
127.0586990895
 10
207.7706787244
 20
126.9905805713
 10
208.8641655381
 20
126.9231245967
 10
209.9168061694
 20
126.8562536193
 10
210.9362759479
 20
126.790046054
 10
211.9251342481
 20
126.7245280389
 10
212.8808250806
 20
126.6596734358
 10
213.8033502404
 20
126.5954822447
  0
LWPOLYLINE
  5
2F8
100
AcDbEntity
  8
RACCORDO
100
AcDbPolyline
 62
253
  6
CONTINUOUS
 90
3
 70
0
 10
213.6855916188
 20
124.9879735622
 10
209.4391928144
 20
124.9869514614
 10
205.0090916383
 20
124.9860940225
  0
LINE
  5
2F9
100
AcDbEntity
  8
RACCORDO
100
AcDbLine
 62
7
  6
CONTINUOUS
 10
124.0110107058
 20
124.9139408284
 11
213.6115588923
 21
124.9139408284
  0
LINE
  5
2FA
100
AcDbEntity
  8
RACCORDO
100
AcDbLine
 62
253
  6
CONTINUOUS
 10
205.0090916383
 20
124.9860940225
 11
195.5974577123
 21
124.9848997886
  0
LINE
  5
2FB
100
AcDbEntity
  8
RACCORDO
100
AcDbLine
 62
253
  6
CONTINUOUS
 10
195.5974577123
 20
124.9848997886
 11
180.0469714711
 21
124.9841207689
  0
LINE
  5
2FC
100
AcDbEntity
  8
RACCORDO
100
AcDbLine
 62
253
  6
CONTINUOUS
 10
180.0469714711
 20
124.9841207689
 11
168.8634773744
 21
124.9839827128
  0
LINE
  5
2FD
100
AcDbEntity
  8
RACCORDO
100
AcDbLine
 62
253
  6
CONTINUOUS
 10
214.1774762359
 20
126.0629003035
 11
213.9710294117
 21
126.0629003035
  0
LINE
  5
2FE
100
AcDbEntity
  8
RACCORDO
100
AcDbLine
 62
253
  6
CONTINUOUS
 10
123.4450933627
 20
126.0629003035
 11
123.6515401869
 21
126.0629003035
  0
LINE
  5
2FF
100
AcDbEntity
  8
RACCORDO
100
AcDbLine
 62
253
  6
CONTINUOUS
 10
122.0583304138
 20
126.8849439288
 11
121.8652872383
 21
126.8849439288
  0
LINE
  5
300
100
AcDbEntity
  8
RACCORDO
100
AcDbLine
 62
253
  6
CONTINUOUS
 10
215.5642391848
 20
126.8849439288
 11
215.7572823602
 21
126.8849439288
  0
LINE
  5
301
100
AcDbEntity
  8
RACCORDO
100
AcDbLine
 62
253
  6
CONTINUOUS
 10
121.7112847993
 20
127.034736734
 11
121.607788244
 21
127.034736734
  0
LINE
  5
302
100
AcDbEntity
  8
RACCORDO
100
AcDbLine
 62
253
  6
CONTINUOUS
 10
215.9112847993
 20
127.034736734
 11
216.0147813503
 21
127.0347367346
  0
LINE
  5
303
100
AcDbEntity
  8
RACCORDO
100
AcDbLine
 62
253
  6
CONTINUOUS
 10
168.8634773744
 20
124.9839827128
 11
137.2256418281
 21
124.9854014116
  0
LINE
  5
304
100
AcDbEntity
  8
RACCORDO
100
AcDbLine
 62
253
  6
CONTINUOUS
 10
137.2256418281
 20
124.9854014116
 11
123.93697791
 21
124.9879735879
  0
LWPOLYLINE
  5
305
100
AcDbEntity
  8
RACCORDO
100
AcDbPolyline
 62
253
  6
CONTINUOUS
 90
19
 70
0
 10
213.7091764702
 20
125.1179141189
 10
209.4614558968
 20
125.1340071997
 10
205.0296418069
 20
125.1453547519
 10
200.4137719414
 20
125.1533933926
 10
195.6135569717
 20
125.159988599
 10
190.6293437717
 20
125.1658763582
 10
185.4621150372
 20
125.17021989
 10
180.054111
 20
125.1730121762
 10
174.4631212146
 20
125.1748372238
 10
168.8634543574
 20
125.1754763503
 10
163.247512011
 20
125.1748827403
 10
157.6229341852
 20
125.1730564785
 10
152.186886455
 20
125.1702375201
 10
147.0055057574
 20
125.1658856647
 10
142.0126543809
 20
125.1599958095
 10
137.2071031904
 20
125.1533907846
 10
132.5884726685
 20
125.1453351965
 10
128.1572234362
 20
125.1339833632
 10
123.9133931532
 20
125.1179143466
  0
LWPOLYLINE
  5
306
100
AcDbEntity
  8
RACCORDO
100
AcDbPolyline
 62
253
  6
CONTINUOUS
 90
40
 70
0
 10
213.6855916188
 20
124.9879735622
 10
213.6936197761
 20
124.9877901595
 10
213.7016349571
 20
124.9872842265
 10
213.7096242064
 20
124.9864565808
 10
213.7175746108
 20
124.9853085603
 10
213.7254733194
 20
124.9838420205
 10
213.7333075654
 20
124.982059332
 10
213.7410646856
 20
124.979963376
 10
213.7487321421
 20
124.9775575405
 10
213.7562975414
 20
124.9748457141
 10
213.7637486553
 20
124.9718322801
 10
213.7710734401
 20
124.9685221092
 10
213.7782600564
 20
124.9649205518
 10
213.7852968882
 20
124.9610334293
 10
213.7921725615
 20
124.9568670247
 10
213.7988759627
 20
124.9524280722
 10
213.8053962569
 20
124.9477237469
 10
213.811722905
 20
124.9427616524
 10
213.8178456809
 20
124.9375498094
 10
213.823754688
 20
124.932096642
 10
213.8294403753
 20
124.9264109644
 10
213.8348935529
 20
124.9205019666
 10
213.8401054063
 20
124.9143791996
 10
213.8450675116
 20
124.90805256
 10
213.8497718481
 20
124.9015322739
 10
213.854210812
 20
124.8948288802
 10
213.8583772284
 20
124.8879532141
 10
213.862264363
 20
124.8809163889
 10
213.8658659327
 20
124.8737297787
 10
213.8691761161
 20
124.8664049995
 10
213.8721895629
 20
124.8589538908
 10
213.8749014023
 20
124.8513884961
 10
213.8773072509
 20
124.8437210437
 10
213.8794032201
 20
124.835963927
 10
213.8811859221
 20
124.8281296841
 10
213.8826524754
 20
124.8202309779
 10
213.8838005096
 20
124.8122805755
 10
213.8846281689
 20
124.8042913275
 10
213.8851341157
 20
124.7962761474
 10
213.8853175321
 20
124.7882479903
  0
LWPOLYLINE
  5
307
100
AcDbEntity
  8
RACCORDO
100
AcDbPolyline
 62
253
  6
CONTINUOUS
 90
40
 70
0
 10
213.709176492
 20
125.1179138082
 10
213.7170225831
 20
125.1175727029
 10
213.7248553827
 20
125.1170042601
 10
213.732662811
 20
125.1162093566
 10
213.7404328275
 20
125.1151892181
 10
213.7481534494
 20
125.113945418
 10
213.75581277
 20
125.1124798744
 10
213.7633989772
 20
125.1107948474
 10
213.7709003716
 20
125.1088929358
 10
213.7783053846
 20
125.1067770726
 10
213.7856025964
 20
125.1044505208
 10
213.7927807531
 20
125.1019168685
 10
213.7998287849
 20
125.099180023
 10
213.8067358222
 20
125.096244205
 10
213.8134912131
 20
125.0931139422
 10
213.8200845395
 20
125.089794062
 10
213.8265056333
 20
125.0862896843
 10
213.8327445918
 20
125.0826062135
 10
213.8387917935
 20
125.0787493302
 10
213.8446379125
 20
125.0747249824
 10
213.8502739328
 20
125.0705393765
 10
213.8556911628
 20
125.0661989675
 10
213.8608812479
 20
125.061710449
 10
213.8658361841
 20
125.0570807433
 10
213.87054833
 20
125.0523169902
 10
213.8750104185
 20
125.0474265363
 10
213.8792155683
 20
125.0424169236
 10
213.8831572942
 20
125.0372958779
 10
213.8868295173
 20
125.0320712969
 10
213.8902265743
 20
125.0267512378
 10
213.8933432264
 20
125.0213439051
 10
213.8961746671
 20
125.015857638
 10
213.8987165298
 20
125.0103008974
 10
213.9009648944
 20
125.0046822527
 10
213.9029162935
 20
124.9990103691
 10
213.9045677178
 20
124.9932939935
 10
213.9059166203
 20
124.9875419419
 10
213.9069609209
 20
124.9817630848
 10
213.907699009
 20
124.9759663345
 10
213.9081297463
 20
124.9701606305
  0
LWPOLYLINE
  5
308
100
AcDbEntity
  8
RACCORDO
100
AcDbPolyline
 62
253
  6
CONTINUOUS
 90
13
 70
0
 10
214.9021929968
 20
128.2315428127
 10
207.2283774466
 20
128.7455654898
 10
199.5510302643
 20
129.1661389638
 10
191.8703989058
 20
129.4932632347
 10
184.1859690147
 20
129.7269499128
 10
176.4987512074
 20
129.8671873877
 10
168.8112814355
 20
129.9139408284
 10
161.1238051485
 20
129.867186931
 10
153.4365754563
 20
129.7269489993
 10
145.7521398003
 20
129.4932621136
 10
138.0715126247
 20
129.1661379673
 10
130.3941757411
 20
128.745564867
 10
122.7203766018
 20
128.2315428127
  0
LWPOLYLINE
  5
309
100
AcDbEntity
  8
RACCORDO
100
AcDbPolyline
 62
253
  6
CONTINUOUS
 90
43
 70
0
 10
214.822053217
 20
127.6822845054
 10
212.6335418136
 20
127.8369578059
 10
210.4446830415
 20
127.9840846468
 10
208.2554826249
 20
128.1236650282
 10
206.0659295327
 20
128.2556988895
 10
203.8760462548
 20
128.3801862913
 10
201.68588881
 20
128.4971274152
 10
199.4954670236
 20
128.6065220182
 10
197.3047825653
 20
128.7083703433
 10
195.1138792358
 20
128.8026733008
 10
192.9227666791
 20
128.8894308607
 10
190.7314467708
 20
128.9686430531
 10
188.539951669
 20
129.0403108786
 10
186.3482761825
 20
129.1044346596
 10
184.1564370393
 20
129.1610140737
 10
181.9644992847
 20
129.2100491545
 10
179.772486941
 20
129.2515396574
 10
177.5803875398
 20
129.285485827
 10
175.3882113958
 20
129.3118884303
 10
173.1959479246
 20
129.3307478067
 10
171.0036192696
 20
129.3420636169
 10
168.8112848399
 20
129.3458356096
 10
166.6189504303
 20
129.3420636175
 10
164.4266218092
 20
129.330747808
 10
162.2343583468
 20
129.3118884318
 10
160.0421821654
 20
129.2854858282
 10
157.8500827017
 20
129.251539658
 10
155.6580702943
 20
129.2100491541
 10
153.4661324702
 20
129.1610140713
 10
151.2742932563
 20
129.1044346548
 10
149.0826177361
 20
129.0403108726
 10
146.8911226727
 20
128.9686430483
 10
144.6998028398
 20
128.8894308582
 10
142.5086903285
 20
128.8026732994
 10
140.3177869873
 20
128.708370341
 10
138.1271024875
 20
128.6065220139
 10
135.9366806449
 20
128.4971274077
 10
133.7465231061
 20
128.3801862777
 10
131.5566397195
 20
128.2556988686
 10
129.3670865882
 20
128.1236650044
 10
127.1778862305
 20
127.9840846265
 10
124.9890275869
 20
127.8369577935
 10
122.8005163816
 20
127.6822845054
  0
LWPOLYLINE
  5
30A
100
AcDbEntity
  8
RACCORDO
100
AcDbPolyline
 62
253
  6
CONTINUOUS
 90
43
 70
0
 10
214.8297986642
 20
127.8817231397
 10
212.6409513374
 20
128.036445404
 10
210.4517166566
 20
128.1836193665
 10
208.2621204628
 20
128.3232446612
 10
206.0721920148
 20
128.4553207792
 10
203.8819537263
 20
128.5798477838
 10
201.6914211577
 20
128.6968261909
 10
199.5006240692
 20
128.8062556937
 10
197.3095843346
 20
128.9081364689
 10
195.1183056606
 20
129.0024695526
 10
192.9268176916
 20
129.0892547132
 10
190.7351423715
 20
129.168492116
 10
188.5432718272
 20
129.2401829435
 10
186.3512208455
 20
129.3043273247
 10
184.1590261828
 20
129.3609247842
 10
181.9667129045
 20
129.4099753714
 10
179.7743250091
 20
129.4514788528
 10
177.5818700312
 20
129.485435827
 10
175.3893183267
 20
129.5118471379
 10
173.1966792715
 20
129.5307126621
 10
171.0039949939
 20
129.5420320175
 10
168.81128497
 20
129.5458051486
 10
166.618574966
 20
129.5420320187
 10
164.4258907222
 20
129.5307126648
 10
162.2332516754
 20
129.5118471421
 10
160.0406999332
 20
129.4854358321
 10
157.8482448925
 20
129.451478858
 10
155.6558569332
 20
129.4099753764
 10
153.463543585
 20
129.3609247883
 10
151.2713488514
 20
129.3043273274
 10
149.0792978357
 20
129.2401829455
 10
146.8874273296
 20
129.1684921196
 10
144.6957520846
 20
129.0892547199
 10
142.5042641607
 20
129.0024695618
 10
140.3129854748
 20
128.9081364783
 10
138.1219456984
 20
128.8062557019
 10
135.9311485533
 20
128.6968261968
 10
133.7406158999
 20
128.5798477853
 10
131.5503775118
 20
128.455320775
 10
129.3604490057
 20
128.3232446531
 10
127.1708528139
 20
128.1836193581
 10
124.9816181764
 20
128.0364453981
 10
122.7927709343
 20
127.8817231397
  0
LINE
  5
30B
100
AcDbEntity
  8
RACCORDO
100
AcDbLine
 62
7
  6
CONTINUOUS
 10
214.8772919282
 20
127.9328466112
 11
214.884326383
 21
127.9323324681
  0
LWPOLYLINE
  5
30C
100
AcDbEntity
  8
RACCORDO
100
AcDbPolyline
 62
253
  6
CONTINUOUS
 90
52
 70
0
 10
213.8033502404
 20
126.5954822447
 10
213.8118623666
 20
126.5947799633
 10
213.8204638035
 20
126.5937988135
 10
213.829154551
 20
126.5925387953
 10
213.837933217
 20
126.5910119176
 10
213.8468011936
 20
126.5892061716
 10
213.8557626571
 20
126.5870855307
 10
213.8648239442
 20
126.5846503383
 10
213.8739787182
 20
126.5819002511
 10
213.8832121454
 20
126.5787982117
 10
213.8925273029
 20
126.5753439198
 10
213.9019211135
 20
126.5715376758
 10
213.9113695125
 20
126.567343324
 10
213.9208758927
 20
126.5627592869
 10
213.9304368612
 20
126.5577871421
 10
213.9400181748
 20
126.552395467
 10
213.9496223819
 20
126.5465818653
 10
213.9592469341
 20
126.5403487333
 10
213.9688499426
 20
126.5336718371
 10
213.9784332666
 20
126.5265481038
 10
213.9879950468
 20
126.5189806063
 10
213.9974878177
 20
126.5109543297
 10
214.0069106435
 20
126.50246837
 10
214.0162644599
 20
126.4935236312
 10
214.0255046081
 20
126.4841078108
 10
214.0346304178
 20
126.4742209978
 10
214.0436425595
 20
126.4638631032
 10
214.0524983857
 20
126.4530215573
 10
214.061199943
 20
126.4416935056
 10
214.0697451849
 20
126.4298818026
 10
214.0780853254
 20
126.4175824413
 10
214.0862213854
 20
126.4047932364
 10
214.0941523442
 20
126.3915163732
 10
214.1018263524
 20
126.3777544011
 10
214.1092458613
 20
126.3635006525
 10
214.1164084199
 20
126.3487617948
 10
214.1232548264
 20
126.3335603802
 10
214.1297873421
 20
126.3178825396
 10
214.1360037061
 20
126.3017421419
 10
214.1418379332
 20
126.2852033461
 10
214.1472863011
 20
126.2682606332
 10
214.1523525325
 20
126.2509195221
 10
214.1569818096
 20
126.2332607279
 10
214.1611690014
 20
126.2152869247
 10
214.1649192392
 20
126.1969954385
 10
214.1681930985
 20
126.1784589627
 10
214.1709877053
 20
126.159677299
 10
214.1733059338
 20
126.1406506457
 10
214.1751169813
 20
126.1214522907
 10
214.1764105804
 20
126.1021066633
 10
214.1771969985
 20
126.0825893343
 10
214.1774762359
 20
126.0629003035
  0
LWPOLYLINE
  5
30D
100
AcDbEntity
  8
RACCORDO
100
AcDbPolyline
 62
7
  6
CONTINUOUS
 90
19
 70
0
 10
214.8843263833
 20
127.9323324681
 10
214.9072720026
 20
127.9303915881
 10
214.9301665368
 20
127.9279206682
 10
214.9530099859
 20
127.9249197084
 10
214.9758221007
 20
127.9213861122
 10
214.9985831304
 20
127.9173224762
 10
215.0212338221
 20
127.912736589
 10
215.0437730926
 20
127.90762573
 10
215.066202025
 20
127.9019926199
 10
215.0884646165
 20
127.8958532099
 10
215.110551484
 20
127.8892086043
 10
215.1324720106
 20
127.8820576988
 10
215.1541983422
 20
127.8744131311
 10
215.1757294677
 20
127.8662751289
 10
215.1970663981
 20
127.8576434644
 10
215.2181843127
 20
127.8485300928
 10
215.2390749377
 20
127.8389389992
 10
215.2597465468
 20
127.8288661985
 10
215.28019914
 20
127.8183116906
  0
LWPOLYLINE
  5
30E
100
AcDbEntity
  8
RACCORDO
100
AcDbPolyline
 62
253
  6
CONTINUOUS
 90
52
 70
0
 10
213.7908267624
 20
126.447650487
 10
213.7950712528
 20
126.4471769643
 10
213.7993615935
 20
126.4465067008
 10
213.80369554
 20
126.4456370758
 10
213.8080673269
 20
126.4445712979
 10
213.8124777553
 20
126.4433010703
 10
213.8169340831
 20
126.4418059879
 10
213.8214356728
 20
126.4400827655
 10
213.8259768212
 20
126.4381284066
 10
213.8305567137
 20
126.4359222337
 10
213.8351723029
 20
126.4334607525
 10
213.8398187973
 20
126.4307410279
 10
213.8444923137
 20
126.4277430163
 10
213.8491891409
 20
126.4244626321
 10
213.8539035328
 20
126.4208976987
 10
213.8586281612
 20
126.4170311422
 10
213.8633581915
 20
126.4128588655
 10
213.8680874481
 20
126.4083793782
 10
213.8728063326
 20
126.4035799276
 10
213.8775090978
 20
126.3984566675
 10
213.8821891026
 20
126.3930089383
 10
213.8868353223
 20
126.3872294024
 10
213.891440139
 20
126.3811165194
 10
213.8959977349
 20
126.3746687935
 10
213.9004996906
 20
126.3678795204
 10
213.9049377699
 20
126.3607483185
 10
213.9093055806
 20
126.3532737676
 10
213.9135970687
 20
126.3454478406
 10
213.9178044514
 20
126.337268548
 10
213.9219192891
 20
126.3287370786
 10
213.9259340046
 20
126.319850337
 10
213.9298397053
 20
126.3106076603
 10
213.9336277524
 20
126.3010103552
 10
213.9372904383
 20
126.2910585428
 10
213.9408191033
 20
126.2807493007
 10
213.9442034825
 20
126.2700877724
 10
213.9474332681
 20
126.2590866616
 10
213.950500439
 20
126.2477393376
 10
213.953393592
 20
126.2360568222
 10
213.9560986039
 20
126.2240793854
 10
213.9586068102
 20
126.2118081073
 10
213.960909923
 20
126.1992493792
 10
213.9629969261
 20
126.1864527691
 10
213.9648600537
 20
126.1734262224
 10
213.9664934464
 20
126.1601718494
 10
213.9678909972
 20
126.1467313585
 10
213.9690465627
 20
126.1331111898
 10
213.9699547805
 20
126.1193166649
 10
213.9706118072
 20
126.1053883085
 10
213.9710132427
 20
126.0913440245
 10
213.9711539043
 20
126.0771790612
 10
213.9710294117
 20
126.0629003035
  0
LWPOLYLINE
  5
30F
100
AcDbEntity
  8
RACCORDO
100
AcDbPolyline
 62
253
  6
CONTINUOUS
 90
10
 70
0
 10
214.8914841056
 20
76.6961220039
 10
214.8921860854
 20
76.6946442517
 10
214.8930890338
 20
76.6901696787
 10
214.8941654093
 20
76.6828347665
 10
214.89538238
 20
76.672863241
 10
214.896702827
 20
76.6605592492
 10
214.8980864769
 20
76.646298081
 10
214.8994911269
 20
76.6305147234
 10
214.9008739323
 20
76.6136905923
 10
214.9021927152
 20
76.5963388486
  0
LINE
  5
310
100
AcDbEntity
  8
RACCORDO
100
AcDbLine
 62
253
  6
CONTINUOUS
 10
213.7919809599
 20
78.3691273186
 11
213.7908267624
 21
78.3802311697
  0
LINE
  5
311
100
AcDbEntity
  8
RACCORDO
100
AcDbLine
 62
253
  6
CONTINUOUS
 10
213.7931648536
 20
78.3571602734
 11
213.7919809599
 21
78.3691273186
  0
LINE
  5
312
100
AcDbEntity
  8
RACCORDO
100
AcDbLine
 62
253
  6
CONTINUOUS
 10
213.7949799847
 20
78.337757857
 11
213.7931648536
 21
78.3571602734
  0
LINE
  5
313
100
AcDbEntity
  8
RACCORDO
100
AcDbLine
 62
253
  6
CONTINUOUS
 10
213.7968193156
 20
78.3168598339
 11
213.7949799847
 21
78.337757857
  0
LINE
  5
314
100
AcDbEntity
  8
RACCORDO
100
AcDbLine
 62
253
  6
CONTINUOUS
 10
213.7968193111
 20
126.5110218046
 11
213.7949799809
 21
126.4901237771
  0
LINE
  5
315
100
AcDbEntity
  8
RACCORDO
100
AcDbLine
 62
253
  6
CONTINUOUS
 10
213.7949799809
 20
126.4901237771
 11
213.7931648508
 21
126.4707213575
  0
LINE
  5
316
100
AcDbEntity
  8
RACCORDO
100
AcDbLine
 62
253
  6
CONTINUOUS
 10
213.7931648508
 20
126.4707213575
 11
213.791980958
 21
126.4587543112
  0
LINE
  5
317
100
AcDbEntity
  8
RACCORDO
100
AcDbLine
 62
253
  6
CONTINUOUS
 10
213.791980958
 20
126.4587543112
 11
213.7908267613
 21
126.4476504599
  0
LWPOLYLINE
  5
318
100
AcDbEntity
  8
RACCORDO
100
AcDbPolyline
 62
253
  6
CONTINUOUS
 90
10
 70
0
 10
215.2516552094
 20
76.6755270702
 10
215.3605935636
 20
76.7247326474
 10
215.4652295028
 20
76.7850330765
 10
215.5623954163
 20
76.8545689635
 10
215.6517995908
 20
76.933543982
 10
215.7337338474
 20
77.0217544582
 10
215.8059059109
 20
77.1167299774
 10
215.8680913165
 20
77.2187790395
 10
215.920514631
 20
77.3275931445
 10
215.9615571364
 20
77.4397763769
  0
LWPOLYLINE
  5
319
100
AcDbEntity
  8
RACCORDO
100
AcDbPolyline
 62
253
  6
CONTINUOUS
 90
3
 70
0
 10
122.5995866924
 20
128.2162415893
 10
122.4830993006
 20
128.1898455139
 10
122.3709143892
 20
128.1523545867
  0
LWPOLYLINE
  5
31A
100
AcDbEntity
  8
RACCORDO
100
AcDbPolyline
 62
253
  6
CONTINUOUS
 90
28
 70
0
 10
99.5356271483
 20
144.4139408284
 10
99.4663184752
 20
144.4132560639
 10
99.3939620442
 20
144.4079968359
 10
99.3185578809
 20
144.3981631443
 10
99.2393878016
 20
144.3841217518
 10
99.1571700486
 20
144.3655058957
 10
99.0740592682
 20
144.3412152884
 10
98.9899740335
 20
144.3109419674
 10
98.9049957896
 20
144.2749938953
 10
98.8215234473
 20
144.2331946725
 10
98.7396341492
 20
144.1852080988
 10
98.6592507241
 20
144.1313703745
 10
98.5825405685
 20
144.0725137003
 10
98.5097389775
 20
144.0083964976
 10
98.4406105915
 20
143.9392603449
 10
98.3766167959
 20
143.8666621791
 10
98.31803305
 20
143.7904612055
 10
98.2645838204
 20
143.7107982188
 10
98.216903992
 20
143.6296525395
 10
98.1752642526
 20
143.5469167442
 10
98.1393938535
 20
143.4626982563
 10
98.109115527
 20
143.379298668
 10
98.0847202606
 20
143.29699482
 10
98.0659170305
 20
143.2155098715
 10
98.0516555607
 20
143.1363148912
 10
98.041585756
 20
143.0599002354
 10
98.036057699
 20
142.9857755478
 10
98.0350713869
 20
142.9139408284
  0
LINE
  5
31B
100
AcDbEntity
  8
RACCORDO
100
AcDbLine
 62
253
  6
CONTINUOUS
 10
98.0350713869
 20
142.9139408284
 11
97.5612847993
 21
142.9139408284
  0
LINE
  5
31C
100
AcDbEntity
  8
RACCORDO
100
AcDbLine
 62
253
  6
CONTINUOUS
 10
239.5874982117
 20
142.9139408284
 11
240.0612847993
 21
142.9139408284
  0
LINE
  5
31D
100
AcDbEntity
  8
RACCORDO
100
AcDbLine
 62
253
  6
CONTINUOUS
 10
238.0869424503
 20
144.4139408284
 11
99.5356271483
 21
144.4139408284
  0
LINE
  5
31E
100
AcDbEntity
  8
RACCORDO
100
AcDbLine
 62
7
  6
CONTINUOUS
 10
238.0612847993
 20
144.9139408284
 11
99.5612847993
 21
144.9139408284
  0
LWPOLYLINE
  5
31F
100
AcDbEntity
  8
RACCORDO
100
AcDbPolyline
 62
253
  6
CONTINUOUS
 90
4
 70
0
 10
215.2510673538
 20
128.1525825478
 10
215.1389944251
 20
128.1900113445
 10
215.0227029849
 20
128.2163314328
 10
214.9021929968
 20
128.2315428127
  0
LINE
  5
320
100
AcDbEntity
  8
RACCORDO
100
AcDbLine
 62
253
  6
CONTINUOUS
 10
213.7986567364
 20
78.2947628602
 11
213.7968193156
 21
78.3168598339
  0
LINE
  5
321
100
AcDbEntity
  8
RACCORDO
100
AcDbLine
 62
253
  6
CONTINUOUS
 10
213.9029556375
 20
79.932880023
 11
213.9045105969
 21
79.9131258055
  0
LINE
  5
322
100
AcDbEntity
  8
RACCORDO
100
AcDbLine
 62
253
  6
CONTINUOUS
 10
213.8010586278
 20
78.2639792481
 11
213.7986567364
 21
78.2947628602
  0
LINE
  5
323
100
AcDbEntity
  8
RACCORDO
100
AcDbLine
 62
253
  6
CONTINUOUS
 10
213.8033502404
 20
78.2323994121
 11
213.8010586278
 21
78.2639792481
  0
LINE
  5
324
100
AcDbEntity
  8
RACCORDO
100
AcDbLine
 62
253
  6
CONTINUOUS
 10
213.9045105969
 20
79.9131258055
 11
213.9060073889
 21
79.8919390929
  0
LINE
  5
325
100
AcDbEntity
  8
RACCORDO
100
AcDbLine
 62
253
  6
CONTINUOUS
 10
214.822053217
 20
77.1455971515
 11
214.8242526156
 21
77.1140010496
  0
LINE
  5
326
100
AcDbEntity
  8
RACCORDO
100
AcDbLine
 62
253
  6
CONTINUOUS
 10
213.9060073889
 20
79.8919390929
 11
213.9074384467
 21
79.869456902
  0
LINE
  5
327
100
AcDbEntity
  8
RACCORDO
100
AcDbLine
 62
253
  6
CONTINUOUS
 10
214.8242526156
 20
77.1140010496
 11
214.8262243834
 21
77.0832026874
  0
LINE
  5
328
100
AcDbEntity
  8
RACCORDO
100
AcDbLine
 62
253
  6
CONTINUOUS
 10
213.7091764455
 20
79.7099673101
 11
213.7908267624
 21
78.3802311699
  0
LINE
  5
329
100
AcDbEntity
  8
RACCORDO
100
AcDbLine
 62
253
  6
CONTINUOUS
 10
213.9074384467
 20
79.869456902
 11
213.9710294117
 21
78.7649813534
  0
LINE
  5
32A
100
AcDbEntity
  8
RACCORDO
100
AcDbLine
 62
253
  6
CONTINUOUS
 10
214.8262243834
 20
77.0832026874
 11
214.8275236263
 21
77.0610965204
  0
LINE
  5
32B
100
AcDbEntity
  8
RACCORDO
100
AcDbLine
 62
253
  6
CONTINUOUS
 10
216.0147813546
 20
127.034736734
 11
216.0083498286
 21
127.1561873699
  0
LINE
  5
32C
100
AcDbEntity
  8
RACCORDO
100
AcDbLine
 62
253
  6
CONTINUOUS
 10
214.8275236263
 20
77.0610965204
 11
214.828648211
 21
77.0401915384
  0
LINE
  5
32D
100
AcDbEntity
  8
RACCORDO
100
AcDbLine
 62
253
  6
CONTINUOUS
 10
214.828648211
 20
77.0401915384
 11
214.8295821513
 21
77.0207849073
  0
LINE
  5
32E
100
AcDbEntity
  8
RACCORDO
100
AcDbLine
 62
253
  6
CONTINUOUS
 10
214.8295821513
 20
77.0207849073
 11
214.8300921911
 21
77.0088167981
  0
LINE
  5
32F
100
AcDbEntity
  8
RACCORDO
100
AcDbLine
 62
253
  6
CONTINUOUS
 10
214.8300921911
 20
77.0088167981
 11
214.8305083155
 21
76.9977134122
  0
LINE
  5
330
100
AcDbEntity
  8
RACCORDO
100
AcDbLine
 62
253
  6
CONTINUOUS
 10
214.8305083155
 20
76.9977134122
 11
214.8308278936
 21
76.9875449447
  0
LWPOLYLINE
  5
331
100
AcDbEntity
  8
RACCORDO
100
AcDbPolyline
 62
253
  6
CONTINUOUS
 90
16
 70
0
 10
214.8308278936
 20
76.9875449447
 10
214.8310489052
 20
76.9783756807
 10
214.8311219873
 20
76.974184122
 10
214.831169953
 20
76.970263588
 10
214.8311927265
 20
76.9666202775
 10
214.8311902717
 20
76.963259951
 10
214.8311625926
 20
76.9601879216
 10
214.8311097329
 20
76.9574090466
 10
214.8310317762
 20
76.9549277197
 10
214.8309288457
 20
76.9527478641
 10
214.8308011043
 20
76.9508729265
 10
214.8306487538
 20
76.9493058714
 10
214.8304720352
 20
76.9480491765
 10
214.8302712278
 20
76.9471048287
 10
214.8300466492
 20
76.9464743212
 10
214.8297986545
 20
76.9461586509
  0
LWPOLYLINE
  5
332
100
AcDbEntity
  8
RACCORDO
100
AcDbPolyline
 62
253
  6
CONTINUOUS
 90
61
 70
0
 10
215.7572823602
 20
126.8849439288
 10
215.7569694077
 20
126.9098983075
 10
215.7560335915
 20
126.9348360106
 10
215.7544755507
 20
126.9597415145
 10
215.7522963365
 20
126.9845990868
 10
215.7494973474
 20
127.0093934894
 10
215.7460802699
 20
127.0341099812
 10
215.7420471833
 20
127.0587334577
 10
215.7374006373
 20
127.0832483065
 10
215.7321435583
 20
127.1076391083
 10
215.7262792582
 20
127.1318905764
 10
215.7198113805
 20
127.1559877225
 10
215.7127439148
 20
127.1799157038
 10
215.7050812583
 20
127.2036596304
 10
215.6968281845
 20
127.2272047138
 10
215.687989781
 20
127.2505364285
 10
215.6785715314
 20
127.2736402621
 10
215.6685792963
 20
127.2965018081
 10
215.6580192547
 20
127.319106906
 10
215.6468979654
 20
127.3414414694
 10
215.6352223353
 20
127.3634915879
 10
215.6229995774
 20
127.3852436101
 10
215.6102372804
 20
127.4066839744
 10
215.5969433668
 20
127.427799321
 10
215.5831260405
 20
127.4485765838
 10
215.5687938716
 20
127.469002809
 10
215.5539557596
 20
127.4890652514
 10
215.5386208725
 20
127.5087514754
 10
215.5227987209
 20
127.5280491985
 10
215.5064991294
 20
127.54694637
 10
215.4897321835
 20
127.5654312555
 10
215.4725082846
 20
127.5834923118
 10
215.4548381286
 20
127.6011182513
 10
215.4367326649
 20
127.6182981107
 10
215.4182031312
 20
127.6350211493
 10
215.3992610352
 20
127.6512769085
 10
215.3799181233
 20
127.6670552665
 10
215.3601864071
 20
127.6823463474
 10
215.3400781436
 20
127.6971405785
 10
215.3196058082
 20
127.7114287404
 10
215.2987821089
 20
127.7252018846
 10
215.277619995
 20
127.7384513702
 10
215.2561326319
 20
127.7511689148
 10
215.2343333593
 20
127.7633465457
 10
215.2122357444
 20
127.7749766091
 10
215.1898535886
 20
127.7860518059
 10
215.1672008213
 20
127.7965651732
 10
215.1442915238
 20
127.8065101077
 10
215.1211399829
 20
127.8158803759
 10
215.0977606208
 20
127.8246700736
 10
215.0741679699
 20
127.8328736715
 10
215.0503766974
 20
127.8404860381
 10
215.0264014996
 20
127.8475023964
 10
215.0022574123
 20
127.853918273
 10
214.977959792
 20
127.8597295665
 10
214.953524066
 20
127.864932553
 10
214.9289651679
 20
127.8695240201
 10
214.9042978424
 20
127.8735011789
 10
214.8795372663
 20
127.8768614973
 10
214.8546990484
 20
127.8796027497
 10
214.8297986642
 20
127.8817231397
  0
LWPOLYLINE
  5
333
100
AcDbEntity
  8
RACCORDO
100
AcDbPolyline
 62
253
  6
CONTINUOUS
 90
61
 70
0
 10
215.5642391848
 20
126.8849439288
 10
215.5639891334
 20
126.9049186574
 10
215.5632421082
 20
126.9248580145
 10
215.5619981091
 20
126.9447620003
 10
215.5602557339
 20
126.9646437358
 10
215.5580163847
 20
126.9844901
 10
215.5552842683
 20
127.0042617295
 10
215.5520584689
 20
127.0239577224
 10
215.5483399021
 20
127.0435789807
 10
215.5441355212
 20
127.0630888475
 10
215.5394444287
 20
127.082487062
 10
215.5342675219
 20
127.1017738851
 10
215.5286144453
 20
127.1209134418
 10
215.5224843228
 20
127.1399054596
 10
215.5158780303
 20
127.158750211
 10
215.5088078399
 20
127.1774126388
 10
215.5012728865
 20
127.1958924231
 10
215.4932740347
 20
127.2141898838
 10
215.4848261519
 20
127.2322709236
 10
215.4759284063
 20
127.2501351402
 10
215.466581629
 20
127.267782936
 10
215.4568031814
 20
127.2851814205
 10
215.4465922618
 20
127.3023301347
 10
215.4359496712
 20
127.3192295377
 10
215.424895175
 20
127.3358481161
 10
215.413428
 20
127.3521853607
 10
215.4015489186
 20
127.3682417806
 10
215.3892800151
 20
127.3839873903
 10
215.3766205655
 20
127.3994216108
 10
215.363571293
 20
127.4145450209
 10
215.3501564521
 20
127.4293293716
 10
215.3363753578
 20
127.4437740384
 10
215.3222286944
 20
127.4578796458
 10
215.3077427706
 20
127.471619817
 10
215.2929169507
 20
127.4849938765
 10
215.2777518696
 20
127.4980024998
 10
215.2622757427
 20
127.5106213376
 10
215.2464879869
 20
127.5228496675
 10
215.2303891844
 20
127.5346882117
 10
215.2140092985
 20
127.5461147875
 10
215.1973477931
 20
127.5571286348
 10
215.1804052037
 20
127.5677305137
 10
215.1632131007
 20
127.577900521
 10
215.145771
 20
127.5876378586
 10
215.128079385
 20
127.5969433246
 10
215.1101712773
 20
127.6057994106
 10
215.0920462766
 20
127.6142052717
 10
215.0737047826
 20
127.6221617527
 10
215.0551810176
 20
127.6296538798
 10
215.036474641
 20
127.6366807883
 10
215.0175859929
 20
127.6432433429
 10
214.9985503168
 20
127.6493291641
 10
214.9793672806
 20
127.6549373635
 10
214.960037216
 20
127.6600688294
 10
214.9405963614
 20
127.6647138469
 10
214.9210436073
 20
127.6688715703
 10
214.9013800628
 20
127.6725428452
 10
214.881645295
 20
127.675720494
 10
214.8618524926
 20
127.678402124
 10
214.8419884667
 20
127.6805901278
 10
214.822053217
 20
127.6822845054
  0
LWPOLYLINE
  5
334
100
AcDbEntity
  8
RACCORDO
100
AcDbPolyline
 62
253
  6
CONTINUOUS
 90
52
 70
0
 10
213.9710294117
 20
78.7649813533
 10
213.9711539043
 20
78.7507025965
 10
213.9710132427
 20
78.7365376337
 10
213.9706118073
 20
78.7224933502
 10
213.9699547806
 20
78.7085649939
 10
213.9690465629
 20
78.6947704691
 10
213.9678909974
 20
78.6811503004
 10
213.9664934466
 20
78.6677098096
 10
213.964860054
 20
78.6544554367
 10
213.9629969265
 20
78.6414288901
 10
213.9609099234
 20
78.6286322801
 10
213.9586068107
 20
78.6160735519
 10
213.9560986044
 20
78.6038022738
 10
213.9533935925
 20
78.591824837
 10
213.9505004396
 20
78.5801423216
 10
213.9474332688
 20
78.5687949977
 10
213.9442034833
 20
78.557793887
 10
213.9408191042
 20
78.5471323587
 10
213.9372904392
 20
78.5368231166
 10
213.9336277534
 20
78.5268713042
 10
213.9298397064
 20
78.5172739992
 10
213.9259340057
 20
78.5080313224
 10
213.9219192903
 20
78.4991445808
 10
213.9178044526
 20
78.4906131114
 10
213.9135970701
 20
78.4824338187
 10
213.909305582
 20
78.4746078917
 10
213.9049377713
 20
78.4671333407
 10
213.9004996921
 20
78.4600021388
 10
213.8959977364
 20
78.4532128656
 10
213.8914401405
 20
78.4467651396
 10
213.8868353239
 20
78.4406522566
 10
213.8821891043
 20
78.4348727206
 10
213.8775090995
 20
78.4294249913
 10
213.8728063345
 20
78.4243017312
 10
213.86808745
 20
78.4195022805
 10
213.8633581935
 20
78.4150227931
 10
213.8586281632
 20
78.4108505164
 10
213.8539035348
 20
78.4069839598
 10
213.849189143
 20
78.4034190263
 10
213.8444923158
 20
78.4001386419
 10
213.8398187994
 20
78.3971406302
 10
213.835172305
 20
78.3944209055
 10
213.8305567158
 20
78.3919594242
 10
213.8259768232
 20
78.3897532512
 10
213.8214356746
 20
78.3877988922
 10
213.8169340848
 20
78.3860756696
 10
213.8124777571
 20
78.3845805871
 10
213.8080673288
 20
78.3833103593
 10
213.8036955417
 20
78.3822445814
 10
213.7993615949
 20
78.3813749562
 10
213.7950712536
 20
78.3807046927
 10
213.7908267624
 20
78.3802311699
  0
LINE
  5
335
100
AcDbEntity
  8
RACCORDO
100
AcDbLine
 62
7
  6
CONTINUOUS
 10
213.8112847993
 20
124.7142149252
 11
213.8112847993
 21
80.1136667308
  0
LINE
  5
336
100
AcDbEntity
  8
RACCORDO
100
AcDbLine
 62
253
  6
CONTINUOUS
 10
213.9710294117
 20
126.0629003035
 11
213.9710294117
 21
78.7649813534
  0
LINE
  5
337
100
AcDbEntity
  8
RACCORDO
100
AcDbLine
 62
253
  6
CONTINUOUS
 10
214.1774762359
 20
126.0629003035
 11
214.1774762359
 21
78.7649813533
  0
LINE
  5
338
100
AcDbEntity
  8
RACCORDO
100
AcDbLine
 62
7
  6
CONTINUOUS
 10
215.28019914
 20
76.7994207069
 11
215.28019914
 21
77.0095699662
  0
LINE
  5
339
100
AcDbEntity
  8
RACCORDO
100
AcDbLine
 62
7
  6
CONTINUOUS
 10
215.28019914
 20
127.8183116906
 11
215.28019914
 21
128.0284621777
  0
LINE
  5
33A
100
AcDbEntity
  8
RACCORDO
100
AcDbLine
 62
253
  6
CONTINUOUS
 10
215.5642391848
 20
77.942937728
 11
215.5642391848
 21
126.8849439288
  0
LINE
  5
33B
100
AcDbEntity
  8
RACCORDO
100
AcDbLine
 62
253
  6
CONTINUOUS
 10
215.7572823602
 20
77.942937728
 11
215.7572823602
 21
126.8849439288
  0
LINE
  5
33C
100
AcDbEntity
  8
RACCORDO
100
AcDbLine
 62
7
  6
CONTINUOUS
 10
215.8116061017
 20
126.9354438144
 11
215.8116061017
 21
77.8924378424
  0
LINE
  5
33D
100
AcDbEntity
  8
RACCORDO
100
AcDbLine
 62
7
  6
CONTINUOUS
 10
215.9112847993
 20
77.7931449229
 11
215.9112847993
 21
127.034736734
  0
LINE
  5
33E
100
AcDbEntity
  8
RACCORDO
100
AcDbLine
 62
253
  6
CONTINUOUS
 10
216.0147813546
 20
77.7931449229
 11
216.0147813546
 21
127.034736734
  0
LWPOLYLINE
  5
33F
100
AcDbEntity
  8
RACCORDO
100
AcDbPolyline
 62
7
  6
CONTINUOUS
 90
46
 70
0
 10
215.8116061017
 20
77.8924378424
 10
215.8113197489
 20
77.868424039
 10
215.8104543914
 20
77.8444274764
 10
215.8090100291
 20
77.8204481544
 10
215.8069851646
 20
77.7964638981
 10
215.8043812953
 20
77.7724968825
 10
215.8012029133
 20
77.748613633
 10
215.7974470044
 20
77.7248158077
 10
215.7931165826
 20
77.7011017485
 10
215.7882251826
 20
77.6775330071
 10
215.7827749471
 20
77.6541238551
 10
215.7767637329
 20
77.6308600208
 10
215.7701986457
 20
77.6077602414
 10
215.7630808321
 20
77.5848244223
 10
215.7554091449
 20
77.5620526581
 10
215.74718725
 20
77.5394639699
 10
215.738409218
 20
77.5170452107
 10
215.7290809774
 20
77.4948095274
 10
215.7192239808
 20
77.472815382
 10
215.7088347791
 20
77.4510628603
 10
215.6979168204
 20
77.4295518766
 10
215.6865019032
 20
77.4083406351
 10
215.674595397
 20
77.387441729
 10
215.6621919313
 20
77.3668425652
 10
215.6493071946
 20
77.3465635679
 10
215.6359437487
 20
77.3266068314
 10
215.6220990308
 20
77.3069702615
 10
215.6077810431
 20
77.2876679995
 10
215.5929822506
 20
77.2686905974
 10
215.5777101872
 20
77.2500475033
 10
215.561995458
 20
77.2317812034
 10
215.545832733
 20
77.2138897697
 10
215.5292273412
 20
77.1963751301
 10
215.5122258763
 20
77.1792855549
 10
215.494832653
 20
77.1626284304
 10
215.4770433557
 20
77.1463963702
 10
215.4588916329
 20
77.1306154846
 10
215.4403816486
 20
77.115289649
 10
215.4215092379
 20
77.1004149881
 10
215.4022955558
 20
77.0860059859
 10
215.3827361691
 20
77.0720596856
 10
215.36283551
 20
77.0585790441
 10
215.3426280326
 20
77.0455874159
 10
215.3221252212
 20
77.033092586
 10
215.3013155905
 20
77.0210867694
 10
215.28019914
 20
77.0095699662
  0
LWPOLYLINE
  5
340
100
AcDbEntity
  8
RACCORDO
100
AcDbPolyline
 62
253
  6
CONTINUOUS
 90
52
 70
0
 10
214.1774762359
 20
78.7649813533
 10
214.1771969985
 20
78.745292323
 10
214.1764105804
 20
78.7257749944
 10
214.1751169814
 20
78.7064293673
 10
214.173305934
 20
78.6872310126
 10
214.1709877056
 20
78.6682043595
 10
214.1681930988
 20
78.6494226959
 10
214.1649192396
 20
78.6308862202
 10
214.1611690018
 20
78.612594734
 10
214.15698181
 20
78.5946209308
 10
214.152352533
 20
78.5769621366
 10
214.1472863017
 20
78.5596210254
 10
214.1418379338
 20
78.5426783125
 10
214.1360037068
 20
78.5261395167
 10
214.1297873428
 20
78.5099991191
 10
214.1232548272
 20
78.4943212785
 10
214.1164084207
 20
78.4791198639
 10
214.1092458622
 20
78.4643810063
 10
214.1018263535
 20
78.4501272577
 10
214.0941523454
 20
78.4363652856
 10
214.0862213867
 20
78.4230884225
 10
214.0780853267
 20
78.4102992176
 10
214.0697451863
 20
78.3979998563
 10
214.0611999444
 20
78.3861881532
 10
214.0524983872
 20
78.3748601015
 10
214.0436425611
 20
78.3640185555
 10
214.0346304194
 20
78.3536606608
 10
214.0255046098
 20
78.3437738478
 10
214.0162644616
 20
78.3343580274
 10
214.0069106453
 20
78.3254132885
 10
213.9974878195
 20
78.3169273288
 10
213.9879950488
 20
78.3089010522
 10
213.9784332686
 20
78.3013335546
 10
213.9688499447
 20
78.2942098213
 10
213.9592469363
 20
78.287532925
 10
213.9496223842
 20
78.281299793
 10
213.9400181771
 20
78.2754861912
 10
213.9304368636
 20
78.270094516
 10
213.9208758951
 20
78.2651223711
 10
213.9113695149
 20
78.2605383339
 10
213.9019211159
 20
78.2563439821
 10
213.8925273052
 20
78.2525377379
 10
213.8832121476
 20
78.2490834459
 10
213.8739787203
 20
78.2459814065
 10
213.8648239461
 20
78.2432313191
 10
213.8557626588
 20
78.2407961267
 10
213.8468011951
 20
78.2386754856
 10
213.8379332183
 20
78.2368697393
 10
213.829154552
 20
78.2353428615
 10
213.8204638042
 20
78.2340828433
 10
213.8118623669
 20
78.2331016935
 10
213.8033502404
 20
78.2323994121
  0
LWPOLYLINE
  5
341
100
AcDbEntity
  8
RACCORDO
100
AcDbPolyline
 62
253
  6
CONTINUOUS
 90
15
 70
0
 10
214.8310489141
 20
127.8495060829
 10
214.8311219963
 20
127.8536976449
 10
214.8311699622
 20
127.8576181821
 10
214.8311927358
 20
127.8612614955
 10
214.8311902812
 20
127.8646218247
 10
214.8311626022
 20
127.8676938565
 10
214.8311097426
 20
127.8704727338
 10
214.831031786
 20
127.8729540628
 10
214.8309288556
 20
127.8751339202
 10
214.8308011141
 20
127.8770088593
 10
214.8306487637
 20
127.8785759158
 10
214.830472045
 20
127.8798326118
 10
214.8302712376
 20
127.8807769604
 10
214.830046659
 20
127.8814074684
 10
214.8297986642
 20
127.881723139
  0
LINE
  5
342
100
AcDbEntity
  8
RACCORDO
100
AcDbLine
 62
253
  6
CONTINUOUS
 10
214.8308279021
 20
127.8403368117
 11
214.8310489141
 21
127.8495060829
  0
LINE
  5
343
100
AcDbEntity
  8
RACCORDO
100
AcDbLine
 62
253
  6
CONTINUOUS
 10
214.8305083234
 20
127.8301683365
 11
214.8308279021
 21
127.8403368117
  0
LINE
  5
344
100
AcDbEntity
  8
RACCORDO
100
AcDbLine
 62
253
  6
CONTINUOUS
 10
214.8300921985
 20
127.8190649423
 11
214.8305083234
 21
127.8301683365
  0
LINE
  5
345
100
AcDbEntity
  8
RACCORDO
100
AcDbLine
 62
253
  6
CONTINUOUS
 10
214.829582158
 20
127.8070968244
 11
214.8300921985
 21
127.8190649423
  0
LINE
  5
346
100
AcDbEntity
  8
RACCORDO
100
AcDbLine
 62
253
  6
CONTINUOUS
 10
214.8286482166
 20
127.7876901797
 11
214.829582158
 21
127.8070968244
  0
LINE
  5
347
100
AcDbEntity
  8
RACCORDO
100
AcDbLine
 62
253
  6
CONTINUOUS
 10
214.8275236308
 20
127.7667851837
 11
214.8286482166
 21
127.7876901797
  0
LINE
  5
348
100
AcDbEntity
  8
RACCORDO
100
AcDbLine
 62
253
  6
CONTINUOUS
 10
213.9710294117
 20
126.0629003035
 11
213.9074384299
 21
124.9584245958
  0
LINE
  5
349
100
AcDbEntity
  8
RACCORDO
100
AcDbLine
 62
253
  6
CONTINUOUS
 10
214.8262243867
 20
127.7446790028
 11
214.8275236308
 21
127.7667851837
  0
LINE
  5
34A
100
AcDbEntity
  8
RACCORDO
100
AcDbLine
 62
253
  6
CONTINUOUS
 10
213.7908267624
 20
126.447650487
 11
213.7091764702
 21
125.1179141189
  0
LINE
  5
34B
100
AcDbEntity
  8
RACCORDO
100
AcDbLine
 62
253
  6
CONTINUOUS
 10
213.9074384299
 20
124.9584245958
 11
213.9060073704
 21
124.9359424261
  0
LINE
  5
34C
100
AcDbEntity
  8
RACCORDO
100
AcDbLine
 62
253
  6
CONTINUOUS
 10
214.8242526173
 20
127.7138806229
 11
214.8262243867
 21
127.7446790028
  0
LINE
  5
34D
100
AcDbEntity
  8
RACCORDO
100
AcDbLine
 62
253
  6
CONTINUOUS
 10
214.822053217
 20
127.6822845054
 11
214.8242526173
 21
127.7138806229
  0
LINE
  5
34E
100
AcDbEntity
  8
RACCORDO
100
AcDbLine
 62
253
  6
CONTINUOUS
 10
213.9060073704
 20
124.9359424261
 11
213.9045105778
 21
124.9147557095
  0
LINE
  5
34F
100
AcDbEntity
  8
RACCORDO
100
AcDbLine
 62
253
  6
CONTINUOUS
 10
213.8033502354
 20
126.5954822447
 11
213.8010586225
 21
126.5639024027
  0
LINE
  5
350
100
AcDbEntity
  8
RACCORDO
100
AcDbLine
 62
253
  6
CONTINUOUS
 10
213.8010586225
 20
126.5639024027
 11
213.7986567313
 21
126.5331187835
  0
LWPOLYLINE
  5
351
100
AcDbEntity
  8
RACCORDO
100
AcDbPolyline
 62
253
  6
CONTINUOUS
 90
22
 70
0
 10
213.9045105778
 20
124.9147557095
 10
213.9029556179
 20
124.8950014848
 10
213.9021570985
 20
124.8856756351
 10
213.9013467138
 20
124.8767446935
 10
213.9005244054
 20
124.8682107973
 10
213.8996902317
 20
124.8600718092
 10
213.8988465212
 20
124.8523496388
 10
213.8979935077
 20
124.8450480489
 10
213.8971309572
 20
124.8381632766
 10
213.896260496
 20
124.8317059432
 10
213.8953823463
 20
124.8256776342
 10
213.8944962857
 20
124.8200767642
 10
213.8936032738
 20
124.814909198
 10
213.8927031349
 20
124.8101738091
 10
213.8917960445
 20
124.8058717241
 10
213.8908834885
 20
124.8020121872
 10
213.8899651772
 20
124.7985952789
 10
213.8890414001
 20
124.7956209188
 10
213.8881145116
 20
124.7930981096
 10
213.8871852965
 20
124.7910298522
 10
213.88625297
 20
124.7894131458
 10
213.8853175321
 20
124.7882479903
  0
LINE
  5
352
100
AcDbEntity
  8
RACCORDO
100
AcDbLine
 62
253
  6
CONTINUOUS
 10
213.7986567313
 20
126.5331187835
 11
213.7968193111
 21
126.5110218046
  0
LWPOLYLINE
  5
353
100
AcDbEntity
  8
RACCORDO
100
AcDbPolyline
 62
253
  6
CONTINUOUS
 90
28
 70
0
 10
213.7091764915
 20
125.1179137201
 10
213.7084604264
 20
125.1095354074
 10
213.7077279905
 20
125.1013814304
 10
213.706979151
 20
125.0934584297
 10
213.7062131701
 20
125.0857707469
 10
213.7054307172
 20
125.0783271852
 10
213.7046338659
 20
125.0711402418
 10
213.7038224903
 20
125.0642154694
 10
213.7029966352
 20
125.0575582051
 10
213.7021586246
 20
125.0511790089
 10
213.7013083558
 20
125.0450822952
 10
213.700445841
 20
125.0392721379
 10
213.6995735717
 20
125.0337568959
 10
213.6986917419
 20
125.0285412357
 10
213.6978000604
 20
125.0236262259
 10
213.6969002882
 20
125.0190139322
 10
213.6959926007
 20
125.0147079343
 10
213.6950767246
 20
125.0107094342
 10
213.6941537493
 20
125.0070175371
 10
213.6932234448
 20
125.0036343688
 10
213.6922859443
 20
125.0005632468
 10
213.6913428837
 20
124.9978058243
 10
213.6903939142
 20
124.9953638508
 10
213.689439286
 20
124.9932404247
 10
213.6884815337
 20
124.9914385882
 10
213.6875214684
 20
124.9899598379
 10
213.6865581781
 20
124.9888047845
 10
213.6855916124
 20
124.9879742324
  0
LWPOLYLINE
  5
354
100
AcDbEntity
  8
RACCORDO
100
AcDbPolyline
 62
253
  6
CONTINUOUS
 90
4
 70
0
 10
215.9615571364
 20
77.4397763769
 10
215.9906792834
 20
77.5541967648
 10
216.0084206842
 20
77.6719862802
 10
216.0147813546
 20
77.7931449229
  0
LWPOLYLINE
  5
355
100
AcDbEntity
  8
RACCORDO
100
AcDbPolyline
 62
7
  6
CONTINUOUS
 90
19
 70
0
 10
215.28019914
 20
77.0095699662
 10
215.2597465468
 20
76.9990154584
 10
215.2390749377
 20
76.9889426577
 10
215.2181843127
 20
76.979351564
 10
215.1970663981
 20
76.9702381925
 10
215.1757294677
 20
76.961606528
 10
215.1541983422
 20
76.9534685257
 10
215.1324720106
 20
76.945823958
 10
215.110551484
 20
76.9386730525
 10
215.0884646165
 20
76.932028447
 10
215.066202025
 20
76.9258890369
 10
215.0437730926
 20
76.9202559268
 10
215.0212338221
 20
76.9151450678
 10
214.9985831304
 20
76.9105591807
 10
214.9758221007
 20
76.9064955446
 10
214.9530099859
 20
76.9029619485
 10
214.9301665368
 20
76.8999609886
 10
214.9072720026
 20
76.8974900687
 10
214.8843263833
 20
76.8955491888
  0
LWPOLYLINE
  5
356
100
AcDbEntity
  8
RACCORDO
100
AcDbPolyline
 62
7
  6
CONTINUOUS
 90
46
 70
0
 10
215.28019914
 20
127.8183116906
 10
215.3013155905
 20
127.8067948874
 10
215.3221252212
 20
127.7947890709
 10
215.3426280326
 20
127.7822942409
 10
215.36283551
 20
127.7693026128
 10
215.3827361691
 20
127.7558219712
 10
215.4022955558
 20
127.7418756709
 10
215.4215092379
 20
127.7274666687
 10
215.4403816486
 20
127.7125920078
 10
215.4588916329
 20
127.6972661723
 10
215.4770433557
 20
127.6814852867
 10
215.494832653
 20
127.6652532265
 10
215.5122258763
 20
127.648596102
 10
215.5292273412
 20
127.6315065267
 10
215.545832733
 20
127.6139918872
 10
215.561995458
 20
127.5961004535
 10
215.5777101872
 20
127.5778341536
 10
215.5929822506
 20
127.5591910594
 10
215.6077810431
 20
127.5402136573
 10
215.6220990308
 20
127.5209113954
 10
215.6359437487
 20
127.5012748254
 10
215.6493071946
 20
127.4813180889
 10
215.6621919313
 20
127.4610390916
 10
215.674595397
 20
127.4404399278
 10
215.6865019032
 20
127.4195410218
 10
215.6979168204
 20
127.3983297802
 10
215.7088347791
 20
127.3768187965
 10
215.7192239808
 20
127.3550662749
 10
215.7290809774
 20
127.3330721295
 10
215.738409218
 20
127.3108364462
 10
215.74718725
 20
127.2884176869
 10
215.7554091449
 20
127.2658289987
 10
215.7630808321
 20
127.2430572345
 10
215.7701986457
 20
127.2201214154
 10
215.7767637329
 20
127.1970216361
 10
215.7827749471
 20
127.1737578018
 10
215.7882251826
 20
127.1503486497
 10
215.7931165826
 20
127.1267799083
 10
215.7974470044
 20
127.1030658492
 10
215.8012029133
 20
127.0792680238
 10
215.8043812953
 20
127.0553847744
 10
215.8069851646
 20
127.0314177588
 10
215.8090100291
 20
127.0074335024
 10
215.8104543914
 20
126.9834541805
 10
215.8113197489
 20
126.9594576178
 10
215.8116061017
 20
126.9354438144
  0
LWPOLYLINE
  5
357
100
AcDbEntity
  8
RACCORDO
100
AcDbPolyline
 62
253
  6
CONTINUOUS
 90
10
 70
0
 10
215.9613691271
 20
127.3887203012
 10
215.9202831751
 20
127.5009036508
 10
215.8678245997
 20
127.6096308868
 10
215.8056035649
 20
127.7115988467
 10
215.7333943891
 20
127.8065313997
 10
215.6514226518
 20
127.8947046767
 10
215.5619754183
 20
127.973643907
 10
215.4647292823
 20
128.0431490545
 10
215.3600075419
 20
128.1034201553
 10
215.2510673538
 20
128.1525825478
  0
LWPOLYLINE
  5
358
100
AcDbEntity
  8
RACCORDO
100
AcDbPolyline
 62
253
  6
CONTINUOUS
 90
3
 70
0
 10
216.0083498286
 20
127.1561873699
 10
215.990545758
 20
127.2741818923
 10
215.9613691271
 20
127.3887203012
  0
LWPOLYLINE
  5
359
100
AcDbEntity
  8
RACCORDO
100
AcDbPolyline
 62
253
  6
CONTINUOUS
 90
28
 70
0
 10
239.5874982117
 20
142.9139408284
 10
239.586462763
 20
142.9860275668
 10
239.5809178137
 20
143.0602649419
 10
239.5708633609
 20
143.1366529537
 10
239.5566406365
 20
143.215645567
 10
239.537908396
 20
143.2967888169
 10
239.5136429164
 20
143.3787208092
 10
239.4835659281
 20
143.4617323848
 10
239.447955665
 20
143.5455327027
 10
239.4066231512
 20
143.6278873458
 10
239.3593123599
 20
143.7086946153
 10
239.306279258
 20
143.7880562098
 10
239.2481028574
 20
143.8640428089
 10
239.1845090309
 20
143.9365325417
 10
239.1157718317
 20
144.005647279
 10
239.0432925526
 20
144.0698233119
 10
238.9668250248
 20
144.1288327871
 10
238.8866153515
 20
144.1829035578
 10
238.8048032621
 20
144.2311554757
 10
238.7213041883
 20
144.2732527238
 10
238.6362026678
 20
144.3095311191
 10
238.5518921328
 20
144.3401179635
 10
238.4684476275
 20
144.3647012554
 10
238.3857941241
 20
144.3835929965
 10
238.30609999
 20
144.3978564936
 10
238.2300880414
 20
144.4078461825
 10
238.1570355198
 20
144.4132076274
 10
238.0869424503
 20
144.4139408284
  0
LWPOLYLINE
  5
35A
100
AcDbEntity
  8
RACCORDO
100
AcDbPolyline
 62
253
  6
CONTINUOUS
 90
10
 70
0
 10
238.0869424503
 20
144.4139408284
 10
238.0865526529
 20
144.5007649212
 10
238.0853951045
 20
144.5849509069
 10
238.0835049766
 20
144.6639408367
 10
238.0809396999
 20
144.7353346419
 10
238.077777219
 20
144.7969630578
 10
238.0741136243
 20
144.846953536
 10
238.0700602323
 20
144.8837871419
 10
238.0657402034
 20
144.9063447058
 10
238.0612847993
 20
144.9139408284
  0
LINE
  5
35B
100
AcDbEntity
  8
RACCORDO
100
AcDbLine
 62
253
  6
CONTINUOUS
 10
239.5874982117
 20
61.9139408284
 11
239.5874982117
 21
142.9139408284
  0
LINE
  5
35C
100
AcDbEntity
  8
RACCORDO
100
AcDbLine
 62
7
  6
CONTINUOUS
 10
240.0612847993
 20
61.9139408284
 11
240.0612847993
 21
142.9139408284
  0
LWPOLYLINE
  5
35D
100
AcDbEntity
  8
RACCORDO
100
AcDbPolyline
 62
253
  6
CONTINUOUS
 90
10
 70
0
 10
238.0869424503
 20
60.4139408284
 10
238.0865526554
 20
60.327116974
 10
238.0853951125
 20
60.2429311431
 10
238.0835049911
 20
60.1639412782
 10
238.0809397196
 20
60.0925474489
 10
238.0777772411
 20
60.0309189451
 10
238.0741136458
 20
59.9809283535
 10
238.0700602501
 20
59.9440946363
 10
238.0657402138
 20
59.9215369857
 10
238.0612847993
 20
59.9139408284
  0
LINE
  5
35E
100
AcDbEntity
  8
RACCORDO
100
AcDbLine
 62
7
  6
CONTINUOUS
 10
71.0938460239
 20
59.9139408284
 11
77.7777660502
 21
59.9139408284
  0
LINE
  5
35F
100
AcDbEntity
  8
RACCORDO
100
AcDbLine
 62
253
  6
CONTINUOUS
 10
70.5938460239
 20
60.4139408284
 11
72.3724683351
 21
60.4139408284
  0
LINE
  5
360
100
AcDbEntity
  8
0
100
AcDbLine
 62
7
  6
CONTINUOUS
 10
79.9938460239
 20
60.9139408284
 11
77.8681780924
 21
60.9139408284
  0
LINE
  5
361
100
AcDbEntity
  8
RACCORDO
100
AcDbLine
 62
253
  6
CONTINUOUS
 10
72.4504086943
 20
61.9139408284
 11
77.882369824
 21
61.9139408284
  0
LINE
  5
362
100
AcDbEntity
  8
0
100
AcDbLine
 62
253
  6
CONTINUOUS
 10
77.882369824
 20
61.9139408284
 11
80.4938460239
 21
61.9139408284
  0
LINE
  5
363
100
AcDbEntity
  8
0
100
AcDbLine
 62
7
  6
CONTINUOUS
 10
80.4938460239
 20
68.9139408284
 11
80.4657007626
 21
68.9139408284
  0
LINE
  5
364
100
AcDbEntity
  8
0
100
AcDbLine
 62
7
  6
CONTINUOUS
 10
80.4938460239
 20
69.9139408284
 11
80.4657007626
 21
69.9139408284
  0
LINE
  5
365
100
AcDbEntity
  8
DRAFT
100
AcDbLine
 62
7
  6
CONTINUOUS
 10
70.7552474013
 20
75.2809438166
 11
70.6903555431
 21
75.2820765082
  0
LINE
  5
366
100
AcDbEntity
  8
RACCORDO
100
AcDbLine
 62
253
  6
CONTINUOUS
 10
71.4192854454
 20
77.7931449229
 11
71.4193465936
 21
77.7931449229
  0
LINE
  5
367
100
AcDbEntity
  8
RACCORDO
100
AcDbLine
 62
253
  6
CONTINUOUS
 10
71.3036588167
 20
77.942937728
 11
71.4192854454
 21
77.942937728
  0
LINE
  5
368
100
AcDbEntity
  8
RACCORDO
100
AcDbLine
 62
253
  6
CONTINUOUS
 10
71.2563173899
 20
78.7649813533
 11
71.2562044311
 21
78.7649813533
  0
LWPOLYLINE
  5
369
100
AcDbEntity
  8
RACCORDO
100
AcDbPolyline
 62
253
  6
CONTINUOUS
 90
10
 70
0
 10
72.3724683351
 20
60.4139408284
 10
72.3800544095
 20
60.327116974
 10
72.4025821569
 20
60.2429311431
 10
72.4393671184
 20
60.1639412782
 10
72.4892916392
 20
60.0925474489
 10
72.5508388145
 20
60.0309189451
 10
72.622138568
 20
59.9809283535
 10
72.7010244954
 20
59.9440946363
 10
72.7850996966
 20
59.9215369857
 10
72.8718095861
 20
59.9139408284
  0
LWPOLYLINE
  5
36A
100
AcDbEntity
  8
RACCORDO
100
AcDbPolyline
 62
7
  6
CONTINUOUS
 90
11
 70
0
 10
70.4941534756
 20
128.1717340687
 10
70.4947266313
 20
128.1640719068
 10
70.4955936423
 20
128.1564376486
 10
70.4967532016
 20
128.1488425604
 10
70.4982035139
 20
128.1412981147
 10
70.499942379
 20
128.1338154417
 10
70.5019671753
 20
128.1264055583
 10
70.5042747807
 20
128.1190796131
 10
70.5068616793
 20
128.1118484613
 10
70.5097239974
 20
128.1047226574
 10
70.5128574342
 20
128.097712674
  0
LINE
  5
36B
100
AcDbEntity
  8
RACCORDO
100
AcDbLine
 62
7
  6
CONTINUOUS
 10
71.2486285938
 20
126.5399223558
 11
71.2493190682
 21
126.5265791273
  0
LINE
  5
36C
100
AcDbEntity
  8
RACCORDO
100
AcDbLine
 62
253
  6
CONTINUOUS
 10
71.2486753895
 20
126.5465818653
 11
71.2496395515
 21
126.5265481038
  0
LINE
  5
36D
100
AcDbEntity
  8
RACCORDO
100
AcDbLine
 62
253
  6
CONTINUOUS
 10
71.2926853718
 20
127.5228496675
 11
71.2915679503
 21
127.5461147875
  0
LINE
  5
36E
100
AcDbEntity
  8
RACCORDO
100
AcDbLine
 62
7
  6
CONTINUOUS
 10
71.2493190682
 20
126.5265791273
 11
71.2498560392
 21
126.5146167666
  0
LINE
  5
36F
100
AcDbEntity
  8
RACCORDO
100
AcDbLine
 62
7
  6
CONTINUOUS
 10
71.4030383567
 20
127.9824611656
 11
71.4047923598
 21
127.941380052
  0
LINE
  5
370
100
AcDbEntity
  8
RACCORDO
100
AcDbLine
 62
253
  6
CONTINUOUS
 10
71.2942841086
 20
127.4849938765
 11
71.2926853718
 21
127.5228496675
  0
LINE
  5
371
100
AcDbEntity
  8
RACCORDO
100
AcDbLine
 62
253
  6
CONTINUOUS
 10
71.2496395515
 20
126.5265481038
 11
71.2498560392
 21
126.5146167666
  0
LWPOLYLINE
  5
372
100
AcDbEntity
  8
RACCORDO
100
AcDbPolyline
 62
253
  6
CONTINUOUS
 90
3
 70
0
 10
71.4047923598
 20
127.941380052
 10
71.4035803732
 20
127.973643907
 10
71.4030383567
 20
127.9824611656
  0
LINE
  5
373
100
AcDbEntity
  8
RACCORDO
100
AcDbLine
 62
7
  6
CONTINUOUS
 10
71.2498560392
 20
126.5146167666
 11
71.2503995841
 21
126.5009940818
  0
LINE
  5
374
100
AcDbEntity
  8
RACCORDO
100
AcDbLine
 62
7
  6
CONTINUOUS
 10
71.4047923598
 20
127.941380052
 11
71.4073132376
 21
127.873476617
  0
LINE
  5
375
100
AcDbEntity
  8
RACCORDO
100
AcDbLine
 62
253
  6
CONTINUOUS
 10
71.2502775542
 20
126.5109543297
 11
71.2503995841
 21
126.5009940818
  0
LINE
  5
376
100
AcDbEntity
  8
RACCORDO
100
AcDbLine
 62
253
  6
CONTINUOUS
 10
71.2957820064
 20
127.4437740384
 11
71.2942841086
 21
127.4849938765
  0
LINE
  5
377
100
AcDbEntity
  8
RACCORDO
100
AcDbLine
 62
7
  6
CONTINUOUS
 10
71.2503995841
 20
126.5009940818
 11
71.251051072
 21
126.4824944846
  0
LINE
  5
378
100
AcDbEntity
  8
RACCORDO
100
AcDbLine
 62
253
  6
CONTINUOUS
 10
71.4073132376
 20
127.873476617
 11
71.4066827712
 21
127.8947046767
  0
LINE
  5
379
100
AcDbEntity
  8
RACCORDO
100
AcDbLine
 62
253
  6
CONTINUOUS
 10
71.2509065153
 20
126.4935236312
 11
71.251051072
 21
126.4824944846
  0
LINE
  5
37A
100
AcDbEntity
  8
RACCORDO
100
AcDbLine
 62
253
  6
CONTINUOUS
 10
71.2971704036
 20
127.3994216108
 11
71.2957820064
 21
127.4437740384
  0
LINE
  5
37B
100
AcDbEntity
  8
RACCORDO
100
AcDbLine
 62
7
  6
CONTINUOUS
 10
71.4073132376
 20
127.873476617
 11
71.4096809366
 21
127.7981680793
  0
LINE
  5
37C
100
AcDbEntity
  8
RACCORDO
100
AcDbLine
 62
7
  6
CONTINUOUS
 10
71.251051072
 20
126.4824944846
 11
71.2517970419
 21
126.4580126882
  0
LINE
  5
37D
100
AcDbEntity
  8
RACCORDO
100
AcDbLine
 62
253
  6
CONTINUOUS
 10
71.2518240681
 20
126.4638631032
 11
71.2517970419
 21
126.4580126882
  0
LINE
  5
37E
100
AcDbEntity
  8
RACCORDO
100
AcDbLine
 62
253
  6
CONTINUOUS
 10
71.2519015213
 20
126.4542675436
 11
71.2521209823
 21
126.4530215573
  0
LINE
  5
37F
100
AcDbEntity
  8
RACCORDO
100
AcDbLine
 62
253
  6
CONTINUOUS
 10
71.4096809366
 20
127.7981680793
 11
71.4095311019
 21
127.8065313997
  0
LINE
  5
380
100
AcDbEntity
  8
RACCORDO
100
AcDbLine
 62
7
  6
CONTINUOUS
 10
71.4096809366
 20
127.7981680793
 11
71.4118623378
 21
127.7157427883
  0
LINE
  5
381
100
AcDbEntity
  8
RACCORDO
100
AcDbLine
 62
253
  6
CONTINUOUS
 10
71.2988373881
 20
127.3358481161
 11
71.2971704036
 21
127.3994216108
  0
LINE
  5
382
100
AcDbEntity
  8
RACCORDO
100
AcDbLine
 62
7
  6
CONTINUOUS
 10
71.2517970419
 20
126.4580126882
 11
71.2526149604
 21
126.4263283875
  0
LINE
  5
383
100
AcDbEntity
  8
RACCORDO
100
AcDbLine
 62
253
  6
CONTINUOUS
 10
71.2526993924
 20
126.4298818026
 11
71.2526149604
 21
126.4263283875
  0
LWPOLYLINE
  5
384
100
AcDbEntity
  8
RACCORDO
100
AcDbPolyline
 62
253
  6
CONTINUOUS
 90
32
 70
0
 10
71.2781445183
 20
77.1455971515
 10
71.2783221048
 20
77.1376668084
 10
71.2788154507
 20
77.1297490044
 10
71.279623776
 20
77.1218562583
 10
71.2807458026
 20
77.1140010496
 10
71.2821797564
 20
77.1061957983
 10
71.2839233703
 20
77.0984528455
 10
71.2859738874
 20
77.0907844336
 10
71.2883280655
 20
77.0832026874
 10
71.2909821823
 20
77.0757195944
 10
71.2939320416
 20
77.0683469864
 10
71.297172979
 20
77.0610965204
 10
71.3006998704
 20
77.0539796601
 10
71.3045071393
 20
77.0470076583
 10
71.308588766
 20
77.0401915384
 10
71.3129382969
 20
77.0335420775
 10
71.3175488548
 20
77.0270697894
 10
71.32241315
 20
77.0207849073
 10
71.3275234914
 20
77.0146973685
 10
71.332871799
 20
77.0088167981
 10
71.3384496164
 20
77.003152494
 10
71.3442481244
 20
76.9977134122
 10
71.3502581549
 20
76.9925081523
 10
71.3564702054
 20
76.9875449447
 10
71.3628744538
 20
76.9828316368
 10
71.3694607742
 20
76.9783756807
 10
71.3762187529
 20
76.974184122
 10
71.3831377048
 20
76.970263588
 10
71.39020669
 20
76.9666202775
 10
71.3974145318
 20
76.963259951
 10
71.4047498336
 20
76.9601879216
 10
71.4074677184
 20
76.9591742998
  0
LINE
  5
385
100
AcDbEntity
  8
RACCORDO
100
AcDbLine
 62
7
  6
CONTINUOUS
 10
71.2526149604
 20
126.4263283875
 11
71.2534721968
 21
126.3861336353
  0
LINE
  5
386
100
AcDbEntity
  8
RACCORDO
100
AcDbLine
 62
253
  6
CONTINUOUS
 10
71.3002782666
 20
127.267782936
 11
71.2988373881
 21
127.3358481161
  0
LINE
  5
387
100
AcDbEntity
  8
RACCORDO
100
AcDbLine
 62
7
  6
CONTINUOUS
 10
71.4118623378
 20
127.7157427883
 11
71.414411217
 21
127.5955810975
  0
LINE
  5
388
100
AcDbEntity
  8
RACCORDO
100
AcDbLine
 62
253
  6
CONTINUOUS
 10
71.2535183184
 20
126.3915163732
 11
71.2534721968
 21
126.3861336353
  0
LINE
  5
389
100
AcDbEntity
  8
RACCORDO
100
AcDbLine
 62
253
  6
CONTINUOUS
 10
71.2535624759
 20
126.3813805634
 11
71.2537758934
 21
126.3777544011
  0
LWPOLYLINE
  5
38A
100
AcDbEntity
  8
RACCORDO
100
AcDbPolyline
 62
253
  6
CONTINUOUS
 90
6
 70
0
 10
71.2437900126
 20
126.5954822447
 10
71.2439293296
 20
126.5875560267
 10
71.2443840375
 20
126.5796423235
 10
71.2451534182
 20
126.5717536302
 10
71.246236257
 20
126.5639024027
 10
71.2475105631
 20
126.5567738933
  0
LINE
  5
38B
100
AcDbEntity
  8
RACCORDO
100
AcDbLine
 62
253
  6
CONTINUOUS
 10
71.414411217
 20
127.5955810975
 11
71.4142130387
 21
127.6096308868
  0
LINE
  5
38C
100
AcDbEntity
  8
RACCORDO
100
AcDbLine
 62
7
  6
CONTINUOUS
 10
71.2534721968
 20
126.3861336353
 11
71.254404053
 21
126.3306256854
  0
LINE
  5
38D
100
AcDbEntity
  8
RACCORDO
100
AcDbLine
 62
253
  6
CONTINUOUS
 10
71.3017391163
 20
127.1774126388
 11
71.3002782666
 21
127.267782936
  0
LINE
  5
38E
100
AcDbEntity
  8
RACCORDO
100
AcDbLine
 62
253
  6
CONTINUOUS
 10
71.2544953629
 20
126.3335603802
 11
71.254404053
 21
126.3306256854
  0
LINE
  5
38F
100
AcDbEntity
  8
RACCORDO
100
AcDbLine
 62
253
  6
CONTINUOUS
 10
71.2545578156
 20
126.3197593663
 11
71.2547147624
 21
126.3178825396
  0
LINE
  5
390
100
AcDbEntity
  8
RACCORDO
100
AcDbLine
 62
7
  6
CONTINUOUS
 10
71.414411217
 20
127.5955810975
 11
71.4164899591
 21
127.4648028661
  0
LINE
  5
391
100
AcDbEntity
  8
RACCORDO
100
AcDbLine
 62
253
  6
CONTINUOUS
 10
71.4169299452
 20
127.4306130636
 11
71.4160437043
 21
127.5009036508
  0
LINE
  5
392
100
AcDbEntity
  8
RACCORDO
100
AcDbLine
 62
253
  6
CONTINUOUS
 10
71.2550548133
 20
126.2797900001
 11
71.2551199723
 21
126.2738293844
  0
LINE
  5
393
100
AcDbEntity
  8
RACCORDO
100
AcDbLine
 62
7
  6
CONTINUOUS
 10
71.254404053
 20
126.3306256854
 11
71.255245912
 21
126.2617164695
  0
LINE
  5
394
100
AcDbEntity
  8
RACCORDO
100
AcDbLine
 62
253
  6
CONTINUOUS
 10
71.2553026344
 20
126.2682606332
 11
71.2553066629
 21
126.2555628662
  0
LINE
  5
395
100
AcDbEntity
  8
RACCORDO
100
AcDbLine
 62
253
  6
CONTINUOUS
 10
71.3027998419
 20
127.082487062
 11
71.3017391163
 21
127.1774126388
  0
LINE
  5
396
100
AcDbEntity
  8
RACCORDO
100
AcDbLine
 62
7
  6
CONTINUOUS
 10
71.4164899591
 20
127.4648028661
 11
71.4180382147
 21
127.3248755748
  0
LWPOLYLINE
  5
397
100
AcDbEntity
  8
RACCORDO
100
AcDbPolyline
 62
7
  6
CONTINUOUS
 90
3
 70
0
 10
70.4938460371
 20
128.182819234
 10
70.4938750481
 20
128.17941283
 10
70.4941534756
 20
128.1717340687
  0
LINE
  5
398
100
AcDbEntity
  8
RACCORDO
100
AcDbLine
 62
7
  6
CONTINUOUS
 10
71.255245912
 20
126.2617164695
 11
71.2559000869
 21
126.1764911595
  0
LINE
  5
399
100
AcDbEntity
  8
RACCORDO
100
AcDbLine
 62
253
  6
CONTINUOUS
 10
71.2560052896
 20
126.1784589627
 11
71.2559000869
 21
126.1764911595
  0
LINE
  5
39A
100
AcDbEntity
  8
RACCORDO
100
AcDbLine
 62
253
  6
CONTINUOUS
 10
71.3034431948
 20
126.9844901
 11
71.3027998419
 21
127.082487062
  0
LINE
  5
39B
100
AcDbEntity
  8
RACCORDO
100
AcDbLine
 62
7
  6
CONTINUOUS
 10
71.4180382147
 20
127.3248755748
 11
71.4189853816
 21
127.1775952394
  0
LINE
  5
39C
100
AcDbEntity
  8
RACCORDO
100
AcDbLine
 62
253
  6
CONTINUOUS
 10
71.2561330668
 20
126.1181677975
 11
71.2561512774
 21
126.110551278
  0
LINE
  5
39D
100
AcDbEntity
  8
RACCORDO
100
AcDbLine
 62
253
  6
CONTINUOUS
 10
71.2561668989
 20
126.1028624912
 11
71.2562815591
 21
126.1021066633
  0
LINE
  5
39E
100
AcDbEntity
  8
RACCORDO
100
AcDbLine
 62
7
  6
CONTINUOUS
 10
71.2559000869
 20
126.1764911595
 11
71.2561979313
 21
126.0793552444
  0
LINE
  5
39F
100
AcDbEntity
  8
RACCORDO
100
AcDbLine
 62
253
  6
CONTINUOUS
 10
71.2563080009
 20
126.0825893343
 11
71.2561979313
 21
126.0793552444
  0
LINE
  5
3A0
100
AcDbEntity
  8
RACCORDO
100
AcDbLine
 62
253
  6
CONTINUOUS
 10
71.2562027011
 20
126.0713726783
 11
71.2563173899
 21
126.0629003035
  0
LINE
  5
3A1
100
AcDbEntity
  8
0
100
AcDbLine
 62
7
  6
CONTINUOUS
 10
70.4938460239
 20
129.3458356094
 11
70.4938460239
 21
128.1740855464
  0
LINE
  5
3A2
100
AcDbEntity
  8
0
100
AcDbLine
 62
7
  6
CONTINUOUS
 10
70.4938460239
 20
76.6537961105
 11
70.4938460239
 21
75.4820460475
  0
LINE
  5
3A3
100
AcDbEntity
  8
ASSI
100
AcDbLine
 62
7
  6
CONTINUOUS
 10
70.5938460239
 20
144.4139408284
 11
70.5938460239
 21
129.913940767
  0
LINE
  5
3A4
100
AcDbEntity
  8
ASSI
100
AcDbLine
 62
7
  6
CONTINUOUS
 10
70.5938460239
 20
74.9139409728
 11
70.5938460239
 21
60.4139408284
  0
LINE
  5
3A5
100
AcDbEntity
  8
RACCORDO
100
AcDbLine
 62
7
  6
CONTINUOUS
 10
71.2561979313
 20
126.0793552444
 11
71.2562044311
 21
78.7649813533
  0
LINE
  5
3A6
100
AcDbEntity
  8
RACCORDO
100
AcDbLine
 62
7
  6
CONTINUOUS
 10
71.4189853816
 20
127.1775952394
 11
71.4192852163
 21
77.7718968661
  0
LINE
  5
3A7
100
AcDbEntity
  8
RACCORDO
100
AcDbLine
 62
253
  6
CONTINUOUS
 10
71.2562029886
 20
78.7572429911
 11
71.2563080009
 21
78.745292323
  0
LINE
  5
3A8
100
AcDbEntity
  8
RACCORDO
100
AcDbLine
 62
253
  6
CONTINUOUS
 10
71.3036501518
 20
77.9229629995
 11
71.3034431948
 21
126.9844901
  0
LINE
  5
3A9
100
AcDbEntity
  8
RACCORDO
100
AcDbLine
 62
253
  6
CONTINUOUS
 10
72.450370238
 20
61.8467374935
 11
72.4503543346
 21
142.9860275668
  0
LINE
  5
3AA
100
AcDbEntity
  8
RACCORDO
100
AcDbLine
 62
7
  6
CONTINUOUS
 10
71.4192852163
 20
77.7718968661
 11
71.4189135287
 21
77.6341335142
  0
LINE
  5
3AB
100
AcDbEntity
  8
RACCORDO
100
AcDbLine
 62
7
  6
CONTINUOUS
 10
71.2562044316
 20
78.7649813533
 11
71.2559868641
 21
78.6688170865
  0
LINE
  5
3AC
100
AcDbEntity
  8
RACCORDO
100
AcDbLine
 62
253
  6
CONTINUOUS
 10
71.3033485353
 20
77.8236199273
 11
71.3036501518
 21
77.9229629995
  0
LINE
  5
3AD
100
AcDbEntity
  8
RACCORDO
100
AcDbLine
 62
253
  6
CONTINUOUS
 10
71.4189135287
 20
77.6341335142
 11
71.4191240682
 21
77.6719862802
  0
LINE
  5
3AE
100
AcDbEntity
  8
RACCORDO
100
AcDbLine
 62
7
  6
CONTINUOUS
 10
71.4189135287
 20
77.6341335142
 11
71.4180171235
 21
77.5006246787
  0
LINE
  5
3AF
100
AcDbEntity
  8
RACCORDO
100
AcDbLine
 62
7
  6
CONTINUOUS
 10
70.4938750481
 20
76.6484688268
 11
70.4938460371
 21
76.6450624228
  0
LINE
  5
3B0
100
AcDbEntity
  8
RACCORDO
100
AcDbLine
 62
7
  6
CONTINUOUS
 10
71.255988862
 20
78.6692567533
 11
71.2554151248
 21
78.5838996604
  0
LINE
  5
3B1
100
AcDbEntity
  8
RACCORDO
100
AcDbLine
 62
253
  6
CONTINUOUS
 10
71.3026205538
 20
77.7261077718
 11
71.3033485353
 21
77.8236199273
  0
LINE
  5
3B2
100
AcDbEntity
  8
RACCORDO
100
AcDbLine
 62
7
  6
CONTINUOUS
 10
71.4180171235
 20
77.5006246787
 11
71.4166236035
 21
77.3730990992
  0
LINE
  5
3B3
100
AcDbEntity
  8
RACCORDO
100
AcDbLine
 62
7
  6
CONTINUOUS
 10
71.2554151248
 20
78.5838996604
 11
71.2545767338
 21
78.5095008543
  0
LINE
  5
3B4
100
AcDbEntity
  8
RACCORDO
100
AcDbLine
 62
253
  6
CONTINUOUS
 10
71.3014783415
 20
77.6319892338
 11
71.3026205538
 21
77.7261077718
  0
LINE
  5
3B5
100
AcDbEntity
  8
RACCORDO
100
AcDbLine
 62
7
  6
CONTINUOUS
 10
71.4166236035
 20
77.3730990992
 11
71.414785111
 21
77.2530829378
  0
LWPOLYLINE
  5
3B6
100
AcDbEntity
  8
RACCORDO
100
AcDbPolyline
 62
253
  6
CONTINUOUS
 90
6
 70
0
 10
71.2437898643
 20
78.2323994121
 10
71.2439291932
 20
78.2403256289
 10
71.2443839126
 20
78.2482393306
 10
71.2451533046
 20
78.2561280223
 10
71.2462361543
 20
78.2639792481
 10
71.2475108881
 20
78.2711100942
  0
LINE
  5
3B7
100
AcDbEntity
  8
RACCORDO
100
AcDbLine
 62
7
  6
CONTINUOUS
 10
71.2546396006
 20
78.5141509746
 11
71.253703337
 21
78.4541599682
  0
LINE
  5
3B8
100
AcDbEntity
  8
RACCORDO
100
AcDbLine
 62
253
  6
CONTINUOUS
 10
71.299940162
 20
77.5427002363
 11
71.3014783415
 21
77.6319892338
  0
LINE
  5
3B9
100
AcDbEntity
  8
RACCORDO
100
AcDbLine
 62
7
  6
CONTINUOUS
 10
71.414785111
 20
77.2530829378
 11
71.4125575063
 21
77.1418634339
  0
LINE
  5
3BA
100
AcDbEntity
  8
RACCORDO
100
AcDbLine
 62
7
  6
CONTINUOUS
 10
71.2537693753
 20
78.4578542078
 11
71.2528953444
 21
78.413813475
  0
LWPOLYLINE
  5
3BB
100
AcDbEntity
  8
RACCORDO
100
AcDbPolyline
 62
253
  6
CONTINUOUS
 90
32
 70
0
 10
71.2781445185
 20
127.6822845054
 10
71.2783221005
 20
127.6902148521
 10
71.2788154422
 20
127.69813266
 10
71.2796237635
 20
127.7060254101
 10
71.2807457864
 20
127.7138806229
 10
71.2821797368
 20
127.7216858785
 10
71.2839233475
 20
127.7294288357
 10
71.2859738616
 20
127.7370972521
 10
71.288328037
 20
127.7446790028
 10
71.2909821515
 20
127.7521621004
 10
71.2939320085
 20
127.759534713
 10
71.2971729441
 20
127.7667851837
 10
71.3006998339
 20
127.7739020486
 10
71.3045071014
 20
127.7808740551
 10
71.308588727
 20
127.7876901797
 10
71.312938257
 20
127.7943396451
 10
71.3175488143
 20
127.8008119378
 10
71.3224131091
 20
127.8070968244
 10
71.3275234504
 20
127.8131843676
 10
71.3328717581
 20
127.8190649423
 10
71.3384495758
 20
127.8247292506
 10
71.3442480844
 20
127.8301683365
 10
71.3502581158
 20
127.8353736003
 10
71.3564701672
 20
127.8403368117
 10
71.3628744168
 20
127.8450501234
 10
71.3694607386
 20
127.8495060829
 10
71.3762187189
 20
127.8536976449
 10
71.3831376725
 20
127.8576181821
 10
71.3902066596
 20
127.8612614955
 10
71.3974145034
 20
127.8646218247
 10
71.4047498074
 20
127.8676938565
 10
71.4074717045
 20
127.8687089752
  0
LINE
  5
3BC
100
AcDbEntity
  8
RACCORDO
100
AcDbLine
 62
253
  6
CONTINUOUS
 10
71.2984412552
 20
77.4756962962
 11
71.299940162
 21
77.5427002363
  0
LINE
  5
3BD
100
AcDbEntity
  8
RACCORDO
100
AcDbLine
 62
7
  6
CONTINUOUS
 10
71.2529612433
 20
78.4168146701
 11
71.2520827374
 21
78.3803140041
  0
LINE
  5
3BE
100
AcDbEntity
  8
RACCORDO
100
AcDbLine
 62
7
  6
CONTINUOUS
 10
71.4125575063
 20
77.1418634339
 11
71.4099887634
 21
77.0404530363
  0
LINE
  5
3BF
100
AcDbEntity
  8
RACCORDO
100
AcDbLine
 62
253
  6
CONTINUOUS
 10
71.2967200923
 20
77.4133366359
 11
71.2984412552
 21
77.4756962962
  0
LINE
  5
3C0
100
AcDbEntity
  8
RACCORDO
100
AcDbLine
 62
7
  6
CONTINUOUS
 10
71.2521194168
 20
78.3817017952
 11
71.251303551
 21
78.3532592064
  0
LINE
  5
3C1
100
AcDbEntity
  8
RACCORDO
100
AcDbLine
 62
7
  6
CONTINUOUS
 10
71.4099887634
 20
77.0404530363
 11
71.4071511081
 21
76.9497067221
  0
LINE
  5
3C2
100
AcDbEntity
  8
RACCORDO
100
AcDbLine
 62
253
  6
CONTINUOUS
 10
71.295294254
 20
77.3700020111
 11
71.2967200923
 21
77.4133366359
  0
LINE
  5
3C3
100
AcDbEntity
  8
RACCORDO
100
AcDbLine
 62
253
  6
CONTINUOUS
 10
71.250675286
 20
78.3344113567
 11
71.2505931579
 21
78.3254132885
  0
LINE
  5
3C4
100
AcDbEntity
  8
RACCORDO
100
AcDbLine
 62
7
  6
CONTINUOUS
 10
71.2513634158
 20
78.3551857131
 11
71.250675286
 21
78.3344113567
  0
LINE
  5
3C5
100
AcDbEntity
  8
RACCORDO
100
AcDbLine
 62
7
  6
CONTINUOUS
 10
71.4071511081
 20
76.9497067221
 11
71.4051473433
 21
76.8954156906
  0
LINE
  5
3C6
100
AcDbEntity
  8
RACCORDO
100
AcDbLine
 62
253
  6
CONTINUOUS
 10
71.2499366968
 20
78.3151872211
 11
71.2499596746
 21
78.3089010522
  0
LINE
  5
3C7
100
AcDbEntity
  8
RACCORDO
100
AcDbLine
 62
7
  6
CONTINUOUS
 10
71.2507310561
 20
78.3359860136
 11
71.2500925868
 21
78.3189998317
  0
LINE
  5
3C8
100
AcDbEntity
  8
RACCORDO
100
AcDbLine
 62
253
  6
CONTINUOUS
 10
71.2937617377
 20
77.329879157
 11
71.295294254
 21
77.3700020111
  0
LINE
  5
3C9
100
AcDbEntity
  8
RACCORDO
100
AcDbLine
 62
253
  6
CONTINUOUS
 10
71.2494145197
 20
78.3033255075
 11
71.2496395516
 21
78.3013335546
  0
LINE
  5
3CA
100
AcDbEntity
  8
RACCORDO
100
AcDbLine
 62
7
  6
CONTINUOUS
 10
71.4051473433
 20
76.8954156906
 11
71.4030721985
 21
76.8461708769
  0
LINE
  5
3CB
100
AcDbEntity
  8
RACCORDO
100
AcDbLine
 62
7
  6
CONTINUOUS
 10
71.250147305
 20
78.3203687136
 11
71.249622332
 21
78.3078829609
  0
LINE
  5
3CC
100
AcDbEntity
  8
RACCORDO
100
AcDbLine
 62
253
  6
CONTINUOUS
 10
71.2926853718
 20
77.3050319894
 11
71.2937617377
 21
77.329879157
  0
LINE
  5
3CD
100
AcDbEntity
  8
RACCORDO
100
AcDbLine
 62
253
  6
CONTINUOUS
 10
71.2486284098
 20
78.287958891
 11
71.2486753896
 21
78.281299793
  0
LINE
  5
3CE
100
AcDbEntity
  8
RACCORDO
100
AcDbLine
 62
7
  6
CONTINUOUS
 10
71.2496691666
 20
78.3089394517
 11
71.2492089657
 21
78.2990233526
  0
LINE
  5
3CF
100
AcDbEntity
  8
RACCORDO
100
AcDbLine
 62
253
  6
CONTINUOUS
 10
71.2915679503
 20
77.2817668694
 11
71.2926853718
 21
77.3050319894
  0
LINE
  5
3D0
100
AcDbEntity
  8
RACCORDO
100
AcDbLine
 62
7
  6
CONTINUOUS
 10
71.2492514827
 20
78.2998966051
 11
71.2486284098
 21
78.287958891
  0
LWPOLYLINE
  5
3D1
100
AcDbEntity
  8
RACCORDO
100
AcDbPolyline
 62
253
  6
CONTINUOUS
 90
10
 70
0
 10
72.3724683351
 20
144.4139408284
 10
72.3800544515
 20
144.5007649212
 10
72.4025822998
 20
144.5849509069
 10
72.4393673824
 20
144.6639408367
 10
72.4892920028
 20
144.7353346419
 10
72.5508392262
 20
144.7969630578
 10
72.6221389705
 20
144.846953536
 10
72.7010248284
 20
144.8837871419
 10
72.7850998931
 20
144.9063447058
 10
72.8718095861
 20
144.9139408284
  0
LINE
  5
3D2
100
AcDbEntity
  8
RACCORDO
100
AcDbLine
 62
7
  6
CONTINUOUS
 10
71.2471372971
 20
126.5609300171
 11
71.2472158569
 21
126.5601410586
  0
LINE
  5
3D3
100
AcDbEntity
  8
RACCORDO
100
AcDbLine
 62
7
  6
CONTINUOUS
 10
71.2472158569
 20
126.5601410586
 11
71.2473224722
 21
126.5589888548
  0
LINE
  5
3D4
100
AcDbEntity
  8
RACCORDO
100
AcDbLine
 62
7
  6
CONTINUOUS
 10
71.2473224722
 20
126.5589888548
 11
71.2474520453
 21
126.5574867512
  0
LINE
  5
3D5
100
AcDbEntity
  8
RACCORDO
100
AcDbLine
 62
7
  6
CONTINUOUS
 10
71.2474520453
 20
126.5574867512
 11
71.2476001403
 21
126.5556523322
  0
LWPOLYLINE
  5
3D6
100
AcDbEntity
  8
RACCORDO
100
AcDbPolyline
 62
253
  6
CONTINUOUS
 90
3
 70
0
 10
71.394734316
 20
128.1249512961
 10
71.3928429868
 20
128.1525825478
 10
71.3889900733
 20
128.1900113445
  0
LINE
  5
3D7
100
AcDbEntity
  8
RACCORDO
100
AcDbLine
 62
7
  6
CONTINUOUS
 10
71.2476001403
 20
126.5556523322
 11
71.2477612038
 21
126.553526675
  0
LWPOLYLINE
  5
3D8
100
AcDbEntity
  8
RACCORDO
100
AcDbPolyline
 62
253
  6
CONTINUOUS
 90
16
 70
0
 10
71.2880006797
 20
127.6057994106
 10
71.2873788303
 20
127.6142052717
 10
71.2867498014
 20
127.6221617527
 10
71.2861147747
 20
127.6296538798
 10
71.2854737463
 20
127.6366807883
 10
71.2848267352
 20
127.6432433429
 10
71.2841749557
 20
127.6493291641
 10
71.2835184026
 20
127.6549373635
 10
71.2828570936
 20
127.6600688294
 10
71.2821922739
 20
127.6647138469
 10
71.2815239105
 20
127.6688715703
 10
71.2808520461
 20
127.6725428452
 10
71.2801780366
 20
127.675720494
 10
71.2795023353
 20
127.678402124
 10
71.2788244948
 20
127.6805901278
 10
71.2781445182
 20
127.6822845054
  0
LINE
  5
3D9
100
AcDbEntity
  8
RACCORDO
100
AcDbLine
 62
7
  6
CONTINUOUS
 10
71.2477612038
 20
126.553526675
 11
71.2480223928
 21
126.5498043798
  0
LWPOLYLINE
  5
3DA
100
AcDbEntity
  8
RACCORDO
100
AcDbPolyline
 62
7
  6
CONTINUOUS
 90
3
 70
0
 10
71.3956681841
 20
128.1125781049
 10
71.3975369963
 20
128.0852384836
 10
71.3984695775
 20
128.0702592107
  0
LINE
  5
3DB
100
AcDbEntity
  8
RACCORDO
100
AcDbLine
 62
253
  6
CONTINUOUS
 10
71.2892227779
 20
127.5876378586
 11
71.2880006797
 21
127.6057994106
  0
LINE
  5
3DC
100
AcDbEntity
  8
RACCORDO
100
AcDbLine
 62
7
  6
CONTINUOUS
 10
71.2480223928
 20
126.5498043798
 11
71.2483024085
 21
126.5454513928
  0
LWPOLYLINE
  5
3DD
100
AcDbEntity
  8
RACCORDO
100
AcDbPolyline
 62
253
  6
CONTINUOUS
 90
3
 70
0
 10
71.3975369963
 20
128.0852384836
 10
71.3965971344
 20
128.1034201553
 10
71.3956681841
 20
128.1125781049
  0
LINE
  5
3DE
100
AcDbEntity
  8
RACCORDO
100
AcDbLine
 62
253
  6
CONTINUOUS
 10
71.2904126333
 20
127.5677305137
 11
71.2892227779
 21
127.5876378586
  0
LINE
  5
3DF
100
AcDbEntity
  8
RACCORDO
100
AcDbLine
 62
7
  6
CONTINUOUS
 10
71.2483024085
 20
126.5454513928
 11
71.2485963631
 21
126.5404909662
  0
LINE
  5
3E0
100
AcDbEntity
  8
RACCORDO
100
AcDbLine
 62
7
  6
CONTINUOUS
 10
71.3984695775
 20
128.0702592107
 11
71.4003210009
 21
128.0377141774
  0
LINE
  5
3E1
100
AcDbEntity
  8
RACCORDO
100
AcDbLine
 62
253
  6
CONTINUOUS
 10
71.2480336838
 20
126.5577871421
 11
71.2486753895
 21
126.5465818653
  0
LINE
  5
3E2
100
AcDbEntity
  8
RACCORDO
100
AcDbLine
 62
7
  6
CONTINUOUS
 10
71.2485963631
 20
126.5404909662
 11
71.2487982428
 21
126.5368522934
  0
LINE
  5
3E3
100
AcDbEntity
  8
RACCORDO
100
AcDbLine
 62
253
  6
CONTINUOUS
 10
71.2915679503
 20
127.5461147875
 11
71.2904126333
 21
127.5677305137
  0
LWPOLYLINE
  5
3E4
100
AcDbEntity
  8
RACCORDO
100
AcDbPolyline
 62
7
  6
CONTINUOUS
 90
3
 70
0
 10
71.4003210009
 20
128.0377141774
 10
71.4021427662
 20
128.0017306016
 10
71.4030383567
 20
127.9824611656
  0
LINE
  5
3E5
100
AcDbEntity
  8
RACCORDO
100
AcDbLine
 62
253
  6
CONTINUOUS
 10
71.4003210009
 20
128.0377141774
 11
71.4002142135
 21
128.0431490545
  0
LWPOLYLINE
  5
3E6
100
AcDbEntity
  8
RACCORDO
100
AcDbPolyline
 62
253
  6
CONTINUOUS
 90
19
 70
0
 10
72.4409250973
 20
143.6278873458
 10
72.4384485243
 20
143.7086946153
 10
72.4356743852
 20
143.7880562098
 10
72.4326336083
 20
143.8640428089
 10
72.4293125521
 20
143.9365325417
 10
72.4257262766
 20
144.005647279
 10
72.4219485691
 20
144.0698233119
 10
72.4179672248
 20
144.1288327871
 10
72.4137957161
 20
144.1829035578
 10
72.4095457989
 20
144.2311554757
 10
72.4052133805
 20
144.2732527238
 10
72.4008031533
 20
144.3095311191
 10
72.3964392289
 20
144.3401179635
 10
72.3921253357
 20
144.3647012554
 10
72.3878574405
 20
144.3835929965
 10
72.3837471663
 20
144.3978564936
 10
72.3798312042
 20
144.4078461825
 10
72.3760717541
 20
144.4132076274
 10
72.3724683351
 20
144.4139408284
  0
LWPOLYLINE
  5
3E7
100
AcDbEntity
  8
RACCORDO
100
AcDbPolyline
 62
253
  6
CONTINUOUS
 90
19
 70
0
 10
72.9402359273
 20
143.8661124854
 10
72.9377591937
 20
143.9741207787
 10
72.9349843779
 20
144.0795852157
 10
72.9319438414
 20
144.1810248574
 10
72.9286232838
 20
144.2779587718
 10
72.9250370055
 20
144.3698363875
 10
72.921260269
 20
144.4553640212
 10
72.9172806172
 20
144.5342905686
 10
72.9131105071
 20
144.6062829611
 10
72.9088625728
 20
144.6703824176
 10
72.9045330394
 20
144.7266421474
 10
72.9001256817
 20
144.7751518229
 10
72.8957644578
 20
144.8155719697
 10
72.8914538075
 20
144.8483255094
 10
72.887189291
 20
144.873880524
 10
72.8830815468
 20
144.8925050488
 10
72.8791674543
 20
144.9048722136
 10
72.8754101341
 20
144.9117865483
 10
72.8718095861
 20
144.9139408284
  0
LINE
  5
3E8
100
AcDbEntity
  8
RACCORDO
100
AcDbLine
 62
253
  6
CONTINUOUS
 10
72.4449563682
 20
143.4617323848
 11
72.4409250973
 21
143.6278873458
  0
LINE
  5
3E9
100
AcDbEntity
  8
RACCORDO
100
AcDbLine
 62
253
  6
CONTINUOUS
 10
72.9442679539
 20
143.6446926885
 11
72.9402359273
 21
143.8661124854
  0
LINE
  5
3EA
100
AcDbEntity
  8
RACCORDO
100
AcDbLine
 62
253
  6
CONTINUOUS
 10
72.447806192
 20
143.2967888169
 11
72.4449563682
 21
143.4617323848
  0
LINE
  5
3EB
100
AcDbEntity
  8
RACCORDO
100
AcDbLine
 62
253
  6
CONTINUOUS
 10
72.9471180598
 20
143.4242738303
 11
72.9442679539
 21
143.6446926885
  0
LINE
  5
3EC
100
AcDbEntity
  8
RACCORDO
100
AcDbLine
 62
253
  6
CONTINUOUS
 10
72.4495354838
 20
143.1366529537
 11
72.447806192
 21
143.2967888169
  0
LINE
  5
3ED
100
AcDbEntity
  8
RACCORDO
100
AcDbLine
 62
253
  6
CONTINUOUS
 10
72.9488477542
 20
143.2109486831
 11
72.9471180598
 21
143.4242738303
  0
LINE
  5
3EE
100
AcDbEntity
  8
RACCORDO
100
AcDbLine
 62
253
  6
CONTINUOUS
 10
72.4503543346
 20
142.9860275668
 11
72.4495354838
 21
143.1366529537
  0
LINE
  5
3EF
100
AcDbEntity
  8
RACCORDO
100
AcDbLine
 62
253
  6
CONTINUOUS
 10
72.9496665433
 20
143.0094955995
 11
72.9488477542
 21
143.2109486831
  0
LINE
  5
3F0
100
AcDbEntity
  8
RACCORDO
100
AcDbLine
 62
253
  6
CONTINUOUS
 10
72.9494248312
 20
61.7315965708
 11
72.9496665433
 21
143.0094955995
  0
LINE
  5
3F1
100
AcDbEntity
  8
RACCORDO
100
AcDbLine
 62
253
  6
CONTINUOUS
 10
72.4496356224
 20
61.7043043607
 11
72.450370238
 21
61.8467374935
  0
LINE
  5
3F2
100
AcDbEntity
  8
RACCORDO
100
AcDbLine
 62
253
  6
CONTINUOUS
 10
72.9482737538
 20
61.5335191338
 11
72.9494248312
 21
61.7315965708
  0
LINE
  5
3F3
100
AcDbEntity
  8
RACCORDO
100
AcDbLine
 62
253
  6
CONTINUOUS
 10
72.9462056269
 20
61.3229053952
 11
72.9482737538
 21
61.5335191338
  0
LINE
  5
3F4
100
AcDbEntity
  8
RACCORDO
100
AcDbLine
 62
253
  6
CONTINUOUS
 10
72.4480665194
 20
61.5502801224
 11
72.4496356224
 21
61.7043043607
  0
LINE
  5
3F5
100
AcDbEntity
  8
RACCORDO
100
AcDbLine
 62
253
  6
CONTINUOUS
 10
72.4454194097
 20
61.3892376031
 11
72.4480665194
 21
61.5502801224
  0
LINE
  5
3F6
100
AcDbEntity
  8
RACCORDO
100
AcDbLine
 62
253
  6
CONTINUOUS
 10
72.4416129196
 20
61.2247968523
 11
72.4454194097
 21
61.3892376031
  0
LINE
  5
3F7
100
AcDbEntity
  8
RACCORDO
100
AcDbLine
 62
253
  6
CONTINUOUS
 10
71.4002315106
 20
76.7850330765
 11
71.4009430658
 21
76.8019779872
  0
LINE
  5
3F8
100
AcDbEntity
  8
RACCORDO
100
AcDbLine
 62
253
  6
CONTINUOUS
 10
71.4030721985
 20
76.8461708769
 11
71.4035949266
 21
76.8545689635
  0
LINE
  5
3F9
100
AcDbEntity
  8
RACCORDO
100
AcDbLine
 62
7
  6
CONTINUOUS
 10
71.4030721985
 20
76.8461708769
 11
71.4009430658
 21
76.8019779872
  0
LINE
  5
3FA
100
AcDbEntity
  8
RACCORDO
100
AcDbLine
 62
253
  6
CONTINUOUS
 10
71.2904126333
 20
77.2601511431
 11
71.2915679503
 21
77.2817668694
  0
LWPOLYLINE
  5
3FB
100
AcDbEntity
  8
RACCORDO
100
AcDbPolyline
 62
7
  6
CONTINUOUS
 90
13
 70
0
 10
71.4009430658
 20
76.8019779872
 10
71.3987814755
 20
76.7628264481
 10
71.3976973066
 20
76.7451485982
 10
71.3966145446
 20
76.7287123075
 10
71.3955364785
 20
76.7135116091
 10
71.3944704956
 20
76.6995898583
 10
71.3934182744
 20
76.6869005347
 10
71.3923837204
 20
76.6754215702
 10
71.3913801538
 20
76.6652161397
 10
71.3904100698
 20
76.6562143223
 10
71.3894814873
 20
76.6483946957
 10
71.3886239151
 20
76.6418790773
 10
71.3882436235
 20
76.6392138112
  0
LINE
  5
3FC
100
AcDbEntity
  8
RACCORDO
100
AcDbLine
 62
7
  6
CONTINUOUS
 10
71.2488445844
 20
78.2918914804
 11
71.24845227
 21
78.2849092755
  0
LWPOLYLINE
  5
3FD
100
AcDbEntity
  8
RACCORDO
100
AcDbPolyline
 62
253
  6
CONTINUOUS
 90
16
 70
0
 10
71.2486753896
 20
78.281299793
 10
71.2480336839
 20
78.270094516
 10
71.2477139964
 20
78.2651223711
 10
71.2473962014
 20
78.2605383339
 10
71.2470804111
 20
78.2563439821
 10
71.246766511
 20
78.2525377379
 10
71.2464553038
 20
78.2490834459
 10
71.2461468906
 20
78.2459814065
 10
71.245841167
 20
78.2432313191
 10
71.2455386267
 20
78.2407961267
 10
71.2452394792
 20
78.2386754856
 10
71.2449435111
 20
78.2368697393
 10
71.2446505812
 20
78.2353428615
 10
71.2443606413
 20
78.2340828433
 10
71.2440737362
 20
78.2331016935
 10
71.2437898641
 20
78.2323994121
  0
LINE
  5
3FE
100
AcDbEntity
  8
RACCORDO
100
AcDbLine
 62
253
  6
CONTINUOUS
 10
71.3987814755
 20
76.7628264481
 11
71.4002315106
 21
76.7850330765
  0
LINE
  5
3FF
100
AcDbEntity
  8
RACCORDO
100
AcDbLine
 62
253
  6
CONTINUOUS
 10
71.2892227779
 20
77.2402437982
 11
71.2904126333
 21
77.2601511431
  0
LINE
  5
400
100
AcDbEntity
  8
RACCORDO
100
AcDbLine
 62
7
  6
CONTINUOUS
 10
71.24845227
 20
78.2849092755
 11
71.2481707136
 21
78.2803373564
  0
LINE
  5
401
100
AcDbEntity
  8
RACCORDO
100
AcDbLine
 62
7
  6
CONTINUOUS
 10
71.2481707136
 20
78.2803373564
 11
71.2479045643
 21
78.2763567552
  0
LINE
  5
402
100
AcDbEntity
  8
RACCORDO
100
AcDbLine
 62
7
  6
CONTINUOUS
 10
71.2479045643
 20
78.2763567552
 11
71.2476581692
 21
78.2729798385
  0
LWPOLYLINE
  5
403
100
AcDbEntity
  8
RACCORDO
100
AcDbPolyline
 62
253
  6
CONTINUOUS
 90
3
 70
0
 10
71.3955364785
 20
76.7135116091
 10
71.3966173529
 20
76.7247326474
 10
71.3976973066
 20
76.7451485982
  0
LINE
  5
404
100
AcDbEntity
  8
RACCORDO
100
AcDbLine
 62
7
  6
CONTINUOUS
 10
71.2476581692
 20
78.2729798385
 11
71.2475080644
 21
78.2710748283
  0
LINE
  5
405
100
AcDbEntity
  8
RACCORDO
100
AcDbLine
 62
7
  6
CONTINUOUS
 10
71.2475080644
 20
78.2710748283
 11
71.2473728513
 21
78.2694645382
  0
LINE
  5
406
100
AcDbEntity
  8
RACCORDO
100
AcDbLine
 62
7
  6
CONTINUOUS
 10
71.2473728513
 20
78.2694645382
 11
71.2472580721
 21
78.2681867971
  0
LWPOLYLINE
  5
407
100
AcDbEntity
  8
RACCORDO
100
AcDbPolyline
 62
7
  6
CONTINUOUS
 90
3
 70
0
 10
71.2472580721
 20
78.2681867971
 10
71.247168419
 20
78.2672570007
 10
71.247134351
 20
78.2669232999
  0
LINE
  5
408
100
AcDbEntity
  8
RACCORDO
100
AcDbLine
 62
7
  6
CONTINUOUS
 10
71.2471095788
 20
78.2666896091
 11
71.247097384
 21
78.2665782649
  0
LWPOLYLINE
  5
409
100
AcDbEntity
  8
RACCORDO
100
AcDbPolyline
 62
253
  6
CONTINUOUS
 90
4
 70
0
 10
71.3850115739
 20
76.6116400676
 10
71.3890064134
 20
76.6380361429
 10
71.3928632211
 20
76.6755270702
 10
71.3944704956
 20
76.6995898583
  0
LINE
  5
40A
100
AcDbEntity
  8
0
100
AcDbLine
 62
7
  6
CONTINUOUS
 10
78.7938460239
 20
98.9139408284
 11
80.4938460239
 21
98.6141849612
  0
LWPOLYLINE
  5
40B
100
AcDbEntity
  8
RACCORDO
100
AcDbPolyline
 62
7
  6
CONTINUOUS
 90
12
 70
0
 10
71.3870602614
 20
128.1959792079
 10
71.3871534928
 20
128.1954832023
 10
71.3878093387
 20
128.1915347506
 10
71.3885466782
 20
128.1865543441
 10
71.3893395066
 20
128.1806117856
 10
71.3901902434
 20
128.1735878401
 10
71.3910684106
 20
128.1656497326
 10
71.3919652428
 20
128.1568262742
 10
71.3928807654
 20
128.1470686766
 10
71.3938049476
 20
128.1364408585
 10
71.394734316
 20
128.1249512961
 10
71.3956681841
 20
128.1125781049
  0
LINE
  5
40C
100
AcDbEntity
  8
RACCORDO
100
AcDbLine
 62
253
  6
CONTINUOUS
 10
71.3889900733
 20
128.1900113445
 11
71.3850019863
 21
128.2163314328
  0
LINE
  5
40D
100
AcDbEntity
  8
RACCORDO
100
AcDbLine
 62
7
  6
CONTINUOUS
 10
71.2471146823
 20
126.5611676436
 11
71.2470983361
 21
126.5612995599
  0
LWPOLYLINE
  5
40E
100
AcDbEntity
  8
RACCORDO
100
AcDbPolyline
 62
7
  6
CONTINUOUS
 90
3
 70
0
 10
71.2470898488
 20
126.5613702907
 10
71.2470951838
 20
126.5613231271
 10
71.2471113011
 20
126.5611760966
  0
LWPOLYLINE
  5
40F
100
AcDbEntity
  8
RACCORDO
100
AcDbPolyline
 62
7
  6
CONTINUOUS
 90
7
 70
0
 10
77.8681194907
 20
143.9159976397
 10
77.8723914123
 20
143.7599801853
 10
77.8759924738
 20
143.5955670717
 10
77.8788040489
 20
143.428211281
 10
77.8807854484
 20
143.2597304739
 10
77.8819742897
 20
143.0883069897
 10
77.882369824
 20
142.9139408284
  0
LINE
  5
410
100
AcDbEntity
  8
RACCORDO
100
AcDbLine
 62
7
  6
CONTINUOUS
 10
77.882369824
 20
142.9139408284
 11
77.882369824
 21
61.9139408284
  0
LINE
  5
411
100
AcDbEntity
  8
0
100
AcDbLine
 62
7
  6
CONTINUOUS
 10
78.7938460239
 20
105.9139408284
 11
78.7938460239
 21
98.9139408284
  0
LINE
  5
412
100
AcDbEntity
  8
0
100
AcDbLine
 62
7
  6
CONTINUOUS
 10
79.9938460239
 20
143.9139408284
 11
79.9938460239
 21
106.1255332053
  0
LINE
  5
413
100
AcDbEntity
  8
0
100
AcDbLine
 62
7
  6
CONTINUOUS
 10
79.9938460239
 20
98.7023484516
 11
79.9938460239
 21
60.9139408284
  0
LWPOLYLINE
  5
414
100
AcDbEntity
  8
RACCORDO
100
AcDbPolyline
 62
7
  6
CONTINUOUS
 90
7
 70
0
 10
77.882369824
 20
61.9139408284
 10
77.8819712443
 20
61.7394526055
 10
77.8807820459
 20
61.5680037508
 10
77.8788029755
 20
61.3995942643
 10
77.8759975245
 20
61.23246734
 10
77.8724052562
 20
61.0683797839
 10
77.8681414475
 20
60.9126020141
  0
LWPOLYLINE
  5
415
100
AcDbEntity
  8
RACCORDO
100
AcDbPolyline
 62
7
  6
CONTINUOUS
 90
13
 70
0
 10
77.8681414475
 20
60.9126020141
 10
77.8632084073
 20
60.7661307661
 10
77.8576087912
 20
60.6279693044
 10
77.851458116
 20
60.50039784
 10
77.8447579993
 20
60.3834572173
 10
77.8375126289
 20
60.277106592
 10
77.8298405719
 20
60.1835036426
 10
77.8216882156
 20
60.1026254351
 10
77.8131151123
 20
60.0344949035
 10
77.8044071477
 20
59.981338529
 10
77.7956594757
 20
59.9438984718
 10
77.7867787285
 20
59.9214325716
 10
77.7777660502
 20
59.9139408284
  0
LINE
  5
416
100
AcDbEntity
  8
RACCORDO
100
AcDbLine
 62
253
  6
CONTINUOUS
 10
71.3808798168
 20
76.5963388441
 11
71.3850115739
 21
76.6116400676
  0
LINE
  5
417
100
AcDbEntity
  8
0
100
AcDbLine
 62
7
  6
CONTINUOUS
 10
78.7938460239
 20
105.9139408284
 11
80.4938460239
 21
106.2136966956
  0
LINE
  5
418
100
AcDbEntity
  8
RACCORDO
100
AcDbLine
 62
253
  6
CONTINUOUS
 10
71.3850019863
 20
128.2163314328
 11
71.3808798168
 21
128.2315428127
  0
LINE
  5
419
100
AcDbEntity
  8
0
100
AcDbLine
 62
7
  6
CONTINUOUS
 10
80.4657007626
 20
68.9139408284
 11
80.4657007626
 21
69.9139408284
  0
LINE
  5
41A
100
AcDbEntity
  8
0
100
AcDbLine
 62
7
  6
CONTINUOUS
 10
80.4657007626
 20
134.9139408284
 11
80.4657007626
 21
135.9139408284
  0
LINE
  5
41B
100
AcDbEntity
  8
0
100
AcDbLine
 62
7
  6
CONTINUOUS
 10
80.4938460239
 20
61.4139408284
 11
80.4938460239
 21
98.6141849612
  0
LINE
  5
41C
100
AcDbEntity
  8
0
100
AcDbLine
 62
7
  6
CONTINUOUS
 10
80.4938460239
 20
106.2136966956
 11
80.4938460239
 21
143.4139408284
  0
LWPOLYLINE
  5
41D
100
AcDbEntity
  8
RACCORDO
100
AcDbPolyline
 62
253
  6
CONTINUOUS
 90
17
 70
0
 10
71.2781445182
 20
77.1455971515
 10
71.2788244948
 20
77.1472915291
 10
71.2795023353
 20
77.1494795328
 10
71.2801780366
 20
77.1521611628
 10
71.2808520461
 20
77.1553388116
 10
71.2815239105
 20
77.1590100866
 10
71.2821922739
 20
77.16316781
 10
71.2828570936
 20
77.1678128275
 10
71.2835184026
 20
77.1729442934
 10
71.2841749557
 20
77.1785524928
 10
71.2848267352
 20
77.1846383139
 10
71.2854737463
 20
77.1912008685
 10
71.2861147747
 20
77.198227777
 10
71.2867498014
 20
77.2057199042
 10
71.2873788303
 20
77.2136763852
 10
71.2880006797
 20
77.2220822462
 10
71.2892227779
 20
77.2402437982
  0
LWPOLYLINE
  5
41E
100
AcDbEntity
  8
RACCORDO
100
AcDbPolyline
 62
253
  6
CONTINUOUS
 90
4
 70
0
 10
71.3902112103
 20
76.6386806982
 10
71.38683411
 20
76.6305147234
 10
71.3823594712
 20
76.6136905923
 10
71.3808880698
 20
76.5963388486
  0
LWPOLYLINE
  5
41F
100
AcDbEntity
  8
RACCORDO
100
AcDbPolyline
 62
7
  6
CONTINUOUS
 90
12
 70
0
 10
70.5128574342
 20
76.7301689829
 10
70.5097239974
 20
76.7231589994
 10
70.5068616793
 20
76.7160331955
 10
70.5042747807
 20
76.7088020437
 10
70.5019671753
 20
76.7014760985
 10
70.4999423789
 20
76.6940662151
 10
70.4982035139
 20
76.6865835421
 10
70.4967532016
 20
76.6790390964
 10
70.4955936423
 20
76.6714440082
 10
70.4947266313
 20
76.6638097501
 10
70.4941534756
 20
76.6561475881
 10
70.4938750481
 20
76.6484688268
  0
LINE
  5
420
100
AcDbEntity
  8
RACCORDO
100
AcDbLine
 62
7
  6
CONTINUOUS
 10
71.3902251682
 20
76.6386741029
 11
70.8489262536
 21
75.4811077884
  0
LINE
  5
421
100
AcDbEntity
  8
RACCORDO
100
AcDbLine
 62
7
  6
CONTINUOUS
 10
70.8489262536
 20
75.4811077884
 11
70.744019403
 21
75.256956986
  0
LINE
  5
422
100
AcDbEntity
  8
RACCORDO
100
AcDbLine
 62
7
  6
CONTINUOUS
 10
70.744019403
 20
75.256956986
 11
70.6032727592
 21
74.9563257752
  0
LINE
  5
423
100
AcDbEntity
  8
RACCORDO
100
AcDbLine
 62
253
  6
CONTINUOUS
 10
70.5938460239
 20
74.9139408284
 11
71.3808798168
 21
76.5963388441
  0
LINE
  5
424
100
AcDbEntity
  8
RACCORDO
100
AcDbLine
 62
253
  6
CONTINUOUS
 10
70.4942895674
 20
76.645999609
 11
70.4938460239
 21
76.6450556005
  0
LINE
  5
425
100
AcDbEntity
  8
RACCORDO
100
AcDbLine
 62
253
  6
CONTINUOUS
 10
70.4979152881
 20
76.6537150691
 11
70.4942895674
 21
76.645999609
  0
LINE
  5
426
100
AcDbEntity
  8
RACCORDO
100
AcDbLine
 62
7
  6
CONTINUOUS
 10
70.5280658747
 20
76.762511362
 11
70.5128574342
 21
76.7301689829
  0
LINE
  5
427
100
AcDbEntity
  8
RACCORDO
100
AcDbLine
 62
7
  6
CONTINUOUS
 10
70.5398854807
 20
76.7876441437
 11
70.5280658747
 21
76.762511362
  0
LINE
  5
428
100
AcDbEntity
  8
RACCORDO
100
AcDbLine
 62
7
  6
CONTINUOUS
 10
70.5550753796
 20
76.8199400981
 11
70.5398854807
 21
76.7876441437
  0
LINE
  5
429
100
AcDbEntity
  8
RACCORDO
100
AcDbLine
 62
7
  6
CONTINUOUS
 10
70.595575503
 20
76.9060305969
 11
70.5550753796
 21
76.8199400981
  0
LINE
  5
42A
100
AcDbEntity
  8
RACCORDO
100
AcDbLine
 62
253
  6
CONTINUOUS
 10
70.5688930052
 20
76.8049435614
 11
70.5307312321
 21
76.723484088
  0
LINE
  5
42B
100
AcDbEntity
  8
RACCORDO
100
AcDbLine
 62
7
  6
CONTINUOUS
 10
70.6495877439
 20
77.0208008967
 11
70.595575503
 21
76.9060305969
  0
LINE
  5
42C
100
AcDbEntity
  8
RACCORDO
100
AcDbLine
 62
253
  6
CONTINUOUS
 10
71.266631919
 20
76.5046369999
 11
71.4002129894
 21
76.7882973787
  0
LINE
  5
42D
100
AcDbEntity
  8
RACCORDO
100
AcDbLine
 62
253
  6
CONTINUOUS
 10
71.1359764697
 20
76.8437970272
 11
71.2781445182
 21
77.1455971515
  0
LWPOLYLINE
  5
42E
100
AcDbEntity
  8
RACCORDO
100
AcDbPolyline
 62
253
  6
CONTINUOUS
 90
3
 70
0
 10
71.090629465
 20
76.1310554585
 10
71.1457489038
 20
76.2480338692
 10
71.266631919
 20
76.5046369999
  0
LWPOLYLINE
  5
42F
100
AcDbEntity
  8
RACCORDO
100
AcDbPolyline
 62
253
  6
CONTINUOUS
 90
3
 70
0
 10
70.9493071181
 20
76.4476953767
 10
71.0079841401
 20
76.5721827848
 10
71.1359764697
 20
76.8437970272
  0
LINE
  5
430
100
AcDbEntity
  8
RACCORDO
100
AcDbLine
 62
253
  6
CONTINUOUS
 10
70.9465738941
 20
75.8254120945
 11
71.090629465
 21
76.1310554585
  0
LWPOLYLINE
  5
431
100
AcDbEntity
  8
RACCORDO
100
AcDbPolyline
 62
253
  6
CONTINUOUS
 90
4
 70
0
 10
70.750102373
 20
76.0252083569
 10
70.7945755999
 20
76.1195113151
 10
70.8426018289
 20
76.2213596419
 10
70.9493071181
 20
76.4476953767
  0
LINE
  5
432
100
AcDbEntity
  8
RACCORDO
100
AcDbLine
 62
253
  6
CONTINUOUS
 10
70.8042497996
 20
75.5235543284
 11
70.9465738941
 21
75.8254120945
  0
LINE
  5
433
100
AcDbEntity
  8
RACCORDO
100
AcDbLine
 62
253
  6
CONTINUOUS
 10
70.6903555426
 20
75.2820765082
 11
70.8042497996
 21
75.5235543284
  0
LINE
  5
434
100
AcDbEntity
  8
RACCORDO
100
AcDbLine
 62
253
  6
CONTINUOUS
 10
70.4938460239
 20
75.4820460473
 11
70.750102373
 21
76.0252083569
  0
LINE
  5
435
100
AcDbEntity
  8
RACCORDO
100
AcDbLine
 62
7
  6
CONTINUOUS
 10
71.0625104162
 20
77.8959246551
 11
70.6495877439
 21
77.0208008967
  0
LWPOLYLINE
  5
436
100
AcDbEntity
  8
RACCORDO
100
AcDbPolyline
 62
253
  6
CONTINUOUS
 90
3
 70
0
 10
70.7018536946
 20
77.0867400527
 10
70.6723147927
 20
77.0242911143
 10
70.6170052993
 20
76.9065943404
  0
LINE
  5
437
100
AcDbEntity
  8
RACCORDO
100
AcDbLine
 62
253
  6
CONTINUOUS
 10
71.0561239986
 20
77.8373010856
 11
70.7018536946
 21
77.0867400527
  0
LINE
  5
438
100
AcDbEntity
  8
RACCORDO
100
AcDbLine
 62
253
  6
CONTINUOUS
 10
70.6170052993
 20
76.9065943404
 11
70.5688930052
 21
76.8049435614
  0
LINE
  5
439
100
AcDbEntity
  8
RACCORDO
100
AcDbLine
 62
7
  6
CONTINUOUS
 10
71.248628407
 20
78.2879589053
 11
71.0625104162
 21
77.8959246551
  0
LWPOLYLINE
  5
43A
100
AcDbEntity
  8
RACCORDO
100
AcDbPolyline
 62
253
  6
CONTINUOUS
 90
3
 70
0
 10
70.5307312321
 20
76.723484088
 10
70.5162938997
 20
76.6931717132
 10
70.4979152881
 20
76.6537150691
  0
LINE
  5
43B
100
AcDbEntity
  8
RACCORDO
100
AcDbLine
 62
253
  6
CONTINUOUS
 10
71.2437898641
 20
78.2323994121
 11
71.0561239986
 21
77.8373010856
  0
LINE
  5
43C
100
AcDbEntity
  8
RACCORDO
100
AcDbLine
 62
253
  6
CONTINUOUS
 10
70.5162938997
 20
128.1347099436
 11
70.5307312321
 21
128.1043975688
  0
LINE
  5
43D
100
AcDbEntity
  8
RACCORDO
100
AcDbLine
 62
7
  6
CONTINUOUS
 10
71.0026891807
 20
127.0583873064
 11
71.2486282926
 21
126.5399230154
  0
LWPOLYLINE
  5
43E
100
AcDbEntity
  8
RACCORDO
100
AcDbPolyline
 62
253
  6
CONTINUOUS
 90
3
 70
0
 10
70.5688930052
 20
128.0229380955
 10
70.6170052993
 20
127.9212873165
 10
70.6439130314
 20
127.8637157488
  0
LWPOLYLINE
  5
43F
100
AcDbEntity
  8
RACCORDO
100
AcDbPolyline
 62
253
  6
CONTINUOUS
 90
3
 70
0
 10
71.2781445182
 20
127.6822845054
 10
71.2052891206
 20
127.8369578059
 10
70.4938460239
 20
129.3458356096
  0
LINE
  5
440
100
AcDbEntity
  8
RACCORDO
100
AcDbLine
 62
253
  6
CONTINUOUS
 10
70.8277608888
 20
127.4737014208
 11
71.2437898641
 21
126.5954822447
  0
LINE
  5
441
100
AcDbEntity
  8
RACCORDO
100
AcDbLine
 62
253
  6
CONTINUOUS
 10
71.4002183036
 20
128.0395729931
 11
70.6903555426
 21
129.5458051486
  0
LINE
  5
442
100
AcDbEntity
  8
RACCORDO
100
AcDbLine
 62
7
  6
CONTINUOUS
 10
70.5128574342
 20
128.097712674
 11
70.528064987
 21
128.0653721825
  0
LINE
  5
443
100
AcDbEntity
  8
RACCORDO
100
AcDbLine
 62
7
  6
CONTINUOUS
 10
70.528064987
 20
128.0653721825
 11
71.0026891807
 21
127.0583873064
  0
LINE
  5
444
100
AcDbEntity
  8
RACCORDO
100
AcDbLine
 62
253
  6
CONTINUOUS
 10
70.4938460239
 20
128.1828260563
 11
70.4979152881
 21
128.1741665877
  0
LINE
  5
445
100
AcDbEntity
  8
RACCORDO
100
AcDbLine
 62
253
  6
CONTINUOUS
 10
70.6439130314
 20
127.8637157488
 11
70.8277608888
 21
127.4737014208
  0
LINE
  5
446
100
AcDbEntity
  8
RACCORDO
100
AcDbLine
 62
7
  6
CONTINUOUS
 10
70.6032727592
 20
129.8715558816
 11
71.2324466079
 21
128.5267920304
  0
LINE
  5
447
100
AcDbEntity
  8
RACCORDO
100
AcDbLine
 62
7
  6
CONTINUOUS
 10
71.2324466079
 20
128.5267920304
 11
71.3870602614
 21
128.1959792079
  0
LINE
  5
448
100
AcDbEntity
  8
RACCORDO
100
AcDbLine
 62
253
  6
CONTINUOUS
 10
71.3808798168
 20
128.2315428127
 11
70.5938460239
 21
129.9139408284
  0
LINE
  5
449
100
AcDbEntity
  8
RACCORDO
100
AcDbLine
 62
253
  6
CONTINUOUS
 10
70.5307312321
 20
128.1043975688
 11
70.5688930052
 21
128.0229380955
  0
LINE
  5
44A
100
AcDbEntity
  8
RACCORDO
100
AcDbLine
 62
253
  6
CONTINUOUS
 10
70.4979152881
 20
128.1741665877
 11
70.5162938997
 21
128.1347099436
  0
LWPOLYLINE
  5
44B
100
AcDbEntity
  8
RACCORDO
100
AcDbPolyline
 62
253
  6
CONTINUOUS
 90
4
 70
0
 10
71.3902251574
 20
128.1892075667
 10
71.3868410416
 20
128.1973797506
 10
71.3823601372
 20
128.2141969393
 10
71.38088043
 20
128.2315428127
  0
LWPOLYLINE
  5
44C
100
AcDbEntity
  8
RACCORDO
100
AcDbPolyline
 62
253
  6
CONTINUOUS
 90
15
 70
0
 10
71.2437898641
 20
126.5954822447
 10
71.2440737361
 20
126.5947799633
 10
71.2443606413
 20
126.5937988135
 10
71.2446505811
 20
126.5925387953
 10
71.244943511
 20
126.5910119176
 10
71.2452394791
 20
126.5892061716
 10
71.2455386266
 20
126.5870855307
 10
71.2458411669
 20
126.5846503383
 10
71.2461468905
 20
126.5819002511
 10
71.2464553037
 20
126.5787982117
 10
71.2467665109
 20
126.5753439198
 10
71.2470804111
 20
126.5715376758
 10
71.2473962013
 20
126.567343324
 10
71.2477139963
 20
126.5627592869
 10
71.2480336838
 20
126.5577871421
  0
LINE
  5
44D
100
AcDbEntity
  8
DRAFT
100
AcDbLine
 62
7
  6
CONTINUOUS
 10
70.755247382
 20
129.5469378399
 11
70.690355543
 21
129.5458051486
  0
LINE
  5
44E
100
AcDbEntity
  8
RACCORDO
100
AcDbLine
 62
253
  6
CONTINUOUS
 10
71.2563173899
 20
126.0629003035
 11
71.2562044311
 21
126.0629003035
  0
LINE
  5
44F
100
AcDbEntity
  8
RACCORDO
100
AcDbLine
 62
253
  6
CONTINUOUS
 10
71.3036588167
 20
126.8849439288
 11
71.4192854454
 21
126.8849439289
  0
LINE
  5
450
100
AcDbEntity
  8
RACCORDO
100
AcDbLine
 62
253
  6
CONTINUOUS
 10
71.4192854454
 20
127.0347367351
 11
71.4193465935
 21
127.0347367346
  0
LINE
  5
451
100
AcDbEntity
  8
0
100
AcDbLine
 62
7
  6
CONTINUOUS
 10
79.9938460239
 20
60.9139408284
 11
80.4938460239
 21
61.4139408284
  0
LWPOLYLINE
  5
452
100
AcDbEntity
  8
RACCORDO
100
AcDbPolyline
 62
253
  6
CONTINUOUS
 90
21
 70
0
 10
72.8718095861
 20
59.9139408284
 10
72.8756803653
 20
59.9164298477
 10
72.8796693246
 20
59.9242896173
 10
72.883776464
 20
59.9381136075
 10
72.8880309533
 20
59.9585486249
 10
72.8924036227
 20
59.9861589922
 10
72.896806963
 20
60.0212786481
 10
72.901256893
 20
60.0644687397
 10
72.9057374939
 20
60.1160239489
 10
72.9101134991
 20
60.1753878995
 10
72.914374995
 20
60.2424805467
 10
72.9185318953
 20
60.3173111531
 10
72.9224786746
 20
60.398851608
 10
72.9262024868
 20
60.486704186
 10
72.929716178
 20
60.5805340137
 10
72.9329527616
 20
60.6789771222
 10
72.9358978123
 20
60.7814625188
 10
72.9385657553
 20
60.8874403304
 10
72.9409328794
 20
60.9953000781
 10
72.9429847118
 20
61.1044765009
 10
72.9462056269
 20
61.3229053952
  0
LINE
  5
453
100
AcDbEntity
  8
0
100
AcDbLine
 62
7
  6
CONTINUOUS
 10
80.4938460239
 20
134.9139408284
 11
80.4657007626
 21
134.9139408284
  0
LINE
  5
454
100
AcDbEntity
  8
0
100
AcDbLine
 62
7
  6
CONTINUOUS
 10
80.4938460239
 20
135.9139408284
 11
80.4657007626
 21
135.9139408284
  0
LWPOLYLINE
  5
455
100
AcDbEntity
  8
RACCORDO
100
AcDbPolyline
 62
7
  6
CONTINUOUS
 90
13
 70
0
 10
77.7777660502
 20
144.9139408284
 10
77.7867847679
 20
144.9063926988
 10
77.7956666523
 20
144.8839210282
 10
77.8044105227
 20
144.8465258165
 10
77.8131065565
 20
144.7934862164
 10
77.8216627054
 20
144.7255230752
 10
77.8298025627
 20
144.6447989353
 10
77.8374706487
 20
144.5513235542
 10
77.8447165855
 20
144.4450871743
 10
77.8514192397
 20
144.328223066
 10
77.8575740029
 20
144.200698296
 10
77.8631796938
 20
144.0625457974
 10
77.8681194907
 20
143.9159976397
  0
LINE
  5
456
100
AcDbEntity
  8
0
100
AcDbLine
 62
7
  6
CONTINUOUS
 10
79.9938460239
 20
143.9139408284
 11
80.4938460239
 21
143.4139408284
  0
LWPOLYLINE
  5
457
100
AcDbEntity
  8
RACCORDO
100
AcDbPolyline
 62
253
  6
CONTINUOUS
 90
18
 70
0
 10
72.3724683351
 20
60.4139408284
 10
72.3763401821
 20
60.415069334
 10
72.3803293579
 20
60.4211099888
 10
72.3844362413
 20
60.4320627928
 10
72.3886905613
 20
60.4475957751
 10
72.3930634501
 20
60.4680409066
 10
72.3974670869
 20
60.4943941001
 10
72.4019169385
 20
60.5270297852
 10
72.406397763
 20
60.5655735323
 10
72.4107748605
 20
60.6098979656
 10
72.4150375122
 20
60.6603116621
 10
72.4191956335
 20
60.7165060448
 10
72.4231446391
 20
60.7774280064
 10
72.4268707783
 20
60.8432945063
 10
72.4303864295
 20
60.9138885851
 10
72.4336257162
 20
60.9875062577
 10
72.436573485
 20
61.0642725395
 10
72.4416129196
 20
61.2247968523
  0
LINE
  5
458
100
AcDbEntity
  8
RACCORDO
100
AcDbLine
 62
253
  6
CONTINUOUS
 10
72.4504086943
 20
142.9139408284
 11
77.882369824
 21
142.9139408284
  0
LINE
  5
459
100
AcDbEntity
  8
0
100
AcDbLine
 62
253
  6
CONTINUOUS
 10
77.882369824
 20
142.9139408284
 11
80.4938460239
 21
142.9139408284
  0
LINE
  5
45A
100
AcDbEntity
  8
0
100
AcDbLine
 62
7
  6
CONTINUOUS
 10
77.8681758083
 20
143.9139408284
 11
79.9938460239
 21
143.9139408284
  0
LINE
  5
45B
100
AcDbEntity
  8
RACCORDO
100
AcDbLine
 62
253
  6
CONTINUOUS
 10
72.3724683351
 20
144.4139408284
 11
70.5938460239
 21
144.4139408284
  0
LINE
  5
45C
100
AcDbEntity
  8
RACCORDO
100
AcDbLine
 62
7
  6
CONTINUOUS
 10
71.093846024
 20
144.9139408284
 11
77.7777660502
 21
144.9139408284
  0
ARC
  5
45D
100
AcDbEntity
  8
RACCORDO
100
AcDbCircle
 62
7
  6
CONTINUOUS
 10
168.8112847993
 20
707.2139408284
 40
632.0
100
AcDbArc
 50
265.8200466747
 51
274.1799533253
  0
ARC
  5
45E
100
AcDbEntity
  8
RACCORDO
100
AcDbCircle
 62
7
  6
CONTINUOUS
 10
168.8112847993
 20
-502.3860591716
 40
632.0
100
AcDbArc
 50
85.8200466747
 51
94.1799533253
  0
ARC
  5
45F
100
AcDbEntity
  8
RACCORDO
100
AcDbCircle
 62
7
  6
CONTINUOUS
 10
168.8112847993
 20
707.0139408284
 40
632.0
100
AcDbArc
 50
265.8187562841
 51
274.1812437159
  0
ARC
  5
460
100
AcDbEntity
  8
RACCORDO
100
AcDbCircle
 62
7
  6
CONTINUOUS
 10
168.8112847993
 20
-502.1860591716
 40
632.0
100
AcDbArc
 50
85.8187562841
 51
94.1812437159
  0
ARC
  5
461
100
AcDbEntity
  8
RACCORDO
100
AcDbCircle
 62
7
  6
CONTINUOUS
 10
99.5612847993
 20
61.9139408284
 40
2.0
100
AcDbArc
 50
180.0
 51
270.0
  0
ARC
  5
462
100
AcDbEntity
  8
RACCORDO
100
AcDbCircle
 62
7
  6
CONTINUOUS
 10
99.5612847993
 20
142.9139408284
 40
2.0
100
AcDbArc
 50
90.0
 51
180.0
  0
ARC
  5
463
100
AcDbEntity
  8
RACCORDO
100
AcDbCircle
 62
7
  6
CONTINUOUS
 10
238.0612847993
 20
142.9139408284
 40
2.0
100
AcDbArc
 50
0.0
 51
90.0
  0
ARC
  5
464
100
AcDbEntity
  8
RACCORDO
100
AcDbCircle
 62
7
  6
CONTINUOUS
 10
238.0612847993
 20
61.9139408284
 40
2.0
100
AcDbArc
 50
270.0
 51
360.0
  0
ARC
  5
465
100
AcDbEntity
  8
RACCORDO
100
AcDbCircle
 62
7
  6
CONTINUOUS
 10
214.8112847993
 20
77.7931449229
 40
1.1
100
AcDbArc
 50
274.1812437159
 51
360.0
  0
ARC
  5
466
100
AcDbEntity
  8
RACCORDO
100
AcDbCircle
 62
7
  6
CONTINUOUS
 10
214.8112847993
 20
127.034736734
 40
1.1
100
AcDbArc
 50
0.0
 51
85.8187562841
  0
ARC
  5
467
100
AcDbEntity
  8
RACCORDO
100
AcDbCircle
 62
7
  6
CONTINUOUS
 10
122.8112847993
 20
127.034736734
 40
1.1
100
AcDbArc
 50
94.1812437159
 51
180.0
  0
ARC
  5
468
100
AcDbEntity
  8
RACCORDO
100
AcDbCircle
 62
7
  6
CONTINUOUS
 10
122.8112847993
 20
77.7931449229
 40
1.1
100
AcDbArc
 50
180.0
 51
265.8187562841
  0
ARC
  5
469
100
AcDbEntity
  8
RACCORDO
100
AcDbCircle
 62
7
  6
CONTINUOUS
 10
71.0938460239
 20
60.4139408284
 40
0.5
100
AcDbArc
 50
180.0
 51
270.0000000047
  0
ARC
  5
46A
100
AcDbEntity
  8
RACCORDO
100
AcDbCircle
 62
7
  6
CONTINUOUS
 10
71.0938460239
 20
144.4139408284
 40
0.5
100
AcDbArc
 50
89.9999999954
 51
180.0
  0
ARC
  5
46B
100
AcDbEntity
  8
RACCORDO
100
AcDbCircle
 62
7
  6
CONTINUOUS
 10
70.6938460239
 20
75.4820460473
 40
0.2
100
AcDbArc
 50
180.0
 51
269.0
  0
ARC
  5
46C
100
AcDbEntity
  8
RACCORDO
100
AcDbCircle
 62
7
  6
CONTINUOUS
 10
70.6938460239
 20
129.3458356096
 40
0.2
100
AcDbArc
 50
91.0
 51
180.0
  0
ELLIPSE
  5
46D
100
AcDbEntity
  8
RACCORDO
100
AcDbEllipse
 62
7
  6
CONTINUOUS
 10
124.0115592685
 20
80.1142152976
 30
0.0
 11
-0.1418092487
 21
-0.1418092487
 31
0.0
 40
0.9972646886
 41
-0.7840286355
 42
0.7840286355
  0
ELLIPSE
  5
46E
100
AcDbEntity
  8
RACCORDO
100
AcDbEllipse
 62
7
  6
CONTINUOUS
 10
213.6110103301
 20
80.1142152976
 30
0.0
 11
-0.1418092487
 21
0.1418092487
 31
0.0
 40
0.9972646886
 41
2.3575640181
 42
3.9256212891
  0
ELLIPSE
  5
46F
100
AcDbEntity
  8
RACCORDO
100
AcDbEllipse
 62
7
  6
CONTINUOUS
 10
213.6110103301
 20
124.7136663592
 30
0.0
 11
0.1418092487
 21
0.1418092487
 31
0.0
 40
0.9972646886
 41
-0.7840286355
 42
0.7840286355
  0
ELLIPSE
  5
470
100
AcDbEntity
  8
RACCORDO
100
AcDbEllipse
 62
7
  6
CONTINUOUS
 10
124.0115592685
 20
124.7136663592
 30
0.0
 11
-0.1418092487
 21
0.1418092487
 31
0.0
 40
0.9972646886
 41
-0.7840286355
 42
0.7840286355
  0
ENDSEC
  0
SECTION
  2
OBJECTS
  0
DICTIONARY
  5
C
100
AcDbDictionary
280
0
281
1
  3
ACAD_GROUP
350
D
  3
ACAD_MLINESTYLE
350
17
  3
ACAD_LAYOUT
350
1A
  3
ACAD_PLOTSETTINGS
350
19
  3
ACAD_PLOTSTYLENAME
350
E
  0
DICTIONARY
  5
D
102
{ACAD_REACTORS
330
C
102
}
100
AcDbDictionary
280
0
281
1
  0
ACDBDICTIONARYWDFLT
  5
E
102
{ACAD_REACTORS
330
C
102
}
100
AcDbDictionary
281
1
  3
Normal
350
F
100
AcDbDictionaryWithDefault
340
F
  0
DICTIONARY
  5
17
102
{ACAD_REACTORS
330
C
102
}
100
AcDbDictionary
280
0
281
1
  3
Standard
350
18
  0
DICTIONARY
  5
19
102
{ACAD_REACTORS
330
C
102
}
100
AcDbDictionary
281
1
  0
DICTIONARY
  5
1A
102
{ACAD_REACTORS
330
C
102
}
100
AcDbDictionary
281
1
  3
Model
350
471
  3
Layout1
350
472
  0
ACDBPLACEHOLDER
  5
F
102
{ACAD_REACTORS
330
E
102
}
  0
MLINESTYLE
  5
18
102
{ACAD_REACTORS
330
17
102
}
100
AcDbMlineStyle
  2
STANDARD
 70
0
  3

 62
256
 51
90.0
 52
90.0
 71
2
 49
0.5
 62
256
  6
BYLAYER
 49
-0.5
 62
256
  6
BYLAYER
  0
LAYOUT
  5
471
102
{ACAD_REACTORS
330
1A
102
}
100
AcDbPlotSettings
  1

  2
none_device
  4
ISO_A4_(297.00_x_210.00_MM)
  6

 40
0.0
 41
0.0
 42
0.0
 43
0.0
 44
297.0
 45
210.0
 46
0.0
 47
0.0
 48
0.0
 49
0.0
140
0.0
141
0.0
142
1.0
143
1.0
 70
1024
 72
1
 73
0
 74
0
  7

 75
0
147
1.0
148
0.0
149
0.0
100
AcDbLayout
  1
Model
 70
0
 71
0
 10
0.0
 20
0.0
 11
297.0
 21
210.0
 12
0.0
 22
0.0
 32
0.0
 14
0.0
 24
0.0
 34
0.0
 15
0.0
 25
0.0
 35
0.0
146
0.0
 13
0.0
 23
0.0
 33
0.0
 16
1.0
 26
0.0
 36
0.0
 17
0.0
 27
1.0
 37
0.0
 76
0
330
212
345
0
346
0
  0
LAYOUT
  5
472
102
{ACAD_REACTORS
330
1A
102
}
100
AcDbPlotSettings
  1

  2
none_device
  4
ISO_A4_(297.00_x_210.00_MM)
  6

 40
0.0
 41
0.0
 42
0.0
 43
0.0
 44
297.0
 45
210.0
 46
0.0
 47
0.0
 48
0.0
 49
0.0
140
0.0
141
0.0
142
1.0
143
1.0
 70
0
 72
1
 73
0
 74
0
  7

 75
0
147
1.0
148
0.0
149
0.0
100
AcDbLayout
  1
Layout1
 70
0
 71
1
 10
0.0
 20
0.0
 11
297.0
 21
210.0
 12
0.0
 22
0.0
 32
0.0
 14
0.0
 24
0.0
 34
0.0
 15
0.0
 25
0.0
 35
0.0
146
0.0
 13
0.0
 23
0.0
 33
0.0
 16
1.0
 26
0.0
 36
0.0
 17
0.0
 27
1.0
 37
0.0
 76
0
330
213
345
0
346
0
  0
ENDSEC
  0
EOF
