0
SECTION
2
HEADER
9
$ACADVER
1
AC1015
9
$DWGCODEPAGE
3
ANSI_1252
9
$EXTMAX
10
431.8000000000
20
558.8000000000
30
0.0000000000
9
$EXTMIN
10
0.0000000000
20
0.0000000000
30
0.0000000000
9
$LIMMIN
10
0.0000000000
20
0.0000000000
9
$LIMMAX
10
431.8000000000
20
558.8000000000
9
$VIEWCTR
10
215.9000000000
20
279.4000000000
9
$VIEWSIZE
40
558.8000000000
9
$CLAYER
8
0
9
$LTSCALE
40
36.4254814815
9
$CELTYPE
6
BYLAYER
9
$DIMSCALE
40
1
9
$DIMASZ
40
3.0000000000
9
$DIMEXO
40
4.1392592593
9
$DIMDLI
40
25.1666962963
9
$DIMEXE
40
11.9210666667
9
$DIMCEN
40
5.9605333333
9
$DIMLFAC
40
1.0000000000
9
$DIMBLK
1
_FILLED
9
$DIMTXT
40
3.0000000000
9
$DIMTOL
70
1
9
$DIMLIM
70
0
9
$DIMTFAC
40
1.0000000000
9
$DIMTP
40
0.0100000000
9
$DIMTM
40
0.0100000000
9
$PDMODE
70
3
9
$PDSIZE
40
3.0000000000
9
$HANDSEED
5
3D3
9
$MEASUREMENT
70
1
9
$INSUNITS
70
4
0
ENDSEC
0
SECTION
2
CLASSES
0
CLASS
1
ACDBDICTIONARYWDFLT
2
AcDbDictionaryWithDefault
3
AutoCAD 2000
90
0
280
0
281
0
0
CLASS
1
ACDBPLACEHOLDER
2
AcDbPlaceHolder
3
AutoCAD 2000
90
0
280
0
281
0
0
CLASS
1
LAYOUT
2
AcDbLayout
3
AutoCAD 2000
90
0
280
0
281
0
0
ENDSEC
0
SECTION
2
TABLES
0
TABLE
2
VPORT
5
8
100
AcDbSymbolTable
70
2
0
VPORT
5
1F4
100
AcDbSymbolTableRecord
100
AcDbViewportTableRecord
2
*ACTIVE
70
0
10
0.0
20
0.0
11
1.0
21
1.0
12
215.9000000000
22
279.4000000000
13
0.0
23
0.0
14
1.0
24
1.0
15
0.0
25
0.0
16
0.0
26
0.0
36
1.0
17
0.0
27
0.0
37
0.0
40
558.8000000000
41
0.7727272727
42
50.0
43
0.0
44
0.0
50
0.0
51
0.0
71
0
72
100
73
1
74
1
75
0
76
0
77
0
78
0
0
ENDTAB
0
TABLE
2
LTYPE
5
5
100
AcDbSymbolTable
70
6
0
LTYPE
5
14
100
AcDbSymbolTableRecord
100
AcDbLinetypeTableRecord
2
BYBLOCK
70
0
3

72
65
73
0
40
0.0
0
LTYPE
5
15
100
AcDbSymbolTableRecord
100
AcDbLinetypeTableRecord
2
BYLAYER
70
0
3

72
65
73
0
40
0.0
0
LTYPE
5
16
100
AcDbSymbolTableRecord
100
AcDbLinetypeTableRecord
2
CONTINUOUS
70
64
3
Solid line
72
65
73
0
40
0
0
LTYPE
5
1F5
100
AcDbSymbolTableRecord
100
AcDbLinetypeTableRecord
2
CENTER
70
64
3
____ _ ____ _ ____ _ ____ _ ____ _ ____ _ ____
72
65
73
4
40
0.6
49
0.375
74
0
49
-0.075
74
0
49
0.075
74
0
49
-0.075
74
0
0
LTYPE
5
1F6
100
AcDbSymbolTableRecord
100
AcDbLinetypeTableRecord
2
HIDDEN
70
64
3
- - - - - - - - - - - - - - - - - - - -
72
65
73
2
40
0.2
49
0.1
74
0
49
-0.1
74
0
0
LTYPE
5
1F7
100
AcDbSymbolTableRecord
100
AcDbLinetypeTableRecord
2
PHANTOM
70
64
3
_____ _ _ _____ _ _ _____ _ _ _____
72
65
73
6
40
0.8
49
0.45
74
0
49
-0.05
74
0
49
0.1
74
0
49
-0.05
74
0
49
0.1
74
0
49
-0.05
74
0
0
LTYPE
5
1F8
100
AcDbSymbolTableRecord
100
AcDbLinetypeTableRecord
2
DOT
70
64
3
. . . . . . . . . . . . . . . . . . . .
72
65
73
2
40
0.2
49
0.1
74
0
49
-0.1
74
0
0
LTYPE
5
1F9
100
AcDbSymbolTableRecord
100
AcDbLinetypeTableRecord
2
DASHED
70
64
3
- - - - - - - - - - - - - - - - - - - -
72
65
73
2
40
0.2
49
0.1
74
0
49
-0.1
74
0
0
ENDTAB
0
TABLE
2
LAYER
5
2
100
AcDbSymbolTable
70
36
0
LAYER
5
10
100
AcDbSymbolTableRecord
100
AcDbLayerTableRecord
2
0
70
0
62
7
6
CONTINUOUS
370
-3
390
F
0
LAYER
5
1FA
100
AcDbSymbolTableRecord
100
AcDbLayerTableRecord
2
DEFAULT_1
70
0
62
7
6
CENTER
370
-3
390
F
0
LAYER
5
1FB
100
AcDbSymbolTableRecord
100
AcDbLayerTableRecord
2
DEFAULT_2
70
0
62
9
6
HIDDEN
370
-3
390
F
0
LAYER
5
1FC
100
AcDbSymbolTableRecord
100
AcDbLayerTableRecord
2
DEFAULT_3
70
0
62
7
6
PHANTOM
370
-3
390
F
0
LAYER
5
1FD
100
AcDbSymbolTableRecord
100
AcDbLayerTableRecord
2
ASSI
70
0
62
7
6
CONTINUOUS
370
-3
390
F
0
LAYER
5
1FE
100
AcDbSymbolTableRecord
100
AcDbLayerTableRecord
2
COORDINATE
70
0
62
7
6
CONTINUOUS
370
-3
390
F
0
LAYER
5
1FF
100
AcDbSymbolTableRecord
100
AcDbLayerTableRecord
2
COORD_ORIGINE
70
0
62
7
6
CONTINUOUS
370
-3
390
F
0
LAYER
5
200
100
AcDbSymbolTableRecord
100
AcDbLayerTableRecord
2
COPY
70
0
62
7
6
CONTINUOUS
370
-3
390
F
0
LAYER
5
201
100
AcDbSymbolTableRecord
100
AcDbLayerTableRecord
2
COPY_AGG_COMPLETI
70
0
62
7
6
CONTINUOUS
370
-3
390
F
0
LAYER
5
202
100
AcDbSymbolTableRecord
100
AcDbLayerTableRecord
2
COPY_AGG_LISCI
70
0
62
7
6
CONTINUOUS
370
-3
390
F
0
LAYER
5
203
100
AcDbSymbolTableRecord
100
AcDbLayerTableRecord
2
COPY_ESTETICA_SUPP
70
0
62
7
6
CONTINUOUS
370
-3
390
F
0
LAYER
5
204
100
AcDbSymbolTableRecord
100
AcDbLayerTableRecord
2
COPY_PLACCA
70
0
62
7
6
CONTINUOUS
370
-3
390
F
0
LAYER
5
205
100
AcDbSymbolTableRecord
100
AcDbLayerTableRecord
2
CURVE
70
0
62
7
6
CONTINUOUS
370
-3
390
F
0
LAYER
5
206
100
AcDbSymbolTableRecord
100
AcDbLayerTableRecord
2
DRAFT
70
0
62
7
6
CONTINUOUS
370
-3
390
F
0
LAYER
5
207
100
AcDbSymbolTableRecord
100
AcDbLayerTableRecord
2
ELIMINA
70
0
62
7
6
CONTINUOUS
370
-3
390
F
0
LAYER
5
208
100
AcDbSymbolTableRecord
100
AcDbLayerTableRecord
2
IMPORT_SCRITTE
70
0
62
7
6
CONTINUOUS
370
-3
390
F
0
LAYER
5
209
100
AcDbSymbolTableRecord
100
AcDbLayerTableRecord
2
NOTE
70
0
62
7
6
CONTINUOUS
370
-3
390
F
0
LAYER
5
20A
100
AcDbSymbolTableRecord
100
AcDbLayerTableRecord
2
PIANI
70
0
62
7
6
CONTINUOUS
370
-3
390
F
0
LAYER
5
20B
100
AcDbSymbolTableRecord
100
AcDbLayerTableRecord
2
PIANI_ORIGINE
70
0
62
7
6
CONTINUOUS
370
-3
390
F
0
LAYER
5
20C
100
AcDbSymbolTableRecord
100
AcDbLayerTableRecord
2
PUNTI
70
0
62
7
6
CONTINUOUS
370
-3
390
F
0
LAYER
5
20D
100
AcDbSymbolTableRecord
100
AcDbLayerTableRecord
2
RACCORDO
70
0
62
7
6
CONTINUOUS
370
-3
390
F
0
LAYER
5
20E
100
AcDbSymbolTableRecord
100
AcDbLayerTableRecord
2
SMUSSO
70
0
62
7
6
CONTINUOUS
370
-3
390
F
0
LAYER
5
20F
100
AcDbSymbolTableRecord
100
AcDbLayerTableRecord
2
SUPERFICI
70
0
62
7
6
CONTINUOUS
370
-3
390
F
0
LAYER
5
210
100
AcDbSymbolTableRecord
100
AcDbLayerTableRecord
2
SUP_SUPPORTO
70
0
62
7
6
CONTINUOUS
370
-3
390
F
0
LAYER
5
211
100
AcDbSymbolTableRecord
100
AcDbLayerTableRecord
2
TRASH
70
0
62
7
6
CONTINUOUS
370
-3
390
F
0
LAYER
5
212
100
AcDbSymbolTableRecord
100
AcDbLayerTableRecord
2
XSEC_DATUMS
70
0
62
7
6
CONTINUOUS
370
-3
390
F
0
ENDTAB
0
TABLE
2
STYLE
5
3
100
AcDbSymbolTable
70
1
0
STYLE
5
11
100
AcDbSymbolTableRecord
100
AcDbTextStyleTableRecord
2
STANDARD
70
0
40
0.0
41
0.8000000000
50
0.0
71
0
42
0.2
3
txt
4

0
ENDTAB
0
TABLE
2
VIEW
5
6
100
AcDbSymbolTable
70
0
0
ENDTAB
0
TABLE
2
UCS
5
7
100
AcDbSymbolTable
70
0
0
ENDTAB
0
TABLE
2
APPID
5
9
100
AcDbSymbolTable
70
1
0
APPID
5
213
100
AcDbSymbolTableRecord
100
AcDbRegAppTableRecord
2
ACAD
70
0
0
ENDTAB
0
TABLE
2
BLOCK_RECORD
5
1
100
AcDbSymbolTable
70
0
0
BLOCK_RECORD
5
1F
100
AcDbSymbolTableRecord
100
AcDbBlockTableRecord
2
*MODEL_SPACE
0
BLOCK_RECORD
5
1B
100
AcDbSymbolTableRecord
100
AcDbBlockTableRecord
2
*PAPER_SPACE
0
BLOCK_RECORD
5
214
100
AcDbSymbolTableRecord
100
AcDbBlockTableRecord
2
_FILLED
0
BLOCK_RECORD
5
215
100
AcDbSymbolTableRecord
100
AcDbBlockTableRecord
2
*D0
0
BLOCK_RECORD
5
216
100
AcDbSymbolTableRecord
100
AcDbBlockTableRecord
2
*D1
0
BLOCK_RECORD
5
217
100
AcDbSymbolTableRecord
100
AcDbBlockTableRecord
2
*D2
0
ENDTAB
0
TABLE
2
DIMSTYLE
5
A
100
AcDbSymbolTable
70
1
100
AcDbDimStyleTable
71
0
0
DIMSTYLE
105
218
100
AcDbSymbolTableRecord
100
AcDbDimStyleTableRecord
2
STANDARD
70
0
3

4

40
1.0
41
3.0000000000
42
0.0625
43
0.38
44
0.18
45
0.0
46
0.0
47
0.0100000000
48
0.0100000000
140
3.0000000000
141
0.09
142
0.0
143
25.4
144
1.0000000000
145
0.0
146
1.0000000000
147
0.09
71
1
72
0
73
0
74
0
75
0
76
0
77
1
78
8
170
0
171
2
172
0
173
0
174
0
175
0
176
0
177
0
178
0
270
2
271
2
272
2
273
2
274
2
275
0
280
0
281
0
282
0
283
1
284
8
285
0
286
0
287
3
288
0
340
11
341
214
342
214
343
214
344
214
0
DIMSTYLE
105
219
100
AcDbSymbolTableRecord
100
AcDbDimStyleTableRecord
2
DIMSTYLE_1
70
0
3

4

40
1.0
41
3.0000000000
42
0.0625
43
0.38
44
0.18
45
0.0
46
0.0
47
0.0000000000
48
0.0000000000
140
3.0000000000
141
0.09
142
0.0
143
25.4
144
1.0000000000
145
0.0
146
1.0000000000
147
0.09
71
0
72
0
73
0
74
0
75
0
76
0
77
1
78
8
170
0
171
2
172
0
173
0
174
0
175
0
176
0
177
0
178
0
270
2
271
0
272
0
273
2
274
2
275
0
280
0
281
0
282
0
283
1
284
8
285
0
286
0
287
3
288
0
340
11
341
214
342
214
343
214
344
214
0
DIMSTYLE
105
21A
100
AcDbSymbolTableRecord
100
AcDbDimStyleTableRecord
2
DIMSTYLE_2
70
0
3

4

40
1.0
41
3.0000000000
42
0.0625
43
0.38
44
0.18
45
0.0
46
0.0
47
0.0000000000
48
0.0000000000
140
3.0000000000
141
0.09
142
0.0
143
25.4
144
1.0000000000
145
0.0
146
1.0000000000
147
0.09
71
0
72
0
73
0
74
0
75
0
76
0
77
1
78
8
170
0
171
2
172
0
173
0
174
0
175
0
176
0
177
0
178
0
270
2
271
2
272
2
273
2
274
2
275
0
280
0
281
0
282
0
283
1
284
8
285
0
286
0
287
3
288
0
340
11
341
214
342
214
343
214
344
214
0
ENDTAB
0
ENDSEC
0
SECTION
2
BLOCKS
0
BLOCK
5
20
100
AcDbEntity
8
0
100
AcDbBlockBegin
2
*MODEL_SPACE
70
0
10
0.0
20
0.0
30
0.0
3
*MODEL_SPACE
1

0
ENDBLK
5
21
100
AcDbEntity
8
0
100
AcDbBlockEnd
0
BLOCK
5
1C
100
AcDbEntity
8
0
100
AcDbBlockBegin
2
*PAPER_SPACE
70
0
10
0.0
20
0.0
30
0.0
3
*PAPER_SPACE
1

0
ENDBLK
5
1D
100
AcDbEntity
8
0
100
AcDbBlockEnd
0
BLOCK
5
21B
100
AcDbEntity
8
0
100
AcDbBlockBegin
62
0
6
CONTINUOUS
2
*D0
70
65
10
0.0000000000
20
0.0000000000
3
*D0
1

0
TEXT
5
21C
100
AcDbEntity
8
0
100
AcDbText
62
0
6
CONTINUOUS
10
118.0411005249
20
54.0782876440
7
STANDARD
40
3.0000000000
1
206
41
0.7857142857
72
0
100
AcDbText
0
LINE
5
21D
100
AcDbEntity
8
0
100
AcDbLine
62
0
6
CONTINUOUS
10
222.7265254229
20
42.1422494144
11
222.7265254229
21
54.8282876440
0
LINE
5
21E
100
AcDbEntity
8
0
100
AcDbLine
62
0
6
CONTINUOUS
10
16.9265254229
20
42.3957762800
11
16.9265254229
21
54.8282876440
0
LINE
5
21F
100
AcDbEntity
8
0
100
AcDbLine
62
0
6
CONTINUOUS
10
222.7265254229
20
53.3282876440
11
119.8265254229
21
53.3282876440
0
LINE
5
220
100
AcDbEntity
8
0
100
AcDbLine
62
0
6
CONTINUOUS
10
16.9265254229
20
53.3282876440
11
119.8265254229
21
53.3282876440
0
INSERT
5
221
100
AcDbEntity
8
0
100
AcDbBlockReference
62
0
6
CONTINUOUS
2
_FILLED
10
222.7265254229
20
53.3282876440
41
  3.000000
42
  3.000000
43
  3.000000
0
INSERT
5
222
100
AcDbEntity
8
0
100
AcDbBlockReference
62
0
6
CONTINUOUS
2
_FILLED
10
16.9265254229
20
53.3282876440
41
  3.000000
42
  3.000000
43
  3.000000
50
180.000000
0
ENDBLK
5
223
100
AcDbEntity
8
0
6
BYBLOCK
62
0
100
AcDbBlockEnd
0
BLOCK
5
224
100
AcDbEntity
8
0
100
AcDbBlockBegin
62
0
6
CONTINUOUS
2
*D1
70
65
10
0.0000000000
20
0.0000000000
3
*D1
1

0
TEXT
5
225
100
AcDbEntity
8
0
100
AcDbText
62
0
6
CONTINUOUS
10
232.7415411646
20
-1.9842270508
7
STANDARD
40
3.0000000000
1
85
50
90.0000000000
41
0.7500000000
72
0
100
AcDbText
0
LINE
5
226
100
AcDbEntity
8
0
100
AcDbLine
62
0
6
CONTINUOUS
10
221.8585699401
20
43.2143816887
11
234.9915411646
21
43.2143816887
0
LINE
5
227
100
AcDbEntity
8
0
100
AcDbLine
62
0
6
CONTINUOUS
10
221.6355342850
20
-41.5856002682
11
234.9915411646
21
-41.5856002682
0
LINE
5
228
100
AcDbEntity
8
0
100
AcDbLine
62
0
6
CONTINUOUS
10
233.4915411646
20
43.2143816887
11
233.4915411646
21
0.8143907102
0
LINE
5
229
100
AcDbEntity
8
0
100
AcDbLine
62
0
6
CONTINUOUS
10
233.4915411646
20
-41.5856002682
11
233.4915411646
21
0.8143907102
0
INSERT
5
22A
100
AcDbEntity
8
0
100
AcDbBlockReference
62
0
6
CONTINUOUS
2
_FILLED
10
233.4915411646
20
43.2143816887
41
  3.000000
42
  3.000000
43
  3.000000
50
 90.000000
0
INSERT
5
22B
100
AcDbEntity
8
0
100
AcDbBlockReference
62
0
6
CONTINUOUS
2
_FILLED
10
233.4915411646
20
-41.5856002682
41
  3.000000
42
  3.000000
43
  3.000000
50
270.000000
0
ENDBLK
5
22C
100
AcDbEntity
8
0
6
BYBLOCK
62
0
100
AcDbBlockEnd
0
BLOCK
5
22D
100
AcDbEntity
8
0
100
AcDbBlockBegin
62
0
6
CONTINUOUS
2
*D2
70
65
10
0.0000000000
20
0.0000000000
3
*D2
1

0
TEXT
5
22E
100
AcDbEntity
8
0
100
AcDbText
62
0
6
CONTINUOUS
10
-18.5271419603
20
54.1390259615
7
STANDARD
40
3.0000000000
1
9
41
0.7857142857
72
0
100
AcDbText
0
LINE
5
22F
100
AcDbEntity
8
0
100
AcDbLine
62
0
6
CONTINUOUS
10
-21.9805574961
20
42.8572766790
11
-21.9805574961
21
54.8890259615
0
LINE
5
230
100
AcDbEntity
8
0
100
AcDbLine
62
0
6
CONTINUOUS
10
-12.9805574961
20
42.3143907102
11
-12.9805574961
21
54.8890259615
0
LINE
5
231
100
AcDbEntity
8
0
100
AcDbLine
62
0
6
CONTINUOUS
10
-21.9805574961
20
53.3890259615
11
-17.4805574961
21
53.3890259615
0
LINE
5
232
100
AcDbEntity
8
0
100
AcDbLine
62
0
6
CONTINUOUS
10
-12.9805574961
20
53.3890259615
11
-17.4805574961
21
53.3890259615
0
INSERT
5
233
100
AcDbEntity
8
0
100
AcDbBlockReference
62
0
6
CONTINUOUS
2
_FILLED
10
-21.9805574961
20
53.3890259615
41
  3.000000
42
  3.000000
43
  3.000000
50
180.000000
0
INSERT
5
234
100
AcDbEntity
8
0
100
AcDbBlockReference
62
0
6
CONTINUOUS
2
_FILLED
10
-12.9805574961
20
53.3890259615
41
  3.000000
42
  3.000000
43
  3.000000
0
ENDBLK
5
235
100
AcDbEntity
8
0
6
BYBLOCK
62
0
100
AcDbBlockEnd
0
BLOCK
5
236
100
AcDbEntity
8
0
100
AcDbBlockBegin
2
_FILLED
70
64
10
0.0000000000
20
0.0000000000
3
_FILLED
1

0
SOLID
5
237
100
AcDbEntity
8
0
6
BYBLOCK
62
0
100
AcDbTrace
10
0.0000000000
20
0.0000000000
11
-1.0000000000
21
0.3166666667
12
-1.0000000000
22
-0.3166666667
13
-1.0000000000
23
-0.3166666667
0
ENDBLK
5
238
100
AcDbEntity
8
0
6
BYBLOCK
62
0
100
AcDbBlockEnd
0
ENDSEC
0
SECTION
2
ENTITIES
0
DIMENSION
5
239
100
AcDbEntity
8
0
100
AcDbDimension
62
0
6
CONTINUOUS
2
*D0
10
16.9265254229
20
53.3282876440
11
121.5768148106
21
55.5782876440
70
160
42
205.800000
3
DIMSTYLE_1
100
AcDbAlignedDimension
13
222.7265254229
23
42.1422494144
14
16.9265254229
24
42.3957762800
50
180.000000
100
AcDbRotatedDimension
0
DIMENSION
5
23A
100
AcDbEntity
8
0
100
AcDbDimension
62
0
6
CONTINUOUS
2
*D1
10
233.4915411646
20
-41.5856002682
11
231.2415411646
21
0.2657729492
70
160
42
84.799982
3
DIMSTYLE_1
100
AcDbAlignedDimension
13
221.8585699401
23
43.2143816887
14
221.6355342850
24
-41.5856002682
50
270.000000
100
AcDbRotatedDimension
0
DIMENSION
5
23B
100
AcDbEntity
8
0
100
AcDbDimension
62
0
6
CONTINUOUS
2
*D2
10
-12.9805574961
20
53.3890259615
11
-17.3485705317
21
55.6390259615
70
160
42
9.000000
3
DIMSTYLE_2
100
AcDbAlignedDimension
13
-21.9805574961
23
42.8572766790
14
-12.9805574961
24
42.3143907102
100
AcDbRotatedDimension
0
LINE
5
23C
100
AcDbEntity
8
0
100
AcDbLine
62
0
6
CONTINUOUS
10
16.9265254229
20
41.3206306121
11
16.9265254229
21
-39.6918491916
0
LINE
5
23D
100
AcDbEntity
8
0
100
AcDbLine
62
9
6
CONTINUOUS
10
17.1506193124
20
-39.4681807266
11
17.1506193124
21
41.0969621471
0
LINE
5
23E
100
AcDbEntity
8
0
100
AcDbLine
62
9
6
CONTINUOUS
10
18.0198386450
20
-39.4681807266
11
18.0198386450
21
41.0969621471
0
LINE
5
23F
100
AcDbEntity
8
0
100
AcDbLine
62
9
6
CONTINUOUS
10
38.8669513515
20
-23.1934257047
11
38.8669513515
21
24.8222071251
0
LINE
5
240
100
AcDbEntity
8
0
100
AcDbLine
62
0
6
CONTINUOUS
10
38.9695583007
20
-23.1934257047
11
38.9695583007
21
24.8222071251
0
LINE
5
241
100
AcDbEntity
8
0
100
AcDbLine
62
9
6
CONTINUOUS
10
39.0862018635
20
-23.1803105243
11
39.0862018635
21
24.8090919448
0
LINE
5
242
100
AcDbEntity
8
0
100
AcDbLine
62
9
6
CONTINUOUS
10
39.1662359678
20
-23.1046711246
11
39.1662359678
21
24.7334525451
0
LINE
5
243
100
AcDbEntity
8
0
100
AcDbLine
62
9
6
CONTINUOUS
10
39.2635012034
20
-23.1046711246
11
39.2635012034
21
24.7334525451
0
LINE
5
244
100
AcDbEntity
8
0
100
AcDbLine
62
9
6
CONTINUOUS
10
40.7772146105
20
24.4321227376
11
40.7772146105
21
-22.8033411532
0
LINE
5
245
100
AcDbEntity
8
0
100
AcDbLine
62
9
6
CONTINUOUS
10
40.9820383352
20
23.5352601629
11
40.9820383352
21
-21.9064787424
0
LINE
5
246
100
AcDbEntity
8
0
100
AcDbLine
62
0
6
CONTINUOUS
10
41.0765254229
20
-21.4858833828
11
41.0765254229
21
23.1146648033
0
LINE
5
247
100
AcDbEntity
8
0
100
AcDbLine
62
9
6
CONTINUOUS
10
41.0765254229
20
-21.4858833828
11
41.0121017516
21
-21.5503070541
0
LINE
5
248
100
AcDbEntity
8
0
100
AcDbLine
62
9
6
CONTINUOUS
10
41.2762513299
20
-21.6856092898
11
41.2118276586
21
-21.7500329611
0
LINE
5
249
100
AcDbEntity
8
0
100
AcDbLine
62
9
6
CONTINUOUS
10
17.1506193124
20
-39.4681807266
11
16.9265254229
21
-39.6918491916
0
LINE
5
24A
100
AcDbEntity
8
0
100
AcDbLine
62
9
6
CONTINUOUS
10
19.0461282005
20
-41.3638663039
11
18.8239555627
21
-41.5856092746
0
LINE
5
24B
100
AcDbEntity
8
0
100
AcDbLine
62
9
6
CONTINUOUS
10
220.6344759016
20
-40.4651013338
11
19.0185749443
21
-40.4651013338
0
LINE
5
24C
100
AcDbEntity
8
0
100
AcDbLine
62
9
6
CONTINUOUS
10
222.5024315335
20
-39.4681807266
11
221.6332122009
21
-39.4681807266
0
LINE
5
24D
100
AcDbEntity
8
0
100
AcDbLine
62
9
6
CONTINUOUS
10
17.1506193124
20
-39.4681807266
11
18.0198386450
21
-39.4681807266
0
LINE
5
24E
100
AcDbEntity
8
0
100
AcDbLine
62
9
6
CONTINUOUS
10
16.9265254229
20
41.3206306121
11
17.1506193124
21
41.0969621471
0
LINE
5
24F
100
AcDbEntity
8
0
100
AcDbLine
62
9
6
CONTINUOUS
10
18.8239555627
20
43.2143906951
11
19.0461282005
21
42.9926477244
0
LINE
5
250
100
AcDbEntity
8
0
100
AcDbLine
62
9
6
CONTINUOUS
10
41.0765254229
20
23.1146648033
11
41.0121017516
21
23.1790884746
0
LINE
5
251
100
AcDbEntity
8
0
100
AcDbLine
62
9
6
CONTINUOUS
10
41.2762513299
20
23.3143907102
11
41.2118276586
21
23.3788143815
0
LINE
5
252
100
AcDbEntity
8
0
100
AcDbLine
62
9
6
CONTINUOUS
10
40.0158926906
20
-24.2853544807
11
40.0088990723
21
-24.2919693039
0
LINE
5
253
100
AcDbEntity
8
0
100
AcDbLine
62
9
6
CONTINUOUS
10
39.0862018635
20
-23.1803105243
11
39.1662359678
21
-23.1046711246
0
LINE
5
254
100
AcDbEntity
8
0
100
AcDbLine
62
9
6
CONTINUOUS
10
40.0300091232
20
-24.1758921797
11
40.1097061051
21
-24.1006245142
0
LINE
5
255
100
AcDbEntity
8
0
100
AcDbLine
62
9
6
CONTINUOUS
10
40.0300091232
20
25.8046736001
11
40.1097061052
21
25.7294059346
0
LINE
5
256
100
AcDbEntity
8
0
100
AcDbLine
62
9
6
CONTINUOUS
10
39.0862018635
20
24.8090919448
11
39.1662359678
21
24.7334525451
0
LINE
5
257
100
AcDbEntity
8
0
100
AcDbLine
62
9
6
CONTINUOUS
10
40.0158926906
20
25.9141359011
11
40.0088990722
21
25.9207507244
0
LINE
5
258
100
AcDbEntity
8
0
100
AcDbLine
62
0
6
CONTINUOUS
10
116.1275324229
20
-24.3370362898
11
116.5134384229
21
-24.3370362898
0
LINE
5
259
100
AcDbEntity
8
0
100
AcDbLine
62
0
6
CONTINUOUS
10
117.4698144229
20
-24.3370362898
11
117.8724994229
21
-24.3370362898
0
LINE
5
25A
100
AcDbEntity
8
0
100
AcDbLine
62
0
6
CONTINUOUS
10
118.2248484229
20
-24.3370362898
11
118.6275324229
21
-24.3370362898
0
LINE
5
25B
100
AcDbEntity
8
0
100
AcDbLine
62
0
6
CONTINUOUS
10
119.0134384229
20
-24.3370362898
11
119.4161234229
21
-24.3370362898
0
LINE
5
25C
100
AcDbEntity
8
0
100
AcDbLine
62
0
6
CONTINUOUS
10
119.8020294229
20
-24.3370362898
11
120.2047134229
21
-24.3370362898
0
LINE
5
25D
100
AcDbEntity
8
0
100
AcDbLine
62
0
6
CONTINUOUS
10
120.5235054229
20
-24.3370362898
11
120.9261904229
21
-24.3370362898
0
LINE
5
25E
100
AcDbEntity
8
0
100
AcDbLine
62
0
6
CONTINUOUS
10
121.8154524229
20
-24.3370362898
11
122.2181364229
21
-24.3370362898
0
LINE
5
25F
100
AcDbEntity
8
0
100
AcDbLine
62
0
6
CONTINUOUS
10
122.5369284229
20
-24.3370362898
11
122.9396134229
21
-24.3370362898
0
LINE
5
260
100
AcDbEntity
8
0
100
AcDbLine
62
0
6
CONTINUOUS
10
123.6946464229
20
-24.3370362898
11
124.1476664229
21
-24.3370362898
0
LINE
5
261
100
AcDbEntity
8
0
100
AcDbLine
62
0
6
CONTINUOUS
10
121.0436404229
20
-23.9872862898
11
121.6812234229
21
-23.9872862898
0
LINE
5
262
100
AcDbEntity
8
0
100
AcDbLine
62
0
6
CONTINUOUS
10
121.5637744229
20
-23.6527432898
11
121.1778684229
21
-23.6527432898
0
LINE
5
263
100
AcDbEntity
8
0
100
AcDbLine
62
0
6
CONTINUOUS
10
122.9396134229
20
-23.6527432898
11
123.2919624229
21
-23.6527432898
0
LINE
5
264
100
AcDbEntity
8
0
100
AcDbLine
62
0
6
CONTINUOUS
10
123.4261909519
20
-23.3182003229
11
122.9228344229
21
-23.3182002898
0
LINE
5
265
100
AcDbEntity
8
0
100
AcDbLine
62
9
6
CONTINUOUS
10
200.7860994944
20
-23.1934257047
11
200.6834925451
21
-23.1934257047
0
LINE
5
266
100
AcDbEntity
8
0
100
AcDbLine
62
9
6
CONTINUOUS
10
38.8669513515
20
-23.1934257047
11
38.9695583007
21
-23.1934257047
0
LINE
5
267
100
AcDbEntity
8
0
100
AcDbLine
62
9
6
CONTINUOUS
10
39.0862018635
20
-23.1803105243
11
38.9765254229
21
-23.1803105243
0
LINE
5
268
100
AcDbEntity
8
0
100
AcDbLine
62
9
6
CONTINUOUS
10
200.5668489824
20
-23.1803105243
11
200.6765254229
21
-23.1803105243
0
LINE
5
269
100
AcDbEntity
8
0
100
AcDbLine
62
9
6
CONTINUOUS
10
200.4868148781
20
-23.1046711246
11
200.3895496424
21
-23.1046711246
0
LINE
5
26A
100
AcDbEntity
8
0
100
AcDbLine
62
9
6
CONTINUOUS
10
39.1662359678
20
-23.1046711246
11
39.2635012034
21
-23.1046711246
0
LINE
5
26B
100
AcDbEntity
8
0
100
AcDbLine
62
0
6
CONTINUOUS
10
122.9228344229
20
-22.8620052898
11
123.4261901158
21
-22.8620052929
0
LINE
5
26C
100
AcDbEntity
8
0
100
AcDbLine
62
0
6
CONTINUOUS
10
123.4765263165
20
-22.5274622709
11
122.5369284229
21
-22.5274622898
0
LINE
5
26D
100
AcDbEntity
8
0
100
AcDbLine
62
0
6
CONTINUOUS
10
121.5637744229
20
-22.5274622898
11
121.1610894229
21
-22.5274622898
0
LINE
5
26E
100
AcDbEntity
8
0
100
AcDbLine
62
0
6
CONTINUOUS
10
120.2047134229
20
-22.5274622898
11
119.6006874229
21
-22.5274622898
0
LINE
5
26F
100
AcDbEntity
8
0
100
AcDbLine
62
0
6
CONTINUOUS
10
118.8456534229
20
-22.5274622898
11
118.2248484229
21
-22.5274622898
0
LINE
5
270
100
AcDbEntity
8
0
100
AcDbLine
62
0
6
CONTINUOUS
10
117.8724994229
20
-22.5274622898
11
117.4698144229
21
-22.5274622898
0
LINE
5
271
100
AcDbEntity
8
0
100
AcDbLine
62
0
6
CONTINUOUS
10
117.1678014229
20
-22.5274622898
11
116.7651164229
21
-22.5274622898
0
LINE
5
272
100
AcDbEntity
8
0
100
AcDbLine
62
0
6
CONTINUOUS
10
115.8758554229
20
-22.5274622898
11
115.4731704229
21
-22.5274622898
0
LINE
5
273
100
AcDbEntity
8
0
100
AcDbLine
62
9
6
CONTINUOUS
10
41.1797651292
20
-22.0380385976
11
198.4732857166
21
-22.0380385976
0
LINE
5
274
100
AcDbEntity
8
0
100
AcDbLine
62
9
6
CONTINUOUS
10
41.2118276586
20
-21.7500329611
11
198.4412231873
21
-21.7500329611
0
LINE
5
275
100
AcDbEntity
8
0
100
AcDbLine
62
0
6
CONTINUOUS
10
198.3767995160
20
-21.6856092898
11
41.2762513299
21
-21.6856092898
0
LINE
5
276
100
AcDbEntity
8
0
100
AcDbLine
62
0
6
CONTINUOUS
10
124.1476664229
20
-24.3370362898
11
123.7114252574
21
-23.6071240128
0
LINE
5
277
100
AcDbEntity
8
0
100
AcDbLine
62
0
6
CONTINUOUS
10
123.2919624229
20
-23.6527432898
11
123.6946464229
21
-24.3370362898
0
LINE
5
278
100
AcDbEntity
8
0
100
AcDbLine
62
0
6
CONTINUOUS
10
121.6812234229
20
-23.9872862898
11
121.8154524229
21
-24.3370362898
0
LINE
5
279
100
AcDbEntity
8
0
100
AcDbLine
62
0
6
CONTINUOUS
10
115.4731704229
20
-22.5274622898
11
116.1275324229
21
-24.3370362898
0
LINE
5
27A
100
AcDbEntity
8
0
100
AcDbLine
62
0
6
CONTINUOUS
10
116.3120964229
20
-23.7896022898
11
115.8758554229
21
-22.5274622898
0
LINE
5
27B
100
AcDbEntity
8
0
100
AcDbLine
62
0
6
CONTINUOUS
10
118.6275324229
20
-23.1509292898
11
119.0134384229
21
-24.3370362898
0
LINE
5
27C
100
AcDbEntity
8
0
100
AcDbLine
62
0
6
CONTINUOUS
10
119.2147814229
20
-23.7135692898
11
118.8456534229
21
-22.5274622898
0
LINE
5
27D
100
AcDbEntity
8
0
100
AcDbLine
62
0
6
CONTINUOUS
10
117.4698144229
20
-22.5274622898
11
117.4698144229
21
-24.3370362898
0
LINE
5
27E
100
AcDbEntity
8
0
100
AcDbLine
62
0
6
CONTINUOUS
10
117.8724994229
20
-24.3370362898
11
117.8724994229
21
-22.5274622898
0
LINE
5
27F
100
AcDbEntity
8
0
100
AcDbLine
62
0
6
CONTINUOUS
10
118.2248484229
20
-22.5274622898
11
118.2248484229
21
-24.3370362898
0
LINE
5
280
100
AcDbEntity
8
0
100
AcDbLine
62
0
6
CONTINUOUS
10
118.6275324229
20
-24.3370362898
11
118.6275324229
21
-23.1509292898
0
LINE
5
281
100
AcDbEntity
8
0
100
AcDbLine
62
0
6
CONTINUOUS
10
119.8020294229
20
-23.1509292898
11
119.8020294229
21
-24.3370362898
0
LINE
5
282
100
AcDbEntity
8
0
100
AcDbLine
62
0
6
CONTINUOUS
10
120.2047134229
20
-24.3370362898
11
120.2047134229
21
-22.5274622898
0
LINE
5
283
100
AcDbEntity
8
0
100
AcDbLine
62
0
6
CONTINUOUS
10
122.2181364229
20
-24.3370362898
11
121.5637744229
21
-22.5274622898
0
LINE
5
284
100
AcDbEntity
8
0
100
AcDbLine
62
0
6
CONTINUOUS
10
121.3624324229
20
-23.0901032898
11
121.5637744229
21
-23.6527432898
0
LINE
5
285
100
AcDbEntity
8
0
100
AcDbLine
62
0
6
CONTINUOUS
10
122.5369284229
20
-22.5274622898
11
122.5369284229
21
-24.3370362898
0
LINE
5
286
100
AcDbEntity
8
0
100
AcDbLine
62
0
6
CONTINUOUS
10
122.9228344229
20
-23.3182002898
11
122.9228344229
21
-22.8620052898
0
LINE
5
287
100
AcDbEntity
8
0
100
AcDbLine
62
0
6
CONTINUOUS
10
122.9396134229
20
-24.3370362898
11
122.9396134229
21
-23.6527432898
0
LINE
5
288
100
AcDbEntity
8
0
100
AcDbLine
62
0
6
CONTINUOUS
10
119.6006874229
20
-22.5274622898
11
119.2147814229
21
-23.7135692898
0
LINE
5
289
100
AcDbEntity
8
0
100
AcDbLine
62
0
6
CONTINUOUS
10
119.4161234229
20
-24.3370362898
11
119.8020294229
21
-23.1509292898
0
LINE
5
28A
100
AcDbEntity
8
0
100
AcDbLine
62
0
6
CONTINUOUS
10
121.1778684229
20
-23.6527432898
11
121.3624324229
21
-23.0901032898
0
LINE
5
28B
100
AcDbEntity
8
0
100
AcDbLine
62
0
6
CONTINUOUS
10
116.7651164229
20
-22.5274622898
11
116.3120964229
21
-23.7896022898
0
LINE
5
28C
100
AcDbEntity
8
0
100
AcDbLine
62
0
6
CONTINUOUS
10
116.5134384229
20
-24.3370362898
11
117.1678014229
21
-22.5274622898
0
LINE
5
28D
100
AcDbEntity
8
0
100
AcDbLine
62
0
6
CONTINUOUS
10
120.9261904229
20
-24.3370362898
11
121.0436404229
21
-23.9872862898
0
LINE
5
28E
100
AcDbEntity
8
0
100
AcDbLine
62
0
6
CONTINUOUS
10
121.1610894229
20
-22.5274622898
11
120.5235054229
21
-24.3370362898
0
LINE
5
28F
100
AcDbEntity
8
0
100
AcDbLine
62
0
6
CONTINUOUS
10
41.2762513299
20
23.3143907102
11
198.3767995160
21
23.3143907102
0
LINE
5
290
100
AcDbEntity
8
0
100
AcDbLine
62
9
6
CONTINUOUS
10
198.4412231873
20
23.3788143815
11
41.2118276586
21
23.3788143815
0
LINE
5
291
100
AcDbEntity
8
0
100
AcDbLine
62
9
6
CONTINUOUS
10
198.4732857166
20
23.6668200181
11
41.1797651292
21
23.6668200181
0
LINE
5
292
100
AcDbEntity
8
0
100
AcDbLine
62
9
6
CONTINUOUS
10
200.4868148781
20
24.7334525451
11
200.3895496424
21
24.7334525451
0
LINE
5
293
100
AcDbEntity
8
0
100
AcDbLine
62
9
6
CONTINUOUS
10
39.1662359678
20
24.7334525451
11
39.2635012034
21
24.7334525451
0
LINE
5
294
100
AcDbEntity
8
0
100
AcDbLine
62
9
6
CONTINUOUS
10
39.0862018635
20
24.8090919448
11
38.9765254229
21
24.8090919448
0
LINE
5
295
100
AcDbEntity
8
0
100
AcDbLine
62
9
6
CONTINUOUS
10
200.5668489824
20
24.8090919448
11
200.6765254229
21
24.8090919448
0
LINE
5
296
100
AcDbEntity
8
0
100
AcDbLine
62
9
6
CONTINUOUS
10
200.7860994944
20
24.8222071251
11
200.6834925451
21
24.8222071251
0
LINE
5
297
100
AcDbEntity
8
0
100
AcDbLine
62
9
6
CONTINUOUS
10
38.8669513515
20
24.8222071251
11
38.9695583007
21
24.8222071251
0
LINE
5
298
100
AcDbEntity
8
0
100
AcDbLine
62
9
6
CONTINUOUS
10
198.3767995160
20
23.3143907102
11
198.4412231873
21
23.3788143815
0
LINE
5
299
100
AcDbEntity
8
0
100
AcDbLine
62
9
6
CONTINUOUS
10
198.5765254229
20
23.1146648033
11
198.6409490942
21
23.1790884746
0
LINE
5
29A
100
AcDbEntity
8
0
100
AcDbLine
62
9
6
CONTINUOUS
10
199.6371581553
20
25.9141359011
11
199.6441517736
21
25.9207507244
0
LINE
5
29B
100
AcDbEntity
8
0
100
AcDbLine
62
9
6
CONTINUOUS
10
200.5668489824
20
24.8090919448
11
200.4868148781
21
24.7334525451
0
LINE
5
29C
100
AcDbEntity
8
0
100
AcDbLine
62
9
6
CONTINUOUS
10
199.6230417227
20
25.8046736001
11
199.5433447407
21
25.7294059347
0
LINE
5
29D
100
AcDbEntity
8
0
100
AcDbLine
62
9
6
CONTINUOUS
10
222.5024315335
20
41.0969621471
11
221.6332122009
21
41.0969621471
0
LINE
5
29E
100
AcDbEntity
8
0
100
AcDbLine
62
9
6
CONTINUOUS
10
17.1506193124
20
41.0969621471
11
18.0198386450
21
41.0969621471
0
LINE
5
29F
100
AcDbEntity
8
0
100
AcDbLine
62
9
6
CONTINUOUS
10
199.6230417226
20
-24.1758921796
11
199.5433447407
21
-24.1006245142
0
LINE
5
2A0
100
AcDbEntity
8
0
100
AcDbLine
62
9
6
CONTINUOUS
10
200.5668489824
20
-23.1803105243
11
200.4868148781
21
-23.1046711246
0
LINE
5
2A1
100
AcDbEntity
8
0
100
AcDbLine
62
9
6
CONTINUOUS
10
199.6371581553
20
-24.2853544807
11
199.6441517736
21
-24.2919693040
0
LINE
5
2A2
100
AcDbEntity
8
0
100
AcDbLine
62
9
6
CONTINUOUS
10
198.3767995160
20
-21.6856092898
11
198.4412231873
21
-21.7500329611
0
LINE
5
2A3
100
AcDbEntity
8
0
100
AcDbLine
62
9
6
CONTINUOUS
10
198.5765254229
20
-21.4858833828
11
198.6409490942
21
-21.5503070541
0
LINE
5
2A4
100
AcDbEntity
8
0
100
AcDbLine
62
9
6
CONTINUOUS
10
220.6069226454
20
42.9926477244
11
220.8290952832
21
43.2143906951
0
LINE
5
2A5
100
AcDbEntity
8
0
100
AcDbLine
62
9
6
CONTINUOUS
10
222.5024315335
20
41.0969621471
11
222.7265254229
21
41.3206306121
0
LINE
5
2A6
100
AcDbEntity
8
0
100
AcDbLine
62
9
6
CONTINUOUS
10
19.0185749443
20
42.0938827543
11
220.6344759016
21
42.0938827543
0
LINE
5
2A7
100
AcDbEntity
8
0
100
AcDbLine
62
9
6
CONTINUOUS
10
220.8290952832
20
-41.5856092746
11
220.6069226454
21
-41.3638663039
0
LINE
5
2A8
100
AcDbEntity
8
0
100
AcDbLine
62
9
6
CONTINUOUS
10
222.7265254229
20
-39.6918491916
11
222.5024315335
21
-39.4681807266
0
LINE
5
2A9
100
AcDbEntity
8
0
100
AcDbLine
62
0
6
CONTINUOUS
10
198.5765254229
20
23.1146648033
11
198.5765254229
21
-21.4858833828
0
LINE
5
2AA
100
AcDbEntity
8
0
100
AcDbLine
62
9
6
CONTINUOUS
10
198.6710125107
20
-21.9064787424
11
198.6710125107
21
23.5352601629
0
LINE
5
2AB
100
AcDbEntity
8
0
100
AcDbLine
62
9
6
CONTINUOUS
10
198.8758362354
20
-22.8033413104
11
198.8758362354
21
24.4321225668
0
LINE
5
2AC
100
AcDbEntity
8
0
100
AcDbLine
62
9
6
CONTINUOUS
10
200.3895496424
20
24.7334525451
11
200.3895496424
21
-23.1046711246
0
LINE
5
2AD
100
AcDbEntity
8
0
100
AcDbLine
62
9
6
CONTINUOUS
10
200.4868148781
20
24.7334525451
11
200.4868148781
21
-23.1046711246
0
LINE
5
2AE
100
AcDbEntity
8
0
100
AcDbLine
62
9
6
CONTINUOUS
10
200.5668489824
20
24.8090919448
11
200.5668489824
21
-23.1803105243
0
LINE
5
2AF
100
AcDbEntity
8
0
100
AcDbLine
62
0
6
CONTINUOUS
10
200.6834925451
20
24.8222071251
11
200.6834925451
21
-23.1934257047
0
LINE
5
2B0
100
AcDbEntity
8
0
100
AcDbLine
62
9
6
CONTINUOUS
10
200.7860994944
20
24.8222071251
11
200.7860994944
21
-23.1934257047
0
LINE
5
2B1
100
AcDbEntity
8
0
100
AcDbLine
62
9
6
CONTINUOUS
10
221.6332122009
20
41.0969621471
11
221.6332122009
21
-39.4681807266
0
LINE
5
2B2
100
AcDbEntity
8
0
100
AcDbLine
62
9
6
CONTINUOUS
10
222.5024315335
20
41.0969621471
11
222.5024315335
21
-39.4681807266
0
LINE
5
2B3
100
AcDbEntity
8
0
100
AcDbLine
62
0
6
CONTINUOUS
10
222.7265254229
20
41.3206306121
11
222.7265254229
21
-39.6918491916
0
LINE
5
2B4
100
AcDbEntity
8
0
100
AcDbLine
62
0
6
CONTINUOUS
10
-21.0276609277
20
-41.3734982724
11
-16.9805574961
21
-41.5855979758
0
LINE
5
2B5
100
AcDbEntity
8
0
100
AcDbLine
62
9
6
CONTINUOUS
10
-15.1500045817
20
-41.5856092746
11
-19.3891594554
21
-41.3638663039
0
LINE
5
2B6
100
AcDbEntity
8
0
100
AcDbLine
62
9
6
CONTINUOUS
10
-20.2415815010
20
-40.4651013338
11
-21.8805574961
21
-40.4747334750
0
LINE
5
2B7
100
AcDbEntity
8
0
100
AcDbLine
62
9
6
CONTINUOUS
10
-15.0805574961
20
-39.6856092898
11
-12.9805574961
21
-39.6856092898
0
LINE
5
2B8
100
AcDbEntity
8
0
100
AcDbLine
62
9
6
CONTINUOUS
10
-19.3565236310
20
-39.4681807266
11
-20.2089361174
21
-39.4681807266
0
LINE
5
2B9
100
AcDbEntity
8
0
100
AcDbLine
62
0
6
CONTINUOUS
10
-13.4805574961
20
-40.6856092898
11
-15.0892380303
21
-40.6013019154
0
LINE
5
2BA
100
AcDbEntity
8
0
100
AcDbLine
62
9
6
CONTINUOUS
10
-15.0805574961
20
-39.6918491916
11
-19.3565236310
21
-39.4681807266
0
LINE
5
2BB
100
AcDbEntity
8
0
100
AcDbLine
62
0
6
CONTINUOUS
10
-21.8857910918
20
-26.2962646786
11
-21.7556864460
21
-26.3030831742
0
LINE
5
2BC
100
AcDbEntity
8
0
100
AcDbLine
62
9
6
CONTINUOUS
10
-20.8392482099
20
-23.1046711246
11
-20.9321811507
21
-23.1046711322
0
LWPOLYLINE
5
2BD
100
AcDbEntity
8
0
100
AcDbPolyline
62
0
6
CONTINUOUS
90
12
70
0
10
-21.9805574961
20
-26.1964017250
10
-21.9804953631
20
-26.1999263158
10
-21.9786030318
20
-26.2160758944
10
-21.9741184655
20
-26.2317053369
10
-21.9671602210
20
-26.2464014055
10
-21.9579122698
20
-26.2597755286
10
-21.9466191212
20
-26.2714741014
10
-21.9335793528
20
-26.2811878248
10
-21.9191377313
20
-26.2886598708
10
-21.9036760854
20
-26.2936926847
10
-21.8876032057
20
-26.2961532061
10
-21.8857910918
20
-26.2962646785
0
LINE
5
2BE
100
AcDbEntity
8
0
100
AcDbLine
62
0
6
CONTINUOUS
10
-21.9805574961
20
27.8245314560
11
-21.9805574961
21
26.5487292646
0
LINE
5
2BF
100
AcDbEntity
8
0
100
AcDbLine
62
0
6
CONTINUOUS
10
-21.9805574961
20
-24.9199478441
11
-21.9805574961
21
-26.1962481817
0
LINE
5
2C0
100
AcDbEntity
8
0
100
AcDbLine
62
0
6
CONTINUOUS
10
-21.8805574961
20
42.1024446576
11
-21.8805574961
21
28.2152591188
0
LINE
5
2C1
100
AcDbEntity
8
0
100
AcDbLine
62
0
6
CONTINUOUS
10
-21.8805574961
20
-26.5865490588
11
-21.8805574961
21
-40.4736632371
0
LINE
5
2C2
100
AcDbEntity
8
0
100
AcDbLine
62
0
6
CONTINUOUS
10
-20.8433289711
20
25.9353856383
11
-20.8420283929
21
25.9146288474
0
LINE
5
2C3
100
AcDbEntity
8
0
100
AcDbLine
62
0
6
CONTINUOUS
10
-20.8420283929
20
25.9146288474
11
-20.8407256554
21
25.8910005547
0
LINE
5
2C4
100
AcDbEntity
8
0
100
AcDbLine
62
0
6
CONTINUOUS
10
-20.8407256554
20
25.8910005547
11
-20.8394293985
21
25.8645095899
0
LINE
5
2C5
100
AcDbEntity
8
0
100
AcDbLine
62
0
6
CONTINUOUS
10
-20.8394293985
20
25.8645095899
11
-20.8381466730
21
25.8351605209
0
LINE
5
2C6
100
AcDbEntity
8
0
100
AcDbLine
62
0
6
CONTINUOUS
10
-20.8381466730
20
25.8351605209
11
-20.8362625177
21
25.7858140276
0
LINE
5
2C7
100
AcDbEntity
8
0
100
AcDbLine
62
0
6
CONTINUOUS
10
-20.8362625177
20
25.7858140276
11
-20.8338539380
21
25.7101778017
0
LWPOLYLINE
5
2C8
100
AcDbEntity
8
0
100
AcDbPolyline
62
0
6
CONTINUOUS
90
5
70
0
10
-21.9805574961
20
26.5928126889
10
-21.9802817294
20
26.5823136107
10
-21.9783567690
20
26.5632247241
10
-21.9746120481
20
26.5444098908
10
-21.9690823874
20
26.5260416970
0
LINE
5
2C9
100
AcDbEntity
8
0
100
AcDbLine
62
0
6
CONTINUOUS
10
-20.8338539380
20
25.7101778017
11
-20.8316029913
21
25.6235330219
0
LINE
5
2CA
100
AcDbEntity
8
0
100
AcDbLine
62
0
6
CONTINUOUS
10
-20.8316029913
20
25.6235330219
11
-20.8295513402
21
25.5262968859
0
LINE
5
2CB
100
AcDbEntity
8
0
100
AcDbLine
62
0
6
CONTINUOUS
10
-20.8295513402
20
25.5262968859
11
-20.8273297040
21
25.3908389094
0
LINE
5
2CC
100
AcDbEntity
8
0
100
AcDbLine
62
0
6
CONTINUOUS
10
-20.8273297040
20
25.3908389094
11
-20.8252693474
21
25.2102732220
0
LINE
5
2CD
100
AcDbEntity
8
0
100
AcDbLine
62
9
6
CONTINUOUS
10
-20.9730110492
20
-22.7943113015
11
-20.9729463621
21
-22.8033413104
0
LINE
5
2CE
100
AcDbEntity
8
0
100
AcDbLine
62
0
6
CONTINUOUS
10
-20.8252693474
20
25.2102732220
11
-20.8239856239
21
25.0138786194
0
LINE
5
2CF
100
AcDbEntity
8
0
100
AcDbLine
62
0
6
CONTINUOUS
10
-20.9730113420
20
-22.7937003189
11
-20.9730113420
21
24.4225070619
0
LINE
5
2D0
100
AcDbEntity
8
0
100
AcDbLine
62
9
6
CONTINUOUS
10
-20.9729463621
20
-22.8033413104
11
-20.9730113420
21
-22.7937003189
0
LINE
5
2D1
100
AcDbEntity
8
0
100
AcDbLine
62
9
6
CONTINUOUS
10
-20.9730113420
20
24.4225070619
11
-20.9729463621
21
24.4321225668
0
LINE
5
2D2
100
AcDbEntity
8
0
100
AcDbLine
62
9
6
CONTINUOUS
10
-20.9339808679
20
24.7334525451
11
-20.9339808679
21
-23.1046711246
0
LINE
5
2D3
100
AcDbEntity
8
0
100
AcDbLine
62
0
6
CONTINUOUS
10
-20.8239856239
20
25.0138786194
11
-20.8235825687
21
-23.1934257047
0
LINE
5
2D4
100
AcDbEntity
8
0
100
AcDbLine
62
9
6
CONTINUOUS
10
-20.2089361174
20
41.0969621471
11
-20.2089361174
21
-39.4681807266
0
LINE
5
2D5
100
AcDbEntity
8
0
100
AcDbLine
62
9
6
CONTINUOUS
10
-19.3565236310
20
41.0969621471
11
-19.3565236310
21
-39.4681807266
0
LINE
5
2D6
100
AcDbEntity
8
0
100
AcDbLine
62
0
6
CONTINUOUS
10
-20.8235824746
20
-23.1934257047
11
-20.8240626869
21
-23.4024802538
0
LINE
5
2D7
100
AcDbEntity
8
0
100
AcDbLine
62
9
6
CONTINUOUS
10
-20.9730113026
20
24.4221861023
11
-20.9729463621
21
24.4321225668
0
LINE
5
2D8
100
AcDbEntity
8
0
100
AcDbLine
62
0
6
CONTINUOUS
10
-20.8240626869
20
-23.4024802538
11
-20.8256466337
21
-23.6213953918
0
LINE
5
2D9
100
AcDbEntity
8
0
100
AcDbLine
62
0
6
CONTINUOUS
10
-20.8256466337
20
-23.6213953918
11
-20.8276060545
21
-23.7812785725
0
LINE
5
2DA
100
AcDbEntity
8
0
100
AcDbLine
62
0
6
CONTINUOUS
10
-20.8276060545
20
-23.7812785725
11
-20.8300709980
21
-23.9241670580
0
LINE
5
2DB
100
AcDbEntity
8
0
100
AcDbLine
62
0
6
CONTINUOUS
10
-20.8300709980
20
-23.9241670580
11
-20.8321832782
21
-24.0188269299
0
LINE
5
2DC
100
AcDbEntity
8
0
100
AcDbLine
62
0
6
CONTINUOUS
10
-20.8321832782
20
-24.0188269299
11
-20.8344662690
21
-24.1021221583
0
LINE
5
2DD
100
AcDbEntity
8
0
100
AcDbLine
62
0
6
CONTINUOUS
10
-20.8344662690
20
-24.1021221583
11
-20.8360578777
21
-24.1511878215
0
LINE
5
2DE
100
AcDbEntity
8
0
100
AcDbLine
62
0
6
CONTINUOUS
10
-20.8360578777
20
-24.1511878215
11
-20.8376874157
21
-24.1950631654
0
LINE
5
2DF
100
AcDbEntity
8
0
100
AcDbLine
62
0
6
CONTINUOUS
10
-20.8376874157
20
-24.1950631654
11
-20.8393397325
21
-24.2337803440
0
LWPOLYLINE
5
2E0
100
AcDbEntity
8
0
100
AcDbPolyline
62
0
6
CONTINUOUS
90
11
70
0
10
-20.8393397325
20
-24.2337803440
10
-20.8409960944
20
-24.2673657095
10
-20.8418208944
20
-24.2822779271
10
-20.8426374722
20
-24.2959116632
10
-20.8434441891
20
-24.3083111443
10
-20.8442379363
20
-24.3194987106
10
-20.8450094718
20
-24.3294255139
10
-20.8457584044
20
-24.3381752868
10
-20.8464772240
20
-24.3457503766
10
-20.8471393398
20
-24.3520012307
10
-20.8474177818
20
-24.3544149645
0
LINE
5
2E1
100
AcDbEntity
8
0
100
AcDbLine
62
0
6
CONTINUOUS
10
-15.0805574961
20
-2.6679765917
11
-12.9805574961
21
-3.0382632512
0
LINE
5
2E2
100
AcDbEntity
8
0
100
AcDbLine
62
0
6
CONTINUOUS
10
-20.8487464320
20
25.9926966205
11
-20.8479891800
21
25.9877007610
0
LWPOLYLINE
5
2E3
100
AcDbEntity
8
0
100
AcDbPolyline
62
0
6
CONTINUOUS
90
9
70
0
10
-20.8479891800
20
25.9877007610
10
-20.8475717672
20
25.9844744691
10
-20.8470427229
20
25.9799149123
10
-20.8464645736
20
25.9744054932
10
-20.8458635737
20
25.9681157141
10
-20.8452468780
20
25.9610751067
10
-20.8446141142
20
25.9532361782
10
-20.8439738835
20
25.9446686475
10
-20.8433289711
20
25.9353856383
0
LINE
5
2E4
100
AcDbEntity
8
0
100
AcDbLine
62
0
6
CONTINUOUS
10
-15.0805574961
20
41.3206306121
11
-15.0805574961
21
-39.6918491916
0
LINE
5
2E5
100
AcDbEntity
8
0
100
AcDbLine
62
0
6
CONTINUOUS
10
-14.9805574961
20
4.3143907102
11
-14.9805574961
21
-2.6856092898
0
LINE
5
2E6
100
AcDbEntity
8
0
100
AcDbLine
62
0
6
CONTINUOUS
10
-13.4805574961
20
42.3143907102
11
-13.4805574961
21
4.5788811813
0
LINE
5
2E7
100
AcDbEntity
8
0
100
AcDbLine
62
0
6
CONTINUOUS
10
-13.4805574961
20
-2.9500997608
11
-13.4805574961
21
-40.6856092898
0
LINE
5
2E8
100
AcDbEntity
8
0
100
AcDbLine
62
0
6
CONTINUOUS
10
-12.9805574961
20
41.8143907102
11
-12.9805574961
21
4.6670446717
0
LINE
5
2E9
100
AcDbEntity
8
0
100
AcDbLine
62
0
6
CONTINUOUS
10
-12.9805574961
20
-3.0382632512
11
-12.9805574961
21
-40.1856092898
0
LWPOLYLINE
5
2EA
100
AcDbEntity
8
0
100
AcDbPolyline
62
0
6
CONTINUOUS
90
5
70
0
10
-21.9618190535
20
-24.8795076160
10
-21.9690825532
20
-24.8972607446
10
-21.9746122489
20
-24.9156292755
10
-21.9783569169
20
-24.9344442925
10
-21.9802817795
20
-24.9535331436
0
LINE
5
2EB
100
AcDbEntity
8
0
100
AcDbLine
62
0
6
CONTINUOUS
10
-20.9863013257
20
-22.7875030977
11
-21.9618243842
21
-24.8795190476
0
LINE
5
2EC
100
AcDbEntity
8
0
100
AcDbLine
62
0
6
CONTINUOUS
10
-21.9619992846
20
26.5086755432
11
-20.9730113420
21
24.3877840561
0
LINE
5
2ED
100
AcDbEntity
8
0
100
AcDbLine
62
0
6
CONTINUOUS
10
-21.9690823874
20
26.5260416970
11
-21.9618190535
21
26.5082890365
0
LINE
5
2EE
100
AcDbEntity
8
0
100
AcDbLine
62
0
6
CONTINUOUS
10
-15.0805574961
20
4.2967580122
11
-12.9805574961
21
4.6670446717
0
LINE
5
2EF
100
AcDbEntity
8
0
100
AcDbLine
62
9
6
CONTINUOUS
10
-20.8392482099
20
24.7334525451
11
-20.9321807206
21
24.7334525452
0
LINE
5
2F0
100
AcDbEntity
8
0
100
AcDbLine
62
0
6
CONTINUOUS
10
-12.9805574961
20
-40.1856092898
11
-13.4805574961
21
-40.6856092898
0
LWPOLYLINE
5
2F1
100
AcDbEntity
8
0
100
AcDbPolyline
62
0
6
CONTINUOUS
90
12
70
0
10
-21.8857910917
20
27.9250460965
10
-21.8876034577
20
27.9249346063
10
-21.9036763820
20
27.9224740321
10
-21.9191380684
20
27.9174411477
10
-21.9335797317
20
27.9099690057
10
-21.9466195241
20
27.9002551646
10
-21.9579126554
20
27.8885564757
10
-21.9671605587
20
27.8751822382
10
-21.9741187212
20
27.8604860766
10
-21.9786031671
20
27.8448566373
10
-21.9804953821
20
27.8287071897
10
-21.9805574960
20
27.8251831430
0
LINE
5
2F2
100
AcDbEntity
8
0
100
AcDbLine
62
0
6
CONTINUOUS
10
-21.7556863639
20
27.9318645973
11
-21.8857910917
21
27.9250460974
0
LINE
5
2F3
100
AcDbEntity
8
0
100
AcDbLine
62
0
6
CONTINUOUS
10
-13.4805574961
20
42.3143907102
11
-12.9805574961
21
41.8143907102
0
LINE
5
2F4
100
AcDbEntity
8
0
100
AcDbLine
62
0
6
CONTINUOUS
10
-15.0892380303
20
42.2300833359
11
-13.4805574961
21
42.3143907102
0
LINE
5
2F5
100
AcDbEntity
8
0
100
AcDbLine
62
0
6
CONTINUOUS
10
-16.9805574961
20
43.2143793962
11
-21.0276609277
21
43.0022796929
0
LINE
5
2F6
100
AcDbEntity
8
0
100
AcDbLine
62
9
6
CONTINUOUS
10
-19.3565236310
20
41.0969621471
11
-15.0805574961
21
41.3206306121
0
LINE
5
2F7
100
AcDbEntity
8
0
100
AcDbLine
62
9
6
CONTINUOUS
10
-19.3891594554
20
42.9926477244
11
-15.1500045817
21
43.2143906951
0
LINE
5
2F8
100
AcDbEntity
8
0
100
AcDbLine
62
9
6
CONTINUOUS
10
-19.3565236310
20
41.0969621471
11
-20.2089361174
21
41.0969621471
0
LINE
5
2F9
100
AcDbEntity
8
0
100
AcDbLine
62
9
6
CONTINUOUS
10
-15.0805574961
20
41.3143907102
11
-12.9805574961
21
41.3143907102
0
LINE
5
2FA
100
AcDbEntity
8
0
100
AcDbLine
62
9
6
CONTINUOUS
10
-21.8805574961
20
42.1035148955
11
-20.2415815010
21
42.0938827543
0
ARC
5
2FB
100
AcDbEntity
8
0
100
AcDbCircle
62
0
6
CONTINUOUS
10
-20.9805585811
20
42.1035133791
40
0.9000000000
100
AcDbArc
50
93.0000000000
51
180.0000000015
0
ARC
5
2FC
100
AcDbEntity
8
0
100
AcDbCircle
62
0
6
CONTINUOUS
10
-20.9805585811
20
-40.4747319586
40
0.9000000000
100
AcDbArc
50
179.9999999985
51
267.0000000000
0
SPLINE
5
2FD
100
AcDbEntity
8
0
100
AcDbSpline
62
0
6
CONTINUOUS
70
0
71
3
72
13
73
9
74
7
42
0.0000001000
43
0.0000001000
44
0.0000000001
12
1.5982006525
22
-0.0000013751
32
0.0000000000
13
-1.4979744831
23
-0.5570615108
33
0.0000000000
40
0.0000000000
40
0.0000000000
40
0.0000000000
40
0.0000000000
40
0.2256552346
40
0.3632765826
40
0.5068414100
40
0.6481250761
40
0.7809164845
40
1.0000000000
40
1.0000000000
40
1.0000000000
40
1.0000000000
10
123.4765263165
20
-22.5274621843
30
0.0000000000
10
123.5967404309
20
-22.5274622877
30
0.0000000000
10
123.7957331757
20
-22.5811799734
30
0.0000000000
10
124.0010358791
20
-22.7646115867
30
0.0000000000
10
124.1005683898
20
-22.9747311951
30
0.0000000000
10
124.0981080650
20
-23.2050829738
30
0.0000000000
10
123.9840096903
20
-23.4487232502
30
0.0000000000
10
123.8208190960
20
-23.5664430148
30
0.0000000000
10
123.7114252574
20
-23.6071240128
30
0.0000000000
11
123.4765263165
21
-22.5274621843
31
0.0000000000
11
123.8239522291
21
-22.6241995968
31
0.0000000000
11
123.9872137890
21
-22.7715838898
31
0.0000000000
11
124.0836324298
21
-22.9797872242
31
0.0000000000
11
124.0816367999
21
-23.2055780329
31
0.0000000000
11
123.9923275473
21
-23.3980988966
31
0.0000000000
11
123.7114252574
21
-23.6071240128
31
0.0000000000
0
SPLINE
5
2FE
100
AcDbEntity
8
0
100
AcDbSpline
62
0
6
CONTINUOUS
70
0
71
3
72
13
73
9
74
7
42
0.0000001000
43
0.0000001000
44
0.0000000001
12
0.7427842534
22
0.0000022428
32
0.0000000000
13
-0.7427839028
23
-0.0000002186
33
0.0000000000
40
0.0000000000
40
0.0000000000
40
0.0000000000
40
0.0000000000
40
0.2559145766
40
0.3844868730
40
0.4999994372
40
0.6155120013
40
0.7440842977
40
1.0000000000
40
1.0000000000
40
1.0000000000
40
1.0000000000
10
123.4261909519
20
-23.3182004752
30
0.0000000000
10
123.4895540578
20
-23.3182002839
30
0.0000000000
10
123.5898586188
20
-23.2823414814
30
0.0000000000
10
123.6647426678
20
-23.1797240689
30
0.0000000000
10
123.6840795720
20
-23.0901028913
30
0.0000000000
10
123.6647426678
20
-23.0004817137
30
0.0000000000
10
123.5898584502
20
-22.8978640702
30
0.0000000000
10
123.4895534705
20
-22.8620052887
30
0.0000000000
10
123.4261901158
20
-22.8620053074
30
0.0000000000
11
123.4261909519
21
-23.3182004752
31
0.0000000000
11
123.6041532956
21
-23.2513922397
31
0.0000000000
11
123.6601972990
21
-23.1740644052
31
0.0000000000
11
123.6778680275
21
-23.0901028913
31
0.0000000000
11
123.6601972990
21
-23.0061413774
31
0.0000000000
11
123.6041532956
21
-22.9288135429
31
0.0000000000
11
123.4261901158
21
-22.8620053074
31
0.0000000000
0
SPLINE
5
2FF
100
AcDbEntity
8
0
100
AcDbSpline
62
0
6
CONTINUOUS
70
0
71
3
72
11
73
7
74
5
42
0.0000001000
43
0.0000001000
44
0.0000000001
12
0.0000000000
22
-0.3117550263
32
0.0000000000
13
0.3117550263
23
0.0000000000
33
0.0000000000
40
0.0000000000
40
0.0000000000
40
0.0000000000
40
0.0000000000
40
0.2501860846
40
0.4991544505
40
0.7498735201
40
1.0000000000
40
1.0000000000
40
1.0000000000
40
1.0000000000
10
41.0765254229
20
-21.4858833828
30
0.0000000000
10
41.0765254229
20
-21.5118823059
30
0.0000000000
10
41.0868853124
20
-21.5643253644
30
0.0000000000
10
41.1312647022
20
-21.6307353240
30
0.0000000000
10
41.1976404535
20
-21.6752201236
30
0.0000000000
10
41.2502586008
20
-21.6856092898
30
0.0000000000
10
41.2762513299
20
-21.6856092898
30
0.0000000000
11
41.0765254229
21
-21.4858833828
31
0.0000000000
11
41.0917293413
21
-21.5623839508
31
0.0000000000
11
41.1348007184
21
-21.6269538881
31
0.0000000000
11
41.1997682672
21
-21.6704126186
31
0.0000000000
11
41.2762513299
21
-21.6856092898
31
0.0000000000
0
SPLINE
5
300
100
AcDbEntity
8
0
100
AcDbSpline
62
0
6
CONTINUOUS
70
0
71
3
72
11
73
7
74
5
42
0.0000001000
43
0.0000001000
44
0.0000000001
12
0.3117550263
22
0.0000000000
32
0.0000000000
13
0.0000000000
23
0.3117550263
33
0.0000000000
40
0.0000000000
40
0.0000000000
40
0.0000000000
40
0.0000000000
40
0.2501860846
40
0.4991544505
40
0.7498735201
40
1.0000000000
40
1.0000000000
40
1.0000000000
40
1.0000000000
10
198.3767995160
20
-21.6856092898
30
0.0000000000
10
198.4027984391
20
-21.6856092898
30
0.0000000000
10
198.4552414975
20
-21.6752494003
30
0.0000000000
10
198.5216514572
20
-21.6308700105
30
0.0000000000
10
198.5661362568
20
-21.5644942592
30
0.0000000000
10
198.5765254229
20
-21.5118761119
30
0.0000000000
10
198.5765254229
20
-21.4858833828
30
0.0000000000
11
198.3767995160
21
-21.6856092898
31
0.0000000000
11
198.4533000839
21
-21.6704053714
31
0.0000000000
11
198.5178700213
21
-21.6273339943
31
0.0000000000
11
198.5613287518
21
-21.5623664455
31
0.0000000000
11
198.5765254229
21
-21.4858833828
31
0.0000000000
0
SPLINE
5
301
100
AcDbEntity
8
0
100
AcDbSpline
62
0
6
CONTINUOUS
70
0
71
3
72
11
73
7
74
5
42
0.0000001000
43
0.0000001000
44
0.0000000001
12
0.0000000000
22
0.3117550263
32
0.0000000000
13
-0.3117550263
23
0.0000000000
33
0.0000000000
40
0.0000000000
40
0.0000000000
40
0.0000000000
40
0.0000000000
40
0.2501860846
40
0.4991544505
40
0.7498735201
40
1.0000000000
40
1.0000000000
40
1.0000000000
40
1.0000000000
10
198.5765254229
20
23.1146648033
30
0.0000000000
10
198.5765254229
20
23.1406637264
30
0.0000000000
10
198.5661655335
20
23.1931067848
30
0.0000000000
10
198.5217861436
20
23.2595167445
30
0.0000000000
10
198.4554103923
20
23.3040015441
30
0.0000000000
10
198.4027922451
20
23.3143907102
30
0.0000000000
10
198.3767995160
20
23.3143907102
30
0.0000000000
11
198.5765254229
21
23.1146648033
31
0.0000000000
11
198.5613215046
21
23.1911653712
31
0.0000000000
11
198.5182501274
21
23.2557353086
31
0.0000000000
11
198.4532825787
21
23.2991940391
31
0.0000000000
11
198.3767995160
21
23.3143907102
31
0.0000000000
0
SPLINE
5
302
100
AcDbEntity
8
0
100
AcDbSpline
62
0
6
CONTINUOUS
70
0
71
3
72
11
73
7
74
5
42
0.0000001000
43
0.0000001000
44
0.0000000001
12
-0.3117550263
22
0.0000000000
32
0.0000000000
13
0.0000000000
23
-0.3117550263
33
0.0000000000
40
0.0000000000
40
0.0000000000
40
0.0000000000
40
0.0000000000
40
0.2501860846
40
0.4991544505
40
0.7498735201
40
1.0000000000
40
1.0000000000
40
1.0000000000
40
1.0000000000
10
41.2762513299
20
23.3143907102
30
0.0000000000
10
41.2502524068
20
23.3143907102
30
0.0000000000
10
41.1978093483
20
23.3040308208
30
0.0000000000
10
41.1313993887
20
23.2596514309
30
0.0000000000
10
41.0869145891
20
23.1932756796
30
0.0000000000
10
41.0765254229
20
23.1406575324
30
0.0000000000
10
41.0765254229
20
23.1146648033
30
0.0000000000
11
41.2762513299
21
23.3143907102
31
0.0000000000
11
41.1997507619
21
23.2991867919
31
0.0000000000
11
41.1351808246
21
23.2561154147
31
0.0000000000
11
41.0917220941
21
23.1911478660
31
0.0000000000
11
41.0765254229
21
23.1146648033
31
0.0000000000
0
SPLINE
5
303
100
AcDbEntity
8
0
100
AcDbSpline
62
9
6
CONTINUOUS
70
0
71
3
72
10
73
6
74
4
42
0.0000001000
43
0.0000001000
44
0.0000000001
12
0.0430356380
22
-0.1014537260
32
0.0000000000
13
-0.0058205427
23
-0.1104570973
33
0.0000000000
40
0.0000000000
40
0.0000000000
40
0.0000000000
40
0.0000000000
40
0.1648432526
40
0.5633132368
40
1.0000000000
40
1.0000000000
40
1.0000000000
40
1.0000000000
10
40.0300091238
20
-24.1758921687
30
0.0000000000
10
40.0323738353
20
-24.1814668228
30
0.0000000000
10
40.0292746761
20
-24.2031480260
30
0.0000000000
10
40.0307062331
20
-24.2391685315
30
0.0000000000
10
40.0292680804
20
-24.2699099440
30
0.0000000000
10
40.0284208291
20
-24.2859883281
30
0.0000000000
11
40.0300091238
21
-24.1758921687
31
0.0000000000
11
40.0308944585
21
-24.1940369707
31
0.0000000000
11
40.0300519728
21
-24.2379418799
31
0.0000000000
11
40.0284208291
21
-24.2859883281
31
0.0000000000
0
SPLINE
5
304
100
AcDbEntity
8
0
100
AcDbSpline
62
9
6
CONTINUOUS
70
0
71
3
72
19
73
15
74
13
42
0.0000001000
43
0.0000001000
44
0.0000000001
12
-1.5098057205
22
0.0821227512
32
0.0000000000
13
0.0007753300
23
1.5120373205
33
0.0000000000
40
0.0000000000
40
0.0000000000
40
0.0000000000
40
0.0000000000
40
0.0660796885
40
0.1428470022
40
0.2275638826
40
0.3180012152
40
0.4118639138
40
0.5068975313
40
0.6011192592
40
0.6928437166
40
0.7803323214
40
0.8618858785
40
0.9348718322
40
1.0000000000
40
1.0000000000
40
1.0000000000
40
1.0000000000
10
40.0300091238
20
-24.1758921687
30
0.0000000000
10
39.9967532932
20
-24.1740832868
30
0.0000000000
10
39.9250102823
20
-24.1665902032
30
0.0000000000
10
39.8126342766
20
-24.1424237204
30
0.0000000000
10
39.6923411843
20
-24.1007022963
30
0.0000000000
10
39.5708614157
20
-24.0395271997
30
0.0000000000
10
39.4547787786
20
-23.9590221307
30
0.0000000000
10
39.3499984919
20
-23.8614234845
30
0.0000000000
10
39.2609879680
20
-23.7506502812
30
0.0000000000
10
39.1904482053
20
-23.6317343284
30
0.0000000000
10
39.1392267704
20
-23.5102755230
30
0.0000000000
10
39.1065312649
20
-23.3924256601
30
0.0000000000
10
39.0895822036
20
-23.2827951107
30
0.0000000000
10
39.0861852572
20
-23.2131359311
30
0.0000000000
10
39.0862020892
20
-23.1803105243
30
0.0000000000
11
40.0300091238
21
-24.1758921687
31
0.0000000000
11
39.9306352265
21
-24.1655080740
31
0.0000000000
11
39.8171555137
21
-24.1410995919
31
0.0000000000
11
39.6961353174
21
-24.0991178437
31
0.0000000000
11
39.5740057972
21
-24.0376078700
31
0.0000000000
11
39.4573863901
21
-23.9567233010
31
0.0000000000
11
39.3522418989
21
-23.8587808933
31
0.0000000000
11
39.2630046498
21
-23.7477246060
31
0.0000000000
11
39.1922450039
21
-23.6284425187
31
0.0000000000
11
39.1408383039
21
-23.5065534257
31
0.0000000000
11
39.1078671124
21
-23.3877310401
31
0.0000000000
11
39.0910032085
21
-23.2786696508
31
0.0000000000
11
39.0862020892
21
-23.1803105243
31
0.0000000000
0
SPLINE
5
305
100
AcDbEntity
8
0
100
AcDbSpline
62
9
6
CONTINUOUS
70
0
71
3
72
10
73
6
74
4
42
0.0000001000
43
0.0000001000
44
0.0000000001
12
-0.0430356369
22
-0.1014537146
32
0.0000000000
13
0.0058205419
23
-0.1104570863
33
0.0000000000
40
0.0000000000
40
0.0000000000
40
0.0000000000
40
0.0000000000
40
0.1648432565
40
0.5633132533
40
1.0000000000
40
1.0000000000
40
1.0000000000
40
1.0000000000
10
199.6230417226
20
-24.1758921797
30
0.0000000000
10
199.6206770111
20
-24.1814668333
30
0.0000000000
10
199.6237761702
20
-24.2031480351
30
0.0000000000
10
199.6223446131
20
-24.2391685369
30
0.0000000000
10
199.6237827655
20
-24.2699099462
30
0.0000000000
10
199.6246300167
20
-24.2859883281
30
0.0000000000
11
199.6230417226
21
-24.1758921797
31
0.0000000000
11
199.6221563878
21
-24.1940369803
31
0.0000000000
11
199.6229988734
21
-24.2379418865
31
0.0000000000
11
199.6246300167
21
-24.2859883281
31
0.0000000000
0
SPLINE
5
306
100
AcDbEntity
8
0
100
AcDbSpline
62
9
6
CONTINUOUS
70
0
71
3
72
19
73
15
74
13
42
0.0000001000
43
0.0000001000
44
0.0000000001
12
-159.4307693093
22
-8.7969036138
32
0.0000000000
13
-159.4307693089
23
8.7969036199
33
0.0000000000
40
0.0000000000
40
0.0000000000
40
0.0000000000
40
0.0000000000
40
0.0648147302
40
0.1359946535
40
0.2150304413
40
0.3033939405
40
0.3989771013
40
0.4967449446
40
0.5952675221
40
0.6931197709
40
0.7835771334
40
0.8632768443
40
0.9346074952
40
1.0000000000
40
1.0000000000
40
1.0000000000
40
1.0000000000
10
199.6230417226
20
-24.1758921797
30
0.0000000000
10
196.1785542897
20
-24.3659484911
30
0.0000000000
10
188.9498604334
20
-24.7389125636
30
0.0000000000
10
177.5159791881
20
-25.2429296073
30
0.0000000000
10
164.8256991820
20
-25.6970642798
30
0.0000000000
10
150.8333187738
20
-26.0685591035
30
0.0000000000
10
135.8409650215
20
-26.3145610804
30
0.0000000000
10
120.3061169851
20
-26.4038918570
30
0.0000000000
10
104.6504358919
20
-26.3244541956
30
0.0000000000
10
89.3855880658
20
-26.0817563490
30
0.0000000000
10
75.1256327297
20
-25.7069945421
30
0.0000000000
10
62.2805896278
20
-25.2488254066
30
0.0000000000
10
50.7726317595
20
-24.7423733526
30
0.0000000000
10
43.5052015712
20
-24.3676427004
30
0.0000000000
10
40.0300091232
20
-24.1758921797
30
0.0000000000
11
199.6230417226
21
-24.1758921797
31
0.0000000000
11
189.2876086049
21
-24.7091444291
31
0.0000000000
11
177.9331031493
21
-25.2096606131
31
0.0000000000
11
165.3212729960
21
-25.6609915961
31
0.0000000000
11
151.2169537044
21
-26.0354645720
31
0.0000000000
11
135.9569311789
21
-26.2858535886
31
0.0000000000
11
120.3462771659
21
-26.3756059062
31
0.0000000000
11
104.6150566839
21
-26.2957985039
31
0.0000000000
11
88.9926416734
21
-26.0474221307
31
0.0000000000
11
74.5540035956
21
-25.6679578528
31
0.0000000000
11
61.8361773428
21
-25.2143225341
31
0.0000000000
11
50.4575919830
21
-24.7135658893
31
0.0000000000
11
40.0300091232
21
-24.1758921797
31
0.0000000000
0
SPLINE
5
307
100
AcDbEntity
8
0
100
AcDbSpline
62
9
6
CONTINUOUS
70
0
71
3
72
19
73
15
74
13
42
0.0000001000
43
0.0000001000
44
0.0000000001
12
0.0007739305
22
-1.5120374511
32
0.0000000000
13
-1.5098056973
23
-0.0821255677
33
0.0000000000
40
0.0000000000
40
0.0000000000
40
0.0000000000
40
0.0000000000
40
0.0636059921
40
0.1340640177
40
0.2133429647
40
0.2987939437
40
0.3889376673
40
0.4822586246
40
0.5773010624
40
0.6720981324
40
0.7642553753
40
0.8513018854
40
0.9308393208
40
1.0000000000
40
1.0000000000
40
1.0000000000
40
1.0000000000
10
200.5668489080
20
-23.1803105243
30
0.0000000000
10
200.5668653169
20
-23.2123687383
30
0.0000000000
10
200.5636460566
20
-23.2799834715
30
0.0000000000
10
200.5476376462
20
-23.3865111158
30
0.0000000000
10
200.5167742555
20
-23.5012611079
30
0.0000000000
10
200.4680469605
20
-23.6205108210
30
0.0000000000
10
200.4003177064
20
-23.7384039803
30
0.0000000000
10
200.3138457887
20
-23.8495782228
30
0.0000000000
10
200.2106748907
20
-23.9489078641
30
0.0000000000
10
200.0947732692
20
-24.0320236328
30
0.0000000000
10
199.9718945240
20
-24.0960317764
30
0.0000000000
10
199.8487879869
20
-24.1401997066
30
0.0000000000
10
199.7325253217
20
-24.1660241781
30
0.0000000000
10
199.6578481144
20
-24.1739988209
30
0.0000000000
10
199.6230417186
20
-24.1758921075
30
0.0000000000
11
200.5668489080
21
-23.1803105243
31
0.0000000000
11
200.5622708396
21
-23.2763761555
31
0.0000000000
11
200.5464365415
21
-23.3817280475
31
0.0000000000
11
200.5152967188
21
-23.4974855020
31
0.0000000000
11
200.4664208989
21
-23.6170894796
31
0.0000000000
11
200.3985214321
21
-23.7352738452
31
0.0000000000
11
200.3118895973
21
-23.8466537807
31
0.0000000000
11
200.2083658305
21
-23.9463269739
31
0.0000000000
11
200.0918877753
21
-24.0298630942
31
0.0000000000
11
199.9683073607
21
-24.0942445490
31
0.0000000000
11
199.8444246280
21
-24.1386997094
31
0.0000000000
11
199.7270234216
21
-24.1647820685
31
0.0000000000
11
199.6230417186
21
-24.1758921075
31
0.0000000000
0
SPLINE
5
308
100
AcDbEntity
8
0
100
AcDbSpline
62
9
6
CONTINUOUS
70
0
71
3
72
11
73
7
74
5
42
0.0000001000
43
0.0000001000
44
0.0000000001
12
-0.2533909785
22
0.2532878275
32
0.0000000000
13
-0.0105578539
23
0.3581204312
33
0.0000000000
40
0.0000000000
40
0.0000000000
40
0.0000000000
40
0.0000000000
40
0.0911739412
40
0.2968537134
40
0.6054347930
40
1.0000000000
40
1.0000000000
40
1.0000000000
40
1.0000000000
10
41.0121017516
20
23.1790884746
30
0.0000000000
10
41.0044008669
20
23.1867862244
30
0.0000000000
10
41.0026855969
20
23.2262364676
30
0.0000000000
10
40.9917089599
20
23.2946178151
30
0.0000000000
10
40.9871175827
20
23.4047843823
30
0.0000000000
10
40.9834269224
20
23.4881595422
30
0.0000000000
10
40.9820383352
20
23.5352601629
30
0.0000000000
11
41.0121017516
21
23.1790884746
31
0.0000000000
11
41.0030013418
21
23.2104606492
31
0.0000000000
11
40.9946504171
21
23.2836760681
31
0.0000000000
11
40.9875253230
21
23.3940034365
31
0.0000000000
11
40.9820383352
21
23.5352601629
31
0.0000000000
0
SPLINE
5
309
100
AcDbEntity
8
0
100
AcDbSpline
62
9
6
CONTINUOUS
70
0
71
3
72
13
73
9
74
7
42
0.0000001000
43
0.0000001000
44
0.0000000001
12
-0.2533051932
22
-0.2535756760
32
0.0000000000
13
-0.0105469508
23
-0.3582637383
33
0.0000000000
40
0.0000000000
40
0.0000000000
40
0.0000000000
40
0.0000000000
40
0.0424414981
40
0.1380228074
40
0.2903581136
40
0.4934231321
40
0.7352722381
40
1.0000000000
40
1.0000000000
40
1.0000000000
40
1.0000000000
10
41.0121017516
20
-21.5503070541
30
0.0000000000
10
41.0085182010
20
-21.5538944313
30
0.0000000000
10
41.0050634322
20
-21.5712721175
30
0.0000000000
10
40.9990019224
20
-21.6044372234
30
0.0000000000
10
40.9941582816
20
-21.6586763163
30
0.0000000000
10
40.9891375326
20
-21.7296239771
30
0.0000000000
10
40.9850844798
20
-21.8143995612
30
0.0000000000
10
40.9829690254
20
-21.8748646232
30
0.0000000000
10
40.9820383352
20
-21.9064787424
30
0.0000000000
11
41.0121017516
21
-21.5503070541
31
0.0000000000
11
41.0064477619
21
-21.5644291075
31
0.0000000000
11
41.0005602228
21
-21.5981775579
31
0.0000000000
11
40.9948555141
21
-21.6524785807
31
0.0000000000
11
40.9897133508
21
-21.7250790543
31
0.0000000000
11
40.9853924344
21
-21.8116545974
31
0.0000000000
11
40.9820383352
21
-21.9064787424
31
0.0000000000
0
SPLINE
5
30A
100
AcDbEntity
8
0
100
AcDbSpline
62
9
6
CONTINUOUS
70
0
71
3
72
10
73
6
74
4
42
0.0000001000
43
0.0000001000
44
0.0000000001
12
-0.0430356380
22
0.1014537261
32
0.0000000000
13
0.0058205427
23
0.1104570973
33
0.0000000000
40
0.0000000000
40
0.0000000000
40
0.0000000000
40
0.0000000000
40
0.1648432526
40
0.5633132367
40
1.0000000000
40
1.0000000000
40
1.0000000000
40
1.0000000000
10
199.6230417221
20
25.8046735891
30
0.0000000000
10
199.6206770105
20
25.8102482432
30
0.0000000000
10
199.6237761697
20
25.8319294465
30
0.0000000000
10
199.6223446127
20
25.8679499520
30
0.0000000000
10
199.6237827654
20
25.8986913644
30
0.0000000000
10
199.6246300167
20
25.9147697485
30
0.0000000000
11
199.6230417221
21
25.8046735891
31
0.0000000000
11
199.6221563873
21
25.8228183911
31
0.0000000000
11
199.6229988731
21
25.8667233003
31
0.0000000000
11
199.6246300167
21
25.9147697485
31
0.0000000000
0
SPLINE
5
30B
100
AcDbEntity
8
0
100
AcDbSpline
62
9
6
CONTINUOUS
70
0
71
3
72
13
73
9
74
7
42
0.0000001000
43
0.0000001000
44
0.0000000001
12
0.2533051932
22
0.2535756760
32
0.0000000000
13
0.0105469508
23
0.3582637383
33
0.0000000000
40
0.0000000000
40
0.0000000000
40
0.0000000000
40
0.0000000000
40
0.0424414981
40
0.1380228074
40
0.2903581136
40
0.4934231321
40
0.7352722381
40
1.0000000000
40
1.0000000000
40
1.0000000000
40
1.0000000000
10
198.6409490942
20
23.1790884746
30
0.0000000000
10
198.6445326449
20
23.1826758518
30
0.0000000000
10
198.6479874137
20
23.2000535380
30
0.0000000000
10
198.6540489235
20
23.2332186438
30
0.0000000000
10
198.6588925643
20
23.2874577368
30
0.0000000000
10
198.6639133132
20
23.3584053976
30
0.0000000000
10
198.6679663661
20
23.4431809817
30
0.0000000000
10
198.6700818205
20
23.5036460437
30
0.0000000000
10
198.6710125107
20
23.5352601629
30
0.0000000000
11
198.6409490942
21
23.1790884746
31
0.0000000000
11
198.6466030840
21
23.1932105280
31
0.0000000000
11
198.6524906230
21
23.2269589784
31
0.0000000000
11
198.6581953318
21
23.2812600012
31
0.0000000000
11
198.6633374951
21
23.3538604747
31
0.0000000000
11
198.6676584115
21
23.4404360179
31
0.0000000000
11
198.6710125107
21
23.5352601629
31
0.0000000000
0
SPLINE
5
30C
100
AcDbEntity
8
0
100
AcDbSpline
62
9
6
CONTINUOUS
70
0
71
3
72
11
73
7
74
5
42
0.0000001000
43
0.0000001000
44
0.0000000001
12
0.2533909785
22
-0.2532878275
32
0.0000000000
13
0.0105578539
23
-0.3581204312
33
0.0000000000
40
0.0000000000
40
0.0000000000
40
0.0000000000
40
0.0000000000
40
0.0911739412
40
0.2968537134
40
0.6054347930
40
1.0000000000
40
1.0000000000
40
1.0000000000
40
1.0000000000
10
198.6409490942
20
-21.5503070541
30
0.0000000000
10
198.6486499790
20
-21.5580048040
30
0.0000000000
10
198.6503652490
20
-21.5974550471
30
0.0000000000
10
198.6613418860
20
-21.6658363947
30
0.0000000000
10
198.6659332631
20
-21.7760029619
30
0.0000000000
10
198.6696239234
20
-21.8593781217
30
0.0000000000
10
198.6710125107
20
-21.9064787424
30
0.0000000000
11
198.6409490942
21
-21.5503070541
31
0.0000000000
11
198.6500495041
21
-21.5816792288
31
0.0000000000
11
198.6584004288
21
-21.6548946476
31
0.0000000000
11
198.6655255229
21
-21.7652220160
31
0.0000000000
11
198.6710125107
21
-21.9064787424
31
0.0000000000
0
SPLINE
5
30D
100
AcDbEntity
8
0
100
AcDbSpline
62
9
6
CONTINUOUS
70
0
71
3
72
19
73
15
74
13
42
0.0000001000
43
0.0000001000
44
0.0000000001
12
1.5098057205
22
-0.0821227512
32
0.0000000000
13
-0.0007753300
23
-1.5120373206
33
0.0000000000
40
0.0000000000
40
0.0000000000
40
0.0000000000
40
0.0000000000
40
0.0660796885
40
0.1428470022
40
0.2275638826
40
0.3180012152
40
0.4118639138
40
0.5068975313
40
0.6011192592
40
0.6928437166
40
0.7803323214
40
0.8618858785
40
0.9348718322
40
1.0000000000
40
1.0000000000
40
1.0000000000
40
1.0000000000
10
199.6230417221
20
25.8046735891
30
0.0000000000
10
199.6562975526
20
25.8028647072
30
0.0000000000
10
199.7280405635
20
25.7953716236
30
0.0000000000
10
199.8404165693
20
25.7712051409
30
0.0000000000
10
199.9607096616
20
25.7294837168
30
0.0000000000
10
200.0821894301
20
25.6683086202
30
0.0000000000
10
200.1982720673
20
25.5878035511
30
0.0000000000
10
200.3030523540
20
25.4902049050
30
0.0000000000
10
200.3920628778
20
25.3794317017
30
0.0000000000
10
200.4626026406
20
25.2605157488
30
0.0000000000
10
200.5138240754
20
25.1390569435
30
0.0000000000
10
200.5465195810
20
25.0212070806
30
0.0000000000
10
200.5634686423
20
24.9115765312
30
0.0000000000
10
200.5668655886
20
24.8419173515
30
0.0000000000
10
200.5668487567
20
24.8090919448
30
0.0000000000
11
199.6230417221
21
25.8046735891
31
0.0000000000
11
199.7224156194
21
25.7942894945
31
0.0000000000
11
199.8358953322
21
25.7698810124
31
0.0000000000
11
199.9569155285
21
25.7278992641
31
0.0000000000
11
200.0790450487
21
25.6663892905
31
0.0000000000
11
200.1956644557
21
25.5855047215
31
0.0000000000
11
200.3008089469
21
25.4875623137
31
0.0000000000
11
200.3900461961
21
25.3765060264
31
0.0000000000
11
200.4608058420
21
25.2572239392
31
0.0000000000
11
200.5122125420
21
25.1353348462
31
0.0000000000
11
200.5451837335
21
25.0165124606
31
0.0000000000
11
200.5620476374
21
24.9074510713
31
0.0000000000
11
200.5668487567
21
24.8090919448
31
0.0000000000
0
SPLINE
5
30E
100
AcDbEntity
8
0
100
AcDbSpline
62
9
6
CONTINUOUS
70
0
71
3
72
15
73
11
74
9
42
0.0000001000
43
0.0000001000
44
0.0000000001
12
0.0393321407
22
-0.7432482532
32
0.0000000000
13
0.5424999298
23
-0.5095672765
33
0.0000000000
40
0.0000000000
40
0.0000000000
40
0.0000000000
40
0.0000000000
40
0.1684684825
40
0.3197123946
40
0.4566045345
40
0.5817769455
40
0.6971991129
40
0.8046990057
40
0.9055876258
40
1.0000000000
40
1.0000000000
40
1.0000000000
40
1.0000000000
10
198.4732857166
20
-22.0380385976
30
0.0000000000
10
198.4754944586
20
-22.0797765660
30
0.0000000000
10
198.4824107776
20
-22.1588735568
30
0.0000000000
10
198.5001411755
20
-22.2708460717
30
0.0000000000
10
198.5232375890
20
-22.3708408089
30
0.0000000000
10
198.5509787992
20
-22.4603854371
30
0.0000000000
10
198.5831226641
20
-22.5406536575
30
0.0000000000
10
198.6198111985
20
-22.6122758042
30
0.0000000000
10
198.6613063802
20
-22.6751098860
30
0.0000000000
10
198.6936494423
20
-22.7115223571
30
0.0000000000
10
198.7107223445
20
-22.7275588425
30
0.0000000000
11
198.4732857166
21
-22.0380385976
31
0.0000000000
11
198.4843101059
21
-22.1629421275
31
0.0000000000
11
198.5020521089
21
-22.2741042423
31
0.0000000000
11
198.5251515650
21
-22.3733384029
31
0.0000000000
11
198.5529231007
21
-22.4622672427
31
0.0000000000
11
198.5851068417
21
-22.5419182416
31
0.0000000000
11
198.6218765245
21
-22.6129797325
31
0.0000000000
11
198.6636827713
21
-22.6753558327
31
0.0000000000
11
198.7107223445
21
-22.7275588425
31
0.0000000000
0
SPLINE
5
30F
100
AcDbEntity
8
0
100
AcDbSpline
62
9
6
CONTINUOUS
70
0
71
3
72
12
73
8
74
6
42
0.0000001000
43
0.0000001000
44
0.0000000001
12
-157.6090273767
22
-8.6004600917
32
0.0000000000
13
-157.6090273611
23
8.6004603785
33
0.0000000000
40
0.0000000000
40
0.0000000000
40
0.0000000000
40
0.0000000000
40
0.2001123828
40
0.4000528134
40
0.5999331555
40
0.7998750164
40
1.0000000000
40
1.0000000000
40
1.0000000000
40
1.0000000000
10
198.7107223445
20
-22.7275588425
30
0.0000000000
10
188.1975496716
20
-23.3012450299
30
0.0000000000
10
167.1670290081
20
-24.2193901341
30
0.0000000000
10
135.6069867226
20
-24.9081694482
30
0.0000000000
10
104.0482040561
20
-24.9081935694
30
0.0000000000
10
72.4874226413
20
-24.2194442408
30
0.0000000000
10
51.4561634941
20
-23.3012808144
30
0.0000000000
10
40.9423288246
20
-22.7275584838
30
0.0000000000
11
198.7107223445
21
-22.7275588425
31
0.0000000000
11
167.1543289212
21
-24.1049743674
31
0.0000000000
11
135.6025402515
21
-24.7934500599
31
0.0000000000
11
104.0527256159
21
-24.7934742263
31
0.0000000000
11
72.5007102329
21
-24.1050394541
31
0.0000000000
11
40.9423288246
21
-22.7275584838
31
0.0000000000
0
SPLINE
5
310
100
AcDbEntity
8
0
100
AcDbSpline
62
9
6
CONTINUOUS
70
0
71
3
72
16
73
12
74
10
42
0.0000001000
43
0.0000001000
44
0.0000000001
12
-0.0393078664
22
-0.7432697553
32
0.0000000000
13
-0.5437334936
23
-0.5082803611
33
0.0000000000
40
0.0000000000
40
0.0000000000
40
0.0000000000
40
0.0000000000
40
0.1106510448
40
0.2251960752
40
0.3417951129
40
0.4587023071
40
0.5743096095
40
0.6871409612
40
0.7958208088
40
0.8997758602
40
1.0000000000
40
1.0000000000
40
1.0000000000
40
1.0000000000
10
41.1797651292
20
-22.0380385976
30
0.0000000000
10
41.1783153104
20
-22.0654531226
30
0.0000000000
10
41.1740993604
20
-22.1211887712
30
0.0000000000
10
41.1636577787
20
-22.2053780279
30
0.0000000000
10
41.1485556597
20
-22.2904442075
30
0.0000000000
10
41.1284894471
20
-22.3747594511
30
0.0000000000
10
41.1032263263
20
-22.4567052592
30
0.0000000000
10
41.0725895823
20
-22.5346305720
30
0.0000000000
10
41.0363491108
20
-22.6069452514
30
0.0000000000
10
40.9940487215
20
-22.6722298596
30
0.0000000000
10
40.9604938984
20
-22.7105778299
30
0.0000000000
10
40.9423288246
20
-22.7275584838
30
0.0000000000
11
41.1797651292
21
-22.0380385976
31
0.0000000000
11
41.1735291857
21
-22.1201606799
31
0.0000000000
11
41.1629916113
21
-22.2047637937
31
0.0000000000
11
41.1477488428
21
-22.2902003577
31
0.0000000000
11
41.1274933210
21
-22.3748249747
31
0.0000000000
11
41.1019862275
21
-22.4570050128
31
0.0000000000
11
41.0710357631
21
-22.5350750576
31
0.0000000000
11
41.0344978415
21
-22.6072442130
31
0.0000000000
11
40.9920022875
21
-22.6719045554
31
0.0000000000
11
40.9423288246
21
-22.7275584838
31
0.0000000000
0
SPLINE
5
311
100
AcDbEntity
8
0
100
AcDbSpline
62
9
6
CONTINUOUS
70
0
71
3
72
10
73
6
74
4
42
0.0000001000
43
0.0000001000
44
0.0000000001
12
0.0430356369
22
0.1014537146
32
0.0000000000
13
-0.0058205419
23
0.1104570863
33
0.0000000000
40
0.0000000000
40
0.0000000000
40
0.0000000000
40
0.0000000000
40
0.1648432565
40
0.5633132533
40
1.0000000000
40
1.0000000000
40
1.0000000000
40
1.0000000000
10
40.0300091232
20
25.8046736001
30
0.0000000000
10
40.0323738347
20
25.8102482537
30
0.0000000000
10
40.0292746757
20
25.8319294556
30
0.0000000000
10
40.0307062327
20
25.8679499574
30
0.0000000000
10
40.0292680803
20
25.8986913667
30
0.0000000000
10
40.0284208292
20
25.9147697486
30
0.0000000000
11
40.0300091232
21
25.8046736001
31
0.0000000000
11
40.0308944580
21
25.8228184007
31
0.0000000000
11
40.0300519724
21
25.8667233070
31
0.0000000000
11
40.0284208292
21
25.9147697486
31
0.0000000000
0
SPLINE
5
312
100
AcDbEntity
8
0
100
AcDbSpline
62
9
6
CONTINUOUS
70
0
71
3
72
19
73
15
74
13
42
0.0000001000
43
0.0000001000
44
0.0000000001
12
159.4307693863
22
8.7969036079
32
0.0000000000
13
159.4307693850
23
-8.7969036309
33
0.0000000000
40
0.0000000000
40
0.0000000000
40
0.0000000000
40
0.0000000000
40
0.0651987559
40
0.1367938694
40
0.2163051733
40
0.3052286358
40
0.4011856738
40
0.4990836419
40
0.5974999578
40
0.6949863446
40
0.7848403464
40
0.8640570499
40
0.9349834084
40
1.0000000000
40
1.0000000000
40
1.0000000000
40
1.0000000000
10
40.0300091232
20
25.8046736001
30
0.0000000000
10
43.4949050631
20
25.9958559905
30
0.0000000000
10
50.7660894347
20
26.3708580653
30
0.0000000000
10
62.2677867863
20
26.8771127790
30
0.0000000000
10
75.0352835391
20
27.3325490305
30
0.0000000000
10
89.1027176295
20
27.7036241008
30
0.0000000000
10
104.1517505941
20
27.9472023422
30
0.0000000000
10
119.7077909487
20
28.0327546533
30
0.0000000000
10
135.3452480757
20
27.9494680451
30
0.0000000000
10
150.5528028007
20
27.7042453418
30
0.0000000000
10
164.7354216694
20
27.3290679128
30
0.0000000000
10
177.5011212867
20
26.8722888912
30
0.0000000000
10
188.9418763358
20
26.3680637487
30
0.0000000000
10
196.1678266492
20
25.9953218304
30
0.0000000000
10
199.6230417227
20
25.8046736002
30
0.0000000000
11
40.0300091232
21
25.8046736001
31
0.0000000000
11
50.4266907910
21
26.3408652858
31
0.0000000000
11
61.8474595155
21
26.8435559758
31
0.0000000000
11
74.5352201595
21
27.2961517792
31
0.0000000000
11
88.7289835043
21
27.6705654345
31
0.0000000000
11
104.0487518331
21
27.9185202074
31
0.0000000000
11
119.6802050052
21
28.0044732177
31
0.0000000000
11
135.3944379841
21
27.9207916392
31
0.0000000000
11
150.9583857064
21
27.6698280277
31
0.0000000000
11
165.3006512218
21
27.2904208975
31
0.0000000000
11
177.9413522625
21
26.8381108125
31
0.0000000000
11
189.2554135942
21
26.3394712760
31
0.0000000000
11
199.6230417227
21
25.8046736002
31
0.0000000000
0
SPLINE
5
313
100
AcDbEntity
8
0
100
AcDbSpline
62
9
6
CONTINUOUS
70
0
71
3
72
19
73
15
74
13
42
0.0000001000
43
0.0000001000
44
0.0000000001
12
-0.0007739305
22
1.5120374511
32
0.0000000000
13
1.5098056973
23
0.0821255677
33
0.0000000000
40
0.0000000000
40
0.0000000000
40
0.0000000000
40
0.0000000000
40
0.0636059921
40
0.1340640176
40
0.2133429647
40
0.2987939437
40
0.3889376672
40
0.4822586246
40
0.5773010623
40
0.6720981324
40
0.7642553753
40
0.8513018853
40
0.9308393208
40
1.0000000000
40
1.0000000000
40
1.0000000000
40
1.0000000000
10
39.0862019378
20
24.8090919448
30
0.0000000000
10
39.0861855289
20
24.8411501588
30
0.0000000000
10
39.0894047892
20
24.9087648919
30
0.0000000000
10
39.1054131997
20
25.0152925363
30
0.0000000000
10
39.1362765903
20
25.1300425284
30
0.0000000000
10
39.1850038854
20
25.2492922415
30
0.0000000000
10
39.2527331394
20
25.3671854008
30
0.0000000000
10
39.3392050572
20
25.4783596432
30
0.0000000000
10
39.4423759551
20
25.5776892845
30
0.0000000000
10
39.5582775766
20
25.6608050533
30
0.0000000000
10
39.6811563218
20
25.7248131969
30
0.0000000000
10
39.8042628590
20
25.7689811271
30
0.0000000000
10
39.9205255242
20
25.7948055986
30
0.0000000000
10
39.9952027315
20
25.8027802413
30
0.0000000000
10
40.0300091273
20
25.8046735280
30
0.0000000000
11
39.0862019378
21
24.8090919448
31
0.0000000000
11
39.0907800063
21
24.9051575760
31
0.0000000000
11
39.1066143043
21
25.0105094680
31
0.0000000000
11
39.1377541271
21
25.1262669225
31
0.0000000000
11
39.1866299469
21
25.2458709001
31
0.0000000000
11
39.2545294138
21
25.3640552656
31
0.0000000000
11
39.3411612486
21
25.4754352012
31
0.0000000000
11
39.4446850153
21
25.5751083944
31
0.0000000000
11
39.5611630706
21
25.6586445147
31
0.0000000000
11
39.6847434852
21
25.7230259694
31
0.0000000000
11
39.8086262178
21
25.7674811298
31
0.0000000000
11
39.9260274243
21
25.7935634890
31
0.0000000000
11
40.0300091273
21
25.8046735280
31
0.0000000000
0
SPLINE
5
314
100
AcDbEntity
8
0
100
AcDbSpline
62
9
6
CONTINUOUS
70
0
71
3
72
10
73
6
74
4
42
0.0000001000
43
0.0000001000
44
0.0000000001
12
-0.0388744992
22
0.0918705750
32
0.0000000000
13
0.0054867878
23
0.0996058452
33
0.0000000000
40
0.0000000000
40
0.0000000000
40
0.0000000000
40
0.0000000000
40
0.1511523072
40
0.5147016543
40
1.0000000000
40
1.0000000000
40
1.0000000000
40
1.0000000000
10
40.1097075804
20
-24.1005983565
30
0.0000000000
10
40.1077489236
20
-24.0959695401
30
0.0000000000
10
40.1109879932
20
-24.0780099115
30
0.0000000000
10
40.1096399295
20
-24.0454578267
30
0.0000000000
10
40.1118791804
20
-24.0170332950
30
0.0000000000
10
40.1127667567
20
-24.0009204444
30
0.0000000000
11
40.1097075804
21
-24.1005983565
31
0.0000000000
11
40.1093121746
21
-24.0855250637
31
0.0000000000
11
40.1104246953
21
-24.0492755938
31
0.0000000000
11
40.1127667567
21
-24.0009204444
31
0.0000000000
0
SPLINE
5
315
100
AcDbEntity
8
0
100
AcDbSpline
62
9
6
CONTINUOUS
70
0
71
3
72
13
73
9
74
7
42
0.0000001000
43
0.0000001000
44
0.0000000001
12
-1.3558661565
22
0.0746315185
32
0.0000000000
13
0.0002068997
23
1.3579185746
33
0.0000000000
40
0.0000000000
40
0.0000000000
40
0.0000000000
40
0.0000000000
40
0.1665308382
40
0.3335132920
40
0.5003819333
40
0.6671403128
40
0.8338232210
40
1.0000000000
40
1.0000000000
40
1.0000000000
40
1.0000000000
10
40.1127667562
20
-24.0009204444
30
0.0000000000
10
40.0375022471
20
-23.9967776280
30
0.0000000000
10
39.8871343248
20
-23.9693574888
30
0.0000000000
10
39.6794404797
20
-23.8733483957
30
0.0000000000
10
39.5021516809
20
-23.7283195347
30
0.0000000000
10
39.3670307341
20
-23.5435345539
30
0.0000000000
10
39.2825996031
20
-23.3312431442
30
0.0000000000
10
39.2634897428
20
-23.1798893029
30
0.0000000000
10
39.2635012034
20
-23.1046711246
30
0.0000000000
11
40.1127667562
21
-24.0009204444
31
0.0000000000
11
39.8903139517
21
-23.9602764639
31
0.0000000000
11
39.6844816532
21
-23.8651555794
31
0.0000000000
11
39.5091293927
21
-23.7216409835
31
0.0000000000
11
39.3754404889
21
-23.5388725517
31
0.0000000000
11
39.2918274669
21
-23.3285407141
31
0.0000000000
11
39.2635012034
21
-23.1046711246
31
0.0000000000
0
SPLINE
5
316
100
AcDbEntity
8
0
100
AcDbSpline
62
9
6
CONTINUOUS
70
0
71
3
72
13
73
9
74
7
42
0.0000001000
43
0.0000001000
44
0.0000000001
12
-1.5062873901
22
0.0835705267
32
0.0000000000
13
-0.0002771810
23
1.5086038770
33
0.0000000000
40
0.0000000000
40
0.0000000000
40
0.0000000000
40
0.0000000000
40
0.1669687134
40
0.3337261732
40
0.5004086593
40
0.6669870062
40
0.8334635257
40
1.0000000000
40
1.0000000000
40
1.0000000000
40
1.0000000000
10
40.1097075804
20
-24.1005983565
30
0.0000000000
10
40.0258732912
20
-24.0959471354
30
0.0000000000
10
39.8587158890
20
-24.0653742186
30
0.0000000000
10
39.6280744479
20
-23.9584810710
30
0.0000000000
10
39.4314249079
20
-23.7974681301
30
0.0000000000
10
39.2814901063
20
-23.5924211377
30
0.0000000000
10
39.1875608260
20
-23.3566465351
30
0.0000000000
10
39.1662762873
20
-23.1884169853
30
0.0000000000
10
39.1662609004
20
-23.1046711283
30
0.0000000000
11
40.1097075804
21
-24.1005983565
31
0.0000000000
11
39.8619495367
21
-24.0551632497
31
0.0000000000
11
39.6336793532
21
-23.9494245695
31
0.0000000000
11
39.4391585750
21
-23.7900736465
31
0.0000000000
11
39.2907920428
21
-23.5872450584
31
0.0000000000
11
39.1978998724
21
-23.3539085544
31
0.0000000000
11
39.1662609004
21
-23.1046711283
31
0.0000000000
0
SPLINE
5
317
100
AcDbEntity
8
0
100
AcDbSpline
62
9
6
CONTINUOUS
70
0
71
3
72
10
73
6
74
4
42
0.0000001000
43
0.0000001000
44
0.0000000001
12
0.0388736420
22
0.0918993651
32
0.0000000000
13
-0.0054888155
23
0.0996319540
33
0.0000000000
40
0.0000000000
40
0.0000000000
40
0.0000000000
40
0.0000000000
40
0.1511627413
40
0.5147218573
40
1.0000000000
40
1.0000000000
40
1.0000000000
40
1.0000000000
10
199.5433447401
20
-24.1006245047
30
0.0000000000
10
199.5453034889
20
-24.0959939181
30
0.0000000000
10
199.5420640932
20
-24.0780293561
30
0.0000000000
10
199.5434116388
20
-24.0454683389
30
0.0000000000
10
199.5411719569
20
-24.0170368476
30
0.0000000000
10
199.5402840895
20
-24.0009204444
30
0.0000000000
11
199.5433447401
21
-24.1006245047
31
0.0000000000
11
199.5437400175
21
-24.0855462083
31
0.0000000000
11
199.5426269321
21
-24.0492862580
31
0.0000000000
11
199.5402840895
21
-24.0009204444
31
0.0000000000
0
SPLINE
5
318
100
AcDbEntity
8
0
100
AcDbSpline
62
9
6
CONTINUOUS
70
0
71
3
72
15
73
11
74
9
42
0.0000001000
43
0.0000001000
44
0.0000000001
12
-159.2649994428
22
-8.7795619532
32
0.0000000000
13
-159.2649994970
23
8.7795609692
33
0.0000000000
40
0.0000000000
40
0.0000000000
40
0.0000000000
40
0.0000000000
40
0.1046745614
40
0.2213558974
40
0.3525251295
40
0.5001185030
40
0.6478508571
40
0.7789039550
40
0.8954482399
40
1.0000000000
40
1.0000000000
40
1.0000000000
40
1.0000000000
10
199.5402840896
20
-24.0009204444
30
0.0000000000
10
193.9832861005
20
-24.3072527100
30
0.0000000000
10
182.2280304593
20
-24.8873362591
30
0.0000000000
10
163.4970556609
20
-25.5828352112
30
0.0000000000
10
142.4767779971
20
-26.0761750021
30
0.0000000000
10
119.8002329694
20
-26.2602733306
30
0.0000000000
10
97.1298663239
20
-26.0754596610
30
0.0000000000
10
76.1156782673
20
-25.5815267969
30
0.0000000000
10
57.4046967930
20
-24.8863752908
30
0.0000000000
10
45.6632454272
20
-24.3068932950
30
0.0000000000
10
40.1127667562
20
-24.0009204444
30
0.0000000000
11
199.5402840896
21
-24.0009204444
31
0.0000000000
11
182.8642700419
21
-24.8238119640
31
0.0000000000
11
164.2656200097
21
-25.5144083614
31
0.0000000000
11
143.3489951115
21
-26.0053268344
31
0.0000000000
11
119.8076231248
21
-26.1964016017
31
0.0000000000
11
96.2440899839
21
-26.0043514169
31
0.0000000000
11
75.3460013780
21
-25.5131359676
31
0.0000000000
11
56.7692113949
21
-24.8229592239
31
0.0000000000
11
40.1127667562
21
-24.0009204444
31
0.0000000000
0
SPLINE
5
319
100
AcDbEntity
8
0
100
AcDbSpline
62
9
6
CONTINUOUS
70
0
71
3
72
15
73
11
74
9
42
0.0000001000
43
0.0000001000
44
0.0000000001
12
-159.2711032191
22
-8.7802016522
32
0.0000000000
13
-159.2711032458
23
8.7802011692
33
0.0000000000
40
0.0000000000
40
0.0000000000
40
0.0000000000
40
0.0000000000
40
0.1046746441
40
0.2213559647
40
0.3525251686
40
0.5001184997
40
0.6478508120
40
0.7789038830
40
0.8954481535
40
1.0000000000
40
1.0000000000
40
1.0000000000
40
1.0000000000
10
199.5433447401
20
-24.1006245047
30
0.0000000000
10
193.9861293921
20
-24.4069793324
30
0.0000000000
10
182.2304193629
20
-24.9871047169
30
0.0000000000
10
163.4987235100
20
-25.6826540449
30
0.0000000000
10
142.4776429635
20
-26.1760292973
30
0.0000000000
10
119.8002324532
20
-26.3601408778
30
0.0000000000
10
97.1290004932
20
-26.1753139189
30
0.0000000000
10
76.1140096354
20
-25.6813455627
30
0.0000000000
10
57.4023075582
20
-24.9861436917
30
0.0000000000
10
45.6604020851
20
-24.4066199183
30
0.0000000000
10
40.1097061037
20
-24.1006245032
30
0.0000000000
11
199.5433447401
21
-24.1006245047
31
0.0000000000
11
182.8666780475
21
-24.9235761250
31
0.0000000000
11
164.2673165944
21
-25.6142222600
31
0.0000000000
11
143.3498927656
21
-26.1051760523
31
0.0000000000
11
119.8076229310
21
-26.2962645552
31
0.0000000000
11
96.2431909758
21
-26.1042005799
31
0.0000000000
11
75.3443039436
21
-25.6129497971
31
0.0000000000
11
56.7668032439
21
-24.9227233498
31
0.0000000000
11
40.1097061037
21
-24.1006245032
31
0.0000000000
0
SPLINE
5
31A
100
AcDbEntity
8
0
100
AcDbSpline
62
9
6
CONTINUOUS
70
0
71
3
72
13
73
9
74
7
42
0.0000001000
43
0.0000001000
44
0.0000000001
12
0.0001144694
22
-1.3579185876
32
0.0000000000
13
-1.3558711666
23
-0.0745404811
33
0.0000000000
40
0.0000000000
40
0.0000000000
40
0.0000000000
40
0.0000000000
40
0.1660806141
40
0.3327446141
40
0.4995045556
40
0.6663723002
40
0.8333721776
40
1.0000000000
40
1.0000000000
40
1.0000000000
40
1.0000000000
10
200.3895496424
20
-23.1046711246
30
0.0000000000
10
200.3895559795
20
-23.1798457755
30
0.0000000000
10
200.3704716888
20
-23.3311463807
30
0.0000000000
10
200.2860904088
20
-23.5434026511
30
0.0000000000
10
200.1510080790
20
-23.7282046151
30
0.0000000000
10
199.9737382644
20
-23.8732709567
30
0.0000000000
10
199.7660120917
20
-23.9693317329
30
0.0000000000
10
199.6155927096
20
-23.9967802717
30
0.0000000000
10
199.5402840896
20
-24.0009204444
30
0.0000000000
11
200.3895496424
21
-23.1046711246
31
0.0000000000
11
200.3612561056
21
-23.3284132294
31
0.0000000000
11
200.2776860751
21
-23.5387345245
31
0.0000000000
11
200.1440281929
21
-23.7215282716
31
0.0000000000
11
199.9687021127
21
-23.8650729281
31
0.0000000000
11
199.7628634618
21
-23.9602364604
31
0.0000000000
11
199.5402840896
21
-24.0009204444
31
0.0000000000
0
SPLINE
5
31B
100
AcDbEntity
8
0
100
AcDbSpline
62
9
6
CONTINUOUS
70
0
71
3
72
13
73
9
74
7
42
0.0000001000
43
0.0000001000
44
0.0000000001
12
-0.0003282552
22
-1.5086038643
32
0.0000000000
13
-1.5062901641
23
-0.0835204684
33
0.0000000000
40
0.0000000000
40
0.0000000000
40
0.0000000000
40
0.0000000000
40
0.1665424827
40
0.3330004607
40
0.4995812736
40
0.6662619022
40
0.8330363536
40
1.0000000000
40
1.0000000000
40
1.0000000000
40
1.0000000000
10
200.4867884047
20
-23.1046711267
30
0.0000000000
10
200.4867701819
20
-23.1884200044
30
0.0000000000
10
200.4654920111
20
-23.3566436871
30
0.0000000000
10
200.3715626406
20
-23.5924128643
30
0.0000000000
10
200.2216380294
20
-23.7974554468
30
0.0000000000
10
200.0249846529
20
-23.9584785858
30
0.0000000000
10
199.7943378753
20
-24.0653720009
30
0.0000000000
10
199.6271752509
20
-24.0959515595
30
0.0000000000
10
199.5433433515
20
-24.1005998535
30
0.0000000000
11
200.4867884047
21
-23.1046711267
31
0.0000000000
11
200.4551485392
21
-23.3539175760
31
0.0000000000
11
200.3622674117
21
-23.5872283689
31
0.0000000000
11
200.2139025607
21
-23.7900627955
31
0.0000000000
11
200.0193869114
21
-23.9494155566
31
0.0000000000
11
199.7910938044
21
-24.0551657356
31
0.0000000000
11
199.5433433515
21
-24.1005998535
31
0.0000000000
0
SPLINE
5
31C
100
AcDbEntity
8
0
100
AcDbSpline
62
9
6
CONTINUOUS
70
0
71
3
72
10
73
6
74
4
42
0.0000001000
43
0.0000001000
44
0.0000000001
12
0.0388744992
22
-0.0918705750
32
0.0000000000
13
-0.0054867878
23
-0.0996058452
33
0.0000000000
40
0.0000000000
40
0.0000000000
40
0.0000000000
40
0.0000000000
40
0.1511523072
40
0.5147016543
40
1.0000000000
40
1.0000000000
40
1.0000000000
40
1.0000000000
10
199.5433432655
20
25.7293797770
30
0.0000000000
10
199.5453019222
20
25.7247509605
30
0.0000000000
10
199.5420628526
20
25.7067913320
30
0.0000000000
10
199.5434109163
20
25.6742392472
30
0.0000000000
10
199.5411716655
20
25.6458147155
30
0.0000000000
10
199.5402840891
20
25.6297018648
30
0.0000000000
11
199.5433432655
21
25.7293797770
31
0.0000000000
11
199.5437386713
21
25.7143064842
31
0.0000000000
11
199.5426261506
21
25.6780570142
31
0.0000000000
11
199.5402840891
21
25.6297018648
31
0.0000000000
0
SPLINE
5
31D
100
AcDbEntity
8
0
100
AcDbSpline
62
9
6
CONTINUOUS
70
0
71
3
72
13
73
9
74
7
42
0.0000001000
43
0.0000001000
44
0.0000000001
12
1.3558661566
22
-0.0746315185
32
0.0000000000
13
-0.0002068997
23
-1.3579185746
33
0.0000000000
40
0.0000000000
40
0.0000000000
40
0.0000000000
40
0.0000000000
40
0.1665308382
40
0.3335132920
40
0.5003819333
40
0.6671403128
40
0.8338232210
40
1.0000000000
40
1.0000000000
40
1.0000000000
40
1.0000000000
10
199.5402840896
20
25.6297018649
30
0.0000000000
10
199.6155485988
20
25.6255590484
30
0.0000000000
10
199.7659165210
20
25.5981389093
30
0.0000000000
10
199.9736103662
20
25.5021298161
30
0.0000000000
10
200.1508991650
20
25.3571009552
30
0.0000000000
10
200.2860201118
20
25.1723159743
30
0.0000000000
10
200.3704512427
20
24.9600245647
30
0.0000000000
10
200.3895611031
20
24.8086707234
30
0.0000000000
10
200.3895496424
20
24.7334525451
30
0.0000000000
11
199.5402840896
21
25.6297018649
31
0.0000000000
11
199.7627368942
21
25.5890578844
31
0.0000000000
11
199.9685691927
21
25.4939369999
31
0.0000000000
11
200.1439214532
21
25.3504224039
31
0.0000000000
11
200.2776103569
21
25.1676539722
31
0.0000000000
11
200.3612233789
21
24.9573221346
31
0.0000000000
11
200.3895496424
21
24.7334525451
31
0.0000000000
0
SPLINE
5
31E
100
AcDbEntity
8
0
100
AcDbSpline
62
9
6
CONTINUOUS
70
0
71
3
72
13
73
9
74
7
42
0.0000001000
43
0.0000001000
44
0.0000000001
12
1.5062873902
22
-0.0835705266
32
0.0000000000
13
0.0002771810
23
-1.5086038770
33
0.0000000000
40
0.0000000000
40
0.0000000000
40
0.0000000000
40
0.0000000000
40
0.1669687134
40
0.3337261732
40
0.5004086593
40
0.6669870062
40
0.8334635257
40
1.0000000000
40
1.0000000000
40
1.0000000000
40
1.0000000000
10
199.5433432655
20
25.7293797770
30
0.0000000000
10
199.6271775547
20
25.7247285559
30
0.0000000000
10
199.7943349569
20
25.6941556390
30
0.0000000000
10
200.0249763980
20
25.5872624915
30
0.0000000000
10
200.2216259379
20
25.4262495505
30
0.0000000000
10
200.3715607396
20
25.2212025582
30
0.0000000000
10
200.4654900199
20
24.9854279556
30
0.0000000000
10
200.4867745585
20
24.8171984057
30
0.0000000000
10
200.4867899455
20
24.7334525488
30
0.0000000000
11
199.5433432655
21
25.7293797770
31
0.0000000000
11
199.7911013091
21
25.6839446701
31
0.0000000000
11
200.0193714926
21
25.5782059900
31
0.0000000000
11
200.2138922708
21
25.4188550669
31
0.0000000000
11
200.3622588031
21
25.2160264789
31
0.0000000000
11
200.4551509735
21
24.9826899749
31
0.0000000000
11
200.4867899455
21
24.7334525488
31
0.0000000000
0
SPLINE
5
31F
100
AcDbEntity
8
0
100
AcDbSpline
62
9
6
CONTINUOUS
70
0
71
3
72
10
73
6
74
4
42
0.0000001000
43
0.0000001000
44
0.0000000001
12
-0.0388736421
22
-0.0918993652
32
0.0000000000
13
0.0054888155
23
-0.0996319541
33
0.0000000000
40
0.0000000000
40
0.0000000000
40
0.0000000000
40
0.0000000000
40
0.1511627414
40
0.5147218574
40
1.0000000000
40
1.0000000000
40
1.0000000000
40
1.0000000000
10
40.1097061057
20
25.7294059253
30
0.0000000000
10
40.1077473569
20
25.7247753386
30
0.0000000000
10
40.1109867527
20
25.7068107767
30
0.0000000000
10
40.1096392070
20
25.6742497594
30
0.0000000000
10
40.1118788889
20
25.6458182680
30
0.0000000000
10
40.1127667563
20
25.6297018648
30
0.0000000000
11
40.1097061057
21
25.7294059253
31
0.0000000000
11
40.1093108284
21
25.7143276289
31
0.0000000000
11
40.1104239137
21
25.6780676786
31
0.0000000000
11
40.1127667563
21
25.6297018648
31
0.0000000000
0
SPLINE
5
320
100
AcDbEntity
8
0
100
AcDbSpline
62
9
6
CONTINUOUS
70
0
71
3
72
15
73
11
74
9
42
0.0000001000
43
0.0000001000
44
0.0000000001
12
159.2649995635
22
8.7795620643
32
0.0000000000
13
159.2649996301
23
-8.7795608563
33
0.0000000000
40
0.0000000000
40
0.0000000000
40
0.0000000000
40
0.0000000000
40
0.1045496716
40
0.2210898527
40
0.3520950664
40
0.4994966101
40
0.6473484533
40
0.7785948065
40
0.8953033909
40
1.0000000000
40
1.0000000000
40
1.0000000000
40
1.0000000000
10
40.1127667563
20
25.6297018648
30
0.0000000000
10
45.6631345559
20
25.9356686417
30
0.0000000000
10
57.4042570259
20
26.5151356915
30
0.0000000000
10
76.1123648021
20
27.2101890276
30
0.0000000000
10
97.1062030807
20
27.7037132220
30
0.0000000000
10
119.7701673055
20
27.8890226467
30
0.0000000000
10
142.4469762858
20
27.7055608215
30
0.0000000000
10
163.4865463963
20
27.2119718337
30
0.0000000000
10
182.2242412489
20
26.5162971473
30
0.0000000000
10
193.9821156204
20
25.9360986152
30
0.0000000000
10
199.5402840896
20
25.6297018649
30
0.0000000000
11
40.1127667563
21
25.6297018648
31
0.0000000000
11
56.7688785930
21
26.4517261366
31
0.0000000000
11
75.3450141393
21
27.1418870540
31
0.0000000000
11
96.2354653943
21
27.6329923502
31
0.0000000000
11
119.7462291506
21
27.8251809172
31
0.0000000000
11
143.3288328508
21
27.6344356554
31
0.0000000000
11
164.2577604679
21
27.1434310324
31
0.0000000000
11
182.8607565513
21
26.4527464603
31
0.0000000000
11
199.5402840896
21
25.6297018649
31
0.0000000000
0
SPLINE
5
321
100
AcDbEntity
8
0
100
AcDbSpline
62
9
6
CONTINUOUS
70
0
71
3
72
15
73
11
74
9
42
0.0000001000
43
0.0000001000
44
0.0000000001
12
159.2711033427
22
8.7802017120
32
0.0000000000
13
159.2711033757
23
-8.7802011138
33
0.0000000000
40
0.0000000000
40
0.0000000000
40
0.0000000000
40
0.0000000000
40
0.1045497540
40
0.2210899199
40
0.3520951054
40
0.4994966067
40
0.6473484080
40
0.7785947343
40
0.8953033042
40
1.0000000000
40
1.0000000000
40
1.0000000000
40
1.0000000000
10
40.1097061057
20
25.7294059253
30
0.0000000000
10
45.6602909988
20
26.0353952351
30
0.0000000000
10
57.4018673042
20
26.6149040783
30
0.0000000000
10
76.1106952493
20
27.3100077571
30
0.0000000000
10
97.1053354024
20
27.8035674273
30
0.0000000000
10
119.7701646281
20
27.9888901916
30
0.0000000000
10
142.4478391661
20
27.8054151748
30
0.0000000000
10
163.4882130433
20
27.3117907209
30
0.0000000000
10
182.2266295327
20
26.6160656307
30
0.0000000000
10
193.9849586540
20
26.0358252720
30
0.0000000000
10
199.5433447421
20
25.7294059235
30
0.0000000000
11
40.1097061057
21
25.7294059253
31
0.0000000000
11
56.7664697892
21
26.5514902335
31
0.0000000000
11
75.3433158959
21
27.2417008577
31
0.0000000000
11
96.2345650840
21
27.7328414872
31
0.0000000000
11
119.7462255238
21
27.9250438705
31
0.0000000000
11
143.3297287586
21
27.7342849127
31
0.0000000000
11
164.2594559730
21
27.2432449723
31
0.0000000000
11
182.8631637751
21
26.5525106606
31
0.0000000000
11
199.5433447421
21
25.7294059235
31
0.0000000000
0
SPLINE
5
322
100
AcDbEntity
8
0
100
AcDbSpline
62
9
6
CONTINUOUS
70
0
71
3
72
13
73
9
74
7
42
0.0000001000
43
0.0000001000
44
0.0000000001
12
-0.0001144694
22
1.3579185876
32
0.0000000000
13
1.3558711665
23
0.0745404811
33
0.0000000000
40
0.0000000000
40
0.0000000000
40
0.0000000000
40
0.0000000000
40
0.1660806141
40
0.3327446141
40
0.4995045556
40
0.6663723002
40
0.8333721776
40
1.0000000000
40
1.0000000000
40
1.0000000000
40
1.0000000000
10
39.2635012034
20
24.7334525451
30
0.0000000000
10
39.2634948664
20
24.8086271960
30
0.0000000000
10
39.2825791571
20
24.9599278012
30
0.0000000000
10
39.3669604371
20
25.1721840716
30
0.0000000000
10
39.5020427669
20
25.3569860356
30
0.0000000000
10
39.6793125815
20
25.5020523771
30
0.0000000000
10
39.8870387542
20
25.5981131534
30
0.0000000000
10
40.0374581363
20
25.6255616921
30
0.0000000000
10
40.1127667563
20
25.6297018648
30
0.0000000000
11
39.2635012034
21
24.7334525451
31
0.0000000000
11
39.2917947402
21
24.9571946498
31
0.0000000000
11
39.3753647707
21
25.1675159449
31
0.0000000000
11
39.5090226529
21
25.3503096921
31
0.0000000000
11
39.6843487332
21
25.4938543486
31
0.0000000000
11
39.8901873841
21
25.5890178809
31
0.0000000000
11
40.1127667563
21
25.6297018648
31
0.0000000000
0
SPLINE
5
323
100
AcDbEntity
8
0
100
AcDbSpline
62
9
6
CONTINUOUS
70
0
71
3
72
13
73
9
74
7
42
0.0000001000
43
0.0000001000
44
0.0000000001
12
0.0003282552
22
1.5086038643
32
0.0000000000
13
1.5062901641
23
0.0835204684
33
0.0000000000
40
0.0000000000
40
0.0000000000
40
0.0000000000
40
0.0000000000
40
0.1665424827
40
0.3330004607
40
0.4995812736
40
0.6662619022
40
0.8330363536
40
1.0000000000
40
1.0000000000
40
1.0000000000
40
1.0000000000
10
39.1662624412
20
24.7334525472
30
0.0000000000
10
39.1662806640
20
24.8172014249
30
0.0000000000
10
39.1875588348
20
24.9854251076
30
0.0000000000
10
39.2814882052
20
25.2211942848
30
0.0000000000
10
39.4314128165
20
25.4262368673
30
0.0000000000
10
39.6280661929
20
25.5872600063
30
0.0000000000
10
39.8587129706
20
25.6941534213
30
0.0000000000
10
40.0258755949
20
25.7247329800
30
0.0000000000
10
40.1097074944
20
25.7293812740
30
0.0000000000
11
39.1662624412
21
24.7334525472
31
0.0000000000
11
39.1979023067
21
24.9826989965
31
0.0000000000
11
39.2907834342
21
25.2160097894
31
0.0000000000
11
39.4391482852
21
25.4188442160
31
0.0000000000
11
39.6336639345
21
25.5781969771
31
0.0000000000
11
39.8619570414
21
25.6839471560
31
0.0000000000
11
40.1097074944
21
25.7293812740
31
0.0000000000
0
SPLINE
5
324
100
AcDbEntity
8
0
100
AcDbSpline
62
9
6
CONTINUOUS
70
0
71
3
72
15
73
11
74
9
42
0.0000001000
43
0.0000001000
44
0.0000000001
12
-0.0392833176
22
0.7432420917
32
0.0000000000
13
-0.5425087918
23
0.5095450880
33
0.0000000000
40
0.0000000000
40
0.0000000000
40
0.0000000000
40
0.0000000000
40
0.1624235059
40
0.3111838835
40
0.4478149359
40
0.5739880801
40
0.6910807810
40
0.8005235044
40
0.9036744223
40
1.0000000000
40
1.0000000000
40
1.0000000000
40
1.0000000000
10
41.1797651292
20
23.6668200181
30
0.0000000000
10
41.1776382845
20
23.7070600135
30
0.0000000000
10
41.1709968665
20
23.7840482065
30
0.0000000000
10
41.1539709167
20
23.8939172500
30
0.0000000000
10
41.1314156829
20
23.9935883179
30
0.0000000000
10
41.1039498117
20
24.0838418092
30
0.0000000000
10
41.0717987046
20
24.1653392333
30
0.0000000000
10
41.0347978267
20
24.2384429332
30
0.0000000000
10
40.9926959167
20
24.3027004572
30
0.0000000000
10
40.9597479106
20
24.3399792417
30
0.0000000000
10
40.9423287530
20
24.3563399833
30
0.0000000000
11
41.1797651292
21
23.6668200181
31
0.0000000000
11
41.1692913738
21
23.7872539283
31
0.0000000000
11
41.1522083372
21
23.8966474080
31
0.0000000000
11
41.1295998399
21
23.9957940477
31
0.0000000000
11
41.1020593055
21
24.0855729289
31
0.0000000000
11
41.0698258003
21
24.1665424971
31
0.0000000000
11
41.0327362894
21
24.2390645231
31
0.0000000000
11
40.9902249962
21
24.3029933981
31
0.0000000000
11
40.9423287530
21
24.3563399833
31
0.0000000000
0
SPLINE
5
325
100
AcDbEntity
8
0
100
AcDbSpline
62
9
6
CONTINUOUS
70
0
71
3
72
21
73
17
74
15
42
0.0000001000
43
0.0000001000
44
0.0000000001
12
157.6116218673
22
8.6006019535
32
0.0000000000
13
157.6116218827
23
-8.6006016724
33
0.0000000000
40
0.0000000000
40
0.0000000000
40
0.0000000000
40
0.0000000000
40
0.1202223885
40
0.2279554273
40
0.3247981132
40
0.4123489715
40
0.4918656630
40
0.5637263556
40
0.6281985232
40
0.6863808750
40
0.7402997908
40
0.7920322907
40
0.8435247683
40
0.8959066372
40
0.9492598940
40
1.0000000000
40
1.0000000000
40
1.0000000000
40
1.0000000000
10
40.9423287530
20
24.3563399833
30
0.0000000000
10
47.2584772987
20
24.7010016198
30
0.0000000000
10
59.2390485091
20
25.2762184028
30
0.0000000000
10
76.3179846461
20
25.8837801831
30
0.0000000000
10
91.6840468094
20
26.2588642932
30
0.0000000000
10
105.5685623167
20
26.4580470563
30
0.0000000000
10
118.1398463212
20
26.5237721949
30
0.0000000000
10
129.4969142812
20
26.4893080097
30
0.0000000000
10
139.7309268743
20
26.3821074157
30
0.0000000000
10
149.0200966022
20
26.2226231281
30
0.0000000000
10
157.6379839154
20
26.0219364955
30
0.0000000000
10
165.9027244550
20
25.7818260790
30
0.0000000000
10
174.0851584533
20
25.4980176484
30
0.0000000000
10
182.3510647470
20
25.1644580882
30
0.0000000000
10
190.5753686113
20
24.7851344792
30
0.0000000000
10
196.0449784239
20
24.5018049046
30
0.0000000000
10
198.7107218893
20
24.3563397579
30
0.0000000000
11
40.9423287530
21
24.3563399833
31
0.0000000000
11
59.8971331574
21
25.2663437447
31
0.0000000000
11
76.8916252956
21
25.8708710276
31
0.0000000000
11
92.1733146947
21
26.2438768685
31
0.0000000000
11
105.9914551514
21
26.4421039609
31
0.0000000000
11
118.5426838925
21
26.5077190614
31
0.0000000000
11
129.8855622866
21
26.4733011545
31
0.0000000000
11
140.0616847514
21
26.3667085759
31
0.0000000000
11
149.2441892787
21
26.2090570724
31
0.0000000000
11
157.7527735996
21
26.0109198217
31
0.0000000000
11
165.9151034821
21
25.7737872959
31
0.0000000000
11
174.0381059779
21
25.4920426463
31
0.0000000000
11
182.2996564341
21
25.1586645367
31
0.0000000000
11
190.7123173717
21
24.7706586687
31
0.0000000000
11
198.7107218893
21
24.3563397579
31
0.0000000000
0
SPLINE
5
326
100
AcDbEntity
8
0
100
AcDbSpline
62
9
6
CONTINUOUS
70
0
71
3
72
16
73
12
74
10
42
0.0000001000
43
0.0000001000
44
0.0000000001
12
0.0393025440
22
0.7432836248
32
0.0000000000
13
0.5435161633
23
0.5085326116
33
0.0000000000
40
0.0000000000
40
0.0000000000
40
0.0000000000
40
0.0000000000
40
0.1217928612
40
0.2440364872
40
0.3650830525
40
0.4834286191
40
0.5977381886
40
0.7068394085
40
0.8097908777
40
0.9069410708
40
1.0000000000
40
1.0000000000
40
1.0000000000
40
1.0000000000
10
198.4732857166
20
23.6668200181
30
0.0000000000
10
198.4748813064
20
23.6969955645
30
0.0000000000
10
198.4795877048
20
23.7573903109
30
0.0000000000
10
198.4913276630
20
23.8472483180
30
0.0000000000
10
198.5079003753
20
23.9354807778
30
0.0000000000
10
198.5293195606
20
24.0206437953
30
0.0000000000
10
198.5555243913
20
24.1013621463
30
0.0000000000
10
198.5864003228
20
24.1763147261
30
0.0000000000
10
198.6219195438
20
24.2444566704
30
0.0000000000
10
198.6623888271
20
24.3050748217
30
0.0000000000
10
198.6938622119
20
24.3405652578
30
0.0000000000
10
198.7107218893
20
24.3563397579
30
0.0000000000
11
198.4732857166
21
23.6668200181
31
0.0000000000
11
198.4803613810
21
23.7571965668
31
0.0000000000
11
198.4922058112
21
23.8474109694
31
0.0000000000
11
198.5089257280
21
23.9359435948
31
0.0000000000
11
198.5305343659
21
24.0213392802
31
0.0000000000
11
198.5569723913
21
24.1022105936
31
0.0000000000
11
198.5881197791
21
24.1772060988
31
0.0000000000
11
198.6238132937
21
24.2450145296
31
0.0000000000
11
198.6643143074
21
24.3049190566
31
0.0000000000
11
198.7107218893
21
24.3563397579
31
0.0000000000
0
SPLINE
5
327
100
AcDbEntity
8
0
100
AcDbSpline
62
9
6
CONTINUOUS
70
0
71
3
72
11
73
7
74
5
42
0.0000001000
43
0.0000001000
44
0.0000000001
12
0.0008531022
22
-0.3114588876
32
0.0000000000
13
0.3114588876
23
-0.0008531022
33
0.0000000000
40
0.0000000000
40
0.0000000000
40
0.0000000000
40
0.0000000000
40
0.2499085069
40
0.5000008677
40
0.7500927770
40
1.0000000000
40
1.0000000000
40
1.0000000000
40
1.0000000000
10
41.0121017516
20
-21.5503070541
30
0.0000000000
10
41.0121728175
20
-21.5762524626
30
0.0000000000
10
41.0226868774
20
-21.6286959589
30
0.0000000000
10
41.0671570914
20
-21.6949779546
30
0.0000000000
10
41.1334390755
20
-21.7394479289
30
0.0000000000
10
41.1858823834
20
-21.7499618956
30
0.0000000000
10
41.2118276586
20
-21.7500329611
30
0.0000000000
11
41.0121017516
21
-21.5503070541
31
0.0000000000
11
41.0274617784
21
-21.6266129716
31
0.0000000000
11
41.0707933286
21
-21.6913417737
31
0.0000000000
11
41.1355221175
21
-21.7346730909
31
0.0000000000
11
41.2118276586
21
-21.7500329611
31
0.0000000000
0
SPLINE
5
328
100
AcDbEntity
8
0
100
AcDbSpline
62
9
6
CONTINUOUS
70
0
71
3
72
11
73
7
74
5
42
0.0000001000
43
0.0000001000
44
0.0000000001
12
0.0219173736
22
-0.2355785323
32
0.0000000000
13
0.2365365875
23
-0.0052970710
33
0.0000000000
40
0.0000000000
40
0.0000000000
40
0.0000000000
40
0.0000000000
40
0.1714964394
40
0.3991737423
40
0.6834069730
40
1.0000000000
40
1.0000000000
40
1.0000000000
40
1.0000000000
10
40.9820425056
20
-21.9064787422
30
0.0000000000
10
40.9832954228
20
-21.9199457020
30
0.0000000000
10
41.0003147648
20
-21.9494365757
30
0.0000000000
10
41.0467119380
20
-21.9784609132
30
0.0000000000
10
41.1093665781
20
-21.9986301859
30
0.0000000000
10
41.1568022969
20
-22.0038881348
30
0.0000000000
10
41.1817642417
20
-22.0044471400
30
0.0000000000
11
40.9820425056
21
-21.9064787422
31
0.0000000000
11
40.9997801636
21
-21.9429716835
31
0.0000000000
11
41.0436553449
21
-21.9742235248
31
0.0000000000
11
41.1073667543
21
-21.9957457370
31
0.0000000000
11
41.1817642417
21
-22.0044471400
31
0.0000000000
0
SPLINE
5
329
100
AcDbEntity
8
0
100
AcDbSpline
62
9
6
CONTINUOUS
70
0
71
3
72
11
73
7
74
5
42
0.0000001000
43
0.0000001000
44
0.0000000001
12
0.0526587393
22
-0.2193236486
32
0.0000000000
13
0.2253441956
23
-0.0097877047
33
0.0000000000
40
0.0000000000
40
0.0000000000
40
0.0000000000
40
0.0000000000
40
0.1630789348
40
0.3918226097
40
0.6797441382
40
1.0000000000
40
1.0000000000
40
1.0000000000
40
1.0000000000
10
40.9810388585
20
-21.9535149452
30
0.0000000000
10
40.9839013689
20
-21.9654373009
30
0.0000000000
10
41.0038818082
20
-21.9899841173
30
0.0000000000
10
41.0492641359
20
-22.0139648722
30
0.0000000000
10
41.1100952204
20
-22.0316635003
30
0.0000000000
10
41.1557091960
20
-22.0369937987
30
0.0000000000
10
41.1797651292
20
-22.0380386553
30
0.0000000000
11
40.9810388585
21
-21.9535149452
31
0.0000000000
11
41.0016037248
21
-21.9840127328
31
0.0000000000
11
41.0459127793
21
-22.0104459789
31
0.0000000000
11
41.1080608058
21
-22.0292918370
31
0.0000000000
11
41.1797651292
21
-22.0380386553
31
0.0000000000
0
SPLINE
5
32A
100
AcDbEntity
8
0
100
AcDbSpline
62
9
6
CONTINUOUS
70
0
71
3
72
10
73
6
74
4
42
0.0000001000
43
0.0000001000
44
0.0000000001
12
0.0720232443
22
-0.0916027132
32
0.0000000000
13
0.0875858697
23
-0.0768577922
33
0.0000000000
40
0.0000000000
40
0.0000000000
40
0.0000000000
40
0.0000000000
40
0.3324627023
40
0.6697343023
40
1.0000000000
40
1.0000000000
40
1.0000000000
40
1.0000000000
10
40.8623210028
20
-22.6430347086
30
0.0000000000
10
40.8703026836
20
-22.6531862038
30
0.0000000000
10
40.8870469816
20
-22.6731205992
30
0.0000000000
10
40.9137594444
20
-22.7013460967
30
0.0000000000
10
40.9326867315
20
-22.7190971011
30
0.0000000000
10
40.9423289343
20
-22.7275582653
30
0.0000000000
11
40.8623210028
21
-22.6430347086
31
0.0000000000
11
40.8872091417
21
-22.6727234488
31
0.0000000000
11
40.9142262998
21
-22.7012654470
31
0.0000000000
11
40.9423289343
21
-22.7275582653
31
0.0000000000
0
SPLINE
5
32B
100
AcDbEntity
8
0
100
AcDbSpline
62
9
6
CONTINUOUS
70
0
71
3
72
11
73
7
74
5
42
0.0000001000
43
0.0000001000
44
0.0000000001
12
0.3114588876
22
0.0008531022
32
0.0000000000
13
0.0008531022
23
0.3114588876
33
0.0000000000
40
0.0000000000
40
0.0000000000
40
0.0000000000
40
0.0000000000
40
0.2499092601
40
0.5000022281
40
0.7500940366
40
1.0000000000
40
1.0000000000
40
1.0000000000
40
1.0000000000
10
198.4412231873
20
-21.7500329611
30
0.0000000000
10
198.4671686740
20
-21.7499618950
30
0.0000000000
10
198.5196123163
20
-21.7394477736
30
0.0000000000
10
198.5858943567
20
-21.6949773679
30
0.0000000000
10
198.6303641470
20
-21.6286953572
30
0.0000000000
10
198.6408780291
20
-21.5762521986
30
0.0000000000
10
198.6409490942
20
-21.5503070541
30
0.0000000000
11
198.4412231873
21
-21.7500329611
31
0.0000000000
11
198.5175293256
21
-21.7346728424
31
0.0000000000
11
198.5822582123
21
-21.6913410787
31
0.0000000000
11
198.6255893777
21
-21.6266122260
31
0.0000000000
11
198.6409490942
21
-21.5503070541
31
0.0000000000
0
SPLINE
5
32C
100
AcDbEntity
8
0
100
AcDbSpline
62
9
6
CONTINUOUS
70
0
71
3
72
11
73
7
74
5
42
0.0000001000
43
0.0000001000
44
0.0000000001
12
0.2365377098
22
0.0052943022
32
0.0000000000
13
0.0219143508
23
0.2355798783
33
0.0000000000
40
0.0000000000
40
0.0000000000
40
0.0000000000
40
0.0000000000
40
0.3165952406
40
0.6008304951
40
0.8285072397
40
1.0000000000
40
1.0000000000
40
1.0000000000
40
1.0000000000
10
198.4712866038
20
-22.0044438063
30
0.0000000000
10
198.4962488416
20
-22.0038850893
30
0.0000000000
10
198.5436851676
20
-21.9986277273
30
0.0000000000
10
198.6063406940
20
-21.9784593757
30
0.0000000000
10
198.6527386060
20
-21.9494361624
30
0.0000000000
10
198.6697583260
20
-21.9199454903
30
0.0000000000
10
198.6710110435
20
-21.9064787424
30
0.0000000000
11
198.4712866038
21
-22.0044438063
31
0.0000000000
11
198.5456850640
21
-21.9957433225
31
0.0000000000
11
198.6093975994
21
-21.9742220063
31
0.0000000000
11
198.6532734862
21
-21.9429709670
31
0.0000000000
11
198.6710110435
21
-21.9064787424
31
0.0000000000
0
SPLINE
5
32D
100
AcDbEntity
8
0
100
AcDbSpline
62
9
6
CONTINUOUS
70
0
71
3
72
11
73
7
74
5
42
0.0000001000
43
0.0000001000
44
0.0000000001
12
0.2253441230
22
0.0097878069
32
0.0000000000
13
0.0526586632
23
0.2193235968
33
0.0000000000
40
0.0000000000
40
0.0000000000
40
0.0000000000
40
0.0000000000
40
0.3202558731
40
0.6081773639
40
0.8369210177
40
1.0000000000
40
1.0000000000
40
1.0000000000
40
1.0000000000
10
198.4732857166
20
-22.0380387344
30
0.0000000000
10
198.4973416429
20
-22.0369938669
30
0.0000000000
10
198.5429556006
20
-22.0316635502
30
0.0000000000
10
198.6037866547
20
-22.0139649006
30
0.0000000000
10
198.6491689556
20
-21.9899841247
30
0.0000000000
10
198.6691493709
20
-21.9654373016
30
0.0000000000
10
198.6720118779
20
-21.9535149452
30
0.0000000000
11
198.4732857166
21
-22.0380387344
31
0.0000000000
11
198.5449900169
21
-22.0292918859
31
0.0000000000
11
198.6071380074
21
-22.0104460057
31
0.0000000000
11
198.6514470288
21
-21.9840127439
31
0.0000000000
11
198.6720118779
21
-21.9535149452
31
0.0000000000
0
SPLINE
5
32E
100
AcDbEntity
8
0
100
AcDbSpline
62
9
6
CONTINUOUS
70
0
71
3
72
10
73
6
74
4
42
0.0000001000
43
0.0000001000
44
0.0000000001
12
0.0875859729
22
0.0768577797
32
0.0000000000
13
0.0720232679
23
0.0916027829
33
0.0000000000
40
0.0000000000
40
0.0000000000
40
0.0000000000
40
0.0000000000
40
0.3302656918
40
0.6675373127
40
1.0000000000
40
1.0000000000
40
1.0000000000
40
1.0000000000
10
198.7107219044
20
-22.7275582882
30
0.0000000000
10
198.7203641184
20
-22.7190971256
30
0.0000000000
10
198.7392914261
20
-22.7013461196
30
0.0000000000
10
198.7660039130
20
-22.6731206127
30
0.0000000000
10
198.7827482203
20
-22.6531862043
30
0.0000000000
10
198.7907299033
20
-22.6430347018
30
0.0000000000
11
198.7107219044
21
-22.7275582882
31
0.0000000000
11
198.7388245687
21
-22.7012654693
31
0.0000000000
11
198.7658417522
21
-22.6727234595
31
0.0000000000
11
198.7907299033
21
-22.6430347018
31
0.0000000000
0
SPLINE
5
32F
100
AcDbEntity
8
0
100
AcDbSpline
62
9
6
CONTINUOUS
70
0
71
3
72
11
73
7
74
5
42
0.0000001000
43
0.0000001000
44
0.0000000001
12
-0.0008531022
22
0.3114588876
32
0.0000000000
13
-0.3114588876
23
0.0008531022
33
0.0000000000
40
0.0000000000
40
0.0000000000
40
0.0000000000
40
0.0000000000
40
0.2499085069
40
0.5000008677
40
0.7500927770
40
1.0000000000
40
1.0000000000
40
1.0000000000
40
1.0000000000
10
198.6409490942
20
23.1790884746
30
0.0000000000
10
198.6408780284
20
23.2050338831
30
0.0000000000
10
198.6303639685
20
23.2574773794
30
0.0000000000
10
198.5858937545
20
23.3237593750
30
0.0000000000
10
198.5196117704
20
23.3682293494
30
0.0000000000
10
198.4671684625
20
23.3787433161
30
0.0000000000
10
198.4412231873
20
23.3788143815
30
0.0000000000
11
198.6409490942
21
23.1790884746
31
0.0000000000
11
198.6255890674
21
23.2553943920
31
0.0000000000
11
198.5822575173
21
23.3201231942
31
0.0000000000
11
198.5175287284
21
23.3634545114
31
0.0000000000
11
198.4412231873
21
23.3788143815
31
0.0000000000
0
SPLINE
5
330
100
AcDbEntity
8
0
100
AcDbSpline
62
9
6
CONTINUOUS
70
0
71
3
72
11
73
7
74
5
42
0.0000001000
43
0.0000001000
44
0.0000000001
12
-0.0219173736
22
0.2355785323
32
0.0000000000
13
-0.2365365875
23
0.0052970710
33
0.0000000000
40
0.0000000000
40
0.0000000000
40
0.0000000000
40
0.0000000000
40
0.1714964394
40
0.3991737423
40
0.6834069730
40
1.0000000000
40
1.0000000000
40
1.0000000000
40
1.0000000000
10
198.6710083403
20
23.5352601626
30
0.0000000000
10
198.6697554231
20
23.5487271225
30
0.0000000000
10
198.6527360811
20
23.5782179962
30
0.0000000000
10
198.6063389079
20
23.6072423337
30
0.0000000000
10
198.5436842677
20
23.6274116064
30
0.0000000000
10
198.4962485489
20
23.6326695553
30
0.0000000000
10
198.4712866042
20
23.6332285605
30
0.0000000000
11
198.6710083403
21
23.5352601626
31
0.0000000000
11
198.6532706823
21
23.5717531040
31
0.0000000000
11
198.6093955009
21
23.6030049453
31
0.0000000000
11
198.5456840916
21
23.6245271574
31
0.0000000000
11
198.4712866042
21
23.6332285605
31
0.0000000000
0
SPLINE
5
331
100
AcDbEntity
8
0
100
AcDbSpline
62
9
6
CONTINUOUS
70
0
71
3
72
11
73
7
74
5
42
0.0000001000
43
0.0000001000
44
0.0000000001
12
-0.0526586470
22
0.2193235763
32
0.0000000000
13
-0.2253440974
23
0.0097878509
33
0.0000000000
40
0.0000000000
40
0.0000000000
40
0.0000000000
40
0.0000000000
40
0.1630789848
40
0.3918226311
40
0.6797441165
40
1.0000000000
40
1.0000000000
40
1.0000000000
40
1.0000000000
10
198.6720118458
20
23.5822963657
30
0.0000000000
10
198.6691493396
20
23.5942187211
30
0.0000000000
10
198.6491689301
20
23.6187655435
30
0.0000000000
10
198.6037866378
20
23.6427463225
30
0.0000000000
10
198.5429555932
20
23.6604449800
30
0.0000000000
10
198.4973416410
20
23.6657753040
30
0.0000000000
10
198.4732857166
20
23.6668201763
30
0.0000000000
11
198.6720118458
21
23.5822963657
31
0.0000000000
11
198.6514470017
21
23.6127941638
31
0.0000000000
11
198.6071379899
21
23.6392274277
31
0.0000000000
11
198.5449900101
21
23.6580733155
31
0.0000000000
11
198.4732857166
21
23.6668201763
31
0.0000000000
0
SPLINE
5
332
100
AcDbEntity
8
0
100
AcDbSpline
62
9
6
CONTINUOUS
70
0
71
3
72
10
73
6
74
4
42
0.0000001000
43
0.0000001000
44
0.0000000001
12
-0.0720232468
22
0.0916027144
32
0.0000000000
13
-0.0875858717
23
0.0768577937
33
0.0000000000
40
0.0000000000
40
0.0000000000
40
0.0000000000
40
0.0000000000
40
0.3324627014
40
0.6697343043
40
1.0000000000
40
1.0000000000
40
1.0000000000
40
1.0000000000
10
198.7907298395
20
24.2718161224
30
0.0000000000
10
198.7827481584
20
24.2819676177
30
0.0000000000
10
198.7660038597
20
24.3019020134
30
0.0000000000
10
198.7392913951
20
24.3301275103
30
0.0000000000
10
198.7203641074
20
24.3478785148
30
0.0000000000
10
198.7107219045
20
24.3563396791
30
0.0000000000
11
198.7907298395
21
24.2718161224
31
0.0000000000
11
198.7658416996
21
24.3015048626
31
0.0000000000
11
198.7388245397
21
24.3300468608
31
0.0000000000
11
198.7107219045
21
24.3563396791
31
0.0000000000
0
SPLINE
5
333
100
AcDbEntity
8
0
100
AcDbSpline
62
9
6
CONTINUOUS
70
0
71
3
72
11
73
7
74
5
42
0.0000001000
43
0.0000001000
44
0.0000000001
12
-0.3114588876
22
-0.0008531022
32
0.0000000000
13
-0.0008531022
23
-0.3114588876
33
0.0000000000
40
0.0000000000
40
0.0000000000
40
0.0000000000
40
0.0000000000
40
0.2499092601
40
0.5000022281
40
0.7500940366
40
1.0000000000
40
1.0000000000
40
1.0000000000
40
1.0000000000
10
41.2118276586
20
23.3788143815
30
0.0000000000
10
41.1858821719
20
23.3787433155
30
0.0000000000
10
41.1334385296
20
23.3682291940
30
0.0000000000
10
41.0671564891
20
23.3237587883
30
0.0000000000
10
41.0226866989
20
23.2574767777
30
0.0000000000
10
41.0121728167
20
23.2050336191
30
0.0000000000
10
41.0121017516
20
23.1790884746
30
0.0000000000
11
41.2118276586
21
23.3788143815
31
0.0000000000
11
41.1355215203
21
23.3634542628
31
0.0000000000
11
41.0707926335
21
23.3201224992
31
0.0000000000
11
41.0274614681
21
23.2553936464
31
0.0000000000
11
41.0121017516
21
23.1790884746
31
0.0000000000
0
SPLINE
5
334
100
AcDbEntity
8
0
100
AcDbSpline
62
9
6
CONTINUOUS
70
0
71
3
72
11
73
7
74
5
42
0.0000001000
43
0.0000001000
44
0.0000000001
12
-0.2365377098
22
-0.0052943022
32
0.0000000000
13
-0.0219143508
23
-0.2355798783
33
0.0000000000
40
0.0000000000
40
0.0000000000
40
0.0000000000
40
0.0000000000
40
0.3165952406
40
0.6008304951
40
0.8285072397
40
1.0000000000
40
1.0000000000
40
1.0000000000
40
1.0000000000
10
41.1817642420
20
23.6332252267
30
0.0000000000
10
41.1568020043
20
23.6326665098
30
0.0000000000
10
41.1093656783
20
23.6274091478
30
0.0000000000
10
41.0467101519
20
23.6072407962
30
0.0000000000
10
41.0003122399
20
23.5782175829
30
0.0000000000
10
40.9832925199
20
23.5487269108
30
0.0000000000
10
40.9820398024
20
23.5352601629
30
0.0000000000
11
41.1817642420
21
23.6332252267
31
0.0000000000
11
41.1073657819
21
23.6245247430
31
0.0000000000
11
41.0436532465
21
23.6030034267
31
0.0000000000
11
40.9997773596
21
23.5717523875
31
0.0000000000
11
40.9820398024
21
23.5352601629
31
0.0000000000
0
SPLINE
5
335
100
AcDbEntity
8
0
100
AcDbSpline
62
9
6
CONTINUOUS
70
0
71
3
72
11
73
7
74
5
42
0.0000001000
43
0.0000001000
44
0.0000000001
12
-0.2253441932
22
-0.0097877180
32
0.0000000000
13
-0.0526587409
23
-0.2193236463
33
0.0000000000
40
0.0000000000
40
0.0000000000
40
0.0000000000
40
0.0000000000
40
0.3202558635
40
0.6081773928
40
0.8369210674
40
1.0000000000
40
1.0000000000
40
1.0000000000
40
1.0000000000
10
41.1797651292
20
23.6668200779
30
0.0000000000
10
41.1557091962
20
23.6657752199
30
0.0000000000
10
41.1100952211
20
23.6604449195
30
0.0000000000
10
41.0492641370
20
23.6427462915
30
0.0000000000
10
41.0038818099
20
23.6187655368
30
0.0000000000
10
40.9839013705
20
23.5942187211
30
0.0000000000
10
40.9810388601
20
23.5822963657
30
0.0000000000
11
41.1797651292
21
23.6668200779
31
0.0000000000
11
41.1080608064
21
23.6580732567
31
0.0000000000
11
41.0459127803
21
23.6392273982
31
0.0000000000
11
41.0016037263
21
23.6127941524
31
0.0000000000
11
40.9810388601
21
23.5822963657
31
0.0000000000
0
SPLINE
5
336
100
AcDbEntity
8
0
100
AcDbSpline
62
9
6
CONTINUOUS
70
0
71
3
72
10
73
6
74
4
42
0.0000001000
43
0.0000001000
44
0.0000000001
12
-0.0875859702
22
-0.0768577791
32
0.0000000000
13
-0.0720232652
23
-0.0916027819
33
0.0000000000
40
0.0000000000
40
0.0000000000
40
0.0000000000
40
0.0000000000
40
0.3302656888
40
0.6675373117
40
1.0000000000
40
1.0000000000
40
1.0000000000
40
1.0000000000
10
40.9423289343
20
24.3563397154
30
0.0000000000
10
40.9326867208
20
24.3478785529
30
0.0000000000
10
40.9137594137
20
24.3301275470
30
0.0000000000
10
40.8870469285
20
24.3019020397
30
0.0000000000
10
40.8703026218
20
24.2819676314
30
0.0000000000
10
40.8623209390
20
24.2718161290
30
0.0000000000
11
40.9423289343
21
24.3563397154
31
0.0000000000
11
40.9142262713
21
24.3300468968
31
0.0000000000
11
40.8872090891
21
24.3015048866
31
0.0000000000
11
40.8623209390
21
24.2718161290
31
0.0000000000
0
SPLINE
5
337
100
AcDbEntity
8
0
100
AcDbSpline
62
9
6
CONTINUOUS
70
0
71
3
72
10
73
6
74
4
42
0.0000001000
43
0.0000001000
44
0.0000000001
12
-0.0855156473
22
-0.1600885030
32
0.0000000000
13
-0.0846292416
23
-0.1605588558
33
0.0000000000
40
0.0000000000
40
0.0000000000
40
0.0000000000
40
0.0000000000
40
0.3046371459
40
0.6379725815
40
1.0000000000
40
1.0000000000
40
1.0000000000
40
1.0000000000
10
40.8623206812
20
-22.6430347085
30
0.0000000000
10
40.8536369337
20
-22.6592910101
30
0.0000000000
10
40.8354800332
20
-22.6933503552
30
0.0000000000
10
40.8071186566
20
-22.7467897769
30
0.0000000000
10
40.7874273124
20
-22.7839655838
30
0.0000000000
10
40.7772146105
20
-22.8033411532
30
0.0000000000
11
40.8623206812
21
-22.6430347085
31
0.0000000000
11
40.8363111878
21
-22.6918258917
31
0.0000000000
11
40.8079393184
21
-22.7452601748
31
0.0000000000
11
40.7772146105
21
-22.8033411532
31
0.0000000000
0
SPLINE
5
338
100
AcDbEntity
8
0
100
AcDbSpline
62
9
6
CONTINUOUS
70
0
71
3
72
16
73
12
74
10
42
0.0000001000
43
0.0000001000
44
0.0000000001
12
-0.0186122867
22
-0.7039097646
32
0.0000000000
13
-0.3322818254
23
-0.6208253880
33
0.0000000000
40
0.0000000000
40
0.0000000000
40
0.0000000000
40
0.0000000000
40
0.1167145107
40
0.2371013834
40
0.3589208093
40
0.4799625639
40
0.5980712712
40
0.7111020622
40
0.8168302618
40
0.9134912417
40
1.0000000000
40
1.0000000000
40
1.0000000000
40
1.0000000000
10
40.9810387787
20
-21.9535149452
30
0.0000000000
10
40.9803146707
20
-21.9809004398
30
0.0000000000
10
40.9782124930
20
-22.0365186247
30
0.0000000000
10
40.9730024507
20
-22.1206113705
30
0.0000000000
10
40.9654708795
20
-22.2055505253
30
0.0000000000
10
40.9554713227
20
-22.2896989335
30
0.0000000000
10
40.9428982557
20
-22.3714206766
30
0.0000000000
10
40.9276785326
20
-22.4490361366
30
0.0000000000
10
40.9097483520
20
-22.5209167692
30
0.0000000000
10
40.8889407771
20
-22.5855011076
30
0.0000000000
10
40.8719024440
20
-22.6251324307
30
0.0000000000
10
40.8623206812
20
-22.6430347085
30
0.0000000000
11
40.9810387787
21
-21.9535149452
31
0.0000000000
11
40.9779204584
21
-22.0356409636
31
0.0000000000
11
40.9726511700
21
-22.1202481514
31
0.0000000000
11
40.9650289803
21
-22.2056886896
31
0.0000000000
11
40.9549000498
21
-22.2903169447
31
0.0000000000
11
40.9421448633
21
-22.3724999322
31
0.0000000000
11
40.9266673240
21
-22.4505718128
31
0.0000000000
11
40.9083945737
21
-22.5227436814
31
0.0000000000
11
40.8871386148
21
-22.5874039102
31
0.0000000000
11
40.8623206812
21
-22.6430347085
31
0.0000000000
0
SPLINE
5
339
100
AcDbEntity
8
0
100
AcDbSpline
62
9
6
CONTINUOUS
70
0
71
3
72
9
73
5
74
3
42
0.0000001000
43
0.0000001000
44
0.0000000001
12
-0.0006911613
22
-0.0470419449
32
0.0000000000
13
-0.0012462017
23
-0.0470305142
33
0.0000000000
40
0.0000000000
40
0.0000000000
40
0.0000000000
40
0.0000000000
40
0.4908475845
40
1.0000000000
40
1.0000000000
40
1.0000000000
40
1.0000000000
10
40.9820383352
20
-21.9064787424
30
0.0000000000
10
40.9819252502
20
-21.9141755508
30
0.0000000000
10
40.9816323633
20
-21.9298552992
30
0.0000000000
10
40.9812502809
20
-21.9455330453
30
0.0000000000
10
40.9810387787
20
-21.9535149452
30
0.0000000000
11
40.9820383352
21
-21.9064787424
31
0.0000000000
11
40.9816162346
21
-21.9295678016
31
0.0000000000
11
40.9810387787
21
-21.9535149452
31
0.0000000000
0
SPLINE
5
33A
100
AcDbEntity
8
0
100
AcDbSpline
62
9
6
CONTINUOUS
70
0
71
3
72
9
73
5
74
3
42
0.0000001000
43
0.0000001000
44
0.0000000001
12
-0.0006927050
22
0.0470419225
32
0.0000000000
13
-0.0012424603
23
0.0470306135
33
0.0000000000
40
0.0000000000
40
0.0000000000
40
0.0000000000
40
0.0000000000
40
0.4895782043
40
1.0000000000
40
1.0000000000
40
1.0000000000
40
1.0000000000
10
40.9820383352
20
23.5352601629
30
0.0000000000
10
40.9819252907
20
23.5429370629
30
0.0000000000
10
40.9816333122
20
23.5586168285
30
0.0000000000
10
40.9812501717
20
23.5742945490
30
0.0000000000
10
40.9810387787
20
23.5822963657
30
0.0000000000
11
40.9820383352
21
23.5352601629
31
0.0000000000
11
40.9816175478
21
23.5582895157
31
0.0000000000
11
40.9810387787
21
23.5822963657
31
0.0000000000
0
SPLINE
5
33B
100
AcDbEntity
8
0
100
AcDbSpline
62
9
6
CONTINUOUS
70
0
71
3
72
15
73
11
74
9
42
0.0000001000
43
0.0000001000
44
0.0000000001
12
-0.0186055327
22
0.7039048929
32
0.0000000000
13
-0.3311278599
23
0.6214359215
33
0.0000000000
40
0.0000000000
40
0.0000000000
40
0.0000000000
40
0.0000000000
40
0.1711987432
40
0.3270288051
40
0.4687454737
40
0.5977367300
40
0.7149812301
40
0.8212844958
40
0.9169576914
40
1.0000000000
40
1.0000000000
40
1.0000000000
40
1.0000000000
10
40.9810387787
20
23.5822963657
30
0.0000000000
10
40.9799770308
20
23.6224655767
30
0.0000000000
10
40.9766743962
20
23.6991716251
30
0.0000000000
10
40.9681881839
20
23.8088870833
30
0.0000000000
10
40.9569506703
20
23.9083924024
30
0.0000000000
10
40.9432795731
20
23.9984446344
30
0.0000000000
10
40.9273064368
20
24.0796649372
30
0.0000000000
10
40.9089897564
20
24.1523671829
30
0.0000000000
10
40.8882777672
20
24.2160338302
30
0.0000000000
10
40.8714865552
20
24.2546143044
30
0.0000000000
10
40.8623206813
20
24.2718161290
30
0.0000000000
11
40.9810387787
21
23.5822963657
31
0.0000000000
11
40.9758017478
21
23.7027322777
31
0.0000000000
11
40.9672600565
21
23.8121271647
31
0.0000000000
11
40.9559556256
21
23.9112746982
31
0.0000000000
11
40.9421851913
21
24.0010540655
31
0.0000000000
11
40.9260684716
21
24.0820234543
31
0.0000000000
11
40.9075243753
21
24.1545435648
31
0.0000000000
11
40.8862696732
21
24.2184711208
31
0.0000000000
11
40.8623206813
21
24.2718161290
31
0.0000000000
0
SPLINE
5
33C
100
AcDbEntity
8
0
100
AcDbSpline
62
9
6
CONTINUOUS
70
0
71
3
72
11
73
7
74
5
42
0.0000001000
43
0.0000001000
44
0.0000000001
12
-0.0855255277
22
0.1600833983
32
0.0000000000
13
-0.0847276609
23
0.1605071144
33
0.0000000000
40
0.0000000000
40
0.0000000000
40
0.0000000000
40
0.0000000000
40
0.2791246728
40
0.5481367325
40
0.7926337035
40
1.0000000000
40
1.0000000000
40
1.0000000000
40
1.0000000000
10
40.8623206813
20
24.2718161290
30
0.0000000000
10
40.8543632530
20
24.2867105377
30
0.0000000000
10
40.8387642921
20
24.3159744825
30
0.0000000000
10
40.8162635270
20
24.3583214983
30
0.0000000000
10
40.7958476119
20
24.3968601396
30
0.0000000000
10
40.7830711642
20
24.4210281490
30
0.0000000000
10
40.7772146105
20
24.4321227376
30
0.0000000000
11
40.8623206813
21
24.2718161290
31
0.0000000000
11
40.8384865709
21
24.3165197292
31
0.0000000000
11
40.8155769574
21
24.3596361935
31
0.0000000000
11
40.7948021162
21
24.3988483975
31
0.0000000000
11
40.7772146105
21
24.4321227376
31
0.0000000000
0
SPLINE
5
33D
100
AcDbEntity
8
0
100
AcDbSpline
62
9
6
CONTINUOUS
70
0
71
3
72
10
73
6
74
4
42
0.0000001000
43
0.0000001000
44
0.0000000001
12
0.1652062881
22
0.0755729707
32
0.0000000000
13
0.1650811740
23
0.0758458800
33
0.0000000000
40
0.0000000000
40
0.0000000000
40
0.0000000000
40
0.0000000000
40
0.3041963944
40
0.6367034949
40
1.0000000000
40
1.0000000000
40
1.0000000000
40
1.0000000000
10
198.7107219045
20
24.3563397747
30
0.0000000000
10
198.7274736235
20
24.3640027831
30
0.0000000000
10
198.7625255219
20
24.3800650790
30
0.0000000000
10
198.8175693990
20
24.4053104283
30
0.0000000000
10
198.8558406879
20
24.4229381228
30
0.0000000000
10
198.8758318257
20
24.4321229705
30
0.0000000000
11
198.7107219045
21
24.3563397747
31
0.0000000000
11
198.7609657538
21
24.3793535034
31
0.0000000000
11
198.8158681363
21
24.4045472724
31
0.0000000000
11
198.8758318257
21
24.4321229705
31
0.0000000000
0
SPLINE
5
33E
100
AcDbEntity
8
0
100
AcDbSpline
62
9
6
CONTINUOUS
70
0
71
3
72
14
73
10
74
8
42
0.0000001000
43
0.0000001000
44
0.0000000001
12
157.9398337238
22
8.6354504333
32
0.0000000000
13
157.9398337663
23
-8.6354496562
33
0.0000000000
40
0.0000000000
40
0.0000000000
40
0.0000000000
40
0.0000000000
40
0.1429385661
40
0.2858086130
40
0.4286120236
40
0.5713878662
40
0.7141912613
40
0.8570613328
40
1.0000000000
40
1.0000000000
40
1.0000000000
40
1.0000000000
10
40.7772146105
20
24.4321227375
30
0.0000000000
10
48.3024457330
20
24.8435690385
30
0.0000000000
10
63.3559739311
20
25.5490703310
30
0.0000000000
10
85.9445006368
20
26.2547237782
30
0.0000000000
10
108.5327706898
20
26.6075033873
30
0.0000000000
10
131.1202619106
20
26.6075035307
30
0.0000000000
10
153.7085324456
20
26.2547241970
30
0.0000000000
10
176.2970649676
20
25.5490708828
30
0.0000000000
10
191.3505997885
20
24.8435692845
30
0.0000000000
10
198.8758362354
20
24.4321227296
30
0.0000000000
11
40.7772146105
21
24.4321227375
31
0.0000000000
11
63.3618425505
21
25.4904725695
31
0.0000000000
11
85.9493998409
21
26.1960300555
31
0.0000000000
11
108.5346800252
21
26.5487291948
31
0.0000000000
11
131.1183533963
21
26.5487293343
31
0.0000000000
11
153.7036311241
21
26.1960305272
31
0.0000000000
11
176.2911923170
21
25.4904732015
31
0.0000000000
11
198.8758362354
21
24.4321227296
31
0.0000000000
0
SPLINE
5
33F
100
AcDbEntity
8
0
100
AcDbSpline
62
9
6
CONTINUOUS
70
0
71
3
72
11
73
7
74
5
42
0.0000001000
43
0.0000001000
44
0.0000000001
12
-0.1652062747
22
0.0755823760
32
0.0000000000
13
-0.1650433616
23
0.0759374580
33
0.0000000000
40
0.0000000000
40
0.0000000000
40
0.0000000000
40
0.0000000000
40
0.2794000336
40
0.5484851877
40
0.7928550078
40
1.0000000000
40
1.0000000000
40
1.0000000000
40
1.0000000000
10
40.9423289343
20
24.3563397813
30
0.0000000000
10
40.9269427214
20
24.3633790208
30
0.0000000000
10
40.8967446078
20
24.3772113624
30
0.0000000000
10
40.8531036344
20
24.3972315498
30
0.0000000000
10
40.8134501017
20
24.4154497247
30
0.0000000000
10
40.7886105809
20
24.4268793838
30
0.0000000000
10
40.7772146122
20
24.4321227385
30
0.0000000000
11
40.9423289343
21
24.3563397813
31
0.0000000000
11
40.8961787597
21
24.3774759904
31
0.0000000000
11
40.8517452523
21
24.3978600302
31
0.0000000000
11
40.8114036264
21
24.4163950833
31
0.0000000000
11
40.7772146122
21
24.4321227385
31
0.0000000000
0
SPLINE
5
340
100
AcDbEntity
8
0
100
AcDbSpline
62
9
6
CONTINUOUS
70
0
71
3
72
16
73
12
74
10
42
0.0000001000
43
0.0000001000
44
0.0000000001
12
0.0186115062
22
0.7039173779
32
0.0000000000
13
0.3315425510
23
0.6212291043
33
0.0000000000
40
0.0000000000
40
0.0000000000
40
0.0000000000
40
0.0000000000
40
0.1284410903
40
0.2568294165
40
0.3831130970
40
0.5053496219
40
0.6217186087
40
0.7304920306
40
0.8300670828
40
0.9198759358
40
1.0000000000
40
1.0000000000
40
1.0000000000
40
1.0000000000
10
198.6720120671
20
23.5822963657
30
0.0000000000
10
198.6728088945
20
23.6124336709
30
0.0000000000
10
198.6751543535
20
23.6726789956
30
0.0000000000
10
198.6810103152
20
23.7624235113
30
0.0000000000
10
198.6892730607
20
23.8505184457
30
0.0000000000
10
198.6999442591
20
23.9355140323
30
0.0000000000
10
198.7129852227
20
24.0160223893
30
0.0000000000
10
198.7283237188
20
24.0907068251
30
0.0000000000
10
198.7459133096
20
24.1584891714
30
0.0000000000
10
198.7658391252
20
24.2185747250
30
0.0000000000
10
198.7818753155
20
24.2552243221
30
0.0000000000
10
198.7907301611
20
24.2718161223
30
0.0000000000
11
198.6720120671
21
23.5822963657
31
0.0000000000
11
198.6755500554
21
23.6726706514
31
0.0000000000
11
198.6814720765
21
23.7628828409
31
0.0000000000
11
198.6898316776
21
23.8514133772
31
0.0000000000
11
198.7006353607
21
23.9368071550
31
0.0000000000
11
198.7138535219
21
24.0176767983
31
0.0000000000
11
198.7294259220
21
24.0926713385
31
0.0000000000
11
198.7472716289
21
24.1604794441
31
0.0000000000
11
198.7675250190
21
24.2203886346
31
0.0000000000
11
198.7907301611
21
24.2718161223
31
0.0000000000
0
SPLINE
5
341
100
AcDbEntity
8
0
100
AcDbSpline
62
9
6
CONTINUOUS
70
0
71
3
72
9
73
5
74
3
42
0.0000001000
43
0.0000001000
44
0.0000000001
12
0.0006911613
22
0.0470419449
32
0.0000000000
13
0.0012462017
23
0.0470305142
33
0.0000000000
40
0.0000000000
40
0.0000000000
40
0.0000000000
40
0.0000000000
40
0.4908475845
40
1.0000000000
40
1.0000000000
40
1.0000000000
40
1.0000000000
10
198.6710125107
20
23.5352601629
30
0.0000000000
10
198.6711255957
20
23.5429569712
30
0.0000000000
10
198.6714184826
20
23.5586367196
30
0.0000000000
10
198.6718005650
20
23.5743144657
30
0.0000000000
10
198.6720120671
20
23.5822963657
30
0.0000000000
11
198.6710125107
21
23.5352601629
31
0.0000000000
11
198.6714346113
21
23.5583492221
31
0.0000000000
11
198.6720120671
21
23.5822963657
31
0.0000000000
0
SPLINE
5
342
100
AcDbEntity
8
0
100
AcDbSpline
62
9
6
CONTINUOUS
70
0
71
3
72
9
73
5
74
3
42
0.0000001000
43
0.0000001000
44
0.0000000001
12
0.0006927050
22
-0.0470419225
32
0.0000000000
13
0.0012424603
23
-0.0470306135
33
0.0000000000
40
0.0000000000
40
0.0000000000
40
0.0000000000
40
0.0000000000
40
0.4895782043
40
1.0000000000
40
1.0000000000
40
1.0000000000
40
1.0000000000
10
198.6710125107
20
-21.9064787424
30
0.0000000000
10
198.6711255551
20
-21.9141556424
30
0.0000000000
10
198.6714175336
20
-21.9298354080
30
0.0000000000
10
198.6718006742
20
-21.9455131285
30
0.0000000000
10
198.6720120671
20
-21.9535149452
30
0.0000000000
11
198.6710125107
21
-21.9064787424
31
0.0000000000
11
198.6714332981
21
-21.9295080952
31
0.0000000000
11
198.6720120671
21
-21.9535149452
31
0.0000000000
0
SPLINE
5
343
100
AcDbEntity
8
0
100
AcDbSpline
62
9
6
CONTINUOUS
70
0
71
3
72
15
73
11
74
9
42
0.0000001000
43
0.0000001000
44
0.0000000001
12
0.0186166121
22
-0.7039066961
32
0.0000000000
13
0.3316086572
23
-0.6211818684
33
0.0000000000
40
0.0000000000
40
0.0000000000
40
0.0000000000
40
0.0000000000
40
0.1775557600
40
0.3359254557
40
0.4778063300
40
0.6056303763
40
0.7210344359
40
0.8252668103
40
0.9186767643
40
1.0000000000
40
1.0000000000
40
1.0000000000
40
1.0000000000
10
198.6720120671
20
-21.9535149452
30
0.0000000000
10
198.6731138960
20
-21.9951758414
30
0.0000000000
10
198.6765536582
20
-22.0739683321
30
0.0000000000
10
198.6853905823
20
-22.1857912793
30
0.0000000000
10
198.6968988684
20
-22.2856296625
30
0.0000000000
10
198.7107091645
20
-22.3749858519
30
0.0000000000
10
198.7266822893
20
-22.4549907127
30
0.0000000000
10
198.7448473699
20
-22.5262358631
30
0.0000000000
10
198.7652827308
20
-22.5884951988
30
0.0000000000
10
198.7817409980
20
-22.6261958620
30
0.0000000000
10
198.7907301610
20
-22.6430347018
30
0.0000000000
11
198.6720120671
21
-21.9535149452
31
0.0000000000
11
198.6775248466
21
-22.0784197406
31
0.0000000000
11
198.6863963056
21
-22.1895827756
31
0.0000000000
11
198.6979467871
21
-22.2888186523
31
0.0000000000
11
198.7118337201
21
-22.3777485841
31
0.0000000000
11
198.7279268879
21
-22.4574011933
31
0.0000000000
11
198.7463124021
21
-22.5284566330
31
0.0000000000
11
198.7672136245
21
-22.5908222827
31
0.0000000000
11
198.7907301610
21
-22.6430347018
31
0.0000000000
0
SPLINE
5
344
100
AcDbEntity
8
0
100
AcDbSpline
62
9
6
CONTINUOUS
70
0
71
3
72
11
73
7
74
5
42
0.0000001000
43
0.0000001000
44
0.0000000001
12
0.0855255246
22
-0.1600834017
32
0.0000000000
13
0.0847278864
23
-0.1605069971
33
0.0000000000
40
0.0000000000
40
0.0000000000
40
0.0000000000
40
0.0000000000
40
0.2791246125
40
0.5481366551
40
0.7926336515
40
1.0000000000
40
1.0000000000
40
1.0000000000
40
1.0000000000
10
198.7907301610
20
-22.6430347018
30
0.0000000000
10
198.7986875873
20
-22.6579291076
30
0.0000000000
10
198.8142865447
20
-22.6871930494
30
0.0000000000
10
198.8367873090
20
-22.7295400625
30
0.0000000000
10
198.8572032143
20
-22.7680787135
30
0.0000000000
10
198.8699796646
20
-22.7922467271
30
0.0000000000
10
198.8758362354
20
-22.8033413104
30
0.0000000000
11
198.7907301610
21
-22.6430347018
31
0.0000000000
11
198.8145642650
21
-22.6877382935
31
0.0000000000
11
198.8374738750
21
-22.7308547566
31
0.0000000000
11
198.8582487109
21
-22.7700669692
31
0.0000000000
11
198.8758362354
21
-22.8033413104
31
0.0000000000
0
SPLINE
5
345
100
AcDbEntity
8
0
100
AcDbSpline
62
9
6
CONTINUOUS
70
0
71
3
72
10
73
6
74
4
42
0.0000001000
43
0.0000001000
44
0.0000000001
12
0.0855156446
22
0.1600885062
32
0.0000000000
13
0.0846293055
23
0.1605588239
33
0.0000000000
40
0.0000000000
40
0.0000000000
40
0.0000000000
40
0.0000000000
40
0.3046371510
40
0.6379725857
40
1.0000000000
40
1.0000000000
40
1.0000000000
40
1.0000000000
10
198.7907301611
20
24.2718161223
30
0.0000000000
10
198.7994139085
20
24.2880724245
30
0.0000000000
10
198.8175708089
20
24.3221317703
30
0.0000000000
10
198.8459321799
20
24.3755711955
30
0.0000000000
10
198.8656235259
20
24.4127470016
30
0.0000000000
10
198.8758362354
20
24.4321225668
30
0.0000000000
11
198.7907301611
21
24.2718161223
31
0.0000000000
11
198.8167396537
21
24.3206073075
31
0.0000000000
11
198.8451115197
21
24.3740415928
31
0.0000000000
11
198.8758362354
21
24.4321225668
31
0.0000000000
0
SPLINE
5
346
100
AcDbEntity
8
0
100
AcDbSpline
62
9
6
CONTINUOUS
70
0
71
3
72
10
73
6
74
4
42
0.0000001000
43
0.0000001000
44
0.0000000001
12
-0.1652063607
22
-0.0755729999
32
0.0000000000
13
-0.1650812189
23
-0.0758459696
33
0.0000000000
40
0.0000000000
40
0.0000000000
40
0.0000000000
40
0.0000000000
40
0.3042128093
40
0.6367392313
40
1.0000000000
40
1.0000000000
40
1.0000000000
40
1.0000000000
10
40.9423289343
20
-22.7275583609
30
0.0000000000
10
40.9255763039
20
-22.7352217858
30
0.0000000000
10
40.8905224212
20
-22.7512849861
30
0.0000000000
10
40.8354785297
20
-22.7765303664
30
0.0000000000
10
40.7972081014
20
-22.7941575965
30
0.0000000000
10
40.7772189246
20
-22.8033415516
30
0.0000000000
11
40.9423289343
21
-22.7275583609
31
0.0000000000
11
40.8920823520
21
-22.7505733410
31
0.0000000000
11
40.8371767558
21
-22.7757685854
31
0.0000000000
11
40.7772189246
21
-22.8033415516
31
0.0000000000
0
SPLINE
5
347
100
AcDbEntity
8
0
100
AcDbSpline
62
9
6
CONTINUOUS
70
0
71
3
72
14
73
10
74
8
42
0.0000001000
43
0.0000001000
44
0.0000000001
12
-157.9398337402
22
-8.6354501336
32
0.0000000000
13
-157.9398337493
23
8.6354499664
33
0.0000000000
40
0.0000000000
40
0.0000000000
40
0.0000000000
40
0.0000000000
40
0.1429386663
40
0.2858087379
40
0.4286121329
40
0.5713879755
40
0.7141913861
40
0.8570614330
40
1.0000000000
40
1.0000000000
40
1.0000000000
40
1.0000000000
10
198.8758362354
20
-22.8033413103
30
0.0000000000
10
191.3505998370
20
-23.2147878853
30
0.0000000000
10
176.2970650614
20
-23.9202894473
30
0.0000000000
10
153.7085325870
20
-24.6259427761
30
0.0000000000
10
131.1202620512
20
-24.9787221082
30
0.0000000000
10
108.5327708298
20
-24.9787219688
30
0.0000000000
10
85.9445007763
20
-24.6259423581
30
0.0000000000
10
63.3559740232
20
-23.9202889254
30
0.0000000000
10
48.3024457804
20
-23.2147875971
30
0.0000000000
10
40.7772146105
20
-22.8033413159
30
0.0000000000
11
198.8758362354
21
-22.8033413103
31
0.0000000000
11
176.2911924589
21
-23.8616917755
31
0.0000000000
11
153.7036312654
21
-24.5672491034
31
0.0000000000
11
131.1183535370
21
-24.9199479128
31
0.0000000000
11
108.5346801652
21
-24.9199477754
31
0.0000000000
11
85.9493999802
21
-24.5672486383
31
0.0000000000
11
63.3618426892
21
-23.8616911544
31
0.0000000000
11
40.7772146105
21
-22.8033413159
31
0.0000000000
0
SPLINE
5
348
100
AcDbEntity
8
0
100
AcDbSpline
62
9
6
CONTINUOUS
70
0
71
3
72
11
73
7
74
5
42
0.0000001000
43
0.0000001000
44
0.0000000001
12
0.1652062786
22
-0.0755823827
32
0.0000000000
13
0.1650434614
23
-0.0759372563
33
0.0000000000
40
0.0000000000
40
0.0000000000
40
0.0000000000
40
0.0000000000
40
0.2793999496
40
0.5484850587
40
0.7928548462
40
1.0000000000
40
1.0000000000
40
1.0000000000
40
1.0000000000
10
198.7107219044
20
-22.7275583542
30
0.0000000000
10
198.7261081130
20
-22.7345975921
30
0.0000000000
10
198.7563062200
20
-22.7484299325
30
0.0000000000
10
198.7999471862
20
-22.7684501160
30
0.0000000000
10
198.8396007195
20
-22.7866683055
30
0.0000000000
10
198.8644402491
20
-22.7980979664
30
0.0000000000
10
198.8758362335
20
-22.8033413113
30
0.0000000000
11
198.7107219044
21
-22.7275583542
31
0.0000000000
11
198.7568720661
21
-22.7486945591
31
0.0000000000
11
198.8013055665
21
-22.7690785986
31
0.0000000000
11
198.8416471851
21
-22.7876136571
31
0.0000000000
11
198.8758362335
21
-22.8033413113
31
0.0000000000
0
SPLINE
5
349
100
AcDbEntity
8
0
100
AcDbSpline
62
9
6
CONTINUOUS
70
0
71
3
72
11
73
7
74
5
42
0.0000001000
43
0.0000001000
44
0.0000000001
12
0.2093677597
22
-0.1495934513
32
0.0000000000
13
0.0105999009
23
-0.2571005671
33
0.0000000000
40
0.0000000000
40
0.0000000000
40
0.0000000000
40
0.0000000000
40
0.0939393681
40
0.2995692379
40
0.6070448839
40
1.0000000000
40
1.0000000000
40
1.0000000000
40
1.0000000000
10
198.4412231873
20
-21.7500329611
30
0.0000000000
10
198.4477791456
20
-21.7547171992
30
0.0000000000
10
198.4517367400
20
-21.7837653152
30
0.0000000000
10
198.4609695399
20
-21.8321841353
30
0.0000000000
10
198.4664760553
20
-21.9112403939
30
0.0000000000
10
198.4698981753
20
-21.9707649821
30
0.0000000000
10
198.4712866038
20
-22.0044413099
30
0.0000000000
11
198.4412231873
21
-21.7500329611
31
0.0000000000
11
198.4503200725
21
-21.7724282902
31
0.0000000000
11
198.4586679818
21
-21.8246780922
31
0.0000000000
11
198.4657957110
21
-21.9034756962
31
0.0000000000
11
198.4712866038
21
-22.0044413099
31
0.0000000000
0
SPLINE
5
34A
100
AcDbEntity
8
0
100
AcDbSpline
62
9
6
CONTINUOUS
70
0
71
3
72
13
73
9
74
7
42
0.0000001000
43
0.0000001000
44
0.0000000001
12
-0.2095064352
22
-0.1497086577
32
0.0000000000
13
-0.0106068075
23
-0.2572802445
33
0.0000000000
40
0.0000000000
40
0.0000000000
40
0.0000000000
40
0.0000000000
40
0.0449157699
40
0.1412097563
40
0.2933221136
40
0.4956645319
40
0.7365020851
40
1.0000000000
40
1.0000000000
40
1.0000000000
40
1.0000000000
10
41.2118276586
20
-21.7500329611
30
0.0000000000
10
41.2086909443
20
-21.7522743876
30
0.0000000000
10
41.2044875530
20
-21.7647803301
30
0.0000000000
10
41.1989616374
20
-21.7885413244
30
0.0000000000
10
41.1938024972
20
-21.8273475384
30
0.0000000000
10
41.1889030278
20
-21.8780320768
30
0.0000000000
10
41.1848014221
20
-21.9386207960
30
0.0000000000
10
41.1826958660
20
-21.9818437072
30
0.0000000000
10
41.1817642421
20
-22.0044413099
30
0.0000000000
11
41.2118276586
21
-21.7500329611
31
0.0000000000
11
41.2061730530
21
-21.7601221712
31
0.0000000000
11
41.2002891834
21
-21.7842095357
31
0.0000000000
11
41.1945873084
21
-21.8229610451
31
0.0000000000
11
41.1894440056
21
-21.8748094934
31
0.0000000000
11
41.1851203106
21
-21.9366739658
31
0.0000000000
11
41.1817642421
21
-22.0044413099
31
0.0000000000
0
SPLINE
5
34B
100
AcDbEntity
8
0
100
AcDbSpline
62
9
6
CONTINUOUS
70
0
71
3
72
9
73
5
74
3
42
0.0000001000
43
0.0000001000
44
0.0000000001
12
-0.0013802679
22
-0.0336296711
32
0.0000000000
13
-0.0024982291
23
-0.0335651422
33
0.0000000000
40
0.0000000000
40
0.0000000000
40
0.0000000000
40
0.0000000000
40
0.4903571947
40
1.0000000000
40
1.0000000000
40
1.0000000000
40
1.0000000000
10
41.1817642421
20
-22.0044413099
30
0.0000000000
10
41.1815386340
20
-22.0099381603
30
0.0000000000
10
41.1809700857
20
-22.0211439303
30
0.0000000000
10
41.1801895307
20
-22.0323365198
30
0.0000000000
10
41.1797651292
20
-22.0380385976
30
0.0000000000
11
41.1817642421
21
-22.0044413099
31
0.0000000000
11
41.1809300735
21
-22.0209246509
31
0.0000000000
11
41.1797651292
21
-22.0380385976
31
0.0000000000
0
SPLINE
5
34C
100
AcDbEntity
8
0
100
AcDbSpline
62
9
6
CONTINUOUS
70
0
71
3
72
9
73
5
74
3
42
0.0000001000
43
0.0000001000
44
0.0000000001
12
0.0013871029
22
-0.0336292521
32
0.0000000000
13
0.0024792852
23
-0.0335664087
33
0.0000000000
40
0.0000000000
40
0.0000000000
40
0.0000000000
40
0.0000000000
40
0.4892339744
40
1.0000000000
40
1.0000000000
40
1.0000000000
40
1.0000000000
10
198.4712866038
20
-22.0044413099
30
0.0000000000
10
198.4715128097
20
-22.0099255007
30
0.0000000000
10
198.4720941557
20
-22.0211305236
30
0.0000000000
10
198.4728636051
20
-22.0323237372
30
0.0000000000
10
198.4732857166
20
-22.0380385976
30
0.0000000000
11
198.4712866038
21
-22.0044413099
31
0.0000000000
11
198.4721266607
21
-22.0208864299
31
0.0000000000
11
198.4732857166
21
-22.0380385976
31
0.0000000000
0
SPLINE
5
34D
100
AcDbEntity
8
0
100
AcDbSpline
62
9
6
CONTINUOUS
70
0
71
3
72
11
73
7
74
5
42
0.0000001000
43
0.0000001000
44
0.0000000001
12
-0.2093677597
22
0.1495934513
32
0.0000000000
13
-0.0105999009
23
0.2571005671
33
0.0000000000
40
0.0000000000
40
0.0000000000
40
0.0000000000
40
0.0000000000
40
0.0939393681
40
0.2995692379
40
0.6070448839
40
1.0000000000
40
1.0000000000
40
1.0000000000
40
1.0000000000
10
41.2118276586
20
23.3788143815
30
0.0000000000
10
41.2052717002
20
23.3834986196
30
0.0000000000
10
41.2013141059
20
23.4125467357
30
0.0000000000
10
41.1920813060
20
23.4609655558
30
0.0000000000
10
41.1865747906
20
23.5400218144
30
0.0000000000
10
41.1831526705
20
23.5995464026
30
0.0000000000
10
41.1817642421
20
23.6332227303
30
0.0000000000
11
41.2118276586
21
23.3788143815
31
0.0000000000
11
41.2027307734
21
23.4012097107
31
0.0000000000
11
41.1943828641
21
23.4534595126
31
0.0000000000
11
41.1872551348
21
23.5322571167
31
0.0000000000
11
41.1817642421
21
23.6332227303
31
0.0000000000
0
SPLINE
5
34E
100
AcDbEntity
8
0
100
AcDbSpline
62
9
6
CONTINUOUS
70
0
71
3
72
13
73
9
74
7
42
0.0000001000
43
0.0000001000
44
0.0000000001
12
0.2095064352
22
0.1497086577
32
0.0000000000
13
0.0106068075
23
0.2572802445
33
0.0000000000
40
0.0000000000
40
0.0000000000
40
0.0000000000
40
0.0000000000
40
0.0449157699
40
0.1412097563
40
0.2933221136
40
0.4956645319
40
0.7365020851
40
1.0000000000
40
1.0000000000
40
1.0000000000
40
1.0000000000
10
198.4412231873
20
23.3788143815
30
0.0000000000
10
198.4443599016
20
23.3810558081
30
0.0000000000
10
198.4485632929
20
23.3935617505
30
0.0000000000
10
198.4540892084
20
23.4173227449
30
0.0000000000
10
198.4592483487
20
23.4561289589
30
0.0000000000
10
198.4641478181
20
23.5068134973
30
0.0000000000
10
198.4682494238
20
23.5674022165
30
0.0000000000
10
198.4703549799
20
23.6106251277
30
0.0000000000
10
198.4712866038
20
23.6332227303
30
0.0000000000
11
198.4412231873
21
23.3788143815
31
0.0000000000
11
198.4468777928
21
23.3889035917
31
0.0000000000
11
198.4527616624
21
23.4129909562
31
0.0000000000
11
198.4584635374
21
23.4517424655
31
0.0000000000
11
198.4636068403
21
23.5035909139
31
0.0000000000
11
198.4679305353
21
23.5654553862
31
0.0000000000
11
198.4712866038
21
23.6332227303
31
0.0000000000
0
SPLINE
5
34F
100
AcDbEntity
8
0
100
AcDbSpline
62
9
6
CONTINUOUS
70
0
71
3
72
9
73
5
74
3
42
0.0000001000
43
0.0000001000
44
0.0000000001
12
0.0013802679
22
0.0336296711
32
0.0000000000
13
0.0024982290
23
0.0335651422
33
0.0000000000
40
0.0000000000
40
0.0000000000
40
0.0000000000
40
0.0000000000
40
0.4903571947
40
1.0000000000
40
1.0000000000
40
1.0000000000
40
1.0000000000
10
198.4712866038
20
23.6332227303
30
0.0000000000
10
198.4715122119
20
23.6387195807
30
0.0000000000
10
198.4720807601
20
23.6499253508
30
0.0000000000
10
198.4728613151
20
23.6611179403
30
0.0000000000
10
198.4732857166
20
23.6668200181
30
0.0000000000
11
198.4712866038
21
23.6332227303
31
0.0000000000
11
198.4721207724
21
23.6497060714
31
0.0000000000
11
198.4732857166
21
23.6668200181
31
0.0000000000
0
SPLINE
5
350
100
AcDbEntity
8
0
100
AcDbSpline
62
9
6
CONTINUOUS
70
0
71
3
72
9
73
5
74
3
42
0.0000001000
43
0.0000001000
44
0.0000000001
12
-0.0013871029
22
0.0336292521
32
0.0000000000
13
-0.0024792852
23
0.0335664087
33
0.0000000000
40
0.0000000000
40
0.0000000000
40
0.0000000000
40
0.0000000000
40
0.4892339744
40
1.0000000000
40
1.0000000000
40
1.0000000000
40
1.0000000000
10
41.1817642421
20
23.6332227303
30
0.0000000000
10
41.1815380362
20
23.6387069212
30
0.0000000000
10
41.1809566901
20
23.6499119440
30
0.0000000000
10
41.1801872408
20
23.6611051577
30
0.0000000000
10
41.1797651292
20
23.6668200181
30
0.0000000000
11
41.1817642421
21
23.6332227303
31
0.0000000000
11
41.1809241852
21
23.6496678504
31
0.0000000000
11
41.1797651292
21
23.6668200181
31
0.0000000000
0
SPLINE
5
351
100
AcDbEntity
8
0
100
AcDbSpline
62
0
6
CONTINUOUS
70
0
71
3
72
10
73
6
74
4
42
0.0000001000
43
0.0000001000
44
0.0000000001
12
202.0051397205
22
-0.0000031897
32
0.0000000000
13
202.0051397205
23
0.0000031897
33
0.0000000000
40
0.0000000000
40
0.0000000000
40
0.0000000000
40
0.0000000000
40
0.3333008927
40
0.6666991073
40
1.0000000000
40
1.0000000000
40
1.0000000000
40
1.0000000000
10
18.8239555627
20
43.2143906951
30
0.0000000000
10
41.2667866926
20
43.2143903407
30
0.0000000000
10
86.1590021362
20
43.2143788035
30
0.0000000000
10
153.4940487097
20
43.2143788035
30
0.0000000000
10
198.3862641533
20
43.2143903407
30
0.0000000000
10
220.8290952832
20
43.2143906951
30
0.0000000000
11
18.8239555627
21
43.2143906951
31
0.0000000000
11
86.1524489523
21
43.2143816887
31
0.0000000000
11
153.5006018935
21
43.2143816887
31
0.0000000000
11
220.8290952832
21
43.2143906951
31
0.0000000000
0
SPLINE
5
352
100
AcDbEntity
8
0
100
AcDbSpline
62
0
6
CONTINUOUS
70
0
71
3
72
10
73
6
74
4
42
0.0000001000
43
0.0000001000
44
0.0000000001
12
202.0051397205
22
0.0000031897
32
0.0000000000
13
202.0051397205
23
-0.0000031897
33
0.0000000000
40
0.0000000000
40
0.0000000000
40
0.0000000000
40
0.0000000000
40
0.3333008927
40
0.6666991073
40
1.0000000000
40
1.0000000000
40
1.0000000000
40
1.0000000000
10
18.8239555627
20
-41.5856092746
30
0.0000000000
10
41.2667866926
20
-41.5856089203
30
0.0000000000
10
86.1590021362
20
-41.5855973831
30
0.0000000000
10
153.4940487097
20
-41.5855973831
30
0.0000000000
10
198.3862641533
20
-41.5856089203
30
0.0000000000
10
220.8290952832
20
-41.5856092746
30
0.0000000000
11
18.8239555627
21
-41.5856092746
31
0.0000000000
11
86.1524489523
21
-41.5856002682
31
0.0000000000
11
153.5006018935
21
-41.5856002682
31
0.0000000000
11
220.8290952832
21
-41.5856092746
31
0.0000000000
0
SPLINE
5
353
100
AcDbEntity
8
0
100
AcDbSpline
62
0
6
CONTINUOUS
70
0
71
3
72
11
73
7
74
5
42
0.0000001000
43
0.0000001000
44
0.0000000001
12
-159.4545114265
22
-8.7985104168
32
0.0000000000
13
-159.4545114267
23
8.7985104127
33
0.0000000000
40
0.0000000000
40
0.0000000000
40
0.0000000000
40
0.0000000000
40
0.2467195937
40
0.5000000707
40
0.7532805085
40
1.0000000000
40
1.0000000000
40
1.0000000000
40
1.0000000000
10
199.6371581553
20
-24.2853544804
30
0.0000000000
10
186.5236407305
20
-25.0089427855
30
0.0000000000
10
159.9265571284
20
-26.1139799303
30
0.0000000000
10
119.8265162147
20
-26.6738623152
30
0.0000000000
10
79.7264807529
20
-26.1139794679
30
0.0000000000
10
53.1294046808
20
-25.0089424853
30
0.0000000000
10
40.0158926906
20
-24.2853544804
30
0.0000000000
11
199.6371581553
21
-24.2853544804
31
0.0000000000
11
160.2707227363
21
-25.9209082047
31
0.0000000000
11
119.8265141332
21
-26.4856092898
31
0.0000000000
11
79.3823117858
21
-25.9209077488
31
0.0000000000
11
40.0158926906
21
-24.2853544804
31
0.0000000000
0
SPLINE
5
354
100
AcDbEntity
8
0
100
AcDbSpline
62
0
6
CONTINUOUS
70
0
71
3
72
11
73
7
74
5
42
0.0000001000
43
0.0000001000
44
0.0000000001
12
159.4545114265
22
8.7985104168
32
0.0000000000
13
159.4545114267
23
-8.7985104127
33
0.0000000000
40
0.0000000000
40
0.0000000000
40
0.0000000000
40
0.0000000000
40
0.2467195937
40
0.5000000707
40
0.7532805085
40
1.0000000000
40
1.0000000000
40
1.0000000000
40
1.0000000000
10
40.0158926906
20
25.9141359009
30
0.0000000000
10
53.1294101154
20
26.6377242060
30
0.0000000000
10
79.7264937175
20
27.7427613508
30
0.0000000000
10
119.8265346312
20
28.3026437357
30
0.0000000000
10
159.9265700929
20
27.7427608884
30
0.0000000000
10
186.5236461650
20
26.6377239058
30
0.0000000000
10
199.6371581553
20
25.9141359009
30
0.0000000000
11
40.0158926906
21
25.9141359009
31
0.0000000000
11
79.3823281095
21
27.5496896252
31
0.0000000000
11
119.8265367126
21
28.1143907102
31
0.0000000000
11
160.2707390601
21
27.5496891692
31
0.0000000000
11
199.6371581553
21
25.9141359009
31
0.0000000000
0
SPLINE
5
355
100
AcDbEntity
8
0
100
AcDbSpline
62
0
6
CONTINUOUS
70
0
71
3
72
12
73
8
74
6
42
0.0000001000
43
0.0000001000
44
0.0000000001
12
0.0000000000
22
2.9659813831
32
0.0000000000
13
2.9659813831
23
-0.0000000468
33
0.0000000000
40
0.0000000000
40
0.0000000000
40
0.0000000000
40
0.0000000000
40
0.1988863458
40
0.3999588193
40
0.5992537744
40
0.8002312630
40
1.0000000000
40
1.0000000000
40
1.0000000000
40
1.0000000000
10
16.9265254229
20
41.3206306561
30
0.0000000000
10
16.9265254229
20
41.5172617224
30
0.0000000000
10
16.9889531871
20
41.9154426271
30
0.0000000000
10
17.2622142157
20
42.4519191114
30
0.0000000000
10
17.6900657207
20
42.8789811195
30
0.0000000000
10
18.2274843593
20
43.1519349125
30
0.0000000000
10
18.6264521110
20
43.2143906982
30
0.0000000000
10
18.8239555627
20
43.2143906951
30
0.0000000000
11
16.9265254229
21
41.3206306561
31
0.0000000000
11
17.0182736147
21
41.9033452136
31
0.0000000000
11
17.2888246918
21
42.4348223013
31
0.0000000000
11
17.7071410904
21
42.8524545096
31
0.0000000000
11
18.2386386702
21
43.1223436634
31
0.0000000000
11
18.8239555627
21
43.2143906951
31
0.0000000000
0
SPLINE
5
356
100
AcDbEntity
8
0
100
AcDbSpline
62
0
6
CONTINUOUS
70
0
71
3
72
12
73
8
74
6
42
0.0000001000
43
0.0000001000
44
0.0000000001
12
-2.9659813831
22
-0.0000000468
32
0.0000000000
13
-0.0000000000
23
2.9659813831
33
0.0000000000
40
0.0000000000
40
0.0000000000
40
0.0000000000
40
0.0000000000
40
0.1997687370
40
0.4007462256
40
0.6000411807
40
0.8011136542
40
1.0000000000
40
1.0000000000
40
1.0000000000
40
1.0000000000
10
18.8239555627
20
-41.5856092746
30
0.0000000000
10
18.6264521110
20
-41.5856092778
30
0.0000000000
10
18.2274843593
20
-41.5231534920
30
0.0000000000
10
17.6900657207
20
-41.2501996990
30
0.0000000000
10
17.2622142157
20
-40.8231376909
30
0.0000000000
10
16.9889531871
20
-40.2866612067
30
0.0000000000
10
16.9265254229
20
-39.8884803020
30
0.0000000000
10
16.9265254229
20
-39.6918492356
30
0.0000000000
11
18.8239555627
21
-41.5856092746
31
0.0000000000
11
18.2386386702
21
-41.4935622430
31
0.0000000000
11
17.7071410904
21
-41.2236730891
31
0.0000000000
11
17.2888246918
21
-40.8060408809
31
0.0000000000
11
17.0182736147
21
-40.2745637932
31
0.0000000000
11
16.9265254229
21
-39.6918492356
31
0.0000000000
0
SPLINE
5
357
100
AcDbEntity
8
0
100
AcDbSpline
62
0
6
CONTINUOUS
70
0
71
3
72
12
73
8
74
6
42
0.0000001000
43
0.0000001000
44
0.0000000001
12
2.9659813830
22
0.0000000468
32
0.0000000000
13
0.0000000000
23
-2.9659813830
33
0.0000000000
40
0.0000000000
40
0.0000000000
40
0.0000000000
40
0.0000000000
40
0.1997687370
40
0.4007462256
40
0.6000411807
40
0.8011136542
40
1.0000000000
40
1.0000000000
40
1.0000000000
40
1.0000000000
10
220.8290952832
20
43.2143906951
30
0.0000000000
10
221.0265987348
20
43.2143906982
30
0.0000000000
10
221.4255664866
20
43.1519349125
30
0.0000000000
10
221.9629851252
20
42.8789811195
30
0.0000000000
10
222.3908366302
20
42.4519191114
30
0.0000000000
10
222.6640976587
20
41.9154426271
30
0.0000000000
10
222.7265254229
20
41.5172617224
30
0.0000000000
10
222.7265254229
20
41.3206306561
30
0.0000000000
11
220.8290952832
21
43.2143906951
31
0.0000000000
11
221.4144121757
21
43.1223436634
31
0.0000000000
11
221.9459097554
21
42.8524545096
31
0.0000000000
11
222.3642261541
21
42.4348223013
31
0.0000000000
11
222.6347772312
21
41.9033452136
31
0.0000000000
11
222.7265254229
21
41.3206306561
31
0.0000000000
0
SPLINE
5
358
100
AcDbEntity
8
0
100
AcDbSpline
62
0
6
CONTINUOUS
70
0
71
3
72
12
73
8
74
6
42
0.0000001000
43
0.0000001000
44
0.0000000001
12
0.0000000000
22
-2.9659813830
32
0.0000000000
13
-2.9659813830
23
0.0000000468
33
0.0000000000
40
0.0000000000
40
0.0000000000
40
0.0000000000
40
0.0000000000
40
0.1988863458
40
0.3999588193
40
0.5992537744
40
0.8002312630
40
1.0000000000
40
1.0000000000
40
1.0000000000
40
1.0000000000
10
222.7265254229
20
-39.6918492356
30
0.0000000000
10
222.7265254229
20
-39.8884803020
30
0.0000000000
10
222.6640976587
20
-40.2866612067
30
0.0000000000
10
222.3908366302
20
-40.8231376909
30
0.0000000000
10
221.9629851252
20
-41.2501996990
30
0.0000000000
10
221.4255664866
20
-41.5231534920
30
0.0000000000
10
221.0265987348
20
-41.5856092778
30
0.0000000000
10
220.8290952832
20
-41.5856092746
30
0.0000000000
11
222.7265254229
21
-39.6918492356
31
0.0000000000
11
222.6347772312
21
-40.2745637932
31
0.0000000000
11
222.3642261541
21
-40.8060408809
31
0.0000000000
11
221.9459097554
21
-41.2236730891
31
0.0000000000
11
221.4144121757
21
-41.4935622430
31
0.0000000000
11
220.8290952832
21
-41.5856092746
31
0.0000000000
0
SPLINE
5
359
100
AcDbEntity
8
0
100
AcDbSpline
62
0
6
CONTINUOUS
70
0
71
3
72
12
73
8
74
6
42
0.0000001000
43
0.0000001000
44
0.0000000001
12
0.0000000000
22
1.6609882638
32
0.0000000000
13
-1.6584654168
23
0.0915121512
33
0.0000000000
40
0.0000000000
40
0.0000000000
40
0.0000000000
40
0.0000000000
40
0.2002495394
40
0.4000655005
40
0.5995950612
40
0.7998330825
40
1.0000000000
40
1.0000000000
40
1.0000000000
40
1.0000000000
10
200.6765254229
20
24.8156123743
30
0.0000000000
10
200.6765254229
20
24.9264830859
30
0.0000000000
10
200.6425238773
20
25.1494434240
30
0.0000000000
10
200.4944541117
20
25.4520086705
30
0.0000000000
10
200.2628126944
20
25.6969928202
30
0.0000000000
10
199.9687483236
20
25.8617496638
30
0.0000000000
10
199.7478147920
20
25.9080299994
30
0.0000000000
10
199.6371581553
20
25.9141359011
30
0.0000000000
11
200.6765254229
21
24.8156123743
31
0.0000000000
11
200.6262532791
21
25.1444034079
31
0.0000000000
11
200.4804474668
21
25.4425526028
31
0.0000000000
11
200.2527468155
21
25.6833619669
31
0.0000000000
11
199.9625435984
21
25.8458433463
31
0.0000000000
11
199.6371581553
21
25.9141359011
31
0.0000000000
0
SPLINE
5
35A
100
AcDbEntity
8
0
100
AcDbSpline
62
0
6
CONTINUOUS
70
0
71
3
72
12
73
8
74
6
42
0.0000001000
43
0.0000001000
44
0.0000000001
12
1.6584654181
22
0.0915121513
32
0.0000000000
13
-0.0000000000
23
1.6609882651
33
0.0000000000
40
0.0000000000
40
0.0000000000
40
0.0000000000
40
0.0000000000
40
0.2002176946
40
0.4000157594
40
0.5995374131
40
0.7997695230
40
1.0000000000
40
1.0000000000
40
1.0000000000
40
1.0000000000
10
199.6371581553
20
-24.2853544807
30
0.0000000000
10
199.7478428629
20
-24.2792470300
30
0.0000000000
10
199.9685639099
20
-24.2330011815
30
0.0000000000
10
200.2624529293
20
-24.0684418160
30
0.0000000000
10
200.4942309779
20
-23.8236119022
30
0.0000000000
10
200.6424947770
20
-23.5208705956
30
0.0000000000
10
200.6765254229
20
-23.2976911114
30
0.0000000000
10
200.6765254229
20
-23.1868309538
30
0.0000000000
11
199.6371581553
21
-24.2853544807
31
0.0000000000
11
199.9626234903
21
-24.2170319761
31
0.0000000000
11
200.2522309754
21
-24.0549824418
31
0.0000000000
11
200.4800671436
21
-23.8143193744
31
0.0000000000
11
200.6262628496
21
-23.5155914206
31
0.0000000000
11
200.6765254229
21
-23.1868309538
31
0.0000000000
0
SPLINE
5
35B
100
AcDbEntity
8
0
100
AcDbSpline
62
0
6
CONTINUOUS
70
0
71
3
72
12
73
8
74
6
42
0.0000001000
43
0.0000001000
44
0.0000000001
12
0.0000000000
22
-1.6609882638
32
0.0000000000
13
1.6584654168
23
-0.0915121512
33
0.0000000000
40
0.0000000000
40
0.0000000000
40
0.0000000000
40
0.0000000000
40
0.2002496910
40
0.4000656476
40
0.5995951248
40
0.7998332548
40
1.0000000000
40
1.0000000000
40
1.0000000000
40
1.0000000000
10
38.9765254229
20
-23.1868309538
30
0.0000000000
10
38.9765254229
20
-23.2977017494
30
0.0000000000
10
39.0105270079
20
-23.5206621722
30
0.0000000000
10
39.1585968588
20
-23.8232274160
30
0.0000000000
10
39.3902383190
20
-24.0682115333
30
0.0000000000
10
39.6843026546
20
-24.2329682872
30
0.0000000000
10
39.9052361491
20
-24.2792485842
30
0.0000000000
10
40.0158926906
20
-24.2853544807
30
0.0000000000
11
38.9765254229
21
-23.1868309538
31
0.0000000000
11
39.0267976429
21
-23.5156222305
31
0.0000000000
11
39.1726035199
21
-23.8137713854
31
0.0000000000
11
39.4003041146
21
-24.0545806121
31
0.0000000000
11
39.6905075186
21
-24.2170620275
31
0.0000000000
11
40.0158926906
21
-24.2853544807
31
0.0000000000
0
SPLINE
5
35C
100
AcDbEntity
8
0
100
AcDbSpline
62
0
6
CONTINUOUS
70
0
71
3
72
12
73
8
74
6
42
0.0000001000
43
0.0000001000
44
0.0000000001
12
-1.6584654181
22
-0.0915121513
32
0.0000000000
13
0.0000000000
23
-1.6609882651
33
0.0000000000
40
0.0000000000
40
0.0000000000
40
0.0000000000
40
0.0000000000
40
0.2002176946
40
0.4000157594
40
0.5995374131
40
0.7997695230
40
1.0000000000
40
1.0000000000
40
1.0000000000
40
1.0000000000
10
40.0158926906
20
25.9141359011
30
0.0000000000
10
39.9052079830
20
25.9080284505
30
0.0000000000
10
39.6844869360
20
25.8617826020
30
0.0000000000
10
39.3905979166
20
25.6972232365
30
0.0000000000
10
39.1588198679
20
25.4523933227
30
0.0000000000
10
39.0105560689
20
25.1496520161
30
0.0000000000
10
38.9765254229
20
24.9264725318
30
0.0000000000
10
38.9765254229
20
24.8156123743
30
0.0000000000
11
40.0158926906
21
25.9141359011
31
0.0000000000
11
39.6904273555
21
25.8458133966
31
0.0000000000
11
39.4008198705
21
25.6837638622
31
0.0000000000
11
39.1729837023
21
25.4431007949
31
0.0000000000
11
39.0267879963
21
25.1443728410
31
0.0000000000
11
38.9765254229
21
24.8156123743
31
0.0000000000
0
SPLINE
5
35D
100
AcDbEntity
8
0
100
AcDbSpline
62
9
6
CONTINUOUS
70
0
71
3
72
11
73
7
74
5
42
0.0000001000
43
0.0000001000
44
0.0000000001
12
-0.4739404389
22
-0.7647882925
32
0.0000000000
13
0.0001721137
23
-0.8997336508
33
0.0000000000
40
0.0000000000
40
0.0000000000
40
0.0000000000
40
0.0000000000
40
0.0913001118
40
0.3113796083
40
0.6293339524
40
1.0000000000
40
1.0000000000
40
1.0000000000
40
1.0000000000
10
19.0461282005
20
42.9926477239
30
0.0000000000
10
19.0317045954
20
42.9693726384
30
0.0000000000
10
19.0409045164
20
42.8686421811
30
0.0000000000
10
19.0201630966
20
42.6862137100
30
0.0000000000
10
19.0215274516
20
42.4107472302
30
0.0000000000
10
19.0185536790
20
42.2050496597
30
0.0000000000
10
19.0185749446
20
42.0938827543
30
0.0000000000
11
19.0461282005
21
42.9926477239
31
0.0000000000
11
19.0354264105
21
42.9112020268
31
0.0000000000
11
19.0264909194
21
42.7133908076
31
0.0000000000
11
19.0205939027
21
42.4273773653
31
0.0000000000
11
19.0185749446
21
42.0938827543
31
0.0000000000
0
SPLINE
5
35E
100
AcDbEntity
8
0
100
AcDbSpline
62
9
6
CONTINUOUS
70
0
71
3
72
10
73
6
74
4
42
0.0000001000
43
0.0000001000
44
0.0000000001
12
201.5607918595
22
0.0386041002
32
0.0000000000
13
201.5607918595
23
-0.0386041039
33
0.0000000000
40
0.0000000000
40
0.0000000000
40
0.0000000000
40
0.0000000000
40
0.3333072773
40
0.6666927145
40
1.0000000000
40
1.0000000000
40
1.0000000000
40
1.0000000000
10
19.0461282005
20
42.9926477239
30
0.0000000000
10
41.4400211160
20
42.9969367331
30
0.0000000000
10
86.2330588772
20
43.0026362814
30
0.0000000000
10
153.4199908914
20
43.0026362813
30
0.0000000000
10
198.2130292011
20
42.9969367336
30
0.0000000000
10
220.6069226653
20
42.9926477239
30
0.0000000000
11
19.0461282005
21
42.9926477239
31
0.0000000000
11
86.2278076336
21
43.0012110602
31
0.0000000000
11
153.4252415863
21
43.0012110603
31
0.0000000000
11
220.6069226653
21
42.9926477239
31
0.0000000000
0
SPLINE
5
35F
100
AcDbEntity
8
0
100
AcDbSpline
62
9
6
CONTINUOUS
70
0
71
3
72
12
73
8
74
6
42
0.0000001000
43
0.0000001000
44
0.0000000001
12
-0.0002193346
22
1.5611879128
32
0.0000000000
13
1.5611879274
23
-0.0000521341
33
0.0000000000
40
0.0000000000
40
0.0000000000
40
0.0000000000
40
0.0000000000
40
0.1955083257
40
0.3962514519
40
0.5987185731
40
0.8001883289
40
1.0000000000
40
1.0000000000
40
1.0000000000
40
1.0000000000
10
18.0198386450
20
41.0969621471
30
0.0000000000
10
18.0198243511
20
41.1987038920
30
0.0000000000
10
18.0518365175
20
41.4062936469
30
0.0000000000
10
18.1939578740
20
41.6892015759
30
0.0000000000
10
18.4197766207
20
41.9161401337
30
0.0000000000
10
18.7043136976
20
42.0608873644
30
0.0000000000
10
18.9145937547
20
42.0938862266
30
0.0000000000
10
19.0185749443
20
42.0938827543
30
0.0000000000
11
18.0198386450
21
41.0969621471
31
0.0000000000
11
18.0665185579
21
41.3985967466
31
0.0000000000
11
18.2071483781
21
41.6786706661
31
0.0000000000
11
18.4300774669
21
41.9027577470
31
0.0000000000
11
18.7104295659
21
42.0453521873
31
0.0000000000
11
19.0185749443
21
42.0938827543
31
0.0000000000
0
SPLINE
5
360
100
AcDbEntity
8
0
100
AcDbSpline
62
9
6
CONTINUOUS
70
0
71
3
72
12
73
8
74
6
42
0.0000001000
43
0.0000001000
44
0.0000000001
12
0.0036515493
22
2.9640164679
32
0.0000000000
13
2.9640116191
23
0.0064867241
33
0.0000000000
40
0.0000000000
40
0.0000000000
40
0.0000000000
40
0.0000000000
40
0.1961880971
40
0.3965999596
40
0.5987686902
40
0.7997293725
40
1.0000000000
40
1.0000000000
40
1.0000000000
40
1.0000000000
10
17.1507141868
20
41.0969621577
30
0.0000000000
10
17.1509529836
20
41.2907970747
30
0.0000000000
10
17.2123255681
20
41.6852094251
30
0.0000000000
10
17.4826981701
20
42.2219932450
30
0.0000000000
10
17.9101180978
20
42.6523527752
30
0.0000000000
10
18.4491773070
20
42.9284789068
30
0.0000000000
10
18.8482602275
20
42.9921078717
30
0.0000000000
10
19.0461283831
20
42.9925409051
30
0.0000000000
11
17.1507141868
21
41.0969621577
31
0.0000000000
11
17.2404762830
21
41.6714976696
31
0.0000000000
11
17.5075093898
21
42.2021184760
31
0.0000000000
11
17.9297488012
21
42.6273157846
31
0.0000000000
11
18.4599875277
21
42.8986960960
31
0.0000000000
11
19.0461283831
21
42.9925409051
31
0.0000000000
0
SPLINE
5
361
100
AcDbEntity
8
0
100
AcDbSpline
62
9
6
CONTINUOUS
70
0
71
3
72
11
73
7
74
5
42
0.0000001000
43
0.0000001000
44
0.0000000001
12
-0.4739501701
22
0.7646567116
32
0.0000000000
13
0.0001708261
23
0.8996269345
33
0.0000000000
40
0.0000000000
40
0.0000000000
40
0.0000000000
40
0.0000000000
40
0.0912976258
40
0.3113740630
40
0.6293279403
40
1.0000000000
40
1.0000000000
40
1.0000000000
40
1.0000000000
10
19.0461283831
20
-41.3637594733
30
0.0000000000
10
19.0317048747
20
-41.3404890258
30
0.0000000000
10
19.0409050069
20
-41.2397700370
30
0.0000000000
10
19.0201634174
20
-41.0573669009
30
0.0000000000
10
19.0215278903
20
-40.7819314137
30
0.0000000000
10
19.0185538391
20
-40.5762568567
30
0.0000000000
10
19.0185749459
20
-40.4651013338
30
0.0000000000
11
19.0461283831
21
-41.3637594733
31
0.0000000000
11
19.0354267762
21
-41.2823258348
31
0.0000000000
11
19.0264913809
21
-41.0845408763
31
0.0000000000
11
19.0205942616
21
-40.7985617945
31
0.0000000000
11
19.0185749459
21
-40.4651013338
31
0.0000000000
0
SPLINE
5
362
100
AcDbEntity
8
0
100
AcDbSpline
62
9
6
CONTINUOUS
70
0
71
3
72
12
73
8
74
6
42
0.0000001000
43
0.0000001000
44
0.0000000001
12
-1.5611879081
22
-0.0000529058
32
0.0000000000
13
0.0002211333
23
1.5611878934
33
0.0000000000
40
0.0000000000
40
0.0000000000
40
0.0000000000
40
0.0000000000
40
0.1998116734
40
0.4012814302
40
0.6037485579
40
0.8044916817
40
1.0000000000
40
1.0000000000
40
1.0000000000
40
1.0000000000
10
19.0185749443
20
-40.4651013338
30
0.0000000000
10
18.9145937548
20
-40.4651048575
30
0.0000000000
10
18.7043136858
20
-40.4321059293
30
0.0000000000
10
18.4197766665
20
-40.2873586791
30
0.0000000000
10
18.1939577378
20
-40.0604202334
30
0.0000000000
10
18.0518367732
20
-39.7775121610
30
0.0000000000
10
18.0198242338
20
-39.5699224665
30
0.0000000000
10
18.0198386450
20
-39.4681807266
30
0.0000000000
11
19.0185749443
21
-40.4651013338
31
0.0000000000
11
18.7104295663
21
-40.4165707656
31
0.0000000000
11
18.4300774748
21
-40.2739763157
31
0.0000000000
11
18.2071483355
21
-40.0498892763
31
0.0000000000
11
18.0665186535
21
-39.7698152958
31
0.0000000000
11
18.0198386450
21
-39.4681807266
31
0.0000000000
0
SPLINE
5
363
100
AcDbEntity
8
0
100
AcDbSpline
62
9
6
CONTINUOUS
70
0
71
3
72
12
73
8
74
6
42
0.0000001000
43
0.0000001000
44
0.0000000001
12
-2.9640115925
22
0.0064863758
32
0.0000000000
13
-0.0036507887
23
2.9640164414
33
0.0000000000
40
0.0000000000
40
0.0000000000
40
0.0000000000
40
0.0000000000
40
0.2002706280
40
0.4012315438
40
0.6034003944
40
0.8038126601
40
1.0000000000
40
1.0000000000
40
1.0000000000
40
1.0000000000
10
19.0461283831
20
-41.3637594733
30
0.0000000000
10
18.8482602288
20
-41.3633264631
30
0.0000000000
10
18.4491770587
20
-41.2996974320
30
0.0000000000
10
17.9101176752
20
-41.0235709732
30
0.0000000000
10
17.4826970119
20
-40.5932109563
30
0.0000000000
10
17.2123258566
20
-40.0564267007
30
0.0000000000
10
17.1509527343
20
-39.6620149043
30
0.0000000000
10
17.1507139881
20
-39.4681807373
30
0.0000000000
11
19.0461283831
21
-41.3637594733
31
0.0000000000
11
18.4599875329
21
-41.2699146554
31
0.0000000000
11
17.9297482470
21
-40.9985339301
31
0.0000000000
11
17.5075086897
21
-40.5733362733
31
0.0000000000
11
17.2404758266
21
-40.0427140122
31
0.0000000000
11
17.1507139881
21
-39.4681807373
31
0.0000000000
0
SPLINE
5
364
100
AcDbEntity
8
0
100
AcDbSpline
62
9
6
CONTINUOUS
70
0
71
3
72
11
73
7
74
5
42
0.0000001000
43
0.0000001000
44
0.0000000001
12
0.4739404389
22
0.7647882925
32
0.0000000000
13
-0.0001721137
23
0.8997336508
33
0.0000000000
40
0.0000000000
40
0.0000000000
40
0.0000000000
40
0.0000000000
40
0.0913001118
40
0.3113796083
40
0.6293339524
40
1.0000000000
40
1.0000000000
40
1.0000000000
40
1.0000000000
10
220.6069226454
20
-41.3638663035
30
0.0000000000
10
220.6213462504
20
-41.3405912179
30
0.0000000000
10
220.6121463295
20
-41.2398607607
30
0.0000000000
10
220.6328877492
20
-41.0574322895
30
0.0000000000
10
220.6315233942
20
-40.7819658098
30
0.0000000000
10
220.6344971669
20
-40.5762682392
30
0.0000000000
10
220.6344759013
20
-40.4651013338
30
0.0000000000
11
220.6069226454
21
-41.3638663035
31
0.0000000000
11
220.6176244354
21
-41.2824206063
31
0.0000000000
11
220.6265599264
21
-41.0846093871
31
0.0000000000
11
220.6324569432
21
-40.7985959449
31
0.0000000000
11
220.6344759013
21
-40.4651013338
31
0.0000000000
0
SPLINE
5
365
100
AcDbEntity
8
0
100
AcDbSpline
62
9
6
CONTINUOUS
70
0
71
3
72
10
73
6
74
4
42
0.0000001000
43
0.0000001000
44
0.0000000001
12
-201.5607918595
22
-0.0386041002
32
0.0000000000
13
-201.5607918595
23
0.0386041039
33
0.0000000000
40
0.0000000000
40
0.0000000000
40
0.0000000000
40
0.0000000000
40
0.3333072834
40
0.6666927207
40
1.0000000000
40
1.0000000000
40
1.0000000000
40
1.0000000000
10
220.6069226454
20
-41.3638663035
30
0.0000000000
10
198.2130293179
20
-41.3681553127
30
0.0000000000
10
153.4199911446
20
-41.3738548610
30
0.0000000000
10
86.2330591304
20
-41.3738548607
30
0.0000000000
10
41.4400212326
20
-41.3681553131
30
0.0000000000
10
19.0461281806
20
-41.3638663034
30
0.0000000000
11
220.6069226454
21
-41.3638663035
31
0.0000000000
11
153.4252419763
21
-41.3724296398
31
0.0000000000
11
86.2278080232
21
-41.3724296397
31
0.0000000000
11
19.0461281806
21
-41.3638663034
31
0.0000000000
0
SPLINE
5
366
100
AcDbEntity
8
0
100
AcDbSpline
62
9
6
CONTINUOUS
70
0
71
3
72
12
73
8
74
6
42
0.0000001000
43
0.0000001000
44
0.0000000001
12
0.0002193346
22
-1.5611879128
32
0.0000000000
13
-1.5611879274
23
0.0000521341
33
0.0000000000
40
0.0000000000
40
0.0000000000
40
0.0000000000
40
0.0000000000
40
0.1955083257
40
0.3962514519
40
0.5987185731
40
0.8001883289
40
1.0000000000
40
1.0000000000
40
1.0000000000
40
1.0000000000
10
221.6332122009
20
-39.4681807266
30
0.0000000000
10
221.6332264948
20
-39.5699224716
30
0.0000000000
10
221.6012143283
20
-39.7775122264
30
0.0000000000
10
221.4590929719
20
-40.0604201555
30
0.0000000000
10
221.2332742252
20
-40.2873587133
30
0.0000000000
10
220.9487371483
20
-40.4321059439
30
0.0000000000
10
220.7384570911
20
-40.4651048061
30
0.0000000000
10
220.6344759016
20
-40.4651013338
30
0.0000000000
11
221.6332122009
21
-39.4681807266
31
0.0000000000
11
221.5865322880
21
-39.7698153261
31
0.0000000000
11
221.4459024678
21
-40.0498892457
31
0.0000000000
11
221.2229733790
21
-40.2739763266
31
0.0000000000
11
220.9426212799
21
-40.4165707668
31
0.0000000000
11
220.6344759016
21
-40.4651013338
31
0.0000000000
0
SPLINE
5
367
100
AcDbEntity
8
0
100
AcDbSpline
62
9
6
CONTINUOUS
70
0
71
3
72
12
73
8
74
6
42
0.0000001000
43
0.0000001000
44
0.0000000001
12
-0.0036515493
22
-2.9640164679
32
0.0000000000
13
-2.9640116191
23
-0.0064867241
33
0.0000000000
40
0.0000000000
40
0.0000000000
40
0.0000000000
40
0.0000000000
40
0.1961880971
40
0.3965999596
40
0.5987686902
40
0.7997293725
40
1.0000000000
40
1.0000000000
40
1.0000000000
40
1.0000000000
10
222.5023366591
20
-39.4681807373
30
0.0000000000
10
222.5020978622
20
-39.6620156542
30
0.0000000000
10
222.4407252777
20
-40.0564280046
30
0.0000000000
10
222.1703526758
20
-40.5932118245
30
0.0000000000
10
221.7429327481
20
-41.0235713547
30
0.0000000000
10
221.2038735389
20
-41.2996974864
30
0.0000000000
10
220.8047906183
20
-41.3633264512
30
0.0000000000
10
220.6069224627
20
-41.3637594847
30
0.0000000000
11
222.5023366591
21
-39.4681807373
31
0.0000000000
11
222.4125745628
21
-40.0427162492
31
0.0000000000
11
222.1455414561
21
-40.5733370555
31
0.0000000000
11
221.7233020446
21
-40.9985343641
31
0.0000000000
11
221.1930633182
21
-41.2699146756
31
0.0000000000
11
220.6069224627
21
-41.3637594847
31
0.0000000000
0
SPLINE
5
368
100
AcDbEntity
8
0
100
AcDbSpline
62
9
6
CONTINUOUS
70
0
71
3
72
11
73
7
74
5
42
0.0000001000
43
0.0000001000
44
0.0000000001
12
0.4739501701
22
-0.7646567116
32
0.0000000000
13
-0.0001708261
23
-0.8996269345
33
0.0000000000
40
0.0000000000
40
0.0000000000
40
0.0000000000
40
0.0000000000
40
0.0912976258
40
0.3113740630
40
0.6293279403
40
1.0000000000
40
1.0000000000
40
1.0000000000
40
1.0000000000
10
220.6069224628
20
42.9925408937
30
0.0000000000
10
220.6213459712
20
42.9692704463
30
0.0000000000
10
220.6121458390
20
42.8685514575
30
0.0000000000
10
220.6328874285
20
42.6861483214
30
0.0000000000
10
220.6315229556
20
42.4107128342
30
0.0000000000
10
220.6344970068
20
42.2050382772
30
0.0000000000
10
220.6344759000
20
42.0938827543
30
0.0000000000
11
220.6069224628
21
42.9925408937
31
0.0000000000
11
220.6176240696
21
42.9111072552
31
0.0000000000
11
220.6265594650
21
42.7133222968
31
0.0000000000
11
220.6324565842
21
42.4273432150
31
0.0000000000
11
220.6344759000
21
42.0938827543
31
0.0000000000
0
SPLINE
5
369
100
AcDbEntity
8
0
100
AcDbSpline
62
9
6
CONTINUOUS
70
0
71
3
72
12
73
8
74
6
42
0.0000001000
43
0.0000001000
44
0.0000000001
12
1.5611879081
22
0.0000529058
32
0.0000000000
13
-0.0002211333
23
-1.5611878934
33
0.0000000000
40
0.0000000000
40
0.0000000000
40
0.0000000000
40
0.0000000000
40
0.1998116734
40
0.4012814302
40
0.6037485579
40
0.8044916817
40
1.0000000000
40
1.0000000000
40
1.0000000000
40
1.0000000000
10
220.6344759016
20
42.0938827543
30
0.0000000000
10
220.7384570911
20
42.0938862780
30
0.0000000000
10
220.9487371601
20
42.0608873498
30
0.0000000000
10
221.2332741794
20
41.9161400996
30
0.0000000000
10
221.4590931080
20
41.6892016538
30
0.0000000000
10
221.6012140727
20
41.4062935815
30
0.0000000000
10
221.6332266120
20
41.1987038869
30
0.0000000000
10
221.6332122009
20
41.0969621471
30
0.0000000000
11
220.6344759016
21
42.0938827543
31
0.0000000000
11
220.9426212796
21
42.0453521861
31
0.0000000000
11
221.2229733711
21
41.9027577361
31
0.0000000000
11
221.4459025104
21
41.6786706968
31
0.0000000000
11
221.5865321924
21
41.3985967163
31
0.0000000000
11
221.6332122009
21
41.0969621471
31
0.0000000000
0
SPLINE
5
36A
100
AcDbEntity
8
0
100
AcDbSpline
62
9
6
CONTINUOUS
70
0
71
3
72
12
73
8
74
6
42
0.0000001000
43
0.0000001000
44
0.0000000001
12
2.9640115925
22
-0.0064863758
32
0.0000000000
13
0.0036507887
23
-2.9640164414
33
0.0000000000
40
0.0000000000
40
0.0000000000
40
0.0000000000
40
0.0000000000
40
0.2002706280
40
0.4012315438
40
0.6034003944
40
0.8038126601
40
1.0000000000
40
1.0000000000
40
1.0000000000
40
1.0000000000
10
220.6069224628
20
42.9925408937
30
0.0000000000
10
220.8047906171
20
42.9921078836
30
0.0000000000
10
221.2038737872
20
42.9284788525
30
0.0000000000
10
221.7429331707
20
42.6523523937
30
0.0000000000
10
222.1703538340
20
42.2219923767
30
0.0000000000
10
222.4407249892
20
41.6852081212
30
0.0000000000
10
222.5020981116
20
41.2907963248
30
0.0000000000
10
222.5023368578
20
41.0969621578
30
0.0000000000
11
220.6069224628
21
42.9925408937
31
0.0000000000
11
221.1930633129
21
42.8986960758
31
0.0000000000
11
221.7233025989
21
42.6273153506
31
0.0000000000
11
222.1455421562
21
42.2021176938
31
0.0000000000
11
222.4125750193
21
41.6714954327
31
0.0000000000
11
222.5023368578
21
41.0969621578
31
0.0000000000
0
SPLINE
5
36B
100
AcDbEntity
8
0
100
AcDbSpline
62
9
6
CONTINUOUS
70
0
71
3
72
9
73
5
74
3
42
0.0000001000
43
0.0000001000
44
0.0000000001
12
-0.0055166427
22
0.1000356137
32
0.0000000000
13
-0.0964964486
23
0.0269442526
33
0.0000000000
40
0.0000000000
40
0.0000000000
40
0.0000000000
40
0.0000000000
40
0.4971546093
40
1.0000000000
40
1.0000000000
40
1.0000000000
40
1.0000000000
10
199.6522133048
20
-24.3918148225
30
0.0000000000
10
199.6512990967
20
-24.3752371004
30
0.0000000000
10
199.6424984412
20
-24.3478941218
30
0.0000000000
10
199.6603260385
20
-24.2964855688
30
0.0000000000
10
199.6441517737
20
-24.2919693044
30
0.0000000000
11
199.6522133048
21
-24.3918148225
31
0.0000000000
11
199.6491300348
21
-24.3421016123
31
0.0000000000
11
199.6441517737
21
-24.2919693044
31
0.0000000000
0
SPLINE
5
36C
100
AcDbEntity
8
0
100
AcDbSpline
62
9
6
CONTINUOUS
70
0
71
3
72
15
73
11
74
9
42
0.0000001000
43
0.0000001000
44
0.0000000001
12
-159.4721972245
22
-8.8002132861
32
0.0000000000
13
-159.4721972517
23
8.8002127946
33
0.0000000000
40
0.0000000000
40
0.0000000000
40
0.0000000000
40
0.0000000000
40
0.1065128545
40
0.2230043258
40
0.3526074313
40
0.4951109047
40
0.6404209859
40
0.7739136396
40
0.8927933202
40
1.0000000000
40
1.0000000000
40
1.0000000000
40
1.0000000000
10
199.6441517737
20
-24.2919693044
30
0.0000000000
10
193.9822054601
20
-24.6044145835
30
0.0000000000
10
182.1239214665
20
-25.1889751300
30
0.0000000000
10
163.3640375003
20
-25.8826998578
30
0.0000000000
10
142.6806996279
20
-26.3666688676
30
0.0000000000
10
120.4580212209
20
-26.5532505469
30
0.0000000000
10
98.0280626942
20
-26.3856416362
30
0.0000000000
10
76.8608887199
20
-25.9020888147
30
0.0000000000
10
57.7299249132
20
-25.1986297584
30
0.0000000000
10
45.7077273328
20
-24.6064498348
30
0.0000000000
10
40.0088990723
20
-24.2919693032
30
0.0000000000
11
199.6441517737
21
-24.2919693044
31
0.0000000000
11
182.6531018764
21
-25.1295529572
31
0.0000000000
11
164.0603947689
21
-25.8170914996
31
0.0000000000
11
143.3665219043
21
-26.3013157728
31
0.0000000000
11
120.6074065839
21
-26.4923879009
31
0.0000000000
11
97.3998801780
21
-26.3189821359
31
0.0000000000
11
76.0846856563
21
-25.8320390847
31
0.0000000000
11
57.1106609844
21
-25.1343548601
31
0.0000000000
11
40.0088990723
21
-24.2919693032
31
0.0000000000
0
SPLINE
5
36D
100
AcDbEntity
8
0
100
AcDbSpline
62
9
6
CONTINUOUS
70
0
71
3
72
15
73
11
74
9
42
0.0000001000
43
0.0000001000
44
0.0000000001
12
-159.4883143971
22
-8.8008164742
32
0.0000000000
13
-159.4883144510
23
8.8008154978
33
0.0000000000
40
0.0000000000
40
0.0000000000
40
0.0000000000
40
0.0000000000
40
0.1065127726
40
0.2230042704
40
0.3526074154
40
0.4951109440
40
0.6404210765
40
0.7739137591
40
0.8927934566
40
1.0000000000
40
1.0000000000
40
1.0000000000
40
1.0000000000
10
199.6522133049
20
-24.3918148225
30
0.0000000000
10
193.9896991190
20
-24.7042812770
30
0.0000000000
10
182.1302198594
20
-25.2888817731
30
0.0000000000
10
163.3684418117
20
-25.9826541028
30
0.0000000000
10
142.6830088333
20
-26.4666564585
30
0.0000000000
10
120.4580789069
20
-26.6532509347
30
0.0000000000
10
98.0258485082
20
-26.4856303478
30
0.0000000000
10
76.8565318726
20
-26.0020440749
30
0.0000000000
10
57.7236404951
20
-25.2985367800
30
0.0000000000
10
45.7002345074
20
-24.7063164920
30
0.0000000000
10
40.0008375410
20
-24.3918148225
30
0.0000000000
11
199.6522133049
21
-24.3918148225
31
0.0000000000
11
182.6594596092
21
-25.2294552903
31
0.0000000000
11
164.0648701789
21
-25.9170412020
31
0.0000000000
11
143.3689012518
21
-26.4012988390
31
0.0000000000
11
120.6074791575
21
-26.5923840822
31
0.0000000000
11
97.3976013081
21
-26.4189662278
31
0.0000000000
11
76.0802496834
21
-25.9319895033
31
0.0000000000
11
57.1043057465
21
-25.2342571464
31
0.0000000000
11
40.0008375410
21
-24.3918148225
31
0.0000000000
0
SPLINE
5
36E
100
AcDbEntity
8
0
100
AcDbSpline
62
9
6
CONTINUOUS
70
0
71
3
72
19
73
15
74
13
42
0.0000001000
43
0.0000001000
44
0.0000000001
12
0.0000149809
22
-1.6662485115
32
0.0000000000
13
-1.6637160197
23
-0.0918319553
33
0.0000000000
40
0.0000000000
40
0.0000000000
40
0.0000000000
40
0.0000000000
40
0.0829580946
40
0.1661749952
40
0.2495474497
40
0.3329612026
40
0.4163576343
40
0.4997956750
40
0.5833820361
40
0.6671246003
40
0.7510340539
40
0.8336138796
40
0.9157517574
40
1.0000000000
40
1.0000000000
40
1.0000000000
40
1.0000000000
10
200.6834919308
20
-23.1934257047
30
0.0000000000
10
200.6834923450
20
-23.2395019719
30
0.0000000000
10
200.6776798966
20
-23.3319031793
30
0.0000000000
10
200.6516051675
20
-23.4683877527
30
0.0000000000
10
200.6084759398
20
-23.6007694827
30
0.0000000000
10
200.5489647908
20
-23.7267449971
30
0.0000000000
10
200.4740294393
20
-23.8442466472
30
0.0000000000
10
200.3848163230
20
-23.9514370236
30
0.0000000000
10
200.2826442108
20
-24.0466412493
30
0.0000000000
10
200.1690376760
20
-24.1283135146
30
0.0000000000
10
200.0464888682
20
-24.1946641673
30
0.0000000000
10
199.9174026094
20
-24.2447351968
30
0.0000000000
10
199.7829306551
20
-24.2783838660
30
0.0000000000
10
199.6908734309
20
-24.2893893237
30
0.0000000000
10
199.6441517139
20
-24.2919682173
30
0.0000000000
11
200.6834919308
21
-23.1934257047
31
0.0000000000
11
200.6748102233
21
-23.3313816019
31
0.0000000000
11
200.6487935782
21
-23.4675790319
31
0.0000000000
11
200.6057592917
21
-23.5996646185
31
0.0000000000
11
200.5463923752
21
-23.7253357963
31
0.0000000000
11
200.4716736689
21
-23.8424970897
31
0.0000000000
11
200.3827356412
21
-23.9493565962
31
0.0000000000
11
200.2808394491
21
-24.0443032796
31
0.0000000000
11
200.1675422375
21
-24.1257527462
31
0.0000000000
11
200.0445920459
21
-24.1923200474
31
0.0000000000
11
199.9163068114
21
-24.2420819708
31
0.0000000000
11
199.7835371898
21
-24.2753004377
31
0.0000000000
11
199.6441517139
21
-24.2919682173
31
0.0000000000
0
SPLINE
5
36F
100
AcDbEntity
8
0
100
AcDbSpline
62
9
6
CONTINUOUS
70
0
71
3
72
9
73
5
74
3
42
0.0000001000
43
0.0000001000
44
0.0000000001
12
0.0000009733
22
-0.2011370195
32
0.0000000000
13
-0.0335939540
23
-0.1984501051
33
0.0000000000
40
0.0000000000
40
0.0000000000
40
0.0000000000
40
0.0000000000
40
0.7497094045
40
1.0000000000
40
1.0000000000
40
1.0000000000
40
1.0000000000
10
200.7860994944
20
-23.1934257047
30
0.0000000000
10
200.7860997376
20
-23.2436904764
30
0.0000000000
10
200.7818760363
20
-23.3108123111
30
0.0000000000
10
200.7720654057
20
-23.3772010507
30
0.0000000000
10
200.7692626554
20
-23.3937577824
30
0.0000000000
11
200.7860994944
21
-23.1934257047
31
0.0000000000
11
200.7766264275
21
-23.3439221713
31
0.0000000000
11
200.7692626554
21
-23.3937577824
31
0.0000000000
0
SPLINE
5
370
100
AcDbEntity
8
0
100
AcDbSpline
62
9
6
CONTINUOUS
70
0
71
3
72
18
73
14
74
12
42
0.0000001000
43
0.0000001000
44
0.0000000001
12
-0.2700081390
22
-1.5950234228
32
0.0000000000
13
-1.6141635975
23
-0.0890709546
33
0.0000000000
40
0.0000000000
40
0.0000000000
40
0.0000000000
40
0.0000000000
40
0.0624274967
40
0.1561708330
40
0.2499610684
40
0.3437325688
40
0.4375515511
40
0.5315376764
40
0.6256998639
40
0.7200475244
40
0.8129053436
40
0.9052704732
40
1.0000000000
40
1.0000000000
40
1.0000000000
40
1.0000000000
10
200.7692626554
20
-23.3937577824
30
0.0000000000
10
200.7636440114
20
-23.4269488889
30
0.0000000000
10
200.7460972108
20
-23.5093802816
30
0.0000000000
10
200.7042566373
20
-23.6377965089
30
0.0000000000
10
200.6393316684
20
-23.7752225284
30
0.0000000000
10
200.5575794330
20
-23.9034043939
30
0.0000000000
10
200.4602507548
20
-24.0203374921
30
0.0000000000
10
200.3487845482
20
-24.1241945304
30
0.0000000000
10
200.2248454156
20
-24.2132883859
30
0.0000000000
10
200.0911502432
20
-24.2856685978
30
0.0000000000
10
199.9503202444
20
-24.3402908892
30
0.0000000000
10
199.8036144856
20
-24.3769960744
30
0.0000000000
10
199.7031829561
20
-24.3890022728
30
0.0000000000
10
199.6522133049
20
-24.3918148225
30
0.0000000000
11
200.7692626554
21
-23.3937577824
31
0.0000000000
11
200.7482424440
21
-23.4924994461
31
0.0000000000
11
200.7012930619
21
-23.6365908540
31
0.0000000000
11
200.6365255297
21
-23.7736847300
31
0.0000000000
11
200.5550097020
21
-23.9014953333
31
0.0000000000
11
200.4579810786
21
-24.0180676504
31
0.0000000000
11
200.3468159587
21
-24.1216437689
31
0.0000000000
11
200.2232131714
21
-24.2104954433
31
0.0000000000
11
200.0890836093
21
-24.2831102160
31
0.0000000000
11
199.9491269840
21
-24.3373953653
31
0.0000000000
11
199.8042718050
21
-24.3736336614
31
0.0000000000
11
199.6522133049
21
-24.3918148225
31
0.0000000000
0
SPLINE
5
371
100
AcDbEntity
8
0
100
AcDbSpline
62
9
6
CONTINUOUS
70
0
71
3
72
9
73
5
74
3
42
0.0000001000
43
0.0000001000
44
0.0000000001
12
-0.0055166592
22
-0.1000362261
32
0.0000000000
13
-0.0964969947
23
-0.0269445740
33
0.0000000000
40
0.0000000000
40
0.0000000000
40
0.0000000000
40
0.0000000000
40
0.4971540926
40
1.0000000000
40
1.0000000000
40
1.0000000000
40
1.0000000000
10
199.6522133019
20
26.0205962430
30
0.0000000000
10
199.6512990920
20
26.0040184366
30
0.0000000000
10
199.6424983944
20
25.9766752718
30
0.0000000000
10
199.6603261130
20
25.9252664359
30
0.0000000000
10
199.6441517400
20
25.9207501130
30
0.0000000000
11
199.6522133019
21
26.0205962430
31
0.0000000000
11
199.6491300241
21
25.9708827800
31
0.0000000000
11
199.6441517400
21
25.9207501130
31
0.0000000000
0
SPLINE
5
372
100
AcDbEntity
8
0
100
AcDbSpline
62
9
6
CONTINUOUS
70
0
71
3
72
19
73
15
74
13
42
0.0000001000
43
0.0000001000
44
0.0000000001
12
1.6637163187
22
-0.0918284793
32
0.0000000000
13
-0.0000128012
23
-1.6662486185
33
0.0000000000
40
0.0000000000
40
0.0000000000
40
0.0000000000
40
0.0000000000
40
0.0828452172
40
0.1659497701
40
0.2492126855
40
0.3325219129
40
0.4158203958
40
0.4991675037
40
0.5826699621
40
0.6663359463
40
0.7500533938
40
0.8336572108
40
0.9169963914
40
1.0000000000
40
1.0000000000
40
1.0000000000
40
1.0000000000
10
199.6441517400
20
25.9207501130
30
0.0000000000
10
199.6900953866
20
25.9182142629
30
0.0000000000
10
199.7819112019
20
25.9073360998
30
0.0000000000
10
199.9165739431
20
25.8738402301
30
0.0000000000
10
200.0462181576
20
25.8235740601
30
0.0000000000
10
200.1685897606
20
25.7573317637
30
0.0000000000
10
200.2816839436
20
25.6761779087
30
0.0000000000
10
200.3837343105
20
25.5813521144
30
0.0000000000
10
200.4731450406
20
25.4742569458
30
0.0000000000
10
200.5484223244
20
25.3565493636
30
0.0000000000
10
200.6082317835
20
25.2302161879
30
0.0000000000
10
200.6515318639
20
25.0975029416
30
0.0000000000
10
200.6776712319
20
24.9608033190
30
0.0000000000
10
200.6834919061
20
24.8683086745
30
0.0000000000
10
200.6834915519
20
24.8222071251
30
0.0000000000
11
199.6441517400
21
25.9207501130
31
0.0000000000
11
199.7812332889
21
25.9045053690
31
0.0000000000
11
199.9156122738
21
25.8710835552
31
0.0000000000
11
200.0449659695
21
25.8209288120
31
0.0000000000
11
200.1670419823
21
25.7548474849
31
0.0000000000
11
200.2798091495
21
25.6739284472
31
0.0000000000
11
200.3815453560
21
25.5793950332
31
0.0000000000
11
200.4707149827
21
25.4725888345
31
0.0000000000
11
200.5458245276
21
25.3551442140
31
0.0000000000
11
200.6055130399
21
25.2290653489
31
0.0000000000
11
200.6487236694
21
25.0966317680
31
0.0000000000
11
200.6748007826
21
24.9602384485
31
0.0000000000
11
200.6834915519
21
24.8222071251
31
0.0000000000
0
SPLINE
5
373
100
AcDbEntity
8
0
100
AcDbSpline
62
9
6
CONTINUOUS
70
0
71
3
72
9
73
5
74
3
42
0.0000001000
43
0.0000001000
44
0.0000000001
12
0.2005690802
22
-0.0110667401
32
0.0000000000
13
0.1960467242
23
-0.0443934264
33
0.0000000000
40
0.0000000000
40
0.0000000000
40
0.0000000000
40
0.0000000000
40
0.7497088462
40
1.0000000000
40
1.0000000000
40
1.0000000000
40
1.0000000000
10
199.6522133048
20
26.0205962430
30
0.0000000000
10
199.7023361094
20
26.0178306320
30
0.0000000000
10
199.7690360445
20
26.0099286410
30
0.0000000000
10
199.8346988910
20
25.9965000800
30
0.0000000000
10
199.8510551446
20
25.9927963194
30
0.0000000000
11
199.6522133048
21
26.0205962430
31
0.0000000000
11
199.8017642627
21
26.0028759645
31
0.0000000000
11
199.8510551446
21
25.9927963194
31
0.0000000000
0
SPLINE
5
374
100
AcDbEntity
8
0
100
AcDbSpline
62
9
6
CONTINUOUS
70
0
71
3
72
18
73
14
74
12
42
0.0000001000
43
0.0000001000
44
0.0000000001
12
1.5780250538
22
-0.3573328726
32
0.0000000000
13
-0.0000036266
23
-1.6168822019
33
0.0000000000
40
0.0000000000
40
0.0000000000
40
0.0000000000
40
0.0000000000
40
0.0623362621
40
0.1559451722
40
0.2496057270
40
0.3432538768
40
0.4369561978
40
0.5308323376
40
0.6248914404
40
0.7190077719
40
0.8129959698
40
0.9066868382
40
1.0000000000
40
1.0000000000
40
1.0000000000
40
1.0000000000
10
199.8510551446
20
25.9927963194
30
0.0000000000
10
199.8838445391
20
25.9853713875
30
0.0000000000
10
199.9650830142
20
25.9633510643
30
0.0000000000
10
200.0908518723
20
25.9145916322
30
0.0000000000
10
200.2243548060
20
25.8423295198
30
0.0000000000
10
200.3477367826
20
25.7537999943
30
0.0000000000
10
200.4590705292
20
25.6503554173
30
0.0000000000
10
200.5566148212
20
25.5335260479
30
0.0000000000
10
200.6387399727
20
25.4051196462
30
0.0000000000
10
200.7039902948
20
25.2673035819
30
0.0000000000
10
200.7512299593
20
25.1225271565
30
0.0000000000
10
200.7797471894
20
24.9734016779
30
0.0000000000
10
200.7860996072
20
24.8724992553
30
0.0000000000
10
200.7860994944
20
24.8222071251
30
0.0000000000
11
199.8510551446
21
25.9927963194
31
0.0000000000
11
199.9483663532
21
25.9664178798
31
0.0000000000
11
200.0894861453
21
25.9117057847
31
0.0000000000
11
200.2226665413
21
25.8396192016
31
0.0000000000
11
200.3456917988
21
25.7513457356
31
0.0000000000
11
200.4566828909
21
25.6482199440
31
0.0000000000
11
200.5539641099
21
25.5317057626
31
0.0000000000
11
200.6359061202
21
25.4035863243
31
0.0000000000
11
200.7010244335
21
25.2660478120
31
0.0000000000
11
200.7481661923
21
25.1215767757
31
0.0000000000
11
200.7766162144
21
24.9727851867
31
0.0000000000
11
200.7860994944
21
24.8222071251
31
0.0000000000
0
SPLINE
5
375
100
AcDbEntity
8
0
100
AcDbSpline
62
9
6
CONTINUOUS
70
0
71
3
72
9
73
5
74
3
42
0.0000001000
43
0.0000001000
44
0.0000000001
12
0.0055166427
22
-0.1000356136
32
0.0000000000
13
0.0964964486
23
-0.0269442526
33
0.0000000000
40
0.0000000000
40
0.0000000000
40
0.0000000000
40
0.0000000000
40
0.4971546093
40
1.0000000000
40
1.0000000000
40
1.0000000000
40
1.0000000000
10
40.0008375411
20
26.0205962430
30
0.0000000000
10
40.0017517492
20
26.0040185209
30
0.0000000000
10
40.0105524047
20
25.9766755423
30
0.0000000000
10
39.9927248074
20
25.9252669893
30
0.0000000000
10
40.0088990722
20
25.9207507249
30
0.0000000000
11
40.0008375411
21
26.0205962430
31
0.0000000000
11
40.0039208111
21
25.9708830327
31
0.0000000000
11
40.0088990722
21
25.9207507249
31
0.0000000000
0
SPLINE
5
376
100
AcDbEntity
8
0
100
AcDbSpline
62
9
6
CONTINUOUS
70
0
71
3
72
15
73
11
74
9
42
0.0000001000
43
0.0000001000
44
0.0000000001
12
159.4721972145
22
8.8002132890
32
0.0000000000
13
159.4721972421
23
-8.8002127901
33
0.0000000000
40
0.0000000000
40
0.0000000000
40
0.0000000000
40
0.0000000000
40
0.1064991748
40
0.2229760392
40
0.3525613791
40
0.4950515441
40
0.6403741301
40
0.7738861078
40
0.8927799864
40
1.0000000000
40
1.0000000000
40
1.0000000000
40
1.0000000000
10
40.0088990722
20
25.9207507249
30
0.0000000000
10
45.6701182079
20
26.2331558760
30
0.0000000000
10
57.5268975393
20
26.8176512118
30
0.0000000000
10
76.2843296460
20
27.5113287289
30
0.0000000000
10
96.9652339478
20
27.9953255940
30
0.0000000000
10
119.1869224750
20
28.1820281053
30
0.0000000000
10
141.6178681782
20
28.0145431735
30
0.0000000000
10
162.7874941990
20
27.5310211915
30
0.0000000000
10
181.9209526149
20
26.8275135721
30
0.0000000000
10
193.9446147217
20
26.2352703686
30
0.0000000000
10
199.6441517736
20
25.9207507236
30
0.0000000000
11
40.0088990722
21
25.9207507249
31
0.0000000000
11
56.9977661353
21
26.7582396165
31
0.0000000000
11
75.5881403206
21
27.4457349588
31
0.0000000000
11
96.2791745288
21
27.9299776497
31
0.0000000000
11
119.0361632642
21
28.1211641788
31
0.0000000000
11
142.2456878393
21
27.9478793961
31
0.0000000000
11
163.5639698753
21
27.4609532783
31
0.0000000000
11
182.5402622117
21
26.7632284799
31
0.0000000000
11
199.6441517736
21
25.9207507236
31
0.0000000000
0
SPLINE
5
377
100
AcDbEntity
8
0
100
AcDbSpline
62
9
6
CONTINUOUS
70
0
71
3
72
15
73
11
74
9
42
0.0000001000
43
0.0000001000
44
0.0000000001
12
159.4883143869
22
8.8008164806
32
0.0000000000
13
159.4883144417
23
-8.8008154893
33
0.0000000000
40
0.0000000000
40
0.0000000000
40
0.0000000000
40
0.0000000000
40
0.1064990929
40
0.2229759840
40
0.3525613632
40
0.4950515833
40
0.6403742208
40
0.7738862274
40
0.8927801228
40
1.0000000000
40
1.0000000000
40
1.0000000000
40
1.0000000000
10
40.0008375410
20
26.0205962430
30
0.0000000000
10
45.6626244768
20
26.3330225669
30
0.0000000000
10
57.5205989228
20
26.9175578477
30
0.0000000000
10
76.2799248640
20
27.6112829634
30
0.0000000000
10
96.9629240251
20
28.0953131763
30
0.0000000000
10
119.1868639720
20
28.2820284929
30
0.0000000000
10
141.6200816482
20
28.1145318933
30
0.0000000000
10
162.7918505794
20
27.6309764619
30
0.0000000000
10
181.9272368169
20
26.9274206006
30
0.0000000000
10
193.9521074771
20
26.3351370282
30
0.0000000000
10
199.6522133048
20
26.0205962430
30
0.0000000000
11
40.0008375410
21
26.0205962430
31
0.0000000000
11
56.9914081854
21
26.8581419432
31
0.0000000000
11
75.5836644572
21
27.5456846517
31
0.0000000000
11
96.2767944398
21
28.0299607078
31
0.0000000000
11
119.0360897336
21
28.2211603598
31
0.0000000000
11
142.2479659571
21
28.0478634959
31
0.0000000000
11
163.5684054092
21
27.5609037059
31
0.0000000000
11
182.5466172398
21
26.8631307723
31
0.0000000000
11
199.6522133048
21
26.0205962430
31
0.0000000000
0
SPLINE
5
378
100
AcDbEntity
8
0
100
AcDbSpline
62
9
6
CONTINUOUS
70
0
71
3
72
19
73
15
74
13
42
0.0000001000
43
0.0000001000
44
0.0000000001
12
-0.0000149809
22
1.6662485115
32
0.0000000000
13
1.6637160197
23
0.0918319553
33
0.0000000000
40
0.0000000000
40
0.0000000000
40
0.0000000000
40
0.0000000000
40
0.0829580946
40
0.1661749952
40
0.2495474497
40
0.3329612026
40
0.4163576343
40
0.4997956750
40
0.5833820361
40
0.6671246003
40
0.7510340539
40
0.8336138796
40
0.9157517574
40
1.0000000000
40
1.0000000000
40
1.0000000000
40
1.0000000000
10
38.9695589151
20
24.8222071251
30
0.0000000000
10
38.9695585008
20
24.8682833924
30
0.0000000000
10
38.9753709493
20
24.9606845997
30
0.0000000000
10
39.0014456784
20
25.0971691731
30
0.0000000000
10
39.0445749061
20
25.2295509032
30
0.0000000000
10
39.1040860551
20
25.3555264175
30
0.0000000000
10
39.1790214065
20
25.4730280676
30
0.0000000000
10
39.2682345229
20
25.5802184440
30
0.0000000000
10
39.3704066351
20
25.6754226698
30
0.0000000000
10
39.4840131699
20
25.7570949350
30
0.0000000000
10
39.6065619776
20
25.8234455878
30
0.0000000000
10
39.7356482365
20
25.8735166172
30
0.0000000000
10
39.8701201907
20
25.9071652865
30
0.0000000000
10
39.9621774150
20
25.9181707442
30
0.0000000000
10
40.0088991319
20
25.9207496378
30
0.0000000000
11
38.9695589151
21
24.8222071251
31
0.0000000000
11
38.9782406226
21
24.9601630223
31
0.0000000000
11
39.0042572676
21
25.0963604524
31
0.0000000000
11
39.0472915541
21
25.2284460390
31
0.0000000000
11
39.1066584707
21
25.3541172167
31
0.0000000000
11
39.1813771770
21
25.4712785102
31
0.0000000000
11
39.2703152047
21
25.5781380166
31
0.0000000000
11
39.3722113968
21
25.6730847000
31
0.0000000000
11
39.4855086084
21
25.7545341666
31
0.0000000000
11
39.6084588000
21
25.8211014679
31
0.0000000000
11
39.7367440345
21
25.8708633912
31
0.0000000000
11
39.8695136561
21
25.9040818582
31
0.0000000000
11
40.0088991319
21
25.9207496378
31
0.0000000000
0
SPLINE
5
379
100
AcDbEntity
8
0
100
AcDbSpline
62
9
6
CONTINUOUS
70
0
71
3
72
9
73
5
74
3
42
0.0000001000
43
0.0000001000
44
0.0000000001
12
-0.0000009733
22
0.2011370195
32
0.0000000000
13
0.0335939540
23
0.1984501051
33
0.0000000000
40
0.0000000000
40
0.0000000000
40
0.0000000000
40
0.0000000000
40
0.7497094045
40
1.0000000000
40
1.0000000000
40
1.0000000000
40
1.0000000000
10
38.8669513515
20
24.8222071251
30
0.0000000000
10
38.8669511082
20
24.8724718968
30
0.0000000000
10
38.8711748095
20
24.9395937316
30
0.0000000000
10
38.8809854402
20
25.0059824712
30
0.0000000000
10
38.8837881904
20
25.0225392029
30
0.0000000000
11
38.8669513515
21
24.8222071251
31
0.0000000000
11
38.8764244183
21
24.9727035918
31
0.0000000000
11
38.8837881904
21
25.0225392029
31
0.0000000000
0
SPLINE
5
37A
100
AcDbEntity
8
0
100
AcDbSpline
62
9
6
CONTINUOUS
70
0
71
3
72
18
73
14
74
12
42
0.0000001000
43
0.0000001000
44
0.0000000001
12
0.2700081390
22
1.5950234228
32
0.0000000000
13
1.6141635975
23
0.0890709546
33
0.0000000000
40
0.0000000000
40
0.0000000000
40
0.0000000000
40
0.0000000000
40
0.0624274967
40
0.1561708330
40
0.2499610684
40
0.3437325688
40
0.4375515511
40
0.5315376764
40
0.6256998639
40
0.7200475244
40
0.8129053436
40
0.9052704732
40
1.0000000000
40
1.0000000000
40
1.0000000000
40
1.0000000000
10
38.8837881904
20
25.0225392029
30
0.0000000000
10
38.8894068345
20
25.0557303093
30
0.0000000000
10
38.9069536351
20
25.1381617020
30
0.0000000000
10
38.9487942086
20
25.2665779294
30
0.0000000000
10
39.0137191775
20
25.4040039489
30
0.0000000000
10
39.0954714129
20
25.5321858144
30
0.0000000000
10
39.1928000911
20
25.6491189126
30
0.0000000000
10
39.3042662977
20
25.7529759509
30
0.0000000000
10
39.4282054303
20
25.8420698064
30
0.0000000000
10
39.5619006027
20
25.9144500183
30
0.0000000000
10
39.7027306014
20
25.9690723097
30
0.0000000000
10
39.8494363603
20
26.0057774948
30
0.0000000000
10
39.9498678897
20
26.0177836932
30
0.0000000000
10
40.0008375410
20
26.0205962430
30
0.0000000000
11
38.8837881904
21
25.0225392029
31
0.0000000000
11
38.9048084019
21
25.1212808666
31
0.0000000000
11
38.9517577839
21
25.2653722745
31
0.0000000000
11
39.0165253162
21
25.4024661505
31
0.0000000000
11
39.0980411439
21
25.5302767538
31
0.0000000000
11
39.1950697673
21
25.6468490708
31
0.0000000000
11
39.3062348872
21
25.7504251894
31
0.0000000000
11
39.4298376744
21
25.8392768638
31
0.0000000000
11
39.5639672366
21
25.9118916364
31
0.0000000000
11
39.7039238619
21
25.9661767858
31
0.0000000000
11
39.8487790409
21
26.0024150819
31
0.0000000000
11
40.0008375410
21
26.0205962430
31
0.0000000000
0
SPLINE
5
37B
100
AcDbEntity
8
0
100
AcDbSpline
62
9
6
CONTINUOUS
70
0
71
3
72
9
73
5
74
3
42
0.0000001000
43
0.0000001000
44
0.0000000001
12
0.0055166592
22
0.1000362261
32
0.0000000000
13
0.0964969947
23
0.0269445740
33
0.0000000000
40
0.0000000000
40
0.0000000000
40
0.0000000000
40
0.0000000000
40
0.4971540926
40
1.0000000000
40
1.0000000000
40
1.0000000000
40
1.0000000000
10
40.0008375440
20
-24.3918148225
30
0.0000000000
10
40.0017517539
20
-24.3752370161
30
0.0000000000
10
40.0105524514
20
-24.3478938514
30
0.0000000000
10
39.9927247329
20
-24.2964850154
30
0.0000000000
10
40.0088991059
20
-24.2919686925
30
0.0000000000
11
40.0008375440
21
-24.3918148225
31
0.0000000000
11
40.0039208218
21
-24.3421013596
31
0.0000000000
11
40.0088991059
21
-24.2919686925
31
0.0000000000
0
SPLINE
5
37C
100
AcDbEntity
8
0
100
AcDbSpline
62
9
6
CONTINUOUS
70
0
71
3
72
19
73
15
74
13
42
0.0000001000
43
0.0000001000
44
0.0000000001
12
-1.6637163187
22
0.0918284793
32
0.0000000000
13
0.0000128012
23
1.6662486185
33
0.0000000000
40
0.0000000000
40
0.0000000000
40
0.0000000000
40
0.0000000000
40
0.0828452172
40
0.1659497701
40
0.2492126855
40
0.3325219129
40
0.4158203958
40
0.4991675037
40
0.5826699621
40
0.6663359463
40
0.7500533938
40
0.8336572108
40
0.9169963914
40
1.0000000000
40
1.0000000000
40
1.0000000000
40
1.0000000000
10
40.0088991059
20
-24.2919686925
30
0.0000000000
10
39.9629554593
20
-24.2894328424
30
0.0000000000
10
39.8711396440
20
-24.2785546794
30
0.0000000000
10
39.7364769028
20
-24.2450588097
30
0.0000000000
10
39.6068326882
20
-24.1947926396
30
0.0000000000
10
39.4844610853
20
-24.1285503432
30
0.0000000000
10
39.3713669022
20
-24.0473964882
30
0.0000000000
10
39.2693165354
20
-23.9525706940
30
0.0000000000
10
39.1799058053
20
-23.8454755253
30
0.0000000000
10
39.1046285215
20
-23.7277679432
30
0.0000000000
10
39.0448190623
20
-23.6014347675
30
0.0000000000
10
39.0015189819
20
-23.4687215211
30
0.0000000000
10
38.9753796140
20
-23.3320218985
30
0.0000000000
10
38.9695589398
20
-23.2395272540
30
0.0000000000
10
38.9695592940
20
-23.1934257047
30
0.0000000000
11
40.0088991059
21
-24.2919686925
31
0.0000000000
11
39.8718175569
21
-24.2757239485
31
0.0000000000
11
39.7374385720
21
-24.2423021347
31
0.0000000000
11
39.6080848763
21
-24.1921473915
31
0.0000000000
11
39.4860088635
21
-24.1260660644
31
0.0000000000
11
39.3732416964
21
-24.0451470267
31
0.0000000000
11
39.2715054899
21
-23.9506136128
31
0.0000000000
11
39.1823358632
21
-23.8438074140
31
0.0000000000
11
39.1072263183
21
-23.7263627935
31
0.0000000000
11
39.0475378059
21
-23.6002839284
31
0.0000000000
11
39.0043271765
21
-23.4678503475
31
0.0000000000
11
38.9782500632
21
-23.3314570280
31
0.0000000000
11
38.9695592940
21
-23.1934257047
31
0.0000000000
0
SPLINE
5
37D
100
AcDbEntity
8
0
100
AcDbSpline
62
9
6
CONTINUOUS
70
0
71
3
72
9
73
5
74
3
42
0.0000001000
43
0.0000001000
44
0.0000000001
12
-0.2005690802
22
0.0110667401
32
0.0000000000
13
-0.1960467242
23
0.0443934264
33
0.0000000000
40
0.0000000000
40
0.0000000000
40
0.0000000000
40
0.0000000000
40
0.7497088462
40
1.0000000000
40
1.0000000000
40
1.0000000000
40
1.0000000000
10
40.0008375410
20
-24.3918148225
30
0.0000000000
10
39.9507147365
20
-24.3890492116
30
0.0000000000
10
39.8840148014
20
-24.3811472206
30
0.0000000000
10
39.8183519548
20
-24.3677186596
30
0.0000000000
10
39.8019957012
20
-24.3640148989
30
0.0000000000
11
40.0008375410
21
-24.3918148225
31
0.0000000000
11
39.8512865832
21
-24.3740945440
31
0.0000000000
11
39.8019957012
21
-24.3640148989
31
0.0000000000
0
SPLINE
5
37E
100
AcDbEntity
8
0
100
AcDbSpline
62
9
6
CONTINUOUS
70
0
71
3
72
18
73
14
74
12
42
0.0000001000
43
0.0000001000
44
0.0000000001
12
-1.5780250538
22
0.3573328726
32
0.0000000000
13
0.0000036266
23
1.6168822019
33
0.0000000000
40
0.0000000000
40
0.0000000000
40
0.0000000000
40
0.0000000000
40
0.0623362621
40
0.1559451722
40
0.2496057270
40
0.3432538768
40
0.4369561978
40
0.5308323376
40
0.6248914404
40
0.7190077719
40
0.8129959698
40
0.9066868382
40
1.0000000000
40
1.0000000000
40
1.0000000000
40
1.0000000000
10
39.8019957012
20
-24.3640148989
30
0.0000000000
10
39.7692063068
20
-24.3565899671
30
0.0000000000
10
39.6879678317
20
-24.3345696438
30
0.0000000000
10
39.5621989736
20
-24.2858102117
30
0.0000000000
10
39.4286960398
20
-24.2135480993
30
0.0000000000
10
39.3053140633
20
-24.1250185738
30
0.0000000000
10
39.1939803167
20
-24.0215739969
30
0.0000000000
10
39.0964360247
20
-23.9047446274
30
0.0000000000
10
39.0143108732
20
-23.7763382258
30
0.0000000000
10
38.9490605511
20
-23.6385221614
30
0.0000000000
10
38.9018208866
20
-23.4937457360
30
0.0000000000
10
38.8733036565
20
-23.3446202575
30
0.0000000000
10
38.8669512387
20
-23.2437178348
30
0.0000000000
10
38.8669513515
20
-23.1934257047
30
0.0000000000
11
39.8019957012
21
-24.3640148989
31
0.0000000000
11
39.7046844926
21
-24.3376364593
31
0.0000000000
11
39.5635647006
21
-24.2829243642
31
0.0000000000
11
39.4303843046
21
-24.2108377811
31
0.0000000000
11
39.3073590471
21
-24.1225643151
31
0.0000000000
11
39.1963679550
21
-24.0194385235
31
0.0000000000
11
39.0990867360
21
-23.9029243422
31
0.0000000000
11
39.0171447256
21
-23.7748049038
31
0.0000000000
11
38.9520264124
21
-23.6372663915
31
0.0000000000
11
38.9048846535
21
-23.4927953553
31
0.0000000000
11
38.8764346315
21
-23.3440037662
31
0.0000000000
11
38.8669513515
21
-23.1934257047
31
0.0000000000
0
SPLINE
5
37F
100
AcDbEntity
8
0
100
AcDbSpline
62
0
6
CONTINUOUS
70
0
71
3
72
9
73
5
74
3
42
0.0000001000
43
0.0000001000
44
0.0000000001
12
0.0000000000
22
-0.9504143349
32
0.0000000000
13
-0.0176986301
23
-0.9547582546
33
0.0000000000
40
0.0000000000
40
0.0000000000
40
0.0000000000
40
0.0000000000
40
0.6131267009
40
1.0000000000
40
1.0000000000
40
1.0000000000
40
1.0000000000
10
-15.0805574961
20
-39.6918492356
30
0.0000000000
10
-15.0805574961
20
-39.8860907041
30
0.0000000000
10
-15.0806255168
20
-40.2057630210
30
0.0000000000
10
-15.0894836202
20
-40.5160553205
30
0.0000000000
10
-15.0917659960
20
-40.6391788124
30
0.0000000000
11
-15.0805574961
21
-39.6918492356
31
0.0000000000
11
-15.0839453128
21
-40.2745637932
31
0.0000000000
11
-15.0917659960
21
-40.6391788124
31
0.0000000000
0
SPLINE
5
380
100
AcDbEntity
8
0
100
AcDbSpline
62
0
6
CONTINUOUS
70
0
71
3
72
11
73
7
74
5
42
0.0000001000
43
0.0000001000
44
0.0000000001
12
-0.0176324314
22
-0.9511871473
32
0.0000000000
13
-0.9468594753
23
0.0000004123
33
0.0000000000
40
0.0000000000
40
0.0000000000
40
0.0000000000
40
0.0000000000
40
0.1730781765
40
0.6144476250
40
0.9002217927
40
1.0000000000
40
1.0000000000
40
1.0000000000
40
1.0000000000
10
-15.0917659960
20
-40.6391788124
30
0.0000000000
10
-15.0927832590
20
-40.6940553914
30
0.0000000000
10
-15.0955874558
20
-40.8910455264
30
0.0000000000
10
-15.0914752239
20
-41.1982808425
30
0.0000000000
10
-15.1448639036
20
-41.3949681461
30
0.0000000000
10
-15.1185126014
20
-41.5856092884
30
0.0000000000
10
-15.1500045817
20
-41.5856092746
30
0.0000000000
11
-15.0917659960
21
-40.6391788124
31
0.0000000000
11
-15.0939178360
21
-40.8060408809
31
0.0000000000
11
-15.1092851986
21
-41.2236730891
31
0.0000000000
11
-15.1287196717
21
-41.4935622430
31
0.0000000000
11
-15.1500045817
21
-41.5856092746
31
0.0000000000
0
SPLINE
5
381
100
AcDbEntity
8
0
100
AcDbSpline
62
0
6
CONTINUOUS
70
0
71
3
72
11
73
7
74
5
42
0.0000001000
43
0.0000001000
44
0.0000000001
12
0.9867405725
22
0.0000004296
32
0.0000000000
13
0.0201410556
23
-0.9862966429
33
0.0000000000
40
0.0000000000
40
0.0000000000
40
0.0000000000
40
0.0000000000
40
0.0957454712
40
0.3699695033
40
0.7935001213
40
1.0000000000
40
1.0000000000
40
1.0000000000
40
1.0000000000
10
-15.1500045817
20
43.2143906951
30
0.0000000000
10
-15.1185126014
20
43.2143907088
30
0.0000000000
10
-15.1448639036
20
43.0237495665
30
0.0000000000
10
-15.0914752239
20
42.8270622630
30
0.0000000000
10
-15.0957798578
20
42.5054521015
30
0.0000000000
10
-15.0923724478
20
42.2958898738
30
0.0000000000
10
-15.0909860726
20
42.2279998281
30
0.0000000000
11
-15.1500045817
21
43.2143906951
31
0.0000000000
11
-15.1287196717
21
43.1223436634
31
0.0000000000
11
-15.1092851986
21
42.8524545096
31
0.0000000000
11
-15.0939178360
21
42.4348223013
31
0.0000000000
11
-15.0909860726
21
42.2279998281
31
0.0000000000
0
SPLINE
5
382
100
AcDbEntity
8
0
100
AcDbSpline
62
0
6
CONTINUOUS
70
0
71
3
72
8
73
4
74
2
42
0.0000001000
43
0.0000001000
44
0.0000000001
12
0.0028670749
22
-0.1403991128
32
0.0000000000
13
0.0032241708
23
-0.1388782073
33
0.0000000000
40
0.0000000000
40
0.0000000000
40
0.0000000000
40
0.0000000000
40
1.0000000000
40
1.0000000000
40
1.0000000000
40
1.0000000000
10
-15.0909860726
20
42.2279998281
30
0.0000000000
10
-15.0900303810
20
42.1812001238
30
0.0000000000
10
-15.0889465968
20
42.1347788811
30
0.0000000000
10
-15.0878718732
20
42.0884861453
30
0.0000000000
11
-15.0909860726
21
42.2279998281
31
0.0000000000
11
-15.0878718732
21
42.0884861453
31
0.0000000000
0
SPLINE
5
383
100
AcDbEntity
8
0
100
AcDbSpline
62
0
6
CONTINUOUS
70
0
71
3
72
9
73
5
74
3
42
0.0000001000
43
0.0000001000
44
0.0000000001
12
0.0176762027
22
-0.7613862643
32
0.0000000000
13
0.0000000000
23
-0.7700709316
33
0.0000000000
40
0.0000000000
40
0.0000000000
40
0.0000000000
40
0.0000000000
40
0.2432847655
40
1.0000000000
40
1.0000000000
40
1.0000000000
40
1.0000000000
10
-15.0878718732
20
42.0884861453
30
0.0000000000
10
-15.0864384229
20
42.0267415857
30
0.0000000000
10
-15.0806126097
20
41.7738858513
30
0.0000000000
10
-15.0805574961
20
41.5148721246
30
0.0000000000
10
-15.0805574961
20
41.3206306561
30
0.0000000000
11
-15.0878718732
21
42.0884861453
31
0.0000000000
11
-15.0839453128
21
41.9033452136
31
0.0000000000
11
-15.0805574961
21
41.3206306561
31
0.0000000000
0
SPLINE
5
384
100
AcDbEntity
8
0
100
AcDbSpline
62
0
6
CONTINUOUS
70
0
71
3
72
8
73
4
74
2
42
0.0000001000
43
0.0000001000
44
0.0000000001
12
-1.4564306001
22
-0.0085763456
32
0.0000000000
13
0.0000000000
23
-0.0000000002
33
0.0000000000
40
0.0000000000
40
0.0000000000
40
0.0000000000
40
0.0000000000
40
1.0000000000
40
1.0000000000
40
1.0000000000
40
1.0000000000
10
-19.3891594554
20
-41.3638663035
30
0.0000000000
10
-19.8746363221
20
-41.3667250853
30
0.0000000000
10
-20.8455901320
20
-41.3724296397
30
0.0000000000
10
-20.8455901320
20
-41.3724296398
30
0.0000000000
11
-19.3891594554
21
-41.3638663035
31
0.0000000000
11
-20.8455901320
21
-41.3724296398
31
0.0000000000
0
SPLINE
5
385
100
AcDbEntity
8
0
100
AcDbSpline
62
0
6
CONTINUOUS
70
0
71
3
72
8
73
4
74
2
42
0.0000001000
43
0.0000001000
44
0.0000000001
12
-1.4564305860
22
0.0085763455
32
0.0000000000
13
0.0000000000
23
0.0000000002
33
0.0000000000
40
0.0000000000
40
0.0000000000
40
0.0000000000
40
0.0000000000
40
1.0000000000
40
1.0000000000
40
1.0000000000
40
1.0000000000
10
-19.3891594548
20
42.9926477239
30
0.0000000000
10
-19.8746363168
20
42.9955065058
30
0.0000000000
10
-20.8455901186
20
43.0012110601
30
0.0000000000
10
-20.8455901186
20
43.0012110602
30
0.0000000000
11
-19.3891594548
21
42.9926477239
31
0.0000000000
11
-20.8455901186
21
43.0012110602
31
0.0000000000
0
SPLINE
5
386
100
AcDbEntity
8
0
100
AcDbSpline
62
0
6
CONTINUOUS
70
0
71
3
72
8
73
4
74
2
42
0.0000001000
43
0.0000001000
44
0.0000000001
12
-1.6271383507
22
0.0000007086
32
0.0000000000
13
0.0000000000
23
0.0000000000
33
0.0000000000
40
0.0000000000
40
0.0000000000
40
0.0000000000
40
0.0000000000
40
1.0000000000
40
1.0000000000
40
1.0000000000
40
1.0000000000
10
-15.1500045817
20
-41.5856092746
30
0.0000000000
10
-15.6923840320
20
-41.5856090385
30
0.0000000000
10
-16.7771429324
20
-41.5856002682
30
0.0000000000
10
-16.7771429324
20
-41.5856002682
30
0.0000000000
11
-15.1500045817
21
-41.5856092746
31
0.0000000000
11
-16.7771429324
21
-41.5856002682
31
0.0000000000
0
SPLINE
5
387
100
AcDbEntity
8
0
100
AcDbSpline
62
0
6
CONTINUOUS
70
0
71
3
72
8
73
4
74
2
42
0.0000001000
43
0.0000001000
44
0.0000000001
12
-1.6271383507
22
-0.0000007086
32
0.0000000000
13
0.0000000000
23
0.0000000000
33
0.0000000000
40
0.0000000000
40
0.0000000000
40
0.0000000000
40
0.0000000000
40
1.0000000000
40
1.0000000000
40
1.0000000000
40
1.0000000000
10
-15.1500045817
20
43.2143906951
30
0.0000000000
10
-15.6923840320
20
43.2143904589
30
0.0000000000
10
-16.7771429324
20
43.2143816887
30
0.0000000000
10
-16.7771429324
20
43.2143816887
30
0.0000000000
11
-15.1500045817
21
43.2143906951
31
0.0000000000
11
-16.7771429324
21
43.2143816887
31
0.0000000000
0
SPLINE
5
388
100
AcDbEntity
8
0
100
AcDbSpline
62
9
6
CONTINUOUS
70
0
71
3
72
9
73
5
74
3
42
0.0000001000
43
0.0000001000
44
0.0000000001
12
0.0149054419
22
-0.0319391045
32
0.0000000000
13
0.0037358663
23
-0.0349923128
33
0.0000000000
40
0.0000000000
40
0.0000000000
40
0.0000000000
40
0.0000000000
40
0.5145175596
40
1.0000000000
40
1.0000000000
40
1.0000000000
40
1.0000000000
10
-20.8529540755
20
26.0205962430
30
0.0000000000
10
-20.8503977050
20
26.0151184996
30
0.0000000000
10
-20.8491463798
20
26.0031571914
30
0.0000000000
10
-20.8478550653
20
25.9914454638
30
0.0000000000
10
-20.8472504995
20
25.9857827460
30
0.0000000000
11
-20.8529540755
21
26.0205962430
31
0.0000000000
11
-20.8490994611
21
26.0028759645
31
0.0000000000
11
-20.8472504995
21
25.9857827460
31
0.0000000000
0
SPLINE
5
389
100
AcDbEntity
8
0
100
AcDbSpline
62
9
6
CONTINUOUS
70
0
71
3
72
11
73
7
74
5
42
0.0000001000
43
0.0000001000
44
0.0000000001
12
0.0248955723
22
-0.2331865174
32
0.0000000000
13
0.0073988762
23
-0.2347901496
33
0.0000000000
40
0.0000000000
40
0.0000000000
40
0.0000000000
40
0.0000000000
40
0.0832044229
40
0.3166618349
40
0.6239255512
40
1.0000000000
40
1.0000000000
40
1.0000000000
40
1.0000000000
10
-20.8472504995
20
25.9857827460
30
0.0000000000
10
-20.8465600256
20
25.9793153628
30
0.0000000000
10
-20.8440431250
20
25.9548163815
30
0.0000000000
10
-20.8412665287
20
25.9058882040
30
0.0000000000
10
-20.8378074653
20
25.8342633093
30
0.0000000000
10
-20.8359465817
20
25.7807785943
30
0.0000000000
10
-20.8350190723
20
25.7513457356
30
0.0000000000
11
-20.8472504995
21
25.9857827460
31
0.0000000000
11
-20.8453138451
21
25.9664178798
31
0.0000000000
11
-20.8416632418
21
25.9117057847
31
0.0000000000
11
-20.8382121252
21
25.8396192016
31
0.0000000000
11
-20.8350190723
21
25.7513457356
31
0.0000000000
0
SPLINE
5
38A
100
AcDbEntity
8
0
100
AcDbSpline
62
9
6
CONTINUOUS
70
0
71
3
72
10
73
6
74
4
42
0.0000001000
43
0.0000001000
44
0.0000000001
12
0.0095765141
22
-0.3038936077
32
0.0000000000
13
0.0048342446
23
-0.3039667047
33
0.0000000000
40
0.0000000000
40
0.0000000000
40
0.0000000000
40
0.0000000000
40
0.3393557268
40
0.7227091234
40
1.0000000000
40
1.0000000000
40
1.0000000000
40
1.0000000000
10
-20.8350190723
20
25.7513457356
30
0.0000000000
10
-20.8339357907
20
25.7169697235
30
0.0000000000
10
-20.8319094829
20
25.6437677974
30
0.0000000000
10
-20.8297415902
20
25.5424525883
30
0.0000000000
10
-20.8285787044
20
25.4755160703
30
0.0000000000
10
-20.8281318738
20
25.4474203390
30
0.0000000000
11
-20.8350190723
21
25.7513457356
31
0.0000000000
11
-20.8321341674
21
25.6482199440
31
0.0000000000
11
-20.8296023424
21
25.5317057626
31
0.0000000000
11
-20.8281318738
21
25.4474203390
31
0.0000000000
0
SPLINE
5
38B
100
AcDbEntity
8
0
100
AcDbSpline
62
9
6
CONTINUOUS
70
0
71
3
72
12
73
8
74
6
42
0.0000001000
43
0.0000001000
44
0.0000000001
12
0.0099423883
22
-0.6251555807
32
0.0000000000
13
0.0000000746
23
-0.6252361475
33
0.0000000000
40
0.0000000000
40
0.0000000000
40
0.0000000000
40
0.0000000000
40
0.0701161784
40
0.2901114494
40
0.5211861797
40
0.7591657715
40
1.0000000000
40
1.0000000000
40
1.0000000000
40
1.0000000000
10
-20.8281318738
20
25.4474203390
30
0.0000000000
10
-20.8278994997
20
25.4328091656
30
0.0000000000
10
-20.8269842090
20
25.3723535605
30
0.0000000000
10
-20.8256563833
20
25.2637396862
30
0.0000000000
10
-20.8244439615
20
25.1201383313
30
0.0000000000
10
-20.8237113616
20
24.9721905236
30
0.0000000000
10
-20.8235484886
20
24.8723998802
30
0.0000000000
10
-20.8235484826
20
24.8222071251
30
0.0000000000
11
-20.8281318738
21
25.4474203390
31
0.0000000000
11
-20.8274673627
21
25.4035863243
31
0.0000000000
11
-20.8257691748
21
25.2660478120
31
0.0000000000
11
-20.8245389344
21
25.1215767757
31
0.0000000000
11
-20.8237961379
21
24.9727851867
31
0.0000000000
11
-20.8235484826
21
24.8222071251
31
0.0000000000
0
SPLINE
5
38C
100
AcDbEntity
8
0
100
AcDbSpline
62
9
6
CONTINUOUS
70
0
71
3
72
8
73
4
74
2
42
0.0000001000
43
0.0000001000
44
0.0000000001
12
-0.0000616108
22
-0.0431825498
32
0.0000000000
13
0.0184136625
23
-0.0397570652
33
0.0000000000
40
0.0000000000
40
0.0000000000
40
0.0000000000
40
0.0000000000
40
1.0000000000
40
1.0000000000
40
1.0000000000
40
1.0000000000
10
-20.8529539626
20
26.0205962430
30
0.0000000000
10
-20.8529744996
20
26.0062020597
30
0.0000000000
10
-20.8497245121
20
25.9915717432
30
0.0000000000
10
-20.8435866246
20
25.9783193881
30
0.0000000000
11
-20.8529539626
21
26.0205962430
31
0.0000000000
11
-20.8435866246
21
25.9783193881
31
0.0000000000
0
SPLINE
5
38D
100
AcDbEntity
8
0
100
AcDbSpline
62
9
6
CONTINUOUS
70
0
71
3
72
9
73
5
74
3
42
0.0000001000
43
0.0000001000
44
0.0000000001
12
-0.1365105830
22
0.2922186482
32
0.0000000000
13
-0.0000000051
23
-0.0000001097
33
0.0000000000
40
0.0000000000
40
0.0000000000
40
0.0000000000
40
0.0000000000
40
0.1635842350
40
1.0000000000
40
1.0000000000
40
1.0000000000
40
1.0000000000
10
-21.7679885370
20
27.9804128473
30
0.0000000000
10
-21.7754321968
20
27.9963469686
30
0.0000000000
10
-21.8225425442
20
28.0971921277
30
0.0000000000
10
-21.8804849150
20
28.2212206701
30
0.0000000000
10
-21.8804849164
20
28.2212206395
30
0.0000000000
11
-21.7679885370
21
27.9804128473
31
0.0000000000
11
-21.7911350799
21
28.0299607078
31
0.0000000000
11
-21.8804849164
21
28.2212206395
31
0.0000000000
0
SPLINE
5
38E
100
AcDbEntity
8
0
100
AcDbSpline
62
9
6
CONTINUOUS
70
0
71
3
72
8
73
4
74
2
42
0.0000001000
43
0.0000001000
44
0.0000000001
12
-0.0204823631
22
0.0438457952
32
0.0000000000
13
-0.0219260846
23
0.0469356344
33
0.0000000000
40
0.0000000000
40
0.0000000000
40
0.0000000000
40
0.0000000000
40
1.0000000000
40
1.0000000000
40
1.0000000000
40
1.0000000000
10
-21.7467970979
20
27.9350495010
30
0.0000000000
10
-21.7536245523
20
27.9496647661
30
0.0000000000
10
-21.7606798421
20
27.9647676358
30
0.0000000000
10
-21.7679885370
20
27.9804128473
30
0.0000000000
11
-21.7467970979
21
27.9350495010
31
0.0000000000
11
-21.7679885370
21
27.9804128473
31
0.0000000000
0
SPLINE
5
38F
100
AcDbEntity
8
0
100
AcDbSpline
62
9
6
CONTINUOUS
70
0
71
3
72
11
73
7
74
5
42
0.0000001000
43
0.0000001000
44
0.0000000001
12
-0.3072356077
22
0.6576872737
32
0.0000000000
13
0.2877142268
23
-0.6159039022
33
0.0000000000
40
0.0000000000
40
0.0000000000
40
0.0000000000
40
0.0000000000
40
0.1345643524
40
0.4865480233
40
0.8055741067
40
1.0000000000
40
1.0000000000
40
1.0000000000
40
1.0000000000
10
-21.7467970979
20
27.9350495010
30
0.0000000000
10
-21.7605780848
20
27.9645499217
30
0.0000000000
10
-21.8137626718
20
28.0783984135
30
0.0000000000
10
-21.9264641341
20
28.3196414598
30
0.0000000000
10
-21.8102798829
20
28.0709431656
30
0.0000000000
10
-21.7567515226
20
27.9563586259
30
0.0000000000
10
-21.7381051574
20
27.9164427371
30
0.0000000000
11
-21.7467970979
21
27.9350495010
31
0.0000000000
11
-21.7911350799
21
28.0299607078
31
0.0000000000
11
-21.8804567563
21
28.2211603598
31
0.0000000000
11
-21.7994985529
21
28.0478634959
31
0.0000000000
11
-21.7381051574
21
27.9164427371
31
0.0000000000
0
SPLINE
5
390
100
AcDbEntity
8
0
100
AcDbSpline
62
9
6
CONTINUOUS
70
0
71
3
72
8
73
4
74
2
42
0.0000001000
43
0.0000001000
44
0.0000000001
12
0.0869823353
22
-0.1862012885
32
0.0000000000
13
0.0700431339
23
-0.1499541929
33
0.0000000000
40
0.0000000000
40
0.0000000000
40
0.0000000000
40
0.0000000000
40
1.0000000000
40
1.0000000000
40
1.0000000000
40
1.0000000000
10
-21.7381051574
20
27.9164427371
30
0.0000000000
10
-21.7091110456
20
27.8543756409
30
0.0000000000
10
-21.6840409032
20
27.8007062018
30
0.0000000000
10
-21.6606931919
20
27.7507214708
30
0.0000000000
11
-21.7381051574
21
27.9164427371
31
0.0000000000
11
-21.6606931919
21
27.7507214708
31
0.0000000000
0
SPLINE
5
391
100
AcDbEntity
8
0
100
AcDbSpline
62
9
6
CONTINUOUS
70
0
71
3
72
13
73
9
74
7
42
0.0000001000
43
0.0000001000
44
0.0000000001
12
-1.0825202502
22
2.3194193223
32
0.0000000000
13
1.0002074931
23
-2.1413277635
33
0.0000000000
40
0.0000000000
40
0.0000000000
40
0.0000000000
40
0.0000000000
40
0.2298437689
40
0.5230037051
40
0.7295054914
40
0.8110375214
40
0.8849353932
40
1.0000000000
40
1.0000000000
40
1.0000000000
40
1.0000000000
10
-20.9911729364
20
26.3167686608
30
0.0000000000
10
-21.0741097811
20
26.4944700204
30
0.0000000000
10
-21.2631376023
20
26.8994229904
30
0.0000000000
10
-21.5530118988
20
27.5201924048
30
0.0000000000
10
-21.7078667694
20
27.8517230046
30
0.0000000000
10
-21.9264641341
20
28.3196414598
30
0.0000000000
10
-21.7696933260
20
27.9840655780
30
0.0000000000
10
-21.6990560192
20
27.8328518165
30
0.0000000000
10
-21.6606931919
20
27.7507214708
30
0.0000000000
11
-20.9911729364
21
26.3167686608
31
0.0000000000
11
-21.2438826633
21
26.8581419432
31
0.0000000000
11
-21.5649286074
21
27.5456846517
31
0.0000000000
11
-21.7911350799
21
28.0299607078
31
0.0000000000
11
-21.8804567563
21
28.2211603598
31
0.0000000000
11
-21.7994985529
21
28.0478634959
31
0.0000000000
11
-21.6606931919
21
27.7507214708
31
0.0000000000
0
SPLINE
5
392
100
AcDbEntity
8
0
100
AcDbSpline
62
9
6
CONTINUOUS
70
0
71
3
72
8
73
4
74
2
42
0.0000001000
43
0.0000001000
44
0.0000000001
12
-0.1392806752
22
0.2984696646
32
0.0000000000
13
-0.1377500083
23
0.2951446228
33
0.0000000000
40
0.0000000000
40
0.0000000000
40
0.0000000000
40
0.0000000000
40
1.0000000000
40
1.0000000000
40
1.0000000000
40
1.0000000000
10
-20.8529540755
20
26.0205962430
30
0.0000000000
10
-20.8993809672
20
26.1200861312
30
0.0000000000
10
-20.9452562669
20
26.2183871199
30
0.0000000000
10
-20.9911729364
20
26.3167686608
30
0.0000000000
11
-20.8529540755
21
26.0205962430
31
0.0000000000
11
-20.9911729364
21
26.3167686608
31
0.0000000000
0
SPLINE
5
393
100
AcDbEntity
8
0
100
AcDbSpline
62
9
6
CONTINUOUS
70
0
71
3
72
12
73
8
74
6
42
0.0000001000
43
0.0000001000
44
0.0000000001
12
-0.0000001751
22
-0.6239892233
32
0.0000000000
13
-0.0098956648
23
-0.6239092174
33
0.0000000000
40
0.0000000000
40
0.0000000000
40
0.0000000000
40
0.0000000000
40
0.2411847262
40
0.4792964073
40
0.7102244611
40
0.9299466539
40
1.0000000000
40
1.0000000000
40
1.0000000000
40
1.0000000000
10
-20.8235484826
20
-23.1934257047
30
0.0000000000
10
-20.8235484967
20
-23.2435912613
30
0.0000000000
10
-20.8237111154
20
-23.3432832661
30
0.0000000000
10
-20.8244419696
20
-23.4910058878
30
0.0000000000
10
-20.8256497743
20
-23.6342610352
30
0.0000000000
10
-20.8269709605
20
-23.7425579621
30
0.0000000000
10
-20.8278810094
20
-23.8028231715
30
0.0000000000
10
-20.8281120843
20
-23.8173921476
30
0.0000000000
11
-20.8235484826
21
-23.1934257047
31
0.0000000000
11
-20.8237958712
21
-23.3439221713
31
0.0000000000
11
-20.8245369439
21
-23.4924994461
31
0.0000000000
11
-20.8257621666
21
-23.6365908540
31
0.0000000000
11
-20.8274512159
21
-23.7736847300
31
0.0000000000
11
-20.8281120843
21
-23.8173921476
31
0.0000000000
0
SPLINE
5
394
100
AcDbEntity
8
0
100
AcDbSpline
62
9
6
CONTINUOUS
70
0
71
3
72
14
73
10
74
8
42
0.0000001000
43
0.0000001000
44
0.0000000001
12
-0.0085655222
22
-0.5400454002
32
0.0000000000
13
-0.0570680583
23
-0.5363398984
33
0.0000000000
40
0.0000000000
40
0.0000000000
40
0.0000000000
40
0.0000000000
40
0.1557367786
40
0.3716162514
40
0.5634577691
40
0.7280701723
40
0.8626673502
40
0.9633973519
40
1.0000000000
40
1.0000000000
40
1.0000000000
40
1.0000000000
10
-20.8281120843
20
-23.8173921476
30
0.0000000000
10
-20.8285567399
20
-23.8454271246
30
0.0000000000
10
-20.8297155824
20
-23.9123222508
30
0.0000000000
10
-20.8318791052
20
-24.0137462477
30
0.0000000000
10
-20.8347226125
20
-24.1167403559
30
0.0000000000
10
-20.8377899825
20
-24.2051235227
30
0.0000000000
10
-20.8412618723
20
-24.2769732577
30
0.0000000000
10
-20.8440385726
20
-24.3260118983
30
0.0000000000
10
-20.8465576542
20
-24.3504414655
30
0.0000000000
10
-20.8472539349
20
-24.3569852856
30
0.0000000000
11
-20.8281120843
21
-23.8173921476
31
0.0000000000
11
-20.8295751134
21
-23.9014953333
31
0.0000000000
11
-20.8321004011
21
-24.0180676504
31
0.0000000000
11
-20.8349898728
21
-24.1216437689
31
0.0000000000
11
-20.8381979485
21
-24.2104954433
31
0.0000000000
11
-20.8416736641
21
-24.2831102160
31
0.0000000000
11
-20.8452941857
21
-24.3373953653
31
0.0000000000
11
-20.8472539349
21
-24.3569852856
31
0.0000000000
0
SPLINE
5
395
100
AcDbEntity
8
0
100
AcDbSpline
62
9
6
CONTINUOUS
70
0
71
3
72
9
73
5
74
3
42
0.0000001000
43
0.0000001000
44
0.0000000001
12
-0.0032718510
22
-0.0307496745
32
0.0000000000
13
-0.0090560105
23
-0.0294685106
33
0.0000000000
40
0.0000000000
40
0.0000000000
40
0.0000000000
40
0.0000000000
40
0.5380470313
40
1.0000000000
40
1.0000000000
40
1.0000000000
40
1.0000000000
10
-20.8472539349
20
-24.3569852856
30
0.0000000000
10
-20.8478407381
20
-24.3625002093
30
0.0000000000
10
-20.8489642001
20
-24.3727932915
30
0.0000000000
10
-20.8500361234
20
-24.3832837090
30
0.0000000000
10
-20.8514306071
20
-24.3878213977
30
0.0000000000
11
-20.8472539349
21
-24.3569852856
31
0.0000000000
11
-20.8490347687
21
-24.3736336614
31
0.0000000000
11
-20.8514306071
21
-24.3878213977
31
0.0000000000
0
SPLINE
5
396
100
AcDbEntity
8
0
100
AcDbSpline
62
9
6
CONTINUOUS
70
0
71
3
72
8
73
4
74
2
42
0.0000001000
43
0.0000001000
44
0.0000000001
12
-0.0012557563
22
-0.0040862660
32
0.0000000000
13
-0.0018158012
23
-0.0038911039
33
0.0000000000
40
0.0000000000
40
0.0000000000
40
0.0000000000
40
0.0000000000
40
1.0000000000
40
1.0000000000
40
1.0000000000
40
1.0000000000
10
-20.8514306071
20
-24.3878213977
30
0.0000000000
10
-20.8518491925
20
-24.3891834863
30
0.0000000000
10
-20.8523488085
20
-24.3905177879
30
0.0000000000
10
-20.8529540755
20
-24.3918148225
30
0.0000000000
11
-20.8514306071
21
-24.3878213977
31
0.0000000000
11
-20.8529540755
21
-24.3918148225
31
0.0000000000
0
SPLINE
5
397
100
AcDbEntity
8
0
100
AcDbSpline
62
9
6
CONTINUOUS
70
0
71
3
72
8
73
4
74
2
42
0.0000001000
43
0.0000001000
44
0.0000000001
12
-0.1388432866
22
-0.2975323684
32
0.0000000000
13
-0.1373172313
23
-0.2942175006
33
0.0000000000
40
0.0000000000
40
0.0000000000
40
0.0000000000
40
0.0000000000
40
1.0000000000
40
1.0000000000
40
1.0000000000
40
1.0000000000
10
-20.8529540755
20
-24.3918148225
30
0.0000000000
10
-20.8992351710
20
-24.4909922787
30
0.0000000000
10
-20.9449684059
20
-24.5889888738
30
0.0000000000
10
-20.9907408163
20
-24.6870613740
30
0.0000000000
11
-20.8529540755
21
-24.3918148225
31
0.0000000000
11
-20.9907408163
21
-24.6870613740
31
0.0000000000
0
SPLINE
5
398
100
AcDbEntity
8
0
100
AcDbSpline
62
9
6
CONTINUOUS
70
0
71
3
72
13
73
9
74
7
42
0.0000001000
43
0.0000001000
44
0.0000000001
12
-1.0918059551
22
-2.3393161685
32
0.0000000000
13
0.9927506419
23
2.1253917682
33
0.0000000000
40
0.0000000000
40
0.0000000000
40
0.0000000000
40
0.0000000000
40
0.2283249156
40
0.5190094095
40
0.7237468421
40
0.8045369636
40
0.8778573913
40
1.0000000000
40
1.0000000000
40
1.0000000000
40
1.0000000000
10
-20.9907408163
20
-24.6870613740
30
0.0000000000
10
-21.0738363172
20
-24.8651027629
30
0.0000000000
10
-21.2630156559
20
-25.2703804409
30
0.0000000000
10
-21.5530592800
20
-25.8915124490
30
0.0000000000
10
-21.7079304329
20
-26.2230778567
30
0.0000000000
10
-21.9264668238
20
-26.6908657971
30
0.0000000000
10
-21.7649407370
20
-26.3451110012
30
0.0000000000
10
-21.6929901234
20
-26.1910850592
30
0.0000000000
10
-21.6525710724
20
-26.1045514275
30
0.0000000000
11
-20.9907408163
21
-24.6870613740
31
0.0000000000
11
-21.2439269065
21
-25.2294552903
31
0.0000000000
11
-21.5649930447
21
-25.9170412020
31
0.0000000000
11
-21.7911909295
21
-26.4012988390
31
0.0000000000
11
-21.8804591587
21
-26.5923840822
31
0.0000000000
11
-21.7994444332
21
-26.4189662278
31
0.0000000000
11
-21.6525710724
21
-26.1045514275
31
0.0000000000
0
SPLINE
5
399
100
AcDbEntity
8
0
100
AcDbSpline
62
9
6
CONTINUOUS
70
0
71
3
72
11
73
7
74
5
42
0.0000001000
43
0.0000001000
44
0.0000000001
12
-0.4108944585
22
-0.8795856462
32
0.0000000000
13
0.3048731718
23
0.6527066338
33
0.0000000000
40
0.0000000000
40
0.0000000000
40
0.0000000000
40
0.0000000000
40
0.1004439709
40
0.3635187586
40
0.6022701752
40
1.0000000000
40
1.0000000000
40
1.0000000000
40
1.0000000000
10
-21.7469358140
20
-26.3065650237
30
0.0000000000
10
-21.7606931044
20
-26.3360147154
30
0.0000000000
10
-21.8138291564
20
-26.4497593058
30
0.0000000000
10
-21.9264668238
20
-26.6908657971
30
0.0000000000
10
-21.7649407370
20
-26.3451110012
30
0.0000000000
10
-21.6929901234
20
-26.1910850592
30
0.0000000000
10
-21.6525710724
20
-26.1045514275
30
0.0000000000
11
-21.7469358140
21
-26.3065650237
31
0.0000000000
11
-21.7911909295
21
-26.4012988390
31
0.0000000000
11
-21.8804591587
21
-26.5923840822
31
0.0000000000
11
-21.7994444332
21
-26.4189662278
31
0.0000000000
11
-21.6525710724
21
-26.1045514275
31
0.0000000000
0
SPLINE
5
39A
100
AcDbEntity
8
0
100
AcDbSpline
62
9
6
CONTINUOUS
70
0
71
3
72
8
73
4
74
2
42
0.0000001000
43
0.0000001000
44
0.0000000001
12
-0.0204182978
22
-0.0437086491
32
0.0000000000
13
-0.0218522366
23
-0.0467775515
33
0.0000000000
40
0.0000000000
40
0.0000000000
40
0.0000000000
40
0.0000000000
40
1.0000000000
40
1.0000000000
40
1.0000000000
40
1.0000000000
10
-21.7469358140
20
-26.3065650237
30
0.0000000000
10
-21.7537419133
20
-26.3211345734
30
0.0000000000
10
-21.7607743487
20
-26.3361885188
30
0.0000000000
10
-21.7680584275
20
-26.3517810360
30
0.0000000000
11
-21.7469358140
21
-26.3065650237
31
0.0000000000
11
-21.7680584275
21
-26.3517810360
31
0.0000000000
0
SPLINE
5
39B
100
AcDbEntity
8
0
100
AcDbSpline
62
9
6
CONTINUOUS
70
0
71
3
72
8
73
4
74
2
42
0.0000001000
43
0.0000001000
44
0.0000000001
12
-0.0223180806
22
-0.0477747510
32
0.0000000000
13
-0.0239738841
23
-0.0513185703
33
0.0000000000
40
0.0000000000
40
0.0000000000
40
0.0000000000
40
0.0000000000
40
1.0000000000
40
1.0000000000
40
1.0000000000
40
1.0000000000
10
-21.7680584275
20
-26.3517810360
30
0.0000000000
10
-21.7754977877
20
-26.3677059529
30
0.0000000000
10
-21.7831996348
20
-26.3841926489
30
0.0000000000
10
-21.7911909295
20
-26.4012988390
30
0.0000000000
11
-21.7680584275
21
-26.3517810360
31
0.0000000000
11
-21.7911909295
21
-26.4012988390
31
0.0000000000
0
SPLINE
5
39C
100
AcDbEntity
8
0
100
AcDbSpline
62
9
6
CONTINUOUS
70
0
71
3
72
8
73
4
74
2
42
0.0000001000
43
0.0000001000
44
0.0000000001
12
-0.1242703249
22
-0.2660134408
32
0.0000000000
13
0.0040678183
23
0.0087074708
33
0.0000000000
40
0.0000000000
40
0.0000000000
40
0.0000000000
40
0.0000000000
40
1.0000000000
40
1.0000000000
40
1.0000000000
40
1.0000000000
10
-21.7911909295
20
-26.4012988390
30
0.0000000000
10
-21.8326143712
20
-26.4899699859
30
0.0000000000
10
-21.8818150981
20
-26.5952865725
30
0.0000000000
10
-21.8804591587
20
-26.5923840822
30
0.0000000000
11
-21.7911909295
21
-26.4012988390
31
0.0000000000
11
-21.8804591587
21
-26.5923840822
31
0.0000000000
0
SPLINE
5
39D
100
AcDbEntity
8
0
100
AcDbSpline
62
9
6
CONTINUOUS
70
0
71
3
72
8
73
4
74
2
42
0.0000001000
43
0.0000001000
44
0.0000000001
12
-0.0000613214
22
0.0431825341
32
0.0000000000
13
0.0184139113
23
0.0397569262
33
0.0000000000
40
0.0000000000
40
0.0000000000
40
0.0000000000
40
0.0000000000
40
1.0000000000
40
1.0000000000
40
1.0000000000
40
1.0000000000
10
-20.8529540741
20
-24.3918148225
30
0.0000000000
10
-20.8529745146
20
-24.3774206445
30
0.0000000000
10
-20.8497244322
20
-24.3627903562
30
0.0000000000
10
-20.8435864617
20
-24.3495380475
30
0.0000000000
11
-20.8529540741
21
-24.3918148225
31
0.0000000000
11
-20.8435864617
21
-24.3495380475
31
0.0000000000
0
SPLINE
5
39E
100
AcDbEntity
8
0
100
AcDbSpline
62
9
6
CONTINUOUS
70
0
71
3
72
12
73
8
74
6
42
0.0000001000
43
0.0000001000
44
0.0000000001
12
-1.8172240754
22
-0.5406878225
32
0.0000000000
13
0.0465976123
23
-1.8953826326
33
0.0000000000
40
0.0000000000
40
0.0000000000
40
0.0000000000
40
0.0000000000
40
0.0495097635
40
0.1926536695
40
0.4169528599
40
0.6968850256
40
1.0000000000
40
1.0000000000
40
1.0000000000
40
1.0000000000
10
-19.3891538570
20
42.9925408937
30
0.0000000000
10
-19.4191439684
20
42.9836177850
30
0.0000000000
10
-19.3529226356
20
42.8086228764
30
0.0000000000
10
-19.4109981762
20
42.5944491001
30
0.0000000000
10
-19.3714855927
20
42.1595191760
30
0.0000000000
10
-19.3730930930
20
41.6593716155
30
0.0000000000
10
-19.3612268151
20
41.2884684438
30
0.0000000000
10
-19.3565186704
20
41.0969621578
30
0.0000000000
11
-19.3891538570
21
42.9925408937
31
0.0000000000
11
-19.3912533868
21
42.8986960758
31
0.0000000000
11
-19.3885236849
21
42.6273153506
31
0.0000000000
11
-19.3811696433
21
42.2021176938
31
0.0000000000
11
-19.3700439803
21
41.6714954327
31
0.0000000000
11
-19.3565186704
21
41.0969621578
31
0.0000000000
0
SPLINE
5
39F
100
AcDbEntity
8
0
100
AcDbSpline
62
9
6
CONTINUOUS
70
0
71
3
72
12
73
8
74
6
42
0.0000001000
43
0.0000001000
44
0.0000000001
12
0.9984019620
22
0.0010402369
32
0.0000000000
13
-0.0000046829
23
-0.9984025039
33
0.0000000000
40
0.0000000000
40
0.0000000000
40
0.0000000000
40
0.0000000000
40
0.0496370916
40
0.1927540241
40
0.4173187188
40
0.6978788980
40
1.0000000000
40
1.0000000000
40
1.0000000000
40
1.0000000000
10
-20.2415815010
20
42.0938827543
30
0.0000000000
10
-20.2250622444
20
42.0938999657
30
0.0000000000
10
-20.2414923803
20
41.9928225233
30
0.0000000000
10
-20.2123996349
20
41.8885873709
30
0.0000000000
10
-20.2173251923
20
41.6548394134
30
0.0000000000
10
-20.2087709181
20
41.3931887960
30
0.0000000000
10
-20.2089356458
20
41.1975083020
30
0.0000000000
10
-20.2089361174
20
41.0969621471
30
0.0000000000
11
-20.2415815010
21
42.0938827543
31
0.0000000000
11
-20.2315436154
21
42.0453521861
31
0.0000000000
11
-20.2223844561
21
41.9027577361
31
0.0000000000
11
-20.2150831968
21
41.6786706968
31
0.0000000000
11
-20.2104691096
21
41.3985967163
31
0.0000000000
11
-20.2089361174
21
41.0969621471
31
0.0000000000
0
SPLINE
5
3A0
100
AcDbEntity
8
0
100
AcDbSpline
62
9
6
CONTINUOUS
70
0
71
3
72
11
73
7
74
5
42
0.0000001000
43
0.0000001000
44
0.0000000001
12
-1.3560729585
22
-0.0711405279
32
0.0000000000
13
-0.0001044395
23
-1.3579377130
33
0.0000000000
40
0.0000000000
40
0.0000000000
40
0.0000000000
40
0.0000000000
40
0.2499445940
40
0.4999233973
40
0.7499465972
40
1.0000000000
40
1.0000000000
40
1.0000000000
40
1.0000000000
10
-19.3891538570
20
42.9925408937
30
0.0000000000
10
-19.5021348920
20
42.9866138303
30
0.0000000000
10
-19.7281351275
20
42.9309688622
30
0.0000000000
10
-20.0103278936
20
42.7282759854
30
0.0000000000
10
-20.1978620640
20
42.4357373494
30
0.0000000000
10
-20.2415727460
20
42.2070684029
30
0.0000000000
10
-20.2415814512
20
42.0938827543
30
0.0000000000
11
-19.3891538570
21
42.9925408937
31
0.0000000000
11
-19.7186491706
21
42.9111072552
31
0.0000000000
11
-19.9945318367
21
42.7133222968
31
0.0000000000
11
-20.1775264642
21
42.4273432150
31
0.0000000000
11
-20.2415814512
21
42.0938827543
31
0.0000000000
0
SPLINE
5
3A1
100
AcDbEntity
8
0
100
AcDbSpline
62
9
6
CONTINUOUS
70
0
71
3
72
12
73
8
74
6
42
0.0000001000
43
0.0000001000
44
0.0000000001
12
-0.0465972126
22
-1.8953826541
32
0.0000000000
13
1.8172153522
23
-0.5407171806
33
0.0000000000
40
0.0000000000
40
0.0000000000
40
0.0000000000
40
0.0000000000
40
0.3031161526
40
0.5830475495
40
0.8073465546
40
0.9504902414
40
1.0000000000
40
1.0000000000
40
1.0000000000
40
1.0000000000
10
-19.3565186600
20
-39.4681807373
30
0.0000000000
10
-19.3612267826
20
-39.6596877699
30
0.0000000000
10
-19.3730930865
20
-40.0305911549
30
0.0000000000
10
-19.3714857157
20
-40.5307390908
30
0.0000000000
10
-19.4109980315
20
-40.9656676730
30
0.0000000000
10
-19.3529228950
20
-41.1798423300
30
0.0000000000
10
-19.4191438220
20
-41.3548358923
30
0.0000000000
10
-19.3891538576
20
-41.3637594847
30
0.0000000000
11
-19.3565186600
21
-39.4681807373
31
0.0000000000
11
-19.3700440098
21
-40.0427162492
31
0.0000000000
11
-19.3811696690
21
-40.5733370555
31
0.0000000000
11
-19.3885236883
21
-40.9985343641
31
0.0000000000
11
-19.3912533864
21
-41.2699146756
31
0.0000000000
11
-19.3891538576
21
-41.3637594847
31
0.0000000000
0
SPLINE
5
3A2
100
AcDbEntity
8
0
100
AcDbSpline
62
9
6
CONTINUOUS
70
0
71
3
72
12
73
8
74
6
42
0.0000001000
43
0.0000001000
44
0.0000000001
12
0.0000046451
22
-0.9984025040
32
0.0000000000
13
-0.9984019777
23
0.0010250629
33
0.0000000000
40
0.0000000000
40
0.0000000000
40
0.0000000000
40
0.0000000000
40
0.3021211323
40
0.5826812505
40
0.8072459868
40
0.9503629096
40
1.0000000000
40
1.0000000000
40
1.0000000000
40
1.0000000000
10
-20.2089361174
20
-39.4681807266
30
0.0000000000
10
-20.2089356496
20
-39.5687268916
30
0.0000000000
10
-20.2087709085
20
-39.7644073473
30
0.0000000000
10
-20.2173251980
20
-40.0260580808
30
0.0000000000
10
-20.2123996306
20
-40.2598057403
30
0.0000000000
10
-20.2414923797
20
-40.3640414547
30
0.0000000000
10
-20.2250622445
20
-40.4651182942
30
0.0000000000
10
-20.2415815010
20
-40.4651013338
30
0.0000000000
11
-20.2089361174
21
-39.4681807266
31
0.0000000000
11
-20.2104691065
21
-39.7698153261
31
0.0000000000
11
-20.2150831982
21
-40.0498892457
31
0.0000000000
11
-20.2223844558
21
-40.2739763266
31
0.0000000000
11
-20.2315436154
21
-40.4165707668
31
0.0000000000
11
-20.2415815010
21
-40.4651013338
31
0.0000000000
0
SPLINE
5
3A3
100
AcDbEntity
8
0
100
AcDbSpline
62
9
6
CONTINUOUS
70
0
71
3
72
11
73
7
74
5
42
0.0000001000
43
0.0000001000
44
0.0000000001
12
-1.3561632675
22
0.0711571294
32
0.0000000000
13
-0.0000084495
23
1.3580287718
33
0.0000000000
40
0.0000000000
40
0.0000000000
40
0.0000000000
40
0.0000000000
40
0.2499390279
40
0.4999156747
40
0.7499411944
40
1.0000000000
40
1.0000000000
40
1.0000000000
40
1.0000000000
10
-19.3891594554
20
-41.3638663035
30
0.0000000000
10
-19.5021454983
20
-41.3579379889
30
0.0000000000
10
-19.7281570003
20
-41.3022837617
30
0.0000000000
10
-20.0103558845
20
-41.0995621226
30
0.0000000000
10
-20.1978832012
20
-40.8069879565
30
0.0000000000
10
-20.2415807872
20
-40.5782970180
30
0.0000000000
10
-20.2415814915
20
-40.4651013338
30
0.0000000000
11
-19.3891594554
21
-41.3638663035
31
0.0000000000
11
-19.7186674457
21
-41.2824206063
31
0.0000000000
11
-19.9945556878
21
-41.0846093871
31
0.0000000000
11
-20.1775446995
21
-40.7985959449
31
0.0000000000
11
-20.2415814915
21
-40.4651013338
31
0.0000000000
0
SPLINE
5
3A4
100
AcDbEntity
8
0
100
AcDbSpline
62
0
6
CONTINUOUS
70
0
71
3
72
8
73
4
74
2
42
0.0000001000
43
0.0000001000
44
0.0000000001
12
-0.0005796775
22
0.0150192877
32
0.0000000000
13
0.0008288144
23
0.0149839508
33
0.0000000000
40
0.0000000000
40
0.0000000000
40
0.0000000000
40
0.0000000000
40
1.0000000000
40
1.0000000000
40
1.0000000000
40
1.0000000000
10
-20.9730719501
20
24.4171078095
30
0.0000000000
10
-20.9732651759
20
24.4221142388
30
0.0000000000
10
-20.9732226262
20
24.4271283203
30
0.0000000000
10
-20.9729463547
20
24.4321229705
30
0.0000000000
11
-20.9730719501
21
24.4171078095
31
0.0000000000
11
-20.9729463547
21
24.4321229705
31
0.0000000000
0
SPLINE
5
3A5
100
AcDbEntity
8
0
100
AcDbSpline
62
0
6
CONTINUOUS
70
0
71
3
72
9
73
5
74
3
42
0.0000001000
43
0.0000001000
44
0.0000000001
12
-0.0007557930
22
-0.0162545183
32
0.0000000000
13
0.0008997965
23
-0.0162375620
33
0.0000000000
40
0.0000000000
40
0.0000000000
40
0.0000000000
40
0.0000000000
40
0.0328679212
40
1.0000000000
40
1.0000000000
40
1.0000000000
40
1.0000000000
10
-20.9730203967
20
-22.7870793639
30
0.0000000000
10
-20.9730286772
20
-22.7872574479
30
0.0000000000
10
-20.9732714734
20
-22.7926760474
30
0.0000000000
10
-20.9732363163
20
-22.7981066889
30
0.0000000000
10
-20.9729462423
20
-22.8033413113
30
0.0000000000
11
-20.9730203967
21
-22.7870793639
31
0.0000000000
11
-20.9730443373
21
-22.7876136571
31
0.0000000000
11
-20.9729462423
21
-22.8033413113
31
0.0000000000
0
SPLINE
5
3A6
100
AcDbEntity
8
0
100
AcDbSpline
62
9
6
CONTINUOUS
70
0
71
3
72
8
73
4
74
2
42
0.0000001000
43
0.0000001000
44
0.0000000001
12
-0.0000000054
22
-0.0000000025
32
0.0000000000
13
0.0187942537
23
-0.0402604679
33
0.0000000000
40
0.0000000000
40
0.0000000000
40
0.0000000000
40
0.0000000000
40
1.0000000000
40
1.0000000000
40
1.0000000000
40
1.0000000000
10
-21.8857902265
20
27.9250442436
30
0.0000000000
10
-21.8857902283
20
27.9250442427
30
0.0000000000
10
-21.8820601025
20
27.9170536572
30
0.0000000000
10
-21.8757953513
20
27.9036335012
30
0.0000000000
11
-21.8857902265
21
27.9250442436
31
0.0000000000
11
-21.8757953513
21
27.9036335012
31
0.0000000000
0
SPLINE
5
3A7
100
AcDbEntity
8
0
100
AcDbSpline
62
9
6
CONTINUOUS
70
0
71
3
72
9
73
5
74
3
42
0.0000001000
43
0.0000001000
44
0.0000000001
12
-0.1572076312
22
0.3367591956
32
0.0000000000
13
0.0863366730
23
-0.1849477460
33
0.0000000000
40
0.0000000000
40
0.0000000000
40
0.0000000000
40
0.0000000000
40
0.7831740096
40
1.0000000000
40
1.0000000000
40
1.0000000000
40
1.0000000000
10
-21.7967399777
20
27.7342849255
30
0.0000000000
10
-21.8377802880
20
27.8221986087
30
0.0000000000
10
-21.8992168914
20
27.9538065158
30
0.0000000000
10
-21.8820353628
20
27.9170006606
30
0.0000000000
10
-21.8757953513
20
27.9036335012
30
0.0000000000
11
-21.7967399777
21
27.7342849255
31
0.0000000000
11
-21.8857900524
21
27.9250438705
31
0.0000000000
11
-21.8757953513
21
27.9036335012
31
0.0000000000
0
SPLINE
5
3A8
100
AcDbEntity
8
0
100
AcDbSpline
62
9
6
CONTINUOUS
70
0
71
3
72
10
73
6
74
4
42
0.0000001000
43
0.0000001000
44
0.0000000001
12
-0.6729592444
22
1.4425336366
32
0.0000000000
13
-0.9278458262
23
1.9875664542
33
0.0000000000
40
0.0000000000
40
0.0000000000
40
0.0000000000
40
0.0000000000
40
0.1792315508
40
0.6583339944
40
1.0000000000
40
1.0000000000
40
1.0000000000
40
1.0000000000
10
-21.1224105495
20
26.2894160207
30
0.0000000000
10
-21.1626157259
20
26.3755985343
30
0.0000000000
10
-21.3118577256
20
26.6954839387
30
0.0000000000
10
-21.5550140115
20
27.2165108598
30
0.0000000000
10
-21.6910688519
20
27.5079236284
30
0.0000000000
10
-21.7967399777
20
27.7342849255
30
0.0000000000
11
-21.1224105495
21
26.2894160207
31
0.0000000000
11
-21.2446812192
21
26.5514902335
31
0.0000000000
11
-21.5667890650
21
27.2417008577
31
0.0000000000
11
-21.7967399777
21
27.7342849255
31
0.0000000000
0
SPLINE
5
3A9
100
AcDbEntity
8
0
100
AcDbSpline
62
9
6
CONTINUOUS
70
0
71
3
72
8
73
4
74
2
42
0.0000001000
43
0.0000001000
44
0.0000000001
12
-0.1621129815
22
0.3475686653
32
0.0000000000
13
-0.1639904872
23
0.3515246961
33
0.0000000000
40
0.0000000000
40
0.0000000000
40
0.0000000000
40
0.0000000000
40
1.0000000000
40
1.0000000000
40
1.0000000000
40
1.0000000000
10
-20.9598331726
20
25.9408850418
30
0.0000000000
10
-21.0138708331
20
26.0567412636
30
0.0000000000
10
-21.0677470538
20
26.1722411220
30
0.0000000000
10
-21.1224105495
20
26.2894160207
30
0.0000000000
11
-20.9598331726
21
25.9408850418
31
0.0000000000
11
-21.1224105495
21
26.2894160207
31
0.0000000000
0
SPLINE
5
3AA
100
AcDbEntity
8
0
100
AcDbSpline
62
9
6
CONTINUOUS
70
0
71
3
72
8
73
4
74
2
42
0.0000001000
43
0.0000001000
44
0.0000000001
12
-0.0992332878
22
0.2127760123
32
0.0000000000
13
-0.0982440775
23
0.2106343524
33
0.0000000000
40
0.0000000000
40
0.0000000000
40
0.0000000000
40
0.0000000000
40
1.0000000000
40
1.0000000000
40
1.0000000000
40
1.0000000000
10
-20.8612000675
20
25.7294059238
30
0.0000000000
10
-20.8942778301
20
25.8003312612
30
0.0000000000
10
-20.9270851468
20
25.8706735910
30
0.0000000000
10
-20.9598331726
20
25.9408850418
30
0.0000000000
11
-20.8612000675
21
25.7294059238
31
0.0000000000
11
-20.9598331726
21
25.9408850418
31
0.0000000000
0
SPLINE
5
3AB
100
AcDbEntity
8
0
100
AcDbSpline
62
9
6
CONTINUOUS
70
0
71
3
72
8
73
4
74
2
42
0.0000001000
43
0.0000001000
44
0.0000000001
12
-0.0662681759
22
0.1421029280
32
0.0000000000
13
0.0000000005
23
0.0000000002
33
0.0000000000
40
0.0000000000
40
0.0000000000
40
0.0000000000
40
0.0000000000
40
1.0000000000
40
1.0000000000
40
1.0000000000
40
1.0000000000
10
-21.9234528794
20
26.4703576705
30
0.0000000000
10
-21.9455422714
20
26.5177253131
30
0.0000000000
10
-21.9600006016
20
26.5487291948
30
0.0000000000
10
-21.9600006014
20
26.5487291948
30
0.0000000000
11
-21.9234528794
21
26.4703576705
31
0.0000000000
11
-21.9600006014
21
26.5487291948
31
0.0000000000
0
SPLINE
5
3AC
100
AcDbEntity
8
0
100
AcDbSpline
62
9
6
CONTINUOUS
70
0
71
3
72
8
73
4
74
2
42
0.0000001000
43
0.0000001000
44
0.0000000001
12
-0.0612975104
22
0.1314440524
32
0.0000000000
13
-0.0460570153
23
0.0987628923
33
0.0000000000
40
0.0000000000
40
0.0000000000
40
0.0000000000
40
0.0000000000
40
1.0000000000
40
1.0000000000
40
1.0000000000
40
1.0000000000
10
-21.8686296042
20
26.3527967352
30
0.0000000000
10
-21.8890621076
20
26.3966114193
30
0.0000000000
10
-21.9081005410
20
26.4374367064
30
0.0000000000
10
-21.9234528794
20
26.4703576705
30
0.0000000000
11
-21.8686296042
21
26.3527967352
31
0.0000000000
11
-21.9234528794
21
26.4703576705
31
0.0000000000
0
SPLINE
5
3AD
100
AcDbEntity
8
0
100
AcDbSpline
62
9
6
CONTINUOUS
70
0
71
3
72
10
73
6
74
4
42
0.0000001000
43
0.0000001000
44
0.0000000001
12
-0.8755688505
22
1.8775390023
32
0.0000000000
13
-1.1740687356
23
2.5176283894
33
0.0000000000
40
0.0000000000
40
0.0000000000
40
0.0000000000
40
0.0000000000
40
0.5636897692
40
0.9394781469
40
1.0000000000
40
1.0000000000
40
1.0000000000
40
1.0000000000
10
-20.9729463590
20
24.4321227310
30
0.0000000000
10
-21.1374627601
20
24.7849059067
30
0.0000000000
10
-21.4405192807
20
25.4347711271
30
0.0000000000
10
-21.6606862957
20
25.9068909464
30
0.0000000000
10
-21.8449439990
20
26.3020062233
30
0.0000000000
10
-21.8686296042
20
26.3527967352
30
0.0000000000
11
-20.9729463590
21
24.4321227310
31
0.0000000000
11
-21.4664948978
21
25.4904725695
31
0.0000000000
11
-21.7955231758
21
26.1960300555
31
0.0000000000
11
-21.8686296042
21
26.3527967352
31
0.0000000000
0
SPLINE
5
3AE
100
AcDbEntity
8
0
100
AcDbSpline
62
9
6
CONTINUOUS
70
0
71
3
72
10
73
6
74
4
42
0.0000001000
43
0.0000001000
44
0.0000000001
12
-0.1498040655
22
0.0080558569
32
0.0000000000
13
-0.0002125163
23
0.1500203643
33
0.0000000000
40
0.0000000000
40
0.0000000000
40
0.0000000000
40
0.0000000000
40
0.3334758725
40
0.6668795963
40
1.0000000000
40
1.0000000000
40
1.0000000000
40
1.0000000000
10
-20.8612000682
20
-24.1006245047
30
0.0000000000
10
-20.8778520820
20
-24.0997290267
30
0.0000000000
10
-20.9112800972
20
-24.0892038079
30
0.0000000000
10
-20.9471230841
20
-24.0514940051
30
0.0000000000
10
-20.9559098401
20
-24.0175787258
30
0.0000000000
10
-20.9559334379
20
-24.0009204444
30
0.0000000000
11
-20.8612000682
21
-24.1006245047
31
0.0000000000
11
-20.9089019338
21
-24.0855462083
31
0.0000000000
11
-20.9433541635
21
-24.0492862580
31
0.0000000000
11
-20.9559334379
21
-24.0009204444
31
0.0000000000
0
SPLINE
5
3AF
100
AcDbEntity
8
0
100
AcDbSpline
62
9
6
CONTINUOUS
70
0
71
3
72
11
73
7
74
5
42
0.0000001000
43
0.0000001000
44
0.0000000001
12
-0.9691042378
22
-2.0777345405
32
0.0000000000
13
-1.2520447815
23
-2.6817953789
33
0.0000000000
40
0.0000000000
40
0.0000000000
40
0.0000000000
40
0.0000000000
40
0.3960674076
40
0.7284859123
40
0.9648026093
40
1.0000000000
40
1.0000000000
40
1.0000000000
40
1.0000000000
10
-20.9559334392
20
-24.0009204444
30
0.0000000000
10
-21.0838769736
20
-24.2752280887
30
0.0000000000
10
-21.3117989413
20
-24.7638016492
30
0.0000000000
10
-21.6500322896
20
-25.4884801052
30
0.0000000000
10
-21.7947084271
20
-25.7983262235
30
0.0000000000
10
-21.9237254767
20
-26.0746710330
30
0.0000000000
10
-21.9384150465
20
-26.1061350995
30
0.0000000000
11
-20.9559334392
21
-24.0009204444
31
0.0000000000
11
-21.3398313850
21
-24.8238119640
31
0.0000000000
11
-21.6621531965
21
-25.5144083614
31
0.0000000000
11
-21.8913506251
21
-26.0053268344
31
0.0000000000
11
-21.9384150465
21
-26.1061350995
31
0.0000000000
0
SPLINE
5
3B0
100
AcDbEntity
8
0
100
AcDbSpline
62
9
6
CONTINUOUS
70
0
71
3
72
8
73
4
74
2
42
0.0000001000
43
0.0000001000
44
0.0000000001
12
-0.0711786393
22
-0.1524598392
32
0.0000000000
13
0.0000000102
23
0.0000000033
33
0.0000000000
40
0.0000000000
40
0.0000000000
40
0.0000000000
40
0.0000000000
40
1.0000000000
40
1.0000000000
40
1.0000000000
40
1.0000000000
10
-21.9384150465
20
-26.1061350995
30
0.0000000000
10
-21.9621412596
20
-26.1569550459
30
0.0000000000
10
-21.9805575222
20
-26.1964017748
30
0.0000000000
10
-21.9805575188
20
-26.1964017737
30
0.0000000000
11
-21.9384150465
21
-26.1061350995
31
0.0000000000
11
-21.9805575188
21
-26.1964017737
31
0.0000000000
0
SPLINE
5
3B1
100
AcDbEntity
8
0
100
AcDbSpline
62
9
6
CONTINUOUS
70
0
71
3
72
15
73
11
74
9
42
0.0000001000
43
0.0000001000
44
0.0000000001
12
-1.9144227717
22
-4.1049052214
32
0.0000000000
13
1.8944504211
23
4.0615277791
33
0.0000000000
40
0.0000000000
40
0.0000000000
40
0.0000000000
40
0.0000000000
40
0.2004877293
40
0.3687564665
40
0.4883788955
40
0.5349380987
40
0.5817349805
40
0.7014297647
40
0.8695962301
40
1.0000000000
40
1.0000000000
40
1.0000000000
40
1.0000000000
10
-20.8612000682
20
-24.1006245047
30
0.0000000000
10
-20.9891394929
20
-24.3749522136
30
0.0000000000
10
-21.2170542485
20
-24.8635611728
30
0.0000000000
10
-21.5552766705
20
-25.5882921258
30
0.0000000000
10
-21.7135500016
20
-25.9272941574
30
0.0000000000
10
-21.9342022369
20
-26.3999698001
30
0.0000000000
10
-21.7130069791
20
-25.9261310007
30
0.0000000000
10
-21.5548522044
20
-25.5873827355
30
0.0000000000
10
-21.2651120435
20
-24.9665374899
30
0.0000000000
10
-21.0763643038
20
-24.5619370790
30
0.0000000000
10
-20.9940164782
20
-24.3853909011
30
0.0000000000
11
-20.8612000682
21
-24.1006245047
31
0.0000000000
11
-21.2450858913
21
-24.9235761250
31
0.0000000000
11
-21.5673971949
21
-25.6142222600
31
0.0000000000
11
-21.7965871392
21
-26.1051760523
31
0.0000000000
11
-21.8857910342
21
-26.2962645552
31
0.0000000000
11
-21.7961317451
21
-26.1042005799
31
0.0000000000
11
-21.5668032367
21
-25.6129497971
31
0.0000000000
11
-21.2446880001
21
-24.9227233498
31
0.0000000000
11
-20.9940164782
21
-24.3853909011
31
0.0000000000
0
SPLINE
5
3B2
100
AcDbEntity
8
0
100
AcDbSpline
62
9
6
CONTINUOUS
70
0
71
3
72
8
73
4
74
2
42
0.0000001000
43
0.0000001000
44
0.0000000001
12
0.1293463492
22
0.2772626679
32
0.0000000000
13
0.1278069709
23
0.2740064120
33
0.0000000000
40
0.0000000000
40
0.0000000000
40
0.0000000000
40
0.0000000000
40
1.0000000000
40
1.0000000000
40
1.0000000000
40
1.0000000000
10
-21.1223606059
20
-24.6605275397
30
0.0000000000
10
-21.0792451562
20
-24.5681066504
30
0.0000000000
10
-21.0366188019
20
-24.4767263718
30
0.0000000000
10
-20.9940164782
20
-24.3853909011
30
0.0000000000
11
-21.1223606059
21
-24.6605275397
31
0.0000000000
11
-20.9940164782
21
-24.3853909011
31
0.0000000000
0
SPLINE
5
3B3
100
AcDbEntity
8
0
100
AcDbSpline
62
9
6
CONTINUOUS
70
0
71
3
72
12
73
8
74
6
42
0.0000001000
43
0.0000001000
44
0.0000000001
12
-1.1703785216
22
-2.5071027218
32
0.0000000000
13
0.8515685435
23
1.8253949012
33
0.0000000000
40
0.0000000000
40
0.0000000000
40
0.0000000000
40
0.0000000000
40
0.1048259498
40
0.2101870223
40
0.4796744401
40
0.8582936657
40
1.0000000000
40
1.0000000000
40
1.0000000000
40
1.0000000000
10
-21.7965871392
20
-26.1051760523
30
0.0000000000
10
-21.8374824859
20
-26.1927791936
30
0.0000000000
10
-21.9342022369
20
-26.3999698001
30
0.0000000000
10
-21.7130069791
20
-25.9261310007
30
0.0000000000
10
-21.5548522044
20
-25.5873827355
30
0.0000000000
10
-21.3118455588
20
-25.0666764582
30
0.0000000000
10
-21.1625848248
20
-24.7467508797
30
0.0000000000
10
-21.1223606059
20
-24.6605275397
30
0.0000000000
11
-21.7965871392
21
-26.1051760523
31
0.0000000000
11
-21.8857910342
21
-26.2962645552
31
0.0000000000
11
-21.7961317451
21
-26.1042005799
31
0.0000000000
11
-21.5668032367
21
-25.6129497971
31
0.0000000000
11
-21.2446880001
21
-24.9227233498
31
0.0000000000
11
-21.1223606059
21
-24.6605275397
31
0.0000000000
0
SPLINE
5
3B4
100
AcDbEntity
8
0
100
AcDbSpline
62
9
6
CONTINUOUS
70
0
71
3
72
8
73
4
74
2
42
0.0000001000
43
0.0000001000
44
0.0000000001
12
-0.0884027726
22
-0.1893702146
32
0.0000000000
13
-0.0489747717
23
-0.1049122196
33
0.0000000000
40
0.0000000000
40
0.0000000000
40
0.0000000000
40
0.0000000000
40
1.0000000000
40
1.0000000000
40
1.0000000000
40
1.0000000000
10
-21.7965871392
20
-26.1051760523
30
0.0000000000
10
-21.8260547301
20
-26.1682994571
30
0.0000000000
10
-21.8593340394
20
-26.2395891827
30
0.0000000000
10
-21.8756589633
20
-26.2745599226
30
0.0000000000
11
-21.7965871392
21
-26.1051760523
31
0.0000000000
11
-21.8756589633
21
-26.2745599226
31
0.0000000000
0
SPLINE
5
3B5
100
AcDbEntity
8
0
100
AcDbSpline
62
9
6
CONTINUOUS
70
0
71
3
72
8
73
4
74
2
42
0.0000001000
43
0.0000001000
44
0.0000000001
12
-0.0190165093
22
-0.0407365697
32
0.0000000000
13
-0.0000320486
23
-0.0000686622
33
0.0000000000
40
0.0000000000
40
0.0000000000
40
0.0000000000
40
0.0000000000
40
1.0000000000
40
1.0000000000
40
1.0000000000
40
1.0000000000
10
-21.8756589633
20
-26.2745599226
30
0.0000000000
10
-21.8819977997
20
-26.2881387791
30
0.0000000000
10
-21.8857804089
20
-26.2962417911
30
0.0000000000
10
-21.8857910918
20
-26.2962646785
30
0.0000000000
11
-21.8756589633
21
-26.2745599226
31
0.0000000000
11
-21.8857910918
21
-26.2962646785
31
0.0000000000
0
SPLINE
5
3B6
100
AcDbEntity
8
0
100
AcDbSpline
62
9
6
CONTINUOUS
70
0
71
3
72
13
73
9
74
7
42
0.0000001000
43
0.0000001000
44
0.0000000001
12
0.0000019834
22
-0.8969161719
32
0.0000000000
13
-0.3799755515
23
-0.8124513522
33
0.0000000000
40
0.0000000000
40
0.0000000000
40
0.0000000000
40
0.0000000000
40
0.2494584437
40
0.4839647369
40
0.6878038477
40
0.8479262185
40
0.9541923278
40
1.0000000000
40
1.0000000000
40
1.0000000000
40
1.0000000000
10
-20.9339808679
20
-23.1046711246
30
0.0000000000
10
-20.9339807030
20
-23.1792522287
30
0.0000000000
10
-20.9345058738
20
-23.3239181883
30
0.0000000000
10
-20.9362892939
20
-23.5296521744
30
0.0000000000
10
-20.9403069401
20
-23.7082313760
30
0.0000000000
10
-20.9424373452
20
-23.8495827925
30
0.0000000000
10
-20.9510107915
20
-23.9411617281
30
0.0000000000
10
-20.9501315074
20
-23.9885149426
30
0.0000000000
10
-20.9559334392
20
-24.0009204444
30
0.0000000000
11
-20.9339808679
21
-23.1046711246
31
0.0000000000
11
-20.9347159731
21
-23.3284132294
31
0.0000000000
11
-20.9368857293
21
-23.5387345245
31
0.0000000000
11
-20.9403512471
21
-23.7215282716
31
0.0000000000
11
-20.9448884065
21
-23.8650729281
31
0.0000000000
11
-20.9502025207
21
-23.9602364604
31
0.0000000000
11
-20.9559334392
21
-24.0009204444
31
0.0000000000
0
SPLINE
5
3B7
100
AcDbEntity
8
0
100
AcDbSpline
62
9
6
CONTINUOUS
70
0
71
3
72
8
73
4
74
2
42
0.0000001000
43
0.0000001000
44
0.0000000001
12
-0.0014682871
22
-0.1582302225
32
0.0000000000
13
-0.0020905243
23
-0.1582020059
33
0.0000000000
40
0.0000000000
40
0.0000000000
40
0.0000000000
40
0.0000000000
40
1.0000000000
40
1.0000000000
40
1.0000000000
40
1.0000000000
10
-20.8410515485
20
-23.3539175760
30
0.0000000000
10
-20.8415409775
20
-23.4066609836
30
0.0000000000
10
-20.8420893337
20
-23.4594101432
30
0.0000000000
10
-20.8427861752
20
-23.5121441452
30
0.0000000000
11
-20.8410515485
21
-23.3539175760
31
0.0000000000
11
-20.8427861752
21
-23.5121441452
31
0.0000000000
0
SPLINE
5
3B8
100
AcDbEntity
8
0
100
AcDbSpline
62
9
6
CONTINUOUS
70
0
71
3
72
12
73
8
74
6
42
0.0000001000
43
0.0000001000
44
0.0000000001
12
-0.0077810528
22
-0.5888370555
32
0.0000000000
13
-0.1839023216
23
-0.5594606263
33
0.0000000000
40
0.0000000000
40
0.0000000000
40
0.0000000000
40
0.0000000000
40
0.1275339348
40
0.4720137681
40
0.7427013095
40
0.9224430154
40
1.0000000000
40
1.0000000000
40
1.0000000000
40
1.0000000000
10
-20.8427861752
20
-23.5121441452
30
0.0000000000
10
-20.8431169579
20
-23.5371763808
30
0.0000000000
10
-20.8444650438
20
-23.6298101389
30
0.0000000000
10
-20.8475138257
20
-23.7754451119
30
0.0000000000
10
-20.8497953231
20
-23.9319268199
30
0.0000000000
10
-20.8572400776
20
-24.0345184648
30
0.0000000000
10
-20.8564444713
20
-24.0861364938
30
0.0000000000
10
-20.8611987745
20
-24.1005998535
30
0.0000000000
11
-20.8427861752
21
-23.5121441452
31
0.0000000000
11
-20.8438884769
21
-23.5872283689
31
0.0000000000
11
-20.8475785378
21
-23.7900627955
31
0.0000000000
11
-20.8518831682
21
-23.9494155566
31
0.0000000000
11
-20.8565221852
21
-24.0551657356
31
0.0000000000
11
-20.8611987745
21
-24.1005998535
31
0.0000000000
0
SPLINE
5
3B9
100
AcDbEntity
8
0
100
AcDbSpline
62
9
6
CONTINUOUS
70
0
71
3
72
10
73
6
74
4
42
0.0000001000
43
0.0000001000
44
0.0000000001
12
-0.1497805706
22
-0.0080523360
32
0.0000000000
13
-0.0002488329
23
-0.1499966584
33
0.0000000000
40
0.0000000000
40
0.0000000000
40
0.0000000000
40
0.0000000000
40
0.3334787448
40
0.6668824108
40
1.0000000000
40
1.0000000000
40
1.0000000000
40
1.0000000000
10
-20.8611986960
20
25.7293797770
30
0.0000000000
10
-20.8778482415
20
25.7284846827
30
0.0000000000
10
-20.9112712007
20
25.7179632155
30
0.0000000000
10
-20.9471134163
20
25.6802648712
30
0.0000000000
10
-20.9559057896
20
25.6463573733
30
0.0000000000
10
-20.9559334198
20
25.6297018648
30
0.0000000000
11
-20.8611986960
21
25.7293797770
31
0.0000000000
11
-20.9088943236
21
25.7143064842
31
0.0000000000
11
-20.9433461230
21
25.6780570142
31
0.0000000000
11
-20.9559334198
21
25.6297018648
31
0.0000000000
0
SPLINE
5
3BA
100
AcDbEntity
8
0
100
AcDbSpline
62
9
6
CONTINUOUS
70
0
71
3
72
13
73
9
74
7
42
0.0000001000
43
0.0000001000
44
0.0000000001
12
0.3795942898
22
-0.8126296237
32
0.0000000000
13
-0.0000035831
23
-0.8969162336
33
0.0000000000
40
0.0000000000
40
0.0000000000
40
0.0000000000
40
0.0000000000
40
0.0457629965
40
0.1519816124
40
0.3120704971
40
0.5158813909
40
0.7503994344
40
1.0000000000
40
1.0000000000
40
1.0000000000
40
1.0000000000
10
-20.9559334392
20
25.6297018649
30
0.0000000000
10
-20.9501429819
20
25.6173057426
30
0.0000000000
10
-20.9510046154
20
25.5699877753
30
0.0000000000
10
-20.9424447080
20
25.4784408726
30
0.0000000000
10
-20.9403078390
20
25.3371246415
30
0.0000000000
10
-20.9362915026
20
25.1585594517
30
0.0000000000
10
-20.9345062010
20
24.9527881749
30
0.0000000000
10
-20.9339805698
20
24.8080761448
30
0.0000000000
10
-20.9339808679
20
24.7334525451
30
0.0000000000
11
-20.9559334392
21
25.6297018649
31
0.0000000000
11
-20.9502057841
21
25.5890578844
31
0.0000000000
11
-20.9448918425
21
25.4939369999
31
0.0000000000
11
-20.9403540124
21
25.3504224039
31
0.0000000000
11
-20.9368876942
21
25.1676539722
31
0.0000000000
11
-20.9347168233
21
24.9573221346
31
0.0000000000
11
-20.9339808679
21
24.7334525451
31
0.0000000000
0
SPLINE
5
3BB
100
AcDbEntity
8
0
100
AcDbSpline
62
9
6
CONTINUOUS
70
0
71
3
72
12
73
8
74
6
42
0.0000001000
43
0.0000001000
44
0.0000000001
12
0.1837852235
22
-0.5594889442
32
0.0000000000
13
0.0077807634
23
-0.5888274446
33
0.0000000000
40
0.0000000000
40
0.0000000000
40
0.0000000000
40
0.0000000000
40
0.0775599357
40
0.2572850447
40
0.5279739078
40
0.8724494755
40
1.0000000000
40
1.0000000000
40
1.0000000000
40
1.0000000000
10
-20.8611986960
20
25.7293797770
30
0.0000000000
10
-20.8564472393
20
25.7149151348
30
0.0000000000
10
-20.8572367533
20
25.6633026924
30
0.0000000000
10
-20.8497973794
20
25.5607134377
30
0.0000000000
10
-20.8475133597
20
25.4042389568
30
0.0000000000
10
-20.8444651806
20
25.2586034619
30
0.0000000000
10
-20.8431171546
20
25.1659687786
30
0.0000000000
10
-20.8427863411
20
25.1409336954
30
0.0000000000
11
-20.8611986960
21
25.7293797770
31
0.0000000000
11
-20.8565220523
21
25.6839446701
31
0.0000000000
11
-20.8518835188
21
25.5782059900
31
0.0000000000
11
-20.8475787850
21
25.4188550669
31
0.0000000000
11
-20.8438887034
21
25.2160264789
31
0.0000000000
11
-20.8427863411
21
25.1409336954
31
0.0000000000
0
SPLINE
5
3BC
100
AcDbEntity
8
0
100
AcDbSpline
62
9
6
CONTINUOUS
70
0
71
3
72
9
73
5
74
3
42
0.0000001000
43
0.0000001000
44
0.0000000001
12
0.0042752913
22
-0.3235426508
32
0.0000000000
13
0.0021275832
23
-0.3235663026
33
0.0000000000
40
0.0000000000
40
0.0000000000
40
0.0000000000
40
0.0000000000
40
0.4890211191
40
1.0000000000
40
1.0000000000
40
1.0000000000
40
1.0000000000
10
-20.8427863411
20
25.1409336954
30
0.0000000000
10
-20.8420894385
20
25.0881939657
30
0.0000000000
10
-20.8409678941
20
24.9803154615
30
0.0000000000
10
-20.8400927701
20
24.8724609719
30
0.0000000000
10
-20.8397303867
20
24.8173491228
30
0.0000000000
11
-20.8427863411
21
25.1409336954
31
0.0000000000
11
-20.8410514501
21
24.9826899749
31
0.0000000000
11
-20.8397303867
21
24.8173491228
31
0.0000000000
0
SPLINE
5
3BD
100
AcDbEntity
8
0
100
AcDbSpline
62
9
6
CONTINUOUS
70
0
71
3
72
8
73
4
74
2
42
0.0000001000
43
0.0000001000
44
0.0000000001
12
-0.0267385781
22
-0.0013243455
32
0.0000000000
13
-0.0267385780
23
-0.0013243468
33
0.0000000000
40
0.0000000000
40
0.0000000000
40
0.0000000000
40
0.0000000000
40
1.0000000000
40
1.0000000000
40
1.0000000000
40
1.0000000000
10
-20.8344614906
20
25.7307302808
30
0.0000000000
10
-20.8433743500
20
25.7302888323
30
0.0000000000
10
-20.8522872093
20
25.7298473836
30
0.0000000000
10
-20.8612000687
20
25.7294059347
30
0.0000000000
11
-20.8344614906
21
25.7307302808
31
0.0000000000
11
-20.8612000687
21
25.7294059347
31
0.0000000000
0
SPLINE
5
3BE
100
AcDbEntity
8
0
100
AcDbSpline
62
9
6
CONTINUOUS
70
0
71
3
72
8
73
4
74
2
42
0.0000001000
43
0.0000001000
44
0.0000000001
12
-0.0267388820
22
0.0013243606
32
0.0000000000
13
-0.0267388819
23
0.0013243618
33
0.0000000000
40
0.0000000000
40
0.0000000000
40
0.0000000000
40
0.0000000000
40
1.0000000000
40
1.0000000000
40
1.0000000000
40
1.0000000000
10
-20.8344611867
20
-24.1019488754
30
0.0000000000
10
-20.8433741474
20
-24.1015074218
30
0.0000000000
10
-20.8522871080
20
-24.1010659681
30
0.0000000000
10
-20.8612000687
20
-24.1006245142
30
0.0000000000
11
-20.8344611867
21
-24.1019488754
31
0.0000000000
11
-20.8612000687
21
-24.1006245142
31
0.0000000000
0
SPLINE
5
3BF
100
AcDbEntity
8
0
100
AcDbSpline
62
9
6
CONTINUOUS
70
0
71
3
72
8
73
4
74
2
42
0.0000001000
43
0.0000001000
44
0.0000000001
12
-0.0113259543
22
-0.0242869769
32
0.0000000000
13
-0.0113787909
23
-0.0244002808
33
0.0000000000
40
0.0000000000
40
0.0000000000
40
0.0000000000
40
0.0000000000
40
1.0000000000
40
1.0000000000
40
1.0000000000
40
1.0000000000
10
-20.9729463621
20
-22.8033413103
30
0.0000000000
10
-20.9767216802
20
-22.8114369692
30
0.0000000000
10
-20.9805061183
20
-22.8195521854
30
0.0000000000
10
-20.9842990486
20
-22.8276856123
30
0.0000000000
11
-20.9729463621
21
-22.8033413103
31
0.0000000000
11
-20.9842990486
21
-22.8276856123
31
0.0000000000
0
SPLINE
5
3C0
100
AcDbEntity
8
0
100
AcDbSpline
62
9
6
CONTINUOUS
70
0
71
3
72
8
73
4
74
2
42
0.0000001000
43
0.0000001000
44
0.0000000001
12
-0.0196363666
22
-0.0421075370
32
0.0000000000
13
-0.0197784264
23
-0.0424121733
33
0.0000000000
40
0.0000000000
40
0.0000000000
40
0.0000000000
40
0.0000000000
40
1.0000000000
40
1.0000000000
40
1.0000000000
40
1.0000000000
10
-20.9842990486
20
-22.8276856123
30
0.0000000000
10
-20.9908445041
20
-22.8417214580
30
0.0000000000
10
-20.9974152496
20
-22.8558115361
30
0.0000000000
10
-21.0040080584
20
-22.8699489272
30
0.0000000000
11
-20.9842990486
21
-22.8276856123
31
0.0000000000
11
-21.0040080584
21
-22.8699489272
31
0.0000000000
0
SPLINE
5
3C1
100
AcDbEntity
8
0
100
AcDbSpline
62
9
6
CONTINUOUS
70
0
71
3
72
8
73
4
74
2
42
0.0000001000
43
0.0000001000
44
0.0000000001
12
-0.0856807480
22
-0.1837308319
32
0.0000000000
13
-0.0873780776
23
-0.1873706624
33
0.0000000000
40
0.0000000000
40
0.0000000000
40
0.0000000000
40
0.0000000000
40
1.0000000000
40
1.0000000000
40
1.0000000000
40
1.0000000000
10
-21.0040080584
20
-22.8699489272
30
0.0000000000
10
-21.0325683077
20
-22.9311925378
30
0.0000000000
10
-21.0615426071
20
-22.9933240480
30
0.0000000000
10
-21.0906686330
20
-23.0557809355
30
0.0000000000
11
-21.0040080584
21
-22.8699489272
31
0.0000000000
11
-21.0906686330
21
-23.0557809355
31
0.0000000000
0
SPLINE
5
3C2
100
AcDbEntity
8
0
100
AcDbSpline
62
9
6
CONTINUOUS
70
0
71
3
72
8
73
4
74
2
42
0.0000001000
43
0.0000001000
44
0.0000000001
12
-0.0196888856
22
-0.0422201956
32
0.0000000000
13
-0.0197261041
23
-0.0423000118
33
0.0000000000
40
0.0000000000
40
0.0000000000
40
0.0000000000
40
0.0000000000
40
1.0000000000
40
1.0000000000
40
1.0000000000
40
1.0000000000
10
-21.0906686330
20
-23.0557809355
30
0.0000000000
10
-21.0972315948
20
-23.0698543340
30
0.0000000000
10
-21.1038022604
20
-23.0839442531
30
0.0000000000
10
-21.1103776284
20
-23.0980442570
30
0.0000000000
11
-21.0906686330
21
-23.0557809355
31
0.0000000000
11
-21.1103776284
21
-23.0980442570
31
0.0000000000
0
SPLINE
5
3C3
100
AcDbEntity
8
0
100
AcDbSpline
62
9
6
CONTINUOUS
70
0
71
3
72
8
73
4
74
2
42
0.0000001000
43
0.0000001000
44
0.0000000001
12
-0.0086536908
22
-0.0185566913
32
0.0000000000
13
-0.0086583607
23
-0.0185667063
33
0.0000000000
40
0.0000000000
40
0.0000000000
40
0.0000000000
40
0.0000000000
40
1.0000000000
40
1.0000000000
40
1.0000000000
40
1.0000000000
10
-21.1103776284
20
-23.0980442570
30
0.0000000000
10
-21.1132621920
20
-23.1042298208
30
0.0000000000
10
-21.1161476606
20
-23.1104173254
30
0.0000000000
10
-21.1190337809
20
-23.1166062275
30
0.0000000000
11
-21.1103776284
21
-23.0980442570
31
0.0000000000
11
-21.1190337809
21
-23.1166062275
31
0.0000000000
0
SPLINE
5
3C4
100
AcDbEntity
8
0
100
AcDbSpline
62
9
6
CONTINUOUS
70
0
71
3
72
8
73
4
74
2
42
0.0000001000
43
0.0000001000
44
0.0000000001
12
-0.0197018558
22
-0.0422480169
32
0.0000000000
13
-0.0197131435
23
-0.0422722274
33
0.0000000000
40
0.0000000000
40
0.0000000000
40
0.0000000000
40
0.0000000000
40
1.0000000000
40
1.0000000000
40
1.0000000000
40
1.0000000000
10
-21.1190337809
20
-23.1166062275
30
0.0000000000
10
-21.1256010661
20
-23.1306888998
30
0.0000000000
10
-21.1321717253
20
-23.1447788080
30
0.0000000000
10
-21.1387427732
20
-23.1588695504
30
0.0000000000
11
-21.1190337809
21
-23.1166062275
31
0.0000000000
11
-21.1387427732
21
-23.1588695504
31
0.0000000000
0
SPLINE
5
3C5
100
AcDbEntity
8
0
100
AcDbSpline
62
9
6
CONTINUOUS
70
0
71
3
72
8
73
4
74
2
42
0.0000001000
43
0.0000001000
44
0.0000000001
12
-0.0170008873
22
-0.0364561529
32
0.0000000000
13
-0.0169968771
23
-0.0364475574
33
0.0000000000
40
0.0000000000
40
0.0000000000
40
0.0000000000
40
0.0000000000
40
1.0000000000
40
1.0000000000
40
1.0000000000
40
1.0000000000
10
-21.1387427732
20
-23.1588695504
30
0.0000000000
10
-21.1444097356
20
-23.1710216014
30
0.0000000000
10
-21.1500769871
20
-23.1831742729
30
0.0000000000
10
-21.1557426128
20
-23.1953234587
30
0.0000000000
11
-21.1387427732
21
-23.1588695504
31
0.0000000000
11
-21.1557426128
21
-23.1953234587
31
0.0000000000
0
SPLINE
5
3C6
100
AcDbEntity
8
0
100
AcDbSpline
62
9
6
CONTINUOUS
70
0
71
3
72
8
73
4
74
2
42
0.0000001000
43
0.0000001000
44
0.0000000001
12
-0.0413514067
22
-0.0886726286
32
0.0000000000
13
-0.0412109473
23
-0.0883714530
33
0.0000000000
40
0.0000000000
40
0.0000000000
40
0.0000000000
40
0.0000000000
40
1.0000000000
40
1.0000000000
40
1.0000000000
40
1.0000000000
10
-21.1557426128
20
-23.1953234587
30
0.0000000000
10
-21.1695264150
20
-23.2248810016
30
0.0000000000
10
-21.1833005943
20
-23.2544179130
30
0.0000000000
10
-21.1970375768
20
-23.2838750640
30
0.0000000000
11
-21.1557426128
21
-23.1953234587
31
0.0000000000
11
-21.1970375768
21
-23.2838750640
31
0.0000000000
0
SPLINE
5
3C7
100
AcDbEntity
8
0
100
AcDbSpline
62
9
6
CONTINUOUS
70
0
71
3
72
8
73
4
74
2
42
0.0000001000
43
0.0000001000
44
0.0000000001
12
-0.0197377609
22
-0.0423250307
32
0.0000000000
13
-0.0196774777
23
-0.0421957657
33
0.0000000000
40
0.0000000000
40
0.0000000000
40
0.0000000000
40
0.0000000000
40
1.0000000000
40
1.0000000000
40
1.0000000000
40
1.0000000000
10
-21.1970375768
20
-23.2838750640
30
0.0000000000
10
-21.2036168304
20
-23.2979834076
30
0.0000000000
10
-21.2101875516
20
-23.3120734551
30
0.0000000000
10
-21.2167467108
20
-23.3261387103
30
0.0000000000
11
-21.1970375768
21
-23.2838750640
31
0.0000000000
11
-21.2167467108
21
-23.3261387103
31
0.0000000000
0
SPLINE
5
3C8
100
AcDbEntity
8
0
100
AcDbSpline
62
9
6
CONTINUOUS
70
0
71
3
72
8
73
4
74
2
42
0.0000001000
43
0.0000001000
44
0.0000000001
12
-0.1049587739
22
-0.2250703009
32
0.0000000000
13
-0.1016058967
23
-0.2178805969
33
0.0000000000
40
0.0000000000
40
0.0000000000
40
0.0000000000
40
0.0000000000
40
1.0000000000
40
1.0000000000
40
1.0000000000
40
1.0000000000
10
-21.2167467108
20
-23.3261387103
30
0.0000000000
10
-21.2517329687
20
-23.4011621439
30
0.0000000000
10
-21.2863902785
20
-23.4754802115
30
0.0000000000
10
-21.3202589107
20
-23.5481070772
30
0.0000000000
11
-21.2167467108
21
-23.3261387103
31
0.0000000000
11
-21.3202589107
21
-23.5481070772
31
0.0000000000
0
SPLINE
5
3C9
100
AcDbEntity
8
0
100
AcDbSpline
62
9
6
CONTINUOUS
70
0
71
3
72
8
73
4
74
2
42
0.0000001000
43
0.0000001000
44
0.0000000001
12
-0.0330529827
22
-0.0708778116
32
0.0000000000
13
-0.0325047388
23
-0.0697021823
33
0.0000000000
40
0.0000000000
40
0.0000000000
40
0.0000000000
40
0.0000000000
40
1.0000000000
40
1.0000000000
40
1.0000000000
40
1.0000000000
10
-21.3202589107
20
-23.5481070772
30
0.0000000000
10
-21.3312765716
20
-23.5717330144
30
0.0000000000
10
-21.3422107717
20
-23.5951799821
30
0.0000000000
10
-21.3530456846
20
-23.6184140429
30
0.0000000000
11
-21.3202589107
21
-23.5481070772
31
0.0000000000
11
-21.3530456846
21
-23.6184140429
31
0.0000000000
0
SPLINE
5
3CA
100
AcDbEntity
8
0
100
AcDbSpline
62
9
6
CONTINUOUS
70
0
71
3
72
8
73
4
74
2
42
0.0000001000
43
0.0000001000
44
0.0000000001
12
-0.0198235853
22
-0.0425090989
32
0.0000000000
13
-0.0195912434
23
-0.0420108747
33
0.0000000000
40
0.0000000000
40
0.0000000000
40
0.0000000000
40
0.0000000000
40
1.0000000000
40
1.0000000000
40
1.0000000000
40
1.0000000000
10
-21.3530456846
20
-23.6184140429
30
0.0000000000
10
-21.3596535464
20
-23.6325837425
30
0.0000000000
10
-21.3662244794
20
-23.6466742538
30
0.0000000000
10
-21.3727548939
20
-23.6606778787
30
0.0000000000
11
-21.3530456846
21
-23.6184140429
31
0.0000000000
11
-21.3727548939
21
-23.6606778787
31
0.0000000000
0
SPLINE
5
3CB
100
AcDbEntity
8
0
100
AcDbSpline
62
9
6
CONTINUOUS
70
0
71
3
72
9
73
5
74
3
42
0.0000001000
43
0.0000001000
44
0.0000000001
12
-0.1439833213
22
-0.3087535148
32
0.0000000000
13
-0.1294016864
23
-0.2774851480
33
0.0000000000
40
0.0000000000
40
0.0000000000
40
0.0000000000
40
0.0000000000
40
0.6748594870
40
1.0000000000
40
1.0000000000
40
1.0000000000
40
1.0000000000
10
-21.3727548939
20
-23.6606778787
30
0.0000000000
10
-21.4051443974
20
-23.7301329583
30
0.0000000000
10
-21.4516618797
20
-23.8298836677
30
0.0000000000
10
-21.4950291021
20
-23.9228790646
30
0.0000000000
10
-21.5090536790
20
-23.9529529524
30
0.0000000000
11
-21.3727548939
21
-23.6606778787
31
0.0000000000
11
-21.4664951862
21
-23.8616917755
31
0.0000000000
11
-21.5090536790
21
-23.9529529524
31
0.0000000000
0
SPLINE
5
3CC
100
AcDbEntity
8
0
100
AcDbSpline
62
9
6
CONTINUOUS
70
0
71
3
72
8
73
4
74
2
42
0.0000001000
43
0.0000001000
44
0.0000000001
12
-0.0197329008
22
-0.0423146487
32
0.0000000000
13
-0.0197123690
23
-0.0422706161
33
0.0000000000
40
0.0000000000
40
0.0000000000
40
0.0000000000
40
0.0000000000
40
1.0000000000
40
1.0000000000
40
1.0000000000
40
1.0000000000
10
-21.5090536790
20
-23.9529529524
30
0.0000000000
10
-21.5156313126
20
-23.9670578353
30
0.0000000000
10
-21.5221922585
20
-23.9811269331
30
0.0000000000
10
-21.5287630482
20
-23.9952171384
30
0.0000000000
11
-21.5090536790
21
-23.9529529524
31
0.0000000000
11
-21.5287630482
21
-23.9952171384
31
0.0000000000
0
SPLINE
5
3CD
100
AcDbEntity
8
0
100
AcDbSpline
62
9
6
CONTINUOUS
70
0
71
3
72
8
73
4
74
2
42
0.0000001000
43
0.0000001000
44
0.0000000001
12
-0.0644468843
22
-0.1381979765
32
0.0000000000
13
-0.0678596309
23
-0.1455160642
33
0.0000000000
40
0.0000000000
40
0.0000000000
40
0.0000000000
40
0.0000000000
40
1.0000000000
40
1.0000000000
40
1.0000000000
40
1.0000000000
10
-21.5287630482
20
-23.9952171384
30
0.0000000000
10
-21.5502453429
20
-24.0412831306
30
0.0000000000
10
-21.5718328545
20
-24.0875747362
30
0.0000000000
10
-21.5944527315
20
-24.1360800909
30
0.0000000000
11
-21.5287630482
21
-23.9952171384
31
0.0000000000
11
-21.5944527315
21
-24.1360800909
31
0.0000000000
0
SPLINE
5
3CE
100
AcDbEntity
8
0
100
AcDbSpline
62
9
6
CONTINUOUS
70
0
71
3
72
8
73
4
74
2
42
0.0000001000
43
0.0000001000
44
0.0000000001
12
-0.0898318303
22
-0.1926325596
32
0.0000000000
13
-0.1071391212
23
-0.2297454470
33
0.0000000000
40
0.0000000000
40
0.0000000000
40
0.0000000000
40
0.0000000000
40
1.0000000000
40
1.0000000000
40
1.0000000000
40
1.0000000000
10
-21.5944527315
20
-24.1360800909
30
0.0000000000
10
-21.6243966749
20
-24.2002909441
30
0.0000000000
10
-21.6561497532
20
-24.2683812095
30
0.0000000000
10
-21.6918627936
20
-24.3449630251
30
0.0000000000
11
-21.5944527315
21
-24.1360800909
31
0.0000000000
11
-21.6918627936
21
-24.3449630251
31
0.0000000000
0
SPLINE
5
3CF
100
AcDbEntity
8
0
100
AcDbSpline
62
9
6
CONTINUOUS
70
0
71
3
72
8
73
4
74
2
42
0.0000001000
43
0.0000001000
44
0.0000000001
12
-0.0121123312
22
-0.0259732665
32
0.0000000000
13
-0.0124253242
23
-0.0266444335
33
0.0000000000
40
0.0000000000
40
0.0000000000
40
0.0000000000
40
0.0000000000
40
1.0000000000
40
1.0000000000
40
1.0000000000
40
1.0000000000
10
-21.6918627936
20
-24.3449630251
30
0.0000000000
10
-21.6959002373
20
-24.3536207806
30
0.0000000000
10
-21.6999882927
20
-24.3623870653
30
0.0000000000
10
-21.7041300674
20
-24.3712685431
30
0.0000000000
11
-21.6918627936
21
-24.3449630251
31
0.0000000000
11
-21.7041300674
21
-24.3712685431
31
0.0000000000
0
SPLINE
5
3D0
100
AcDbEntity
8
0
100
AcDbSpline
62
9
6
CONTINUOUS
70
0
71
3
72
9
73
5
74
3
42
0.0000001000
43
0.0000001000
44
0.0000000001
12
-0.1425165220
22
-0.3056074778
32
0.0000000000
13
-0.1708061945
23
-0.3662703130
33
0.0000000000
40
0.0000000000
40
0.0000000000
40
0.0000000000
40
0.0000000000
40
0.5839927259
40
1.0000000000
40
1.0000000000
40
1.0000000000
40
1.0000000000
10
-21.7041300674
20
-24.3712685431
30
0.0000000000
10
-21.7318729381
20
-24.4307593911
30
0.0000000000
10
-21.7835056248
20
-24.5414786739
30
0.0000000000
10
-21.8449440610
20
-24.6732249416
30
0.0000000000
10
-21.8686296008
20
-24.7240153131
30
0.0000000000
11
-21.7041300674
21
-24.3712685431
31
0.0000000000
11
-21.7955233914
21
-24.5672491034
31
0.0000000000
11
-21.8686296008
21
-24.7240153131
31
0.0000000000
0
SPLINE
5
3D1
100
AcDbEntity
8
0
100
AcDbSpline
62
9
6
CONTINUOUS
70
0
71
3
72
8
73
4
74
2
42
0.0000001000
43
0.0000001000
44
0.0000000001
12
-0.1494942220
22
-0.3205697291
32
0.0000000000
13
-0.0000000009
23
0.0000000004
33
0.0000000000
40
0.0000000000
40
0.0000000000
40
0.0000000000
40
0.0000000000
40
1.0000000000
40
1.0000000000
40
1.0000000000
40
1.0000000000
10
-21.8686296008
20
-24.7240153131
30
0.0000000000
10
-21.9184610081
20
-24.8308718895
30
0.0000000000
10
-21.9600006641
20
-24.9199479129
30
0.0000000000
10
-21.9600006644
20
-24.9199479128
30
0.0000000000
11
-21.8686296008
21
-24.7240153131
31
0.0000000000
11
-21.9600006644
21
-24.9199479128
31
0.0000000000
0
SPLINE
5
3D2
100
AcDbEntity
8
0
100
AcDbSpline
62
9
6
CONTINUOUS
70
0
71
3
72
11
73
7
74
5
42
0.0000001000
43
0.0000001000
44
0.0000000001
12
-1.0240994013
22
2.1956427791
32
0.0000000000
13
0.0024947037
23
-0.0053441196
33
0.0000000000
40
0.0000000000
40
0.0000000000
40
0.0000000000
40
0.0000000000
40
0.3744031706
40
0.6887720671
40
0.9124834068
40
1.0000000000
40
1.0000000000
40
1.0000000000
40
1.0000000000
10
-20.9559334393
20
25.6297018648
30
0.0000000000
10
-21.0837421269
20
25.9037204042
30
0.0000000000
10
-21.3114379580
20
26.3918093657
30
0.0000000000
10
-21.6495959435
20
27.1163267647
30
0.0000000000
10
-21.8077011165
20
27.4549334164
30
0.0000000000
10
-21.9806293252
20
27.8253370152
30
0.0000000000
10
-21.9805565492
20
27.8251811155
30
0.0000000000
11
-20.9559334393
21
25.6297018648
31
0.0000000000
11
-21.3394267006
21
26.4517261366
31
0.0000000000
11
-21.6615450473
21
27.1418870540
31
0.0000000000
11
-21.8908296136
21
27.6329923502
31
0.0000000000
11
-21.9805565492
21
27.8251811155
31
0.0000000000
0
ENDSEC
0
SECTION
2
OBJECTS
0
DICTIONARY
5
C
100
AcDbDictionary
280
0
281
1
3
ACAD_GROUP
350
D
3
ACAD_MLINESTYLE
350
17
3
ACAD_LAYOUT
350
1A
3
ACAD_PLOTSETTINGS
350
19
3
ACAD_PLOTSTYLENAME
350
E
0
DICTIONARY
5
D
102
{ACAD_REACTORS
330
C
102
}
100
AcDbDictionary
280
0
281
1
0
ACDBDICTIONARYWDFLT
5
E
102
{ACAD_REACTORS
330
C
102
}
100
AcDbDictionary
281
1
3
Normal
350
F
100
AcDbDictionaryWithDefault
340
F
0
DICTIONARY
5
17
102
{ACAD_REACTORS
330
C
102
}
100
AcDbDictionary
280
0
281
1
3
Standard
350
18
0
DICTIONARY
5
19
102
{ACAD_REACTORS
330
C
102
}
100
AcDbDictionary
281
1
0
DICTIONARY
5
1A
102
{ACAD_REACTORS
330
C
102
}
100
AcDbDictionary
281
1
3
Layout1
350
1E
3
Model
350
22
0
ACDBPLACEHOLDER
5
F
102
{ACAD_REACTORS
330
E
102
}
0
MLINESTYLE
5
18
102
{ACAD_REACTORS
330
17
102
}
100
AcDbMlineStyle
2
STANDARD
70
0
3

62
256
51
90.0
52
90.0
71
2
49
0.5
62
256
6
BYLAYER
49
-0.5
62
256
6
BYLAYER
0
LAYOUT
5
1E
102
{ACAD_REACTORS
330
1A
102
}
100
AcDbPlotSettings
1

2

4

6

40
0.0
41
0.0
42
0.0
43
0.0
44
0.0
45
0.0
46
0.0
47
0.0
48
0.0
49
0.0
140
0.0
141
0.0
142
1.0
143
1.0
70
0
72
0
73
0
74
0
7

75
0
147
1.0
148
0.0
149
0.0
100
AcDbLayout
1
Layout1
70
0
71
0
10
0.0
20
0.0
11
0.0
21
0.0
12
0.0
22
0.0
32
0.0
14
0.0
24
0.0
34
0.0
15
0.0
25
0.0
35
0.0
146
0.0
13
0.0
23
0.0
33
0.0
16
0.0
26
0.0
36
0.0
17
0.0
27
0.0
37
0.0
76
0
330
1B
331
0
345
0
346
0
0
LAYOUT
5
22
102
{ACAD_REACTORS
330
1A
102
}
100
AcDbPlotSettings
1

2

4

6

40
0.0
41
0.0
42
0.0
43
0.0
44
0.0
45
0.0
46
0.0
47
0.0
48
0.0
49
0.0
140
0.0
141
0.0
142
1.0
143
1.0
70
0
72
0
73
0
74
0
7

75
0
147
1.0
148
0.0
149
0.0
100
AcDbLayout
1
Model
70
0
71
0
10
0.0
20
0.0
11
0.0
21
0.0
12
0.0
22
0.0
32
0.0
14
0.0
24
0.0
34
0.0
15
0.0
25
0.0
35
0.0
146
0.0
13
0.0
23
0.0
33
0.0
16
0.0
26
0.0
36
0.0
17
0.0
27
0.0
37
0.0
76
0
330
1F
331
0
345
0
346
0
0
ENDSEC
0
EOF
