  0
SECTION
  2
HEADER
  9
$ACADVER
  1
AC1015
  9
$DWGCODEPAGE
  3
ANSI_1252
  9
$EXTMAX
 10
297.0
 20
210.0
 30
0.0
  9
$EXTMIN
 10
0.0
 20
0.0
 30
0.0
  9
$LIMMIN
 10
0.0
 20
0.0
  9
$LIMMAX
 10
297.0
 20
210.0
  9
$VIEWCTR
 10
148.5
 20
105.0
  9
$VIEWSIZE
 40
210.0
  9
$CLAYER
  8
0
  9
$LTSCALE
 40
16.335
  9
$CELTYPE
  6
BYLAYER
  9
$DIMSCALE
 40
1.0
  9
$DIMASZ
 40
3.0
  9
$DIMEXO
 40
0.5
  9
$DIMDLI
 40
11.286
  9
$DIMEXE
 40
1.5
  9
$DIMCEN
 40
2.673
  9
$DIMLFAC
 40
1.0
  9
$DIMBLK
  1
_FILLED
  9
$DIMTXT
 40
3.0
  9
$DIMTOL
 70
1
  9
$DIMLIM
 70
0
  9
$DIMTFAC
 40
1.0
  9
$DIMTP
 40
0.01
  9
$DIMTM
 40
0.01
  9
$DIMGAP
 40
0.625
  9
$DIMDSEP
 70
44
  9
$PDMODE
 70
3
  9
$PDSIZE
 40
3.0
  9
$HANDSEED
  5
479
  9
$TILEMODE
 70
1
  9
$MEASUREMENT
 70
1
  9
$INSUNITS
 70
4
  0
ENDSEC
  0
SECTION
  2
CLASSES
  0
CLASS
  1
ACDBDICTIONARYWDFLT
  2
AcDbDictionaryWithDefault
  3
AutoCAD 2000
 90
0
280
0
281
0
  0
CLASS
  1
ACDBPLACEHOLDER
  2
AcDbPlaceHolder
  3
AutoCAD 2000
 90
0
280
0
281
0
  0
CLASS
  1
LAYOUT
  2
AcDbLayout
  3
AutoCAD 2000
 90
0
280
0
281
0
  0
ENDSEC
  0
SECTION
  2
TABLES
  0
TABLE
  2
VPORT
  5
8
100
AcDbSymbolTable
 70
2
  0
VPORT
  5
1F4
100
AcDbSymbolTableRecord
100
AcDbViewportTableRecord
  2
*ACTIVE
 70
0
 10
0.0
 20
0.0
 11
1.0
 21
1.0
 12
148.5
 22
105.0
 13
0.0
 23
0.0
 14
1.0
 24
1.0
 15
0.0
 25
0.0
 16
0.0
 26
0.0
 36
1.0
 17
0.0
 27
0.0
 37
0.0
 40
210.0
 41
1.4142857143
 42
50.0
 43
0.0
 44
0.0
 50
0.0
 51
0.0
 71
0
 72
100
 73
1
 74
1
 75
0
 76
0
 77
0
 78
0
  0
ENDTAB
  0
TABLE
  2
LTYPE
  5
5
100
AcDbSymbolTable
 70
6
  0
LTYPE
  5
14
100
AcDbSymbolTableRecord
100
AcDbLinetypeTableRecord
  2
BYBLOCK
 70
0
  3

 72
65
 73
0
 40
0.0
  0
LTYPE
  5
15
100
AcDbSymbolTableRecord
100
AcDbLinetypeTableRecord
  2
BYLAYER
 70
0
  3

 72
65
 73
0
 40
0.0
  0
LTYPE
  5
16
100
AcDbSymbolTableRecord
100
AcDbLinetypeTableRecord
  2
CONTINUOUS
 70
64
  3
Solid line
 72
65
 73
0
 40
0.0
  0
LTYPE
  5
1F5
100
AcDbSymbolTableRecord
100
AcDbLinetypeTableRecord
  2
CENTER
 70
64
  3
____ _ ____ _ ____ _ ____ _ ____ _ ____ _ ____
 72
65
 73
4
 40
0.6
 49
0.375
 74
0
 49
-0.075
 74
0
 49
0.075
 74
0
 49
-0.075
 74
0
  0
LTYPE
  5
1F6
100
AcDbSymbolTableRecord
100
AcDbLinetypeTableRecord
  2
HIDDEN
 70
64
  3
- - - - - - - - - - - - - - - - - - - -
 72
65
 73
2
 40
0.2
 49
0.1
 74
0
 49
-0.1
 74
0
  0
LTYPE
  5
1F7
100
AcDbSymbolTableRecord
100
AcDbLinetypeTableRecord
  2
PHANTOM
 70
64
  3
_____ _ _ _____ _ _ _____ _ _ _____
 72
65
 73
6
 40
0.8
 49
0.45
 74
0
 49
-0.05
 74
0
 49
0.1
 74
0
 49
-0.05
 74
0
 49
0.1
 74
0
 49
-0.05
 74
0
  0
LTYPE
  5
1F8
100
AcDbSymbolTableRecord
100
AcDbLinetypeTableRecord
  2
DOT
 70
64
  3
. . . . . . . . . . . . . . . . . . . .
 72
65
 73
2
 40
0.2
 49
0.1
 74
0
 49
-0.1
 74
0
  0
LTYPE
  5
1F9
100
AcDbSymbolTableRecord
100
AcDbLinetypeTableRecord
  2
DASHED
 70
64
  3
- - - - - - - - - - - - - - - - - - - -
 72
65
 73
2
 40
0.2
 49
0.1
 74
0
 49
-0.1
 74
0
  0
ENDTAB
  0
TABLE
  2
LAYER
  5
2
100
AcDbSymbolTable
 70
36
  0
LAYER
  5
10
100
AcDbSymbolTableRecord
100
AcDbLayerTableRecord
  2
0
 70
0
 62
7
  6
CONTINUOUS
370
-3
390
F
  0
LAYER
  5
1FA
100
AcDbSymbolTableRecord
100
AcDbLayerTableRecord
  2
DEFAULT_1
 70
0
 62
7
  6
CENTER
370
-3
390
F
  0
LAYER
  5
1FB
100
AcDbSymbolTableRecord
100
AcDbLayerTableRecord
  2
DEFAULT_2
 70
0
 62
7
  6
HIDDEN
370
-3
390
F
  0
LAYER
  5
1FC
100
AcDbSymbolTableRecord
100
AcDbLayerTableRecord
  2
DEFAULT_3
 70
0
 62
7
  6
PHANTOM
370
-3
390
F
  0
LAYER
  5
1FD
100
AcDbSymbolTableRecord
100
AcDbLayerTableRecord
  2
ASSI
 70
0
 62
7
  6
CONTINUOUS
370
-3
390
F
  0
LAYER
  5
1FE
100
AcDbSymbolTableRecord
100
AcDbLayerTableRecord
  2
COORDINATE
 70
0
 62
7
  6
CONTINUOUS
370
-3
390
F
  0
LAYER
  5
1FF
100
AcDbSymbolTableRecord
100
AcDbLayerTableRecord
  2
COORD_ORIGINE
 70
0
 62
7
  6
CONTINUOUS
370
-3
390
F
  0
LAYER
  5
200
100
AcDbSymbolTableRecord
100
AcDbLayerTableRecord
  2
COPY_DENTI
 70
0
 62
7
  6
CONTINUOUS
370
-3
390
F
  0
LAYER
  5
201
100
AcDbSymbolTableRecord
100
AcDbLayerTableRecord
  2
COPY_PLACCA
 70
0
 62
7
  6
CONTINUOUS
370
-3
390
F
  0
LAYER
  5
202
100
AcDbSymbolTableRecord
100
AcDbLayerTableRecord
  2
COPY_PUBLISH
 70
0
 62
7
  6
CONTINUOUS
370
-3
390
F
  0
LAYER
  5
203
100
AcDbSymbolTableRecord
100
AcDbLayerTableRecord
  2
COPY_SUPP
 70
0
 62
7
  6
CONTINUOUS
370
-3
390
F
  0
LAYER
  5
204
100
AcDbSymbolTableRecord
100
AcDbLayerTableRecord
  2
COSMETIC
 70
0
 62
7
  6
CONTINUOUS
370
-3
390
F
  0
LAYER
  5
205
100
AcDbSymbolTableRecord
100
AcDbLayerTableRecord
  2
CURVE
 70
0
 62
7
  6
CONTINUOUS
370
-3
390
F
  0
LAYER
  5
206
100
AcDbSymbolTableRecord
100
AcDbLayerTableRecord
  2
DRAFT
 70
0
 62
7
  6
CONTINUOUS
370
-3
390
F
  0
LAYER
  5
207
100
AcDbSymbolTableRecord
100
AcDbLayerTableRecord
  2
IMPORT_IGES
 70
0
 62
7
  6
CONTINUOUS
370
-3
390
F
  0
LAYER
  5
208
100
AcDbSymbolTableRecord
100
AcDbLayerTableRecord
  2
NOTE
 70
0
 62
7
  6
CONTINUOUS
370
-3
390
F
  0
LAYER
  5
209
100
AcDbSymbolTableRecord
100
AcDbLayerTableRecord
  2
PIANI
 70
0
 62
7
  6
CONTINUOUS
370
-3
390
F
  0
LAYER
  5
20A
100
AcDbSymbolTableRecord
100
AcDbLayerTableRecord
  2
PIANI_ORIGINE
 70
0
 62
7
  6
CONTINUOUS
370
-3
390
F
  0
LAYER
  5
20B
100
AcDbSymbolTableRecord
100
AcDbLayerTableRecord
  2
RACCORDO
 70
0
 62
7
  6
CONTINUOUS
370
-3
390
F
  0
LAYER
  5
20C
100
AcDbSymbolTableRecord
100
AcDbLayerTableRecord
  2
SKELETON
 70
0
 62
7
  6
CONTINUOUS
370
-3
390
F
  0
LAYER
  5
20D
100
AcDbSymbolTableRecord
100
AcDbLayerTableRecord
  2
SMUSSO
 70
0
 62
7
  6
CONTINUOUS
370
-3
390
F
  0
LAYER
  5
20E
100
AcDbSymbolTableRecord
100
AcDbLayerTableRecord
  2
SUPERFICI
 70
0
 62
7
  6
CONTINUOUS
370
-3
390
F
  0
LAYER
  5
20F
100
AcDbSymbolTableRecord
100
AcDbLayerTableRecord
  2
TRASH
 70
0
 62
7
  6
CONTINUOUS
370
-3
390
F
  0
LAYER
  5
210
100
AcDbSymbolTableRecord
100
AcDbLayerTableRecord
  2
WHITE
 70
0
 62
7
  6
CONTINUOUS
370
-3
390
F
  0
LAYER
  5
211
100
AcDbSymbolTableRecord
100
AcDbLayerTableRecord
  2
XSEC_DATUMS
 70
0
 62
7
  6
CONTINUOUS
370
-3
390
F
  0
ENDTAB
  0
TABLE
  2
STYLE
  5
3
100
AcDbSymbolTable
 70
1
  0
STYLE
  5
11
100
AcDbSymbolTableRecord
100
AcDbTextStyleTableRecord
  2
STANDARD
 70
0
 40
0.0
 41
0.8
 50
0.0
 71
0
 42
0.2
  3
txt
  4

  0
STYLE
  5
212
100
AcDbSymbolTableRecord
100
AcDbTextStyleTableRecord
  2
TEXTSTYLE_1
 70
0
 40
0.0
 41
0.8
 50
0.0
 71
0
 42
0.2
  3
gdt
  4

  0
ENDTAB
  0
TABLE
  2
VIEW
  5
6
100
AcDbSymbolTable
 70
0
  0
ENDTAB
  0
TABLE
  2
UCS
  5
7
100
AcDbSymbolTable
 70
0
  0
ENDTAB
  0
TABLE
  2
APPID
  5
9
100
AcDbSymbolTable
 70
1
  0
APPID
  5
213
100
AcDbSymbolTableRecord
100
AcDbRegAppTableRecord
  2
ACAD
 70
0
  0
ENDTAB
  0
TABLE
  2
BLOCK_RECORD
  5
1
100
AcDbSymbolTable
 70
0
  0
BLOCK_RECORD
  5
214
100
AcDbSymbolTableRecord
100
AcDbBlockTableRecord
  2
*Model_Space
  0
BLOCK_RECORD
  5
215
100
AcDbSymbolTableRecord
100
AcDbBlockTableRecord
  2
*Paper_Space
  0
BLOCK_RECORD
  5
216
100
AcDbSymbolTableRecord
100
AcDbBlockTableRecord
  2
_FILLED
  0
BLOCK_RECORD
  5
217
100
AcDbSymbolTableRecord
100
AcDbBlockTableRecord
  2
*D0
  0
BLOCK_RECORD
  5
218
100
AcDbSymbolTableRecord
100
AcDbBlockTableRecord
  2
*D1
  0
BLOCK_RECORD
  5
219
100
AcDbSymbolTableRecord
100
AcDbBlockTableRecord
  2
*D2
  0
ENDTAB
  0
TABLE
  2
DIMSTYLE
  5
A
100
AcDbSymbolTable
 70
1
100
AcDbDimStyleTable
 71
0
  0
DIMSTYLE
105
21A
100
AcDbSymbolTableRecord
100
AcDbDimStyleTableRecord
  2
STANDARD
 70
0
  3

  4

 40
1.0
 41
3.0
 42
0.5
 43
0.38
 44
1.5
 45
0.0
 46
0.0
 47
0.01
 48
0.01
140
3.0
141
0.09
142
0.0
143
25.4
144
1.0
145
0.0
146
1.0
147
0.625
 71
1.0
 72
0.0
 73
0
 74
0
 75
0
 76
0
 77
1
 78
8
170
0
171
2
172
0
173
0
174
0
175
0
176
0
177
0
178
0
270
2
271
2
272
2
273
2
274
2
275
0
280
0
281
0
282
0
283
1
284
8
285
0
286
0
287
3
288
0
340
11
278
44
341
216
342
216
343
216
344
216
  0
DIMSTYLE
105
21B
100
AcDbSymbolTableRecord
100
AcDbDimStyleTableRecord
  2
DIMSTYLE_1
 70
0
  3

  4

 40
1.0
 41
3.0
 42
0.5
 43
0.38
 44
1.5
 45
0.0
 46
0.0
 47
0.0
 48
0.0
140
3.0
141
0.09
142
0.0
143
25.4
144
1.0
145
0.0
146
1.0
147
0.75
 71
0.0
 72
0.0
 73
0
 74
0
 75
0
 76
0
 77
1
 78
8
170
0
171
2
172
0
173
0
174
0
175
0
176
0
177
0
178
0
270
2
271
2
272
2
273
2
274
2
275
0
280
0
281
0
282
0
283
1
284
8
285
0
286
0
287
3
288
0
340
11
278
44
341
216
342
216
343
216
344
216
  0
ENDTAB
  0
ENDSEC
  0
SECTION
  2
BLOCKS
  0
BLOCK
  5
20
100
AcDbEntity
  8
0
100
AcDbBlockBegin
  2
*Model_Space
 70
0
 10
0.0
 20
0.0
 30
0.0
  3
*Model_Space
  1

  0
ENDBLK
  5
21
100
AcDbEntity
  8
0
100
AcDbBlockEnd
  0
BLOCK
  5
1C
100
AcDbEntity
  8
0
100
AcDbBlockBegin
  2
*Paper_Space
 70
0
 10
0.0
 20
0.0
 30
0.0
  3
*Paper_Space
  1

  0
ENDBLK
  5
1D
100
AcDbEntity
  8
0
100
AcDbBlockEnd
  0
BLOCK
  5
21C
100
AcDbEntity
  8
0
100
AcDbBlockBegin
  2
_FILLED
 70
64
 10
0.0
 20
0.0
  3
_FILLED
  1

  0
SOLID
  5
21D
100
AcDbEntity
  8
0
  6
BYBLOCK
 62
0
100
AcDbTrace
 10
0.0
 20
0.0
 11
-1.0
 21
0.3166666667
 12
-1.0
 22
-0.3166666667
 13
-1.0
 23
-0.3166666667
  0
ENDBLK
  5
21E
100
AcDbEntity
  8
0
  6
BYBLOCK
 62
0
100
AcDbBlockEnd
  0
BLOCK
  5
21F
100
AcDbEntity
  8
0
100
AcDbBlockBegin
 62
7
  6
CONTINUOUS
  2
*D0
 70
65
 10
0.0
 20
0.0
  3
*D0
  1

  0
MTEXT
  5
220
100
AcDbEntity
  8
0
100
AcDbMText
 62
7
  6
CONTINUOUS
  7
STANDARD
 71
2
 72
1
 10
39.6043634687
 20
165.8040970389
 30
0.0
 11
1.0
 21
0.0
 31
0.0
 44
0.9
  1
10
 40
3.0
 41
4.0714285714
  0
LINE
  5
221
100
AcDbEntity
  8
0
100
AcDbLine
 62
7
  6
CONTINUOUS
 10
44.6043634687
 20
145.8717598656
 11
44.6043634687
 21
163.5540970389
  0
LINE
  5
222
100
AcDbEntity
  8
0
100
AcDbLine
 62
7
  6
CONTINUOUS
 10
34.6043634687
 20
132.3036536805
 11
34.6043634687
 21
163.5540970389
  0
LINE
  5
223
100
AcDbEntity
  8
0
100
AcDbLine
 62
7
  6
CONTINUOUS
 10
44.6043634687
 20
162.0540970389
 11
48.6043634687
 21
162.0540970389
  0
LINE
  5
224
100
AcDbEntity
  8
0
100
AcDbLine
 62
7
  6
CONTINUOUS
 10
48.6043634687
 20
162.0540970389
 11
39.6043634687
 21
162.0540970389
  0
LINE
  5
225
100
AcDbEntity
  8
0
100
AcDbLine
 62
7
  6
CONTINUOUS
 10
34.6043634687
 20
162.0540970389
 11
30.6043634687
 21
162.0540970389
  0
LINE
  5
226
100
AcDbEntity
  8
0
100
AcDbLine
 62
7
  6
CONTINUOUS
 10
30.6043634687
 20
162.0540970389
 11
39.6043634687
 21
162.0540970389
  0
INSERT
  5
227
100
AcDbEntity
  8
0
100
AcDbBlockReference
 62
7
  6
CONTINUOUS
  2
_FILLED
 10
44.6043634687
 20
162.0540970389
 41
3.0
 42
3.0
 43
3.0
 50
180.0
  0
INSERT
  5
228
100
AcDbEntity
  8
0
100
AcDbBlockReference
 62
7
  6
CONTINUOUS
  2
_FILLED
 10
34.6043634687
 20
162.0540970389
 41
3.0
 42
3.0
 43
3.0
  0
ENDBLK
  5
229
100
AcDbEntity
  8
0
  6
BYBLOCK
 62
0
100
AcDbBlockEnd
  0
BLOCK
  5
22A
100
AcDbEntity
  8
0
100
AcDbBlockBegin
 62
7
  6
CONTINUOUS
  2
*D1
 70
65
 10
0.0
 20
0.0
  3
*D1
  1

  0
MTEXT
  5
22B
100
AcDbEntity
  8
0
100
AcDbMText
 62
7
  6
CONTINUOUS
  7
STANDARD
 71
2
 72
1
 10
163.9040724928
 20
165.0658862553
 30
0.0
 11
1.0
 21
0.0
 31
0.0
 44
0.9
  1
206
 40
3.0
 41
7.0714285714
  0
LINE
  5
22C
100
AcDbEntity
  8
0
100
AcDbLine
 62
7
  6
CONTINUOUS
 10
60.9040724928
 20
145.8717598656
 11
60.9040724928
 21
162.8158862553
  0
LINE
  5
22D
100
AcDbEntity
  8
0
100
AcDbLine
 62
7
  6
CONTINUOUS
 10
266.9040724928
 20
145.8717598656
 11
266.9040724928
 21
162.8158862553
  0
LINE
  5
22E
100
AcDbEntity
  8
0
100
AcDbLine
 62
7
  6
CONTINUOUS
 10
60.9040724928
 20
161.3158862553
 11
163.9040724928
 21
161.3158862553
  0
LINE
  5
22F
100
AcDbEntity
  8
0
100
AcDbLine
 62
7
  6
CONTINUOUS
 10
266.9040724928
 20
161.3158862553
 11
163.9040724928
 21
161.3158862553
  0
INSERT
  5
230
100
AcDbEntity
  8
0
100
AcDbBlockReference
 62
7
  6
CONTINUOUS
  2
_FILLED
 10
60.9040724928
 20
161.3158862553
 41
3.0
 42
3.0
 43
3.0
 50
180.0
  0
INSERT
  5
231
100
AcDbEntity
  8
0
100
AcDbBlockReference
 62
7
  6
CONTINUOUS
  2
_FILLED
 10
266.9040724928
 20
161.3158862553
 41
3.0
 42
3.0
 43
3.0
  0
ENDBLK
  5
232
100
AcDbEntity
  8
0
  6
BYBLOCK
 62
0
100
AcDbBlockEnd
  0
BLOCK
  5
233
100
AcDbEntity
  8
0
100
AcDbBlockBegin
 62
7
  6
CONTINUOUS
  2
*D2
 70
65
 10
0.0
 20
0.0
  3
*D2
  1

  0
MTEXT
  5
234
100
AcDbEntity
  8
0
100
AcDbMText
 62
7
  6
CONTINUOUS
  7
STANDARD
 71
2
 72
1
 10
276.8256058187
 20
104.8717598656
 30
0.0
 11
0.0
 21
1.0
 31
0.0
 44
0.9
  1
85
 40
3.0
 41
4.5
  0
LINE
  5
235
100
AcDbEntity
  8
0
100
AcDbLine
 62
7
  6
CONTINUOUS
 10
265.4040724935
 20
147.3717598656
 11
282.0756058187
 21
147.3717598656
  0
LINE
  5
236
100
AcDbEntity
  8
0
100
AcDbLine
 62
7
  6
CONTINUOUS
 10
265.4040724935
 20
62.3717598656
 11
282.0756058187
 21
62.3717598656
  0
LINE
  5
237
100
AcDbEntity
  8
0
100
AcDbLine
 62
7
  6
CONTINUOUS
 10
280.5756058187
 20
147.3717598656
 11
280.5756058187
 21
104.8717598656
  0
LINE
  5
238
100
AcDbEntity
  8
0
100
AcDbLine
 62
7
  6
CONTINUOUS
 10
280.5756058187
 20
62.3717598656
 11
280.5756058187
 21
104.8717598656
  0
INSERT
  5
239
100
AcDbEntity
  8
0
100
AcDbBlockReference
 62
7
  6
CONTINUOUS
  2
_FILLED
 10
280.5756058187
 20
147.3717598656
 41
3.0
 42
3.0
 43
3.0
 50
90.0
  0
INSERT
  5
23A
100
AcDbEntity
  8
0
100
AcDbBlockReference
 62
7
  6
CONTINUOUS
  2
_FILLED
 10
280.5756058187
 20
62.3717598656
 41
3.0
 42
3.0
 43
3.0
 50
270.0
  0
ENDBLK
  5
23B
100
AcDbEntity
  8
0
  6
BYBLOCK
 62
0
100
AcDbBlockEnd
  0
ENDSEC
  0
SECTION
  2
ENTITIES
  0
DIMENSION
  5
23C
100
AcDbEntity
  8
0
100
AcDbDimension
 62
7
  6
CONTINUOUS
  2
*D0
 10
34.6043634687
 20
162.0540970389
 11
39.6043634687
 21
162.0540970389
 70
160
 71
2
 42
10.0
  3
DIMSTYLE_1
100
AcDbAlignedDimension
 13
44.6043634687
 23
145.3717598656
 14
34.6043634687
 24
131.8036536805
 50
180.0
100
AcDbRotatedDimension
  0
DIMENSION
  5
23D
100
AcDbEntity
  8
0
100
AcDbDimension
 62
7
  6
CONTINUOUS
  2
*D1
 10
266.9040724928
 20
161.3158862553
 11
163.9040724928
 21
161.3158862553
 70
160
 71
2
 42
206.0
  3
DIMSTYLE_1
100
AcDbAlignedDimension
 13
60.9040724928
 23
145.3717598656
 14
266.9040724928
 24
145.3717598656
100
AcDbRotatedDimension
  0
DIMENSION
  5
23E
100
AcDbEntity
  8
0
100
AcDbDimension
 62
7
  6
CONTINUOUS
  2
*D2
 10
280.5756058187
 20
62.3717598656
 11
280.5756058187
 21
104.8717598656
 70
160
 71
2
 42
85.0
  3
DIMSTYLE_1
100
AcDbAlignedDimension
 13
264.9040724935
 23
147.3717598656
 14
264.9040724935
 24
62.3717598656
 50
270.0
100
AcDbRotatedDimension
  0
LWPOLYLINE
  5
23F
100
AcDbEntity
  8
RACCORDO
100
AcDbPolyline
 62
253
  6
CONTINUOUS
 90
31
 70
0
 10
61.3875375679
 20
64.3717598656
 10
61.3885332063
 20
64.3052818658
 10
61.3931936635
 20
64.2371824484
 10
61.40151894
 20
64.1674616134
 10
61.4132631817
 20
64.0958225681
 10
61.428672245
 20
64.0225621051
 10
61.4484836976
 20
63.9485706025
 10
61.4728526781
 20
63.8736473978
 10
61.5016240541
 20
63.7979931535
 10
61.5350699891
 20
63.7231002351
 10
61.5733847473
 20
63.6489587713
 10
61.6163740752
 20
63.5755786334
 10
61.6637273605
 20
63.5044818006
 10
61.7156056354
 20
63.4357668172
 10
61.7718478817
 20
63.3693351389
 10
61.8316604098
 20
63.3064131125
 10
61.895212183
 20
63.2471140076
 10
61.9623342523
 20
63.1913245546
 10
62.0317260559
 20
63.139931292
 10
62.1035428256
 20
63.0931056448
 10
62.1776293399
 20
63.0506761881
 10
62.2522193501
 20
63.0130151859
 10
62.3273026901
 20
62.980366531
 10
62.4028895283
 20
62.9524863305
 10
62.4772441092
 20
62.9290151698
 10
62.5500190637
 20
62.9101406271
 10
62.6215617547
 20
62.895675124
 10
62.6911785184
 20
62.8846965113
 10
62.7586381303
 20
62.8768974057
 10
62.8241718063
 20
62.8725851905
 10
62.8877795424
 20
62.8717598656
  0
LWPOLYLINE
  5
240
100
AcDbEntity
  8
RACCORDO
100
AcDbPolyline
 62
253
  6
CONTINUOUS
 90
10
 70
0
 10
62.8877795424
 20
62.8717598656
 10
62.8880270689
 20
62.7849357762
 10
62.8887621275
 20
62.700749793
 10
62.8899623839
 20
62.6217598644
 10
62.8915913687
 20
62.5503660595
 10
62.8935995862
 20
62.4887376429
 10
62.8959260177
 20
62.4387471629
 10
62.8984999756
 20
62.4019135548
 10
62.9012432517
 20
62.379355989
 10
62.9040724928
 20
62.3717598656
  0
LINE
  5
241
100
AcDbEntity
  8
RACCORDO
100
AcDbLine
 62
7
  6
CONTINUOUS
 10
60.9040724928
 20
145.3717598656
 11
60.9040724928
 21
64.3717598656
  0
LINE
  5
242
100
AcDbEntity
  8
RACCORDO
100
AcDbLine
 62
253
  6
CONTINUOUS
 10
61.3875375679
 20
145.3717598656
 11
61.3875375679
 21
64.3717598656
  0
LWPOLYLINE
  5
243
100
AcDbEntity
  8
RACCORDO
100
AcDbPolyline
 62
253
  6
CONTINUOUS
 90
10
 70
0
 10
62.8877795424
 20
146.8717598656
 10
62.8880270688
 20
146.9585839357
 10
62.8887621271
 20
147.0427699063
 10
62.8899623831
 20
147.1217598296
 10
62.8915913677
 20
147.1931536363
 10
62.8935995851
 20
147.25478206
 10
62.8959260166
 20
147.3047725493
 10
62.8984999747
 20
147.3416061665
 10
62.9012432512
 20
147.3641637394
 10
62.9040724928
 20
147.3717598656
  0
LINE
  5
244
100
AcDbEntity
  8
RACCORDO
100
AcDbLine
 62
253
  6
CONTINUOUS
 10
85.1891464271
 20
128.3800546338
 11
85.1898810882
 21
128.3714970705
  0
LINE
  5
245
100
AcDbEntity
  8
RACCORDO
100
AcDbLine
 62
253
  6
CONTINUOUS
 10
85.0596266302
 20
127.3501186492
 11
85.0581811377
 21
127.3677573463
  0
LINE
  5
246
100
AcDbEntity
  8
RACCORDO
100
AcDbLine
 62
253
  6
CONTINUOUS
 10
85.2562597691
 20
127.5402926322
 11
85.1898810885
 21
128.3714970619
  0
LINE
  5
247
100
AcDbEntity
  8
RACCORDO
100
AcDbLine
 62
253
  6
CONTINUOUS
 10
85.1879995767
 20
128.394334787
 11
85.1891464271
 21
128.3800546338
  0
LINE
  5
248
100
AcDbEntity
  8
RACCORDO
100
AcDbLine
 62
253
  6
CONTINUOUS
 10
85.0581811377
 20
127.3677573463
 11
85.0072697376
 21
128.0536416585
  0
LINE
  5
249
100
AcDbEntity
  8
RACCORDO
100
AcDbLine
 62
253
  6
CONTINUOUS
 10
85.1868104617
 20
128.410202606
 11
85.1879995767
 21
128.394334787
  0
LINE
  5
24A
100
AcDbEntity
  8
RACCORDO
100
AcDbLine
 62
253
  6
CONTINUOUS
 10
85.1851825104
 20
128.4335170742
 11
85.1868104617
 21
128.410202606
  0
LINE
  5
24B
100
AcDbEntity
  8
RACCORDO
100
AcDbLine
 62
253
  6
CONTINUOUS
 10
85.1835360419
 20
128.4588652361
 11
85.1851825104
 21
128.4335170742
  0
LWPOLYLINE
  5
24C
100
AcDbEntity
  8
RACCORDO
100
AcDbPolyline
 62
253
  6
CONTINUOUS
 90
43
 70
0
 10
85.0574756316
 20
82.3664689978
 10
85.0578299779
 20
82.3604972779
 10
85.0584508961
 20
82.3545335426
 10
85.0593375557
 20
82.3485857656
 10
85.0604887714
 20
82.3426618995
 10
85.0619030039
 20
82.3367698649
 10
85.0635783622
 20
82.3309175398
 10
85.0655126063
 20
82.3251127491
 10
85.0677031501
 20
82.3193632541
 10
85.0701470645
 20
82.3136767423
 10
85.072841082
 20
82.3080608169
 10
85.0757816006
 20
82.3025229867
 10
85.0789646884
 20
82.2970706561
 10
85.0823860897
 20
82.2917111152
 10
85.0860412297
 20
82.2864515301
 10
85.0899252213
 20
82.2812989331
 10
85.0940328713
 20
82.2762602135
 10
85.0983586877
 20
82.2713421084
 10
85.1028968865
 20
82.2665511937
 10
85.1076413999
 20
82.2618938751
 10
85.1125858842
 20
82.2573763796
 10
85.1177237283
 20
82.2530047474
 10
85.1230480625
 20
82.2487848238
 10
85.1285517681
 20
82.2447222509
 10
85.1342274861
 20
82.2408224607
 10
85.1400676278
 20
82.2370906674
 10
85.1460643846
 20
82.2335318606
 10
85.1522097384
 20
82.2301507988
 10
85.1584954725
 20
82.2269520025
 10
85.1649131826
 20
82.2239397488
 10
85.1714542878
 20
82.2211180652
 10
85.1781100422
 20
82.2184907245
 10
85.1848715466
 20
82.2160612396
 10
85.1917297606
 20
82.2138328589
 10
85.1986755143
 20
82.2118085618
 10
85.2056995208
 20
82.2099910549
 10
85.2127923886
 20
82.2083827685
 10
85.2199446342
 20
82.2069858527
 10
85.2271466944
 20
82.2058021755
 10
85.2343889397
 20
82.2048333194
 10
85.2416616869
 20
82.2040805799
 10
85.2489552118
 20
82.2035449634
 10
85.2562597625
 20
82.203227186
  0
LINE
  5
24D
100
AcDbEntity
  8
RACCORDO
100
AcDbLine
 62
253
  6
CONTINUOUS
 10
85.1815022628
 20
128.4926318628
 11
85.1835360419
 21
128.4588652361
  0
LWPOLYLINE
  5
24E
100
AcDbEntity
  8
RACCORDO
100
AcDbPolyline
 62
253
  6
CONTINUOUS
 90
10
 70
0
 10
84.1354906226
 20
130.1762435442
 10
84.1364851957
 20
130.1588895104
 10
84.1375278209
 20
130.1420637071
 10
84.1385867617
 20
130.1262782984
 10
84.1396297848
 20
130.1120137796
 10
84.1406251413
 20
130.0997043513
 10
84.1415425333
 20
130.0897247028
 10
84.1423540363
 20
130.0823786066
 10
84.1430349486
 20
130.077889672
 10
84.1435645439
 20
130.0763945387
  0
LWPOLYLINE
  5
24F
100
AcDbEntity
  8
RACCORDO
100
AcDbPolyline
 62
253
  6
CONTINUOUS
 90
3
 70
0
 10
85.1791812818
 20
128.5348000643
 10
85.1795549329
 20
128.5277202249
 10
85.1815022628
 20
128.4926318628
  0
LINE
  5
250
100
AcDbEntity
  8
RACCORDO
100
AcDbLine
 62
253
  6
CONTINUOUS
 10
84.1550061467
 20
129.6267311982
 11
84.1530905416
 21
129.6634174526
  0
LINE
  5
251
100
AcDbEntity
  8
RACCORDO
100
AcDbLine
 62
253
  6
CONTINUOUS
 10
84.1530905416
 20
129.6634174526
 11
84.1514152622
 21
129.6988550131
  0
LINE
  5
252
100
AcDbEntity
  8
RACCORDO
100
AcDbLine
 62
253
  6
CONTINUOUS
 10
84.1514152622
 20
129.6988550131
 11
84.1502867177
 21
129.7254929533
  0
LINE
  5
253
100
AcDbEntity
  8
RACCORDO
100
AcDbLine
 62
253
  6
CONTINUOUS
 10
84.1502867177
 20
129.7254929533
 11
84.1493732797
 21
129.7499772893
  0
LINE
  5
254
100
AcDbEntity
  8
RACCORDO
100
AcDbLine
 62
253
  6
CONTINUOUS
 10
84.1493732797
 20
129.7499772893
 11
84.1488415362
 21
129.7666039595
  0
LINE
  5
255
100
AcDbEntity
  8
RACCORDO
100
AcDbLine
 62
253
  6
CONTINUOUS
 10
84.1488415362
 20
129.7666039595
 11
84.1484486272
 21
129.7815135965
  0
LWPOLYLINE
  5
256
100
AcDbEntity
  8
RACCORDO
100
AcDbPolyline
 62
253
  6
CONTINUOUS
 90
46
 70
0
 10
85.0767606375
 20
82.4941739032
 10
85.0769009409
 20
82.487215687
 10
85.0772835618
 20
82.4802659187
 10
85.0779080357
 20
82.4733330364
 10
85.0787736044
 20
82.466425457
 10
85.079879217
 20
82.4595515672
 10
85.0812235311
 20
82.4527197126
 10
85.0828049147
 20
82.4459381877
 10
85.0846214478
 20
82.439215226
 10
85.0866709248
 20
82.4325589899
 10
85.0889508575
 20
82.4259775607
 10
85.0914584779
 20
82.419478929
 10
85.0941907414
 20
82.4130709847
 10
85.0971443308
 20
82.4067615078
 10
85.1003156601
 20
82.4005581587
 10
85.1037008789
 20
82.3944684687
 10
85.1072958773
 20
82.3884998315
 10
85.1110962905
 20
82.3826594935
 10
85.1150975045
 20
82.3769545456
 10
85.1192946614
 20
82.3713919141
 10
85.1236826654
 20
82.3659783527
 10
85.128256189
 20
82.3607204338
 10
85.1330096794
 20
82.3556245413
 10
85.1379373655
 20
82.350696862
 10
85.1430332645
 20
82.3459433786
 10
85.1482911895
 20
82.3413698624
 10
85.1537047567
 20
82.336981866
 10
85.1592673937
 20
82.3327847169
 10
85.1649723467
 20
82.328783511
 10
85.1708126894
 20
82.324983106
 10
85.1767813309
 20
82.3213881161
 10
85.1828710248
 20
82.3180029058
 10
85.1890743776
 20
82.3148315854
 10
85.1953838576
 20
82.3118780049
 10
85.2017918047
 20
82.3091457504
 10
85.2082904387
 20
82.3066381391
 10
85.2148718699
 20
82.3043582155
 10
85.2215281075
 20
82.3023087477
 10
85.2282510704
 20
82.3004922239
 10
85.235032596
 20
82.2989108495
 10
85.2418644553
 20
82.2975665438
 10
85.2487383494
 20
82.29646094
 10
85.2556459195
 20
82.2955953816
 10
85.2625787746
 20
82.2949709186
 10
85.2695285019
 20
82.2945883071
 10
85.2764866635
 20
82.2944480103
  0
LINE
  5
257
100
AcDbEntity
  8
RACCORDO
100
AcDbLine
 62
253
  6
CONTINUOUS
 10
84.1484486272
 20
129.7815135965
 11
84.1482662719
 21
129.7904081269
  0
LINE
  5
258
100
AcDbEntity
  8
RACCORDO
100
AcDbLine
 62
253
  6
CONTINUOUS
 10
84.1482662719
 20
129.7904081269
 11
84.1481487962
 21
129.7984091512
  0
LWPOLYLINE
  5
259
100
AcDbEntity
  8
RACCORDO
100
AcDbPolyline
 62
253
  6
CONTINUOUS
 90
67
 70
0
 10
83.2039597914
 20
80.9151327096
 10
83.2042247944
 20
80.8921732357
 10
83.2050170019
 20
80.8692267661
 10
83.2063359531
 20
80.8463053922
 10
83.2081808904
 20
80.8234213715
 10
83.210550809
 20
80.8005865778
 10
83.2134444987
 20
80.7778124996
 10
83.216860467
 20
80.75511091
 10
83.220796882
 20
80.7324939993
 10
83.22525164
 20
80.7099738272
 10
83.230222361
 20
80.6875623406
 10
83.2357064267
 20
80.6652712631
 10
83.2417009669
 20
80.6431122323
 10
83.2482028214
 20
80.6210969117
 10
83.2552085546
 20
80.5992369128
 10
83.2627144954
 20
80.5775436855
 10
83.2707166921
 20
80.5560286526
 10
83.2792109242
 20
80.5347031608
 10
83.2881927328
 20
80.5135784071
 10
83.2976573864
 20
80.4926655299
 10
83.3075999019
 20
80.4719755468
 10
83.3180150678
 20
80.4515193098
 10
83.3288974016
 20
80.4313076064
 10
83.3402411765
 20
80.4113510887
 10
83.3520404535
 20
80.3916602174
 10
83.3642890283
 20
80.3722453739
 10
83.3769804548
 20
80.3531168008
 10
83.3901080827
 20
80.334284537
 10
83.4036650101
 20
80.315758517
 10
83.4176441046
 20
80.2975485173
 10
83.4320380369
 20
80.2796641033
 10
83.4468392385
 20
80.2621147154
 10
83.4620399241
 20
80.2449096181
 10
83.4776321225
 20
80.2280578526
 10
83.4936076363
 20
80.2115683185
 10
83.5099580614
 20
80.1954497271
 10
83.5266748181
 20
80.1797105565
 10
83.5437491183
 20
80.1643591228
 10
83.5611719778
 20
80.1494035431
 10
83.5789342424
 20
80.1348516955
 10
83.5970265699
 20
80.1207112762
 10
83.6154394413
 20
80.1069897655
 10
83.6341631772
 20
80.0936943966
 10
83.6531879258
 20
80.0808322081
 10
83.6725036769
 20
80.0684100089
 10
83.6921002759
 20
80.0564343498
 10
83.7119674166
 20
80.0449115733
 10
83.7320946362
 20
80.0338477902
 10
83.7524713311
 20
80.0232488491
 10
83.7730867845
 20
80.013120368
 10
83.7939301333
 20
80.003467726
 10
83.814990364
 20
79.9942960416
 10
83.8362563778
 20
79.9856101879
 10
83.8577169827
 20
79.9774147751
 10
83.8793608601
 20
79.9697141413
 10
83.9011765988
 20
79.9625123859
 10
83.9231527159
 20
79.9558133375
 10
83.9452776487
 20
79.9496205375
 10
83.9675398152
 20
79.943937272
 10
83.9899274102
 20
79.9387665977
 10
84.0124284244
 20
79.9341112989
 10
84.0350307917
 20
79.9299738916
 10
84.0577227994
 20
79.9263565387
 10
84.0804928889
 20
79.9232611015
 10
84.103329194
 20
79.9206892467
 10
84.1262195417
 20
79.9186424131
 10
84.1491518635
 20
79.9171217354
  0
LWPOLYLINE
  5
25A
100
AcDbEntity
  8
RACCORDO
100
AcDbPolyline
 62
253
  6
CONTINUOUS
 90
67
 70
0
 10
83.3987354377
 20
80.9151327096
 10
83.3989468862
 20
80.8967577122
 10
83.399579118
 20
80.8784099308
 10
83.4006321329
 20
80.8600893653
 10
83.4021069405
 20
80.8417856665
 10
83.4040025313
 20
80.8235091836
 10
83.4063158769
 20
80.8052909643
 10
83.4090476313
 20
80.7871318172
 10
83.4121971405
 20
80.7690309337
 10
83.415759414
 20
80.7510169356
 10
83.4197351011
 20
80.7330899941
 10
83.4241235526
 20
80.7152499379
 10
83.4289178306
 20
80.6975248756
 10
83.4341185693
 20
80.6799149855
 10
83.4397251346
 20
80.6624200891
 10
83.4457286873
 20
80.6450677597
 10
83.4521298546
 20
80.6278582119
 10
83.4589280094
 20
80.6107912309
 10
83.466112431
 20
80.5938937461
 10
83.4736837248
 20
80.5771660273
 10
83.4816412855
 20
80.5606078046
 10
83.4899725764
 20
80.5442451982
 10
83.4986781834
 20
80.5280785167
 10
83.5077575207
 20
80.5121074515
 10
83.5171962941
 20
80.4963571972
 10
83.5269950702
 20
80.4808280966
 10
83.5371532827
 20
80.4655198068
 10
83.5476549378
 20
80.4504564937
 10
83.5585005775
 20
80.4356385393
 10
83.56968966
 20
80.4210655616
 10
83.5812045666
 20
80.4067605799
 10
83.5930458111
 20
80.3927240139
 10
83.6052128798
 20
80.3789554439
 10
83.617686613
 20
80.3654766302
 10
83.6304674957
 20
80.3522880257
 10
83.6435550431
 20
80.3393891774
 10
83.6569286402
 20
80.3268004864
 10
83.6705887474
 20
80.3145224336
 10
83.6845349045
 20
80.302554538
 10
83.6987451155
 20
80.290915759
 10
83.7132197987
 20
80.2796066156
 10
83.7279585361
 20
80.2686265888
 10
83.7429380767
 20
80.2579930797
 10
83.758158798
 20
80.2477066371
 10
83.7736203228
 20
80.2377667124
 10
83.7892982679
 20
80.2281890608
 10
83.8051929821
 20
80.2189742501
 10
83.8213041168
 20
80.2101217125
 10
83.8376062429
 20
80.2016455008
 10
83.8540996729
 20
80.1935462056
 10
83.8707840943
 20
80.1858232364
 10
83.8876331408
 20
80.1784888741
 10
83.9046470676
 20
80.1715437369
 10
83.9218256197
 20
80.1649872067
 10
83.9391416652
 20
80.1588297104
 10
83.9565954213
 20
80.1530718769
 10
83.9741866711
 20
80.1477130773
 10
83.9918876306
 20
80.1427618518
 10
84.0096985111
 20
80.1382188433
 10
84.0276191016
 20
80.1340834091
 10
84.0456209856
 20
80.1303621608
 10
84.0637049307
 20
80.1270557199
 10
84.0818701695
 20
80.124163465
 10
84.1000859824
 20
80.1216901441
 10
84.1183421296
 20
80.1196373398
 10
84.136648851
 20
80.1180034695
 10
84.1550061467
 20
80.1167885331
  0
LWPOLYLINE
  5
25B
100
AcDbEntity
  8
RACCORDO
100
AcDbPolyline
 62
253
  6
CONTINUOUS
 90
55
 70
0
 10
85.0072697376
 20
128.0536416585
 10
85.0071789706
 20
128.0641558653
 10
85.0072971028
 20
128.0746111659
 10
85.0076218612
 20
128.0850021839
 10
85.0081504976
 20
128.0953299035
 10
85.0088806844
 20
128.1055828939
 10
85.0098102525
 20
128.115737346
 10
85.0109360074
 20
128.125788081
 10
85.0122544724
 20
128.1357306088
 10
85.0137622952
 20
128.145542434
 10
85.0154557723
 20
128.1552198332
 10
85.0173305393
 20
128.1647578147
 10
85.0193812954
 20
128.1741324054
 10
85.0216034708
 20
128.1833398056
 10
85.0239919017
 20
128.1923763842
 10
85.0265391792
 20
128.2012190572
 10
85.029239328
 20
128.2098627133
 10
85.0320869376
 20
128.2183066795
 10
85.0350744355
 20
128.2265352345
 10
85.0381949605
 20
128.2345433089
 10
85.0414431673
 20
128.2423318138
 10
85.0448134222
 20
128.249894483
 10
85.0482995636
 20
128.2572287643
 10
85.0518957794
 20
128.2643342479
 10
85.0555970971
 20
128.2712081244
 10
85.0593978785
 20
128.2778490627
 10
85.0632922425
 20
128.2842564554
 10
85.0672750427
 20
128.2904287709
 10
85.0713404563
 20
128.2963646436
 10
85.0754832285
 20
128.3020645009
 10
85.0796992994
 20
128.3075296291
 10
85.0839839676
 20
128.3127601076
 10
85.088331544
 20
128.3177556357
 10
85.0927366915
 20
128.3225170711
 10
85.0971950555
 20
128.3270448085
 10
85.1017011139
 20
128.3313390895
 10
85.1062478188
 20
128.3354008877
 10
85.1108300755
 20
128.3392302209
 10
85.1154435253
 20
128.342828772
 10
85.1200822661
 20
128.346200395
 10
85.124741714
 20
128.3493458156
 10
85.1294176665
 20
128.3522668013
 10
85.1341049284
 20
128.3549690326
 10
85.1387992578
 20
128.3574536658
 10
85.1434968686
 20
128.3597226832
 10
85.148193431
 20
128.3617831801
 10
85.1528851946
 20
128.3636367027
 10
85.1575686985
 20
128.3652853179
 10
85.1622402532
 20
128.3667370047
 10
85.1668951768
 20
128.367993362
 10
85.1715317562
 20
128.3690568069
 10
85.1761510034
 20
128.3699363604
 10
85.1807514272
 20
128.3706361622
 10
85.185328987
 20
128.3711557528
 10
85.1898810885
 20
128.3714970619
  0
LWPOLYLINE
  5
25C
100
AcDbEntity
  8
RACCORDO
100
AcDbPolyline
 62
253
  6
CONTINUOUS
 90
14
 70
0
 10
84.1481487962
 20
129.7984091512
 10
84.1480968415
 20
129.8054729921
 10
84.1480955371
 20
129.8086412125
 10
84.1481106913
 20
129.8115610882
 10
84.1481422833
 20
129.814228633
 10
84.14819027
 20
129.816640205
 10
84.148254586
 20
129.818792512
 10
84.1483351433
 20
129.8206826157
 10
84.1484318321
 20
129.8223079357
 10
84.1485445203
 20
129.823666253
 10
84.148673054
 20
129.8247557133
 10
84.1488172579
 20
129.8255748293
 10
84.148976935
 20
129.8261224827
 10
84.1491518673
 20
129.8263979258
  0
LINE
  5
25D
100
AcDbEntity
  8
RACCORDO
100
AcDbLine
 62
253
  6
CONTINUOUS
 10
83.0014627312
 20
80.7654593333
 11
83.0014627312
 21
128.978060398
  0
LINE
  5
25E
100
AcDbEntity
  8
RACCORDO
100
AcDbLine
 62
7
  6
CONTINUOUS
 10
83.1040724928
 20
80.7654593333
 11
83.1040724928
 21
128.978060398
  0
LINE
  5
25F
100
AcDbEntity
  8
RACCORDO
100
AcDbLine
 62
7
  6
CONTINUOUS
 10
83.1496738739
 20
128.8797637766
 11
83.1496738739
 21
80.8637559546
  0
LINE
  5
260
100
AcDbEntity
  8
RACCORDO
100
AcDbLine
 62
253
  6
CONTINUOUS
 10
83.2039597914
 20
128.8283870216
 11
83.2039597914
 21
80.9151327096
  0
LINE
  5
261
100
AcDbEntity
  8
RACCORDO
100
AcDbLine
 62
253
  6
CONTINUOUS
 10
83.3987354377
 20
128.8283870216
 11
83.3987354377
 21
80.9151327096
  0
LINE
  5
262
100
AcDbEntity
  8
RACCORDO
100
AcDbLine
 62
253
  6
CONTINUOUS
 10
84.8024404995
 20
81.6898780727
 11
84.8024404995
 21
128.0536416585
  0
LINE
  5
263
100
AcDbEntity
  8
RACCORDO
100
AcDbLine
 62
253
  6
CONTINUOUS
 10
85.0072697376
 20
81.6898780727
 11
85.0072697376
 21
128.0536416585
  0
LINE
  5
264
100
AcDbEntity
  8
RACCORDO
100
AcDbLine
 62
7
  6
CONTINUOUS
 10
85.1540724928
 20
82.5714857724
 11
85.1540724928
 21
127.1720339591
  0
LWPOLYLINE
  5
265
100
AcDbEntity
  8
RACCORDO
100
AcDbPolyline
 62
253
  6
CONTINUOUS
 90
13
 70
0
 10
84.1480968378
 20
79.9380466784
 10
84.1480955334
 20
79.9348784566
 10
84.1481106875
 20
79.9319585797
 10
84.1481422795
 20
79.9292910338
 10
84.1481902662
 20
79.9268794607
 10
84.1482545821
 20
79.9247271528
 10
84.1483351394
 20
79.9228370483
 10
84.1484318282
 20
79.9212117276
 10
84.1485445164
 20
79.9198534097
 10
84.1486730501
 20
79.9187639488
 10
84.148817254
 20
79.9179448325
 10
84.1489769311
 20
79.9173971788
 10
84.1491518635
 20
79.9171217356
  0
LINE
  5
266
100
AcDbEntity
  8
RACCORDO
100
AcDbLine
 62
253
  6
CONTINUOUS
 10
84.1481487926
 20
79.9451105222
 11
84.1480968378
 21
79.9380466784
  0
LWPOLYLINE
  5
267
100
AcDbEntity
  8
RACCORDO
100
AcDbPolyline
 62
7
  6
CONTINUOUS
 90
67
 70
0
 10
83.1496738739
 20
128.8797637849
 10
83.1499376779
 20
128.9027237693
 10
83.1507274948
 20
128.9256523377
 10
83.1520433247
 20
128.9485494903
 10
83.1538866971
 20
128.9714303399
 10
83.1562560827
 20
128.9942797735
 10
83.1591468925
 20
129.0170524527
 10
83.1625592018
 20
129.0397424823
 10
83.1664929355
 20
129.0623557574
 10
83.1709432791
 20
129.0848646251
 10
83.1759122181
 20
129.1072743954
 10
83.1813977673
 20
129.1295797582
 10
83.1873891564
 20
129.1517371301
 10
83.1938853816
 20
129.1737402005
 10
83.2008874471
 20
129.19559528
 10
83.2083875948
 20
129.2172777167
 10
83.2163891622
 20
129.2387941632
 10
83.2248888121
 20
129.2601379669
 10
83.2338687745
 20
129.2812645187
 10
83.2433266543
 20
129.3021662931
 10
83.2532648467
 20
129.3228508156
 10
83.2636727672
 20
129.3432960533
 10
83.2745545571
 20
129.3635082465
 10
83.2859060754
 20
129.3834811548
 10
83.2977043145
 20
129.403174025
 10
83.3099466934
 20
129.4225809113
 10
83.3226357933
 20
129.4417077595
 10
83.3357563495
 20
129.4605316534
 10
83.3493116932
 20
129.4790560742
 10
83.3632984934
 20
129.4972775407
 10
83.3776914919
 20
129.515162694
 10
83.3924899001
 20
129.5327089965
 10
83.4076945068
 20
129.5499189856
 10
83.4232824203
 20
129.5667669152
 10
83.4392540329
 20
129.5832522562
 10
83.4556089526
 20
129.5993755377
 10
83.4723231108
 20
129.6151126011
 10
83.4893991558
 20
129.6304645229
 10
83.5068344398
 20
129.6454302266
 10
83.5245969496
 20
129.6599823242
 10
83.5426833224
 20
129.6741172307
 10
83.5610969214
 20
129.6878385312
 10
83.5798158228
 20
129.701129592
 10
83.5988458544
 20
129.7139933371
 10
83.6181811887
 20
129.7264268427
 10
83.6377824185
 20
129.7384047033
 10
83.6576436183
 20
129.7499224732
 10
83.6777707138
 20
129.7609845982
 10
83.6981420751
 20
129.7715790101
 10
83.7187649537
 20
129.7817084409
 10
83.7396320983
 20
129.7913701588
 10
83.760700124
 20
129.8005438995
 10
83.7819628217
 20
129.8092260542
 10
83.8034264008
 20
129.8174202317
 10
83.825066104
 20
129.8251169954
 10
83.8468879122
 20
129.8323175871
 10
83.8688858447
 20
129.8390207649
 10
83.8910172019
 20
129.8452133663
 10
83.9132770437
 20
129.8508931778
 10
83.9356703104
 20
129.8560624128
 10
83.9581691226
 20
129.8607145498
 10
83.980779223
 20
129.8648497837
 10
84.0034948692
 20
129.8684679195
 10
84.0262709543
 20
129.8715618505
 10
84.0490924427
 20
129.8741292077
 10
84.0719743701
 20
129.8761723601
 10
84.0949167366
 20
129.8776913076
  0
LWPOLYLINE
  5
268
100
AcDbEntity
  8
RACCORDO
100
AcDbPolyline
 62
253
  6
CONTINUOUS
 90
55
 70
0
 10
84.8024404995
 20
128.0536416585
 10
84.8026564767
 20
128.0694515215
 10
84.8032776918
 20
128.0851610541
 10
84.804304145
 20
128.1007702563
 10
84.8057416295
 20
128.1162961339
 10
84.8075843521
 20
128.1317216811
 10
84.8098149331
 20
128.1469958804
 10
84.8124351258
 20
128.1621176712
 10
84.8154431769
 20
128.1770881141
 10
84.8188164472
 20
128.1918593736
 10
84.8225572703
 20
128.2064316535
 10
84.8266633126
 20
128.22080475
 10
84.831104934
 20
128.2349302165
 10
84.8358845777
 20
128.2488068964
 10
84.8409998006
 20
128.2624359464
 10
84.846413634
 20
128.2757723901
 10
84.8521268659
 20
128.2888117449
 10
84.8581387085
 20
128.3015584934
 10
84.8644098286
 20
128.313981107
 10
84.8709390103
 20
128.326074132
 10
84.8777274697
 20
128.337843022
 10
84.8847395217
 20
128.3492726099
 10
84.8919744723
 20
128.3603605922
 10
84.8994330156
 20
128.3711092722
 10
84.9070815497
 20
128.3815103935
 10
84.9149198651
 20
128.3915628074
 10
84.9229481712
 20
128.4012676625
 10
84.9311334948
 20
128.410620148
 10
84.9394746953
 20
128.4196184055
 10
84.9479729133
 20
128.4282642934
 10
84.9565985962
 20
128.4365585766
 10
84.9653522027
 20
128.4445010694
 10
84.9742332741
 20
128.4520919574
 10
84.9832108817
 20
128.4593325626
 10
84.992285826
 20
128.466222359
 10
85.0014573065
 20
128.4727618726
 10
85.010691993
 20
128.4789540032
 10
85.0199887014
 20
128.4847968378
 10
85.0293486158
 20
128.4902922895
 10
85.0387419582
 20
128.4954489976
 10
85.0481677554
 20
128.5002656773
 10
85.0576269807
 20
128.5047436133
 10
85.0670927757
 20
128.508895299
 10
85.0765640128
 20
128.512719732
 10
85.0860418197
 20
128.5162179148
 10
85.0955027217
 20
128.5194053476
 10
85.1049457362
 20
128.5222813757
 10
85.1143718457
 20
128.524846654
 10
85.1237605232
 20
128.5271186474
 10
85.1331080443
 20
128.5290967518
 10
85.1424181333
 20
128.5307815713
 10
85.1516814369
 20
128.5321923845
 10
85.1608948373
 20
128.5333356175
 10
85.1700614522
 20
128.5342048441
 10
85.1791812816
 20
128.5348000643
  0
LINE
  5
269
100
AcDbEntity
  8
RACCORDO
100
AcDbLine
 62
253
  6
CONTINUOUS
 10
84.1482662684
 20
79.9531115498
 11
84.1481487926
 21
79.9451105222
  0
LWPOLYLINE
  5
26A
100
AcDbEntity
  8
RACCORDO
100
AcDbPolyline
 62
253
  6
CONTINUOUS
 90
5
 70
0
 10
83.0014627312
 20
128.978060398
 10
83.0025195129
 20
129.0284397149
 10
83.0056781102
 20
129.078605469
 10
83.0109385233
 20
129.1285576603
 10
83.0183135266
 20
129.1783912914
  0
LINE
  5
26B
100
AcDbEntity
  8
RACCORDO
100
AcDbLine
 62
253
  6
CONTINUOUS
 10
84.1484486239
 20
79.9620060839
 11
84.1482662684
 21
79.9531115498
  0
LINE
  5
26C
100
AcDbEntity
  8
RACCORDO
100
AcDbLine
 62
253
  6
CONTINUOUS
 10
84.1488415333
 20
79.9769157268
 11
84.1484486239
 21
79.9620060839
  0
LINE
  5
26D
100
AcDbEntity
  8
RACCORDO
100
AcDbLine
 62
253
  6
CONTINUOUS
 10
84.1493732771
 20
79.9935424033
 11
84.1488415333
 21
79.9769157268
  0
LINE
  5
26E
100
AcDbEntity
  8
RACCORDO
100
AcDbLine
 62
253
  6
CONTINUOUS
 10
84.1502867156
 20
80.0180267483
 11
84.1493732771
 21
79.9935424033
  0
LINE
  5
26F
100
AcDbEntity
  8
RACCORDO
100
AcDbLine
 62
253
  6
CONTINUOUS
 10
84.1514152606
 20
80.0446646976
 11
84.1502867156
 21
80.0180267483
  0
LINE
  5
270
100
AcDbEntity
  8
RACCORDO
100
AcDbLine
 62
253
  6
CONTINUOUS
 10
84.1530905408
 20
80.080102269
 11
84.1514152606
 21
80.0446646976
  0
LINE
  5
271
100
AcDbEntity
  8
RACCORDO
100
AcDbLine
 62
253
  6
CONTINUOUS
 10
84.1550061467
 20
80.1167885331
 11
84.1530905408
 21
80.080102269
  0
LINE
  5
272
100
AcDbEntity
  8
RACCORDO
100
AcDbLine
 62
253
  6
CONTINUOUS
 10
85.1791812821
 20
81.2087196669
 11
85.1811038761
 21
81.2439411236
  0
LWPOLYLINE
  5
273
100
AcDbEntity
  8
RACCORDO
100
AcDbPolyline
 62
253
  6
CONTINUOUS
 90
10
 70
0
 10
84.1354906195
 20
79.567276187
 10
84.1364851942
 20
79.5846302694
 10
84.1375278218
 20
79.6014561244
 10
84.1385867652
 20
79.6172415832
 10
84.139629791
 20
79.6315061458
 10
84.1406251499
 20
79.6438156076
 10
84.1415425439
 20
79.653795276
 10
84.1423540481
 20
79.6611413759
 10
84.1430349607
 20
79.6656302965
 10
84.1435645552
 20
79.6671253977
  0
LINE
  5
274
100
AcDbEntity
  8
RACCORDO
100
AcDbLine
 62
253
  6
CONTINUOUS
 10
85.1811038761
 20
81.2439411236
 11
85.1831254066
 21
81.2780585863
  0
LINE
  5
275
100
AcDbEntity
  8
RACCORDO
100
AcDbLine
 62
253
  6
CONTINUOUS
 10
85.1831254066
 20
81.2780585863
 11
85.1847713387
 21
81.3038370227
  0
LINE
  5
276
100
AcDbEntity
  8
RACCORDO
100
AcDbLine
 62
253
  6
CONTINUOUS
 10
85.1847713387
 20
81.3038370227
 11
85.1864070098
 21
81.3277055671
  0
LINE
  5
277
100
AcDbEntity
  8
RACCORDO
100
AcDbLine
 62
253
  6
CONTINUOUS
 10
85.1864070098
 20
81.3277055671
 11
85.1876072457
 21
81.3440635828
  0
LINE
  5
278
100
AcDbEntity
  8
RACCORDO
100
AcDbLine
 62
253
  6
CONTINUOUS
 10
85.0581817253
 20
82.3757695663
 11
85.0072697376
 21
81.6898780727
  0
LWPOLYLINE
  5
279
100
AcDbEntity
  8
RACCORDO
100
AcDbPolyline
 62
253
  6
CONTINUOUS
 90
3
 70
0
 10
85.2562597626
 20
82.2032271868
 10
85.2488723446
 20
82.1105124714
 10
85.2414879163
 20
82.0178874897
  0
LWPOLYLINE
  5
27A
100
AcDbEntity
  8
RACCORDO
100
AcDbPolyline
 62
253
  6
CONTINUOUS
 90
4
 70
0
 10
85.2414879163
 20
82.0178874897
 10
85.2267280096
 20
81.832906508
 10
85.2193525307
 20
81.7405504208
 10
85.2119800941
 20
81.6482840249
  0
LWPOLYLINE
  5
27B
100
AcDbEntity
  8
RACCORDO
100
AcDbPolyline
 62
253
  6
CONTINUOUS
 90
3
 70
0
 10
85.2119800941
 20
81.6482840249
 10
85.1972443822
 20
81.4640202159
 10
85.1898810885
 20
81.3720226693
  0
LINE
  5
27C
100
AcDbEntity
  8
RACCORDO
100
AcDbLine
 62
253
  6
CONTINUOUS
 10
85.1876072457
 20
81.3440635828
 11
85.1887696515
 21
81.3588918188
  0
LWPOLYLINE
  5
27D
100
AcDbEntity
  8
RACCORDO
100
AcDbPolyline
 62
253
  6
CONTINUOUS
 90
3
 70
0
 10
85.1887696515
 20
81.3588918188
 10
85.1895170616
 20
81.3678438953
 10
85.1898810886
 20
81.372022673
  0
LWPOLYLINE
  5
27E
100
AcDbEntity
  8
RACCORDO
100
AcDbPolyline
 62
253
  6
CONTINUOUS
 90
7
 70
0
 10
83.0183135266
 20
129.1783912914
 10
83.0277903465
 20
129.2280113597
 10
83.0393306607
 20
129.2771328572
 10
83.0529493763
 20
129.3257538585
 10
83.0686315876
 20
129.373876289
 10
83.0862942533
 20
129.4212209173
 10
83.1059494116
 20
129.4677794558
  0
LWPOLYLINE
  5
27F
100
AcDbEntity
  8
RACCORDO
100
AcDbPolyline
 62
253
  6
CONTINUOUS
 90
17
 70
0
 10
83.1059494116
 20
129.4677794558
 10
83.1275850262
 20
129.513560192
 10
83.1510819442
 20
129.5583087574
 10
83.1764464189
 20
129.6020129128
 10
83.2036721993
 20
129.6446848974
 10
83.2326213761
 20
129.6861070597
 10
83.2632991069
 20
129.7262718966
 10
83.2957002366
 20
129.7651869112
 10
83.3296713872
 20
129.8026569618
 10
83.3652243999
 20
129.8386808392
 10
83.4023474363
 20
129.8732597527
 10
83.4408515984
 20
129.9062021875
 10
83.4807445571
 20
129.9375000947
 10
83.5220186441
 20
129.9671615232
 10
83.5644619524
 20
129.9950191053
 10
83.6081800797
 20
130.0210951612
 10
83.6530674308
 20
130.0453673707
  0
LWPOLYLINE
  5
280
100
AcDbEntity
  8
RACCORDO
100
AcDbPolyline
 62
253
  6
CONTINUOUS
 90
11
 70
0
 10
83.1063021811
 20
80.2749572212
 10
83.0865486432
 20
80.3216592323
 10
83.0688089063
 20
80.3691362056
 10
83.0530667744
 20
80.4173835517
 10
83.0394016546
 20
80.4661113888
 10
83.0278298022
 20
80.5153167796
 10
83.0183349605
 20
80.5650026615
 10
83.0109477689
 20
80.6148879648
 10
83.0056784403
 20
80.6648789996
 10
83.0025167611
 20
80.7150694557
 10
83.0014627312
 20
80.7654593333
  0
LINE
  5
281
100
AcDbEntity
  8
DRAFT
100
AcDbLine
 62
7
  6
CONTINUOUS
 10
93.4813488875
 20
130.5478738951
 11
93.4813488875
 21
130.3606260798
  0
LINE
  5
282
100
AcDbEntity
  8
DRAFT
100
AcDbLine
 62
7
  6
CONTINUOUS
 10
93.4813488875
 20
79.3828936514
 11
93.4813488875
 21
79.1956458765
  0
LWPOLYLINE
  5
283
100
AcDbEntity
  8
RACCORDO
100
AcDbPolyline
 62
253
  6
CONTINUOUS
 90
23
 70
0
 10
85.0767606375
 20
82.4941739032
 10
85.0758988196
 20
82.4931170708
 10
85.0750396793
 20
82.4916773864
 10
85.0741832167
 20
82.4898548502
 10
85.0733290191
 20
82.4876480544
 10
85.0724774992
 20
82.4850584068
 10
85.0716298951
 20
82.4820901299
 10
85.0707862152
 20
82.4787429258
 10
85.0699464511
 20
82.4750170925
 10
85.0691118152
 20
82.4709177469
 10
85.0682822912
 20
82.4664444262
 10
85.0674578953
 20
82.4615975933
 10
85.066639889
 20
82.4563837534
 10
85.0658281531
 20
82.450801277
 10
85.0650228069
 20
82.4448517936
 10
85.0642254695
 20
82.4385466964
 10
85.0634361165
 20
82.4318843376
 10
85.0626547723
 20
82.424866365
 10
85.0618831293
 20
82.4175091157
 10
85.0611211868
 20
82.4098107941
 10
85.0603689455
 20
82.4017731959
 10
85.0596280999
 20
82.3934180447
 10
85.0581817253
 20
82.3757695663
  0
LWPOLYLINE
  5
284
100
AcDbEntity
  8
RACCORDO
100
AcDbPolyline
 62
253
  6
CONTINUOUS
 90
11
 70
0
 10
83.6530674308
 20
130.0453673707
 10
83.6985953086
 20
130.0676014052
 10
83.7446163853
 20
130.0877067588
 10
83.79127799
 20
130.1057739375
 10
83.8384934106
 20
130.1218401308
 10
83.8861504866
 20
130.1359194918
 10
83.9343613796
 20
130.1479978674
 10
83.9833758611
 20
130.1580699875
 10
84.0332771888
 20
130.1661340953
 10
84.0839821069
 20
130.1721919475
 10
84.1354906165
 20
130.1762435442
  0
LWPOLYLINE
  5
285
100
AcDbEntity
  8
RACCORDO
100
AcDbPolyline
 62
253
  6
CONTINUOUS
 90
17
 70
0
 10
83.6528094216
 20
79.6982488842
 10
83.6083275869
 20
79.7223151245
 10
83.5649739896
 20
79.7481801006
 10
83.5227610384
 20
79.7758493483
 10
83.4816763221
 20
79.8053173318
 10
83.4419290235
 20
79.8364356199
 10
83.4035267657
 20
79.8692089907
 10
83.366461923
 20
79.9036326663
 10
83.3309208033
 20
79.939543882
 10
83.2969051651
 20
79.9769544409
 10
83.2644132474
 20
80.0158525401
 10
83.2336260789
 20
80.056040006
 10
83.2045490442
 20
80.097531741
 10
83.1771767563
 20
80.1403128428
 10
83.1516740862
 20
80.1841404309
 10
83.1280533259
 20
80.2290255829
 10
83.1063021811
 20
80.2749572212
  0
LWPOLYLINE
  5
286
100
AcDbEntity
  8
RACCORDO
100
AcDbPolyline
 62
253
  6
CONTINUOUS
 90
22
 70
0
 10
85.0767606272
 20
127.2493458627
 10
85.0758987992
 20
127.2504026944
 10
85.0750396345
 20
127.2518424485
 10
85.0741831333
 20
127.2536651251
 10
85.0733288889
 20
127.2558720786
 10
85.072477308
 20
127.2584619547
 10
85.0716296104
 20
127.2614306897
 10
85.0707857954
 20
127.2647786074
 10
85.0699458639
 20
127.2685053841
 10
85.069111038
 20
127.2726059848
 10
85.0682812941
 20
127.2770809483
 10
85.0674566559
 20
127.2819297359
 10
85.0666384172
 20
127.2871456965
 10
85.0658264511
 20
127.2927306007
 10
85.0650208846
 20
127.2986826781
 10
85.0642233921
 20
127.3049899658
 10
85.0634339653
 20
127.3116540519
 10
85.0626526126
 20
127.3186733483
 10
85.0618810328
 20
127.3260311289
 10
85.0611192205
 20
127.3337292896
 10
85.060367181
 20
127.3417659344
 10
85.0596266302
 20
127.3501186492
  0
LINE
  5
287
100
AcDbEntity
  8
RACCORDO
100
AcDbLine
 62
253
  6
CONTINUOUS
 10
85.1540724928
 20
82.5714857724
 11
85.0767606375
 21
82.4941739032
  0
LINE
  5
288
100
AcDbEntity
  8
RACCORDO
100
AcDbLine
 62
253
  6
CONTINUOUS
 10
85.353798401
 20
82.3717598656
 11
85.2764866635
 21
82.2944480103
  0
LINE
  5
289
100
AcDbEntity
  8
RACCORDO
100
AcDbLine
 62
253
  6
CONTINUOUS
 10
83.2039597914
 20
80.9151327096
 11
83.1496738739
 21
80.8637559546
  0
LINE
  5
28A
100
AcDbEntity
  8
RACCORDO
100
AcDbLine
 62
253
  6
CONTINUOUS
 10
84.1491518635
 20
79.9171217354
 11
84.094916774
 21
79.8658284216
  0
LWPOLYLINE
  5
28B
100
AcDbEntity
  8
RACCORDO
100
AcDbPolyline
 62
253
  6
CONTINUOUS
 90
25
 70
0
 10
85.2764867825
 20
82.2944479824
 10
85.2755835634
 20
82.2936945459
 10
85.2746832031
 20
82.2926659302
 10
85.2737856447
 20
82.2913629038
 10
85.2728903429
 20
82.2897865105
 10
85.2719977292
 20
82.2879377349
 10
85.2711092116
 20
82.2858173045
 10
85.270224743
 20
82.2834264114
 10
85.2693442574
 20
82.2807663926
 10
85.2684691339
 20
82.2778380612
 10
85.2675992962
 20
82.2746427852
 10
85.2667347079
 20
82.2711822487
 10
85.2658768079
 20
82.2674576745
 10
85.2650254167
 20
82.2634701961
 10
85.2641806016
 20
82.2592223362
 10
85.2633441725
 20
82.2547177796
 10
85.2625160494
 20
82.2499586893
 10
85.2616962037
 20
82.2449480087
 10
85.2608865251
 20
82.2396914827
 10
85.260086996
 20
82.2341923759
 10
85.259297532
 20
82.228454187
 10
85.2585199266
 20
82.2224840338
 10
85.2577547474
 20
82.2162872421
 10
85.2570013339
 20
82.2098668765
 10
85.2562596409
 20
82.2032272398
  0
LWPOLYLINE
  5
28C
100
AcDbEntity
  8
RACCORDO
100
AcDbPolyline
 62
253
  6
CONTINUOUS
 90
67
 70
0
 10
243.6589931222
 20
79.9171217354
 10
243.681925444
 20
79.9186424131
 10
243.7048157917
 20
79.9206892467
 10
243.7276520967
 20
79.9232611015
 10
243.7504221862
 20
79.9263565387
 10
243.773114194
 20
79.9299738916
 10
243.7957165612
 20
79.9341112989
 10
243.8182175754
 20
79.9387665977
 10
243.8406051705
 20
79.943937272
 10
243.8628673369
 20
79.9496205375
 10
243.8849922697
 20
79.9558133375
 10
243.9069683868
 20
79.9625123859
 10
243.9287841255
 20
79.9697141413
 10
243.9504280029
 20
79.9774147751
 10
243.9718886078
 20
79.9856101879
 10
243.9931546217
 20
79.9942960415
 10
244.0142148524
 20
80.003467726
 10
244.0350582012
 20
80.0131203679
 10
244.0556736546
 20
80.023248849
 10
244.0760503495
 20
80.0338477902
 10
244.096177569
 20
80.0449115733
 10
244.1160447097
 20
80.0564343498
 10
244.1356413087
 20
80.0684100089
 10
244.1549570598
 20
80.0808322081
 10
244.1739818085
 20
80.0936943966
 10
244.1927055443
 20
80.1069897654
 10
244.2111184157
 20
80.1207112762
 10
244.2292107433
 20
80.1348516955
 10
244.2469730079
 20
80.149403543
 10
244.2643958673
 20
80.1643591227
 10
244.2814701675
 20
80.1797105564
 10
244.2981869242
 20
80.195449727
 10
244.3145373494
 20
80.2115683185
 10
244.3305128631
 20
80.2280578526
 10
244.3461050616
 20
80.244909618
 10
244.3613057472
 20
80.2621147154
 10
244.3761069487
 20
80.2796641032
 10
244.390500881
 20
80.2975485173
 10
244.4044799756
 20
80.315758517
 10
244.418036903
 20
80.334284537
 10
244.4311645309
 20
80.3531168008
 10
244.4438559574
 20
80.3722453738
 10
244.4561045322
 20
80.3916602173
 10
244.4679038092
 20
80.4113510887
 10
244.4792475841
 20
80.4313076063
 10
244.4901299179
 20
80.4515193098
 10
244.5005450838
 20
80.4719755468
 10
244.5104875993
 20
80.4926655298
 10
244.5199522529
 20
80.5135784071
 10
244.5289340615
 20
80.5347031608
 10
244.5374282936
 20
80.5560286526
 10
244.5454304903
 20
80.5775436854
 10
244.5529364311
 20
80.5992369128
 10
244.5599421643
 20
80.6210969116
 10
244.5664440188
 20
80.6431122322
 10
244.572438559
 20
80.6652712631
 10
244.5779226246
 20
80.6875623406
 10
244.5828933456
 20
80.7099738271
 10
244.5873481037
 20
80.7324939993
 10
244.5912845187
 20
80.7551109099
 10
244.594700487
 20
80.7778124995
 10
244.5975941767
 20
80.8005865777
 10
244.5999640953
 20
80.8234213714
 10
244.6018090326
 20
80.8463053922
 10
244.6031279837
 20
80.8692267661
 10
244.6039201913
 20
80.8921732356
 10
244.6041851943
 20
80.9151327096
  0
LWPOLYLINE
  5
28D
100
AcDbEntity
  8
RACCORDO
100
AcDbPolyline
 62
253
  6
CONTINUOUS
 90
67
 70
0
 10
243.653138839
 20
80.1167885331
 10
243.6714961347
 20
80.1180034695
 10
243.6898028561
 20
80.1196373398
 10
243.7080590033
 20
80.1216901441
 10
243.7262748162
 20
80.124163465
 10
243.744440055
 20
80.1270557199
 10
243.7625240001
 20
80.1303621608
 10
243.7805258841
 20
80.1340834091
 10
243.7984464746
 20
80.1382188433
 10
243.816257355
 20
80.1427618518
 10
243.8339583146
 20
80.1477130773
 10
243.8515495644
 20
80.1530718769
 10
243.8690033205
 20
80.1588297104
 10
243.886319366
 20
80.1649872067
 10
243.9034979181
 20
80.1715437369
 10
243.9205118449
 20
80.1784888741
 10
243.9373608914
 20
80.1858232364
 10
243.9540453128
 20
80.1935462056
 10
243.9705387428
 20
80.2016455008
 10
243.9868408688
 20
80.2101217125
 10
244.0029520036
 20
80.2189742501
 10
244.0188467178
 20
80.2281890608
 10
244.0345246629
 20
80.2377667124
 10
244.0499861876
 20
80.2477066371
 10
244.065206909
 20
80.2579930797
 10
244.0801864496
 20
80.2686265888
 10
244.094925187
 20
80.2796066156
 10
244.1093998702
 20
80.290915759
 10
244.1236100812
 20
80.302554538
 10
244.1375562383
 20
80.3145224336
 10
244.1512163455
 20
80.3268004864
 10
244.1645899426
 20
80.3393891774
 10
244.17767749
 20
80.3522880257
 10
244.1904583727
 20
80.3654766302
 10
244.2029321059
 20
80.3789554439
 10
244.2150991746
 20
80.3927240139
 10
244.2269404191
 20
80.4067605799
 10
244.2384553257
 20
80.4210655616
 10
244.2496444082
 20
80.4356385393
 10
244.2604900479
 20
80.4504564937
 10
244.270991703
 20
80.4655198068
 10
244.2811499155
 20
80.4808280966
 10
244.2909486916
 20
80.4963571972
 10
244.300387465
 20
80.5121074515
 10
244.3094668023
 20
80.5280785167
 10
244.3181724093
 20
80.5442451982
 10
244.3265037002
 20
80.5606078046
 10
244.3344612609
 20
80.5771660273
 10
244.3420325547
 20
80.5938937461
 10
244.3492169763
 20
80.6107912309
 10
244.3560151311
 20
80.6278582119
 10
244.3624162984
 20
80.6450677597
 10
244.3684198511
 20
80.6624200891
 10
244.3740264164
 20
80.6799149855
 10
244.379227155
 20
80.6975248756
 10
244.3840214331
 20
80.7152499379
 10
244.3884098846
 20
80.7330899941
 10
244.3923855716
 20
80.7510169356
 10
244.3959478452
 20
80.7690309337
 10
244.3990973544
 20
80.7871318172
 10
244.4018291088
 20
80.8052909643
 10
244.4041424544
 20
80.8235091836
 10
244.4060380452
 20
80.8417856665
 10
244.4075128528
 20
80.8600893653
 10
244.4085658677
 20
80.8784099308
 10
244.4091980995
 20
80.8967577122
 10
244.409409548
 20
80.9151327096
  0
LINE
  5
28E
100
AcDbEntity
  8
RACCORDO
100
AcDbLine
 62
7
  6
CONTINUOUS
 10
242.6703980836
 20
79.8091863691
 11
243.7132282491
 21
79.8658284236
  0
LWPOLYLINE
  5
28F
100
AcDbEntity
  8
RACCORDO
100
AcDbPolyline
 62
253
  6
CONTINUOUS
 90
13
 70
0
 10
243.6726543692
 20
79.567276187
 10
230.3865301818
 20
78.8964772664
 10
217.0966250574
 20
78.3476301593
 10
203.8031827057
 20
77.9207348657
 10
190.5055943543
 20
77.6157771696
 10
177.2049570448
 20
77.432771287
 10
163.9040738632
 20
77.3717598658
 10
150.6031884247
 20
77.4327713491
 10
137.3025468368
 20
77.6157772938
 10
124.0049559243
 20
77.9207350181
 10
110.7115139747
 20
78.3476302947
 10
97.421610969
 20
78.896477351
 10
84.1354906165
 20
79.567276187
  0
LWPOLYLINE
  5
290
100
AcDbEntity
  8
RACCORDO
100
AcDbPolyline
 62
253
  6
CONTINUOUS
 90
31
 70
0
 10
264.9203654433
 20
62.8717598656
 10
264.9879365327
 20
62.8727924015
 10
265.0571253752
 20
62.8776015296
 10
265.1279319671
 20
62.8861872499
 10
265.2006630592
 20
62.8982987113
 10
265.2750118928
 20
62.9141867649
 10
265.3500582025
 20
62.934603964
 10
265.426048823
 20
62.9597409823
 10
265.5027369157
 20
62.989407146
 10
265.5784617107
 20
63.0237829872
 10
265.6531796883
 20
63.0630662716
 10
265.7269343729
 20
63.1070592335
 10
265.7981955685
 20
63.1553491067
 10
265.8668492694
 20
63.208099101
 10
265.9330094925
 20
63.2651460067
 10
265.9954880814
 20
63.3255874295
 10
266.054147053
 20
63.3895663587
 10
266.1091244049
 20
63.4569398049
 10
266.1596459549
 20
63.5263764053
 10
266.2055401283
 20
63.5980010907
 10
266.2469785137
 20
63.6716889302
 10
266.2837016749
 20
63.7457337689
 10
266.3154891318
 20
63.820139152
 10
266.3425613749
 20
63.8949015343
 10
266.3653204224
 20
63.9683041247
 10
266.3835852579
 20
64.0399587557
 10
266.3975369036
 20
64.1102535949
 10
266.4081204342
 20
64.1786363543
 10
266.4156508751
 20
64.2449229379
 10
266.4198132029
 20
64.3092974417
 10
266.4206074178
 20
64.3717598656
  0
LINE
  5
291
100
AcDbEntity
  8
RACCORDO
100
AcDbLine
 62
7
  6
CONTINUOUS
 10
62.9040724928
 20
62.3717598656
 11
264.9040724928
 21
62.3717598656
  0
LINE
  5
292
100
AcDbEntity
  8
RACCORDO
100
AcDbLine
 62
253
  6
CONTINUOUS
 10
62.8877795424
 20
62.8717598656
 11
264.9203654433
 21
62.8717598656
  0
LINE
  5
293
100
AcDbEntity
  8
RACCORDO
100
AcDbLine
 62
253
  6
CONTINUOUS
 10
61.3875375679
 20
64.3717598656
 11
60.9040724928
 21
64.3717598656
  0
LINE
  5
294
100
AcDbEntity
  8
RACCORDO
100
AcDbLine
 62
253
  6
CONTINUOUS
 10
266.4206074178
 20
64.3717598656
 11
266.9040724928
 21
64.3717598656
  0
LWPOLYLINE
  5
295
100
AcDbEntity
  8
RACCORDO
100
AcDbPolyline
 62
7
  6
CONTINUOUS
 90
10
 70
0
 10
84.0949167365
 20
79.8658284236
 10
85.1377469021
 20
79.8091863691
 10
86.1806042295
 20
79.7532899782
 10
87.2234886011
 20
79.698139251
 10
88.2664001691
 20
79.6437341936
 10
89.309338546
 20
79.5900747999
 10
90.3523028049
 20
79.5371610507
 10
91.3952925584
 20
79.4849929397
 10
92.4383079585
 20
79.4335704733
 10
93.4813488875
 20
79.3828936514
  0
LWPOLYLINE
  5
296
100
AcDbEntity
  8
RACCORDO
100
AcDbPolyline
 62
7
  6
CONTINUOUS
 90
67
 70
0
 10
84.0949167365
 20
79.8658284236
 10
84.0719743701
 20
79.8673473711
 10
84.0490924427
 20
79.8693905235
 10
84.0262709543
 20
79.8719578807
 10
84.0034948692
 20
79.8750518117
 10
83.980779223
 20
79.8786699475
 10
83.9581691226
 20
79.8828051814
 10
83.9356703104
 20
79.8874573184
 10
83.9132770437
 20
79.8926265535
 10
83.8910172019
 20
79.8983063649
 10
83.8688858447
 20
79.9044989663
 10
83.8468879122
 20
79.9112021442
 10
83.825066104
 20
79.9184027359
 10
83.8034264008
 20
79.9260994995
 10
83.7819628217
 20
79.9342936771
 10
83.760700124
 20
79.9429758317
 10
83.7396320983
 20
79.9521495724
 10
83.7187649537
 20
79.9618112903
 10
83.6981420751
 20
79.9719407211
 10
83.6777707138
 20
79.982535133
 10
83.6576436183
 20
79.993597258
 10
83.6377824185
 20
80.0051150279
 10
83.6181811887
 20
80.0170928885
 10
83.5988458544
 20
80.0295263941
 10
83.5798158228
 20
80.0423901392
 10
83.5610969214
 20
80.0556812001
 10
83.5426833224
 20
80.0694025005
 10
83.5245969496
 20
80.083537407
 10
83.5068344398
 20
80.0980895046
 10
83.4893991558
 20
80.1130552083
 10
83.4723231108
 20
80.1284071301
 10
83.4556089526
 20
80.1441441935
 10
83.4392540329
 20
80.160267475
 10
83.4232824203
 20
80.176752816
 10
83.4076945068
 20
80.1936007456
 10
83.3924899001
 20
80.2108107348
 10
83.3776914919
 20
80.2283570372
 10
83.3632984934
 20
80.2462421905
 10
83.3493116932
 20
80.264463657
 10
83.3357563495
 20
80.2829880778
 10
83.3226357933
 20
80.3018119718
 10
83.3099466934
 20
80.3209388199
 10
83.2977043145
 20
80.3403457062
 10
83.2859060754
 20
80.3600385764
 10
83.2745545571
 20
80.3800114848
 10
83.2636727672
 20
80.4002236779
 10
83.2532648467
 20
80.4206689156
 10
83.2433266543
 20
80.4413534381
 10
83.2338687745
 20
80.4622552125
 10
83.2248888121
 20
80.4833817643
 10
83.2163891622
 20
80.504725568
 10
83.2083875948
 20
80.5262420145
 10
83.2008874471
 20
80.5479244512
 10
83.1938853816
 20
80.5697795307
 10
83.1873891564
 20
80.5917826011
 10
83.1813977673
 20
80.613939973
 10
83.1759122181
 20
80.6362453358
 10
83.1709432791
 20
80.6586551061
 10
83.1664929355
 20
80.6811639738
 10
83.1625592018
 20
80.7037772489
 10
83.1591468925
 20
80.7264672785
 10
83.1562560827
 20
80.7492399577
 10
83.1538866971
 20
80.7720893913
 10
83.1520433247
 20
80.7949702409
 10
83.1507274948
 20
80.8178673935
 10
83.1499376779
 20
80.840795962
 10
83.1496738739
 20
80.8637559464
  0
LWPOLYLINE
  5
297
100
AcDbEntity
  8
RACCORDO
100
AcDbPolyline
 62
253
  6
CONTINUOUS
 90
55
 70
0
 10
85.1898810885
 20
81.3720226693
 10
85.1853244172
 20
81.3723641123
 10
85.1807390888
 20
81.3728849906
 10
85.1761277245
 20
81.3735874211
 10
85.1714926504
 20
81.3744714817
 10
85.1668371715
 20
81.3755412215
 10
85.1621655639
 20
81.3768046039
 10
85.1574813941
 20
81.3782635549
 10
85.1527874833
 20
81.3799198604
 10
85.1480871814
 20
81.3817811704
 10
85.1433841241
 20
81.3838493227
 10
85.1386818594
 20
81.3861258818
 10
85.1339838254
 20
81.3886180561
 10
85.1292936359
 20
81.3913278221
 10
85.1246156914
 20
81.3942562481
 10
85.1199548171
 20
81.3974090782
 10
85.115314737
 20
81.4007884318
 10
85.1107005142
 20
81.404394646
 10
85.1061190846
 20
81.4082304808
 10
85.1015753014
 20
81.4122970466
 10
85.0970736326
 20
81.4165947152
 10
85.0926204559
 20
81.421124728
 10
85.0882213852
 20
81.4258870386
 10
85.0838805806
 20
81.4308822173
 10
85.0796023567
 20
81.4361121945
 10
85.0753919373
 20
81.4415772714
 10
85.0712545169
 20
81.4472769813
 10
85.0671945964
 20
81.4532119971
 10
85.063217685
 20
81.4593822912
 10
85.0593292808
 20
81.4657869124
 10
85.0555341049
 20
81.4724250196
 10
85.0518380132
 20
81.4792960437
 10
85.048246685
 20
81.486398652
 10
85.0447648351
 20
81.493730716
 10
85.0413979934
 20
81.5012926361
 10
85.0381527194
 20
81.5090811379
 10
85.0350353533
 20
81.5170883028
 10
85.0320513003
 20
81.5253147931
 10
85.0292072621
 20
81.5337557467
 10
85.0265110427
 20
81.542394399
 10
85.0239681519
 20
81.5512292998
 10
85.0215842265
 20
81.5602560399
 10
85.0193662648
 20
81.569452721
 10
85.0173194291
 20
81.5788154578
 10
85.0154481982
 20
81.5883407148
 10
85.0137575099
 20
81.5980065439
 10
85.0122517185
 20
81.6078085334
 10
85.0109347069
 20
81.6177424571
 10
85.0098098829
 20
81.6277862494
 10
85.0088808171
 20
81.6379355499
 10
85.0081508135
 20
81.6481851021
 10
85.0076221449
 20
81.6585112119
 10
85.0072972488
 20
81.6689024934
 10
85.0071789846
 20
81.6793599055
 10
85.0072697376
 20
81.6898780727
  0
LWPOLYLINE
  5
298
100
AcDbEntity
  8
RACCORDO
100
AcDbPolyline
 62
253
  6
CONTINUOUS
 90
5
 70
0
 10
84.1354906165
 20
79.567276187
 10
84.0853073292
 20
79.5710964319
 10
84.0354518892
 20
79.5769982556
 10
83.9859242961
 20
79.5849816581
 10
83.9366308615
 20
79.5950644921
  0
LWPOLYLINE
  5
299
100
AcDbEntity
  8
RACCORDO
100
AcDbPolyline
 62
253
  6
CONTINUOUS
 90
7
 70
0
 10
83.9366308615
 20
79.5950644921
 10
83.8876652732
 20
79.6072289048
 10
83.8393085952
 20
79.6214213381
 10
83.7915635423
 20
79.6376564264
 10
83.7444273983
 20
79.6559195351
 10
83.6981730803
 20
79.676113203
 10
83.6528094216
 20
79.6982488842
  0
LWPOLYLINE
  5
29A
100
AcDbEntity
  8
RACCORDO
100
AcDbPolyline
 62
253
  6
CONTINUOUS
 90
25
 70
0
 10
85.2764867482
 20
127.4490718079
 10
85.2755834935
 20
127.4498252788
 10
85.2746830798
 20
127.4508539765
 10
85.2737854499
 20
127.4521571508
 10
85.2728900589
 20
127.4537337768
 10
85.2719973379
 20
127.4555828877
 10
85.2711086944
 20
127.457703772
 10
85.2702240791
 20
127.4600952583
 10
85.2693434281
 20
127.4627560235
 10
85.2684681267
 20
127.4656852565
 10
85.267598093
 20
127.4688816218
 10
85.2667332961
 20
127.4723434303
 10
85.2658751975
 20
127.4760693812
 10
85.2650236064
 20
127.4800583987
 10
85.2641786014
 20
127.4843078969
 10
85.2633420482
 20
127.4888138578
 10
85.2625138836
 20
127.4935739672
 10
85.2616940628
 20
127.4985853039
 10
85.2608844824
 20
127.5038419863
 10
85.2600851308
 20
127.5093406648
 10
85.2592959181
 20
127.5150777916
 10
85.2585186277
 20
127.5210461544
 10
85.2577538239
 20
127.5272403519
 10
85.2570008503
 20
127.533657267
 10
85.2562596622
 20
127.5402925368
  0
LINE
  5
29B
100
AcDbEntity
  8
RACCORDO
100
AcDbLine
 62
253
  6
CONTINUOUS
 10
84.094916774
 20
129.8776913097
 11
84.1491518635
 21
129.8263979958
  0
LINE
  5
29C
100
AcDbEntity
  8
RACCORDO
100
AcDbLine
 62
253
  6
CONTINUOUS
 10
83.1496738739
 20
128.8797637766
 11
83.2039597914
 21
128.8283870216
  0
LINE
  5
29D
100
AcDbEntity
  8
RACCORDO
100
AcDbLine
 62
253
  6
CONTINUOUS
 10
85.1540724928
 20
127.1720339591
 11
85.0767606272
 21
127.2493458627
  0
LINE
  5
29E
100
AcDbEntity
  8
RACCORDO
100
AcDbLine
 62
253
  6
CONTINUOUS
 10
85.3537984009
 20
127.3717598656
 11
85.2764866412
 21
127.4490717313
  0
LINE
  5
29F
100
AcDbEntity
  8
RACCORDO
100
AcDbLine
 62
253
  6
CONTINUOUS
 10
240.3373403703
 20
79.7394206233
 11
243.6589931222
 21
79.9171217354
  0
LWPOLYLINE
  5
2A0
100
AcDbEntity
  8
RACCORDO
100
AcDbPolyline
 62
253
  6
CONTINUOUS
 90
55
 70
0
 10
242.6182638972
 20
81.3720226693
 10
240.6053848992
 20
81.2642656542
 10
238.5061509172
 20
81.1544915325
 10
236.3205505937
 20
81.0431968594
 10
234.0546802577
 20
80.9312770548
 10
231.7024217228
 20
80.8188985813
 10
229.2454402635
 20
80.7055171895
 10
226.6783002446
 20
80.5914644217
 10
224.0064125604
 20
80.4776720106
 10
221.2277109408
 20
80.3645344273
 10
218.325222478
 20
80.2520711034
 10
215.3158978735
 20
80.1416976257
 10
212.2485643383
 20
80.0356151892
 10
209.1274831141
 20
79.9343786593
 10
205.9483916263
 20
79.8382722895
 10
202.7473440333
 20
79.7485508529
 10
199.529373973
 20
79.6655113798
 10
196.2894594102
 20
79.5892073935
 10
193.0485783748
 20
79.5201372456
 10
189.8134848159
 20
79.4584405812
 10
186.5774430802
 20
79.4040114301
 10
183.3412011426
 20
79.3568218883
 10
180.1052202442
 20
79.3168816556
 10
176.8690640135
 20
79.2842084139
 10
173.6321344671
 20
79.2587772245
 10
170.3939984098
 20
79.2405905522
 10
167.1551139876
 20
79.2296697083
 10
163.9162202199
 20
79.2260130143
 10
160.6773337143
 20
79.2296151151
 10
157.4384629187
 20
79.2404813376
 10
154.2003346015
 20
79.2586133636
 10
150.9633939957
 20
79.2839900848
 10
147.7272207789
 20
79.3166090368
 10
144.4912433853
 20
79.3564947707
 10
141.2550487464
 20
79.4036291646
 10
138.0190747498
 20
79.4580026764
 10
134.7840242464
 20
79.5196438968
 10
131.5432023303
 20
79.5886579468
 10
128.3032983048
 20
79.6649069213
 10
125.0850801638
 20
79.7478988012
 10
121.8834822921
 20
79.8375825832
 10
118.703573887
 20
79.9336621479
 10
115.5813202779
 20
80.034888301
 10
112.5123587332
 20
80.1409823012
 10
109.5010663077
 20
80.2513875662
 10
106.5965056327
 20
80.3638963718
 10
103.8156266962
 20
80.4770935548
 10
101.1414676194
 20
80.5909589165
 10
98.5722138181
 20
80.7050867
 10
96.1133826096
 20
80.8185387728
 10
93.7594316029
 20
80.9309870215
 10
91.4919578184
 20
81.0429781709
 10
89.3048189392
 20
81.154346099
 10
87.2041310265
 20
81.2641933843
 10
85.1898810885
 20
81.3720226693
  0
LWPOLYLINE
  5
2A1
100
AcDbEntity
  8
RACCORDO
100
AcDbPolyline
 62
253
  6
CONTINUOUS
 90
55
 70
0
 10
242.6289637041
 20
81.2087196669
 10
240.6155580114
 20
81.103687403
 10
238.5157988059
 20
80.9974690972
 10
236.3296827703
 20
80.8900647496
 10
234.0633245979
 20
80.7812603236
 10
231.7106034157
 20
80.6712698558
 10
229.253161776
 20
80.5607354556
 10
226.6855716407
 20
80.44929683
 10
224.0132534514
 20
80.3373142721
 10
221.2341217286
 20
80.22651077
 10
218.3312053384
 20
80.1163563618
 10
215.3214687813
 20
80.0073810093
 10
212.2537328438
 20
79.9028975868
 10
209.1322546964
 20
79.8033796885
 10
205.9527780631
 20
79.7083537201
 10
202.751357981
 20
79.6197117726
 10
199.5330213635
 20
79.53783666
 10
196.2927466073
 20
79.4623455683
 10
193.0515184559
 20
79.3939821464
 10
189.8160825984
 20
79.3329808395
 10
186.5797004922
 20
79.2791072025
 10
183.3431312811
 20
79.2324015488
 10
180.106825703
 20
79.192873294
 10
176.8703400751
 20
79.1605130226
 10
173.6330919212
 20
79.1353328014
 10
170.3946388985
 20
79.1173324343
 10
167.1554303969
 20
79.1065121174
 10
163.916221542
 20
79.1028845058
 10
160.6770199609
 20
79.1064580092
 10
157.4378250998
 20
79.1172242177
 10
154.1993798142
 20
79.1351705577
 10
150.9621206687
 20
79.160296985
 10
147.7256181456
 20
79.1926035436
 10
144.4893159736
 20
79.2320777915
 10
141.2527984335
 20
79.2787286243
 10
138.0164882982
 20
79.3325471463
 10
134.7810870238
 20
79.3934942286
 10
131.5399118413
 20
79.4618019062
 10
128.2996526672
 20
79.5372381441
 10
125.0810692471
 20
79.619067708
 10
121.8790934342
 20
79.7076733189
 10
118.6987987105
 20
79.8026722559
 10
115.576154798
 20
79.9021811217
 10
112.5067942667
 20
80.0066781038
 10
109.4950854853
 20
80.1156850148
 10
106.5900974477
 20
80.2258838955
 10
103.8087917751
 20
80.3367472977
 10
101.1342002284
 20
80.4488026698
 10
98.5644941685
 20
80.5603143972
 10
96.1052031482
 20
80.6709179171
 10
93.7507899995
 20
80.7809777924
 10
91.4828267426
 20
80.8898520976
 10
89.2951689927
 20
80.9973268575
 10
87.1939549465
 20
81.1036160472
 10
85.1791812816
 20
81.2087196669
  0
LWPOLYLINE
  5
2A2
100
AcDbEntity
  8
RACCORDO
100
AcDbPolyline
 62
7
  6
CONTINUOUS
 90
9
 70
0
 10
234.3267960982
 20
79.3828936514
 10
235.3698370272
 20
79.4335704733
 10
236.4128524273
 20
79.4849929397
 10
237.4558421808
 20
79.5371610507
 10
238.4988064397
 20
79.5900747999
 10
239.5417448166
 20
79.6437341936
 10
240.5846563846
 20
79.698139251
 10
241.6275407562
 20
79.7532899782
 10
242.6703980836
 20
79.8091863691
  0
LWPOLYLINE
  5
2A3
100
AcDbEntity
  8
RACCORDO
100
AcDbPolyline
 62
253
  6
CONTINUOUS
 90
43
 70
0
 10
242.5518852167
 20
82.2032270964
 10
242.5591897684
 20
82.2035448734
 10
242.5664832942
 20
82.2040804896
 10
242.5737560424
 20
82.2048332289
 10
242.5809982887
 20
82.2058020849
 10
242.5882003499
 20
82.206985762
 10
242.5953525964
 20
82.2083826777
 10
242.6024454652
 20
82.2099909641
 10
242.6094694727
 20
82.211808471
 10
242.6164152273
 20
82.2138327683
 10
242.6232734423
 20
82.2160611492
 10
242.6300349477
 20
82.2184906343
 10
242.6366907029
 20
82.2211179752
 10
242.643231809
 20
82.2239396591
 10
242.6496495199
 20
82.2269519132
 10
242.6559352548
 20
82.2301507099
 10
242.6620806094
 20
82.2335317722
 10
242.6680773669
 20
82.2370905795
 10
242.6739175093
 20
82.2408223733
 10
242.6795932279
 20
82.2447221641
 10
242.685096934
 20
82.2487847377
 10
242.6904212689
 20
82.253004662
 10
242.6955591134
 20
82.2573762948
 10
242.7005035981
 20
82.261893791
 10
242.7052481119
 20
82.2665511105
 10
242.709786311
 20
82.271342026
 10
242.7141121276
 20
82.2762601318
 10
242.7182197778
 20
82.2812988522
 10
242.7221037695
 20
82.2864514501
 10
242.7257589096
 20
82.2917110361
 10
242.7291803108
 20
82.2970705779
 10
242.7323633985
 20
82.3025229093
 10
242.7353039169
 20
82.3080607404
 10
242.7379979342
 20
82.3136766667
 10
242.7404418483
 20
82.3193631794
 10
242.7426323916
 20
82.3251126753
 10
242.7445666353
 20
82.3309174669
 10
242.7462419931
 20
82.3367697929
 10
242.7476562249
 20
82.3426618283
 10
242.7488074399
 20
82.3485856952
 10
242.7496940988
 20
82.3545334731
 10
242.7503150161
 20
82.3604972093
 10
242.7506693616
 20
82.3664689299
  0
LWPOLYLINE
  5
2A4
100
AcDbEntity
  8
RACCORDO
100
AcDbPolyline
 62
253
  6
CONTINUOUS
 90
46
 70
0
 10
242.5316583447
 20
82.2944479997
 10
242.5386165098
 20
82.2945882971
 10
242.5455662391
 20
82.2949709093
 10
242.5524990949
 20
82.295595373
 10
242.5594066639
 20
82.2964609318
 10
242.5662805556
 20
82.2975665358
 10
242.5731124125
 20
82.2989108415
 10
242.5798939362
 20
82.3004922158
 10
242.5866168972
 20
82.3023087395
 10
242.593273133
 20
82.304358207
 10
242.5998545623
 20
82.3066381302
 10
242.6063531947
 20
82.309145741
 10
242.6127611401
 20
82.3118779949
 10
242.6190706186
 20
82.3148315746
 10
242.6252739698
 20
82.3180028943
 10
242.6313636624
 20
82.3213881037
 10
242.6373323026
 20
82.3249830926
 10
242.6431726441
 20
82.3287834966
 10
242.648877596
 20
82.3327847015
 10
242.654440232
 20
82.3369818494
 10
242.6598537984
 20
82.3413698446
 10
242.6651117226
 20
82.3459433597
 10
242.670207621
 20
82.3506968418
 10
242.6751353065
 20
82.3556245199
 10
242.6798887965
 20
82.3607204112
 10
242.6844623198
 20
82.3659783288
 10
242.6888503236
 20
82.3713918891
 10
242.6930474804
 20
82.3769545194
 10
242.6970486944
 20
82.3826594662
 10
242.7008491078
 20
82.388499803
 10
242.7044441064
 20
82.3944684392
 10
242.7078293256
 20
82.4005581281
 10
242.7110006553
 20
82.4067614763
 10
242.7139542451
 20
82.4130709523
 10
242.7166865092
 20
82.4194788958
 10
242.7191941302
 20
82.4259775268
 10
242.7214740637
 20
82.4325589554
 10
242.7235235415
 20
82.4392151909
 10
242.7253400753
 20
82.4459381522
 10
242.7269214597
 20
82.4527196768
 10
242.7282657748
 20
82.4595515312
 10
242.7293713882
 20
82.4664254209
 10
242.7302369578
 20
82.4733330002
 10
242.7308614326
 20
82.4802658828
 10
242.7312440544
 20
82.4872156512
 10
242.7313843587
 20
82.4941738678
  0
LWPOLYLINE
  5
2A5
100
AcDbEntity
  8
0
100
AcDbPolyline
 62
7
  6
CONTINUOUS
 90
100
 70
0
 10
167.522858287
 20
80.7286599744
 10
167.5297258225
 20
80.7287465553
 10
167.5366633419
 20
80.7290280709
 10
167.5436708446
 20
80.7295045187
 10
167.5507579937
 20
80.7301729864
 10
167.5579151254
 20
80.7310363806
 10
167.5651132486
 20
80.7321034263
 10
167.5723556574
 20
80.7333758812
 10
167.5796390568
 20
80.734851981
 10
167.5869245718
 20
80.7365351664
 10
167.5942112615
 20
80.7384265983
 10
167.6015000659
 20
80.7405251086
 10
167.6087549316
 20
80.7428306436
 10
167.6159800637
 20
80.74534659
 10
167.6231712562
 20
80.7480695537
 10
167.6302798396
 20
80.7509893104
 10
167.6373019411
 20
80.7541065639
 10
167.6442414328
 20
80.7574206034
 10
167.6510612622
 20
80.7609190832
 10
167.6577558942
 20
80.7645998756
 10
167.6643308635
 20
80.7684651024
 10
167.6707657223
 20
80.7725087924
 10
167.6770580688
 20
80.7767283738
 10
167.6832103045
 20
80.7811264137
 10
167.6892091868
 20
80.7857046494
 10
167.6950542091
 20
80.7904626452
 10
167.7007458777
 20
80.795400833
 10
167.7062724701
 20
80.8005222523
 10
167.7116340675
 20
80.8058281103
 10
167.7168305886
 20
80.811317197
 10
167.7218500667
 20
80.8169889271
 10
167.7266952708
 20
80.8228447346
 10
167.7313634319
 20
80.8288831842
 10
167.7358342763
 20
80.835099387
 10
167.7401106606
 20
80.8414970992
 10
167.7441897284
 20
80.8480725651
 10
167.7480426366
 20
80.8548096294
 10
167.7516697562
 20
80.8617135661
 10
167.7550707168
 20
80.868779104
 10
167.7582155627
 20
80.875974272
 10
167.7611018481
 20
80.8833049807
 10
167.7637320198
 20
80.8907653253
 10
167.7660834621
 20
80.8983056129
 10
167.768152901
 20
80.9059230355
 10
167.7699436118
 20
80.9136204098
 10
167.7714428024
 20
80.9213564816
 10
167.7726492858
 20
80.9291264304
 10
167.7735642504
 20
80.9369350871
 10
167.7741784677
 20
80.9447556758
 10
167.7744888291
 20
80.9525875834
 10
167.7744984445
 20
80.9604314345
 10
167.7742074129
 20
80.9682623113
 10
167.7736125709
 20
80.9760806274
 10
167.7727170832
 20
80.9838859813
 10
167.771530541
 20
80.991652231
 10
167.7700526441
 20
80.9993822273
 10
167.7682836939
 20
81.0070731312
 10
167.7662341834
 20
81.0146902661
 10
167.7639005168
 20
81.0222392047
 10
167.7612862912
 20
81.0297143852
 10
167.7584127887
 20
81.0370644277
 10
167.7552761044
 20
81.044285312
 10
167.7518801442
 20
81.0513810673
 10
167.7482579062
 20
81.0583123861
 10
167.7444113843
 20
81.0650703736
 10
167.7403385852
 20
81.0716639305
 10
167.7360665263
 20
81.0780804407
 10
167.7315974282
 20
81.0843175208
 10
167.7269290705
 20
81.0903775579
 10
167.7220818088
 20
81.0962550905
 10
167.7170588673
 20
81.101948281
 10
167.7118570219
 20
81.1074589689
 10
167.7064869552
 20
81.1127872075
 10
167.7009472019
 20
81.1179330279
 10
167.6952392271
 20
81.1228963997
 10
167.68937811
 20
81.1276772834
 10
167.683364274
 20
81.1322749721
 10
167.6771972953
 20
81.1366901723
 10
167.6708909815
 20
81.1409249641
 10
167.6644418625
 20
81.1449823769
 10
167.6578534079
 20
81.1488593798
 10
167.6511498346
 20
81.1525489621
 10
167.6443293965
 20
81.1560515689
 10
167.637393839
 20
81.159366752
 10
167.630372616
 20
81.1624861591
 10
167.6232575653
 20
81.1654111047
 10
167.6160568483
 20
81.1681402698
 10
167.6088244043
 20
81.1706613502
 10
167.6015672414
 20
81.1729698849
 10
167.5942783506
 20
81.1750703282
 10
167.5869906452
 20
81.1769637483
 10
167.5797009671
 20
81.1786495143
 10
167.5724124736
 20
81.1801282498
 10
167.5651675513
 20
81.1814029037
 10
167.5579743836
 20
81.1824713325
 10
167.5508247862
 20
81.1833356719
 10
167.5437365947
 20
81.184005289
 10
167.536715754
 20
81.184483304
 10
167.5297563182
 20
81.1847665894
 10
167.5228582871
 20
81.1848551418
  0
LINE
  5
2A6
100
AcDbEntity
  8
RACCORDO
100
AcDbLine
 62
253
  6
CONTINUOUS
 10
85.2764866635
 20
82.2944480103
 11
93.329122453
 21
82.2971558746
  0
LINE
  5
2A7
100
AcDbEntity
  8
0
100
AcDbLine
 62
7
  6
CONTINUOUS
 10
168.2443347518
 20
79.7098240996
 11
167.7913146448
 21
79.7098240996
  0
LINE
  5
2A8
100
AcDbEntity
  8
0
100
AcDbLine
 62
7
  6
CONTINUOUS
 10
167.0362811318
 20
79.7098240996
 11
166.6335965918
 21
79.7098240996
  0
LINE
  5
2A9
100
AcDbEntity
  8
0
100
AcDbLine
 62
7
  6
CONTINUOUS
 10
166.3148046648
 20
79.7098240996
 11
165.9121201248
 21
79.7098240996
  0
LINE
  5
2AA
100
AcDbEntity
  8
0
100
AcDbLine
 62
7
  6
CONTINUOUS
 10
165.0228584318
 20
79.7098240996
 11
164.6201738918
 21
79.7098240996
  0
LINE
  5
2AB
100
AcDbEntity
  8
0
100
AcDbLine
 62
7
  6
CONTINUOUS
 10
164.3013819648
 20
79.7098240996
 11
163.8986974248
 21
79.7098240996
  0
LINE
  5
2AC
100
AcDbEntity
  8
0
100
AcDbLine
 62
7
  6
CONTINUOUS
 10
163.5127914068
 20
79.7098240996
 11
163.1101068668
 21
79.7098240996
  0
LINE
  5
2AD
100
AcDbEntity
  8
0
100
AcDbLine
 62
7
  6
CONTINUOUS
 10
162.7242008498
 20
79.7098240996
 11
162.3215163098
 21
79.7098240996
  0
LINE
  5
2AE
100
AcDbEntity
  8
0
100
AcDbLine
 62
7
  6
CONTINUOUS
 10
161.9691673368
 20
79.7098240996
 11
161.5664827968
 21
79.7098240996
  0
LINE
  5
2AF
100
AcDbEntity
  8
0
100
AcDbLine
 62
7
  6
CONTINUOUS
 10
160.6101070148
 20
79.7098240996
 11
160.2242009968
 21
79.7098240996
  0
LINE
  5
2B0
100
AcDbEntity
  8
0
100
AcDbLine
 62
7
  6
CONTINUOUS
 10
165.7778919448
 20
80.0595737276
 11
165.1403080898
 21
80.0595737276
  0
LINE
  5
2B1
100
AcDbEntity
  8
0
100
AcDbLine
 62
7
  6
CONTINUOUS
 10
167.3886301048
 20
80.3941168506
 11
167.0362811318
 21
80.3941168506
  0
LINE
  5
2B2
100
AcDbEntity
  8
0
100
AcDbLine
 62
7
  6
CONTINUOUS
 10
165.2745362698
 20
80.3941168506
 11
165.6604422868
 21
80.3941168506
  0
LINE
  5
2B3
100
AcDbEntity
  8
0
100
AcDbLine
 62
7
  6
CONTINUOUS
 10
167.0195026098
 20
80.7286599746
 11
167.5228582845
 21
80.7286599746
  0
LINE
  5
2B4
100
AcDbEntity
  8
RACCORDO
100
AcDbLine
 62
253
  6
CONTINUOUS
 10
244.8066822545
 20
80.7654593333
 11
244.7040724928
 21
80.7654593333
  0
LINE
  5
2B5
100
AcDbEntity
  8
RACCORDO
100
AcDbLine
 62
253
  6
CONTINUOUS
 10
83.0014627312
 20
80.7654593333
 11
83.1040724928
 21
80.7654593333
  0
LINE
  5
2B6
100
AcDbEntity
  8
RACCORDO
100
AcDbLine
 62
253
  6
CONTINUOUS
 10
83.3987354377
 20
80.9151327096
 11
83.2039597914
 21
80.9151327096
  0
LINE
  5
2B7
100
AcDbEntity
  8
RACCORDO
100
AcDbLine
 62
253
  6
CONTINUOUS
 10
244.409409548
 20
80.9151327096
 11
244.6041851943
 21
80.9151327096
  0
LINE
  5
2B8
100
AcDbEntity
  8
0
100
AcDbLine
 62
7
  6
CONTINUOUS
 10
167.5228582845
 20
81.1848551416
 11
167.0195026098
 21
81.1848551416
  0
LINE
  5
2B9
100
AcDbEntity
  8
0
100
AcDbLine
 62
7
  6
CONTINUOUS
 10
159.5698386198
 20
81.5193982656
 11
159.9725231598
 21
81.5193982656
  0
LINE
  5
2BA
100
AcDbEntity
  8
0
100
AcDbLine
 62
7
  6
CONTINUOUS
 10
160.8617848518
 20
81.5193982656
 11
161.2644693918
 21
81.5193982656
  0
LINE
  5
2BB
100
AcDbEntity
  8
0
100
AcDbLine
 62
7
  6
CONTINUOUS
 10
161.5664827968
 20
81.5193982656
 11
161.9691673368
 21
81.5193982656
  0
LINE
  5
2BC
100
AcDbEntity
  8
0
100
AcDbLine
 62
7
  6
CONTINUOUS
 10
162.3215163098
 20
81.5193982656
 11
162.9423216418
 21
81.5193982656
  0
LINE
  5
2BD
100
AcDbEntity
  8
0
100
AcDbLine
 62
7
  6
CONTINUOUS
 10
163.6973551548
 20
81.5193982656
 11
164.3013819648
 21
81.5193982656
  0
LINE
  5
2BE
100
AcDbEntity
  8
0
100
AcDbLine
 62
7
  6
CONTINUOUS
 10
165.2577577468
 20
81.5193982656
 11
165.6604422868
 21
81.5193982656
  0
LINE
  5
2BF
100
AcDbEntity
  8
0
100
AcDbLine
 62
7
  6
CONTINUOUS
 10
166.6335965918
 20
81.5193982656
 11
167.573193852
 21
81.5193982656
  0
LINE
  5
2C0
100
AcDbEntity
  8
RACCORDO
100
AcDbLine
 62
253
  6
CONTINUOUS
 10
243.0057044862
 20
81.6898780727
 11
242.8008752481
 21
81.6898780727
  0
LINE
  5
2C1
100
AcDbEntity
  8
RACCORDO
100
AcDbLine
 62
253
  6
CONTINUOUS
 10
84.8024404995
 20
81.6898780727
 11
85.0072697376
 21
81.6898780727
  0
LWPOLYLINE
  5
2C2
100
AcDbEntity
  8
RACCORDO
100
AcDbPolyline
 62
253
  6
CONTINUOUS
 90
4
 70
0
 10
93.329122453
 20
82.2971558746
 10
108.8405818804
 20
82.2996621891
 10
112.2706027366
 20
82.2999935264
 10
200.4747307909
 20
82.3009783074
  0
LINE
  5
2C3
100
AcDbEntity
  8
RACCORDO
100
AcDbLine
 62
7
  6
CONTINUOUS
 10
242.4543465848
 20
82.3717598656
 11
85.353798401
 21
82.3717598656
  0
LINE
  5
2C4
100
AcDbEntity
  8
RACCORDO
100
AcDbLine
 62
253
  6
CONTINUOUS
 10
200.4747307909
 20
82.3009783074
 11
215.5251535102
 21
82.2999946117
  0
LWPOLYLINE
  5
2C5
100
AcDbEntity
  8
RACCORDO
100
AcDbPolyline
 62
253
  6
CONTINUOUS
 90
4
 70
0
 10
215.5251535102
 20
82.2999946117
 10
222.2743772537
 20
82.2992921016
 10
225.4757564829
 20
82.2988593422
 10
228.5666031794
 20
82.2983746477
  0
LWPOLYLINE
  5
2C6
100
AcDbEntity
  8
RACCORDO
100
AcDbPolyline
 62
253
  6
CONTINUOUS
 90
5
 70
0
 10
228.5666031794
 20
82.2983746477
 10
234.4321516741
 20
82.2971673916
 10
237.2271970666
 20
82.2963750878
 10
239.9270326235
 20
82.2954686239
 10
242.5316583447
 20
82.2944479997
  0
LWPOLYLINE
  5
2C7
100
AcDbEntity
  8
RACCORDO
100
AcDbPolyline
 62
253
  6
CONTINUOUS
 90
43
 70
0
 10
85.2562597626
 20
82.2032271868
 10
87.8367725163
 20
82.192507011
 10
90.5209598999
 20
82.1830942347
 10
93.3088179967
 20
82.1747220821
 10
96.1988438986
 20
82.1669316627
 10
99.1925328141
 20
82.1595717744
 10
102.2943790707
 20
82.1529680945
 10
105.5043877239
 20
82.1470981263
 10
108.8225475721
 20
82.1416788183
 10
112.2533295372
 20
82.1368471162
 10
115.7955507055
 20
82.1325526144
 10
119.450388959
 20
82.1286378404
 10
123.2258569432
 20
82.1251751665
 10
127.1156551841
 20
82.1221480243
 10
131.1260808395
 20
82.1194471069
 10
135.2840424683
 20
82.1170834604
 10
139.6026393831
 20
82.1150799609
 10
144.0687747426
 20
82.1134153693
 10
148.6700621321
 20
82.1120721804
 10
153.4352488231
 20
82.1110688208
 10
158.3355844661
 20
82.1104624416
 10
163.2724355762
 20
82.1102275925
 10
168.2637275812
 20
82.110338728
 10
173.2915307386
 20
82.1108860092
 10
178.2034286606
 20
82.111848599
 10
182.9662744471
 20
82.1131482561
 10
187.6132112543
 20
82.1148188688
 10
192.0912585408
 20
82.1168632209
 10
196.3740407681
 20
82.1192603432
 10
200.4879321517
 20
82.1219939718
 10
204.4590771362
 20
82.1250709361
 10
208.2904803002
 20
82.1285774194
 10
211.9791353715
 20
82.1325123556
 10
215.5421698805
 20
82.1368307727
 10
218.9802663727
 20
82.1416784042
 10
222.2927396048
 20
82.1470815194
 10
225.4946644393
 20
82.1529305125
 10
228.5859826731
 20
82.1595169878
 10
231.5667481695
 20
82.1668376589
 10
234.4522015297
 20
82.1745837849
 10
237.2474192023
 20
82.1829411692
 10
239.9473153658
 20
82.192390061
 10
242.5518852167
 20
82.2032270972
  0
LWPOLYLINE
  5
2C8
100
AcDbEntity
  8
0
100
AcDbPolyline
 62
7
  6
CONTINUOUS
 90
106
 70
0
 10
167.5731938486
 20
81.5193982654
 10
167.5874052103
 20
81.5192504469
 10
167.6017038618
 20
81.5187825419
 10
167.6160898047
 20
81.5179945623
 10
167.6305824355
 20
81.5168885605
 10
167.6451623605
 20
81.5154625084
 10
167.6597713956
 20
81.5137102967
 10
167.6744068331
 20
81.5116300485
 10
167.6890713838
 20
81.5092236652
 10
167.7037149907
 20
81.5064907039
 10
167.7183328592
 20
81.5034309536
 10
167.7329297869
 20
81.5000446489
 10
167.7474701053
 20
81.4963320143
 10
167.7619512707
 20
81.4922936437
 10
167.7763758296
 20
81.4879289658
 10
167.7907157487
 20
81.4832364567
 10
167.8049774121
 20
81.4782133243
 10
167.8191544384
 20
81.4728623822
 10
167.8331996453
 20
81.4671905125
 10
167.8471099653
 20
81.4611977688
 10
167.8608884683
 20
81.4548841157
 10
167.8744971779
 20
81.4482562996
 10
167.8879279887
 20
81.4413186493
 10
167.9011890079
 20
81.4340668507
 10
167.9142665778
 20
81.4264946843
 10
167.927159904
 20
81.4186024496
 10
167.9398697825
 20
81.4103898601
 10
167.9523849413
 20
81.4018498171
 10
167.9647135205
 20
81.3929763198
 10
167.9768473815
 20
81.3837753805
 10
167.9887508342
 20
81.3742579174
 10
168.000422546
 20
81.3644242323
 10
168.0118638504
 20
81.3542740295
 10
168.0230430564
 20
81.3438173281
 10
168.0339560597
 20
81.3330590438
 10
168.0446069649
 20
81.3219942618
 10
168.0549763938
 20
81.3106182524
 10
168.0650689279
 20
81.2989263912
 10
168.0748799858
 20
81.2869233
 10
168.0843764449
 20
81.2746181156
 10
168.0935620655
 20
81.2620008575
 10
168.1024330867
 20
81.2490814977
 10
168.1109451038
 20
81.2358990961
 10
168.1190960959
 20
81.222453373
 10
168.1268880824
 20
81.2087445907
 10
168.134282718
 20
81.1948126157
 10
168.1412762447
 20
81.1806663687
 10
168.1478724181
 20
81.1662969035
 10
168.1540441627
 20
81.1517172815
 10
168.1597964418
 20
81.1369167191
 10
168.165124289
 20
81.1219059692
 10
168.1699857341
 20
81.1067303927
 10
168.1743772278
 20
81.0913826459
 10
168.1783023155
 20
81.0758700341
 10
168.1817296685
 20
81.0602598854
 10
168.184648437
 20
81.0445531161
 10
168.1870694662
 20
81.0287487655
 10
168.1889939696
 20
81.0129113433
 10
168.19041987
 20
80.9970534038
 10
168.1913492398
 20
80.9811623477
 10
168.1917895172
 20
80.9652649547
 10
168.1917413401
 20
80.9493487975
 10
168.1912040658
 20
80.93342626
 10
168.1901832117
 20
80.9175613396
 10
168.1886763002
 20
80.9017522813
 10
168.1866858043
 20
80.886000799
 10
168.1842246681
 20
80.8703760952
 10
168.1812893696
 20
80.8548850604
 10
168.1778834264
 20
80.8395207679
 10
168.1740303418
 20
80.8243316975
 10
168.1697307132
 20
80.8093318768
 10
168.1649839396
 20
80.7945072489
 10
168.1598117272
 20
80.7798641697
 10
168.1542123941
 20
80.7653950999
 10
168.1481876191
 20
80.7511075552
 10
168.1417641501
 20
80.7370304778
 10
168.1349417062
 20
80.7231638718
 10
168.1277205659
 20
80.7095077166
 10
168.1201283169
 20
80.6960909211
 10
168.1121689888
 20
80.6829197414
 10
168.1038385502
 20
80.669987912
 10
168.0951524983
 20
80.6573055625
 10
168.0861103132
 20
80.644875409
 10
168.0767125134
 20
80.6326947315
 10
168.0669761543
 20
80.6207655064
 10
168.0568932216
 20
80.6090803353
 10
168.0464717285
 20
80.5976466174
 10
168.0357527717
 20
80.586488529
 10
168.0247345558
 20
80.5756060266
 10
168.0134188761
 20
80.5649991613
 10
168.0018522152
 20
80.5546922548
 10
167.9900385043
 20
80.5446894084
 10
167.977973813
 20
80.5349865349
 10
167.9656928318
 20
80.5255956756
 10
167.9531867402
 20
80.5165117392
 10
167.94046436
 20
80.5077398351
 10
167.9275868458
 20
80.4993073086
 10
167.9145468302
 20
80.4912137937
 10
167.9013516826
 20
80.4834596795
 10
167.8880846636
 20
80.4760734476
 10
167.8747382196
 20
80.469057302
 10
167.8613199069
 20
80.4624090655
 10
167.8479356511
 20
80.4561506499
 10
167.8346207621
 20
80.450289369
 10
167.8213399334
 20
80.444817937
 10
167.8080931667
 20
80.4397363678
  0
LWPOLYLINE
  5
2C9
100
AcDbEntity
  8
RACCORDO
100
AcDbPolyline
 62
253
  6
CONTINUOUS
 90
48
 70
0
 10
84.1491518635
 20
79.9171217354
 10
87.470805558
 20
79.7394205739
 10
90.7927402032
 20
79.5692840477
 10
94.1149387031
 20
79.4067122479
 10
97.4373762236
 20
79.2517055952
 10
100.7600434101
 20
79.1042637012
 10
104.0829463967
 20
78.9643855463
 10
107.406073131
 20
78.8320710321
 10
110.729401503
 20
78.7073204379
 10
114.0529225718
 20
78.5901334692
 10
117.3766183968
 20
78.4805101903
 10
120.7004727673
 20
78.3784505734
 10
124.0244793439
 20
78.2839542581
 10
127.3486137349
 20
78.1970214245
 10
130.6728661923
 20
78.1176518177
 10
133.9972523513
 20
78.0458446673
 10
137.3219284447
 20
77.9815969136
 10
140.64670413
 20
77.9249125907
 10
143.971075129
 20
77.875798385
 10
147.2949724085
 20
77.8342514947
 10
150.618430806
 20
77.8002677315
 10
153.9411017923
 20
77.7738460144
 10
157.2625665283
 20
77.7549824299
 10
160.5832097347
 20
77.7436675173
 10
163.9038882575
 20
77.7398955454
 10
167.2245958528
 20
77.7436667447
 10
170.545304782
 20
77.7549811856
 10
173.8668396491
 20
77.7738446272
 10
177.1895837155
 20
77.8002665448
 10
180.513119599
 20
77.8342508914
 10
183.8370709049
 20
77.8757983993
 10
187.161454921
 20
77.9249128157
 10
190.4862201683
 20
77.9815969803
 10
193.8108871587
 20
78.0458445553
 10
197.1352744263
 20
78.1176517184
 10
200.4595293263
 20
78.1970213763
 10
203.7836656504
 20
78.2839542583
 10
207.1076729344
 20
78.3784505946
 10
210.431527503
 20
78.4805102195
 10
213.7552233223
 20
78.5901335002
 10
217.0787441171
 20
78.707320461
 10
220.4020720115
 20
78.8320710382
 10
223.7251985629
 20
78.9643855452
 10
227.0481020521
 20
79.1042637217
 10
230.3707700358
 20
79.2517056531
 10
233.6932079744
 20
79.4067123288
 10
237.015406289
 20
79.5692841231
 10
240.3373403703
 20
79.7394206233
  0
LWPOLYLINE
  5
2CA
100
AcDbEntity
  8
RACCORDO
100
AcDbPolyline
 62
253
  6
CONTINUOUS
 90
49
 70
0
 10
84.1550061467
 20
80.1167885331
 10
87.4764377056
 20
79.9391120152
 10
90.798123746
 20
79.7689991927
 10
94.1200604648
 20
79.6064500655
 10
97.4422496407
 20
79.4514649335
 10
100.7646818854
 20
79.3040434967
 10
104.0873366433
 20
79.1641848556
 10
107.410215075
 20
79.0318887754
 10
110.7333084007
 20
78.9071554909
 10
114.0565811496
 20
78.7899848067
 10
117.3800286315
 20
78.6803767779
 10
120.7036479077
 20
78.5783313494
 10
124.0274061291
 20
78.4838481607
 10
127.3512921456
 20
78.3969273252
 10
130.6753094709
 20
78.3175687294
 10
133.9994472486
 20
78.2457716722
 10
137.3238749505
 20
78.1815347863
 10
140.6484154673
 20
78.124859439
 10
143.972538057
 20
78.07574903
 10
147.2961869678
 20
78.0342081001
 10
150.6194102894
 20
78.0002321084
 10
153.9418330267
 20
77.9738108333
 10
157.263049571
 20
77.9549446575
 10
160.5834578829
 20
77.9436331981
 10
163.9038883281
 20
77.9398650844
 10
167.2243478438
 20
77.9436326327
 10
170.5448218739
 20
77.9549435267
 10
173.8661085437
 20
77.973809447
 10
177.1886043544
 20
78.0002310396
 10
180.511905156
 20
78.0342076584
 10
183.8356080908
 20
78.0757490459
 10
187.1597436979
 20
78.1248595173
 10
190.4842737771
 20
78.1815347574
 10
193.8086923756
 20
78.2457715624
 10
197.1328312616
 20
78.3175686428
 10
200.4568510293
 20
78.3969272881
 10
203.7807389788
 20
78.483848164
 10
207.1044979074
 20
78.5783313716
 10
210.4281173817
 20
78.6803768099
 10
213.7515648579
 20
78.7899848415
 10
217.0748373328
 20
78.9071555157
 10
220.3979301808
 20
79.0318887833
 10
223.7208084295
 20
79.1641848592
 10
227.0434636939
 20
79.3040435257
 10
230.3658967399
 20
79.4514650004
 10
233.6880863255
 20
79.6064501517
 10
237.0100228342
 20
79.768999269
 10
240.331708273
 20
79.9391120627
 10
243.653138839
 20
80.1167885331
  0
LWPOLYLINE
  5
2CB
100
AcDbEntity
  8
RACCORDO
100
AcDbPolyline
 62
253
  6
CONTINUOUS
 90
55
 70
0
 10
85.1791812816
 20
81.2087196669
 10
85.1700516821
 20
81.2093146065
 10
85.1608689459
 20
81.210185982
 10
85.1516330731
 20
81.2113337935
 10
85.1423373534
 20
81.2127521548
 10
85.1329884971
 20
81.2144469519
 10
85.1236066351
 20
81.2164358435
 10
85.1141918603
 20
81.2187191639
 10
85.1047440797
 20
81.2212965787
 10
85.0952831457
 20
81.2241847426
 10
85.0858084506
 20
81.227384061
 10
85.076320602
 20
81.2308941287
 10
85.0668412754
 20
81.2347303843
 10
85.0573689973
 20
81.2388938209
 10
85.0479052411
 20
81.2433834455
 10
85.0384761025
 20
81.2482117181
 10
85.0290796972
 20
81.2533805343
 10
85.0197179094
 20
81.2588879985
 10
85.0104224879
 20
81.2647408835
 10
85.0011934316
 20
81.2709404175
 10
84.9920307416
 20
81.2774853724
 10
84.9829661696
 20
81.2843788368
 10
84.974000717
 20
81.2916208739
 10
84.9651333824
 20
81.2992114204
 10
84.9563929138
 20
81.3071533749
 10
84.9477787603
 20
81.3154477558
 10
84.9392914727
 20
81.3240935446
 10
84.9309614511
 20
81.3330905843
 10
84.9227881439
 20
81.3424400751
 10
84.9147721026
 20
81.3521408167
 10
84.9069453814
 20
81.3621890514
 10
84.8993076098
 20
81.3725859122
 10
84.8918591581
 20
81.3833302661
 10
84.8846331924
 20
81.394414957
 10
84.8776283845
 20
81.4058434783
 10
84.8708460623
 20
81.4176123366
 10
84.8643233763
 20
81.429703896
 10
84.8580595339
 20
81.4421233328
 10
84.8520553275
 20
81.4548654707
 10
84.8463502849
 20
81.4678971454
 10
84.8409456471
 20
81.4812217078
 10
84.8358401731
 20
81.4948358069
 10
84.8310696683
 20
81.5086962257
 10
84.8266364319
 20
81.5228036682
 10
84.8225381648
 20
81.5371574304
 10
84.8188037744
 20
81.5517121831
 10
84.81543521
 20
81.5664684897
 10
84.8124305223
 20
81.5814257869
 10
84.8098127709
 20
81.5965370549
 10
84.8075836252
 20
81.6118038779
 10
84.8057414157
 20
81.6272246718
 10
84.8043041934
 20
81.6427476654
 10
84.803277975
 20
81.6583556015
 10
84.8026567438
 20
81.6740657373
 10
84.8024404995
 20
81.6898780727
  0
LINE
  5
2CC
100
AcDbEntity
  8
0
100
AcDbLine
 62
7
  6
CONTINUOUS
 10
161.5664827968
 20
79.7098240996
 11
161.5664827968
 21
81.5193982656
  0
LINE
  5
2CD
100
AcDbEntity
  8
0
100
AcDbLine
 62
7
  6
CONTINUOUS
 10
161.9691673368
 20
81.5193982656
 11
161.9691673368
 21
79.7098240996
  0
LINE
  5
2CE
100
AcDbEntity
  8
0
100
AcDbLine
 62
7
  6
CONTINUOUS
 10
162.3215163098
 20
79.7098240996
 11
162.3215163098
 21
81.5193982656
  0
LINE
  5
2CF
100
AcDbEntity
  8
0
100
AcDbLine
 62
7
  6
CONTINUOUS
 10
162.7242008498
 20
80.8959315356
 11
162.7242008498
 21
79.7098240996
  0
LINE
  5
2D0
100
AcDbEntity
  8
0
100
AcDbLine
 62
7
  6
CONTINUOUS
 10
163.8986974248
 20
79.7098240996
 11
163.8986974248
 21
80.8959315356
  0
LINE
  5
2D1
100
AcDbEntity
  8
0
100
AcDbLine
 62
7
  6
CONTINUOUS
 10
164.3013819648
 20
81.5193982656
 11
164.3013819648
 21
79.7098240996
  0
LINE
  5
2D2
100
AcDbEntity
  8
0
100
AcDbLine
 62
7
  6
CONTINUOUS
 10
167.8080931667
 20
80.4397363678
 11
168.2443347518
 21
79.7098240996
  0
LINE
  5
2D3
100
AcDbEntity
  8
0
100
AcDbLine
 62
7
  6
CONTINUOUS
 10
167.7913146448
 20
79.7098240996
 11
167.3886301048
 21
80.3941168506
  0
LINE
  5
2D4
100
AcDbEntity
  8
0
100
AcDbLine
 62
7
  6
CONTINUOUS
 10
165.9121201248
 20
79.7098240996
 11
165.7778919448
 21
80.0595737276
  0
LINE
  5
2D5
100
AcDbEntity
  8
0
100
AcDbLine
 62
7
  6
CONTINUOUS
 10
160.2242009968
 20
79.7098240996
 11
159.5698386198
 21
81.5193982656
  0
LINE
  5
2D6
100
AcDbEntity
  8
0
100
AcDbLine
 62
7
  6
CONTINUOUS
 10
165.6604422868
 20
81.5193982656
 11
166.3148046648
 21
79.7098240996
  0
LINE
  5
2D7
100
AcDbEntity
  8
0
100
AcDbLine
 62
7
  6
CONTINUOUS
 10
165.6604422868
 20
80.3941168506
 11
165.4591000168
 21
80.9567575586
  0
LINE
  5
2D8
100
AcDbEntity
  8
0
100
AcDbLine
 62
7
  6
CONTINUOUS
 10
159.9725231598
 20
81.5193982656
 11
160.4087647448
 21
80.2572583006
  0
LINE
  5
2D9
100
AcDbEntity
  8
0
100
AcDbLine
 62
7
  6
CONTINUOUS
 10
163.1101068668
 20
79.7098240996
 11
162.7242008498
 21
80.8959315356
  0
LINE
  5
2DA
100
AcDbEntity
  8
0
100
AcDbLine
 62
7
  6
CONTINUOUS
 10
162.9423216418
 20
81.5193982656
 11
163.3114491368
 21
80.3332908286
  0
LINE
  5
2DB
100
AcDbEntity
  8
0
100
AcDbLine
 62
7
  6
CONTINUOUS
 10
166.6335965918
 20
79.7098240996
 11
166.6335965918
 21
81.5193982656
  0
LINE
  5
2DC
100
AcDbEntity
  8
0
100
AcDbLine
 62
7
  6
CONTINUOUS
 10
167.0195026098
 20
81.1848551416
 11
167.0195026098
 21
80.7286599746
  0
LINE
  5
2DD
100
AcDbEntity
  8
0
100
AcDbLine
 62
7
  6
CONTINUOUS
 10
167.0362811318
 20
80.3941168506
 11
167.0362811318
 21
79.7098240996
  0
LINE
  5
2DE
100
AcDbEntity
  8
0
100
AcDbLine
 62
7
  6
CONTINUOUS
 10
163.3114491368
 20
80.3332908286
 11
163.6973551548
 21
81.5193982656
  0
LINE
  5
2DF
100
AcDbEntity
  8
0
100
AcDbLine
 62
7
  6
CONTINUOUS
 10
163.8986974248
 20
80.8959315356
 11
163.5127914068
 21
79.7098240996
  0
LINE
  5
2E0
100
AcDbEntity
  8
0
100
AcDbLine
 62
7
  6
CONTINUOUS
 10
165.4591000168
 20
80.9567575586
 11
165.2745362698
 21
80.3941168506
  0
LINE
  5
2E1
100
AcDbEntity
  8
0
100
AcDbLine
 62
7
  6
CONTINUOUS
 10
165.1403080898
 20
80.0595737276
 11
165.0228584318
 21
79.7098240996
  0
LINE
  5
2E2
100
AcDbEntity
  8
0
100
AcDbLine
 62
7
  6
CONTINUOUS
 10
164.6201738918
 20
79.7098240996
 11
165.2577577468
 21
81.5193982656
  0
LINE
  5
2E3
100
AcDbEntity
  8
0
100
AcDbLine
 62
7
  6
CONTINUOUS
 10
160.4087647448
 20
80.2572583006
 11
160.8617848518
 21
81.5193982656
  0
LINE
  5
2E4
100
AcDbEntity
  8
0
100
AcDbLine
 62
7
  6
CONTINUOUS
 10
161.2644693918
 20
81.5193982656
 11
160.6101070148
 21
79.7098240996
  0
LWPOLYLINE
  5
2E5
100
AcDbEntity
  8
RACCORDO
100
AcDbPolyline
 62
253
  6
CONTINUOUS
 90
25
 70
0
 10
242.5316582033
 20
127.4490717497
 10
242.5325614224
 20
127.4498251861
 10
242.5334617827
 20
127.4508538019
 10
242.5343593411
 20
127.4521568282
 10
242.5352546429
 20
127.4537332216
 10
242.5361472566
 20
127.4555819972
 10
242.5370357743
 20
127.4577024276
 10
242.5379202428
 20
127.4600933207
 10
242.5388007285
 20
127.4627533394
 10
242.539675852
 20
127.4656816708
 10
242.5405456897
 20
127.4688769468
 10
242.5414102779
 20
127.4723374833
 10
242.5422681779
 20
127.4760620575
 10
242.5431195691
 20
127.4800495359
 10
242.5439643842
 20
127.4842973959
 10
242.5448008133
 20
127.4888019525
 10
242.5456289364
 20
127.4935610427
 10
242.5464487821
 20
127.4985717234
 10
242.5472584607
 20
127.5038282493
 10
242.5480579897
 20
127.5093273561
 10
242.5488474537
 20
127.515065545
 10
242.5496250591
 20
127.5210356983
 10
242.5503902384
 20
127.5272324899
 10
242.5511436519
 20
127.5336528555
 10
242.5518853449
 20
127.5402924921
  0
LWPOLYLINE
  5
2E6
100
AcDbEntity
  8
RACCORDO
100
AcDbPolyline
 62
253
  6
CONTINUOUS
 90
67
 70
0
 10
84.1491518635
 20
129.8263979958
 10
84.1262195417
 20
129.8248773181
 10
84.103329194
 20
129.8228304845
 10
84.080492889
 20
129.8202586297
 10
84.0577227994
 20
129.8171631925
 10
84.0350307917
 20
129.8135458396
 10
84.0124284245
 20
129.8094084323
 10
83.9899274103
 20
129.8047531335
 10
83.9675398152
 20
129.7995824592
 10
83.9452776488
 20
129.7938991937
 10
83.923152716
 20
129.7877063938
 10
83.9011765989
 20
129.7810073454
 10
83.8793608602
 20
129.7738055899
 10
83.8577169828
 20
129.7661049561
 10
83.8362563779
 20
129.7579095433
 10
83.814990364
 20
129.7492236897
 10
83.7939301333
 20
129.7400520052
 10
83.7730867845
 20
129.7303993633
 10
83.7524713311
 20
129.7202708822
 10
83.7320946362
 20
129.7096719411
 10
83.7119674167
 20
129.698608158
 10
83.692100276
 20
129.6870853814
 10
83.672503677
 20
129.6751097223
 10
83.6531879259
 20
129.6626875231
 10
83.6341631772
 20
129.6498253346
 10
83.6154394414
 20
129.6365299658
 10
83.59702657
 20
129.622808455
 10
83.5789342424
 20
129.6086680357
 10
83.5611719778
 20
129.5941161882
 10
83.5437491184
 20
129.5791606085
 10
83.5266748182
 20
129.5638091748
 10
83.5099580615
 20
129.5480700042
 10
83.4936076363
 20
129.5319514127
 10
83.4776321226
 20
129.5154618786
 10
83.4620399241
 20
129.4986101132
 10
83.4468392385
 20
129.4814050158
 10
83.432038037
 20
129.463855628
 10
83.4176441046
 20
129.445971214
 10
83.4036650101
 20
129.4277612142
 10
83.3901080827
 20
129.4092351942
 10
83.3769804548
 20
129.3904029305
 10
83.3642890283
 20
129.3712743574
 10
83.3520404535
 20
129.3518595139
 10
83.3402411765
 20
129.3321686425
 10
83.3288974016
 20
129.3122121249
 10
83.3180150678
 20
129.2920004214
 10
83.3075999019
 20
129.2715441844
 10
83.2976573864
 20
129.2508542014
 10
83.2881927328
 20
129.2299413241
 10
83.2792109242
 20
129.2088165705
 10
83.2707166921
 20
129.1874910787
 10
83.2627144954
 20
129.1659760458
 10
83.2552085546
 20
129.1442828184
 10
83.2482028214
 20
129.1224228196
 10
83.2417009669
 20
129.100407499
 10
83.2357064267
 20
129.0782484682
 10
83.2302223611
 20
129.0559573907
 10
83.22525164
 20
129.0335459041
 10
83.220796882
 20
129.0110257319
 10
83.216860467
 20
128.9884088213
 10
83.2134444987
 20
128.9657072317
 10
83.210550809
 20
128.9429331535
 10
83.2081808904
 20
128.9200983598
 10
83.2063359531
 20
128.8972143391
 10
83.205017002
 20
128.8742929651
 10
83.2042247944
 20
128.8513464956
 10
83.2039597914
 20
128.8283870216
  0
LWPOLYLINE
  5
2E7
100
AcDbEntity
  8
RACCORDO
100
AcDbPolyline
 62
253
  6
CONTINUOUS
 90
67
 70
0
 10
84.1550061467
 20
129.6267311982
 10
84.136648851
 20
129.6255162618
 10
84.1183421296
 20
129.6238823914
 10
84.1000859824
 20
129.6218295871
 10
84.0818701695
 20
129.6193562662
 10
84.0637049307
 20
129.6164640113
 10
84.0456209856
 20
129.6131575704
 10
84.0276191016
 20
129.6094363222
 10
84.0096985111
 20
129.6053008879
 10
83.9918876306
 20
129.6007578794
 10
83.9741866711
 20
129.595806654
 10
83.9565954213
 20
129.5904478543
 10
83.9391416652
 20
129.5846900208
 10
83.9218256197
 20
129.5785325245
 10
83.9046470676
 20
129.5719759943
 10
83.8876331408
 20
129.5650308571
 10
83.8707840943
 20
129.5576964948
 10
83.8540996729
 20
129.5499735256
 10
83.8376062429
 20
129.5418742304
 10
83.8213041168
 20
129.5333980187
 10
83.8051929821
 20
129.5245454812
 10
83.7892982679
 20
129.5153306704
 10
83.7736203228
 20
129.5057530188
 10
83.758158798
 20
129.4958130941
 10
83.7429380767
 20
129.4855266515
 10
83.7279585361
 20
129.4748931425
 10
83.7132197987
 20
129.4639131156
 10
83.6987451155
 20
129.4526039722
 10
83.6845349045
 20
129.4409651932
 10
83.6705887474
 20
129.4289972977
 10
83.6569286402
 20
129.4167192448
 10
83.6435550431
 20
129.4041305538
 10
83.6304674957
 20
129.3912317056
 10
83.617686613
 20
129.378043101
 10
83.6052128798
 20
129.3645642873
 10
83.5930458111
 20
129.3507957173
 10
83.5812045666
 20
129.3367591513
 10
83.56968966
 20
129.3224541696
 10
83.5585005775
 20
129.3078811919
 10
83.5476549378
 20
129.2930632375
 10
83.5371532827
 20
129.2779999244
 10
83.5269950702
 20
129.2626916347
 10
83.5171962941
 20
129.247162534
 10
83.5077575207
 20
129.2314122797
 10
83.4986781834
 20
129.2154412145
 10
83.4899725764
 20
129.199274533
 10
83.4816412855
 20
129.1829119266
 10
83.4736837248
 20
129.1663537039
 10
83.466112431
 20
129.1496259851
 10
83.4589280094
 20
129.1327285003
 10
83.4521298546
 20
129.1156615194
 10
83.4457286873
 20
129.0984519715
 10
83.4397251346
 20
129.0810996421
 10
83.4341185693
 20
129.0636047457
 10
83.4289178306
 20
129.0459948556
 10
83.4241235526
 20
129.0282697933
 10
83.4197351011
 20
129.0104297372
 10
83.415759414
 20
128.9925027956
 10
83.4121971405
 20
128.9744887975
 10
83.4090476313
 20
128.956387914
 10
83.4063158769
 20
128.9382287669
 10
83.4040025313
 20
128.9200105476
 10
83.4021069405
 20
128.9017340647
 10
83.4006321329
 20
128.8834303659
 10
83.399579118
 20
128.8651098004
 10
83.3989468862
 20
128.846762019
 10
83.3987354377
 20
128.8283870216
  0
LINE
  5
2E8
100
AcDbEntity
  8
RACCORDO
100
AcDbLine
 62
7
  6
CONTINUOUS
 10
85.1377469021
 20
129.9343333621
 11
84.0949167366
 21
129.8776913076
  0
LWPOLYLINE
  5
2E9
100
AcDbEntity
  8
RACCORDO
100
AcDbPolyline
 62
253
  6
CONTINUOUS
 90
55
 70
0
 10
85.1898810885
 20
128.3714970619
 10
87.2041310301
 20
128.4793263471
 10
89.3048189466
 20
128.5891736327
 10
91.4919578299
 20
128.700541561
 10
93.7594316186
 20
128.8125327106
 10
96.1133826298
 20
128.9249809594
 10
98.5722138432
 20
129.0384330323
 10
101.1414676496
 20
129.152560816
 10
103.8156267321
 20
129.2664261779
 10
106.5965056747
 20
129.3796233611
 10
109.5010663569
 20
129.4921321669
 10
112.5123587902
 20
129.602537432
 10
115.5813203415
 20
129.7086314323
 10
118.7035739556
 20
129.8098575854
 10
121.8834823646
 20
129.9059371501
 10
125.0850802394
 20
129.995620932
 10
128.3032983821
 20
130.0786128118
 10
131.5432024084
 20
130.1548617862
 10
134.7840243269
 20
130.2238758361
 10
138.0190748538
 20
130.2855170566
 10
141.2550488754
 20
130.3398905686
 10
144.491243484
 20
130.3870249619
 10
147.727220753
 20
130.4269106941
 10
150.9633937899
 20
130.4595296445
 10
154.2003342206
 20
130.4849063651
 10
157.438462363
 20
130.5030383911
 10
160.6773329885
 20
130.5139046145
 10
163.9162194024
 20
130.517506717
 10
167.1551132015
 20
130.5138500247
 10
170.3939977333
 20
130.5029291821
 10
173.6321339184
 20
130.4847425104
 10
176.8690636125
 20
130.459311321
 10
180.1052200089
 20
130.4266380782
 10
183.3412010259
 20
130.3866978445
 10
186.5774429973
 20
130.3395083024
 10
189.8134847197
 20
130.2850791518
 10
193.0485782669
 20
130.2233824878
 10
196.289459309
 20
130.15431234
 10
199.5293738801
 20
130.0780083537
 10
202.7473439485
 20
129.9949688806
 10
205.9483915489
 20
129.905247444
 10
209.1274830438
 20
129.8091410741
 10
212.2485642747
 20
129.7079045441
 10
215.3158978158
 20
129.6018221076
 10
218.3252224257
 20
129.4914486298
 10
221.2277108942
 20
129.3789853057
 10
224.0064125203
 20
129.2658477223
 10
226.6783002114
 20
129.152055311
 10
229.2454402367
 20
129.038002543
 10
231.7024217015
 20
128.9246211509
 10
234.0546802415
 20
128.8122426771
 10
236.3205505821
 20
128.7003228723
 10
238.5061509099
 20
128.589028199
 10
240.6053848958
 20
128.4792540771
 10
242.6182638972
 20
128.3714970619
  0
LINE
  5
2EA
100
AcDbEntity
  8
RACCORDO
100
AcDbLine
 62
253
  6
CONTINUOUS
 10
87.4705098468
 20
130.0040836745
 11
84.1491518635
 21
129.8263979958
  0
LWPOLYLINE
  5
2EB
100
AcDbEntity
  8
RACCORDO
100
AcDbPolyline
 62
253
  6
CONTINUOUS
 90
55
 70
0
 10
85.1791812816
 20
128.5348000643
 10
87.1939549498
 20
128.6399036843
 10
89.2951689996
 20
128.7461928743
 10
91.4828267534
 20
128.8536676344
 10
93.7507900145
 20
128.9625419397
 10
96.1052031678
 20
129.0726018151
 10
98.564494193
 20
129.1832053351
 10
101.134200258
 20
129.2947170627
 10
103.8087918103
 20
129.4067724349
 10
106.590097489
 20
129.5176358374
 10
109.4950855338
 20
129.6278347183
 10
112.5067943229
 20
129.7368416294
 10
115.5761548609
 20
129.8413386115
 10
118.6987987782
 20
129.9408474774
 10
121.8790935059
 20
130.0358464143
 10
125.0810693219
 20
130.1244520252
 10
128.2996527437
 20
130.206281589
 10
131.5399119186
 20
130.2817178267
 10
134.7810871034
 20
130.3500255042
 10
138.0164884013
 20
130.4109725865
 10
141.2527985617
 20
130.4647911085
 10
144.4893160715
 20
130.511441941
 10
147.7256181188
 20
130.5509161876
 10
150.9621204619
 20
130.5832227446
 10
154.1993794323
 20
130.608349171
 10
157.4378245431
 20
130.6262955113
 10
160.6770192341
 20
130.6370617209
 10
163.9162207235
 20
130.6406352254
 10
167.1554296097
 20
130.6370076151
 10
170.3946382211
 20
130.6261872997
 10
173.6330913716
 20
130.6081869335
 10
176.870339673
 20
130.5830067119
 10
180.1068254667
 20
130.5506464395
 10
183.3431311634
 20
130.511118184
 10
186.5797004083
 20
130.4644125303
 10
189.8160825012
 20
130.4105388936
 10
193.051518347
 20
130.349537587
 10
196.2927465051
 20
130.2811741652
 10
199.5330212696
 20
130.2056830735
 10
202.7513578951
 20
130.1238079609
 10
205.9527779847
 20
130.0351660133
 10
209.1322546251
 20
129.9401400449
 10
212.2537327793
 20
129.8406221466
 10
215.3214687226
 20
129.736138724
 10
218.3312052851
 20
129.6271633714
 10
221.234121681
 20
129.517008963
 10
224.0132534104
 20
129.4062054608
 10
226.6855716066
 20
129.2942229027
 10
229.2531617483
 20
129.182784277
 10
231.7106033936
 20
129.0722498764
 10
234.0633245807
 20
128.9622594082
 10
236.3296827578
 20
128.8534549819
 10
238.5157987978
 20
128.7460506341
 10
240.6155580075
 20
128.6398323282
 10
242.6289637041
 20
128.5348000643
  0
LWPOLYLINE
  5
2EC
100
AcDbEntity
  8
RACCORDO
100
AcDbPolyline
 62
253
  6
CONTINUOUS
 90
13
 70
0
 10
84.1354906165
 20
130.1762435442
 10
97.421615859
 20
130.8470424827
 10
110.7115213738
 20
131.3958896006
 10
124.0049634508
 20
131.8227848977
 10
137.3025505733
 20
132.1277425799
 10
150.6031859888
 20
132.3107484414
 10
163.9040674788
 20
132.3717598654
 10
177.2049514282
 20
132.3107484406
 10
190.5055917297
 20
132.1277425783
 10
203.8031824257
 20
131.8227848958
 10
217.0966255178
 20
131.3958895988
 10
230.3865307355
 20
130.8470424816
 10
243.6726543692
 20
130.1762435442
  0
LWPOLYLINE
  5
2ED
100
AcDbEntity
  8
RACCORDO
100
AcDbPolyline
 62
7
  6
CONTINUOUS
 90
9
 70
0
 10
93.4813488875
 20
130.3606260798
 10
92.4383079585
 20
130.3099492579
 10
91.3952925584
 20
130.2585267915
 10
90.3523028049
 20
130.2063586805
 10
89.309338546
 20
130.1534449313
 10
88.2664001691
 20
130.0997855376
 10
87.2234886011
 20
130.0453804802
 10
86.1806042295
 20
129.990229753
 10
85.1377469021
 20
129.9343333621
  0
LWPOLYLINE
  5
2EE
100
AcDbEntity
  8
RACCORDO
100
AcDbPolyline
 62
253
  6
CONTINUOUS
 90
43
 70
0
 10
85.2562597691
 20
127.5402926329
 10
85.2489552174
 20
127.5399748559
 10
85.2416616916
 20
127.5394392397
 10
85.2343889435
 20
127.5386865004
 10
85.2271466971
 20
127.5377176445
 10
85.2199446359
 20
127.5365339673
 10
85.2127923895
 20
127.5351370517
 10
85.2056995207
 20
127.5335287652
 10
85.1986755132
 20
127.5317112583
 10
85.1917297586
 20
127.5296869611
 10
85.1848715437
 20
127.5274585802
 10
85.1781100383
 20
127.5250290951
 10
85.171454283
 20
127.5224017541
 10
85.164913177
 20
127.5195800702
 10
85.1584954661
 20
127.5165678162
 10
85.1522097311
 20
127.5133690195
 10
85.1460643766
 20
127.5099879572
 10
85.1400676191
 20
127.50642915
 10
85.1342274767
 20
127.5026973561
 10
85.1285517581
 20
127.4987975653
 10
85.123048052
 20
127.4947349918
 10
85.1177237171
 20
127.4905150675
 10
85.1125858726
 20
127.4861434347
 10
85.1076413879
 20
127.4816259385
 10
85.1028968741
 20
127.4769686191
 10
85.098358675
 20
127.4721777036
 10
85.0940328584
 20
127.4672595977
 10
85.0899252082
 20
127.4622208773
 10
85.0860412165
 20
127.4570682795
 10
85.0823860765
 20
127.4518086935
 10
85.0789646752
 20
127.4464491517
 10
85.0757815875
 20
127.4409968203
 10
85.0728410691
 20
127.4354589892
 10
85.0701470518
 20
127.4298430629
 10
85.0677031377
 20
127.4241565502
 10
85.0655125943
 20
127.4184070544
 10
85.0635783506
 20
127.4126022628
 10
85.0619029928
 20
127.4067499368
 10
85.060488761
 20
127.4008579014
 10
85.059337546
 20
127.3949340345
 10
85.0584508871
 20
127.3889862567
 10
85.0578299698
 20
127.3830225205
 10
85.0574756243
 20
127.3770507998
  0
LWPOLYLINE
  5
2EF
100
AcDbEntity
  8
RACCORDO
100
AcDbPolyline
 62
253
  6
CONTINUOUS
 90
46
 70
0
 10
85.2764866412
 20
127.4490717313
 10
85.2695284761
 20
127.4489314339
 10
85.2625787468
 20
127.4485488217
 10
85.255645891
 20
127.4479243581
 10
85.2487383219
 20
127.4470587992
 10
85.2418644302
 20
127.4459531952
 10
85.2350325733
 20
127.4446088895
 10
85.2282510496
 20
127.4430275152
 10
85.2215280886
 20
127.4412109915
 10
85.2148718528
 20
127.4391615239
 10
85.2082904234
 20
127.4368816007
 10
85.201791791
 20
127.4343739899
 10
85.1953838456
 20
127.431641736
 10
85.1890743671
 20
127.4286881563
 10
85.1828710158
 20
127.4255168366
 10
85.1767813233
 20
127.4221316272
 10
85.170812683
 20
127.4185366382
 10
85.1649723415
 20
127.4147362342
 10
85.1592673896
 20
127.4107350293
 10
85.1537047536
 20
127.4065378814
 10
85.1482911872
 20
127.4021498861
 10
85.143033263
 20
127.3975763711
 10
85.1379373646
 20
127.3928228889
 10
85.1330096791
 20
127.3878952108
 10
85.1282561891
 20
127.3827993195
 10
85.1236826658
 20
127.3775414018
 10
85.119294662
 20
127.3721278415
 10
85.1150975052
 20
127.3665652112
 10
85.1110962912
 20
127.3608602644
 10
85.1072958778
 20
127.3550199276
 10
85.1037008792
 20
127.3490512914
 10
85.1003156601
 20
127.3429616025
 10
85.0971443304
 20
127.3367582542
 10
85.0941907406
 20
127.3304487782
 10
85.0914584765
 20
127.3240408347
 10
85.0889508555
 20
127.3175422037
 10
85.0866709221
 20
127.3109607751
 10
85.0846214443
 20
127.3043045395
 10
85.0828049105
 20
127.2975815783
 10
85.0812235261
 20
127.2908000537
 10
85.079879211
 20
127.2839681993
 10
85.0787735976
 20
127.2770943096
 10
85.077908028
 20
127.2701867302
 10
85.0772835533
 20
127.2632538477
 10
85.0769009315
 20
127.2563040793
 10
85.0767606272
 20
127.2493458627
  0
LINE
  5
2F0
100
AcDbEntity
  8
RACCORDO
100
AcDbLine
 62
253
  6
CONTINUOUS
 10
242.5316583223
 20
127.4490717211
 11
239.9483748213
 21
127.4480563551
  0
LWPOLYLINE
  5
2F1
100
AcDbEntity
  8
RACCORDO
100
AcDbPolyline
 62
253
  6
CONTINUOUS
 90
5
 70
0
 10
239.9483748213
 20
127.4480563551
 10
234.4707458447
 20
127.4463618222
 10
231.5778941071
 20
127.4456991047
 10
228.5813550447
 20
127.4451484537
 10
225.4766474431
 20
127.4446605207
  0
LINE
  5
2F2
100
AcDbEntity
  8
RACCORDO
100
AcDbLine
 62
7
  6
CONTINUOUS
 10
85.3537984009
 20
127.3717598656
 11
242.4543465846
 21
127.3717598656
  0
LINE
  5
2F3
100
AcDbEntity
  8
RACCORDO
100
AcDbLine
 62
253
  6
CONTINUOUS
 10
225.4766474431
 20
127.4446605207
 11
211.9639581976
 21
127.4432288875
  0
LINE
  5
2F4
100
AcDbEntity
  8
RACCORDO
100
AcDbLine
 62
253
  6
CONTINUOUS
 10
211.9639581976
 20
127.4432288875
 11
192.4605525745
 21
127.4422296064
  0
LINE
  5
2F5
100
AcDbEntity
  8
RACCORDO
100
AcDbLine
 62
253
  6
CONTINUOUS
 10
192.4605525745
 20
127.4422296064
 11
169.3916197316
 21
127.441816392
  0
LINE
  5
2F6
100
AcDbEntity
  8
RACCORDO
100
AcDbLine
 62
253
  6
CONTINUOUS
 10
169.3916197316
 20
127.441816392
 11
127.282327072
 21
127.4425437799
  0
LINE
  5
2F7
100
AcDbEntity
  8
RACCORDO
100
AcDbLine
 62
253
  6
CONTINUOUS
 10
243.0057044862
 20
128.0536416585
 11
242.8008752481
 21
128.0536416585
  0
LINE
  5
2F8
100
AcDbEntity
  8
RACCORDO
100
AcDbLine
 62
253
  6
CONTINUOUS
 10
84.8024404995
 20
128.0536416585
 11
85.0072697376
 21
128.0536416585
  0
LINE
  5
2F9
100
AcDbEntity
  8
RACCORDO
100
AcDbLine
 62
253
  6
CONTINUOUS
 10
83.3987354377
 20
128.8283870216
 11
83.2039597914
 21
128.8283870216
  0
LINE
  5
2FA
100
AcDbEntity
  8
RACCORDO
100
AcDbLine
 62
253
  6
CONTINUOUS
 10
244.409409548
 20
128.8283870216
 11
244.6041851943
 21
128.8283870216
  0
LINE
  5
2FB
100
AcDbEntity
  8
RACCORDO
100
AcDbLine
 62
253
  6
CONTINUOUS
 10
244.8066822545
 20
128.978060398
 11
244.7040724928
 21
128.978060398
  0
LINE
  5
2FC
100
AcDbEntity
  8
RACCORDO
100
AcDbLine
 62
253
  6
CONTINUOUS
 10
83.0014627312
 20
128.978060398
 11
83.1040724928
 21
128.978060398
  0
LINE
  5
2FD
100
AcDbEntity
  8
RACCORDO
100
AcDbLine
 62
253
  6
CONTINUOUS
 10
127.282327072
 20
127.4425437799
 11
105.5103404824
 21
127.4442305066
  0
LWPOLYLINE
  5
2FE
100
AcDbEntity
  8
RACCORDO
100
AcDbPolyline
 62
253
  6
CONTINUOUS
 90
5
 70
0
 10
105.5103404824
 20
127.4442305066
 10
93.3661969363
 20
127.4463547418
 10
90.5744411526
 20
127.4471464612
 10
87.8778710542
 20
127.4480521243
 10
85.2764866412
 20
127.4490717313
  0
LWPOLYLINE
  5
2FF
100
AcDbEntity
  8
RACCORDO
100
AcDbPolyline
 62
253
  6
CONTINUOUS
 90
43
 70
0
 10
242.5518852232
 20
127.5402925458
 10
239.9687590742
 20
127.5510236335
 10
237.2818117989
 20
127.5604442566
 10
234.4910477225
 20
127.5688219546
 10
231.5979608655
 20
127.5766168746
 10
228.601065786
 20
127.5839806462
 10
225.4958961116
 20
127.5905868083
 10
222.2824457389
 20
127.5964580463
 10
218.9607253567
 20
127.6018781487
 10
215.5262919944
 20
127.6067097733
 10
211.9803561946
 20
127.6110034495
 10
208.3217105627
 20
127.6149171361
 10
204.5422845235
 20
127.6183783373
 10
200.6484341663
 20
127.6214034219
 10
196.6338055077
 20
127.6241020236
 10
192.4712622927
 20
127.626463366
 10
188.1473747092
 20
127.6284644228
 10
183.6755739772
 20
127.630125722
 10
179.069015464
 20
127.6314646341
 10
174.2987853329
 20
127.6324635531
 10
169.3938006508
 20
127.6330647181
 10
164.4539635857
 20
127.6332928955
 10
159.4618017838
 20
127.6331751055
 10
154.4347920365
 20
127.6326217607
 10
149.5252600643
 20
127.6316526747
 10
144.7668050724
 20
127.6303469738
 10
140.1258314936
 20
127.628672296
 10
135.6538718216
 20
127.6266247317
 10
131.3769817669
 20
127.6242245371
 10
127.2691029257
 20
127.6214888602
 10
123.3035957639
 20
127.6184105029
 10
119.4772661126
 20
127.6149028339
 10
115.7933100803
 20
127.6109670236
 10
112.2346745594
 20
127.60664813
 10
108.8006576716
 20
127.6018006343
 10
105.4919659419
 20
127.5963981257
 10
102.2936596222
 20
127.5905501906
 10
99.205796515
 20
127.5839661721
 10
96.2283247003
 20
127.5766491413
 10
93.3461414122
 20
127.5689072168
 10
90.5542157065
 20
127.5605556208
 10
87.85758703
 20
127.5511158564
 10
85.2562597691
 20
127.5402926322
  0
LWPOLYLINE
  5
300
100
AcDbEntity
  8
RACCORDO
100
AcDbPolyline
 62
253
  6
CONTINUOUS
 90
49
 70
0
 10
243.653138839
 20
129.6267311982
 10
240.3320015869
 20
129.8043923322
 10
237.0106077907
 20
129.9744911879
 10
233.6889612522
 20
130.1370277651
 10
230.3670589319
 20
130.2920018215
 10
227.0449114765
 20
130.4394135995
 10
223.722543221
 20
130.5792638261
 10
220.3999552448
 20
130.7115526406
 10
217.0771540856
 20
130.8362799038
 10
213.7541722712
 20
130.9534459255
 10
210.4310140745
 20
131.0630506858
 10
207.1076828492
 20
131.1650942047
 10
203.7842097474
 20
131.2595768514
 10
200.460602076
 20
131.3464985802
 10
197.1368601621
 20
131.4258594369
 10
193.8130046907
 20
131.4976599283
 10
190.4889401289
 20
131.5619008284
 10
187.1647696467
 20
131.6185813632
 10
183.8408119929
 20
131.6676997172
 10
180.5171027724
 20
131.7092532765
 10
177.1936140334
 20
131.7432446551
 10
173.8705691994
 20
131.7696798788
 10
170.5482077042
 20
131.7885588081
 10
167.2262977598
 20
131.7998815825
 10
163.904355953
 20
131.8036546468
 10
160.5823697055
 20
131.7998824561
 10
157.260359225
 20
131.7885605554
 10
153.9378902771
 20
131.7696820229
 10
150.6147331978
 20
131.7432463157
 10
147.2911252977
 20
131.7092539769
 10
143.9673328064
 20
131.6676997146
 10
140.6433546162
 20
131.618581258
 10
137.3191994864
 20
131.5619008779
 10
133.9951484379
 20
131.4976600949
 10
130.6712911993
 20
131.4258595678
 10
127.3475456795
 20
131.3464986379
 10
124.0239351623
 20
131.2595768493
 10
120.7004609912
 20
131.1650941742
 10
117.3771294566
 20
131.0630506405
 10
114.0539712595
 20
130.9534458759
 10
110.7309898522
 20
130.8362798692
 10
107.408189409
 20
130.7115526316
 10
104.08560171
 20
130.5792638239
 10
100.7632327068
 20
130.4394135599
 10
97.441084065
 20
130.2920017259
 10
94.1191811307
 20
130.1370276407
 10
90.7975348876
 20
129.9744910776
 10
87.476141959
 20
129.8043922634
 10
84.1550061467
 20
129.6267311982
  0
LWPOLYLINE
  5
301
100
AcDbEntity
  8
RACCORDO
100
AcDbPolyline
 62
253
  6
CONTINUOUS
 90
48
 70
0
 10
243.6589931222
 20
129.8263979958
 10
240.3376337494
 20
130.0040837473
 10
237.0159913713
 20
130.1742063096
 10
233.6940830785
 20
130.3367655768
 10
230.3719324365
 20
130.4917611717
 10
227.0495500578
 20
130.6391934047
 10
223.7269335951
 20
130.7790631256
 10
220.4040973382
 20
130.9113703579
 10
217.081061152
 20
131.036114931
 10
213.7578310405
 20
131.1532972506
 10
210.4344245232
 20
131.262917257
 10
207.1108582223
 20
131.3649749544
 10
203.7871367875
 20
131.4594707408
 10
200.4632807639
 20
131.5464045122
 10
197.1393037359
 20
131.6257763893
 10
193.8151999043
 20
131.6975869208
 10
190.4908869704
 20
131.7618378635
 10
187.1664813413
 20
131.8185269201
 10
183.8422753031
 20
131.8676503523
 10
180.5183177175
 20
131.9092097659
 10
177.1945938774
 20
131.943207631
 10
173.8713007463
 20
131.9696446936
 10
170.5486909851
 20
131.9885231746
 10
167.2265460402
 20
131.9998485645
 10
163.9043560309
 20
132.0036241858
 10
160.5821215781
 20
131.9998497548
 10
157.2598760901
 20
131.9885250945
 10
153.9371588674
 20
131.9696468388
 10
150.6137534806
 20
131.9432094723
 10
147.2899104703
 20
131.9092107135
 10
143.9658696102
 20
131.8676503513
 10
140.641643036
 20
131.8185265903
 10
137.3172527598
 20
131.7618377667
 10
133.9929533387
 20
131.6975870898
 10
130.6688477394
 20
131.625776537
 10
127.3448671053
 20
131.5464045845
 10
124.0210082358
 20
131.4594707418
 10
120.6972857316
 20
131.3649749239
 10
117.3737191212
 20
131.2629172142
 10
114.0503126034
 20
131.1532972048
 10
110.7270828991
 20
131.0361148969
 10
107.4040474288
 20
130.9113703495
 10
104.081211449
 20
130.779063128
 10
100.7585942425
 20
130.6391933751
 10
97.4362106815
 20
130.4917610867
 10
94.1140594172
 20
130.3367654578
 10
90.7921513948
 20
130.1742061984
 10
87.4705098468
 20
130.0040836745
  0
LWPOLYLINE
  5
302
100
AcDbEntity
  8
RACCORDO
100
AcDbPolyline
 62
7
  6
CONTINUOUS
 90
10
 70
0
 10
243.7132282491
 20
129.8776913076
 10
242.6703980836
 20
129.9343333621
 10
241.6275407562
 20
129.990229753
 10
240.5846563846
 20
130.0453804802
 10
239.5417448166
 20
130.0997855376
 10
238.4988064397
 20
130.1534449313
 10
237.4558421808
 20
130.2063586805
 10
236.4128524273
 20
130.2585267915
 10
235.3698370272
 20
130.3099492579
 10
234.3267960982
 20
130.3606260798
  0
LWPOLYLINE
  5
303
100
AcDbEntity
  8
RACCORDO
100
AcDbPolyline
 62
253
  6
CONTINUOUS
 90
55
 70
0
 10
242.6289637041
 20
128.5348000643
 10
242.6380933036
 20
128.5342051247
 10
242.6472760398
 20
128.5333337492
 10
242.6565119126
 20
128.5321859377
 10
242.6658076323
 20
128.5307675765
 10
242.6751564886
 20
128.5290727793
 10
242.6845383506
 20
128.5270838877
 10
242.6939531255
 20
128.5248005673
 10
242.703400906
 20
128.5222231526
 10
242.71286184
 20
128.5193349886
 10
242.7223365352
 20
128.5161356702
 10
242.7318243837
 20
128.5126256025
 10
242.7413037104
 20
128.5087893469
 10
242.7507759885
 20
128.5046259103
 10
242.7602397446
 20
128.5001362857
 10
242.7696688832
 20
128.4953080131
 10
242.7790652885
 20
128.4901391969
 10
242.7884270763
 20
128.4846317327
 10
242.7977224978
 20
128.4787788477
 10
242.8069515541
 20
128.4725793137
 10
242.8161142442
 20
128.4660343588
 10
242.8251788162
 20
128.4591408944
 10
242.8341442688
 20
128.4518988573
 10
242.8430116033
 20
128.4443083108
 10
242.8517520719
 20
128.4363663563
 10
242.8603662254
 20
128.4280719754
 10
242.868853513
 20
128.4194261866
 10
242.8771835347
 20
128.4104291469
 10
242.8853568418
 20
128.4010796561
 10
242.8933728831
 20
128.3913789145
 10
242.9011996043
 20
128.3813306797
 10
242.908837376
 20
128.370933819
 10
242.9162858276
 20
128.3601894651
 10
242.9235117933
 20
128.3491047742
 10
242.9305166013
 20
128.3376762529
 10
242.9372989234
 20
128.3259073946
 10
242.9438216094
 20
128.3138158352
 10
242.9500854518
 20
128.3013963984
 10
242.9560896582
 20
128.2886542605
 10
242.9617947008
 20
128.2756225858
 10
242.9671993386
 20
128.2622980235
 10
242.9723048126
 20
128.2486839243
 10
242.9770753174
 20
128.2348235055
 10
242.9815085538
 20
128.220716063
 10
242.9856068209
 20
128.2063623008
 10
242.9893412113
 20
128.1918075481
 10
242.9927097757
 20
128.1770512415
 10
242.9957144634
 20
128.1620939444
 10
242.9983322148
 20
128.1469826763
 10
243.0005613605
 20
128.1317158533
 10
243.0024035699
 20
128.1162950594
 10
243.0038407923
 20
128.1007720658
 10
243.0048670107
 20
128.0851641297
 10
243.0054882419
 20
128.069453994
 10
243.0057044862
 20
128.0536416585
  0
LWPOLYLINE
  5
304
100
AcDbEntity
  8
RACCORDO
100
AcDbPolyline
 62
7
  6
CONTINUOUS
 90
67
 70
0
 10
243.7132282491
 20
129.8776913076
 10
243.7361706156
 20
129.8761723601
 10
243.759052543
 20
129.8741292077
 10
243.7818740314
 20
129.8715618505
 10
243.8046501165
 20
129.8684679195
 10
243.8273657626
 20
129.8648497837
 10
243.8499758631
 20
129.8607145498
 10
243.8724746753
 20
129.8560624128
 10
243.894867942
 20
129.8508931778
 10
243.9171277838
 20
129.8452133663
 10
243.939259141
 20
129.8390207649
 10
243.9612570735
 20
129.8323175871
 10
243.9830788817
 20
129.8251169954
 10
244.0047185849
 20
129.8174202317
 10
244.026182164
 20
129.8092260542
 10
244.0474448617
 20
129.8005438995
 10
244.0685128874
 20
129.7913701588
 10
244.089380032
 20
129.7817084409
 10
244.1100029106
 20
129.7715790101
 10
244.1303742719
 20
129.7609845982
 10
244.1505013674
 20
129.7499224732
 10
244.1703625672
 20
129.7384047033
 10
244.189963797
 20
129.7264268427
 10
244.2092991313
 20
129.7139933371
 10
244.2283291629
 20
129.701129592
 10
244.2470480643
 20
129.6878385312
 10
244.2654616633
 20
129.6741172307
 10
244.2835480361
 20
129.6599823242
 10
244.3013105459
 20
129.6454302266
 10
244.3187458298
 20
129.6304645229
 10
244.3358218749
 20
129.6151126011
 10
244.3525360331
 20
129.5993755377
 10
244.3688909528
 20
129.5832522562
 10
244.3848625654
 20
129.5667669152
 10
244.4004504789
 20
129.5499189856
 10
244.4156550856
 20
129.5327089965
 10
244.4304534938
 20
129.515162694
 10
244.4448464923
 20
129.4972775407
 10
244.4588332925
 20
129.4790560742
 10
244.4723886362
 20
129.4605316534
 10
244.4855091924
 20
129.4417077595
 10
244.4981982923
 20
129.4225809113
 10
244.5104406712
 20
129.403174025
 10
244.5222389103
 20
129.3834811548
 10
244.5335904286
 20
129.3635082465
 10
244.5444722185
 20
129.3432960533
 10
244.554880139
 20
129.3228508156
 10
244.5648183314
 20
129.3021662931
 10
244.5742762112
 20
129.2812645187
 10
244.5832561736
 20
129.2601379669
 10
244.5917558235
 20
129.2387941632
 10
244.5997573909
 20
129.2172777167
 10
244.6072575386
 20
129.19559528
 10
244.614259604
 20
129.1737402005
 10
244.6207558293
 20
129.1517371301
 10
244.6267472184
 20
129.1295797582
 10
244.6322327676
 20
129.1072743954
 10
244.6372017066
 20
129.0848646251
 10
244.6416520502
 20
129.0623557574
 10
244.6455857839
 20
129.0397424823
 10
244.6489980932
 20
129.0170524527
 10
244.651888903
 20
128.9942797735
 10
244.6542582885
 20
128.9714303399
 10
244.656101661
 20
128.9485494903
 10
244.6574174909
 20
128.9256523377
 10
244.6582073078
 20
128.9027237692
 10
244.6584711118
 20
128.8797637848
  0
LWPOLYLINE
  5
305
100
AcDbEntity
  8
RACCORDO
100
AcDbPolyline
 62
253
  6
CONTINUOUS
 90
55
 70
0
 10
242.6182638972
 20
128.3714970619
 10
242.6228205686
 20
128.3711556189
 10
242.6274058969
 20
128.3706347406
 10
242.6320172612
 20
128.3699323101
 10
242.6366523353
 20
128.3690482495
 10
242.6413078142
 20
128.3679785097
 10
242.6459794219
 20
128.3667151273
 10
242.6506635916
 20
128.3652561763
 10
242.6553575024
 20
128.3635998708
 10
242.6600578043
 20
128.3617385608
 10
242.6647608616
 20
128.3596704085
 10
242.6694631264
 20
128.3573938494
 10
242.6741611603
 20
128.3549016752
 10
242.6788513498
 20
128.3521919091
 10
242.6835292943
 20
128.3492634831
 10
242.6881901686
 20
128.346110653
 10
242.6928302487
 20
128.3427312994
 10
242.6974444715
 20
128.3391250852
 10
242.7020259011
 20
128.3352892504
 10
242.7065696844
 20
128.3312226846
 10
242.7110713531
 20
128.326925016
 10
242.7155245298
 20
128.3223950032
 10
242.7199236005
 20
128.3176326926
 10
242.7242644051
 20
128.3126375139
 10
242.728542629
 20
128.3074075367
 10
242.7327530484
 20
128.3019424598
 10
242.7368904688
 20
128.2962427499
 10
242.7409503893
 20
128.2903077341
 10
242.7449273007
 20
128.28413744
 10
242.748815705
 20
128.2777328188
 10
242.7526108808
 20
128.2710947116
 10
242.7563069725
 20
128.2642236875
 10
242.7598983007
 20
128.2571210792
 10
242.7633801506
 20
128.2497890152
 10
242.7667469923
 20
128.2422270951
 10
242.7699922663
 20
128.2344385933
 10
242.7731096324
 20
128.2264314284
 10
242.7760936854
 20
128.2182049381
 10
242.7789377236
 20
128.2097639845
 10
242.781633943
 20
128.2011253323
 10
242.7841768338
 20
128.1922904315
 10
242.7865607592
 20
128.1832636913
 10
242.7887787209
 20
128.1740670102
 10
242.7908255566
 20
128.1647042735
 10
242.7926967875
 20
128.1551790164
 10
242.7943874758
 20
128.1455131874
 10
242.7958932672
 20
128.1357111978
 10
242.7972102788
 20
128.1257772742
 10
242.7983351028
 20
128.1157334818
 10
242.7992641686
 20
128.1055841814
 10
242.7999941722
 20
128.0953346291
 10
242.8005228408
 20
128.0850085194
 10
242.8008477369
 20
128.0746172379
 10
242.8009660011
 20
128.0641598258
 10
242.8008752481
 20
128.0536416585
  0
LWPOLYLINE
  5
306
100
AcDbEntity
  8
RACCORDO
100
AcDbPolyline
 62
253
  6
CONTINUOUS
 90
5
 70
0
 10
243.6726543692
 20
130.1762435442
 10
243.7228376565
 20
130.1724232993
 10
243.7726930965
 20
130.1665214756
 10
243.8222206895
 20
130.1585380731
 10
243.8715141242
 20
130.1484552392
  0
LWPOLYLINE
  5
307
100
AcDbEntity
  8
RACCORDO
100
AcDbPolyline
 62
253
  6
CONTINUOUS
 90
25
 70
0
 10
242.5316582378
 20
82.2944479221
 10
242.5325614925
 20
82.2936944512
 10
242.5334619062
 20
82.2926657535
 10
242.5343595361
 20
82.2913625792
 10
242.5352549271
 20
82.2897859532
 10
242.5361476481
 20
82.2879368423
 10
242.5370362915
 20
82.285815958
 10
242.5379209068
 20
82.2834244717
 10
242.5388015579
 20
82.2807637065
 10
242.5396768593
 20
82.2778344736
 10
242.5405468929
 20
82.2746381083
 10
242.5414116898
 20
82.2711762998
 10
242.5422697884
 20
82.2674503489
 10
242.5431213794
 20
82.2634613314
 10
242.5439663845
 20
82.2592118332
 10
242.5448029376
 20
82.2547058723
 10
242.5456311022
 20
82.2499457629
 10
242.546450923
 20
82.2449344262
 10
242.5472605034
 20
82.2396777439
 10
242.548059855
 20
82.2341790654
 10
242.5488490676
 20
82.2284419386
 10
242.549626358
 20
82.2224735758
 10
242.5503911618
 20
82.2162793783
 10
242.5511441353
 20
82.2098624632
 10
242.5518853235
 20
82.2032271934
  0
LWPOLYLINE
  5
308
100
AcDbEntity
  8
RACCORDO
100
AcDbPolyline
 62
253
  6
CONTINUOUS
 90
23
 70
0
 10
242.7313843483
 20
127.2493458285
 10
242.7322461663
 20
127.2504026611
 10
242.7331053065
 20
127.2518423456
 10
242.7339617691
 20
127.2536648819
 10
242.7348159667
 20
127.2558716776
 10
242.7356674866
 20
127.2584613253
 10
242.7365150908
 20
127.2614296021
 10
242.7373587706
 20
127.2647768062
 10
242.7381985347
 20
127.2685026395
 10
242.7390331706
 20
127.2726019852
 10
242.7398626947
 20
127.2770753058
 10
242.7406870905
 20
127.2819221387
 10
242.7415050968
 20
127.2871359787
 10
242.7423168327
 20
127.292718455
 10
242.7431221789
 20
127.2986679385
 10
242.7439195164
 20
127.3049730356
 10
242.7447088694
 20
127.3116353945
 10
242.7454902135
 20
127.3186533671
 10
242.7462618565
 20
127.3260106164
 10
242.747023799
 20
127.3337089379
 10
242.7477760403
 20
127.3417465362
 10
242.7485168859
 20
127.3501016873
 10
242.7499632605
 20
127.3677501658
  0
LINE
  5
309
100
AcDbEntity
  8
RACCORDO
100
AcDbLine
 62
253
  6
CONTINUOUS
 10
242.4543465846
 20
127.3717598656
 11
242.5316583223
 21
127.4490717211
  0
LINE
  5
30A
100
AcDbEntity
  8
RACCORDO
100
AcDbLine
 62
253
  6
CONTINUOUS
 10
242.6540724928
 20
127.1720339588
 11
242.7313843483
 21
127.2493458285
  0
LINE
  5
30B
100
AcDbEntity
  8
RACCORDO
100
AcDbLine
 62
253
  6
CONTINUOUS
 10
244.6041851943
 20
128.8283870216
 11
244.6584711118
 21
128.8797637766
  0
LINE
  5
30C
100
AcDbEntity
  8
RACCORDO
100
AcDbLine
 62
253
  6
CONTINUOUS
 10
243.6589931222
 20
129.8263979958
 11
243.7132282117
 21
129.8776913097
  0
LWPOLYLINE
  5
30D
100
AcDbEntity
  8
RACCORDO
100
AcDbPolyline
 62
253
  6
CONTINUOUS
 90
31
 70
0
 10
62.8877795424
 20
146.8717598656
 10
62.8252541772
 20
146.8709457629
 10
62.7608901359
 20
146.8667867487
 10
62.6946874221
 20
146.8592828229
 10
62.6264635068
 20
146.8487362752
 10
62.5564009271
 20
146.834844816
 10
62.4850472858
 20
146.8167015766
 10
62.4120536067
 20
146.7941472317
 10
62.3377688724
 20
146.7673411068
 10
62.2637876186
 20
146.7358543098
 10
62.1900815771
 20
146.6994708607
 10
62.1166790147
 20
146.6584067395
 10
62.0452592628
 20
146.6128809939
 10
61.9759422688
 20
146.5627314669
 10
61.9086080762
 20
146.5081203154
 10
61.8445761534
 20
146.4497530585
 10
61.7839675202
 20
146.387475504
 10
61.7266611435
 20
146.3214418441
 10
61.6736134087
 20
146.2528201742
 10
61.624987904
 20
146.1814861045
 10
61.5806210271
 20
146.1075640249
 10
61.5409783765
 20
146.0325951996
 10
61.5062610431
 20
145.9565079447
 10
61.4762679245
 20
145.8793739441
 10
61.4508613296
 20
145.8029495135
 10
61.4302518647
 20
145.727488857
 10
61.4142289167
 20
145.6527377705
 10
61.4020229659
 20
145.5796899578
 10
61.3933775053
 20
145.5086766533
 10
61.3885490395
 20
145.4393666226
 10
61.3875375679
 20
145.3717598656
  0
LINE
  5
30E
100
AcDbEntity
  8
RACCORDO
100
AcDbLine
 62
253
  6
CONTINUOUS
 10
61.3875375679
 20
145.3717598656
 11
60.9040724928
 21
145.3717598656
  0
LINE
  5
30F
100
AcDbEntity
  8
RACCORDO
100
AcDbLine
 62
253
  6
CONTINUOUS
 10
266.4206074178
 20
145.3717598656
 11
266.9040724928
 21
145.3717598656
  0
LINE
  5
310
100
AcDbEntity
  8
RACCORDO
100
AcDbLine
 62
253
  6
CONTINUOUS
 10
264.9203654433
 20
146.8717598656
 11
62.8877795424
 21
146.8717598656
  0
LINE
  5
311
100
AcDbEntity
  8
RACCORDO
100
AcDbLine
 62
7
  6
CONTINUOUS
 10
264.9040724928
 20
147.3717598656
 11
62.9040724928
 21
147.3717598656
  0
LWPOLYLINE
  5
312
100
AcDbEntity
  8
RACCORDO
100
AcDbPolyline
 62
253
  6
CONTINUOUS
 90
7
 70
0
 10
243.8715141242
 20
130.1484552392
 10
243.9204797125
 20
130.1362908264
 10
243.9688363905
 20
130.1220983931
 10
244.0165814434
 20
130.1058633049
 10
244.0637175874
 20
130.0876001961
 10
244.1099719054
 20
130.0674065282
 10
244.1553355641
 20
130.045270847
  0
LINE
  5
313
100
AcDbEntity
  8
RACCORDO
100
AcDbLine
 62
253
  6
CONTINUOUS
 10
243.7132282117
 20
79.8658284216
 11
243.6589931222
 21
79.9171217354
  0
LINE
  5
314
100
AcDbEntity
  8
RACCORDO
100
AcDbLine
 62
253
  6
CONTINUOUS
 10
244.6584711118
 20
80.8637559546
 11
244.6041851943
 21
80.9151327096
  0
LINE
  5
315
100
AcDbEntity
  8
RACCORDO
100
AcDbLine
 62
253
  6
CONTINUOUS
 10
242.4543465848
 20
82.3717598656
 11
242.5316583447
 21
82.2944479997
  0
LINE
  5
316
100
AcDbEntity
  8
RACCORDO
100
AcDbLine
 62
253
  6
CONTINUOUS
 10
242.6540724928
 20
82.5714857721
 11
242.7313843587
 21
82.4941738678
  0
LWPOLYLINE
  5
317
100
AcDbEntity
  8
RACCORDO
100
AcDbPolyline
 62
253
  6
CONTINUOUS
 90
22
 70
0
 10
242.7313843587
 20
82.4941738678
 10
242.7322461867
 20
82.4931170359
 10
242.7331053514
 20
82.4916772816
 10
242.7339618526
 20
82.4898546049
 10
242.734816097
 20
82.4876476513
 10
242.7356676779
 20
82.4850577753
 10
242.7365153755
 20
82.4820890403
 10
242.7373591904
 20
82.4787411226
 10
242.738199122
 20
82.4750143459
 10
242.7390339479
 20
82.4709137452
 10
242.7398636918
 20
82.4664387817
 10
242.74068833
 20
82.4615899942
 10
242.7415065687
 20
82.4563740336
 10
242.7423185348
 20
82.4507891293
 10
242.7431241013
 20
82.444837052
 10
242.7439215938
 20
82.4385297643
 10
242.7447110205
 20
82.4318656783
 10
242.7454923733
 20
82.4248463818
 10
242.746263953
 20
82.4174886012
 10
242.7470257654
 20
82.4097904406
 10
242.7477778048
 20
82.4017537958
 10
242.7485183557
 20
82.393401081
  0
LWPOLYLINE
  5
318
100
AcDbEntity
  8
RACCORDO
100
AcDbPolyline
 62
253
  6
CONTINUOUS
 90
11
 70
0
 10
244.1550775549
 20
79.6981523605
 10
244.1095496771
 20
79.675918326
 10
244.0635286004
 20
79.6558129724
 10
244.0168669957
 20
79.6377457937
 10
243.9696515751
 20
79.6216796005
 10
243.9219944991
 20
79.6076002394
 10
243.8737836061
 20
79.5955218638
 10
243.8247691246
 20
79.5854497437
 10
243.7748677969
 20
79.5773856359
 10
243.7241628787
 20
79.5713277837
 10
243.6726543692
 20
79.567276187
  0
LWPOLYLINE
  5
319
100
AcDbEntity
  8
RACCORDO
100
AcDbPolyline
 62
253
  6
CONTINUOUS
 90
17
 70
0
 10
244.1553355641
 20
130.045270847
 10
244.1998173988
 20
130.0212046067
 10
244.2431709961
 20
129.9953396306
 10
244.2853839473
 20
129.9676703829
 10
244.3264686636
 20
129.9382023994
 10
244.3662159622
 20
129.9070841113
 10
244.4046182199
 20
129.8743107405
 10
244.4416830627
 20
129.839887065
 10
244.4772241824
 20
129.8039758492
 10
244.5112398206
 20
129.7665652903
 10
244.5437317383
 20
129.7276671911
 10
244.5745189068
 20
129.6874797252
 10
244.6035959415
 20
129.6459879902
 10
244.6309682294
 20
129.6032068884
 10
244.6564708995
 20
129.5593793004
 10
244.6800916598
 20
129.5144941483
 10
244.7018428046
 20
129.46856251
  0
LINE
  5
31A
100
AcDbEntity
  8
RACCORDO
100
AcDbLine
 62
253
  6
CONTINUOUS
 10
242.6189985587
 20
81.3634650941
 11
242.6182638976
 21
81.3720226572
  0
LWPOLYLINE
  5
31B
100
AcDbEntity
  8
RACCORDO
100
AcDbPolyline
 62
253
  6
CONTINUOUS
 90
4
 70
0
 10
242.596164894
 20
81.6482839962
 10
242.6035342699
 20
81.5561073008
 10
242.6109006043
 20
81.4640202067
 10
242.6182638972
 20
81.3720226693
  0
LWPOLYLINE
  5
31C
100
AcDbEntity
  8
RACCORDO
100
AcDbPolyline
 62
253
  6
CONTINUOUS
 90
4
 70
0
 10
242.5666570721
 20
82.0178874186
 10
242.5740385133
 20
81.9253521368
 10
242.5814169812
 20
81.8329064576
 10
242.596164894
 20
81.6482839962
  0
LINE
  5
31D
100
AcDbEntity
  8
RACCORDO
100
AcDbLine
 62
253
  6
CONTINUOUS
 10
242.7485183557
 20
82.393401081
 11
242.7499638481
 21
82.3757623837
  0
LINE
  5
31E
100
AcDbEntity
  8
RACCORDO
100
AcDbLine
 62
253
  6
CONTINUOUS
 10
242.5518852167
 20
82.2032270972
 11
242.5666570721
 21
82.0178874186
  0
LINE
  5
31F
100
AcDbEntity
  8
RACCORDO
100
AcDbLine
 62
253
  6
CONTINUOUS
 10
242.6201454091
 20
81.3491849413
 11
242.6189985587
 21
81.3634650941
  0
LINE
  5
320
100
AcDbEntity
  8
RACCORDO
100
AcDbLine
 62
253
  6
CONTINUOUS
 10
242.7499638481
 20
82.3757623837
 11
242.8008752481
 21
81.6898780727
  0
LINE
  5
321
100
AcDbEntity
  8
RACCORDO
100
AcDbLine
 62
253
  6
CONTINUOUS
 10
242.6213345241
 20
81.3333171227
 11
242.6201454091
 21
81.3491849413
  0
LINE
  5
322
100
AcDbEntity
  8
RACCORDO
100
AcDbLine
 62
253
  6
CONTINUOUS
 10
242.6229624754
 20
81.310002655
 11
242.6213345241
 21
81.3333171227
  0
LINE
  5
323
100
AcDbEntity
  8
RACCORDO
100
AcDbLine
 62
253
  6
CONTINUOUS
 10
242.6246089438
 20
81.2846544936
 11
242.6229624754
 21
81.310002655
  0
LWPOLYLINE
  5
324
100
AcDbEntity
  8
RACCORDO
100
AcDbPolyline
 62
253
  6
CONTINUOUS
 90
43
 70
0
 10
242.7506693542
 20
127.3770507344
 10
242.7503150079
 20
127.3830224543
 10
242.7496940898
 20
127.3889861897
 10
242.7488074301
 20
127.3949339667
 10
242.7476562145
 20
127.4008578328
 10
242.746241982
 20
127.4067498674
 10
242.7445666237
 20
127.4126021925
 10
242.7426323796
 20
127.4184069833
 10
242.7404418358
 20
127.4241564782
 10
242.7379979214
 20
127.42984299
 10
242.7353039039
 20
127.4354589155
 10
242.7323633854
 20
127.4409967457
 10
242.7291802975
 20
127.4464490763
 10
242.7257588963
 20
127.4518086172
 10
242.7221037563
 20
127.4570682023
 10
242.7182197647
 20
127.4622207994
 10
242.7141121146
 20
127.4672595189
 10
242.7097862982
 20
127.472177624
 10
242.7052480994
 20
127.4769685387
 10
242.700503586
 20
127.4816258574
 10
242.6955591018
 20
127.4861433529
 10
242.6904212577
 20
127.490514985
 10
242.6850969234
 20
127.4947349087
 10
242.6795932179
 20
127.4987974816
 10
242.6739174998
 20
127.5026972718
 10
242.6680773581
 20
127.5064290651
 10
242.6620806014
 20
127.5099878719
 10
242.6559352476
 20
127.5133689337
 10
242.6496495134
 20
127.51656773
 10
242.6432318033
 20
127.5195799837
 10
242.6366906981
 20
127.5224016673
 10
242.6300349437
 20
127.525029008
 10
242.6232734393
 20
127.5274584929
 10
242.6164152253
 20
127.5296868737
 10
242.6094694715
 20
127.5317111708
 10
242.602445465
 20
127.5335286776
 10
242.5953525972
 20
127.5351369641
 10
242.5882003517
 20
127.5365338799
 10
242.5809982915
 20
127.5377175571
 10
242.5737560461
 20
127.5386864132
 10
242.5664832989
 20
127.5394391527
 10
242.559189774
 20
127.5399747692
 10
242.5518852233
 20
127.5402925466
  0
LINE
  5
325
100
AcDbEntity
  8
RACCORDO
100
AcDbLine
 62
253
  6
CONTINUOUS
 10
242.6266427229
 20
81.2508878677
 11
242.6246089438
 21
81.2846544936
  0
LWPOLYLINE
  5
326
100
AcDbEntity
  8
RACCORDO
100
AcDbPolyline
 62
253
  6
CONTINUOUS
 90
10
 70
0
 10
243.6726543631
 20
79.567276187
 10
243.67165979
 20
79.5846302208
 10
243.6706171648
 20
79.6014560241
 10
243.669558224
 20
79.6172414328
 10
243.6685152009
 20
79.6315059516
 10
243.6675198444
 20
79.6438153799
 10
243.6666024524
 20
79.6537950284
 10
243.6657909494
 20
79.6611411246
 10
243.6651100371
 20
79.6656300592
 10
243.6645804418
 20
79.6671251925
  0
LWPOLYLINE
  5
327
100
AcDbEntity
  8
RACCORDO
100
AcDbPolyline
 62
253
  6
CONTINUOUS
 90
3
 70
0
 10
242.6289637039
 20
81.2087196669
 10
242.6285900528
 20
81.2157995062
 10
242.6266427229
 20
81.2508878677
  0
LINE
  5
328
100
AcDbEntity
  8
RACCORDO
100
AcDbLine
 62
253
  6
CONTINUOUS
 10
243.653138839
 20
80.1167885331
 11
243.6550544441
 21
80.0801022786
  0
LINE
  5
329
100
AcDbEntity
  8
RACCORDO
100
AcDbLine
 62
253
  6
CONTINUOUS
 10
243.6550544441
 20
80.0801022786
 11
243.6567297235
 21
80.0446647182
  0
LINE
  5
32A
100
AcDbEntity
  8
RACCORDO
100
AcDbLine
 62
253
  6
CONTINUOUS
 10
243.6567297235
 20
80.0446647182
 11
243.657858268
 21
80.0180267779
  0
LINE
  5
32B
100
AcDbEntity
  8
RACCORDO
100
AcDbLine
 62
253
  6
CONTINUOUS
 10
243.657858268
 20
80.0180267779
 11
243.658771706
 21
79.9935424419
  0
LINE
  5
32C
100
AcDbEntity
  8
RACCORDO
100
AcDbLine
 62
253
  6
CONTINUOUS
 10
243.658771706
 20
79.9935424419
 11
243.6593034494
 21
79.9769157717
  0
LINE
  5
32D
100
AcDbEntity
  8
RACCORDO
100
AcDbLine
 62
253
  6
CONTINUOUS
 10
243.6593034494
 20
79.9769157717
 11
243.6596963585
 21
79.9620061348
  0
LWPOLYLINE
  5
32E
100
AcDbEntity
  8
RACCORDO
100
AcDbPolyline
 62
253
  6
CONTINUOUS
 90
46
 70
0
 10
242.7313843483
 20
127.2493458285
 10
242.7312440449
 20
127.2563040448
 10
242.730861424
 20
127.263253813
 10
242.7302369501
 20
127.2701866954
 10
242.7293713814
 20
127.2770942747
 10
242.7282657688
 20
127.2839681645
 10
242.7269214546
 20
127.2908000192
 10
242.725340071
 20
127.2975815441
 10
242.723523538
 20
127.3043045058
 10
242.7214740609
 20
127.3109607419
 10
242.7191941282
 20
127.317542171
 10
242.7166865078
 20
127.3240408028
 10
242.7139542442
 20
127.330448747
 10
242.7110006549
 20
127.3367582239
 10
242.7078293256
 20
127.342961573
 10
242.7044441068
 20
127.349051263
 10
242.7008491084
 20
127.3550199002
 10
242.6970486951
 20
127.3608602381
 10
242.6930474811
 20
127.366565186
 10
242.6888503242
 20
127.3721278175
 10
242.6844623202
 20
127.377541379
 10
242.6798887966
 20
127.3827992978
 10
242.6751353062
 20
127.3878951903
 10
242.6702076201
 20
127.3928228696
 10
242.6651117211
 20
127.397576353
 10
242.6598537962
 20
127.4021498692
 10
242.6544402289
 20
127.4065378656
 10
242.6488775919
 20
127.4107350146
 10
242.6431726389
 20
127.4147362205
 10
242.6373322963
 20
127.4185366255
 10
242.6313636547
 20
127.4221316154
 10
242.6252739608
 20
127.4255168256
 10
242.6190706081
 20
127.4286881461
 10
242.612761128
 20
127.4316417265
 10
242.606353181
 20
127.434373981
 10
242.5998545469
 20
127.4368815923
 10
242.5932731158
 20
127.4391615159
 10
242.5866168782
 20
127.4412109837
 10
242.5798939154
 20
127.4430275075
 10
242.5731123898
 20
127.4446088818
 10
242.5662805305
 20
127.4459531875
 10
242.5594066364
 20
127.4470587914
 10
242.5524990663
 20
127.4479243497
 10
242.5455662112
 20
127.4485488127
 10
242.5386164839
 20
127.4489314242
 10
242.5316583223
 20
127.4490717211
  0
LINE
  5
32F
100
AcDbEntity
  8
RACCORDO
100
AcDbLine
 62
253
  6
CONTINUOUS
 10
243.6596963585
 20
79.9620061348
 11
243.6598787138
 21
79.9531116043
  0
LINE
  5
330
100
AcDbEntity
  8
RACCORDO
100
AcDbLine
 62
253
  6
CONTINUOUS
 10
243.6598787138
 20
79.9531116043
 11
243.6599961895
 21
79.94511058
  0
LWPOLYLINE
  5
331
100
AcDbEntity
  8
RACCORDO
100
AcDbPolyline
 62
253
  6
CONTINUOUS
 90
55
 70
0
 10
242.8008752481
 20
81.6898780727
 10
242.8009660151
 20
81.6793638659
 10
242.8008478829
 20
81.6689085653
 10
242.8005231245
 20
81.6585175473
 10
242.7999944881
 20
81.6481898277
 10
242.7992643013
 20
81.6379368373
 10
242.7983347332
 20
81.6277823853
 10
242.7972089783
 20
81.6177316502
 10
242.7958905133
 20
81.6077891224
 10
242.7943826905
 20
81.5979772972
 10
242.7926892133
 20
81.5882998981
 10
242.7908144464
 20
81.5787619165
 10
242.7887636903
 20
81.5693873258
 10
242.7865415149
 20
81.5601799256
 10
242.784153084
 20
81.551143347
 10
242.7816058065
 20
81.542300674
 10
242.7789056577
 20
81.5336570179
 10
242.7760580481
 20
81.5252130517
 10
242.7730705502
 20
81.5169844967
 10
242.7699500252
 20
81.5089764223
 10
242.7667018184
 20
81.5011879174
 10
242.7633315635
 20
81.4936252482
 10
242.7598454221
 20
81.4862909669
 10
242.7562492063
 20
81.4791854833
 10
242.7525478886
 20
81.4723116068
 10
242.7487471072
 20
81.4656706685
 10
242.7448527432
 20
81.4592632759
 10
242.740869943
 20
81.4530909604
 10
242.7368045294
 20
81.4471550876
 10
242.7326617572
 20
81.4414552303
 10
242.7284456863
 20
81.4359901021
 10
242.7241610181
 20
81.4307596236
 10
242.7198134417
 20
81.4257640956
 10
242.7154082942
 20
81.4210026602
 10
242.7109499302
 20
81.4164749227
 10
242.7064438718
 20
81.4121806417
 10
242.7018971669
 20
81.4081188435
 10
242.6973149102
 20
81.4042895103
 10
242.6927014604
 20
81.4006909593
 10
242.6880627196
 20
81.3973193362
 10
242.6834032717
 20
81.3941739156
 10
242.6787273192
 20
81.3912529299
 10
242.6740400573
 20
81.3885506986
 10
242.6693457279
 20
81.3860660654
 10
242.6646481172
 20
81.383797048
 10
242.6599515547
 20
81.3817365511
 10
242.6552597911
 20
81.3798830286
 10
242.6505762872
 20
81.3782344133
 10
242.6459047325
 20
81.3767827265
 10
242.6412498089
 20
81.3755263692
 10
242.6366132295
 20
81.3744629243
 10
242.6319939824
 20
81.3735833708
 10
242.6273935585
 20
81.372883569
 10
242.6228159987
 20
81.3723639784
 10
242.6182638972
 20
81.3720226693
  0
LWPOLYLINE
  5
332
100
AcDbEntity
  8
RACCORDO
100
AcDbPolyline
 62
253
  6
CONTINUOUS
 90
14
 70
0
 10
243.6599961895
 20
79.94511058
 10
243.6600481442
 20
79.9380467391
 10
243.6600494486
 20
79.9348785187
 10
243.6600342944
 20
79.931958643
 10
243.6600027024
 20
79.9292910983
 10
243.6599547156
 20
79.9268795262
 10
243.6598903997
 20
79.9247272192
 10
243.6598098424
 20
79.9228371155
 10
243.6597131536
 20
79.9212117956
 10
243.6596004654
 20
79.9198534782
 10
243.6594719317
 20
79.9187640179
 10
243.6593277278
 20
79.9179449019
 10
243.6591680507
 20
79.9173972485
 10
243.6589931184
 20
79.9171218054
  0
LINE
  5
333
100
AcDbEntity
  8
DRAFT
100
AcDbLine
 62
7
  6
CONTINUOUS
 10
234.3267960982
 20
130.5478738441
 11
234.3267960982
 21
130.3606260798
  0
LINE
  5
334
100
AcDbEntity
  8
DRAFT
100
AcDbLine
 62
7
  6
CONTINUOUS
 10
234.3267960982
 20
79.3828936514
 11
234.3267960982
 21
79.1956458327
  0
LINE
  5
335
100
AcDbEntity
  8
RACCORDO
100
AcDbLine
 62
7
  6
CONTINUOUS
 10
242.6540724928
 20
127.1720339588
 11
242.6540724928
 21
82.5714857721
  0
LINE
  5
336
100
AcDbEntity
  8
RACCORDO
100
AcDbLine
 62
253
  6
CONTINUOUS
 10
242.8008752481
 20
128.0536416585
 11
242.8008752481
 21
81.6898780727
  0
LINE
  5
337
100
AcDbEntity
  8
RACCORDO
100
AcDbLine
 62
253
  6
CONTINUOUS
 10
243.0057044862
 20
128.0536416585
 11
243.0057044862
 21
81.6898780727
  0
LWPOLYLINE
  5
338
100
AcDbEntity
  8
RACCORDO
100
AcDbPolyline
 62
253
  6
CONTINUOUS
 90
13
 70
0
 10
243.6600481479
 20
129.8054730528
 10
243.6600494523
 20
129.8086412746
 10
243.6600342982
 20
129.8115611515
 10
243.6600027062
 20
129.8142286974
 10
243.6599547195
 20
129.8166402705
 10
243.6598904036
 20
129.8187925784
 10
243.6598098463
 20
129.8206826829
 10
243.6597131575
 20
129.8223080036
 10
243.6596004693
 20
129.8236663216
 10
243.6594719356
 20
129.8247557824
 10
243.6593277317
 20
129.8255748987
 10
243.6591680546
 20
129.8261225524
 10
243.6589931222
 20
129.8263979956
  0
LINE
  5
339
100
AcDbEntity
  8
RACCORDO
100
AcDbLine
 62
253
  6
CONTINUOUS
 10
243.6599961931
 20
129.798409209
 11
243.6600481479
 21
129.8054730528
  0
LWPOLYLINE
  5
33A
100
AcDbEntity
  8
RACCORDO
100
AcDbPolyline
 62
253
  6
CONTINUOUS
 90
55
 70
0
 10
243.0057044862
 20
81.6898780727
 10
243.005488509
 20
81.6740682097
 10
243.0048672939
 20
81.6583586771
 10
243.0038408407
 20
81.6427494749
 10
243.0024033561
 20
81.6272235973
 10
243.0005606336
 20
81.6117980501
 10
242.9983300526
 20
81.5965238508
 10
242.9957098599
 20
81.58140206
 10
242.9927018088
 20
81.5664316171
 10
242.9893285385
 20
81.5516603576
 10
242.9855877154
 20
81.5370880777
 10
242.9814816731
 20
81.5227149813
 10
242.9770400517
 20
81.5085895147
 10
242.972260408
 20
81.4947128348
 10
242.9671451851
 20
81.4810837849
 10
242.9617313517
 20
81.4677473412
 10
242.9560181198
 20
81.4547079864
 10
242.9500062772
 20
81.4419612378
 10
242.9437351571
 20
81.4295386242
 10
242.9372059754
 20
81.4174455992
 10
242.930417516
 20
81.4056767092
 10
242.923405464
 20
81.3942471213
 10
242.9161705134
 20
81.3831591391
 10
242.9087119701
 20
81.372410459
 10
242.901063436
 20
81.3620093377
 10
242.8932251206
 20
81.3519569238
 10
242.8851968145
 20
81.3422520688
 10
242.8770114909
 20
81.3328995832
 10
242.8686702904
 20
81.3239013258
 10
242.8601720724
 20
81.3152554378
 10
242.8515463895
 20
81.3069611546
 10
242.842792783
 20
81.2990186618
 10
242.8339117116
 20
81.2914277738
 10
242.8249341041
 20
81.2841871686
 10
242.8158591598
 20
81.2772973722
 10
242.8066876792
 20
81.2707578587
 10
242.7974529927
 20
81.264565728
 10
242.7881562843
 20
81.2587228934
 10
242.7787963699
 20
81.2532274417
 10
242.7694030275
 20
81.2480707336
 10
242.7599772303
 20
81.243254054
 10
242.7505180051
 20
81.2387761179
 10
242.74105221
 20
81.2346244322
 10
242.7315809729
 20
81.2307999992
 10
242.722103166
 20
81.2273018165
 10
242.712642264
 20
81.2241143836
 10
242.7031992495
 20
81.2212383555
 10
242.69377314
 20
81.2186730773
 10
242.6843844625
 20
81.2164010838
 10
242.6750369415
 20
81.2144229795
 10
242.6657268524
 20
81.2127381599
 10
242.6564635488
 20
81.2113273467
 10
242.6472501485
 20
81.2101841137
 10
242.6380835336
 20
81.2093148872
 10
242.6289637041
 20
81.2087196669
  0
LINE
  5
33B
100
AcDbEntity
  8
RACCORDO
100
AcDbLine
 62
253
  6
CONTINUOUS
 10
243.6598787173
 20
129.7904081814
 11
243.6599961931
 21
129.798409209
  0
LINE
  5
33C
100
AcDbEntity
  8
RACCORDO
100
AcDbLine
 62
253
  6
CONTINUOUS
 10
243.6596963618
 20
129.7815136473
 11
243.6598787173
 21
129.7904081814
  0
LINE
  5
33D
100
AcDbEntity
  8
RACCORDO
100
AcDbLine
 62
253
  6
CONTINUOUS
 10
243.6593034524
 20
129.7666040044
 11
243.6596963618
 21
129.7815136473
  0
LINE
  5
33E
100
AcDbEntity
  8
RACCORDO
100
AcDbLine
 62
253
  6
CONTINUOUS
 10
243.6587717086
 20
129.7499773279
 11
243.6593034524
 21
129.7666040044
  0
LINE
  5
33F
100
AcDbEntity
  8
RACCORDO
100
AcDbLine
 62
253
  6
CONTINUOUS
 10
243.6578582701
 20
129.7254929829
 11
243.6587717086
 21
129.7499773279
  0
LINE
  5
340
100
AcDbEntity
  8
RACCORDO
100
AcDbLine
 62
253
  6
CONTINUOUS
 10
243.6567297251
 20
129.6988550336
 11
243.6578582701
 21
129.7254929829
  0
LINE
  5
341
100
AcDbEntity
  8
RACCORDO
100
AcDbLine
 62
253
  6
CONTINUOUS
 10
243.6550544449
 20
129.6634174622
 11
243.6567297251
 21
129.6988550336
  0
LINE
  5
342
100
AcDbEntity
  8
RACCORDO
100
AcDbLine
 62
253
  6
CONTINUOUS
 10
243.653138839
 20
129.6267311982
 11
243.6550544449
 21
129.6634174622
  0
LINE
  5
343
100
AcDbEntity
  8
RACCORDO
100
AcDbLine
 62
253
  6
CONTINUOUS
 10
242.6289637036
 20
128.5348000643
 11
242.6270411097
 21
128.4995786076
  0
LWPOLYLINE
  5
344
100
AcDbEntity
  8
RACCORDO
100
AcDbPolyline
 62
253
  6
CONTINUOUS
 90
10
 70
0
 10
243.6726543662
 20
130.1762435442
 10
243.6716597915
 20
130.1588894618
 10
243.6706171639
 20
130.1420636068
 10
243.6695582205
 20
130.1262781481
 10
243.6685151947
 20
130.1120135854
 10
243.6675198358
 20
130.0997041236
 10
243.6666024418
 20
130.0897244552
 10
243.6657909376
 20
130.0823783553
 10
243.665110025
 20
130.0778894347
 10
243.6645804305
 20
130.0763943335
  0
LINE
  5
345
100
AcDbEntity
  8
RACCORDO
100
AcDbLine
 62
253
  6
CONTINUOUS
 10
242.6270411097
 20
128.4995786076
 11
242.6250195792
 21
128.4654611449
  0
LINE
  5
346
100
AcDbEntity
  8
RACCORDO
100
AcDbLine
 62
253
  6
CONTINUOUS
 10
242.6250195792
 20
128.4654611449
 11
242.623373647
 21
128.4396827085
  0
LINE
  5
347
100
AcDbEntity
  8
RACCORDO
100
AcDbLine
 62
253
  6
CONTINUOUS
 10
242.623373647
 20
128.4396827085
 11
242.6217379759
 21
128.4158141641
  0
LINE
  5
348
100
AcDbEntity
  8
RACCORDO
100
AcDbLine
 62
253
  6
CONTINUOUS
 10
242.6217379759
 20
128.4158141641
 11
242.62053774
 21
128.3994561484
  0
LINE
  5
349
100
AcDbEntity
  8
RACCORDO
100
AcDbLine
 62
253
  6
CONTINUOUS
 10
242.7499632605
 20
127.3677501658
 11
242.8008752481
 21
128.0536416585
  0
LWPOLYLINE
  5
34A
100
AcDbEntity
  8
RACCORDO
100
AcDbPolyline
 62
253
  6
CONTINUOUS
 90
3
 70
0
 10
242.5518852232
 20
127.5402925458
 10
242.6109006034
 20
128.2794995133
 10
242.6182638972
 20
128.3714970619
  0
LINE
  5
34B
100
AcDbEntity
  8
RACCORDO
100
AcDbLine
 62
253
  6
CONTINUOUS
 10
242.62053774
 20
128.3994561484
 11
242.6193753342
 21
128.3846279124
  0
LWPOLYLINE
  5
34C
100
AcDbEntity
  8
RACCORDO
100
AcDbPolyline
 62
253
  6
CONTINUOUS
 90
3
 70
0
 10
242.6193753342
 20
128.3846279124
 10
242.6186279241
 20
128.3756758359
 10
242.6182638971
 20
128.3714970582
  0
LWPOLYLINE
  5
34D
100
AcDbEntity
  8
RACCORDO
100
AcDbPolyline
 62
253
  6
CONTINUOUS
 90
67
 70
0
 10
244.409409548
 20
128.8283870216
 10
244.4091980995
 20
128.846762019
 10
244.4085658677
 20
128.8651098004
 10
244.4075128528
 20
128.8834303659
 10
244.4060380452
 20
128.9017340647
 10
244.4041424544
 20
128.9200105476
 10
244.4018291088
 20
128.9382287669
 10
244.3990973544
 20
128.956387914
 10
244.3959478452
 20
128.9744887975
 10
244.3923855716
 20
128.9925027956
 10
244.3884098846
 20
129.0104297372
 10
244.3840214331
 20
129.0282697933
 10
244.379227155
 20
129.0459948556
 10
244.3740264164
 20
129.0636047457
 10
244.3684198511
 20
129.0810996421
 10
244.3624162984
 20
129.0984519715
 10
244.3560151311
 20
129.1156615194
 10
244.3492169763
 20
129.1327285003
 10
244.3420325547
 20
129.1496259851
 10
244.3344612609
 20
129.1663537039
 10
244.3265037002
 20
129.1829119266
 10
244.3181724093
 20
129.199274533
 10
244.3094668023
 20
129.2154412145
 10
244.300387465
 20
129.2314122797
 10
244.2909486916
 20
129.247162534
 10
244.2811499155
 20
129.2626916347
 10
244.270991703
 20
129.2779999244
 10
244.2604900479
 20
129.2930632375
 10
244.2496444082
 20
129.3078811919
 10
244.2384553257
 20
129.3224541696
 10
244.2269404191
 20
129.3367591513
 10
244.2150991746
 20
129.3507957173
 10
244.2029321059
 20
129.3645642873
 10
244.1904583727
 20
129.378043101
 10
244.17767749
 20
129.3912317056
 10
244.1645899426
 20
129.4041305538
 10
244.1512163455
 20
129.4167192448
 10
244.1375562383
 20
129.4289972977
 10
244.1236100812
 20
129.4409651932
 10
244.1093998702
 20
129.4526039722
 10
244.094925187
 20
129.4639131156
 10
244.0801864496
 20
129.4748931425
 10
244.065206909
 20
129.4855266515
 10
244.0499861876
 20
129.4958130941
 10
244.0345246629
 20
129.5057530188
 10
244.0188467178
 20
129.5153306704
 10
244.0029520036
 20
129.5245454812
 10
243.9868408688
 20
129.5333980187
 10
243.9705387428
 20
129.5418742304
 10
243.9540453128
 20
129.5499735256
 10
243.9373608914
 20
129.5576964948
 10
243.9205118449
 20
129.5650308571
 10
243.9034979181
 20
129.5719759943
 10
243.886319366
 20
129.5785325245
 10
243.8690033205
 20
129.5846900208
 10
243.8515495644
 20
129.5904478543
 10
243.8339583146
 20
129.595806654
 10
243.816257355
 20
129.6007578794
 10
243.7984464746
 20
129.6053008879
 10
243.7805258841
 20
129.6094363222
 10
243.7625240001
 20
129.6131575704
 10
243.744440055
 20
129.6164640113
 10
243.7262748162
 20
129.6193562662
 10
243.7080590033
 20
129.6218295871
 10
243.6898028561
 20
129.6238823914
 10
243.6714961347
 20
129.6255162618
 10
243.653138839
 20
129.6267311982
  0
LWPOLYLINE
  5
34E
100
AcDbEntity
  8
RACCORDO
100
AcDbPolyline
 62
253
  6
CONTINUOUS
 90
67
 70
0
 10
244.6041851943
 20
128.8283870216
 10
244.6039201913
 20
128.8513464955
 10
244.6031279837
 20
128.8742929651
 10
244.6018090326
 20
128.897214339
 10
244.5999640953
 20
128.9200983598
 10
244.5975941767
 20
128.9429331535
 10
244.594700487
 20
128.9657072316
 10
244.5912845187
 20
128.9884088213
 10
244.5873481037
 20
129.0110257319
 10
244.5828933457
 20
129.0335459041
 10
244.5779226247
 20
129.0559573906
 10
244.572438559
 20
129.0782484681
 10
244.5664440188
 20
129.1004074989
 10
244.5599421643
 20
129.1224228196
 10
244.5529364311
 20
129.1442828184
 10
244.5454304903
 20
129.1659760458
 10
244.5374282936
 20
129.1874910786
 10
244.5289340615
 20
129.2088165704
 10
244.5199522529
 20
129.2299413241
 10
244.5104875993
 20
129.2508542013
 10
244.5005450838
 20
129.2715441844
 10
244.4901299179
 20
129.2920004214
 10
244.4792475841
 20
129.3122121248
 10
244.4679038092
 20
129.3321686425
 10
244.4561045322
 20
129.3518595138
 10
244.4438559574
 20
129.3712743573
 10
244.4311645309
 20
129.3904029304
 10
244.418036903
 20
129.4092351942
 10
244.4044799756
 20
129.4277612142
 10
244.3905008811
 20
129.4459712139
 10
244.3761069487
 20
129.4638556279
 10
244.3613057472
 20
129.4814050158
 10
244.3461050616
 20
129.4986101131
 10
244.3305128631
 20
129.5154618786
 10
244.3145373494
 20
129.5319514127
 10
244.2981869243
 20
129.5480700042
 10
244.2814701676
 20
129.5638091747
 10
244.2643958674
 20
129.5791606084
 10
244.2469730079
 20
129.5941161882
 10
244.2292107433
 20
129.6086680357
 10
244.2111184157
 20
129.622808455
 10
244.1927055444
 20
129.6365299658
 10
244.1739818085
 20
129.6498253346
 10
244.1549570599
 20
129.6626875231
 10
244.1356413087
 20
129.6751097223
 10
244.1160447098
 20
129.6870853814
 10
244.0961775691
 20
129.6986081579
 10
244.0760503495
 20
129.709671941
 10
244.0556736546
 20
129.7202708821
 10
244.0350582012
 20
129.7303993633
 10
244.0142148524
 20
129.7400520052
 10
243.9931546217
 20
129.7492236896
 10
243.9718886079
 20
129.7579095433
 10
243.950428003
 20
129.7661049561
 10
243.9287841256
 20
129.7738055899
 10
243.9069683869
 20
129.7810073453
 10
243.8849922698
 20
129.7877063937
 10
243.8628673369
 20
129.7938991937
 10
243.8406051705
 20
129.7995824592
 10
243.8182175755
 20
129.8047531335
 10
243.7957165613
 20
129.8094084323
 10
243.773114194
 20
129.8135458396
 10
243.7504221863
 20
129.8171631925
 10
243.7276520968
 20
129.8202586297
 10
243.7048157917
 20
129.8228304845
 10
243.681925444
 20
129.8248773181
 10
243.6589931222
 20
129.8263979958
  0
LINE
  5
34F
100
AcDbEntity
  8
RACCORDO
100
AcDbLine
 62
253
  6
CONTINUOUS
 10
244.409409548
 20
80.9151327096
 11
244.409409548
 21
128.8283870216
  0
LINE
  5
350
100
AcDbEntity
  8
RACCORDO
100
AcDbLine
 62
253
  6
CONTINUOUS
 10
244.6041851943
 20
80.9151327096
 11
244.6041851943
 21
128.8283870216
  0
LINE
  5
351
100
AcDbEntity
  8
RACCORDO
100
AcDbLine
 62
7
  6
CONTINUOUS
 10
244.6584711118
 20
128.8797637766
 11
244.6584711118
 21
80.8637559546
  0
LINE
  5
352
100
AcDbEntity
  8
RACCORDO
100
AcDbLine
 62
7
  6
CONTINUOUS
 10
244.7040724928
 20
128.978060398
 11
244.7040724928
 21
80.7654593333
  0
LINE
  5
353
100
AcDbEntity
  8
RACCORDO
100
AcDbLine
 62
253
  6
CONTINUOUS
 10
244.8066822545
 20
128.978060398
 11
244.8066822545
 21
80.7654593333
  0
LWPOLYLINE
  5
354
100
AcDbEntity
  8
RACCORDO
100
AcDbPolyline
 62
7
  6
CONTINUOUS
 90
67
 70
0
 10
244.6584711118
 20
80.8637559464
 10
244.6582073078
 20
80.840795962
 10
244.6574174909
 20
80.8178673935
 10
244.656101661
 20
80.7949702409
 10
244.6542582885
 20
80.7720893913
 10
244.651888903
 20
80.7492399577
 10
244.6489980932
 20
80.7264672785
 10
244.6455857839
 20
80.7037772489
 10
244.6416520502
 20
80.6811639738
 10
244.6372017066
 20
80.6586551061
 10
244.6322327676
 20
80.6362453358
 10
244.6267472184
 20
80.613939973
 10
244.6207558293
 20
80.5917826011
 10
244.614259604
 20
80.5697795307
 10
244.6072575386
 20
80.5479244512
 10
244.5997573909
 20
80.5262420145
 10
244.5917558235
 20
80.504725568
 10
244.5832561736
 20
80.4833817643
 10
244.5742762112
 20
80.4622552125
 10
244.5648183314
 20
80.4413534381
 10
244.554880139
 20
80.4206689156
 10
244.5444722185
 20
80.4002236779
 10
244.5335904286
 20
80.3800114848
 10
244.5222389103
 20
80.3600385764
 10
244.5104406712
 20
80.3403457062
 10
244.4981982923
 20
80.3209388199
 10
244.4855091924
 20
80.3018119718
 10
244.4723886362
 20
80.2829880778
 10
244.4588332925
 20
80.264463657
 10
244.4448464923
 20
80.2462421905
 10
244.4304534938
 20
80.2283570372
 10
244.4156550856
 20
80.2108107348
 10
244.4004504789
 20
80.1936007456
 10
244.3848625654
 20
80.176752816
 10
244.3688909528
 20
80.160267475
 10
244.3525360331
 20
80.1441441935
 10
244.3358218749
 20
80.1284071301
 10
244.3187458298
 20
80.1130552083
 10
244.3013105459
 20
80.0980895046
 10
244.2835480361
 20
80.083537407
 10
244.2654616633
 20
80.0694025005
 10
244.2470480643
 20
80.0556812001
 10
244.2283291629
 20
80.0423901392
 10
244.2092991313
 20
80.0295263941
 10
244.189963797
 20
80.0170928885
 10
244.1703625672
 20
80.0051150279
 10
244.1505013674
 20
79.993597258
 10
244.1303742719
 20
79.982535133
 10
244.1100029106
 20
79.9719407211
 10
244.089380032
 20
79.9618112903
 10
244.0685128874
 20
79.9521495724
 10
244.0474448617
 20
79.9429758317
 10
244.026182164
 20
79.9342936771
 10
244.0047185849
 20
79.9260994995
 10
243.9830788817
 20
79.9184027359
 10
243.9612570735
 20
79.9112021442
 10
243.939259141
 20
79.9044989663
 10
243.9171277838
 20
79.8983063649
 10
243.894867942
 20
79.8926265535
 10
243.8724746753
 20
79.8874573184
 10
243.8499758631
 20
79.8828051814
 10
243.8273657626
 20
79.8786699475
 10
243.8046501165
 20
79.8750518117
 10
243.7818740314
 20
79.8719578807
 10
243.759052543
 20
79.8693905235
 10
243.7361706156
 20
79.8673473711
 10
243.7132282491
 20
79.8658284236
  0
LWPOLYLINE
  5
355
100
AcDbEntity
  8
RACCORDO
100
AcDbPolyline
 62
253
  6
CONTINUOUS
 90
5
 70
0
 10
244.8066822545
 20
80.7654593333
 10
244.8056254728
 20
80.7150800163
 10
244.8024668755
 20
80.6649142622
 10
244.7972064624
 20
80.6149620709
 10
244.7898314591
 20
80.5651284398
  0
LWPOLYLINE
  5
356
100
AcDbEntity
  8
RACCORDO
100
AcDbPolyline
 62
253
  6
CONTINUOUS
 90
7
 70
0
 10
244.7898314591
 20
80.5651284398
 10
244.7803546392
 20
80.5155083715
 10
244.768814325
 20
80.466386874
 10
244.7551956094
 20
80.4177658727
 10
244.7395133981
 20
80.3696434422
 10
244.7218507324
 20
80.3222988139
 10
244.7021955741
 20
80.2757402754
  0
LWPOLYLINE
  5
357
100
AcDbEntity
  8
RACCORDO
100
AcDbPolyline
 62
253
  6
CONTINUOUS
 90
17
 70
0
 10
244.7021955741
 20
80.2757402754
 10
244.6805599595
 20
80.2299595392
 10
244.6570630415
 20
80.1852109738
 10
244.6316985668
 20
80.1415068184
 10
244.6044727864
 20
80.0988348338
 10
244.5755236095
 20
80.0574126715
 10
244.5448458788
 20
80.0172478347
 10
244.5124447491
 20
79.97833282
 10
244.4784735985
 20
79.9408627695
 10
244.4429205858
 20
79.904838892
 10
244.4057975494
 20
79.8702599785
 10
244.3672933873
 20
79.8373175437
 10
244.3274004286
 20
79.8060196366
 10
244.2861263416
 20
79.776358208
 10
244.2436830333
 20
79.7485006259
 10
244.199964906
 20
79.72242457
 10
244.1550775549
 20
79.6981523605
  0
LWPOLYLINE
  5
358
100
AcDbEntity
  8
RACCORDO
100
AcDbPolyline
 62
253
  6
CONTINUOUS
 90
11
 70
0
 10
244.7018428046
 20
129.46856251
 10
244.7215963424
 20
129.4218604989
 10
244.7393360794
 20
129.3743835256
 10
244.7550782113
 20
129.3261361796
 10
244.768743331
 20
129.2774083424
 10
244.7803151835
 20
129.2282029516
 10
244.7898100252
 20
129.1785170697
 10
244.7971972168
 20
129.1286317664
 10
244.8024665454
 20
129.0786407316
 10
244.8056282246
 20
129.0284502755
 10
244.8066822545
 20
128.978060398
  0
LWPOLYLINE
  5
359
100
AcDbEntity
  8
RACCORDO
100
AcDbPolyline
 62
253
  6
CONTINUOUS
 90
31
 70
0
 10
266.4206074178
 20
145.3717598656
 10
266.4196117794
 20
145.4382378654
 10
266.4149513222
 20
145.5063372828
 10
266.4066260457
 20
145.5760581178
 10
266.394881804
 20
145.6476971632
 10
266.3794727407
 20
145.7209576261
 10
266.3596612881
 20
145.7949491287
 10
266.3352923076
 20
145.8698723334
 10
266.3065209316
 20
145.9455265777
 10
266.2730749966
 20
146.0204194961
 10
266.2347602384
 20
146.0945609599
 10
266.1917709105
 20
146.1679410978
 10
266.1444176252
 20
146.2390379306
 10
266.0925393503
 20
146.307752914
 10
266.036297104
 20
146.3741845923
 10
265.9764845759
 20
146.4371066187
 10
265.9129328027
 20
146.4964057236
 10
265.8458107334
 20
146.5521951766
 10
265.7764189298
 20
146.6035884392
 10
265.7046021601
 20
146.6504140864
 10
265.6305156458
 20
146.6928435431
 10
265.5559256356
 20
146.7305045454
 10
265.4808422956
 20
146.7631532002
 10
265.4052554574
 20
146.7910334007
 10
265.3309008765
 20
146.8145045614
 10
265.2581259219
 20
146.8333791042
 10
265.186583231
 20
146.8478446072
 10
265.1169664673
 20
146.85882322
 10
265.0495068554
 20
146.8666223255
 10
264.9839731794
 20
146.8709345407
 10
264.9203654433
 20
146.8717598656
  0
LWPOLYLINE
  5
35A
100
AcDbEntity
  8
RACCORDO
100
AcDbPolyline
 62
253
  6
CONTINUOUS
 90
10
 70
0
 10
264.9203654433
 20
146.8717598656
 10
264.9201179168
 20
146.9585839553
 10
264.9193828582
 20
147.0427699388
 10
264.9181826018
 20
147.1217598674
 10
264.916553617
 20
147.1931536723
 10
264.9145453995
 20
147.2547820889
 10
264.912218968
 20
147.3047725687
 10
264.90964501
 20
147.3416061767
 10
264.906901734
 20
147.3641637423
 10
264.9040724928
 20
147.3717598656
  0
LINE
  5
35B
100
AcDbEntity
  8
RACCORDO
100
AcDbLine
 62
253
  6
CONTINUOUS
 10
266.4206074178
 20
64.3717598656
 11
266.4206074178
 21
145.3717598656
  0
LINE
  5
35C
100
AcDbEntity
  8
RACCORDO
100
AcDbLine
 62
7
  6
CONTINUOUS
 10
266.9040724928
 20
64.3717598656
 11
266.9040724928
 21
145.3717598656
  0
LWPOLYLINE
  5
35D
100
AcDbEntity
  8
RACCORDO
100
AcDbPolyline
 62
253
  6
CONTINUOUS
 90
10
 70
0
 10
264.9203654433
 20
62.8717598656
 10
264.9201179176
 20
62.7849359278
 10
264.919382861
 20
62.7007500428
 10
264.9181826071
 20
62.6217601552
 10
264.9165536243
 20
62.5503663346
 10
264.9145454078
 20
62.4887378618
 10
264.9122189761
 20
62.4387473098
 10
264.9096450168
 20
62.4019136313
 10
264.9069017379
 20
62.3793560108
 10
264.9040724928
 20
62.3717598656
  0
LINE
  5
35E
100
AcDbEntity
  8
RACCORDO
100
AcDbLine
 62
7
  6
CONTINUOUS
 10
35.2043634687
 20
62.3717598656
 11
41.7527830628
 21
62.3717598656
  0
LINE
  5
35F
100
AcDbEntity
  8
RACCORDO
100
AcDbLine
 62
253
  6
CONTINUOUS
 10
34.7043634687
 20
62.8717598656
 11
36.3506540678
 21
62.8717598656
  0
LINE
  5
360
100
AcDbEntity
  8
RACCORDO
100
AcDbLine
 62
253
  6
CONTINUOUS
 10
36.3999303849
 20
64.3717598656
 11
41.8187316526
 21
64.3717598656
  0
LINE
  5
361
100
AcDbEntity
  8
DRAFT
100
AcDbLine
 62
253
  6
CONTINUOUS
 10
41.8187316526
 20
64.3717598656
 11
44.6043634687
 21
64.3717598656
  0
LINE
  5
362
100
AcDbEntity
  8
DRAFT
100
AcDbLine
 62
7
  6
CONTINUOUS
 10
44.1043634687
 20
63.3717598656
 11
41.8118321147
 21
63.4919063428
  0
LINE
  5
363
100
AcDbEntity
  8
DRAFT
100
AcDbLine
 62
7
  6
CONTINUOUS
 10
34.8656311494
 20
77.7387651875
 11
34.8008732834
 21
77.7398955402
  0
LINE
  5
364
100
AcDbEntity
  8
RACCORDO
100
AcDbLine
 62
253
  6
CONTINUOUS
 10
35.7602259061
 20
80.7654593333
 11
35.760191846
 21
80.7654593333
  0
LINE
  5
365
100
AcDbEntity
  8
RACCORDO
100
AcDbLine
 62
253
  6
CONTINUOUS
 10
35.6498799847
 20
80.9151327096
 11
35.760191846
 21
80.9151327096
  0
LINE
  5
366
100
AcDbEntity
  8
RACCORDO
100
AcDbLine
 62
253
  6
CONTINUOUS
 10
35.6137323413
 20
81.6898780727
 11
35.6136672207
 21
81.6898780727
  0
LWPOLYLINE
  5
367
100
AcDbEntity
  8
RACCORDO
100
AcDbPolyline
 62
253
  6
CONTINUOUS
 90
10
 70
0
 10
36.3506540678
 20
62.8717598656
 10
36.3582461307
 20
62.7849359278
 10
36.3807916534
 20
62.7007500428
 10
36.4176056244
 20
62.6217601552
 10
36.4675694942
 20
62.5503663346
 10
36.5291651528
 20
62.4887378618
 10
36.6005210496
 20
62.4387473098
 10
36.6794690733
 20
62.4019136313
 10
36.763610434
 20
62.3793560108
 10
36.8503885371
 20
62.3717598656
  0
LWPOLYLINE
  5
368
100
AcDbEntity
  8
RACCORDO
100
AcDbPolyline
 62
253
  6
CONTINUOUS
 90
10
 70
0
 10
36.3506540678
 20
146.8717598656
 10
36.3582461574
 20
146.9585839553
 10
36.3807917445
 20
147.0427699388
 10
36.4176057926
 20
147.1217598674
 10
36.4675697254
 20
147.1931536723
 10
36.5291654141
 20
147.2547820889
 10
36.6005213046
 20
147.3047725687
 10
36.6794692841
 20
147.3416061767
 10
36.7636105583
 20
147.3641637423
 10
36.8503885371
 20
147.3717598656
  0
LINE
  5
369
100
AcDbEntity
  8
RACCORDO
100
AcDbLine
 62
7
  6
CONTINUOUS
 10
35.6078274548
 20
128.486843882
 11
35.6081387106
 21
128.4801238087
  0
LINE
  5
36A
100
AcDbEntity
  8
RACCORDO
100
AcDbLine
 62
253
  6
CONTINUOUS
 10
35.6077165351
 20
128.4953080131
 11
35.6078274548
 21
128.486843882
  0
LINE
  5
36B
100
AcDbEntity
  8
RACCORDO
100
AcDbLine
 62
253
  6
CONTINUOUS
 10
35.6081939645
 20
128.4846317327
 11
35.6081387106
 21
128.4801238087
  0
LINE
  5
36C
100
AcDbEntity
  8
RACCORDO
100
AcDbLine
 62
253
  6
CONTINUOUS
 10
35.6405636611
 20
129.4958130941
 11
35.6393476125
 21
129.5245454812
  0
LINE
  5
36D
100
AcDbEntity
  8
RACCORDO
100
AcDbLine
 62
253
  6
CONTINUOUS
 10
35.745565864
 20
129.9953396306
 11
35.7460884584
 21
129.9796183861
  0
LINE
  5
36E
100
AcDbEntity
  8
RACCORDO
100
AcDbLine
 62
7
  6
CONTINUOUS
 10
35.6081387106
 20
128.4801238087
 11
35.6085374548
 21
128.4704814099
  0
LINE
  5
36F
100
AcDbEntity
  8
RACCORDO
100
AcDbLine
 62
253
  6
CONTINUOUS
 10
35.6084305916
 20
128.4787788477
 11
35.6085374548
 21
128.4704814099
  0
LINE
  5
370
100
AcDbEntity
  8
RACCORDO
100
AcDbLine
 62
7
  6
CONTINUOUS
 10
35.7460884584
 20
129.9796183861
 11
35.747937336
 21
129.9293740785
  0
LINE
  5
371
100
AcDbEntity
  8
RACCORDO
100
AcDbLine
 62
253
  6
CONTINUOUS
 10
35.641726207
 20
129.4639131156
 11
35.6405636611
 21
129.4958130941
  0
LINE
  5
372
100
AcDbEntity
  8
RACCORDO
100
AcDbLine
 62
7
  6
CONTINUOUS
 10
35.6085374548
 20
128.4704814099
 11
35.6090220695
 21
128.4571159879
  0
LINE
  5
373
100
AcDbEntity
  8
RACCORDO
100
AcDbLine
 62
253
  6
CONTINUOUS
 10
35.7477264384
 20
129.9382023994
 11
35.7485398391
 21
129.911242254
  0
LINE
  5
374
100
AcDbEntity
  8
RACCORDO
100
AcDbLine
 62
253
  6
CONTINUOUS
 10
35.6088988598
 20
128.4660343588
 11
35.6090220695
 21
128.4571159879
  0
LINE
  5
375
100
AcDbEntity
  8
RACCORDO
100
AcDbLine
 62
7
  6
CONTINUOUS
 10
35.747937336
 20
129.9293740785
 11
35.7497198637
 21
129.872923595
  0
LINE
  5
376
100
AcDbEntity
  8
RACCORDO
100
AcDbLine
 62
7
  6
CONTINUOUS
 10
35.6090220695
 20
128.4571159879
 11
35.6095874829
 21
128.4390458523
  0
LINE
  5
377
100
AcDbEntity
  8
RACCORDO
100
AcDbLine
 62
253
  6
CONTINUOUS
 10
35.6431833467
 20
129.4167192448
 11
35.641726207
 21
129.4639131156
  0
LINE
  5
378
100
AcDbEntity
  8
RACCORDO
100
AcDbLine
 62
253
  6
CONTINUOUS
 10
35.6095838842
 20
128.4443083108
 11
35.6095874829
 21
128.4390458523
  0
LINE
  5
379
100
AcDbEntity
  8
RACCORDO
100
AcDbLine
 62
253
  6
CONTINUOUS
 10
35.7497555182
 20
129.8743107405
 11
35.7497198637
 21
129.872923595
  0
LINE
  5
37A
100
AcDbEntity
  8
RACCORDO
100
AcDbLine
 62
7
  6
CONTINUOUS
 10
35.6095874829
 20
128.4390458523
 11
35.6102247335
 21
128.4150410909
  0
LINE
  5
37B
100
AcDbEntity
  8
RACCORDO
100
AcDbLine
 62
7
  6
CONTINUOUS
 10
35.7497198637
 20
129.872923595
 11
35.7519631311
 21
129.7881749235
  0
LINE
  5
37C
100
AcDbEntity
  8
RACCORDO
100
AcDbLine
 62
253
  6
CONTINUOUS
 10
35.6445229505
 20
129.3645642873
 11
35.6431833467
 21
129.4167192448
  0
LINE
  5
37D
100
AcDbEntity
  8
RACCORDO
100
AcDbLine
 62
253
  6
CONTINUOUS
 10
35.6102422484
 20
128.4194261866
 11
35.6102247335
 21
128.4150410909
  0
LINE
  5
37E
100
AcDbEntity
  8
RACCORDO
100
AcDbLine
 62
253
  6
CONTINUOUS
 10
35.7516424311
 20
129.8039758492
 11
35.7519631311
 21
129.7881749235
  0
LWPOLYLINE
  5
37F
100
AcDbEntity
  8
RACCORDO
100
AcDbPolyline
 62
253
  6
CONTINUOUS
 90
33
 70
0
 10
35.6303257562
 20
80.1167885331
 10
35.6304726003
 20
80.1094110526
 10
35.6308921948
 20
80.102043644
 10
35.6315839668
 20
80.0946963653
 10
35.6325469719
 20
80.0873792471
 10
35.6337798955
 20
80.0801022786
 10
35.6352810543
 20
80.0728753946
 10
35.6370483989
 20
80.0657084611
 10
35.6390795166
 20
80.0586112625
 10
35.6413716344
 20
80.0515934879
 10
35.6439216232
 20
80.0446647182
 10
35.6467260016
 20
80.0378344123
 10
35.6497809412
 20
80.0311118952
 10
35.6530822713
 20
80.0245063444
 10
35.6566254849
 20
80.0180267779
 10
35.6604057448
 20
80.0116820417
 10
35.6644178901
 20
80.0054807975
 10
35.6686564435
 20
79.9994315114
 10
35.6731156184
 20
79.9935424419
 10
35.6777893272
 20
79.9878216288
 10
35.6826711893
 20
79.9822768822
 10
35.68775454
 20
79.9769157717
 10
35.6930324393
 20
79.9717456165
 10
35.698497682
 20
79.9667734749
 10
35.7041428067
 20
79.9620061348
 10
35.7099601069
 20
79.9574501046
 10
35.7159416405
 20
79.9531116043
 10
35.7220792417
 20
79.9489965568
 10
35.7283645313
 20
79.94511058
 10
35.7347889287
 20
79.941458979
 10
35.7413436631
 20
79.9380467391
 10
35.748019786
 20
79.9348785187
 10
35.7514249552
 20
79.9334138621
  0
LINE
  5
380
100
AcDbEntity
  8
RACCORDO
100
AcDbLine
 62
7
  6
CONTINUOUS
 10
35.7519631311
 20
129.7881749235
 11
35.754016404
 21
129.6929390818
  0
LINE
  5
381
100
AcDbEntity
  8
RACCORDO
100
AcDbLine
 62
7
  6
CONTINUOUS
 10
35.6102247335
 20
128.4150410909
 11
35.6109948623
 21
128.3797340022
  0
LINE
  5
382
100
AcDbEntity
  8
RACCORDO
100
AcDbLine
 62
253
  6
CONTINUOUS
 10
35.646014901
 20
129.2930632375
 11
35.6445229505
 21
129.3645642873
  0
LINE
  5
383
100
AcDbEntity
  8
RACCORDO
100
AcDbLine
 62
253
  6
CONTINUOUS
 10
35.6110666209
 20
128.3813306797
 11
35.6109948623
 21
128.3797340022
  0
LINE
  5
384
100
AcDbEntity
  8
RACCORDO
100
AcDbLine
 62
253
  6
CONTINUOUS
 10
35.6111442879
 20
128.371916699
 11
35.6112613264
 21
128.370933819
  0
LWPOLYLINE
  5
385
100
AcDbEntity
  8
RACCORDO
100
AcDbPolyline
 62
7
  6
CONTINUOUS
 90
14
 70
0
 10
34.6043634687
 20
130.6406352761
 10
34.6044797218
 20
130.6338170865
 10
34.6048278965
 20
130.6270134043
 10
34.6054075862
 20
130.6202255531
 10
34.606218113
 20
130.6134614283
 10
34.6072585322
 20
130.6067288757
 10
34.6085276317
 20
130.6000357079
 10
34.6100239286
 20
130.5933897141
 10
34.6117456773
 20
130.5867986118
 10
34.6136908751
 20
130.5802700375
 10
34.6158572584
 20
130.5738115628
 10
34.6182423071
 20
130.5674306779
 10
34.6208432476
 20
130.5611347829
 10
34.6236570558
 20
130.5549311787
  0
LWPOLYLINE
  5
386
100
AcDbEntity
  8
RACCORDO
100
AcDbPolyline
 62
253
  6
CONTINUOUS
 90
6
 70
0
 10
35.6041389813
 20
128.5348000643
 10
35.6042552218
 20
128.5277202244
 10
35.6046226214
 20
128.5206492834
 10
35.6052407184
 20
128.513596129
 10
35.6061087357
 20
128.5065696265
 10
35.6070340241
 20
128.5007776872
  0
LINE
  5
387
100
AcDbEntity
  8
RACCORDO
100
AcDbLine
 62
7
  6
CONTINUOUS
 10
35.6109948623
 20
128.3797340022
 11
35.6117910946
 21
128.3333886936
  0
LINE
  5
388
100
AcDbEntity
  8
RACCORDO
100
AcDbLine
 62
7
  6
CONTINUOUS
 10
35.754016404
 20
129.6929390818
 11
35.7562543338
 21
129.560033734
  0
LINE
  5
389
100
AcDbEntity
  8
RACCORDO
100
AcDbLine
 62
253
  6
CONTINUOUS
 10
35.6118140857
 20
128.3376762529
 11
35.6117910946
 21
128.3333886936
  0
LINE
  5
38A
100
AcDbEntity
  8
RACCORDO
100
AcDbLine
 62
253
  6
CONTINUOUS
 10
35.6118598155
 20
128.3287666593
 11
35.611987047
 21
128.3259073946
  0
LINE
  5
38B
100
AcDbEntity
  8
RACCORDO
100
AcDbLine
 62
253
  6
CONTINUOUS
 10
35.6475111498
 20
129.199274533
 11
35.646014901
 21
129.2930632375
  0
LINE
  5
38C
100
AcDbEntity
  8
RACCORDO
100
AcDbLine
 62
253
  6
CONTINUOUS
 10
35.6124396366
 20
128.2841650127
 11
35.6124991153
 21
128.2788830056
  0
LINE
  5
38D
100
AcDbEntity
  8
RACCORDO
100
AcDbLine
 62
7
  6
CONTINUOUS
 10
35.6117910946
 20
128.3333886936
 11
35.6126148145
 21
128.2681288251
  0
LINE
  5
38E
100
AcDbEntity
  8
RACCORDO
100
AcDbLine
 62
7
  6
CONTINUOUS
 10
35.7562543338
 20
129.560033734
 11
35.7580550411
 21
129.4132598431
  0
LINE
  5
38F
100
AcDbEntity
  8
RACCORDO
100
AcDbLine
 62
253
  6
CONTINUOUS
 10
35.6126118567
 20
128.2756225858
 11
35.6126148145
 21
128.2681288251
  0
LINE
  5
390
100
AcDbEntity
  8
RACCORDO
100
AcDbLine
 62
253
  6
CONTINUOUS
 10
35.758005779
 20
129.4218604989
 11
35.7580550411
 21
129.4132598431
  0
LINE
  5
391
100
AcDbEntity
  8
RACCORDO
100
AcDbLine
 62
253
  6
CONTINUOUS
 10
35.7583561858
 20
129.382417968
 11
35.7584684649
 21
129.3743835256
  0
LINE
  5
392
100
AcDbEntity
  8
RACCORDO
100
AcDbLine
 62
253
  6
CONTINUOUS
 10
35.6488154164
 20
129.0810996421
 11
35.6475111498
 21
129.199274533
  0
LINE
  5
393
100
AcDbEntity
  8
RACCORDO
100
AcDbLine
 62
253
  6
CONTINUOUS
 10
35.613075011
 20
128.2166254188
 11
35.6131195383
 21
128.2105818788
  0
LINE
  5
394
100
AcDbEntity
  8
RACCORDO
100
AcDbLine
 62
253
  6
CONTINUOUS
 10
35.7588951806
 20
129.3193994722
 11
35.7591319567
 21
129.2872638147
  0
LINE
  5
395
100
AcDbEntity
  8
RACCORDO
100
AcDbLine
 62
7
  6
CONTINUOUS
 10
35.7580550411
 20
129.4132598431
 11
35.7593461093
 21
129.2547408174
  0
LINE
  5
396
100
AcDbEntity
  8
RACCORDO
100
AcDbLine
 62
7
  6
CONTINUOUS
 10
35.6126148145
 20
128.2681288251
 11
35.6132826185
 21
128.1857359225
  0
LINE
  5
397
100
AcDbEntity
  8
RACCORDO
100
AcDbLine
 62
253
  6
CONTINUOUS
 10
35.6133147124
 20
128.1918075481
 11
35.6132826185
 21
128.1857359225
  0
LINE
  5
398
100
AcDbEntity
  8
RACCORDO
100
AcDbLine
 62
253
  6
CONTINUOUS
 10
35.6133195996
 20
128.1793544166
 11
35.613400679
 21
128.1770512415
  0
LINE
  5
399
100
AcDbEntity
  8
RACCORDO
100
AcDbLine
 62
253
  6
CONTINUOUS
 10
35.6133550152
 20
128.1729050545
 11
35.61338881
 21
128.1663855451
  0
LINE
  5
39A
100
AcDbEntity
  8
RACCORDO
100
AcDbLine
 62
253
  6
CONTINUOUS
 10
35.6496121094
 20
128.956387914
 11
35.6488154164
 21
129.0810996421
  0
LINE
  5
39B
100
AcDbEntity
  8
RACCORDO
100
AcDbLine
 62
253
  6
CONTINUOUS
 10
36.3997432415
 20
145.5063372828
 11
36.3985695962
 21
145.7209576261
  0
LINE
  5
39C
100
AcDbEntity
  8
RACCORDO
100
AcDbLine
 62
7
  6
CONTINUOUS
 10
35.7593461093
 20
129.2547408174
 11
35.7600618974
 21
129.0871441168
  0
LINE
  5
39D
100
AcDbEntity
  8
RACCORDO
100
AcDbLine
 62
7
  6
CONTINUOUS
 10
35.6132826185
 20
128.1857359225
 11
35.6136384904
 21
128.0900099811
  0
LINE
  5
39E
100
AcDbEntity
  8
RACCORDO
100
AcDbLine
 62
253
  6
CONTINUOUS
 10
35.6136489262
 20
128.0826360412
 11
35.6136571223
 21
128.0751898854
  0
LINE
  5
39F
100
AcDbEntity
  8
RACCORDO
100
AcDbLine
 62
253
  6
CONTINUOUS
 10
35.613662968
 20
128.0676724947
 11
35.6136663249
 21
128.0600820705
  0
LINE
  5
3A0
100
AcDbEntity
  8
0
100
AcDbLine
 62
7
  6
CONTINUOUS
 10
34.6043634687
 20
131.8036536805
 11
34.6043634687
 21
130.6405948606
  0
LINE
  5
3A1
100
AcDbEntity
  8
0
100
AcDbLine
 62
7
  6
CONTINUOUS
 10
34.6043634687
 20
79.1029248733
 11
34.6043634687
 21
77.939865712
  0
LINE
  5
3A2
100
AcDbEntity
  8
ASSI
100
AcDbLine
 62
7
  6
CONTINUOUS
 10
34.7043634687
 20
146.8717598656
 11
34.7043634687
 21
132.3717597964
  0
LINE
  5
3A3
100
AcDbEntity
  8
ASSI
100
AcDbLine
 62
7
  6
CONTINUOUS
 10
34.7043634687
 20
77.3717598846
 11
34.7043634687
 21
62.8717598656
  0
LINE
  5
3A4
100
AcDbEntity
  8
RACCORDO
100
AcDbLine
 62
7
  6
CONTINUOUS
 10
35.6136384904
 20
128.0900099811
 11
35.6136672207
 21
81.6898780727
  0
LINE
  5
3A5
100
AcDbEntity
  8
RACCORDO
100
AcDbLine
 62
253
  6
CONTINUOUS
 10
35.7601983893
 20
129.0284502755
 11
35.760191846
 21
128.978060398
  0
LINE
  5
3A6
100
AcDbEntity
  8
RACCORDO
100
AcDbLine
 62
253
  6
CONTINUOUS
 10
35.6498744917
 20
80.8967577122
 11
35.6496121094
 21
128.956387914
  0
LINE
  5
3A7
100
AcDbEntity
  8
RACCORDO
100
AcDbLine
 62
7
  6
CONTINUOUS
 10
35.7600618974
 20
129.0871441168
 11
35.7601708828
 21
80.7215826689
  0
LINE
  5
3A8
100
AcDbEntity
  8
RACCORDO
100
AcDbLine
 62
253
  6
CONTINUOUS
 10
35.7602259061
 20
80.7654593333
 11
35.7601708828
 21
80.7215826689
  0
LINE
  5
3A9
100
AcDbEntity
  8
RACCORDO
100
AcDbLine
 62
253
  6
CONTINUOUS
 10
36.3999041061
 20
64.3092974417
 11
36.3997432415
 21
145.5063372828
  0
LINE
  5
3AA
100
AcDbEntity
  8
RACCORDO
100
AcDbLine
 62
7
  6
CONTINUOUS
 10
35.6136671902
 20
81.6898780727
 11
35.6134503164
 21
81.590196006
  0
LINE
  5
3AB
100
AcDbEntity
  8
RACCORDO
100
AcDbLine
 62
253
  6
CONTINUOUS
 10
35.6134503164
 20
81.590196006
 11
35.6134184102
 21
81.583226631
  0
LINE
  5
3AC
100
AcDbEntity
  8
RACCORDO
100
AcDbLine
 62
7
  6
CONTINUOUS
 10
35.7601708828
 20
80.7215826689
 11
35.7596268884
 21
80.5388275382
  0
LINE
  5
3AD
100
AcDbEntity
  8
RACCORDO
100
AcDbLine
 62
253
  6
CONTINUOUS
 10
35.6133845338
 20
81.5763104942
 11
35.6133487358
 21
81.5694484334
  0
LINE
  5
3AE
100
AcDbEntity
  8
RACCORDO
100
AcDbLine
 62
253
  6
CONTINUOUS
 10
35.6494377788
 20
80.7510169356
 11
35.6498744917
 21
80.8967577122
  0
LINE
  5
3AF
100
AcDbEntity
  8
RACCORDO
100
AcDbLine
 62
253
  6
CONTINUOUS
 10
36.3991671149
 20
64.1102535949
 11
36.3999041061
 21
64.3092974417
  0
LINE
  5
3B0
100
AcDbEntity
  8
RACCORDO
100
AcDbLine
 62
7
  6
CONTINUOUS
 10
35.6134503164
 20
81.590196006
 11
35.6128887786
 21
81.5039776339
  0
LINE
  5
3B1
100
AcDbEntity
  8
RACCORDO
100
AcDbLine
 62
253
  6
CONTINUOUS
 10
36.3981015455
 20
63.9683041247
 11
36.3991671149
 21
64.1102535949
  0
LINE
  5
3B2
100
AcDbEntity
  8
RACCORDO
100
AcDbLine
 62
7
  6
CONTINUOUS
 10
35.7596268884
 20
80.5388275382
 11
35.7583927646
 21
80.3650301688
  0
LINE
  5
3B3
100
AcDbEntity
  8
RACCORDO
100
AcDbLine
 62
253
  6
CONTINUOUS
 10
35.6128887786
 20
81.5039776339
 11
35.6128332002
 21
81.4977619815
  0
LINE
  5
3B4
100
AcDbEntity
  8
RACCORDO
100
AcDbLine
 62
253
  6
CONTINUOUS
 10
35.6127760301
 20
81.491608916
 11
35.6127173317
 21
81.4855193626
  0
LINE
  5
3B5
100
AcDbEntity
  8
RACCORDO
100
AcDbLine
 62
253
  6
CONTINUOUS
 10
35.6484933529
 20
80.6278582119
 11
35.6494377788
 21
80.7510169356
  0
LINE
  5
3B6
100
AcDbEntity
  8
RACCORDO
100
AcDbLine
 62
253
  6
CONTINUOUS
 10
35.7584730903
 20
80.3696434422
 11
35.757985382
 21
80.3234754842
  0
LINE
  5
3B7
100
AcDbEntity
  8
RACCORDO
100
AcDbLine
 62
7
  6
CONTINUOUS
 10
35.6128887786
 20
81.5039776339
 11
35.6121234897
 21
81.4336795299
  0
LINE
  5
3B8
100
AcDbEntity
  8
RACCORDO
100
AcDbLine
 62
7
  6
CONTINUOUS
 10
35.7583927646
 20
80.3650301688
 11
35.7565481981
 21
80.2042346101
  0
LINE
  5
3B9
100
AcDbEntity
  8
RACCORDO
100
AcDbLine
 62
253
  6
CONTINUOUS
 10
35.6120507877
 20
81.4282588626
 11
35.6119767813
 21
81.4229077505
  0
LINE
  5
3BA
100
AcDbEntity
  8
RACCORDO
100
AcDbLine
 62
253
  6
CONTINUOUS
 10
35.6472852623
 20
80.5280785167
 11
35.6484933529
 21
80.6278582119
  0
LWPOLYLINE
  5
3BB
100
AcDbEntity
  8
RACCORDO
100
AcDbPolyline
 62
253
  6
CONTINUOUS
 90
6
 70
0
 10
35.6041389689
 20
81.2087196669
 10
35.6042552108
 20
81.2157995062
 10
35.6046226119
 20
81.2228704466
 10
35.6052407102
 20
81.2299236004
 10
35.606108729
 20
81.2369501023
 10
35.6070339745
 20
81.242741766
  0
LINE
  5
3BC
100
AcDbEntity
  8
RACCORDO
100
AcDbLine
 62
7
  6
CONTINUOUS
 10
35.6121234897
 20
81.4336795299
 11
35.6113444434
 21
81.3826614939
  0
LINE
  5
3BD
100
AcDbEntity
  8
RACCORDO
100
AcDbLine
 62
253
  6
CONTINUOUS
 10
35.6113444434
 20
81.3826614939
 11
35.6112607915
 21
81.3779566447
  0
LINE
  5
3BE
100
AcDbEntity
  8
RACCORDO
100
AcDbLine
 62
253
  6
CONTINUOUS
 10
35.6111762655
 20
81.3733254031
 11
35.6112581294
 21
81.372410459
  0
LINE
  5
3BF
100
AcDbEntity
  8
RACCORDO
100
AcDbLine
 62
7
  6
CONTINUOUS
 10
35.7565481981
 20
80.2042346101
 11
35.7541901252
 21
80.0596291161
  0
LINE
  5
3C0
100
AcDbEntity
  8
RACCORDO
100
AcDbLine
 62
253
  6
CONTINUOUS
 10
35.6457336911
 20
80.4356385393
 11
35.6472852623
 21
80.5280785167
  0
LWPOLYLINE
  5
3C1
100
AcDbEntity
  8
RACCORDO
100
AcDbPolyline
 62
253
  6
CONTINUOUS
 90
33
 70
0
 10
35.6303257562
 20
129.6267311982
 10
35.6304725981
 20
129.6341086804
 10
35.6308921905
 20
129.6414760909
 10
35.6315839606
 20
129.6488233715
 10
35.6325469638
 20
129.6561404917
 10
35.6337798857
 20
129.6634174622
 10
35.6352810428
 20
129.6706443484
 10
35.6370483859
 20
129.677811284
 10
35.6390795022
 20
129.6849084848
 10
35.6413716188
 20
129.6919262616
 10
35.6439216064
 20
129.6988550336
 10
35.6467259838
 20
129.7056853417
 10
35.6497809225
 20
129.7124078611
 10
35.6530822517
 20
129.7190134142
 10
35.6566254646
 20
129.7254929829
 10
35.660405724
 20
129.7318377215
 10
35.6644178689
 20
129.7380389679
 10
35.6686564219
 20
129.7440882562
 10
35.6731155967
 20
129.7499773279
 10
35.6777893054
 20
129.7556981432
 10
35.6826711675
 20
129.7612428919
 10
35.6877545183
 20
129.7666040044
 10
35.6930324178
 20
129.7717741617
 10
35.6984976608
 20
129.7767463053
 10
35.704142786
 20
129.7815136473
 10
35.7099600866
 20
129.7860696793
 10
35.7159416209
 20
129.7904081814
 10
35.7220792228
 20
129.7945232306
 10
35.7283645132
 20
129.798409209
 10
35.7347889114
 20
129.8020608115
 10
35.7413436467
 20
129.8054730528
 10
35.7480197707
 20
129.8086412746
 10
35.7514248727
 20
129.8101059027
  0
LINE
  5
3C2
100
AcDbEntity
  8
RACCORDO
100
AcDbLine
 62
7
  6
CONTINUOUS
 10
35.6113444434
 20
81.3826614939
 11
35.610562491
 21
81.3430150799
  0
LINE
  5
3C3
100
AcDbEntity
  8
RACCORDO
100
AcDbLine
 62
7
  6
CONTINUOUS
 10
35.7541901252
 20
80.0596291161
 11
35.7521496247
 21
79.9632091747
  0
LINE
  5
3C4
100
AcDbEntity
  8
RACCORDO
100
AcDbLine
 62
253
  6
CONTINUOUS
 10
35.6441997618
 20
80.3654766302
 11
35.6457336911
 21
80.4356385393
  0
LINE
  5
3C5
100
AcDbEntity
  8
RACCORDO
100
AcDbLine
 62
7
  6
CONTINUOUS
 10
35.610562491
 20
81.3430150799
 11
35.6099195136
 21
81.316460999
  0
LINE
  5
3C6
100
AcDbEntity
  8
RACCORDO
100
AcDbLine
 62
7
  6
CONTINUOUS
 10
35.7521496247
 20
79.9632091747
 11
35.7499295043
 21
79.8778190474
  0
LINE
  5
3C7
100
AcDbEntity
  8
RACCORDO
100
AcDbLine
 62
253
  6
CONTINUOUS
 10
35.7507507233
 20
79.904838892
 11
35.7499295043
 21
79.8778190474
  0
LINE
  5
3C8
100
AcDbEntity
  8
RACCORDO
100
AcDbLine
 62
253
  6
CONTINUOUS
 10
35.6095447035
 20
81.3030053028
 11
35.6095783103
 21
81.2990186618
  0
LINE
  5
3C9
100
AcDbEntity
  8
RACCORDO
100
AcDbLine
 62
253
  6
CONTINUOUS
 10
35.6428296504
 20
80.3145224336
 11
35.6441997618
 21
80.3654766302
  0
LINE
  5
3CA
100
AcDbEntity
  8
RACCORDO
100
AcDbLine
 62
7
  6
CONTINUOUS
 10
35.6099195136
 20
81.316460999
 11
35.6093564647
 21
81.2967497012
  0
LINE
  5
3CB
100
AcDbEntity
  8
RACCORDO
100
AcDbLine
 62
253
  6
CONTINUOUS
 10
35.641726207
 20
80.2796066156
 11
35.6428296504
 21
80.3145224336
  0
LINE
  5
3CC
100
AcDbEntity
  8
RACCORDO
100
AcDbLine
 62
253
  6
CONTINUOUS
 10
35.6089803592
 20
81.2851794506
 11
35.6088923644
 21
81.2772973722
  0
LINE
  5
3CD
100
AcDbEntity
  8
RACCORDO
100
AcDbLine
 62
7
  6
CONTINUOUS
 10
35.7499295043
 20
79.8778190474
 11
35.747579134
 21
79.8037942052
  0
LINE
  5
3CE
100
AcDbEntity
  8
RACCORDO
100
AcDbLine
 62
7
  6
CONTINUOUS
 10
35.6093564647
 20
81.2967497012
 11
35.6088867679
 21
81.28248354
  0
LINE
  5
3CF
100
AcDbEntity
  8
RACCORDO
100
AcDbLine
 62
253
  6
CONTINUOUS
 10
35.7477506192
 20
79.8060196366
 11
35.747579134
 21
79.8037942052
  0
LINE
  5
3D0
100
AcDbEntity
  8
RACCORDO
100
AcDbLine
 62
253
  6
CONTINUOUS
 10
35.7467752252
 20
79.7816610779
 11
35.7466797597
 21
79.776358208
  0
LINE
  5
3D1
100
AcDbEntity
  8
RACCORDO
100
AcDbLine
 62
253
  6
CONTINUOUS
 10
35.6084242551
 20
81.2701813062
 11
35.6084237306
 21
81.264565728
  0
LINE
  5
3D2
100
AcDbEntity
  8
RACCORDO
100
AcDbLine
 62
253
  6
CONTINUOUS
 10
35.6405636611
 20
80.2477066371
 11
35.641726207
 21
80.2796066156
  0
LINE
  5
3D3
100
AcDbEntity
  8
RACCORDO
100
AcDbLine
 62
7
  6
CONTINUOUS
 10
35.747579134
 20
79.8037942052
 11
35.7459646355
 21
79.760807114
  0
LINE
  5
3D4
100
AcDbEntity
  8
RACCORDO
100
AcDbLine
 62
253
  6
CONTINUOUS
 10
35.7459646355
 20
79.760807114
 11
35.7455791384
 21
79.7485006259
  0
LINE
  5
3D5
100
AcDbEntity
  8
RACCORDO
100
AcDbLine
 62
7
  6
CONTINUOUS
 10
35.6088867679
 20
81.28248354
 11
35.6084242551
 21
81.2701813062
  0
LINE
  5
3D6
100
AcDbEntity
  8
RACCORDO
100
AcDbLine
 62
253
  6
CONTINUOUS
 10
35.6080655389
 20
81.2617516851
 11
35.6079488317
 21
81.2532274417
  0
LINE
  5
3D7
100
AcDbEntity
  8
RACCORDO
100
AcDbLine
 62
7
  6
CONTINUOUS
 10
35.6084242551
 20
81.2701813062
 11
35.6080655389
 21
81.2617516851
  0
LINE
  5
3D8
100
AcDbEntity
  8
RACCORDO
100
AcDbLine
 62
253
  6
CONTINUOUS
 10
35.6393476125
 20
80.2189742501
 11
35.6405636611
 21
80.2477066371
  0
LINE
  5
3D9
100
AcDbEntity
  8
RACCORDO
100
AcDbLine
 62
253
  6
CONTINUOUS
 10
35.6079488317
 20
81.2532274417
 11
35.6077097694
 21
81.2480707336
  0
LINE
  5
3DA
100
AcDbEntity
  8
RACCORDO
100
AcDbLine
 62
7
  6
CONTINUOUS
 10
35.6080655389
 20
81.2617516851
 11
35.6078069021
 21
81.2562584325
  0
LWPOLYLINE
  5
3DB
100
AcDbEntity
  8
RACCORDO
100
AcDbPolyline
 62
253
  6
CONTINUOUS
 90
4
 70
0
 10
35.7359531298
 20
130.1484552392
 10
35.7372170511
 20
130.1362908264
 10
35.7384660149
 20
130.1220983931
 10
35.7390777017
 20
130.1100456547
  0
LINE
  5
3DC
100
AcDbEntity
  8
RACCORDO
100
AcDbLine
 62
7
  6
CONTINUOUS
 10
35.6066948241
 20
128.5051412538
 11
35.6067047385
 21
128.505037146
  0
LWPOLYLINE
  5
3DD
100
AcDbEntity
  8
RACCORDO
100
AcDbPolyline
 62
253
  6
CONTINUOUS
 90
4
 70
0
 10
35.730828144
 20
130.1762435442
 10
35.7323248988
 20
130.1588894618
 10
35.7368190216
 20
130.1420636068
 10
35.7401964054
 20
130.1339121648
  0
LINE
  5
3DE
100
AcDbEntity
  8
RACCORDO
100
AcDbLine
 62
7
  6
CONTINUOUS
 10
35.6067225924
 20
128.5048423008
 11
35.6067777978
 21
128.5042025233
  0
LINE
  5
3DF
100
AcDbEntity
  8
RACCORDO
100
AcDbLine
 62
7
  6
CONTINUOUS
 10
35.6067777978
 20
128.5042025233
 11
35.6068559224
 21
128.5032281523
  0
LINE
  5
3E0
100
AcDbEntity
  8
RACCORDO
100
AcDbLine
 62
7
  6
CONTINUOUS
 10
35.6068559224
 20
128.5032281523
 11
35.6069531641
 21
128.5019273031
  0
LINE
  5
3E1
100
AcDbEntity
  8
RACCORDO
100
AcDbLine
 62
7
  6
CONTINUOUS
 10
35.6069531641
 20
128.5019273031
 11
35.6070641662
 21
128.5003395791
  0
LWPOLYLINE
  5
3E2
100
AcDbEntity
  8
RACCORDO
100
AcDbPolyline
 62
253
  6
CONTINUOUS
 90
15
 70
0
 10
35.6367786219
 20
129.5719759943
 10
35.6363352075
 20
129.5785325245
 10
35.6358883407
 20
129.5846900208
 10
35.6354380179
 20
129.5904478543
 10
35.6349842472
 20
129.595806654
 10
35.6345277474
 20
129.6007578794
 10
35.6340685149
 20
129.6053008879
 10
35.6336065571
 20
129.6094363222
 10
35.633142608
 20
129.6131575704
 10
35.6326766495
 20
129.6164640113
 10
35.6322087026
 20
129.6193562662
 10
35.6317395598
 20
129.6218295871
 10
35.6312694858
 20
129.6238823914
 10
35.6307982176
 20
129.6255162618
 10
35.6303257561
 20
129.6267311982
  0
LINE
  5
3E3
100
AcDbEntity
  8
RACCORDO
100
AcDbLine
 62
253
  6
CONTINUOUS
 10
35.7396999223
 20
130.1058633049
 11
35.739707722
 21
130.1017076127
  0
LWPOLYLINE
  5
3E4
100
AcDbEntity
  8
RACCORDO
100
AcDbPolyline
 62
253
  6
CONTINUOUS
 90
3
 70
0
 10
35.7403427432
 20
130.0926713098
 10
35.7409188153
 20
130.0876001961
 10
35.741625031
 20
130.0724518247
  0
LINE
  5
3E5
100
AcDbEntity
  8
RACCORDO
100
AcDbLine
 62
7
  6
CONTINUOUS
 10
35.6070641662
 20
128.5003395791
 11
35.6072507699
 21
128.4974421496
  0
LINE
  5
3E6
100
AcDbEntity
  8
RACCORDO
100
AcDbLine
 62
7
  6
CONTINUOUS
 10
35.7403427432
 20
130.0926713098
 11
35.741625031
 21
130.0724518247
  0
LINE
  5
3E7
100
AcDbEntity
  8
RACCORDO
100
AcDbLine
 62
253
  6
CONTINUOUS
 10
35.6376529751
 20
129.5576964948
 11
35.6367786219
 21
129.5719759943
  0
LINE
  5
3E8
100
AcDbEntity
  8
RACCORDO
100
AcDbLine
 62
7
  6
CONTINUOUS
 10
35.6072507699
 20
128.4974421496
 11
35.6074565717
 21
128.4939361675
  0
LINE
  5
3E9
100
AcDbEntity
  8
RACCORDO
100
AcDbLine
 62
7
  6
CONTINUOUS
 10
35.741625031
 20
130.0724518247
 11
35.7429108302
 21
130.0494273237
  0
LWPOLYLINE
  5
3EA
100
AcDbEntity
  8
RACCORDO
100
AcDbPolyline
 62
253
  6
CONTINUOUS
 90
3
 70
0
 10
35.6069948068
 20
128.5087893469
 10
35.6074765896
 20
128.5001362857
 10
35.6077165351
 20
128.4953080131
  0
LINE
  5
3EB
100
AcDbEntity
  8
RACCORDO
100
AcDbLine
 62
253
  6
CONTINUOUS
 10
35.7421156026
 20
130.0674065282
 11
35.7429108302
 21
130.0494273237
  0
LINE
  5
3EC
100
AcDbEntity
  8
RACCORDO
100
AcDbLine
 62
253
  6
CONTINUOUS
 10
35.6385099973
 20
129.5418742304
 11
35.6376529751
 21
129.5576964948
  0
LINE
  5
3ED
100
AcDbEntity
  8
RACCORDO
100
AcDbLine
 62
7
  6
CONTINUOUS
 10
35.6074565717
 20
128.4939361675
 11
35.6076761756
 21
128.4898567305
  0
LINE
  5
3EE
100
AcDbEntity
  8
RACCORDO
100
AcDbLine
 62
7
  6
CONTINUOUS
 10
35.6076761756
 20
128.4898567305
 11
35.6078274548
 21
128.486843882
  0
LINE
  5
3EF
100
AcDbEntity
  8
RACCORDO
100
AcDbLine
 62
7
  6
CONTINUOUS
 10
35.7429108302
 20
130.0494273237
 11
35.7441916339
 21
130.023601828
  0
LINE
  5
3F0
100
AcDbEntity
  8
RACCORDO
100
AcDbLine
 62
253
  6
CONTINUOUS
 10
35.6393476125
 20
129.5245454812
 11
35.6385099973
 21
129.5418742304
  0
LWPOLYLINE
  5
3F1
100
AcDbEntity
  8
RACCORDO
100
AcDbPolyline
 62
253
  6
CONTINUOUS
 90
14
 70
0
 10
36.3809649184
 20
146.5521951766
 10
36.3786825515
 20
146.6035884392
 10
36.3763220633
 20
146.6504140864
 10
36.3738887189
 20
146.6928435431
 10
36.371440629
 20
146.7305045454
 10
36.3689781632
 20
146.7631532002
 10
36.3665010243
 20
146.7910334007
 10
36.3640660701
 20
146.8145045614
 10
36.3616845752
 20
146.8333791042
 10
36.3593450729
 20
146.8478446072
 10
36.3570701375
 20
146.85882322
 10
36.3548671873
 20
146.8666223255
 10
36.3527285381
 20
146.8709345407
 10
36.3506540678
 20
146.8717598656
  0
LWPOLYLINE
  5
3F2
100
AcDbEntity
  8
RACCORDO
100
AcDbPolyline
 62
7
  6
CONTINUOUS
 90
3
 70
0
 10
35.7441916339
 20
130.023601828
 10
35.7454606376
 20
129.9949757362
 10
35.7460884584
 20
129.9796183861
  0
LWPOLYLINE
  5
3F3
100
AcDbEntity
  8
RACCORDO
100
AcDbPolyline
 62
253
  6
CONTINUOUS
 90
12
 70
0
 10
36.8760505415
 20
147.0768505353
 10
36.8736174605
 20
147.1334460815
 10
36.8711697268
 20
147.1834627195
 10
36.868707874
 20
147.2270443659
 10
36.8662313685
 20
147.2644000951
 10
36.8637969549
 20
147.2954381352
 10
36.8614161169
 20
147.3204679857
 10
36.859077371
 20
147.3400206991
 10
36.8568030106
 20
147.3545159044
 10
36.8546004671
 20
147.3643658203
 10
36.8524623093
 20
147.3699783153
 10
36.8503885371
 20
147.3717598656
  0
LINE
  5
3F4
100
AcDbEntity
  8
RACCORDO
100
AcDbLine
 62
253
  6
CONTINUOUS
 10
36.3852671374
 20
146.4371066187
 11
36.3809649184
 21
146.5521951766
  0
LINE
  5
3F5
100
AcDbEntity
  8
RACCORDO
100
AcDbLine
 62
253
  6
CONTINUOUS
 10
36.8806927144
 20
146.9458011277
 11
36.8760505415
 21
147.0768505353
  0
LINE
  5
3F6
100
AcDbEntity
  8
RACCORDO
100
AcDbLine
 62
253
  6
CONTINUOUS
 10
36.3890926738
 20
146.307752914
 11
36.3852671374
 21
146.4371066187
  0
LINE
  5
3F7
100
AcDbEntity
  8
RACCORDO
100
AcDbLine
 62
253
  6
CONTINUOUS
 10
36.8849945322
 20
146.792287621
 11
36.8806927144
 21
146.9458011277
  0
LINE
  5
3F8
100
AcDbEntity
  8
RACCORDO
100
AcDbLine
 62
253
  6
CONTINUOUS
 10
36.3923671145
 20
146.1679410978
 11
36.3890926738
 21
146.307752914
  0
LINE
  5
3F9
100
AcDbEntity
  8
RACCORDO
100
AcDbLine
 62
253
  6
CONTINUOUS
 10
36.8888198501
 20
146.6200020946
 11
36.8849945322
 21
146.792287621
  0
LINE
  5
3FA
100
AcDbEntity
  8
RACCORDO
100
AcDbLine
 62
253
  6
CONTINUOUS
 10
36.3950523563
 20
146.0204194961
 11
36.3923671145
 21
146.1679410978
  0
LINE
  5
3FB
100
AcDbEntity
  8
RACCORDO
100
AcDbLine
 62
253
  6
CONTINUOUS
 10
36.8920939355
 20
146.4332898341
 11
36.8888198501
 21
146.6200020946
  0
LINE
  5
3FC
100
AcDbEntity
  8
RACCORDO
100
AcDbLine
 62
253
  6
CONTINUOUS
 10
36.8947791451
 20
146.2366847831
 11
36.8920939355
 21
146.4332898341
  0
LWPOLYLINE
  5
3FD
100
AcDbEntity
  8
RACCORDO
100
AcDbPolyline
 62
253
  6
CONTINUOUS
 90
3
 70
0
 10
36.3985695962
 20
145.7209576261
 10
36.3979144026
 20
145.7949491287
 10
36.3950523563
 20
146.0204194961
  0
LINE
  5
3FE
100
AcDbEntity
  8
RACCORDO
100
AcDbLine
 62
253
  6
CONTINUOUS
 10
36.8976410593
 20
145.9360363616
 11
36.8947791451
 21
146.2366847831
  0
LINE
  5
3FF
100
AcDbEntity
  8
RACCORDO
100
AcDbLine
 62
253
  6
CONTINUOUS
 10
36.8991943308
 20
145.6441705878
 11
36.8976410593
 21
145.9360363616
  0
LINE
  5
400
100
AcDbEntity
  8
RACCORDO
100
AcDbLine
 62
253
  6
CONTINUOUS
 10
36.8996569064
 20
145.3717598656
 11
36.8991943308
 21
145.6441705878
  0
LINE
  5
401
100
AcDbEntity
  8
RACCORDO
100
AcDbLine
 62
253
  6
CONTINUOUS
 10
36.8992438913
 20
64.1142904625
 11
36.8996569064
 21
145.3717598656
  0
LINE
  5
402
100
AcDbEntity
  8
RACCORDO
100
AcDbLine
 62
253
  6
CONTINUOUS
 10
36.8978287687
 20
63.8338833477
 11
36.8992438913
 21
64.1142904625
  0
LINE
  5
403
100
AcDbEntity
  8
RACCORDO
100
AcDbLine
 62
253
  6
CONTINUOUS
 10
36.8951317062
 20
63.537151892
 11
36.8978287687
 21
63.8338833477
  0
LINE
  5
404
100
AcDbEntity
  8
RACCORDO
100
AcDbLine
 62
253
  6
CONTINUOUS
 10
36.8925506159
 20
63.3402827799
 11
36.8951317062
 21
63.537151892
  0
LINE
  5
405
100
AcDbEntity
  8
RACCORDO
100
AcDbLine
 62
253
  6
CONTINUOUS
 10
36.3954034829
 20
63.7457337689
 11
36.3981015455
 21
63.9683041247
  0
LINE
  5
406
100
AcDbEntity
  8
RACCORDO
100
AcDbLine
 62
253
  6
CONTINUOUS
 10
36.8893695681
 20
63.1518941353
 11
36.8925506159
 21
63.3402827799
  0
LINE
  5
407
100
AcDbEntity
  8
RACCORDO
100
AcDbLine
 62
253
  6
CONTINUOUS
 10
36.3928217222
 20
63.5980010907
 11
36.3954034829
 21
63.7457337689
  0
LINE
  5
408
100
AcDbEntity
  8
RACCORDO
100
AcDbLine
 62
253
  6
CONTINUOUS
 10
36.8856238157
 20
62.9769414943
 11
36.8893695681
 21
63.1518941353
  0
LINE
  5
409
100
AcDbEntity
  8
RACCORDO
100
AcDbLine
 62
253
  6
CONTINUOUS
 10
36.3896397256
 20
63.4569398049
 11
36.3928217222
 21
63.5980010907
  0
LINE
  5
40A
100
AcDbEntity
  8
RACCORDO
100
AcDbLine
 62
253
  6
CONTINUOUS
 10
36.8813884736
 20
62.8202331986
 11
36.8856238157
 21
62.9769414943
  0
LINE
  5
40B
100
AcDbEntity
  8
RACCORDO
100
AcDbLine
 62
253
  6
CONTINUOUS
 10
36.3858932557
 20
63.3255874295
 11
36.3896397256
 21
63.4569398049
  0
LINE
  5
40C
100
AcDbEntity
  8
RACCORDO
100
AcDbLine
 62
253
  6
CONTINUOUS
 10
35.7443292053
 20
79.7228712786
 11
35.7444460672
 21
79.72242457
  0
LINE
  5
40D
100
AcDbEntity
  8
RACCORDO
100
AcDbLine
 62
7
  6
CONTINUOUS
 10
35.7459646355
 20
79.760807114
 11
35.7443292053
 21
79.7228712786
  0
LINE
  5
40E
100
AcDbEntity
  8
RACCORDO
100
AcDbLine
 62
253
  6
CONTINUOUS
 10
35.6385099973
 20
80.2016455008
 11
35.6393476125
 21
80.2189742501
  0
LWPOLYLINE
  5
40F
100
AcDbEntity
  8
RACCORDO
100
AcDbPolyline
 62
7
  6
CONTINUOUS
 90
11
 70
0
 10
35.7443292053
 20
79.7228712786
 10
35.7426912241
 20
79.6899584025
 10
35.7418760226
 20
79.6753417026
 10
35.7410692559
 20
79.6619759814
 10
35.7402725377
 20
79.6498179181
 10
35.739488883
 20
79.6388453563
 10
35.7387274095
 20
79.6291063562
 10
35.7379885437
 20
79.6205194337
 10
35.7372796625
 20
79.6130821109
 10
35.7366268006
 20
79.6069401772
 10
35.7363523439
 20
79.6045675032
  0
LINE
  5
410
100
AcDbEntity
  8
RACCORDO
100
AcDbLine
 62
7
  6
CONTINUOUS
 10
35.6078069021
 20
81.2562584325
 11
35.6075607202
 21
81.2514743279
  0
LINE
  5
411
100
AcDbEntity
  8
RACCORDO
100
AcDbLine
 62
253
  6
CONTINUOUS
 10
35.7432833345
 20
79.6981523605
 11
35.7426912241
 21
79.6899584025
  0
LWPOLYLINE
  5
412
100
AcDbEntity
  8
RACCORDO
100
AcDbPolyline
 62
253
  6
CONTINUOUS
 90
15
 70
0
 10
35.6077097694
 20
81.2480707336
 10
35.6072292284
 20
81.2387761179
 10
35.6069884087
 20
81.2346244322
 10
35.6067474795
 20
81.2307999992
 10
35.6065064122
 20
81.2273018165
 10
35.6062658039
 20
81.2241143836
 10
35.6060256792
 20
81.2212383555
 10
35.6057860131
 20
81.2186730773
 10
35.6055473273
 20
81.2164010838
 10
35.6053097161
 20
81.2144229795
 10
35.6050730844
 20
81.2127381599
 10
35.6048376697
 20
81.2113273467
 10
35.6046035506
 20
81.2101841137
 10
35.6043706476
 20
81.2093148872
 10
35.6041389602
 20
81.2087196669
  0
LINE
  5
413
100
AcDbEntity
  8
RACCORDO
100
AcDbLine
 62
253
  6
CONTINUOUS
 10
35.6376529751
 20
80.1858232364
 11
35.6385099973
 21
80.2016455008
  0
LINE
  5
414
100
AcDbEntity
  8
RACCORDO
100
AcDbLine
 62
7
  6
CONTINUOUS
 10
35.6075607202
 20
81.2514743279
 11
35.6073327346
 21
81.2474355679
  0
LINE
  5
415
100
AcDbEntity
  8
RACCORDO
100
AcDbLine
 62
253
  6
CONTINUOUS
 10
35.7410692559
 20
79.6619759814
 11
35.7409139269
 21
79.6558129724
  0
LINE
  5
416
100
AcDbEntity
  8
RACCORDO
100
AcDbLine
 62
7
  6
CONTINUOUS
 10
35.6073327346
 20
81.2474355679
 11
35.6071267044
 21
81.2441219081
  0
LINE
  5
417
100
AcDbEntity
  8
RACCORDO
100
AcDbLine
 62
253
  6
CONTINUOUS
 10
35.7402725377
 20
79.6498179181
 11
35.7397073042
 21
79.6377457937
  0
LINE
  5
418
100
AcDbEntity
  8
RACCORDO
100
AcDbLine
 62
7
  6
CONTINUOUS
 10
35.6071267044
 20
81.2441219081
 11
35.6070048218
 21
81.2423176661
  0
LINE
  5
419
100
AcDbEntity
  8
RACCORDO
100
AcDbLine
 62
7
  6
CONTINUOUS
 10
35.6070048218
 20
81.2423176661
 11
35.6068986097
 21
81.2408500018
  0
LWPOLYLINE
  5
41A
100
AcDbEntity
  8
RACCORDO
100
AcDbPolyline
 62
253
  6
CONTINUOUS
 90
3
 70
0
 10
35.7387274095
 20
79.6291063562
 10
35.7384870761
 20
79.6216796005
 10
35.7372561638
 20
79.6076002394
  0
LINE
  5
41B
100
AcDbEntity
  8
RACCORDO
100
AcDbLine
 62
7
  6
CONTINUOUS
 10
35.6068986097
 20
81.2408500018
 11
35.6068104536
 21
81.2397160385
  0
LWPOLYLINE
  5
41C
100
AcDbEntity
  8
RACCORDO
100
AcDbPolyline
 62
7
  6
CONTINUOUS
 90
3
 70
0
 10
35.6068104536
 20
81.2397160385
 10
35.6067422294
 20
81.2389009048
 10
35.6067178643
 20
81.2386262882
  0
LWPOLYLINE
  5
41D
100
AcDbEntity
  8
RACCORDO
100
AcDbPolyline
 62
253
  6
CONTINUOUS
 90
4
 70
0
 10
35.7308282668
 20
79.567276187
 10
35.7323250592
 20
79.5846302208
 10
35.7368192031
 20
79.6014560241
 10
35.7401965849
 20
79.6096074269
  0
LWPOLYLINE
  5
41E
100
AcDbEntity
  8
RACCORDO
100
AcDbPolyline
 62
253
  6
CONTINUOUS
 90
5
 70
0
 10
35.7372561638
 20
79.6076002394
 10
35.7360116935
 20
79.5955218638
 10
35.7347472495
 20
79.5854497437
 10
35.7334607242
 20
79.5773856359
 10
35.7321543047
 20
79.5713277837
  0
LINE
  5
41F
100
AcDbEntity
  8
DRAFT
100
AcDbLine
 62
7
  6
CONTINUOUS
 10
42.9043634687
 20
101.3717598656
 11
44.6043634687
 21
101.0720039984
  0
LINE
  5
420
100
AcDbEntity
  8
RACCORDO
100
AcDbLine
 62
7
  6
CONTINUOUS
 10
35.735039275
 20
130.1483298546
 11
35.735795937
 21
130.1433297255
  0
LWPOLYLINE
  5
421
100
AcDbEntity
  8
RACCORDO
100
AcDbPolyline
 62
7
  6
CONTINUOUS
 90
9
 70
0
 10
35.735795937
 20
130.1433297255
 10
35.7361867089
 20
130.1403218393
 10
35.7367014818
 20
130.1359121477
 10
35.737264255
 20
130.1305904091
 10
35.7378510473
 20
130.1245045991
 10
35.738455681
 20
130.1176702304
 10
35.7390777017
 20
130.1100456547
 10
35.739707722
 20
130.1017076127
 10
35.7403427432
 20
130.0926713098
  0
LWPOLYLINE
  5
422
100
AcDbEntity
  8
RACCORDO
100
AcDbPolyline
 62
7
  6
CONTINUOUS
 90
6
 70
0
 10
41.809768992
 20
146.3732076358
 10
41.8129735802
 20
146.1840902734
 10
41.8154857779
 20
145.9886818245
 10
41.8172630118
 20
145.7893322579
 10
41.8183451897
 20
145.583691605
 10
41.8187316526
 20
145.3717598656
  0
LINE
  5
423
100
AcDbEntity
  8
RACCORDO
100
AcDbLine
 62
7
  6
CONTINUOUS
 10
41.8187316526
 20
145.3717598656
 11
41.8187316526
 21
64.3717598656
  0
LINE
  5
424
100
AcDbEntity
  8
DRAFT
100
AcDbLine
 62
7
  6
CONTINUOUS
 10
42.9043634687
 20
108.3717598656
 11
42.9043634687
 21
101.3717598656
  0
LINE
  5
425
100
AcDbEntity
  8
DRAFT
100
AcDbLine
 62
7
  6
CONTINUOUS
 10
44.1043634687
 20
146.3717598656
 11
44.1043634687
 21
108.5833522425
  0
LINE
  5
426
100
AcDbEntity
  8
DRAFT
100
AcDbLine
 62
7
  6
CONTINUOUS
 10
44.1043634687
 20
101.1601674888
 11
44.1043634687
 21
63.3717598656
  0
LWPOLYLINE
  5
427
100
AcDbEntity
  8
RACCORDO
100
AcDbPolyline
 62
7
  6
CONTINUOUS
 90
6
 70
0
 10
41.8187316526
 20
64.3717598656
 10
41.8183423484
 20
64.1597215646
 10
41.8172602968
 20
63.9540925285
 10
41.8154861538
 20
63.7548727573
 10
41.8129816094
 20
63.5598036874
 10
41.8097876193
 20
63.3711438823
  0
LWPOLYLINE
  5
428
100
AcDbEntity
  8
RACCORDO
100
AcDbPolyline
 62
7
  6
CONTINUOUS
 90
11
 70
0
 10
41.8097876193
 20
63.3711438823
 10
41.8060240398
 20
63.1956690329
 10
41.8016888991
 20
63.0343003611
 10
41.7967882647
 20
62.8861166449
 10
41.7914535972
 20
62.7551299096
 10
41.7856525237
 20
62.6414408407
 10
41.7794218972
 20
62.5449487526
 10
41.7729954355
 20
62.4693636141
 10
41.7664512753
 20
62.4159220816
 10
41.7597133978
 20
62.3833874988
 10
41.7527830628
 20
62.3717598656
  0
LINE
  5
429
100
AcDbEntity
  8
RACCORDO
100
AcDbLine
 62
253
  6
CONTINUOUS
 10
35.7321543047
 20
79.5713277837
 11
35.7308280307
 21
79.567276187
  0
LINE
  5
42A
100
AcDbEntity
  8
DRAFT
100
AcDbLine
 62
7
  6
CONTINUOUS
 10
42.9043634687
 20
108.3717598656
 11
44.6043634687
 21
108.6715157328
  0
LWPOLYLINE
  5
42B
100
AcDbEntity
  8
RACCORDO
100
AcDbPolyline
 62
253
  6
CONTINUOUS
 90
5
 70
0
 10
35.7308280307
 20
130.1762435442
 10
35.7321201713
 20
130.1724232993
 10
35.7334046757
 20
130.1665214756
 10
35.7346815279
 20
130.1585380731
 10
35.7359531298
 20
130.1484552392
  0
LINE
  5
42C
100
AcDbEntity
  8
0
100
AcDbLine
 62
7
  6
CONTINUOUS
 10
44.6043634687
 20
145.8717598656
 11
44.6043634687
 21
108.6715157328
  0
LINE
  5
42D
100
AcDbEntity
  8
0
100
AcDbLine
 62
7
  6
CONTINUOUS
 10
44.6043634687
 20
101.0720039984
 11
44.6043634687
 21
63.8717598656
  0
LWPOLYLINE
  5
42E
100
AcDbEntity
  8
RACCORDO
100
AcDbPolyline
 62
253
  6
CONTINUOUS
 90
16
 70
0
 10
35.6303257561
 20
80.1167885331
 10
35.6307982176
 20
80.1180034695
 10
35.6312694858
 20
80.1196373398
 10
35.6317395598
 20
80.1216901441
 10
35.6322087026
 20
80.124163465
 10
35.6326766495
 20
80.1270557199
 10
35.633142608
 20
80.1303621608
 10
35.6336065571
 20
80.1340834091
 10
35.6340685149
 20
80.1382188433
 10
35.6345277474
 20
80.1427618518
 10
35.6349842472
 20
80.1477130773
 10
35.6354380179
 20
80.1530718769
 10
35.6358883407
 20
80.1588297104
 10
35.6363352075
 20
80.1649872067
 10
35.6367786219
 20
80.1715437369
 10
35.6376529751
 20
80.1858232364
  0
LWPOLYLINE
  5
42F
100
AcDbEntity
  8
RACCORDO
100
AcDbPolyline
 62
7
  6
CONTINUOUS
 90
14
 70
0
 10
34.6236570558
 20
79.1885885525
 10
34.6208432477
 20
79.1823849486
 10
34.6182423073
 20
79.1760890539
 10
34.6158572587
 20
79.1697081691
 10
34.6136908754
 20
79.1632496946
 10
34.6117456776
 20
79.1567211205
 10
34.6100239289
 20
79.1501300182
 10
34.608527632
 20
79.1434840245
 10
34.6072585324
 20
79.1367908567
 10
34.6062181132
 20
79.1300583041
 10
34.6054075863
 20
79.1232941793
 10
34.6048278965
 20
79.1165063281
 10
34.6044797218
 20
79.1097026458
 10
34.6043634687
 20
79.1028844551
  0
LINE
  5
430
100
AcDbEntity
  8
RACCORDO
100
AcDbLine
 62
253
  6
CONTINUOUS
 10
35.7308280307
 20
79.567276187
 11
35.160759589
 21
78.3476301593
  0
LINE
  5
431
100
AcDbEntity
  8
RACCORDO
100
AcDbLine
 62
253
  6
CONTINUOUS
 10
34.7223088322
 20
77.4101298874
 11
34.7043634687
 21
77.3717598658
  0
LINE
  5
432
100
AcDbEntity
  8
RACCORDO
100
AcDbLine
 62
253
  6
CONTINUOUS
 10
35.160759589
 20
78.3476301593
 11
34.7223088322
 21
77.4101298874
  0
LINE
  5
433
100
AcDbEntity
  8
RACCORDO
100
AcDbLine
 62
7
  6
CONTINUOUS
 10
34.638554994
 20
79.2202572816
 11
34.6236570558
 21
79.1885885525
  0
LINE
  5
434
100
AcDbEntity
  8
RACCORDO
100
AcDbLine
 62
7
  6
CONTINUOUS
 10
34.6845573592
 20
79.3180136277
 11
34.650412121
 21
79.2454577739
  0
LWPOLYLINE
  5
435
100
AcDbEntity
  8
RACCORDO
100
AcDbPolyline
 62
253
  6
CONTINUOUS
 90
3
 70
0
 10
34.6872974983
 20
79.2791072025
 10
34.6653119722
 20
79.2324015488
 10
34.6043634687
 20
79.1028844551
  0
LINE
  5
436
100
AcDbEntity
  8
RACCORDO
100
AcDbLine
 62
253
  6
CONTINUOUS
 10
35.7430807195
 20
79.7394206233
 11
35.7452673582
 21
79.7440636597
  0
LINE
  5
437
100
AcDbEntity
  8
RACCORDO
100
AcDbLine
 62
7
  6
CONTINUOUS
 10
34.7944121426
 20
79.5512966275
 11
34.638554994
 21
79.2202572816
  0
LWPOLYLINE
  5
438
100
AcDbEntity
  8
RACCORDO
100
AcDbPolyline
 62
253
  6
CONTINUOUS
 90
4
 70
0
 10
34.6114763079
 20
77.9549435267
 10
34.6328279199
 20
78.0002310396
 10
34.6488509018
 20
78.0342076584
 10
35.6303257561
 20
80.1167885331
  0
LWPOLYLINE
  5
439
100
AcDbEntity
  8
RACCORDO
100
AcDbPolyline
 62
253
  6
CONTINUOUS
 90
3
 70
0
 10
34.8008729875
 20
77.7398955454
 10
34.8168787958
 20
77.7738446272
 10
35.7430807195
 20
79.7394206233
  0
LINE
  5
43A
100
AcDbEntity
  8
RACCORDO
100
AcDbLine
 62
253
  6
CONTINUOUS
 10
34.6043634687
 20
77.9398650844
 11
34.6114763079
 21
77.9549435267
  0
LINE
  5
43B
100
AcDbEntity
  8
RACCORDO
100
AcDbLine
 62
253
  6
CONTINUOUS
 10
35.0821926801
 20
80.1163563618
 11
34.6872974983
 21
79.2791072025
  0
LINE
  5
43C
100
AcDbEntity
  8
RACCORDO
100
AcDbLine
 62
7
  6
CONTINUOUS
 10
35.1765957303
 20
80.3603453303
 11
34.7944121426
 21
79.5512966275
  0
LINE
  5
43D
100
AcDbEntity
  8
RACCORDO
100
AcDbLine
 62
7
  6
CONTINUOUS
 10
35.3783881231
 20
80.7847378736
 11
35.1765957303
 21
80.3603453303
  0
LINE
  5
43E
100
AcDbEntity
  8
RACCORDO
100
AcDbLine
 62
253
  6
CONTINUOUS
 10
35.3983878447
 20
80.7812603236
 11
35.0821926801
 21
80.1163563618
  0
LWPOLYLINE
  5
43F
100
AcDbEntity
  8
RACCORDO
100
AcDbPolyline
 62
253
  6
CONTINUOUS
 90
3
 70
0
 10
35.6041389602
 20
81.2087196669
 10
35.4505223411
 20
80.8900647496
 10
35.3983878447
 20
80.7812603236
  0
LWPOLYLINE
  5
440
100
AcDbEntity
  8
RACCORDO
100
AcDbPolyline
 62
7
  6
CONTINUOUS
 90
3
 70
0
 10
35.6081155703
 20
81.2628776058
 10
35.5369588719
 20
81.115651134
 10
35.3783881231
 20
80.7847378736
  0
LINE
  5
441
100
AcDbEntity
  8
RACCORDO
100
AcDbLine
 62
7
  6
CONTINUOUS
 10
35.5369285452
 20
128.627931706
 11
35.6081155988
 21
128.4806421368
  0
LINE
  5
442
100
AcDbEntity
  8
RACCORDO
100
AcDbLine
 62
253
  6
CONTINUOUS
 10
35.4505223409
 20
128.8534549819
 11
35.6041389602
 21
128.5348000643
  0
LINE
  5
443
100
AcDbEntity
  8
RACCORDO
100
AcDbLine
 62
7
  6
CONTINUOUS
 10
35.3783840252
 20
128.9587905715
 11
35.5369285452
 21
128.627931706
  0
LINE
  5
444
100
AcDbEntity
  8
RACCORDO
100
AcDbLine
 62
253
  6
CONTINUOUS
 10
35.2932308889
 20
129.182784277
 11
35.4505223409
 21
128.8534549819
  0
LINE
  5
445
100
AcDbEntity
  8
RACCORDO
100
AcDbLine
 62
253
  6
CONTINUOUS
 10
35.0821926792
 20
129.6271633714
 11
35.1345272774
 21
129.517008963
  0
LINE
  5
446
100
AcDbEntity
  8
RACCORDO
100
AcDbLine
 62
7
  6
CONTINUOUS
 10
35.1170491729
 20
129.5088752259
 11
35.3783840252
 21
128.9587905715
  0
LINE
  5
447
100
AcDbEntity
  8
RACCORDO
100
AcDbLine
 62
253
  6
CONTINUOUS
 10
35.1345272774
 20
129.517008963
 11
35.2932308889
 21
129.182784277
  0
LINE
  5
448
100
AcDbEntity
  8
RACCORDO
100
AcDbLine
 62
253
  6
CONTINUOUS
 10
34.6328493923
 20
131.7432446551
 11
34.6043634687
 21
131.8036546468
  0
LINE
  5
449
100
AcDbEntity
  8
RACCORDO
100
AcDbLine
 62
253
  6
CONTINUOUS
 10
35.0164118569
 20
131.5464045122
 11
34.8008729875
 21
132.0036241858
  0
LINE
  5
44A
100
AcDbEntity
  8
RACCORDO
100
AcDbLine
 62
253
  6
CONTINUOUS
 10
35.6303257561
 20
129.6267311982
 11
34.6328493923
 21
131.7432446551
  0
LINE
  5
44B
100
AcDbEntity
  8
RACCORDO
100
AcDbLine
 62
253
  6
CONTINUOUS
 10
35.7452673439
 20
129.9994560839
 11
35.7430879449
 21
130.0040837473
  0
LINE
  5
44C
100
AcDbEntity
  8
RACCORDO
100
AcDbLine
 62
253
  6
CONTINUOUS
 10
35.7430879449
 20
130.0040837473
 11
35.5863945117
 21
130.3367655768
  0
LINE
  5
44D
100
AcDbEntity
  8
RACCORDO
100
AcDbLine
 62
253
  6
CONTINUOUS
 10
35.5863945117
 20
130.3367655768
 11
35.0164118569
 21
131.5464045122
  0
LINE
  5
44E
100
AcDbEntity
  8
RACCORDO
100
AcDbLine
 62
253
  6
CONTINUOUS
 10
34.6043634687
 20
130.6406352761
 11
34.6467071779
 21
130.5506464395
  0
LINE
  5
44F
100
AcDbEntity
  8
RACCORDO
100
AcDbLine
 62
253
  6
CONTINUOUS
 10
34.6872974977
 20
130.4644125303
 11
35.0821926792
 21
129.6271633714
  0
LINE
  5
450
100
AcDbEntity
  8
RACCORDO
100
AcDbLine
 62
253
  6
CONTINUOUS
 10
34.6467071779
 20
130.5506464395
 11
34.6872974977
 21
130.4644125303
  0
LINE
  5
451
100
AcDbEntity
  8
RACCORDO
100
AcDbLine
 62
7
  6
CONTINUOUS
 10
34.6236570558
 20
130.5549311787
 11
35.1170491729
 21
129.5088752259
  0
LWPOLYLINE
  5
452
100
AcDbEntity
  8
RACCORDO
100
AcDbPolyline
 62
253
  6
CONTINUOUS
 90
3
 70
0
 10
34.7043634687
 20
132.3717598654
 10
35.417335337
 20
130.8470424816
 10
35.7308280307
 20
130.1762435442
  0
LWPOLYLINE
  5
453
100
AcDbEntity
  8
RACCORDO
100
AcDbPolyline
 62
253
  6
CONTINUOUS
 90
13
 70
0
 10
35.6041389602
 20
128.5348000643
 10
35.6043708958
 20
128.5342051247
 10
35.6046042085
 20
128.5333337492
 10
35.6048388987
 20
128.5321859377
 10
35.6050751375
 20
128.5307675765
 10
35.6053127548
 20
128.5290727793
 10
35.6055512393
 20
128.5270838877
 10
35.6057905891
 20
128.5248005673
 10
35.6060308068
 20
128.5222231526
 10
35.6062713878
 20
128.5193349886
 10
35.6065123476
 20
128.5161356702
 10
35.6067536711
 20
128.5126256025
 10
35.6069948068
 20
128.5087893469
  0
LINE
  5
454
100
AcDbEntity
  8
RACCORDO
100
AcDbLine
 62
253
  6
CONTINUOUS
 10
35.6137323413
 20
128.0536416585
 11
35.6136672207
 21
128.0536416585
  0
LWPOLYLINE
  5
455
100
AcDbEntity
  8
RACCORDO
100
AcDbPolyline
 62
7
  6
CONTINUOUS
 90
11
 70
0
 10
41.7527830628
 20
147.3717598656
 10
41.7597168148
 20
147.3600473942
 10
41.7664542687
 20
147.3275170708
 10
41.7729941415
 20
147.2741688957
 10
41.7794094213
 20
147.1988147556
 10
41.7856249478
 20
147.1026427638
 10
41.7914160451
 20
146.989217259
 10
41.7967500286
 20
146.8584221807
 10
41.8016551717
 20
146.7103735895
 10
41.8059966858
 20
146.5489840062
 10
41.809768992
 20
146.3732076358
  0
LINE
  5
456
100
AcDbEntity
  8
DRAFT
100
AcDbLine
 62
7
  6
CONTINUOUS
 10
34.8656311714
 20
132.0047545441
 11
34.8008734431
 21
132.0036241938
  0
LINE
  5
457
100
AcDbEntity
  8
RACCORDO
100
AcDbLine
 62
253
  6
CONTINUOUS
 10
35.6498799847
 20
128.8283870216
 11
35.760191846
 21
128.8283870216
  0
LINE
  5
458
100
AcDbEntity
  8
RACCORDO
100
AcDbLine
 62
253
  6
CONTINUOUS
 10
35.7602259061
 20
128.978060398
 11
35.760191846
 21
128.978060398
  0
LWPOLYLINE
  5
459
100
AcDbEntity
  8
RACCORDO
100
AcDbPolyline
 62
253
  6
CONTINUOUS
 90
13
 70
0
 10
36.8503885371
 20
62.3717598656
 10
36.8525918957
 20
62.3737700361
 10
36.8548497592
 20
62.3800549392
 10
36.8571621277
 20
62.3909972638
 10
36.8595389428
 20
62.4069916812
 10
36.8619702628
 20
62.428409457
 10
36.8644262628
 20
62.4555604216
 10
36.8669151726
 20
62.4888627037
 10
36.8694287623
 20
62.528559984
 10
36.8719125178
 20
62.5744858894
 10
36.8743651451
 20
62.6267323938
 10
36.8767879381
 20
62.6853860385
 10
36.8813884736
 20
62.8202331986
  0
LINE
  5
45A
100
AcDbEntity
  8
DRAFT
100
AcDbLine
 62
7
  6
CONTINUOUS
 10
44.1043634687
 20
63.3717598656
 11
44.6043634687
 21
63.8717598656
  0
LINE
  5
45B
100
AcDbEntity
  8
0
100
AcDbLine
 62
7
  6
CONTINUOUS
 10
44.1043634687
 20
146.3717598656
 11
44.6043634687
 21
145.8717598656
  0
LINE
  5
45C
100
AcDbEntity
  8
DRAFT
100
AcDbLine
 62
7
  6
CONTINUOUS
 10
44.1043634687
 20
146.3717598656
 11
44.6043634687
 21
145.8717598656
  0
LWPOLYLINE
  5
45D
100
AcDbEntity
  8
RACCORDO
100
AcDbPolyline
 62
253
  6
CONTINUOUS
 90
15
 70
0
 10
36.3506540678
 20
62.8717598656
 10
36.3528578402
 20
62.8727924015
 10
36.3551159028
 20
62.8776015296
 10
36.357428364
 20
62.8861872499
 10
36.3598053636
 20
62.8982987113
 10
36.3622370009
 20
62.9141867649
 10
36.3646932609
 20
62.934603964
 10
36.3671822824
 20
62.9597409823
 10
36.3696960405
 20
62.989407146
 10
36.3721800873
 20
63.0237829872
 10
36.3746329228
 20
63.0630662716
 10
36.3770559045
 20
63.1070592335
 10
36.3793986397
 20
63.1553491067
 10
36.3816572046
 20
63.208099101
 10
36.3858932557
 20
63.3255874295
  0
LINE
  5
45E
100
AcDbEntity
  8
DRAFT
100
AcDbLine
 62
7
  6
CONTINUOUS
 10
41.8118294054
 20
146.2516132464
 11
44.1043634687
 21
146.3717598656
  0
LINE
  5
45F
100
AcDbEntity
  8
RACCORDO
100
AcDbLine
 62
253
  6
CONTINUOUS
 10
36.3999303849
 20
145.3717598656
 11
41.8187316526
 21
145.3717598656
  0
LINE
  5
460
100
AcDbEntity
  8
DRAFT
100
AcDbLine
 62
253
  6
CONTINUOUS
 10
41.8187316526
 20
145.3717598656
 11
44.6043634687
 21
145.3717598656
  0
LINE
  5
461
100
AcDbEntity
  8
RACCORDO
100
AcDbLine
 62
253
  6
CONTINUOUS
 10
36.3506540678
 20
146.8717598656
 11
34.7043634687
 21
146.8717598656
  0
LINE
  5
462
100
AcDbEntity
  8
RACCORDO
100
AcDbLine
 62
7
  6
CONTINUOUS
 10
35.2043790261
 20
147.3717598656
 11
41.7527830628
 21
147.3717598656
  0
ARC
  5
463
100
AcDbEntity
  8
DRAFT
100
AcDbCircle
 62
7
  6
CONTINUOUS
 10
163.9040724928
 20
1527.6717598656
 40
1450.0
100
AcDbArc
 50
267.2161980769
 51
272.7838019231
  0
ARC
  5
464
100
AcDbEntity
  8
DRAFT
100
AcDbCircle
 62
7
  6
CONTINUOUS
 10
163.9040724928
 20
-1317.9282401344
 40
1450.0
100
AcDbArc
 50
87.2161980769
 51
92.7838019231
  0
ARC
  5
465
100
AcDbEntity
  8
RACCORDO
100
AcDbCircle
 62
7
  6
CONTINUOUS
 10
163.9040724928
 20
1527.4717598656
 40
1450.0
100
AcDbArc
 50
266.846725351
 51
273.153274649
  0
ARC
  5
466
100
AcDbEntity
  8
RACCORDO
100
AcDbCircle
 62
7
  6
CONTINUOUS
 10
163.9040724928
 20
-1317.7282401344
 40
1450.0
100
AcDbArc
 50
86.846725351
 51
93.153274649
  0
ARC
  5
467
100
AcDbEntity
  8
RACCORDO
100
AcDbCircle
 62
7
  6
CONTINUOUS
 10
264.9040724928
 20
64.3717598656
 40
2.0
100
AcDbArc
 50
270.0
 51
360.0
  0
ARC
  5
468
100
AcDbEntity
  8
RACCORDO
100
AcDbCircle
 62
7
  6
CONTINUOUS
 10
62.9040724928
 20
64.3717598656
 40
2.0
100
AcDbArc
 50
180.0
 51
270.0
  0
ARC
  5
469
100
AcDbEntity
  8
RACCORDO
100
AcDbCircle
 62
7
  6
CONTINUOUS
 10
62.9040724928
 20
145.3717598656
 40
2.0
100
AcDbArc
 50
90.0
 51
180.0
  0
ARC
  5
46A
100
AcDbEntity
  8
RACCORDO
100
AcDbCircle
 62
7
  6
CONTINUOUS
 10
264.9040724928
 20
145.3717598656
 40
2.0
100
AcDbArc
 50
0.0
 51
90.0
  0
ARC
  5
46B
100
AcDbEntity
  8
RACCORDO
100
AcDbCircle
 62
7
  6
CONTINUOUS
 10
243.6040724928
 20
80.7654593333
 40
1.1
100
AcDbArc
 50
273.153274649
 51
360.0
  0
ARC
  5
46C
100
AcDbEntity
  8
RACCORDO
100
AcDbCircle
 62
7
  6
CONTINUOUS
 10
243.6040724928
 20
128.978060398
 40
1.1
100
AcDbArc
 50
0.0
 51
86.846725351
  0
ARC
  5
46D
100
AcDbEntity
  8
RACCORDO
100
AcDbCircle
 62
7
  6
CONTINUOUS
 10
84.2040724928
 20
128.978060398
 40
1.1
100
AcDbArc
 50
93.153274649
 51
180.0
  0
ARC
  5
46E
100
AcDbEntity
  8
RACCORDO
100
AcDbCircle
 62
7
  6
CONTINUOUS
 10
84.2040724928
 20
80.7654593333
 40
1.1
100
AcDbArc
 50
180.0
 51
266.846725351
  0
ARC
  5
46F
100
AcDbEntity
  8
RACCORDO
100
AcDbCircle
 62
7
  6
CONTINUOUS
 10
35.2043634687
 20
146.8717598656
 40
0.5
100
AcDbArc
 50
90.0000021987
 51
180.0
  0
ARC
  5
470
100
AcDbEntity
  8
RACCORDO
100
AcDbCircle
 62
7
  6
CONTINUOUS
 10
35.2043634687
 20
62.8717598656
 40
0.5
100
AcDbArc
 50
180.0
 51
269.9999978013
  0
ARC
  5
471
100
AcDbEntity
  8
RACCORDO
100
AcDbCircle
 62
7
  6
CONTINUOUS
 10
34.8043634687
 20
77.9398650844
 40
0.2
100
AcDbArc
 50
180.0
 51
269.0
  0
ARC
  5
472
100
AcDbEntity
  8
RACCORDO
100
AcDbCircle
 62
7
  6
CONTINUOUS
 10
34.8043634687
 20
131.8036546468
 40
0.2
100
AcDbArc
 50
91.0
 51
180.0
  0
ELLIPSE
  5
473
100
AcDbEntity
  8
RACCORDO
100
AcDbEllipse
 62
7
  6
CONTINUOUS
 10
85.354346962
 20
82.5720343348
 30
0.0
 11
0.1418092487
 21
0.1418092487
 31
0.0
 40
0.9972646886
 41
2.3575640181
 42
3.9256212891
  0
ELLIPSE
  5
474
100
AcDbEntity
  8
RACCORDO
100
AcDbEllipse
 62
7
  6
CONTINUOUS
 10
242.4537980236
 20
82.5720343348
 30
0.0
 11
-0.1418092487
 21
0.1418092487
 31
0.0
 40
0.9972646886
 41
2.3575640181
 42
3.9256212891
  0
ELLIPSE
  5
475
100
AcDbEntity
  8
RACCORDO
100
AcDbEllipse
 62
7
  6
CONTINUOUS
 10
242.4537980236
 20
127.1714853964
 30
0.0
 11
-0.1418092487
 21
-0.1418092487
 31
0.0
 40
0.9972646886
 41
2.3575640181
 42
3.9256212891
  0
ELLIPSE
  5
476
100
AcDbEntity
  8
RACCORDO
100
AcDbEllipse
 62
7
  6
CONTINUOUS
 10
85.354346962
 20
127.1714853964
 30
0.0
 11
0.1418092487
 21
-0.1418092487
 31
0.0
 40
0.9972646886
 41
2.3575640181
 42
3.9256212891
  0
ENDSEC
  0
SECTION
  2
OBJECTS
  0
DICTIONARY
  5
C
100
AcDbDictionary
280
0
281
1
  3
ACAD_GROUP
350
D
  3
ACAD_MLINESTYLE
350
17
  3
ACAD_LAYOUT
350
1A
  3
ACAD_PLOTSETTINGS
350
19
  3
ACAD_PLOTSTYLENAME
350
E
  0
DICTIONARY
  5
D
102
{ACAD_REACTORS
330
C
102
}
100
AcDbDictionary
280
0
281
1
  0
ACDBDICTIONARYWDFLT
  5
E
102
{ACAD_REACTORS
330
C
102
}
100
AcDbDictionary
281
1
  3
Normal
350
F
100
AcDbDictionaryWithDefault
340
F
  0
DICTIONARY
  5
17
102
{ACAD_REACTORS
330
C
102
}
100
AcDbDictionary
280
0
281
1
  3
Standard
350
18
  0
DICTIONARY
  5
19
102
{ACAD_REACTORS
330
C
102
}
100
AcDbDictionary
281
1
  0
DICTIONARY
  5
1A
102
{ACAD_REACTORS
330
C
102
}
100
AcDbDictionary
281
1
  3
Model
350
477
  3
Layout1
350
478
  0
ACDBPLACEHOLDER
  5
F
102
{ACAD_REACTORS
330
E
102
}
  0
MLINESTYLE
  5
18
102
{ACAD_REACTORS
330
17
102
}
100
AcDbMlineStyle
  2
STANDARD
 70
0
  3

 62
256
 51
90.0
 52
90.0
 71
2
 49
0.5
 62
256
  6
BYLAYER
 49
-0.5
 62
256
  6
BYLAYER
  0
LAYOUT
  5
477
102
{ACAD_REACTORS
330
1A
102
}
100
AcDbPlotSettings
  1

  2
none_device
  4
ISO_A4_(297.00_x_210.00_MM)
  6

 40
0.0
 41
0.0
 42
0.0
 43
0.0
 44
297.0
 45
210.0
 46
0.0
 47
0.0
 48
0.0
 49
0.0
140
0.0
141
0.0
142
1.0
143
1.0
 70
1024
 72
1
 73
0
 74
0
  7

 75
0
147
1.0
148
0.0
149
0.0
100
AcDbLayout
  1
Model
 70
0
 71
0
 10
0.0
 20
0.0
 11
297.0
 21
210.0
 12
0.0
 22
0.0
 32
0.0
 14
0.0
 24
0.0
 34
0.0
 15
0.0
 25
0.0
 35
0.0
146
0.0
 13
0.0
 23
0.0
 33
0.0
 16
1.0
 26
0.0
 36
0.0
 17
0.0
 27
1.0
 37
0.0
 76
0
330
214
345
0
346
0
  0
LAYOUT
  5
478
102
{ACAD_REACTORS
330
1A
102
}
100
AcDbPlotSettings
  1

  2
none_device
  4
ISO_A4_(297.00_x_210.00_MM)
  6

 40
0.0
 41
0.0
 42
0.0
 43
0.0
 44
297.0
 45
210.0
 46
0.0
 47
0.0
 48
0.0
 49
0.0
140
0.0
141
0.0
142
1.0
143
1.0
 70
0
 72
1
 73
0
 74
0
  7

 75
0
147
1.0
148
0.0
149
0.0
100
AcDbLayout
  1
Layout1
 70
0
 71
1
 10
0.0
 20
0.0
 11
297.0
 21
210.0
 12
0.0
 22
0.0
 32
0.0
 14
0.0
 24
0.0
 34
0.0
 15
0.0
 25
0.0
 35
0.0
146
0.0
 13
0.0
 23
0.0
 33
0.0
 16
1.0
 26
0.0
 36
0.0
 17
0.0
 27
1.0
 37
0.0
 76
0
330
215
345
0
346
0
  0
ENDSEC
  0
EOF
