0
SECTION
2
HEADER
9
$ACADVER
1
AC1015
9
$DWGCODEPAGE
3
ANSI_1252
9
$EXTMAX
10
431.8000000000
20
558.8000000000
30
0.0000000000
9
$EXTMIN
10
0.0000000000
20
0.0000000000
30
0.0000000000
9
$LIMMIN
10
0.0000000000
20
0.0000000000
9
$LIMMAX
10
431.8000000000
20
558.8000000000
9
$VIEWCTR
10
215.9000000000
20
279.4000000000
9
$VIEWSIZE
40
558.8000000000
9
$CLAYER
8
0
9
$LTSCALE
40
36.4254814815
9
$CELTYPE
6
BYLAYER
9
$DIMSCALE
40
1
9
$DIMASZ
40
3.0000000000
9
$DIMEXO
40
4.1392592593
9
$DIMDLI
40
25.1666962963
9
$DIMEXE
40
11.9210666667
9
$DIMCEN
40
5.9605333333
9
$DIMLFAC
40
1.0000000000
9
$DIMBLK
1
_FILLED
9
$DIMTXT
40
3.0000000000
9
$DIMTOL
70
1
9
$DIMLIM
70
0
9
$DIMTFAC
40
1.0000000000
9
$DIMTP
40
0.0100000000
9
$DIMTM
40
0.0100000000
9
$PDMODE
70
3
9
$PDSIZE
40
3.0000000000
9
$HANDSEED
5
3D6
9
$MEASUREMENT
70
1
9
$INSUNITS
70
4
0
ENDSEC
0
SECTION
2
CLASSES
0
CLASS
1
ACDBDICTIONARYWDFLT
2
AcDbDictionaryWithDefault
3
AutoCAD 2000
90
0
280
0
281
0
0
CLASS
1
ACDBPLACEHOLDER
2
AcDbPlaceHolder
3
AutoCAD 2000
90
0
280
0
281
0
0
CLASS
1
LAYOUT
2
AcDbLayout
3
AutoCAD 2000
90
0
280
0
281
0
0
ENDSEC
0
SECTION
2
TABLES
0
TABLE
2
VPORT
5
8
100
AcDbSymbolTable
70
2
0
VPORT
5
1F4
100
AcDbSymbolTableRecord
100
AcDbViewportTableRecord
2
*ACTIVE
70
0
10
0.0
20
0.0
11
1.0
21
1.0
12
215.9000000000
22
279.4000000000
13
0.0
23
0.0
14
1.0
24
1.0
15
0.0
25
0.0
16
0.0
26
0.0
36
1.0
17
0.0
27
0.0
37
0.0
40
558.8000000000
41
0.7727272727
42
50.0
43
0.0
44
0.0
50
0.0
51
0.0
71
0
72
100
73
1
74
1
75
0
76
0
77
0
78
0
0
ENDTAB
0
TABLE
2
LTYPE
5
5
100
AcDbSymbolTable
70
6
0
LTYPE
5
14
100
AcDbSymbolTableRecord
100
AcDbLinetypeTableRecord
2
BYBLOCK
70
0
3

72
65
73
0
40
0.0
0
LTYPE
5
15
100
AcDbSymbolTableRecord
100
AcDbLinetypeTableRecord
2
BYLAYER
70
0
3

72
65
73
0
40
0.0
0
LTYPE
5
16
100
AcDbSymbolTableRecord
100
AcDbLinetypeTableRecord
2
CONTINUOUS
70
64
3
Solid line
72
65
73
0
40
0
0
LTYPE
5
1F5
100
AcDbSymbolTableRecord
100
AcDbLinetypeTableRecord
2
CENTER
70
64
3
____ _ ____ _ ____ _ ____ _ ____ _ ____ _ ____
72
65
73
4
40
0.6
49
0.375
74
0
49
-0.075
74
0
49
0.075
74
0
49
-0.075
74
0
0
LTYPE
5
1F6
100
AcDbSymbolTableRecord
100
AcDbLinetypeTableRecord
2
HIDDEN
70
64
3
- - - - - - - - - - - - - - - - - - - -
72
65
73
2
40
0.2
49
0.1
74
0
49
-0.1
74
0
0
LTYPE
5
1F7
100
AcDbSymbolTableRecord
100
AcDbLinetypeTableRecord
2
PHANTOM
70
64
3
_____ _ _ _____ _ _ _____ _ _ _____
72
65
73
6
40
0.8
49
0.45
74
0
49
-0.05
74
0
49
0.1
74
0
49
-0.05
74
0
49
0.1
74
0
49
-0.05
74
0
0
LTYPE
5
1F8
100
AcDbSymbolTableRecord
100
AcDbLinetypeTableRecord
2
DOT
70
64
3
. . . . . . . . . . . . . . . . . . . .
72
65
73
2
40
0.2
49
0.1
74
0
49
-0.1
74
0
0
LTYPE
5
1F9
100
AcDbSymbolTableRecord
100
AcDbLinetypeTableRecord
2
DASHED
70
64
3
- - - - - - - - - - - - - - - - - - - -
72
65
73
2
40
0.2
49
0.1
74
0
49
-0.1
74
0
0
ENDTAB
0
TABLE
2
LAYER
5
2
100
AcDbSymbolTable
70
36
0
LAYER
5
10
100
AcDbSymbolTableRecord
100
AcDbLayerTableRecord
2
0
70
0
62
7
6
CONTINUOUS
370
-3
390
F
0
LAYER
5
1FA
100
AcDbSymbolTableRecord
100
AcDbLayerTableRecord
2
DEFAULT_1
70
0
62
7
6
CENTER
370
-3
390
F
0
LAYER
5
1FB
100
AcDbSymbolTableRecord
100
AcDbLayerTableRecord
2
DEFAULT_2
70
0
62
9
6
HIDDEN
370
-3
390
F
0
LAYER
5
1FC
100
AcDbSymbolTableRecord
100
AcDbLayerTableRecord
2
DEFAULT_3
70
0
62
7
6
PHANTOM
370
-3
390
F
0
LAYER
5
1FD
100
AcDbSymbolTableRecord
100
AcDbLayerTableRecord
2
_BLACK_HOLE
70
0
62
7
6
CONTINUOUS
370
-3
390
F
0
LAYER
5
1FE
100
AcDbSymbolTableRecord
100
AcDbLayerTableRecord
2
ASSI
70
0
62
7
6
CONTINUOUS
370
-3
390
F
0
LAYER
5
1FF
100
AcDbSymbolTableRecord
100
AcDbLayerTableRecord
2
COORDINATE
70
0
62
7
6
CONTINUOUS
370
-3
390
F
0
LAYER
5
200
100
AcDbSymbolTableRecord
100
AcDbLayerTableRecord
2
COORD_ORIGINE
70
0
62
7
6
CONTINUOUS
370
-3
390
F
0
LAYER
5
201
100
AcDbSymbolTableRecord
100
AcDbLayerTableRecord
2
COPY_PLACCA
70
0
62
7
6
CONTINUOUS
370
-3
390
F
0
LAYER
5
202
100
AcDbSymbolTableRecord
100
AcDbLayerTableRecord
2
COPY_SUPPORTO
70
0
62
7
6
CONTINUOUS
370
-3
390
F
0
LAYER
5
203
100
AcDbSymbolTableRecord
100
AcDbLayerTableRecord
2
CURVE
70
0
62
7
6
CONTINUOUS
370
-3
390
F
0
LAYER
5
204
100
AcDbSymbolTableRecord
100
AcDbLayerTableRecord
2
DRAFT
70
0
62
7
6
CONTINUOUS
370
-3
390
F
0
LAYER
5
205
100
AcDbSymbolTableRecord
100
AcDbLayerTableRecord
2
IMPORT_INCISIONI
70
0
62
7
6
CONTINUOUS
370
-3
390
F
0
LAYER
5
206
100
AcDbSymbolTableRecord
100
AcDbLayerTableRecord
2
NOTE
70
0
62
7
6
CONTINUOUS
370
-3
390
F
0
LAYER
5
207
100
AcDbSymbolTableRecord
100
AcDbLayerTableRecord
2
PIANI
70
0
62
7
6
CONTINUOUS
370
-3
390
F
0
LAYER
5
208
100
AcDbSymbolTableRecord
100
AcDbLayerTableRecord
2
PIANI_ORIGINE
70
0
62
7
6
CONTINUOUS
370
-3
390
F
0
LAYER
5
209
100
AcDbSymbolTableRecord
100
AcDbLayerTableRecord
2
PUNTI
70
0
62
7
6
CONTINUOUS
370
-3
390
F
0
LAYER
5
20A
100
AcDbSymbolTableRecord
100
AcDbLayerTableRecord
2
RACCORDO
70
0
62
7
6
CONTINUOUS
370
-3
390
F
0
LAYER
5
20B
100
AcDbSymbolTableRecord
100
AcDbLayerTableRecord
2
SMUSSO
70
0
62
7
6
CONTINUOUS
370
-3
390
F
0
LAYER
5
20C
100
AcDbSymbolTableRecord
100
AcDbLayerTableRecord
2
SUPERFICI
70
0
62
7
6
CONTINUOUS
370
-3
390
F
0
LAYER
5
20D
100
AcDbSymbolTableRecord
100
AcDbLayerTableRecord
2
TRASH
70
0
62
7
6
CONTINUOUS
370
-3
390
F
0
LAYER
5
20E
100
AcDbSymbolTableRecord
100
AcDbLayerTableRecord
2
XSEC_DATUMS
70
0
62
7
6
CONTINUOUS
370
-3
390
F
0
ENDTAB
0
TABLE
2
STYLE
5
3
100
AcDbSymbolTable
70
1
0
STYLE
5
11
100
AcDbSymbolTableRecord
100
AcDbTextStyleTableRecord
2
STANDARD
70
0
40
0.0
41
0.8000000000
50
0.0
71
0
42
0.2
3
txt
4

0
ENDTAB
0
TABLE
2
VIEW
5
6
100
AcDbSymbolTable
70
0
0
ENDTAB
0
TABLE
2
UCS
5
7
100
AcDbSymbolTable
70
0
0
ENDTAB
0
TABLE
2
APPID
5
9
100
AcDbSymbolTable
70
1
0
APPID
5
20F
100
AcDbSymbolTableRecord
100
AcDbRegAppTableRecord
2
ACAD
70
0
0
ENDTAB
0
TABLE
2
BLOCK_RECORD
5
1
100
AcDbSymbolTable
70
0
0
BLOCK_RECORD
5
1F
100
AcDbSymbolTableRecord
100
AcDbBlockTableRecord
2
*MODEL_SPACE
0
BLOCK_RECORD
5
1B
100
AcDbSymbolTableRecord
100
AcDbBlockTableRecord
2
*PAPER_SPACE
0
BLOCK_RECORD
5
210
100
AcDbSymbolTableRecord
100
AcDbBlockTableRecord
2
_FILLED
0
BLOCK_RECORD
5
211
100
AcDbSymbolTableRecord
100
AcDbBlockTableRecord
2
*D0
0
BLOCK_RECORD
5
212
100
AcDbSymbolTableRecord
100
AcDbBlockTableRecord
2
*D1
0
BLOCK_RECORD
5
213
100
AcDbSymbolTableRecord
100
AcDbBlockTableRecord
2
*D2
0
ENDTAB
0
TABLE
2
DIMSTYLE
5
A
100
AcDbSymbolTable
70
1
100
AcDbDimStyleTable
71
0
0
DIMSTYLE
105
214
100
AcDbSymbolTableRecord
100
AcDbDimStyleTableRecord
2
STANDARD
70
0
3

4

40
1.0
41
3.0000000000
42
0.0625
43
0.38
44
0.18
45
0.0
46
0.0
47
0.0100000000
48
0.0100000000
140
3.0000000000
141
0.09
142
0.0
143
25.4
144
1.0000000000
145
0.0
146
1.0000000000
147
0.09
71
1
72
0
73
0
74
0
75
0
76
0
77
1
78
8
170
0
171
2
172
0
173
0
174
0
175
0
176
0
177
0
178
0
270
2
271
2
272
2
273
2
274
2
275
0
280
0
281
0
282
0
283
1
284
8
285
0
286
0
287
3
288
0
340
11
341
210
342
210
343
210
344
210
0
DIMSTYLE
105
215
100
AcDbSymbolTableRecord
100
AcDbDimStyleTableRecord
2
DIMSTYLE_1
70
0
3

4

40
1.0
41
3.0000000000
42
0.0625
43
0.38
44
0.18
45
0.0
46
0.0
47
0.0000000000
48
0.0000000000
140
3.0000000000
141
0.09
142
0.0
143
25.4
144
1.0000000000
145
0.0
146
1.0000000000
147
0.09
71
0
72
0
73
0
74
0
75
0
76
0
77
1
78
8
170
0
171
2
172
0
173
0
174
0
175
0
176
0
177
0
178
0
270
2
271
0
272
0
273
2
274
2
275
0
280
0
281
0
282
0
283
1
284
8
285
0
286
0
287
3
288
0
340
11
341
210
342
210
343
210
344
210
0
DIMSTYLE
105
216
100
AcDbSymbolTableRecord
100
AcDbDimStyleTableRecord
2
DIMSTYLE_2
70
0
3

4

40
1.0
41
3.0000000000
42
0.0625
43
0.38
44
0.18
45
0.0
46
0.0
47
0.0000000000
48
0.0000000000
140
3.0000000000
141
0.09
142
0.0
143
25.4
144
1.0000000000
145
0.0
146
1.0000000000
147
0.09
71
0
72
0
73
0
74
0
75
0
76
0
77
1
78
8
170
0
171
2
172
0
173
0
174
0
175
0
176
0
177
0
178
0
270
2
271
2
272
2
273
2
274
2
275
0
280
0
281
0
282
0
283
1
284
8
285
0
286
0
287
3
288
0
340
11
341
210
342
210
343
210
344
210
0
ENDTAB
0
ENDSEC
0
SECTION
2
BLOCKS
0
BLOCK
5
20
100
AcDbEntity
8
0
100
AcDbBlockBegin
2
*MODEL_SPACE
70
0
10
0.0
20
0.0
30
0.0
3
*MODEL_SPACE
1

0
ENDBLK
5
21
100
AcDbEntity
8
0
100
AcDbBlockEnd
0
BLOCK
5
1C
100
AcDbEntity
8
0
100
AcDbBlockBegin
2
*PAPER_SPACE
70
0
10
0.0
20
0.0
30
0.0
3
*PAPER_SPACE
1

0
ENDBLK
5
1D
100
AcDbEntity
8
0
100
AcDbBlockEnd
0
BLOCK
5
217
100
AcDbEntity
8
0
100
AcDbBlockBegin
62
0
6
CONTINUOUS
2
*D0
70
65
10
0.0000000000
20
0.0000000000
3
*D0
1

0
TEXT
5
218
100
AcDbEntity
8
0
100
AcDbText
62
0
6
CONTINUOUS
10
32.5189299434
20
50.2138796633
7
STANDARD
40
3.0000000000
1
40
41
0.7857142857
72
0
100
AcDbText
0
LINE
5
219
100
AcDbEntity
8
0
100
AcDbLine
62
0
6
CONTINUOUS
10
14.7261068311
20
40.1116449908
11
14.7261068311
21
50.9638796633
0
LINE
5
21A
100
AcDbEntity
8
0
100
AcDbLine
62
0
6
CONTINUOUS
10
54.5261068311
20
39.9942182335
11
54.5261068311
21
50.9638796633
0
LINE
5
21B
100
AcDbEntity
8
0
100
AcDbLine
62
0
6
CONTINUOUS
10
14.7261068311
20
49.4638796633
11
34.6261068311
21
49.4638796633
0
LINE
5
21C
100
AcDbEntity
8
0
100
AcDbLine
62
0
6
CONTINUOUS
10
54.5261068311
20
49.4638796633
11
34.6261068311
21
49.4638796633
0
INSERT
5
21D
100
AcDbEntity
8
0
100
AcDbBlockReference
62
0
6
CONTINUOUS
2
_FILLED
10
14.7261068311
20
49.4638796633
41
  3.000000
42
  3.000000
43
  3.000000
50
180.000000
0
INSERT
5
21E
100
AcDbEntity
8
0
100
AcDbBlockReference
62
0
6
CONTINUOUS
2
_FILLED
10
54.5261068311
20
49.4638796633
41
  3.000000
42
  3.000000
43
  3.000000
0
ENDBLK
5
21F
100
AcDbEntity
8
0
6
BYBLOCK
62
0
100
AcDbBlockEnd
0
BLOCK
5
220
100
AcDbEntity
8
0
100
AcDbBlockBegin
62
0
6
CONTINUOUS
2
*D1
70
65
10
0.0000000000
20
0.0000000000
3
*D1
1

0
TEXT
5
221
100
AcDbEntity
8
0
100
AcDbText
62
0
6
CONTINUOUS
10
64.3588665612
20
-2.1761290546
7
STANDARD
40
3.0000000000
1
80
50
90.0000000000
41
0.7857142857
72
0
100
AcDbText
0
LINE
5
222
100
AcDbEntity
8
0
100
AcDbLine
62
0
6
CONTINUOUS
10
54.1545548865
20
40.3628205338
11
66.6088665612
21
40.3628205338
0
LINE
5
223
100
AcDbEntity
8
0
100
AcDbLine
62
0
6
CONTINUOUS
10
53.6448246763
20
-39.4367697324
11
66.6088665612
21
-39.4367697324
0
LINE
5
224
100
AcDbEntity
8
0
100
AcDbLine
62
0
6
CONTINUOUS
10
65.1088665612
20
40.3628205338
11
65.1088665612
21
0.4630254007
0
LINE
5
225
100
AcDbEntity
8
0
100
AcDbLine
62
0
6
CONTINUOUS
10
65.1088665612
20
-39.4367697324
11
65.1088665612
21
0.4630254007
0
INSERT
5
226
100
AcDbEntity
8
0
100
AcDbBlockReference
62
0
6
CONTINUOUS
2
_FILLED
10
65.1088665612
20
40.3628205338
41
  3.000000
42
  3.000000
43
  3.000000
50
 90.000000
0
INSERT
5
227
100
AcDbEntity
8
0
100
AcDbBlockReference
62
0
6
CONTINUOUS
2
_FILLED
10
65.1088665612
20
-39.4367697324
41
  3.000000
42
  3.000000
43
  3.000000
50
270.000000
0
ENDBLK
5
228
100
AcDbEntity
8
0
6
BYBLOCK
62
0
100
AcDbBlockEnd
0
BLOCK
5
229
100
AcDbEntity
8
0
100
AcDbBlockBegin
62
0
6
CONTINUOUS
2
*D2
70
65
10
0.0000000000
20
0.0000000000
3
*D2
1

0
TEXT
5
22A
100
AcDbEntity
8
0
100
AcDbText
62
0
6
CONTINUOUS
10
-18.4729528908
20
50.1903692786
7
STANDARD
40
3.0000000000
1
9
41
0.7857142857
72
0
100
AcDbText
0
LINE
5
22B
100
AcDbEntity
8
0
100
AcDbLine
62
0
6
CONTINUOUS
10
-22.1714200127
20
40.3409053457
11
-22.1714200127
21
50.9403692786
0
LINE
5
22C
100
AcDbEntity
8
0
100
AcDbLine
62
0
6
CONTINUOUS
10
-13.1714200127
20
39.6439207220
11
-13.1714200127
21
50.9403692786
0
LINE
5
22D
100
AcDbEntity
8
0
100
AcDbLine
62
0
6
CONTINUOUS
10
-22.1714200127
20
49.4403692786
11
-17.6714200127
21
49.4403692786
0
LINE
5
22E
100
AcDbEntity
8
0
100
AcDbLine
62
0
6
CONTINUOUS
10
-13.1714200127
20
49.4403692786
11
-17.6714200127
21
49.4403692786
0
INSERT
5
22F
100
AcDbEntity
8
0
100
AcDbBlockReference
62
0
6
CONTINUOUS
2
_FILLED
10
-22.1714200127
20
49.4403692786
41
  3.000000
42
  3.000000
43
  3.000000
50
180.000000
0
INSERT
5
230
100
AcDbEntity
8
0
100
AcDbBlockReference
62
0
6
CONTINUOUS
2
_FILLED
10
-13.1714200127
20
49.4403692786
41
  3.000000
42
  3.000000
43
  3.000000
0
ENDBLK
5
231
100
AcDbEntity
8
0
6
BYBLOCK
62
0
100
AcDbBlockEnd
0
BLOCK
5
232
100
AcDbEntity
8
0
100
AcDbBlockBegin
2
_FILLED
70
64
10
0.0000000000
20
0.0000000000
3
_FILLED
1

0
SOLID
5
233
100
AcDbEntity
8
0
6
BYBLOCK
62
0
100
AcDbTrace
10
0.0000000000
20
0.0000000000
11
-1.0000000000
21
0.3166666667
12
-1.0000000000
22
-0.3166666667
13
-1.0000000000
23
-0.3166666667
0
ENDBLK
5
234
100
AcDbEntity
8
0
6
BYBLOCK
62
0
100
AcDbBlockEnd
0
ENDSEC
0
SECTION
2
ENTITIES
0
DIMENSION
5
235
100
AcDbEntity
8
0
100
AcDbDimension
62
0
6
CONTINUOUS
2
*D0
10
54.5261068311
20
49.4638796633
11
34.8760728005
21
51.7138796633
70
160
42
39.800000
3
DIMSTYLE_1
100
AcDbAlignedDimension
13
14.7261068311
23
40.1116449908
14
54.5261068311
24
39.9942182335
100
AcDbRotatedDimension
0
DIMENSION
5
236
100
AcDbEntity
8
0
100
AcDbDimension
62
0
6
CONTINUOUS
2
*D1
10
65.1088665612
20
-39.4367697324
11
62.8588665612
21
0.1810138026
70
160
42
79.799590
3
DIMSTYLE_1
100
AcDbAlignedDimension
13
54.1545548865
23
40.3628205338
14
53.6448246763
24
-39.4367697324
50
270.000000
100
AcDbRotatedDimension
0
DIMENSION
5
237
100
AcDbEntity
8
0
100
AcDbDimension
62
0
6
CONTINUOUS
2
*D2
10
-13.1714200127
20
49.4403692786
11
-17.2943814622
21
51.6903692786
70
160
42
9.000000
3
DIMSTYLE_2
100
AcDbAlignedDimension
13
-22.1714200127
23
40.3409053457
14
-13.1714200127
24
39.6439207220
100
AcDbRotatedDimension
0
LINE
5
238
100
AcDbEntity
8
0
100
AcDbLine
62
9
6
CONTINUOUS
10
52.5466062181
20
-38.3231473122
11
16.7056074440
21
-38.3231473122
0
LINE
5
239
100
AcDbEntity
8
0
100
AcDbLine
62
9
6
CONTINUOUS
10
54.2999152993
20
-37.3332070680
11
53.5532417666
21
-37.3332070680
0
LINE
5
23A
100
AcDbEntity
8
0
100
AcDbLine
62
9
6
CONTINUOUS
10
14.9522983629
20
-37.3332070680
11
15.6989718955
21
-37.3332070680
0
LINE
5
23B
100
AcDbEntity
8
0
100
AcDbLine
62
0
6
CONTINUOUS
10
30.9271138311
20
-24.6384015993
11
31.3130198311
21
-24.6384015993
0
LINE
5
23C
100
AcDbEntity
8
0
100
AcDbLine
62
0
6
CONTINUOUS
10
32.2693958311
20
-24.6384015993
11
32.6720808311
21
-24.6384015993
0
LINE
5
23D
100
AcDbEntity
8
0
100
AcDbLine
62
0
6
CONTINUOUS
10
33.0244298311
20
-24.6384015993
11
33.4271138311
21
-24.6384015993
0
LINE
5
23E
100
AcDbEntity
8
0
100
AcDbLine
62
0
6
CONTINUOUS
10
33.8130198311
20
-24.6384015993
11
34.2157048311
21
-24.6384015993
0
LINE
5
23F
100
AcDbEntity
8
0
100
AcDbLine
62
0
6
CONTINUOUS
10
34.6016108311
20
-24.6384015993
11
35.0042948311
21
-24.6384015993
0
LINE
5
240
100
AcDbEntity
8
0
100
AcDbLine
62
0
6
CONTINUOUS
10
35.3230868311
20
-24.6384015993
11
35.7257718311
21
-24.6384015993
0
LINE
5
241
100
AcDbEntity
8
0
100
AcDbLine
62
0
6
CONTINUOUS
10
36.6150338311
20
-24.6384015993
11
37.0177178311
21
-24.6384015993
0
LINE
5
242
100
AcDbEntity
8
0
100
AcDbLine
62
0
6
CONTINUOUS
10
37.3365098311
20
-24.6384015993
11
37.7391948311
21
-24.6384015993
0
LINE
5
243
100
AcDbEntity
8
0
100
AcDbLine
62
0
6
CONTINUOUS
10
38.4942278311
20
-24.6384015993
11
38.9472478311
21
-24.6384015993
0
LINE
5
244
100
AcDbEntity
8
0
100
AcDbLine
62
9
6
CONTINUOUS
10
48.2460689680
20
-24.3798103614
11
48.1339120952
21
-24.3798103689
0
LINE
5
245
100
AcDbEntity
8
0
100
AcDbLine
62
9
6
CONTINUOUS
10
21.0061446942
20
-24.3798102734
11
21.1183015669
21
-24.3798102734
0
LINE
5
246
100
AcDbEntity
8
0
100
AcDbLine
62
9
6
CONTINUOUS
10
47.8805165371
20
-24.3194907627
11
47.7923987150
21
-24.3194907627
0
LINE
5
247
100
AcDbEntity
8
0
100
AcDbLine
62
9
6
CONTINUOUS
10
21.3716971250
20
-24.3194906864
11
21.4598149475
21
-24.3194906864
0
LINE
5
248
100
AcDbEntity
8
0
100
AcDbLine
62
0
6
CONTINUOUS
10
35.8432218311
20
-24.2886515993
11
36.4808048311
21
-24.2886515993
0
LINE
5
249
100
AcDbEntity
8
0
100
AcDbLine
62
0
6
CONTINUOUS
10
36.3633558311
20
-23.9541085993
11
35.9774498311
21
-23.9541085993
0
LINE
5
24A
100
AcDbEntity
8
0
100
AcDbLine
62
0
6
CONTINUOUS
10
37.7391948311
20
-23.9541085993
11
38.0915438311
21
-23.9541085993
0
LINE
5
24B
100
AcDbEntity
8
0
100
AcDbLine
62
0
6
CONTINUOUS
10
38.2257722866
20
-23.6195656324
11
37.7224158311
21
-23.6195655993
0
LINE
5
24C
100
AcDbEntity
8
0
100
AcDbLine
62
0
6
CONTINUOUS
10
37.7224158311
20
-23.1633705993
11
38.2257715320
21
-23.1633706024
0
LINE
5
24D
100
AcDbEntity
8
0
100
AcDbLine
62
0
6
CONTINUOUS
10
38.2761076687
20
-22.8288275804
11
37.3365098311
21
-22.8288275993
0
LINE
5
24E
100
AcDbEntity
8
0
100
AcDbLine
62
0
6
CONTINUOUS
10
36.3633558311
20
-22.8288275993
11
35.9606708311
21
-22.8288275993
0
LINE
5
24F
100
AcDbEntity
8
0
100
AcDbLine
62
0
6
CONTINUOUS
10
35.0042948311
20
-22.8288275993
11
34.4002688311
21
-22.8288275993
0
LINE
5
250
100
AcDbEntity
8
0
100
AcDbLine
62
0
6
CONTINUOUS
10
33.6452348311
20
-22.8288275993
11
33.0244298311
21
-22.8288275993
0
LINE
5
251
100
AcDbEntity
8
0
100
AcDbLine
62
0
6
CONTINUOUS
10
32.6720808311
20
-22.8288275993
11
32.2693958311
21
-22.8288275993
0
LINE
5
252
100
AcDbEntity
8
0
100
AcDbLine
62
0
6
CONTINUOUS
10
31.9673828311
20
-22.8288275993
11
31.5646978311
21
-22.8288275993
0
LINE
5
253
100
AcDbEntity
8
0
100
AcDbLine
62
0
6
CONTINUOUS
10
30.6754368311
20
-22.8288275993
11
30.2727518311
21
-22.8288275993
0
LINE
5
254
100
AcDbEntity
8
0
100
AcDbLine
62
9
6
CONTINUOUS
10
23.3908248520
20
-22.3786597848
11
45.8613888102
21
-22.3786597848
0
LINE
5
255
100
AcDbEntity
8
0
100
AcDbLine
62
9
6
CONTINUOUS
10
23.4221531890
20
-22.0906541483
11
45.8300604731
21
-22.0906541483
0
LINE
5
256
100
AcDbEntity
8
0
100
AcDbLine
62
0
6
CONTINUOUS
10
45.7763809241
20
-22.0369745993
11
23.4758327380
21
-22.0369745993
0
LINE
5
257
100
AcDbEntity
8
0
100
AcDbLine
62
0
6
CONTINUOUS
10
14.7261068311
20
38.4834395027
11
14.7261068311
21
-37.5573887013
0
LINE
5
258
100
AcDbEntity
8
0
100
AcDbLine
62
9
6
CONTINUOUS
10
14.9522983629
20
-37.3332070680
11
14.9522983629
21
38.2592578695
0
LINE
5
259
100
AcDbEntity
8
0
100
AcDbLine
62
9
6
CONTINUOUS
10
15.6989718955
20
-37.3332070680
11
15.6989718955
21
38.2592578695
0
LINE
5
25A
100
AcDbEntity
8
0
100
AcDbLine
62
9
6
CONTINUOUS
10
21.0061446942
20
-24.3798102734
11
21.0061446942
21
25.3058610572
0
LINE
5
25B
100
AcDbEntity
8
0
100
AcDbLine
62
0
6
CONTINUOUS
10
21.1183015669
20
-24.3798102734
11
21.1183015669
21
25.3058610572
0
LINE
5
25C
100
AcDbEntity
8
0
100
AcDbLine
62
0
6
CONTINUOUS
10
21.2831440405
20
25.3151454551
11
21.2831440405
21
-24.3890946661
0
LINE
5
25D
100
AcDbEntity
8
0
100
AcDbLine
62
9
6
CONTINUOUS
10
21.3716971250
20
-24.3194906864
11
21.3716971250
21
25.2455414728
0
LINE
5
25E
100
AcDbEntity
8
0
100
AcDbLine
62
9
6
CONTINUOUS
10
21.4598149475
20
-24.3194906864
11
21.4598149475
21
25.2455414728
0
LINE
5
25F
100
AcDbEntity
8
0
100
AcDbLine
62
9
6
CONTINUOUS
10
47.2818845696
20
26.3704122246
11
47.2898910272
21
26.3766072424
0
LINE
5
260
100
AcDbEntity
8
0
100
AcDbLine
62
9
6
CONTINUOUS
10
47.2818845385
20
-25.4443614282
11
47.2898910224
21
-25.4505564398
0
LINE
5
261
100
AcDbEntity
8
0
100
AcDbLine
62
9
6
CONTINUOUS
10
23.1910989450
20
23.2201869339
11
23.1711925582
21
24.0347489127
0
LINE
5
262
100
AcDbEntity
8
0
100
AcDbLine
62
9
6
CONTINUOUS
10
23.3908248520
20
23.3047105862
11
23.3709184651
21
24.1192725650
0
LINE
5
263
100
AcDbEntity
8
0
100
AcDbLine
62
9
6
CONTINUOUS
10
22.9506361951
20
24.9362775756
11
22.9506361951
21
-24.0102268509
0
LINE
5
264
100
AcDbEntity
8
0
100
AcDbLine
62
9
6
CONTINUOUS
10
23.1711925582
20
24.0347489127
11
23.1711925582
21
-23.1086981112
0
LINE
5
265
100
AcDbEntity
8
0
100
AcDbLine
62
0
6
CONTINUOUS
10
23.2761068311
20
-21.8372486923
11
23.2761068311
21
22.7632994938
0
LINE
5
266
100
AcDbEntity
8
0
100
AcDbLine
62
9
6
CONTINUOUS
10
23.1910989450
20
-22.2941361324
11
23.1711925582
21
-23.1086981112
0
LINE
5
267
100
AcDbEntity
8
0
100
AcDbLine
62
9
6
CONTINUOUS
10
23.3908248520
20
-22.3786597848
11
23.3709184651
21
-23.1932217636
0
LINE
5
268
100
AcDbEntity
8
0
100
AcDbLine
62
0
6
CONTINUOUS
10
38.9472478311
20
-24.6384015993
11
38.5110066655
21
-23.9084893223
0
LINE
5
269
100
AcDbEntity
8
0
100
AcDbLine
62
0
6
CONTINUOUS
10
38.0915438311
20
-23.9541085993
11
38.4942278311
21
-24.6384015993
0
LINE
5
26A
100
AcDbEntity
8
0
100
AcDbLine
62
0
6
CONTINUOUS
10
30.2727518311
20
-22.8288275993
11
30.9271138311
21
-24.6384015993
0
LINE
5
26B
100
AcDbEntity
8
0
100
AcDbLine
62
0
6
CONTINUOUS
10
31.1116778311
20
-24.0909675993
11
30.6754368311
21
-22.8288275993
0
LINE
5
26C
100
AcDbEntity
8
0
100
AcDbLine
62
9
6
CONTINUOUS
10
45.7763809241
20
22.9630254007
11
45.8300604731
21
23.0167049497
0
LINE
5
26D
100
AcDbEntity
8
0
100
AcDbLine
62
9
6
CONTINUOUS
10
45.9761068311
20
22.7632994938
11
46.0297863801
21
22.8169790428
0
LINE
5
26E
100
AcDbEntity
8
0
100
AcDbLine
62
9
6
CONTINUOUS
10
45.7763809241
20
-22.0369745993
11
45.8300604731
21
-22.0906541483
0
LINE
5
26F
100
AcDbEntity
8
0
100
AcDbLine
62
9
6
CONTINUOUS
10
45.9761068311
20
-21.8372486923
11
46.0297863801
21
-21.8909282413
0
LINE
5
270
100
AcDbEntity
8
0
100
AcDbLine
62
0
6
CONTINUOUS
10
36.4808048311
20
-24.2886515993
11
36.6150338311
21
-24.6384015993
0
LINE
5
271
100
AcDbEntity
8
0
100
AcDbLine
62
0
6
CONTINUOUS
10
37.0177178311
20
-24.6384015993
11
36.3633558311
21
-22.8288275993
0
LINE
5
272
100
AcDbEntity
8
0
100
AcDbLine
62
0
6
CONTINUOUS
10
36.1620138311
20
-23.3914685993
11
36.3633558311
21
-23.9541085993
0
LINE
5
273
100
AcDbEntity
8
0
100
AcDbLine
62
0
6
CONTINUOUS
10
33.4271138311
20
-23.4522945993
11
33.8130198311
21
-24.6384015993
0
LINE
5
274
100
AcDbEntity
8
0
100
AcDbLine
62
0
6
CONTINUOUS
10
34.0143628311
20
-24.0149345993
11
33.6452348311
21
-22.8288275993
0
LINE
5
275
100
AcDbEntity
8
0
100
AcDbLine
62
0
6
CONTINUOUS
10
32.2693958311
20
-22.8288275993
11
32.2693958311
21
-24.6384015993
0
LINE
5
276
100
AcDbEntity
8
0
100
AcDbLine
62
0
6
CONTINUOUS
10
32.6720808311
20
-24.6384015993
11
32.6720808311
21
-22.8288275993
0
LINE
5
277
100
AcDbEntity
8
0
100
AcDbLine
62
0
6
CONTINUOUS
10
33.0244298311
20
-22.8288275993
11
33.0244298311
21
-24.6384015993
0
LINE
5
278
100
AcDbEntity
8
0
100
AcDbLine
62
0
6
CONTINUOUS
10
33.4271138311
20
-24.6384015993
11
33.4271138311
21
-23.4522945993
0
LINE
5
279
100
AcDbEntity
8
0
100
AcDbLine
62
0
6
CONTINUOUS
10
34.6016108311
20
-23.4522945993
11
34.6016108311
21
-24.6384015993
0
LINE
5
27A
100
AcDbEntity
8
0
100
AcDbLine
62
0
6
CONTINUOUS
10
35.0042948311
20
-24.6384015993
11
35.0042948311
21
-22.8288275993
0
LINE
5
27B
100
AcDbEntity
8
0
100
AcDbLine
62
0
6
CONTINUOUS
10
37.3365098311
20
-22.8288275993
11
37.3365098311
21
-24.6384015993
0
LINE
5
27C
100
AcDbEntity
8
0
100
AcDbLine
62
0
6
CONTINUOUS
10
37.7224158311
20
-23.6195655993
11
37.7224158311
21
-23.1633705993
0
LINE
5
27D
100
AcDbEntity
8
0
100
AcDbLine
62
0
6
CONTINUOUS
10
37.7391948311
20
-24.6384015993
11
37.7391948311
21
-23.9541085993
0
LINE
5
27E
100
AcDbEntity
8
0
100
AcDbLine
62
0
6
CONTINUOUS
10
31.5646978311
20
-22.8288275993
11
31.1116778311
21
-24.0909675993
0
LINE
5
27F
100
AcDbEntity
8
0
100
AcDbLine
62
0
6
CONTINUOUS
10
31.3130198311
20
-24.6384015993
11
31.9673828311
21
-22.8288275993
0
LINE
5
280
100
AcDbEntity
8
0
100
AcDbLine
62
0
6
CONTINUOUS
10
34.4002688311
20
-22.8288275993
11
34.0143628311
21
-24.0149345993
0
LINE
5
281
100
AcDbEntity
8
0
100
AcDbLine
62
0
6
CONTINUOUS
10
34.2157048311
20
-24.6384015993
11
34.6016108311
21
-23.4522945993
0
LINE
5
282
100
AcDbEntity
8
0
100
AcDbLine
62
0
6
CONTINUOUS
10
35.9774498311
20
-23.9541085993
11
36.1620138311
21
-23.3914685993
0
LINE
5
283
100
AcDbEntity
8
0
100
AcDbLine
62
0
6
CONTINUOUS
10
35.7257718311
20
-24.6384015993
11
35.8432218311
21
-24.2886515993
0
LINE
5
284
100
AcDbEntity
8
0
100
AcDbLine
62
0
6
CONTINUOUS
10
35.9606708311
20
-22.8288275993
11
35.3230868311
21
-24.6384015993
0
LINE
5
285
100
AcDbEntity
8
0
100
AcDbLine
62
9
6
CONTINUOUS
10
23.2761068311
20
-21.8372486923
11
23.2224272821
21
-21.8909282413
0
LINE
5
286
100
AcDbEntity
8
0
100
AcDbLine
62
9
6
CONTINUOUS
10
23.4758327380
20
-22.0369745993
11
23.4221531890
21
-22.0906541483
0
LINE
5
287
100
AcDbEntity
8
0
100
AcDbLine
62
9
6
CONTINUOUS
10
23.2761068311
20
22.7632994938
11
23.2224272821
21
22.8169790428
0
LINE
5
288
100
AcDbEntity
8
0
100
AcDbLine
62
9
6
CONTINUOUS
10
23.4758327380
20
22.9630254007
11
23.4221531890
21
23.0167049497
0
LINE
5
289
100
AcDbEntity
8
0
100
AcDbLine
62
9
6
CONTINUOUS
10
45.8613888102
20
-22.3786597848
11
45.8812951970
21
-23.1932217636
0
LINE
5
28A
100
AcDbEntity
8
0
100
AcDbLine
62
9
6
CONTINUOUS
10
46.0611147171
20
-22.2941361324
11
46.0810211040
21
-23.1086981112
0
LINE
5
28B
100
AcDbEntity
8
0
100
AcDbLine
62
0
6
CONTINUOUS
10
45.9761068311
20
22.7632994938
11
45.9761068311
21
-21.8372486923
0
LINE
5
28C
100
AcDbEntity
8
0
100
AcDbLine
62
9
6
CONTINUOUS
10
46.0810211040
20
-23.1086981112
11
46.0810211040
21
24.0347489127
0
LINE
5
28D
100
AcDbEntity
8
0
100
AcDbLine
62
9
6
CONTINUOUS
10
46.3015774670
20
-24.0102269374
11
46.3015774670
21
24.9362778152
0
LINE
5
28E
100
AcDbEntity
8
0
100
AcDbLine
62
9
6
CONTINUOUS
10
45.8613888102
20
23.3047105862
11
45.8812951970
21
24.1192725650
0
LINE
5
28F
100
AcDbEntity
8
0
100
AcDbLine
62
9
6
CONTINUOUS
10
46.0611147171
20
23.2201869339
11
46.0810211040
21
24.0347489127
0
LINE
5
290
100
AcDbEntity
8
0
100
AcDbLine
62
9
6
CONTINUOUS
10
21.9703292857
20
-25.4443613779
11
21.9623228273
21
-25.4505563967
0
LINE
5
291
100
AcDbEntity
8
0
100
AcDbLine
62
9
6
CONTINUOUS
10
21.9703293498
20
26.3704121769
11
21.9623228650
21
26.3766071896
0
LINE
5
292
100
AcDbEntity
8
0
100
AcDbLine
62
9
6
CONTINUOUS
10
47.7923987147
20
25.2455415661
11
47.7923987147
21
-24.3194907627
0
LINE
5
293
100
AcDbEntity
8
0
100
AcDbLine
62
9
6
CONTINUOUS
10
47.8805165371
20
25.2455415660
11
47.8805165371
21
-24.3194907627
0
LINE
5
294
100
AcDbEntity
8
0
100
AcDbLine
62
0
6
CONTINUOUS
10
47.9690696217
20
25.3151455337
11
47.9690696217
21
-24.3890947309
0
LINE
5
295
100
AcDbEntity
8
0
100
AcDbLine
62
0
6
CONTINUOUS
10
48.1339120952
20
25.3058611652
11
48.1339120952
21
-24.3798103614
0
LINE
5
296
100
AcDbEntity
8
0
100
AcDbLine
62
9
6
CONTINUOUS
10
48.2460689680
20
25.3058611652
11
48.2460689680
21
-24.3798103614
0
LINE
5
297
100
AcDbEntity
8
0
100
AcDbLine
62
9
6
CONTINUOUS
10
53.5532417666
20
38.2592578695
11
53.5532417666
21
-37.3332070680
0
LINE
5
298
100
AcDbEntity
8
0
100
AcDbLine
62
9
6
CONTINUOUS
10
54.2999152993
20
38.2592578695
11
54.2999152993
21
-37.3332070680
0
LINE
5
299
100
AcDbEntity
8
0
100
AcDbLine
62
0
6
CONTINUOUS
10
54.5261068311
20
38.4834395027
11
54.5261068311
21
-37.5573887012
0
LINE
5
29A
100
AcDbEntity
8
0
100
AcDbLine
62
0
6
CONTINUOUS
10
23.4758327380
20
22.9630254007
11
45.7763809241
21
22.9630254007
0
LINE
5
29B
100
AcDbEntity
8
0
100
AcDbLine
62
9
6
CONTINUOUS
10
45.8300604731
20
23.0167049497
11
23.4221531890
21
23.0167049497
0
LINE
5
29C
100
AcDbEntity
8
0
100
AcDbLine
62
9
6
CONTINUOUS
10
45.8613888102
20
23.3047105862
11
23.3908248520
21
23.3047105862
0
LINE
5
29D
100
AcDbEntity
8
0
100
AcDbLine
62
9
6
CONTINUOUS
10
47.8805165371
20
25.2455415661
11
47.7923987147
21
25.2455415661
0
LINE
5
29E
100
AcDbEntity
8
0
100
AcDbLine
62
9
6
CONTINUOUS
10
21.3716971250
20
25.2455414728
11
21.4598149471
21
25.2455414728
0
LINE
5
29F
100
AcDbEntity
8
0
100
AcDbLine
62
9
6
CONTINUOUS
10
48.2460689680
20
25.3058611652
11
48.1339120952
21
25.3058611652
0
LINE
5
2A0
100
AcDbEntity
8
0
100
AcDbLine
62
9
6
CONTINUOUS
10
21.0061446942
20
25.3058610572
11
21.1183015670
21
25.3058610647
0
LINE
5
2A1
100
AcDbEntity
8
0
100
AcDbLine
62
9
6
CONTINUOUS
10
54.2999152993
20
38.2592578695
11
53.5532417666
21
38.2592578695
0
LINE
5
2A2
100
AcDbEntity
8
0
100
AcDbLine
62
9
6
CONTINUOUS
10
14.9522983629
20
38.2592578695
11
15.6989718955
21
38.2592578695
0
LINE
5
2A3
100
AcDbEntity
8
0
100
AcDbLine
62
9
6
CONTINUOUS
10
16.7056074440
20
39.2491981137
11
52.5466062181
21
39.2491981137
0
LINE
5
2A4
100
AcDbEntity
8
0
100
AcDbLine
62
9
6
CONTINUOUS
10
-20.6284446730
20
-38.3231473122
11
-22.0714200127
21
-38.3258259159
0
LINE
5
2A5
100
AcDbEntity
8
0
100
AcDbLine
62
9
6
CONTINUOUS
10
-13.1714200127
20
-37.5383450645
11
-13.6462271802
21
-37.5383450645
0
LINE
5
2A6
100
AcDbEntity
8
0
100
AcDbLine
62
0
6
CONTINUOUS
10
-21.2185133330
20
-39.2245899455
11
-17.1714200127
21
-39.4366891190
0
LINE
5
2A7
100
AcDbEntity
8
0
100
AcDbLine
62
0
6
CONTINUOUS
10
-13.6465210238
20
-38.5120756103
11
-15.3447527004
21
-38.4230750595
0
LINE
5
2A8
100
AcDbEntity
8
0
100
AcDbLine
62
9
6
CONTINUOUS
10
-13.6465210238
20
-37.5134460756
11
-15.2977829878
21
-37.4269071030
0
LINE
5
2A9
100
AcDbEntity
8
0
100
AcDbLine
62
9
6
CONTINUOUS
10
-19.6206127742
20
-37.3332070680
11
-20.4605660514
21
-37.3332070680
0
LINE
5
2AA
100
AcDbEntity
8
0
100
AcDbLine
62
0
6
CONTINUOUS
10
-22.0766380020
20
-26.7421923330
11
-21.9390388414
21
-26.7494036320
0
LINE
5
2AB
100
AcDbEntity
8
0
100
AcDbLine
62
9
6
CONTINUOUS
10
-21.2401954463
20
-24.3798103614
11
-21.2409376111
21
-24.3798103596
0
LINE
5
2AC
100
AcDbEntity
8
0
100
AcDbLine
62
9
6
CONTINUOUS
10
-21.3014615414
20
-24.3194907627
11
-21.3925163060
21
-24.3194908052
0
LWPOLYLINE
5
2AD
100
AcDbEntity
8
0
100
AcDbPolyline
62
0
6
CONTINUOUS
90
9
70
0
10
-22.1650508208
20
-26.6771125987
10
-22.1581235576
20
-26.6918462166
10
-22.1488926768
20
-26.7052661039
10
-22.1376041801
20
-26.7170107064
10
-22.1245524482
20
-26.7267705459
10
-22.1100917187
20
-26.7342795222
10
-22.0946115039
20
-26.7393385124
10
-22.0785186486
20
-26.7418174871
10
-22.0766245033
20
-26.7419347877
0
LWPOLYLINE
5
2AE
100
AcDbEntity
8
0
100
AcDbPolyline
62
0
6
CONTINUOUS
90
5
70
0
10
-22.0714200070
20
27.9711454286
10
-22.0710935182
20
27.9630713240
10
-22.0693439921
20
27.9508749293
10
-22.0661084598
20
27.9389880515
10
-22.0614366944
20
27.9275909115
0
LWPOLYLINE
5
2AF
100
AcDbEntity
8
0
100
AcDbPolyline
62
0
6
CONTINUOUS
90
4
70
0
10
-22.1713908000
20
-26.6420730283
10
-22.1713359690
20
-26.6453840595
10
-22.1694888832
20
-26.6614832618
10
-22.1650508208
20
-26.6771125987
0
LINE
5
2B0
100
AcDbEntity
8
0
100
AcDbLine
62
0
6
CONTINUOUS
10
-22.1714200127
20
27.5100276693
11
-22.1714200127
21
26.2413694437
0
LINE
5
2B1
100
AcDbEntity
8
0
100
AcDbLine
62
0
6
CONTINUOUS
10
-22.1714200127
20
-25.3153186391
11
-22.1714200127
21
-26.5842233550
0
LINE
5
2B2
100
AcDbEntity
8
0
100
AcDbLine
62
0
6
CONTINUOUS
10
-22.0714200127
20
39.2517747610
11
-22.0714200127
21
27.9698259188
0
LINE
5
2B3
100
AcDbEntity
8
0
100
AcDbLine
62
0
6
CONTINUOUS
10
-22.0714200127
20
-27.0295321056
11
-22.0714200127
21
-38.3257239595
0
LINE
5
2B4
100
AcDbEntity
8
0
100
AcDbLine
62
0
6
CONTINUOUS
10
-21.5628363031
20
-23.9774939442
11
-21.5628364036
21
24.9031101050
0
LINE
5
2B5
100
AcDbEntity
8
0
100
AcDbLine
62
9
6
CONTINUOUS
10
-21.5617486760
20
-24.0102269374
11
-21.5617486760
21
-23.9770593127
0
LINE
5
2B6
100
AcDbEntity
8
0
100
AcDbLine
62
9
6
CONTINUOUS
10
-21.5617486760
20
24.9026605950
11
-21.5617486760
21
24.9362778152
0
LINE
5
2B7
100
AcDbEntity
8
0
100
AcDbLine
62
9
6
CONTINUOUS
10
-21.3955358100
20
25.2455415661
11
-21.3955358100
21
-24.3194907627
0
LINE
5
2B8
100
AcDbEntity
8
0
100
AcDbLine
62
9
6
CONTINUOUS
10
-21.3014615414
20
25.2455415660
11
-21.3014615414
21
-24.3194907627
0
LINE
5
2B9
100
AcDbEntity
8
0
100
AcDbLine
62
0
6
CONTINUOUS
10
-21.2410688153
20
25.3564599683
11
-21.2409376111
21
-24.3798103604
0
LINE
5
2BA
100
AcDbEntity
8
0
100
AcDbLine
62
0
6
CONTINUOUS
10
-21.5628362806
20
24.9026605950
11
-21.5628362147
21
24.9034480026
0
LWPOLYLINE
5
2BB
100
AcDbEntity
8
0
100
AcDbPolyline
62
0
6
CONTINUOUS
90
12
70
0
10
-21.2409368762
20
-24.3798103596
10
-21.2412484998
20
-24.4574837054
10
-21.2428750288
20
-24.5731474863
10
-21.2458028310
20
-24.6847655661
10
-21.2499200537
20
-24.7914100717
10
-21.2551011113
20
-24.8922341931
10
-21.2612197845
20
-24.9866266074
10
-21.2681419049
20
-25.0740457190
10
-21.2757176312
20
-25.1539528493
10
-21.2838172459
20
-25.2261652172
10
-21.2923028261
20
-25.2905103556
10
-21.3009895329
20
-25.3466304574
0
LINE
5
2BC
100
AcDbEntity
8
0
100
AcDbLine
62
9
6
CONTINUOUS
10
-20.4605660514
20
38.2592578695
11
-20.4605660514
21
-37.3332070680
0
LINE
5
2BD
100
AcDbEntity
8
0
100
AcDbLine
62
9
6
CONTINUOUS
10
-19.6206127742
20
38.2592578695
11
-19.6206127742
21
-37.3332070680
0
LINE
5
2BE
100
AcDbEntity
8
0
100
AcDbLine
62
0
6
CONTINUOUS
10
-15.3046212386
20
38.4834395027
11
-15.3046212386
21
-37.5573887012
0
LWPOLYLINE
5
2BF
100
AcDbEntity
8
0
100
AcDbPolyline
62
0
6
CONTINUOUS
90
6
70
0
10
-21.3009895329
20
-25.3466304574
10
-21.3097885427
20
-25.3949126818
10
-21.3185106423
20
-25.4352224563
10
-21.3266305393
20
-25.4664415966
10
-21.3335722522
20
-25.4884240695
10
-21.3392601960
20
-25.5029502264
0
LWPOLYLINE
5
2C0
100
AcDbEntity
8
0
100
AcDbPolyline
62
0
6
CONTINUOUS
90
3
70
0
10
-21.3161144181
20
26.3509046622
10
-21.3085397151
20
26.3145938661
10
-21.3009536662
20
26.2724669373
0
LWPOLYLINE
5
2C1
100
AcDbEntity
8
0
100
AcDbPolyline
62
0
6
CONTINUOUS
90
13
70
0
10
-21.3009536662
20
26.2724669373
10
-21.2933997255
20
26.2241538501
10
-21.2860287230
20
26.1699972208
10
-21.2789315316
20
26.1100884133
10
-21.2721855459
20
26.0444595991
10
-21.2658922322
20
25.9734530094
10
-21.2601347856
20
25.8973345916
10
-21.2549913742
20
25.8163860469
10
-21.2505453195
20
25.7311087151
10
-21.2468667702
20
25.6419367277
10
-21.2440213486
20
25.5493361994
10
-21.2420713523
20
25.4539573234
10
-21.2410688153
20
25.3564599683
0
LINE
5
2C2
100
AcDbEntity
8
0
100
AcDbLine
62
0
6
CONTINUOUS
10
-13.6465210238
20
-37.5134460756
11
-13.6465210238
21
38.4394968771
0
LINE
5
2C3
100
AcDbEntity
8
0
100
AcDbLine
62
0
6
CONTINUOUS
10
-13.1714200127
20
-38.0369745993
11
-13.1714200127
21
38.9630254007
0
LWPOLYLINE
5
2C4
100
AcDbEntity
8
0
100
AcDbPolyline
62
0
6
CONTINUOUS
90
4
70
0
10
-22.0660788506
20
-27.0128377809
10
-22.0693278487
20
-27.0247378696
10
-22.0710869897
20
-27.0369476922
10
-22.0714178818
20
-27.0450759721
0
LINE
5
2C5
100
AcDbEntity
8
0
100
AcDbLine
62
0
6
CONTINUOUS
10
-21.3235215169
20
26.3812437898
11
-21.3161144181
21
26.3509046622
0
LINE
5
2C6
100
AcDbEntity
8
0
100
AcDbLine
62
0
6
CONTINUOUS
10
-22.0613895248
20
-27.0014284836
11
-22.0660788506
21
-27.0128377809
0
LINE
5
2C7
100
AcDbEntity
8
0
100
AcDbLine
62
0
6
CONTINUOUS
10
-21.5670930915
20
-23.9750743805
11
-22.1521512278
21
-25.2297356026
0
LINE
5
2C8
100
AcDbEntity
8
0
100
AcDbLine
62
0
6
CONTINUOUS
10
-21.5670936635
20
24.9011264086
11
-22.1526142683
21
26.1567793977
0
LWPOLYLINE
5
2C9
100
AcDbEntity
8
0
100
AcDbPolyline
62
0
6
CONTINUOUS
90
4
70
0
10
-21.3393965981
20
26.4292765410
10
-21.3358328052
20
26.4206329029
10
-21.3302637573
20
26.4045408764
10
-21.3235215169
20
26.3812437898
0
LINE
5
2CA
100
AcDbEntity
8
0
100
AcDbLine
62
0
6
CONTINUOUS
10
-21.3401478616
20
-25.5047879893
11
-21.7315212210
21
-26.3207580670
0
LINE
5
2CB
100
AcDbEntity
8
0
100
AcDbLine
62
0
6
CONTINUOUS
10
-21.7315212210
20
-26.3207580670
11
-22.0613762373
21
-27.0014011044
0
LINE
5
2CC
100
AcDbEntity
8
0
100
AcDbLine
62
0
6
CONTINUOUS
10
-22.0614300284
20
27.9275771372
11
-21.6139241294
21
27.0026731593
0
LINE
5
2CD
100
AcDbEntity
8
0
100
AcDbLine
62
0
6
CONTINUOUS
10
-21.6139241294
20
27.0026731593
11
-21.3401477745
21
26.4308385002
0
LINE
5
2CE
100
AcDbEntity
8
0
100
AcDbLine
62
9
6
CONTINUOUS
10
-21.3014615414
20
25.2455415661
11
-21.3925149285
21
25.2455415660
0
LINE
5
2CF
100
AcDbEntity
8
0
100
AcDbLine
62
9
6
CONTINUOUS
10
-21.2401954463
20
25.3058611652
11
-21.2409376111
21
25.3058611652
0
LINE
5
2D0
100
AcDbEntity
8
0
100
AcDbLine
62
0
6
CONTINUOUS
10
-13.1714200127
20
-38.0369745993
11
-13.6462271802
21
-38.5117817667
0
LINE
5
2D1
100
AcDbEntity
8
0
100
AcDbLine
62
0
6
CONTINUOUS
10
-21.9390367168
20
27.6754544391
11
-22.0766376493
21
27.6682430473
0
LINE
5
2D2
100
AcDbEntity
8
0
100
AcDbLine
62
0
6
CONTINUOUS
10
-13.1714200127
20
38.9630254007
11
-13.6462271802
21
39.4378325682
0
LWPOLYLINE
5
2D3
100
AcDbEntity
8
0
100
AcDbPolyline
62
0
6
CONTINUOUS
90
12
70
0
10
-22.0766240675
20
27.6679839041
10
-22.0784655634
20
27.6678703518
10
-22.0945490857
20
27.6654024049
10
-22.1100208493
20
27.6603581688
10
-22.1244729001
20
27.6528692659
10
-22.1375196977
20
27.6431339996
10
-22.1488119197
20
27.6314135996
10
-22.1580529093
20
27.6180174811
10
-22.1649973816
20
27.6033030644
10
-22.1694605319
20
27.5876729271
10
-22.1713317180
20
27.5715463636
10
-22.1713903628
20
27.5681221508
0
LINE
5
2D4
100
AcDbEntity
8
0
100
AcDbLine
62
9
6
CONTINUOUS
10
-15.2977829878
20
38.3529579045
11
-13.6465210238
21
38.4394968771
0
LINE
5
2D5
100
AcDbEntity
8
0
100
AcDbLine
62
0
6
CONTINUOUS
10
-15.3447527004
20
39.3491258609
11
-13.6465210238
21
39.4381264118
0
LINE
5
2D6
100
AcDbEntity
8
0
100
AcDbLine
62
0
6
CONTINUOUS
10
-17.1714200127
20
40.3627399205
11
-21.2185133330
21
40.1506407470
0
LINE
5
2D7
100
AcDbEntity
8
0
100
AcDbLine
62
9
6
CONTINUOUS
10
-19.6206127742
20
38.2592578695
11
-20.4605660514
21
38.2592578695
0
LINE
5
2D8
100
AcDbEntity
8
0
100
AcDbLine
62
9
6
CONTINUOUS
10
-13.1714200127
20
38.4643958660
11
-13.6462271802
21
38.4643958660
0
LINE
5
2D9
100
AcDbEntity
8
0
100
AcDbLine
62
9
6
CONTINUOUS
10
-22.0714200127
20
39.2518767174
11
-20.6284446730
21
39.2491981137
0
ARC
5
2DA
100
AcDbEntity
8
0
100
AcDbCircle
62
0
6
CONTINUOUS
10
-21.1714109661
20
39.2518740460
40
0.9000000015
100
AcDbArc
50
93.0000000000
51
179.9999995327
0
ARC
5
2DB
100
AcDbEntity
8
0
100
AcDbCircle
62
0
6
CONTINUOUS
10
-21.1714109661
20
-38.3258232445
40
0.9000000015
100
AcDbArc
50
180.0000004673
51
267.0000000000
0
ARC
5
2DC
100
AcDbEntity
8
0
100
AcDbCircle
62
0
6
CONTINUOUS
10
-21.9713844621
20
26.2413711407
40
0.2000000000
100
AcDbArc
50
180.0002279052
51
205.0000000000
0
ARC
5
2DD
100
AcDbEntity
8
0
100
AcDbCircle
62
0
6
CONTINUOUS
10
-21.9713844612
20
-25.3153203374
40
0.2000000000
100
AcDbArc
50
155.0000000000
51
179.9997720896
0
SPLINE
5
2DE
100
AcDbEntity
8
0
100
AcDbSpline
62
0
6
CONTINUOUS
70
0
71
3
72
11
73
7
74
5
42
0.0000001000
43
0.0000001000
44
0.0000000001
12
0.3117547747
22
0.0000000000
32
0.0000000000
13
0.0000000000
23
0.3117547747
33
0.0000000000
40
0.0000000000
40
0.0000000000
40
0.0000000000
40
0.0000000000
40
0.2479662051
40
0.4986590309
40
0.7507464704
40
1.0000000000
40
1.0000000000
40
1.0000000000
40
1.0000000000
10
45.7763809241
20
-22.0369745993
30
0.0000000000
10
45.8021491403
20
-22.0369745993
30
0.0000000000
10
45.8545258317
20
-22.0267253926
30
0.0000000000
10
45.9211407052
20
-21.9824231989
30
0.0000000000
10
45.9657472726
20
-21.9158145117
30
0.0000000000
10
45.9761068311
20
-21.8631506850
30
0.0000000000
10
45.9761068311
20
-21.8372486923
30
0.0000000000
11
45.7763809241
21
-22.0369745993
31
0.0000000000
11
45.8522291272
21
-22.0220394475
31
0.0000000000
11
45.9173398791
21
-21.9788104660
31
0.0000000000
11
45.9610161260
21
-21.9134752601
31
0.0000000000
11
45.9761068311
21
-21.8372486923
31
0.0000000000
0
SPLINE
5
2DF
100
AcDbEntity
8
0
100
AcDbSpline
62
0
6
CONTINUOUS
70
0
71
3
72
11
73
7
74
5
42
0.0000001000
43
0.0000001000
44
0.0000000001
12
0.0000000000
22
0.3117547747
32
0.0000000000
13
-0.3117547747
23
-0.0000000000
33
0.0000000000
40
0.0000000000
40
0.0000000000
40
0.0000000000
40
0.0000000000
40
0.2479662051
40
0.4986590309
40
0.7507464704
40
1.0000000000
40
1.0000000000
40
1.0000000000
40
1.0000000000
10
45.9761068311
20
22.7632994938
30
0.0000000000
10
45.9761068311
20
22.7890677099
30
0.0000000000
10
45.9658576244
20
22.8414444014
30
0.0000000000
10
45.9215554308
20
22.9080592749
30
0.0000000000
10
45.8549467435
20
22.9526658423
30
0.0000000000
10
45.8022829168
20
22.9630254007
30
0.0000000000
10
45.7763809241
20
22.9630254007
30
0.0000000000
11
45.9761068311
21
22.7632994938
31
0.0000000000
11
45.9611716793
21
22.8391476969
31
0.0000000000
11
45.9179426979
21
22.9042584488
31
0.0000000000
11
45.8526074919
21
22.9479346957
31
0.0000000000
11
45.7763809241
21
22.9630254007
31
0.0000000000
0
SPLINE
5
2E0
100
AcDbEntity
8
0
100
AcDbSpline
62
0
6
CONTINUOUS
70
0
71
3
72
13
73
9
74
7
42
0.0000001000
43
0.0000001000
44
0.0000000001
12
1.5982006944
22
-0.0000012375
32
0.0000000000
13
-1.4979745356
23
-0.5570615303
33
0.0000000000
40
0.0000000000
40
0.0000000000
40
0.0000000000
40
0.0000000000
40
0.2256552617
40
0.3632766049
40
0.5068414273
40
0.6481250885
40
0.7809164922
40
1.0000000000
40
1.0000000000
40
1.0000000000
40
1.0000000000
10
38.2761076687
20
-22.8288274938
30
0.0000000000
10
38.3963218007
20
-22.8288275868
30
0.0000000000
10
38.5953145696
20
-22.8825452703
30
0.0000000000
10
38.8006172872
20
-23.0659768962
30
0.0000000000
10
38.9001497980
20
-23.2760965046
30
0.0000000000
10
38.8976894732
20
-23.5064482833
30
0.0000000000
10
38.7835910984
20
-23.7500885597
30
0.0000000000
10
38.6204005042
20
-23.8678083243
30
0.0000000000
10
38.5110066655
20
-23.9084893223
30
0.0000000000
11
38.2761076687
21
-22.8288274938
31
0.0000000000
11
38.6235336372
21
-22.9255649062
31
0.0000000000
11
38.7867951972
21
-23.0729491993
31
0.0000000000
11
38.8832138380
21
-23.2811525337
31
0.0000000000
11
38.8812182080
21
-23.5069433424
31
0.0000000000
11
38.7919089555
21
-23.6994642061
31
0.0000000000
11
38.5110066655
21
-23.9084893223
31
0.0000000000
0
SPLINE
5
2E1
100
AcDbEntity
8
0
100
AcDbSpline
62
0
6
CONTINUOUS
70
0
71
3
72
13
73
9
74
7
42
0.0000001000
43
0.0000001000
44
0.0000000001
12
0.7427842880
22
0.0000020266
32
0.0000000000
13
-0.7427839716
23
-0.0000001949
33
0.0000000000
40
0.0000000000
40
0.0000000000
40
0.0000000000
40
0.0000000000
40
0.2559146530
40
0.3844869380
40
0.4999994920
40
0.6155120460
40
0.7440843311
40
1.0000000000
40
1.0000000000
40
1.0000000000
40
1.0000000000
10
38.2257722866
20
-23.6195657847
30
0.0000000000
10
38.2891354144
20
-23.6195656119
30
0.0000000000
10
38.3894400121
20
-23.5837068112
30
0.0000000000
10
38.4643240759
20
-23.4810893784
30
0.0000000000
10
38.4836609801
20
-23.3914682008
30
0.0000000000
10
38.4643240759
20
-23.3018470232
30
0.0000000000
10
38.3894398600
20
-23.1992293819
30
0.0000000000
10
38.2891348843
20
-23.1633706002
30
0.0000000000
10
38.2257715320
20
-23.1633706169
30
0.0000000000
11
38.2257722866
21
-23.6195657847
31
0.0000000000
11
38.4037347038
21
-23.5527575492
31
0.0000000000
11
38.4597787071
21
-23.4754297147
31
0.0000000000
11
38.4774494357
21
-23.3914682008
31
0.0000000000
11
38.4597787071
21
-23.3075066869
31
0.0000000000
11
38.4037347038
21
-23.2301788524
31
0.0000000000
11
38.2257715320
21
-23.1633706169
31
0.0000000000
0
SPLINE
5
2E2
100
AcDbEntity
8
0
100
AcDbSpline
62
0
6
CONTINUOUS
70
0
71
3
72
11
73
7
74
5
42
0.0000001000
43
0.0000001000
44
0.0000000001
12
-0.3117547747
22
0.0000000000
32
0.0000000000
13
0.0000000000
23
-0.3117547747
33
0.0000000000
40
0.0000000000
40
0.0000000000
40
0.0000000000
40
0.0000000000
40
0.2479662051
40
0.4986590309
40
0.7507464704
40
1.0000000000
40
1.0000000000
40
1.0000000000
40
1.0000000000
10
23.4758327380
20
22.9630254007
30
0.0000000000
10
23.4500645219
20
22.9630254007
30
0.0000000000
10
23.3976878304
20
22.9527761941
30
0.0000000000
10
23.3310729569
20
22.9084740004
30
0.0000000000
10
23.2864663896
20
22.8418653132
30
0.0000000000
10
23.2761068311
20
22.7892014864
30
0.0000000000
10
23.2761068311
20
22.7632994938
30
0.0000000000
11
23.4758327380
21
22.9630254007
31
0.0000000000
11
23.3999845350
21
22.9480902490
31
0.0000000000
11
23.3348737830
21
22.9048612675
31
0.0000000000
11
23.2911975361
21
22.8395260615
31
0.0000000000
11
23.2761068311
21
22.7632994938
31
0.0000000000
0
SPLINE
5
2E3
100
AcDbEntity
8
0
100
AcDbSpline
62
0
6
CONTINUOUS
70
0
71
3
72
11
73
7
74
5
42
0.0000001000
43
0.0000001000
44
0.0000000001
12
0.0000000000
22
-0.3117547747
32
0.0000000000
13
0.3117547747
23
0.0000000000
33
0.0000000000
40
0.0000000000
40
0.0000000000
40
0.0000000000
40
0.0000000000
40
0.2479662051
40
0.4986590309
40
0.7507464704
40
1.0000000000
40
1.0000000000
40
1.0000000000
40
1.0000000000
10
23.2761068311
20
-21.8372486923
30
0.0000000000
10
23.2761068311
20
-21.8630169084
30
0.0000000000
10
23.2863560377
20
-21.9153935999
30
0.0000000000
10
23.3306582314
20
-21.9820084734
30
0.0000000000
10
23.3972669186
20
-22.0266150408
30
0.0000000000
10
23.4499307454
20
-22.0369745993
30
0.0000000000
10
23.4758327380
20
-22.0369745993
30
0.0000000000
11
23.2761068311
21
-21.8372486923
31
0.0000000000
11
23.2910419828
21
-21.9130968954
31
0.0000000000
11
23.3342709643
21
-21.9782076473
31
0.0000000000
11
23.3996061703
21
-22.0218838942
31
0.0000000000
11
23.4758327380
21
-22.0369745993
31
0.0000000000
0
SPLINE
5
2E4
100
AcDbEntity
8
0
100
AcDbSpline
62
0
6
CONTINUOUS
70
0
71
3
72
8
73
4
74
2
42
0.0000001000
43
0.0000001000
44
0.0000000001
12
0.0000282273
22
0.0879846636
32
0.0000000000
13
0.0078555088
23
0.0878729579
33
0.0000000000
40
0.0000000000
40
0.0000000000
40
0.0000000000
40
0.0000000000
40
1.0000000000
40
1.0000000000
40
1.0000000000
40
1.0000000000
10
21.3716971250
20
25.2455414728
30
0.0000000000
10
21.3717065341
20
25.2748696940
30
0.0000000000
10
21.3730271656
20
25.3042476651
30
0.0000000000
10
21.3756456686
20
25.3335386511
30
0.0000000000
11
21.3716971250
21
25.2455414728
31
0.0000000000
11
21.3756456686
21
25.3335386511
31
0.0000000000
0
SPLINE
5
2E5
100
AcDbEntity
8
0
100
AcDbSpline
62
0
6
CONTINUOUS
70
0
71
3
72
8
73
4
74
2
42
0.0000001000
43
0.0000001000
44
0.0000000001
12
0.0078466938
22
0.0877743525
32
0.0000000000
13
0.0155765371
23
0.0868447862
33
0.0000000000
40
0.0000000000
40
0.0000000000
40
0.0000000000
40
0.0000000000
40
1.0000000000
40
1.0000000000
40
1.0000000000
40
1.0000000000
10
21.3756456686
20
25.3335386511
30
0.0000000000
10
21.3782612332
20
25.3627967686
30
0.0000000000
10
21.3821717580
20
25.3919680961
30
0.0000000000
10
21.3873639371
20
25.4209163581
30
0.0000000000
11
21.3756456686
21
25.3335386511
31
0.0000000000
11
21.3873639371
21
25.4209163581
31
0.0000000000
0
SPLINE
5
2E6
100
AcDbEntity
8
0
100
AcDbSpline
62
0
6
CONTINUOUS
70
0
71
3
72
12
73
8
74
6
42
0.0000001000
43
0.0000001000
44
0.0000000001
12
0.1725581949
22
0.9620738820
32
0.0000000000
13
0.8961254758
23
0.3903509545
33
0.0000000000
40
0.0000000000
40
0.0000000000
40
0.0000000000
40
0.0000000000
40
0.0903156779
40
0.3621618256
40
0.6345595639
40
0.9085273889
40
1.0000000000
40
1.0000000000
40
1.0000000000
40
1.0000000000
10
21.3873639371
20
25.4209163581
30
0.0000000000
10
21.3925588405
20
25.4498798097
30
0.0000000000
10
21.4185349415
20
25.5651265331
30
0.0000000000
10
21.4998205766
20
25.7569186391
30
0.0000000000
10
21.6664787702
20
25.9678152338
30
0.0000000000
10
21.8351598362
20
26.0918645096
30
0.0000000000
10
21.9422363833
20
26.1442649342
30
0.0000000000
10
21.9695600290
20
26.1561670746
30
0.0000000000
11
21.3873639371
21
25.4209163581
31
0.0000000000
11
21.4067843189
21
25.5070003244
31
0.0000000000
11
21.5100136845
21
25.7507106503
31
0.0000000000
11
21.6744121975
21
25.9588181148
31
0.0000000000
11
21.8892858574
21
26.1168625910
31
0.0000000000
11
21.9695600290
21
26.1561670746
31
0.0000000000
0
SPLINE
5
2E7
100
AcDbEntity
8
0
100
AcDbSpline
62
0
6
CONTINUOUS
70
0
71
3
72
8
73
4
74
2
42
0.0000001000
43
0.0000001000
44
0.0000000001
12
0.1510508348
22
0.0657975241
32
0.0000000000
13
0.1591964754
23
0.0402311394
33
0.0000000000
40
0.0000000000
40
0.0000000000
40
0.0000000000
40
0.0000000000
40
1.0000000000
40
1.0000000000
40
1.0000000000
40
1.0000000000
10
21.9695600290
20
26.1561670746
30
0.0000000000
10
22.0199103073
20
26.1780995826
30
0.0000000000
10
22.0720315845
20
26.1959094070
30
0.0000000000
10
22.1250970763
20
26.2093197868
30
0.0000000000
11
21.9695600290
21
26.1561670746
31
0.0000000000
11
22.1250970763
21
26.2093197868
31
0.0000000000
0
SPLINE
5
2E8
100
AcDbEntity
8
0
100
AcDbSpline
62
0
6
CONTINUOUS
70
0
71
3
72
8
73
4
74
2
42
0.0000001000
43
0.0000001000
44
0.0000000001
12
0.0141987569
22
0.0035882212
32
0.0000000000
13
0.0142420638
23
0.0033776497
33
0.0000000000
40
0.0000000000
40
0.0000000000
40
0.0000000000
40
0.0000000000
40
1.0000000000
40
1.0000000000
40
1.0000000000
40
1.0000000000
10
22.1250970763
20
26.2093197868
30
0.0000000000
10
22.1298299953
20
26.2105158606
30
0.0000000000
10
22.1345704253
20
26.2116769372
30
0.0000000000
10
22.1393177799
20
26.2128028205
30
0.0000000000
11
22.1250970763
21
26.2093197868
31
0.0000000000
11
22.1393177799
21
26.2128028205
31
0.0000000000
0
SPLINE
5
2E9
100
AcDbEntity
8
0
100
AcDbSpline
62
0
6
CONTINUOUS
70
0
71
3
72
8
73
4
74
2
42
0.0000001000
43
0.0000001000
44
0.0000000001
12
0.0142408252
22
-0.0033780853
32
0.0000000000
13
0.0141975529
23
-0.0035884974
33
0.0000000000
40
0.0000000000
40
0.0000000000
40
0.0000000000
40
0.0000000000
40
1.0000000000
40
1.0000000000
40
1.0000000000
40
1.0000000000
10
47.1128960850
20
26.2128028664
30
0.0000000000
10
47.1176430267
20
26.2116768380
30
0.0000000000
10
47.1223830498
20
26.2105156435
30
0.0000000000
10
47.1271155675
20
26.2093194777
30
0.0000000000
11
47.1128960850
21
26.2128028664
31
0.0000000000
11
47.1271155675
21
26.2093194777
31
0.0000000000
0
SPLINE
5
2EA
100
AcDbEntity
8
0
100
AcDbSpline
62
0
6
CONTINUOUS
70
0
71
3
72
8
73
4
74
2
42
0.0000001000
43
0.0000001000
44
0.0000000001
12
0.1591564909
22
-0.0402275421
32
0.0000000000
13
0.1510173475
23
-0.0657728001
33
0.0000000000
40
0.0000000000
40
0.0000000000
40
0.0000000000
40
0.0000000000
40
1.0000000000
40
1.0000000000
40
1.0000000000
40
1.0000000000
10
47.1271155675
20
26.2093194777
30
0.0000000000
10
47.1801677311
20
26.1959102970
30
0.0000000000
10
47.2322767070
20
26.1781063727
30
0.0000000000
10
47.2826158228
20
26.1561821060
30
0.0000000000
11
47.1271155675
21
26.2093194777
31
0.0000000000
11
47.2826158228
21
26.1561821060
31
0.0000000000
0
SPLINE
5
2EB
100
AcDbEntity
8
0
100
AcDbSpline
62
0
6
CONTINUOUS
70
0
71
3
72
12
73
8
74
6
42
0.0000001000
43
0.0000001000
44
0.0000000001
12
0.8961283913
22
-0.3902920724
32
0.0000000000
13
0.1726294691
23
-0.9620497667
33
0.0000000000
40
0.0000000000
40
0.0000000000
40
0.0000000000
40
0.0000000000
40
0.0914620035
40
0.3654301130
40
0.6378170470
40
0.9096667121
40
1.0000000000
40
1.0000000000
40
1.0000000000
40
1.0000000000
10
47.2826158228
20
26.1561821060
30
0.0000000000
10
47.3099363888
20
26.1442831411
30
0.0000000000
10
47.4170109107
20
26.0918925042
30
0.0000000000
10
47.5856898990
20
25.9678569287
30
0.0000000000
10
47.7523580646
20
25.7569773618
30
0.0000000000
10
47.8336555376
20
25.5651914400
30
0.0000000000
10
47.8596431246
20
25.4499413745
30
0.0000000000
10
47.8648411871
20
25.4209730017
30
0.0000000000
11
47.2826158228
21
26.1561821060
31
0.0000000000
11
47.3628813953
21
26.1168880605
31
0.0000000000
11
47.5777603927
21
25.9588579815
31
0.0000000000
11
47.7421630866
21
25.7507729368
31
0.0000000000
11
47.8454099722
21
25.5070711710
31
0.0000000000
11
47.8648411871
21
25.4209730017
31
0.0000000000
0
SPLINE
5
2EC
100
AcDbEntity
8
0
100
AcDbSpline
62
0
6
CONTINUOUS
70
0
71
3
72
8
73
4
74
2
42
0.0000001000
43
0.0000001000
44
0.0000000001
12
0.0311940889
22
-0.1738420800
32
0.0000000000
13
0.0000466008
23
-0.1759276415
33
0.0000000000
40
0.0000000000
40
0.0000000000
40
0.0000000000
40
0.0000000000
40
1.0000000000
40
1.0000000000
40
1.0000000000
40
1.0000000000
10
47.8648411871
20
25.4209730017
30
0.0000000000
10
47.8752392168
20
25.3630256416
30
0.0000000000
10
47.8805010035
20
25.3041841133
30
0.0000000000
10
47.8805165371
20
25.2455415661
30
0.0000000000
11
47.8648411871
21
25.4209730017
31
0.0000000000
11
47.8805165371
21
25.2455415661
31
0.0000000000
0
SPLINE
5
2ED
100
AcDbEntity
8
0
100
AcDbSpline
62
0
6
CONTINUOUS
70
0
71
3
72
8
73
4
74
2
42
0.0000001000
43
0.0000001000
44
0.0000000001
12
-0.0142408266
22
0.0033780830
32
0.0000000000
13
-0.0141975545
23
0.0035884952
33
0.0000000000
40
0.0000000000
40
0.0000000000
40
0.0000000000
40
0.0000000000
40
1.0000000000
40
1.0000000000
40
1.0000000000
40
1.0000000000
10
22.1393177471
20
-25.2867520264
30
0.0000000000
10
22.1345708049
20
-25.2856259987
30
0.0000000000
10
22.1298307813
20
-25.2844648050
30
0.0000000000
10
22.1250982631
20
-25.2832686399
30
0.0000000000
11
22.1393177471
21
-25.2867520264
31
0.0000000000
11
22.1250982631
21
-25.2832686399
31
0.0000000000
0
SPLINE
5
2EE
100
AcDbEntity
8
0
100
AcDbSpline
62
0
6
CONTINUOUS
70
0
71
3
72
8
73
4
74
2
42
0.0000001000
43
0.0000001000
44
0.0000000001
12
-0.1591565196
22
0.0402275200
32
0.0000000000
13
-0.1510173782
23
0.0657727862
33
0.0000000000
40
0.0000000000
40
0.0000000000
40
0.0000000000
40
0.0000000000
40
1.0000000000
40
1.0000000000
40
1.0000000000
40
1.0000000000
10
22.1250982631
20
-25.2832686399
30
0.0000000000
10
22.0720460899
20
-25.2698594666
30
0.0000000000
10
22.0199371040
20
-25.2520555483
30
0.0000000000
10
21.9695979779
20
-25.2301312863
30
0.0000000000
11
22.1250982631
21
-25.2832686399
31
0.0000000000
11
21.9695979779
21
-25.2301312863
31
0.0000000000
0
SPLINE
5
2EF
100
AcDbEntity
8
0
100
AcDbSpline
62
0
6
CONTINUOUS
70
0
71
3
72
12
73
8
74
6
42
0.0000001000
43
0.0000001000
44
0.0000000001
12
-0.8961285682
22
0.3902919879
32
0.0000000000
13
-0.1726295136
23
0.9620498892
33
0.0000000000
40
0.0000000000
40
0.0000000000
40
0.0000000000
40
0.0000000000
40
0.0914620036
40
0.3654301134
40
0.6378170473
40
0.9096667123
40
1.0000000000
40
1.0000000000
40
1.0000000000
40
1.0000000000
10
21.9695979779
20
-25.2301312863
30
0.0000000000
10
21.9422774065
20
-25.2182323239
30
0.0000000000
10
21.8352028628
20
-25.1658416957
30
0.0000000000
10
21.6665238366
20
-25.0418061242
30
0.0000000000
10
21.4998556304
20
-24.8309265436
30
0.0000000000
10
21.4185581365
20
-24.6391406005
30
0.0000000000
10
21.3925705429
20
-24.5238905207
30
0.0000000000
10
21.3873724790
20
-24.4949221443
30
0.0000000000
11
21.9695979779
21
-25.2301312863
31
0.0000000000
11
21.8893323891
21
-25.1908372473
31
0.0000000000
11
21.6744533441
21
-25.0328071738
31
0.0000000000
11
21.5100506106
21
-24.8247221163
31
0.0000000000
11
21.4068036989
21
-24.5810203241
31
0.0000000000
11
21.3873724790
21
-24.4949221443
31
0.0000000000
0
SPLINE
5
2F0
100
AcDbEntity
8
0
100
AcDbSpline
62
0
6
CONTINUOUS
70
0
71
3
72
8
73
4
74
2
42
0.0000001000
43
0.0000001000
44
0.0000000001
12
-0.0311940969
22
0.1738421017
32
0.0000000000
13
-0.0000466008
23
0.1759276640
33
0.0000000000
40
0.0000000000
40
0.0000000000
40
0.0000000000
40
0.0000000000
40
1.0000000000
40
1.0000000000
40
1.0000000000
40
1.0000000000
10
21.3873724790
20
-24.4949221443
30
0.0000000000
10
21.3769744467
20
-24.4369747770
30
0.0000000000
10
21.3717126586
20
-24.3781332411
30
0.0000000000
10
21.3716971250
20
-24.3194906864
30
0.0000000000
11
21.3873724790
21
-24.4949221443
31
0.0000000000
11
21.3716971250
21
-24.3194906864
31
0.0000000000
0
SPLINE
5
2F1
100
AcDbEntity
8
0
100
AcDbSpline
62
0
6
CONTINUOUS
70
0
71
3
72
8
73
4
74
2
42
0.0000001000
43
0.0000001000
44
0.0000000001
12
-0.0000282273
22
-0.0879846504
32
0.0000000000
13
-0.0078555064
23
-0.0878729448
33
0.0000000000
40
0.0000000000
40
0.0000000000
40
0.0000000000
40
0.0000000000
40
1.0000000000
40
1.0000000000
40
1.0000000000
40
1.0000000000
10
47.8805165371
20
-24.3194907627
30
0.0000000000
10
47.8805071280
20
-24.3488189795
30
0.0000000000
10
47.8791864969
20
-24.3781969463
30
0.0000000000
10
47.8765679948
20
-24.4074879279
30
0.0000000000
11
47.8805165371
21
-24.3194907627
31
0.0000000000
11
47.8765679948
21
-24.4074879279
31
0.0000000000
0
SPLINE
5
2F2
100
AcDbEntity
8
0
100
AcDbSpline
62
0
6
CONTINUOUS
70
0
71
3
72
8
73
4
74
2
42
0.0000001000
43
0.0000001000
44
0.0000000001
12
-0.0078466915
22
-0.0877743395
32
0.0000000000
13
-0.0155765325
23
-0.0868447736
33
0.0000000000
40
0.0000000000
40
0.0000000000
40
0.0000000000
40
0.0000000000
40
1.0000000000
40
1.0000000000
40
1.0000000000
40
1.0000000000
10
47.8765679948
20
-24.4074879279
30
0.0000000000
10
47.8739524310
20
-24.4367460410
30
0.0000000000
10
47.8700419072
20
-24.4659173642
30
0.0000000000
10
47.8648497298
20
-24.4948656220
30
0.0000000000
11
47.8765679948
21
-24.4074879279
31
0.0000000000
11
47.8648497298
21
-24.4948656220
31
0.0000000000
0
SPLINE
5
2F3
100
AcDbEntity
8
0
100
AcDbSpline
62
0
6
CONTINUOUS
70
0
71
3
72
12
73
8
74
6
42
0.0000001000
43
0.0000001000
44
0.0000000001
12
-0.1725581429
22
-0.9620737386
32
0.0000000000
13
-0.8961252689
23
-0.3903510534
33
0.0000000000
40
0.0000000000
40
0.0000000000
40
0.0000000000
40
0.0000000000
40
0.0903156781
40
0.3621618260
40
0.6345595643
40
0.9085273889
40
1.0000000000
40
1.0000000000
40
1.0000000000
40
1.0000000000
10
47.8648497298
20
-24.4948656220
30
0.0000000000
10
47.8596548279
20
-24.5238290694
30
0.0000000000
10
47.8336787347
20
-24.6390757760
30
0.0000000000
10
47.7523931238
20
-24.8308678571
30
0.0000000000
10
47.5857349779
20
-25.0417644358
30
0.0000000000
10
47.4170539561
20
-25.1658137163
30
0.0000000000
10
47.3099774346
20
-25.2182141510
30
0.0000000000
10
47.2826537952
20
-25.2301162944
30
0.0000000000
11
47.8648497298
21
-24.4948656220
31
0.0000000000
11
47.8454293537
21
-24.5809495759
31
0.0000000000
11
47.7422000187
21
-24.8246598710
31
0.0000000000
11
47.5778015519
21
-25.0327673205
31
0.0000000000
11
47.3629279477
21
-25.1908118032
31
0.0000000000
11
47.2826537952
21
-25.2301162944
31
0.0000000000
0
SPLINE
5
2F4
100
AcDbEntity
8
0
100
AcDbSpline
62
0
6
CONTINUOUS
70
0
71
3
72
8
73
4
74
2
42
0.0000001000
43
0.0000001000
44
0.0000000001
12
-0.1510507989
22
-0.0657975403
32
0.0000000000
13
-0.1591964418
23
-0.0402311653
33
0.0000000000
40
0.0000000000
40
0.0000000000
40
0.0000000000
40
0.0000000000
40
1.0000000000
40
1.0000000000
40
1.0000000000
40
1.0000000000
10
47.2826537952
20
-25.2301162944
30
0.0000000000
10
47.2323035289
20
-25.2520488078
30
0.0000000000
10
47.1801822635
20
-25.2698586393
30
0.0000000000
10
47.1271167829
20
-25.2832690277
30
0.0000000000
11
47.2826537952
21
-25.2301162944
31
0.0000000000
11
47.1271167829
21
-25.2832690277
31
0.0000000000
0
SPLINE
5
2F5
100
AcDbEntity
8
0
100
AcDbSpline
62
0
6
CONTINUOUS
70
0
71
3
72
8
73
4
74
2
42
0.0000001000
43
0.0000001000
44
0.0000000001
12
-0.0141987551
22
-0.0035882238
32
0.0000000000
13
-0.0142420620
23
-0.0033776524
33
0.0000000000
40
0.0000000000
40
0.0000000000
40
0.0000000000
40
0.0000000000
40
1.0000000000
40
1.0000000000
40
1.0000000000
40
1.0000000000
10
47.1271167829
20
-25.2832690277
30
0.0000000000
10
47.1223838645
20
-25.2844651023
30
0.0000000000
10
47.1176434350
20
-25.2856261798
30
0.0000000000
10
47.1128960810
20
-25.2867520640
30
0.0000000000
11
47.1271167829
21
-25.2832690277
31
0.0000000000
11
47.1128960810
21
-25.2867520640
31
0.0000000000
0
SPLINE
5
2F6
100
AcDbEntity
8
0
100
AcDbSpline
62
9
6
CONTINUOUS
70
0
71
3
72
17
73
13
74
11
42
0.0000001000
43
0.0000001000
44
0.0000000001
12
-0.0202346145
22
0.8287654704
32
0.0000000000
13
-0.6562690359
23
0.5065299567
33
0.0000000000
40
0.0000000000
40
0.0000000000
40
0.0000000000
40
0.0000000000
40
0.1340512648
40
0.2581711058
40
0.3733749775
40
0.4806353467
40
0.5808716109
40
0.6745139342
40
0.7621938726
40
0.8449286316
40
0.9237068827
40
1.0000000000
40
1.0000000000
40
1.0000000000
40
1.0000000000
10
23.3709184651
20
24.1192725650
30
0.0000000000
10
23.3700143065
20
24.1563049182
30
0.0000000000
10
23.3661155648
20
24.2275941454
30
0.0000000000
10
23.3542755785
20
24.3301485759
30
0.0000000000
10
23.3375965033
20
24.4245193174
30
0.0000000000
10
23.3166761928
20
24.5112658474
30
0.0000000000
10
23.2918873344
20
24.5907714325
30
0.0000000000
10
23.2634314744
20
24.6632669008
30
0.0000000000
10
23.2313038449
20
24.7288830237
30
0.0000000000
10
23.1952385001
20
24.7876935999
30
0.0000000000
10
23.1545326475
20
24.8394958499
30
0.0000000000
10
23.1231103274
20
24.8690042261
30
0.0000000000
10
23.1064207239
20
24.8818858092
30
0.0000000000
11
23.3709184651
21
24.1192725650
31
0.0000000000
11
23.3648095111
21
24.2302346975
31
0.0000000000
11
23.3529362797
21
24.3324442719
31
0.0000000000
11
23.3362176481
21
24.4264749967
31
0.0000000000
11
23.3152511869
21
24.5128879946
31
0.0000000000
11
23.2903729426
21
24.5921735723
31
0.0000000000
11
23.2618324689
21
24.6643674743
31
0.0000000000
11
23.2296619138
21
24.7295484987
31
0.0000000000
11
23.1935451710
21
24.7878572851
31
0.0000000000
11
23.1528482638
21
24.8389348373
31
0.0000000000
11
23.1064207239
21
24.8818858092
31
0.0000000000
0
SPLINE
5
2F7
100
AcDbEntity
8
0
100
AcDbSpline
62
9
6
CONTINUOUS
70
0
71
3
72
31
73
27
74
25
42
0.0000001000
43
0.0000001000
44
0.0000000001
12
22.6740778312
22
5.0319121848
32
0.0000000000
13
22.6740757562
23
-5.0319215350
33
0.0000000000
40
0.0000000000
40
0.0000000000
40
0.0000000000
40
0.0000000000
40
0.0935896292
40
0.1786561371
40
0.2560633471
40
0.3267118805
40
0.3914233984
40
0.4504136391
40
0.5037651328
40
0.5524503464
40
0.5980532351
40
0.6421806103
40
0.6853901952
40
0.7268871026
40
0.7658833703
40
0.8016629602
40
0.8335873900
40
0.8616898248
40
0.8862953200
40
0.9078298686
40
0.9267689182
40
0.9436091774
40
0.9588507473
40
0.9729862090
40
0.9864807715
40
1.0000000000
40
1.0000000000
40
1.0000000000
40
1.0000000000
10
23.1064207239
20
24.8818858092
30
0.0000000000
10
23.8137735692
20
25.0388640743
30
0.0000000000
10
25.1701170743
20
25.3120189536
30
0.0000000000
10
27.1274942015
20
25.6287663423
30
0.0000000000
10
28.9185642861
20
25.8538770077
30
0.0000000000
10
30.5589941891
20
26.0062068395
30
0.0000000000
10
32.0608883986
20
26.1004689053
30
0.0000000000
10
33.4309297265
20
26.1486182800
30
0.0000000000
10
34.6776370810
20
26.1613011046
30
0.0000000000
10
35.8206486035
20
26.1470243577
30
0.0000000000
10
36.8917224485
20
26.1111977581
30
0.0000000000
10
37.9195282970
20
26.0562447717
30
0.0000000000
10
38.9143666649
20
25.9836902775
30
0.0000000000
10
39.8681096895
20
25.8961902492
30
0.0000000000
10
40.7629679928
20
25.7981154047
30
0.0000000000
10
41.5825665083
20
25.6946992865
30
0.0000000000
10
42.3170293914
20
25.5909929942
30
0.0000000000
10
42.9645742847
20
25.4909200751
30
0.0000000000
10
43.5315808355
20
25.3966542582
30
0.0000000000
10
44.0277572412
20
25.3090921869
30
0.0000000000
10
44.4640434908
20
25.2281929195
30
0.0000000000
10
44.8518643342
20
25.1532146417
30
0.0000000000
10
45.2027002436
20
25.0829019704
30
0.0000000000
10
45.5277264528
20
25.0156553659
30
0.0000000000
10
45.8393125925
20
24.9492906490
30
0.0000000000
10
46.0436127560
20
24.9045603567
30
0.0000000000
10
46.1457914264
20
24.8818844576
30
0.0000000000
11
23.1064207239
21
24.8818858092
31
0.0000000000
11
25.2373827100
21
25.3107366282
31
0.0000000000
11
27.1877731456
21
25.6261551083
31
0.0000000000
11
28.9715840013
21
25.8502984490
31
0.0000000000
11
30.6054246216
21
26.0019420247
31
0.0000000000
11
32.1054480656
21
26.0960311429
31
0.0000000000
11
33.4746928504
21
26.1441676708
31
0.0000000000
11
34.7137554351
21
26.1567739983
31
0.0000000000
11
35.8444162379
21
26.1426505165
31
0.0000000000
11
36.9029837506
21
26.1072343162
31
0.0000000000
11
37.9264124754
21
26.0525256055
31
0.0000000000
11
38.9273291686
21
25.9795478496
31
0.0000000000
11
39.8870951726
21
25.8915088159
31
0.0000000000
11
40.7874214960
21
25.7928451883
31
0.0000000000
11
41.6118917165
21
25.6888216746
31
0.0000000000
11
42.3460772267
21
25.5851582256
31
0.0000000000
11
42.9911198979
21
25.4854777005
31
0.0000000000
11
43.5548635087
21
25.3917608533
31
0.0000000000
11
44.0474086410
21
25.3048433274
31
0.0000000000
11
44.4799095767
21
25.2246485233
31
0.0000000000
11
44.8639260789
21
25.1504074688
31
0.0000000000
11
45.2110206395
21
25.0808458799
31
0.0000000000
11
45.5325181672
21
25.0143302783
31
0.0000000000
11
45.8390632116
21
24.9490402171
31
0.0000000000
11
46.1457914264
21
24.8818844576
31
0.0000000000
0
SPLINE
5
2F8
100
AcDbEntity
8
0
100
AcDbSpline
62
9
6
CONTINUOUS
70
0
71
3
72
16
73
12
74
10
42
0.0000001000
43
0.0000001000
44
0.0000000001
12
0.0202361650
22
0.8287054138
32
0.0000000000
13
0.6558270700
23
0.5070039640
33
0.0000000000
40
0.0000000000
40
0.0000000000
40
0.0000000000
40
0.0000000000
40
0.1495764955
40
0.2868757516
40
0.4134330535
40
0.5305207566
40
0.6387727938
40
0.7387406688
40
0.8311503972
40
0.9173886938
40
1.0000000000
40
1.0000000000
40
1.0000000000
40
1.0000000000
10
45.8812951970
20
24.1192725650
30
0.0000000000
10
45.8823041486
20
24.1605908489
30
0.0000000000
10
45.8869107146
20
24.2397999767
30
0.0000000000
10
45.9012210875
20
24.3532202225
30
0.0000000000
10
45.9214298947
20
24.4566086840
30
0.0000000000
10
45.9467880670
20
24.5505683458
30
0.0000000000
10
45.9768132579
20
24.6353972234
30
0.0000000000
10
46.0112127158
20
24.7111375055
30
0.0000000000
10
46.0500053802
20
24.7778176798
30
0.0000000000
10
46.0937323558
20
24.8355153625
30
0.0000000000
10
46.1277318495
20
24.8679230377
30
0.0000000000
10
46.1457914264
20
24.8818844576
30
0.0000000000
11
45.8812951970
21
24.1192725650
31
0.0000000000
11
45.8885550067
21
24.2430516515
31
0.0000000000
11
45.9029100349
21
24.3559573026
31
0.0000000000
11
45.9231820678
21
24.4588900464
31
0.0000000000
11
45.9486559532
21
24.5525476763
31
0.0000000000
11
45.9788231560
21
24.6370607058
31
0.0000000000
11
46.0133663142
21
24.7123865152
31
0.0000000000
11
46.0522096043
21
24.7784112069
31
0.0000000000
11
46.0958364910
21
24.8350429107
31
0.0000000000
11
46.1457914264
21
24.8818844576
31
0.0000000000
0
SPLINE
5
2F9
100
AcDbEntity
8
0
100
AcDbSpline
62
9
6
CONTINUOUS
70
0
71
3
72
10
73
6
74
4
42
0.0000001000
43
0.0000001000
44
0.0000000001
12
-0.0609364335
22
0.0894662606
32
0.0000000000
13
-0.0739597501
23
0.0790405977
33
0.0000000000
40
0.0000000000
40
0.0000000000
40
0.0000000000
40
0.0000000000
40
0.3354173560
40
0.6722121302
40
1.0000000000
40
1.0000000000
40
1.0000000000
40
1.0000000000
10
46.2132688744
20
24.7973606233
30
0.0000000000
10
46.2064558286
20
24.8073634689
30
0.0000000000
10
46.1922755336
20
24.8270568685
30
0.0000000000
10
46.1697635666
20
24.8552718377
30
0.0000000000
10
46.1538722687
20
24.8732480278
30
0.0000000000
10
46.1457912324
20
24.8818842108
30
0.0000000000
11
46.2132688744
21
24.7973606233
31
0.0000000000
11
46.1920674345
21
24.8268355204
31
0.0000000000
11
46.1693218983
21
24.8553269329
31
0.0000000000
11
46.1457912324
21
24.8818842108
31
0.0000000000
0
SPLINE
5
2FA
100
AcDbEntity
8
0
100
AcDbSpline
62
9
6
CONTINUOUS
70
0
71
3
72
10
73
6
74
4
42
0.0000001000
43
0.0000001000
44
0.0000000001
12
-0.3099117573
22
-0.0008488630
32
0.0000000000
13
-0.0008488640
23
-0.3099117573
33
0.0000000000
40
0.0000000000
40
0.0000000000
40
0.0000000000
40
0.0000000000
40
0.3332498360
40
0.6667333485
40
1.0000000000
40
1.0000000000
40
1.0000000000
40
1.0000000000
10
23.4221531890
20
23.0167049497
30
0.0000000000
10
23.3877271749
20
23.0166106553
30
0.0000000000
10
23.3175977031
20
22.9977360772
30
0.0000000000
10
23.2413976859
20
22.9215381852
30
0.0000000000
10
23.2225215814
20
22.8514067940
30
0.0000000000
10
23.2224272821
20
22.8169790428
30
0.0000000000
11
23.4221531890
21
23.0167049497
31
0.0000000000
11
23.3224499910
21
22.9897660122
31
0.0000000000
11
23.2493689220
21
22.9166869088
31
0.0000000000
11
23.2224272821
21
22.8169790428
31
0.0000000000
0
SPLINE
5
2FB
100
AcDbEntity
8
0
100
AcDbSpline
62
9
6
CONTINUOUS
70
0
71
3
72
10
73
6
74
4
42
0.0000001000
43
0.0000001000
44
0.0000000001
12
-0.2277347047
22
-0.0045714085
32
0.0000000000
13
-0.0253710160
23
-0.2263632149
33
0.0000000000
40
0.0000000000
40
0.0000000000
40
0.0000000000
40
0.0000000000
40
0.4304115290
40
0.7769336510
40
1.0000000000
40
1.0000000000
40
1.0000000000
40
1.0000000000
10
23.3908248520
20
23.3047105862
30
0.0000000000
10
23.3581516378
20
23.3040547239
30
0.0000000000
10
23.2988266608
20
23.2962559744
30
0.0000000000
10
23.2274158648
20
23.2722957018
30
0.0000000000
10
23.1929854183
20
23.2370182725
30
0.0000000000
10
23.1910989450
20
23.2201869339
30
0.0000000000
11
23.3908248520
21
23.3047105862
31
0.0000000000
11
23.2936006333
21
23.2920942076
31
0.0000000000
11
23.2209109214
21
23.2613320520
31
0.0000000000
11
23.1910989450
21
23.2201869339
31
0.0000000000
0
SPLINE
5
2FC
100
AcDbEntity
8
0
100
AcDbSpline
62
9
6
CONTINUOUS
70
0
71
3
72
10
73
6
74
4
42
0.0000001000
43
0.0000001000
44
0.0000000001
12
-0.2277346998
22
-0.0045714018
32
0.0000000000
13
-0.0253710179
23
-0.2263632096
33
0.0000000000
40
0.0000000000
40
0.0000000000
40
0.0000000000
40
0.0000000000
40
0.4304106836
40
0.7769331436
40
1.0000000000
40
1.0000000000
40
1.0000000000
40
1.0000000000
10
23.3709184651
20
24.1192725650
30
0.0000000000
10
23.3382453158
20
24.1186167050
30
0.0000000000
10
23.2789203763
20
24.1108179723
30
0.0000000000
10
23.2075095838
20
24.0868577422
30
0.0000000000
10
23.1730790359
20
24.0515802892
30
0.0000000000
10
23.1711925582
20
24.0347489127
30
0.0000000000
11
23.3709184651
21
24.1192725650
31
0.0000000000
11
23.2736944363
21
24.1066562361
31
0.0000000000
11
23.2010046346
21
24.0758940995
31
0.0000000000
11
23.1711925582
21
24.0347489127
31
0.0000000000
0
SPLINE
5
2FD
100
AcDbEntity
8
0
100
AcDbSpline
62
9
6
CONTINUOUS
70
0
71
3
72
10
73
6
74
4
42
0.0000001000
43
0.0000001000
44
0.0000000001
12
-0.0739601226
22
-0.0790401374
32
0.0000000000
13
-0.0609362550
23
-0.0894662835
33
0.0000000000
40
0.0000000000
40
0.0000000000
40
0.0000000000
40
0.0000000000
40
0.3277877075
40
0.6645824503
40
1.0000000000
40
1.0000000000
40
1.0000000000
40
1.0000000000
10
23.1064221450
20
24.8818843688
30
0.0000000000
10
23.0983410720
20
24.8732482403
30
0.0000000000
10
23.0824497518
20
24.8552721000
30
0.0000000000
10
23.0599378418
20
24.8270571186
30
0.0000000000
10
23.0457576003
20
24.8073636960
30
0.0000000000
10
23.0389445705
20
24.7973608422
30
0.0000000000
11
23.1064221450
21
24.8818843688
31
0.0000000000
11
23.0828914392
21
24.8553271854
31
0.0000000000
11
23.0601459506
21
24.8268357743
31
0.0000000000
11
23.0389445705
21
24.7973608422
31
0.0000000000
0
SPLINE
5
2FE
100
AcDbEntity
8
0
100
AcDbSpline
62
9
6
CONTINUOUS
70
0
71
3
72
10
73
6
74
4
42
0.0000001000
43
0.0000001000
44
0.0000000001
12
0.0008488645
22
-0.3099117570
32
0.0000000000
13
0.3099117570
23
-0.0008488645
33
0.0000000000
40
0.0000000000
40
0.0000000000
40
0.0000000000
40
0.0000000000
40
0.3332570533
40
0.6667418637
40
1.0000000000
40
1.0000000000
40
1.0000000000
40
1.0000000000
10
23.2224272821
20
-21.8909282413
30
0.0000000000
10
23.2225215788
20
-21.9253550009
30
0.0000000000
10
23.2413968440
20
-21.9954854311
30
0.0000000000
10
23.3175957637
20
-22.0716844878
30
0.0000000000
10
23.3877263175
20
-22.0905598513
30
0.0000000000
10
23.4221531890
20
-22.0906541483
30
0.0000000000
11
23.2224272821
21
-21.8909282413
31
0.0000000000
11
23.2493673797
21
-21.9906334427
31
0.0000000000
11
23.3224476870
21
-22.0637138766
31
0.0000000000
11
23.4221531890
21
-22.0906541483
31
0.0000000000
0
SPLINE
5
2FF
100
AcDbEntity
8
0
100
AcDbSpline
62
9
6
CONTINUOUS
70
0
71
3
72
10
73
6
74
4
42
0.0000001000
43
0.0000001000
44
0.0000000001
12
0.0253710170
22
-0.2263632155
32
0.0000000000
13
0.2277347057
23
-0.0045713966
33
0.0000000000
40
0.0000000000
40
0.0000000000
40
0.0000000000
40
0.0000000000
40
0.2230663485
40
0.5695884754
40
1.0000000000
40
1.0000000000
40
1.0000000000
40
1.0000000000
10
23.1910989450
20
-22.2941361324
30
0.0000000000
10
23.1929854184
20
-22.3109674711
30
0.0000000000
10
23.2274158654
20
-22.3462449001
30
0.0000000000
10
23.2988266599
20
-22.3702051771
30
0.0000000000
10
23.3581516380
20
-22.3780039242
30
0.0000000000
10
23.3908248520
20
-22.3786597848
30
0.0000000000
11
23.1910989450
21
-22.2941361324
31
0.0000000000
11
23.2209109214
21
-22.3352812505
31
0.0000000000
11
23.2936006336
21
-22.3660434089
31
0.0000000000
11
23.3908248520
21
-22.3786597848
31
0.0000000000
0
SPLINE
5
300
100
AcDbEntity
8
0
100
AcDbSpline
62
9
6
CONTINUOUS
70
0
71
3
72
10
73
6
74
4
42
0.0000001000
43
0.0000001000
44
0.0000000001
12
0.0253710188
22
-0.2263632098
32
0.0000000000
13
0.2277347001
23
-0.0045714047
33
0.0000000000
40
0.0000000000
40
0.0000000000
40
0.0000000000
40
0.0000000000
40
0.2230667543
40
0.5695891534
40
1.0000000000
40
1.0000000000
40
1.0000000000
40
1.0000000000
10
23.1711925582
20
-23.1086981112
30
0.0000000000
10
23.1730790351
20
-23.1255294801
30
0.0000000000
10
23.2075095641
20
-23.1608069276
30
0.0000000000
10
23.2789203564
20
-23.1847671667
30
0.0000000000
10
23.3382453034
20
-23.1925659028
30
0.0000000000
10
23.3709184651
20
-23.1932217636
30
0.0000000000
11
23.1711925582
21
-23.1086981112
31
0.0000000000
11
23.2010046152
21
-23.1498432835
31
0.0000000000
11
23.2736944001
21
-23.1806054245
31
0.0000000000
11
23.3709184651
21
-23.1932217636
31
0.0000000000
0
SPLINE
5
301
100
AcDbEntity
8
0
100
AcDbSpline
62
9
6
CONTINUOUS
70
0
71
3
72
10
73
6
74
4
42
0.0000001000
43
0.0000001000
44
0.0000000001
12
0.0609362756
22
-0.0894662318
32
0.0000000000
13
0.0739595634
23
-0.0790406181
33
0.0000000000
40
0.0000000000
40
0.0000000000
40
0.0000000000
40
0.0000000000
40
0.3354173959
40
0.6722121727
40
1.0000000000
40
1.0000000000
40
1.0000000000
40
1.0000000000
10
23.0389446075
20
-23.8713100985
30
0.0000000000
10
23.0457576364
20
-23.8813129420
30
0.0000000000
10
23.0599378948
20
-23.9010063386
30
0.0000000000
10
23.0824497992
20
-23.9292213096
30
0.0000000000
10
23.0983410550
20
-23.9471975016
30
0.0000000000
10
23.1064220699
20
-23.9558336857
30
0.0000000000
11
23.0389446075
21
-23.8713100985
31
0.0000000000
11
23.0601459936
21
-23.9007849929
31
0.0000000000
11
23.0828914681
21
-23.9292764065
31
0.0000000000
11
23.1064220699
21
-23.9558336857
31
0.0000000000
0
SPLINE
5
302
100
AcDbEntity
8
0
100
AcDbSpline
62
9
6
CONTINUOUS
70
0
71
3
72
11
73
7
74
5
42
0.0000001000
43
0.0000001000
44
0.0000000001
12
0.2371720231
22
-0.1684457224
32
0.0000000000
13
0.0099288381
23
-0.2907334658
33
0.0000000000
40
0.0000000000
40
0.0000000000
40
0.0000000000
40
0.0000000000
40
0.0931659819
40
0.2999547585
40
0.6084950276
40
1.0000000000
40
1.0000000000
40
1.0000000000
40
1.0000000000
10
45.8300604731
20
-22.0906541483
30
0.0000000000
10
45.8374259279
20
-22.0958852853
30
0.0000000000
10
45.8410447823
20
-22.1291507834
30
0.0000000000
10
45.8512631141
20
-22.1838479127
30
0.0000000000
10
45.8566431320
20
-22.2734740532
30
0.0000000000
10
45.8600930803
20
-22.3407185856
30
0.0000000000
10
45.8613888102
20
-22.3786597848
30
0.0000000000
11
45.8300604731
21
-22.0906541483
31
0.0000000000
11
45.8398107806
21
-22.1159417732
31
0.0000000000
11
45.8486532642
21
-22.1754437953
31
0.0000000000
11
45.8560143149
21
-22.2648967135
31
0.0000000000
11
45.8613888102
21
-22.3786597848
31
0.0000000000
0
SPLINE
5
303
100
AcDbEntity
8
0
100
AcDbSpline
62
9
6
CONTINUOUS
70
0
71
3
72
11
73
7
74
5
42
0.0000001000
43
0.0000001000
44
0.0000000001
12
-0.2367111465
22
-0.1691026508
32
0.0000000000
13
-0.0099525086
23
-0.2907384064
33
0.0000000000
40
0.0000000000
40
0.0000000000
40
0.0000000000
40
0.0000000000
40
0.0912673779
40
0.2968287540
40
0.6062049976
40
1.0000000000
40
1.0000000000
40
1.0000000000
40
1.0000000000
10
23.4221531890
20
-22.0906541483
30
0.0000000000
10
23.4149518538
20
-22.0957986668
30
0.0000000000
10
23.4111872101
20
-22.1286050970
30
0.0000000000
10
23.4010386446
20
-22.1831523688
30
0.0000000000
10
23.3955869679
20
-22.2729442494
30
0.0000000000
10
23.3921312680
20
-22.3404960076
30
0.0000000000
10
23.3908248520
20
-22.3786597848
30
0.0000000000
11
23.4221531890
21
-22.0906541483
31
0.0000000000
11
23.4125229026
21
-22.1153965265
31
0.0000000000
11
23.4036581013
21
-22.1745354025
31
0.0000000000
11
23.3962410680
21
-22.2642294999
31
0.0000000000
11
23.3908248520
21
-22.3786597848
31
0.0000000000
0
SPLINE
5
304
100
AcDbEntity
8
0
100
AcDbSpline
62
9
6
CONTINUOUS
70
0
71
3
72
11
73
7
74
5
42
0.0000001000
43
0.0000001000
44
0.0000000001
12
0.2367111465
22
0.1691026508
32
0.0000000000
13
0.0099525086
23
0.2907384064
33
0.0000000000
40
0.0000000000
40
0.0000000000
40
0.0000000000
40
0.0000000000
40
0.0912673779
40
0.2968287540
40
0.6062049976
40
1.0000000000
40
1.0000000000
40
1.0000000000
40
1.0000000000
10
45.8300604731
20
23.0167049497
30
0.0000000000
10
45.8372618083
20
23.0218494682
30
0.0000000000
10
45.8410264520
20
23.0546558985
30
0.0000000000
10
45.8511750175
20
23.1092031703
30
0.0000000000
10
45.8566266942
20
23.1989950509
30
0.0000000000
10
45.8600823941
20
23.2665468091
30
0.0000000000
10
45.8613888102
20
23.3047105862
30
0.0000000000
11
45.8300604731
21
23.0167049497
31
0.0000000000
11
45.8396907596
21
23.0414473279
31
0.0000000000
11
45.8485555608
21
23.1005862039
31
0.0000000000
11
45.8559725942
21
23.1902803014
31
0.0000000000
11
45.8613888102
21
23.3047105862
31
0.0000000000
0
SPLINE
5
305
100
AcDbEntity
8
0
100
AcDbSpline
62
9
6
CONTINUOUS
70
0
71
3
72
11
73
7
74
5
42
0.0000001000
43
0.0000001000
44
0.0000000001
12
-0.2371720231
22
0.1684457224
32
0.0000000000
13
-0.0099288381
23
0.2907334658
33
0.0000000000
40
0.0000000000
40
0.0000000000
40
0.0000000000
40
0.0000000000
40
0.0931659819
40
0.2999547585
40
0.6084950276
40
1.0000000000
40
1.0000000000
40
1.0000000000
40
1.0000000000
10
23.4221531890
20
23.0167049497
30
0.0000000000
10
23.4147877342
20
23.0219360868
30
0.0000000000
10
23.4111688798
20
23.0552015848
30
0.0000000000
10
23.4009505480
20
23.1098987142
30
0.0000000000
10
23.3955705301
20
23.1995248547
30
0.0000000000
10
23.3921205818
20
23.2667693871
30
0.0000000000
10
23.3908248520
20
23.3047105862
30
0.0000000000
11
23.4221531890
21
23.0167049497
31
0.0000000000
11
23.4124028815
21
23.0419925747
31
0.0000000000
11
23.4035603980
21
23.1014945967
31
0.0000000000
11
23.3961993472
21
23.1909475149
31
0.0000000000
11
23.3908248520
21
23.3047105862
31
0.0000000000
0
SPLINE
5
306
100
AcDbEntity
8
0
100
AcDbSpline
62
9
6
CONTINUOUS
70
0
71
3
72
10
73
6
74
4
42
0.0000001000
43
0.0000001000
44
0.0000000001
12
-0.0897680470
22
-0.1379837541
32
0.0000000000
13
-0.0872856014
23
-0.1395673402
33
0.0000000000
40
0.0000000000
40
0.0000000000
40
0.0000000000
40
0.0000000000
40
0.3051411861
40
0.6387187506
40
1.0000000000
40
1.0000000000
40
1.0000000000
40
1.0000000000
10
23.0389443606
20
-23.8713100984
30
0.0000000000
10
23.0298137178
20
-23.8853449406
30
0.0000000000
10
23.0108078527
20
-23.9147919673
30
0.0000000000
10
22.9814296696
20
-23.9611366552
30
0.0000000000
10
22.9611477455
20
-23.9934226190
30
0.0000000000
10
22.9506361951
20
-24.0102303067
30
0.0000000000
11
23.0389443606
21
-23.8713100984
31
0.0000000000
11
23.0117091239
21
-23.9135161497
31
0.0000000000
11
22.9822739205
21
-23.9598718532
31
0.0000000000
11
22.9506361951
21
-24.0102303067
31
0.0000000000
0
SPLINE
5
307
100
AcDbEntity
8
0
100
AcDbSpline
62
9
6
CONTINUOUS
70
0
71
3
72
16
73
12
74
10
42
0.0000001000
43
0.0000001000
44
0.0000000001
12
-0.0095313631
22
-0.7805801108
32
0.0000000000
13
-0.4262329507
23
-0.6540043027
33
0.0000000000
40
0.0000000000
40
0.0000000000
40
0.0000000000
40
0.0000000000
40
0.1590310087
40
0.3046987313
40
0.4379503704
40
0.5596446340
40
0.6698799260
40
0.7686612365
40
0.8559244126
40
0.9324266869
40
1.0000000000
40
1.0000000000
40
1.0000000000
40
1.0000000000
10
23.1711925582
20
-23.1086981112
30
0.0000000000
10
23.1706872974
20
-23.1500769254
30
0.0000000000
10
23.1683821263
20
-23.2293486144
30
0.0000000000
10
23.1611984507
20
-23.3431030469
30
0.0000000000
10
23.1510332188
20
-23.4468733009
30
0.0000000000
10
23.1382835153
20
-23.5410623601
30
0.0000000000
10
23.1232308068
20
-23.6258204148
30
0.0000000000
10
23.1060992831
20
-23.7010215046
30
0.0000000000
10
23.0869931039
20
-23.7666777305
30
0.0000000000
10
23.0656907068
20
-23.8230306993
30
0.0000000000
10
23.0485450181
20
-23.8565790192
30
0.0000000000
10
23.0389443606
20
-23.8713100984
30
0.0000000000
11
23.1711925582
21
-23.1086981112
31
0.0000000000
11
23.1675474871
21
-23.2327902842
31
0.0000000000
11
23.1603122961
21
-23.3462736798
31
0.0000000000
11
23.1500755911
21
-23.4497900921
31
0.0000000000
11
23.1372064154
21
-23.5439135903
31
0.0000000000
11
23.1219940240
21
-23.6286122049
31
0.0000000000
11
23.1046491566
21
-23.7037486758
31
0.0000000000
11
23.0853120886
21
-23.7690674738
31
0.0000000000
11
23.0637748949
21
-23.8247693589
31
0.0000000000
11
23.0389443606
21
-23.8713100984
31
0.0000000000
0
SPLINE
5
308
100
AcDbEntity
8
0
100
AcDbSpline
62
9
6
CONTINUOUS
70
0
71
3
72
17
73
13
74
11
42
0.0000001000
43
0.0000001000
44
0.0000000001
12
-0.0095342182
22
0.7806013418
32
0.0000000000
13
-0.4259827340
23
0.6541926829
33
0.0000000000
40
0.0000000000
40
0.0000000000
40
0.0000000000
40
0.0000000000
40
0.1422052195
40
0.2733621844
40
0.3942934860
40
0.5058012139
40
0.6086106306
40
0.7028837609
40
0.7888916587
40
0.8670847591
40
0.9375223353
40
1.0000000000
40
1.0000000000
40
1.0000000000
40
1.0000000000
10
23.1711925582
20
24.0347489127
30
0.0000000000
10
23.1707406196
20
24.0717507744
30
0.0000000000
10
23.1687983067
20
24.1428718715
30
0.0000000000
10
23.1628924733
20
24.2453195004
30
0.0000000000
10
23.1545736233
20
24.3395832721
30
0.0000000000
10
23.1441429728
20
24.4262116254
30
0.0000000000
10
23.1317926876
20
24.5055752722
30
0.0000000000
10
23.1176306052
20
24.5778896243
30
0.0000000000
10
23.1016790757
20
24.6432575427
30
0.0000000000
10
23.0838399599
20
24.7017028514
30
0.0000000000
10
23.0638613359
20
24.7529254705
30
0.0000000000
10
23.0478158669
20
24.7837366985
30
0.0000000000
10
23.0389443981
20
24.7973608422
30
0.0000000000
11
23.1711925582
21
24.0347489127
31
0.0000000000
11
23.1681373907
21
24.1457207295
31
0.0000000000
11
23.1622001499
21
24.2479373819
31
0.0000000000
11
23.1538399702
21
24.3419726609
31
0.0000000000
11
23.1433555027
21
24.4283885410
31
0.0000000000
11
23.1309144671
21
24.5076775851
31
0.0000000000
11
23.1166409563
21
24.5798753928
31
0.0000000000
11
23.1005519441
21
24.6450621330
31
0.0000000000
11
23.0824848209
21
24.7033693215
31
0.0000000000
11
23.0621344206
21
24.7544527414
31
0.0000000000
11
23.0389443981
21
24.7973608422
31
0.0000000000
0
SPLINE
5
309
100
AcDbEntity
8
0
100
AcDbSpline
62
9
6
CONTINUOUS
70
0
71
3
72
11
73
7
74
5
42
0.0000001000
43
0.0000001000
44
0.0000000001
12
-0.0897774767
22
0.1379781953
32
0.0000000000
13
-0.0889039929
23
0.1385426208
33
0.0000000000
40
0.0000000000
40
0.0000000000
40
0.0000000000
40
0.0000000000
40
0.2816897017
40
0.5522847464
40
0.7963135751
40
1.0000000000
40
1.0000000000
40
1.0000000000
40
1.0000000000
10
23.0389443981
20
24.7973608422
30
0.0000000000
10
23.0305146012
20
24.8103165211
30
0.0000000000
10
23.0140885557
20
24.8357835817
30
0.0000000000
10
22.9905958980
20
24.8726263705
30
0.0000000000
10
22.9696867299
20
24.9060377386
30
0.0000000000
10
22.9566723739
20
24.9268750821
30
0.0000000000
10
22.9506361951
20
24.9362814992
30
0.0000000000
11
23.0389443981
21
24.7973608422
31
0.0000000000
11
23.0137930919
21
24.8363173771
31
0.0000000000
11
22.9898680564
21
24.8738906666
31
0.0000000000
11
22.9685177897
21
24.9079178993
31
0.0000000000
11
22.9506361951
21
24.9362814992
31
0.0000000000
0
SPLINE
5
30A
100
AcDbEntity
8
0
100
AcDbSpline
62
9
6
CONTINUOUS
70
0
71
3
72
11
73
7
74
5
42
0.0000001000
43
0.0000001000
44
0.0000000001
12
0.1559916861
22
0.0537854199
32
0.0000000000
13
0.1558071846
23
0.0543175731
33
0.0000000000
40
0.0000000000
40
0.0000000000
40
0.0000000000
40
0.0000000000
40
0.2270918123
40
0.4697762359
40
0.7275360491
40
1.0000000000
40
1.0000000000
40
1.0000000000
40
1.0000000000
10
46.1457912324
20
24.8818842757
30
0.0000000000
10
46.1575993773
20
24.8859556852
30
0.0000000000
10
46.1820162824
20
24.8944075435
30
0.0000000000
10
46.2197992494
20
24.9075864740
30
0.0000000000
10
46.2599124305
20
24.9216617310
30
0.0000000000
10
46.2874208431
20
24.9313452492
30
0.0000000000
10
46.3015714568
20
24.9362784427
30
0.0000000000
11
46.1457912324
21
24.8818842757
31
0.0000000000
11
46.1812011451
21
24.8941405407
31
0.0000000000
11
46.2190123704
21
24.9073247250
31
0.0000000000
11
46.2591470116
21
24.9214005112
31
0.0000000000
11
46.3015714568
21
24.9362784427
31
0.0000000000
0
SPLINE
5
30B
100
AcDbEntity
8
0
100
AcDbSpline
62
9
6
CONTINUOUS
70
0
71
3
72
12
73
8
74
6
42
0.0000001000
43
0.0000001000
44
0.0000000001
12
-0.1559856911
22
0.0538008734
32
0.0000000000
13
-0.1562653632
23
0.0529830734
33
0.0000000000
40
0.0000000000
40
0.0000000000
40
0.0000000000
40
0.0000000000
40
0.2270679508
40
0.4476263440
40
0.6544702390
40
0.8401858189
40
1.0000000000
40
1.0000000000
40
1.0000000000
40
1.0000000000
10
23.1064221450
20
24.8818844945
30
0.0000000000
10
23.0946156946
20
24.8859566459
30
0.0000000000
10
23.0713506069
20
24.8940113534
30
0.0000000000
10
23.0373587346
20
24.9058563823
30
0.0000000000
10
23.0055357460
20
24.9170138728
30
0.0000000000
10
22.9769078572
20
24.9271848584
30
0.0000000000
10
22.9589672009
20
24.9334558199
30
0.0000000000
10
22.9506427273
20
24.9362783021
30
0.0000000000
11
23.1064221450
21
24.8818844945
31
0.0000000000
11
23.0710164643
21
24.8941405118
31
0.0000000000
11
23.0366503525
21
24.9061158986
31
0.0000000000
11
23.0044474499
21
24.9174218280
31
0.0000000000
11
22.9755559679
21
24.9276353946
31
0.0000000000
11
22.9506427273
21
24.9362783021
31
0.0000000000
0
SPLINE
5
30C
100
AcDbEntity
8
0
100
AcDbSpline
62
9
6
CONTINUOUS
70
0
71
3
72
10
73
6
74
4
42
0.0000001000
43
0.0000001000
44
0.0000000001
12
0.0897678889
22
0.1379838289
32
0.0000000000
13
0.0872894067
23
0.1395649325
33
0.0000000000
40
0.0000000000
40
0.0000000000
40
0.0000000000
40
0.0000000000
40
0.3051597352
40
0.6387393288
40
1.0000000000
40
1.0000000000
40
1.0000000000
40
1.0000000000
10
46.2132691217
20
24.7973606233
30
0.0000000000
10
46.2224003034
20
24.8113963262
30
0.0000000000
10
46.2414067599
20
24.8408443100
30
0.0000000000
10
46.2707845141
20
24.8871892610
30
0.0000000000
10
46.2910660571
20
24.9194742534
30
0.0000000000
10
46.3015774670
20
24.9362806938
30
0.0000000000
11
46.2132691217
21
24.7973606233
31
0.0000000000
11
46.2405059186
21
24.8395692932
31
0.0000000000
11
46.2699410437
21
24.8859254328
31
0.0000000000
11
46.3015774670
21
24.9362806938
31
0.0000000000
0
SPLINE
5
30D
100
AcDbEntity
8
0
100
AcDbSpline
62
9
6
CONTINUOUS
70
0
71
3
72
16
73
12
74
10
42
0.0000001000
43
0.0000001000
44
0.0000000001
12
0.0095348006
22
0.7805804431
32
0.0000000000
13
0.4255743613
23
0.6544334983
33
0.0000000000
40
0.0000000000
40
0.0000000000
40
0.0000000000
40
0.0000000000
40
0.1586427360
40
0.3035778388
40
0.4360809048
40
0.5571675190
40
0.6671444098
40
0.7661438110
40
0.8543056476
40
0.9320396481
40
1.0000000000
40
1.0000000000
40
1.0000000000
40
1.0000000000
10
46.0810211040
20
24.0347489127
30
0.0000000000
10
46.0815253129
20
24.0760267184
30
0.0000000000
10
46.0838185614
20
24.1550068433
30
0.0000000000
10
46.0909522499
20
24.2682767420
30
0.0000000000
10
46.1010243546
20
24.3715095577
30
0.0000000000
10
46.1136539174
20
24.4652904899
30
0.0000000000
10
46.1285898686
20
24.5498972361
30
0.0000000000
10
46.1456630851
20
24.6253409102
30
0.0000000000
10
46.1648356915
20
24.6916127712
30
0.0000000000
10
46.1862713872
20
24.7486215765
30
0.0000000000
10
46.2036283939
20
24.7825354464
30
0.0000000000
10
46.2132691217
20
24.7973606233
30
0.0000000000
11
46.0810211040
21
24.0347489127
31
0.0000000000
11
46.0846520348
21
24.1585383290
31
0.0000000000
11
46.0918306064
21
24.2714523148
31
0.0000000000
11
46.1019681540
21
24.3743913588
31
0.0000000000
11
46.1147069964
21
24.4680539314
31
0.0000000000
11
46.1297931257
21
24.5525702694
31
0.0000000000
11
46.1470670585
21
24.6278977972
31
0.0000000000
11
46.1664939178
21
24.6939215737
31
0.0000000000
11
46.1883066050
21
24.7505478227
31
0.0000000000
11
46.2132691217
21
24.7973606233
31
0.0000000000
0
SPLINE
5
30E
100
AcDbEntity
8
0
100
AcDbSpline
62
9
6
CONTINUOUS
70
0
71
3
72
16
73
12
74
10
42
0.0000001000
43
0.0000001000
44
0.0000000001
12
0.0095333599
22
-0.7805770613
32
0.0000000000
13
0.4254646008
23
-0.6545008075
33
0.0000000000
40
0.0000000000
40
0.0000000000
40
0.0000000000
40
0.0000000000
40
0.1573077879
40
0.3010814924
40
0.4324558822
40
0.5525135474
40
0.6619884779
40
0.7611112692
40
0.8503752104
40
0.9301361374
40
1.0000000000
40
1.0000000000
40
1.0000000000
40
1.0000000000
10
46.0810211040
20
-23.1086981112
30
0.0000000000
10
46.0815209946
20
-23.1496283948
30
0.0000000000
10
46.0837844927
20
-23.2279587210
30
0.0000000000
10
46.0908095006
20
-23.3402892681
30
0.0000000000
10
46.1007159974
20
-23.4426693317
30
0.0000000000
10
46.1131334123
20
-23.5357791424
30
0.0000000000
10
46.1278436305
20
-23.6200523436
30
0.0000000000
10
46.1447571480
20
-23.6957233642
30
0.0000000000
10
46.1639356885
20
-23.7628739669
30
0.0000000000
10
46.1856214870
20
-23.8211872068
30
0.0000000000
10
46.2033608844
20
-23.8560677799
30
0.0000000000
10
46.2132690845
20
-23.8713097648
30
0.0000000000
11
46.0810211040
21
-23.1086981112
31
0.0000000000
11
46.0846034720
21
-23.2314458554
31
0.0000000000
11
46.0916737029
21
-23.3434577649
31
0.0000000000
11
46.1016407650
21
-23.4455277643
31
0.0000000000
11
46.1141476339
21
-23.5384107588
31
0.0000000000
11
46.1289978253
21
-23.6225706194
31
0.0000000000
11
46.1460856878
21
-23.6980389937
31
0.0000000000
11
46.1655230957
21
-23.7649557279
31
0.0000000000
11
46.1877011411
21
-23.8231361719
31
0.0000000000
11
46.2132690845
21
-23.8713097648
31
0.0000000000
0
SPLINE
5
30F
100
AcDbEntity
8
0
100
AcDbSpline
62
9
6
CONTINUOUS
70
0
71
3
72
11
73
7
74
5
42
0.0000001000
43
0.0000001000
44
0.0000000001
12
0.0897772687
22
-0.1379783062
32
0.0000000000
13
0.0889184872
23
-0.1385332941
33
0.0000000000
40
0.0000000000
40
0.0000000000
40
0.0000000000
40
0.0000000000
40
0.2816950635
40
0.5522944936
40
0.7963239742
40
1.0000000000
40
1.0000000000
40
1.0000000000
40
1.0000000000
10
46.2132690845
20
-23.8713097648
30
0.0000000000
10
46.2216990223
20
-23.8842657007
30
0.0000000000
10
46.2381252548
20
-23.9097332713
30
0.0000000000
10
46.2616182752
20
-23.9465765042
30
0.0000000000
10
46.2825264467
20
-23.9799881358
30
0.0000000000
10
46.2955406123
20
-24.0008249813
30
0.0000000000
10
46.3015774670
20
-24.0102302848
30
0.0000000000
11
46.2132690845
21
-23.8713097648
31
0.0000000000
11
46.2384207817
21
-23.9102670910
31
0.0000000000
11
46.2623460511
21
-23.9478410808
31
0.0000000000
11
46.2836958444
21
-23.9818687312
31
0.0000000000
11
46.3015774670
21
-24.0102302848
31
0.0000000000
0
SPLINE
5
310
100
AcDbEntity
8
0
100
AcDbSpline
62
9
6
CONTINUOUS
70
0
71
3
72
12
73
8
74
6
42
0.0000001000
43
0.0000001000
44
0.0000000001
12
0.1559865322
22
-0.0538014324
32
0.0000000000
13
0.1562709905
23
-0.0529695185
33
0.0000000000
40
0.0000000000
40
0.0000000000
40
0.0000000000
40
0.0000000000
40
0.2270702563
40
0.4476300061
40
0.6544730643
40
0.8401847014
40
1.0000000000
40
1.0000000000
40
1.0000000000
40
1.0000000000
10
46.1457911581
20
-23.9558334171
30
0.0000000000
10
46.1575977921
20
-23.9599056521
30
0.0000000000
10
46.1808631905
20
-23.9679605240
30
0.0000000000
10
46.2148553834
20
-23.9798057521
30
0.0000000000
10
46.2466783235
20
-23.9909634198
30
0.0000000000
10
46.2753059688
20
-24.0011350185
30
0.0000000000
10
46.2932466601
20
-24.0074057765
30
0.0000000000
10
46.3015714918
20
-24.0102275563
30
0.0000000000
11
46.1457911581
21
-23.9558334171
31
0.0000000000
11
46.1811973838
21
-23.9680897018
31
0.0000000000
11
46.2155638767
21
-23.9800653300
31
0.0000000000
11
46.2477667517
21
-23.9913715316
31
0.0000000000
11
46.2766576552
21
-24.0015853274
31
0.0000000000
11
46.3015714918
21
-24.0102275563
31
0.0000000000
0
SPLINE
5
311
100
AcDbEntity
8
0
100
AcDbSpline
62
9
6
CONTINUOUS
70
0
71
3
72
11
73
7
74
5
42
0.0000001000
43
0.0000001000
44
0.0000000001
12
-0.1559908265
22
-0.0537849060
32
0.0000000000
13
-0.1558050999
23
-0.0543205754
33
0.0000000000
40
0.0000000000
40
0.0000000000
40
0.0000000000
40
0.0000000000
40
0.2270776950
40
0.4697567853
40
0.7275205913
40
1.0000000000
40
1.0000000000
40
1.0000000000
40
1.0000000000
10
23.1064220699
20
-23.9558337508
30
0.0000000000
10
23.0946147241
20
-23.9599048683
30
0.0000000000
10
23.0701989676
20
-23.9683563048
30
0.0000000000
10
23.0324169640
20
-23.9815346938
30
0.0000000000
10
22.9923032473
20
-23.9956100083
30
0.0000000000
10
22.9647939960
20
-24.0052938414
30
0.0000000000
10
22.9506427689
20
-24.0102275875
30
0.0000000000
11
23.1064220699
21
-23.9558337508
31
0.0000000000
11
23.0710145485
21
-23.9680891225
31
0.0000000000
11
23.0332043278
21
-23.9812727927
31
0.0000000000
11
22.9930692658
21
-23.9953486063
31
0.0000000000
11
22.9506427689
21
-24.0102275875
31
0.0000000000
0
SPLINE
5
312
100
AcDbEntity
8
0
100
AcDbSpline
62
0
6
CONTINUOUS
70
0
71
3
72
8
73
4
74
2
42
0.0000001000
43
0.0000001000
44
0.0000000001
12
0.0000000000
22
0.0877283709
32
0.0000000000
13
0.0077946928
23
0.0876155226
33
0.0000000000
40
0.0000000000
40
0.0000000000
40
0.0000000000
40
0.0000000000
40
1.0000000000
40
1.0000000000
40
1.0000000000
40
1.0000000000
10
21.2831440405
20
25.3151454542
30
0.0000000000
10
21.2831440405
20
25.3443882445
30
0.0000000000
10
21.2844497299
20
25.3736798442
30
0.0000000000
10
21.2870479609
20
25.4028850185
30
0.0000000000
11
21.2831440405
21
25.3151454542
31
0.0000000000
11
21.2870479609
21
25.4028850185
31
0.0000000000
0
SPLINE
5
313
100
AcDbEntity
8
0
100
AcDbSpline
62
0
6
CONTINUOUS
70
0
71
3
72
11
73
7
74
5
42
0.0000001000
43
0.0000001000
44
0.0000000001
12
0.0865722445
22
0.9731073021
32
0.0000000000
13
0.8594098837
23
0.4667428944
33
0.0000000000
40
0.0000000000
40
0.0000000000
40
0.0000000000
40
0.0000000000
40
0.1781920454
40
0.4528513793
40
0.7241228182
40
1.0000000000
40
1.0000000000
40
1.0000000000
40
1.0000000000
10
21.2870479609
20
25.4028850185
30
0.0000000000
10
21.2921901226
20
25.4606850120
30
0.0000000000
10
21.3181243701
20
25.6067157153
30
0.0000000000
10
21.4108257820
20
25.8259007569
30
0.0000000000
10
21.5784744520
20
26.0377444889
30
0.0000000000
10
21.7234867934
20
26.1440443596
30
0.0000000000
10
21.8025173190
20
26.1869655977
30
0.0000000000
11
21.2870479609
21
25.4028850185
31
0.0000000000
11
21.3175605650
21
25.5742211351
31
0.0000000000
11
21.4217586824
21
25.8207201097
31
0.0000000000
11
21.5857434528
21
26.0280171383
31
0.0000000000
11
21.8025173190
21
26.1869655977
31
0.0000000000
0
SPLINE
5
314
100
AcDbEntity
8
0
100
AcDbSpline
62
0
6
CONTINUOUS
70
0
71
3
72
8
73
4
74
2
42
0.0000001000
43
0.0000001000
44
0.0000000001
12
0.1550583979
22
0.0842117444
32
0.0000000000
13
0.1671997072
23
0.0558108147
33
0.0000000000
40
0.0000000000
40
0.0000000000
40
0.0000000000
40
0.0000000000
40
1.0000000000
40
1.0000000000
40
1.0000000000
40
1.0000000000
10
21.8025173190
20
26.1869655977
30
0.0000000000
10
21.8542034517
20
26.2150361792
30
0.0000000000
10
21.9084191211
20
26.2385403927
30
0.0000000000
10
21.9641523568
20
26.2571439976
30
0.0000000000
11
21.8025173190
21
26.1869655977
31
0.0000000000
11
21.9641523568
21
26.2571439976
31
0.0000000000
0
SPLINE
5
315
100
AcDbEntity
8
0
100
AcDbSpline
62
0
6
CONTINUOUS
70
0
71
3
72
8
73
4
74
2
42
0.0000001000
43
0.0000001000
44
0.0000000001
12
0.0350239548
22
0.0116909024
32
0.0000000000
13
0.0353955882
23
0.0103914752
33
0.0000000000
40
0.0000000000
40
0.0000000000
40
0.0000000000
40
0.0000000000
40
1.0000000000
40
1.0000000000
40
1.0000000000
40
1.0000000000
10
21.9641523568
20
26.2571439976
30
0.0000000000
10
21.9758270084
20
26.2610409651
30
0.0000000000
10
21.9875682497
20
26.2647228974
30
0.0000000000
10
21.9993667791
20
26.2681867225
30
0.0000000000
11
21.9641523568
21
26.2571439976
31
0.0000000000
11
21.9993667791
21
26.2681867225
31
0.0000000000
0
SPLINE
5
316
100
AcDbEntity
8
0
100
AcDbSpline
62
0
6
CONTINUOUS
70
0
71
3
72
8
73
4
74
2
42
0.0000001000
43
0.0000001000
44
0.0000000001
12
0.0503719884
22
0.0147882630
32
0.0000000000
13
0.0509877006
23
0.0121113607
33
0.0000000000
40
0.0000000000
40
0.0000000000
40
0.0000000000
40
0.0000000000
40
1.0000000000
40
1.0000000000
40
1.0000000000
40
1.0000000000
10
21.9993667791
20
26.2681867225
30
0.0000000000
10
22.0161574419
20
26.2731161435
30
0.0000000000
10
22.0330641278
20
26.2776038414
30
0.0000000000
10
22.0500600280
20
26.2816409616
30
0.0000000000
11
21.9993667791
21
26.2681867225
31
0.0000000000
11
22.0500600280
21
26.2816409616
31
0.0000000000
0
SPLINE
5
317
100
AcDbEntity
8
0
100
AcDbSpline
62
0
6
CONTINUOUS
70
0
71
3
72
8
73
4
74
2
42
0.0000001000
43
0.0000001000
44
0.0000000001
12
0.0510260642
22
-0.0121204839
32
0.0000000000
13
0.0504092604
23
-0.0148012990
33
0.0000000000
40
0.0000000000
40
0.0000000000
40
0.0000000000
40
0.0000000000
40
1.0000000000
40
1.0000000000
40
1.0000000000
40
1.0000000000
10
47.2021540121
20
26.2816409244
30
0.0000000000
10
47.2191627001
20
26.2776007631
30
0.0000000000
10
47.2360820160
20
26.2731093684
30
0.0000000000
10
47.2528851028
20
26.2681756020
30
0.0000000000
11
47.2021540121
21
26.2816409244
31
0.0000000000
11
47.2528851028
21
26.2681756020
31
0.0000000000
0
SPLINE
5
318
100
AcDbEntity
8
0
100
AcDbSpline
62
0
6
CONTINUOUS
70
0
71
3
72
8
73
4
74
2
42
0.0000001000
43
0.0000001000
44
0.0000000001
12
0.0352839188
22
-0.0103601566
32
0.0000000000
13
0.0349146252
23
-0.0116514232
33
0.0000000000
40
0.0000000000
40
0.0000000000
40
0.0000000000
40
0.0000000000
40
1.0000000000
40
1.0000000000
40
1.0000000000
40
1.0000000000
10
47.2528851028
20
26.2681756020
30
0.0000000000
10
47.2646464091
20
26.2647222165
30
0.0000000000
10
47.2763507714
20
26.2610521004
30
0.0000000000
10
47.2879889798
20
26.2571682926
30
0.0000000000
11
47.2528851028
21
26.2681756020
31
0.0000000000
11
47.2879889798
21
26.2571682926
31
0.0000000000
0
SPLINE
5
319
100
AcDbEntity
8
0
100
AcDbSpline
62
0
6
CONTINUOUS
70
0
71
3
72
8
73
4
74
2
42
0.0000001000
43
0.0000001000
44
0.0000000001
12
0.1672357920
22
-0.0558085611
32
0.0000000000
13
0.1550930323
23
-0.0842226139
33
0.0000000000
40
0.0000000000
40
0.0000000000
40
0.0000000000
40
0.0000000000
40
1.0000000000
40
1.0000000000
40
1.0000000000
40
1.0000000000
10
47.2879889798
20
26.2571682926
30
0.0000000000
10
47.3437342438
20
26.2385654389
30
0.0000000000
10
47.3979617618
20
26.2150599317
30
0.0000000000
10
47.4496594393
20
26.1869857270
30
0.0000000000
11
47.2879889798
21
26.2571682926
31
0.0000000000
11
47.4496594393
21
26.1869857270
31
0.0000000000
0
SPLINE
5
31A
100
AcDbEntity
8
0
100
AcDbSpline
62
0
6
CONTINUOUS
70
0
71
3
72
11
73
7
74
5
42
0.0000001000
43
0.0000001000
44
0.0000000001
12
0.8593801983
22
-0.4666827748
32
0.0000000000
13
0.0866701061
23
-0.9730430042
33
0.0000000000
40
0.0000000000
40
0.0000000000
40
0.0000000000
40
0.0000000000
40
0.2764801354
40
0.5477459495
40
0.8218052248
40
1.0000000000
40
1.0000000000
40
1.0000000000
40
1.0000000000
10
47.4496594393
20
26.1869857270
30
0.0000000000
10
47.5288599571
20
26.1439762214
30
0.0000000000
10
47.6740041821
20
26.0375250731
30
0.0000000000
10
47.8415284370
20
25.8256063268
30
0.0000000000
10
47.9340950979
20
25.6066123413
30
0.0000000000
10
47.9600083630
20
25.4607852687
30
0.0000000000
10
47.9651564164
20
25.4029882089
30
0.0000000000
11
47.4496594393
21
26.1869857270
31
0.0000000000
11
47.6668540715
21
26.0276462936
31
0.0000000000
11
47.8307158736
21
25.8202802593
31
0.0000000000
11
47.9346281205
21
25.5743134814
31
0.0000000000
11
47.9651564164
21
25.4029882089
31
0.0000000000
0
SPLINE
5
31B
100
AcDbEntity
8
0
100
AcDbSpline
62
0
6
CONTINUOUS
70
0
71
3
72
8
73
4
74
2
42
0.0000001000
43
0.0000001000
44
0.0000000001
12
0.0078131611
22
-0.0877181548
32
0.0000000000
13
0.0000000000
23
-0.0878314045
33
0.0000000000
40
0.0000000000
40
0.0000000000
40
0.0000000000
40
0.0000000000
40
1.0000000000
40
1.0000000000
40
1.0000000000
40
1.0000000000
10
47.9651564164
20
25.4029882089
30
0.0000000000
10
47.9677608034
20
25.3737488240
30
0.0000000000
10
47.9690696217
20
25.3444226679
30
0.0000000000
10
47.9690696217
20
25.3151455331
30
0.0000000000
11
47.9651564164
21
25.4029882089
31
0.0000000000
11
47.9690696217
21
25.3151455331
31
0.0000000000
0
SPLINE
5
31C
100
AcDbEntity
8
0
100
AcDbSpline
62
0
6
CONTINUOUS
70
0
71
3
72
8
73
4
74
2
42
0.0000001000
43
0.0000001000
44
0.0000000001
12
-0.0510260564
22
0.0121204732
32
0.0000000000
13
-0.0504092533
23
0.0148012873
33
0.0000000000
40
0.0000000000
40
0.0000000000
40
0.0000000000
40
0.0000000000
40
1.0000000000
40
1.0000000000
40
1.0000000000
40
1.0000000000
10
22.0500598104
20
-25.3555900942
30
0.0000000000
10
22.0330511249
20
-25.3515499365
30
0.0000000000
10
22.0161318115
20
-25.3470585455
30
0.0000000000
10
21.9993287271
20
-25.3421247830
30
0.0000000000
11
22.0500598104
21
-25.3555900942
31
0.0000000000
11
21.9993287271
21
-25.3421247830
31
0.0000000000
0
SPLINE
5
31D
100
AcDbEntity
8
0
100
AcDbSpline
62
0
6
CONTINUOUS
70
0
71
3
72
8
73
4
74
2
42
0.0000001000
43
0.0000001000
44
0.0000000001
12
-0.0352839409
22
0.0103601564
32
0.0000000000
13
-0.0349146471
23
0.0116514246
33
0.0000000000
40
0.0000000000
40
0.0000000000
40
0.0000000000
40
0.0000000000
40
1.0000000000
40
1.0000000000
40
1.0000000000
40
1.0000000000
10
21.9993287271
20
-25.3421247830
30
0.0000000000
10
21.9875674134
20
-25.3386713976
30
0.0000000000
10
21.9758630438
20
-25.3350012813
30
0.0000000000
10
21.9642248281
20
-25.3311174731
30
0.0000000000
11
21.9993287271
21
-25.3421247830
31
0.0000000000
11
21.9642248281
21
-25.3311174731
31
0.0000000000
0
SPLINE
5
31E
100
AcDbEntity
8
0
100
AcDbSpline
62
0
6
CONTINUOUS
70
0
71
3
72
8
73
4
74
2
42
0.0000001000
43
0.0000001000
44
0.0000000001
12
-0.1672358207
22
0.0558085421
32
0.0000000000
13
-0.1550930623
23
0.0842226035
33
0.0000000000
40
0.0000000000
40
0.0000000000
40
0.0000000000
40
0.0000000000
40
1.0000000000
40
1.0000000000
40
1.0000000000
40
1.0000000000
10
21.9642248281
20
-25.3311174731
30
0.0000000000
10
21.9084795545
20
-25.3125146257
30
0.0000000000
10
21.8542520265
20
-25.2890091233
30
0.0000000000
10
21.8025543391
20
-25.2609349222
30
0.0000000000
11
21.9642248281
21
-25.3311174731
31
0.0000000000
11
21.8025543391
21
-25.2609349222
31
0.0000000000
0
SPLINE
5
31F
100
AcDbEntity
8
0
100
AcDbSpline
62
0
6
CONTINUOUS
70
0
71
3
72
11
73
7
74
5
42
0.0000001000
43
0.0000001000
44
0.0000000001
12
-0.8593803671
22
0.4666827185
32
0.0000000000
13
-0.0866701274
23
0.9730431239
33
0.0000000000
40
0.0000000000
40
0.0000000000
40
0.0000000000
40
0.0000000000
40
0.2764801359
40
0.5477459496
40
0.8218052257
40
1.0000000000
40
1.0000000000
40
1.0000000000
40
1.0000000000
10
21.8025543391
20
-25.2609349222
30
0.0000000000
10
21.7233538055
20
-25.2179254217
30
0.0000000000
10
21.5782095498
20
-25.1114742767
30
0.0000000000
10
21.4106852561
20
-24.8995555173
30
0.0000000000
10
21.3181185728
20
-24.6805615089
30
0.0000000000
10
21.2922053013
20
-24.5347344186
30
0.0000000000
10
21.2870572467
20
-24.4769373519
30
0.0000000000
11
21.8025543391
21
-25.2609349222
31
0.0000000000
11
21.5853596611
21
-25.1015954940
31
0.0000000000
11
21.4214978220
21
-24.8942294481
31
0.0000000000
11
21.3175855499
21
-24.6482626442
31
0.0000000000
11
21.2870572467
21
-24.4769373519
31
0.0000000000
0
SPLINE
5
320
100
AcDbEntity
8
0
100
AcDbSpline
62
0
6
CONTINUOUS
70
0
71
3
72
8
73
4
74
2
42
0.0000001000
43
0.0000001000
44
0.0000000001
12
-0.0078131630
22
0.0877181654
32
0.0000000000
13
0.0000000000
23
0.0878314151
33
0.0000000000
40
0.0000000000
40
0.0000000000
40
0.0000000000
40
0.0000000000
40
1.0000000000
40
1.0000000000
40
1.0000000000
40
1.0000000000
10
21.2870572467
20
-24.4769373519
30
0.0000000000
10
21.2844528590
20
-24.4476979635
30
0.0000000000
10
21.2831440405
20
-24.4183718038
30
0.0000000000
10
21.2831440405
20
-24.3890946655
30
0.0000000000
11
21.2870572467
21
-24.4769373519
31
0.0000000000
11
21.2831440405
21
-24.3890946655
31
0.0000000000
0
SPLINE
5
321
100
AcDbEntity
8
0
100
AcDbSpline
62
0
6
CONTINUOUS
70
0
71
3
72
8
73
4
74
2
42
0.0000001000
43
0.0000001000
44
0.0000000001
12
0.0000000000
22
-0.0877283584
32
0.0000000000
13
-0.0077946905
23
-0.0876155102
33
0.0000000000
40
0.0000000000
40
0.0000000000
40
0.0000000000
40
0.0000000000
40
1.0000000000
40
1.0000000000
40
1.0000000000
40
1.0000000000
10
47.9690696217
20
-24.3890947300
30
0.0000000000
10
47.9690696217
20
-24.4183375161
30
0.0000000000
10
47.9677639326
20
-24.4476291117
30
0.0000000000
10
47.9651657024
20
-24.4768342818
30
0.0000000000
11
47.9690696217
21
-24.3890947300
31
0.0000000000
11
47.9651657024
21
-24.4768342818
31
0.0000000000
0
SPLINE
5
322
100
AcDbEntity
8
0
100
AcDbSpline
62
0
6
CONTINUOUS
70
0
71
3
72
11
73
7
74
5
42
0.0000001000
43
0.0000001000
44
0.0000000001
12
-0.0865722196
22
-0.9731071621
32
0.0000000000
13
-0.8594096863
23
-0.4667429602
33
0.0000000000
40
0.0000000000
40
0.0000000000
40
0.0000000000
40
0.0000000000
40
0.1781920463
40
0.4528513793
40
0.7241228187
40
1.0000000000
40
1.0000000000
40
1.0000000000
40
1.0000000000
10
47.9651657024
20
-24.4768342818
30
0.0000000000
10
47.9600235421
20
-24.5346342673
30
0.0000000000
10
47.9340893020
20
-24.6806649498
30
0.0000000000
10
47.8413879164
20
-24.8998499646
30
0.0000000000
10
47.6737392919
20
-25.1116936813
30
0.0000000000
10
47.5287269863
20
-25.2179935560
30
0.0000000000
10
47.4496964790
20
-25.2609148001
30
0.0000000000
11
47.9651657024
21
-24.4768342818
31
0.0000000000
11
47.9346531068
21
-24.6481703753
31
0.0000000000
11
47.8304550189
21
-24.8946693194
31
0.0000000000
11
47.6664702920
21
-25.1019663344
31
0.0000000000
11
47.4496964790
21
-25.2609148001
31
0.0000000000
0
SPLINE
5
323
100
AcDbEntity
8
0
100
AcDbSpline
62
0
6
CONTINUOUS
70
0
71
3
72
8
73
4
74
2
42
0.0000001000
43
0.0000001000
44
0.0000000001
12
-0.1550583630
22
-0.0842117567
32
0.0000000000
13
-0.1671996737
23
-0.0558108369
33
0.0000000000
40
0.0000000000
40
0.0000000000
40
0.0000000000
40
0.0000000000
40
1.0000000000
40
1.0000000000
40
1.0000000000
40
1.0000000000
10
47.4496964790
20
-25.2609148001
30
0.0000000000
10
47.3980103580
20
-25.2889853857
30
0.0000000000
10
47.3437947002
20
-25.3124896050
30
0.0000000000
10
47.2880614756
20
-25.3310932173
30
0.0000000000
11
47.4496964790
21
-25.2609148001
31
0.0000000000
11
47.2880614756
21
-25.3310932173
31
0.0000000000
0
SPLINE
5
324
100
AcDbEntity
8
0
100
AcDbSpline
62
0
6
CONTINUOUS
70
0
71
3
72
8
73
4
74
2
42
0.0000001000
43
0.0000001000
44
0.0000000001
12
-0.0350239288
22
-0.0116909007
32
0.0000000000
13
-0.0353955620
23
-0.0103914753
33
0.0000000000
40
0.0000000000
40
0.0000000000
40
0.0000000000
40
0.0000000000
40
1.0000000000
40
1.0000000000
40
1.0000000000
40
1.0000000000
10
47.2880614756
20
-25.3310932173
30
0.0000000000
10
47.2763868327
20
-25.3349901842
30
0.0000000000
10
47.2646456001
20
-25.3386721163
30
0.0000000000
10
47.2528470794
20
-25.3421359414
30
0.0000000000
11
47.2880614756
21
-25.3310932173
31
0.0000000000
11
47.2528470794
21
-25.3421359414
31
0.0000000000
0
SPLINE
5
325
100
AcDbEntity
8
0
100
AcDbSpline
62
0
6
CONTINUOUS
70
0
71
3
72
8
73
4
74
2
42
0.0000001000
43
0.0000001000
44
0.0000000001
12
-0.0503719972
22
-0.0147882768
32
0.0000000000
13
-0.0509877103
23
-0.0121113733
33
0.0000000000
40
0.0000000000
40
0.0000000000
40
0.0000000000
40
0.0000000000
40
1.0000000000
40
1.0000000000
40
1.0000000000
40
1.0000000000
10
47.2528470794
20
-25.3421359414
30
0.0000000000
10
47.2360564137
20
-25.3470653670
30
0.0000000000
10
47.2191497247
20
-25.3515530693
30
0.0000000000
10
47.2021538213
20
-25.3555901937
30
0.0000000000
11
47.2528470794
21
-25.3421359414
31
0.0000000000
11
47.2021538213
21
-25.3555901937
31
0.0000000000
0
SPLINE
5
326
100
AcDbEntity
8
0
100
AcDbSpline
62
9
6
CONTINUOUS
70
0
71
3
72
10
73
6
74
4
42
0.0000001000
43
0.0000001000
44
0.0000000001
12
0.0761669613
22
-0.0621766725
32
0.0000000000
13
-0.0223380817
23
-0.0957515259
33
0.0000000000
40
0.0000000000
40
0.0000000000
40
0.0000000000
40
0.0000000000
40
0.1573298423
40
0.5179566528
40
1.0000000000
40
1.0000000000
40
1.0000000000
40
1.0000000000
10
47.1128819741
20
26.2127446827
30
0.0000000000
10
47.1168764194
20
26.2094839341
30
0.0000000000
10
47.1123715855
20
26.1886854059
30
0.0000000000
10
47.1107737358
20
26.1591911808
30
0.0000000000
10
47.1040952162
20
26.1311341409
30
0.0000000000
10
47.1005059083
20
26.1157486789
30
0.0000000000
11
47.1128819741
21
26.2127446827
31
0.0000000000
11
47.1144790012
21
26.1973582541
31
0.0000000000
11
47.1099911883
21
26.1621856213
31
0.0000000000
11
47.1005059083
21
26.1157486789
31
0.0000000000
0
SPLINE
5
327
100
AcDbEntity
8
0
100
AcDbSpline
62
9
6
CONTINUOUS
70
0
71
3
72
10
73
6
74
4
42
0.0000001000
43
0.0000001000
44
0.0000000001
12
-0.0761918721
22
-0.0622434887
32
0.0000000000
13
0.0223579311
23
-0.0958101048
33
0.0000000000
40
0.0000000000
40
0.0000000000
40
0.0000000000
40
0.0000000000
40
0.1573524954
40
0.5180029176
40
1.0000000000
40
1.0000000000
40
1.0000000000
40
1.0000000000
10
22.1393172925
20
26.2128048319
30
0.0000000000
10
22.1353209654
20
26.2095401092
30
0.0000000000
10
22.1398315560
20
26.1887291183
30
0.0000000000
10
22.1414317151
20
26.1592148677
30
0.0000000000
10
22.1481157372
20
26.1311420257
30
0.0000000000
10
22.1517078897
20
26.1157486287
30
0.0000000000
11
22.1393172925
21
26.2128048319
31
0.0000000000
11
22.1377215796
21
26.1974062897
31
0.0000000000
11
22.1422149326
21
26.1622096429
31
0.0000000000
11
22.1517078897
21
26.1157486287
31
0.0000000000
0
SPLINE
5
328
100
AcDbEntity
8
0
100
AcDbSpline
62
9
6
CONTINUOUS
70
0
71
3
72
10
73
6
74
4
42
0.0000001000
43
0.0000001000
44
0.0000000001
12
-0.0761669744
22
0.0621766596
32
0.0000000000
13
0.0223380656
23
0.0957515317
33
0.0000000000
40
0.0000000000
40
0.0000000000
40
0.0000000000
40
0.0000000000
40
0.1573298432
40
0.5179566543
40
1.0000000000
40
1.0000000000
40
1.0000000000
40
1.0000000000
10
22.1393318580
20
-25.2866938427
30
0.0000000000
10
22.1353374119
20
-25.2834330947
30
0.0000000000
10
22.1398422422
20
-25.2626345652
30
0.0000000000
10
22.1414400869
20
-25.2331403393
30
0.0000000000
10
22.1481186017
20
-25.2050832977
30
0.0000000000
10
22.1517079070
20
-25.1896978348
30
0.0000000000
11
22.1393318580
21
-25.2866938427
31
0.0000000000
11
22.1377348281
21
-25.2713074140
31
0.0000000000
11
22.1422226349
21
-25.2361347796
31
0.0000000000
11
22.1517079070
21
-25.1896978348
31
0.0000000000
0
SPLINE
5
329
100
AcDbEntity
8
0
100
AcDbSpline
62
9
6
CONTINUOUS
70
0
71
3
72
10
73
6
74
4
42
0.0000001000
43
0.0000001000
44
0.0000000001
12
0.0761920484
22
0.0622430445
32
0.0000000000
13
-0.0223579092
23
0.0958099615
33
0.0000000000
40
0.0000000000
40
0.0000000000
40
0.0000000000
40
0.0000000000
40
0.1573523135
40
0.5180026857
40
1.0000000000
40
1.0000000000
40
1.0000000000
40
1.0000000000
10
47.1128965344
20
-25.2867539349
30
0.0000000000
10
47.1168928661
20
-25.2834892392
30
0.0000000000
10
47.1123822797
20
-25.2626782530
30
0.0000000000
10
47.1107821279
20
-25.2331640744
30
0.0000000000
10
47.1040981076
20
-25.2050912584
30
0.0000000000
10
47.1005059569
20
-25.1896978770
30
0.0000000000
11
47.1128965344
21
-25.2867539349
31
0.0000000000
11
47.1144922559
21
-25.2713554344
31
0.0000000000
11
47.1099989100
21
-25.2361588442
31
0.0000000000
11
47.1005059569
21
-25.1896978770
31
0.0000000000
0
SPLINE
5
32A
100
AcDbEntity
8
0
100
AcDbSpline
62
9
6
CONTINUOUS
70
0
71
3
72
10
73
6
74
4
42
0.0000001000
43
0.0000001000
44
0.0000000001
12
0.3099117573
22
0.0008488630
32
0.0000000000
13
0.0008488640
23
0.3099117573
33
0.0000000000
40
0.0000000000
40
0.0000000000
40
0.0000000000
40
0.0000000000
40
0.3332498360
40
0.6667333485
40
1.0000000000
40
1.0000000000
40
1.0000000000
40
1.0000000000
10
45.8300604731
20
-22.0906541483
30
0.0000000000
10
45.8644864872
20
-22.0905598538
30
0.0000000000
10
45.9346159591
20
-22.0716852757
30
0.0000000000
10
46.0108159762
20
-21.9954873837
30
0.0000000000
10
46.0296920807
20
-21.9253559925
30
0.0000000000
10
46.0297863801
20
-21.8909282413
30
0.0000000000
11
45.8300604731
21
-22.0906541483
31
0.0000000000
11
45.9297636711
21
-22.0637152108
31
0.0000000000
11
46.0028447401
21
-21.9906361073
31
0.0000000000
11
46.0297863801
21
-21.8909282413
31
0.0000000000
0
SPLINE
5
32B
100
AcDbEntity
8
0
100
AcDbSpline
62
9
6
CONTINUOUS
70
0
71
3
72
10
73
6
74
4
42
0.0000001000
43
0.0000001000
44
0.0000000001
12
0.2277347047
22
0.0045714085
32
0.0000000000
13
0.0253710160
23
0.2263632149
33
0.0000000000
40
0.0000000000
40
0.0000000000
40
0.0000000000
40
0.0000000000
40
0.4304115290
40
0.7769336510
40
1.0000000000
40
1.0000000000
40
1.0000000000
40
1.0000000000
10
45.8613888102
20
-22.3786597848
30
0.0000000000
10
45.8940620243
20
-22.3780039225
30
0.0000000000
10
45.9533870013
20
-22.3702051730
30
0.0000000000
10
46.0247977973
20
-22.3462449004
30
0.0000000000
10
46.0592282438
20
-22.3109674711
30
0.0000000000
10
46.0611147171
20
-22.2941361324
30
0.0000000000
11
45.8613888102
21
-22.3786597848
31
0.0000000000
11
45.9586130289
21
-22.3660434062
31
0.0000000000
11
46.0313027407
21
-22.3352812505
31
0.0000000000
11
46.0611147171
21
-22.2941361324
31
0.0000000000
0
SPLINE
5
32C
100
AcDbEntity
8
0
100
AcDbSpline
62
9
6
CONTINUOUS
70
0
71
3
72
10
73
6
74
4
42
0.0000001000
43
0.0000001000
44
0.0000000001
12
0.2277347000
22
0.0045714022
32
0.0000000000
13
0.0253710180
23
0.2263632098
33
0.0000000000
40
0.0000000000
40
0.0000000000
40
0.0000000000
40
0.0000000000
40
0.4304107337
40
0.7769331744
40
1.0000000000
40
1.0000000000
40
1.0000000000
40
1.0000000000
10
45.8812951970
20
-23.1932217636
30
0.0000000000
10
45.9139683502
20
-23.1925659034
30
0.0000000000
10
45.9732932920
20
-23.1847671697
30
0.0000000000
10
46.0447040844
20
-23.1608069368
30
0.0000000000
10
46.0791346265
20
-23.1255294854
30
0.0000000000
10
46.0810211040
20
-23.1086981112
30
0.0000000000
11
45.8812951970
21
-23.1932217636
31
0.0000000000
11
45.9785192370
21
-23.1806054316
31
0.0000000000
11
46.0512090335
21
-23.1498432938
31
0.0000000000
11
46.0810211040
21
-23.1086981112
31
0.0000000000
0
SPLINE
5
32D
100
AcDbEntity
8
0
100
AcDbSpline
62
9
6
CONTINUOUS
70
0
71
3
72
10
73
6
74
4
42
0.0000001000
43
0.0000001000
44
0.0000000001
12
0.0739603139
22
0.0790401122
32
0.0000000000
13
0.0609364126
23
0.0894663120
33
0.0000000000
40
0.0000000000
40
0.0000000000
40
0.0000000000
40
0.0000000000
40
0.3277877373
40
0.6645824881
40
1.0000000000
40
1.0000000000
40
1.0000000000
40
1.0000000000
10
46.1457911581
20
-23.9558332909
30
0.0000000000
10
46.1538722528
20
-23.9471971644
30
0.0000000000
10
46.1697636155
20
-23.9292210265
30
0.0000000000
10
46.1922755875
20
-23.9010060467
30
0.0000000000
10
46.2064558656
20
-23.8813126207
30
0.0000000000
10
46.2132689122
20
-23.8713097648
30
0.0000000000
11
46.1457911581
21
-23.9558332909
31
0.0000000000
11
46.1693219279
21
-23.9292761107
31
0.0000000000
11
46.1920674787
21
-23.9007846998
31
0.0000000000
11
46.2132689122
21
-23.8713097648
31
0.0000000000
0
SPLINE
5
32E
100
AcDbEntity
8
0
100
AcDbSpline
62
9
6
CONTINUOUS
70
0
71
3
72
10
73
6
74
4
42
0.0000001000
43
0.0000001000
44
0.0000000001
12
-0.0008488645
22
0.3099117570
32
0.0000000000
13
-0.3099117570
23
0.0008488645
33
0.0000000000
40
0.0000000000
40
0.0000000000
40
0.0000000000
40
0.0000000000
40
0.3332570533
40
0.6667418637
40
1.0000000000
40
1.0000000000
40
1.0000000000
40
1.0000000000
10
46.0297863801
20
22.8169790428
30
0.0000000000
10
46.0296920834
20
22.8514058024
30
0.0000000000
10
46.0108168182
20
22.9215362326
30
0.0000000000
10
45.9346178985
20
22.9977352893
30
0.0000000000
10
45.8644873446
20
23.0166106527
30
0.0000000000
10
45.8300604731
20
23.0167049497
30
0.0000000000
11
46.0297863801
21
22.8169790428
31
0.0000000000
11
46.0028462824
21
22.9166842442
31
0.0000000000
11
45.9297659751
21
22.9897646780
31
0.0000000000
11
45.8300604731
21
23.0167049497
31
0.0000000000
0
SPLINE
5
32F
100
AcDbEntity
8
0
100
AcDbSpline
62
9
6
CONTINUOUS
70
0
71
3
72
10
73
6
74
4
42
0.0000001000
43
0.0000001000
44
0.0000000001
12
-0.0253710170
22
0.2263632155
32
0.0000000000
13
-0.2277347057
23
0.0045713966
33
0.0000000000
40
0.0000000000
40
0.0000000000
40
0.0000000000
40
0.0000000000
40
0.2230663485
40
0.5695884754
40
1.0000000000
40
1.0000000000
40
1.0000000000
40
1.0000000000
10
46.0611147171
20
23.2201869339
30
0.0000000000
10
46.0592282437
20
23.2370182725
30
0.0000000000
10
46.0247977967
20
23.2722957016
30
0.0000000000
10
45.9533870022
20
23.2962559785
30
0.0000000000
10
45.8940620241
20
23.3040547256
30
0.0000000000
10
45.8613888102
20
23.3047105862
30
0.0000000000
11
46.0611147171
21
23.2201869339
31
0.0000000000
11
46.0313027407
21
23.2613320520
31
0.0000000000
11
45.9586130285
21
23.2920942104
31
0.0000000000
11
45.8613888102
21
23.3047105862
31
0.0000000000
0
SPLINE
5
330
100
AcDbEntity
8
0
100
AcDbSpline
62
9
6
CONTINUOUS
70
0
71
3
72
10
73
6
74
4
42
0.0000001000
43
0.0000001000
44
0.0000000001
12
-0.0253710179
22
0.2263632085
32
0.0000000000
13
-0.2277346987
23
0.0045714021
33
0.0000000000
40
0.0000000000
40
0.0000000000
40
0.0000000000
40
0.0000000000
40
0.2230669662
40
0.5695894990
40
1.0000000000
40
1.0000000000
40
1.0000000000
40
1.0000000000
10
46.0810211040
20
24.0347489127
30
0.0000000000
10
46.0791346253
20
24.0515802974
30
0.0000000000
10
46.0447040557
20
24.0868577558
30
0.0000000000
10
45.9732932636
20
24.1108179758
30
0.0000000000
10
45.9139683323
20
24.1186167052
30
0.0000000000
10
45.8812951970
20
24.1192725650
30
0.0000000000
11
46.0810211040
21
24.0347489127
31
0.0000000000
11
46.0512090060
21
24.0758941145
31
0.0000000000
11
45.9785191847
21
24.1066562464
31
0.0000000000
11
45.8812951970
21
24.1192725650
31
0.0000000000
0
SPLINE
5
331
100
AcDbEntity
8
0
100
AcDbSpline
62
0
6
CONTINUOUS
70
0
71
3
72
8
73
4
74
2
42
0.0000001000
43
0.0000001000
44
0.0000000001
12
0.0702989257
22
-0.0166984538
32
0.0000000000
13
0.0703223154
23
-0.0166052179
33
0.0000000000
40
0.0000000000
40
0.0000000000
40
0.0000000000
40
0.0000000000
40
1.0000000000
40
1.0000000000
40
1.0000000000
40
1.0000000000
10
22.0500598104
20
-25.3555900942
30
0.0000000000
10
22.0734927856
20
-25.3611562455
30
0.0000000000
10
22.0969296714
20
-25.3667068598
30
0.0000000000
10
22.1203704432
20
-25.3722419324
30
0.0000000000
11
22.0500598104
21
-25.3555900942
31
0.0000000000
11
22.1203704432
21
-25.3722419324
31
0.0000000000
0
SPLINE
5
332
100
AcDbEntity
8
0
100
AcDbSpline
62
0
6
CONTINUOUS
70
0
71
3
72
12
73
8
74
6
42
0.0000001000
43
0.0000001000
44
0.0000000001
12
24.5530446504
22
-5.7977137633
32
0.0000000000
13
24.5530437546
23
5.7977175066
33
0.0000000000
40
0.0000000000
40
0.0000000000
40
0.0000000000
40
0.0000000000
40
0.1977895337
40
0.3994015079
40
0.6005967656
40
0.8022097684
40
1.0000000000
40
1.0000000000
40
1.0000000000
40
1.0000000000
10
22.1203704432
20
-25.3722419324
30
0.0000000000
10
23.7391488609
20
-25.7544842997
30
0.0000000000
10
27.0454124602
20
-26.3766862801
30
0.0000000000
10
32.0809396415
20
-26.8484251944
30
0.0000000000
10
37.1712392104
20
-26.8484273528
30
0.0000000000
10
42.2067811258
20
-26.3766892887
30
0.0000000000
10
45.5130593172
20
-25.7544859591
30
0.0000000000
10
47.1318433875
20
-25.3722419963
30
0.0000000000
11
22.1203704432
21
-25.3722419324
31
0.0000000000
11
27.0241684586
21
-26.2950776945
31
0.0000000000
11
32.0882259413
21
-26.7694928591
31
0.0000000000
11
37.1639443011
21
-26.7694948675
31
0.0000000000
11
42.2280278708
21
-26.2950799628
31
0.0000000000
11
47.1318433875
21
-25.3722419963
31
0.0000000000
0
SPLINE
5
333
100
AcDbEntity
8
0
100
AcDbSpline
62
0
6
CONTINUOUS
70
0
71
3
72
8
73
4
74
2
42
0.0000001000
43
0.0000001000
44
0.0000000001
12
0.0703221163
22
0.0166051822
32
0.0000000000
13
0.0702987265
23
0.0166984184
33
0.0000000000
40
0.0000000000
40
0.0000000000
40
0.0000000000
40
0.0000000000
40
1.0000000000
40
1.0000000000
40
1.0000000000
40
1.0000000000
10
47.1318433875
20
-25.3722419963
30
0.0000000000
10
47.1552840930
20
-25.3667069356
30
0.0000000000
10
47.1787209124
20
-25.3611563332
30
0.0000000000
10
47.2021538213
20
-25.3555901937
30
0.0000000000
11
47.1318433875
21
-25.3722419963
31
0.0000000000
11
47.2021538213
21
-25.3555901937
31
0.0000000000
0
SPLINE
5
334
100
AcDbEntity
8
0
100
AcDbSpline
62
0
6
CONTINUOUS
70
0
71
3
72
8
73
4
74
2
42
0.0000001000
43
0.0000001000
44
0.0000000001
12
-0.0702989187
22
0.0166984643
32
0.0000000000
13
-0.0703223087
23
0.0166052276
33
0.0000000000
40
0.0000000000
40
0.0000000000
40
0.0000000000
40
0.0000000000
40
1.0000000000
40
1.0000000000
40
1.0000000000
40
1.0000000000
10
47.2021540121
20
26.2816409244
30
0.0000000000
10
47.1787210391
20
26.2872070792
30
0.0000000000
10
47.1552841556
20
26.2927576968
30
0.0000000000
10
47.1318433860
20
26.2982927727
30
0.0000000000
11
47.2021540121
21
26.2816409244
31
0.0000000000
11
47.1318433860
21
26.2982927727
31
0.0000000000
0
SPLINE
5
335
100
AcDbEntity
8
0
100
AcDbSpline
62
0
6
CONTINUOUS
70
0
71
3
72
12
73
8
74
6
42
0.0000001000
43
0.0000001000
44
0.0000000001
12
-24.5530437276
22
5.7977175101
32
0.0000000000
13
-24.5530447771
23
-5.7977131135
33
0.0000000000
40
0.0000000000
40
0.0000000000
40
0.0000000000
40
0.0000000000
40
0.1977902901
40
0.3994033534
40
0.6005986216
40
0.8022104742
40
1.0000000000
40
1.0000000000
40
1.0000000000
40
1.0000000000
10
47.1318433860
20
26.2982927727
30
0.0000000000
10
45.5130588389
20
26.6805368488
30
0.0000000000
10
42.2067796599
20
27.3027403447
30
0.0000000000
10
37.1712366371
20
27.7744783128
30
0.0000000000
10
32.0809375033
20
27.7744758028
30
0.0000000000
10
27.0454113319
20
27.3027369685
30
0.0000000000
10
23.7391488335
20
26.6805350621
30
0.0000000000
10
22.1203704723
20
26.2982927529
30
0.0000000000
11
47.1318433860
21
26.2982927727
31
0.0000000000
11
42.2280264161
21
27.2211309660
31
0.0000000000
11
37.1639413119
21
27.6955458076
31
0.0000000000
11
32.0882226920
21
27.6955434940
31
0.0000000000
11
27.0241682795
21
27.2211285112
31
0.0000000000
11
22.1203704723
21
26.2982927529
31
0.0000000000
0
SPLINE
5
336
100
AcDbEntity
8
0
100
AcDbSpline
62
0
6
CONTINUOUS
70
0
71
3
72
8
73
4
74
2
42
0.0000001000
43
0.0000001000
44
0.0000000001
12
-0.0703221267
22
-0.0166051714
32
0.0000000000
13
-0.0702987371
23
-0.0166984066
33
0.0000000000
40
0.0000000000
40
0.0000000000
40
0.0000000000
40
0.0000000000
40
1.0000000000
40
1.0000000000
40
1.0000000000
40
1.0000000000
10
22.1203704723
20
26.2982927529
30
0.0000000000
10
22.0969297634
20
26.2927576958
30
0.0000000000
10
22.0734929404
20
26.2872070971
30
0.0000000000
10
22.0500600280
20
26.2816409616
30
0.0000000000
11
22.1203704723
21
26.2982927529
31
0.0000000000
11
22.0500600280
21
26.2816409616
31
0.0000000000
0
SPLINE
5
337
100
AcDbEntity
8
0
100
AcDbSpline
62
9
6
CONTINUOUS
70
0
71
3
72
11
73
7
74
5
42
0.0000001000
43
0.0000001000
44
0.0000000001
12
0.2868108130
22
0.2863764385
32
0.0000000000
13
0.0099184977
23
0.4051833293
33
0.0000000000
40
0.0000000000
40
0.0000000000
40
0.0000000000
40
0.0000000000
40
0.0888929689
40
0.2945971839
40
0.6049887166
40
1.0000000000
40
1.0000000000
40
1.0000000000
40
1.0000000000
10
46.0297863801
20
22.8169790428
30
0.0000000000
10
46.0382848683
20
22.8254646601
30
0.0000000000
10
46.0394600473
20
22.8699713271
30
0.0000000000
10
46.0516683505
20
22.9471548814
30
0.0000000000
10
46.0560361894
20
23.0722240102
30
0.0000000000
10
46.0598087443
20
23.1668362716
30
0.0000000000
10
46.0611147171
20
23.2201869339
30
0.0000000000
11
46.0297863801
21
22.8169790428
31
0.0000000000
11
46.0394283459
21
22.8516936293
31
0.0000000000
11
46.0482943893
21
22.9345937594
31
0.0000000000
11
46.0557062006
21
23.0601783824
31
0.0000000000
11
46.0611147171
21
23.2201869339
31
0.0000000000
0
SPLINE
5
338
100
AcDbEntity
8
0
100
AcDbSpline
62
9
6
CONTINUOUS
70
0
71
3
72
11
73
7
74
5
42
0.0000001000
43
0.0000001000
44
0.0000000001
12
0.2886790759
22
-0.2844867028
32
0.0000000000
13
0.0098032498
23
-0.4051816743
33
0.0000000000
40
0.0000000000
40
0.0000000000
40
0.0000000000
40
0.0000000000
40
0.0907786090
40
0.2976800252
40
0.6071391168
40
1.0000000000
40
1.0000000000
40
1.0000000000
40
1.0000000000
10
46.0297863801
20
-21.8909282413
30
0.0000000000
10
46.0385216751
20
-21.8995366770
30
0.0000000000
10
46.0394163455
20
-21.9446875050
30
0.0000000000
10
46.0517748308
20
-22.0220345932
30
0.0000000000
10
46.0560420245
20
-22.1468920218
30
0.0000000000
10
46.0598309460
20
-22.2410761223
30
0.0000000000
10
46.0611147171
20
-22.2941361324
30
0.0000000000
11
46.0297863801
21
-21.8909282413
31
0.0000000000
11
46.0395476403
21
-21.9264023543
31
0.0000000000
11
46.0483887999
21
-22.0097921809
31
0.0000000000
11
46.0557462702
21
-22.1350000445
31
0.0000000000
11
46.0611147171
21
-22.2941361324
31
0.0000000000
0
SPLINE
5
339
100
AcDbEntity
8
0
100
AcDbSpline
62
9
6
CONTINUOUS
70
0
71
3
72
11
73
7
74
5
42
0.0000001000
43
0.0000001000
44
0.0000000001
12
-0.2868108130
22
-0.2863764385
32
0.0000000000
13
-0.0099184977
23
-0.4051833293
33
0.0000000000
40
0.0000000000
40
0.0000000000
40
0.0000000000
40
0.0000000000
40
0.0888929689
40
0.2945971839
40
0.6049887166
40
1.0000000000
40
1.0000000000
40
1.0000000000
40
1.0000000000
10
23.2224272821
20
-21.8909282413
30
0.0000000000
10
23.2139287939
20
-21.8994138586
30
0.0000000000
10
23.2127536149
20
-21.9439205256
30
0.0000000000
10
23.2005453117
20
-22.0211040800
30
0.0000000000
10
23.1961774727
20
-22.1461732087
30
0.0000000000
10
23.1924049179
20
-22.2407854701
30
0.0000000000
10
23.1910989450
20
-22.2941361324
30
0.0000000000
11
23.2224272821
21
-21.8909282413
31
0.0000000000
11
23.2127853162
21
-21.9256428278
31
0.0000000000
11
23.2039192728
21
-22.0085429579
31
0.0000000000
11
23.1965074616
21
-22.1341275809
31
0.0000000000
11
23.1910989450
21
-22.2941361324
31
0.0000000000
0
SPLINE
5
33A
100
AcDbEntity
8
0
100
AcDbSpline
62
9
6
CONTINUOUS
70
0
71
3
72
13
73
9
74
7
42
0.0000001000
43
0.0000001000
44
0.0000000001
12
-22.9690035865
22
-5.1484608674
32
0.0000000000
13
-22.9690058318
23
5.1484508504
33
0.0000000000
40
0.0000000000
40
0.0000000000
40
0.0000000000
40
0.0000000000
40
0.1681384806
40
0.3346770538
40
0.5000010326
40
0.6653306610
40
0.8318764510
40
1.0000000000
40
1.0000000000
40
1.0000000000
40
1.0000000000
10
46.3015774670
20
-24.0102269374
30
0.0000000000
10
45.0142530123
20
-24.2987784000
30
0.0000000000
10
42.4303357829
20
-24.7819573395
30
0.0000000000
10
38.5280841624
20
-25.2184288577
30
0.0000000000
10
34.6260381421
20
-25.3635903712
30
0.0000000000
10
30.7239356763
20
-25.2184171948
30
0.0000000000
10
26.8217017212
20
-24.7819295935
30
0.0000000000
10
24.2378464542
20
-24.2987521272
30
0.0000000000
10
22.9506361951
20
-24.0102268509
30
0.0000000000
11
46.3015774670
21
-24.0102269374
31
0.0000000000
11
42.4108998666
21
-24.7360530826
31
0.0000000000
11
38.5149545817
21
-25.1709343904
31
0.0000000000
11
34.6260825126
21
-25.3153195418
31
0.0000000000
11
30.7370778867
21
-25.1709204301
31
0.0000000000
11
26.8409658754
21
-24.7360014401
31
0.0000000000
11
22.9506361951
21
-24.0102268509
31
0.0000000000
0
SPLINE
5
33B
100
AcDbEntity
8
0
100
AcDbSpline
62
9
6
CONTINUOUS
70
0
71
3
72
11
73
7
74
5
42
0.0000001000
43
0.0000001000
44
0.0000000001
12
-0.2886790759
22
0.2844867028
32
0.0000000000
13
-0.0098032498
23
0.4051816743
33
0.0000000000
40
0.0000000000
40
0.0000000000
40
0.0000000000
40
0.0000000000
40
0.0907786090
40
0.2976800252
40
0.6071391168
40
1.0000000000
40
1.0000000000
40
1.0000000000
40
1.0000000000
10
23.2224272821
20
22.8169790428
30
0.0000000000
10
23.2136919871
20
22.8255874785
30
0.0000000000
10
23.2127973166
20
22.8707383065
30
0.0000000000
10
23.2004388314
20
22.9480853947
30
0.0000000000
10
23.1961716376
20
23.0729428233
30
0.0000000000
10
23.1923827161
20
23.1671269238
30
0.0000000000
10
23.1910989450
20
23.2201869339
30
0.0000000000
11
23.2224272821
21
22.8169790428
31
0.0000000000
11
23.2126660219
21
22.8524531558
31
0.0000000000
11
23.2038248622
21
22.9358429824
31
0.0000000000
11
23.1964673920
21
23.0610508460
31
0.0000000000
11
23.1910989450
21
23.2201869339
31
0.0000000000
0
SPLINE
5
33C
100
AcDbEntity
8
0
100
AcDbSpline
62
9
6
CONTINUOUS
70
0
71
3
72
13
73
9
74
7
42
0.0000001000
43
0.0000001000
44
0.0000000001
12
22.9690057048
22
5.1484514184
32
0.0000000000
13
22.9690037181
23
-5.1484602818
33
0.0000000000
40
0.0000000000
40
0.0000000000
40
0.0000000000
40
0.0000000000
40
0.1681237834
40
0.3346696670
40
0.4999989694
40
0.6653226169
40
0.8318612754
40
1.0000000000
40
1.0000000000
40
1.0000000000
40
1.0000000000
10
22.9506361951
20
24.9362775756
30
0.0000000000
10
24.2378482417
20
25.2248032860
30
0.0000000000
10
26.8217060633
20
25.7079811621
30
0.0000000000
10
30.7239400998
20
26.1444682289
30
0.0000000000
10
34.6260381333
20
26.2896409839
30
0.0000000000
10
38.5280796634
20
26.1444799498
30
0.0000000000
10
42.4303313224
20
25.7080088857
30
0.0000000000
10
45.0142511372
20
25.2248296636
30
0.0000000000
10
46.3015774670
20
24.9362778152
30
0.0000000000
11
22.9506361951
21
24.9362775756
31
0.0000000000
11
26.8409713228
21
25.6620530499
31
0.0000000000
11
30.7370855794
21
26.0969717871
31
0.0000000000
11
34.6260825471
21
26.2413703451
31
0.0000000000
11
38.5149468325
21
26.0969857826
31
0.0000000000
11
42.4108941699
21
25.6621047366
31
0.0000000000
11
46.3015774670
21
24.9362778152
31
0.0000000000
0
SPLINE
5
33D
100
AcDbEntity
8
0
100
AcDbSpline
62
9
6
CONTINUOUS
70
0
71
3
72
8
73
4
74
2
42
0.0000001000
43
0.0000001000
44
0.0000000001
12
-0.0000325157
22
-0.1576047510
32
0.0000000000
13
-0.0278181943
23
-0.1557503754
33
0.0000000000
40
0.0000000000
40
0.0000000000
40
0.0000000000
40
0.0000000000
40
1.0000000000
40
1.0000000000
40
1.0000000000
40
1.0000000000
10
47.7923987147
20
-24.3194907627
30
0.0000000000
10
47.7923878761
20
-24.3720256797
30
0.0000000000
10
47.7877033097
20
-24.4247373717
30
0.0000000000
10
47.7784305783
20
-24.4766541635
30
0.0000000000
11
47.7923987147
21
-24.3194907627
31
0.0000000000
11
47.7784305783
21
-24.4766541635
31
0.0000000000
0
SPLINE
5
33E
100
AcDbEntity
8
0
100
AcDbSpline
62
9
6
CONTINUOUS
70
0
71
3
72
12
73
8
74
6
42
0.0000001000
43
0.0000001000
44
0.0000000001
12
-0.1832847739
22
-1.0261871056
32
0.0000000000
13
-1.0106017035
23
-0.2386820397
33
0.0000000000
40
0.0000000000
40
0.0000000000
40
0.0000000000
40
0.0000000000
40
0.0751524371
40
0.3055721799
40
0.5369717117
40
0.7692609136
40
1.0000000000
40
1.0000000000
40
1.0000000000
40
1.0000000000
10
47.7784305783
20
-24.4766541635
30
0.0000000000
10
47.7738391458
20
-24.5023609841
30
0.0000000000
10
47.7505962928
20
-24.6060932914
30
0.0000000000
10
47.6773728985
20
-24.7792894879
30
0.0000000000
10
47.5263647758
20
-24.9699836326
30
0.0000000000
10
47.3301069282
20
-25.1135525653
30
0.0000000000
10
47.1782344645
20
-25.1713401184
30
0.0000000000
10
47.1005060265
20
-25.1896978770
30
0.0000000000
11
47.7784305783
21
-24.4766541635
31
0.0000000000
11
47.7612919204
21
-24.5530719878
31
0.0000000000
11
47.6681720763
21
-24.7734769648
31
0.0000000000
11
47.5190452167
21
-24.9618880772
31
0.0000000000
11
47.3243805304
21
-25.1043242112
31
0.0000000000
11
47.1005060265
21
-25.1896978770
31
0.0000000000
0
SPLINE
5
33F
100
AcDbEntity
8
0
100
AcDbSpline
62
9
6
CONTINUOUS
70
0
71
3
72
12
73
8
74
6
42
0.0000001000
43
0.0000001000
44
0.0000000001
12
-24.4913909803
22
-5.7818931714
32
0.0000000000
13
-24.4913846284
23
5.7819200771
33
0.0000000000
40
0.0000000000
40
0.0000000000
40
0.0000000000
40
0.0000000000
40
0.2027701107
40
0.3963521175
40
0.5956977997
40
0.7950815122
40
1.0000000000
40
1.0000000000
40
1.0000000000
40
1.0000000000
10
47.1005060265
20
-25.1896978770
30
0.0000000000
10
45.4451320061
20
-25.5804962499
30
0.0000000000
10
42.1712839165
20
-26.1924715594
30
0.0000000000
10
37.1898008178
20
-26.6567309725
30
0.0000000000
10
32.2140413939
20
-26.6659736537
30
0.0000000000
10
27.1645432776
20
-26.2072230304
30
0.0000000000
10
23.8246202856
20
-25.5846386083
30
0.0000000000
10
22.1517077852
20
-25.1896978354
30
0.0000000000
11
47.1005060265
21
-25.1896978770
31
0.0000000000
11
42.0847593622
21
-26.1273353554
31
0.0000000000
11
37.2343610511
21
-26.5793993086
31
0.0000000000
11
32.2179096213
21
-26.5886773305
31
0.0000000000
11
27.2210691186
21
-26.1347405357
31
0.0000000000
11
22.1517077852
21
-25.1896978354
31
0.0000000000
0
SPLINE
5
340
100
AcDbEntity
8
0
100
AcDbSpline
62
9
6
CONTINUOUS
70
0
71
3
72
12
73
8
74
6
42
0.0000001000
43
0.0000001000
44
0.0000000001
12
-1.0104691976
22
0.2387559035
32
0.0000000000
13
-0.1834451287
23
1.0260561395
33
0.0000000000
40
0.0000000000
40
0.0000000000
40
0.0000000000
40
0.0000000000
40
0.2306727413
40
0.4631152173
40
0.6945173231
40
0.9248278491
40
1.0000000000
40
1.0000000000
40
1.0000000000
40
1.0000000000
10
22.1517077852
20
-25.1896978354
30
0.0000000000
10
22.0740118852
20
-25.1713396758
30
0.0000000000
10
21.9221243949
20
-25.1135678873
30
0.0000000000
10
21.7258494465
20
-24.9700019628
30
0.0000000000
10
21.5748652782
20
-24.7793019318
30
0.0000000000
10
21.5016513876
20
-24.6061631253
30
0.0000000000
10
21.4783976102
20
-24.5024754792
30
0.0000000000
10
21.4738009552
20
-24.4767651969
30
0.0000000000
11
22.1517077852
21
-25.1896978354
31
0.0000000000
11
21.9279168066
21
-25.1043709819
31
0.0000000000
11
21.7331382225
21
-24.9618650548
31
0.0000000000
11
21.5840380123
21
-24.7734624867
31
0.0000000000
11
21.4909564803
21
-24.5531924379
31
0.0000000000
11
21.4738009552
21
-24.4767651969
31
0.0000000000
0
SPLINE
5
341
100
AcDbEntity
8
0
100
AcDbSpline
62
9
6
CONTINUOUS
70
0
71
3
72
8
73
4
74
2
42
0.0000001000
43
0.0000001000
44
0.0000000001
12
-0.0278653240
22
0.1558579773
32
0.0000000000
13
-0.0000150305
23
0.1577167583
33
0.0000000000
40
0.0000000000
40
0.0000000000
40
0.0000000000
40
0.0000000000
40
1.0000000000
40
1.0000000000
40
1.0000000000
40
1.0000000000
10
21.4738009552
20
-24.4767651969
30
0.0000000000
10
21.4645125139
20
-24.4248125378
30
0.0000000000
10
21.4598199576
20
-24.3720629392
30
0.0000000000
10
21.4598149475
20
-24.3194906864
30
0.0000000000
11
21.4738009552
21
-24.4767651969
31
0.0000000000
11
21.4598149475
21
-24.3194906864
31
0.0000000000
0
SPLINE
5
342
100
AcDbEntity
8
0
100
AcDbSpline
62
9
6
CONTINUOUS
70
0
71
3
72
8
73
4
74
2
42
0.0000001000
43
0.0000001000
44
0.0000000001
12
0.0000325157
22
0.1576047744
32
0.0000000000
13
0.0278182026
23
0.1557503980
33
0.0000000000
40
0.0000000000
40
0.0000000000
40
0.0000000000
40
0.0000000000
40
1.0000000000
40
1.0000000000
40
1.0000000000
40
1.0000000000
10
21.4598149475
20
25.2455414728
30
0.0000000000
10
21.4598257860
20
25.2980763976
30
0.0000000000
10
21.4645103539
20
25.3507880975
30
0.0000000000
10
21.4737830881
20
25.4027048968
30
0.0000000000
11
21.4598149475
21
25.2455414728
31
0.0000000000
11
21.4737830881
21
25.4027048968
31
0.0000000000
0
SPLINE
5
343
100
AcDbEntity
8
0
100
AcDbSpline
62
9
6
CONTINUOUS
70
0
71
3
72
12
73
8
74
6
42
0.0000001000
43
0.0000001000
44
0.0000000001
12
0.1832848291
22
1.0261872588
32
0.0000000000
13
1.0106019066
23
0.2386818704
33
0.0000000000
40
0.0000000000
40
0.0000000000
40
0.0000000000
40
0.0000000000
40
0.0751524366
40
0.3055721795
40
0.5369717115
40
0.7692609140
40
1.0000000000
40
1.0000000000
40
1.0000000000
40
1.0000000000
10
21.4737830881
20
25.4027048968
30
0.0000000000
10
21.4783745219
20
25.4284117211
30
0.0000000000
10
21.5016173818
20
25.5321440435
30
0.0000000000
10
21.5748407980
20
25.7053402626
30
0.0000000000
10
21.7258489640
20
25.8960344220
30
0.0000000000
10
21.9221068631
20
26.0396033490
30
0.0000000000
10
22.0739793614
20
26.0973908832
30
0.0000000000
10
22.1517078148
20
26.1157486287
30
0.0000000000
11
21.4737830881
21
25.4027048968
31
0.0000000000
11
21.4909217510
21
25.4791227318
31
0.0000000000
11
21.5840416226
21
25.6995277369
31
0.0000000000
11
21.7331685244
21
25.8879388631
31
0.0000000000
11
21.9278332614
21
26.0303749913
31
0.0000000000
11
22.1517078148
21
26.1157486287
31
0.0000000000
0
SPLINE
5
344
100
AcDbEntity
8
0
100
AcDbSpline
62
9
6
CONTINUOUS
70
0
71
3
72
12
73
8
74
6
42
0.0000001000
43
0.0000001000
44
0.0000000001
12
24.4913883518
22
5.7819095146
32
0.0000000000
13
24.4913876705
23
-5.7819124006
33
0.0000000000
40
0.0000000000
40
0.0000000000
40
0.0000000000
40
0.0000000000
40
0.2045203260
40
0.4031169449
40
0.6028139635
40
0.7970694774
40
1.0000000000
40
1.0000000000
40
1.0000000000
40
1.0000000000
10
22.1517078148
20
26.1157486287
30
0.0000000000
10
23.8213700577
20
26.5099213016
30
0.0000000000
10
27.1514248316
20
27.1309893333
30
0.0000000000
10
32.1937159961
20
27.5909382233
30
0.0000000000
10
37.1715069722
20
27.5840439479
30
0.0000000000
10
42.1630569360
20
27.1199947202
30
0.0000000000
10
45.4438226634
20
26.5068575146
30
0.0000000000
10
47.1005060302
20
26.1157486795
30
0.0000000000
11
22.1517078148
21
26.1157486287
31
0.0000000000
11
27.2111321746
21
27.0594233925
31
0.0000000000
11
32.1880813103
21
27.5133908864
31
0.0000000000
11
37.2133780268
21
27.5064585346
31
0.0000000000
11
42.0807561423
21
27.0539406381
31
0.0000000000
11
47.1005060302
21
26.1157486795
31
0.0000000000
0
SPLINE
5
345
100
AcDbEntity
8
0
100
AcDbSpline
62
9
6
CONTINUOUS
70
0
71
3
72
12
73
8
74
6
42
0.0000001000
43
0.0000001000
44
0.0000000001
12
1.0104690240
22
-0.2387560482
32
0.0000000000
13
0.1834450816
23
-1.0260560085
33
0.0000000000
40
0.0000000000
40
0.0000000000
40
0.0000000000
40
0.0000000000
40
0.2306727416
40
0.4631152171
40
0.6945173228
40
0.9248278487
40
1.0000000000
40
1.0000000000
40
1.0000000000
40
1.0000000000
10
47.1005060302
20
26.1157486795
30
0.0000000000
10
47.1782019169
20
26.0973905088
30
0.0000000000
10
47.3300893777
20
26.0396187041
30
0.0000000000
10
47.5263642821
20
25.8960527747
30
0.0000000000
10
47.6773484133
20
25.7053527563
30
0.0000000000
10
47.7505622852
20
25.5322139691
30
0.0000000000
10
47.7738160567
20
25.4285263359
30
0.0000000000
10
47.7784127105
20
25.4028160567
30
0.0000000000
11
47.1005060302
21
26.1157486795
31
0.0000000000
11
47.3242969664
21
26.0304218017
31
0.0000000000
11
47.5190755071
21
25.8879158697
31
0.0000000000
11
47.6681756813
21
25.6995133134
31
0.0000000000
11
47.7612571897
21
25.4792432886
31
0.0000000000
11
47.7784127105
21
25.4028160567
31
0.0000000000
0
SPLINE
5
346
100
AcDbEntity
8
0
100
AcDbSpline
62
9
6
CONTINUOUS
70
0
71
3
72
8
73
4
74
2
42
0.0000001000
43
0.0000001000
44
0.0000000001
12
0.0278653169
22
-0.1558579580
32
0.0000000000
13
0.0000150305
23
-0.1577167383
33
0.0000000000
40
0.0000000000
40
0.0000000000
40
0.0000000000
40
0.0000000000
40
1.0000000000
40
1.0000000000
40
1.0000000000
40
1.0000000000
10
47.7784127105
20
25.4028160567
30
0.0000000000
10
47.7877011495
20
25.3508634040
30
0.0000000000
10
47.7923937045
20
25.2981138122
30
0.0000000000
10
47.7923987147
20
25.2455415661
30
0.0000000000
11
47.7784127105
21
25.4028160567
31
0.0000000000
11
47.7923987147
21
25.2455415661
31
0.0000000000
0
SPLINE
5
347
100
AcDbEntity
8
0
100
AcDbSpline
62
9
6
CONTINUOUS
70
0
71
3
72
16
73
12
74
10
42
0.0000001000
43
0.0000001000
44
0.0000000001
12
-0.0202233634
22
-0.8287020607
32
0.0000000000
13
-0.6581849289
23
-0.5039332189
33
0.0000000000
40
0.0000000000
40
0.0000000000
40
0.0000000000
40
0.0000000000
40
0.1499606797
40
0.2879741640
40
0.4152746601
40
0.5329935313
40
0.6415656071
40
0.7414023436
40
0.8329701934
40
0.9178840843
40
1.0000000000
40
1.0000000000
40
1.0000000000
40
1.0000000000
10
23.3709184651
20
-23.1932217636
30
0.0000000000
10
23.3699075620
20
-23.2346460050
30
0.0000000000
10
23.3652749469
20
-23.3141579507
30
0.0000000000
10
23.3508608539
20
-23.4280787584
30
0.0000000000
10
23.3304590139
20
-23.5320188174
30
0.0000000000
10
23.3048525448
20
-23.6263975462
30
0.0000000000
10
23.2745840311
20
-23.7113829672
30
0.0000000000
10
23.2400655398
20
-23.7868684524
30
0.0000000000
10
23.2014174865
20
-23.8529050508
30
0.0000000000
10
23.1579823197
20
-23.9098674366
30
0.0000000000
10
23.1244385658
20
-23.9420394709
30
0.0000000000
10
23.1064227464
20
-23.9558331169
30
0.0000000000
11
23.3709184651
21
-23.1932217636
31
0.0000000000
11
23.3636284739
21
-23.3173175466
31
0.0000000000
11
23.3491569471
21
-23.4308046955
31
0.0000000000
11
23.3286818066
21
-23.5343248342
31
0.0000000000
11
23.3029412744
21
-23.6284516125
31
0.0000000000
11
23.2725143025
21
-23.7131529918
31
0.0000000000
11
23.2378227228
21
-23.7882904392
31
0.0000000000
11
23.1991519442
21
-23.8536062007
31
0.0000000000
11
23.1560938246
21
-23.9092896561
31
0.0000000000
11
23.1064227464
21
-23.9558331169
31
0.0000000000
0
SPLINE
5
348
100
AcDbEntity
8
0
100
AcDbSpline
62
9
6
CONTINUOUS
70
0
71
3
72
10
73
6
74
4
42
0.0000001000
43
0.0000001000
44
0.0000000001
12
0.0885763070
22
-0.0695744306
32
0.0000000000
13
0.0885298362
23
-0.0696335528
33
0.0000000000
40
0.0000000000
40
0.0000000000
40
0.0000000000
40
0.0000000000
40
0.3331780702
40
0.6665126111
40
1.0000000000
40
1.0000000000
40
1.0000000000
40
1.0000000000
10
21.2831440405
20
25.3151454551
30
0.0000000000
10
21.2929812682
20
25.3074185636
30
0.0000000000
10
21.3126586258
20
25.2919589650
30
0.0000000000
10
21.3421763264
20
25.2687576434
30
0.0000000000
10
21.3618559304
20
25.2532821100
30
0.0000000000
10
21.3716971250
20
25.2455414728
30
0.0000000000
11
21.2831440405
21
25.3151454551
31
0.0000000000
11
21.3126531473
21
25.2919615011
31
0.0000000000
11
21.3421709536
21
25.2687600943
31
0.0000000000
11
21.3716971250
21
25.2455414728
31
0.0000000000
0
SPLINE
5
349
100
AcDbEntity
8
0
100
AcDbSpline
62
9
6
CONTINUOUS
70
0
71
3
72
10
73
6
74
4
42
0.0000001000
43
0.0000001000
44
0.0000000001
12
0.0885763069
22
0.0695744282
32
0.0000000000
13
0.0885298361
23
0.0696335503
33
0.0000000000
40
0.0000000000
40
0.0000000000
40
0.0000000000
40
0.0000000000
40
0.3331781073
40
0.6665126863
40
1.0000000000
40
1.0000000000
40
1.0000000000
40
1.0000000000
10
21.2831440405
20
-24.3890946661
30
0.0000000000
10
21.2929812692
20
-24.3813677740
30
0.0000000000
10
21.3126586292
20
-24.3659081744
30
0.0000000000
10
21.3421763297
20
-24.3427068535
30
0.0000000000
10
21.3618559326
20
-24.3272313216
30
0.0000000000
10
21.3716971250
20
-24.3194906864
30
0.0000000000
11
21.2831440405
21
-24.3890946661
31
0.0000000000
11
21.3126531506
21
-24.3659107105
31
0.0000000000
11
21.3421709602
21
-24.3427093019
31
0.0000000000
11
21.3716971250
21
-24.3194906864
31
0.0000000000
0
SPLINE
5
34A
100
AcDbEntity
8
0
100
AcDbSpline
62
9
6
CONTINUOUS
70
0
71
3
72
8
73
4
74
2
42
0.0000001000
43
0.0000001000
44
0.0000000001
12
0.0099137336
22
0.0076406493
32
0.0000000000
13
0.0099131879
23
0.0076413574
33
0.0000000000
40
0.0000000000
40
0.0000000000
40
0.0000000000
40
0.0000000000
40
1.0000000000
40
1.0000000000
40
1.0000000000
40
1.0000000000
10
22.0500598951
20
-25.3555901273
30
0.0000000000
10
22.0533644730
20
-25.3530432442
30
0.0000000000
10
22.0566689599
20
-25.3504962432
30
0.0000000000
10
22.0599733559
20
-25.3479491241
30
0.0000000000
11
22.0500598951
21
-25.3555901273
31
0.0000000000
11
22.0599733559
21
-25.3479491241
31
0.0000000000
0
SPLINE
5
34B
100
AcDbEntity
8
0
100
AcDbSpline
62
9
6
CONTINUOUS
70
0
71
3
72
10
73
6
74
4
42
0.0000001000
43
0.0000001000
44
0.0000000001
12
0.0793619295
22
0.0611743540
32
0.0000000000
13
0.0793268380
23
0.0612198512
33
0.0000000000
40
0.0000000000
40
0.0000000000
40
0.0000000000
40
0.0000000000
40
0.2498816025
40
0.6248522657
40
1.0000000000
40
1.0000000000
40
1.0000000000
40
1.0000000000
10
22.0599733559
20
-25.3479491241
30
0.0000000000
10
22.0665837179
20
-25.3428536755
30
0.0000000000
10
22.0831126343
20
-25.3301108493
30
0.0000000000
10
22.1095614973
20
-25.3097127657
30
0.0000000000
10
22.1293979859
20
-25.2944075226
30
0.0000000000
10
22.1393177471
20
-25.2867520264
30
0.0000000000
11
22.0599733559
21
-25.3479491241
31
0.0000000000
11
22.0798033482
21
-25.3326613596
31
0.0000000000
11
22.1095559918
21
-25.3097153118
31
0.0000000000
11
22.1393177471
21
-25.2867520264
31
0.0000000000
0
SPLINE
5
34C
100
AcDbEntity
8
0
100
AcDbSpline
62
9
6
CONTINUOUS
70
0
71
3
72
8
73
4
74
2
42
0.0000001000
43
0.0000001000
44
0.0000000001
12
-0.0099137328
22
0.0076406486
32
0.0000000000
13
-0.0099131872
23
0.0076413566
33
0.0000000000
40
0.0000000000
40
0.0000000000
40
0.0000000000
40
0.0000000000
40
1.0000000000
40
1.0000000000
40
1.0000000000
40
1.0000000000
10
47.2021539238
20
-25.3555901552
30
0.0000000000
10
47.1988493462
20
-25.3530432723
30
0.0000000000
10
47.1955448594
20
-25.3504962715
30
0.0000000000
10
47.1922404637
20
-25.3479491527
30
0.0000000000
11
47.2021539238
21
-25.3555901552
31
0.0000000000
11
47.1922404637
21
-25.3479491527
31
0.0000000000
0
SPLINE
5
34D
100
AcDbEntity
8
0
100
AcDbSpline
62
9
6
CONTINUOUS
70
0
71
3
72
10
73
6
74
4
42
0.0000001000
43
0.0000001000
44
0.0000000001
12
-0.0793619210
22
0.0611743451
32
0.0000000000
13
-0.0793268298
23
0.0612198420
33
0.0000000000
40
0.0000000000
40
0.0000000000
40
0.0000000000
40
0.0000000000
40
0.2498816127
40
0.6248522899
40
1.0000000000
40
1.0000000000
40
1.0000000000
40
1.0000000000
10
47.1922404637
20
-25.3479491527
30
0.0000000000
10
47.1856301021
20
-25.3428537047
30
0.0000000000
10
47.1691011868
20
-25.3301108799
30
0.0000000000
10
47.1426523267
20
-25.3097127991
30
0.0000000000
10
47.1228158405
20
-25.2944075585
30
0.0000000000
10
47.1128960810
20
-25.2867520640
30
0.0000000000
11
47.1922404637
21
-25.3479491527
31
0.0000000000
11
47.1724104727
21
-25.3326613899
31
0.0000000000
11
47.1426578312
21
-25.3097153445
31
0.0000000000
11
47.1128960810
21
-25.2867520640
31
0.0000000000
0
SPLINE
5
34E
100
AcDbEntity
8
0
100
AcDbSpline
62
9
6
CONTINUOUS
70
0
71
3
72
12
73
8
74
6
42
0.0000001000
43
0.0000001000
44
0.0000000001
12
-24.5149157784
22
-5.7927804992
32
0.0000000000
13
-24.5149130658
23
5.7927919790
33
0.0000000000
40
0.0000000000
40
0.0000000000
40
0.0000000000
40
0.0000000000
40
0.2027870737
40
0.3963575519
40
0.5956922402
40
0.7950639126
40
1.0000000000
40
1.0000000000
40
1.0000000000
40
1.0000000000
10
47.1128960810
20
-25.2867520640
30
0.0000000000
10
45.4557934032
20
-25.6783190660
30
0.0000000000
10
42.1786888731
20
-26.2914727830
30
0.0000000000
10
37.1922538517
20
-26.7566269805
30
0.0000000000
10
32.2117494003
20
-26.7658860488
30
0.0000000000
10
27.1572269553
20
-26.3062544272
30
0.0000000000
10
23.8139812029
20
-25.6824694009
30
0.0000000000
10
22.1393177471
20
-25.2867520264
30
0.0000000000
11
47.1128960810
21
-25.2867520640
31
0.0000000000
11
42.0918227593
21
-26.2262459257
31
0.0000000000
11
37.2368565829
21
-26.6791494845
31
0.0000000000
11
32.2156192382
21
-26.6884448233
31
0.0000000000
11
27.2140749805
21
-26.2336672275
31
0.0000000000
11
22.1393177471
21
-25.2867520264
31
0.0000000000
0
SPLINE
5
34F
100
AcDbEntity
8
0
100
AcDbSpline
62
9
6
CONTINUOUS
70
0
71
3
72
10
73
6
74
4
42
0.0000001000
43
0.0000001000
44
0.0000000001
12
-0.0885763068
22
0.0695744167
32
0.0000000000
13
-0.0885298364
23
0.0696335384
33
0.0000000000
40
0.0000000000
40
0.0000000000
40
0.0000000000
40
0.0000000000
40
0.3331780705
40
0.6665126114
40
1.0000000000
40
1.0000000000
40
1.0000000000
40
1.0000000000
10
47.9690696217
20
-24.3890947309
30
0.0000000000
10
47.9592323940
20
-24.3813678409
30
0.0000000000
10
47.9395550364
20
-24.3659082454
30
0.0000000000
10
47.9100373358
20
-24.3427069285
30
0.0000000000
10
47.8903577318
20
-24.3272313983
30
0.0000000000
10
47.8805165371
20
-24.3194907627
30
0.0000000000
11
47.9690696217
21
-24.3890947309
31
0.0000000000
11
47.9395605149
21
-24.3659107815
31
0.0000000000
11
47.9100427086
21
-24.3427093794
31
0.0000000000
11
47.8805165371
21
-24.3194907627
31
0.0000000000
0
SPLINE
5
350
100
AcDbEntity
8
0
100
AcDbSpline
62
9
6
CONTINUOUS
70
0
71
3
72
10
73
6
74
4
42
0.0000001000
43
0.0000001000
44
0.0000000001
12
-0.0885763067
22
-0.0695744164
32
0.0000000000
13
-0.0885298362
23
-0.0696335380
33
0.0000000000
40
0.0000000000
40
0.0000000000
40
0.0000000000
40
0.0000000000
40
0.3331781053
40
0.6665126843
40
1.0000000000
40
1.0000000000
40
1.0000000000
40
1.0000000000
10
47.9690696217
20
25.3151455337
30
0.0000000000
10
47.9592323930
20
25.3074186430
30
0.0000000000
10
47.9395550331
20
25.2919590461
30
0.0000000000
10
47.9100373326
20
25.2687577292
30
0.0000000000
10
47.8903577296
20
25.2532821999
30
0.0000000000
10
47.8805165371
20
25.2455415660
30
0.0000000000
11
47.9690696217
21
25.3151455337
31
0.0000000000
11
47.9395605117
21
25.2919615822
31
0.0000000000
11
47.9100427021
21
25.2687601776
31
0.0000000000
11
47.8805165371
21
25.2455415660
31
0.0000000000
0
SPLINE
5
351
100
AcDbEntity
8
0
100
AcDbSpline
62
9
6
CONTINUOUS
70
0
71
3
72
8
73
4
74
2
42
0.0000001000
43
0.0000001000
44
0.0000000001
12
-0.0099137326
22
-0.0076406484
32
0.0000000000
13
-0.0099131869
23
-0.0076413564
33
0.0000000000
40
0.0000000000
40
0.0000000000
40
0.0000000000
40
0.0000000000
40
1.0000000000
40
1.0000000000
40
1.0000000000
40
1.0000000000
10
47.2021539273
20
26.2816409575
30
0.0000000000
10
47.1988493498
20
26.2790940747
30
0.0000000000
10
47.1955448631
20
26.2765470740
30
0.0000000000
10
47.1922404675
20
26.2739999552
30
0.0000000000
11
47.2021539273
21
26.2816409575
31
0.0000000000
11
47.1922404675
21
26.2739999552
31
0.0000000000
0
SPLINE
5
352
100
AcDbEntity
8
0
100
AcDbSpline
62
9
6
CONTINUOUS
70
0
71
3
72
10
73
6
74
4
42
0.0000001000
43
0.0000001000
44
0.0000000001
12
-0.0793619205
22
-0.0611743456
32
0.0000000000
13
-0.0793268297
23
-0.0612198418
33
0.0000000000
40
0.0000000000
40
0.0000000000
40
0.0000000000
40
0.0000000000
40
0.2498816069
40
0.6248522791
40
1.0000000000
40
1.0000000000
40
1.0000000000
40
1.0000000000
10
47.1922404675
20
26.2739999552
30
0.0000000000
10
47.1856301061
20
26.2689045072
30
0.0000000000
10
47.1691011913
20
26.2561616825
30
0.0000000000
10
47.1426523311
20
26.2357636019
30
0.0000000000
10
47.1228158448
20
26.2204583611
30
0.0000000000
10
47.1128960850
20
26.2128028664
30
0.0000000000
11
47.1922404675
21
26.2739999552
31
0.0000000000
11
47.1724104771
21
26.2587121925
31
0.0000000000
11
47.1426578360
21
26.2357661475
31
0.0000000000
11
47.1128960850
21
26.2128028664
31
0.0000000000
0
SPLINE
5
353
100
AcDbEntity
8
0
100
AcDbSpline
62
9
6
CONTINUOUS
70
0
71
3
72
8
73
4
74
2
42
0.0000001000
43
0.0000001000
44
0.0000000001
12
0.0099137340
22
-0.0076406497
32
0.0000000000
13
0.0099131884
23
-0.0076413577
33
0.0000000000
40
0.0000000000
40
0.0000000000
40
0.0000000000
40
0.0000000000
40
1.0000000000
40
1.0000000000
40
1.0000000000
40
1.0000000000
10
22.0500599258
20
26.2816409232
30
0.0000000000
10
22.0533645038
20
26.2790940400
30
0.0000000000
10
22.0566689909
20
26.2765470388
30
0.0000000000
10
22.0599733870
20
26.2739999196
30
0.0000000000
11
22.0500599258
21
26.2816409232
31
0.0000000000
11
22.0599733870
21
26.2739999196
31
0.0000000000
0
SPLINE
5
354
100
AcDbEntity
8
0
100
AcDbSpline
62
9
6
CONTINUOUS
70
0
71
3
72
10
73
6
74
4
42
0.0000001000
43
0.0000001000
44
0.0000000001
12
0.0793619317
22
-0.0611743550
32
0.0000000000
13
0.0793268396
23
-0.0612198529
33
0.0000000000
40
0.0000000000
40
0.0000000000
40
0.0000000000
40
0.0000000000
40
0.2498816081
40
0.6248522780
40
1.0000000000
40
1.0000000000
40
1.0000000000
40
1.0000000000
10
22.0599733870
20
26.2739999196
30
0.0000000000
10
22.0665837494
20
26.2689044709
30
0.0000000000
10
22.0831126666
20
26.2561616443
30
0.0000000000
10
22.1095615301
20
26.2357635600
30
0.0000000000
10
22.1293980189
20
26.2204583166
30
0.0000000000
10
22.1393177800
20
26.2128028205
30
0.0000000000
11
22.0599733870
21
26.2739999196
31
0.0000000000
11
22.0798033803
21
26.2587121545
31
0.0000000000
11
22.1095560251
21
26.2357661057
31
0.0000000000
11
22.1393177800
21
26.2128028205
31
0.0000000000
0
SPLINE
5
355
100
AcDbEntity
8
0
100
AcDbSpline
62
9
6
CONTINUOUS
70
0
71
3
72
12
73
8
74
6
42
0.0000001000
43
0.0000001000
44
0.0000000001
12
24.5149155988
22
5.7927865073
32
0.0000000000
13
24.5149147345
23
-5.7927901651
33
0.0000000000
40
0.0000000000
40
0.0000000000
40
0.0000000000
40
0.0000000000
40
0.2045387076
40
0.4031233516
40
0.6028093267
40
0.7970532556
40
1.0000000000
40
1.0000000000
40
1.0000000000
40
1.0000000000
10
22.1393177800
20
26.2128028205
30
0.0000000000
10
23.8107341643
20
26.6077525090
30
0.0000000000
10
27.1441092879
20
27.2300173126
30
0.0000000000
10
32.1914237307
20
27.6908514494
30
0.0000000000
10
37.1739614931
20
27.6839395207
30
0.0000000000
10
42.1704667822
20
27.2189979824
30
0.0000000000
10
45.4544887070
20
26.6046788347
30
0.0000000000
10
47.1128960850
20
26.2128028664
30
0.0000000000
11
22.1393177800
21
26.2128028205
31
0.0000000000
11
27.2041477461
21
27.1583499068
31
0.0000000000
11
32.1857821204
21
27.6131575859
31
0.0000000000
11
37.2158724322
21
27.6062089726
31
0.0000000000
11
42.0878341262
21
27.1528499730
31
0.0000000000
11
47.1128960850
21
26.2128028664
31
0.0000000000
0
SPLINE
5
356
100
AcDbEntity
8
0
100
AcDbSpline
62
9
6
CONTINUOUS
70
0
71
3
72
16
73
12
74
10
42
0.0000001000
43
0.0000001000
44
0.0000000001
12
0.0202309288
22
-0.8287012144
32
0.0000000000
13
0.6553611999
23
-0.5075989468
33
0.0000000000
40
0.0000000000
40
0.0000000000
40
0.0000000000
40
0.0000000000
40
0.1483139601
40
0.2844999347
40
0.4099483547
40
0.5259818682
40
0.6336376205
40
0.7335732332
40
0.8269303412
40
0.9151878715
40
1.0000000000
40
1.0000000000
40
1.0000000000
40
1.0000000000
10
45.8812951970
20
-23.1932217636
30
0.0000000000
10
45.8822953734
20
-23.2341910832
30
0.0000000000
10
45.8868422446
20
-23.3127438150
30
0.0000000000
10
45.9009331962
20
-23.4252184143
30
0.0000000000
10
45.9208075223
20
-23.5277465209
30
0.0000000000
10
45.9457365866
20
-23.6210281372
30
0.0000000000
10
45.9753044087
20
-23.7055211667
30
0.0000000000
10
46.0093834753
20
-23.7814991461
30
0.0000000000
10
46.0482034467
20
-23.8490988719
30
0.0000000000
10
46.0924863551
20
-23.9081780502
30
0.0000000000
10
46.1272655209
20
-23.9414850144
30
0.0000000000
10
46.1457930470
20
-23.9558351968
30
0.0000000000
11
45.8812951970
21
-23.1932217636
31
0.0000000000
11
45.8884579968
21
-23.3159575115
31
0.0000000000
11
45.9025960634
21
-23.4279598212
31
0.0000000000
11
45.9225267273
21
-23.5300222389
31
0.0000000000
11
45.9475363202
21
-23.6228996922
31
0.0000000000
11
45.9772309954
21
-23.7070554312
31
0.0000000000
11
46.0114015529
21
-23.7825211651
31
0.0000000000
11
46.0502661596
21
-23.8494425800
31
0.0000000000
11
46.0946227623
21
-23.9076234287
31
0.0000000000
11
46.1457930470
21
-23.9558351968
31
0.0000000000
0
SPLINE
5
357
100
AcDbEntity
8
0
100
AcDbSpline
62
9
6
CONTINUOUS
70
0
71
3
72
14
73
10
74
8
42
0.0000001000
43
0.0000001000
44
0.0000000001
12
-22.6704493716
22
-5.0311174251
32
0.0000000000
13
-22.6704517265
23
5.0311068138
33
0.0000000000
40
0.0000000000
40
0.0000000000
40
0.0000000000
40
0.0000000000
40
0.1001329452
40
0.2111607704
40
0.3347605887
40
0.4728694334
40
0.6278111488
40
0.8023850396
40
1.0000000000
40
1.0000000000
40
1.0000000000
40
1.0000000000
10
46.1457930470
20
-23.9558351968
30
0.0000000000
10
45.3891067590
20
-24.1237620653
30
0.0000000000
10
43.7857568713
20
-24.4443999661
30
0.0000000000
10
41.2234093372
20
-24.8368890811
30
0.0000000000
10
38.3513916060
20
-25.1273086405
30
0.0000000000
10
35.1271892247
20
-25.2654289294
30
0.0000000000
10
31.5054465361
20
-25.1843722468
30
0.0000000000
10
27.4399372209
20
-24.7947042699
30
0.0000000000
10
24.5997628868
20
-24.2872404415
30
0.0000000000
10
23.1064227464
20
-23.9558331169
30
0.0000000000
11
46.1457930470
21
-23.9558351968
31
0.0000000000
11
43.8655741536
21
-24.4114270573
31
0.0000000000
11
41.3169616571
21
-24.8014857850
31
0.0000000000
11
38.4612509058
21
-25.0898726452
31
0.0000000000
11
35.2570193743
21
-25.2269898957
31
0.0000000000
11
31.6598617643
21
-25.1465473575
31
0.0000000000
11
27.6243176415
21
-24.7606225453
31
0.0000000000
11
23.1064227464
21
-23.9558331169
31
0.0000000000
0
SPLINE
5
358
100
AcDbEntity
8
0
100
AcDbSpline
62
0
6
CONTINUOUS
70
0
71
3
72
14
73
10
74
8
42
0.0000001000
43
0.0000001000
44
0.0000000001
12
2.9625207069
22
0.0000285418
32
0.0000000000
13
0.0000000000
23
-2.9625207070
33
0.0000000000
40
0.0000000000
40
0.0000000000
40
0.0000000000
40
0.0000000000
40
0.1454926056
40
0.2930848073
40
0.4383533505
40
0.5790846548
40
0.7189960163
40
0.8604098218
40
1.0000000000
40
1.0000000000
40
1.0000000000
40
1.0000000000
10
52.6277587419
20
40.3630157479
30
0.0000000000
10
52.7714336942
20
40.3630171321
30
0.0000000000
10
53.0618983202
20
40.3305904985
30
0.0000000000
10
53.4737603524
20
40.1859266264
30
0.0000000000
10
53.8383105788
20
39.9542390719
30
0.0000000000
10
54.1363218542
20
39.6525629185
30
0.0000000000
10
54.3583759104
20
39.2957514749
30
0.0000000000
10
54.4953929159
20
38.8997525509
30
0.0000000000
10
54.5261068311
20
38.6212857673
30
0.0000000000
10
54.5261068311
20
38.4834395028
30
0.0000000000
11
52.6277587419
21
40.3630157479
31
0.0000000000
11
53.0560983538
21
40.3149782202
31
0.0000000000
11
53.4685947901
21
40.1699615329
31
0.0000000000
11
53.8317166425
21
39.9389784849
31
0.0000000000
11
54.1246459012
21
39.6423065479
31
0.0000000000
11
54.3436270991
21
39.2903840446
31
0.0000000000
11
54.4805990203
21
38.8944667196
31
0.0000000000
11
54.5261068311
21
38.4834395028
31
0.0000000000
0
SPLINE
5
359
100
AcDbEntity
8
0
100
AcDbSpline
62
0
6
CONTINUOUS
70
0
71
3
72
14
73
10
74
8
42
0.0000001000
43
0.0000001000
44
0.0000000001
12
0.0000000000
22
2.9625201893
32
0.0000000000
13
2.9625201892
23
-0.0000285417
33
0.0000000000
40
0.0000000000
40
0.0000000000
40
0.0000000000
40
0.0000000000
40
0.1394057473
40
0.2801609654
40
0.4200332841
40
0.5610533619
40
0.7065152820
40
0.8543078280
40
1.0000000000
40
1.0000000000
40
1.0000000000
40
1.0000000000
10
14.7261068311
20
38.4834395028
30
0.0000000000
10
14.7261068311
20
38.6211036165
30
0.0000000000
10
14.7566886750
20
38.8987346170
30
0.0000000000
10
14.8930821389
20
39.2939808541
30
0.0000000000
10
15.1144282625
20
39.6507525890
30
0.0000000000
10
15.4124067801
20
39.9531028817
30
0.0000000000
10
15.7773576574
20
40.1854453326
30
0.0000000000
10
16.1897191384
20
40.3305010438
30
0.0000000000
10
16.4805829200
20
40.3630171340
30
0.0000000000
10
16.6244549203
20
40.3630157479
30
0.0000000000
11
14.7261068311
21
38.4834395028
31
0.0000000000
11
14.7714943208
21
38.8939302450
31
0.0000000000
11
14.9075052047
21
39.2881152851
31
0.0000000000
11
15.1259409773
21
39.6402403992
31
0.0000000000
11
15.4191227923
21
39.9378647089
31
0.0000000000
11
15.7825469138
21
40.1694395622
31
0.0000000000
11
16.1955352731
21
40.3148461677
31
0.0000000000
11
16.6244549203
21
40.3630157479
31
0.0000000000
0
SPLINE
5
35A
100
AcDbEntity
8
0
100
AcDbSpline
62
0
6
CONTINUOUS
70
0
71
3
72
14
73
10
74
8
42
0.0000001000
43
0.0000001000
44
0.0000000001
12
-2.9625201892
22
-0.0000285418
32
0.0000000000
13
-0.0000000000
23
2.9625201893
33
0.0000000000
40
0.0000000000
40
0.0000000000
40
0.0000000000
40
0.0000000000
40
0.1456921720
40
0.2934847180
40
0.4389466381
40
0.5799667159
40
0.7198390346
40
0.8605942527
40
1.0000000000
40
1.0000000000
40
1.0000000000
40
1.0000000000
10
16.6244549203
20
-39.4369649464
30
0.0000000000
10
16.4805829200
20
-39.4369663325
30
0.0000000000
10
16.1897191384
20
-39.4044502423
30
0.0000000000
10
15.7773576574
20
-39.2593945311
30
0.0000000000
10
15.4124067801
20
-39.0270520802
30
0.0000000000
10
15.1144282625
20
-38.7247017876
30
0.0000000000
10
14.8930821389
20
-38.3679300526
30
0.0000000000
10
14.7566886750
20
-37.9726838155
30
0.0000000000
10
14.7261068311
20
-37.6950528150
30
0.0000000000
10
14.7261068311
20
-37.5573887014
30
0.0000000000
11
16.6244549203
21
-39.4369649464
31
0.0000000000
11
16.1955352731
21
-39.3887953662
31
0.0000000000
11
15.7825469138
21
-39.2433887608
31
0.0000000000
11
15.4191227923
21
-39.0118139074
31
0.0000000000
11
15.1259409773
21
-38.7141895977
31
0.0000000000
11
14.9075052047
21
-38.3620644836
31
0.0000000000
11
14.7714943208
21
-37.9678794435
31
0.0000000000
11
14.7261068311
21
-37.5573887014
31
0.0000000000
0
SPLINE
5
35B
100
AcDbEntity
8
0
100
AcDbSpline
62
0
6
CONTINUOUS
70
0
71
3
72
14
73
10
74
8
42
0.0000001000
43
0.0000001000
44
0.0000000001
12
0.0000000000
22
-2.9625207070
32
0.0000000000
13
-2.9625207069
23
0.0000285418
33
0.0000000000
40
0.0000000000
40
0.0000000000
40
0.0000000000
40
0.0000000000
40
0.1395901782
40
0.2810039837
40
0.4209153452
40
0.5616466495
40
0.7069151927
40
0.8545073944
40
1.0000000000
40
1.0000000000
40
1.0000000000
40
1.0000000000
10
54.5261068311
20
-37.5573887014
30
0.0000000000
10
54.5261068311
20
-37.6952349659
30
0.0000000000
10
54.4953929159
20
-37.9737017494
30
0.0000000000
10
54.3583759104
20
-38.3697006734
30
0.0000000000
10
54.1363218542
20
-38.7265121171
30
0.0000000000
10
53.8383105788
20
-39.0281882705
30
0.0000000000
10
53.4737603524
20
-39.2598758249
30
0.0000000000
10
53.0618983202
20
-39.4045396970
30
0.0000000000
10
52.7714336942
20
-39.4369663306
30
0.0000000000
10
52.6277587419
20
-39.4369649464
30
0.0000000000
11
54.5261068311
21
-37.5573887014
31
0.0000000000
11
54.4805990203
21
-37.9684159181
31
0.0000000000
11
54.3436270991
21
-38.3643332431
31
0.0000000000
11
54.1246459012
21
-38.7162557465
31
0.0000000000
11
53.8317166425
21
-39.0129276834
31
0.0000000000
11
53.4685947901
21
-39.2439107314
31
0.0000000000
11
53.0560983538
21
-39.3889274187
31
0.0000000000
11
52.6277587419
21
-39.4369649464
31
0.0000000000
0
SPLINE
5
35C
100
AcDbEntity
8
0
100
AcDbSpline
62
0
6
CONTINUOUS
70
0
71
3
72
8
73
4
74
2
42
0.0000001000
43
0.0000001000
44
0.0000000001
12
0.0000000000
22
-0.0972207755
32
0.0000000000
13
0.0086310468
23
-0.0970945511
33
0.0000000000
40
0.0000000000
40
0.0000000000
40
0.0000000000
40
0.0000000000
40
1.0000000000
40
1.0000000000
40
1.0000000000
40
1.0000000000
10
21.1261068311
20
-24.3736460298
30
0.0000000000
10
21.1261068311
20
-24.4060529550
30
0.0000000000
10
21.1275536447
20
-24.4385133005
30
0.0000000000
10
21.1304306603
20
-24.4708781509
30
0.0000000000
11
21.1261068311
21
-24.3736460298
31
0.0000000000
11
21.1304306603
21
-24.4708781509
31
0.0000000000
0
SPLINE
5
35D
100
AcDbEntity
8
0
100
AcDbSpline
62
0
6
CONTINUOUS
70
0
71
3
72
12
73
8
74
6
42
0.0000001000
43
0.0000001000
44
0.0000000001
12
0.1215208868
22
-1.3670434447
32
0.0000000000
13
1.3312613342
23
-0.3184543242
33
0.0000000000
40
0.0000000000
40
0.0000000000
40
0.0000000000
40
0.0000000000
40
0.1405106405
40
0.3568589306
40
0.5704792622
40
0.7875703710
40
1.0000000000
40
1.0000000000
40
1.0000000000
40
1.0000000000
10
21.1304306603
20
-24.4708781509
30
0.0000000000
10
21.1361223195
20
-24.5349062009
30
0.0000000000
10
21.1647936124
20
-24.6965708783
30
0.0000000000
10
21.2670193352
20
-24.9392671950
30
0.0000000000
10
21.4517325603
20
-25.1741266746
30
0.0000000000
10
21.6906180887
20
-25.3504716955
30
0.0000000000
10
21.8760627035
20
-25.4218116351
30
0.0000000000
10
21.9703291540
20
-25.4443613464
30
0.0000000000
11
21.1304306603
21
-24.4708781509
31
0.0000000000
11
21.1641693889
21
-24.6606880650
31
0.0000000000
11
21.2790770701
21
-24.9336281860
31
0.0000000000
11
21.4598502664
21
-25.1634616919
31
0.0000000000
11
21.6989671870
21
-25.3398885685
31
0.0000000000
11
21.9703291540
21
-25.4443613464
31
0.0000000000
0
SPLINE
5
35E
100
AcDbEntity
8
0
100
AcDbSpline
62
0
6
CONTINUOUS
70
0
71
3
72
12
73
8
74
6
42
0.0000001000
43
0.0000001000
44
0.0000000001
12
1.4258142237
22
0.3410728201
32
0.0000000000
13
0.0000000000
23
1.4660412235
33
0.0000000000
40
0.0000000000
40
0.0000000000
40
0.0000000000
40
0.0000000000
40
0.1983253045
40
0.4006782889
40
0.6001400501
40
0.8024944518
40
1.0000000000
40
1.0000000000
40
1.0000000000
40
1.0000000000
10
47.2818846965
20
-25.4443613904
30
0.0000000000
10
47.3761430432
20
-25.4218136001
30
0.0000000000
10
47.5614229553
20
-25.3505388991
30
0.0000000000
10
47.8002019743
20
-25.1743655389
30
0.0000000000
10
47.9850342619
20
-24.9395873064
30
0.0000000000
10
48.1001254040
20
-24.6665251768
30
0.0000000000
10
48.1261068311
20
-24.4701632108
30
0.0000000000
10
48.1261068311
20
-24.3736461190
30
0.0000000000
11
47.2818846965
21
-25.4443613904
31
0.0000000000
11
47.5532245262
21
-25.3399006528
31
0.0000000000
11
47.7919827927
21
-25.1638314888
31
0.0000000000
11
47.9728725038
21
-24.9340753569
31
0.0000000000
11
48.0880451571
21
-24.6606848797
31
0.0000000000
11
48.1261068311
21
-24.3736461190
31
0.0000000000
0
SPLINE
5
35F
100
AcDbEntity
8
0
100
AcDbSpline
62
0
6
CONTINUOUS
70
0
71
3
72
8
73
4
74
2
42
0.0000001000
43
0.0000001000
44
0.0000000001
12
0.0000000000
22
0.0972207625
32
0.0000000000
13
-0.0086310445
23
0.0970945381
33
0.0000000000
40
0.0000000000
40
0.0000000000
40
0.0000000000
40
0.0000000000
40
1.0000000000
40
1.0000000000
40
1.0000000000
40
1.0000000000
10
48.1261068311
20
25.2996969228
30
0.0000000000
10
48.1261068311
20
25.3321038436
30
0.0000000000
10
48.1246600178
20
25.3645641848
30
0.0000000000
10
48.1217830030
20
25.3969290309
30
0.0000000000
11
48.1261068311
21
25.2996969228
31
0.0000000000
11
48.1217830030
21
25.3969290309
31
0.0000000000
0
SPLINE
5
360
100
AcDbEntity
8
0
100
AcDbSpline
62
0
6
CONTINUOUS
70
0
71
3
72
12
73
8
74
6
42
0.0000001000
43
0.0000001000
44
0.0000000001
12
-0.1215208540
22
1.3670432614
32
0.0000000000
13
-1.3312610978
23
0.3184545219
33
0.0000000000
40
0.0000000000
40
0.0000000000
40
0.0000000000
40
0.0000000000
40
0.1405106410
40
0.3568589304
40
0.5704792622
40
0.7875703704
40
1.0000000000
40
1.0000000000
40
1.0000000000
40
1.0000000000
10
48.1217830030
20
25.3969290309
30
0.0000000000
10
48.1160913453
20
25.4609570725
30
0.0000000000
10
48.0874200601
20
25.6226217285
30
0.0000000000
10
47.9851943644
20
25.8653180173
30
0.0000000000
10
47.8004811861
20
26.1001774808
30
0.0000000000
10
47.5615957129
20
26.2765225077
30
0.0000000000
10
47.3761511353
20
26.3478624677
30
0.0000000000
10
47.2818847013
20
26.3704121931
30
0.0000000000
11
48.1217830030
21
25.3969290309
31
0.0000000000
11
48.0880442832
21
25.5867389209
31
0.0000000000
11
47.9731366325
21
25.8596790105
31
0.0000000000
11
47.7923634810
21
26.0895125020
31
0.0000000000
11
47.5532466156
21
26.2659393847
31
0.0000000000
11
47.2818847013
21
26.3704121931
31
0.0000000000
0
SPLINE
5
361
100
AcDbEntity
8
0
100
AcDbSpline
62
0
6
CONTINUOUS
70
0
71
3
72
12
73
8
74
6
42
0.0000001000
43
0.0000001000
44
0.0000000001
12
-1.4258145201
22
-0.3410725721
32
0.0000000000
13
0.0000000000
23
-1.4660414541
33
0.0000000000
40
0.0000000000
40
0.0000000000
40
0.0000000000
40
0.0000000000
40
0.1983253038
40
0.4006782889
40
0.6001400499
40
0.8024944524
40
1.0000000000
40
1.0000000000
40
1.0000000000
40
1.0000000000
10
21.9703291918
20
26.3704121391
30
0.0000000000
10
21.8760708259
20
26.3478643653
30
0.0000000000
10
21.6907908703
20
26.2765896882
30
0.0000000000
10
21.4520117867
20
26.1004163350
30
0.0000000000
10
21.2671794441
20
25.8656380838
30
0.0000000000
10
21.1520882663
20
25.5925759175
30
0.0000000000
10
21.1261068311
20
25.3962139202
30
0.0000000000
10
21.1261068311
20
25.2996968135
30
0.0000000000
11
21.9703291918
21
26.3704121391
31
0.0000000000
11
21.6989893005
21
26.2659514372
31
0.0000000000
11
21.4602309695
21
26.0898822804
31
0.0000000000
11
21.2793412059
21
25.8601261317
31
0.0000000000
11
21.1641685168
21
25.5867356176
31
0.0000000000
11
21.1261068311
21
25.2996968135
31
0.0000000000
0
SPLINE
5
362
100
AcDbEntity
8
0
100
AcDbSpline
62
0
6
CONTINUOUS
70
0
71
3
72
13
73
9
74
7
42
0.0000001000
43
0.0000001000
44
0.0000000001
12
24.8370201937
22
5.9413228300
32
0.0000000000
13
24.8370189046
23
-5.9413282195
33
0.0000000000
40
0.0000000000
40
0.0000000000
40
0.0000000000
40
0.0000000000
40
0.1807640032
40
0.3939630545
40
0.4999906139
40
0.6060196934
40
0.8192280414
40
1.0000000000
40
1.0000000000
40
1.0000000000
40
1.0000000000
10
21.9703291994
20
26.3704121074
30
0.0000000000
10
23.4668755984
20
26.7284045404
30
0.0000000000
10
26.7630046219
20
27.3705069123
30
0.0000000000
10
31.0056940891
20
27.7951405371
30
0.0000000000
10
34.6258798326
20
27.8859180664
30
0.0000000000
10
38.2461455180
20
27.7951692182
30
0.0000000000
10
42.4889974183
20
27.3705444428
30
0.0000000000
10
45.7852725097
20
26.7284206747
30
0.0000000000
10
47.2818846939
20
26.3704121618
30
0.0000000000
11
21.9703291994
21
26.3704121074
31
0.0000000000
11
26.5014990479
21
27.2529012917
31
0.0000000000
11
31.9190067511
21
27.7956271161
31
0.0000000000
11
34.6258669918
21
27.8632884733
31
0.0000000000
11
37.3327666126
21
27.7956490520
31
0.0000000000
11
42.7505137626
21
27.2529316287
31
0.0000000000
11
47.2818846939
21
26.3704121618
31
0.0000000000
0
SPLINE
5
363
100
AcDbEntity
8
0
100
AcDbSpline
62
0
6
CONTINUOUS
70
0
71
3
72
13
73
9
74
7
42
0.0000001000
43
0.0000001000
44
0.0000000001
12
-24.8370189647
22
-5.9413281151
32
0.0000000000
13
-24.8370200160
23
5.9413237206
33
0.0000000000
40
0.0000000000
40
0.0000000000
40
0.0000000000
40
0.0000000000
40
0.1807725566
40
0.3939810217
40
0.5000101053
40
0.6060377495
40
0.8192370479
40
1.0000000000
40
1.0000000000
40
1.0000000000
40
1.0000000000
10
47.2818846890
20
-25.4443613591
30
0.0000000000
10
45.7852675500
20
-25.8023710502
30
0.0000000000
10
42.4889863517
20
-26.4444955728
30
0.0000000000
10
38.2461282044
20
-26.8691195104
30
0.0000000000
10
34.6258607340
20
-26.9598674583
30
0.0000000000
10
31.0056721604
20
-26.8690882892
30
0.0000000000
10
26.7629889534
20
-26.4444535092
30
0.0000000000
10
23.4668668477
20
-25.8023517197
30
0.0000000000
10
21.9703291616
20
-25.4443613148
30
0.0000000000
11
47.2818846890
21
-25.4443613591
31
0.0000000000
11
42.7504986368
21
-26.3268831118
31
0.0000000000
11
37.3327483374
21
-26.8695991609
31
0.0000000000
11
34.6258485878
21
-26.9372377780
31
0.0000000000
11
31.9189862054
21
-26.8695752909
31
0.0000000000
11
26.5014724531
21
-26.3268464733
31
0.0000000000
11
21.9703291616
21
-25.4443613148
31
0.0000000000
0
SPLINE
5
364
100
AcDbEntity
8
0
100
AcDbSpline
62
0
6
CONTINUOUS
70
0
71
3
72
12
73
8
74
6
42
0.0000001000
43
0.0000001000
44
0.0000000001
12
36.0033038245
22
0.0003468665
32
0.0000000000
13
36.0033038245
23
-0.0003468664
33
0.0000000000
40
0.0000000000
40
0.0000000000
40
0.0000000000
40
0.0000000000
40
0.1990865521
40
0.3995168558
40
0.6004831442
40
0.8009134479
40
1.0000000000
40
1.0000000000
40
1.0000000000
40
1.0000000000
10
16.6244549203
20
-39.4369649464
30
0.0000000000
10
19.0137127949
20
-39.4369419276
30
0.0000000000
10
23.8083550408
20
-39.4368267281
30
0.0000000000
10
31.0148140678
20
-39.4366834064
30
0.0000000000
10
38.2373995944
20
-39.4366834064
30
0.0000000000
10
45.4438586213
20
-39.4368267281
30
0.0000000000
10
50.2385008672
20
-39.4369419276
30
0.0000000000
10
52.6277587419
20
-39.4369649464
30
0.0000000000
11
16.6244549203
21
-39.4369649464
31
0.0000000000
11
23.7922285433
21
-39.4368320432
31
0.0000000000
11
31.0083816594
21
-39.4367074215
31
0.0000000000
11
38.2438320028
21
-39.4367074215
31
0.0000000000
11
45.4599851189
21
-39.4368320432
31
0.0000000000
11
52.6277587419
21
-39.4369649464
31
0.0000000000
0
SPLINE
5
365
100
AcDbEntity
8
0
100
AcDbSpline
62
0
6
CONTINUOUS
70
0
71
3
72
12
73
8
74
6
42
0.0000001000
43
0.0000001000
44
0.0000000001
12
36.0033038245
22
-0.0003468664
32
0.0000000000
13
36.0033038245
23
0.0003468665
33
0.0000000000
40
0.0000000000
40
0.0000000000
40
0.0000000000
40
0.0000000000
40
0.1990865521
40
0.3995168558
40
0.6004831442
40
0.8009134479
40
1.0000000000
40
1.0000000000
40
1.0000000000
40
1.0000000000
10
16.6244549203
20
40.3630157479
30
0.0000000000
10
19.0137127949
20
40.3629927291
30
0.0000000000
10
23.8083550408
20
40.3628775296
30
0.0000000000
10
31.0148140678
20
40.3627342079
30
0.0000000000
10
38.2373995944
20
40.3627342079
30
0.0000000000
10
45.4438586213
20
40.3628775296
30
0.0000000000
10
50.2385008672
20
40.3629927291
30
0.0000000000
10
52.6277587419
20
40.3630157479
30
0.0000000000
11
16.6244549203
21
40.3630157479
31
0.0000000000
11
23.7922285433
21
40.3628828447
31
0.0000000000
11
31.0083816594
21
40.3627582230
31
0.0000000000
11
38.2438320028
21
40.3627582230
31
0.0000000000
11
45.4599851189
21
40.3628828447
31
0.0000000000
11
52.6277587419
21
40.3630157479
31
0.0000000000
0
SPLINE
5
366
100
AcDbEntity
8
0
100
AcDbSpline
62
9
6
CONTINUOUS
70
0
71
3
72
14
73
10
74
8
42
0.0000001000
43
0.0000001000
44
0.0000000001
12
1.5655625612
22
-0.0007987929
32
0.0000000000
13
0.0003699476
23
-1.5655627213
33
0.0000000000
40
0.0000000000
40
0.0000000000
40
0.0000000000
40
0.0000000000
40
0.1444137743
40
0.2887672249
40
0.4323155140
40
0.5750532552
40
0.7172134422
40
0.8589385078
40
1.0000000000
40
1.0000000000
40
1.0000000000
40
1.0000000000
10
52.5466062181
20
39.2491981137
30
0.0000000000
10
52.6219691509
20
39.2491596614
30
0.0000000000
10
52.7731873088
20
39.2325592291
30
0.0000000000
10
52.9882601949
20
39.1587429473
30
0.0000000000
10
53.1810829135
20
39.0396513127
30
0.0000000000
10
53.3416736604
20
38.8813675147
30
0.0000000000
10
53.4621363116
20
38.6918372567
30
0.0000000000
10
53.5365509684
20
38.4809883483
30
0.0000000000
10
53.5532243715
20
38.3328714074
30
0.0000000000
10
53.5532417666
20
38.2592578695
30
0.0000000000
11
52.5466062181
21
39.2491981137
31
0.0000000000
11
52.7713283112
21
39.2243759678
31
0.0000000000
11
52.9850612582
21
39.1509478368
31
0.0000000000
11
53.1761959747
21
39.0327411266
31
0.0000000000
11
53.3352781393
21
38.8758034853
31
0.0000000000
11
53.4546242925
21
38.6879477991
31
0.0000000000
11
53.5284168774
21
38.4786987596
31
0.0000000000
11
53.5532417666
21
38.2592578695
31
0.0000000000
0
SPLINE
5
367
100
AcDbEntity
8
0
100
AcDbSpline
62
9
6
CONTINUOUS
70
0
71
3
72
14
73
10
74
8
42
0.0000001000
43
0.0000001000
44
0.0000000001
12
-0.0003699722
22
-1.5655627220
32
0.0000000000
13
-1.5655625618
23
-0.0007989110
33
0.0000000000
40
0.0000000000
40
0.0000000000
40
0.0000000000
40
0.0000000000
40
0.1410614922
40
0.2827865578
40
0.4249467447
40
0.5676844859
40
0.7112327749
40
0.8555862255
40
1.0000000000
40
1.0000000000
40
1.0000000000
40
1.0000000000
10
53.5532417666
20
-37.3332070680
30
0.0000000000
10
53.5532243703
20
-37.4068206060
30
0.0000000000
10
53.5365509703
20
-37.5549375471
30
0.0000000000
10
53.4621363109
20
-37.7657864551
30
0.0000000000
10
53.3416736604
20
-37.9553167130
30
0.0000000000
10
53.1810829143
20
-38.1136005129
30
0.0000000000
10
52.9882601930
20
-38.2326921408
30
0.0000000000
10
52.7731873105
20
-38.3065084376
30
0.0000000000
10
52.6219691510
20
-38.3231088543
30
0.0000000000
10
52.5466062181
20
-38.3231473122
30
0.0000000000
11
53.5532417666
21
-37.3332070680
31
0.0000000000
11
53.5284168782
21
-37.5526479583
31
0.0000000000
11
53.4546242924
21
-37.7618969976
31
0.0000000000
11
53.3352781394
21
-37.9497526839
31
0.0000000000
11
53.1761959749
21
-38.1066903253
31
0.0000000000
11
52.9850612575
21
-38.2248970338
31
0.0000000000
11
52.7713283120
21
-38.2983251699
31
0.0000000000
11
52.5466062181
21
-38.3231473122
31
0.0000000000
0
SPLINE
5
368
100
AcDbEntity
8
0
100
AcDbSpline
62
9
6
CONTINUOUS
70
0
71
3
72
10
73
6
74
4
42
0.0000001000
43
0.0000001000
44
0.0000000001
12
-0.0238935943
22
0.1011356732
32
0.0000000000
13
-0.1026664504
23
-0.0160912459
33
0.0000000000
40
0.0000000000
40
0.0000000000
40
0.0000000000
40
0.0000000000
40
0.4895088302
40
0.8538411686
40
1.0000000000
40
1.0000000000
40
1.0000000000
40
1.0000000000
10
47.3244093541
20
-25.5478287360
30
0.0000000000
10
47.3205106456
20
-25.5313264676
30
0.0000000000
10
47.3132474924
20
-25.5002347914
30
0.0000000000
10
47.3014105597
20
-25.4745626276
30
0.0000000000
10
47.2948928186
20
-25.4497721729
30
0.0000000000
10
47.2898909491
20
-25.4505561321
30
0.0000000000
11
47.3244093541
21
-25.5478287360
31
0.0000000000
11
47.3112480295
21
-25.4986911472
31
0.0000000000
11
47.2985860652
21
-25.4630098291
31
0.0000000000
11
47.2898909491
21
-25.4505561321
31
0.0000000000
0
SPLINE
5
369
100
AcDbEntity
8
0
100
AcDbSpline
62
9
6
CONTINUOUS
70
0
71
3
72
10
73
6
74
4
42
0.0000001000
43
0.0000001000
44
0.0000000001
12
-0.0238969164
22
-0.1011666989
32
0.0000000000
13
-0.1026973101
23
0.0160942872
33
0.0000000000
40
0.0000000000
40
0.0000000000
40
0.0000000000
40
0.0000000000
40
0.4894845775
40
0.8538328315
40
1.0000000000
40
1.0000000000
40
1.0000000000
40
1.0000000000
10
47.3244086992
20
26.4738795365
30
0.0000000000
10
47.3205096418
20
26.4573730235
30
0.0000000000
10
47.3132456085
20
26.4262719924
30
0.0000000000
10
47.3014051952
20
26.4005926988
30
0.0000000000
10
47.2948873560
20
26.3757923044
30
0.0000000000
10
47.2898836976
20
26.3765764565
30
0.0000000000
11
47.3244086992
21
26.4738795365
31
0.0000000000
11
47.3112457673
21
26.4247292996
31
0.0000000000
11
47.2985808548
21
26.3890353039
31
0.0000000000
11
47.2898836976
21
26.3765764565
31
0.0000000000
0
SPLINE
5
36A
100
AcDbEntity
8
0
100
AcDbSpline
62
9
6
CONTINUOUS
70
0
71
3
72
10
73
6
74
4
42
0.0000001000
43
0.0000001000
44
0.0000000001
12
0.0238935900
22
-0.1011358167
32
0.0000000000
13
0.1026666299
23
0.0160909965
33
0.0000000000
40
0.0000000000
40
0.0000000000
40
0.0000000000
40
0.0000000000
40
0.4895086620
40
0.8538410585
40
1.0000000000
40
1.0000000000
40
1.0000000000
40
1.0000000000
10
21.9278045577
20
26.4738794907
30
0.0000000000
10
21.9317032641
20
26.4573772046
30
0.0000000000
10
21.9389664117
20
26.4262854942
30
0.0000000000
10
21.9508033636
20
26.4006132778
30
0.0000000000
10
21.9573210897
20
26.3758227944
30
0.0000000000
10
21.9623229716
20
26.3766067421
30
0.0000000000
11
21.9278045577
21
26.4738794907
31
0.0000000000
11
21.9409658784
21
26.4247418487
31
0.0000000000
11
21.9536278479
21
26.3890604724
31
0.0000000000
11
21.9623229716
21
26.3766067421
31
0.0000000000
0
SPLINE
5
36B
100
AcDbEntity
8
0
100
AcDbSpline
62
9
6
CONTINUOUS
70
0
71
3
72
10
73
6
74
4
42
0.0000001000
43
0.0000001000
44
0.0000000001
12
0.0238968980
22
0.1011667012
32
0.0000000000
13
0.1026973110
23
-0.0160942687
33
0.0000000000
40
0.0000000000
40
0.0000000000
40
0.0000000000
40
0.0000000000
40
0.4894845784
40
0.8538328313
40
1.0000000000
40
1.0000000000
40
1.0000000000
40
1.0000000000
10
21.9278051730
20
-25.5478286950
30
0.0000000000
10
21.9317042274
20
-25.5313221816
30
0.0000000000
10
21.9389682551
20
-25.5002211499
30
0.0000000000
10
21.9508086635
20
-25.4745418544
30
0.0000000000
10
21.9573264985
20
-25.4497414596
30
0.0000000000
10
21.9623301569
20
-25.4505256108
30
0.0000000000
11
21.9278051730
21
-25.5478286950
31
0.0000000000
11
21.9409680960
21
-25.4986784566
31
0.0000000000
11
21.9536330019
21
-25.4629844595
31
0.0000000000
11
21.9623301569
21
-25.4505256108
31
0.0000000000
0
SPLINE
5
36C
100
AcDbEntity
8
0
100
AcDbSpline
62
9
6
CONTINUOUS
70
0
71
3
72
12
73
8
74
6
42
0.0000001000
43
0.0000001000
44
0.0000000001
12
-1.4256493457
22
0.3411623228
32
0.0000000000
13
-0.0000482395
23
1.4659016969
33
0.0000000000
40
0.0000000000
40
0.0000000000
40
0.0000000000
40
0.0000000000
40
0.2008404237
40
0.4012202259
40
0.6009506001
40
0.8006570674
40
1.0000000000
40
1.0000000000
40
1.0000000000
40
1.0000000000
10
21.9623228273
20
-25.4505563967
30
0.0000000000
10
21.8668801544
20
-25.4277166682
30
0.0000000000
10
21.6814289047
20
-25.3559514693
30
0.0000000000
10
21.4428236826
20
-25.1790853164
30
0.0000000000
10
21.2595685339
20
-24.9457999304
30
0.0000000000
10
21.1444751244
20
-24.6731927452
30
0.0000000000
10
21.1183047723
20
-24.4772159877
30
0.0000000000
10
21.1183015669
20
-24.3798102734
30
0.0000000000
11
21.9623228273
21
-25.4505563967
31
0.0000000000
11
21.6877680747
21
-25.3442629309
31
0.0000000000
11
21.4517508655
21
-25.1693991088
31
0.0000000000
11
21.2708771678
21
-24.9391648430
31
0.0000000000
11
21.1570613342
21
-24.6694454565
31
0.0000000000
11
21.1183015669
21
-24.3798102734
31
0.0000000000
0
SPLINE
5
36D
100
AcDbEntity
8
0
100
AcDbSpline
62
9
6
CONTINUOUS
70
0
71
3
72
14
73
10
74
8
42
0.0000001000
43
0.0000001000
44
0.0000000001
12
-1.5655625612
22
0.0007987929
32
0.0000000000
13
-0.0003699476
23
1.5655627213
33
0.0000000000
40
0.0000000000
40
0.0000000000
40
0.0000000000
40
0.0000000000
40
0.1444137743
40
0.2887672249
40
0.4323155140
40
0.5750532552
40
0.7172134422
40
0.8589385078
40
1.0000000000
40
1.0000000000
40
1.0000000000
40
1.0000000000
10
16.7056074440
20
-38.3231473122
30
0.0000000000
10
16.6302445112
20
-38.3231088600
30
0.0000000000
10
16.4790263533
20
-38.3065084276
30
0.0000000000
10
16.2639534673
20
-38.2326921459
30
0.0000000000
10
16.0711307487
20
-38.1136005113
30
0.0000000000
10
15.9105400018
20
-37.9553167133
30
0.0000000000
10
15.7900773506
20
-37.7657864552
30
0.0000000000
10
15.7156626937
20
-37.5549375468
30
0.0000000000
10
15.6989892907
20
-37.4068206059
30
0.0000000000
10
15.6989718955
20
-37.3332070680
30
0.0000000000
11
16.7056074440
21
-38.3231473122
31
0.0000000000
11
16.4808853509
21
-38.2983251664
31
0.0000000000
11
16.2671524039
21
-38.2248970354
31
0.0000000000
11
16.0760176874
21
-38.1066903251
31
0.0000000000
11
15.9169355228
21
-37.9497526838
31
0.0000000000
11
15.7975893696
21
-37.7618969976
31
0.0000000000
11
15.7237967847
21
-37.5526479581
31
0.0000000000
11
15.6989718955
21
-37.3332070680
31
0.0000000000
0
SPLINE
5
36E
100
AcDbEntity
8
0
100
AcDbSpline
62
9
6
CONTINUOUS
70
0
71
3
72
12
73
8
74
6
42
0.0000001000
43
0.0000001000
44
0.0000000001
12
0.0001774805
22
-1.4659015099
32
0.0000000000
13
-1.4255988523
23
-0.3413724954
33
0.0000000000
40
0.0000000000
40
0.0000000000
40
0.0000000000
40
0.0000000000
40
0.1994663875
40
0.3990437239
40
0.5987769341
40
0.7993025666
40
1.0000000000
40
1.0000000000
40
1.0000000000
40
1.0000000000
10
48.1339120952
20
-24.3798103614
30
0.0000000000
10
48.1339238957
20
-24.4772763876
30
0.0000000000
10
48.1077149158
20
-24.6732521496
30
0.0000000000
10
47.9926113899
20
-24.9458441198
30
0.0000000000
10
47.8093493282
20
-25.1791364325
30
0.0000000000
10
47.5707223743
20
-25.3559936114
30
0.0000000000
10
47.3852623660
20
-25.4277189119
30
0.0000000000
10
47.2898910224
20
-25.4505564398
30
0.0000000000
11
48.1339120952
21
-24.3798103614
31
0.0000000000
11
48.0951043175
21
-24.6696216690
31
0.0000000000
11
47.9813407957
21
-24.9391576342
31
0.0000000000
11
47.8004658909
21
-25.1693961934
31
0.0000000000
11
47.5642604728
21
-25.3443650212
31
0.0000000000
11
47.2898910224
21
-25.4505564398
31
0.0000000000
0
SPLINE
5
36F
100
AcDbEntity
8
0
100
AcDbSpline
62
9
6
CONTINUOUS
70
0
71
3
72
12
73
8
74
6
42
0.0000001000
43
0.0000001000
44
0.0000000001
12
1.4256490936
22
-0.3411625337
32
0.0000000000
13
0.0000482394
23
-1.4659015008
33
0.0000000000
40
0.0000000000
40
0.0000000000
40
0.0000000000
40
0.0000000000
40
0.2008404238
40
0.4012202258
40
0.6009506001
40
0.8006570673
40
1.0000000000
40
1.0000000000
40
1.0000000000
40
1.0000000000
10
47.2898910272
20
26.3766072424
30
0.0000000000
10
47.3853336832
20
26.3537674998
30
0.0000000000
10
47.5707848958
20
26.2820022807
30
0.0000000000
10
47.8093900630
20
26.1051361222
30
0.0000000000
10
47.9926451657
20
25.8718507517
30
0.0000000000
10
48.1077385448
20
25.5992435976
30
0.0000000000
10
48.1339088898
20
25.4032668666
30
0.0000000000
10
48.1339120952
20
25.3058611652
30
0.0000000000
11
47.2898910272
21
26.3766072424
31
0.0000000000
11
47.5644457259
21
26.2703137463
31
0.0000000000
11
47.8004628814
21
26.0954499180
31
0.0000000000
11
47.9813365344
21
25.8652156669
31
0.0000000000
11
48.0951523383
21
25.5954963104
31
0.0000000000
11
48.1339120952
21
25.3058611652
31
0.0000000000
0
SPLINE
5
370
100
AcDbEntity
8
0
100
AcDbSpline
62
9
6
CONTINUOUS
70
0
71
3
72
12
73
8
74
6
42
0.0000001000
43
0.0000001000
44
0.0000000001
12
-1.5559787876
22
0.3717072998
32
0.0000000000
13
-0.0001205130
23
1.5997613227
33
0.0000000000
40
0.0000000000
40
0.0000000000
40
0.0000000000
40
0.0000000000
40
0.2006108442
40
0.4014028068
40
0.6014713039
40
0.8014963833
40
1.0000000000
40
1.0000000000
40
1.0000000000
40
1.0000000000
10
21.9278045036
20
-25.5478286970
30
0.0000000000
10
21.8237557643
20
-25.5229725253
30
0.0000000000
10
21.6212466534
20
-25.4447357991
30
0.0000000000
10
21.3604819911
20
-25.2517248281
30
0.0000000000
10
21.1600712330
20
-24.9967197741
30
0.0000000000
10
21.0345872292
20
-24.6992482757
30
0.0000000000
10
21.0061526682
20
-24.4856630761
30
0.0000000000
10
21.0061446942
20
-24.3798102734
30
0.0000000000
11
21.9278045036
21
-25.5478286970
31
0.0000000000
11
21.6284523722
21
-25.4321393442
31
0.0000000000
11
21.3702279613
21
-25.2410845387
31
0.0000000000
11
21.1724518959
21
-24.9894415133
31
0.0000000000
11
21.0481509452
21
-24.6945781532
31
0.0000000000
11
21.0061446942
21
-24.3798102734
31
0.0000000000
0
SPLINE
5
371
100
AcDbEntity
8
0
100
AcDbSpline
62
9
6
CONTINUOUS
70
0
71
3
72
12
73
8
74
6
42
0.0000001000
43
0.0000001000
44
0.0000000001
12
-0.0001774805
22
1.4659017395
32
0.0000000000
13
1.4255991475
23
0.3413722486
33
0.0000000000
40
0.0000000000
40
0.0000000000
40
0.0000000000
40
0.0000000000
40
0.1994663874
40
0.3990437238
40
0.5987769340
40
0.7993025667
40
1.0000000000
40
1.0000000000
40
1.0000000000
40
1.0000000000
10
21.1183015669
20
25.3058610572
30
0.0000000000
10
21.1182897665
20
25.4033270986
30
0.0000000000
10
21.1444987547
20
25.5993028916
30
0.0000000000
10
21.2596023161
20
25.8718948981
30
0.0000000000
10
21.4428644316
20
26.1051872291
30
0.0000000000
10
21.6814914499
20
26.2820444014
30
0.0000000000
10
21.8669515017
20
26.3537696783
30
0.0000000000
10
21.9623228650
20
26.3766071896
30
0.0000000000
11
21.1183015669
21
25.3058610572
31
0.0000000000
11
21.1571093567
21
25.5956724092
31
0.0000000000
11
21.2708729133
21
25.8652084095
31
0.0000000000
11
21.4517478705
21
26.0954469858
31
0.0000000000
11
21.6879533516
21
26.2704158064
31
0.0000000000
11
21.9623228650
21
26.3766071896
31
0.0000000000
0
SPLINE
5
372
100
AcDbEntity
8
0
100
AcDbSpline
62
9
6
CONTINUOUS
70
0
71
3
72
12
73
8
74
6
42
0.0000001000
43
0.0000001000
44
0.0000000001
12
-0.8746519927
22
-0.2905439151
32
0.0000000000
13
0.0002946371
23
-0.9216462380
33
0.0000000000
40
0.0000000000
40
0.0000000000
40
0.0000000000
40
0.0000000000
40
0.0758041520
40
0.2253341100
40
0.4420353081
40
0.7080345508
40
1.0000000000
40
1.0000000000
40
1.0000000000
40
1.0000000000
10
16.8416819399
20
40.1479297840
30
0.0000000000
10
16.8195811891
20
40.1405883056
30
0.0000000000
10
16.7861840866
20
40.0676523205
30
0.0000000000
10
16.7545694735
20
39.9427991385
30
0.0000000000
10
16.7269506952
20
39.7468537399
30
0.0000000000
10
16.7095945358
20
39.5106687411
30
0.0000000000
10
16.7055788722
20
39.3388943997
30
0.0000000000
10
16.7056075469
20
39.2491981137
30
0.0000000000
11
16.8416819399
21
40.1479297840
31
0.0000000000
11
16.7990668011
21
40.0925672120
31
0.0000000000
11
16.7610730397
21
39.9600942020
31
0.0000000000
11
16.7311744815
21
39.7626229503
31
0.0000000000
11
16.7121047943
21
39.5182085347
31
0.0000000000
11
16.7056075469
21
39.2491981137
31
0.0000000000
0
SPLINE
5
373
100
AcDbEntity
8
0
100
AcDbSpline
62
9
6
CONTINUOUS
70
0
71
3
72
12
73
8
74
6
42
0.0000001000
43
0.0000001000
44
0.0000000001
12
0.8746354290
22
-0.2905259897
32
0.0000000000
13
-0.0002928463
23
-0.9216248687
33
0.0000000000
40
0.0000000000
40
0.0000000000
40
0.0000000000
40
0.0000000000
40
0.0758042097
40
0.2253336386
40
0.4420343044
40
0.7080335303
40
1.0000000000
40
1.0000000000
40
1.0000000000
40
1.0000000000
10
52.4105315263
20
40.1479079680
30
0.0000000000
10
52.4326318755
20
40.1405669370
30
0.0000000000
10
52.4660292364
20
40.0676332918
30
0.0000000000
10
52.4976435164
20
39.9427832977
30
0.0000000000
10
52.5252624329
20
39.7468429407
30
0.0000000000
10
52.5426187417
20
39.5106632883
30
0.0000000000
10
52.5466346633
20
39.3388926334
30
0.0000000000
10
52.5466061628
20
39.2491981137
30
0.0000000000
11
52.4105315263
21
40.1479079680
31
0.0000000000
11
52.4531464422
21
40.0925472014
31
0.0000000000
11
52.4911400512
21
39.9600779794
31
0.0000000000
11
52.5210386064
21
39.7626119071
31
0.0000000000
11
52.5401084933
21
39.5182032242
31
0.0000000000
11
52.5466061628
21
39.2491981137
31
0.0000000000
0
SPLINE
5
374
100
AcDbEntity
8
0
100
AcDbSpline
62
9
6
CONTINUOUS
70
0
71
3
72
12
73
8
74
6
42
0.0000001000
43
0.0000001000
44
0.0000000001
12
0.8746519927
22
0.2905439148
32
0.0000000000
13
-0.0002946371
23
0.9216462380
33
0.0000000000
40
0.0000000000
40
0.0000000000
40
0.0000000000
40
0.0000000000
40
0.0758041520
40
0.2253341100
40
0.4420353081
40
0.7080345508
40
1.0000000000
40
1.0000000000
40
1.0000000000
40
1.0000000000
10
52.4105317222
20
-39.2218789825
30
0.0000000000
10
52.4326324731
20
-39.2145375041
30
0.0000000000
10
52.4660295756
20
-39.1416015191
30
0.0000000000
10
52.4976441886
20
-39.0167483370
30
0.0000000000
10
52.5252629670
20
-38.8208029384
30
0.0000000000
10
52.5426191263
20
-38.5846179396
30
0.0000000000
10
52.5466347899
20
-38.4128435982
30
0.0000000000
10
52.5466061153
20
-38.3231473122
30
0.0000000000
11
52.4105317222
21
-39.2218789825
31
0.0000000000
11
52.4531468611
21
-39.1665164105
31
0.0000000000
11
52.4911406224
21
-39.0340434006
31
0.0000000000
11
52.5210391807
21
-38.8365721488
31
0.0000000000
11
52.5401088679
21
-38.5921577333
31
0.0000000000
11
52.5466061153
21
-38.3231473122
31
0.0000000000
0
SPLINE
5
375
100
AcDbEntity
8
0
100
AcDbSpline
62
9
6
CONTINUOUS
70
0
71
3
72
12
73
8
74
6
42
0.0000001000
43
0.0000001000
44
0.0000000001
12
-0.8746354290
22
0.2905259897
32
0.0000000000
13
0.0002928463
23
0.9216248687
33
0.0000000000
40
0.0000000000
40
0.0000000000
40
0.0000000000
40
0.0000000000
40
0.0758042097
40
0.2253336386
40
0.4420343044
40
0.7080335303
40
1.0000000000
40
1.0000000000
40
1.0000000000
40
1.0000000000
10
16.8416821358
20
-39.2218571665
30
0.0000000000
10
16.8195817867
20
-39.2145161355
30
0.0000000000
10
16.7861844257
20
-39.1415824904
30
0.0000000000
10
16.7545701458
20
-39.0167324962
30
0.0000000000
10
16.7269512292
20
-38.8207921392
30
0.0000000000
10
16.7095949204
20
-38.5846124868
30
0.0000000000
10
16.7055789989
20
-38.4128418320
30
0.0000000000
10
16.7056074993
20
-38.3231473122
30
0.0000000000
11
16.8416821358
21
-39.2218571665
31
0.0000000000
11
16.7990672199
21
-39.1664964000
31
0.0000000000
11
16.7610736109
21
-39.0340271779
31
0.0000000000
11
16.7311750558
21
-38.8365611056
31
0.0000000000
11
16.7121051688
21
-38.5921524227
31
0.0000000000
11
16.7056074993
21
-38.3231473122
31
0.0000000000
0
SPLINE
5
376
100
AcDbEntity
8
0
100
AcDbSpline
62
9
6
CONTINUOUS
70
0
71
3
72
14
73
10
74
8
42
0.0000001000
43
0.0000001000
44
0.0000000001
12
-0.0041633830
22
-2.9589319830
32
0.0000000000
13
-2.9588871637
23
-0.0168097111
33
0.0000000000
40
0.0000000000
40
0.0000000000
40
0.0000000000
40
0.0000000000
40
0.1422909433
40
0.2844869354
40
0.4269068472
40
0.5695328822
40
0.7125939680
40
0.8560589745
40
1.0000000000
40
1.0000000000
40
1.0000000000
40
1.0000000000
10
54.2999152993
20
-37.3332070680
30
0.0000000000
10
54.2997178287
20
-37.4735501424
30
0.0000000000
10
54.2678801664
20
-37.7551123863
30
0.0000000000
10
54.1276970877
20
-38.1557233760
30
0.0000000000
10
53.9018804171
20
-38.5157304869
30
0.0000000000
10
53.6012152198
20
-38.8171867432
30
0.0000000000
10
53.2402595488
20
-39.0450381139
30
0.0000000000
10
52.8368074942
20
-39.1877547109
30
0.0000000000
10
52.5525001400
20
-39.2210724732
30
0.0000000000
10
52.4105317225
20
-39.2218790089
30
0.0000000000
11
54.2999152993
21
-37.3332070680
31
0.0000000000
11
54.2524644877
21
-37.7515542661
31
0.0000000000
11
54.1135497047
21
-38.1487093230
31
0.0000000000
11
53.8896243017
21
-38.5057035174
31
0.0000000000
11
53.5916392183
21
-38.8045458586
31
0.0000000000
11
53.2337311599
21
-39.0305809400
31
0.0000000000
11
52.8335314445
21
-39.1721560378
31
0.0000000000
11
52.4105317225
21
-39.2218790089
31
0.0000000000
0
SPLINE
5
377
100
AcDbEntity
8
0
100
AcDbSpline
62
9
6
CONTINUOUS
70
0
71
3
72
14
73
10
74
8
42
0.0000001000
43
0.0000001000
44
0.0000000001
12
-2.9588871645
22
0.0168095605
32
0.0000000000
13
-0.0041633776
23
2.9589319829
33
0.0000000000
40
0.0000000000
40
0.0000000000
40
0.0000000000
40
0.0000000000
40
0.1439409578
40
0.2874059890
40
0.4304670801
40
0.5730931234
40
0.7155130436
40
0.8577090421
40
1.0000000000
40
1.0000000000
40
1.0000000000
40
1.0000000000
10
16.8416819397
20
-39.2218790089
30
0.0000000000
10
16.6997135889
20
-39.2210724808
30
0.0000000000
10
16.4154062788
20
-39.1877547272
30
0.0000000000
10
16.0119542447
20
-39.0450381831
30
0.0000000000
10
15.6509985277
20
-38.8171868127
30
0.0000000000
10
15.3503332984
20
-38.5157305572
30
0.0000000000
10
15.1245166011
20
-38.1557234352
30
0.0000000000
10
14.9843335015
20
-37.7551124217
30
0.0000000000
10
14.9524958332
20
-37.4735501568
30
0.0000000000
10
14.9522983629
20
-37.3332070680
30
0.0000000000
11
16.8416819397
21
-39.2218790089
31
0.0000000000
11
16.4186824141
21
-39.1721560830
31
0.0000000000
11
16.0184826175
21
-39.0305809962
31
0.0000000000
11
15.6605745314
21
-38.8045459285
31
0.0000000000
11
15.3625894149
21
-38.5057035859
31
0.0000000000
11
15.1386639846
21
-38.1487093794
31
0.0000000000
11
14.9997491842
21
-37.7515543084
31
0.0000000000
11
14.9522983629
21
-37.3332070680
31
0.0000000000
0
SPLINE
5
378
100
AcDbEntity
8
0
100
AcDbSpline
62
9
6
CONTINUOUS
70
0
71
3
72
14
73
10
74
8
42
0.0000001000
43
0.0000001000
44
0.0000000001
12
0.0041633830
22
2.9589319830
32
0.0000000000
13
2.9588871637
23
0.0168097111
33
0.0000000000
40
0.0000000000
40
0.0000000000
40
0.0000000000
40
0.0000000000
40
0.1422909433
40
0.2844869354
40
0.4269068472
40
0.5695328822
40
0.7125939680
40
0.8560589745
40
1.0000000000
40
1.0000000000
40
1.0000000000
40
1.0000000000
10
14.9522983629
20
38.2592578695
30
0.0000000000
10
14.9524958334
20
38.3996009439
30
0.0000000000
10
14.9843334957
20
38.6811631878
30
0.0000000000
10
15.1245165744
20
39.0817741774
30
0.0000000000
10
15.3503332451
20
39.4417812884
30
0.0000000000
10
15.6509984423
20
39.7432375447
30
0.0000000000
10
16.0119541133
20
39.9710889154
30
0.0000000000
10
16.4154061679
20
40.1138055123
30
0.0000000000
10
16.6997135222
20
40.1471232747
30
0.0000000000
10
16.8416819397
20
40.1479298104
30
0.0000000000
11
14.9522983629
21
38.2592578695
31
0.0000000000
11
14.9997491745
21
38.6776050675
31
0.0000000000
11
15.1386639575
21
39.0747601245
31
0.0000000000
11
15.3625893604
21
39.4317543189
31
0.0000000000
11
15.6605744439
21
39.7305966601
31
0.0000000000
11
16.0184825023
21
39.9566317415
31
0.0000000000
11
16.4186822177
21
40.0982068393
31
0.0000000000
11
16.8416819397
21
40.1479298104
31
0.0000000000
0
SPLINE
5
379
100
AcDbEntity
8
0
100
AcDbSpline
62
9
6
CONTINUOUS
70
0
71
3
72
14
73
10
74
8
42
0.0000001000
43
0.0000001000
44
0.0000000001
12
2.9588871645
22
-0.0168095605
32
0.0000000000
13
0.0041633776
23
-2.9589319829
33
0.0000000000
40
0.0000000000
40
0.0000000000
40
0.0000000000
40
0.0000000000
40
0.1439409578
40
0.2874059890
40
0.4304670801
40
0.5730931234
40
0.7155130436
40
0.8577090421
40
1.0000000000
40
1.0000000000
40
1.0000000000
40
1.0000000000
10
52.4105317225
20
40.1479298104
30
0.0000000000
10
52.5525000733
20
40.1471232823
30
0.0000000000
10
52.8368073834
20
40.1138055287
30
0.0000000000
10
53.2402594174
20
39.9710889846
30
0.0000000000
10
53.6012151345
20
39.7432376142
30
0.0000000000
10
53.9018803637
20
39.4417813586
30
0.0000000000
10
54.1276970611
20
39.0817742367
30
0.0000000000
10
54.2678801606
20
38.6811632232
30
0.0000000000
10
54.2997178290
20
38.3996009582
30
0.0000000000
10
54.2999152993
20
38.2592578695
30
0.0000000000
11
52.4105317225
21
40.1479298104
31
0.0000000000
11
52.8335312481
21
40.0982068845
31
0.0000000000
11
53.2337310446
21
39.9566317977
31
0.0000000000
11
53.5916391308
21
39.7305967300
31
0.0000000000
11
53.8896242473
21
39.4317543873
31
0.0000000000
11
54.1135496775
21
39.0747601809
31
0.0000000000
11
54.2524644780
21
38.6776051098
31
0.0000000000
11
54.2999152993
21
38.2592578695
31
0.0000000000
0
SPLINE
5
37A
100
AcDbEntity
8
0
100
AcDbSpline
62
9
6
CONTINUOUS
70
0
71
3
72
16
73
12
74
10
42
0.0000001000
43
0.0000001000
44
0.0000000001
12
-24.9256367039
22
-5.9600014213
32
0.0000000000
13
-24.9256370353
23
5.9600000353
33
0.0000000000
40
0.0000000000
40
0.0000000000
40
0.0000000000
40
0.0000000000
40
0.1260799742
40
0.2401044461
40
0.3435752185
40
0.4443111450
40
0.5462346656
40
0.6481051191
40
0.7540762401
40
0.8707954567
40
1.0000000000
40
1.0000000000
40
1.0000000000
40
1.0000000000
10
47.3244093633
20
-25.5478287360
30
0.0000000000
10
46.2768681528
20
-25.7983076777
30
0.0000000000
10
44.2673101804
20
-26.2164428038
30
0.0000000000
10
41.3633111971
20
-26.6514525916
30
0.0000000000
10
38.6566242334
20
-26.9166280490
30
0.0000000000
10
36.0437281621
20
-27.0472683038
30
0.0000000000
10
33.4411970499
20
-27.0530899900
30
0.0000000000
10
30.7967262161
20
-26.9319013218
30
0.0000000000
10
28.0352686926
20
-26.6705820843
30
0.0000000000
10
25.0599558097
20
-26.2312915125
30
0.0000000000
10
23.0013063538
20
-25.8045150580
30
0.0000000000
10
21.9278045036
20
-25.5478286970
30
0.0000000000
11
47.3244093633
21
-25.5478287360
31
0.0000000000
11
44.1609310781
21
-26.2059668144
31
0.0000000000
11
41.2709329824
21
-26.6389398605
31
0.0000000000
11
38.6317991701
21
-26.8975931766
31
0.0000000000
11
36.0533229222
21
-27.0263503052
31
0.0000000000
11
33.4412043972
21
-27.0321736757
31
0.0000000000
11
30.8331681673
21
-26.9128384904
31
0.0000000000
11
28.1293979930
21
-26.6568855855
31
0.0000000000
11
25.1701757315
21
-26.2198970056
31
0.0000000000
11
21.9278045036
21
-25.5478286970
31
0.0000000000
0
SPLINE
5
37B
100
AcDbEntity
8
0
100
AcDbSpline
62
9
6
CONTINUOUS
70
0
71
3
72
12
73
8
74
6
42
0.0000001000
43
0.0000001000
44
0.0000000001
12
0.0003666894
22
-1.5997610597
32
0.0000000000
13
-1.5558699629
23
-0.3721615796
33
0.0000000000
40
0.0000000000
40
0.0000000000
40
0.0000000000
40
0.0000000000
40
0.1990833090
40
0.3989729281
40
0.5990428126
40
0.7999833639
40
1.0000000000
40
1.0000000000
40
1.0000000000
40
1.0000000000
10
48.2460689680
20
-24.3798103614
30
0.0000000000
10
48.2460933019
20
-24.4859722699
30
0.0000000000
10
48.2174907826
20
-24.6998027735
30
0.0000000000
10
48.0917361028
20
-24.9974051489
30
0.0000000000
10
47.8911562334
20
-25.2522872531
30
0.0000000000
10
47.6304514280
20
-25.4450011530
30
0.0000000000
10
47.4281426554
20
-25.5230159003
30
0.0000000000
10
47.3244093633
20
-25.5478287360
30
0.0000000000
11
48.2460689680
21
-24.3798103614
31
0.0000000000
11
48.2038161904
21
-24.6954808627
31
0.0000000000
11
48.0793990595
21
-24.9900599450
31
0.0000000000
11
47.8814684360
21
-25.2415841874
31
0.0000000000
11
47.6229210767
21
-25.4326019541
31
0.0000000000
11
47.3244093633
21
-25.5478287360
31
0.0000000000
0
SPLINE
5
37C
100
AcDbEntity
8
0
100
AcDbSpline
62
9
6
CONTINUOUS
70
0
71
3
72
15
73
11
74
9
42
0.0000001000
43
0.0000001000
44
0.0000000001
12
24.8562971918
22
5.9488054138
32
0.0000000000
13
24.8562949030
23
-5.9488149773
33
0.0000000000
40
0.0000000000
40
0.0000000000
40
0.0000000000
40
0.0000000000
40
0.1417685192
40
0.2682996495
40
0.3836118232
40
0.4980512372
40
0.6121339851
40
0.7283233373
40
0.8564221189
40
1.0000000000
40
1.0000000000
40
1.0000000000
40
1.0000000000
10
21.9623228650
20
26.3766071896
30
0.0000000000
10
23.1369363465
20
26.6577249677
30
0.0000000000
10
25.3783804896
20
27.1159366929
30
0.0000000000
10
28.6170239431
20
27.5673303525
30
0.0000000000
10
31.6436753335
20
27.8154264267
30
0.0000000000
10
34.5732133204
20
27.8974426145
30
0.0000000000
10
37.5103650414
20
27.8208651041
30
0.0000000000
10
40.5552208212
20
27.5767404303
30
0.0000000000
10
43.8303806069
20
27.1243404743
30
0.0000000000
10
46.1002863090
20
26.6613133256
30
0.0000000000
10
47.2898910272
20
26.3766072424
30
0.0000000000
11
21.9623228650
21
26.3766071896
31
0.0000000000
11
25.5122879731
21
27.1021718369
31
0.0000000000
11
28.7152209327
21
27.5487324102
31
0.0000000000
11
31.6525432434
21
27.7895382484
31
0.0000000000
11
34.5762754627
21
27.8711263702
31
0.0000000000
11
37.4910462225
21
27.7953873820
31
0.0000000000
11
40.4511417540
21
27.5580412309
31
0.0000000000
11
43.6943062248
21
27.1099028046
31
0.0000000000
11
47.2898910272
21
26.3766072424
31
0.0000000000
0
SPLINE
5
37D
100
AcDbEntity
8
0
100
AcDbSpline
62
9
6
CONTINUOUS
70
0
71
3
72
12
73
8
74
6
42
0.0000001000
43
0.0000001000
44
0.0000000001
12
1.5559785125
22
-0.3717075298
32
0.0000000000
13
0.0001205128
23
-1.5997611086
33
0.0000000000
40
0.0000000000
40
0.0000000000
40
0.0000000000
40
0.0000000000
40
0.2006108444
40
0.4014028068
40
0.6014713037
40
0.8014963831
40
1.0000000000
40
1.0000000000
40
1.0000000000
40
1.0000000000
10
47.3244093686
20
26.4738795385
30
0.0000000000
10
47.4284580897
20
26.4490233514
30
0.0000000000
10
47.6309671600
20
26.3707866032
30
0.0000000000
10
47.8917317622
20
26.1777756259
30
0.0000000000
10
48.0921424699
20
25.9227705891
30
0.0000000000
10
48.2176264406
20
25.6252991248
30
0.0000000000
10
48.2460609939
20
25.4117139540
30
0.0000000000
10
48.2460689680
20
25.3058611652
30
0.0000000000
11
47.3244093686
21
26.4738795385
31
0.0000000000
11
47.6237614416
21
26.3581901526
31
0.0000000000
11
47.8819857936
21
26.1671353404
31
0.0000000000
11
48.0797618098
21
25.9154923312
31
0.0000000000
11
48.2040627281
21
25.6206290041
31
0.0000000000
11
48.2460689680
21
25.3058611652
31
0.0000000000
0
SPLINE
5
37E
100
AcDbEntity
8
0
100
AcDbSpline
62
9
6
CONTINUOUS
70
0
71
3
72
15
73
11
74
9
42
0.0000001000
43
0.0000001000
44
0.0000000001
12
24.9248826914
22
5.9597608109
32
0.0000000000
13
24.9248793185
23
-5.9597749169
33
0.0000000000
40
0.0000000000
40
0.0000000000
40
0.0000000000
40
0.0000000000
40
0.1417626409
40
0.2682954581
40
0.3836093052
40
0.4980519072
40
0.6121379139
40
0.7283291024
40
0.8564299888
40
1.0000000000
40
1.0000000000
40
1.0000000000
40
1.0000000000
10
21.9278045448
20
26.4738794907
30
0.0000000000
10
23.1056102766
20
26.7555033014
30
0.0000000000
10
25.3531693603
20
27.2145556734
30
0.0000000000
10
28.6006194165
20
27.6667713476
30
0.0000000000
10
31.6355431133
20
27.9153217372
30
0.0000000000
10
34.5730878908
20
27.9974872467
30
0.0000000000
10
37.5182680663
20
27.9207677520
30
0.0000000000
10
40.5714502515
20
27.6761948088
30
0.0000000000
10
43.8555025857
20
27.2229683943
30
0.0000000000
10
46.1315876339
20
26.7590945225
30
0.0000000000
10
47.3244093686
20
26.4738795385
30
0.0000000000
11
21.9278045448
21
26.4738794907
31
0.0000000000
11
25.4873690660
21
27.2007530921
31
0.0000000000
11
28.6990779985
21
27.6481383401
31
0.0000000000
11
31.6444196013
21
27.8893851452
31
0.0000000000
11
34.5761576650
21
27.9711225473
31
0.0000000000
11
37.4989114697
21
27.8952427149
31
0.0000000000
11
40.4670914093
21
27.6574600716
31
0.0000000000
11
43.7191507410
21
27.2084894538
31
0.0000000000
11
47.3244093686
21
26.4738795385
31
0.0000000000
0
SPLINE
5
37F
100
AcDbEntity
8
0
100
AcDbSpline
62
9
6
CONTINUOUS
70
0
71
3
72
12
73
8
74
6
42
0.0000001000
43
0.0000001000
44
0.0000000001
12
-0.0003666895
22
1.5997613104
32
0.0000000000
13
1.5558702850
23
0.3721613105
33
0.0000000000
40
0.0000000000
40
0.0000000000
40
0.0000000000
40
0.0000000000
40
0.1990833086
40
0.3989729279
40
0.5990428126
40
0.7999833641
40
1.0000000000
40
1.0000000000
40
1.0000000000
40
1.0000000000
10
21.0061446942
20
25.3058610572
30
0.0000000000
10
21.0061203602
20
25.4120229821
30
0.0000000000
10
21.0347228885
20
25.6258535194
30
0.0000000000
10
21.1604776072
20
25.9234559346
30
0.0000000000
10
21.3610575356
20
26.1783380590
30
0.0000000000
10
21.6217624113
20
26.3710519516
30
0.0000000000
10
21.8240712313
20
26.4490666730
30
0.0000000000
10
21.9278045448
20
26.4738794907
30
0.0000000000
11
21.0061446942
21
25.3058610572
31
0.0000000000
11
21.0483974848
21
25.6215316065
31
0.0000000000
11
21.1728146537
21
25.9161107274
31
0.0000000000
11
21.3707453348
21
26.1676349886
31
0.0000000000
11
21.6292927631
21
26.3586527475
31
0.0000000000
11
21.9278045448
21
26.4738794907
31
0.0000000000
0
SPLINE
5
380
100
AcDbEntity
8
0
100
AcDbSpline
62
9
6
CONTINUOUS
70
0
71
3
72
16
73
12
74
10
42
0.0000001000
43
0.0000001000
44
0.0000000001
12
-24.8570566186
22
-5.9490199248
32
0.0000000000
13
-24.8570573324
23
5.9490169424
33
0.0000000000
40
0.0000000000
40
0.0000000000
40
0.0000000000
40
0.0000000000
40
0.1260852745
40
0.2401086306
40
0.3435782215
40
0.4443122663
40
0.5462325702
40
0.6481009460
40
0.7540706860
40
0.8707884200
40
1.0000000000
40
1.0000000000
40
1.0000000000
40
1.0000000000
10
47.2898910224
20
-25.4505564398
30
0.0000000000
10
46.2451880866
20
-25.7005843765
30
0.0000000000
10
44.2410974221
20
-26.1179552732
30
0.0000000000
10
41.3449752589
20
-26.5521742416
30
0.0000000000
10
38.6456589669
20
-26.8168652510
30
0.0000000000
10
36.0398811383
20
-26.9472673338
30
0.0000000000
10
33.4444419729
20
-26.9530801072
30
0.0000000000
10
30.8071771149
20
-26.8321124208
30
0.0000000000
10
28.0532433644
20
-26.5712729800
30
0.0000000000
10
25.0859892945
20
-26.1327823148
30
0.0000000000
10
23.0329293784
20
-25.7067836897
30
0.0000000000
10
21.9623228273
20
-25.4505563967
30
0.0000000000
11
47.2898910224
21
-25.4505564398
31
0.0000000000
11
44.1349462075
21
-26.1075092187
31
0.0000000000
11
41.2528422564
21
-26.5396853238
31
0.0000000000
11
38.6208924695
21
-26.7978659024
31
0.0000000000
11
36.0494376144
21
-26.9263881426
31
0.0000000000
11
33.4444598236
21
-26.9322019500
31
0.0000000000
11
30.8435289743
21
-26.8130854703
31
0.0000000000
11
28.1471214262
21
-26.5576023816
31
0.0000000000
11
25.1959890041
21
-26.1214217882
31
0.0000000000
11
21.9623228273
21
-25.4505563967
31
0.0000000000
0
SPLINE
5
381
100
AcDbEntity
8
0
100
AcDbSpline
62
9
6
CONTINUOUS
70
0
71
3
72
10
73
6
74
4
42
0.0000001000
43
0.0000001000
44
0.0000000001
12
-0.2261981304
22
0.2241749753
32
0.0000000000
13
-0.2261849365
23
0.2241882875
33
0.0000000000
40
0.0000000000
40
0.0000000000
40
0.0000000000
40
0.0000000000
40
0.3333473698
40
0.6666810613
40
1.0000000000
40
1.0000000000
40
1.0000000000
40
1.0000000000
10
54.5261068311
20
-37.5573887012
30
0.0000000000
10
54.5009726471
20
-37.5324793217
30
0.0000000000
10
54.4507057995
20
-37.4826610915
30
0.0000000000
10
54.3753086228
20
-37.4079338799
30
0.0000000000
10
54.3250458736
20
-37.3581158020
30
0.0000000000
10
54.2999152993
20
-37.3332070680
30
0.0000000000
11
54.5261068311
21
-37.5573887012
31
0.0000000000
11
54.4507050127
21
-37.4826598228
31
0.0000000000
11
54.3753077547
21
-37.4079325311
31
0.0000000000
11
54.2999152993
21
-37.3332070680
31
0.0000000000
0
SPLINE
5
382
100
AcDbEntity
8
0
100
AcDbSpline
62
9
6
CONTINUOUS
70
0
71
3
72
10
73
6
74
4
42
0.0000001000
43
0.0000001000
44
0.0000000001
12
0.2261849365
22
0.2241882875
32
0.0000000000
13
0.2261981304
23
0.2241749753
33
0.0000000000
40
0.0000000000
40
0.0000000000
40
0.0000000000
40
0.0000000000
40
0.3333189387
40
0.6666526301
40
1.0000000000
40
1.0000000000
40
1.0000000000
40
1.0000000000
10
54.2999152993
20
38.2592578695
30
0.0000000000
10
54.3250458736
20
38.2841666035
30
0.0000000000
10
54.3753086228
20
38.3339846814
30
0.0000000000
10
54.4507057996
20
38.4087118930
30
0.0000000000
10
54.5009726471
20
38.4585301233
30
0.0000000000
10
54.5261068311
20
38.4834395027
30
0.0000000000
11
54.2999152993
21
38.2592578695
31
0.0000000000
11
54.3753077548
21
38.3339833326
31
0.0000000000
11
54.4507050127
21
38.4087106243
31
0.0000000000
11
54.5261068311
21
38.4834395027
31
0.0000000000
0
SPLINE
5
383
100
AcDbEntity
8
0
100
AcDbSpline
62
9
6
CONTINUOUS
70
0
71
3
72
10
73
6
74
4
42
0.0000001000
43
0.0000001000
44
0.0000000001
12
0.2261981304
22
-0.2241749753
32
0.0000000000
13
0.2261849365
23
-0.2241882875
33
0.0000000000
40
0.0000000000
40
0.0000000000
40
0.0000000000
40
0.0000000000
40
0.3333473698
40
0.6666810613
40
1.0000000000
40
1.0000000000
40
1.0000000000
40
1.0000000000
10
14.7261068311
20
38.4834395027
30
0.0000000000
10
14.7512410150
20
38.4585301232
30
0.0000000000
10
14.8015078626
20
38.4087118930
30
0.0000000000
10
14.8769050393
20
38.3339846814
30
0.0000000000
10
14.9271677885
20
38.2841666035
30
0.0000000000
10
14.9522983629
20
38.2592578695
30
0.0000000000
11
14.7261068311
21
38.4834395027
31
0.0000000000
11
14.8015086495
21
38.4087106243
31
0.0000000000
11
14.8769059074
21
38.3339833325
31
0.0000000000
11
14.9522983629
21
38.2592578695
31
0.0000000000
0
SPLINE
5
384
100
AcDbEntity
8
0
100
AcDbSpline
62
9
6
CONTINUOUS
70
0
71
3
72
10
73
6
74
4
42
0.0000001000
43
0.0000001000
44
0.0000000001
12
-0.2261849365
22
-0.2241882875
32
0.0000000000
13
-0.2261981304
23
-0.2241749753
33
0.0000000000
40
0.0000000000
40
0.0000000000
40
0.0000000000
40
0.0000000000
40
0.3333189387
40
0.6666526301
40
1.0000000000
40
1.0000000000
40
1.0000000000
40
1.0000000000
10
14.9522983629
20
-37.3332070680
30
0.0000000000
10
14.9271677885
20
-37.3581158021
30
0.0000000000
10
14.8769050393
20
-37.4079338800
30
0.0000000000
10
14.8015078626
20
-37.4826610915
30
0.0000000000
10
14.7512410150
20
-37.5324793218
30
0.0000000000
10
14.7261068311
20
-37.5573887013
30
0.0000000000
11
14.9522983629
21
-37.3332070680
31
0.0000000000
11
14.8769059074
21
-37.4079325311
31
0.0000000000
11
14.8015086495
21
-37.4826598228
31
0.0000000000
11
14.7261068311
21
-37.5573887013
31
0.0000000000
0
SPLINE
5
385
100
AcDbEntity
8
0
100
AcDbSpline
62
9
6
CONTINUOUS
70
0
71
3
72
10
73
6
74
4
42
0.0000001000
43
0.0000001000
44
0.0000000001
12
-0.2172208723
22
-0.2150921510
32
0.0000000000
13
-0.2172331752
23
-0.2150797256
33
0.0000000000
40
0.0000000000
40
0.0000000000
40
0.0000000000
40
0.0000000000
40
0.3333200806
40
0.6666534342
40
1.0000000000
40
1.0000000000
40
1.0000000000
40
1.0000000000
10
16.8416819397
20
-39.2218790089
30
0.0000000000
10
16.8175472468
20
-39.2457771866
30
0.0000000000
10
16.7692764444
20
-39.2935740335
30
0.0000000000
10
16.6968674390
20
-39.3652693489
30
0.0000000000
10
16.6485928927
20
-39.4130662504
30
0.0000000000
10
16.6244549150
20
-39.4369649464
30
0.0000000000
11
16.8416819397
21
-39.2218790089
31
0.0000000000
11
16.7692771780
21
-39.2935728522
31
0.0000000000
11
16.6968681666
21
-39.3652681703
31
0.0000000000
11
16.6244549150
21
-39.4369649464
31
0.0000000000
0
SPLINE
5
386
100
AcDbEntity
8
0
100
AcDbSpline
62
9
6
CONTINUOUS
70
0
71
3
72
14
73
10
74
8
42
0.0000001000
43
0.0000001000
44
0.0000000001
12
0.0003699722
22
1.5655627220
32
0.0000000000
13
1.5655625618
23
0.0007989110
33
0.0000000000
40
0.0000000000
40
0.0000000000
40
0.0000000000
40
0.0000000000
40
0.1410614922
40
0.2827865578
40
0.4249467447
40
0.5676844859
40
0.7112327749
40
0.8555862255
40
1.0000000000
40
1.0000000000
40
1.0000000000
40
1.0000000000
10
15.6989718955
20
38.2592578695
30
0.0000000000
10
15.6989892918
20
38.3328714074
30
0.0000000000
10
15.7156626918
20
38.4809883486
30
0.0000000000
10
15.7900773512
20
38.6918372565
30
0.0000000000
10
15.9105400017
20
38.8813675144
30
0.0000000000
10
16.0711307479
20
39.0396513144
30
0.0000000000
10
16.2639534692
20
39.1587429423
30
0.0000000000
10
16.4790263516
20
39.2325592391
30
0.0000000000
10
16.6302445111
20
39.2491596558
30
0.0000000000
10
16.7056074440
20
39.2491981137
30
0.0000000000
11
15.6989718955
21
38.2592578695
31
0.0000000000
11
15.7237967840
21
38.4786987598
31
0.0000000000
11
15.7975893698
21
38.6879477990
31
0.0000000000
11
15.9169355228
21
38.8758034853
31
0.0000000000
11
16.0760176872
21
39.0327411268
31
0.0000000000
11
16.2671524046
21
39.1509478353
31
0.0000000000
11
16.4808853501
21
39.2243759714
31
0.0000000000
11
16.7056074440
21
39.2491981137
31
0.0000000000
0
SPLINE
5
387
100
AcDbEntity
8
0
100
AcDbSpline
62
9
6
CONTINUOUS
70
0
71
3
72
10
73
6
74
4
42
0.0000001000
43
0.0000001000
44
0.0000000001
12
-0.2172331774
22
0.2150797278
32
0.0000000000
13
-0.2172208745
23
0.2150921532
33
0.0000000000
40
0.0000000000
40
0.0000000000
40
0.0000000000
40
0.0000000000
40
0.3333465718
40
0.6666799208
40
1.0000000000
40
1.0000000000
40
1.0000000000
40
1.0000000000
10
52.6277587515
20
-39.4369649464
30
0.0000000000
10
52.6036207732
20
-39.4130662497
30
0.0000000000
10
52.5553462231
20
-39.3652693509
30
0.0000000000
10
52.4829372183
20
-39.2935740334
30
0.0000000000
10
52.4346664155
20
-39.2457771867
30
0.0000000000
10
52.4105317225
20
-39.2218790089
30
0.0000000000
11
52.6277587515
21
-39.4369649464
31
0.0000000000
11
52.5553454958
21
-39.3652681705
31
0.0000000000
11
52.4829364846
21
-39.2935728526
31
0.0000000000
11
52.4105317225
21
-39.2218790089
31
0.0000000000
0
SPLINE
5
388
100
AcDbEntity
8
0
100
AcDbSpline
62
9
6
CONTINUOUS
70
0
71
3
72
12
73
8
74
6
42
0.0000001000
43
0.0000001000
44
0.0000000001
12
-35.5688483664
22
-0.0118126346
32
0.0000000000
13
-35.5688483664
23
0.0118125948
33
0.0000000000
40
0.0000000000
40
0.0000000000
40
0.0000000000
40
0.0000000000
40
0.1990483761
40
0.3995215248
40
0.6004731020
40
0.8009480704
40
1.0000000000
40
1.0000000000
40
1.0000000000
40
1.0000000000
10
52.4105317225
20
-39.2218790089
30
0.0000000000
10
50.0505578862
20
-39.2226627708
30
0.0000000000
10
45.3137175662
20
-39.2238220624
30
0.0000000000
10
38.1943382999
20
-39.2246234324
30
0.0000000000
10
31.0580449051
20
-39.2246234406
30
0.0000000000
10
23.9386019325
20
-39.2238220878
30
0.0000000000
10
19.2016979062
20
-39.2226627821
30
0.0000000000
10
16.8416819397
20
-39.2218790089
30
0.0000000000
11
52.4105317225
21
-39.2218790089
31
0.0000000000
11
45.3306100479
21
-39.2236625165
31
0.0000000000
11
38.2000106763
21
-39.2244891826
31
0.0000000000
11
31.0523941047
21
-39.2244891927
31
0.0000000000
11
23.9217300051
21
-39.2236625398
31
0.0000000000
11
16.8416819397
21
-39.2218790089
31
0.0000000000
0
SPLINE
5
389
100
AcDbEntity
8
0
100
AcDbSpline
62
9
6
CONTINUOUS
70
0
71
3
72
10
73
6
74
4
42
0.0000001000
43
0.0000001000
44
0.0000000001
12
0.2172208723
22
0.2150921510
32
0.0000000000
13
0.2172331752
23
0.2150797256
33
0.0000000000
40
0.0000000000
40
0.0000000000
40
0.0000000000
40
0.0000000000
40
0.3333200806
40
0.6666534342
40
1.0000000000
40
1.0000000000
40
1.0000000000
40
1.0000000000
10
52.4105317225
20
40.1479298104
30
0.0000000000
10
52.4346664153
20
40.1718279881
30
0.0000000000
10
52.4829372178
20
40.2196248350
30
0.0000000000
10
52.5553462231
20
40.2913201504
30
0.0000000000
10
52.6036207695
20
40.3391170519
30
0.0000000000
10
52.6277587471
20
40.3630157479
30
0.0000000000
11
52.4105317225
21
40.1479298104
31
0.0000000000
11
52.4829364841
21
40.2196236537
31
0.0000000000
11
52.5553454956
21
40.2913189717
31
0.0000000000
11
52.6277587471
21
40.3630157479
31
0.0000000000
0
SPLINE
5
38A
100
AcDbEntity
8
0
100
AcDbSpline
62
9
6
CONTINUOUS
70
0
71
3
72
10
73
6
74
4
42
0.0000001000
43
0.0000001000
44
0.0000000001
12
0.2172331774
22
-0.2150797278
32
0.0000000000
13
0.2172208745
23
-0.2150921532
33
0.0000000000
40
0.0000000000
40
0.0000000000
40
0.0000000000
40
0.0000000000
40
0.3333465718
40
0.6666799208
40
1.0000000000
40
1.0000000000
40
1.0000000000
40
1.0000000000
10
16.6244549106
20
40.3630157479
30
0.0000000000
10
16.6485928889
20
40.3391170512
30
0.0000000000
10
16.6968674391
20
40.2913201524
30
0.0000000000
10
16.7692764439
20
40.2196248349
30
0.0000000000
10
16.8175472467
20
40.1718279882
30
0.0000000000
10
16.8416819397
20
40.1479298104
30
0.0000000000
11
16.6244549106
21
40.3630157479
31
0.0000000000
11
16.6968681664
21
40.2913189720
31
0.0000000000
11
16.7692771776
21
40.2196236541
31
0.0000000000
11
16.8416819397
21
40.1479298104
31
0.0000000000
0
SPLINE
5
38B
100
AcDbEntity
8
0
100
AcDbSpline
62
9
6
CONTINUOUS
70
0
71
3
72
12
73
8
74
6
42
0.0000001000
43
0.0000001000
44
0.0000000001
12
35.5688483664
22
0.0118126348
32
0.0000000000
13
35.5688483664
23
-0.0118125947
33
0.0000000000
40
0.0000000000
40
0.0000000000
40
0.0000000000
40
0.0000000000
40
0.1990517553
40
0.3995266374
40
0.6004782148
40
0.8009514500
40
1.0000000000
40
1.0000000000
40
1.0000000000
40
1.0000000000
10
16.8416819397
20
40.1479298104
30
0.0000000000
10
19.2016958400
20
40.1487135856
30
0.0000000000
10
23.9385967761
20
40.1498728852
30
0.0000000000
10
31.0580366613
20
40.1506742438
30
0.0000000000
10
38.1943300617
20
40.1506742321
30
0.0000000000
10
45.3137124181
20
40.1498728680
30
0.0000000000
10
50.0505558255
20
40.1487135703
30
0.0000000000
10
52.4105317225
20
40.1479298104
30
0.0000000000
11
16.8416819397
21
40.1479298104
31
0.0000000000
11
23.9217238064
21
40.1497133395
31
0.0000000000
11
31.0523848343
21
40.1505399943
31
0.0000000000
11
38.2000014141
21
40.1505399839
31
0.0000000000
11
45.3306038658
21
40.1497133198
31
0.0000000000
11
52.4105317225
21
40.1479298104
31
0.0000000000
0
SPLINE
5
38C
100
AcDbEntity
8
0
100
AcDbSpline
62
0
6
CONTINUOUS
70
0
71
3
72
14
73
10
74
8
42
0.0000001000
43
0.0000001000
44
0.0000000001
12
1.9543588962
22
0.0001103216
32
0.0000000000
13
-0.0000000000
23
-1.9543588994
33
0.0000000000
40
0.0000000000
40
0.0000000000
40
0.0000000000
40
0.0000000000
40
0.0451431904
40
0.1282067834
40
0.2510703642
40
0.4053525453
40
0.5866304042
40
0.7896408618
40
1.0000000000
40
1.0000000000
40
1.0000000000
40
1.0000000000
10
-15.6462536390
20
40.3630157479
30
0.0000000000
10
-15.6168449737
20
40.3630174080
30
0.0000000000
10
-15.5463248347
20
40.2964444655
30
0.0000000000
10
-15.4882917991
20
40.1478001068
30
0.0000000000
10
-15.4243932333
20
39.9194694364
30
0.0000000000
10
-15.3743721638
20
39.6254596268
30
0.0000000000
10
-15.3345872054
20
39.2765039068
30
0.0000000000
10
-15.3101658635
20
38.8898161641
30
0.0000000000
10
-15.3046212386
20
38.6204785874
30
0.0000000000
10
-15.3046212386
20
38.4834395028
30
0.0000000000
11
-15.6462536390
21
40.3630157479
31
0.0000000000
11
-15.5722521369
21
40.3149782202
31
0.0000000000
11
-15.4992921431
21
40.1699615329
31
0.0000000000
11
-15.4336855772
21
39.9389784849
31
0.0000000000
11
-15.3798178436
21
39.6423065479
31
0.0000000000
11
-15.3389976899
21
39.2903840446
31
0.0000000000
11
-15.3132249236
21
38.8944667196
31
0.0000000000
11
-15.3046212386
21
38.4834395028
31
0.0000000000
0
SPLINE
5
38D
100
AcDbEntity
8
0
100
AcDbSpline
62
0
6
CONTINUOUS
70
0
71
3
72
14
73
10
74
8
42
0.0000001000
43
0.0000001000
44
0.0000000001
12
0.0000000000
22
-1.9543588994
32
0.0000000000
13
-1.9543588962
23
0.0001103215
33
0.0000000000
40
0.0000000000
40
0.0000000000
40
0.0000000000
40
0.0000000000
40
0.2103591382
40
0.4133695958
40
0.5946474547
40
0.7489296358
40
0.8717932166
40
0.9548568096
40
1.0000000000
40
1.0000000000
40
1.0000000000
40
1.0000000000
10
-15.3046212386
20
-37.5573887014
30
0.0000000000
10
-15.3046212386
20
-37.6944277859
30
0.0000000000
10
-15.3101658635
20
-37.9637653627
30
0.0000000000
10
-15.3345872054
20
-38.3504531053
30
0.0000000000
10
-15.3743721638
20
-38.6994088253
30
0.0000000000
10
-15.4243932333
20
-38.9934186350
30
0.0000000000
10
-15.4882917991
20
-39.2217493053
30
0.0000000000
10
-15.5463248347
20
-39.3703936640
30
0.0000000000
10
-15.6168449737
20
-39.4369666065
30
0.0000000000
10
-15.6462536390
20
-39.4369649464
30
0.0000000000
11
-15.3046212386
21
-37.5573887014
31
0.0000000000
11
-15.3132249236
21
-37.9684159181
31
0.0000000000
11
-15.3389976899
21
-38.3643332431
31
0.0000000000
11
-15.3798178436
21
-38.7162557465
31
0.0000000000
11
-15.4336855772
21
-39.0129276834
31
0.0000000000
11
-15.4992921431
21
-39.2439107314
31
0.0000000000
11
-15.5722521369
21
-39.3889274187
31
0.0000000000
11
-15.6462536390
21
-39.4369649464
31
0.0000000000
0
SPLINE
5
38E
100
AcDbEntity
8
0
100
AcDbSpline
62
0
6
CONTINUOUS
70
0
71
3
72
9
73
5
74
3
42
0.0000001000
43
0.0000001000
44
0.0000000001
12
-1.4639903313
22
0.0000826408
32
0.0000000000
13
-0.0000000000
23
0.0000000000
33
0.0000000000
40
0.0000000000
40
0.0000000000
40
0.0000000000
40
0.0000000000
40
0.6661805201
40
1.0000000000
40
1.0000000000
40
1.0000000000
40
1.0000000000
10
-15.6462536390
20
-39.4369649464
30
0.0000000000
10
-15.9713475858
20
-39.4369465952
30
0.0000000000
10
-16.2967973952
20
-39.4369276920
30
0.0000000000
10
-17.1102439477
20
-39.4367074215
30
0.0000000000
10
-17.1102439477
20
-39.4367074215
30
0.0000000000
11
-15.6462536390
21
-39.4369649464
31
0.0000000000
11
-16.6215354718
21
-39.4368320432
31
0.0000000000
11
-17.1102439477
21
-39.4367074215
31
0.0000000000
0
SPLINE
5
38F
100
AcDbEntity
8
0
100
AcDbSpline
62
0
6
CONTINUOUS
70
0
71
3
72
9
73
5
74
3
42
0.0000001000
43
0.0000001000
44
0.0000000001
12
-1.4639903313
22
-0.0000826408
32
0.0000000000
13
-0.0000000000
23
0.0000000000
33
0.0000000000
40
0.0000000000
40
0.0000000000
40
0.0000000000
40
0.0000000000
40
0.6661805201
40
1.0000000000
40
1.0000000000
40
1.0000000000
40
1.0000000000
10
-15.6462536390
20
40.3630157479
30
0.0000000000
10
-15.9713475858
20
40.3629973966
30
0.0000000000
10
-16.2967973952
20
40.3629784935
30
0.0000000000
10
-17.1102439477
20
40.3627582230
30
0.0000000000
10
-17.1102439477
20
40.3627582230
30
0.0000000000
11
-15.6462536390
21
40.3630157479
31
0.0000000000
11
-16.6215354718
21
40.3628828447
31
0.0000000000
11
-17.1102439477
21
40.3627582230
31
0.0000000000
0
SPLINE
5
390
100
AcDbEntity
8
0
100
AcDbSpline
62
9
6
CONTINUOUS
70
0
71
3
72
9
73
5
74
3
42
0.0000001000
43
0.0000001000
44
0.0000000001
12
-0.0711626417
22
0.1464645411
32
0.0000000000
13
-0.0000019892
23
-0.0000005918
33
0.0000000000
40
0.0000000000
40
0.0000000000
40
0.0000000000
40
0.0000000000
40
0.3388413359
40
1.0000000000
40
1.0000000000
40
1.0000000000
40
1.0000000000
10
-22.0056152394
20
27.8356366303
30
0.0000000000
10
-22.0136528543
20
27.8521793772
30
0.0000000000
10
-22.0391822460
20
27.9047346381
30
0.0000000000
10
-22.0714159849
20
27.9711382623
30
0.0000000000
10
-22.0714164233
20
27.9711381319
30
0.0000000000
11
-22.0056152394
21
27.8356366303
31
0.0000000000
11
-22.0317234299
21
27.8893851452
31
0.0000000000
11
-22.0714164233
21
27.9711381319
31
0.0000000000
0
SPLINE
5
391
100
AcDbEntity
8
0
100
AcDbSpline
62
9
6
CONTINUOUS
70
0
71
3
72
11
73
7
74
5
42
0.0000001000
43
0.0000001000
44
0.0000000001
12
-0.1869094506
22
0.3846907062
32
0.0000000000
13
0.1453152505
23
-0.2988755819
33
0.0000000000
40
0.0000000000
40
0.0000000000
40
0.0000000000
40
0.0000000000
40
0.1290081615
40
0.3834654496
40
0.6196841287
40
1.0000000000
40
1.0000000000
40
1.0000000000
40
1.0000000000
10
-22.0056152394
20
27.8356366303
30
0.0000000000
10
-22.0136528543
20
27.8521793772
30
0.0000000000
10
-22.0393654491
20
27.9051117833
30
0.0000000000
10
-22.0919076175
20
28.0133525411
30
0.0000000000
10
-22.0202479277
20
27.8657212398
30
0.0000000000
10
-21.9863279390
20
27.7959436725
30
0.0000000000
10
-21.9679060403
20
27.7580546300
30
0.0000000000
11
-22.0056152394
21
27.8356366303
31
0.0000000000
11
-22.0317234299
21
27.8893851452
31
0.0000000000
11
-22.0714088747
21
27.9711225473
31
0.0000000000
11
-22.0345701717
21
27.8952427149
31
0.0000000000
11
-21.9679060403
21
27.7580546300
31
0.0000000000
0
SPLINE
5
392
100
AcDbEntity
8
0
100
AcDbSpline
62
9
6
CONTINUOUS
70
0
71
3
72
13
73
9
74
7
42
0.0000001000
43
0.0000001000
44
0.0000000001
12
-0.8107883894
22
1.6989098260
32
0.0000000000
13
0.7660721566
23
-1.5756106863
33
0.0000000000
40
0.0000000000
40
0.0000000000
40
0.0000000000
40
0.0000000000
40
0.4282649880
40
0.6922954721
40
0.8347826688
40
0.8830503473
40
0.9278583673
40
1.0000000000
40
1.0000000000
40
1.0000000000
40
1.0000000000
10
-21.3492395546
20
26.4738795185
30
0.0000000000
10
-21.4649836479
20
26.7164073839
30
0.0000000000
10
-21.6447190072
20
27.0913037138
30
0.0000000000
10
-21.8948401035
20
27.6079928051
30
0.0000000000
10
-21.9866137725
20
27.7964394229
30
0.0000000000
10
-22.0919076175
20
28.0133525411
30
0.0000000000
10
-22.0202479277
20
27.8657212398
30
0.0000000000
10
-21.9863279390
20
27.7959436725
30
0.0000000000
10
-21.9679060403
20
27.7580546300
30
0.0000000000
11
-21.3492395546
21
26.4738795185
31
0.0000000000
11
-21.6979557113
21
27.2007530921
31
0.0000000000
11
-21.9144811709
21
27.6481383401
31
0.0000000000
11
-22.0317234299
21
27.8893851452
31
0.0000000000
11
-22.0714088747
21
27.9711225473
31
0.0000000000
11
-22.0345701717
21
27.8952427149
31
0.0000000000
11
-21.9679060403
21
27.7580546300
31
0.0000000000
0
SPLINE
5
393
100
AcDbEntity
8
0
100
AcDbSpline
62
9
6
CONTINUOUS
70
0
71
3
72
14
73
10
74
8
42
0.0000001000
43
0.0000001000
44
0.0000000001
12
-0.7952602965
22
-1.6663850870
32
0.0000000000
13
0.9927721971
23
2.0431381634
33
0.0000000000
40
0.0000000000
40
0.0000000000
40
0.0000000000
40
0.0000000000
40
0.3952986716
40
0.6557548033
40
0.8114886647
40
0.8890176258
40
0.8925232170
40
0.9643770807
40
1.0000000000
40
1.0000000000
40
1.0000000000
40
1.0000000000
10
-21.3492395133
20
-25.5478287360
30
0.0000000000
10
-21.4540279596
20
-25.7674020064
30
0.0000000000
10
-21.6288162007
20
-26.1319550914
30
0.0000000000
10
-21.8453294291
20
-26.5798460561
30
0.0000000000
10
-21.9796667842
20
-26.8562665604
30
0.0000000000
10
-22.0414010666
20
-26.9832290433
30
0.0000000000
10
-22.0846129994
20
-27.0722775425
30
0.0000000000
10
-22.0184990977
20
-26.9361361869
30
0.0000000000
10
-21.9774304795
20
-26.8516068591
30
0.0000000000
10
-21.9656419982
20
-26.8273460104
30
0.0000000000
11
-21.3492395133
21
-25.5478287360
31
0.0000000000
11
-21.6648209224
21
-26.2059668144
31
0.0000000000
11
-21.8741314531
21
-26.6389398605
31
0.0000000000
11
-21.9997650773
21
-26.8975931766
31
0.0000000000
11
-22.0623261357
21
-27.0263503052
31
0.0000000000
11
-22.0651520080
21
-27.0321736757
31
0.0000000000
11
-22.0071766604
21
-26.9128384904
31
0.0000000000
11
-21.9656419982
21
-26.8273460104
31
0.0000000000
0
SPLINE
5
394
100
AcDbEntity
8
0
100
AcDbSpline
62
9
6
CONTINUOUS
70
0
71
3
72
11
73
7
74
5
42
0.0000001000
43
0.0000001000
44
0.0000000001
12
-0.1495901215
22
-0.3077008331
32
0.0000000000
13
0.1871488125
23
0.3851547034
33
0.0000000000
40
0.0000000000
40
0.0000000000
40
0.0000000000
40
0.0000000000
40
0.4112694920
40
0.4298656747
40
0.8110303593
40
1.0000000000
40
1.0000000000
40
1.0000000000
40
1.0000000000
10
-21.9997650773
20
-26.8975931766
30
0.0000000000
10
-22.0202723617
20
-26.9397758317
30
0.0000000000
10
-22.0414010666
20
-26.9832290433
30
0.0000000000
10
-22.0846129994
20
-27.0722775425
30
0.0000000000
10
-22.0184990977
20
-26.9361361869
30
0.0000000000
10
-21.9774304795
20
-26.8516068591
30
0.0000000000
10
-21.9656419982
20
-26.8273460104
30
0.0000000000
11
-21.9997650773
21
-26.8975931766
31
0.0000000000
11
-22.0623261357
21
-27.0263503052
31
0.0000000000
11
-22.0651520080
21
-27.0321736757
31
0.0000000000
11
-22.0071766604
21
-26.9128384904
31
0.0000000000
11
-21.9656419982
21
-26.8273460104
31
0.0000000000
0
SPLINE
5
395
100
AcDbEntity
8
0
100
AcDbSpline
62
9
6
CONTINUOUS
70
0
71
3
72
8
73
4
74
2
42
0.0000001000
43
0.0000001000
44
0.0000000001
12
-0.0615218533
22
-0.1265479653
32
0.0000000000
13
-0.0655173191
23
-0.1350032023
33
0.0000000000
40
0.0000000000
40
0.0000000000
40
0.0000000000
40
0.0000000000
40
1.0000000000
40
1.0000000000
40
1.0000000000
40
1.0000000000
10
-21.9997650773
20
-26.8975931766
30
0.0000000000
10
-22.0202723617
20
-26.9397758317
30
0.0000000000
10
-22.0404870293
20
-26.9813492378
30
0.0000000000
10
-22.0623261357
20
-27.0263503052
30
0.0000000000
11
-21.9997650773
21
-26.8975931766
31
0.0000000000
11
-22.0623261357
21
-27.0263503052
31
0.0000000000
0
SPLINE
5
396
100
AcDbEntity
8
0
100
AcDbSpline
62
9
6
CONTINUOUS
70
0
71
3
72
9
73
5
74
3
42
0.0000001000
43
0.0000001000
44
0.0000000001
12
-0.0126329124
22
-0.0260310349
32
0.0000000000
13
0.0000051764
23
-0.0000028109
33
0.0000000000
40
0.0000000000
40
0.0000000000
40
0.0000000000
40
0.0000000000
40
0.2345038320
40
1.0000000000
40
1.0000000000
40
1.0000000000
40
1.0000000000
10
-22.0623261357
20
-27.0263503052
30
0.0000000000
10
-22.0633136244
20
-27.0283850977
30
0.0000000000
10
-22.0675387580
20
-27.0370919936
30
0.0000000000
10
-22.0691592156
20
-27.0404340617
30
0.0000000000
10
-22.0691578948
20
-27.0404347789
30
0.0000000000
11
-22.0623261357
21
-27.0263503052
31
0.0000000000
11
-22.0651520080
21
-27.0321736757
31
0.0000000000
11
-22.0691578948
21
-27.0404347789
31
0.0000000000
0
SPLINE
5
397
100
AcDbEntity
8
0
100
AcDbSpline
62
9
6
CONTINUOUS
70
0
71
3
72
11
73
7
74
5
42
0.0000001000
43
0.0000001000
44
0.0000000001
12
0.0000114921
22
-0.9350419123
32
0.0000000000
13
-0.1369352476
23
-0.9236311845
33
0.0000000000
40
0.0000000000
40
0.0000000000
40
0.0000000000
40
0.0000000000
40
0.3376456245
40
0.6531043086
40
0.9233006564
40
1.0000000000
40
1.0000000000
40
1.0000000000
40
1.0000000000
10
-21.2401954463
20
-24.3798103614
30
0.0000000000
10
-21.2401941529
20
-24.4850479649
30
0.0000000000
10
-21.2433972907
20
-24.6886533292
30
0.0000000000
10
-21.2577523659
20
-24.9760203771
30
0.0000000000
10
-21.2759724157
20
-25.1819843561
30
0.0000000000
10
-21.2903989600
20
-25.2889154350
30
0.0000000000
10
-21.2938999079
20
-25.3125294036
30
0.0000000000
11
-21.2401954463
21
-24.3798103614
31
0.0000000000
11
-21.2453639410
21
-24.6954808627
31
0.0000000000
11
-21.2604883973
21
-24.9900599450
31
0.0000000000
11
-21.2842582497
21
-25.2415841874
31
0.0000000000
11
-21.2938999079
21
-25.3125294036
31
0.0000000000
0
SPLINE
5
398
100
AcDbEntity
8
0
100
AcDbSpline
62
9
6
CONTINUOUS
70
0
71
3
72
9
73
5
74
3
42
0.0000001000
43
0.0000001000
44
0.0000000001
12
-0.0307038633
22
-0.2070982172
32
0.0000000000
13
-0.0702247020
23
-0.1973501136
33
0.0000000000
40
0.0000000000
40
0.0000000000
40
0.0000000000
40
0.0000000000
40
0.5805780522
40
1.0000000000
40
1.0000000000
40
1.0000000000
40
1.0000000000
10
-21.2938999079
20
-25.3125294036
30
0.0000000000
10
-21.2998419042
20
-25.3526082968
30
0.0000000000
10
-21.3116206623
20
-25.4214985811
30
0.0000000000
10
-21.3271098665
20
-25.4903926724
30
0.0000000000
10
-21.3369277936
20
-25.5179836621
30
0.0000000000
11
-21.2938999079
21
-25.3125294036
31
0.0000000000
11
-21.3147695644
21
-25.4326019541
31
0.0000000000
11
-21.3369277936
21
-25.5179836621
31
0.0000000000
0
SPLINE
5
399
100
AcDbEntity
8
0
100
AcDbSpline
62
9
6
CONTINUOUS
70
0
71
3
72
8
73
4
74
2
42
0.0000001000
43
0.0000001000
44
0.0000000001
12
-0.0108314728
22
-0.0304393230
32
0.0000000000
13
-0.0139246871
23
-0.0291859055
33
0.0000000000
40
0.0000000000
40
0.0000000000
40
0.0000000000
40
0.0000000000
40
1.0000000000
40
1.0000000000
40
1.0000000000
40
1.0000000000
10
-21.3369277936
20
-25.5179836621
30
0.0000000000
10
-21.3405382845
20
-25.5281301031
30
0.0000000000
10
-21.3445979509
20
-25.5381001008
30
0.0000000000
10
-21.3492395133
20
-25.5478287360
30
0.0000000000
11
-21.3369277936
21
-25.5179836621
31
0.0000000000
11
-21.3492395133
21
-25.5478287360
31
0.0000000000
0
SPLINE
5
39A
100
AcDbEntity
8
0
100
AcDbSpline
62
9
6
CONTINUOUS
70
0
71
3
72
8
73
4
74
2
42
0.0000001000
43
0.0000001000
44
0.0000000001
12
0.0520373175
22
-0.1089546119
32
0.0000000000
13
0.0240072273
23
-0.1190471194
33
0.0000000000
40
0.0000000000
40
0.0000000000
40
0.0000000000
40
0.0000000000
40
1.0000000000
40
1.0000000000
40
1.0000000000
40
1.0000000000
10
-21.3492395127
20
26.4738795385
30
0.0000000000
10
-21.3318937402
20
26.4375613346
30
0.0000000000
10
-21.3226737885
20
26.3978725257
30
0.0000000000
10
-21.3146713794
20
26.3581901526
30
0.0000000000
11
-21.3492395127
21
26.4738795385
31
0.0000000000
11
-21.3146713794
21
26.3581901526
31
0.0000000000
0
SPLINE
5
39B
100
AcDbEntity
8
0
100
AcDbSpline
62
9
6
CONTINUOUS
70
0
71
3
72
8
73
4
74
2
42
0.0000001000
43
0.0000001000
44
0.0000000001
12
0.0242075020
22
-0.1200402420
32
0.0000000000
13
0.0178156133
23
-0.1202645083
33
0.0000000000
40
0.0000000000
40
0.0000000000
40
0.0000000000
40
0.0000000000
40
1.0000000000
40
1.0000000000
40
1.0000000000
40
1.0000000000
10
-21.3146713794
20
26.3581901526
30
0.0000000000
10
-21.3066022121
20
26.3181767386
30
0.0000000000
10
-21.2997709862
20
26.2781698681
30
0.0000000000
10
-21.2938324484
20
26.2380816987
30
0.0000000000
11
-21.3146713794
21
26.3581901526
31
0.0000000000
11
-21.2938324484
21
26.2380816987
31
0.0000000000
0
SPLINE
5
39C
100
AcDbEntity
8
0
100
AcDbSpline
62
9
6
CONTINUOUS
70
0
71
3
72
11
73
7
74
5
42
0.0000001000
43
0.0000001000
44
0.0000000001
12
0.1367500043
22
-0.9231325226
32
0.0000000000
13
0.0000019768
23
-0.9345407853
33
0.0000000000
40
0.0000000000
40
0.0000000000
40
0.0000000000
40
0.0000000000
40
0.0767427959
40
0.3472087651
40
0.6631396067
40
1.0000000000
40
1.0000000000
40
1.0000000000
40
1.0000000000
10
-21.2938324484
20
26.2380816987
30
0.0000000000
10
-21.2903342559
20
26.2144671084
30
0.0000000000
10
-21.2759087841
20
26.1074995734
30
0.0000000000
10
-21.2577084718
20
25.9013956951
30
0.0000000000
10
-21.2433833390
20
25.6141966923
30
0.0000000000
10
-21.2401956682
20
25.4107977574
30
0.0000000000
10
-21.2401954463
20
25.3058611652
30
0.0000000000
11
-21.2938324484
21
26.2380816987
31
0.0000000000
11
-21.2841965851
21
26.1671353404
31
0.0000000000
11
-21.2604445058
21
25.9154923312
31
0.0000000000
11
-21.2453338310
21
25.6206290041
31
0.0000000000
11
-21.2401954463
21
25.3058611652
31
0.0000000000
0
SPLINE
5
39D
100
AcDbEntity
8
0
100
AcDbSpline
62
9
6
CONTINUOUS
70
0
71
3
72
10
73
6
74
4
42
0.0000001000
43
0.0000001000
44
0.0000000001
12
4.1408862750
22
0.2150980597
32
0.0000000000
13
4.1408875346
23
0.2150738098
33
0.0000000000
40
0.0000000000
40
0.0000000000
40
0.0000000000
40
0.0000000000
40
0.3333139767
40
0.6666473331
40
1.0000000000
40
1.0000000000
40
1.0000000000
40
1.0000000000
10
-19.7871405429
20
40.1479298104
30
0.0000000000
10
-19.3270687857
20
40.1718282069
30
0.0000000000
10
-18.4068984751
20
40.2196254921
30
0.0000000000
10
-17.0266028403
20
40.2913208054
30
0.0000000000
10
-16.1063789392
20
40.3391172719
30
0.0000000000
10
-15.6462536383
20
40.3630157479
30
0.0000000000
11
-19.7871405429
21
40.1479298104
31
0.0000000000
11
-18.4069252015
21
40.2196236537
31
0.0000000000
11
-17.0266294711
21
40.2913189717
31
0.0000000000
11
-15.6462536383
21
40.3630157479
31
0.0000000000
0
SPLINE
5
39E
100
AcDbEntity
8
0
100
AcDbSpline
62
9
6
CONTINUOUS
70
0
71
3
72
9
73
5
74
3
42
0.0000001000
43
0.0000001000
44
0.0000000001
12
-1.3739317817
22
-0.0028163489
32
0.0000000000
13
0.0000000000
23
-0.0000000025
33
0.0000000000
40
0.0000000000
40
0.0000000000
40
0.0000000000
40
0.0000000000
40
0.6659320007
40
1.0000000000
40
1.0000000000
40
1.0000000000
40
1.0000000000
10
-19.7871405429
20
-39.2218790089
30
0.0000000000
10
-20.0921222563
20
-39.2225041745
30
0.0000000000
10
-20.3976070289
20
-39.2231291215
30
0.0000000000
10
-21.1610743760
20
-39.2244891823
30
0.0000000000
10
-21.1610743760
20
-39.2244891826
30
0.0000000000
11
-19.7871405429
21
-39.2218790089
31
0.0000000000
11
-20.7020858670
21
-39.2236625165
31
0.0000000000
11
-21.1610743760
21
-39.2244891826
31
0.0000000000
0
SPLINE
5
39F
100
AcDbEntity
8
0
100
AcDbSpline
62
9
6
CONTINUOUS
70
0
71
3
72
10
73
6
74
4
42
0.0000001000
43
0.0000001000
44
0.0000000001
12
-4.1408875352
22
0.2150738098
32
0.0000000000
13
-4.1408862756
23
0.2150980597
33
0.0000000000
40
0.0000000000
40
0.0000000000
40
0.0000000000
40
0.0000000000
40
0.3333526660
40
0.6666860213
40
1.0000000000
40
1.0000000000
40
1.0000000000
40
1.0000000000
10
-15.6462536377
20
-39.4369649464
30
0.0000000000
10
-16.1063789375
20
-39.4130664704
30
0.0000000000
10
-17.0266028360
20
-39.3652700042
30
0.0000000000
10
-18.4068984710
20
-39.2935746908
30
0.0000000000
10
-19.3270687829
20
-39.2457774056
30
0.0000000000
10
-19.7871405429
20
-39.2218790089
30
0.0000000000
11
-15.6462536377
21
-39.4369649464
31
0.0000000000
11
-17.0266294672
21
-39.3652681705
31
0.0000000000
11
-18.4069251931
21
-39.2935728526
31
0.0000000000
11
-19.7871405429
21
-39.2218790089
31
0.0000000000
0
SPLINE
5
3A0
100
AcDbEntity
8
0
100
AcDbSpline
62
9
6
CONTINUOUS
70
0
71
3
72
10
73
6
74
4
42
0.0000001000
43
0.0000001000
44
0.0000000001
12
4.3159908522
22
0.2241947891
32
0.0000000000
13
4.3159922192
23
0.2241684712
33
0.0000000000
40
0.0000000000
40
0.0000000000
40
0.0000000000
40
0.0000000000
40
0.3333124933
40
0.6666461833
40
1.0000000000
40
1.0000000000
40
1.0000000000
40
1.0000000000
10
-19.6206127742
20
38.2592578695
30
0.0000000000
10
-19.1410882168
20
38.2841668442
30
0.0000000000
10
-18.1820085566
20
38.3339854038
30
0.0000000000
10
-16.7433447115
20
38.4087126158
30
0.0000000000
10
-15.7842053983
20
38.4585303643
30
0.0000000000
10
-15.3046212386
20
38.4834395027
30
0.0000000000
11
-19.6206127742
21
38.2592578695
31
0.0000000000
11
-18.1820390262
21
38.3339833326
31
0.0000000000
11
-16.7433736418
21
38.4087106243
31
0.0000000000
11
-15.3046212386
21
38.4834395027
31
0.0000000000
0
SPLINE
5
3A1
100
AcDbEntity
8
0
100
AcDbSpline
62
9
6
CONTINUOUS
70
0
71
3
72
10
73
6
74
4
42
0.0000001000
43
0.0000001000
44
0.0000000001
12
-4.3159922192
22
0.2241684712
32
0.0000000000
13
-4.3159908522
23
0.2241947891
33
0.0000000000
40
0.0000000000
40
0.0000000000
40
0.0000000000
40
0.0000000000
40
0.3333538167
40
0.6666875068
40
1.0000000000
40
1.0000000000
40
1.0000000000
40
1.0000000000
10
-15.3046212386
20
-37.5573887012
30
0.0000000000
10
-15.7842053984
20
-37.5324795627
30
0.0000000000
10
-16.7433447117
20
-37.4826618144
30
0.0000000000
10
-18.1820085568
20
-37.4079346023
30
0.0000000000
10
-19.1410882169
20
-37.3581160427
30
0.0000000000
10
-19.6206127742
20
-37.3332070680
30
0.0000000000
11
-15.3046212386
21
-37.5573887012
31
0.0000000000
11
-16.7433736420
21
-37.4826598228
31
0.0000000000
11
-18.1820390265
21
-37.4079325311
31
0.0000000000
11
-19.6206127742
21
-37.3332070680
31
0.0000000000
0
SPLINE
5
3A2
100
AcDbEntity
8
0
100
AcDbSpline
62
9
6
CONTINUOUS
70
0
71
3
72
8
73
4
74
2
42
0.0000001000
43
0.0000001000
44
0.0000000001
12
-0.0011823538
22
0.0438511052
32
0.0000000000
13
0.0190320597
23
0.0402687687
33
0.0000000000
40
0.0000000000
40
0.0000000000
40
0.0000000000
40
0.0000000000
40
1.0000000000
40
1.0000000000
40
1.0000000000
40
1.0000000000
10
-21.3492394320
20
-25.5478287360
30
0.0000000000
10
-21.3496335499
20
-25.5332117009
30
0.0000000000
10
-21.3464732560
20
-25.5182197151
30
0.0000000000
10
-21.3401292360
20
-25.5047967922
30
0.0000000000
11
-21.3492394320
21
-25.5478287360
31
0.0000000000
11
-21.3401292360
21
-25.5047967922
31
0.0000000000
0
SPLINE
5
3A3
100
AcDbEntity
8
0
100
AcDbSpline
62
9
6
CONTINUOUS
70
0
71
3
72
8
73
4
74
2
42
0.0000001000
43
0.0000001000
44
0.0000000001
12
-0.0011976581
22
-0.0438519559
32
0.0000000000
13
0.0190192017
23
-0.0402765822
33
0.0000000000
40
0.0000000000
40
0.0000000000
40
0.0000000000
40
0.0000000000
40
1.0000000000
40
1.0000000000
40
1.0000000000
40
1.0000000000
10
-21.3492336490
20
26.4738795365
30
0.0000000000
10
-21.3496328684
20
26.4592622179
30
0.0000000000
10
-21.3464776213
20
26.4442686179
30
0.0000000000
10
-21.3401378874
20
26.4308430905
30
0.0000000000
11
-21.3492336490
21
26.4738795365
31
0.0000000000
11
-21.3401378874
21
26.4308430905
31
0.0000000000
0
SPLINE
5
3A4
100
AcDbEntity
8
0
100
AcDbSpline
62
9
6
CONTINUOUS
70
0
71
3
72
12
73
8
74
6
42
0.0000001000
43
0.0000001000
44
0.0000000001
12
-1.3503024888
22
-0.0726955074
32
0.0000000000
13
-0.0000930190
23
-1.3522579042
33
0.0000000000
40
0.0000000000
40
0.0000000000
40
0.0000000000
40
0.0000000000
40
0.1987627506
40
0.3980370155
40
0.5980635506
40
0.7988132274
40
1.0000000000
40
1.0000000000
40
1.0000000000
40
1.0000000000
10
-19.7871393988
20
40.1479079680
30
0.0000000000
10
-19.8766026777
20
40.1430915816
30
0.0000000000
10
-20.0554583371
20
40.1054742711
30
0.0000000000
10
-20.2936223307
20
39.9707683105
30
0.0000000000
10
-20.4812525186
20
39.7700899516
30
0.0000000000
10
-20.6010010676
20
39.5222232820
30
0.0000000000
10
-20.6284380938
20
39.3398835815
30
0.0000000000
10
-20.6284443319
20
39.2491981137
30
0.0000000000
11
-19.7871393988
21
40.1479079680
31
0.0000000000
11
-20.0501547372
21
40.0925472014
31
0.0000000000
11
-20.2848163961
21
39.9600779794
31
0.0000000000
11
-20.4696693601
21
39.7626119071
31
0.0000000000
11
-20.5878126011
21
39.5182032242
31
0.0000000000
11
-20.6284443319
21
39.2491981137
31
0.0000000000
0
SPLINE
5
3A5
100
AcDbEntity
8
0
100
AcDbSpline
62
9
6
CONTINUOUS
70
0
71
3
72
12
73
8
74
6
42
0.0000001000
43
0.0000001000
44
0.0000000001
12
-1.3503212459
22
0.0726992627
32
0.0000000000
13
-0.0000700616
23
1.3522768375
33
0.0000000000
40
0.0000000000
40
0.0000000000
40
0.0000000000
40
0.0000000000
40
0.1987620612
40
0.3980359232
40
0.5980624774
40
0.7988125741
40
1.0000000000
40
1.0000000000
40
1.0000000000
40
1.0000000000
10
-19.7871405415
20
-39.2218789825
30
0.0000000000
10
-19.8766047529
20
-39.2170623640
30
0.0000000000
10
-20.0554623577
20
-39.1794437529
30
0.0000000000
10
-20.2936280507
20
-39.0447337796
30
0.0000000000
10
-20.4812582614
20
-38.8440500426
30
0.0000000000
10
-20.6010048814
20
-38.5961775592
30
0.0000000000
10
-20.6284393401
20
-38.4138343442
30
0.0000000000
10
-20.6284440386
20
-38.3231473122
30
0.0000000000
11
-19.7871405415
21
-39.2218789825
31
0.0000000000
11
-20.0501583927
21
-39.1665164105
31
0.0000000000
11
-20.2848216198
21
-39.0340434006
31
0.0000000000
11
-20.4696746299
21
-38.8365721488
31
0.0000000000
11
-20.5878160490
21
-38.5921577333
31
0.0000000000
11
-20.6284440386
21
-38.3231473122
31
0.0000000000
0
SPLINE
5
3A6
100
AcDbEntity
8
0
100
AcDbSpline
62
9
6
CONTINUOUS
70
0
71
3
72
14
73
10
74
8
42
0.0000001000
43
0.0000001000
44
0.0000000001
12
-0.0466849821
22
-1.9023688623
32
0.0000000000
13
-1.8948640895
23
-0.1751481037
33
0.0000000000
40
0.0000000000
40
0.0000000000
40
0.0000000000
40
0.0000000000
40
0.2199543747
40
0.4288952338
40
0.6168980853
40
0.7745609975
40
0.8942763153
40
0.9701783387
40
1.0000000000
40
1.0000000000
40
1.0000000000
40
1.0000000000
10
-19.6206127742
20
-37.3332070680
30
0.0000000000
10
-19.6240356295
20
-37.4726851859
30
0.0000000000
10
-19.6326383733
20
-37.7447430128
30
0.0000000000
10
-19.6510778970
20
-38.1350989259
30
0.0000000000
10
-19.6732887924
20
-38.4878610349
30
0.0000000000
10
-19.6996138650
20
-38.7772461402
30
0.0000000000
10
-19.7236446406
20
-39.0115220108
30
0.0000000000
10
-19.7529930399
20
-39.1302634680
30
0.0000000000
10
-19.7683045445
20
-39.2201379397
30
0.0000000000
10
-19.7871405429
20
-39.2218790089
30
0.0000000000
11
-19.6206127742
21
-37.3332070680
31
0.0000000000
11
-19.6339684337
21
-37.7515542661
31
0.0000000000
11
-19.6528208598
21
-38.1487093230
31
0.0000000000
11
-19.6761929180
21
-38.5057035174
31
0.0000000000
11
-19.7027870024
21
-38.8045458586
31
0.0000000000
11
-19.7311791158
21
-39.0305809400
31
0.0000000000
11
-19.7597898290
21
-39.1721560378
31
0.0000000000
11
-19.7871405429
21
-39.2218790089
31
0.0000000000
0
SPLINE
5
3A7
100
AcDbEntity
8
0
100
AcDbSpline
62
9
6
CONTINUOUS
70
0
71
3
72
14
73
10
74
8
42
0.0000001000
43
0.0000001000
44
0.0000000001
12
1.8948642378
22
-0.1751464894
32
0.0000000000
13
0.0466849978
23
-1.9023688610
33
0.0000000000
40
0.0000000000
40
0.0000000000
40
0.0000000000
40
0.0000000000
40
0.0298216352
40
0.1057236546
40
0.2254389651
40
0.3831018783
40
0.5711047363
40
0.7800456029
40
1.0000000000
40
1.0000000000
40
1.0000000000
40
1.0000000000
10
-19.7871405429
20
40.1479298104
30
0.0000000000
10
-19.7683045595
20
40.1461887588
30
0.0000000000
10
-19.7529930584
20
40.0563142833
30
0.0000000000
10
-19.7236446343
20
39.9375728843
30
0.0000000000
10
-19.6996138802
20
39.7032970000
30
0.0000000000
10
-19.6732887933
20
39.4139119038
30
0.0000000000
10
-19.6510779013
20
39.0611497823
30
0.0000000000
10
-19.6326383736
20
38.6707938475
30
0.0000000000
10
-19.6240356310
20
38.3987360015
30
0.0000000000
10
-19.6206127742
20
38.2592578695
30
0.0000000000
11
-19.7871405429
21
40.1479298104
31
0.0000000000
11
-19.7597898498
21
40.0982068845
31
0.0000000000
11
-19.7311791204
21
39.9566317977
31
0.0000000000
11
-19.7027870112
21
39.7305967300
31
0.0000000000
11
-19.6761929229
21
39.4317543873
31
0.0000000000
11
-19.6528208630
21
39.0747601809
31
0.0000000000
11
-19.6339684354
21
38.6776051098
31
0.0000000000
11
-19.6206127742
21
38.2592578695
31
0.0000000000
0
SPLINE
5
3A8
100
AcDbEntity
8
0
100
AcDbSpline
62
9
6
CONTINUOUS
70
0
71
3
72
14
73
10
74
8
42
0.0000001000
43
0.0000001000
44
0.0000000001
12
1.0254593370
22
-0.0032278412
32
0.0000000000
13
0.0000431445
23
-1.0254644162
33
0.0000000000
40
0.0000000000
40
0.0000000000
40
0.0000000000
40
0.0000000000
40
0.0431738106
40
0.1226245010
40
0.2420272868
40
0.3972890157
40
0.5815449556
40
0.7859680870
40
1.0000000000
40
1.0000000000
40
1.0000000000
40
1.0000000000
10
-20.6284446730
20
39.2491981137
30
0.0000000000
10
-20.6136870106
20
39.2491516609
30
0.0000000000
10
-20.5789600075
20
39.2146105690
30
0.0000000000
10
-20.5510329146
20
39.1392209594
30
0.0000000000
10
-20.5195259068
20
39.0209085589
30
0.0000000000
10
-20.4949157979
20
38.8662700752
30
0.0000000000
10
-20.4752892487
20
38.6811710364
30
0.0000000000
10
-20.4632890804
20
38.4754796396
30
0.0000000000
10
-20.4605691295
20
38.3324185731
30
0.0000000000
10
-20.4605660514
20
38.2592578695
30
0.0000000000
11
-20.6284446730
21
39.2491981137
31
0.0000000000
11
-20.5917843690
21
39.2243759678
31
0.0000000000
11
-20.5564814118
21
39.1509478368
31
0.0000000000
11
-20.5245512167
21
39.0327411266
31
0.0000000000
11
-20.4977162875
21
38.8758034853
31
0.0000000000
11
-20.4774294969
21
38.6879477991
31
0.0000000000
11
-20.4648196112
21
38.4786987596
31
0.0000000000
11
-20.4605660514
21
38.2592578695
31
0.0000000000
0
SPLINE
5
3A9
100
AcDbEntity
8
0
100
AcDbSpline
62
9
6
CONTINUOUS
70
0
71
3
72
14
73
10
74
8
42
0.0000001000
43
0.0000001000
44
0.0000000001
12
-0.0000431473
22
-1.0254644173
32
0.0000000000
13
-1.0254593366
23
-0.0032283183
33
0.0000000000
40
0.0000000000
40
0.0000000000
40
0.0000000000
40
0.0000000000
40
0.2140319130
40
0.4184550439
40
0.6027109837
40
0.7579727125
40
0.8773754966
40
0.9568261913
40
1.0000000000
40
1.0000000000
40
1.0000000000
40
1.0000000000
10
-20.4605660514
20
-37.3332070680
30
0.0000000000
10
-20.4605691296
20
-37.4063677717
30
0.0000000000
10
-20.4632890801
20
-37.5494288381
30
0.0000000000
10
-20.4752892487
20
-37.7551202352
30
0.0000000000
10
-20.4949157984
20
-37.9402192730
30
0.0000000000
10
-20.5195259054
20
-38.0948577591
30
0.0000000000
10
-20.5510329177
20
-38.2131701535
30
0.0000000000
10
-20.5789600041
20
-38.2885597775
30
0.0000000000
10
-20.6136870112
20
-38.3231008526
30
0.0000000000
10
-20.6284446730
20
-38.3231473122
30
0.0000000000
11
-20.4605660514
21
-37.3332070680
31
0.0000000000
11
-20.4648196111
21
-37.5526479583
31
0.0000000000
11
-20.4774294969
21
-37.7618969976
31
0.0000000000
11
-20.4977162875
21
-37.9497526839
31
0.0000000000
11
-20.5245512167
21
-38.1066903253
31
0.0000000000
11
-20.5564814119
21
-38.2248970338
31
0.0000000000
11
-20.5917843689
21
-38.2983251699
31
0.0000000000
11
-20.6284446730
21
-38.3231473122
31
0.0000000000
0
SPLINE
5
3AA
100
AcDbEntity
8
0
100
AcDbSpline
62
9
6
CONTINUOUS
70
0
71
3
72
9
73
5
74
3
42
0.0000001000
43
0.0000001000
44
0.0000000001
12
-1.3739407666
22
0.0028163673
32
0.0000000000
13
0.0000000000
23
0.0000000016
33
0.0000000000
40
0.0000000000
40
0.0000000000
40
0.0000000000
40
0.0000000000
40
0.6659361063
40
1.0000000000
40
1.0000000000
40
1.0000000000
40
1.0000000000
10
-19.7871405429
20
40.1479298104
30
0.0000000000
10
-20.0921261310
20
40.1485549839
30
0.0000000000
10
-20.3976150883
20
40.1491799385
30
0.0000000000
10
-21.1610802236
20
40.1505399941
30
0.0000000000
10
-21.1610802236
20
40.1505399943
30
0.0000000000
11
-19.7871405429
21
40.1479298104
31
0.0000000000
11
-20.7020974913
21
40.1497133395
31
0.0000000000
11
-21.1610802236
21
40.1505399943
31
0.0000000000
0
SPLINE
5
3AB
100
AcDbEntity
8
0
100
AcDbSpline
62
0
6
CONTINUOUS
70
0
71
3
72
9
73
5
74
3
42
0.0000001000
43
0.0000001000
44
0.0000000001
12
-0.0005873223
22
-0.0248942284
32
0.0000000000
13
0.0000000000
23
-0.0249011557
33
0.0000000000
40
0.0000000000
40
0.0000000000
40
0.0000000000
40
0.0000000000
40
0.4999355272
40
1.0000000000
40
1.0000000000
40
1.0000000000
40
1.0000000000
10
-13.6462271802
20
38.4643958660
30
0.0000000000
10
-13.6463250546
20
38.4602473629
30
0.0000000000
10
-13.6464719846
20
38.4519480623
30
0.0000000000
10
-13.6465210238
20
38.4436476048
30
0.0000000000
10
-13.6465210238
20
38.4394968771
30
0.0000000000
11
-13.6462271802
21
38.4643958660
31
0.0000000000
11
-13.6464474993
21
38.4519488433
31
0.0000000000
11
-13.6465210238
21
38.4394968771
31
0.0000000000
0
SPLINE
5
3AC
100
AcDbEntity
8
0
100
AcDbSpline
62
0
6
CONTINUOUS
70
0
71
3
72
12
73
8
74
6
42
0.0000001000
43
0.0000001000
44
0.0000000001
12
0.0229698449
22
0.9735992774
32
0.0000000000
13
-0.6886302225
23
0.6886302225
33
0.0000000000
40
0.0000000000
40
0.0000000000
40
0.0000000000
40
0.0000000000
40
0.3089347581
40
0.5841301433
40
0.8017411210
40
0.9450652072
40
1.0000000000
40
1.0000000000
40
1.0000000000
40
1.0000000000
10
-13.6462271802
20
38.4643958660
30
0.0000000000
10
-13.6438617857
20
38.5646554184
30
0.0000000000
10
-13.6392565528
20
38.7547403754
30
0.0000000000
10
-13.6394029394
20
39.0130892200
30
0.0000000000
10
-13.6307363335
20
39.2244583901
30
0.0000000000
10
-13.6490982387
20
39.3498683642
30
0.0000000000
10
-13.6336172607
20
39.4252226486
30
0.0000000000
10
-13.6462271802
20
39.4378325682
30
0.0000000000
11
-13.6462271802
21
38.4643958660
31
0.0000000000
11
-13.6403085355
21
38.7651999985
31
0.0000000000
11
-13.6372917215
21
39.0331876033
31
0.0000000000
11
-13.6373045664
21
39.2451124494
31
0.0000000000
11
-13.6403357287
21
39.3846585889
31
0.0000000000
11
-13.6462271802
21
39.4378325682
31
0.0000000000
0
SPLINE
5
3AD
100
AcDbEntity
8
0
100
AcDbSpline
62
0
6
CONTINUOUS
70
0
71
3
72
12
73
8
74
6
42
0.0000001000
43
0.0000001000
44
0.0000000001
12
0.6886293278
22
0.6886293278
32
0.0000000000
13
-0.0229698151
23
0.9735980125
33
0.0000000000
40
0.0000000000
40
0.0000000000
40
0.0000000000
40
0.0000000000
40
0.0556088993
40
0.1998685483
40
0.4181301850
40
0.6930537592
40
1.0000000000
40
1.0000000000
40
1.0000000000
40
1.0000000000
10
-13.6462271802
20
-38.5117817667
30
0.0000000000
10
-13.6334625405
20
-38.4990171271
30
0.0000000000
10
-13.6491746124
20
-38.4230309979
30
0.0000000000
10
-13.6307003403
20
-38.2969394917
30
0.0000000000
10
-13.6394163937
20
-38.0851400569
30
0.0000000000
10
-13.6392886386
20
-37.8273050493
30
0.0000000000
10
-13.6438770141
20
-37.6379591478
30
0.0000000000
10
-13.6462271802
20
-37.5383450645
30
0.0000000000
11
-13.6462271802
21
-38.5117817667
31
0.0000000000
11
-13.6403057217
21
-38.4579506903
31
0.0000000000
11
-13.6372912761
21
-38.3174930432
31
0.0000000000
11
-13.6373054540
21
-38.1049348161
31
0.0000000000
11
-13.6403388015
21
-37.8372124713
31
0.0000000000
11
-13.6462271802
21
-37.5383450645
31
0.0000000000
0
SPLINE
5
3AE
100
AcDbEntity
8
0
100
AcDbSpline
62
0
6
CONTINUOUS
70
0
71
3
72
9
73
5
74
3
42
0.0000001000
43
0.0000001000
44
0.0000000001
12
-0.0005873223
22
0.0248942284
32
0.0000000000
13
0.0000000000
23
0.0249011557
33
0.0000000000
40
0.0000000000
40
0.0000000000
40
0.0000000000
40
0.0000000000
40
0.4999355284
40
1.0000000000
40
1.0000000000
40
1.0000000000
40
1.0000000000
10
-13.6462271802
20
-37.5383450645
30
0.0000000000
10
-13.6463250546
20
-37.5341965614
30
0.0000000000
10
-13.6464719846
20
-37.5258972608
30
0.0000000000
10
-13.6465210238
20
-37.5175968033
30
0.0000000000
10
-13.6465210238
20
-37.5134460756
30
0.0000000000
11
-13.6462271802
21
-37.5383450645
31
0.0000000000
11
-13.6464474993
21
-37.5258980418
31
0.0000000000
11
-13.6465210238
21
-37.5134460756
31
0.0000000000
0
SPLINE
5
3AF
100
AcDbEntity
8
0
100
AcDbSpline
62
9
6
CONTINUOUS
70
0
71
3
72
9
73
5
74
3
42
0.0000001000
43
0.0000001000
44
0.0000000001
12
0.0000172143
22
-0.0239221194
32
0.0000000000
13
0.0011549330
23
-0.0238915725
33
0.0000000000
40
0.0000000000
40
0.0000000000
40
0.0000000000
40
0.0000000000
40
0.1828783107
40
1.0000000000
40
1.0000000000
40
1.0000000000
40
1.0000000000
10
-21.5628364106
20
-23.9774939442
30
0.0000000000
10
-21.5628353612
20
-23.9789522232
30
0.0000000000
10
-21.5627956502
20
-23.9869262711
30
0.0000000000
10
-21.5625713553
20
-23.9948987397
30
0.0000000000
10
-21.5622567817
20
-24.0014061804
30
0.0000000000
11
-21.5628364106
21
-23.9774939442
31
0.0000000000
11
-21.5628146634
21
-23.9818687312
31
0.0000000000
11
-21.5622567817
21
-24.0014061804
31
0.0000000000
0
SPLINE
5
3B0
100
AcDbEntity
8
0
100
AcDbSpline
62
9
6
CONTINUOUS
70
0
71
3
72
8
73
4
74
2
42
0.0000001000
43
0.0000001000
44
0.0000000001
12
0.0004267980
22
-0.0088289752
32
0.0000000000
13
0.0005901585
23
-0.0088186804
33
0.0000000000
40
0.0000000000
40
0.0000000000
40
0.0000000000
40
0.0000000000
40
1.0000000000
40
1.0000000000
40
1.0000000000
40
1.0000000000
10
-21.5622567817
20
-24.0014061804
30
0.0000000000
10
-21.5621145157
20
-24.0043491721
30
0.0000000000
10
-21.5619453954
20
-24.0072907247
30
0.0000000000
10
-21.5617486760
20
-24.0102302848
30
0.0000000000
11
-21.5622567817
21
-24.0014061804
31
0.0000000000
11
-21.5617486760
21
-24.0102302848
31
0.0000000000
0
SPLINE
5
3B1
100
AcDbEntity
8
0
100
AcDbSpline
62
9
6
CONTINUOUS
70
0
71
3
72
8
73
4
74
2
42
0.0000001000
43
0.0000001000
44
0.0000000001
12
0.0000127195
22
0.0156067663
32
0.0000000000
13
0.0004913348
23
0.0155968160
33
0.0000000000
40
0.0000000000
40
0.0000000000
40
0.0000000000
40
0.0000000000
40
1.0000000000
40
1.0000000000
40
1.0000000000
40
1.0000000000
10
-21.5628343842
20
24.9034480011
30
0.0000000000
10
-21.5628301443
20
24.9086502565
30
0.0000000000
10
-21.5627457399
20
24.9138523208
30
0.0000000000
10
-21.5625819616
20
24.9190512595
30
0.0000000000
11
-21.5628343842
21
24.9034480011
31
0.0000000000
11
-21.5625819616
21
24.9190512595
31
0.0000000000
0
SPLINE
5
3B2
100
AcDbEntity
8
0
100
AcDbSpline
62
9
6
CONTINUOUS
70
0
71
3
72
8
73
4
74
2
42
0.0000001000
43
0.0000001000
44
0.0000000001
12
0.0005432520
22
0.0172448641
32
0.0000000000
13
0.0011222504
23
0.0172100379
33
0.0000000000
40
0.0000000000
40
0.0000000000
40
0.0000000000
40
0.0000000000
40
1.0000000000
40
1.0000000000
40
1.0000000000
40
1.0000000000
10
-21.5625819616
20
24.9190512595
30
0.0000000000
10
-21.5624008776
20
24.9247995475
30
0.0000000000
10
-21.5621227594
20
24.9305440145
30
0.0000000000
10
-21.5617486760
20
24.9362806938
30
0.0000000000
11
-21.5625819616
21
24.9190512595
31
0.0000000000
11
-21.5617486760
21
24.9362806938
31
0.0000000000
0
SPLINE
5
3B3
100
AcDbEntity
8
0
100
AcDbSpline
62
9
6
CONTINUOUS
70
0
71
3
72
8
73
4
74
2
42
0.0000001000
43
0.0000001000
44
0.0000000001
12
-0.1111659044
22
-0.2379559945
32
0.0000000000
13
-0.1156793488
23
-0.2476443274
33
0.0000000000
40
0.0000000000
40
0.0000000000
40
0.0000000000
40
0.0000000000
40
1.0000000000
40
1.0000000000
40
1.0000000000
40
1.0000000000
10
-21.5617486760
20
-24.0102269374
30
0.0000000000
10
-21.5988039774
20
-24.0895456022
30
0.0000000000
10
-21.6373407581
20
-24.1720408155
30
0.0000000000
10
-21.6759005411
20
-24.2545889247
30
0.0000000000
11
-21.5617486760
21
-24.0102269374
31
0.0000000000
11
-21.6759005411
21
-24.2545889247
31
0.0000000000
0
SPLINE
5
3B4
100
AcDbEntity
8
0
100
AcDbSpline
62
9
6
CONTINUOUS
70
0
71
3
72
8
73
4
74
2
42
0.0000001000
43
0.0000001000
44
0.0000000001
12
-0.0139704036
22
-0.0299075957
32
0.0000000000
13
-0.0139647096
23
-0.0298957185
33
0.0000000000
40
0.0000000000
40
0.0000000000
40
0.0000000000
40
0.0000000000
40
1.0000000000
40
1.0000000000
40
1.0000000000
40
1.0000000000
10
-21.6759005411
20
-24.2545889247
30
0.0000000000
10
-21.6805573423
20
-24.2645581232
30
0.0000000000
10
-21.6852144789
20
-24.2745280933
30
0.0000000000
10
-21.6898693821
20
-24.2844933328
30
0.0000000000
11
-21.6759005411
21
-24.2545889247
31
0.0000000000
11
-21.6898693821
21
-24.2844933328
31
0.0000000000
0
SPLINE
5
3B5
100
AcDbEntity
8
0
100
AcDbSpline
62
9
6
CONTINUOUS
70
0
71
3
72
8
73
4
74
2
42
0.0000001000
43
0.0000001000
44
0.0000000001
12
-0.0057954429
22
-0.0124069126
32
0.0000000000
13
-0.0057925840
23
-0.0124008443
33
0.0000000000
40
0.0000000000
40
0.0000000000
40
0.0000000000
40
0.0000000000
40
1.0000000000
40
1.0000000000
40
1.0000000000
40
1.0000000000
10
-21.6898693821
20
-24.2844933328
30
0.0000000000
10
-21.6918011964
20
-24.2886289703
30
0.0000000000
10
-21.6937326261
20
-24.2927637931
30
0.0000000000
10
-21.6956634874
20
-24.2968974079
30
0.0000000000
11
-21.6898693821
21
-24.2844933328
31
0.0000000000
11
-21.6956634874
21
-24.2968974079
31
0.0000000000
0
SPLINE
5
3B6
100
AcDbEntity
8
0
100
AcDbSpline
62
9
6
CONTINUOUS
70
0
71
3
72
8
73
4
74
2
42
0.0000001000
43
0.0000001000
44
0.0000000001
12
-0.1090456731
22
-0.2334464911
32
0.0000000000
13
-0.1041623511
23
-0.2230071683
33
0.0000000000
40
0.0000000000
40
0.0000000000
40
0.0000000000
40
0.0000000000
40
1.0000000000
40
1.0000000000
40
1.0000000000
40
1.0000000000
10
-21.6956634874
20
-24.2968974079
30
0.0000000000
10
-21.7320120451
20
-24.3747129049
30
0.0000000000
10
-21.7681592092
20
-24.4521003055
30
0.0000000000
10
-21.8028799929
20
-24.5264360283
30
0.0000000000
11
-21.6956634874
21
-24.2968974079
31
0.0000000000
11
-21.8028799929
21
-24.5264360283
31
0.0000000000
0
SPLINE
5
3B7
100
AcDbEntity
8
0
100
AcDbSpline
62
9
6
CONTINUOUS
70
0
71
3
72
12
73
8
74
6
42
0.0000001000
43
0.0000001000
44
0.0000000001
12
-0.4803046279
22
-1.0283118024
32
0.0000000000
13
0.5585817275
23
1.1955023712
33
0.0000000000
40
0.0000000000
40
0.0000000000
40
0.0000000000
40
0.0000000000
40
0.2150929370
40
0.6351641861
40
0.7746406562
40
0.9141305252
40
1.0000000000
40
1.0000000000
40
1.0000000000
40
1.0000000000
10
-21.8028799929
20
-24.5264360283
30
0.0000000000
10
-21.8373167039
20
-24.6001635636
30
0.0000000000
10
-21.9348640447
20
-24.8090144980
30
0.0000000000
10
-22.0261992203
20
-25.0045795055
30
0.0000000000
10
-22.2076207771
20
-25.3927812137
30
0.0000000000
10
-22.1129314633
20
-25.1901666459
30
0.0000000000
10
-22.0672962508
20
-25.0925024148
30
0.0000000000
10
-22.0513078776
20
-25.0582833612
30
0.0000000000
11
-21.8028799929
21
-24.5264360283
31
0.0000000000
11
-21.9007855542
21
-24.7360530826
31
0.0000000000
11
-22.1039459290
21
-25.1709343904
31
0.0000000000
11
-22.1714200127
21
-25.3153195418
31
0.0000000000
11
-22.1039396393
21
-25.1709204301
31
0.0000000000
11
-22.0513078776
21
-25.0582833612
31
0.0000000000
0
SPLINE
5
3B8
100
AcDbEntity
8
0
100
AcDbSpline
62
9
6
CONTINUOUS
70
0
71
3
72
10
73
6
74
4
42
0.0000001000
43
0.0000001000
44
0.0000000001
12
-0.0960403292
22
-0.2055071116
32
0.0000000000
13
0.1474816795
23
0.3156470913
33
0.0000000000
40
0.0000000000
40
0.0000000000
40
0.0000000000
40
0.0000000000
40
0.1464593297
40
0.6747723532
40
1.0000000000
40
1.0000000000
40
1.0000000000
40
1.0000000000
10
-22.1639483867
20
-25.2993318679
30
0.0000000000
10
-22.1686370541
20
-25.3093646792
30
0.0000000000
10
-22.1814573802
20
-25.3367972262
30
0.0000000000
10
-22.1129314633
20
-25.1901666459
30
0.0000000000
10
-22.0672962508
20
-25.0925024148
30
0.0000000000
10
-22.0513078776
20
-25.0582833612
30
0.0000000000
11
-22.1639483867
21
-25.2993318679
31
0.0000000000
11
-22.1714200127
21
-25.3153195418
31
0.0000000000
11
-22.1039396393
21
-25.1709204301
31
0.0000000000
11
-22.0513078776
21
-25.0582833612
31
0.0000000000
0
SPLINE
5
3B9
100
AcDbEntity
8
0
100
AcDbSpline
62
9
6
CONTINUOUS
70
0
71
3
72
8
73
4
74
2
42
0.0000001000
43
0.0000001000
44
0.0000000001
12
-0.0140662953
22
-0.0300990609
32
0.0000000000
13
-0.0000005733
23
-0.0000011419
33
0.0000000000
40
0.0000000000
40
0.0000000000
40
0.0000000000
40
0.0000000000
40
1.0000000000
40
1.0000000000
40
1.0000000000
40
1.0000000000
10
-22.1639483867
20
-25.2993318679
30
0.0000000000
10
-22.1686371518
20
-25.3093648882
30
0.0000000000
10
-22.1714198216
20
-25.3153191612
30
0.0000000000
10
-22.1714200128
20
-25.3153195418
30
0.0000000000
11
-22.1639483867
21
-25.2993318679
31
0.0000000000
11
-22.1714200128
21
-25.3153195418
31
0.0000000000
0
SPLINE
5
3BA
100
AcDbEntity
8
0
100
AcDbSpline
62
9
6
CONTINUOUS
70
0
71
3
72
8
73
4
74
2
42
0.0000001000
43
0.0000001000
44
0.0000000001
12
-0.1223772969
22
0.2543237952
32
0.0000000000
13
-0.0000195026
23
-0.0000094660
33
0.0000000000
40
0.0000000000
40
0.0000000000
40
0.0000000000
40
0.0000000000
40
1.0000000000
40
1.0000000000
40
1.0000000000
40
1.0000000000
10
-21.9974469173
20
27.5036569036
30
0.0000000000
10
-22.0382393496
20
27.5884315020
30
0.0000000000
10
-22.0668651724
20
27.6478880397
30
0.0000000000
10
-22.0668716732
20
27.6478848844
30
0.0000000000
11
-21.9974469173
21
27.5036569036
31
0.0000000000
11
-22.0668716732
21
27.6478848844
31
0.0000000000
0
SPLINE
5
3BB
100
AcDbEntity
8
0
100
AcDbSpline
62
9
6
CONTINUOUS
70
0
71
3
72
9
73
5
74
3
42
0.0000001000
43
0.0000001000
44
0.0000000001
12
-0.2738364319
22
0.5767270541
32
0.0000000000
13
-0.4913730316
23
1.0211686109
33
0.0000000000
40
0.0000000000
40
0.0000000000
40
0.0000000000
40
0.0000000000
40
0.7099259079
40
1.0000000000
40
1.0000000000
40
1.0000000000
40
1.0000000000
10
-21.5565471754
20
26.5837757414
30
0.0000000000
10
-21.6213483679
20
26.7202535673
30
0.0000000000
10
-21.7292460593
20
26.9461268367
30
0.0000000000
10
-21.9499353887
20
27.4049187177
30
0.0000000000
10
-21.9974469173
20
27.5036569036
30
0.0000000000
11
-21.5565471754
21
26.5837757414
31
0.0000000000
11
-21.8313934994
21
27.1583499068
31
0.0000000000
11
-21.9974469173
21
27.5036569036
31
0.0000000000
0
SPLINE
5
3BC
100
AcDbEntity
8
0
100
AcDbSpline
62
9
6
CONTINUOUS
70
0
71
3
72
8
73
4
74
2
42
0.0000001000
43
0.0000001000
44
0.0000000001
12
-0.1029717267
22
0.2178964474
32
0.0000000000
13
-0.1027857844
23
0.2164771949
33
0.0000000000
40
0.0000000000
40
0.0000000000
40
0.0000000000
40
0.0000000000
40
1.0000000000
40
1.0000000000
40
1.0000000000
40
1.0000000000
10
-21.4569975754
20
26.3734998181
30
0.0000000000
10
-21.4913214843
20
26.4461319672
30
0.0000000000
10
-21.5222852473
20
26.5116166764
30
0.0000000000
10
-21.5565471754
20
26.5837757414
30
0.0000000000
11
-21.4569975754
21
26.3734998181
31
0.0000000000
11
-21.5565471754
21
26.5837757414
31
0.0000000000
0
SPLINE
5
3BD
100
AcDbEntity
8
0
100
AcDbSpline
62
9
6
CONTINUOUS
70
0
71
3
72
8
73
4
74
2
42
0.0000001000
43
0.0000001000
44
0.0000000001
12
-0.0845957918
22
0.1788671115
32
0.0000000000
13
-0.0693494620
23
0.1467490339
33
0.0000000000
40
0.0000000000
40
0.0000000000
40
0.0000000000
40
0.0000000000
40
1.0000000000
40
1.0000000000
40
1.0000000000
40
1.0000000000
10
-21.3810419214
20
26.2128028501
30
0.0000000000
10
-21.4092405187
20
26.2724252206
30
0.0000000000
10
-21.4338810881
20
26.3245834735
30
0.0000000000
10
-21.4569975754
20
26.3734998181
30
0.0000000000
11
-21.3810419214
21
26.2128028501
31
0.0000000000
11
-21.4569975754
21
26.3734998181
31
0.0000000000
0
SPLINE
5
3BE
100
AcDbEntity
8
0
100
AcDbSpline
62
9
6
CONTINUOUS
70
0
71
3
72
12
73
8
74
6
42
0.0000001000
43
0.0000001000
44
0.0000000001
12
-0.0000224472
22
-0.8767205685
32
0.0000000000
13
-0.3755918194
23
-0.7921929947
33
0.0000000000
40
0.0000000000
40
0.0000000000
40
0.0000000000
40
0.0000000000
40
0.2664590464
40
0.5181660254
40
0.7339814902
40
0.8984369286
40
1.0000000000
40
1.0000000000
40
1.0000000000
40
1.0000000000
10
-21.3955358100
20
-24.3194907627
30
0.0000000000
10
-21.3955378037
20
-24.3973608049
30
0.0000000000
10
-21.3978178378
20
-24.5488224408
30
0.0000000000
10
-21.4081592615
20
-24.7630326917
30
0.0000000000
10
-21.4240254643
20
-24.9473310058
30
0.0000000000
10
-21.4448169885
20
-25.0861894704
30
0.0000000000
10
-21.4624718756
20
-25.1628786924
30
0.0000000000
10
-21.4751872952
20
-25.1896978770
30
0.0000000000
11
-21.3955358100
21
-24.3194907627
31
0.0000000000
11
-21.3992104007
21
-24.5530719878
31
0.0000000000
11
-21.4101578093
21
-24.7734769648
31
0.0000000000
11
-21.4275250981
21
-24.9618880772
31
0.0000000000
11
-21.4498912047
21
-25.1043242112
31
0.0000000000
11
-21.4751872952
21
-25.1896978770
31
0.0000000000
0
SPLINE
5
3BF
100
AcDbEntity
8
0
100
AcDbSpline
62
9
6
CONTINUOUS
70
0
71
3
72
8
73
4
74
2
42
0.0000001000
43
0.0000001000
44
0.0000000001
12
0.0000020853
22
-0.0000041370
32
0.0000000000
13
0.0938239253
23
-0.2007795339
33
0.0000000000
40
0.0000000000
40
0.0000000000
40
0.0000000000
40
0.0000000000
40
1.0000000000
40
1.0000000000
40
1.0000000000
40
1.0000000000
10
-22.1714200128
20
26.2413703452
30
0.0000000000
10
-22.1714193176
20
26.2413689662
30
0.0000000000
10
-22.1352208397
20
26.1639122939
30
0.0000000000
10
-22.1039461980
20
26.0969857826
30
0.0000000000
11
-22.1714200128
21
26.2413703452
31
0.0000000000
11
-22.1039461980
21
26.0969857826
31
0.0000000000
0
SPLINE
5
3C0
100
AcDbEntity
8
0
100
AcDbSpline
62
9
6
CONTINUOUS
70
0
71
3
72
10
73
6
74
4
42
0.0000001000
43
0.0000001000
44
0.0000000001
12
-0.2037899845
22
0.4361607213
32
0.0000000000
13
0.2454188167
23
-0.5251866780
33
0.0000000000
40
0.0000000000
40
0.0000000000
40
0.0000000000
40
0.0000000000
40
0.2353650597
40
0.6177009320
40
1.0000000000
40
1.0000000000
40
1.0000000000
40
1.0000000000
10
-22.0513082348
20
25.9843349080
30
0.0000000000
10
-22.0672965821
20
26.0185539061
30
0.0000000000
10
-22.1129316653
20
26.1162178629
30
0.0000000000
10
-22.2076206266
20
26.3188316962
30
0.0000000000
10
-22.1352206596
20
26.1639119084
30
0.0000000000
10
-22.1039461980
20
26.0969857826
30
0.0000000000
11
-22.0513082348
21
25.9843349080
31
0.0000000000
11
-22.1039399063
21
26.0969717871
31
0.0000000000
11
-22.1714200127
21
26.2413703451
31
0.0000000000
11
-22.1039461980
21
26.0969857826
31
0.0000000000
0
SPLINE
5
3C1
100
AcDbEntity
8
0
100
AcDbSpline
62
9
6
CONTINUOUS
70
0
71
3
72
9
73
5
74
3
42
0.0000001000
43
0.0000001000
44
0.0000000001
12
-0.5007030865
22
1.0717781445
32
0.0000000000
13
-0.5782894247
23
1.2376816907
33
0.0000000000
40
0.0000000000
40
0.0000000000
40
0.0000000000
40
0.0000000000
40
0.6771522551
40
1.0000000000
40
1.0000000000
40
1.0000000000
40
1.0000000000
10
-21.5617487678
20
24.9362777722
30
0.0000000000
10
-21.6747661759
20
25.1781967681
30
0.0000000000
10
-21.8620201741
20
25.5790982817
30
0.0000000000
10
-21.9890750893
20
25.8511406604
30
0.0000000000
10
-22.0513082348
20
25.9843349080
30
0.0000000000
11
-21.5617487678
21
24.9362777722
31
0.0000000000
11
-21.9007617130
21
25.6620530499
31
0.0000000000
11
-22.0513082348
21
25.9843349080
31
0.0000000000
0
SPLINE
5
3C2
100
AcDbEntity
8
0
100
AcDbSpline
62
9
6
CONTINUOUS
70
0
71
3
72
9
73
5
74
3
42
0.0000001000
43
0.0000001000
44
0.0000000001
12
-0.6287554682
22
1.3256629312
32
0.0000000000
13
-0.0001177074
23
-0.0000619235
33
0.0000000000
40
0.0000000000
40
0.0000000000
40
0.0000000000
40
0.0000000000
40
0.7127731835
40
1.0000000000
40
1.0000000000
40
1.0000000000
40
1.0000000000
10
-21.4751873311
20
26.1157486623
30
0.0000000000
10
-21.6245740100
20
26.4307143248
30
0.0000000000
10
-21.6941737424
20
26.5798071818
30
0.0000000000
10
-22.1616192505
20
27.5480593386
30
0.0000000000
10
-22.1616305201
20
27.5480534099
30
0.0000000000
11
-21.4751873311
21
26.1157486623
31
0.0000000000
11
-21.9259154559
21
27.0594233925
31
0.0000000000
11
-22.1616305201
21
27.5480534099
31
0.0000000000
0
SPLINE
5
3C3
100
AcDbEntity
8
0
100
AcDbSpline
62
9
6
CONTINUOUS
70
0
71
3
72
11
73
7
74
5
42
0.0000001000
43
0.0000001000
44
0.0000000001
12
-0.6999636456
22
-1.4757912744
32
0.0000000000
13
0.0001917350
23
-0.0001001614
33
0.0000000000
40
0.0000000000
40
0.0000000000
40
0.0000000000
40
0.0000000000
40
0.6361626337
40
0.9434461835
40
0.9497532979
40
1.0000000000
40
1.0000000000
40
1.0000000000
40
1.0000000000
10
-21.4751872952
20
-25.1896978770
30
0.0000000000
10
-21.6236175339
20
-25.5026456316
30
0.0000000000
10
-21.8464954977
20
-25.9696050648
30
0.0000000000
10
-22.0682556012
20
-26.4285080898
30
0.0000000000
10
-22.1562795066
20
-26.6109111602
30
0.0000000000
10
-22.1619834179
20
-26.6227378754
30
0.0000000000
10
-22.1619802066
20
-26.6227395530
30
0.0000000000
11
-21.4751872952
21
-25.1896978770
31
0.0000000000
11
-21.9230114293
21
-26.1273353554
31
0.0000000000
11
-22.1410725058
21
-26.5793993086
31
0.0000000000
11
-22.1455498831
21
-26.5886773305
31
0.0000000000
11
-22.1619802066
21
-26.6227395530
31
0.0000000000
0
SPLINE
5
3C4
100
AcDbEntity
8
0
100
AcDbSpline
62
9
6
CONTINUOUS
70
0
71
3
72
8
73
4
74
2
42
0.0000001000
43
0.0000001000
44
0.0000000001
12
0.0011848852
22
0.0050744408
32
0.0000000000
13
0.0014934571
23
0.0049846647
33
0.0000000000
40
0.0000000000
40
0.0000000000
40
0.0000000000
40
0.0000000000
40
1.0000000000
40
1.0000000000
40
1.0000000000
40
1.0000000000
10
-21.5630642691
20
24.9312470323
30
0.0000000000
10
-21.5626693073
20
24.9329385125
30
0.0000000000
10
-21.5622215235
20
24.9346168878
30
0.0000000000
10
-21.5617237045
20
24.9362784427
30
0.0000000000
11
-21.5630642691
21
24.9312470323
31
0.0000000000
11
-21.5617237045
21
24.9362784427
31
0.0000000000
0
SPLINE
5
3C5
100
AcDbEntity
8
0
100
AcDbSpline
62
9
6
CONTINUOUS
70
0
71
3
72
12
73
8
74
6
42
0.0000001000
43
0.0000001000
44
0.0000000001
12
0.3754594412
22
-0.7922559009
32
0.0000000000
13
0.0000103310
23
-0.8767207106
33
0.0000000000
40
0.0000000000
40
0.0000000000
40
0.0000000000
40
0.0000000000
40
0.1015087996
40
0.2660451665
40
0.4818505555
40
0.7334034991
40
1.0000000000
40
1.0000000000
40
1.0000000000
40
1.0000000000
10
-21.4751872947
20
26.1157486795
30
0.0000000000
10
-21.4624831490
20
26.0889416977
30
0.0000000000
10
-21.4448129953
20
26.0122505071
30
0.0000000000
10
-21.4240261899
20
25.8733843819
30
0.0000000000
10
-21.4081625291
20
25.6891112595
30
0.0000000000
10
-21.3978195564
20
25.4749085554
30
0.0000000000
10
-21.3955367281
20
25.3234517907
30
0.0000000000
10
-21.3955358100
20
25.2455415661
30
0.0000000000
11
-21.4751872947
21
26.1157486795
31
0.0000000000
11
-21.4499007318
21
26.0304218017
31
0.0000000000
11
-21.4275215911
21
25.8879158697
31
0.0000000000
11
-21.4101573871
21
25.6995133134
31
0.0000000000
11
-21.3992144985
21
25.4792432886
31
0.0000000000
11
-21.3955358100
21
25.2455415661
31
0.0000000000
0
SPLINE
5
3C6
100
AcDbEntity
8
0
100
AcDbSpline
62
9
6
CONTINUOUS
70
0
71
3
72
10
73
6
74
4
42
0.0000001000
43
0.0000001000
44
0.0000000001
12
-0.1460832865
22
-0.0111943207
32
0.0000000000
13
-0.0039108500
23
-0.1464593618
33
0.0000000000
40
0.0000000000
40
0.0000000000
40
0.0000000000
40
0.0000000000
40
0.3357865923
40
0.6703448639
40
1.0000000000
40
1.0000000000
40
1.0000000000
40
1.0000000000
10
-21.3810387530
20
26.2127446827
30
0.0000000000
10
-21.3973896893
20
26.2114917151
30
0.0000000000
10
-21.4299204753
20
26.2007842890
30
0.0000000000
10
-21.4652938288
20
26.1645592215
30
0.0000000000
10
-21.4747564637
20
26.1318423725
30
0.0000000000
10
-21.4751862077
20
26.1157486789
30
0.0000000000
11
-21.3810387530
21
26.2127446827
31
0.0000000000
11
-21.4277673870
21
26.1973582541
31
0.0000000000
11
-21.4619070786
21
26.1621856213
31
0.0000000000
11
-21.4751862077
21
26.1157486789
31
0.0000000000
0
SPLINE
5
3C7
100
AcDbEntity
8
0
100
AcDbSpline
62
9
6
CONTINUOUS
70
0
71
3
72
10
73
6
74
4
42
0.0000001000
43
0.0000001000
44
0.0000000001
12
-0.1461362183
22
0.0112050446
32
0.0000000000
13
-0.0038254734
23
0.1465152315
33
0.0000000000
40
0.0000000000
40
0.0000000000
40
0.0000000000
40
0.0000000000
40
0.3357838271
40
0.6703423298
40
1.0000000000
40
1.0000000000
40
1.0000000000
40
1.0000000000
10
-21.3810419883
20
-25.2867539349
30
0.0000000000
10
-21.3973987145
20
-25.2854997773
30
0.0000000000
10
-21.4299408783
20
-25.2747834943
30
0.0000000000
10
-21.4653163701
20
-25.2385326694
30
0.0000000000
10
-21.4747663072
20
-25.2057978336
30
0.0000000000
10
-21.4751866727
20
-25.1896978770
30
0.0000000000
11
-21.3810419883
21
-25.2867539349
31
0.0000000000
11
-21.4277851677
21
-25.2713554344
31
0.0000000000
11
-21.4619259670
21
-25.2361588442
31
0.0000000000
11
-21.4751866727
21
-25.1896978770
31
0.0000000000
0
SPLINE
5
3C8
100
AcDbEntity
8
0
100
AcDbSpline
62
9
6
CONTINUOUS
70
0
71
3
72
8
73
4
74
2
42
0.0000001000
43
0.0000001000
44
0.0000000001
12
-0.0886917398
22
-0.0036394747
32
0.0000000000
13
-0.0886917289
23
-0.0036397405
33
0.0000000000
40
0.0000000000
40
0.0000000000
40
0.0000000000
40
0.0000000000
40
1.0000000000
40
1.0000000000
40
1.0000000000
40
1.0000000000
10
-21.2923501527
20
26.2164424740
30
0.0000000000
10
-21.3219140659
20
26.2152293158
30
0.0000000000
10
-21.3514779774
20
26.2140161132
30
0.0000000000
10
-21.3810418870
20
26.2128028664
30
0.0000000000
11
-21.2923501527
21
26.2164424740
31
0.0000000000
11
-21.3810418870
21
26.2128028664
31
0.0000000000
0
SPLINE
5
3C9
100
AcDbEntity
8
0
100
AcDbSpline
62
9
6
CONTINUOUS
70
0
71
3
72
8
73
4
74
2
42
0.0000001000
43
0.0000001000
44
0.0000000001
12
-0.0629033357
22
-0.0025928416
32
0.0000000000
13
-0.0629033302
23
-0.0025929742
33
0.0000000000
40
0.0000000000
40
0.0000000000
40
0.0000000000
40
0.0000000000
40
1.0000000000
40
1.0000000000
40
1.0000000000
40
1.0000000000
10
-21.2385582085
20
25.2481344739
30
0.0000000000
10
-21.2595259870
20
25.2472701934
30
0.0000000000
10
-21.2804937646
20
25.2464058908
30
0.0000000000
10
-21.3014615414
20
25.2455415660
30
0.0000000000
11
-21.2385582085
21
25.2481344739
31
0.0000000000
11
-21.3014615414
21
25.2455415660
31
0.0000000000
0
SPLINE
5
3CA
100
AcDbEntity
8
0
100
AcDbSpline
62
9
6
CONTINUOUS
70
0
71
3
72
8
73
4
74
2
42
0.0000001000
43
0.0000001000
44
0.0000000001
12
-0.0629040692
22
0.0025928719
32
0.0000000000
13
-0.0629040638
23
0.0025930045
33
0.0000000000
40
0.0000000000
40
0.0000000000
40
0.0000000000
40
0.0000000000
40
1.0000000000
40
1.0000000000
40
1.0000000000
40
1.0000000000
10
-21.2385574749
20
-24.3220837008
30
0.0000000000
10
-21.2595254980
20
-24.3212194102
30
0.0000000000
10
-21.2804935201
20
-24.3203550975
30
0.0000000000
10
-21.3014615414
20
-24.3194907627
30
0.0000000000
11
-21.2385574749
21
-24.3220837008
31
0.0000000000
11
-21.3014615414
21
-24.3194907627
31
0.0000000000
0
SPLINE
5
3CB
100
AcDbEntity
8
0
100
AcDbSpline
62
9
6
CONTINUOUS
70
0
71
3
72
12
73
8
74
6
42
0.0000001000
43
0.0000001000
44
0.0000000001
12
-1.2440137331
22
-2.6302989034
32
0.0000000000
13
1.0215087285
23
2.1615381256
33
0.0000000000
40
0.0000000000
40
0.0000000000
40
0.0000000000
40
0.0000000000
40
0.3576396225
40
0.5303657104
40
0.5339110657
40
0.7073536568
40
1.0000000000
40
1.0000000000
40
1.0000000000
40
1.0000000000
10
-21.3810418874
20
-25.2867520640
30
0.0000000000
10
-21.5293447547
20
-25.6003184329
30
0.0000000000
10
-21.7520358090
20
-26.0681768184
30
0.0000000000
10
-21.9735859642
20
-26.5279802804
30
0.0000000000
10
-22.1239652130
20
-26.8404578617
30
0.0000000000
10
-21.6703182991
20
-25.8983368459
30
0.0000000000
10
-21.5565141094
20
-25.6580260378
30
0.0000000000
10
-21.4568671781
20
-25.4471706284
30
0.0000000000
11
-21.3810418874
21
-25.2867520640
31
0.0000000000
11
-21.8284899372
21
-26.2262459257
31
0.0000000000
11
-22.0463358234
21
-26.6791494845
31
0.0000000000
11
-22.0508091857
21
-26.6884448233
31
0.0000000000
11
-21.8320498596
21
-26.2336672275
31
0.0000000000
11
-21.4568671781
21
-25.4471706284
31
0.0000000000
0
SPLINE
5
3CC
100
AcDbEntity
8
0
100
AcDbSpline
62
9
6
CONTINUOUS
70
0
71
3
72
8
73
4
74
2
42
0.0000001000
43
0.0000001000
44
0.0000000001
12
0.1028383267
22
0.2165878020
32
0.0000000000
13
0.1031562896
23
0.2182812996
33
0.0000000000
40
0.0000000000
40
0.0000000000
40
0.0000000000
40
0.0000000000
40
1.0000000000
40
1.0000000000
40
1.0000000000
40
1.0000000000
10
-21.5565605210
20
-25.6577465086
30
0.0000000000
10
-21.5222810788
20
-25.5855505746
30
0.0000000000
10
-21.4912526080
20
-25.5199310616
30
0.0000000000
10
-21.4568671781
20
-25.4471706284
30
0.0000000000
11
-21.5565605210
21
-25.6577465086
31
0.0000000000
11
-21.4568671781
21
-25.4471706284
31
0.0000000000
0
SPLINE
5
3CD
100
AcDbEntity
8
0
100
AcDbSpline
62
9
6
CONTINUOUS
70
0
71
3
72
9
73
5
74
3
42
0.0000001000
43
0.0000001000
44
0.0000000001
12
0.4929455319
22
1.0244379906
32
0.0000000000
13
0.2741586427
23
0.5774055232
33
0.0000000000
40
0.0000000000
40
0.0000000000
40
0.0000000000
40
0.0000000000
40
0.2880726730
40
1.0000000000
40
1.0000000000
40
1.0000000000
40
1.0000000000
10
-21.9968650072
20
-26.5763994048
30
0.0000000000
10
-21.9495302948
20
-26.4780285414
30
0.0000000000
10
-21.7294561996
20
-26.0205136899
30
0.0000000000
10
-21.6216208642
20
-25.7947700988
30
0.0000000000
10
-21.5565605210
20
-25.6577465086
30
0.0000000000
11
-21.9968650072
21
-26.5763994048
31
0.0000000000
11
-21.8320498596
21
-26.2336672275
31
0.0000000000
11
-21.5565605210
21
-25.6577465086
31
0.0000000000
0
SPLINE
5
3CE
100
AcDbEntity
8
0
100
AcDbSpline
62
9
6
CONTINUOUS
70
0
71
3
72
8
73
4
74
2
42
0.0000001000
43
0.0000001000
44
0.0000000001
12
0.0000204502
22
-0.0000099289
32
0.0000000000
13
0.1238602051
23
0.2574059230
33
0.0000000000
40
0.0000000000
40
0.0000000000
40
0.0000000000
40
0.0000000000
40
1.0000000000
40
1.0000000000
40
1.0000000000
40
1.0000000000
10
-22.0672251029
20
-26.7225695604
30
0.0000000000
10
-22.0672182862
20
-26.7225728701
30
0.0000000000
10
-22.0381517422
20
-26.6622013792
30
0.0000000000
10
-21.9968650072
20
-26.5763994048
30
0.0000000000
11
-22.0672251029
21
-26.7225695604
31
0.0000000000
11
-21.9968650072
21
-26.5763994048
31
0.0000000000
0
SPLINE
5
3CF
100
AcDbEntity
8
0
100
AcDbSpline
62
9
6
CONTINUOUS
70
0
71
3
72
8
73
4
74
2
42
0.0000001000
43
0.0000001000
44
0.0000000001
12
-0.0887543926
22
0.0036420455
32
0.0000000000
13
-0.0887543816
23
0.0036423116
33
0.0000000000
40
0.0000000000
40
0.0000000000
40
0.0000000000
40
0.0000000000
40
1.0000000000
40
1.0000000000
40
1.0000000000
40
1.0000000000
10
-21.2922875003
20
-25.2903942425
30
0.0000000000
10
-21.3218722978
20
-25.2891802274
30
0.0000000000
10
-21.3514570935
20
-25.2879661679
30
0.0000000000
10
-21.3810418874
20
-25.2867520640
30
0.0000000000
11
-21.2922875003
21
-25.2903942425
31
0.0000000000
11
-21.3810418874
21
-25.2867520640
31
0.0000000000
0
SPLINE
5
3D0
100
AcDbEntity
8
0
100
AcDbSpline
62
9
6
CONTINUOUS
70
0
71
3
72
11
73
7
74
5
42
0.0000001000
43
0.0000001000
44
0.0000000001
12
0.2684194832
22
-0.6587041102
32
0.0000000000
13
0.0226392095
23
-0.7108899718
33
0.0000000000
40
0.0000000000
40
0.0000000000
40
0.0000000000
40
0.0000000000
40
0.1391901890
40
0.3634614202
40
0.6570085048
40
1.0000000000
40
1.0000000000
40
1.0000000000
40
1.0000000000
10
-21.3810418870
20
26.2128028664
30
0.0000000000
10
-21.3685881008
20
26.1822411499
30
0.0000000000
10
-21.3517372888
20
26.0968914593
30
0.0000000000
10
-21.3313407137
20
25.9428251100
30
0.0000000000
10
-21.3155531361
20
25.7390884547
30
0.0000000000
10
-21.3086728148
20
25.5883475757
30
0.0000000000
10
-21.3060844627
20
25.5070711710
30
0.0000000000
11
-21.3810418870
21
26.2128028664
31
0.0000000000
11
-21.3564982976
21
26.1168880605
31
0.0000000000
11
-21.3347253646
21
25.9588579815
31
0.0000000000
11
-21.3174795128
21
25.7507729368
31
0.0000000000
11
-21.3060844627
21
25.5070711710
31
0.0000000000
0
SPLINE
5
3D1
100
AcDbEntity
8
0
100
AcDbSpline
62
9
6
CONTINUOUS
70
0
71
3
72
8
73
4
74
2
42
0.0000001000
43
0.0000001000
44
0.0000000001
12
0.0064220445
22
-0.2016575288
32
0.0000000000
13
0.0020451862
23
-0.2017730627
33
0.0000000000
40
0.0000000000
40
0.0000000000
40
0.0000000000
40
0.0000000000
40
1.0000000000
40
1.0000000000
40
1.0000000000
40
1.0000000000
10
-21.3060844627
20
25.5070711710
30
0.0000000000
10
-21.3039437812
20
25.4398519947
30
0.0000000000
10
-21.3025685185
20
25.3725976502
30
0.0000000000
10
-21.3018867897
20
25.3053399627
30
0.0000000000
11
-21.3060844627
21
25.5070711710
31
0.0000000000
11
-21.3018867897
21
25.3053399627
31
0.0000000000
0
SPLINE
5
3D2
100
AcDbEntity
8
0
100
AcDbSpline
62
9
6
CONTINUOUS
70
0
71
3
72
8
73
4
74
2
42
0.0000001000
43
0.0000001000
44
0.0000000001
12
0.0006061203
22
-0.0597983441
32
0.0000000000
13
0.0002462476
23
-0.0597976207
33
0.0000000000
40
0.0000000000
40
0.0000000000
40
0.0000000000
40
0.0000000000
40
1.0000000000
40
1.0000000000
40
1.0000000000
40
1.0000000000
10
-21.3018867897
20
25.3053399627
30
0.0000000000
10
-21.3016847497
20
25.2854071813
30
0.0000000000
10
-21.3015436239
20
25.2654741063
30
0.0000000000
10
-21.3014615414
20
25.2455415661
30
0.0000000000
11
-21.3018867897
21
25.3053399627
31
0.0000000000
11
-21.3014615414
21
25.2455415661
31
0.0000000000
0
SPLINE
5
3D3
100
AcDbEntity
8
0
100
AcDbSpline
62
9
6
CONTINUOUS
70
0
71
3
72
8
73
4
74
2
42
0.0000001000
43
0.0000001000
44
0.0000000001
12
-0.0003639879
22
-0.0879987658
32
0.0000000000
13
-0.0011474525
23
-0.0879978044
33
0.0000000000
40
0.0000000000
40
0.0000000000
40
0.0000000000
40
0.0000000000
40
1.0000000000
40
1.0000000000
40
1.0000000000
40
1.0000000000
10
-21.3014615414
20
-24.3194907627
30
0.0000000000
10
-21.3015828707
20
-24.3488236847
30
0.0000000000
10
-21.3018317248
20
-24.3781577675
30
0.0000000000
10
-21.3022142090
20
-24.4074903690
30
0.0000000000
11
-21.3014615414
21
-24.3194907627
31
0.0000000000
11
-21.3022142090
21
-24.4074903690
31
0.0000000000
0
SPLINE
5
3D4
100
AcDbEntity
8
0
100
AcDbSpline
62
9
6
CONTINUOUS
70
0
71
3
72
8
73
4
74
2
42
0.0000001000
43
0.0000001000
44
0.0000000001
12
-0.0022623208
22
-0.1734967320
32
0.0000000000
13
-0.0055193857
23
-0.1734014317
33
0.0000000000
40
0.0000000000
40
0.0000000000
40
0.0000000000
40
0.0000000000
40
1.0000000000
40
1.0000000000
40
1.0000000000
40
1.0000000000
10
-21.3022142090
20
-24.4074903690
30
0.0000000000
10
-21.3029683159
20
-24.4653226130
30
0.0000000000
10
-21.3042418719
20
-24.5231490987
30
0.0000000000
10
-21.3060816671
20
-24.5809495759
30
0.0000000000
11
-21.3022142090
21
-24.4074903690
31
0.0000000000
11
-21.3060816671
21
-24.5809495759
31
0.0000000000
0
SPLINE
5
3D5
100
AcDbEntity
8
0
100
AcDbSpline
62
9
6
CONTINUOUS
70
0
71
3
72
11
73
7
74
5
42
0.0000001000
43
0.0000001000
44
0.0000000001
12
-0.0226299582
22
-0.7109608516
32
0.0000000000
13
-0.2685025732
23
-0.6587466645
33
0.0000000000
40
0.0000000000
40
0.0000000000
40
0.0000000000
40
0.0000000000
40
0.3429692205
40
0.6365186564
40
0.8607874135
40
1.0000000000
40
1.0000000000
40
1.0000000000
40
1.0000000000
10
-21.3060816671
20
-24.5809495759
30
0.0000000000
10
-21.3086687935
20
-24.6622288056
30
0.0000000000
10
-21.3155482893
20
-24.8129799729
30
0.0000000000
10
-21.3313369847
20
-25.0167319948
30
0.0000000000
10
-21.3517358700
20
-25.1708179790
30
0.0000000000
10
-21.3685822415
20
-25.2561834550
30
0.0000000000
10
-21.3810418874
20
-25.2867520640
30
0.0000000000
11
-21.3060816671
21
-24.5809495759
31
0.0000000000
11
-21.3174747205
21
-24.8246598710
31
0.0000000000
11
-21.3347219959
21
-25.0327673205
31
0.0000000000
11
-21.3564937703
21
-25.1908118032
31
0.0000000000
11
-21.3810418874
21
-25.2867520640
31
0.0000000000
0
ENDSEC
0
SECTION
2
OBJECTS
0
DICTIONARY
5
C
100
AcDbDictionary
280
0
281
1
3
ACAD_GROUP
350
D
3
ACAD_MLINESTYLE
350
17
3
ACAD_LAYOUT
350
1A
3
ACAD_PLOTSETTINGS
350
19
3
ACAD_PLOTSTYLENAME
350
E
0
DICTIONARY
5
D
102
{ACAD_REACTORS
330
C
102
}
100
AcDbDictionary
280
0
281
1
0
ACDBDICTIONARYWDFLT
5
E
102
{ACAD_REACTORS
330
C
102
}
100
AcDbDictionary
281
1
3
Normal
350
F
100
AcDbDictionaryWithDefault
340
F
0
DICTIONARY
5
17
102
{ACAD_REACTORS
330
C
102
}
100
AcDbDictionary
280
0
281
1
3
Standard
350
18
0
DICTIONARY
5
19
102
{ACAD_REACTORS
330
C
102
}
100
AcDbDictionary
281
1
0
DICTIONARY
5
1A
102
{ACAD_REACTORS
330
C
102
}
100
AcDbDictionary
281
1
3
Layout1
350
1E
3
Model
350
22
0
ACDBPLACEHOLDER
5
F
102
{ACAD_REACTORS
330
E
102
}
0
MLINESTYLE
5
18
102
{ACAD_REACTORS
330
17
102
}
100
AcDbMlineStyle
2
STANDARD
70
0
3

62
256
51
90.0
52
90.0
71
2
49
0.5
62
256
6
BYLAYER
49
-0.5
62
256
6
BYLAYER
0
LAYOUT
5
1E
102
{ACAD_REACTORS
330
1A
102
}
100
AcDbPlotSettings
1

2

4

6

40
0.0
41
0.0
42
0.0
43
0.0
44
0.0
45
0.0
46
0.0
47
0.0
48
0.0
49
0.0
140
0.0
141
0.0
142
1.0
143
1.0
70
0
72
0
73
0
74
0
7

75
0
147
1.0
148
0.0
149
0.0
100
AcDbLayout
1
Layout1
70
0
71
0
10
0.0
20
0.0
11
0.0
21
0.0
12
0.0
22
0.0
32
0.0
14
0.0
24
0.0
34
0.0
15
0.0
25
0.0
35
0.0
146
0.0
13
0.0
23
0.0
33
0.0
16
0.0
26
0.0
36
0.0
17
0.0
27
0.0
37
0.0
76
0
330
1B
331
0
345
0
346
0
0
LAYOUT
5
22
102
{ACAD_REACTORS
330
1A
102
}
100
AcDbPlotSettings
1

2

4

6

40
0.0
41
0.0
42
0.0
43
0.0
44
0.0
45
0.0
46
0.0
47
0.0
48
0.0
49
0.0
140
0.0
141
0.0
142
1.0
143
1.0
70
0
72
0
73
0
74
0
7

75
0
147
1.0
148
0.0
149
0.0
100
AcDbLayout
1
Model
70
0
71
0
10
0.0
20
0.0
11
0.0
21
0.0
12
0.0
22
0.0
32
0.0
14
0.0
24
0.0
34
0.0
15
0.0
25
0.0
35
0.0
146
0.0
13
0.0
23
0.0
33
0.0
16
0.0
26
0.0
36
0.0
17
0.0
27
0.0
37
0.0
76
0
330
1F
331
0
345
0
346
0
0
ENDSEC
0
EOF
