0
SECTION
2
HEADER
9
$ACADVER
1
AC1015
9
$DWGCODEPAGE
3
ANSI_1252
9
$EXTMAX
10
297.0000000000
20
210.0000000000
30
0.0000000000
9
$EXTMIN
10
0.0000000000
20
0.0000000000
30
0.0000000000
9
$LIMMIN
10
0.0000000000
20
0.0000000000
9
$LIMMAX
10
297.0000000000
20
210.0000000000
9
$VIEWCTR
10
148.5000000000
20
105.0000000000
9
$VIEWSIZE
40
210.0000000000
9
$CLAYER
8
0
9
$LTSCALE
40
16.3350000000
9
$CELTYPE
6
BYLAYER
9
$DIMSCALE
40
1
9
$DIMASZ
40
3.0000000000
9
$DIMEXO
40
1.8562500000
9
$DIMDLI
40
11.2860000000
9
$DIMEXE
40
5.3460000000
9
$DIMCEN
40
2.6730000000
9
$DIMLFAC
40
1.0000000000
9
$DIMBLK
1
_FILLED
9
$DIMTXT
40
3.0000000000
9
$DIMTOL
70
1
9
$DIMLIM
70
0
9
$DIMTFAC
40
1.0000000000
9
$DIMTP
40
0.0100000000
9
$DIMTM
40
0.0100000000
9
$PDMODE
70
3
9
$PDSIZE
40
3.0000000000
9
$HANDSEED
5
3E8
9
$MEASUREMENT
70
1
9
$INSUNITS
70
4
0
ENDSEC
0
SECTION
2
CLASSES
0
CLASS
1
ACDBDICTIONARYWDFLT
2
AcDbDictionaryWithDefault
3
AutoCAD 2000
90
0
280
0
281
0
0
CLASS
1
ACDBPLACEHOLDER
2
AcDbPlaceHolder
3
AutoCAD 2000
90
0
280
0
281
0
0
CLASS
1
LAYOUT
2
AcDbLayout
3
AutoCAD 2000
90
0
280
0
281
0
0
ENDSEC
0
SECTION
2
TABLES
0
TABLE
2
VPORT
5
8
100
AcDbSymbolTable
70
2
0
VPORT
5
1F4
100
AcDbSymbolTableRecord
100
AcDbViewportTableRecord
2
*ACTIVE
70
0
10
0.0
20
0.0
11
1.0
21
1.0
12
148.5000000000
22
105.0000000000
13
0.0
23
0.0
14
1.0
24
1.0
15
0.0
25
0.0
16
0.0
26
0.0
36
1.0
17
0.0
27
0.0
37
0.0
40
210.0000000000
41
1.4142857143
42
50.0
43
0.0
44
0.0
50
0.0
51
0.0
71
0
72
100
73
1
74
1
75
0
76
0
77
0
78
0
0
ENDTAB
0
TABLE
2
LTYPE
5
5
100
AcDbSymbolTable
70
6
0
LTYPE
5
14
100
AcDbSymbolTableRecord
100
AcDbLinetypeTableRecord
2
BYBLOCK
70
0
3

72
65
73
0
40
0.0
0
LTYPE
5
15
100
AcDbSymbolTableRecord
100
AcDbLinetypeTableRecord
2
BYLAYER
70
0
3

72
65
73
0
40
0.0
0
LTYPE
5
16
100
AcDbSymbolTableRecord
100
AcDbLinetypeTableRecord
2
CONTINUOUS
70
64
3
Solid line
72
65
73
0
40
0
0
LTYPE
5
1F5
100
AcDbSymbolTableRecord
100
AcDbLinetypeTableRecord
2
CENTER
70
64
3
____ _ ____ _ ____ _ ____ _ ____ _ ____ _ ____
72
65
73
4
40
0.6
49
0.375
74
0
49
-0.075
74
0
49
0.075
74
0
49
-0.075
74
0
0
LTYPE
5
1F6
100
AcDbSymbolTableRecord
100
AcDbLinetypeTableRecord
2
HIDDEN
70
64
3
- - - - - - - - - - - - - - - - - - - -
72
65
73
2
40
0.2
49
0.1
74
0
49
-0.1
74
0
0
LTYPE
5
1F7
100
AcDbSymbolTableRecord
100
AcDbLinetypeTableRecord
2
PHANTOM
70
64
3
_____ _ _ _____ _ _ _____ _ _ _____
72
65
73
6
40
0.8
49
0.45
74
0
49
-0.05
74
0
49
0.1
74
0
49
-0.05
74
0
49
0.1
74
0
49
-0.05
74
0
0
LTYPE
5
1F8
100
AcDbSymbolTableRecord
100
AcDbLinetypeTableRecord
2
DOT
70
64
3
. . . . . . . . . . . . . . . . . . . .
72
65
73
2
40
0.2
49
0.1
74
0
49
-0.1
74
0
0
LTYPE
5
1F9
100
AcDbSymbolTableRecord
100
AcDbLinetypeTableRecord
2
DASHED
70
64
3
- - - - - - - - - - - - - - - - - - - -
72
65
73
2
40
0.2
49
0.1
74
0
49
-0.1
74
0
0
ENDTAB
0
TABLE
2
LAYER
5
2
100
AcDbSymbolTable
70
36
0
LAYER
5
10
100
AcDbSymbolTableRecord
100
AcDbLayerTableRecord
2
0
70
0
62
7
6
CONTINUOUS
370
-3
390
F
0
LAYER
5
1FA
100
AcDbSymbolTableRecord
100
AcDbLayerTableRecord
2
DEFAULT_1
70
0
62
7
6
CENTER
370
-3
390
F
0
LAYER
5
1FB
100
AcDbSymbolTableRecord
100
AcDbLayerTableRecord
2
DEFAULT_2
70
0
62
8
6
HIDDEN
370
-3
390
F
0
LAYER
5
1FC
100
AcDbSymbolTableRecord
100
AcDbLayerTableRecord
2
DEFAULT_3
70
0
62
7
6
PHANTOM
370
-3
390
F
0
LAYER
5
1FD
100
AcDbSymbolTableRecord
100
AcDbLayerTableRecord
2
ASSI
70
0
62
7
6
CONTINUOUS
370
-3
390
F
0
LAYER
5
1FE
100
AcDbSymbolTableRecord
100
AcDbLayerTableRecord
2
COORDINATE
70
0
62
7
6
CONTINUOUS
370
-3
390
F
0
LAYER
5
1FF
100
AcDbSymbolTableRecord
100
AcDbLayerTableRecord
2
COORD_ORIGINE
70
0
62
7
6
CONTINUOUS
370
-3
390
F
0
LAYER
5
200
100
AcDbSymbolTableRecord
100
AcDbLayerTableRecord
2
COPY
70
0
62
7
6
CONTINUOUS
370
-3
390
F
0
LAYER
5
201
100
AcDbSymbolTableRecord
100
AcDbLayerTableRecord
2
COPY_GRIGLIA
70
0
62
7
6
CONTINUOUS
370
-3
390
F
0
LAYER
5
202
100
AcDbSymbolTableRecord
100
AcDbLayerTableRecord
2
COPY_PLACCA
70
0
62
7
6
CONTINUOUS
370
-3
390
F
0
LAYER
5
203
100
AcDbSymbolTableRecord
100
AcDbLayerTableRecord
2
COPY_PUB
70
0
62
7
6
CONTINUOUS
370
-3
390
F
0
LAYER
5
204
100
AcDbSymbolTableRecord
100
AcDbLayerTableRecord
2
COPY_SUPPORTO
70
0
62
7
6
CONTINUOUS
370
-3
390
F
0
LAYER
5
205
100
AcDbSymbolTableRecord
100
AcDbLayerTableRecord
2
CURVE
70
0
62
7
6
CONTINUOUS
370
-3
390
F
0
LAYER
5
206
100
AcDbSymbolTableRecord
100
AcDbLayerTableRecord
2
DRAFT
70
0
62
7
6
CONTINUOUS
370
-3
390
F
0
LAYER
5
207
100
AcDbSymbolTableRecord
100
AcDbLayerTableRecord
2
IMPORT_SCRITTE
70
0
62
7
6
CONTINUOUS
370
-3
390
F
0
LAYER
5
208
100
AcDbSymbolTableRecord
100
AcDbLayerTableRecord
2
NOTE
70
0
62
7
6
CONTINUOUS
370
-3
390
F
0
LAYER
5
209
100
AcDbSymbolTableRecord
100
AcDbLayerTableRecord
2
PIANI
70
0
62
7
6
CONTINUOUS
370
-3
390
F
0
LAYER
5
20A
100
AcDbSymbolTableRecord
100
AcDbLayerTableRecord
2
PIANI_ORIGINE
70
0
62
7
6
CONTINUOUS
370
-3
390
F
0
LAYER
5
20B
100
AcDbSymbolTableRecord
100
AcDbLayerTableRecord
2
PUNTI
70
0
62
7
6
CONTINUOUS
370
-3
390
F
0
LAYER
5
20C
100
AcDbSymbolTableRecord
100
AcDbLayerTableRecord
2
RACCORDO
70
0
62
7
6
CONTINUOUS
370
-3
390
F
0
LAYER
5
20D
100
AcDbSymbolTableRecord
100
AcDbLayerTableRecord
2
SKEL
70
0
62
7
6
CONTINUOUS
370
-3
390
F
0
LAYER
5
20E
100
AcDbSymbolTableRecord
100
AcDbLayerTableRecord
2
SMUSSO
70
0
62
7
6
CONTINUOUS
370
-3
390
F
0
LAYER
5
20F
100
AcDbSymbolTableRecord
100
AcDbLayerTableRecord
2
SNAPLINE
70
0
62
7
6
CONTINUOUS
370
-3
390
F
0
LAYER
5
210
100
AcDbSymbolTableRecord
100
AcDbLayerTableRecord
2
SUPERFICI
70
0
62
7
6
CONTINUOUS
370
-3
390
F
0
LAYER
5
211
100
AcDbSymbolTableRecord
100
AcDbLayerTableRecord
2
TRASH
70
0
62
7
6
CONTINUOUS
370
-3
390
F
0
LAYER
5
212
100
AcDbSymbolTableRecord
100
AcDbLayerTableRecord
2
XSEC_DATUMS
70
0
62
7
6
CONTINUOUS
370
-3
390
F
0
ENDTAB
0
TABLE
2
STYLE
5
3
100
AcDbSymbolTable
70
1
0
STYLE
5
11
100
AcDbSymbolTableRecord
100
AcDbTextStyleTableRecord
2
STANDARD
70
0
40
0.0
41
0.8000000000
50
0.0
71
0
42
0.2
3
txt
4

0
ENDTAB
0
TABLE
2
VIEW
5
6
100
AcDbSymbolTable
70
0
0
ENDTAB
0
TABLE
2
UCS
5
7
100
AcDbSymbolTable
70
0
0
ENDTAB
0
TABLE
2
APPID
5
9
100
AcDbSymbolTable
70
1
0
APPID
5
213
100
AcDbSymbolTableRecord
100
AcDbRegAppTableRecord
2
ACAD
70
0
0
ENDTAB
0
TABLE
2
BLOCK_RECORD
5
1
100
AcDbSymbolTable
70
0
0
BLOCK_RECORD
5
1F
100
AcDbSymbolTableRecord
100
AcDbBlockTableRecord
2
*MODEL_SPACE
0
BLOCK_RECORD
5
1B
100
AcDbSymbolTableRecord
100
AcDbBlockTableRecord
2
*PAPER_SPACE
0
BLOCK_RECORD
5
214
100
AcDbSymbolTableRecord
100
AcDbBlockTableRecord
2
_FILLED
0
BLOCK_RECORD
5
215
100
AcDbSymbolTableRecord
100
AcDbBlockTableRecord
2
*D0
0
BLOCK_RECORD
5
216
100
AcDbSymbolTableRecord
100
AcDbBlockTableRecord
2
*D1
0
BLOCK_RECORD
5
217
100
AcDbSymbolTableRecord
100
AcDbBlockTableRecord
2
*D2
0
ENDTAB
0
TABLE
2
DIMSTYLE
5
A
100
AcDbSymbolTable
70
1
100
AcDbDimStyleTable
71
0
0
DIMSTYLE
105
218
100
AcDbSymbolTableRecord
100
AcDbDimStyleTableRecord
2
STANDARD
70
0
3

4

40
1.0
41
3.0000000000
42
0.0625
43
0.38
44
0.18
45
0.0
46
0.0
47
0.0100000000
48
0.0100000000
140
3.0000000000
141
0.09
142
0.0
143
25.4
144
1.0000000000
145
0.0
146
1.0000000000
147
0.09
71
1
72
0
73
0
74
0
75
0
76
0
77
1
78
8
170
0
171
2
172
0
173
0
174
0
175
0
176
0
177
0
178
0
270
2
271
2
272
2
273
2
274
2
275
0
280
0
281
0
282
0
283
1
284
8
285
0
286
0
287
3
288
0
340
11
341
214
342
214
343
214
344
214
0
DIMSTYLE
105
219
100
AcDbSymbolTableRecord
100
AcDbDimStyleTableRecord
2
DIMSTYLE_1
70
0
3

4

40
1.0
41
3.0000000000
42
0.0625
43
0.38
44
0.18
45
0.0
46
0.0
47
0.0000000000
48
0.0000000000
140
3.0000000000
141
0.09
142
0.0
143
25.4
144
1.0000000000
145
0.0
146
1.0000000000
147
0.09
71
0
72
0
73
0
74
0
75
0
76
0
77
1
78
8
170
0
171
2
172
0
173
0
174
0
175
0
176
0
177
0
178
0
270
2
271
2
272
2
273
2
274
2
275
0
280
0
281
0
282
0
283
1
284
8
285
0
286
0
287
3
288
0
340
11
341
214
342
214
343
214
344
214
0
ENDTAB
0
ENDSEC
0
SECTION
2
BLOCKS
0
BLOCK
5
20
100
AcDbEntity
8
0
100
AcDbBlockBegin
2
*MODEL_SPACE
70
0
10
0.0
20
0.0
30
0.0
3
*MODEL_SPACE
1

0
ENDBLK
5
21
100
AcDbEntity
8
0
100
AcDbBlockEnd
0
BLOCK
5
1C
100
AcDbEntity
8
0
100
AcDbBlockBegin
2
*PAPER_SPACE
70
0
10
0.0
20
0.0
30
0.0
3
*PAPER_SPACE
1

0
ENDBLK
5
1D
100
AcDbEntity
8
0
100
AcDbBlockEnd
0
BLOCK
5
21A
100
AcDbEntity
8
0
100
AcDbBlockBegin
62
2
6
CONTINUOUS
2
*D0
70
65
10
0.0000000000
20
0.0000000000
3
*D0
1

0
TEXT
5
21B
100
AcDbEntity
8
0
100
AcDbText
62
2
6
CONTINUOUS
10
183.0305431367
20
-5.4732776648
7
STANDARD
40
3.0000000000
1
155,8
50
90.0000000000
41
0.6714285714
72
0
100
AcDbText
0
LINE
5
21C
100
AcDbEntity
8
0
100
AcDbLine
62
2
6
CONTINUOUS
10
170.5845151646
20
79.1331910915
11
185.2805431367
21
79.1331910915
0
LINE
5
21D
100
AcDbEntity
8
0
100
AcDbLine
62
2
6
CONTINUOUS
10
170.7242946735
20
-76.6667710253
11
185.2805431367
21
-76.6667710253
0
LINE
5
21E
100
AcDbEntity
8
0
100
AcDbLine
62
2
6
CONTINUOUS
10
183.7805431367
20
79.1331910915
11
183.7805431367
21
1.2332100331
0
LINE
5
21F
100
AcDbEntity
8
0
100
AcDbLine
62
2
6
CONTINUOUS
10
183.7805431367
20
-76.6667710253
11
183.7805431367
21
1.2332100331
0
INSERT
5
220
100
AcDbEntity
8
0
100
AcDbBlockReference
62
2
6
CONTINUOUS
2
_FILLED
10
183.7805431367
20
79.1331910915
41
  3.000000
42
  3.000000
43
  3.000000
50
 90.000000
0
INSERT
5
221
100
AcDbEntity
8
0
100
AcDbBlockReference
62
2
6
CONTINUOUS
2
_FILLED
10
183.7805431367
20
-76.6667710253
41
  3.000000
42
  3.000000
43
  3.000000
50
270.000000
0
ENDBLK
5
222
100
AcDbEntity
8
0
6
BYBLOCK
62
0
100
AcDbBlockEnd
0
BLOCK
5
223
100
AcDbEntity
8
0
100
AcDbBlockBegin
62
2
6
CONTINUOUS
2
*D1
70
65
10
0.0000000000
20
0.0000000000
3
*D1
1

0
TEXT
5
224
100
AcDbEntity
8
0
100
AcDbText
62
2
6
CONTINUOUS
10
93.7051681515
20
92.8332100331
7
STANDARD
40
3.0000000000
1
142,3
41
0.6857142857
72
0
100
AcDbText
0
LINE
5
225
100
AcDbEntity
8
0
100
AcDbLine
62
2
6
CONTINUOUS
10
170.8305431367
20
78.6501276533
11
170.8305431367
21
93.5832100331
0
LINE
5
226
100
AcDbEntity
8
0
100
AcDbLine
62
2
6
CONTINUOUS
10
28.5305431367
20
78.6006355995
11
28.5305431367
21
93.5832100331
0
LINE
5
227
100
AcDbEntity
8
0
100
AcDbLine
62
2
6
CONTINUOUS
10
170.8305431367
20
92.0832100331
11
99.6805431367
21
92.0832100331
0
LINE
5
228
100
AcDbEntity
8
0
100
AcDbLine
62
2
6
CONTINUOUS
10
28.5305431367
20
92.0832100331
11
99.6805431367
21
92.0832100331
0
INSERT
5
229
100
AcDbEntity
8
0
100
AcDbBlockReference
62
2
6
CONTINUOUS
2
_FILLED
10
170.8305431367
20
92.0832100331
41
  3.000000
42
  3.000000
43
  3.000000
50
360.000000
0
INSERT
5
22A
100
AcDbEntity
8
0
100
AcDbBlockReference
62
2
6
CONTINUOUS
2
_FILLED
10
28.5305431367
20
92.0832100331
41
  3.000000
42
  3.000000
43
  3.000000
50
180.000000
0
ENDBLK
5
22B
100
AcDbEntity
8
0
6
BYBLOCK
62
0
100
AcDbBlockEnd
0
BLOCK
5
22C
100
AcDbEntity
8
0
100
AcDbBlockBegin
62
2
6
CONTINUOUS
2
*D2
70
65
10
0.0000000000
20
0.0000000000
3
*D2
1

0
TEXT
5
22D
100
AcDbEntity
8
0
100
AcDbText
62
2
6
CONTINUOUS
10
-32.7427319804
20
92.8332100331
7
STANDARD
40
3.0000000000
1
10
41
0.6785714286
72
0
100
AcDbText
0
LINE
5
22E
100
AcDbEntity
8
0
100
AcDbLine
62
2
6
CONTINUOUS
10
-25.9710437275
20
78.2761608662
11
-25.9710437275
21
93.5832100331
0
LINE
5
22F
100
AcDbEntity
8
0
100
AcDbLine
62
2
6
CONTINUOUS
10
-35.9710437275
20
78.8804735969
11
-35.9710437275
21
93.5832100331
0
LINE
5
230
100
AcDbEntity
8
0
100
AcDbLine
62
2
6
CONTINUOUS
10
-25.9710437275
20
92.0832100331
11
-30.9710437275
21
92.0832100331
0
LINE
5
231
100
AcDbEntity
8
0
100
AcDbLine
62
2
6
CONTINUOUS
10
-35.9710437275
20
92.0832100331
11
-30.9710437275
21
92.0832100331
0
INSERT
5
232
100
AcDbEntity
8
0
100
AcDbBlockReference
62
2
6
CONTINUOUS
2
_FILLED
10
-25.9710437275
20
92.0832100331
41
  3.000000
42
  3.000000
43
  3.000000
0
INSERT
5
233
100
AcDbEntity
8
0
100
AcDbBlockReference
62
2
6
CONTINUOUS
2
_FILLED
10
-35.9710437275
20
92.0832100331
41
  3.000000
42
  3.000000
43
  3.000000
50
180.000000
0
ENDBLK
5
234
100
AcDbEntity
8
0
6
BYBLOCK
62
0
100
AcDbBlockEnd
0
BLOCK
5
235
100
AcDbEntity
8
0
100
AcDbBlockBegin
2
_FILLED
70
64
10
0.0000000000
20
0.0000000000
3
_FILLED
1

0
SOLID
5
236
100
AcDbEntity
8
0
6
BYBLOCK
62
0
100
AcDbTrace
10
0.0000000000
20
0.0000000000
11
-1.0000000000
21
0.3166666667
12
-1.0000000000
22
-0.3166666667
13
-1.0000000000
23
-0.3166666667
0
ENDBLK
5
237
100
AcDbEntity
8
0
6
BYBLOCK
62
0
100
AcDbBlockEnd
0
ENDSEC
0
SECTION
2
ENTITIES
0
DIMENSION
5
238
100
AcDbEntity
8
0
100
AcDbDimension
62
2
6
CONTINUOUS
2
*D0
10
183.7805431367
20
-76.6667710253
11
181.5305431367
21
-0.4375633791
70
160
3
DIMSTYLE_1
100
AcDbAlignedDimension
13
170.5845151646
23
79.1331910915
14
170.7242946735
24
-76.6667710253
50
270.000000
100
AcDbRotatedDimension
0
DIMENSION
5
239
100
AcDbEntity
8
0
100
AcDbDimension
62
2
6
CONTINUOUS
2
*D1
10
28.5305431367
20
92.0832100331
11
98.8480252943
21
94.3332100331
70
160
3
DIMSTYLE_1
100
AcDbAlignedDimension
13
170.8305431367
23
78.6501276533
14
28.5305431367
24
78.6006355995
50
180.000000
100
AcDbRotatedDimension
0
DIMENSION
5
23A
100
AcDbEntity
8
0
100
AcDbDimension
62
2
6
CONTINUOUS
2
*D2
10
-35.9710437275
20
92.0832100331
11
-30.7070176947
21
94.3332100331
70
160
3
DIMSTYLE_1
100
AcDbAlignedDimension
13
-25.9710437275
23
78.2761608662
14
-35.9710437275
24
78.8804735969
50
180.000000
100
AcDbRotatedDimension
0
LINE
5
23B
100
AcDbEntity
8
0
100
AcDbLine
62
9
6
CONTINUOUS
10
30.6245059771
20
-75.5286068588
11
168.7365802964
21
-75.5286068588
0
LINE
5
23C
100
AcDbEntity
8
0
100
AcDbLine
62
9
6
CONTINUOUS
10
29.6252230184
20
-74.5326737167
11
28.7731599838
21
-74.5326737167
0
LINE
5
23D
100
AcDbEntity
8
0
100
AcDbLine
62
9
6
CONTINUOUS
10
169.7358632551
20
-74.5326737167
11
170.5879262896
21
-74.5326737167
0
LINE
5
23E
100
AcDbEntity
8
0
100
AcDbLine
62
7
6
CONTINUOUS
10
28.5305431367
20
77.2410502620
11
28.5305431367
21
-74.7746301959
0
LINE
5
23F
100
AcDbEntity
8
0
100
AcDbLine
62
9
6
CONTINUOUS
10
28.7731599838
20
76.9990937829
11
28.7731599838
21
-74.5326737167
0
LINE
5
240
100
AcDbEntity
8
0
100
AcDbLine
62
9
6
CONTINUOUS
10
29.6252230184
20
76.9990937829
11
29.6252230184
21
-74.5326737167
0
LINE
5
241
100
AcDbEntity
8
0
100
AcDbLine
62
7
6
CONTINUOUS
10
104.0016841367
20
-59.3682169669
11
103.5486641367
21
-59.3682169669
0
LINE
5
242
100
AcDbEntity
8
0
100
AcDbLine
62
7
6
CONTINUOUS
10
102.7936311367
20
-59.3682169669
11
102.3909461367
21
-59.3682169669
0
LINE
5
243
100
AcDbEntity
8
0
100
AcDbLine
62
7
6
CONTINUOUS
10
102.0721541367
20
-59.3682169669
11
101.6694701367
21
-59.3682169669
0
LINE
5
244
100
AcDbEntity
8
0
100
AcDbLine
62
7
6
CONTINUOUS
10
100.7802081367
20
-59.3682169669
11
100.3775231367
21
-59.3682169669
0
LINE
5
245
100
AcDbEntity
8
0
100
AcDbLine
62
7
6
CONTINUOUS
10
100.0587311367
20
-59.3682169669
11
99.6560471367
21
-59.3682169669
0
LINE
5
246
100
AcDbEntity
8
0
100
AcDbLine
62
7
6
CONTINUOUS
10
99.2701411367
20
-59.3682169669
11
98.8674561367
21
-59.3682169669
0
LINE
5
247
100
AcDbEntity
8
0
100
AcDbLine
62
7
6
CONTINUOUS
10
98.4815501367
20
-59.3682169669
11
98.0788661367
21
-59.3682169669
0
LINE
5
248
100
AcDbEntity
8
0
100
AcDbLine
62
7
6
CONTINUOUS
10
97.7265171367
20
-59.3682169669
11
97.3238321367
21
-59.3682169669
0
LINE
5
249
100
AcDbEntity
8
0
100
AcDbLine
62
7
6
CONTINUOUS
10
96.3674561367
20
-59.3682169669
11
95.9815501367
21
-59.3682169669
0
LINE
5
24A
100
AcDbEntity
8
0
100
AcDbLine
62
7
6
CONTINUOUS
10
101.5352411367
20
-59.0184669669
11
100.8976581367
21
-59.0184669669
0
LINE
5
24B
100
AcDbEntity
8
0
100
AcDbLine
62
9
6
CONTINUOUS
10
146.8918701582
20
-58.7946004307
11
146.7883768306
21
-58.7946004307
0
LINE
5
24C
100
AcDbEntity
8
0
100
AcDbLine
62
9
6
CONTINUOUS
10
52.4692161152
20
-58.7946004307
11
52.5727094428
21
-58.7946004307
0
LINE
5
24D
100
AcDbEntity
8
0
100
AcDbLine
62
9
6
CONTINUOUS
10
146.6265406977
20
-58.7377930673
11
146.4334975223
21
-58.7377930673
0
LINE
5
24E
100
AcDbEntity
8
0
100
AcDbLine
62
9
6
CONTINUOUS
10
52.7345455758
20
-58.7377930673
11
52.9275887512
21
-58.7377930673
0
LINE
5
24F
100
AcDbEntity
8
0
100
AcDbLine
62
7
6
CONTINUOUS
10
103.1459801367
20
-58.6839239669
11
102.7936311367
21
-58.6839239669
0
LINE
5
250
100
AcDbEntity
8
0
100
AcDbLine
62
7
6
CONTINUOUS
10
101.0318861367
20
-58.6839239669
11
101.4177921367
21
-58.6839239669
0
LINE
5
251
100
AcDbEntity
8
0
100
AcDbLine
62
7
6
CONTINUOUS
10
102.7768521367
20
-58.3493809669
11
103.2802079038
21
-58.3493809669
0
LINE
5
252
100
AcDbEntity
8
0
100
AcDbLine
62
9
6
CONTINUOUS
10
145.0467345733
20
-57.9157495104
11
144.8402877491
21
-57.9157495104
0
LINE
5
253
100
AcDbEntity
8
0
100
AcDbLine
62
9
6
CONTINUOUS
10
54.3143517001
20
-57.9157495103
11
54.5207985243
21
-57.9157495103
0
LINE
5
254
100
AcDbEntity
8
0
100
AcDbLine
62
7
6
CONTINUOUS
10
103.2802079038
20
-57.8931859669
11
102.7768521367
21
-57.8931859669
0
LINE
5
255
100
AcDbEntity
8
0
100
AcDbLine
62
7
6
CONTINUOUS
10
95.3271881367
20
-57.5586429669
11
95.7298731367
21
-57.5586429669
0
LINE
5
256
100
AcDbEntity
8
0
100
AcDbLine
62
7
6
CONTINUOUS
10
96.6191341367
20
-57.5586429669
11
97.0218191367
21
-57.5586429669
0
LINE
5
257
100
AcDbEntity
8
0
100
AcDbLine
62
7
6
CONTINUOUS
10
97.3238321367
20
-57.5586429669
11
97.7265171367
21
-57.5586429669
0
LINE
5
258
100
AcDbEntity
8
0
100
AcDbLine
62
7
6
CONTINUOUS
10
98.0788661367
20
-57.5586429669
11
98.6996711367
21
-57.5586429669
0
LINE
5
259
100
AcDbEntity
8
0
100
AcDbLine
62
7
6
CONTINUOUS
10
99.4547051367
20
-57.5586429669
11
100.0587311367
21
-57.5586429669
0
LINE
5
25A
100
AcDbEntity
8
0
100
AcDbLine
62
7
6
CONTINUOUS
10
101.0151071367
20
-57.5586429669
11
101.4177921367
21
-57.5586429669
0
LINE
5
25B
100
AcDbEntity
8
0
100
AcDbLine
62
7
6
CONTINUOUS
10
102.3909461367
20
-57.5586429669
11
103.3305434713
21
-57.5586429669
0
LINE
5
25C
100
AcDbEntity
8
0
100
AcDbLine
62
7
6
CONTINUOUS
10
144.4808172708
20
-56.7667899669
11
54.8802689989
21
-56.7667899669
0
LINE
5
25D
100
AcDbEntity
8
0
100
AcDbLine
62
9
6
CONTINUOUS
10
52.4692161152
20
-58.7946004307
11
52.4692161152
21
61.2610204969
0
LINE
5
25E
100
AcDbEntity
8
0
100
AcDbLine
62
7
6
CONTINUOUS
10
52.5727094428
20
-58.7946004307
11
52.5727094428
21
61.2610204969
0
LINE
5
25F
100
AcDbEntity
8
0
100
AcDbLine
62
7
6
CONTINUOUS
10
52.6802218343
20
61.2547129223
11
52.6802218343
21
-58.7882928541
0
LINE
5
260
100
AcDbEntity
8
0
100
AcDbLine
62
9
6
CONTINUOUS
10
52.7345455758
20
-58.7377930673
11
52.7345455758
21
61.2042131335
0
LINE
5
261
100
AcDbEntity
8
0
100
AcDbLine
62
9
6
CONTINUOUS
10
52.9275887512
20
-58.7377930673
11
52.9275887512
21
61.2042131335
0
LINE
5
262
100
AcDbEntity
8
0
100
AcDbLine
62
7
6
CONTINUOUS
10
53.2116287960
20
-59.7811618223
11
53.2116287960
21
-59.6711608291
0
LINE
5
263
100
AcDbEntity
8
0
100
AcDbLine
62
7
6
CONTINUOUS
10
53.2116287961
20
62.1375808953
11
53.2116287961
21
62.2476146974
0
LINE
5
264
100
AcDbEntity
8
0
100
AcDbLine
62
9
6
CONTINUOUS
10
54.3143517001
20
-57.9157495103
11
54.3143517001
21
60.3821695764
0
LINE
5
265
100
AcDbEntity
8
0
100
AcDbLine
62
9
6
CONTINUOUS
10
54.5207985243
20
-57.9157495105
11
54.5207985243
21
60.3821695761
0
LINE
5
266
100
AcDbEntity
8
0
100
AcDbLine
62
7
6
CONTINUOUS
10
54.6805431367
20
59.0334844470
11
54.6805431367
21
-56.5670643551
0
LINE
5
267
100
AcDbEntity
8
0
100
AcDbLine
62
7
6
CONTINUOUS
10
103.5654429712
20
-58.6383046900
11
104.0016841367
21
-59.3682169669
0
LINE
5
268
100
AcDbEntity
8
0
100
AcDbLine
62
7
6
CONTINUOUS
10
103.5486641367
20
-59.3682169669
11
103.1459801367
21
-58.6839239669
0
LINE
5
269
100
AcDbEntity
8
0
100
AcDbLine
62
7
6
CONTINUOUS
10
95.9815501367
20
-59.3682169669
11
95.3271881367
21
-57.5586429669
0
LINE
5
26A
100
AcDbEntity
8
0
100
AcDbLine
62
7
6
CONTINUOUS
10
95.7298731367
20
-57.5586429669
11
96.1661141367
21
-58.8207829669
0
LINE
5
26B
100
AcDbEntity
8
0
100
AcDbLine
62
7
6
CONTINUOUS
10
101.6694701367
20
-59.3682169669
11
101.5352411367
21
-59.0184669669
0
LINE
5
26C
100
AcDbEntity
8
0
100
AcDbLine
62
7
6
CONTINUOUS
10
101.4177921367
20
-57.5586429669
11
102.0721541367
21
-59.3682169669
0
LINE
5
26D
100
AcDbEntity
8
0
100
AcDbLine
62
7
6
CONTINUOUS
10
101.4177921367
20
-58.6839239669
11
101.2164501367
21
-58.1212839669
0
LINE
5
26E
100
AcDbEntity
8
0
100
AcDbLine
62
7
6
CONTINUOUS
10
98.8674561367
20
-59.3682169669
11
98.4815501367
21
-58.1821099669
0
LINE
5
26F
100
AcDbEntity
8
0
100
AcDbLine
62
7
6
CONTINUOUS
10
98.6996711367
20
-57.5586429669
11
99.0687991367
21
-58.7447499669
0
LINE
5
270
100
AcDbEntity
8
0
100
AcDbLine
62
9
6
CONTINUOUS
10
144.4808172717
20
59.2332100331
11
144.5548505786
21
59.3072429610
0
LINE
5
271
100
AcDbEntity
8
0
100
AcDbLine
62
9
6
CONTINUOUS
10
144.6805431367
20
59.0334844151
11
144.7545770869
21
59.1075209779
0
LINE
5
272
100
AcDbEntity
8
0
100
AcDbLine
62
9
6
CONTINUOUS
10
146.6265406977
20
61.2042131335
11
146.6808644392
21
61.2547129203
0
LINE
5
273
100
AcDbEntity
8
0
100
AcDbLine
62
9
6
CONTINUOUS
10
145.7607660477
20
62.3510766960
11
145.7686405749
21
62.3583860078
0
LINE
5
274
100
AcDbEntity
8
0
100
AcDbLine
62
9
6
CONTINUOUS
10
145.6990570017
20
62.2009923443
11
145.7535844892
21
62.2516016897
0
LINE
5
275
100
AcDbEntity
8
0
100
AcDbLine
62
9
6
CONTINUOUS
10
145.7607660479
20
-59.8846566300
11
145.7686405751
21
-59.8919659417
0
LINE
5
276
100
AcDbEntity
8
0
100
AcDbLine
62
9
6
CONTINUOUS
10
145.6990570017
20
-59.7345722782
11
145.7535844941
21
-59.7851816231
0
LINE
5
277
100
AcDbEntity
8
0
100
AcDbLine
62
9
6
CONTINUOUS
10
146.6265406977
20
-58.7377930673
11
146.6808644392
21
-58.7882928562
0
LINE
5
278
100
AcDbEntity
8
0
100
AcDbLine
62
9
6
CONTINUOUS
10
144.4808172708
20
-56.7667899669
11
144.5548506667
21
-56.8408229921
0
LINE
5
279
100
AcDbEntity
8
0
100
AcDbLine
62
9
6
CONTINUOUS
10
144.6805431367
20
-56.5670643645
11
144.7545771629
21
-56.6411011438
0
LINE
5
27A
100
AcDbEntity
8
0
100
AcDbLine
62
7
6
CONTINUOUS
10
97.3238321367
20
-59.3682169669
11
97.3238321367
21
-57.5586429669
0
LINE
5
27B
100
AcDbEntity
8
0
100
AcDbLine
62
7
6
CONTINUOUS
10
97.7265171367
20
-57.5586429669
11
97.7265171367
21
-59.3682169669
0
LINE
5
27C
100
AcDbEntity
8
0
100
AcDbLine
62
7
6
CONTINUOUS
10
98.0788661367
20
-59.3682169669
11
98.0788661367
21
-57.5586429669
0
LINE
5
27D
100
AcDbEntity
8
0
100
AcDbLine
62
7
6
CONTINUOUS
10
98.4815501367
20
-58.1821099669
11
98.4815501367
21
-59.3682169669
0
LINE
5
27E
100
AcDbEntity
8
0
100
AcDbLine
62
7
6
CONTINUOUS
10
99.6560471367
20
-59.3682169669
11
99.6560471367
21
-58.1821099669
0
LINE
5
27F
100
AcDbEntity
8
0
100
AcDbLine
62
7
6
CONTINUOUS
10
100.0587311367
20
-57.5586429669
11
100.0587311367
21
-59.3682169669
0
LINE
5
280
100
AcDbEntity
8
0
100
AcDbLine
62
9
6
CONTINUOUS
10
168.6929844742
20
78.8937901990
11
168.9330755970
21
79.1332099674
0
LINE
5
281
100
AcDbEntity
8
0
100
AcDbLine
62
9
6
CONTINUOUS
10
170.5879262896
20
76.9990937829
11
170.8305431367
21
77.2410502620
0
LINE
5
282
100
AcDbEntity
8
0
100
AcDbLine
62
9
6
CONTINUOUS
10
168.9330755970
20
-76.6667899013
11
168.6929844742
21
-76.4273701329
0
LINE
5
283
100
AcDbEntity
8
0
100
AcDbLine
62
9
6
CONTINUOUS
10
170.8305431367
20
-74.7746301959
11
170.5879262896
21
-74.5326737167
0
LINE
5
284
100
AcDbEntity
8
0
100
AcDbLine
62
7
6
CONTINUOUS
10
102.3909461367
20
-59.3682169669
11
102.3909461367
21
-57.5586429669
0
LINE
5
285
100
AcDbEntity
8
0
100
AcDbLine
62
7
6
CONTINUOUS
10
102.7768521367
20
-57.8931859669
11
102.7768521367
21
-58.3493809669
0
LINE
5
286
100
AcDbEntity
8
0
100
AcDbLine
62
7
6
CONTINUOUS
10
102.7936311367
20
-58.6839239669
11
102.7936311367
21
-59.3682169669
0
LINE
5
287
100
AcDbEntity
8
0
100
AcDbLine
62
9
6
CONTINUOUS
10
28.7731599838
20
-74.5326737167
11
28.5305431367
21
-74.7746301959
0
LINE
5
288
100
AcDbEntity
8
0
100
AcDbLine
62
9
6
CONTINUOUS
10
30.6681017992
20
-76.4273701329
11
30.4280106765
21
-76.6667899013
0
LINE
5
289
100
AcDbEntity
8
0
100
AcDbLine
62
9
6
CONTINUOUS
10
28.5305431367
20
77.2410502620
11
28.7731599838
21
76.9990937829
0
LINE
5
28A
100
AcDbEntity
8
0
100
AcDbLine
62
9
6
CONTINUOUS
10
30.4280106765
20
79.1332099674
11
30.6681017992
21
78.8937901990
0
LINE
5
28B
100
AcDbEntity
8
0
100
AcDbLine
62
9
6
CONTINUOUS
10
54.6805431367
20
-56.5670643551
11
54.6065091650
21
-56.6411009951
0
LINE
5
28C
100
AcDbEntity
8
0
100
AcDbLine
62
9
6
CONTINUOUS
10
54.8802689989
20
-56.7667899669
11
54.8062357134
21
-56.8408228480
0
LINE
5
28D
100
AcDbEntity
8
0
100
AcDbLine
62
9
6
CONTINUOUS
10
52.7345455758
20
-58.7377930673
11
52.6802218343
21
-58.7882928541
0
LINE
5
28E
100
AcDbEntity
8
0
100
AcDbLine
62
9
6
CONTINUOUS
10
53.6003202257
20
-59.8846566299
11
53.5924456985
21
-59.8919659416
0
LINE
5
28F
100
AcDbEntity
8
0
100
AcDbLine
62
9
6
CONTINUOUS
10
53.6620292718
20
-59.7345722782
11
53.6075017842
21
-59.7851816235
0
LINE
5
290
100
AcDbEntity
8
0
100
AcDbLine
62
9
6
CONTINUOUS
10
53.6620292718
20
62.2009923443
11
53.6075017793
21
62.2516016893
0
LINE
5
291
100
AcDbEntity
8
0
100
AcDbLine
62
9
6
CONTINUOUS
10
53.6003202256
20
62.3510766961
11
53.5924456984
21
62.3583860078
0
LINE
5
292
100
AcDbEntity
8
0
100
AcDbLine
62
9
6
CONTINUOUS
10
52.7345455758
20
61.2042131335
11
52.6802218343
21
61.2547129223
0
LINE
5
293
100
AcDbEntity
8
0
100
AcDbLine
62
9
6
CONTINUOUS
10
54.6805431367
20
59.0334844470
11
54.6065090497
21
59.1075214346
0
LINE
5
294
100
AcDbEntity
8
0
100
AcDbLine
62
9
6
CONTINUOUS
10
54.8802689962
20
59.2332100331
11
54.8062356367
21
59.3072429640
0
LINE
5
295
100
AcDbEntity
8
0
100
AcDbLine
62
7
6
CONTINUOUS
10
99.0687991367
20
-58.7447499669
11
99.4547051367
21
-57.5586429669
0
LINE
5
296
100
AcDbEntity
8
0
100
AcDbLine
62
7
6
CONTINUOUS
10
99.6560471367
20
-58.1821099669
11
99.2701411367
21
-59.3682169669
0
LINE
5
297
100
AcDbEntity
8
0
100
AcDbLine
62
7
6
CONTINUOUS
10
101.2164501367
20
-58.1212839669
11
101.0318861367
21
-58.6839239669
0
LINE
5
298
100
AcDbEntity
8
0
100
AcDbLine
62
7
6
CONTINUOUS
10
100.8976581367
20
-59.0184669669
11
100.7802081367
21
-59.3682169669
0
LINE
5
299
100
AcDbEntity
8
0
100
AcDbLine
62
7
6
CONTINUOUS
10
100.3775231367
20
-59.3682169669
11
101.0151071367
21
-57.5586429669
0
LINE
5
29A
100
AcDbEntity
8
0
100
AcDbLine
62
7
6
CONTINUOUS
10
96.1661141367
20
-58.8207829669
11
96.6191341367
21
-57.5586429669
0
LINE
5
29B
100
AcDbEntity
8
0
100
AcDbLine
62
7
6
CONTINUOUS
10
97.0218191367
20
-57.5586429669
11
96.3674561367
21
-59.3682169669
0
LINE
5
29C
100
AcDbEntity
8
0
100
AcDbLine
62
7
6
CONTINUOUS
10
144.6805431367
20
59.0334844151
11
144.6805431367
21
-56.5670643645
0
LINE
5
29D
100
AcDbEntity
8
0
100
AcDbLine
62
9
6
CONTINUOUS
10
144.8402877491
20
60.3821695768
11
144.8402877491
21
-57.9157495100
0
LINE
5
29E
100
AcDbEntity
8
0
100
AcDbLine
62
9
6
CONTINUOUS
10
145.0467345733
20
60.3821695765
11
145.0467345733
21
-57.9157495104
0
LINE
5
29F
100
AcDbEntity
8
0
100
AcDbLine
62
7
6
CONTINUOUS
10
146.1494574774
20
62.2475818247
11
146.1494574774
21
62.1375808953
0
LINE
5
2A0
100
AcDbEntity
8
0
100
AcDbLine
62
7
6
CONTINUOUS
10
146.1494574774
20
-59.6711608291
11
146.1494574774
21
-59.7811946313
0
LINE
5
2A1
100
AcDbEntity
8
0
100
AcDbLine
62
9
6
CONTINUOUS
10
146.4334975223
20
61.2042131335
11
146.4334975223
21
-58.7377930673
0
LINE
5
2A2
100
AcDbEntity
8
0
100
AcDbLine
62
9
6
CONTINUOUS
10
146.6265406977
20
61.2042131335
11
146.6265406977
21
-58.7377930673
0
LINE
5
2A3
100
AcDbEntity
8
0
100
AcDbLine
62
7
6
CONTINUOUS
10
146.6808644392
20
61.2547129203
11
146.6808644392
21
-58.7882928562
0
LINE
5
2A4
100
AcDbEntity
8
0
100
AcDbLine
62
7
6
CONTINUOUS
10
146.7883768306
20
61.2610204968
11
146.7883768306
21
-58.7946004307
0
LINE
5
2A5
100
AcDbEntity
8
0
100
AcDbLine
62
9
6
CONTINUOUS
10
146.8918701582
20
61.2610204968
11
146.8918701582
21
-58.7946004307
0
LINE
5
2A6
100
AcDbEntity
8
0
100
AcDbLine
62
7
6
CONTINUOUS
10
54.8802689962
20
59.2332100331
11
144.4808172717
21
59.2332100331
0
LINE
5
2A7
100
AcDbEntity
8
0
100
AcDbLine
62
9
6
CONTINUOUS
10
145.0467345733
20
60.3821695765
11
144.8402877491
21
60.3821695765
0
LINE
5
2A8
100
AcDbEntity
8
0
100
AcDbLine
62
9
6
CONTINUOUS
10
54.3143517001
20
60.3821695764
11
54.5207985243
21
60.3821695764
0
LINE
5
2A9
100
AcDbEntity
8
0
100
AcDbLine
62
9
6
CONTINUOUS
10
146.6265406977
20
61.2042131335
11
146.4334975223
21
61.2042131335
0
LINE
5
2AA
100
AcDbEntity
8
0
100
AcDbLine
62
9
6
CONTINUOUS
10
52.7345455758
20
61.2042131335
11
52.9275887512
21
61.2042131335
0
LINE
5
2AB
100
AcDbEntity
8
0
100
AcDbLine
62
9
6
CONTINUOUS
10
146.8918701582
20
61.2610204968
11
146.7883768306
21
61.2610204968
0
LINE
5
2AC
100
AcDbEntity
8
0
100
AcDbLine
62
9
6
CONTINUOUS
10
52.4692161152
20
61.2610204969
11
52.5727094428
21
61.2610204969
0
LINE
5
2AD
100
AcDbEntity
8
0
100
AcDbLine
62
9
6
CONTINUOUS
10
169.7358632551
20
-74.5326737167
11
169.7358632551
21
76.9990937829
0
LINE
5
2AE
100
AcDbEntity
8
0
100
AcDbLine
62
9
6
CONTINUOUS
10
170.5879262896
20
-74.5326737167
11
170.5879262896
21
76.9990937829
0
LINE
5
2AF
100
AcDbEntity
8
0
100
AcDbLine
62
7
6
CONTINUOUS
10
170.8305431367
20
77.2410502620
11
170.8305431367
21
-74.7746301959
0
LINE
5
2B0
100
AcDbEntity
8
0
100
AcDbLine
62
9
6
CONTINUOUS
10
29.6252230184
20
76.9990937829
11
28.7731599838
21
76.9990937829
0
LINE
5
2B1
100
AcDbEntity
8
0
100
AcDbLine
62
9
6
CONTINUOUS
10
169.7358632551
20
76.9990937829
11
170.5879262896
21
76.9990937829
0
LINE
5
2B2
100
AcDbEntity
8
0
100
AcDbLine
62
9
6
CONTINUOUS
10
168.7365802964
20
77.9950269250
11
30.6245059771
21
77.9950269250
0
LINE
5
2B3
100
AcDbEntity
8
0
100
AcDbLine
62
9
6
CONTINUOUS
10
-28.6711005205
20
-76.6667899013
11
-33.2519686653
21
-76.4273701329
0
LINE
5
2B4
100
AcDbEntity
8
0
100
AcDbLine
62
7
6
CONTINUOUS
10
-35.0181489898
20
-76.4284626188
11
-30.4710437275
21
-76.6667663077
0
LINE
5
2B5
100
AcDbEntity
8
0
100
AcDbLine
62
9
6
CONTINUOUS
10
-35.8710437275
20
-75.5296986549
11
-34.1036882410
21
-75.5286068588
0
LINE
5
2B6
100
AcDbEntity
8
0
100
AcDbLine
62
7
6
CONTINUOUS
10
-26.4703584949
20
-74.6523794512
11
-25.9710437275
21
-74.6523794512
0
LINE
5
2B7
100
AcDbEntity
8
0
100
AcDbLine
62
9
6
CONTINUOUS
10
-34.0521339832
20
-74.5326737167
11
-33.2004489503
21
-74.5326737167
0
LINE
5
2B8
100
AcDbEntity
8
0
100
AcDbLine
62
9
6
CONTINUOUS
10
-28.5710437275
20
-74.7746301959
11
-33.2004489503
21
-74.5326737167
0
LINE
5
2B9
100
AcDbEntity
8
0
100
AcDbLine
62
9
6
CONTINUOUS
10
-35.0452691709
20
-58.7946004307
11
-35.0453303394
21
-58.7946004307
0
LINE
5
2BA
100
AcDbEntity
8
0
100
AcDbLine
62
9
6
CONTINUOUS
10
-35.0453303394
20
-58.7377930680
11
-35.1587580740
21
-58.7377930676
0
LINE
5
2BB
100
AcDbEntity
8
0
100
AcDbLine
62
9
6
CONTINUOUS
10
-35.2085723616
20
-57.9157495104
11
-35.2086853203
21
-57.9157495104
0
LINE
5
2BC
100
AcDbEntity
8
0
100
AcDbLine
62
7
6
CONTINUOUS
10
-25.9710437275
20
-54.5665458341
11
-27.6710437275
21
-54.2667899669
0
LINE
5
2BD
100
AcDbEntity
8
0
100
AcDbLine
62
7
6
CONTINUOUS
10
-25.9710437275
20
-46.9670340997
11
-27.6710437275
21
-47.2667899669
0
LWPOLYLINE
5
2BE
100
AcDbEntity
8
0
100
AcDbPolyline
62
7
6
CONTINUOUS
90
5
70
0
10
-35.9710437263
20
62.5021023468
10
-35.9709814119
20
62.4971101637
10
-35.9683882554
20
62.4696194765
10
-35.9620339643
20
62.4427497642
10
-35.9520403999
20
62.4170129571
0
LINE
5
2BF
100
AcDbEntity
8
0
100
AcDbLine
62
7
6
CONTINUOUS
10
-35.2091072653
20
60.5153413071
11
-35.2087113521
21
60.4148676592
0
LINE
5
2C0
100
AcDbEntity
8
0
100
AcDbLine
62
7
6
CONTINUOUS
10
-35.9710437275
20
63.5985535758
11
-35.9710437275
21
62.4992325131
0
LINE
5
2C1
100
AcDbEntity
8
0
100
AcDbLine
62
7
6
CONTINUOUS
10
-35.9710437275
20
-60.0336900748
11
-35.9710437275
21
-61.1321335095
0
LINE
5
2C2
100
AcDbEntity
8
0
100
AcDbLine
62
7
6
CONTINUOUS
10
-35.8710437275
20
77.9959974104
11
-35.8710437275
21
63.9540623833
0
LINE
5
2C3
100
AcDbEntity
8
0
100
AcDbLine
62
7
6
CONTINUOUS
10
-35.8710437275
20
-61.4876777702
11
-35.8710437275
21
-75.5295773443
0
LINE
5
2C4
100
AcDbEntity
8
0
100
AcDbLine
62
7
6
CONTINUOUS
10
-35.2087113521
20
60.4148676592
11
-35.2086853203
21
-57.9157495104
0
LINE
5
2C5
100
AcDbEntity
8
0
100
AcDbLine
62
9
6
CONTINUOUS
10
-35.1612309347
20
61.2042131335
11
-35.1612309347
21
-58.7377930673
0
LINE
5
2C6
100
AcDbEntity
8
0
100
AcDbLine
62
7
6
CONTINUOUS
10
-35.0455269557
20
61.3768680818
11
-35.0453303394
21
-58.7946004307
0
LINE
5
2C7
100
AcDbEntity
8
0
100
AcDbLine
62
7
6
CONTINUOUS
10
-35.0453302366
20
-58.7946004307
11
-35.0456112517
21
-58.9330212152
0
LWPOLYLINE
5
2C8
100
AcDbEntity
8
0
100
AcDbPolyline
62
7
6
CONTINUOUS
90
3
70
0
10
-35.2086854052
20
-57.9157495104
10
-35.2089757948
20
-58.0263465774
10
-35.2090764897
20
-58.0443422196
0
LWPOLYLINE
5
2C9
100
AcDbEntity
8
0
100
AcDbPolyline
62
7
6
CONTINUOUS
90
6
70
0
10
-35.2174119008
20
60.8766552504
10
-35.2172377840
20
60.8745778125
10
-35.2169858989
20
60.8712077924
10
-35.2167112399
20
60.8671000536
10
-35.2164234156
20
60.8623079388
10
-35.2162556739
20
60.8592244873
0
LINE
5
2CA
100
AcDbEntity
8
0
100
AcDbLine
62
7
6
CONTINUOUS
10
-35.0671655058
20
62.3130736139
11
-35.0649840070
21
62.2767277441
0
LINE
5
2CB
100
AcDbEntity
8
0
100
AcDbLine
62
7
6
CONTINUOUS
10
-35.0649840070
20
62.2767277441
11
-35.0628092857
21
62.2350666542
0
LINE
5
2CC
100
AcDbEntity
8
0
100
AcDbLine
62
7
6
CONTINUOUS
10
-35.2161258172
20
60.8568374435
11
-35.2155101238
21
60.8440444142
0
LINE
5
2CD
100
AcDbEntity
8
0
100
AcDbLine
62
7
6
CONTINUOUS
10
-35.0628092857
20
62.2350666542
11
-35.0606479316
21
62.1875992037
0
LINE
5
2CE
100
AcDbEntity
8
0
100
AcDbLine
62
7
6
CONTINUOUS
10
-35.2155101238
20
60.8440444142
11
-35.2145503296
21
60.8208592185
0
LINE
5
2CF
100
AcDbEntity
8
0
100
AcDbLine
62
7
6
CONTINUOUS
10
-35.0606479316
20
62.1875992037
11
-35.0585152466
21
62.1339174473
0
LINE
5
2D0
100
AcDbEntity
8
0
100
AcDbLine
62
7
6
CONTINUOUS
10
-35.2145503296
20
60.8208592185
11
-35.2135882597
21
60.7936708026
0
LINE
5
2D1
100
AcDbEntity
8
0
100
AcDbLine
62
7
6
CONTINUOUS
10
-35.0585152466
20
62.1339174473
11
-35.0564266320
21
62.0734720303
0
LINE
5
2D2
100
AcDbEntity
8
0
100
AcDbLine
62
7
6
CONTINUOUS
10
-35.0564266320
20
62.0734720303
11
-35.0544189886
21
62.0062954623
0
LINE
5
2D3
100
AcDbEntity
8
0
100
AcDbLine
62
7
6
CONTINUOUS
10
-35.2135882597
20
60.7936708026
11
-35.2129885934
21
60.7735920187
0
LINE
5
2D4
100
AcDbEntity
8
0
100
AcDbLine
62
7
6
CONTINUOUS
10
-35.2129885934
20
60.7735920187
11
-35.2121634020
21
60.7404447299
0
LINE
5
2D5
100
AcDbEntity
8
0
100
AcDbLine
62
7
6
CONTINUOUS
10
-35.0544189886
20
62.0062954623
11
-35.0516371816
21
61.8931516527
0
LINE
5
2D6
100
AcDbEntity
8
0
100
AcDbLine
62
7
6
CONTINUOUS
10
-35.2121634020
20
60.7404447299
11
-35.2109281895
21
60.6781102141
0
LINE
5
2D7
100
AcDbEntity
8
0
100
AcDbLine
62
7
6
CONTINUOUS
10
-35.0516371816
20
61.8931516527
11
-35.0492404344
21
61.7662635133
0
LINE
5
2D8
100
AcDbEntity
8
0
100
AcDbLine
62
7
6
CONTINUOUS
10
-35.2109281895
20
60.6781102141
11
-35.2099392321
21
60.6080525500
0
LINE
5
2D9
100
AcDbEntity
8
0
100
AcDbLine
62
7
6
CONTINUOUS
10
-35.0492404344
20
61.7662635133
11
-35.0473405281
21
61.6274857375
0
LWPOLYLINE
5
2DA
100
AcDbEntity
8
0
100
AcDbPolyline
62
7
6
CONTINUOUS
90
3
70
0
10
-35.2099392321
20
60.6080525500
10
-35.2092185596
20
60.5313821058
10
-35.2091072653
20
60.5153413071
0
LINE
5
2DB
100
AcDbEntity
8
0
100
AcDbLine
62
7
6
CONTINUOUS
10
-35.0473405281
20
61.6274857375
11
-35.0460327774
21
61.4793416254
0
LINE
5
2DC
100
AcDbEntity
8
0
100
AcDbLine
62
7
6
CONTINUOUS
10
-35.0460327774
20
61.4793416254
11
-35.0455269557
21
61.3768680818
0
LINE
5
2DD
100
AcDbEntity
8
0
100
AcDbLine
62
9
6
CONTINUOUS
10
-34.0521339832
20
-74.5326737167
11
-34.0521339832
21
76.9990937829
0
LINE
5
2DE
100
AcDbEntity
8
0
100
AcDbLine
62
9
6
CONTINUOUS
10
-33.2004489503
20
-74.5326737167
11
-33.2004489503
21
76.9990937829
0
LINE
5
2DF
100
AcDbEntity
8
0
100
AcDbLine
62
7
6
CONTINUOUS
10
-35.0456112517
20
-58.9330212152
11
-35.0467151365
21
-59.0999049379
0
LINE
5
2E0
100
AcDbEntity
8
0
100
AcDbLine
62
7
6
CONTINUOUS
10
-35.2090764897
20
-58.0443422196
11
-35.2098227114
21
-58.1302520490
0
LINE
5
2E1
100
AcDbEntity
8
0
100
AcDbLine
62
7
6
CONTINUOUS
10
-35.0467151365
20
-59.0999049379
11
-35.0485821122
21
-59.2572129040
0
LINE
5
2E2
100
AcDbEntity
8
0
100
AcDbLine
62
7
6
CONTINUOUS
10
-35.2098227114
20
-58.1302520490
11
-35.2106353492
21
-58.1933631852
0
LINE
5
2E3
100
AcDbEntity
8
0
100
AcDbLine
62
7
6
CONTINUOUS
10
-35.0485821122
20
-59.2572129040
11
-35.0511147530
21
-59.4019899886
0
LINE
5
2E4
100
AcDbEntity
8
0
100
AcDbLine
62
7
6
CONTINUOUS
10
-35.2106353492
20
-58.1933631852
11
-35.2119461572
21
-58.2641702789
0
LINE
5
2E5
100
AcDbEntity
8
0
100
AcDbLine
62
7
6
CONTINUOUS
10
-35.0511147530
20
-59.4019899886
11
-35.0531182117
21
-59.4903869157
0
LINE
5
2E6
100
AcDbEntity
8
0
100
AcDbLine
62
7
6
CONTINUOUS
10
-35.2119461572
20
-58.2641702789
11
-35.2128404812
21
-58.3015914512
0
LINE
5
2E7
100
AcDbEntity
8
0
100
AcDbLine
62
7
6
CONTINUOUS
10
-35.0531182117
20
-59.4903869157
11
-35.0553314485
21
-59.5716531023
0
LINE
5
2E8
100
AcDbEntity
8
0
100
AcDbLine
62
7
6
CONTINUOUS
10
-35.2128404812
20
-58.3015914512
11
-35.2138436748
21
-58.3348614746
0
LINE
5
2E9
100
AcDbEntity
8
0
100
AcDbLine
62
7
6
CONTINUOUS
10
-35.0553314485
20
-59.5716531023
11
-35.0577184772
21
-59.6454429739
0
LINE
5
2EA
100
AcDbEntity
8
0
100
AcDbLine
62
7
6
CONTINUOUS
10
-35.2138436748
20
-58.3348614746
11
-35.2145313818
21
-58.3545544833
0
LINE
5
2EB
100
AcDbEntity
8
0
100
AcDbLine
62
7
6
CONTINUOUS
10
-35.0577184772
20
-59.6454429739
11
-35.0602415196
21
-59.7115075218
0
LWPOLYLINE
5
2EC
100
AcDbEntity
8
0
100
AcDbPolyline
62
7
6
CONTINUOUS
90
5
70
0
10
-35.2145313818
20
-58.3545544833
10
-35.2152212212
20
-58.3718225205
10
-35.2155721027
20
-58.3795316050
10
-35.2159254358
20
-58.3866003591
10
-35.2162672589
20
-58.3928286377
0
LWPOLYLINE
5
2ED
100
AcDbEntity
8
0
100
AcDbPolyline
62
7
6
CONTINUOUS
90
14
70
0
10
-35.0602415196
20
-59.7115075218
10
-35.0628613545
20
-59.7697124258
10
-35.0641965927
20
-59.7958808853
10
-35.0655397751
20
-59.8200624782
10
-35.0668879649
20
-59.8423134776
10
-35.0682354412
20
-59.8626426620
10
-35.0695686851
20
-59.8809712938
10
-35.0708838745
20
-59.8973842726
10
-35.0721735486
20
-59.9119202321
10
-35.0734131509
20
-59.9244676631
10
-35.0745999597
20
-59.9351842865
10
-35.0757163825
20
-59.9440961509
10
-35.0766918436
20
-59.9509149597
10
-35.0770226087
20
-59.9530092365
0
LWPOLYLINE
5
2EE
100
AcDbEntity
8
0
100
AcDbPolyline
62
7
6
CONTINUOUS
90
5
70
0
10
-35.2162765408
20
-58.3929977620
10
-35.2166194566
20
-58.3986936937
10
-35.2169573836
20
-58.4038075250
10
-35.2172761413
20
-58.4081910310
10
-35.2175361111
20
-58.4114385551
0
LINE
5
2EF
100
AcDbEntity
8
0
100
AcDbLine
62
7
6
CONTINUOUS
10
-28.5710437275
20
77.2410502620
11
-28.5710437275
21
-74.7746301959
0
LINE
5
2F0
100
AcDbEntity
8
0
100
AcDbLine
62
7
6
CONTINUOUS
10
-27.6710437275
20
56.7332100331
11
-27.6710437275
21
49.7332100331
0
LINE
5
2F1
100
AcDbEntity
8
0
100
AcDbLine
62
7
6
CONTINUOUS
10
-27.6710437275
20
-47.2667899669
11
-27.6710437275
21
-54.2667899669
0
LINE
5
2F2
100
AcDbEntity
8
0
100
AcDbLine
62
7
6
CONTINUOUS
10
-26.4703584949
20
77.1187995174
11
-26.4703584949
21
56.9449232349
0
LINE
5
2F3
100
AcDbEntity
8
0
100
AcDbLine
62
7
6
CONTINUOUS
10
-26.4703584949
20
49.5214968312
11
-26.4703584949
21
-47.0550767651
0
LINE
5
2F4
100
AcDbEntity
8
0
100
AcDbLine
62
7
6
CONTINUOUS
10
-26.4703584949
20
-54.4785031688
11
-26.4703584949
21
-74.6523794512
0
LINE
5
2F5
100
AcDbEntity
8
0
100
AcDbLine
62
7
6
CONTINUOUS
10
-25.9710437275
20
77.5912593442
11
-25.9710437275
21
57.0329659003
0
LINE
5
2F6
100
AcDbEntity
8
0
100
AcDbLine
62
7
6
CONTINUOUS
10
-25.9710437275
20
49.4334541659
11
-25.9710437275
21
-46.9670340997
0
LINE
5
2F7
100
AcDbEntity
8
0
100
AcDbLine
62
7
6
CONTINUOUS
10
-25.9710437275
20
-54.5665458341
11
-25.9710437275
21
-75.1248392780
0
LWPOLYLINE
5
2F8
100
AcDbEntity
8
0
100
AcDbPolyline
62
7
6
CONTINUOUS
90
12
70
0
10
-35.0775752410
20
62.4225852187
10
-35.0772161705
20
62.4205997703
10
-35.0764543260
20
62.4157618858
10
-35.0755566840
20
62.4093116788
10
-35.0745996403
20
62.4016015740
10
-35.0736022064
20
62.3926797769
10
-35.0725631636
20
62.3824332536
10
-35.0715039306
20
62.3709829970
10
-35.0704313520
20
62.3583402185
10
-35.0693462387
20
62.3444534048
10
-35.0682559308
20
62.3293578002
10
-35.0671655058
20
62.3130736139
0
LWPOLYLINE
5
2F9
100
AcDbEntity
8
0
100
AcDbPolyline
62
7
6
CONTINUOUS
90
3
70
0
10
-35.9520403558
20
-59.9505927959
10
-35.9620337756
20
-59.9763290900
10
-35.9683880878
20
-60.0031983914
0
LINE
5
2FA
100
AcDbEntity
8
0
100
AcDbLine
62
7
6
CONTINUOUS
10
-35.2162672589
20
-58.3928286377
11
-35.9520403558
21
-59.9505927959
0
LINE
5
2FB
100
AcDbEntity
8
0
100
AcDbLine
62
7
6
CONTINUOUS
10
-35.9520403999
20
62.4170129571
11
-35.2162556739
21
60.8592244873
0
LINE
5
2FC
100
AcDbEntity
8
0
100
AcDbLine
62
7
6
CONTINUOUS
10
-25.9710437275
20
49.4334541659
11
-27.6710437275
21
49.7332100331
0
LINE
5
2FD
100
AcDbEntity
8
0
100
AcDbLine
62
7
6
CONTINUOUS
10
-25.9710437275
20
-75.1248392780
11
-26.4703584999
21
-75.6510052167
0
LINE
5
2FE
100
AcDbEntity
8
0
100
AcDbLine
62
7
6
CONTINUOUS
10
-25.9710437275
20
57.0329659003
11
-27.6710437275
21
56.7332100331
0
LINE
5
2FF
100
AcDbEntity
8
0
100
AcDbLine
62
7
6
CONTINUOUS
10
-25.9710437275
20
77.5912593441
11
-26.4703584999
21
78.1174252828
0
LINE
5
300
100
AcDbEntity
8
0
100
AcDbLine
62
9
6
CONTINUOUS
10
-35.2085723616
20
60.3821695765
11
-35.2086853203
21
60.3821695765
0
LINE
5
301
100
AcDbEntity
8
0
100
AcDbLine
62
9
6
CONTINUOUS
10
-35.0453303394
20
61.2042131335
11
-35.1587580675
21
61.2042131335
0
LINE
5
302
100
AcDbEntity
8
0
100
AcDbLine
62
9
6
CONTINUOUS
10
-35.0452691709
20
61.2610204968
11
-35.0453303394
21
61.2610204968
0
LINE
5
303
100
AcDbEntity
8
0
100
AcDbLine
62
7
6
CONTINUOUS
10
-30.4710437275
20
79.1331863739
11
-35.0181489898
21
78.8948826849
0
LINE
5
304
100
AcDbEntity
8
0
100
AcDbLine
62
9
6
CONTINUOUS
10
-33.2004489503
20
76.9990937829
11
-28.5710437275
21
77.2410502620
0
LINE
5
305
100
AcDbEntity
8
0
100
AcDbLine
62
9
6
CONTINUOUS
10
-33.2519686653
20
78.8937901990
11
-28.6711005205
21
79.1332099674
0
LINE
5
306
100
AcDbEntity
8
0
100
AcDbLine
62
9
6
CONTINUOUS
10
-34.0521339832
20
76.9990937829
11
-33.2004489503
21
76.9990937829
0
LINE
5
307
100
AcDbEntity
8
0
100
AcDbLine
62
7
6
CONTINUOUS
10
-26.4703584949
20
77.1187995174
11
-25.9710437275
21
77.1187995174
0
LINE
5
308
100
AcDbEntity
8
0
100
AcDbLine
62
9
6
CONTINUOUS
10
-34.1036882410
20
77.9950269250
11
-35.8710437275
21
77.9961187211
0
ARC
5
309
100
AcDbEntity
8
0
100
AcDbCircle
62
7
6
CONTINUOUS
10
99.6805431367
20
570.5332100331
40
632.0000000000
100
AcDbArc
50
265.8194072448
51
274.1805927552
0
ARC
5
30A
100
AcDbEntity
8
0
100
AcDbCircle
62
7
6
CONTINUOUS
10
99.6805431367
20
-568.0667899669
40
632.0000000000
100
AcDbArc
50
85.8194072448
51
94.1805927552
0
ARC
5
30B
100
AcDbEntity
8
0
100
AcDbCircle
62
7
6
CONTINUOUS
10
-34.9710466521
20
-75.5296964744
40
0.9000000001
100
AcDbArc
50
179.9999999910
51
267.0000000000
0
ARC
5
30C
100
AcDbEntity
8
0
100
AcDbCircle
62
7
6
CONTINUOUS
10
-34.9710466521
20
77.9961165405
40
0.9000000001
100
AcDbArc
50
93.0000000000
51
180.0000000090
0
ARC
5
30D
100
AcDbEntity
8
0
100
AcDbCircle
62
7
6
CONTINUOUS
10
-35.7710408896
20
63.6651015733
40
0.1999999996
100
AcDbArc
50
91.0000000287
51
180.0000000000
0
ARC
5
30E
100
AcDbEntity
8
0
100
AcDbCircle
62
7
6
CONTINUOUS
10
-35.7710408896
20
-61.1986815072
40
0.1999999996
100
AcDbArc
50
180.0000000000
51
268.9999999713
0
SPLINE
5
30F
100
AcDbEntity
8
0
100
AcDbSpline
62
7
6
CONTINUOUS
70
0
71
3
72
11
73
7
74
5
42
0.0000001000
43
0.0000001000
44
0.0000000001
12
0.3117550253
22
0.0000000638
32
0.0000000000
13
0.0000004741
23
0.3117550253
33
0.0000000000
40
0.0000000000
40
0.0000000000
40
0.0000000000
40
0.0000000000
40
0.2501860846
40
0.4991544506
40
0.7498735200
40
1.0000000000
40
1.0000000000
40
1.0000000000
40
1.0000000000
10
144.4808172298
20
-56.7667899669
30
0.0000000000
10
144.5068161528
20
-56.7667899616
30
0.0000000000
10
144.5592592125
20
-56.7564300800
30
0.0000000000
10
144.6256691657
20
-56.7120506873
30
0.0000000000
10
144.6701539886
20
-56.6456749372
30
0.0000000000
10
144.6805430972
20
-56.5930567899
30
0.0000000000
10
144.6805431367
20
-56.5670640609
30
0.0000000000
11
144.4808172298
21
-56.7667899669
31
0.0000000000
11
144.5573177975
21
-56.7515860487
31
0.0000000000
11
144.6218877348
21
-56.7085146717
31
0.0000000000
11
144.6653464653
21
-56.6435471234
31
0.0000000000
11
144.6805431367
21
-56.5670640609
31
0.0000000000
0
SPLINE
5
310
100
AcDbEntity
8
0
100
AcDbSpline
62
7
6
CONTINUOUS
70
0
71
3
72
11
73
7
74
5
42
0.0000001000
43
0.0000001000
44
0.0000000001
12
0.0000004595
22
-0.3117550253
32
0.0000000000
13
0.3117550253
23
-0.0000000697
33
0.0000000000
40
0.0000000000
40
0.0000000000
40
0.0000000000
40
0.0000000000
40
0.2501860846
40
0.4991544504
40
0.7498735200
40
1.0000000000
40
1.0000000000
40
1.0000000000
40
1.0000000000
10
54.6805431367
20
-56.5670640609
30
0.0000000000
10
54.6805431750
20
-56.5930629840
30
0.0000000000
10
54.6909030088
20
-56.6455060424
30
0.0000000000
10
54.7352824212
20
-56.7119160008
30
0.0000000000
10
54.8016581662
20
-56.7564008035
30
0.0000000000
10
54.8542763146
20
-56.7667899611
30
0.0000000000
10
54.8802690437
20
-56.7667899669
30
0.0000000000
11
54.6805431367
21
-56.5670640609
31
0.0000000000
11
54.6957470553
21
-56.6435646286
31
0.0000000000
11
54.7388184325
21
-56.7081345656
31
0.0000000000
11
54.8037859812
21
-56.7515932959
31
0.0000000000
11
54.8802690437
21
-56.7667899669
31
0.0000000000
0
SPLINE
5
311
100
AcDbEntity
8
0
100
AcDbSpline
62
7
6
CONTINUOUS
70
0
71
3
72
11
73
7
74
5
42
0.0000001000
43
0.0000001000
44
0.0000000001
12
-0.3117550253
22
-0.0000000738
32
0.0000000000
13
-0.0000004995
23
-0.3117550253
33
0.0000000000
40
0.0000000000
40
0.0000000000
40
0.0000000000
40
0.0000000000
40
0.2501860846
40
0.4991544506
40
0.7498735200
40
1.0000000000
40
1.0000000000
40
1.0000000000
40
1.0000000000
10
54.8802690437
20
59.2332100331
30
0.0000000000
10
54.8542701206
20
59.2332100269
30
0.0000000000
10
54.8018270609
20
59.2228501466
30
0.0000000000
10
54.7354171080
20
59.1784707533
30
0.0000000000
10
54.6909322839
20
59.1120950033
30
0.0000000000
10
54.6805431784
20
59.0594768561
30
0.0000000000
10
54.6805431367
20
59.0334841271
30
0.0000000000
11
54.8802690437
21
59.2332100331
31
0.0000000000
11
54.8037684759
21
59.2180061148
31
0.0000000000
11
54.7391985387
21
59.1749347379
31
0.0000000000
11
54.6957398081
21
59.1099671895
31
0.0000000000
11
54.6805431367
21
59.0334841271
31
0.0000000000
0
SPLINE
5
312
100
AcDbEntity
8
0
100
AcDbSpline
62
7
6
CONTINUOUS
70
0
71
3
72
11
73
7
74
5
42
0.0000001000
43
0.0000001000
44
0.0000000001
12
-0.0000004499
22
0.3117550253
32
0.0000000000
13
-0.3117550253
23
0.0000000653
33
0.0000000000
40
0.0000000000
40
0.0000000000
40
0.0000000000
40
0.0000000000
40
0.2501860846
40
0.4991544504
40
0.7498735200
40
1.0000000000
40
1.0000000000
40
1.0000000000
40
1.0000000000
10
144.6805431367
20
59.0334841271
30
0.0000000000
10
144.6805430992
20
59.0594830501
30
0.0000000000
10
144.6701832643
20
59.1119261085
30
0.0000000000
10
144.6258038524
20
59.1783360670
30
0.0000000000
10
144.5594281072
20
59.2228208695
30
0.0000000000
10
144.5068099588
20
59.2332100276
30
0.0000000000
10
144.4808172298
20
59.2332100331
30
0.0000000000
11
144.6805431367
21
59.0334841271
31
0.0000000000
11
144.6653392181
21
59.1099846947
31
0.0000000000
11
144.6222678409
21
59.1745546317
31
0.0000000000
11
144.5573002923
21
59.2180133620
31
0.0000000000
11
144.4808172298
21
59.2332100331
31
0.0000000000
0
SPLINE
5
313
100
AcDbEntity
8
0
100
AcDbSpline
62
7
6
CONTINUOUS
70
0
71
3
72
17
73
13
74
11
42
0.0000001000
43
0.0000001000
44
0.0000000001
12
0.0000827822
22
1.4856416574
32
0.0000000000
13
1.4807596530
23
0.1234631777
33
0.0000000000
40
0.0000000000
40
0.0000000000
40
0.0000000000
40
0.0000000000
40
0.0833748751
40
0.1767643374
40
0.2790524445
40
0.3871544495
40
0.4985782553
40
0.6108481377
40
0.7210419533
40
0.8259460674
40
0.9224106164
40
1.0000000000
40
1.0000000000
40
1.0000000000
40
1.0000000000
10
52.7345455758
20
61.2042131335
30
0.0000000000
10
52.7345478764
20
61.2455015294
30
0.0000000000
10
52.7399892130
20
61.3331287694
30
0.0000000000
10
52.7666505091
20
61.4691614756
30
0.0000000000
10
52.8168880097
20
61.6115854977
30
0.0000000000
10
52.8930190327
20
61.7523759779
30
0.0000000000
10
52.9941054700
20
61.8828691903
30
0.0000000000
10
53.1161918081
20
61.9955206997
30
0.0000000000
10
53.2524308848
20
62.0847257758
30
0.0000000000
10
53.3939058909
20
62.1478606649
30
0.0000000000
10
53.5274847447
20
62.1848436100
30
0.0000000000
10
53.6130581244
20
62.1969667633
30
0.0000000000
10
53.6513552006
20
62.2001599073
30
0.0000000000
11
52.7345455758
21
61.2042131335
31
0.0000000000
11
52.7422276323
21
61.3278398732
31
0.0000000000
11
52.7689128383
21
61.4639927150
31
0.0000000000
11
52.8194670486
21
61.6073006667
31
0.0000000000
11
52.8958581749
21
61.7485700063
31
0.0000000000
11
52.9972325182
21
61.8794339028
31
0.0000000000
11
53.1198129893
21
61.9925438983
31
0.0000000000
11
53.2567727672
21
62.0822238837
31
0.0000000000
11
53.3990916717
21
62.1457418153
31
0.0000000000
11
53.5372073945
21
62.1839819199
31
0.0000000000
11
53.6513552006
21
62.2001599073
31
0.0000000000
0
SPLINE
5
314
100
AcDbEntity
8
0
100
AcDbSpline
62
7
6
CONTINUOUS
70
0
71
3
72
8
73
4
74
2
42
0.0000001000
43
0.0000001000
44
0.0000000001
12
0.0106704145
22
0.0008896807
32
0.0000000000
13
0.0106774937
23
0.0007751656
33
0.0000000000
40
0.0000000000
40
0.0000000000
40
0.0000000000
40
0.0000000000
40
1.0000000000
40
1.0000000000
40
1.0000000000
40
1.0000000000
10
53.6513552006
20
62.2001599073
30
0.0000000000
10
53.6549120054
20
62.2004564675
30
0.0000000000
10
53.6584701072
20
62.2007339558
30
0.0000000000
10
53.6620292718
20
62.2009923443
30
0.0000000000
11
53.6513552006
21
62.2001599073
31
0.0000000000
11
53.6620292718
21
62.2009923443
31
0.0000000000
0
SPLINE
5
315
100
AcDbEntity
8
0
100
AcDbSpline
62
7
6
CONTINUOUS
70
0
71
3
72
8
73
4
74
2
42
0.0000001000
43
0.0000001000
44
0.0000000001
12
-0.0831672638
22
0.0060374188
32
0.0000000000
13
-0.0824501417
23
0.0129514318
33
0.0000000000
40
0.0000000000
40
0.0000000000
40
0.0000000000
40
0.0000000000
40
1.0000000000
40
1.0000000000
40
1.0000000000
40
1.0000000000
10
53.6620292718
20
-59.7345722782
30
0.0000000000
10
53.6343068505
20
-59.7325598052
30
0.0000000000
10
53.6066485760
20
-59.7293883131
30
0.0000000000
10
53.5791651954
20
-59.7250711692
30
0.0000000000
11
53.6620292718
21
-59.7345722782
31
0.0000000000
11
53.5791651954
21
-59.7250711692
31
0.0000000000
0
SPLINE
5
316
100
AcDbEntity
8
0
100
AcDbSpline
62
7
6
CONTINUOUS
70
0
71
3
72
17
73
13
74
11
42
0.0000001000
43
0.0000001000
44
0.0000000001
12
-1.3970990933
22
0.2194590974
32
0.0000000000
13
-0.0000839949
23
1.4129589490
33
0.0000000000
40
0.0000000000
40
0.0000000000
40
0.0000000000
40
0.0000000000
40
0.0315063940
40
0.1340747698
40
0.2453185851
40
0.3618355639
40
0.4802219516
40
0.5973849030
40
0.7106543001
40
0.8173564511
40
0.9140324810
40
1.0000000000
40
1.0000000000
40
1.0000000000
40
1.0000000000
10
53.5791651954
20
-59.7250711692
30
0.0000000000
10
53.5644926773
20
-59.7227663809
30
0.0000000000
10
53.5022662226
20
-59.7115688682
30
0.0000000000
10
53.3906195951
20
-59.6803286442
30
0.0000000000
10
53.2482208607
20
-59.6160601035
30
0.0000000000
10
53.1116892709
20
-59.5256157662
30
0.0000000000
10
52.9899375210
20
-59.4118991713
30
0.0000000000
10
52.8896891595
20
-59.2807873659
30
0.0000000000
10
52.8146860772
20
-59.1400590214
30
0.0000000000
10
52.7656140561
20
-58.9986186281
30
0.0000000000
10
52.7397911549
20
-58.8643911479
30
0.0000000000
10
52.7345479827
20
-58.7782825924
30
0.0000000000
10
52.7345455758
20
-58.7377930673
30
0.0000000000
11
53.5791651954
21
-59.7250711692
31
0.0000000000
11
53.5353140350
21
-59.7171792516
31
0.0000000000
11
53.3957500914
21
-59.6781262917
31
0.0000000000
11
53.2524853221
21
-59.6134603508
31
0.0000000000
11
53.1152361314
21
-59.5225377598
31
0.0000000000
11
52.9929908545
21
-59.4083578428
31
0.0000000000
11
52.8924376390
21
-59.2768486226
31
0.0000000000
11
52.8171619422
21
-59.1356113252
31
0.0000000000
11
52.7677397897
21
-58.9931761993
31
0.0000000000
11
52.7419333582
21
-58.8590367703
31
0.0000000000
11
52.7345455758
21
-58.7377930673
31
0.0000000000
0
SPLINE
5
317
100
AcDbEntity
8
0
100
AcDbSpline
62
7
6
CONTINUOUS
70
0
71
3
72
8
73
4
74
2
42
0.0000001000
43
0.0000001000
44
0.0000000001
12
0.0831672638
22
-0.0060374188
32
0.0000000000
13
0.0824501417
23
-0.0129514318
33
0.0000000000
40
0.0000000000
40
0.0000000000
40
0.0000000000
40
0.0000000000
40
1.0000000000
40
1.0000000000
40
1.0000000000
40
1.0000000000
10
145.6990570017
20
62.2009923443
30
0.0000000000
10
145.7267794229
20
62.1989798714
30
0.0000000000
10
145.7544376974
20
62.1958083793
30
0.0000000000
10
145.7819210780
20
62.1914912353
30
0.0000000000
11
145.6990570017
21
62.2009923443
31
0.0000000000
11
145.7819210780
21
62.1914912353
31
0.0000000000
0
SPLINE
5
318
100
AcDbEntity
8
0
100
AcDbSpline
62
7
6
CONTINUOUS
70
0
71
3
72
17
73
13
74
11
42
0.0000001000
43
0.0000001000
44
0.0000000001
12
1.3970990933
22
-0.2194590974
32
0.0000000000
13
0.0000839949
23
-1.4129589490
33
0.0000000000
40
0.0000000000
40
0.0000000000
40
0.0000000000
40
0.0000000000
40
0.0315063940
40
0.1340747698
40
0.2453185851
40
0.3618355639
40
0.4802219516
40
0.5973849030
40
0.7106543001
40
0.8173564511
40
0.9140324810
40
1.0000000000
40
1.0000000000
40
1.0000000000
40
1.0000000000
10
145.7819210780
20
62.1914912353
30
0.0000000000
10
145.7965935962
20
62.1891864470
30
0.0000000000
10
145.8588200508
20
62.1779889344
30
0.0000000000
10
145.9704666783
20
62.1467487104
30
0.0000000000
10
146.1128654127
20
62.0824801697
30
0.0000000000
10
146.2493970025
20
61.9920358324
30
0.0000000000
10
146.3711487524
20
61.8783192375
30
0.0000000000
10
146.4713971139
20
61.7472074321
30
0.0000000000
10
146.5464001963
20
61.6064790876
30
0.0000000000
10
146.5954722173
20
61.4650386943
30
0.0000000000
10
146.6212951185
20
61.3308112141
30
0.0000000000
10
146.6265382907
20
61.2447026586
30
0.0000000000
10
146.6265406977
20
61.2042131335
30
0.0000000000
11
145.7819210780
21
62.1914912353
31
0.0000000000
11
145.8257722384
21
62.1835993177
31
0.0000000000
11
145.9653361820
21
62.1445463579
31
0.0000000000
11
146.1086009514
21
62.0798804169
31
0.0000000000
11
146.2458501420
21
61.9889578260
31
0.0000000000
11
146.3680954190
21
61.8747779090
31
0.0000000000
11
146.4686486344
21
61.7432686888
31
0.0000000000
11
146.5439243313
21
61.6020313913
31
0.0000000000
11
146.5933464837
21
61.4595962655
31
0.0000000000
11
146.6191529152
21
61.3254568365
31
0.0000000000
11
146.6265406977
21
61.2042131335
31
0.0000000000
0
SPLINE
5
319
100
AcDbEntity
8
0
100
AcDbSpline
62
7
6
CONTINUOUS
70
0
71
3
72
17
73
13
74
11
42
0.0000001000
43
0.0000001000
44
0.0000000001
12
-0.0000827822
22
-1.4856416574
32
0.0000000000
13
-1.4807596530
23
-0.1234631777
33
0.0000000000
40
0.0000000000
40
0.0000000000
40
0.0000000000
40
0.0000000000
40
0.0833748751
40
0.1767643374
40
0.2790524445
40
0.3871544495
40
0.4985782553
40
0.6108481377
40
0.7210419533
40
0.8259460674
40
0.9224106164
40
1.0000000000
40
1.0000000000
40
1.0000000000
40
1.0000000000
10
146.6265406977
20
-58.7377930673
30
0.0000000000
10
146.6265383970
20
-58.7790814632
30
0.0000000000
10
146.6210970604
20
-58.8667087033
30
0.0000000000
10
146.5944357643
20
-59.0027414094
30
0.0000000000
10
146.5441982638
20
-59.1451654316
30
0.0000000000
10
146.4680672408
20
-59.2859559118
30
0.0000000000
10
146.3669808034
20
-59.4164491242
30
0.0000000000
10
146.2448944653
20
-59.5291006336
30
0.0000000000
10
146.1086553887
20
-59.6183057097
30
0.0000000000
10
145.9671803825
20
-59.6814405987
30
0.0000000000
10
145.8336015287
20
-59.7184235438
30
0.0000000000
10
145.7480281491
20
-59.7305466972
30
0.0000000000
10
145.7097310729
20
-59.7337398411
30
0.0000000000
11
146.6265406977
21
-58.7377930673
31
0.0000000000
11
146.6188586411
21
-58.8614198070
31
0.0000000000
11
146.5921734351
21
-58.9975726488
31
0.0000000000
11
146.5416192249
21
-59.1408806006
31
0.0000000000
11
146.4652280985
21
-59.2821499402
31
0.0000000000
11
146.3638537552
21
-59.4130138366
31
0.0000000000
11
146.2412732842
21
-59.5261238321
31
0.0000000000
11
146.1043135063
21
-59.6158038175
31
0.0000000000
11
145.9619946018
21
-59.6793217492
31
0.0000000000
11
145.8238788789
21
-59.7175618537
31
0.0000000000
11
145.7097310729
21
-59.7337398411
31
0.0000000000
0
SPLINE
5
31A
100
AcDbEntity
8
0
100
AcDbSpline
62
7
6
CONTINUOUS
70
0
71
3
72
8
73
4
74
2
42
0.0000001000
43
0.0000001000
44
0.0000000001
12
-0.0106704145
22
-0.0008896807
32
0.0000000000
13
-0.0106774937
23
-0.0007751656
33
0.0000000000
40
0.0000000000
40
0.0000000000
40
0.0000000000
40
0.0000000000
40
1.0000000000
40
1.0000000000
40
1.0000000000
40
1.0000000000
10
145.7097310729
20
-59.7337398411
30
0.0000000000
10
145.7061742680
20
-59.7340364014
30
0.0000000000
10
145.7026161662
20
-59.7343138896
30
0.0000000000
10
145.6990570017
20
-59.7345722782
30
0.0000000000
11
145.7097310729
21
-59.7337398411
31
0.0000000000
11
145.6990570017
21
-59.7345722782
31
0.0000000000
0
SPLINE
5
31B
100
AcDbEntity
8
0
100
AcDbSpline
62
7
6
CONTINUOUS
70
0
71
3
72
13
73
9
74
7
42
0.0000001000
43
0.0000001000
44
0.0000000001
12
1.5982009129
22
-0.0000005207
32
0.0000000000
13
-1.4979748086
23
-0.5570616319
33
0.0000000000
40
0.0000000000
40
0.0000000000
40
0.0000000000
40
0.0000000000
40
0.2256554029
40
0.3632767210
40
0.5068415172
40
0.6481251526
40
0.7809165321
40
1.0000000000
40
1.0000000000
40
1.0000000000
40
1.0000000000
10
103.3305436830
20
-57.5586428614
30
0.0000000000
10
103.4507579066
20
-57.5586429006
30
0.0000000000
10
103.6497508014
20
-57.6123605719
30
0.0000000000
10
103.8550535929
20
-57.7957922638
30
0.0000000000
10
103.9545861036
20
-58.0059118722
30
0.0000000000
10
103.9521257788
20
-58.2362636509
30
0.0000000000
10
103.8380274040
20
-58.4799039273
30
0.0000000000
10
103.6748368098
20
-58.5976236919
30
0.0000000000
10
103.5654429712
20
-58.6383046900
30
0.0000000000
11
103.3305436830
21
-57.5586428614
31
0.0000000000
11
103.6779699429
21
-57.6553802739
31
0.0000000000
11
103.8412315028
21
-57.8027645669
31
0.0000000000
11
103.9376501436
21
-58.0109679013
31
0.0000000000
11
103.9356545136
21
-58.2367587101
31
0.0000000000
11
103.8463452611
21
-58.4292795738
31
0.0000000000
11
103.5654429712
21
-58.6383046900
31
0.0000000000
0
SPLINE
5
31C
100
AcDbEntity
8
0
100
AcDbSpline
62
7
6
CONTINUOUS
70
0
71
3
72
13
73
9
74
7
42
0.0000001000
43
0.0000001000
44
0.0000000001
12
0.7427844758
22
0.0000008816
32
0.0000000000
13
-0.7427843384
23
-0.0000000827
33
0.0000000000
40
0.0000000000
40
0.0000000000
40
0.0000000000
40
0.0000000000
40
0.2559150557
40
0.3844872800
40
0.4999997795
40
0.6155122789
40
0.7440845032
40
1.0000000000
40
1.0000000000
40
1.0000000000
40
1.0000000000
10
103.2802082033
20
-58.3493811524
30
0.0000000000
10
103.3435714468
20
-58.3493810772
30
0.0000000000
10
103.4438762393
20
-58.3135222863
30
0.0000000000
10
103.5187603816
20
-58.2109047461
30
0.0000000000
10
103.5380972858
20
-58.1212835685
30
0.0000000000
10
103.5187603816
20
-58.0316623909
30
0.0000000000
10
103.4438761733
20
-57.9290447601
30
0.0000000000
10
103.3435712167
20
-57.8931859775
30
0.0000000000
10
103.2802078757
20
-57.8931859845
30
0.0000000000
11
103.2802082033
21
-58.3493811524
31
0.0000000000
11
103.4581710094
21
-58.2825729168
31
0.0000000000
11
103.5142150128
21
-58.2052450824
31
0.0000000000
11
103.5318857413
21
-58.1212835685
31
0.0000000000
11
103.5142150128
21
-58.0373220545
31
0.0000000000
11
103.4581710094
21
-57.9599942201
31
0.0000000000
11
103.2802078757
21
-57.8931859845
31
0.0000000000
0
SPLINE
5
31D
100
AcDbEntity
8
0
100
AcDbSpline
62
9
6
CONTINUOUS
70
0
71
3
72
10
73
6
74
4
42
0.0000001000
43
0.0000001000
44
0.0000000001
12
0.0627943802
22
-1.0927368115
32
0.0000000000
13
0.0630044453
23
-1.0927247198
33
0.0000000000
40
0.0000000000
40
0.0000000000
40
0.0000000000
40
0.0000000000
40
0.3342627533
40
0.6675932788
40
1.0000000000
40
1.0000000000
40
1.0000000000
40
1.0000000000
10
144.7773890605
20
-56.8230186991
30
0.0000000000
10
144.7843856680
20
-56.9447724376
30
0.0000000000
10
144.7983665115
20
-57.1879399442
30
0.0000000000
10
144.8193331185
20
-57.5521835269
30
0.0000000000
10
144.8333067154
20
-57.7946731630
30
0.0000000000
10
144.8402877491
20
-57.9157495100
30
0.0000000000
11
144.7773890605
21
-56.8230186991
31
0.0000000000
11
144.7983901264
21
-57.1882792682
31
0.0000000000
11
144.8193563346
21
-57.5525197951
31
0.0000000000
11
144.8402877491
21
-57.9157495100
31
0.0000000000
0
SPLINE
5
31E
100
AcDbEntity
8
0
100
AcDbSpline
62
9
6
CONTINUOUS
70
0
71
3
72
13
73
9
74
7
42
0.0000001000
43
0.0000001000
44
0.0000000001
12
0.1301841994
22
-0.1301294966
32
0.0000000000
13
0.0105609710
23
-0.1837663667
33
0.0000000000
40
0.0000000000
40
0.0000000000
40
0.0000000000
40
0.0000000000
40
0.0536009209
40
0.1574174933
40
0.3115337737
40
0.5103157685
40
0.7440124519
40
1.0000000000
40
1.0000000000
40
1.0000000000
40
1.0000000000
10
144.7545771629
20
-56.6411011438
30
0.0000000000
10
144.7569031606
20
-56.6434261641
30
0.0000000000
10
144.7598380128
20
-56.6531947555
30
0.0000000000
10
144.7638750938
20
-56.6715094758
30
0.0000000000
10
144.7676004784
20
-56.6994875619
30
0.0000000000
10
144.7712855114
20
-56.7352163404
30
0.0000000000
10
144.7745927652
20
-56.7773585638
30
0.0000000000
10
144.7764879015
20
-56.8073380652
30
0.0000000000
10
144.7773890605
20
-56.8230186991
30
0.0000000000
11
144.7545771629
21
-56.6411011438
31
0.0000000000
11
144.7587980463
21
-56.6500189913
31
0.0000000000
11
144.7630226270
21
-56.6686556457
31
0.0000000000
11
144.7671099576
21
-56.6967277659
31
0.0000000000
11
144.7709311092
21
-56.7331174120
31
0.0000000000
11
144.7743815516
21
-56.7759952562
31
0.0000000000
11
144.7773890605
21
-56.8230186991
31
0.0000000000
0
SPLINE
5
31F
100
AcDbEntity
8
0
100
AcDbSpline
62
9
6
CONTINUOUS
70
0
71
3
72
12
73
8
74
6
42
0.0000001000
43
0.0000001000
44
0.0000000001
12
0.1301635476
22
0.1301112647
32
0.0000000000
13
0.0105602898
23
0.1837388652
33
0.0000000000
40
0.0000000000
40
0.0000000000
40
0.0000000000
40
0.0000000000
40
0.0670292528
40
0.2047513502
40
0.4135527155
40
0.6840951924
40
1.0000000000
40
1.0000000000
40
1.0000000000
40
1.0000000000
10
144.7545770869
20
59.1075209779
30
0.0000000000
10
144.7574853420
20
59.1104280649
30
0.0000000000
10
144.7606865609
20
59.1234254700
30
0.0000000000
10
144.7655566908
20
59.1477143133
30
0.0000000000
10
144.7697684867
20
59.1856733343
30
0.0000000000
10
144.7739917477
20
59.2341467350
30
0.0000000000
10
144.7762769904
20
59.2700902329
30
0.0000000000
10
144.7773890058
20
59.2894382299
30
0.0000000000
11
144.7545770869
21
59.1075209779
31
0.0000000000
11
144.7594966371
21
59.1188338002
31
0.0000000000
11
144.7644486504
21
59.1436920153
31
0.0000000000
11
144.7692092857
21
59.1818242318
31
0.0000000000
11
144.7735743849
21
59.2314237252
31
0.0000000000
11
144.7773890058
21
59.2894382299
31
0.0000000000
0
SPLINE
5
320
100
AcDbEntity
8
0
100
AcDbSpline
62
9
6
CONTINUOUS
70
0
71
3
72
10
73
6
74
4
42
0.0000001000
43
0.0000001000
44
0.0000000001
12
0.0627944109
22
1.0927373489
32
0.0000000000
13
0.0630044763
23
1.0927252572
33
0.0000000000
40
0.0000000000
40
0.0000000000
40
0.0000000000
40
0.0000000000
40
0.3342623153
40
0.6675925904
40
1.0000000000
40
1.0000000000
40
1.0000000000
40
1.0000000000
10
144.7773890058
20
59.2894382299
30
0.0000000000
10
144.7843856076
20
59.4111918686
30
0.0000000000
10
144.7983664784
20
59.6543592421
30
0.0000000000
10
144.8193330814
20
60.0186030047
30
0.0000000000
10
144.8333066975
20
60.2610929194
30
0.0000000000
10
144.8402877491
20
60.3821695768
30
0.0000000000
11
144.7773890058
21
59.2894382299
31
0.0000000000
11
144.7983900783
21
59.6546984984
31
0.0000000000
11
144.8193562810
21
60.0189389309
31
0.0000000000
11
144.8402877491
21
60.3821695768
31
0.0000000000
0
SPLINE
5
321
100
AcDbEntity
8
0
100
AcDbSpline
62
9
6
CONTINUOUS
70
0
71
3
72
12
73
8
74
6
42
0.0000001000
43
0.0000001000
44
0.0000000001
12
-91.8734406751
22
-6.6532421921
32
0.0000000000
13
-91.8734406859
23
6.6532420430
33
0.0000000000
40
0.0000000000
40
0.0000000000
40
0.0000000000
40
0.0000000000
40
0.2000272699
40
0.4000134829
40
0.5999859907
40
0.7999722211
40
1.0000000000
40
1.0000000000
40
1.0000000000
40
1.0000000000
10
145.6990570017
20
-59.7345722782
30
0.0000000000
10
139.5733258301
20
-60.1781822354
30
0.0000000000
10
127.3095496330
20
-60.8882016310
30
0.0000000000
10
108.8924420703
20
-61.4208417151
30
0.0000000000
10
90.4686921655
20
-61.4208424147
30
0.0000000000
10
72.0515684042
20
-60.8882032482
30
0.0000000000
10
59.7877760309
20
-60.1781833542
30
0.0000000000
10
53.6620292718
20
-59.7345722782
30
0.0000000000
11
145.6990570017
21
-59.7345722782
31
0.0000000000
11
127.3045411073
21
-60.7995298557
31
0.0000000000
11
108.8907042860
21
-61.3320816563
31
0.0000000000
11
90.4704304799
21
-61.3320823574
31
0.0000000000
11
72.0565920097
21
-60.7995318886
31
0.0000000000
11
53.6620292718
21
-59.7345722782
31
0.0000000000
0
SPLINE
5
322
100
AcDbEntity
8
0
100
AcDbSpline
62
9
6
CONTINUOUS
70
0
71
3
72
12
73
8
74
6
42
0.0000001000
43
0.0000001000
44
0.0000000001
12
91.8734406751
22
6.6532421921
32
0.0000000000
13
91.8734406859
23
-6.6532420431
33
0.0000000000
40
0.0000000000
40
0.0000000000
40
0.0000000000
40
0.0000000000
40
0.2000278538
40
0.4000140656
40
0.5999865733
40
0.7999728047
40
1.0000000000
40
1.0000000000
40
1.0000000000
40
1.0000000000
10
53.6620292718
20
62.2009923443
30
0.0000000000
10
59.7877783239
20
62.6446035964
30
0.0000000000
10
72.0515724284
20
63.3546235094
30
0.0000000000
10
90.4686979175
20
63.8872625572
30
0.0000000000
10
108.8924478126
20
63.8872617048
30
0.0000000000
10
127.3095536447
20
63.3546215028
30
0.0000000000
10
139.5733281134
20
62.6446021262
30
0.0000000000
10
145.6990570017
20
62.2009923443
30
0.0000000000
11
53.6620292718
21
62.2009923443
31
0.0000000000
11
72.0565989031
21
63.2659522539
31
0.0000000000
11
90.4704356613
21
63.7985024984
31
0.0000000000
11
108.8907094594
21
63.7985016477
31
0.0000000000
11
127.3045479717
21
63.2659496239
31
0.0000000000
11
145.6990570017
21
62.2009923443
31
0.0000000000
0
SPLINE
5
323
100
AcDbEntity
8
0
100
AcDbSpline
62
9
6
CONTINUOUS
70
0
71
3
72
17
73
13
74
11
42
0.0000001000
43
0.0000001000
44
0.0000000001
12
1.1940795960
22
-0.0864597416
32
0.0000000000
13
0.0000067850
23
-1.1972056500
33
0.0000000000
40
0.0000000000
40
0.0000000000
40
0.0000000000
40
0.0000000000
40
0.0854763236
40
0.1823097684
40
0.2873375597
40
0.3973693565
40
0.5092011254
40
0.6198873177
40
0.7268539715
40
0.8275856734
40
0.9188437025
40
1.0000000000
40
1.0000000000
40
1.0000000000
40
1.0000000000
10
145.6913115544
20
62.0015537100
30
0.0000000000
10
145.7253333991
20
61.9990902897
30
0.0000000000
10
145.7976407269
20
61.9891831866
30
0.0000000000
10
145.9084507550
20
61.9582106275
30
0.0000000000
10
146.0223886129
20
61.9068326683
30
0.0000000000
10
146.1316622456
20
61.8344998230
30
0.0000000000
10
146.2291306289
20
61.7435155036
30
0.0000000000
10
146.3093804520
20
61.6385931532
30
0.0000000000
10
146.3694014116
20
61.5259870643
30
0.0000000000
10
146.4086554408
20
61.4128388821
30
0.0000000000
10
146.4293062396
20
61.3054741497
30
0.0000000000
10
146.4334973387
20
61.2366000595
30
0.0000000000
10
146.4334975223
20
61.2042131335
30
0.0000000000
11
145.6913115544
21
62.0015537100
31
0.0000000000
11
145.7926965022
21
61.9876583316
31
0.0000000000
11
145.9043461415
21
61.9564490705
31
0.0000000000
11
146.0189690313
21
61.9047566456
31
0.0000000000
11
146.1288129893
21
61.8320429653
31
0.0000000000
11
146.2266824804
21
61.7406814667
31
0.0000000000
11
146.3071879972
21
61.6354253140
31
0.0000000000
11
146.3674249723
21
61.5224158116
31
0.0000000000
11
146.4069555581
21
61.4084822181
31
0.0000000000
11
146.4275922835
21
61.3011942911
31
0.0000000000
11
146.4334975223
21
61.2042131335
31
0.0000000000
0
SPLINE
5
324
100
AcDbEntity
8
0
100
AcDbSpline
62
9
6
CONTINUOUS
70
0
71
3
72
17
73
13
74
11
42
0.0000001000
43
0.0000001000
44
0.0000000001
12
0.0000020337
22
-1.1972074345
32
0.0000000000
13
-1.1940806255
23
-0.0864702326
33
0.0000000000
40
0.0000000000
40
0.0000000000
40
0.0000000000
40
0.0000000000
40
0.0827624008
40
0.1754513787
40
0.2769685679
40
0.3842766611
40
0.4949180986
40
0.6064388720
40
0.7158885362
40
0.8200516320
40
0.9158164112
40
1.0000000000
40
1.0000000000
40
1.0000000000
40
1.0000000000
10
146.4334975223
20
-58.7377930673
30
0.0000000000
10
146.4334975784
20
-58.7708209878
30
0.0000000000
10
146.4291472987
20
-58.8409113029
30
0.0000000000
10
146.4078259395
20
-58.9497155278
30
0.0000000000
10
146.3676459572
20
-59.0636331731
30
0.0000000000
10
146.3067424895
20
-59.1762619196
30
0.0000000000
10
146.2258456038
20
-59.2806784031
30
0.0000000000
10
146.1281167759
20
-59.3708243890
30
0.0000000000
10
146.0190577026
20
-59.4421905753
30
0.0000000000
10
145.9058338870
20
-59.4926766114
30
0.0000000000
10
145.7961923146
20
-59.5229991056
30
0.0000000000
10
145.7248188852
20
-59.5327071857
30
0.0000000000
10
145.6913115544
20
-59.5351336439
30
0.0000000000
11
146.4334975223
21
-58.7377930673
31
0.0000000000
11
146.4273560725
21
-58.8366863148
31
0.0000000000
11
146.4060158667
21
-58.9455829532
31
0.0000000000
11
146.3655858756
21
-59.0601983566
31
0.0000000000
11
146.3044776608
21
-59.1732042814
31
0.0000000000
11
146.2233520342
21
-59.2779157106
31
0.0000000000
11
146.1252145528
21
-59.3684413378
31
0.0000000000
11
146.0155715313
21
-59.4401930230
31
0.0000000000
11
145.9016783383
21
-59.4909831392
31
0.0000000000
11
145.7911765554
21
-59.5215453469
31
0.0000000000
11
145.6913115544
21
-59.5351336439
31
0.0000000000
0
SPLINE
5
325
100
AcDbEntity
8
0
100
AcDbSpline
62
9
6
CONTINUOUS
70
0
71
3
72
12
73
8
74
6
42
0.0000001000
43
0.0000001000
44
0.0000000001
12
-91.8580271535
22
-6.6511129675
32
0.0000000000
13
-91.8580271754
23
6.6511126652
33
0.0000000000
40
0.0000000000
40
0.0000000000
40
0.0000000000
40
0.0000000000
40
0.2000268180
40
0.4000133388
40
0.5999861804
40
0.7999727182
40
1.0000000000
40
1.0000000000
40
1.0000000000
40
1.0000000000
10
145.6913115544
20
-59.5351336439
30
0.0000000000
10
139.5666219269
20
-59.9786006316
30
0.0000000000
10
127.3049119017
20
-60.6883947019
30
0.0000000000
10
108.8909013522
20
-61.2208651126
30
0.0000000000
10
90.4702286843
20
-61.2208657412
30
0.0000000000
10
72.0562033420
20
-60.6883961909
30
0.0000000000
10
59.7944785469
20
-59.9786016396
30
0.0000000000
10
53.6697747190
20
-59.5351336439
30
0.0000000000
11
145.6913115544
21
-59.5351336439
31
0.0000000000
11
127.2999286191
21
-60.5997498890
31
0.0000000000
11
108.8891650618
21
-61.1321331909
31
0.0000000000
11
90.4719654931
21
-61.1321338282
31
0.0000000000
11
72.0612003267
21
-60.5997517443
31
0.0000000000
11
53.6697747190
21
-59.5351336439
31
0.0000000000
0
SPLINE
5
326
100
AcDbEntity
8
0
100
AcDbSpline
62
9
6
CONTINUOUS
70
0
71
3
72
17
73
13
74
11
42
0.0000001000
43
0.0000001000
44
0.0000000001
12
-1.1940795960
22
0.0864597416
32
0.0000000000
13
-0.0000067850
23
1.1972056500
33
0.0000000000
40
0.0000000000
40
0.0000000000
40
0.0000000000
40
0.0000000000
40
0.0854763236
40
0.1823097684
40
0.2873375597
40
0.3973693565
40
0.5092011254
40
0.6198873177
40
0.7268539715
40
0.8275856734
40
0.9188437025
40
1.0000000000
40
1.0000000000
40
1.0000000000
40
1.0000000000
10
53.6697747190
20
-59.5351336439
30
0.0000000000
10
53.6357528744
20
-59.5326702236
30
0.0000000000
10
53.5634455465
20
-59.5227631204
30
0.0000000000
10
53.4526355185
20
-59.4917905613
30
0.0000000000
10
53.3386976605
20
-59.4404126021
30
0.0000000000
10
53.2294240279
20
-59.3680797569
30
0.0000000000
10
53.1319556445
20
-59.2770954374
30
0.0000000000
10
53.0517058214
20
-59.1721730870
30
0.0000000000
10
52.9916848619
20
-59.0595669982
30
0.0000000000
10
52.9524308326
20
-58.9464188159
30
0.0000000000
10
52.9317800338
20
-58.8390540836
30
0.0000000000
10
52.9275889347
20
-58.7701799933
30
0.0000000000
10
52.9275887512
20
-58.7377930673
30
0.0000000000
11
53.6697747190
21
-59.5351336439
31
0.0000000000
11
53.5683897713
21
-59.5212382655
31
0.0000000000
11
53.4567401320
21
-59.4900290043
31
0.0000000000
11
53.3421172421
21
-59.4383365794
31
0.0000000000
11
53.2322732842
21
-59.3656228992
31
0.0000000000
11
53.1344037931
21
-59.2742614005
31
0.0000000000
11
53.0538982762
21
-59.1690052479
31
0.0000000000
11
52.9936613011
21
-59.0559957455
31
0.0000000000
11
52.9541307154
21
-58.9420621520
31
0.0000000000
11
52.9334939899
21
-58.8347742249
31
0.0000000000
11
52.9275887512
21
-58.7377930673
31
0.0000000000
0
SPLINE
5
327
100
AcDbEntity
8
0
100
AcDbSpline
62
9
6
CONTINUOUS
70
0
71
3
72
17
73
13
74
11
42
0.0000001000
43
0.0000001000
44
0.0000000001
12
-0.0000020337
22
1.1972074345
32
0.0000000000
13
1.1940806255
23
0.0864702326
33
0.0000000000
40
0.0000000000
40
0.0000000000
40
0.0000000000
40
0.0000000000
40
0.0827624008
40
0.1754513787
40
0.2769685679
40
0.3842766611
40
0.4949180986
40
0.6064388720
40
0.7158885362
40
0.8200516321
40
0.9158164112
40
1.0000000000
40
1.0000000000
40
1.0000000000
40
1.0000000000
10
52.9275887512
20
61.2042131335
30
0.0000000000
10
52.9275886951
20
61.2372410540
30
0.0000000000
10
52.9319389747
20
61.3073313690
30
0.0000000000
10
52.9532603340
20
61.4161355939
30
0.0000000000
10
52.9934403162
20
61.5300532393
30
0.0000000000
10
53.0543437839
20
61.6426819858
30
0.0000000000
10
53.1352406697
20
61.7470984692
30
0.0000000000
10
53.2329694975
20
61.8372444552
30
0.0000000000
10
53.3420285709
20
61.9086106415
30
0.0000000000
10
53.4552523865
20
61.9590966776
30
0.0000000000
10
53.5648939588
20
61.9894191718
30
0.0000000000
10
53.6362673882
20
61.9991272519
30
0.0000000000
10
53.6697747190
20
62.0015537100
30
0.0000000000
11
52.9275887512
21
61.2042131335
31
0.0000000000
11
52.9337302010
21
61.3031063810
31
0.0000000000
11
52.9550704067
21
61.4120030194
31
0.0000000000
11
52.9955003979
21
61.5266184227
31
0.0000000000
11
53.0566086126
21
61.6396243476
31
0.0000000000
11
53.1377342393
21
61.7443357767
31
0.0000000000
11
53.2358717206
21
61.8348614040
31
0.0000000000
11
53.3455147422
21
61.9066130892
31
0.0000000000
11
53.4594079351
21
61.9574032053
31
0.0000000000
11
53.5699097180
21
61.9879654131
31
0.0000000000
11
53.6697747190
21
62.0015537100
31
0.0000000000
0
SPLINE
5
328
100
AcDbEntity
8
0
100
AcDbSpline
62
9
6
CONTINUOUS
70
0
71
3
72
12
73
8
74
6
42
0.0000001000
43
0.0000001000
44
0.0000000001
12
91.8580271535
22
6.6511129673
32
0.0000000000
13
91.8580271754
23
-6.6511126652
33
0.0000000000
40
0.0000000000
40
0.0000000000
40
0.0000000000
40
0.0000000000
40
0.2000274019
40
0.4000139215
40
0.5999867630
40
0.7999733018
40
1.0000000000
40
1.0000000000
40
1.0000000000
40
1.0000000000
10
53.6697747190
20
62.0015537100
30
0.0000000000
10
59.7944822241
20
62.4450219922
30
0.0000000000
10
72.0562101540
20
63.1548165796
30
0.0000000000
10
90.4702386270
20
63.6872859545
30
0.0000000000
10
108.8909112852
20
63.6872850316
30
0.0000000000
10
127.3049187012
20
63.1548144460
30
0.0000000000
10
139.5666255945
20
62.4450204120
30
0.0000000000
10
145.6913115544
20
62.0015537100
30
0.0000000000
11
53.6697747190
21
62.0015537100
31
0.0000000000
11
72.0612113826
21
63.0661722865
31
0.0000000000
11
90.4719748771
21
63.5985540328
31
0.0000000000
11
108.8891744376
21
63.5985531187
31
0.0000000000
11
127.2999396460
21
63.0661694803
31
0.0000000000
11
145.6913115544
21
62.0015537100
31
0.0000000000
0
SPLINE
5
329
100
AcDbEntity
8
0
100
AcDbSpline
62
9
6
CONTINUOUS
70
0
71
3
72
27
73
23
74
21
42
0.0000001000
43
0.0000001000
44
0.0000000001
12
-89.8386910418
22
-6.2862298705
32
0.0000000000
13
-89.8386903661
23
6.2862395268
33
0.0000000000
40
0.0000000000
40
0.0000000000
40
0.0000000000
40
0.0000000000
40
0.0316610054
40
0.0664176530
40
0.1046063780
40
0.1465517673
40
0.1925746473
40
0.2429546139
40
0.2979599595
40
0.3585436118
40
0.4250475281
40
0.4953431006
40
0.5669678127
40
0.6365096041
40
0.7003809397
40
0.7573016345
40
0.8081999345
40
0.8541547342
40
0.8959224288
40
0.9339002447
40
0.9684644968
40
1.0000000000
40
1.0000000000
40
1.0000000000
40
1.0000000000
10
144.6726087177
20
-58.4483313830
30
0.0000000000
10
143.7244809577
20
-58.5146741689
30
0.0000000000
10
141.7352327405
20
-58.6497393675
30
0.0000000000
10
138.6012934008
20
-58.8485208126
30
0.0000000000
10
135.1581929324
20
-59.0497118898
30
0.0000000000
10
131.3762914408
20
-59.2496922439
30
0.0000000000
10
127.2276518512
20
-59.4435585313
30
0.0000000000
10
122.6860466157
20
-59.6250174144
30
0.0000000000
10
117.7063320033
20
-59.7869613684
30
0.0000000000
10
112.2415554938
20
-59.9200203742
30
0.0000000000
10
106.3168317074
20
-60.0109563967
30
0.0000000000
10
100.0600473728
20
-60.0462928481
30
0.0000000000
10
93.7120241925
20
-60.0182309654
30
0.0000000000
10
87.5574415280
20
-59.9294074394
30
0.0000000000
10
81.8452754323
20
-59.7929934184
30
0.0000000000
10
76.6938774190
20
-59.6259758405
30
0.0000000000
10
72.0813267838
20
-59.4413470123
30
0.0000000000
10
67.9245342655
20
-59.2466681420
30
0.0000000000
10
64.1563404144
20
-59.0470886235
30
0.0000000000
10
60.7306634259
20
-58.8467159631
30
0.0000000000
10
57.6125728425
20
-58.6488461199
30
0.0000000000
10
55.6328469921
20
-58.5144112919
30
0.0000000000
10
54.6884775559
20
-58.4483313830
30
0.0000000000
11
144.6726087177
21
-58.4483313830
31
0.0000000000
11
141.8278168925
21
-58.6414323976
31
0.0000000000
11
138.7039652086
21
-58.8395292212
31
0.0000000000
11
135.2706057398
21
-59.0401126874
31
0.0000000000
11
131.4983414675
21
-59.2395510510
31
0.0000000000
11
127.3581134272
21
-59.4329967978
31
0.0000000000
11
122.8245928327
21
-59.6141097887
31
0.0000000000
11
117.8735188095
21
-59.7751046385
31
0.0000000000
11
112.4190710195
21
-59.9078961720
31
0.0000000000
11
106.4305429000
21
-59.9997960239
31
0.0000000000
11
100.0999402889
21
-60.0355437488
31
0.0000000000
11
93.6495996260
21
-60.0070340997
31
0.0000000000
11
87.3874322564
21
-59.9166743056
31
0.0000000000
11
81.6369240402
21
-59.7793633432
31
0.0000000000
11
76.5134314733
21
-59.6132699011
31
0.0000000000
11
71.9332811070
21
-59.4299617514
31
0.0000000000
11
67.7991975977
21
-59.2363739730
31
0.0000000000
11
64.0429309521
21
-59.0374583765
31
0.0000000000
11
60.6285448936
21
-58.8377840913
31
0.0000000000
11
57.5219912076
21
-58.6406905837
31
0.0000000000
11
54.6884775559
21
-58.4483313830
31
0.0000000000
0
SPLINE
5
32A
100
AcDbEntity
8
0
100
AcDbSpline
62
9
6
CONTINUOUS
70
0
71
3
72
13
73
9
74
7
42
0.0000001000
43
0.0000001000
44
0.0000000001
12
0.0000184358
22
-0.7108989219
32
0.0000000000
13
-0.7090664252
23
-0.0510106073
33
0.0000000000
40
0.0000000000
40
0.0000000000
40
0.0000000000
40
0.0000000000
40
0.1940468039
40
0.3871027071
40
0.5634307049
40
0.7205690257
40
0.8647888565
40
1.0000000000
40
1.0000000000
40
1.0000000000
40
1.0000000000
10
145.0467345733
20
-57.9157495104
30
0.0000000000
10
145.0467357658
20
-57.9617320649
30
0.0000000000
10
145.0380786759
20
-58.0537112986
30
0.0000000000
10
144.9994002598
20
-58.1824866009
30
0.0000000000
10
144.9380367020
20
-58.2923884702
30
0.0000000000
10
144.8599301069
20
-58.3760181736
30
0.0000000000
10
144.7702779584
20
-58.4304829029
30
0.0000000000
10
144.7045666118
20
-58.4460323155
30
0.0000000000
10
144.6726087177
20
-58.4483313830
30
0.0000000000
11
145.0467345733
21
-57.9157495104
31
0.0000000000
11
145.0335543662
21
-58.0530660792
31
0.0000000000
11
144.9934191471
21
-58.1843096288
31
0.0000000000
11
144.9314213200
21
-58.2932556651
31
0.0000000000
11
144.8543890740
21
-58.3741570690
31
0.0000000000
11
144.7662094268
21
-58.4264626477
31
0.0000000000
11
144.6726087177
21
-58.4483313830
31
0.0000000000
0
SPLINE
5
32B
100
AcDbEntity
8
0
100
AcDbSpline
62
9
6
CONTINUOUS
70
0
71
3
72
14
73
10
74
8
42
0.0000001000
43
0.0000001000
44
0.0000000001
12
0.7094753261
22
-0.0489754638
32
0.0000000000
13
0.0000116078
23
-0.7111637183
33
0.0000000000
40
0.0000000000
40
0.0000000000
40
0.0000000000
40
0.0000000000
40
0.1404075603
40
0.2931039297
40
0.4462230461
40
0.5909473124
40
0.7303155932
40
0.8663103681
40
1.0000000000
40
1.0000000000
40
1.0000000000
40
1.0000000000
10
144.6726087177
20
60.9147514491
30
0.0000000000
10
144.7058139509
20
60.9124592740
30
0.0000000000
10
144.7746906722
20
60.8953642230
30
0.0000000000
10
144.8654967418
20
60.8380679825
30
0.0000000000
10
144.9375174935
20
60.7577288046
30
0.0000000000
10
144.9892430248
20
60.6672402007
30
0.0000000000
10
145.0232772235
20
60.5732065297
30
0.0000000000
10
145.0425744645
20
60.4778722285
30
0.0000000000
10
145.0467340560
20
60.4138613151
30
0.0000000000
10
145.0467345733
20
60.3821695765
30
0.0000000000
11
144.6726087177
21
60.9147514491
31
0.0000000000
11
144.7696847851
21
60.8913674513
31
0.0000000000
11
144.8620831102
21
60.8343166180
31
0.0000000000
11
144.9355890041
21
60.7539766106
31
0.0000000000
11
144.9871273643
21
60.6648875049
31
0.0000000000
11
145.0211634266
21
60.5718011739
31
0.0000000000
11
145.0405057360
21
60.4770405322
31
0.0000000000
11
145.0467345733
21
60.3821695765
31
0.0000000000
0
SPLINE
5
32C
100
AcDbEntity
8
0
100
AcDbSpline
62
9
6
CONTINUOUS
70
0
71
3
72
27
73
23
74
21
42
0.0000001000
43
0.0000001000
44
0.0000000001
12
89.8386905230
22
6.2862393625
32
0.0000000000
13
89.8386911800
23
-6.2862299722
33
0.0000000000
40
0.0000000000
40
0.0000000000
40
0.0000000000
40
0.0000000000
40
0.0315383097
40
0.0661603523
40
0.1041899331
40
0.1459435625
40
0.1917355012
40
0.2418497104
40
0.2965514945
40
0.3567905115
40
0.4229696848
40
0.4930483361
40
0.5646239896
40
0.6343406977
40
0.6986014257
40
0.7559366380
40
0.8071680501
40
0.8533912458
40
0.8953882554
40
0.9335675768
40
0.9683075084
40
1.0000000000
40
1.0000000000
40
1.0000000000
40
1.0000000000
10
54.6884775559
20
60.9147514491
30
0.0000000000
10
55.6329310390
20
60.9808372372
30
0.0000000000
10
57.6144718284
20
61.1153949498
30
0.0000000000
10
60.7359295834
20
61.3134651314
30
0.0000000000
10
64.1644706882
20
61.5139644993
30
0.0000000000
10
67.9289154164
20
61.7132901981
30
0.0000000000
10
72.0568904137
20
61.9066095170
30
0.0000000000
10
76.5744661216
20
62.0877267094
30
0.0000000000
10
81.5267293727
20
62.2496569419
30
0.0000000000
10
86.9622765763
20
62.3832202130
30
0.0000000000
10
92.8603712273
20
62.4753487745
30
0.0000000000
10
99.0994105064
20
62.5125202455
30
0.0000000000
10
105.4447087444
20
62.4865584947
30
0.0000000000
10
111.6147862682
20
62.3994849955
30
0.0000000000
10
117.3563673004
20
62.2639728302
30
0.0000000000
10
122.5419185438
20
62.0969995851
30
0.0000000000
10
127.1849773495
20
61.9119332546
30
0.0000000000
10
131.3667084883
20
61.7166125632
30
0.0000000000
10
135.1558814745
20
61.5162640972
30
0.0000000000
10
138.5997464324
20
61.3150331423
30
0.0000000000
10
141.7338471688
20
61.1162513507
30
0.0000000000
10
143.7235380621
20
60.9811602127
30
0.0000000000
10
144.6726087177
20
60.9147514491
30
0.0000000000
11
54.6884775559
21
60.9147514491
31
0.0000000000
11
57.5222434200
21
61.1071272411
31
0.0000000000
11
60.6339920233
21
61.3045369082
31
0.0000000000
11
64.0530343787
21
61.5044427282
31
0.0000000000
11
67.8080390264
21
61.7032364468
31
0.0000000000
11
71.9274720515
21
61.8961284938
31
0.0000000000
11
76.4370533824
21
62.0769024415
31
0.0000000000
11
81.3607751382
21
62.2378818326
31
0.0000000000
11
86.7841651899
21
62.3711305311
31
0.0000000000
11
92.7434259004
21
62.4641990290
31
0.0000000000
11
99.0544819157
21
62.5017936307
31
0.0000000000
11
105.5004135134
21
62.4754242698
31
0.0000000000
11
111.7783606125
21
62.3868446799
31
0.0000000000
11
117.5639652350
21
62.2503123422
31
0.0000000000
11
122.7248059714
21
62.0841543304
31
0.0000000000
11
127.3349629060
21
61.9004233777
31
0.0000000000
11
131.4932156728
21
61.7062271103
31
0.0000000000
11
135.2701231661
21
61.5065596739
31
0.0000000000
11
138.7026374816
21
61.3060303411
31
0.0000000000
11
141.8249873950
21
61.1080385450
31
0.0000000000
11
144.6726087177
21
60.9147514491
31
0.0000000000
0
SPLINE
5
32D
100
AcDbEntity
8
0
100
AcDbSpline
62
9
6
CONTINUOUS
70
0
71
3
72
13
73
9
74
7
42
0.0000001000
43
0.0000001000
44
0.0000000001
12
-0.0000184410
22
0.7108989219
32
0.0000000000
13
0.7090664252
23
0.0510106090
33
0.0000000000
40
0.0000000000
40
0.0000000000
40
0.0000000000
40
0.0000000000
40
0.1940466675
40
0.3871026234
40
0.5634306854
40
0.7205690059
40
0.8647888574
40
1.0000000000
40
1.0000000000
40
1.0000000000
40
1.0000000000
10
54.3143517001
20
60.3821695764
30
0.0000000000
10
54.3143505073
20
60.4281520987
30
0.0000000000
10
54.3230075896
20
60.5201313119
30
0.0000000000
10
54.3616859888
20
60.6489066149
30
0.0000000000
10
54.4230495529
20
60.7588085135
30
0.0000000000
10
54.5011561592
20
60.8424382338
30
0.0000000000
10
54.5908083107
20
60.8969029682
30
0.0000000000
10
54.6565196621
20
60.9124523816
30
0.0000000000
10
54.6884775559
20
60.9147514491
30
0.0000000000
11
54.3143517001
21
60.3821695764
31
0.0000000000
11
54.3275318885
21
60.5194860496
31
0.0000000000
11
54.3676671028
21
60.6507296399
31
0.0000000000
11
54.4296649453
21
60.7596757199
31
0.0000000000
11
54.5066971887
21
60.8405771261
31
0.0000000000
11
54.5948768474
21
60.8928827141
31
0.0000000000
11
54.6884775559
21
60.9147514491
31
0.0000000000
0
SPLINE
5
32E
100
AcDbEntity
8
0
100
AcDbSpline
62
9
6
CONTINUOUS
70
0
71
3
72
14
73
10
74
8
42
0.0000001000
43
0.0000001000
44
0.0000000001
12
-0.7094753265
22
0.0489754596
32
0.0000000000
13
-0.0000116077
23
0.7111637184
33
0.0000000000
40
0.0000000000
40
0.0000000000
40
0.0000000000
40
0.0000000000
40
0.1404075835
40
0.2931039726
40
0.4462230990
40
0.5909473590
40
0.7303156254
40
0.8663103852
40
1.0000000000
40
1.0000000000
40
1.0000000000
40
1.0000000000
10
54.6884775559
20
-58.4483313830
30
0.0000000000
10
54.6552723172
20
-58.4460392077
30
0.0000000000
10
54.5863955859
20
-58.4289441516
30
0.0000000000
10
54.4955895090
20
-58.3716478985
30
0.0000000000
10
54.4235687602
20
-58.2913087106
30
0.0000000000
10
54.3718432359
20
-58.2008201057
30
0.0000000000
10
54.3378090443
20
-58.1067864413
30
0.0000000000
10
54.3185118079
20
-58.0114521505
30
0.0000000000
10
54.3143522174
20
-57.9474412448
30
0.0000000000
10
54.3143517001
20
-57.9157495103
30
0.0000000000
11
54.6884775559
21
-58.4483313830
31
0.0000000000
11
54.5914014731
21
-58.4249473786
31
0.0000000000
11
54.4990031397
21
-58.3678965322
31
0.0000000000
11
54.4254972473
21
-58.2875565137
31
0.0000000000
11
54.3739588952
21
-58.1984674085
31
0.0000000000
11
54.3399228407
21
-58.1053810855
31
0.0000000000
11
54.3205805358
21
-58.0106204539
31
0.0000000000
11
54.3143517001
21
-57.9157495103
31
0.0000000000
0
SPLINE
5
32F
100
AcDbEntity
8
0
100
AcDbSpline
62
9
6
CONTINUOUS
70
0
71
3
72
10
73
6
74
4
42
0.0000001000
43
0.0000001000
44
0.0000000001
12
-89.7486110113
22
-0.0280997451
32
0.0000000000
13
-89.7486110281
23
0.0280460965
33
0.0000000000
40
0.0000000000
40
0.0000000000
40
0.0000000000
40
0.0000000000
40
0.3287851505
40
0.6763716394
40
1.0000000000
40
1.0000000000
40
1.0000000000
40
1.0000000000
10
144.5548505786
20
59.3072429610
30
0.0000000000
10
134.7188470530
20
59.3041633681
30
0.0000000000
10
114.4843739362
20
59.3033040644
30
0.0000000000
10
84.5681691091
20
59.3033047052
30
0.0000000000
10
64.4879675889
20
59.3042174599
30
0.0000000000
10
54.8062356367
20
59.3072429640
30
0.0000000000
11
144.5548505786
21
59.3072429610
31
0.0000000000
11
115.0468387891
21
59.3035311019
31
0.0000000000
11
83.8514326768
21
59.3035493744
31
0.0000000000
11
54.8062356367
21
59.3072429640
31
0.0000000000
0
SPLINE
5
330
100
AcDbEntity
8
0
100
AcDbSpline
62
9
6
CONTINUOUS
70
0
71
3
72
10
73
6
74
4
42
0.0000001000
43
0.0000001000
44
0.0000000001
12
-0.0627943564
22
1.0927363942
32
0.0000000000
13
-0.0630044213
23
1.0927243025
33
0.0000000000
40
0.0000000000
40
0.0000000000
40
0.0000000000
40
0.0000000000
40
0.3342628977
40
0.6675933804
40
1.0000000000
40
1.0000000000
40
1.0000000000
40
1.0000000000
10
54.5836971742
20
59.2894391816
30
0.0000000000
10
54.5767005663
20
59.4111929261
30
0.0000000000
10
54.5627197476
20
59.6543603782
30
0.0000000000
10
54.5417531398
20
60.0186038212
30
0.0000000000
10
54.5277795532
20
60.2610933122
30
0.0000000000
10
54.5207985243
20
60.3821695761
30
0.0000000000
11
54.5836971742
21
59.2894391816
31
0.0000000000
11
54.5626961220
21
59.6546997697
31
0.0000000000
11
54.5417299244
21
60.0189401108
31
0.0000000000
11
54.5207985243
21
60.3821695761
31
0.0000000000
0
SPLINE
5
331
100
AcDbEntity
8
0
100
AcDbSpline
62
9
6
CONTINUOUS
70
0
71
3
72
13
73
9
74
7
42
0.0000001000
43
0.0000001000
44
0.0000000001
12
-0.1301843909
22
0.1301295514
32
0.0000000000
13
-0.0105609800
23
0.1837665407
33
0.0000000000
40
0.0000000000
40
0.0000000000
40
0.0000000000
40
0.0000000000
40
0.0536015331
40
0.1574178161
40
0.3115337834
40
0.5103154889
40
0.7440119188
40
1.0000000000
40
1.0000000000
40
1.0000000000
40
1.0000000000
10
54.6065090497
20
59.1075214346
30
0.0000000000
10
54.6041830220
20
59.1098464824
30
0.0000000000
10
54.6012482774
20
59.1196151608
30
0.0000000000
10
54.5972111006
20
59.1379298580
30
0.0000000000
10
54.5934857604
20
59.1659079352
30
0.0000000000
10
54.5898007131
20
59.2016366878
30
0.0000000000
10
54.5864934538
20
59.2437789526
30
0.0000000000
10
54.5845983358
20
59.2737585003
30
0.0000000000
10
54.5836971742
20
59.2894391816
30
0.0000000000
11
54.6065090497
21
59.1075214346
31
0.0000000000
11
54.6022881742
21
59.1164394208
31
0.0000000000
11
54.5980635980
21
59.1350760401
31
0.0000000000
11
54.5939762697
21
59.1631481296
31
0.0000000000
11
54.5901551188
21
59.1995377570
31
0.0000000000
11
54.5867046764
21
59.2424155952
31
0.0000000000
11
54.5836971742
21
59.2894391816
31
0.0000000000
0
SPLINE
5
332
100
AcDbEntity
8
0
100
AcDbSpline
62
9
6
CONTINUOUS
70
0
71
3
72
10
73
6
74
4
42
0.0000001000
43
0.0000001000
44
0.0000000001
12
0.0103464462
22
-0.1480064687
32
0.0000000000
13
0.0157513733
23
-0.1475291767
33
0.0000000000
40
0.0000000000
40
0.0000000000
40
0.0000000000
40
0.0000000000
40
0.3702783557
40
0.7123639015
40
1.0000000000
40
1.0000000000
40
1.0000000000
40
1.0000000000
10
54.6884775557
20
60.9147514491
30
0.0000000000
10
54.6897545774
20
60.8964835852
30
0.0000000000
10
54.6923684175
20
60.8613494211
30
0.0000000000
10
54.6965140618
20
60.8120670172
30
0.0000000000
10
54.6994908838
20
60.7810645774
30
0.0000000000
10
54.7010011050
20
60.7669196718
30
0.0000000000
11
54.6884775557
21
60.9147514491
31
0.0000000000
11
54.6925635541
21
60.8599662745
31
0.0000000000
11
54.6968478621
21
60.8093929890
31
0.0000000000
11
54.7010011050
21
60.7669196718
31
0.0000000000
0
SPLINE
5
333
100
AcDbEntity
8
0
100
AcDbSpline
62
9
6
CONTINUOUS
70
0
71
3
72
10
73
6
74
4
42
0.0000001000
43
0.0000001000
44
0.0000000001
12
0.0103414693
22
0.1480190191
32
0.0000000000
13
0.0157541202
23
0.1475411255
33
0.0000000000
40
0.0000000000
40
0.0000000000
40
0.0000000000
40
0.0000000000
40
0.3702809521
40
0.7123726204
40
1.0000000000
40
1.0000000000
40
1.0000000000
40
1.0000000000
10
54.6884796725
20
-58.4483313383
30
0.0000000000
10
54.6897560889
20
-58.4300617972
30
0.0000000000
10
54.6923690664
20
-58.3949242358
30
0.0000000000
10
54.6965141938
20
-58.3456377149
30
0.0000000000
10
54.6994911513
20
-58.3146328462
30
0.0000000000
10
54.7010015901
20
-58.3004872238
30
0.0000000000
11
54.6884796725
21
-58.4483313383
31
0.0000000000
11
54.6925642970
21
-58.3935411550
31
0.0000000000
11
54.6968481715
21
-58.3429627420
31
0.0000000000
11
54.7010015901
21
-58.3004872238
31
0.0000000000
0
SPLINE
5
334
100
AcDbEntity
8
0
100
AcDbSpline
62
9
6
CONTINUOUS
70
0
71
3
72
10
73
6
74
4
42
0.0000001000
43
0.0000001000
44
0.0000000001
12
-0.0103464473
22
0.1480064920
32
0.0000000000
13
-0.0157513753
23
0.1475291999
33
0.0000000000
40
0.0000000000
40
0.0000000000
40
0.0000000000
40
0.0000000000
40
0.3702783466
40
0.7123638932
40
1.0000000000
40
1.0000000000
40
1.0000000000
40
1.0000000000
10
144.6726087184
20
-58.4483313830
30
0.0000000000
10
144.6713316966
20
-58.4300635166
30
0.0000000000
10
144.6687178562
20
-58.3949293474
30
0.0000000000
10
144.6645722115
20
-58.3456469358
30
0.0000000000
10
144.6615953891
20
-58.3146444906
30
0.0000000000
10
144.6600851676
20
-58.3004995823
30
0.0000000000
11
144.6726087184
21
-58.4483313830
31
0.0000000000
11
144.6685227197
21
-58.3935462011
31
0.0000000000
11
144.6642384111
21
-58.3429729075
31
0.0000000000
11
144.6600851676
21
-58.3004995823
31
0.0000000000
0
SPLINE
5
335
100
AcDbEntity
8
0
100
AcDbSpline
62
9
6
CONTINUOUS
70
0
71
3
72
10
73
6
74
4
42
0.0000001000
43
0.0000001000
44
0.0000000001
12
-0.0103414694
22
-0.1480190191
32
0.0000000000
13
-0.0157541202
23
-0.1475411255
33
0.0000000000
40
0.0000000000
40
0.0000000000
40
0.0000000000
40
0.0000000000
40
0.3702809521
40
0.7123726204
40
1.0000000000
40
1.0000000000
40
1.0000000000
40
1.0000000000
10
144.6726066011
20
60.9147514044
30
0.0000000000
10
144.6713301848
20
60.8964818633
30
0.0000000000
10
144.6687172072
20
60.8613443019
30
0.0000000000
10
144.6645720798
20
60.8120577810
30
0.0000000000
10
144.6615951223
20
60.7810529124
30
0.0000000000
10
144.6600846835
20
60.7669072899
30
0.0000000000
11
144.6726066011
21
60.9147514044
31
0.0000000000
11
144.6685219766
21
60.8599612212
31
0.0000000000
11
144.6642381021
21
60.8093828081
31
0.0000000000
11
144.6600846835
21
60.7669072899
31
0.0000000000
0
SPLINE
5
336
100
AcDbEntity
8
0
100
AcDbSpline
62
9
6
CONTINUOUS
70
0
71
3
72
11
73
7
74
5
42
0.0000001000
43
0.0000001000
44
0.0000000001
12
-0.1706142529
22
-0.1038800509
32
0.0000000000
13
0.0144109599
23
-0.1992300492
33
0.0000000000
40
0.0000000000
40
0.0000000000
40
0.0000000000
40
0.0000000000
40
0.0819270306
40
0.2997156739
40
0.6216268026
40
1.0000000000
40
1.0000000000
40
1.0000000000
40
1.0000000000
10
53.6620292746
20
62.2009923059
30
0.0000000000
10
53.6573699682
20
62.1981554445
30
0.0000000000
10
53.6647126163
20
62.1723913160
30
0.0000000000
10
53.6593462992
20
62.1360534749
30
0.0000000000
10
53.6658119184
20
62.0725024427
30
0.0000000000
10
53.6679571460
20
62.0266814803
30
0.0000000000
10
53.6697747197
20
62.0015537100
30
0.0000000000
11
53.6620292746
21
62.2009923059
31
0.0000000000
11
53.6606422142
21
62.1846862233
31
0.0000000000
11
53.6616227918
21
62.1411938714
31
0.0000000000
11
53.6648254394
21
62.0769717472
31
0.0000000000
11
53.6697747197
21
62.0015537100
31
0.0000000000
0
SPLINE
5
337
100
AcDbEntity
8
0
100
AcDbSpline
62
9
6
CONTINUOUS
70
0
71
3
72
11
73
7
74
5
42
0.0000001000
43
0.0000001000
44
0.0000000001
12
-0.1706142122
22
0.1038791374
32
0.0000000000
13
0.0144109114
23
0.1992295416
33
0.0000000000
40
0.0000000000
40
0.0000000000
40
0.0000000000
40
0.0000000000
40
0.0819269583
40
0.2997155127
40
0.6216266273
40
1.0000000000
40
1.0000000000
40
1.0000000000
40
1.0000000000
10
53.6620293117
20
-59.7345717307
30
0.0000000000
10
53.6573700106
20
-59.7317348968
30
0.0000000000
10
53.6647126453
20
-59.7059708095
30
0.0000000000
10
53.6593463269
20
-59.6696331053
30
0.0000000000
10
53.6658119327
20
-59.6060822128
30
0.0000000000
10
53.6679571507
20
-59.5602613617
30
0.0000000000
10
53.6697747191
20
-59.5351336439
30
0.0000000000
11
53.6620293117
21
-59.7345717307
31
0.0000000000
11
53.6606422494
21
-59.7182657047
31
0.0000000000
11
53.6616228188
21
-59.6747734815
31
0.0000000000
11
53.6648254535
21
-59.6105515238
31
0.0000000000
11
53.6697747191
21
-59.5351336439
31
0.0000000000
0
SPLINE
5
338
100
AcDbEntity
8
0
100
AcDbSpline
62
9
6
CONTINUOUS
70
0
71
3
72
11
73
7
74
5
42
0.0000001000
43
0.0000001000
44
0.0000000001
12
0.1706142529
22
0.1038800509
32
0.0000000000
13
-0.0144109599
23
0.1992300492
33
0.0000000000
40
0.0000000000
40
0.0000000000
40
0.0000000000
40
0.0000000000
40
0.0819270306
40
0.2997156739
40
0.6216268026
40
1.0000000000
40
1.0000000000
40
1.0000000000
40
1.0000000000
10
145.6990569989
20
-59.7345722397
30
0.0000000000
10
145.7037163052
20
-59.7317353783
30
0.0000000000
10
145.6963736571
20
-59.7059712499
30
0.0000000000
10
145.7017399742
20
-59.6696334088
30
0.0000000000
10
145.6952743550
20
-59.6060823765
30
0.0000000000
10
145.6931291274
20
-59.5602614141
30
0.0000000000
10
145.6913115537
20
-59.5351336439
30
0.0000000000
11
145.6990569989
21
-59.7345722397
31
0.0000000000
11
145.7004440593
21
-59.7182661572
31
0.0000000000
11
145.6994634816
21
-59.6747738052
31
0.0000000000
11
145.6962608340
21
-59.6105516810
31
0.0000000000
11
145.6913115537
21
-59.5351336439
31
0.0000000000
0
SPLINE
5
339
100
AcDbEntity
8
0
100
AcDbSpline
62
9
6
CONTINUOUS
70
0
71
3
72
11
73
7
74
5
42
0.0000001000
43
0.0000001000
44
0.0000000001
12
0.1706142122
22
-0.1038791374
32
0.0000000000
13
-0.0144109114
23
-0.1992295416
33
0.0000000000
40
0.0000000000
40
0.0000000000
40
0.0000000000
40
0.0000000000
40
0.0819269583
40
0.2997155127
40
0.6216266273
40
1.0000000000
40
1.0000000000
40
1.0000000000
40
1.0000000000
10
145.6990569617
20
62.2009917969
30
0.0000000000
10
145.7037162628
20
62.1981549630
30
0.0000000000
10
145.6963736281
20
62.1723908756
30
0.0000000000
10
145.7017399465
20
62.1360531715
30
0.0000000000
10
145.6952743408
20
62.0725022790
30
0.0000000000
10
145.6931291228
20
62.0266814279
30
0.0000000000
10
145.6913115544
20
62.0015537100
30
0.0000000000
11
145.6990569617
21
62.2009917969
31
0.0000000000
11
145.7004440240
21
62.1846857709
31
0.0000000000
11
145.6994634546
21
62.1411935476
31
0.0000000000
11
145.6962608200
21
62.0769715899
31
0.0000000000
11
145.6913115544
21
62.0015537100
31
0.0000000000
0
SPLINE
5
33A
100
AcDbEntity
8
0
100
AcDbSpline
62
9
6
CONTINUOUS
70
0
71
3
72
11
73
7
74
5
42
0.0000001000
43
0.0000001000
44
0.0000000001
12
0.3114554938
22
0.0008537253
32
0.0000000000
13
0.0008578433
23
0.3114554825
33
0.0000000000
40
0.0000000000
40
0.0000000000
40
0.0000000000
40
0.0000000000
40
0.2499061093
40
0.4999964824
40
0.7500890304
40
1.0000000000
40
1.0000000000
40
1.0000000000
40
1.0000000000
10
144.5548516762
20
-56.8408240016
30
0.0000000000
10
144.5807965531
20
-56.8407528845
30
0.0000000000
10
144.6332389747
20
-56.8302391484
30
0.0000000000
10
144.6995202915
20
-56.7857703357
30
0.0000000000
10
144.7439909116
20
-56.7194895680
30
0.0000000000
10
144.7545057014
20
-56.6670465244
30
0.0000000000
10
144.7545771629
20
-56.6411011438
30
0.0000000000
11
144.5548516762
21
-56.8408240016
31
0.0000000000
11
144.6311560617
21
-56.8254644441
31
0.0000000000
11
144.6958840685
21
-56.7821343437
31
0.0000000000
11
144.7392160059
21
-56.7174067515
31
0.0000000000
11
144.7545771629
21
-56.6411011438
31
0.0000000000
0
SPLINE
5
33B
100
AcDbEntity
8
0
100
AcDbSpline
62
9
6
CONTINUOUS
70
0
71
3
72
11
73
7
74
5
42
0.0000001000
43
0.0000001000
44
0.0000000001
12
0.2691517108
22
0.0077916631
32
0.0000000000
13
0.0128102082
23
0.2689595732
33
0.0000000000
40
0.0000000000
40
0.0000000000
40
0.0000000000
40
0.0000000000
40
0.2811902200
40
0.5465873462
40
0.7852199142
40
1.0000000000
40
1.0000000000
40
1.0000000000
40
1.0000000000
10
144.5784348634
20
-56.9707758626
30
0.0000000000
10
144.6036624730
20
-56.9700455494
30
0.0000000000
10
144.6528041052
20
-56.9617906968
30
0.0000000000
10
144.7170215424
20
-56.9301806683
30
0.0000000000
10
144.7631187695
20
-56.8827755187
30
0.0000000000
10
144.7764719345
20
-56.8422744192
30
0.0000000000
10
144.7773890604
20
-56.8230186991
30
0.0000000000
11
144.5784348634
21
-56.9707758626
31
0.0000000000
11
144.6530488736
21
-56.9579135044
31
0.0000000000
11
144.7167435302
21
-56.9255127261
31
0.0000000000
11
144.7602929116
21
-56.8782666545
31
0.0000000000
11
144.7773890604
21
-56.8230186991
31
0.0000000000
0
SPLINE
5
33C
100
AcDbEntity
8
0
100
AcDbSpline
62
9
6
CONTINUOUS
70
0
71
3
72
13
73
9
74
7
42
0.0000001000
43
0.0000001000
44
0.0000000001
12
0.0082001466
22
-0.4563786594
32
0.0000000000
13
-0.4544830236
23
-0.0423545089
33
0.0000000000
40
0.0000000000
40
0.0000000000
40
0.0000000000
40
0.0000000000
40
0.2185021018
40
0.4306338667
40
0.6149787527
40
0.7668716205
40
0.8925869457
40
1.0000000000
40
1.0000000000
40
1.0000000000
40
1.0000000000
10
144.8402877491
20
-57.9157495104
30
0.0000000000
10
144.8408849989
20
-57.9489894091
30
0.0000000000
10
144.8378537171
20
-58.0146640773
30
0.0000000000
10
144.8206168177
20
-58.1069762823
30
0.0000000000
10
144.7920696140
20
-58.1858666762
30
0.0000000000
10
144.7549148966
20
-58.2462490446
30
0.0000000000
10
144.7110828610
20
-58.2866759113
30
0.0000000000
10
144.6763576389
20
-58.2989831408
30
0.0000000000
10
144.6600851690
20
-58.3004996165
30
0.0000000000
11
144.8402877491
21
-57.9157495104
31
0.0000000000
11
144.8354818473
21
-58.0153694457
31
0.0000000000
11
144.8171106155
21
-58.1104387181
31
0.0000000000
11
144.7875127719
21
-58.1892060338
31
0.0000000000
11
144.7500325174
21
-58.2475338682
31
0.0000000000
11
144.7066190760
21
-58.2850583642
31
0.0000000000
11
144.6600851690
21
-58.3004996165
31
0.0000000000
0
SPLINE
5
33D
100
AcDbEntity
8
0
100
AcDbSpline
62
9
6
CONTINUOUS
70
0
71
3
72
12
73
8
74
6
42
0.0000001000
43
0.0000001000
44
0.0000000001
12
-0.1301636210
22
-0.1301112723
32
0.0000000000
13
-0.0105602928
23
-0.1837389225
33
0.0000000000
40
0.0000000000
40
0.0000000000
40
0.0000000000
40
0.0000000000
40
0.0670297177
40
0.2047520310
40
0.4135534471
40
0.6840956390
40
1.0000000000
40
1.0000000000
40
1.0000000000
40
1.0000000000
10
54.6065091650
20
-56.6411009951
30
0.0000000000
10
54.6036008881
20
-56.6440081024
30
0.0000000000
10
54.6003997107
20
-56.6570055797
30
0.0000000000
10
54.5955295391
20
-56.6812944578
30
0.0000000000
10
54.5913177650
20
-56.7192534980
30
0.0000000000
10
54.5870944993
20
-56.7677268692
30
0.0000000000
10
54.5848092685
20
-56.8036703348
30
0.0000000000
10
54.5836972543
20
-56.8230183105
30
0.0000000000
11
54.6065091650
21
-56.6411009951
31
0.0000000000
11
54.6015896061
21
-56.6524139110
31
0.0000000000
11
54.5966375902
21
-56.6772721742
31
0.0000000000
11
54.5918769575
21
-56.7154044124
31
0.0000000000
11
54.5875118648
21
-56.7650038694
31
0.0000000000
11
54.5836972543
21
-56.8230183105
31
0.0000000000
0
SPLINE
5
33E
100
AcDbEntity
8
0
100
AcDbSpline
62
9
6
CONTINUOUS
70
0
71
3
72
11
73
7
74
5
42
0.0000001000
43
0.0000001000
44
0.0000000001
12
0.0008576964
22
-0.3114555386
32
0.0000000000
13
0.3114555494
23
-0.0008537830
33
0.0000000000
40
0.0000000000
40
0.0000000000
40
0.0000000000
40
0.0000000000
40
0.2499108825
40
0.5000033914
40
0.7500937607
40
1.0000000000
40
1.0000000000
40
1.0000000000
40
1.0000000000
10
54.6065091651
20
-56.6411009951
30
0.0000000000
10
54.6065806143
20
-56.6670463713
30
0.0000000000
10
54.6170953766
20
-56.7194894157
30
0.0000000000
10
54.6615659618
20
-56.7857702077
30
0.0000000000
10
54.7278472764
20
-56.8302390668
30
0.0000000000
10
54.7802897195
20
-56.8407528249
30
0.0000000000
10
54.8062346145
20
-56.8408239468
30
0.0000000000
11
54.6065091651
21
-56.6411009951
31
0.0000000000
11
54.6218702809
21
-56.7174065975
31
0.0000000000
11
54.6652021847
21
-56.7821342143
31
0.0000000000
11
54.7299301806
21
-56.8254643540
31
0.0000000000
11
54.8062346145
21
-56.8408239468
31
0.0000000000
0
SPLINE
5
33F
100
AcDbEntity
8
0
100
AcDbSpline
62
9
6
CONTINUOUS
70
0
71
3
72
11
73
7
74
5
42
0.0000001000
43
0.0000001000
44
0.0000000001
12
0.0128106469
22
-0.2689594224
32
0.0000000000
13
0.2691515825
23
-0.0077916102
33
0.0000000000
40
0.0000000000
40
0.0000000000
40
0.0000000000
40
0.0000000000
40
0.2147800999
40
0.4534126938
40
0.7188098160
40
1.0000000000
40
1.0000000000
40
1.0000000000
40
1.0000000000
10
54.5836972544
20
-56.8230183105
30
0.0000000000
10
54.5846144117
20
-56.8422740210
30
0.0000000000
10
54.5979676284
20
-56.8827750814
30
0.0000000000
10
54.6440648724
20
-56.9301801687
30
0.0000000000
10
54.7082822910
20
-56.9617901497
30
0.0000000000
10
54.7574238971
20
-56.9700449847
30
0.0000000000
10
54.7826514914
20
-56.9707752928
30
0.0000000000
11
54.5836972544
21
-56.8230183105
31
0.0000000000
11
54.6007934743
21
-56.8782662187
31
0.0000000000
11
54.6443428815
21
-56.9255122338
31
0.0000000000
11
54.7080375231
21
-56.9579129631
31
0.0000000000
11
54.7826514914
21
-56.9707752928
31
0.0000000000
0
SPLINE
5
340
100
AcDbEntity
8
0
100
AcDbSpline
62
9
6
CONTINUOUS
70
0
71
3
72
14
73
10
74
8
42
0.0000001000
43
0.0000001000
44
0.0000000001
12
-0.4546050735
22
0.0418146345
32
0.0000000000
13
0.0081870671
23
0.4564506637
33
0.0000000000
40
0.0000000000
40
0.0000000000
40
0.0000000000
40
0.0000000000
40
0.1119245332
40
0.2463263329
40
0.3953151302
40
0.5461944432
40
0.6977362921
40
0.8492402112
40
1.0000000000
40
1.0000000000
40
1.0000000000
40
1.0000000000
10
54.7010011046
20
-58.3004996165
30
0.0000000000
10
54.6840406178
20
-58.2989395887
30
0.0000000000
10
54.6474058228
20
-58.2854463889
30
0.0000000000
10
54.6034022146
20
-58.2427682640
30
0.0000000000
10
54.5694953777
20
-58.1854826353
30
0.0000000000
10
54.5454290703
20
-58.1208733763
30
0.0000000000
10
54.5299033348
20
-58.0534075694
30
0.0000000000
10
54.5216100706
20
-57.9847419980
30
0.0000000000
10
54.5203870975
20
-57.9386876455
30
0.0000000000
10
54.5207985243
20
-57.9157495103
30
0.0000000000
11
54.7010011046
21
-58.3004996165
31
0.0000000000
11
54.6526513552
21
-58.2839730335
31
0.0000000000
11
54.6071443901
21
-58.2428162803
31
0.0000000000
11
54.5714761454
21
-58.1849018171
31
0.0000000000
11
54.5469029115
21
-58.1205541983
31
0.0000000000
11
54.5311090959
21
-58.0531986184
31
0.0000000000
11
54.5226769909
21
-57.9845493449
31
0.0000000000
11
54.5207985243
21
-57.9157495103
31
0.0000000000
0
SPLINE
5
341
100
AcDbEntity
8
0
100
AcDbSpline
62
9
6
CONTINUOUS
70
0
71
3
72
10
73
6
74
4
42
0.0000001000
43
0.0000001000
44
0.0000000001
12
-0.0627944026
22
-1.0927372018
32
0.0000000000
13
-0.0630044678
23
-1.0927251100
33
0.0000000000
40
0.0000000000
40
0.0000000000
40
0.0000000000
40
0.0000000000
40
0.3342624021
40
0.6675926633
40
1.0000000000
40
1.0000000000
40
1.0000000000
40
1.0000000000
10
54.5836972543
20
-56.8230183105
30
0.0000000000
10
54.5767006517
20
-56.9447719644
30
0.0000000000
10
54.5627197882
20
-57.1879393321
30
0.0000000000
10
54.5417531852
20
-57.5521830455
30
0.0000000000
10
54.5277795734
20
-57.7946728960
30
0.0000000000
10
54.5207985243
20
-57.9157495105
30
0.0000000000
11
54.5836972543
21
-56.8230183105
31
0.0000000000
11
54.5626961840
21
-57.1882786250
31
0.0000000000
11
54.5417299850
21
-57.5525189933
31
0.0000000000
11
54.5207985243
21
-57.9157495105
31
0.0000000000
0
SPLINE
5
342
100
AcDbEntity
8
0
100
AcDbSpline
62
9
6
CONTINUOUS
70
0
71
3
72
11
73
7
74
5
42
0.0000001000
43
0.0000001000
44
0.0000000001
12
-0.3114552708
22
-0.0008538234
32
0.0000000000
13
-0.0008580965
23
-0.3114552590
33
0.0000000000
40
0.0000000000
40
0.0000000000
40
0.0000000000
40
0.0000000000
40
0.2499061257
40
0.4999963711
40
0.7500889022
40
1.0000000000
40
1.0000000000
40
1.0000000000
40
1.0000000000
10
54.8062344716
20
59.3072441290
30
0.0000000000
10
54.7802896116
20
59.3071730038
30
0.0000000000
10
54.7278472431
20
59.2966592679
30
0.0000000000
10
54.6615659813
20
59.2521905094
30
0.0000000000
10
54.6170953574
20
59.1859098189
30
0.0000000000
10
54.6065805323
20
59.1334668098
30
0.0000000000
10
54.6065090497
20
59.1075214346
30
0.0000000000
11
54.8062344716
21
59.3072441290
31
0.0000000000
11
54.7299301386
21
59.2918845672
31
0.0000000000
11
54.6652022033
21
59.2485545315
31
0.0000000000
11
54.6218702626
21
59.1838270149
31
0.0000000000
11
54.6065090497
21
59.1075214346
31
0.0000000000
0
SPLINE
5
343
100
AcDbEntity
8
0
100
AcDbSpline
62
9
6
CONTINUOUS
70
0
71
3
72
11
73
7
74
5
42
0.0000001000
43
0.0000001000
44
0.0000000001
12
-0.2691519262
22
-0.0077915901
32
0.0000000000
13
-0.0128098726
23
-0.2689598026
33
0.0000000000
40
0.0000000000
40
0.0000000000
40
0.0000000000
40
0.0000000000
40
0.2811902449
40
0.5465873831
40
0.7852199342
40
1.0000000000
40
1.0000000000
40
1.0000000000
40
1.0000000000
10
54.7826514556
20
59.4371964863
30
0.0000000000
10
54.7574238236
20
59.4364661800
30
0.0000000000
10
54.7082821465
20
59.4282113286
30
0.0000000000
10
54.6440646572
20
59.3966012694
30
0.0000000000
10
54.5979674113
20
59.3491960625
30
0.0000000000
10
54.5846142760
20
59.3086949163
30
0.0000000000
10
54.5836971742
20
59.2894391816
30
0.0000000000
11
54.7826514556
21
59.4371964863
31
0.0000000000
11
54.7080373775
21
59.4243341297
31
0.0000000000
11
54.6443426706
21
59.3919333185
31
0.0000000000
11
54.6007932796
21
59.3446871927
31
0.0000000000
11
54.5836971742
21
59.2894391816
31
0.0000000000
0
SPLINE
5
344
100
AcDbEntity
8
0
100
AcDbSpline
62
9
6
CONTINUOUS
70
0
71
3
72
13
73
9
74
7
42
0.0000001000
43
0.0000001000
44
0.0000000001
12
-0.0082001476
22
0.4563786595
32
0.0000000000
13
0.4544830237
23
0.0423545082
33
0.0000000000
40
0.0000000000
40
0.0000000000
40
0.0000000000
40
0.0000000000
40
0.2185019517
40
0.4306337791
40
0.6149787351
40
0.7668716040
40
0.8925869472
40
1.0000000000
40
1.0000000000
40
1.0000000000
40
1.0000000000
10
54.5207985243
20
60.3821695764
30
0.0000000000
10
54.5202012749
20
60.4154094524
30
0.0000000000
10
54.5232325532
20
60.4810841069
30
0.0000000000
10
54.5404694441
20
60.5733963109
30
0.0000000000
10
54.5690166504
20
60.6522867260
30
0.0000000000
10
54.6061713734
20
60.7126691068
30
0.0000000000
10
54.6500034104
20
60.7530959765
30
0.0000000000
10
54.6847286349
20
60.7654032070
30
0.0000000000
10
54.7010011045
20
60.7669196827
30
0.0000000000
11
54.5207985243
21
60.3821695764
31
0.0000000000
11
54.5256044180
21
60.4817894435
31
0.0000000000
11
54.5439756471
21
60.5768587456
31
0.0000000000
11
54.5735734978
21
60.6556260927
31
0.0000000000
11
54.6110537512
21
60.7139539285
31
0.0000000000
11
54.6544671982
21
60.7514784305
31
0.0000000000
11
54.7010011045
21
60.7669196827
31
0.0000000000
0
SPLINE
5
345
100
AcDbEntity
8
0
100
AcDbSpline
62
9
6
CONTINUOUS
70
0
71
3
72
11
73
7
74
5
42
0.0000001000
43
0.0000001000
44
0.0000000001
12
-0.0008576008
22
0.3114556270
32
0.0000000000
13
-0.3114556376
23
0.0008537396
33
0.0000000000
40
0.0000000000
40
0.0000000000
40
0.0000000000
40
0.0000000000
40
0.2499108374
40
0.5000033558
40
0.7500937765
40
1.0000000000
40
1.0000000000
40
1.0000000000
40
1.0000000000
10
144.7545770869
20
59.1075209779
30
0.0000000000
10
144.7545056457
20
59.1334663568
30
0.0000000000
10
144.7439908961
20
59.1859094156
30
0.0000000000
10
144.6995203101
20
59.2521902379
30
0.0000000000
10
144.6332389729
20
59.2966591162
30
0.0000000000
10
144.5807965096
20
59.3071728730
30
0.0000000000
10
144.5548516089
20
59.3072439913
30
0.0000000000
11
144.7545770869
21
59.1075209779
31
0.0000000000
11
144.7392159914
21
59.1838265926
31
0.0000000000
11
144.6958840867
21
59.2485542390
31
0.0000000000
11
144.6311560610
21
59.2918844025
31
0.0000000000
11
144.5548516089
21
59.3072439913
31
0.0000000000
0
SPLINE
5
346
100
AcDbEntity
8
0
100
AcDbSpline
62
9
6
CONTINUOUS
70
0
71
3
72
11
73
7
74
5
42
0.0000001000
43
0.0000001000
44
0.0000000001
12
-0.0128107552
22
0.2689593391
32
0.0000000000
13
-0.2691515035
23
0.0077916431
33
0.0000000000
40
0.0000000000
40
0.0000000000
40
0.0000000000
40
0.0000000000
40
0.2147801071
40
0.4534127062
40
0.7188098238
40
1.0000000000
40
1.0000000000
40
1.0000000000
40
1.0000000000
10
144.7773890058
20
59.2894382299
30
0.0000000000
10
144.7764718406
20
59.3086939351
30
0.0000000000
10
144.7631186152
20
59.3491949791
30
0.0000000000
10
144.7170213798
20
59.3966000470
30
0.0000000000
10
144.6528039811
20
59.4282100187
30
0.0000000000
10
144.6036623916
20
59.4364648552
30
0.0000000000
10
144.5784348053
20
59.4371951664
30
0.0000000000
11
144.7773890058
21
59.2894382299
31
0.0000000000
11
144.7602927728
21
59.3446861185
31
0.0000000000
11
144.7167433710
21
59.3919321152
31
0.0000000000
11
144.6530487488
21
59.4243328343
31
0.0000000000
11
144.5784348053
21
59.4371951664
31
0.0000000000
0
SPLINE
5
347
100
AcDbEntity
8
0
100
AcDbSpline
62
9
6
CONTINUOUS
70
0
71
3
72
14
73
10
74
8
42
0.0000001000
43
0.0000001000
44
0.0000000001
12
0.4546050733
22
-0.0418146364
32
0.0000000000
13
-0.0081870670
23
-0.4564506638
33
0.0000000000
40
0.0000000000
40
0.0000000000
40
0.0000000000
40
0.0000000000
40
0.1119245131
40
0.2463262916
40
0.3953150756
40
0.5461943928
40
0.6977362562
40
0.8492401918
40
1.0000000000
40
1.0000000000
40
1.0000000000
40
1.0000000000
10
144.6600851689
20
60.7669196827
30
0.0000000000
10
144.6770456527
20
60.7653596551
30
0.0000000000
10
144.7136804417
20
60.7518664595
30
0.0000000000
10
144.7576840475
20
60.7091883442
30
0.0000000000
10
144.7915908862
20
60.6519027219
30
0.0000000000
10
144.8156571972
20
60.5872934633
30
0.0000000000
10
144.8311829361
20
60.5198276516
30
0.0000000000
10
144.8394762025
20
60.4511620727
30
0.0000000000
10
144.8406991760
20
60.4051077147
30
0.0000000000
10
144.8402877491
20
60.3821695765
30
0.0000000000
11
144.6600851689
21
60.7669196827
31
0.0000000000
11
144.7084349103
21
60.7503931044
31
0.0000000000
11
144.7539418714
21
60.7092363613
31
0.0000000000
11
144.7896101172
21
60.6513219059
31
0.0000000000
11
144.8141833552
21
60.5869742867
31
0.0000000000
11
144.8299771747
21
60.5196187008
31
0.0000000000
11
144.8384092818
21
60.4509694200
31
0.0000000000
11
144.8402877491
21
60.3821695765
31
0.0000000000
0
SPLINE
5
348
100
AcDbEntity
8
0
100
AcDbSpline
62
9
6
CONTINUOUS
70
0
71
3
72
13
73
9
74
7
42
0.0000001000
43
0.0000001000
44
0.0000000001
12
0.1094723581
22
-0.0756656545
32
0.0000000000
13
0.0110372907
23
-0.1326185005
33
0.0000000000
40
0.0000000000
40
0.0000000000
40
0.0000000000
40
0.0000000000
40
0.0580120145
40
0.1633208406
40
0.3173666772
40
0.5149680397
40
0.7466346381
40
1.0000000000
40
1.0000000000
40
1.0000000000
40
1.0000000000
10
144.5548506442
20
-56.8408290911
30
0.0000000000
10
144.5569675482
20
-56.8422922634
30
0.0000000000
10
144.5603682280
20
-56.8492181286
30
0.0000000000
10
144.5643576909
20
-56.8624577694
30
0.0000000000
10
144.5683357360
20
-56.8824849894
30
0.0000000000
10
144.5721059595
20
-56.9080373773
30
0.0000000000
10
144.5755420427
20
-56.9381447913
30
0.0000000000
10
144.5775015774
20
-56.9595677558
30
0.0000000000
10
144.5784337331
20
-56.9707680673
30
0.0000000000
11
144.5548506442
21
-56.8408290911
31
0.0000000000
11
144.5592133780
21
-56.8471982321
31
0.0000000000
11
144.5635797756
21
-56.8605148342
31
0.0000000000
11
144.5678052606
21
-56.8805745840
31
0.0000000000
11
144.5717557177
21
-56.9065723504
31
0.0000000000
11
144.5753228818
21
-56.9371947799
31
0.0000000000
11
144.5784337331
21
-56.9707680673
31
0.0000000000
0
SPLINE
5
349
100
AcDbEntity
8
0
100
AcDbSpline
62
9
6
CONTINUOUS
70
0
71
3
72
12
73
8
74
6
42
0.0000001000
43
0.0000001000
44
0.0000000001
12
-0.1094461146
22
-0.0756444572
32
0.0000000000
13
-0.0110360074
23
-0.1325848500
33
0.0000000000
40
0.0000000000
40
0.0000000000
40
0.0000000000
40
0.0000000000
40
0.0717518739
40
0.2106419469
40
0.4186825590
40
0.6871309754
40
1.0000000000
40
1.0000000000
40
1.0000000000
40
1.0000000000
10
54.8062357358
20
-56.8408287590
30
0.0000000000
10
54.8036180811
20
-56.8426379695
30
0.0000000000
10
54.7997382065
20
-56.8519236730
30
0.0000000000
10
54.7950492977
20
-56.8694235200
30
0.0000000000
10
54.7904851758
20
-56.8965908619
30
0.0000000000
10
54.7861937268
20
-56.9312417040
30
0.0000000000
10
54.7838035980
20
-56.9569406291
30
0.0000000000
10
54.7826526563
20
-56.9707678600
30
0.0000000000
11
54.8062357358
21
-56.8408287590
31
0.0000000000
11
54.8011513116
21
-56.8489081684
31
0.0000000000
11
54.7960340436
21
-56.8666638693
31
0.0000000000
11
54.7911130675
21
-56.8939013261
31
0.0000000000
11
54.7865994898
21
-56.9293302523
31
0.0000000000
11
54.7826526563
21
-56.9707678600
31
0.0000000000
0
SPLINE
5
34A
100
AcDbEntity
8
0
100
AcDbSpline
62
9
6
CONTINUOUS
70
0
71
3
72
13
73
9
74
7
42
0.0000001000
43
0.0000001000
44
0.0000000001
12
-0.1094738102
22
0.0756636805
32
0.0000000000
13
-0.0110370859
23
0.1326185899
33
0.0000000000
40
0.0000000000
40
0.0000000000
40
0.0000000000
40
0.0000000000
40
0.0580136548
40
0.1633220131
40
0.3173674405
40
0.5149684689
40
0.7466348088
40
1.0000000000
40
1.0000000000
40
1.0000000000
40
1.0000000000
10
54.8062356627
20
59.3072493897
30
0.0000000000
10
54.8041186707
20
59.3087125652
30
0.0000000000
10
54.8007178655
20
59.3156384622
30
0.0000000000
10
54.7967285507
20
59.3288781932
30
0.0000000000
10
54.7927505436
20
59.3489053700
30
0.0000000000
10
54.7889804017
20
59.3744577427
30
0.0000000000
10
54.7855444198
20
59.4045651483
30
0.0000000000
10
54.7835848120
20
59.4259880990
30
0.0000000000
10
54.7826526742
20
59.4371884104
30
0.0000000000
11
54.8062356627
21
59.3072493897
31
0.0000000000
11
54.8018727323
21
59.3136186656
31
0.0000000000
11
54.7975064229
21
59.3269352392
31
0.0000000000
11
54.7932810212
21
59.3469949622
31
0.0000000000
11
54.7893306407
21
59.3729927097
31
0.0000000000
11
54.7857635450
21
59.4036151294
31
0.0000000000
11
54.7826526742
21
59.4371884104
31
0.0000000000
0
SPLINE
5
34B
100
AcDbEntity
8
0
100
AcDbSpline
62
9
6
CONTINUOUS
70
0
71
3
72
12
73
8
74
6
42
0.0000001000
43
0.0000001000
44
0.0000000001
12
0.1094454757
22
0.0756453203
32
0.0000000000
13
0.0110360943
23
0.1325848078
33
0.0000000000
40
0.0000000000
40
0.0000000000
40
0.0000000000
40
0.0000000000
40
0.0717509504
40
0.2106409104
40
0.4186815372
40
0.6871302777
40
1.0000000000
40
1.0000000000
40
1.0000000000
40
1.0000000000
10
144.5548505576
20
59.3072487487
30
0.0000000000
10
144.5574681633
20
59.3090579566
30
0.0000000000
10
144.5613479863
20
59.3183436044
30
0.0000000000
10
144.5660369677
20
59.3358433881
30
0.0000000000
10
144.5706011078
20
59.3630107293
30
0.0000000000
10
144.5748926233
20
59.3976616006
30
0.0000000000
10
144.5772827249
20
59.4233605673
30
0.0000000000
10
144.5784336782
20
59.4371878246
30
0.0000000000
11
144.5548505576
21
59.3072487487
31
0.0000000000
11
144.5599348890
21
59.3153280684
31
0.0000000000
11
144.5650521971
21
59.3330837370
31
0.0000000000
11
144.5699732168
21
59.3603211805
31
0.0000000000
11
144.5744868385
21
59.3957501352
31
0.0000000000
11
144.5784336782
21
59.4371878246
31
0.0000000000
0
SPLINE
5
34C
100
AcDbEntity
8
0
100
AcDbSpline
62
7
6
CONTINUOUS
70
0
71
3
72
8
73
4
74
2
42
0.0000001000
43
0.0000001000
44
0.0000000001
12
0.0618594153
22
0.0328302503
32
0.0000000000
13
0.0641079214
23
0.0284549928
33
0.0000000000
40
0.0000000000
40
0.0000000000
40
0.0000000000
40
0.0000000000
40
1.0000000000
40
1.0000000000
40
1.0000000000
40
1.0000000000
10
53.2116287961
20
62.1375808953
30
0.0000000000
10
53.2322486011
20
62.1485243120
30
0.0000000000
10
53.2532729312
20
62.1587516917
30
0.0000000000
10
53.2746422384
20
62.1682366893
30
0.0000000000
11
53.2116287961
21
62.1375808953
31
0.0000000000
11
53.2746422384
21
62.1682366893
31
0.0000000000
0
SPLINE
5
34D
100
AcDbEntity
8
0
100
AcDbSpline
62
7
6
CONTINUOUS
70
0
71
3
72
9
73
5
74
3
42
0.0000001000
43
0.0000001000
44
0.0000000001
12
0.1887810932
22
0.0837925259
32
0.0000000000
13
0.2021291540
23
0.0432945366
33
0.0000000000
40
0.0000000000
40
0.0000000000
40
0.0000000000
40
0.0000000000
40
0.6680235937
40
1.0000000000
40
1.0000000000
40
1.0000000000
40
1.0000000000
10
53.2746422384
20
62.1682366893
30
0.0000000000
10
53.3166789798
20
62.1868951508
30
0.0000000000
10
53.3816043794
20
62.2105255529
30
0.0000000000
10
53.4485054640
20
62.2272690014
30
0.0000000000
10
53.4708728340
20
62.2320599229
30
0.0000000000
11
53.2746422384
21
62.1682366893
31
0.0000000000
11
53.4043040377
21
62.2153931420
31
0.0000000000
11
53.4708728340
21
62.2320599229
31
0.0000000000
0
SPLINE
5
34E
100
AcDbEntity
8
0
100
AcDbSpline
62
7
6
CONTINUOUS
70
0
71
3
72
8
73
4
74
2
42
0.0000001000
43
0.0000001000
44
0.0000000001
12
0.1351974433
22
0.0289582702
32
0.0000000000
13
0.1375696785
23
0.0100556379
33
0.0000000000
40
0.0000000000
40
0.0000000000
40
0.0000000000
40
0.0000000000
40
1.0000000000
40
1.0000000000
40
1.0000000000
40
1.0000000000
10
53.4708728340
20
62.2320599229
30
0.0000000000
10
53.5159386485
20
62.2417126797
30
0.0000000000
10
53.5616449932
20
62.2482497934
30
0.0000000000
10
53.6075015527
20
62.2516016727
30
0.0000000000
11
53.4708728340
21
62.2320599229
31
0.0000000000
11
53.6075015527
21
62.2516016727
31
0.0000000000
0
SPLINE
5
34F
100
AcDbEntity
8
0
100
AcDbSpline
62
7
6
CONTINUOUS
70
0
71
3
72
8
73
4
74
2
42
0.0000001000
43
0.0000001000
44
0.0000000001
12
0.0000000000
22
0.1438598467
32
0.0000000000
13
0.0207092233
23
0.1427378510
33
0.0000000000
40
0.0000000000
40
0.0000000000
40
0.0000000000
40
0.0000000000
40
1.0000000000
40
1.0000000000
40
1.0000000000
40
1.0000000000
10
52.6802218343
20
61.2547130191
30
0.0000000000
10
52.6802218343
20
61.3026663013
30
0.0000000000
10
52.6836997088
20
61.3507261893
30
0.0000000000
10
52.6906027833
20
61.3983054729
30
0.0000000000
11
52.6802218343
21
61.2547130191
31
0.0000000000
11
52.6906027833
21
61.3983054729
31
0.0000000000
0
SPLINE
5
350
100
AcDbEntity
8
0
100
AcDbSpline
62
7
6
CONTINUOUS
70
0
71
3
72
8
73
4
74
2
42
0.0000001000
43
0.0000001000
44
0.0000000001
12
0.0103175501
22
0.0711134794
32
0.0000000000
13
0.0153990952
23
0.0701798765
33
0.0000000000
40
0.0000000000
40
0.0000000000
40
0.0000000000
40
0.0000000000
40
1.0000000000
40
1.0000000000
40
1.0000000000
40
1.0000000000
10
52.6906027833
20
61.3983054729
30
0.0000000000
10
52.6940419666
20
61.4220099661
30
0.0000000000
10
52.6983313311
20
61.4455951667
30
0.0000000000
10
52.7034643629
20
61.4689884588
30
0.0000000000
11
52.6906027833
21
61.3983054729
31
0.0000000000
11
52.7034643629
21
61.4689884588
31
0.0000000000
0
SPLINE
5
351
100
AcDbEntity
8
0
100
AcDbSpline
62
7
6
CONTINUOUS
70
0
71
3
72
8
73
4
74
2
42
0.0000001000
43
0.0000001000
44
0.0000000001
12
0.0313800096
22
0.1430113368
32
0.0000000000
13
0.0519030002
23
0.1368108046
33
0.0000000000
40
0.0000000000
40
0.0000000000
40
0.0000000000
40
0.0000000000
40
1.0000000000
40
1.0000000000
40
1.0000000000
40
1.0000000000
10
52.7034643629
20
61.4689884588
30
0.0000000000
10
52.7139243661
20
61.5166589044
30
0.0000000000
10
52.7278877466
20
61.5635324390
30
0.0000000000
10
52.7451887467
20
61.6091360405
30
0.0000000000
11
52.7034643629
21
61.4689884588
31
0.0000000000
11
52.7451887467
21
61.6091360405
31
0.0000000000
0
SPLINE
5
352
100
AcDbEntity
8
0
100
AcDbSpline
62
7
6
CONTINUOUS
70
0
71
3
72
11
73
7
74
5
42
0.0000001000
43
0.0000001000
44
0.0000000001
12
0.2554983517
22
0.6734665610
32
0.0000000000
13
0.6352958109
23
0.3366087361
33
0.0000000000
40
0.0000000000
40
0.0000000000
40
0.0000000000
40
0.0000000000
40
0.1014653343
40
0.4050745078
40
0.7027699856
40
1.0000000000
40
1.0000000000
40
1.0000000000
40
1.0000000000
10
52.7451887467
20
61.6091360405
30
0.0000000000
10
52.7538301553
20
61.6319138771
30
0.0000000000
10
52.7916529290
20
61.7215837807
30
0.0000000000
10
52.8797248791
20
61.8667633495
30
0.0000000000
10
53.0294732650
20
62.0236906524
30
0.0000000000
10
53.1486858017
20
62.1042308221
30
0.0000000000
10
53.2116287961
20
62.1375808953
30
0.0000000000
11
52.7451887467
21
61.6091360405
31
0.0000000000
11
52.7735902736
21
61.6764601599
31
0.0000000000
11
52.8868028941
21
61.8630896248
31
0.0000000000
11
53.0345744856
21
62.0179222040
31
0.0000000000
11
53.2116287961
21
62.1375808953
31
0.0000000000
0
SPLINE
5
353
100
AcDbEntity
8
0
100
AcDbSpline
62
7
6
CONTINUOUS
70
0
71
3
72
11
73
7
74
5
42
0.0000001000
43
0.0000001000
44
0.0000000001
12
-0.6354600181
22
0.3366957405
32
0.0000000000
13
-0.2554393204
23
0.6736928648
33
0.0000000000
40
0.0000000000
40
0.0000000000
40
0.0000000000
40
0.0000000000
40
0.2967111894
40
0.5943587701
40
0.8984174220
40
1.0000000000
40
1.0000000000
40
1.0000000000
40
1.0000000000
10
53.2116287960
20
-59.6711608291
30
0.0000000000
10
53.1487794301
20
-59.6378603646
30
0.0000000000
10
53.0296402973
20
-59.5573975035
30
0.0000000000
10
52.8798235327
20
-59.4004964130
30
0.0000000000
10
52.7916453943
20
-59.2551773763
30
0.0000000000
10
52.7537718233
20
-59.1653528200
30
0.0000000000
10
52.7451224285
20
-59.1425410007
30
0.0000000000
11
53.2116287960
21
-59.6711608291
31
0.0000000000
11
53.0348187500
21
-59.5517084066
31
0.0000000000
11
52.8869848314
21
-59.3969064677
31
0.0000000000
11
52.7735551376
21
-59.2099646290
31
0.0000000000
11
52.7451224285
21
-59.1425410007
31
0.0000000000
0
SPLINE
5
354
100
AcDbEntity
8
0
100
AcDbSpline
62
7
6
CONTINUOUS
70
0
71
3
72
9
73
5
74
3
42
0.0000001000
43
0.0000001000
44
0.0000000001
12
-0.0773625722
22
0.2040352003
32
0.0000000000
13
-0.0312963873
23
0.2161096110
33
0.0000000000
40
0.0000000000
40
0.0000000000
40
0.0000000000
40
0.0000000000
40
0.6711263882
40
1.0000000000
40
1.0000000000
40
1.0000000000
40
1.0000000000
10
52.7451224285
20
-59.1425410007
30
0.0000000000
10
52.7278157406
20
-59.0968965317
30
0.0000000000
10
52.7070099606
20
-59.0269905322
30
0.0000000000
10
52.6939957046
20
-58.9553154891
30
0.0000000000
10
52.6905648527
20
-58.9316245729
30
0.0000000000
11
52.7451224285
21
-59.1425410007
31
0.0000000000
11
52.7033985099
21
-59.0022682137
31
0.0000000000
11
52.6905648527
21
-58.9316245729
31
0.0000000000
0
SPLINE
5
355
100
AcDbEntity
8
0
100
AcDbSpline
62
7
6
CONTINUOUS
70
0
71
3
72
8
73
4
74
2
42
0.0000001000
43
0.0000001000
44
0.0000000001
12
-0.0206338370
22
0.1424819560
32
0.0000000000
13
0.0000000000
23
0.1435975570
33
0.0000000000
40
0.0000000000
40
0.0000000000
40
0.0000000000
40
0.0000000000
40
1.0000000000
40
1.0000000000
40
1.0000000000
40
1.0000000000
10
52.6905648527
20
-58.9316245729
30
0.0000000000
10
52.6836869070
20
-58.8841305876
30
0.0000000000
10
52.6802218343
20
-58.8361588052
30
0.0000000000
10
52.6802218343
20
-58.7882929529
30
0.0000000000
11
52.6905648527
21
-58.9316245729
31
0.0000000000
11
52.6802218343
21
-58.7882929529
31
0.0000000000
0
SPLINE
5
356
100
AcDbEntity
8
0
100
AcDbSpline
62
7
6
CONTINUOUS
70
0
71
3
72
8
73
4
74
2
42
0.0000001000
43
0.0000001000
44
0.0000000001
12
-0.1377240189
22
0.0100669194
32
0.0000000000
13
-0.1353452084
23
0.0290118696
33
0.0000000000
40
0.0000000000
40
0.0000000000
40
0.0000000000
40
0.0000000000
40
1.0000000000
40
1.0000000000
40
1.0000000000
40
1.0000000000
10
53.6075015527
20
-59.7851816066
30
0.0000000000
10
53.5615935464
20
-59.7818259668
30
0.0000000000
10
53.5158358994
20
-59.7752778411
30
0.0000000000
10
53.4707208299
20
-59.7656072179
30
0.0000000000
11
53.6075015527
21
-59.7851816066
31
0.0000000000
11
53.4707208299
21
-59.7656072179
31
0.0000000000
0
SPLINE
5
357
100
AcDbEntity
8
0
100
AcDbSpline
62
7
6
CONTINUOUS
70
0
71
3
72
8
73
4
74
2
42
0.0000001000
43
0.0000001000
44
0.0000000001
12
-0.0671194103
22
0.0143873551
32
0.0000000000
13
-0.0659911459
23
0.0189692320
33
0.0000000000
40
0.0000000000
40
0.0000000000
40
0.0000000000
40
0.0000000000
40
1.0000000000
40
1.0000000000
40
1.0000000000
40
1.0000000000
10
53.4707208299
20
-59.7656072179
30
0.0000000000
10
53.4483476932
20
-59.7608114329
30
0.0000000000
10
53.4261325851
20
-59.7552477338
30
0.0000000000
10
53.4041355365
20
-59.7489246565
30
0.0000000000
11
53.4707208299
21
-59.7656072179
31
0.0000000000
11
53.4041355365
21
-59.7489246565
31
0.0000000000
0
SPLINE
5
358
100
AcDbEntity
8
0
100
AcDbSpline
62
7
6
CONTINUOUS
70
0
71
3
72
8
73
4
74
2
42
0.0000001000
43
0.0000001000
44
0.0000000001
12
-0.1326781097
22
0.0381384776
32
0.0000000000
13
-0.1260326556
23
0.0559556020
33
0.0000000000
40
0.0000000000
40
0.0000000000
40
0.0000000000
40
0.0000000000
40
1.0000000000
40
1.0000000000
40
1.0000000000
40
1.0000000000
10
53.4041355365
20
-59.7489246565
30
0.0000000000
10
53.3599094999
20
-59.7362118306
30
0.0000000000
10
53.3165649223
20
-59.7204293794
30
0.0000000000
10
53.2745540371
20
-59.7017775121
30
0.0000000000
11
53.4041355365
21
-59.7489246565
31
0.0000000000
11
53.2745540371
21
-59.7017775121
31
0.0000000000
0
SPLINE
5
359
100
AcDbEntity
8
0
100
AcDbSpline
62
7
6
CONTINUOUS
70
0
71
3
72
8
73
4
74
2
42
0.0000001000
43
0.0000001000
44
0.0000000001
12
-0.0640167880
22
0.0284219824
32
0.0000000000
13
-0.0617744295
23
0.0327851463
33
0.0000000000
40
0.0000000000
40
0.0000000000
40
0.0000000000
40
0.0000000000
40
1.0000000000
40
1.0000000000
40
1.0000000000
40
1.0000000000
10
53.2745540371
20
-59.7017775121
30
0.0000000000
10
53.2532151077
20
-59.6923035179
30
0.0000000000
10
53.2322202725
20
-59.6820892112
30
0.0000000000
10
53.2116287960
20
-59.6711608291
30
0.0000000000
11
53.2745540371
21
-59.7017775121
31
0.0000000000
11
53.2116287960
21
-59.6711608291
31
0.0000000000
0
SPLINE
5
35A
100
AcDbEntity
8
0
100
AcDbSpline
62
7
6
CONTINUOUS
70
0
71
3
72
11
73
7
74
5
42
0.0000001000
43
0.0000001000
44
0.0000000001
12
0.6354600181
22
-0.3366957405
32
0.0000000000
13
0.2554393204
23
-0.6736928648
33
0.0000000000
40
0.0000000000
40
0.0000000000
40
0.0000000000
40
0.0000000000
40
0.2967111894
40
0.5943587701
40
0.8984174220
40
1.0000000000
40
1.0000000000
40
1.0000000000
40
1.0000000000
10
146.1494574774
20
62.1375808953
30
0.0000000000
10
146.2123068433
20
62.1042804307
30
0.0000000000
10
146.3314459762
20
62.0238175696
30
0.0000000000
10
146.4812627407
20
61.8669164791
30
0.0000000000
10
146.5694408791
20
61.7215974424
30
0.0000000000
10
146.6073144501
20
61.6317728862
30
0.0000000000
10
146.6159638450
20
61.6089610669
30
0.0000000000
11
146.1494574774
21
62.1375808953
31
0.0000000000
11
146.3262675235
21
62.0181284727
31
0.0000000000
11
146.4741014420
21
61.8633265339
31
0.0000000000
11
146.5875311358
21
61.6763846952
31
0.0000000000
11
146.6159638450
21
61.6089610669
31
0.0000000000
0
SPLINE
5
35B
100
AcDbEntity
8
0
100
AcDbSpline
62
7
6
CONTINUOUS
70
0
71
3
72
9
73
5
74
3
42
0.0000001000
43
0.0000001000
44
0.0000000001
12
0.0773625722
22
-0.2040352003
32
0.0000000000
13
0.0312963873
23
-0.2161096110
33
0.0000000000
40
0.0000000000
40
0.0000000000
40
0.0000000000
40
0.0000000000
40
0.6711263882
40
1.0000000000
40
1.0000000000
40
1.0000000000
40
1.0000000000
10
146.6159638450
20
61.6089610669
30
0.0000000000
10
146.6332705329
20
61.5633165978
30
0.0000000000
10
146.6540763129
20
61.4934105984
30
0.0000000000
10
146.6670905688
20
61.4217355552
30
0.0000000000
10
146.6705214208
20
61.3980446391
30
0.0000000000
11
146.6159638450
21
61.6089610669
31
0.0000000000
11
146.6576877636
21
61.4686882799
31
0.0000000000
11
146.6705214208
21
61.3980446391
31
0.0000000000
0
SPLINE
5
35C
100
AcDbEntity
8
0
100
AcDbSpline
62
7
6
CONTINUOUS
70
0
71
3
72
8
73
4
74
2
42
0.0000001000
43
0.0000001000
44
0.0000000001
12
0.0206338370
22
-0.1424819560
32
0.0000000000
13
0.0000000000
23
-0.1435975570
33
0.0000000000
40
0.0000000000
40
0.0000000000
40
0.0000000000
40
0.0000000000
40
1.0000000000
40
1.0000000000
40
1.0000000000
40
1.0000000000
10
146.6705214208
20
61.3980446391
30
0.0000000000
10
146.6773993664
20
61.3505506537
30
0.0000000000
10
146.6808644392
20
61.3025788714
30
0.0000000000
10
146.6808644392
20
61.2547130190
30
0.0000000000
11
146.6705214208
21
61.3980446391
31
0.0000000000
11
146.6808644392
21
61.2547130190
31
0.0000000000
0
SPLINE
5
35D
100
AcDbEntity
8
0
100
AcDbSpline
62
7
6
CONTINUOUS
70
0
71
3
72
8
73
4
74
2
42
0.0000001000
43
0.0000001000
44
0.0000000001
12
0.1377129490
22
-0.0100661102
32
0.0000000000
13
0.1353346105
23
-0.0290080237
33
0.0000000000
40
0.0000000000
40
0.0000000000
40
0.0000000000
40
0.0000000000
40
1.0000000000
40
1.0000000000
40
1.0000000000
40
1.0000000000
10
145.7535847207
20
62.2516016727
30
0.0000000000
10
145.7994890371
20
62.2482463027
30
0.0000000000
10
145.8452430044
20
62.2416989671
30
0.0000000000
10
145.8903545413
20
62.2320296259
30
0.0000000000
11
145.7535847207
21
62.2516016727
31
0.0000000000
11
145.8903545413
21
62.2320296259
31
0.0000000000
0
SPLINE
5
35E
100
AcDbEntity
8
0
100
AcDbSpline
62
7
6
CONTINUOUS
70
0
71
3
72
8
73
4
74
2
42
0.0000001000
43
0.0000001000
44
0.0000000001
12
0.0671181696
22
-0.0143863085
32
0.0000000000
13
0.0659900263
23
-0.0189680165
33
0.0000000000
40
0.0000000000
40
0.0000000000
40
0.0000000000
40
0.0000000000
40
1.0000000000
40
1.0000000000
40
1.0000000000
40
1.0000000000
10
145.8903545413
20
62.2320296259
30
0.0000000000
10
145.9127272645
20
62.2272341897
30
0.0000000000
10
145.9349419762
20
62.2216708686
30
0.0000000000
10
145.9569386516
20
62.2153481965
30
0.0000000000
11
145.8903545413
21
62.2320296259
31
0.0000000000
11
145.9569386516
21
62.2153481965
31
0.0000000000
0
SPLINE
5
35F
100
AcDbEntity
8
0
100
AcDbSpline
62
7
6
CONTINUOUS
70
0
71
3
72
8
73
4
74
2
42
0.0000001000
43
0.0000001000
44
0.0000000001
12
0.1326839887
22
-0.0381383708
32
0.0000000000
13
0.1260382189
23
-0.0559570214
33
0.0000000000
40
0.0000000000
40
0.0000000000
40
0.0000000000
40
0.0000000000
40
1.0000000000
40
1.0000000000
40
1.0000000000
40
1.0000000000
10
145.9569386516
20
62.2153481965
30
0.0000000000
10
146.0011666479
20
62.2026354062
30
0.0000000000
10
146.0445131707
20
62.1868527242
30
0.0000000000
10
146.0865259103
20
62.1682003837
30
0.0000000000
11
145.9569386516
21
62.2153481965
31
0.0000000000
11
146.0865259103
21
62.1682003837
31
0.0000000000
0
SPLINE
5
360
100
AcDbEntity
8
0
100
AcDbSpline
62
7
6
CONTINUOUS
70
0
71
3
72
8
73
4
74
2
42
0.0000001000
43
0.0000001000
44
0.0000000001
12
0.0640233242
22
-0.0284243506
32
0.0000000000
13
0.0617805250
23
-0.0327883814
33
0.0000000000
40
0.0000000000
40
0.0000000000
40
0.0000000000
40
0.0000000000
40
1.0000000000
40
1.0000000000
40
1.0000000000
40
1.0000000000
10
146.0865259103
20
62.1682003837
30
0.0000000000
10
146.1078670184
20
62.1587256002
30
0.0000000000
10
146.1288639690
20
62.1485103557
30
0.0000000000
10
146.1494574774
20
62.1375808953
30
0.0000000000
11
146.0865259103
21
62.1682003837
31
0.0000000000
11
146.1494574774
21
62.1375808953
31
0.0000000000
0
SPLINE
5
361
100
AcDbEntity
8
0
100
AcDbSpline
62
9
6
CONTINUOUS
70
0
71
3
72
10
73
6
74
4
42
0.0000001000
43
0.0000001000
44
0.0000000001
12
89.7486110310
22
0.0280730676
32
0.0000000000
13
89.7486110205
23
-0.0281065959
33
0.0000000000
40
0.0000000000
40
0.0000000000
40
0.0000000000
40
0.0000000000
40
0.3230391668
40
0.6701445305
40
1.0000000000
40
1.0000000000
40
1.0000000000
40
1.0000000000
10
54.8062357134
20
-56.8408228480
30
0.0000000000
10
64.4703412220
20
-56.8377999478
30
0.0000000000
10
84.5185228605
20
-56.8368864632
30
0.0000000000
10
114.4347276907
20
-56.8368842024
30
0.0000000000
10
134.6868272576
20
-56.8377326206
30
0.0000000000
10
144.5548506667
20
-56.8408229921
30
0.0000000000
11
54.8062357134
21
-56.8408228480
31
0.0000000000
11
83.7985534226
21
-56.8371311793
31
0.0000000000
11
114.9507792209
21
-56.8371076175
31
0.0000000000
11
144.5548506667
21
-56.8408229921
31
0.0000000000
0
SPLINE
5
362
100
AcDbEntity
8
0
100
AcDbSpline
62
7
6
CONTINUOUS
70
0
71
3
72
8
73
4
74
2
42
0.0000001000
43
0.0000001000
44
0.0000000001
12
-0.0618594153
22
-0.0328302503
32
0.0000000000
13
-0.0641079214
23
-0.0284549928
33
0.0000000000
40
0.0000000000
40
0.0000000000
40
0.0000000000
40
0.0000000000
40
1.0000000000
40
1.0000000000
40
1.0000000000
40
1.0000000000
10
146.1494574774
20
-59.6711608291
30
0.0000000000
10
146.1288376723
20
-59.6821042459
30
0.0000000000
10
146.1078133422
20
-59.6923316256
30
0.0000000000
10
146.0864440351
20
-59.7018166232
30
0.0000000000
11
146.1494574774
21
-59.6711608291
31
0.0000000000
11
146.0864440351
21
-59.7018166232
31
0.0000000000
0
SPLINE
5
363
100
AcDbEntity
8
0
100
AcDbSpline
62
7
6
CONTINUOUS
70
0
71
3
72
9
73
5
74
3
42
0.0000001000
43
0.0000001000
44
0.0000000001
12
-0.1887810932
22
-0.0837925259
32
0.0000000000
13
-0.2021291540
23
-0.0432945366
33
0.0000000000
40
0.0000000000
40
0.0000000000
40
0.0000000000
40
0.0000000000
40
0.6680235937
40
1.0000000000
40
1.0000000000
40
1.0000000000
40
1.0000000000
10
146.0864440351
20
-59.7018166232
30
0.0000000000
10
146.0444072936
20
-59.7204750846
30
0.0000000000
10
145.9794818940
20
-59.7441054867
30
0.0000000000
10
145.9125808094
20
-59.7608489352
30
0.0000000000
10
145.8902134394
20
-59.7656398568
30
0.0000000000
11
146.0864440351
21
-59.7018166232
31
0.0000000000
11
145.9567822358
21
-59.7489730758
31
0.0000000000
11
145.8902134394
21
-59.7656398568
31
0.0000000000
0
SPLINE
5
364
100
AcDbEntity
8
0
100
AcDbSpline
62
7
6
CONTINUOUS
70
0
71
3
72
8
73
4
74
2
42
0.0000001000
43
0.0000001000
44
0.0000000001
12
-0.1351974433
22
-0.0289582702
32
0.0000000000
13
-0.1375696785
23
-0.0100556379
33
0.0000000000
40
0.0000000000
40
0.0000000000
40
0.0000000000
40
0.0000000000
40
1.0000000000
40
1.0000000000
40
1.0000000000
40
1.0000000000
10
145.8902134394
20
-59.7656398568
30
0.0000000000
10
145.8451476250
20
-59.7752926135
30
0.0000000000
10
145.7994412802
20
-59.7818297273
30
0.0000000000
10
145.7535847207
20
-59.7851816066
30
0.0000000000
11
145.8902134394
21
-59.7656398568
31
0.0000000000
11
145.7535847207
21
-59.7851816066
31
0.0000000000
0
SPLINE
5
365
100
AcDbEntity
8
0
100
AcDbSpline
62
7
6
CONTINUOUS
70
0
71
3
72
8
73
4
74
2
42
0.0000001000
43
0.0000001000
44
0.0000000001
12
0.0000000000
22
-0.1438598467
32
0.0000000000
13
-0.0207092233
23
-0.1427378510
33
0.0000000000
40
0.0000000000
40
0.0000000000
40
0.0000000000
40
0.0000000000
40
1.0000000000
40
1.0000000000
40
1.0000000000
40
1.0000000000
10
146.6808644392
20
-58.7882929529
30
0.0000000000
10
146.6808644392
20
-58.8362462351
30
0.0000000000
10
146.6773865646
20
-58.8843061231
30
0.0000000000
10
146.6704834902
20
-58.9318854068
30
0.0000000000
11
146.6808644392
21
-58.7882929529
31
0.0000000000
11
146.6704834902
21
-58.9318854068
31
0.0000000000
0
SPLINE
5
366
100
AcDbEntity
8
0
100
AcDbSpline
62
7
6
CONTINUOUS
70
0
71
3
72
8
73
4
74
2
42
0.0000001000
43
0.0000001000
44
0.0000000001
12
-0.0103175501
22
-0.0711134794
32
0.0000000000
13
-0.0153990952
23
-0.0701798765
33
0.0000000000
40
0.0000000000
40
0.0000000000
40
0.0000000000
40
0.0000000000
40
1.0000000000
40
1.0000000000
40
1.0000000000
40
1.0000000000
10
146.6704834902
20
-58.9318854068
30
0.0000000000
10
146.6670443068
20
-58.9555898999
30
0.0000000000
10
146.6627549423
20
-58.9791751005
30
0.0000000000
10
146.6576219106
20
-59.0025683927
30
0.0000000000
11
146.6704834902
21
-58.9318854068
31
0.0000000000
11
146.6576219106
21
-59.0025683927
31
0.0000000000
0
SPLINE
5
367
100
AcDbEntity
8
0
100
AcDbSpline
62
7
6
CONTINUOUS
70
0
71
3
72
8
73
4
74
2
42
0.0000001000
43
0.0000001000
44
0.0000000001
12
-0.0313800096
22
-0.1430113368
32
0.0000000000
13
-0.0519030002
23
-0.1368108046
33
0.0000000000
40
0.0000000000
40
0.0000000000
40
0.0000000000
40
0.0000000000
40
1.0000000000
40
1.0000000000
40
1.0000000000
40
1.0000000000
10
146.6576219106
20
-59.0025683927
30
0.0000000000
10
146.6471619074
20
-59.0502388383
30
0.0000000000
10
146.6331985268
20
-59.0971123728
30
0.0000000000
10
146.6158975267
20
-59.1427159744
30
0.0000000000
11
146.6576219106
21
-59.0025683927
31
0.0000000000
11
146.6158975267
21
-59.1427159744
31
0.0000000000
0
SPLINE
5
368
100
AcDbEntity
8
0
100
AcDbSpline
62
7
6
CONTINUOUS
70
0
71
3
72
11
73
7
74
5
42
0.0000001000
43
0.0000001000
44
0.0000000001
12
-0.2554983517
22
-0.6734665610
32
0.0000000000
13
-0.6352958109
23
-0.3366087361
33
0.0000000000
40
0.0000000000
40
0.0000000000
40
0.0000000000
40
0.0000000000
40
0.1014653343
40
0.4050745078
40
0.7027699856
40
1.0000000000
40
1.0000000000
40
1.0000000000
40
1.0000000000
10
146.6158975267
20
-59.1427159744
30
0.0000000000
10
146.6072561182
20
-59.1654938109
30
0.0000000000
10
146.5694333444
20
-59.2551637146
30
0.0000000000
10
146.4813613943
20
-59.4003432833
30
0.0000000000
10
146.3316130085
20
-59.5572705862
30
0.0000000000
10
146.2124004717
20
-59.6378107560
30
0.0000000000
10
146.1494574774
20
-59.6711608291
30
0.0000000000
11
146.6158975267
21
-59.1427159744
31
0.0000000000
11
146.5874959998
21
-59.2100400938
31
0.0000000000
11
146.4742833794
21
-59.3966695586
31
0.0000000000
11
146.3265117879
21
-59.5515021378
31
0.0000000000
11
146.1494574774
21
-59.6711608291
31
0.0000000000
0
SPLINE
5
369
100
AcDbEntity
8
0
100
AcDbSpline
62
9
6
CONTINUOUS
70
0
71
3
72
10
73
6
74
4
42
0.0000001000
43
0.0000001000
44
0.0000000001
12
0.0814504924
22
-1.3297359936
32
0.0000000000
13
0.0818482644
23
-1.3297115691
33
0.0000000000
40
0.0000000000
40
0.0000000000
40
0.0000000000
40
0.0000000000
40
0.3344693771
40
0.6678002831
40
1.0000000000
40
1.0000000000
40
1.0000000000
40
1.0000000000
10
144.5784348645
20
-56.9707758814
30
0.0000000000
10
144.5875157630
20
-57.1190278712
30
0.0000000000
10
144.6056627561
20
-57.4150262425
30
0.0000000000
10
144.6328788657
20
-57.8582675301
30
0.0000000000
10
144.6510218456
20
-58.1532563476
30
0.0000000000
10
144.6600851690
20
-58.3004996165
30
0.0000000000
11
144.5784348645
21
-56.9707758814
31
0.0000000000
11
144.6057007002
21
-57.4155304329
31
0.0000000000
11
144.6329171340
21
-57.8587684601
31
0.0000000000
11
144.6600851690
21
-58.3004996165
31
0.0000000000
0
SPLINE
5
36A
100
AcDbEntity
8
0
100
AcDbSpline
62
9
6
CONTINUOUS
70
0
71
3
72
10
73
6
74
4
42
0.0000001000
43
0.0000001000
44
0.0000000001
12
89.7951617220
22
-0.3589588935
32
0.0000000000
13
89.7951619707
23
0.3588966841
33
0.0000000000
40
0.0000000000
40
0.0000000000
40
0.0000000000
40
0.0000000000
40
0.3230300564
40
0.6701487093
40
1.0000000000
40
1.0000000000
40
1.0000000000
40
1.0000000000
10
54.7826514906
20
-56.9707753070
30
0.0000000000
10
64.4514968762
20
-57.0094268109
30
0.0000000000
10
84.5104090956
20
-57.0287423959
30
0.0000000000
10
114.4423305223
20
-57.0288870475
30
0.0000000000
10
134.7054181718
20
-57.0102367263
30
0.0000000000
10
144.5784348645
20
-56.9707758814
30
0.0000000000
11
54.7826514906
21
-56.9707753070
31
0.0000000000
11
83.7893713441
21
-57.0235826332
31
0.0000000000
11
114.9591959584
21
-57.0239603301
31
0.0000000000
11
144.5784348645
21
-56.9707758814
31
0.0000000000
0
SPLINE
5
36B
100
AcDbEntity
8
0
100
AcDbSpline
62
9
6
CONTINUOUS
70
0
71
3
72
10
73
6
74
4
42
0.0000001000
43
0.0000001000
44
0.0000000001
12
-0.0814505258
22
-1.3297365710
32
0.0000000000
13
-0.0818483022
23
-1.3297121462
33
0.0000000000
40
0.0000000000
40
0.0000000000
40
0.0000000000
40
0.0000000000
40
0.3344667091
40
0.6677948368
40
1.0000000000
40
1.0000000000
40
1.0000000000
40
1.0000000000
10
54.7826514906
20
-56.9707753070
30
0.0000000000
10
54.7735706608
20
-57.1190261786
30
0.0000000000
10
54.7554237409
20
-57.4150222602
30
0.0000000000
10
54.7282076475
20
-57.8582637419
30
0.0000000000
10
54.7100645806
20
-58.1532538696
30
0.0000000000
10
54.7010011044
20
-58.3004996165
30
0.0000000000
11
54.7826514906
21
-56.9707753070
31
0.0000000000
11
54.7553858152
21
-57.4155265011
31
0.0000000000
11
54.7281695969
21
-57.8587610262
31
0.0000000000
11
54.7010011044
21
-58.3004996165
31
0.0000000000
0
SPLINE
5
36C
100
AcDbEntity
8
0
100
AcDbSpline
62
9
6
CONTINUOUS
70
0
71
3
72
27
73
23
74
21
42
0.0000001000
43
0.0000001000
44
0.0000000001
12
-89.8051371453
22
-6.4416732850
32
0.0000000000
13
-89.8051364596
23
6.4416828444
33
0.0000000000
40
0.0000000000
40
0.0000000000
40
0.0000000000
40
0.0000000000
40
0.0316590187
40
0.0664141376
40
0.1046018065
40
0.1465466017
40
0.1925693387
40
0.2429495986
40
0.2979556528
40
0.3585404107
40
0.4250457799
40
0.4953430186
40
0.5669694322
40
0.6365127498
40
0.7003852543
40
0.7573066791
40
0.8082052662
40
0.8541599120
40
0.8959270043
40
0.9339037613
40
0.9684664877
40
1.0000000000
40
1.0000000000
40
1.0000000000
40
1.0000000000
10
144.6600851690
20
-58.3004996165
30
0.0000000000
10
143.7123709967
20
-58.3684786348
30
0.0000000000
10
141.7239390097
20
-58.5066384742
30
0.0000000000
10
138.5911770310
20
-58.7094080037
30
0.0000000000
10
135.1492423908
20
-58.9141456696
30
0.0000000000
10
131.3685061797
20
-59.1172398838
30
0.0000000000
10
127.2210429257
20
-59.3137931283
30
0.0000000000
10
122.6806369948
20
-59.4975136938
30
0.0000000000
10
117.7021622316
20
-59.6612964730
30
0.0000000000
10
112.2386853010
20
-59.7957535540
30
0.0000000000
10
106.3153262118
20
-59.8875909847
30
0.0000000000
10
100.0599591849
20
-59.9232664587
30
0.0000000000
10
93.7133730443
20
-59.8949358994
30
0.0000000000
10
87.5602058458
20
-59.8052364230
30
0.0000000000
10
81.8493961166
20
-59.6673958540
30
0.0000000000
10
76.6992799122
20
-59.4984850761
30
0.0000000000
10
72.0879479776
20
-59.3115531607
30
0.0000000000
10
67.9323356407
20
-59.1141712084
30
0.0000000000
10
64.1653045568
20
-58.9114784119
30
0.0000000000
10
60.7407889598
20
-58.7075683862
30
0.0000000000
10
57.6238710887
20
-58.5057251888
30
0.0000000000
10
55.6449582293
20
-58.3682092449
30
0.0000000000
10
54.7010011044
20
-58.3004996165
30
0.0000000000
11
144.6600851690
21
-58.3004996165
31
0.0000000000
11
141.8164922995
21
-58.4980579263
31
0.0000000000
11
138.6938184651
21
-58.7001637531
31
0.0000000000
11
135.2616248009
21
-58.9043165263
31
0.0000000000
11
131.4905257227
21
-59.1068917202
31
0.0000000000
11
127.3514740229
21
-59.3030473964
31
0.0000000000
11
122.8191524636
21
-59.4864434308
31
0.0000000000
11
117.8693125378
21
-59.6492884970
31
0.0000000000
11
112.4161623718
21
-59.7834938365
31
0.0000000000
11
106.4290131485
21
-59.8763181726
31
0.0000000000
11
100.0998430581
21
-59.9124143156
31
0.0000000000
11
93.6509608798
21
-59.8836272471
31
0.0000000000
11
87.3902329760
21
-59.7923620233
31
0.0000000000
11
81.6410909762
21
-59.6535939741
31
0.0000000000
11
76.5188753393
21
-59.4855933781
31
0.0000000000
11
71.9399376092
21
-59.2999720171
31
0.0000000000
11
67.8070305167
21
-59.1036674661
31
0.0000000000
11
64.0519259196
21
-58.9016177745
31
0.0000000000
11
60.6387007179
21
-58.6983854550
31
0.0000000000
11
57.5333193121
21
-58.4973000168
31
0.0000000000
11
54.7010011044
21
-58.3004996165
31
0.0000000000
0
SPLINE
5
36D
100
AcDbEntity
8
0
100
AcDbSpline
62
9
6
CONTINUOUS
70
0
71
3
72
10
73
6
74
4
42
0.0000001000
43
0.0000001000
44
0.0000000001
12
-0.0814504569
22
1.3297354401
32
0.0000000000
13
-0.0818482326
23
1.3297110154
33
0.0000000000
40
0.0000000000
40
0.0000000000
40
0.0000000000
40
0.0000000000
40
0.3344694511
40
0.6678003581
40
1.0000000000
40
1.0000000000
40
1.0000000000
40
1.0000000000
10
54.7826514544
20
59.4371965060
30
0.0000000000
10
54.7735705579
20
59.5854484669
30
0.0000000000
10
54.7554234547
20
59.8814467411
30
0.0000000000
10
54.7282074036
20
60.3246878470
30
0.0000000000
10
54.7100644224
20
60.6196765083
30
0.0000000000
10
54.7010011045
20
60.7669196827
30
0.0000000000
11
54.7826514544
21
59.4371965060
31
0.0000000000
11
54.7553855453
21
59.8819509659
31
0.0000000000
11
54.7281691227
21
60.3251888098
31
0.0000000000
11
54.7010011045
21
60.7669196827
31
0.0000000000
0
SPLINE
5
36E
100
AcDbEntity
8
0
100
AcDbSpline
62
9
6
CONTINUOUS
70
0
71
3
72
10
73
6
74
4
42
0.0000001000
43
0.0000001000
44
0.0000000001
12
-89.7951619335
22
0.3589060134
32
0.0000000000
13
-89.7951614795
23
-0.3590195779
33
0.0000000000
40
0.0000000000
40
0.0000000000
40
0.0000000000
40
0.0000000000
40
0.3287803882
40
0.6763803662
40
1.0000000000
40
1.0000000000
40
1.0000000000
40
1.0000000000
10
144.5784348062
20
59.4371951806
30
0.0000000000
10
134.7374720730
20
59.4765289334
30
0.0000000000
10
114.4920320028
20
59.4952925690
30
0.0000000000
10
84.5601105861
20
59.4951876343
30
0.0000000000
10
64.4691438809
20
59.4759251008
30
0.0000000000
10
54.7826514544
20
59.4371965060
30
0.0000000000
11
144.5784348062
21
59.4371951806
31
0.0000000000
11
115.0553585831
21
59.4903202188
31
0.0000000000
11
83.8423129571
21
59.4900381355
31
0.0000000000
11
54.7826514544
21
59.4371965060
31
0.0000000000
0
SPLINE
5
36F
100
AcDbEntity
8
0
100
AcDbSpline
62
9
6
CONTINUOUS
70
0
71
3
72
10
73
6
74
4
42
0.0000001000
43
0.0000001000
44
0.0000000001
12
0.0814505392
22
1.3297367613
32
0.0000000000
13
0.0818483117
23
1.3297123368
33
0.0000000000
40
0.0000000000
40
0.0000000000
40
0.0000000000
40
0.0000000000
40
0.3344666350
40
0.6677947616
40
1.0000000000
40
1.0000000000
40
1.0000000000
40
1.0000000000
10
144.5784348062
20
59.4371951806
30
0.0000000000
10
144.5875156355
20
59.5854460406
30
0.0000000000
10
144.6056625054
20
59.8814421344
30
0.0000000000
10
144.6328786232
20
60.3246836782
30
0.0000000000
10
144.6510216898
20
60.6196738814
30
0.0000000000
10
144.6600851691
20
60.7669196826
30
0.0000000000
11
144.5784348062
21
59.4371951806
31
0.0000000000
11
144.6057004451
21
59.8819463419
31
0.0000000000
11
144.6329166671
21
60.3251809291
31
0.0000000000
11
144.6600851691
21
60.7669196826
31
0.0000000000
0
SPLINE
5
370
100
AcDbEntity
8
0
100
AcDbSpline
62
9
6
CONTINUOUS
70
0
71
3
72
27
73
23
74
21
42
0.0000001000
43
0.0000001000
44
0.0000000001
12
89.8051366178
22
6.4416826726
32
0.0000000000
13
89.8051372832
23
-6.4416733965
33
0.0000000000
40
0.0000000000
40
0.0000000000
40
0.0000000000
40
0.0000000000
40
0.0315363188
40
0.0661568336
40
0.1041853554
40
0.1459383841
40
0.1917301694
40
0.2418446577
40
0.2965471319
40
0.3567872313
40
0.4229678351
40
0.4930481395
40
0.5646254961
40
0.6343437491
40
0.6986056741
40
0.7559416412
40
0.8071733582
40
0.8533964121
40
0.8953928272
40
0.9335710929
40
0.9683094969
40
1.0000000000
40
1.0000000000
40
1.0000000000
40
1.0000000000
10
54.7010011045
20
60.7669196827
30
0.0000000000
10
55.6450422454
20
60.8346353356
30
0.0000000000
10
57.6257693382
20
60.9722769605
30
0.0000000000
10
60.7460532733
20
61.1743239617
30
0.0000000000
10
64.1734322279
20
61.3783618544
30
0.0000000000
10
67.9367154900
20
61.5807959524
30
0.0000000000
10
72.0635182111
20
61.7767995166
30
0.0000000000
10
76.5798989757
20
61.9601786260
30
0.0000000000
10
81.5309270800
20
62.1239512936
30
0.0000000000
10
86.9651795397
20
62.2589205069
30
0.0000000000
10
92.8619138945
20
62.3519636660
30
0.0000000000
10
99.0995390467
20
62.3894920217
30
0.0000000000
10
105.4434013094
20
62.3632818349
30
0.0000000000
10
111.6120615209
20
62.2753509940
30
0.0000000000
10
117.3522817288
20
62.1384248319
30
0.0000000000
10
122.5365453895
20
61.9695637054
30
0.0000000000
10
127.1783799480
20
61.7821944737
30
0.0000000000
10
131.3589260383
20
61.5841678710
30
0.0000000000
10
135.1469316939
20
61.3807001443
30
0.0000000000
10
138.5896306372
20
61.1759220024
30
0.0000000000
10
141.7225539940
20
60.9731524396
30
0.0000000000
10
143.7114285090
20
60.8349663062
30
0.0000000000
10
144.6600851691
20
60.7669196826
30
0.0000000000
11
54.7010011045
21
60.7669196827
31
0.0000000000
11
57.5335714385
21
60.9637370338
31
0.0000000000
11
60.6441459160
21
61.1651445862
31
0.0000000000
11
64.0620260915
21
61.3686115646
31
0.0000000000
11
67.8158693411
21
61.5705365037
31
0.0000000000
11
71.9341301473
21
61.7661353973
31
0.0000000000
11
76.4425168177
21
61.9491924494
31
0.0000000000
11
81.3650091879
21
62.1120254539
31
0.0000000000
11
86.7871067737
21
62.2466952862
31
0.0000000000
11
92.7449934149
21
62.3407012851
31
0.0000000000
11
99.0546203756
21
62.3786625484
31
0.0000000000
11
105.4990949254
21
62.3520367564
31
0.0000000000
11
111.7756008771
21
62.2625708942
31
0.0000000000
11
117.5598337465
21
62.1245927677
31
0.0000000000
11
122.7193910198
21
61.9565314008
31
0.0000000000
11
127.3283298231
21
61.7704873086
31
0.0000000000
11
131.4854014608
21
61.5735715695
31
0.0000000000
11
135.2611424017
21
61.3707639613
31
0.0000000000
11
138.6924912312
21
61.1666664080
31
0.0000000000
11
141.8136639453
21
60.9646680911
31
0.0000000000
11
144.6600851691
21
60.7669196826
31
0.0000000000
0
SPLINE
5
371
100
AcDbEntity
8
0
100
AcDbSpline
62
7
6
CONTINUOUS
70
0
71
3
72
10
73
6
74
4
42
0.0000001000
43
0.0000001000
44
0.0000000001
12
138.5050649204
22
-0.0000094565
32
0.0000000000
13
138.5050649204
23
0.0000094565
33
0.0000000000
40
0.0000000000
40
0.0000000000
40
0.0000000000
40
0.0000000000
40
0.3332666184
40
0.6667333816
40
1.0000000000
40
1.0000000000
40
1.0000000000
40
1.0000000000
10
30.4280106765
20
79.1332099674
30
0.0000000000
10
45.8143822157
20
79.1332089169
30
0.0000000000
10
76.5963656500
20
79.1331851449
30
0.0000000000
10
122.7647206235
20
79.1331851449
30
0.0000000000
10
153.5467040578
20
79.1332089169
30
0.0000000000
10
168.9330755969
20
79.1332099674
30
0.0000000000
11
30.4280106765
21
79.1332099674
31
0.0000000000
11
76.5871252940
21
79.1331910915
31
0.0000000000
11
122.7739609794
21
79.1331910915
31
0.0000000000
11
168.9330755969
21
79.1332099674
31
0.0000000000
0
SPLINE
5
372
100
AcDbEntity
8
0
100
AcDbSpline
62
7
6
CONTINUOUS
70
0
71
3
72
10
73
6
74
4
42
0.0000001000
43
0.0000001000
44
0.0000000001
12
138.5050649204
22
0.0000094565
32
0.0000000000
13
138.5050649204
23
-0.0000094565
33
0.0000000000
40
0.0000000000
40
0.0000000000
40
0.0000000000
40
0.0000000000
40
0.3332666184
40
0.6667333816
40
1.0000000000
40
1.0000000000
40
1.0000000000
40
1.0000000000
10
30.4280106765
20
-76.6667899013
30
0.0000000000
10
45.8143822157
20
-76.6667888507
30
0.0000000000
10
76.5963656500
20
-76.6667650788
30
0.0000000000
10
122.7647206235
20
-76.6667650788
30
0.0000000000
10
153.5467040578
20
-76.6667888507
30
0.0000000000
10
168.9330755969
20
-76.6667899013
30
0.0000000000
11
30.4280106765
21
-76.6667899013
31
0.0000000000
11
76.5871252940
21
-76.6667710253
31
0.0000000000
11
122.7739609794
21
-76.6667710253
31
0.0000000000
11
168.9330755969
21
-76.6667899013
31
0.0000000000
0
SPLINE
5
373
100
AcDbEntity
8
0
100
AcDbSpline
62
7
6
CONTINUOUS
70
0
71
3
72
11
73
7
74
5
42
0.0000001000
43
0.0000001000
44
0.0000000001
12
91.9916745930
22
6.7251702817
32
0.0000000000
13
91.9916745941
23
-6.7251702676
33
0.0000000000
40
0.0000000000
40
0.0000000000
40
0.0000000000
40
0.0000000000
40
0.2444189476
40
0.5000002032
40
0.7555813467
40
1.0000000000
40
1.0000000000
40
1.0000000000
40
1.0000000000
10
53.6003202255
20
62.3510766952
30
0.0000000000
10
61.0951563243
20
62.8989963762
30
0.0000000000
10
76.4484612609
20
63.7464467196
30
0.0000000000
10
99.6805584399
20
64.1797929167
30
0.0000000000
10
122.9126465439
20
63.7464457009
30
0.0000000000
10
138.2659389732
20
62.8989957152
30
0.0000000000
10
145.7607660477
20
62.3510766951
30
0.0000000000
11
53.6003202255
21
62.3510766952
31
0.0000000000
11
76.1105696761
21
63.5935447210
31
0.0000000000
11
99.6805618823
21
64.0332100331
31
0.0000000000
11
123.2505437278
21
63.5935437084
31
0.0000000000
11
145.7607660477
21
62.3510766951
31
0.0000000000
0
SPLINE
5
374
100
AcDbEntity
8
0
100
AcDbSpline
62
7
6
CONTINUOUS
70
0
71
3
72
11
73
7
74
5
42
0.0000001000
43
0.0000001000
44
0.0000000001
12
-91.9916745930
22
-6.7251702817
32
0.0000000000
13
-91.9916745941
23
6.7251702676
33
0.0000000000
40
0.0000000000
40
0.0000000000
40
0.0000000000
40
0.0000000000
40
0.2444189476
40
0.5000002032
40
0.7555813467
40
1.0000000000
40
1.0000000000
40
1.0000000000
40
1.0000000000
10
145.7607660479
20
-59.8846566290
30
0.0000000000
10
138.2659299491
20
-60.4325763101
30
0.0000000000
10
122.9126250126
20
-61.2800266535
30
0.0000000000
10
99.6805278336
20
-61.7133728506
30
0.0000000000
10
76.4484397296
20
-61.2800256347
30
0.0000000000
10
61.0951473003
20
-60.4325756491
30
0.0000000000
10
53.6003202257
20
-59.8846566290
30
0.0000000000
11
145.7607660479
21
-59.8846566290
31
0.0000000000
11
123.2505165973
21
-61.1271246548
31
0.0000000000
11
99.6805243911
21
-61.5667899669
31
0.0000000000
11
76.1105425456
21
-61.1271236423
31
0.0000000000
11
53.6003202257
21
-59.8846566290
31
0.0000000000
0
SPLINE
5
375
100
AcDbEntity
8
0
100
AcDbSpline
62
7
6
CONTINUOUS
70
0
71
3
72
8
73
4
74
2
42
0.0000001000
43
0.0000001000
44
0.0000000001
12
0.2202145473
22
0.0160990695
32
0.0000000000
13
0.2136185535
23
0.0600704492
33
0.0000000000
40
0.0000000000
40
0.0000000000
40
0.0000000000
40
0.0000000000
40
1.0000000000
40
1.0000000000
40
1.0000000000
40
1.0000000000
10
145.7607660480
20
-59.8846566300
30
0.0000000000
10
145.8341708971
20
-59.8792902735
30
0.0000000000
10
145.9073462792
20
-59.8664171068
30
0.0000000000
10
145.9785524637
20
-59.8463936238
30
0.0000000000
11
145.7607660480
21
-59.8846566300
31
0.0000000000
11
145.9785524637
21
-59.8463936238
31
0.0000000000
0
SPLINE
5
376
100
AcDbEntity
8
0
100
AcDbSpline
62
7
6
CONTINUOUS
70
0
71
3
72
12
73
8
74
6
42
0.0000001000
43
0.0000001000
44
0.0000000001
12
1.3746060299
22
0.3865450836
32
0.0000000000
13
0.0000000000
23
1.4208320316
33
0.0000000000
40
0.0000000000
40
0.0000000000
40
0.0000000000
40
0.0000000000
40
0.0759509669
40
0.3067822742
40
0.5373200455
40
0.7686258236
40
1.0000000000
40
1.0000000000
40
1.0000000000
40
1.0000000000
10
145.9785524637
20
-59.8463936238
30
0.0000000000
10
146.0133533494
20
-59.8366074662
30
0.0000000000
10
146.1520217011
20
-59.7901803710
30
0.0000000000
10
146.3756506286
20
-59.6612486088
30
0.0000000000
10
146.6024449181
20
-59.4173263237
30
0.0000000000
10
146.7473125053
20
-59.1174360082
30
0.0000000000
10
146.7805431367
20
-58.8968976705
30
0.0000000000
10
146.7805431367
20
-58.7873163901
30
0.0000000000
11
145.9785524637
21
-59.8463936238
31
0.0000000000
11
146.0813409323
21
-59.8119529736
31
0.0000000000
11
146.3655202466
21
-59.6482212170
31
0.0000000000
11
146.5885637580
21
-59.4083375685
31
0.0000000000
11
146.7314380212
21
-59.1123720788
31
0.0000000000
11
146.7805431367
21
-58.7873163901
31
0.0000000000
0
SPLINE
5
377
100
AcDbEntity
8
0
100
AcDbSpline
62
7
6
CONTINUOUS
70
0
71
3
72
12
73
8
74
6
42
0.0000001000
43
0.0000001000
44
0.0000000001
12
0.0000000000
22
-1.4209444770
32
0.0000000000
13
1.3747517601
23
-0.3864343248
33
0.0000000000
40
0.0000000000
40
0.0000000000
40
0.0000000000
40
0.0000000000
40
0.2313565557
40
0.4621852140
40
0.6927121869
40
0.9240131268
40
1.0000000000
40
1.0000000000
40
1.0000000000
40
1.0000000000
10
52.5805431367
20
-58.7873163900
30
0.0000000000
10
52.5805431367
20
-58.8968979967
30
0.0000000000
10
52.6137421110
20
-59.1172196262
30
0.0000000000
10
52.7584164021
20
-59.4169376051
30
0.0000000000
10
52.9850761196
20
-59.6610091850
30
0.0000000000
10
53.2089103237
20
-59.7901395261
30
0.0000000000
10
53.3478221143
20
-59.8366366347
30
0.0000000000
10
53.3826431435
20
-59.8464246133
30
0.0000000000
11
52.5805431367
21
-58.7873163900
31
0.0000000000
11
52.6296485447
21
-59.1123730245
31
0.0000000000
11
52.7721511517
21
-59.4077939698
31
0.0000000000
11
52.9950594529
21
-59.6478177030
31
0.0000000000
11
53.2797951502
21
-59.8119724661
31
0.0000000000
11
53.3826431435
21
-59.8464246133
31
0.0000000000
0
SPLINE
5
378
100
AcDbEntity
8
0
100
AcDbSpline
62
7
6
CONTINUOUS
70
0
71
3
72
8
73
4
74
2
42
0.0000001000
43
0.0000001000
44
0.0000000001
12
0.2135155019
22
-0.0600179038
32
0.0000000000
13
0.2201023989
23
-0.0160908707
33
0.0000000000
40
0.0000000000
40
0.0000000000
40
0.0000000000
40
0.0000000000
40
1.0000000000
40
1.0000000000
40
1.0000000000
40
1.0000000000
10
53.3826431435
20
-59.8464246133
30
0.0000000000
10
53.4538149775
20
-59.8664305813
30
0.0000000000
10
53.5269527593
20
-59.8792930063
30
0.0000000000
10
53.6003202256
20
-59.8846566299
30
0.0000000000
11
53.3826431435
21
-59.8464246133
31
0.0000000000
11
53.6003202256
21
-59.8846566299
31
0.0000000000
0
SPLINE
5
379
100
AcDbEntity
8
0
100
AcDbSpline
62
7
6
CONTINUOUS
70
0
71
3
72
8
73
4
74
2
42
0.0000001000
43
0.0000001000
44
0.0000000001
12
-0.2202145473
22
-0.0160990695
32
0.0000000000
13
-0.2136185535
23
-0.0600704492
33
0.0000000000
40
0.0000000000
40
0.0000000000
40
0.0000000000
40
0.0000000000
40
1.0000000000
40
1.0000000000
40
1.0000000000
40
1.0000000000
10
53.6003202255
20
62.3510766961
30
0.0000000000
10
53.5269153764
20
62.3457103396
30
0.0000000000
10
53.4537399942
20
62.3328371730
30
0.0000000000
10
53.3825338097
20
62.3128136899
30
0.0000000000
11
53.6003202255
21
62.3510766961
31
0.0000000000
11
53.3825338097
21
62.3128136899
31
0.0000000000
0
SPLINE
5
37A
100
AcDbEntity
8
0
100
AcDbSpline
62
7
6
CONTINUOUS
70
0
71
3
72
12
73
8
74
6
42
0.0000001000
43
0.0000001000
44
0.0000000001
12
-1.3746060299
22
-0.3865450836
32
0.0000000000
13
0.0000000000
23
-1.4208320316
33
0.0000000000
40
0.0000000000
40
0.0000000000
40
0.0000000000
40
0.0000000000
40
0.0759509669
40
0.3067822742
40
0.5373200455
40
0.7686258235
40
1.0000000000
40
1.0000000000
40
1.0000000000
40
1.0000000000
10
53.3825338097
20
62.3128136899
30
0.0000000000
10
53.3477329240
20
62.3030275323
30
0.0000000000
10
53.2090645723
20
62.2566004371
30
0.0000000000
10
52.9854356448
20
62.1276686749
30
0.0000000000
10
52.7586413553
20
61.8837463899
30
0.0000000000
10
52.6137737681
20
61.5838560744
30
0.0000000000
10
52.5805431367
20
61.3633177367
30
0.0000000000
10
52.5805431367
20
61.2537364563
30
0.0000000000
11
53.3825338097
21
62.3128136899
31
0.0000000000
11
53.2797453411
21
62.2783730397
31
0.0000000000
11
52.9955660268
21
62.1146412831
31
0.0000000000
11
52.7725225154
21
61.8747576346
31
0.0000000000
11
52.6296482523
21
61.5787921450
31
0.0000000000
11
52.5805431367
21
61.2537364563
31
0.0000000000
0
SPLINE
5
37B
100
AcDbEntity
8
0
100
AcDbSpline
62
7
6
CONTINUOUS
70
0
71
3
72
12
73
8
74
6
42
0.0000001000
43
0.0000001000
44
0.0000000001
12
0.0000000000
22
1.4209466816
32
0.0000000000
13
-1.3747545594
23
0.3864321270
33
0.0000000000
40
0.0000000000
40
0.0000000000
40
0.0000000000
40
0.0000000000
40
0.2313563712
40
0.4621846465
40
0.6927118593
40
0.9240135307
40
1.0000000000
40
1.0000000000
40
1.0000000000
40
1.0000000000
10
146.7805431367
20
61.2537364562
30
0.0000000000
10
146.7805431367
20
61.3633181455
30
0.0000000000
10
146.7473441253
20
61.5836398493
30
0.0000000000
10
146.6026696157
20
61.8833581176
30
0.0000000000
10
146.3760091987
20
62.1274301717
30
0.0000000000
10
146.1521741489
20
62.2565604911
30
0.0000000000
10
146.0132619028
20
62.3030574137
30
0.0000000000
10
145.9784409878
20
62.3128452847
30
0.0000000000
11
146.7805431367
21
61.2537364562
31
0.0000000000
11
146.7314376547
21
61.5787933302
31
0.0000000000
11
146.5889350005
21
61.8742142135
31
0.0000000000
11
146.3660259809
21
62.1142384384
31
0.0000000000
11
146.0812886642
21
62.2783934945
31
0.0000000000
11
145.9784409878
21
62.3128452847
31
0.0000000000
0
SPLINE
5
37C
100
AcDbEntity
8
0
100
AcDbSpline
62
7
6
CONTINUOUS
70
0
71
3
72
8
73
4
74
2
42
0.0000001000
43
0.0000001000
44
0.0000000001
12
-0.2135134726
22
0.0600168698
32
0.0000000000
13
-0.2201002002
23
0.0160907100
33
0.0000000000
40
0.0000000000
40
0.0000000000
40
0.0000000000
40
0.0000000000
40
1.0000000000
40
1.0000000000
40
1.0000000000
40
1.0000000000
10
145.9784409878
20
62.3128452847
30
0.0000000000
10
145.9072698303
20
62.3328509079
30
0.0000000000
10
145.8341327812
20
62.3457131260
30
0.0000000000
10
145.7607660478
20
62.3510766960
30
0.0000000000
11
145.9784409878
21
62.3128452847
31
0.0000000000
11
145.7607660478
21
62.3510766960
31
0.0000000000
0
SPLINE
5
37D
100
AcDbEntity
8
0
100
AcDbSpline
62
7
6
CONTINUOUS
70
0
71
3
72
12
73
8
74
6
42
0.0000001000
43
0.0000001000
44
0.0000000001
12
0.0000000000
22
2.9648688645
32
0.0000000000
13
2.9648688645
23
-0.0000002024
33
0.0000000000
40
0.0000000000
40
0.0000000000
40
0.0000000000
40
0.0000000000
40
0.1987502790
40
0.3997009041
40
0.5989516396
40
0.7999871992
40
1.0000000000
40
1.0000000000
40
1.0000000000
40
1.0000000000
10
28.5305431367
20
77.2410503604
30
0.0000000000
10
28.5305431367
20
77.4374731984
30
0.0000000000
10
28.5928990292
20
77.8352516035
30
0.0000000000
10
28.8659818882
20
78.3712353392
30
0.0000000000
10
29.2937053448
20
78.7979590677
30
0.0000000000
10
29.8312189299
20
79.0707859454
30
0.0000000000
10
30.2303401013
20
79.1332099809
30
0.0000000000
10
30.4280106765
20
79.1332099674
30
0.0000000000
11
28.5305431367
21
77.2410503604
31
0.0000000000
11
28.6221971050
21
77.8231473727
31
0.0000000000
11
28.8925344951
21
78.3540768433
31
0.0000000000
11
29.3106853172
21
78.7713755041
31
0.0000000000
11
29.8421904640
21
79.0411361644
31
0.0000000000
11
30.4280106765
21
79.1332099674
31
0.0000000000
0
SPLINE
5
37E
100
AcDbEntity
8
0
100
AcDbSpline
62
7
6
CONTINUOUS
70
0
71
3
72
12
73
8
74
6
42
0.0000001000
43
0.0000001000
44
0.0000000001
12
-2.9648688645
22
-0.0000002024
32
0.0000000000
13
-0.0000000000
23
2.9648688645
33
0.0000000000
40
0.0000000000
40
0.0000000000
40
0.0000000000
40
0.0000000000
40
0.2000128008
40
0.4010483604
40
0.6002990959
40
0.8012497210
40
1.0000000000
40
1.0000000000
40
1.0000000000
40
1.0000000000
10
30.4280106765
20
-76.6667899013
30
0.0000000000
10
30.2303401013
20
-76.6667899147
30
0.0000000000
10
29.8312189299
20
-76.6043658792
30
0.0000000000
10
29.2937053448
20
-76.3315390016
30
0.0000000000
10
28.8659818882
20
-75.9048152730
30
0.0000000000
10
28.5928990292
20
-75.3688315374
30
0.0000000000
10
28.5305431367
20
-74.9710531323
30
0.0000000000
10
28.5305431367
20
-74.7746302943
30
0.0000000000
11
30.4280106765
21
-76.6667899013
31
0.0000000000
11
29.8421904640
21
-76.5747160982
31
0.0000000000
11
29.3106853172
21
-76.3049554379
31
0.0000000000
11
28.8925344951
21
-75.8876567771
31
0.0000000000
11
28.6221971050
21
-75.3567273065
31
0.0000000000
11
28.5305431367
21
-74.7746302943
31
0.0000000000
0
SPLINE
5
37F
100
AcDbEntity
8
0
100
AcDbSpline
62
7
6
CONTINUOUS
70
0
71
3
72
12
73
8
74
6
42
0.0000001000
43
0.0000001000
44
0.0000000001
12
2.9648688645
22
0.0000002024
32
0.0000000000
13
0.0000000000
23
-2.9648688645
33
0.0000000000
40
0.0000000000
40
0.0000000000
40
0.0000000000
40
0.0000000000
40
0.2000128008
40
0.4010483604
40
0.6002990959
40
0.8012497210
40
1.0000000000
40
1.0000000000
40
1.0000000000
40
1.0000000000
10
168.9330755969
20
79.1332099674
30
0.0000000000
10
169.1307461721
20
79.1332099809
30
0.0000000000
10
169.5298673435
20
79.0707859454
30
0.0000000000
10
170.0673809286
20
78.7979590677
30
0.0000000000
10
170.4951043852
20
78.3712353392
30
0.0000000000
10
170.7681872442
20
77.8352516035
30
0.0000000000
10
170.8305431367
20
77.4374731984
30
0.0000000000
10
170.8305431367
20
77.2410503604
30
0.0000000000
11
168.9330755969
21
79.1332099674
31
0.0000000000
11
169.5188958095
21
79.0411361644
31
0.0000000000
11
170.0504009562
21
78.7713755041
31
0.0000000000
11
170.4685517783
21
78.3540768433
31
0.0000000000
11
170.7388891685
21
77.8231473727
31
0.0000000000
11
170.8305431367
21
77.2410503604
31
0.0000000000
0
SPLINE
5
380
100
AcDbEntity
8
0
100
AcDbSpline
62
7
6
CONTINUOUS
70
0
71
3
72
12
73
8
74
6
42
0.0000001000
43
0.0000001000
44
0.0000000001
12
0.0000000000
22
-2.9648688645
32
0.0000000000
13
-2.9648688645
23
0.0000002024
33
0.0000000000
40
0.0000000000
40
0.0000000000
40
0.0000000000
40
0.0000000000
40
0.1987502790
40
0.3997009041
40
0.5989516396
40
0.7999871992
40
1.0000000000
40
1.0000000000
40
1.0000000000
40
1.0000000000
10
170.8305431367
20
-74.7746302943
30
0.0000000000
10
170.8305431367
20
-74.9710531323
30
0.0000000000
10
170.7681872442
20
-75.3688315374
30
0.0000000000
10
170.4951043852
20
-75.9048152730
30
0.0000000000
10
170.0673809286
20
-76.3315390016
30
0.0000000000
10
169.5298673435
20
-76.6043658792
30
0.0000000000
10
169.1307461721
20
-76.6667899147
30
0.0000000000
10
168.9330755969
20
-76.6667899013
30
0.0000000000
11
170.8305431367
21
-74.7746302943
31
0.0000000000
11
170.7388891685
21
-75.3567273065
31
0.0000000000
11
170.4685517783
21
-75.8876567771
31
0.0000000000
11
170.0504009562
21
-76.3049554379
31
0.0000000000
11
169.5188958095
21
-76.5747160982
31
0.0000000000
11
168.9330755969
21
-76.6667899013
31
0.0000000000
0
SPLINE
5
381
100
AcDbEntity
8
0
100
AcDbSpline
62
9
6
CONTINUOUS
70
0
71
3
72
9
73
5
74
3
42
0.0000001000
43
0.0000001000
44
0.0000000001
12
-0.1979877457
22
0.0144770277
32
0.0000000000
13
-0.1930209182
23
0.0469445216
33
0.0000000000
40
0.0000000000
40
0.0000000000
40
0.0000000000
40
0.0000000000
40
0.7497178980
40
1.0000000000
40
1.0000000000
40
1.0000000000
40
1.0000000000
10
53.5817685977
20
-59.9916980646
30
0.0000000000
10
53.5322902789
20
-59.9880801690
30
0.0000000000
10
53.4665213518
20
-59.9791446249
30
0.0000000000
10
53.4018532795
20
-59.9648286872
30
0.0000000000
10
53.3857500524
20
-59.9609122294
30
0.0000000000
11
53.5817685977
21
-59.9916980646
31
0.0000000000
11
53.4342927604
21
-59.9716576992
31
0.0000000000
11
53.3857500524
21
-59.9609122294
31
0.0000000000
0
SPLINE
5
382
100
AcDbEntity
8
0
100
AcDbSpline
62
9
6
CONTINUOUS
70
0
71
3
72
18
73
14
74
12
42
0.0000001000
43
0.0000001000
44
0.0000000001
12
-1.5537183650
22
0.3778790712
32
0.0000000000
13
-0.0000165307
23
1.5979535511
33
0.0000000000
40
0.0000000000
40
0.0000000000
40
0.0000000000
40
0.0000000000
40
0.0623286576
40
0.1559260514
40
0.2495803875
40
0.3432299854
40
0.4369327852
40
0.5308201707
40
0.6248838866
40
0.7189982156
40
0.8129832033
40
0.9066761455
40
1.0000000000
40
1.0000000000
40
1.0000000000
40
1.0000000000
10
53.3857500524
20
-59.9609122294
30
0.0000000000
10
53.3534696591
20
-59.9530613310
30
0.0000000000
10
53.2735392661
20
-59.9300690131
30
0.0000000000
10
53.1499572799
20
-59.8801351911
30
0.0000000000
10
53.0189469500
20
-59.8070645675
30
0.0000000000
10
52.8980027053
20
-59.7182230541
30
0.0000000000
10
52.7889678549
20
-59.6149318009
30
0.0000000000
10
52.6935142869
20
-59.4986853091
30
0.0000000000
10
52.6132037700
20
-59.3712429144
30
0.0000000000
10
52.5494310691
20
-59.2347154145
30
0.0000000000
10
52.5032780548
20
-59.0914727204
30
0.0000000000
10
52.4754207982
20
-58.9440348490
30
0.0000000000
10
52.4692166294
20
-58.8443094922
30
0.0000000000
10
52.4692161152
20
-58.7946004307
30
0.0000000000
11
53.3857500524
21
-59.9609122294
31
0.0000000000
11
53.2900031302
21
-59.9333689139
31
0.0000000000
11
53.1513312932
21
-59.8773367997
31
0.0000000000
11
53.0206303947
21
-59.8044397651
31
0.0000000000
11
52.9000245807
21
-59.7158470228
31
0.0000000000
11
52.7913230381
21
-59.6128719648
31
0.0000000000
11
52.6961151048
21
-59.4969247590
31
0.0000000000
11
52.6159786474
21
-59.3697592030
31
0.0000000000
11
52.5523322095
21
-59.2335006944
31
0.0000000000
11
52.5062729352
21
-59.0905543043
31
0.0000000000
11
52.4784803527
21
-58.9434395757
31
0.0000000000
11
52.4692161152
21
-58.7946004307
31
0.0000000000
0
SPLINE
5
383
100
AcDbEntity
8
0
100
AcDbSpline
62
9
6
CONTINUOUS
70
0
71
3
72
10
73
6
74
4
42
0.0000001000
43
0.0000001000
44
0.0000000001
12
-0.0073109489
22
0.1001053923
32
0.0000000000
13
-0.0987859064
23
0.0177731323
33
0.0000000000
40
0.0000000000
40
0.0000000000
40
0.0000000000
40
0.0000000000
40
0.4966991254
40
0.8621916813
40
1.0000000000
40
1.0000000000
40
1.0000000000
40
1.0000000000
10
145.7793176747
20
-59.9916980647
30
0.0000000000
10
145.7781072274
20
-59.9751239778
30
0.0000000000
10
145.7778650863
20
-59.9439119972
30
0.0000000000
10
145.7685213319
20
-59.9176664502
30
0.0000000000
10
145.7731784117
20
-59.8927823249
30
0.0000000000
10
145.7686405718
20
-59.8919658964
30
0.0000000000
11
145.7793176747
21
-59.9916980647
31
0.0000000000
11
145.7752349503
21
-59.9420108307
31
0.0000000000
11
145.7713298279
21
-59.9055340510
31
0.0000000000
11
145.7686405718
21
-59.8919658964
31
0.0000000000
0
SPLINE
5
384
100
AcDbEntity
8
0
100
AcDbSpline
62
9
6
CONTINUOUS
70
0
71
3
72
10
73
6
74
4
42
0.0000001000
43
0.0000001000
44
0.0000000001
12
-92.0033784946
22
-6.7270726242
32
0.0000000000
13
-92.0033787050
23
6.7270697477
33
0.0000000000
40
0.0000000000
40
0.0000000000
40
0.0000000000
40
0.0000000000
40
0.3333814018
40
0.6666180318
40
1.0000000000
40
1.0000000000
40
1.0000000000
40
1.0000000000
10
145.7686405718
20
-59.8919658964
30
0.0000000000
10
135.5445688089
20
-60.6395261968
30
0.0000000000
10
115.0608499169
20
-61.6369630043
30
0.0000000000
10
84.3002711932
20
-61.6369648899
30
0.0000000000
10
63.8165348624
20
-60.6395271211
30
0.0000000000
10
53.5924457037
20
-59.8919658702
30
0.0000000000
11
145.7686405718
21
-59.8919658964
31
0.0000000000
11
115.0509396373
21
-61.3877124134
31
0.0000000000
11
84.3101988851
21
-61.3877138536
31
0.0000000000
11
53.5924457037
21
-59.8919658702
31
0.0000000000
0
SPLINE
5
385
100
AcDbEntity
8
0
100
AcDbSpline
62
9
6
CONTINUOUS
70
0
71
3
72
10
73
6
74
4
42
0.0000001000
43
0.0000001000
44
0.0000000001
12
-92.0247195165
22
-6.7281146857
32
0.0000000000
13
-92.0247199325
23
6.7281089959
33
0.0000000000
40
0.0000000000
40
0.0000000000
40
0.0000000000
40
0.0000000000
40
0.3333809029
40
0.6666195500
40
1.0000000000
40
1.0000000000
40
1.0000000000
40
1.0000000000
10
145.7793176759
20
-59.9916980647
30
0.0000000000
10
135.5528896495
20
-60.7393730476
30
0.0000000000
10
115.0643792009
20
-61.7369713857
30
0.0000000000
10
84.2966791734
20
-61.7369711526
30
0.0000000000
10
63.8081827779
20
-60.7393713995
30
0.0000000000
10
53.5817685977
20
-59.9916980646
30
0.0000000000
11
145.7793176759
21
-59.9916980647
31
0.0000000000
11
115.0545446747
21
-61.4876781940
31
0.0000000000
11
84.3064998022
21
-61.4876773463
31
0.0000000000
11
53.5817685977
21
-59.9916980646
31
0.0000000000
0
SPLINE
5
386
100
AcDbEntity
8
0
100
AcDbSpline
62
9
6
CONTINUOUS
70
0
71
3
72
17
73
13
74
11
42
0.0000001000
43
0.0000001000
44
0.0000000001
12
0.0000029659
22
-1.3750849587
32
0.0000000000
13
-1.3059504579
23
-0.4330945833
33
0.0000000000
40
0.0000000000
40
0.0000000000
40
0.0000000000
40
0.0000000000
40
0.0994079113
40
0.1991152036
40
0.2990015204
40
0.3989346038
40
0.4988443553
40
0.5987892130
40
0.6989139519
40
0.7992208131
40
0.8995764160
40
1.0000000000
40
1.0000000000
40
1.0000000000
40
1.0000000000
10
146.7883761063
20
-58.7946004307
30
0.0000000000
10
146.7883762045
20
-58.8401652052
30
0.0000000000
10
146.7826936788
20
-58.9315334266
30
0.0000000000
10
146.7571990447
20
-59.0665366486
30
0.0000000000
10
146.7150245491
20
-59.1975700684
30
0.0000000000
10
146.6568139568
20
-59.3224066154
30
0.0000000000
10
146.5834864190
20
-59.4390404941
30
0.0000000000
10
146.4961385389
20
-59.5456941417
30
0.0000000000
10
146.3960321783
20
-59.6407420574
30
0.0000000000
10
146.2846745086
20
-59.7226417551
30
0.0000000000
10
146.1638230489
20
-59.7900249751
30
0.0000000000
10
146.0782323200
20
-59.8245098504
30
0.0000000000
10
146.0345162448
20
-59.8390074871
30
0.0000000000
11
146.7883761063
21
-58.7946004307
31
0.0000000000
11
146.7798869050
21
-58.9310308949
31
0.0000000000
11
146.7544480262
21
-59.0657562382
31
0.0000000000
11
146.7123644516
21
-59.1965025262
31
0.0000000000
11
146.6542914384
21
-59.3210449450
31
0.0000000000
11
146.5811684457
21
-59.4373527278
31
0.0000000000
11
146.4940894674
21
-59.5436776566
31
0.0000000000
11
146.3942446950
21
-59.6384764436
31
0.0000000000
11
146.2831299343
21
-59.7201974364
31
0.0000000000
11
146.1626009443
21
-59.7873991258
31
0.0000000000
11
146.0345162448
21
-59.8390074871
31
0.0000000000
0
SPLINE
5
387
100
AcDbEntity
8
0
100
AcDbSpline
62
9
6
CONTINUOUS
70
0
71
3
72
9
73
5
74
3
42
0.0000001000
43
0.0000001000
44
0.0000000001
12
-0.2579609801
22
-0.0855480409
32
0.0000000000
13
-0.2708932187
23
-0.0198147598
33
0.0000000000
40
0.0000000000
40
0.0000000000
40
0.0000000000
40
0.0000000000
40
0.4927723022
40
1.0000000000
40
1.0000000000
40
1.0000000000
40
1.0000000000
10
146.0345162448
20
-59.8390074871
30
0.0000000000
10
145.9921442361
20
-59.8530593888
30
0.0000000000
10
145.9044295620
20
-59.8763313977
30
0.0000000000
10
145.8144419915
20
-59.8886143958
30
0.0000000000
10
145.7686404769
20
-59.8919645942
30
0.0000000000
11
146.0345162448
21
-59.8390074871
31
0.0000000000
11
145.9051455973
21
-59.8733265901
31
0.0000000000
11
145.7686404769
21
-59.8919645942
31
0.0000000000
0
SPLINE
5
388
100
AcDbEntity
8
0
100
AcDbSpline
62
9
6
CONTINUOUS
70
0
71
3
72
9
73
5
74
3
42
0.0000001000
43
0.0000001000
44
0.0000000001
12
-0.0000016892
22
-0.1988786009
32
0.0000000000
13
-0.0328443094
23
-0.1962814369
33
0.0000000000
40
0.0000000000
40
0.0000000000
40
0.0000000000
40
0.0000000000
40
0.7497179109
40
1.0000000000
40
1.0000000000
40
1.0000000000
40
1.0000000000
10
146.8918701582
20
-58.7946004307
30
0.0000000000
10
146.8918697361
20
-58.8443013805
30
0.0000000000
10
146.8877412310
20
-58.9106678586
30
0.0000000000
10
146.8781498306
20
-58.9763257391
30
0.0000000000
10
146.8754097164
20
-58.9927009818
30
0.0000000000
11
146.8918701582
21
-58.7946004307
31
0.0000000000
11
146.8826087401
21
-58.9434153687
31
0.0000000000
11
146.8754097164
21
-58.9927009818
31
0.0000000000
0
SPLINE
5
389
100
AcDbEntity
8
0
100
AcDbSpline
62
9
6
CONTINUOUS
70
0
71
3
72
18
73
14
74
12
42
0.0000001000
43
0.0000001000
44
0.0000000001
12
-0.2638382257
22
-1.5767281164
32
0.0000000000
13
-1.5933365421
23
-0.1165163968
33
0.0000000000
40
0.0000000000
40
0.0000000000
40
0.0000000000
40
0.0000000000
40
0.0624561846
40
0.1562413040
40
0.2500757542
40
0.3438947595
40
0.4377542518
40
0.5317869405
40
0.6259853034
40
0.7202244658
40
0.8145200700
40
0.9059210508
40
1.0000000000
40
1.0000000000
40
1.0000000000
40
1.0000000000
10
146.8754097164
20
-58.9927009818
30
0.0000000000
10
146.8699169401
20
-59.0255264559
30
0.0000000000
10
146.8527627763
20
-59.1070626313
30
0.0000000000
10
146.8118524239
20
-59.2341648798
30
0.0000000000
10
146.7483477135
20
-59.3703500415
30
0.0000000000
10
146.6683448359
20
-59.4975944507
30
0.0000000000
10
146.5730380582
20
-59.6139561351
30
0.0000000000
10
146.4638069634
20
-59.7176548667
30
0.0000000000
10
146.3423020032
20
-59.8070032995
30
0.0000000000
10
146.2104480456
20
-59.8805074997
30
0.0000000000
10
146.0717998729
20
-59.9363585118
30
0.0000000000
10
145.9274564260
20
-59.9746460220
30
0.0000000000
10
145.8292841517
20
-59.9880441513
30
0.0000000000
10
145.7793176759
20
-59.9916980647
30
0.0000000000
11
146.8754097164
21
-58.9927009818
31
0.0000000000
11
146.8548592998
21
-59.0903736140
31
0.0000000000
11
146.8089515103
21
-59.2329975460
31
0.0000000000
11
146.7455971984
21
-59.3688613196
31
0.0000000000
11
146.6658179219
21
-59.4957494731
31
0.0000000000
11
146.5708036133
21
-59.6117538322
31
0.0000000000
11
146.4618544135
21
-59.7151842899
31
0.0000000000
11
146.3406147713
21
-59.8043376987
31
0.0000000000
11
146.2091115646
21
-59.8776446580
31
0.0000000000
11
146.0693778976
21
-59.9339355591
31
0.0000000000
11
145.9282362284
21
-59.9713691973
31
0.0000000000
11
145.7793176759
21
-59.9916980647
31
0.0000000000
0
SPLINE
5
38A
100
AcDbEntity
8
0
100
AcDbSpline
62
9
6
CONTINUOUS
70
0
71
3
72
10
73
6
74
4
42
0.0000001000
43
0.0000001000
44
0.0000000001
12
92.0033784965
22
6.7270726087
32
0.0000000000
13
92.0033787076
23
-6.7270697210
33
0.0000000000
40
0.0000000000
40
0.0000000000
40
0.0000000000
40
0.0000000000
40
0.3333656752
40
0.6666338945
40
1.0000000000
40
1.0000000000
40
1.0000000000
40
1.0000000000
10
53.5924457017
20
62.3583859625
30
0.0000000000
10
63.8160351657
20
63.1059109966
30
0.0000000000
10
84.3002390453
20
64.1033950228
30
0.0000000000
10
115.0608207699
20
64.1033966031
30
0.0000000000
10
135.5450378857
20
63.1059116142
30
0.0000000000
10
145.7686405697
20
62.3583859362
30
0.0000000000
11
53.5924457017
21
62.3583859625
31
0.0000000000
11
84.3086958763
21
63.8540971859
31
0.0000000000
11
115.0523507095
21
63.8540983206
31
0.0000000000
11
145.7686405697
21
62.3583859362
31
0.0000000000
0
SPLINE
5
38B
100
AcDbEntity
8
0
100
AcDbSpline
62
9
6
CONTINUOUS
70
0
71
3
72
10
73
6
74
4
42
0.0000001000
43
0.0000001000
44
0.0000000001
12
-0.0073109730
22
-0.1001060658
32
0.0000000000
13
-0.0987867047
23
-0.0177724988
33
0.0000000000
40
0.0000000000
40
0.0000000000
40
0.0000000000
40
0.0000000000
40
0.4966986501
40
0.8621915481
40
1.0000000000
40
1.0000000000
40
1.0000000000
40
1.0000000000
10
145.7793176711
20
62.4581181308
30
0.0000000000
10
145.7781072210
20
62.4415439482
30
0.0000000000
10
145.7778650897
20
62.4103317403
30
0.0000000000
10
145.7685212577
20
62.3840860881
30
0.0000000000
10
145.7731784036
20
62.3592016903
30
0.0000000000
10
145.7686405226
20
62.3583852902
30
0.0000000000
11
145.7793176711
21
62.4581181308
31
0.0000000000
11
145.7752349345
21
62.4084306100
31
0.0000000000
11
145.7713297918
21
62.3719535504
31
0.0000000000
11
145.7686405226
21
62.3583852902
31
0.0000000000
0
SPLINE
5
38C
100
AcDbEntity
8
0
100
AcDbSpline
62
9
6
CONTINUOUS
70
0
71
3
72
9
73
5
74
3
42
0.0000001000
43
0.0000001000
44
0.0000000001
12
0.2725468440
22
-0.0199348282
32
0.0000000000
13
0.2594099730
23
-0.0864614198
33
0.0000000000
40
0.0000000000
40
0.0000000000
40
0.0000000000
40
0.0000000000
40
0.4992455417
40
1.0000000000
40
1.0000000000
40
1.0000000000
40
1.0000000000
10
145.7686405226
20
62.3583852902
30
0.0000000000
10
145.8139964549
20
62.3550678321
30
0.0000000000
10
145.9045328332
20
62.3427644906
30
0.0000000000
10
145.9927923005
20
62.3193356230
30
0.0000000000
10
146.0360925340
20
62.3049036425
30
0.0000000000
11
145.7686405226
21
62.3583852902
31
0.0000000000
11
145.9038287101
21
62.3400100612
31
0.0000000000
11
146.0360925340
21
62.3049036425
31
0.0000000000
0
SPLINE
5
38D
100
AcDbEntity
8
0
100
AcDbSpline
62
9
6
CONTINUOUS
70
0
71
3
72
17
73
13
74
11
42
0.0000001000
43
0.0000001000
44
0.0000000001
12
1.3037445975
22
-0.4345384555
32
0.0000000000
13
-0.0000016809
23
-1.3734271314
33
0.0000000000
40
0.0000000000
40
0.0000000000
40
0.0000000000
40
0.0000000000
40
0.0998208900
40
0.1996983064
40
0.2995656451
40
0.3994836956
40
0.4995978040
40
0.5999085354
40
0.7002810086
40
0.8005220708
40
0.9004560668
40
1.0000000000
40
1.0000000000
40
1.0000000000
40
1.0000000000
10
146.0360925340
20
62.3049036425
30
0.0000000000
10
146.0794728493
20
62.2904449707
30
0.0000000000
10
146.1644587243
20
62.2560981722
30
0.0000000000
10
146.2845367397
20
62.1891108250
30
0.0000000000
10
146.3953812479
20
62.1076729900
30
0.0000000000
10
146.4953061445
20
62.0129971791
30
0.0000000000
10
146.5827854315
20
61.9064498953
30
0.0000000000
10
146.6563914873
20
61.7896375557
30
0.0000000000
10
146.7148455607
20
61.6644899470
30
0.0000000000
10
146.7571522759
20
61.5331794296
30
0.0000000000
10
146.7826898516
20
61.3980169842
30
0.0000000000
10
146.7883757284
20
61.3065926097
30
0.0000000000
10
146.7883756726
20
61.2610204968
30
0.0000000000
11
146.0360925340
21
62.3049036425
31
0.0000000000
11
146.1632006862
21
62.2535321727
31
0.0000000000
11
146.2829954500
21
62.1867039018
31
0.0000000000
11
146.3935302475
21
62.1054938977
31
0.0000000000
11
146.4931480956
21
62.0111095688
31
0.0000000000
11
146.5803997148
21
61.9048398697
31
0.0000000000
11
146.6538465827
21
61.7882809266
31
0.0000000000
11
146.7121852193
21
61.6633793437
31
0.0000000000
11
146.7544065113
21
61.5323395168
31
0.0000000000
11
146.7798843544
21
61.3974728869
31
0.0000000000
11
146.7883756726
21
61.2610204968
31
0.0000000000
0
SPLINE
5
38E
100
AcDbEntity
8
0
100
AcDbSpline
62
9
6
CONTINUOUS
70
0
71
3
72
9
73
5
74
3
42
0.0000001000
43
0.0000001000
44
0.0000000001
12
0.1979877457
22
-0.0144770277
32
0.0000000000
13
0.1930209182
23
-0.0469445216
33
0.0000000000
40
0.0000000000
40
0.0000000000
40
0.0000000000
40
0.0000000000
40
0.7497178980
40
1.0000000000
40
1.0000000000
40
1.0000000000
40
1.0000000000
10
145.7793176757
20
62.4581181308
30
0.0000000000
10
145.8287959945
20
62.4545002352
30
0.0000000000
10
145.8945649216
20
62.4455646910
30
0.0000000000
10
145.9592329939
20
62.4312487534
30
0.0000000000
10
145.9753362210
20
62.4273322955
30
0.0000000000
11
145.7793176757
21
62.4581181308
31
0.0000000000
11
145.9267935130
21
62.4380777654
31
0.0000000000
11
145.9753362210
21
62.4273322955
31
0.0000000000
0
SPLINE
5
38F
100
AcDbEntity
8
0
100
AcDbSpline
62
9
6
CONTINUOUS
70
0
71
3
72
18
73
14
74
12
42
0.0000001000
43
0.0000001000
44
0.0000000001
12
1.5537183650
22
-0.3778790712
32
0.0000000000
13
0.0000165307
23
-1.5979535511
33
0.0000000000
40
0.0000000000
40
0.0000000000
40
0.0000000000
40
0.0000000000
40
0.0623286576
40
0.1559260514
40
0.2495803875
40
0.3432299854
40
0.4369327852
40
0.5308201707
40
0.6248838866
40
0.7189982156
40
0.8129832033
40
0.9066761455
40
1.0000000000
40
1.0000000000
40
1.0000000000
40
1.0000000000
10
145.9753362210
20
62.4273322955
30
0.0000000000
10
146.0076166143
20
62.4194813971
30
0.0000000000
10
146.0875470073
20
62.3964890793
30
0.0000000000
10
146.2111289936
20
62.3465552572
30
0.0000000000
10
146.3421393234
20
62.2734846336
30
0.0000000000
10
146.4630835682
20
62.1846431203
30
0.0000000000
10
146.5721184185
20
62.0813518670
30
0.0000000000
10
146.6675719865
20
61.9651053752
30
0.0000000000
10
146.7478825035
20
61.8376629806
30
0.0000000000
10
146.8116552043
20
61.7011354806
30
0.0000000000
10
146.8578082186
20
61.5578927865
30
0.0000000000
10
146.8856654752
20
61.4104549151
30
0.0000000000
10
146.8918696440
20
61.3107295583
30
0.0000000000
10
146.8918701582
20
61.2610204968
30
0.0000000000
11
145.9753362210
21
62.4273322955
31
0.0000000000
11
146.0710831432
21
62.3997889800
31
0.0000000000
11
146.2097549802
21
62.3437568659
31
0.0000000000
11
146.3404558787
21
62.2708598312
31
0.0000000000
11
146.4610616928
21
62.1822670890
31
0.0000000000
11
146.5697632354
21
62.0792920310
31
0.0000000000
11
146.6649711686
21
61.9633448252
31
0.0000000000
11
146.7451076261
21
61.8361792692
31
0.0000000000
11
146.8087540639
21
61.6999207606
31
0.0000000000
11
146.8548133382
21
61.5569743705
31
0.0000000000
11
146.8826059208
21
61.4098596419
31
0.0000000000
11
146.8918701582
21
61.2610204968
31
0.0000000000
0
SPLINE
5
390
100
AcDbEntity
8
0
100
AcDbSpline
62
9
6
CONTINUOUS
70
0
71
3
72
10
73
6
74
4
42
0.0000001000
43
0.0000001000
44
0.0000000001
12
92.0247195194
22
6.7281146550
32
0.0000000000
13
92.0247199371
23
-6.7281089428
33
0.0000000000
40
0.0000000000
40
0.0000000000
40
0.0000000000
40
0.0000000000
40
0.3333651761
40
0.6666354133
40
1.0000000000
40
1.0000000000
40
1.0000000000
40
1.0000000000
10
53.5817685975
20
62.4581181309
30
0.0000000000
10
63.8077142075
20
63.2057578398
30
0.0000000000
10
84.2967097734
20
64.2034034073
30
0.0000000000
10
115.0644128023
20
64.2034028688
30
0.0000000000
10
135.5533900999
20
63.2057558831
30
0.0000000000
10
145.7793176757
20
62.4581181308
30
0.0000000000
11
53.5817685975
21
62.4581181309
31
0.0000000000
11
84.3050904857
21
63.9540629605
31
0.0000000000
11
115.0560501825
21
63.9540618061
31
0.0000000000
11
145.7793176757
21
62.4581181308
31
0.0000000000
0
SPLINE
5
391
100
AcDbEntity
8
0
100
AcDbSpline
62
9
6
CONTINUOUS
70
0
71
3
72
17
73
13
74
11
42
0.0000001000
43
0.0000001000
44
0.0000000001
12
-0.0000029659
22
1.3750849587
32
0.0000000000
13
1.3059504579
23
0.4330945833
33
0.0000000000
40
0.0000000000
40
0.0000000000
40
0.0000000000
40
0.0000000000
40
0.0994079113
40
0.1991152036
40
0.2990015204
40
0.3989346038
40
0.4988443553
40
0.5987892130
40
0.6989139519
40
0.7992208131
40
0.8995764160
40
1.0000000000
40
1.0000000000
40
1.0000000000
40
1.0000000000
10
52.5727101672
20
61.2610204969
30
0.0000000000
10
52.5727100689
20
61.3065852714
30
0.0000000000
10
52.5783925947
20
61.3979534927
30
0.0000000000
10
52.6038872287
20
61.5329567147
30
0.0000000000
10
52.6460617243
20
61.6639901345
30
0.0000000000
10
52.7042723167
20
61.7888266815
30
0.0000000000
10
52.7775998545
20
61.9054605602
30
0.0000000000
10
52.8649477345
20
62.0121142079
30
0.0000000000
10
52.9650540952
20
62.1071621235
30
0.0000000000
10
53.0764117648
20
62.1890618212
30
0.0000000000
10
53.1972632245
20
62.2564450412
30
0.0000000000
10
53.2828539534
20
62.2909299165
30
0.0000000000
10
53.3265700286
20
62.3054275533
30
0.0000000000
11
52.5727101672
21
61.2610204969
31
0.0000000000
11
52.5811993684
21
61.3974509610
31
0.0000000000
11
52.6066382472
21
61.5321763044
31
0.0000000000
11
52.6487218219
21
61.6629225924
31
0.0000000000
11
52.7067948350
21
61.7874650112
31
0.0000000000
11
52.7799178278
21
61.9037727939
31
0.0000000000
11
52.8669968061
21
62.0100977227
31
0.0000000000
11
52.9668415784
21
62.1048965097
31
0.0000000000
11
53.0779563391
21
62.1866175026
31
0.0000000000
11
53.1984853291
21
62.2538191920
31
0.0000000000
11
53.3265700286
21
62.3054275533
31
0.0000000000
0
SPLINE
5
392
100
AcDbEntity
8
0
100
AcDbSpline
62
9
6
CONTINUOUS
70
0
71
3
72
9
73
5
74
3
42
0.0000001000
43
0.0000001000
44
0.0000000001
12
0.2579609801
22
0.0855480409
32
0.0000000000
13
0.2708932187
23
0.0198147598
33
0.0000000000
40
0.0000000000
40
0.0000000000
40
0.0000000000
40
0.0000000000
40
0.4927723022
40
1.0000000000
40
1.0000000000
40
1.0000000000
40
1.0000000000
10
53.3265700286
20
62.3054275533
30
0.0000000000
10
53.3689420373
20
62.3194794550
30
0.0000000000
10
53.4566567114
20
62.3427514639
30
0.0000000000
10
53.5466442819
20
62.3550344620
30
0.0000000000
10
53.5924457965
20
62.3583846603
30
0.0000000000
11
53.3265700286
21
62.3054275533
31
0.0000000000
11
53.4559406761
21
62.3397466563
31
0.0000000000
11
53.5924457965
21
62.3583846603
31
0.0000000000
0
SPLINE
5
393
100
AcDbEntity
8
0
100
AcDbSpline
62
9
6
CONTINUOUS
70
0
71
3
72
9
73
5
74
3
42
0.0000001000
43
0.0000001000
44
0.0000000001
12
0.0000016892
22
0.1988786009
32
0.0000000000
13
0.0328443094
23
0.1962814369
33
0.0000000000
40
0.0000000000
40
0.0000000000
40
0.0000000000
40
0.0000000000
40
0.7497179109
40
1.0000000000
40
1.0000000000
40
1.0000000000
40
1.0000000000
10
52.4692161152
20
61.2610204969
30
0.0000000000
10
52.4692165373
20
61.3107214466
30
0.0000000000
10
52.4733450424
20
61.3770879248
30
0.0000000000
10
52.4829364429
20
61.4427458052
30
0.0000000000
10
52.4856765570
20
61.4591210479
30
0.0000000000
11
52.4692161152
21
61.2610204969
31
0.0000000000
11
52.4784775333
21
61.4098354349
31
0.0000000000
11
52.4856765570
21
61.4591210479
31
0.0000000000
0
SPLINE
5
394
100
AcDbEntity
8
0
100
AcDbSpline
62
9
6
CONTINUOUS
70
0
71
3
72
18
73
14
74
12
42
0.0000001000
43
0.0000001000
44
0.0000000001
12
0.2638382257
22
1.5767281164
32
0.0000000000
13
1.5933365421
23
0.1165163968
33
0.0000000000
40
0.0000000000
40
0.0000000000
40
0.0000000000
40
0.0000000000
40
0.0624561846
40
0.1562413040
40
0.2500757542
40
0.3438947595
40
0.4377542518
40
0.5317869405
40
0.6259853034
40
0.7202244659
40
0.8145200700
40
0.9059210508
40
1.0000000000
40
1.0000000000
40
1.0000000000
40
1.0000000000
10
52.4856765570
20
61.4591210479
30
0.0000000000
10
52.4911693333
20
61.4919465221
30
0.0000000000
10
52.5083234971
20
61.5734826975
30
0.0000000000
10
52.5492338495
20
61.7005849460
30
0.0000000000
10
52.6127385600
20
61.8367701076
30
0.0000000000
10
52.6927414375
20
61.9640145168
30
0.0000000000
10
52.7880482152
20
62.0803762012
30
0.0000000000
10
52.8972793100
20
62.1840749329
30
0.0000000000
10
53.0187842702
20
62.2734233656
30
0.0000000000
10
53.1506382279
20
62.3469275658
30
0.0000000000
10
53.2892864006
20
62.4027785779
30
0.0000000000
10
53.4336298474
20
62.4410660882
30
0.0000000000
10
53.5318021217
20
62.4544642175
30
0.0000000000
10
53.5817685975
20
62.4581181309
30
0.0000000000
11
52.4856765570
21
61.4591210479
31
0.0000000000
11
52.5062269736
21
61.5567936801
31
0.0000000000
11
52.5521347631
21
61.6994176122
31
0.0000000000
11
52.6154890750
21
61.8352813857
31
0.0000000000
11
52.6952683515
21
61.9621695392
31
0.0000000000
11
52.7902826601
21
62.0781738984
31
0.0000000000
11
52.8992318599
21
62.1816043561
31
0.0000000000
11
53.0204715021
21
62.2707577649
31
0.0000000000
11
53.1519747089
21
62.3440647241
31
0.0000000000
11
53.2917083759
21
62.4003556252
31
0.0000000000
11
53.4328500450
21
62.4377892634
31
0.0000000000
11
53.5817685975
21
62.4581181309
31
0.0000000000
0
SPLINE
5
395
100
AcDbEntity
8
0
100
AcDbSpline
62
9
6
CONTINUOUS
70
0
71
3
72
11
73
7
74
5
42
0.0000001000
43
0.0000001000
44
0.0000000001
12
0.0000279048
22
-0.9011206473
32
0.0000000000
13
-0.6289982608
23
-0.6452748327
33
0.0000000000
40
0.0000000000
40
0.0000000000
40
0.0000000000
40
0.0000000000
40
0.3700834712
40
0.6876312753
40
0.9076966694
40
1.0000000000
40
1.0000000000
40
1.0000000000
40
1.0000000000
10
168.7365802942
20
-75.5286068588
30
0.0000000000
10
168.7365837366
20
-75.6397701445
30
0.0000000000
10
168.7326526614
20
-75.8448283220
30
0.0000000000
10
168.7318442001
20
-76.1227386941
30
0.0000000000
10
168.7050892474
20
-76.3004598835
30
0.0000000000
10
168.7123372486
20
-76.4074751808
30
0.0000000000
10
168.6929843705
20
-76.4273288528
30
0.0000000000
11
168.7365802942
21
-75.5286068588
31
0.0000000000
11
168.7333135943
21
-75.8620807162
31
0.0000000000
11
168.7239578975
21
-76.1480766151
31
0.0000000000
11
168.7098451100
21
-76.3458792663
31
0.0000000000
11
168.6929843705
21
-76.4273288528
31
0.0000000000
0
SPLINE
5
396
100
AcDbEntity
8
0
100
AcDbSpline
62
9
6
CONTINUOUS
70
0
71
3
72
13
73
9
74
7
42
0.0000001000
43
0.0000001000
44
0.0000000001
12
2.9664811715
22
0.0073670269
32
0.0000000000
13
0.0038377250
23
2.9664878368
33
0.0000000000
40
0.0000000000
40
0.0000000000
40
0.0000000000
40
0.0000000000
40
0.1609401632
40
0.3298094961
40
0.5027239580
40
0.6749234859
40
0.8422659930
40
1.0000000000
40
1.0000000000
40
1.0000000000
40
1.0000000000
10
168.6929843705
20
-76.4273288528
30
0.0000000000
10
168.8521263585
20
-76.4269336360
30
0.0000000000
10
169.1795999052
20
-76.3848469150
30
0.0000000000
10
169.6452670465
20
-76.1954451189
30
0.0000000000
10
170.0538354509
20
-75.8826471559
30
0.0000000000
10
170.3627897512
20
-75.4731226245
30
0.0000000000
10
170.5472945014
20
-75.0114123338
30
0.0000000000
10
170.5877251351
20
-74.6886457212
30
0.0000000000
10
170.5879269150
20
-74.5326737167
30
0.0000000000
11
168.6929843705
21
-76.4273288528
31
0.0000000000
11
169.1664941312
21
-76.3662922795
31
0.0000000000
11
169.6305581897
21
-76.1776267240
31
0.0000000000
11
170.0377680966
21
-75.8657022979
31
0.0000000000
11
170.3454695146
21
-75.4579458504
31
0.0000000000
11
170.5296113357
21
-74.9969420176
31
0.0000000000
11
170.5879269150
21
-74.5326737167
31
0.0000000000
0
SPLINE
5
397
100
AcDbEntity
8
0
100
AcDbSpline
62
9
6
CONTINUOUS
70
0
71
3
72
13
73
9
74
7
42
0.0000001000
43
0.0000001000
44
0.0000000001
12
1.5629093818
22
-0.0003186492
32
0.0000000000
13
-0.0000449428
23
1.5629094137
33
0.0000000000
40
0.0000000000
40
0.0000000000
40
0.0000000000
40
0.0000000000
40
0.1607241931
40
0.3295842504
40
0.5023272062
40
0.6744406452
40
0.8419317957
40
1.0000000000
40
1.0000000000
40
1.0000000000
40
1.0000000000
10
168.7365802964
20
-75.5286068588
30
0.0000000000
10
168.8203127461
20
-75.5286239303
30
0.0000000000
10
168.9927745384
20
-75.5069821588
30
0.0000000000
10
169.2382950131
20
-75.4082012082
30
0.0000000000
10
169.4539851947
20
-75.2441697736
30
0.0000000000
10
169.6172086469
20
-75.0287819336
30
0.0000000000
10
169.7146652431
20
-74.7853642837
30
0.0000000000
10
169.7358656231
20
-74.6150224782
30
0.0000000000
10
169.7358632551
20
-74.5326737167
30
0.0000000000
11
168.7365802964
21
-75.5286068588
31
0.0000000000
11
168.9858128575
21
-75.4972501786
31
0.0000000000
11
169.2306457682
21
-75.3987265607
31
0.0000000000
11
169.4454855939
21
-75.2352214867
31
0.0000000000
11
169.6079735456
21
-75.0208446322
31
0.0000000000
11
169.7052477231
21
-74.7778156265
31
0.0000000000
11
169.7358632551
21
-74.5326737167
31
0.0000000000
0
SPLINE
5
398
100
AcDbEntity
8
0
100
AcDbSpline
62
9
6
CONTINUOUS
70
0
71
3
72
11
73
7
74
5
42
0.0000001000
43
0.0000001000
44
0.0000000001
12
-0.0000289787
22
-0.9011618356
32
0.0000000000
13
0.6290049104
23
-0.6453258692
33
0.0000000000
40
0.0000000000
40
0.0000000000
40
0.0000000000
40
0.0000000000
40
0.3700811606
40
0.6876291768
40
0.9076957690
40
1.0000000000
40
1.0000000000
40
1.0000000000
40
1.0000000000
10
30.6245059793
20
-75.5286068588
30
0.0000000000
10
30.6245024045
20
-75.6397745315
30
0.0000000000
10
30.6284333366
20
-75.8448415916
30
0.0000000000
10
30.6292415663
20
-76.1227639466
30
0.0000000000
10
30.6559969586
20
-76.3004948727
30
0.0000000000
10
30.6487485277
20
-76.4075146949
30
0.0000000000
10
30.6681017992
20
-76.4273701309
30
0.0000000000
11
30.6245059793
21
-75.5286068588
31
0.0000000000
11
30.6277723756
21
-75.8620938807
31
0.0000000000
11
30.6371279825
21
-76.1481030600
31
0.0000000000
11
30.6512408623
21
-76.3459158743
31
0.0000000000
11
30.6681017992
21
-76.4273701309
31
0.0000000000
0
SPLINE
5
399
100
AcDbEntity
8
0
100
AcDbSpline
62
9
6
CONTINUOUS
70
0
71
3
72
10
73
6
74
4
42
0.0000001000
43
0.0000001000
44
0.0000000001
12
138.0248826318
22
-0.0044638040
32
0.0000000000
13
138.0248826318
23
0.0044638579
33
0.0000000000
40
0.0000000000
40
0.0000000000
40
0.0000000000
40
0.0000000000
40
0.3332697629
40
0.6667302022
40
1.0000000000
40
1.0000000000
40
1.0000000000
40
1.0000000000
10
30.6681017992
20
-76.4273701309
30
0.0000000000
10
46.0012751017
20
-76.4278660145
30
0.0000000000
10
76.6763944137
20
-76.4285028626
30
0.0000000000
10
122.6846886511
20
-76.4285028594
30
0.0000000000
10
153.3598095717
20
-76.4278660202
30
0.0000000000
10
168.6929844826
20
-76.4273701305
30
0.0000000000
11
30.6681017992
21
-76.4273701309
31
0.0000000000
11
76.6676217203
21
-76.4283435590
31
0.0000000000
11
122.6934597360
21
-76.4283435591
31
0.0000000000
11
168.6929844826
21
-76.4273701305
31
0.0000000000
0
SPLINE
5
39A
100
AcDbEntity
8
0
100
AcDbSpline
62
9
6
CONTINUOUS
70
0
71
3
72
13
73
9
74
7
42
0.0000001000
43
0.0000001000
44
0.0000000001
12
0.0038322283
22
-2.9664878313
32
0.0000000000
13
2.9664811579
23
-0.0073674212
33
0.0000000000
40
0.0000000000
40
0.0000000000
40
0.0000000000
40
0.0000000000
40
0.1577341879
40
0.3250767579
40
0.4972766306
40
0.6701911652
40
0.8390612027
40
1.0000000000
40
1.0000000000
40
1.0000000000
40
1.0000000000
10
28.7731592898
20
-74.5326737167
30
0.0000000000
10
28.7733607809
20
-74.6886458998
30
0.0000000000
10
28.8137917371
20
-75.0114128013
30
0.0000000000
10
28.9982971612
20
-75.4731234131
30
0.0000000000
10
29.3072518531
20
-75.8826481630
30
0.0000000000
10
29.7158211792
20
-76.1954470380
30
0.0000000000
10
30.1814886485
20
-76.3848463705
30
0.0000000000
10
30.5089612655
20
-76.4269339396
30
0.0000000000
10
30.6681019021
20
-76.4273291742
30
0.0000000000
11
28.7731592898
21
-74.5326737167
31
0.0000000000
11
28.8314749393
21
-74.9969425476
31
0.0000000000
11
29.0156172210
21
-75.4579463951
31
0.0000000000
11
29.3233194052
21
-75.8657035429
31
0.0000000000
11
29.7305296644
21
-76.1776278604
31
0.0000000000
11
30.1945961920
21
-76.3662928868
31
0.0000000000
11
30.6681019021
21
-76.4273291742
31
0.0000000000
0
SPLINE
5
39B
100
AcDbEntity
8
0
100
AcDbSpline
62
9
6
CONTINUOUS
70
0
71
3
72
13
73
9
74
7
42
0.0000001000
43
0.0000001000
44
0.0000000001
12
-0.0000482750
22
-1.5629093918
32
0.0000000000
13
1.5629093596
23
0.0003209790
33
0.0000000000
40
0.0000000000
40
0.0000000000
40
0.0000000000
40
0.0000000000
40
0.1580682109
40
0.3255593631
40
0.4976727992
40
0.6704157658
40
0.8392758182
40
1.0000000000
40
1.0000000000
40
1.0000000000
40
1.0000000000
10
29.6252230184
20
-74.5326737167
30
0.0000000000
10
29.6252204748
20
-74.6150224805
30
0.0000000000
10
29.6464209923
20
-74.7853643137
30
0.0000000000
10
29.7438777167
20
-75.0287818847
30
0.0000000000
10
29.9071010869
20
-75.2441697370
30
0.0000000000
10
30.1227911537
20
-75.4082014414
30
0.0000000000
10
30.3683118253
20
-75.5069817472
30
0.0000000000
10
30.5407735344
20
-75.5286240552
30
0.0000000000
10
30.6245059771
20
-75.5286068588
30
0.0000000000
11
29.6252230184
21
-74.5326737167
31
0.0000000000
11
29.6558384965
21
-74.7778156401
31
0.0000000000
11
29.7531127832
21
-75.0208446011
31
0.0000000000
11
29.9156006778
21
-75.2352214885
31
0.0000000000
11
30.1304404593
21
-75.3987266421
31
0.0000000000
11
30.3752734586
21
-75.4972500099
31
0.0000000000
11
30.6245059771
21
-75.5286068588
31
0.0000000000
0
SPLINE
5
39C
100
AcDbEntity
8
0
100
AcDbSpline
62
9
6
CONTINUOUS
70
0
71
3
72
11
73
7
74
5
42
0.0000001000
43
0.0000001000
44
0.0000000001
12
-0.0000279048
22
0.9011206473
32
0.0000000000
13
0.6289982608
23
0.6452748327
33
0.0000000000
40
0.0000000000
40
0.0000000000
40
0.0000000000
40
0.0000000000
40
0.3700834712
40
0.6876312753
40
0.9076966694
40
1.0000000000
40
1.0000000000
40
1.0000000000
40
1.0000000000
10
30.6245059792
20
77.9950269250
30
0.0000000000
10
30.6245025369
20
78.1061902107
30
0.0000000000
10
30.6284336120
20
78.3112483882
30
0.0000000000
10
30.6292420733
20
78.5891587603
30
0.0000000000
10
30.6559970261
20
78.7668799496
30
0.0000000000
10
30.6487490248
20
78.8738952469
30
0.0000000000
10
30.6681019029
20
78.8937489190
30
0.0000000000
11
30.6245059792
21
77.9950269250
31
0.0000000000
11
30.6277726791
21
78.3285007824
31
0.0000000000
11
30.6371283759
21
78.6144966812
31
0.0000000000
11
30.6512411635
21
78.8122993325
31
0.0000000000
11
30.6681019029
21
78.8937489190
31
0.0000000000
0
SPLINE
5
39D
100
AcDbEntity
8
0
100
AcDbSpline
62
9
6
CONTINUOUS
70
0
71
3
72
13
73
9
74
7
42
0.0000001000
43
0.0000001000
44
0.0000000001
12
-2.9664811715
22
-0.0073670269
32
0.0000000000
13
-0.0038377250
23
-2.9664878368
33
0.0000000000
40
0.0000000000
40
0.0000000000
40
0.0000000000
40
0.0000000000
40
0.1609401632
40
0.3298094961
40
0.5027239580
40
0.6749234859
40
0.8422659930
40
1.0000000000
40
1.0000000000
40
1.0000000000
40
1.0000000000
10
30.6681019029
20
78.8937489190
30
0.0000000000
10
30.5089599150
20
78.8933537022
30
0.0000000000
10
30.1814863683
20
78.8512669812
30
0.0000000000
10
29.7158192269
20
78.6618651850
30
0.0000000000
10
29.3072508225
20
78.3490672220
30
0.0000000000
10
28.9982965223
20
77.9395426907
30
0.0000000000
10
28.8137917720
20
77.4778323999
30
0.0000000000
10
28.7733611384
20
77.1550657873
30
0.0000000000
10
28.7731593585
20
76.9990937829
30
0.0000000000
11
30.6681019029
21
78.8937489190
31
0.0000000000
11
30.1945921423
21
78.8327123457
31
0.0000000000
11
29.7305280838
21
78.6440467902
31
0.0000000000
11
29.3233181768
21
78.3321223641
31
0.0000000000
11
29.0156167588
21
77.9243659166
31
0.0000000000
11
28.8314749377
21
77.4633620838
31
0.0000000000
11
28.7731593585
21
76.9990937829
31
0.0000000000
0
SPLINE
5
39E
100
AcDbEntity
8
0
100
AcDbSpline
62
9
6
CONTINUOUS
70
0
71
3
72
13
73
9
74
7
42
0.0000001000
43
0.0000001000
44
0.0000000001
12
-1.5629093818
22
0.0003186492
32
0.0000000000
13
0.0000449428
23
-1.5629094137
33
0.0000000000
40
0.0000000000
40
0.0000000000
40
0.0000000000
40
0.0000000000
40
0.1607241931
40
0.3295842504
40
0.5023272062
40
0.6744406452
40
0.8419317957
40
1.0000000000
40
1.0000000000
40
1.0000000000
40
1.0000000000
10
30.6245059771
20
77.9950269250
30
0.0000000000
10
30.5407735273
20
77.9950439965
30
0.0000000000
10
30.3683117351
20
77.9734022250
30
0.0000000000
10
30.1227912604
20
77.8746212743
30
0.0000000000
10
29.9071010787
20
77.7105898397
30
0.0000000000
10
29.7438776265
20
77.4952019997
30
0.0000000000
10
29.6464210304
20
77.2517843499
30
0.0000000000
10
29.6252206504
20
77.0814425444
30
0.0000000000
10
29.6252230184
20
76.9990937829
30
0.0000000000
11
30.6245059771
21
77.9950269250
31
0.0000000000
11
30.3752734159
21
77.9636702448
31
0.0000000000
11
30.1304405053
21
77.8651466269
31
0.0000000000
11
29.9156006795
21
77.7016415529
31
0.0000000000
11
29.7531127279
21
77.4872646983
31
0.0000000000
11
29.6558385503
21
77.2442356927
31
0.0000000000
11
29.6252230184
21
76.9990937829
31
0.0000000000
0
SPLINE
5
39F
100
AcDbEntity
8
0
100
AcDbSpline
62
9
6
CONTINUOUS
70
0
71
3
72
11
73
7
74
5
42
0.0000001000
43
0.0000001000
44
0.0000000001
12
0.0000289787
22
0.9011618356
32
0.0000000000
13
-0.6290049104
23
0.6453258692
33
0.0000000000
40
0.0000000000
40
0.0000000000
40
0.0000000000
40
0.0000000000
40
0.3700811606
40
0.6876291768
40
0.9076957690
40
1.0000000000
40
1.0000000000
40
1.0000000000
40
1.0000000000
10
168.7365802941
20
77.9950269250
30
0.0000000000
10
168.7365838689
20
78.1061945976
30
0.0000000000
10
168.7326529369
20
78.3112616578
30
0.0000000000
10
168.7318447072
20
78.5891840128
30
0.0000000000
10
168.7050893149
20
78.7669149388
30
0.0000000000
10
168.7123377457
20
78.8739347610
30
0.0000000000
10
168.6929844742
20
78.8937901971
30
0.0000000000
11
168.7365802941
21
77.9950269250
31
0.0000000000
11
168.7333138978
21
78.3285139469
31
0.0000000000
11
168.7239582910
21
78.6145231261
31
0.0000000000
11
168.7098454111
21
78.8123359404
31
0.0000000000
11
168.6929844742
21
78.8937901971
31
0.0000000000
0
SPLINE
5
3A0
100
AcDbEntity
8
0
100
AcDbSpline
62
9
6
CONTINUOUS
70
0
71
3
72
10
73
6
74
4
42
0.0000001000
43
0.0000001000
44
0.0000000001
12
-138.0248826318
22
0.0044638040
32
0.0000000000
13
-138.0248826318
23
-0.0044638579
33
0.0000000000
40
0.0000000000
40
0.0000000000
40
0.0000000000
40
0.0000000000
40
0.3332697512
40
0.6667301905
40
1.0000000000
40
1.0000000000
40
1.0000000000
40
1.0000000000
10
168.6929844742
20
78.8937901971
30
0.0000000000
10
153.3598117082
20
78.8942860807
30
0.0000000000
10
122.6846929317
20
78.8949229287
30
0.0000000000
10
76.6763986943
20
78.8949229256
30
0.0000000000
10
46.0012772373
20
78.8942860864
30
0.0000000000
10
30.6681017908
20
78.8937901967
30
0.0000000000
11
168.6929844742
21
78.8937901971
31
0.0000000000
11
122.6934661623
21
78.8947636251
31
0.0000000000
11
76.6676281441
21
78.8947636253
31
0.0000000000
11
30.6681017908
21
78.8937901967
31
0.0000000000
0
SPLINE
5
3A1
100
AcDbEntity
8
0
100
AcDbSpline
62
9
6
CONTINUOUS
70
0
71
3
72
13
73
9
74
7
42
0.0000001000
43
0.0000001000
44
0.0000000001
12
-0.0038322283
22
2.9664878313
32
0.0000000000
13
-2.9664811579
23
0.0073674212
33
0.0000000000
40
0.0000000000
40
0.0000000000
40
0.0000000000
40
0.0000000000
40
0.1577341879
40
0.3250767579
40
0.4972766306
40
0.6701911652
40
0.8390612027
40
1.0000000000
40
1.0000000000
40
1.0000000000
40
1.0000000000
10
170.5879269836
20
76.9990937829
30
0.0000000000
10
170.5877254925
20
77.1550659659
30
0.0000000000
10
170.5472945363
20
77.4778328675
30
0.0000000000
10
170.3627891122
20
77.9395434792
30
0.0000000000
10
170.0538344204
20
78.3490682291
30
0.0000000000
10
169.6452650942
20
78.6618671041
30
0.0000000000
10
169.1795976249
20
78.8512664366
30
0.0000000000
10
168.8521250079
20
78.8933540057
30
0.0000000000
10
168.6929843713
20
78.8937492403
30
0.0000000000
11
170.5879269836
21
76.9990937829
31
0.0000000000
11
170.5296113341
21
77.4633626137
31
0.0000000000
11
170.3454690524
21
77.9243664612
31
0.0000000000
11
170.0377668682
21
78.3321236091
31
0.0000000000
11
169.6305566090
21
78.6440479265
31
0.0000000000
11
169.1664900814
21
78.8327129529
31
0.0000000000
11
168.6929843713
21
78.8937492403
31
0.0000000000
0
SPLINE
5
3A2
100
AcDbEntity
8
0
100
AcDbSpline
62
9
6
CONTINUOUS
70
0
71
3
72
13
73
9
74
7
42
0.0000001000
43
0.0000001000
44
0.0000000001
12
0.0000482750
22
1.5629093918
32
0.0000000000
13
-1.5629093596
23
-0.0003209790
33
0.0000000000
40
0.0000000000
40
0.0000000000
40
0.0000000000
40
0.0000000000
40
0.1580682109
40
0.3255593631
40
0.4976727992
40
0.6704157658
40
0.8392758182
40
1.0000000000
40
1.0000000000
40
1.0000000000
40
1.0000000000
10
169.7358632551
20
76.9990937829
30
0.0000000000
10
169.7358657986
20
77.0814425467
30
0.0000000000
10
169.7146652811
20
77.2517843798
30
0.0000000000
10
169.6172085567
20
77.4952019509
30
0.0000000000
10
169.4539851865
20
77.7105898032
30
0.0000000000
10
169.2382951197
20
77.8746215076
30
0.0000000000
10
168.9927744482
20
77.9734018133
30
0.0000000000
10
168.8203127390
20
77.9950441213
30
0.0000000000
10
168.7365802964
20
77.9950269250
30
0.0000000000
11
169.7358632551
21
76.9990937829
31
0.0000000000
11
169.7052477770
21
77.2442357063
31
0.0000000000
11
169.6079734902
21
77.4872646672
31
0.0000000000
11
169.4454855956
21
77.7016415546
31
0.0000000000
11
169.2306458141
21
77.8651467083
31
0.0000000000
11
168.9858128149
21
77.9636700761
31
0.0000000000
11
168.7365802964
21
77.9950269250
31
0.0000000000
0
SPLINE
5
3A3
100
AcDbEntity
8
0
100
AcDbSpline
62
9
6
CONTINUOUS
70
0
71
3
72
10
73
6
74
4
42
0.0000001000
43
0.0000001000
44
0.0000000001
12
0.0073109489
22
-0.1001053924
32
0.0000000000
13
0.0987859062
23
-0.0177731340
33
0.0000000000
40
0.0000000000
40
0.0000000000
40
0.0000000000
40
0.0000000000
40
0.4966991252
40
0.8621916811
40
1.0000000000
40
1.0000000000
40
1.0000000000
40
1.0000000000
10
53.5817685988
20
62.4581181309
30
0.0000000000
10
53.5829790461
20
62.4415440439
30
0.0000000000
10
53.5832211871
20
62.4103320634
30
0.0000000000
10
53.5925649415
20
62.3840865162
30
0.0000000000
10
53.5879078618
20
62.3592023911
30
0.0000000000
10
53.5924457017
20
62.3583859625
30
0.0000000000
11
53.5817685988
21
62.4581181309
31
0.0000000000
11
53.5858513231
21
62.4084308968
31
0.0000000000
11
53.5897564456
21
62.3719541171
31
0.0000000000
11
53.5924457017
21
62.3583859625
31
0.0000000000
0
SPLINE
5
3A4
100
AcDbEntity
8
0
100
AcDbSpline
62
9
6
CONTINUOUS
70
0
71
3
72
10
73
6
74
4
42
0.0000001000
43
0.0000001000
44
0.0000000001
12
0.0073109730
22
0.1001060658
32
0.0000000000
13
0.0987867047
23
0.0177724988
33
0.0000000000
40
0.0000000000
40
0.0000000000
40
0.0000000000
40
0.0000000000
40
0.4966986501
40
0.8621915481
40
1.0000000000
40
1.0000000000
40
1.0000000000
40
1.0000000000
10
53.5817686023
20
-59.9916980646
30
0.0000000000
10
53.5829790525
20
-59.9751238820
30
0.0000000000
10
53.5832211837
20
-59.9439116742
30
0.0000000000
10
53.5925650158
20
-59.9176660220
30
0.0000000000
10
53.5879078698
20
-59.8927816242
30
0.0000000000
10
53.5924457508
20
-59.8919652240
30
0.0000000000
11
53.5817686023
21
-59.9916980646
31
0.0000000000
11
53.5858513389
21
-59.9420105438
31
0.0000000000
11
53.5897564817
21
-59.9055334843
31
0.0000000000
11
53.5924457508
21
-59.8919652240
31
0.0000000000
0
SPLINE
5
3A5
100
AcDbEntity
8
0
100
AcDbSpline
62
9
6
CONTINUOUS
70
0
71
3
72
9
73
5
74
3
42
0.0000001000
43
0.0000001000
44
0.0000000001
12
-0.2725468440
22
0.0199348282
32
0.0000000000
13
-0.2594099730
23
0.0864614198
33
0.0000000000
40
0.0000000000
40
0.0000000000
40
0.0000000000
40
0.0000000000
40
0.4992455417
40
1.0000000000
40
1.0000000000
40
1.0000000000
40
1.0000000000
10
53.5924457508
20
-59.8919652240
30
0.0000000000
10
53.5470898185
20
-59.8886477660
30
0.0000000000
10
53.4565534402
20
-59.8763444245
30
0.0000000000
10
53.3682939730
20
-59.8529155569
30
0.0000000000
10
53.3249937395
20
-59.8384835764
30
0.0000000000
11
53.5924457508
21
-59.8919652240
31
0.0000000000
11
53.4572575633
21
-59.8735899951
31
0.0000000000
11
53.3249937395
21
-59.8384835764
31
0.0000000000
0
SPLINE
5
3A6
100
AcDbEntity
8
0
100
AcDbSpline
62
9
6
CONTINUOUS
70
0
71
3
72
17
73
13
74
11
42
0.0000001000
43
0.0000001000
44
0.0000000001
12
-1.3037445975
22
0.4345384555
32
0.0000000000
13
0.0000016809
23
1.3734271314
33
0.0000000000
40
0.0000000000
40
0.0000000000
40
0.0000000000
40
0.0000000000
40
0.0998208900
40
0.1996983064
40
0.2995656451
40
0.3994836956
40
0.4995978040
40
0.5999085354
40
0.7002810086
40
0.8005220708
40
0.9004560668
40
1.0000000000
40
1.0000000000
40
1.0000000000
40
1.0000000000
10
53.3249937395
20
-59.8384835764
30
0.0000000000
10
53.2816134241
20
-59.8240249046
30
0.0000000000
10
53.1966275491
20
-59.7896781061
30
0.0000000000
10
53.0765495337
20
-59.7226907588
30
0.0000000000
10
52.9657050255
20
-59.6412529238
30
0.0000000000
10
52.8657801290
20
-59.5465771130
30
0.0000000000
10
52.7783008419
20
-59.4400298291
30
0.0000000000
10
52.7046947862
20
-59.3232174896
30
0.0000000000
10
52.6462407127
20
-59.1980698808
30
0.0000000000
10
52.6039339976
20
-59.0667593634
30
0.0000000000
10
52.5783964218
20
-58.9315969181
30
0.0000000000
10
52.5727105451
20
-58.8401725435
30
0.0000000000
10
52.5727106008
20
-58.7946004306
30
0.0000000000
11
53.3249937395
21
-59.8384835764
31
0.0000000000
11
53.1978855873
21
-59.7871121065
31
0.0000000000
11
53.0780908234
21
-59.7202838357
31
0.0000000000
11
52.9675560259
21
-59.6390738316
31
0.0000000000
11
52.8679381779
21
-59.5446895026
31
0.0000000000
11
52.7806865587
21
-59.4384198035
31
0.0000000000
11
52.7072396907
21
-59.3218608604
31
0.0000000000
11
52.6489010541
21
-59.1969592775
31
0.0000000000
11
52.6066797621
21
-59.0659194507
31
0.0000000000
11
52.5812019191
21
-58.9310528207
31
0.0000000000
11
52.5727106008
21
-58.7946004306
31
0.0000000000
0
SPLINE
5
3A7
100
AcDbEntity
8
0
100
AcDbSpline
62
7
6
CONTINUOUS
70
0
71
3
72
8
73
4
74
2
42
0.0000001000
43
0.0000001000
44
0.0000000001
12
-1.5999094866
22
-0.0000021000
32
0.0000000000
13
0.0000000000
23
0.0000000000
33
0.0000000000
40
0.0000000000
40
0.0000000000
40
0.0000000000
40
0.0000000000
40
1.0000000000
40
1.0000000000
40
1.0000000000
40
1.0000000000
10
-28.6711005205
20
79.1332099674
30
0.0000000000
10
-29.2044036827
20
79.1332092674
30
0.0000000000
10
-30.2710100069
20
79.1331910915
30
0.0000000000
10
-30.2710100069
20
79.1331910915
30
0.0000000000
11
-28.6711005205
21
79.1332099674
31
0.0000000000
11
-30.2710100069
21
79.1331910915
31
0.0000000000
0
SPLINE
5
3A8
100
AcDbEntity
8
0
100
AcDbSpline
62
7
6
CONTINUOUS
70
0
71
3
72
8
73
4
74
2
42
0.0000001000
43
0.0000001000
44
0.0000000001
12
-1.5999094866
22
0.0000021000
32
0.0000000000
13
0.0000000000
23
-0.0000000000
33
0.0000000000
40
0.0000000000
40
0.0000000000
40
0.0000000000
40
0.0000000000
40
1.0000000000
40
1.0000000000
40
1.0000000000
40
1.0000000000
10
-28.6711005205
20
-76.6667899013
30
0.0000000000
10
-29.2044036827
20
-76.6667892013
30
0.0000000000
10
-30.2710100069
20
-76.6667710253
30
0.0000000000
10
-30.2710100069
20
-76.6667710253
30
0.0000000000
11
-28.6711005205
21
-76.6667899013
31
0.0000000000
11
-30.2710100069
21
-76.6667710253
31
0.0000000000
0
SPLINE
5
3A9
100
AcDbEntity
8
0
100
AcDbSpline
62
7
6
CONTINUOUS
70
0
71
3
72
9
73
5
74
3
42
0.0000001000
43
0.0000001000
44
0.0000000001
12
0.0000000000
22
-0.9977079917
32
0.0000000000
13
-0.0282140045
23
-1.0082975462
33
0.0000000000
40
0.0000000000
40
0.0000000000
40
0.0000000000
40
0.0000000000
40
0.5834548804
40
1.0000000000
40
1.0000000000
40
1.0000000000
40
1.0000000000
10
-28.5710437275
20
-74.7746302943
30
0.0000000000
10
-28.5710437275
20
-74.9686694933
30
0.0000000000
10
-28.5725009086
20
-75.3040269903
30
0.0000000000
10
-28.5833436016
20
-75.6297665821
30
0.0000000000
10
-28.5872610703
20
-75.7697670561
30
0.0000000000
11
-28.5710437275
21
-74.7746302943
31
0.0000000000
11
-28.5759391385
21
-75.3567273065
31
0.0000000000
11
-28.5872610703
21
-75.7697670561
31
0.0000000000
0
SPLINE
5
3AA
100
AcDbEntity
8
0
100
AcDbSpline
62
7
6
CONTINUOUS
70
0
71
3
72
11
73
7
74
5
42
0.0000001000
43
0.0000001000
44
0.0000000001
12
-0.0254977755
22
-0.9112263546
32
0.0000000000
13
-0.9016562815
23
0.0000011832
33
0.0000000000
40
0.0000000000
40
0.0000000000
40
0.0000000000
40
0.0000000000
40
0.1281357284
40
0.5916018040
40
0.8923912564
40
1.0000000000
40
1.0000000000
40
1.0000000000
40
1.0000000000
10
-28.5872610703
20
-75.7697670561
30
0.0000000000
10
-28.5883501289
20
-75.8086872737
30
0.0000000000
10
-28.5931645688
20
-75.9899214271
30
0.0000000000
10
-28.5973994251
20
-76.2781585217
30
0.0000000000
10
-28.6460170633
20
-76.4798975525
30
0.0000000000
10
-28.6387584873
20
-76.6667899437
30
0.0000000000
10
-28.6711005205
20
-76.6667899013
30
0.0000000000
11
-28.5872610703
21
-75.7697670561
31
0.0000000000
11
-28.5903415082
21
-75.8876567771
31
0.0000000000
11
-28.6125102850
21
-76.3049554379
31
0.0000000000
11
-28.6404985793
21
-76.5747160982
31
0.0000000000
11
-28.6711005205
21
-76.6667899013
31
0.0000000000
0
SPLINE
5
3AB
100
AcDbEntity
8
0
100
AcDbSpline
62
7
6
CONTINUOUS
70
0
71
3
72
11
73
7
74
5
42
0.0000001000
43
0.0000001000
44
0.0000000001
12
0.9501194632
22
0.0000012468
32
0.0000000000
13
0.0276186689
23
-0.9538593937
33
0.0000000000
40
0.0000000000
40
0.0000000000
40
0.0000000000
40
0.0000000000
40
0.1021198948
40
0.3875668408
40
0.8273926886
40
1.0000000000
40
1.0000000000
40
1.0000000000
40
1.0000000000
10
-28.6711005205
20
79.1332099674
30
0.0000000000
10
-28.6387584873
20
79.1332100098
30
0.0000000000
10
-28.6460170633
20
78.9463176186
30
0.0000000000
10
-28.5973994251
20
78.7445785879
30
0.0000000000
10
-28.5929095018
20
78.4389808635
30
0.0000000000
10
-28.5874587456
20
78.2422571470
30
0.0000000000
10
-28.5858696842
20
78.1873761118
30
0.0000000000
11
-28.6711005205
21
79.1332099674
31
0.0000000000
11
-28.6404985793
21
79.0411361644
31
0.0000000000
11
-28.6125102850
21
78.7713755041
31
0.0000000000
11
-28.5903415082
21
78.3540768433
31
0.0000000000
11
-28.5858696842
21
78.1873761118
31
0.0000000000
0
SPLINE
5
3AC
100
AcDbEntity
8
0
100
AcDbSpline
62
7
6
CONTINUOUS
70
0
71
3
72
9
73
5
74
3
42
0.0000001000
43
0.0000001000
44
0.0000000001
12
0.0275932440
22
-0.9529812977
32
0.0000000000
13
0.0000000000
23
-0.9492448100
33
0.0000000000
40
0.0000000000
40
0.0000000000
40
0.0000000000
40
0.0000000000
40
0.3867571454
40
1.0000000000
40
1.0000000000
40
1.0000000000
40
1.0000000000
10
-28.5858696842
20
78.1873761118
30
0.0000000000
10
-28.5823123895
20
78.0645186697
30
0.0000000000
10
-28.5724301267
20
77.7541572288
30
0.0000000000
10
-28.5710437275
20
77.4350895594
30
0.0000000000
10
-28.5710437275
20
77.2410503604
30
0.0000000000
11
-28.5858696842
21
78.1873761118
31
0.0000000000
11
-28.5759391385
21
77.8231473727
31
0.0000000000
11
-28.5710437275
21
77.2410503604
31
0.0000000000
0
SPLINE
5
3AD
100
AcDbEntity
8
0
100
AcDbSpline
62
7
6
CONTINUOUS
70
0
71
3
72
8
73
4
74
2
42
0.0000001000
43
0.0000001000
44
0.0000000001
12
-1.5699000327
22
0.0009912870
32
0.0000000000
13
0.0000000000
23
0.0000000027
33
0.0000000000
40
0.0000000000
40
0.0000000000
40
0.0000000000
40
0.0000000000
40
1.0000000000
40
1.0000000000
40
1.0000000000
40
1.0000000000
10
-33.2519686652
20
78.8937901971
30
0.0000000000
10
-33.7752686761
20
78.8941206261
30
0.0000000000
10
-34.8218687090
20
78.8947636242
30
0.0000000000
10
-34.8218687090
20
78.8947636251
30
0.0000000000
11
-33.2519686652
21
78.8937901971
31
0.0000000000
11
-34.8218687090
21
78.8947636251
31
0.0000000000
0
SPLINE
5
3AE
100
AcDbEntity
8
0
100
AcDbSpline
62
9
6
CONTINUOUS
70
0
71
3
72
8
73
4
74
2
42
0.0000001000
43
0.0000001000
44
0.0000000001
12
-0.0682824425
22
0.1459194756
32
0.0000000000
13
-0.0000000015
23
-0.0000000008
33
0.0000000000
40
0.0000000000
40
0.0000000000
40
0.0000000000
40
0.0000000000
40
1.0000000000
40
1.0000000000
40
1.0000000000
40
1.0000000000
10
-35.7477125691
20
63.8776220699
30
0.0000000000
10
-35.7704733833
20
63.9262618951
30
0.0000000000
10
-35.7834836488
20
63.9540629607
30
0.0000000000
10
-35.7834836494
20
63.9540629605
30
0.0000000000
11
-35.7477125691
21
63.8776220699
31
0.0000000000
11
-35.7834836494
21
63.9540629605
31
0.0000000000
0
SPLINE
5
3AF
100
AcDbEntity
8
0
100
AcDbSpline
62
9
6
CONTINUOUS
70
0
71
3
72
8
73
4
74
2
42
0.0000001000
43
0.0000001000
44
0.0000000001
12
-0.0055997492
22
0.0119667264
32
0.0000000000
13
-0.0052573935
23
0.0112350420
33
0.0000000000
40
0.0000000000
40
0.0000000000
40
0.0000000000
40
0.0000000000
40
1.0000000000
40
1.0000000000
40
1.0000000000
40
1.0000000000
10
-35.7422832538
20
63.8660195968
30
0.0000000000
10
-35.7441498369
20
63.8700085056
30
0.0000000000
10
-35.7459601046
20
63.8738770559
30
0.0000000000
10
-35.7477125691
20
63.8776220699
30
0.0000000000
11
-35.7422832538
21
63.8660195968
31
0.0000000000
11
-35.7477125691
21
63.8776220699
31
0.0000000000
0
SPLINE
5
3B0
100
AcDbEntity
8
0
100
AcDbSpline
62
9
6
CONTINUOUS
70
0
71
3
72
8
73
4
74
2
42
0.0000001000
43
0.0000001000
44
0.0000000001
12
-0.1414956749
22
0.3024097673
32
0.0000000000
13
-0.0824682221
23
0.1762355097
33
0.0000000000
40
0.0000000000
40
0.0000000000
40
0.0000000000
40
0.0000000000
40
1.0000000000
40
1.0000000000
40
1.0000000000
40
1.0000000000
10
-35.6279250761
20
63.6216216593
30
0.0000000000
10
-35.6750903011
20
63.7224249151
30
0.0000000000
10
-35.7147938464
20
63.8072744269
30
0.0000000000
10
-35.7422832538
20
63.8660195968
30
0.0000000000
11
-35.6279250761
21
63.6216216593
31
0.0000000000
11
-35.7422832538
21
63.8660195968
31
0.0000000000
0
SPLINE
5
3B1
100
AcDbEntity
8
0
100
AcDbSpline
62
9
6
CONTINUOUS
70
0
71
3
72
8
73
4
74
2
42
0.0000001000
43
0.0000001000
44
0.0000000001
12
-0.4410928690
22
0.9438688838
32
0.0000000000
13
-0.4714661767
23
1.0076348755
33
0.0000000000
40
0.0000000000
40
0.0000000000
40
0.0000000000
40
0.0000000000
40
1.0000000000
40
1.0000000000
40
1.0000000000
40
1.0000000000
10
-35.0837411870
20
62.4581181308
30
0.0000000000
10
-35.2307721433
20
62.7727410921
30
0.0000000000
10
-35.4707696839
20
63.2857433675
30
0.0000000000
10
-35.6279250761
20
63.6216216593
30
0.0000000000
11
-35.0837411870
21
62.4581181308
31
0.0000000000
11
-35.6279250761
21
63.6216216593
31
0.0000000000
0
SPLINE
5
3B2
100
AcDbEntity
8
0
100
AcDbSpline
62
9
6
CONTINUOUS
70
0
71
3
72
8
73
4
74
2
42
0.0000001000
43
0.0000001000
44
0.0000000001
12
-1.5699000597
22
-0.0009912870
32
0.0000000000
13
0.0000000000
23
-0.0000000027
33
0.0000000000
40
0.0000000000
40
0.0000000000
40
0.0000000000
40
0.0000000000
40
1.0000000000
40
1.0000000000
40
1.0000000000
40
1.0000000000
10
-33.2519686647
20
-76.4273701309
30
0.0000000000
10
-33.7752686846
20
-76.4277005599
30
0.0000000000
10
-34.8218687364
20
-76.4283435581
30
0.0000000000
10
-34.8218687364
20
-76.4283435590
30
0.0000000000
11
-33.2519686647
21
-76.4273701309
31
0.0000000000
11
-34.8218687364
21
-76.4283435590
31
0.0000000000
0
SPLINE
5
3B3
100
AcDbEntity
8
0
100
AcDbSpline
62
9
6
CONTINUOUS
70
0
71
3
72
13
73
9
74
7
42
0.0000001000
43
0.0000001000
44
0.0000000001
12
0.0000014908
22
0.9998433755
32
0.0000000000
13
-0.9998353382
23
-0.0040090044
33
0.0000000000
40
0.0000000000
40
0.0000000000
40
0.0000000000
40
0.0000000000
40
0.2451854851
40
0.4883049644
40
0.7028806743
40
0.8667878523
40
0.9661302158
40
1.0000000000
40
1.0000000000
40
1.0000000000
40
1.0000000000
10
-34.0521339832
20
76.9990937829
30
0.0000000000
10
-34.0521338614
20
77.0808094773
30
0.0000000000
10
-34.0532756521
20
77.2431893515
30
0.0000000000
10
-34.0574542188
20
77.4789752897
30
0.0000000000
10
-34.0666826006
20
77.6813067679
30
0.0000000000
10
-34.0728205874
20
77.8519303278
30
0.0000000000
10
-34.0901509621
20
77.9293824571
30
0.0000000000
10
-34.0924001719
20
77.9950721863
30
0.0000000000
10
-34.1036882410
20
77.9950269250
30
0.0000000000
11
-34.0521339832
21
76.9990937829
31
0.0000000000
11
-34.0537245019
21
77.2442357063
31
0.0000000000
11
-34.0587734166
21
77.4872646672
31
0.0000000000
11
-34.0671914759
21
77.7016415546
31
0.0000000000
11
-34.0782916006
21
77.8651467083
31
0.0000000000
11
-34.0908995355
21
77.9636700761
31
0.0000000000
11
-34.1036882410
21
77.9950269250
31
0.0000000000
0
SPLINE
5
3B4
100
AcDbEntity
8
0
100
AcDbSpline
62
9
6
CONTINUOUS
70
0
71
3
72
13
73
9
74
7
42
0.0000001000
43
0.0000001000
44
0.0000000001
12
-0.0468404341
22
1.8947876233
32
0.0000000000
13
-1.3435876519
23
1.3368569053
33
0.0000000000
40
0.0000000000
40
0.0000000000
40
0.0000000000
40
0.0000000000
40
0.2450258587
40
0.4883331775
40
0.7035433019
40
0.8681799286
40
0.9677670691
40
1.0000000000
40
1.0000000000
40
1.0000000000
40
1.0000000000
10
-33.2004489867
20
76.9990937829
30
0.0000000000
10
-33.2042746926
20
77.1538511044
30
0.0000000000
10
-33.2125176990
20
77.4620279016
30
0.0000000000
10
-33.2215634723
20
77.9074509153
30
0.0000000000
10
-33.2391983808
20
78.2977639186
30
0.0000000000
10
-33.2298063286
20
78.6086069752
30
0.0000000000
10
-33.2673429715
20
78.7813550164
30
0.0000000000
10
-33.2375305958
20
78.8793856349
30
0.0000000000
10
-33.2519665184
20
78.8937492403
30
0.0000000000
11
-33.2004489867
21
76.9990937829
31
0.0000000000
11
-33.2120521737
21
77.4633626137
31
0.0000000000
11
-33.2239184205
21
77.9243664612
31
0.0000000000
11
-33.2347903519
21
78.3321236091
31
0.0000000000
11
-33.2435306163
21
78.6440479265
31
0.0000000000
11
-33.2493296974
21
78.8327129529
31
0.0000000000
11
-33.2519665184
21
78.8937492403
31
0.0000000000
0
SPLINE
5
3B5
100
AcDbEntity
8
0
100
AcDbSpline
62
9
6
CONTINUOUS
70
0
71
3
72
11
73
7
74
5
42
0.0000001000
43
0.0000001000
44
0.0000000001
12
0.0000022354
22
1.3574832571
32
0.0000000000
13
1.3556129991
23
0.0712333482
33
0.0000000000
40
0.0000000000
40
0.0000000000
40
0.0000000000
40
0.0000000000
40
0.2501462264
40
0.5002090714
40
0.7501507453
40
1.0000000000
40
1.0000000000
40
1.0000000000
40
1.0000000000
10
-34.1036881972
20
77.9950269250
30
0.0000000000
10
-34.1036880108
20
78.1082166963
30
0.0000000000
10
-34.0600389209
20
78.3368703743
30
0.0000000000
10
-33.8726925605
20
78.6294369066
30
0.0000000000
10
-33.5907282244
20
78.8321831820
30
0.0000000000
10
-33.3648682977
20
78.8878576641
30
0.0000000000
10
-33.2519686652
20
78.8937901971
30
0.0000000000
11
-34.1036881972
21
77.9950269250
31
0.0000000000
11
-34.0397059704
21
78.3285139469
31
0.0000000000
11
-33.8568694028
21
78.6145231261
31
0.0000000000
11
-33.5812085500
21
78.8123359404
31
0.0000000000
11
-33.2519686652
21
78.8937901971
31
0.0000000000
0
SPLINE
5
3B6
100
AcDbEntity
8
0
100
AcDbSpline
62
9
6
CONTINUOUS
70
0
71
3
72
13
73
9
74
7
42
0.0000001000
43
0.0000001000
44
0.0000000001
12
0.9998354655
22
-0.0039799060
32
0.0000000000
13
-0.0000013804
23
0.9998433866
33
0.0000000000
40
0.0000000000
40
0.0000000000
40
0.0000000000
40
0.0000000000
40
0.0338696284
40
0.1332122384
40
0.2971193352
40
0.5116950101
40
0.7548145312
40
1.0000000000
40
1.0000000000
40
1.0000000000
40
1.0000000000
10
-34.1036882410
20
-75.5286068588
30
0.0000000000
10
-34.0924002224
20
-75.5286517914
30
0.0000000000
10
-34.0901508600
20
-75.4629628873
30
0.0000000000
10
-34.0728206777
20
-75.3855099799
30
0.0000000000
10
-34.0666825630
20
-75.2148868194
30
0.0000000000
10
-34.0574542249
20
-75.0125551833
30
0.0000000000
10
-34.0532756516
20
-74.7767693049
30
0.0000000000
10
-34.0521338704
20
-74.6143894066
30
0.0000000000
10
-34.0521339832
20
-74.5326737167
30
0.0000000000
11
-34.1036882410
21
-75.5286068588
31
0.0000000000
11
-34.0908995333
21
-75.4972501786
31
0.0000000000
11
-34.0782916030
21
-75.3987265607
31
0.0000000000
11
-34.0671914760
21
-75.2352214867
31
0.0000000000
11
-34.0587734137
21
-75.0208446322
31
0.0000000000
11
-34.0537245047
21
-74.7778156265
31
0.0000000000
11
-34.0521339832
21
-74.5326737167
31
0.0000000000
0
SPLINE
5
3B7
100
AcDbEntity
8
0
100
AcDbSpline
62
9
6
CONTINUOUS
70
0
71
3
72
13
73
9
74
7
42
0.0000001000
43
0.0000001000
44
0.0000000001
12
1.3439299703
22
1.3365123192
32
0.0000000000
13
0.0468411732
23
1.8947872833
33
0.0000000000
40
0.0000000000
40
0.0000000000
40
0.0000000000
40
0.0000000000
40
0.0322330874
40
0.1318205236
40
0.2964572357
40
0.5116670273
40
0.7549743796
40
1.0000000000
40
1.0000000000
40
1.0000000000
40
1.0000000000
10
-33.2519665016
20
-76.4273288528
30
0.0000000000
10
-33.2375268308
20
-76.4129688800
30
0.0000000000
10
-33.2673484240
20
-76.3149287632
30
0.0000000000
10
-33.2298028700
20
-76.1421894059
30
0.0000000000
10
-33.2391998246
20
-75.8313413835
30
0.0000000000
10
-33.2215629281
20
-75.4410305880
30
0.0000000000
10
-33.2125177966
20
-74.9956073232
30
0.0000000000
10
-33.2042747456
20
-74.6874308600
30
0.0000000000
10
-33.2004489831
20
-74.5326737167
30
0.0000000000
11
-33.2519665016
21
-76.4273288528
31
0.0000000000
11
-33.2493296634
21
-76.3662922795
31
0.0000000000
11
-33.2435305994
21
-76.1776267240
31
0.0000000000
11
-33.2347903232
21
-75.8657022979
31
0.0000000000
11
-33.2239183871
21
-75.4579458504
31
0.0000000000
11
-33.2120521446
21
-74.9969420176
31
0.0000000000
11
-33.2004489831
21
-74.5326737167
31
0.0000000000
0
SPLINE
5
3B8
100
AcDbEntity
8
0
100
AcDbSpline
62
9
6
CONTINUOUS
70
0
71
3
72
11
73
7
74
5
42
0.0000001000
43
0.0000001000
44
0.0000000001
12
0.0000398738
22
-1.3574480080
32
0.0000000000
13
1.3555780394
23
-0.0712269275
33
0.0000000000
40
0.0000000000
40
0.0000000000
40
0.0000000000
40
0.0000000000
40
0.2501441882
40
0.5002061562
40
0.7501486432
40
1.0000000000
40
1.0000000000
40
1.0000000000
40
1.0000000000
10
-34.1036881988
20
-75.5286068588
30
0.0000000000
10
-34.1036848740
20
-75.6417927688
30
0.0000000000
10
-34.0600306600
20
-75.8704379497
30
0.0000000000
10
-33.8726816365
20
-76.1629907471
30
0.0000000000
10
-33.5907197048
20
-76.3657259021
30
0.0000000000
10
-33.3648641724
20
-76.4213968047
30
0.0000000000
10
-33.2519665016
20
-76.4273288528
30
0.0000000000
11
-34.1036881988
21
-75.5286068588
31
0.0000000000
11
-34.0396988362
21
-75.8620807162
31
0.0000000000
11
-33.8568600695
21
-76.1480766151
31
0.0000000000
11
-33.5812014090
21
-76.3458792663
31
0.0000000000
11
-33.2519665016
21
-76.4273288528
31
0.0000000000
0
SPLINE
5
3B9
100
AcDbEntity
8
0
100
AcDbSpline
62
9
6
CONTINUOUS
70
0
71
3
72
8
73
4
74
2
42
0.0000001000
43
0.0000001000
44
0.0000000001
12
-0.0001078915
22
0.0432296967
32
0.0000000000
13
0.0184550088
23
0.0397922651
33
0.0000000000
40
0.0000000000
40
0.0000000000
40
0.0000000000
40
0.0000000000
40
1.0000000000
40
1.0000000000
40
1.0000000000
40
1.0000000000
10
-35.0837411515
20
-59.9916980647
30
0.0000000000
10
-35.0837771153
20
-59.9772881658
30
0.0000000000
10
-35.0805277188
20
-59.9626365491
30
0.0000000000
10
-35.0743760492
20
-59.9493724608
30
0.0000000000
11
-35.0837411515
21
-59.9916980647
31
0.0000000000
11
-35.0743760492
21
-59.9493724608
31
0.0000000000
0
SPLINE
5
3BA
100
AcDbEntity
8
0
100
AcDbSpline
62
9
6
CONTINUOUS
70
0
71
3
72
8
73
4
74
2
42
0.0000001000
43
0.0000001000
44
0.0000000001
12
-0.4411062890
22
-0.9438976003
32
0.0000000000
13
-0.4714771403
23
-1.0076582751
33
0.0000000000
40
0.0000000000
40
0.0000000000
40
0.0000000000
40
0.0000000000
40
1.0000000000
40
1.0000000000
40
1.0000000000
40
1.0000000000
10
-35.0837411870
20
-59.9916980647
30
0.0000000000
10
-35.2307766167
20
-60.3063305981
30
0.0000000000
10
-35.4707820985
20
-60.8193498325
30
0.0000000000
10
-35.6279411453
20
-61.1552359242
30
0.0000000000
11
-35.0837411870
21
-59.9916980647
31
0.0000000000
11
-35.6279411453
21
-61.1552359242
31
0.0000000000
0
SPLINE
5
3BB
100
AcDbEntity
8
0
100
AcDbSpline
62
9
6
CONTINUOUS
70
0
71
3
72
8
73
4
74
2
42
0.0000001000
43
0.0000001000
44
0.0000000001
12
-0.2758901858
22
-0.5896426464
32
0.0000000000
13
-0.0000000034
23
0.0000000016
33
0.0000000000
40
0.0000000000
40
0.0000000000
40
0.0000000000
40
0.0000000000
40
1.0000000000
40
1.0000000000
40
1.0000000000
40
1.0000000000
10
-35.6279411453
20
-61.1552359242
30
0.0000000000
10
-35.7199045405
20
-61.3517834730
30
0.0000000000
10
-35.7835001756
20
-61.4876781945
30
0.0000000000
10
-35.7835001767
20
-61.4876781940
30
0.0000000000
11
-35.6279411453
21
-61.1552359242
31
0.0000000000
11
-35.7835001767
21
-61.4876781940
31
0.0000000000
0
SPLINE
5
3BC
100
AcDbEntity
8
0
100
AcDbSpline
62
9
6
CONTINUOUS
70
0
71
3
72
12
73
8
74
6
42
0.0000001000
43
0.0000001000
44
0.0000000001
12
0.0000002515
22
-0.6176641653
32
0.0000000000
13
-0.0129186299
23
-0.6175285468
33
0.0000000000
40
0.0000000000
40
0.0000000000
40
0.0000000000
40
0.0000000000
40
0.2409323694
40
0.4788633655
40
0.7097865173
40
0.9297794836
40
1.0000000000
40
1.0000000000
40
1.0000000000
40
1.0000000000
10
-35.0452691709
20
-58.7946004307
30
0.0000000000
10
-35.0452691507
20
-58.8442055277
30
0.0000000000
10
-35.0454823035
20
-58.9427979082
30
0.0000000000
10
-35.0464398816
20
-59.0889318191
30
0.0000000000
10
-35.0480220875
20
-59.2307488713
30
0.0000000000
10
-35.0497521977
20
-59.3380313736
30
0.0000000000
10
-35.0509424328
20
-59.3977709487
30
0.0000000000
10
-35.0512448171
20
-59.4122253399
30
0.0000000000
11
-35.0452691709
21
-58.7946004307
31
0.0000000000
11
-35.0455932217
21
-58.9434153687
31
0.0000000000
11
-35.0465637747
21
-59.0903736140
31
0.0000000000
11
-35.0481681719
21
-59.2329975460
31
0.0000000000
11
-35.0503797263
21
-59.3688613196
31
0.0000000000
11
-35.0512448171
21
-59.4122253399
31
0.0000000000
0
SPLINE
5
3BD
100
AcDbEntity
8
0
100
AcDbSpline
62
9
6
CONTINUOUS
70
0
71
3
72
14
73
10
74
8
42
0.0000001000
43
0.0000001000
44
0.0000000001
12
-0.0113200060
22
-0.5411120935
32
0.0000000000
13
-0.0696017824
23
-0.5359329061
33
0.0000000000
40
0.0000000000
40
0.0000000000
40
0.0000000000
40
0.0000000000
40
0.1543627997
40
0.3687841093
40
0.5600140948
40
0.7249200578
40
0.8606246054
40
0.9650091986
40
1.0000000000
40
1.0000000000
40
1.0000000000
40
1.0000000000
10
-35.0512448171
20
-59.4122253399
30
0.0000000000
10
-35.0518272797
20
-59.4400678658
30
0.0000000000
10
-35.0533464116
20
-59.5065831283
30
0.0000000000
10
-35.0561853566
20
-59.6075782351
30
0.0000000000
10
-35.0598983108
20
-59.7104404249
30
0.0000000000
10
-35.0639534312
20
-59.7991020290
30
0.0000000000
10
-35.0684214898
20
-59.8719816562
30
0.0000000000
10
-35.0722480802
20
-59.9215793396
30
0.0000000000
10
-35.0752316740
20
-59.9464315773
30
0.0000000000
10
-35.0760434813
20
-59.9526824846
30
0.0000000000
11
-35.0512448171
21
-59.4122253399
31
0.0000000000
11
-35.0531604017
21
-59.4957494731
31
0.0000000000
11
-35.0564659258
21
-59.6117538322
31
0.0000000000
11
-35.0602479962
21
-59.7151842899
31
0.0000000000
11
-35.0644463630
21
-59.8043376987
31
0.0000000000
11
-35.0689878113
21
-59.8776446580
31
0.0000000000
11
-35.0737994353
21
-59.9339355591
31
0.0000000000
11
-35.0760434813
21
-59.9526824846
31
0.0000000000
0
SPLINE
5
3BE
100
AcDbEntity
8
0
100
AcDbSpline
62
9
6
CONTINUOUS
70
0
71
3
72
9
73
5
74
3
42
0.0000001000
43
0.0000001000
44
0.0000000001
12
-0.0044456514
22
-0.0342314632
32
0.0000000000
13
-0.0106326247
23
-0.0327995750
33
0.0000000000
40
0.0000000000
40
0.0000000000
40
0.0000000000
40
0.0000000000
40
0.5440526496
40
1.0000000000
40
1.0000000000
40
1.0000000000
40
1.0000000000
10
-35.0760434813
20
-59.9526824846
30
0.0000000000
10
-35.0768497041
20
-59.9588903907
30
0.0000000000
10
-35.0784453684
20
-59.9703219882
30
0.0000000000
10
-35.0802399533
20
-59.9818888076
30
0.0000000000
10
-35.0818559256
20
-59.9868737674
30
0.0000000000
11
-35.0760434813
21
-59.9526824846
31
0.0000000000
11
-35.0786448341
21
-59.9713691973
31
0.0000000000
11
-35.0818559256
21
-59.9868737674
31
0.0000000000
0
SPLINE
5
3BF
100
AcDbEntity
8
0
100
AcDbSpline
62
9
6
CONTINUOUS
70
0
71
3
72
8
73
4
74
2
42
0.0000001000
43
0.0000001000
44
0.0000000001
12
-0.0015981027
22
-0.0049298355
32
0.0000000000
13
-0.0021995152
23
-0.0047074031
33
0.0000000000
40
0.0000000000
40
0.0000000000
40
0.0000000000
40
0.0000000000
40
1.0000000000
40
1.0000000000
40
1.0000000000
40
1.0000000000
10
-35.0818559256
20
-59.9868737674
30
0.0000000000
10
-35.0823886265
20
-59.9885170459
30
0.0000000000
10
-35.0830080153
20
-59.9901289303
30
0.0000000000
10
-35.0837411870
20
-59.9916980647
30
0.0000000000
11
-35.0818559256
21
-59.9868737674
31
0.0000000000
11
-35.0837411870
21
-59.9916980647
31
0.0000000000
0
SPLINE
5
3C0
100
AcDbEntity
8
0
100
AcDbSpline
62
9
6
CONTINUOUS
70
0
71
3
72
9
73
5
74
3
42
0.0000001000
43
0.0000001000
44
0.0000000001
12
0.0168156475
22
-0.0359862492
32
0.0000000000
13
0.0051072780
23
-0.0393348396
33
0.0000000000
40
0.0000000000
40
0.0000000000
40
0.0000000000
40
0.0000000000
40
0.5202783040
40
1.0000000000
40
1.0000000000
40
1.0000000000
40
1.0000000000
10
-35.0837411870
20
62.4581181308
30
0.0000000000
10
-35.0808249148
20
62.4518771759
30
0.0000000000
10
-35.0787037684
20
62.4385711716
30
0.0000000000
10
-35.0768653973
20
62.4254359910
30
0.0000000000
10
-35.0760487066
20
62.4191460656
30
0.0000000000
11
-35.0837411870
21
62.4581181308
31
0.0000000000
11
-35.0786942862
21
62.4380777654
31
0.0000000000
11
-35.0760487066
21
62.4191460656
31
0.0000000000
0
SPLINE
5
3C1
100
AcDbEntity
8
0
100
AcDbSpline
62
9
6
CONTINUOUS
70
0
71
3
72
11
73
7
74
5
42
0.0000001000
43
0.0000001000
44
0.0000000001
12
0.0265272383
22
-0.2043054370
32
0.0000000000
13
0.0092721921
23
-0.2061249592
33
0.0000000000
40
0.0000000000
40
0.0000000000
40
0.0000000000
40
0.0000000000
40
0.0947725117
40
0.3673457298
40
0.7213557809
40
1.0000000000
40
1.0000000000
40
1.0000000000
40
1.0000000000
10
-35.0760487066
20
62.4191460656
30
0.0000000000
10
-35.0752106890
20
62.4126918858
30
0.0000000000
10
-35.0722286226
20
62.3877211167
30
0.0000000000
10
-35.0684030387
20
62.3381445917
30
0.0000000000
10
-35.0646001106
20
62.2760485212
30
0.0000000000
10
-35.0624799994
20
62.2325901517
30
0.0000000000
10
-35.0616187851
20
62.2134449756
30
0.0000000000
11
-35.0760487066
21
62.4191460656
31
0.0000000000
11
-35.0737408038
21
62.3997889800
31
0.0000000000
11
-35.0689656223
21
62.3437568659
31
0.0000000000
11
-35.0644518580
21
62.2708598312
31
0.0000000000
11
-35.0616187851
21
62.2134449756
31
0.0000000000
0
SPLINE
5
3C2
100
AcDbEntity
8
0
100
AcDbSpline
62
9
6
CONTINUOUS
70
0
71
3
72
11
73
7
74
5
42
0.0000001000
43
0.0000001000
44
0.0000000001
12
0.0150086355
22
-0.3336486516
32
0.0000000000
13
0.0070001078
23
-0.3338783509
33
0.0000000000
40
0.0000000000
40
0.0000000000
40
0.0000000000
40
0.0000000000
40
0.0934367365
40
0.4019965802
40
0.7493354550
40
1.0000000000
40
1.0000000000
40
1.0000000000
40
1.0000000000
10
-35.0616187851
20
62.2134449756
30
0.0000000000
10
-35.0611513325
20
62.2030532952
30
0.0000000000
10
-35.0592321652
20
62.1583390383
30
0.0000000000
10
-35.0562171965
20
62.0749836592
30
0.0000000000
10
-35.0533743826
20
61.9741048576
30
0.0000000000
10
-35.0518508805
20
61.9075539962
30
0.0000000000
10
-35.0512659876
20
61.8796568412
30
0.0000000000
11
-35.0616187851
21
62.2134449756
31
0.0000000000
11
-35.0602754825
21
62.1822670890
31
0.0000000000
11
-35.0565020832
21
62.0792920310
31
0.0000000000
11
-35.0531898896
21
61.9633448252
31
0.0000000000
11
-35.0512659876
21
61.8796568412
31
0.0000000000
0
SPLINE
5
3C3
100
AcDbEntity
8
0
100
AcDbSpline
62
9
6
CONTINUOUS
70
0
71
3
72
12
73
8
74
6
42
0.0000001000
43
0.0000001000
44
0.0000000001
12
0.0129683238
22
-0.6185394126
32
0.0000000000
13
-0.0000003089
23
-0.6186758166
33
0.0000000000
40
0.0000000000
40
0.0000000000
40
0.0000000000
40
0.0000000000
40
0.0702893243
40
0.2905607763
40
0.5216275954
40
0.7594224729
40
1.0000000000
40
1.0000000000
40
1.0000000000
40
1.0000000000
10
-35.0512659876
20
61.8796568412
30
0.0000000000
10
-35.0509621427
20
61.8651646021
30
0.0000000000
10
-35.0497660337
20
61.8052556206
30
0.0000000000
10
-35.0480286187
20
61.6976962127
30
0.0000000000
10
-35.0464415971
20
61.5555879129
30
0.0000000000
10
-35.0454824565
20
61.4092862759
30
0.0000000000
10
-35.0452691462
20
61.3106336628
30
0.0000000000
10
-35.0452691709
20
61.2610204968
30
0.0000000000
11
-35.0512659876
21
61.8796568412
31
0.0000000000
11
-35.0503968046
21
61.8361792692
31
0.0000000000
11
-35.0481750690
21
61.6999207606
31
0.0000000000
11
-35.0465653817
21
61.5569743705
31
0.0000000000
11
-35.0455933203
21
61.4098596419
31
0.0000000000
11
-35.0452691709
21
61.2610204968
31
0.0000000000
0
SPLINE
5
3C4
100
AcDbEntity
8
0
100
AcDbSpline
62
9
6
CONTINUOUS
70
0
71
3
72
8
73
4
74
2
42
0.0000001000
43
0.0000001000
44
0.0000000001
12
-0.0001082122
22
-0.0432297170
32
0.0000000000
13
0.0184547360
23
-0.0397924220
33
0.0000000000
40
0.0000000000
40
0.0000000000
40
0.0000000000
40
0.0000000000
40
1.0000000000
40
1.0000000000
40
1.0000000000
40
1.0000000000
10
-35.0837410528
20
62.4581181308
30
0.0000000000
10
-35.0837771235
20
62.4437082251
30
0.0000000000
10
-35.0805278317
20
62.4290565760
30
0.0000000000
10
-35.0743762531
20
62.4157924353
30
0.0000000000
11
-35.0837410528
21
62.4581181308
31
0.0000000000
11
-35.0743762531
21
62.4157924353
31
0.0000000000
0
SPLINE
5
3C5
100
AcDbEntity
8
0
100
AcDbSpline
62
7
6
CONTINUOUS
70
0
71
3
72
9
73
5
74
3
42
0.0000001000
43
0.0000001000
44
0.0000000001
12
2.1156691299
22
-0.1111793211
32
0.0000000000
13
2.1156691553
23
-0.1111788376
33
0.0000000000
40
0.0000000000
40
0.0000000000
40
0.0000000000
40
0.0000000000
40
0.4792871185
40
1.0000000000
40
1.0000000000
40
1.0000000000
40
1.0000000000
10
-28.5860276426
20
78.2286043623
30
0.0000000000
10
-28.2480233222
20
78.2108420902
30
0.0000000000
10
-27.5428002769
20
78.1737823555
30
0.0000000000
10
-26.8375772273
20
78.1367227007
30
0.0000000000
10
-26.4703584999
20
78.1174252831
30
0.0000000000
11
-28.5860276426
21
78.2286043623
31
0.0000000000
11
-27.5720146786
21
78.1753176016
31
0.0000000000
11
-26.4703584999
21
78.1174252831
31
0.0000000000
0
SPLINE
5
3C6
100
AcDbEntity
8
0
100
AcDbSpline
62
7
6
CONTINUOUS
70
0
71
3
72
9
73
5
74
3
42
0.0000001000
43
0.0000001000
44
0.0000000001
12
-2.1156691553
22
-0.1111788376
32
0.0000000000
13
-2.1156691299
23
-0.1111793211
33
0.0000000000
40
0.0000000000
40
0.0000000000
40
0.0000000000
40
0.0000000000
40
0.5207128815
40
1.0000000000
40
1.0000000000
40
1.0000000000
40
1.0000000000
10
-26.4703584999
20
-75.6510052169
30
0.0000000000
10
-26.8375772273
20
-75.6703026346
30
0.0000000000
10
-27.5428002769
20
-75.7073622893
30
0.0000000000
10
-28.2480233222
20
-75.7444220240
30
0.0000000000
10
-28.5860276426
20
-75.7621842962
30
0.0000000000
11
-26.4703584999
21
-75.6510052169
31
0.0000000000
11
-27.5720146786
21
-75.7088975355
31
0.0000000000
11
-28.5860276426
21
-75.7621842962
31
0.0000000000
0
SPLINE
5
3C7
100
AcDbEntity
8
0
100
AcDbSpline
62
7
6
CONTINUOUS
70
0
71
3
72
8
73
4
74
2
42
0.0000001000
43
0.0000001000
44
0.0000000001
12
-0.0000893041
22
0.0383076709
32
0.0000000000
13
0.0072813699
23
0.0377781968
33
0.0000000000
40
0.0000000000
40
0.0000000000
40
0.0000000000
40
0.0000000000
40
1.0000000000
40
1.0000000000
40
1.0000000000
40
1.0000000000
10
-35.2210999039
20
-58.4483313830
30
0.0000000000
10
-35.2211296719
20
-58.4355621594
30
0.0000000000
10
-35.2199138297
20
-58.4227393665
30
0.0000000000
10
-35.2174867064
20
-58.4101466343
30
0.0000000000
11
-35.2210999039
21
-58.4483313830
31
0.0000000000
11
-35.2174867064
21
-58.4101466343
31
0.0000000000
0
SPLINE
5
3C8
100
AcDbEntity
8
0
100
AcDbSpline
62
7
6
CONTINUOUS
70
0
71
3
72
8
73
4
74
2
42
0.0000001000
43
0.0000001000
44
0.0000000001
12
-0.0001142842
22
-0.0382251416
32
0.0000000000
13
0.0072278562
23
-0.0377042223
33
0.0000000000
40
0.0000000000
40
0.0000000000
40
0.0000000000
40
0.0000000000
40
1.0000000000
40
1.0000000000
40
1.0000000000
40
1.0000000000
10
-35.2210354609
20
60.9147514044
30
0.0000000000
10
-35.2210735556
20
60.9020096905
30
0.0000000000
10
-35.2198711337
20
60.8892137495
30
0.0000000000
10
-35.2174618484
20
60.8766456755
30
0.0000000000
11
-35.2210354609
21
60.9147514044
31
0.0000000000
11
-35.2174618484
21
60.8766456755
31
0.0000000000
0
SPLINE
5
3C9
100
AcDbEntity
8
0
100
AcDbSpline
62
9
6
CONTINUOUS
70
0
71
3
72
11
73
7
74
5
42
0.0000001000
43
0.0000001000
44
0.0000000001
12
-0.2212456369
22
0.0881165608
32
0.0000000000
13
-0.0005828047
23
0.2362507422
33
0.0000000000
40
0.0000000000
40
0.0000000000
40
0.0000000000
40
0.0000000000
40
0.0224637680
40
0.3486099979
40
0.6745008121
40
1.0000000000
40
1.0000000000
40
1.0000000000
40
1.0000000000
10
-35.0607109205
20
-59.7203119980
30
0.0000000000
10
-35.0623675907
20
-59.7196521880
30
0.0000000000
10
-35.0879358927
20
-59.7090685059
30
0.0000000000
10
-35.1328256001
20
-59.6783181339
30
0.0000000000
10
-35.1763989583
20
-59.6125841674
30
0.0000000000
10
-35.1866819787
20
-59.5607667855
30
0.0000000000
10
-35.1867452129
20
-59.5351336439
30
0.0000000000
11
-35.0607109205
21
-59.7203119980
31
0.0000000000
11
-35.0656529064
21
-59.7182661572
31
0.0000000000
11
-35.1292572040
21
-59.6747738052
31
0.0000000000
11
-35.1717226571
21
-59.6105516810
31
0.0000000000
11
-35.1867452129
21
-59.5351336439
31
0.0000000000
0
SPLINE
5
3CA
100
AcDbEntity
8
0
100
AcDbSpline
62
9
6
CONTINUOUS
70
0
71
3
72
11
73
7
74
5
42
0.0000001000
43
0.0000001000
44
0.0000000001
12
-0.2212586000
22
-0.0881091943
32
0.0000000000
13
-0.0005832977
23
-0.2362598748
33
0.0000000000
40
0.0000000000
40
0.0000000000
40
0.0000000000
40
0.0000000000
40
0.0225030675
40
0.3486362477
40
0.6745139534
40
1.0000000000
40
1.0000000000
40
1.0000000000
40
1.0000000000
10
-35.0607019404
20
62.1867351471
30
0.0000000000
10
-35.0623616062
20
62.1860742381
30
0.0000000000
10
-35.0879331026
20
62.1754899824
30
0.0000000000
10
-35.1328254523
20
62.1447378758
30
0.0000000000
10
-35.1763988460
20
62.0790040832
30
0.0000000000
10
-35.1866819468
20
62.0271868076
30
0.0000000000
10
-35.1867452319
20
62.0015537100
30
0.0000000000
11
-35.0607019404
21
62.1867351471
31
0.0000000000
11
-35.0656528152
21
62.1846857709
31
0.0000000000
11
-35.1292570746
21
62.1411935476
31
0.0000000000
11
-35.1717225611
21
62.0769715899
31
0.0000000000
11
-35.1867452319
21
62.0015537100
31
0.0000000000
0
SPLINE
5
3CB
100
AcDbEntity
8
0
100
AcDbSpline
62
9
6
CONTINUOUS
70
0
71
3
72
9
73
5
74
3
42
0.0000001000
43
0.0000001000
44
0.0000000001
12
-2.1013067262
22
-0.1104241009
32
0.0000000000
13
-2.1013067033
23
-0.1104245376
33
0.0000000000
40
0.0000000000
40
0.0000000000
40
0.0000000000
40
0.0000000000
40
0.5118400596
40
1.0000000000
40
1.0000000000
40
1.0000000000
40
1.0000000000
10
-26.4703584949
20
-74.6523794512
30
0.0000000000
10
-26.8288694815
20
-74.6712192773
30
0.0000000000
10
-27.5293050499
20
-74.7080274439
30
0.0000000000
10
-28.2297406267
20
-74.7448354513
30
0.0000000000
10
-28.5716652118
20
-74.7628037299
30
0.0000000000
11
-26.4703584949
21
-74.6523794512
31
0.0000000000
11
-27.5458914498
21
-74.7088990240
31
0.0000000000
11
-28.5716652118
21
-74.7628037299
31
0.0000000000
0
SPLINE
5
3CC
100
AcDbEntity
8
0
100
AcDbSpline
62
9
6
CONTINUOUS
70
0
71
3
72
9
73
5
74
3
42
0.0000001000
43
0.0000001000
44
0.0000000001
12
2.1013067033
22
-0.1104245376
32
0.0000000000
13
2.1013067262
23
-0.1104241009
33
0.0000000000
40
0.0000000000
40
0.0000000000
40
0.0000000000
40
0.0000000000
40
0.4881599404
40
1.0000000000
40
1.0000000000
40
1.0000000000
40
1.0000000000
10
-28.5716652118
20
77.2292237961
30
0.0000000000
10
-28.2297406267
20
77.2112555175
30
0.0000000000
10
-27.5293050499
20
77.1744475100
30
0.0000000000
10
-26.8288694815
20
77.1376393435
30
0.0000000000
10
-26.4703584949
20
77.1187995174
30
0.0000000000
11
-28.5716652118
21
77.2292237961
31
0.0000000000
11
-27.5458914498
21
77.1753190901
31
0.0000000000
11
-26.4703584949
21
77.1187995174
31
0.0000000000
0
SPLINE
5
3CD
100
AcDbEntity
8
0
100
AcDbSpline
62
9
6
CONTINUOUS
70
0
71
3
72
9
73
5
74
3
42
0.0000001000
43
0.0000001000
44
0.0000000001
12
0.0243911244
22
-0.0509042946
32
0.0000000000
13
0.0038028425
23
-0.0559674978
33
0.0000000000
40
0.0000000000
40
0.0000000000
40
0.0000000000
40
0.0000000000
40
0.4182295864
40
1.0000000000
40
1.0000000000
40
1.0000000000
40
1.0000000000
10
-35.2210998827
20
60.9147514491
30
0.0000000000
10
-35.2176995194
20
60.9076548885
30
0.0000000000
10
-35.2182262615
20
60.8880049943
30
0.0000000000
10
-35.2171475031
20
60.8692063492
30
0.0000000000
10
-35.2164100426
20
60.8583529377
30
0.0000000000
11
-35.2210998827
21
60.9147514491
31
0.0000000000
11
-35.2178592900
21
60.8913674513
31
0.0000000000
11
-35.2164100426
21
60.8583529377
31
0.0000000000
0
SPLINE
5
3CE
100
AcDbEntity
8
0
100
AcDbSpline
62
9
6
CONTINUOUS
70
0
71
3
72
9
73
5
74
3
42
0.0000001000
43
0.0000001000
44
0.0000000001
12
0.0070519705
22
-0.1037858244
32
0.0000000000
13
0.0018850453
23
-0.1049005575
33
0.0000000000
40
0.0000000000
40
0.0000000000
40
0.0000000000
40
0.0000000000
40
0.2321099607
40
1.0000000000
40
1.0000000000
40
1.0000000000
40
1.0000000000
10
-35.2164100426
20
60.8583529377
30
0.0000000000
10
-35.2158644318
20
60.8503230299
30
0.0000000000
10
-35.2132546695
20
60.8159236903
30
0.0000000000
10
-35.2127873926
20
60.7808273083
30
0.0000000000
10
-35.2123048901
20
60.7539766106
30
0.0000000000
11
-35.2164100426
21
60.8583529377
31
0.0000000000
11
-35.2147683546
21
60.8343166180
31
0.0000000000
11
-35.2123048901
21
60.7539766106
31
0.0000000000
0
SPLINE
5
3CF
100
AcDbEntity
8
0
100
AcDbSpline
62
9
6
CONTINUOUS
70
0
71
3
72
8
73
4
74
2
42
0.0000001000
43
0.0000001000
44
0.0000000001
12
0.0010582144
22
-0.0588883895
32
0.0000000000
13
0.0011700051
23
-0.0587042282
33
0.0000000000
40
0.0000000000
40
0.0000000000
40
0.0000000000
40
0.0000000000
40
1.0000000000
40
1.0000000000
40
1.0000000000
40
1.0000000000
10
-35.2123048901
20
60.7539766106
30
0.0000000000
10
-35.2119521519
20
60.7343471474
30
0.0000000000
10
-35.2115333104
20
60.7147708428
30
0.0000000000
10
-35.2111433087
20
60.6952027668
30
0.0000000000
11
-35.2123048901
21
60.7539766106
31
0.0000000000
11
-35.2111433087
21
60.6952027668
31
0.0000000000
0
SPLINE
5
3D0
100
AcDbEntity
8
0
100
AcDbSpline
62
9
6
CONTINUOUS
70
0
71
3
72
11
73
7
74
5
42
0.0000001000
43
0.0000001000
44
0.0000000001
12
0.0062336684
22
-0.3127701680
32
0.0000000000
13
-0.0000085333
23
-0.3130723585
33
0.0000000000
40
0.0000000000
40
0.0000000000
40
0.0000000000
40
0.0000000000
40
0.0969263073
40
0.3942804165
40
0.6969672212
40
1.0000000000
40
1.0000000000
40
1.0000000000
40
1.0000000000
10
-35.2111433087
20
60.6952027668
30
0.0000000000
10
-35.2109419066
20
60.6850975476
30
0.0000000000
10
-35.2101539215
20
60.6440000901
30
0.0000000000
10
-35.2093684374
20
60.5712355450
30
0.0000000000
10
-35.2087028465
20
60.4770076004
30
0.0000000000
10
-35.2085714996
20
60.4137933055
30
0.0000000000
10
-35.2085723616
20
60.3821695765
30
0.0000000000
11
-35.2111433087
21
60.6952027668
31
0.0000000000
11
-35.2105752510
21
60.6648875049
31
0.0000000000
11
-35.2094319124
21
60.5718011739
31
0.0000000000
11
-35.2087817830
21
60.4770405322
31
0.0000000000
11
-35.2085723616
21
60.3821695765
31
0.0000000000
0
SPLINE
5
3D1
100
AcDbEntity
8
0
100
AcDbSpline
62
9
6
CONTINUOUS
70
0
71
3
72
10
73
6
74
4
42
0.0000001000
43
0.0000001000
44
0.0000000001
12
-0.0000082591
22
-0.3076122696
32
0.0000000000
13
-0.0059812305
23
-0.3073111769
33
0.0000000000
40
0.0000000000
40
0.0000000000
40
0.0000000000
40
0.0000000000
40
0.4463972905
40
0.8730723298
40
1.0000000000
40
1.0000000000
40
1.0000000000
40
1.0000000000
10
-35.2085723616
20
-57.9157495104
30
0.0000000000
10
-35.2085735905
20
-57.9615219383
30
0.0000000000
10
-35.2088923357
20
-58.0510274439
30
0.0000000000
10
-35.2097653351
20
-58.1536187001
30
0.0000000000
10
-35.2108158671
20
-58.2103115972
30
0.0000000000
10
-35.2110689284
20
-58.2233136944
30
0.0000000000
11
-35.2085723616
21
-57.9157495104
31
0.0000000000
11
-35.2090154628
21
-58.0530660792
31
0.0000000000
11
-35.2103639623
21
-58.1843096288
31
0.0000000000
11
-35.2110689284
21
-58.2233136944
31
0.0000000000
0
SPLINE
5
3D2
100
AcDbEntity
8
0
100
AcDbSpline
62
9
6
CONTINUOUS
70
0
71
3
72
10
73
6
74
4
42
0.0000001000
43
0.0000001000
44
0.0000000001
12
-0.0032822169
22
-0.1686378651
32
0.0000000000
13
-0.0117997784
23
-0.1671403111
33
0.0000000000
40
0.0000000000
40
0.0000000000
40
0.0000000000
40
0.0000000000
40
0.4142186894
40
0.8937275289
40
1.0000000000
40
1.0000000000
40
1.0000000000
40
1.0000000000
10
-35.2110689284
20
-58.2233136944
30
0.0000000000
10
-35.2115221135
20
-58.2465980129
30
0.0000000000
10
-35.2125843322
20
-58.2968630148
30
0.0000000000
10
-35.2134495902
20
-58.3534419919
30
0.0000000000
10
-35.2158270492
20
-58.3859845844
30
0.0000000000
10
-35.2162450464
20
-58.3919053891
30
0.0000000000
11
-35.2110689284
21
-58.2233136944
31
0.0000000000
11
-35.2124446724
21
-58.2932556651
31
0.0000000000
11
-35.2150259795
21
-58.3741570690
31
0.0000000000
11
-35.2162450464
21
-58.3919053891
31
0.0000000000
0
SPLINE
5
3D3
100
AcDbEntity
8
0
100
AcDbSpline
62
9
6
CONTINUOUS
70
0
71
3
72
9
73
5
74
3
42
0.0000001000
43
0.0000001000
44
0.0000000001
12
-0.0036661920
22
-0.0519305071
32
0.0000000000
13
-0.0145969486
23
-0.0498265508
33
0.0000000000
40
0.0000000000
40
0.0000000000
40
0.0000000000
40
0.0000000000
40
0.6568433198
40
1.0000000000
40
1.0000000000
40
1.0000000000
40
1.0000000000
10
-35.2162450464
20
-58.3919053891
30
0.0000000000
10
-35.2170477510
20
-58.4032754580
30
0.0000000000
10
-35.2181950228
20
-58.4206806565
30
0.0000000000
10
-35.2179991707
20
-58.4388326809
30
0.0000000000
10
-35.2196688509
20
-58.4445321188
30
0.0000000000
11
-35.2162450464
21
-58.3919053891
31
0.0000000000
11
-35.2179754250
21
-58.4264626477
31
0.0000000000
11
-35.2196688509
21
-58.4445321188
31
0.0000000000
0
SPLINE
5
3D4
100
AcDbEntity
8
0
100
AcDbSpline
62
9
6
CONTINUOUS
70
0
71
3
72
8
73
4
74
2
42
0.0000001000
43
0.0000001000
44
0.0000000001
12
-0.0011392155
22
-0.0038887018
32
0.0000000000
13
-0.0017451414
23
-0.0037025624
33
0.0000000000
40
0.0000000000
40
0.0000000000
40
0.0000000000
40
0.0000000000
40
1.0000000000
40
1.0000000000
40
1.0000000000
40
1.0000000000
10
-35.2196688509
20
-58.4445321188
30
0.0000000000
10
-35.2200485894
20
-58.4458283527
30
0.0000000000
10
-35.2205181689
20
-58.4470971955
30
0.0000000000
10
-35.2210998827
20
-58.4483313830
30
0.0000000000
11
-35.2196688509
21
-58.4445321188
31
0.0000000000
11
-35.2210998827
21
-58.4483313830
31
0.0000000000
0
SPLINE
5
3D5
100
AcDbEntity
8
0
100
AcDbSpline
62
9
6
CONTINUOUS
70
0
71
3
72
8
73
4
74
2
42
0.0000001000
43
0.0000001000
44
0.0000000001
12
-0.0303852793
22
-0.0637595711
32
0.0000000000
13
-0.0303545875
23
-0.0637738195
33
0.0000000000
40
0.0000000000
40
0.0000000000
40
0.0000000000
40
0.0000000000
40
1.0000000000
40
1.0000000000
40
1.0000000000
40
1.0000000000
10
-35.2210998827
20
-58.4483313830
30
0.0000000000
10
-35.2312283091
20
-58.4695845733
30
0.0000000000
10
-35.2413513718
20
-58.4908401970
30
0.0000000000
10
-35.2514695676
20
-58.5120981369
30
0.0000000000
11
-35.2210998827
21
-58.4483313830
31
0.0000000000
11
-35.2514695676
21
-58.5120981369
31
0.0000000000
0
SPLINE
5
3D6
100
AcDbEntity
8
0
100
AcDbSpline
62
9
6
CONTINUOUS
70
0
71
3
72
11
73
7
74
5
42
0.0000001000
43
0.0000001000
44
0.0000000001
12
-0.3145505880
22
-0.6608586737
32
0.0000000000
13
-0.3125100179
23
-0.6617678390
33
0.0000000000
40
0.0000000000
40
0.0000000000
40
0.0000000000
40
0.0000000000
40
0.1956646355
40
0.4952246333
40
0.7984167764
40
1.0000000000
40
1.0000000000
40
1.0000000000
40
1.0000000000
10
-35.2514695676
20
-58.5120981369
30
0.0000000000
10
-35.2719850430
20
-58.5552003607
30
0.0000000000
10
-35.3238588032
20
-58.6643156254
30
0.0000000000
10
-35.4073274656
20
-58.8403229517
30
0.0000000000
10
-35.4912416383
20
-59.0176726027
30
0.0000000000
10
-35.5438740848
20
-59.1290717181
30
0.0000000000
10
-35.5648730105
20
-59.1735388162
30
0.0000000000
11
-35.2514695676
21
-58.5120981369
31
0.0000000000
11
-35.3129601130
21
-58.6414323976
31
0.0000000000
11
-35.4069156865
21
-58.8395292212
31
0.0000000000
11
-35.5018316104
21
-59.0401126874
31
0.0000000000
11
-35.5648730105
21
-59.1735388162
31
0.0000000000
0
SPLINE
5
3D7
100
AcDbEntity
8
0
100
AcDbSpline
62
9
6
CONTINUOUS
70
0
71
3
72
11
73
7
74
5
42
0.0000001000
43
0.0000001000
44
0.0000000001
12
-0.2839801525
22
-0.6013533041
32
0.0000000000
13
-0.2941138497
23
-0.6248334708
33
0.0000000000
40
0.0000000000
40
0.0000000000
40
0.0000000000
40
0.0000000000
40
0.1098050654
40
0.4314013012
40
0.7324390513
40
1.0000000000
40
1.0000000000
40
1.0000000000
40
1.0000000000
10
-35.5648730105
20
-59.1735388162
30
0.0000000000
10
-35.5752671635
20
-59.1955493625
30
0.0000000000
10
-35.6160844144
20
-59.2820045923
30
0.0000000000
10
-35.6852077729
20
-59.4285429174
30
0.0000000000
10
-35.7699936162
20
-59.6084695123
30
0.0000000000
10
-35.8222202329
20
-59.7193776265
30
0.0000000000
10
-35.8484513598
20
-59.7751046385
30
0.0000000000
11
-35.5648730105
21
-59.1735388162
31
0.0000000000
11
-35.5960389426
21
-59.2395510510
31
0.0000000000
11
-35.6872924638
21
-59.4329967978
31
0.0000000000
11
-35.7726413572
21
-59.6141097887
31
0.0000000000
11
-35.8484513598
21
-59.7751046385
31
0.0000000000
0
SPLINE
5
3D8
100
AcDbEntity
8
0
100
AcDbSpline
62
9
6
CONTINUOUS
70
0
71
3
72
10
73
6
74
4
42
0.0000001000
43
0.0000001000
44
0.0000000001
12
-0.1272805468
22
-0.2704025870
32
0.0000000000
13
0.0130945257
23
0.0278486119
33
0.0000000000
40
0.0000000000
40
0.0000000000
40
0.0000000000
40
0.0000000000
40
0.5099012240
40
0.8627524840
40
1.0000000000
40
1.0000000000
40
1.0000000000
40
1.0000000000
10
-35.8484513598
20
-59.7751046385
30
0.0000000000
10
-35.8700848620
20
-59.8210641752
30
0.0000000000
10
-35.9085936983
20
-59.9028992415
30
0.0000000000
10
-35.9377612002
20
-59.9649023094
30
0.0000000000
10
-35.9715776453
20
-60.0368177997
30
0.0000000000
10
-35.9709785816
20
-60.0355437488
30
0.0000000000
11
-35.8484513598
21
-59.7751046385
31
0.0000000000
11
-35.9109423554
21
-59.9078961720
31
0.0000000000
11
-35.9541686232
21
-59.9997960239
31
0.0000000000
11
-35.9709785816
21
-60.0355437488
31
0.0000000000
0
SPLINE
5
3D9
100
AcDbEntity
8
0
100
AcDbSpline
62
9
6
CONTINUOUS
70
0
71
3
72
10
73
6
74
4
42
0.0000001000
43
0.0000001000
44
0.0000000001
12
-0.8521744146
22
-1.8093742676
32
0.0000000000
13
0.8621751883
23
1.8274816090
33
0.0000000000
40
0.0000000000
40
0.0000000000
40
0.0000000000
40
0.0000000000
40
0.5884592742
40
0.8827831533
40
1.0000000000
40
1.0000000000
40
1.0000000000
40
1.0000000000
10
-35.1867452332
20
-59.5351336439
30
0.0000000000
10
-35.3539018791
20
-59.8900480000
30
0.0000000000
10
-35.5210849875
20
-60.2450190789
30
0.0000000000
10
-35.9952122658
20
-61.2499254216
30
0.0000000000
10
-35.9175028337
20
-61.0852213349
30
0.0000000000
10
-35.8838156814
20
-61.0138174577
30
0.0000000000
11
-35.1867452332
21
-59.5351336439
31
0.0000000000
11
-35.6884843593
21
-60.5997498890
31
0.0000000000
11
-35.9396364297
21
-61.1321331909
31
0.0000000000
11
-35.8838156814
21
-61.0138174577
31
0.0000000000
0
SPLINE
5
3DA
100
AcDbEntity
8
0
100
AcDbSpline
62
9
6
CONTINUOUS
70
0
71
3
72
8
73
4
74
2
42
0.0000001000
43
0.0000001000
44
0.0000000001
12
0.0000000004
22
-0.0000000002
32
0.0000000000
13
0.1010615762
23
0.2142118846
33
0.0000000000
40
0.0000000000
40
0.0000000000
40
0.0000000000
40
0.0000000000
40
1.0000000000
40
1.0000000000
40
1.0000000000
40
1.0000000000
10
-35.9396364297
20
-61.1321331909
30
0.0000000000
10
-35.9396364295
20
-61.1321331909
30
0.0000000000
10
-35.9175028734
20
-61.0852214192
30
0.0000000000
10
-35.8838156814
20
-61.0138174577
30
0.0000000000
11
-35.9396364297
21
-61.1321331909
31
0.0000000000
11
-35.8838156814
21
-61.0138174577
31
0.0000000000
0
SPLINE
5
3DB
100
AcDbEntity
8
0
100
AcDbSpline
62
9
6
CONTINUOUS
70
0
71
3
72
17
73
13
74
11
42
0.0000001000
43
0.0000001000
44
0.0000000001
12
0.0000000488
22
-0.7983753656
32
0.0000000000
13
-0.3401408500
23
-0.7222931722
33
0.0000000000
40
0.0000000000
40
0.0000000000
40
0.0000000000
40
0.0000000000
40
0.1238683966
40
0.2602693330
40
0.4038408322
40
0.5454104301
40
0.6766129822
40
0.7900793769
40
0.8800754561
40
0.9438801962
40
0.9824525374
40
1.0000000000
40
1.0000000000
40
1.0000000000
40
1.0000000000
10
-35.1612309347
20
-58.7377930673
30
0.0000000000
10
-35.1612309327
20
-58.7707575595
30
0.0000000000
10
-35.1613789526
20
-58.8400218214
30
0.0000000000
10
-35.1621012517
20
-58.9474921756
30
0.0000000000
10
-35.1634549074
20
-59.0596669159
30
0.0000000000
10
-35.1654899239
20
-59.1704509837
30
0.0000000000
10
-35.1681927765
20
-59.2731968494
30
0.0000000000
10
-35.1713897184
20
-59.3622268646
30
0.0000000000
10
-35.1750602504
20
-59.4332035961
30
0.0000000000
10
-35.1785365863
20
-59.4844150694
30
0.0000000000
10
-35.1823996902
20
-59.5158906410
30
0.0000000000
10
-35.1847556970
20
-59.5309088397
30
0.0000000000
10
-35.1867452332
20
-59.5351336439
30
0.0000000000
11
-35.1612309347
21
-58.7377930673
31
0.0000000000
11
-35.1614437379
21
-58.8366863148
31
0.0000000000
11
-35.1621829654
21
-58.9455829532
31
0.0000000000
11
-35.1635825389
21
-59.0601983566
31
0.0000000000
11
-35.1656956327
21
-59.1732042814
31
0.0000000000
11
-35.1684966379
21
-59.2779157106
31
0.0000000000
11
-35.1718784801
21
-59.3684413378
31
0.0000000000
11
-35.1756483534
21
-59.4401930230
31
0.0000000000
11
-35.1795549150
21
-59.4909831392
31
0.0000000000
11
-35.1833359505
21
-59.5215453469
31
0.0000000000
11
-35.1867452332
21
-59.5351336439
31
0.0000000000
0
SPLINE
5
3DC
100
AcDbEntity
8
0
100
AcDbSpline
62
9
6
CONTINUOUS
70
0
71
3
72
17
73
13
74
11
42
0.0000001000
43
0.0000001000
44
0.0000000001
12
0.3401739012
22
-0.7222765893
32
0.0000000000
13
0.0000001606
23
-0.7983744450
33
0.0000000000
40
0.0000000000
40
0.0000000000
40
0.0000000000
40
0.0000000000
40
0.0179364130
40
0.0573192294
40
0.1222533495
40
0.2134533037
40
0.3279656571
40
0.4598497039
40
0.6014232472
40
0.7441405053
40
0.8785264558
40
1.0000000000
40
1.0000000000
40
1.0000000000
40
1.0000000000
10
-35.1867452332
20
62.0015537100
30
0.0000000000
10
-35.1847114000
20
61.9972353596
30
0.0000000000
10
-35.1823478963
20
61.9818846531
30
0.0000000000
10
-35.1784348730
20
61.9497995359
30
0.0000000000
10
-35.1749490523
20
61.8977455942
30
0.0000000000
10
-35.1712695948
20
61.8258707404
30
0.0000000000
10
-35.1680833155
20
61.7360593065
30
0.0000000000
10
-35.1654019099
20
61.6328522354
30
0.0000000000
10
-35.1633963964
20
61.5221126764
30
0.0000000000
10
-35.1620735905
20
61.4107002932
30
0.0000000000
10
-35.1613736426
20
61.3046308682
30
0.0000000000
10
-35.1612309412
20
61.2365402580
30
0.0000000000
10
-35.1612309347
20
61.2042131335
30
0.0000000000
11
-35.1867452332
21
62.0015537100
31
0.0000000000
11
-35.1832840040
21
61.9876583316
31
0.0000000000
11
-35.1794635188
21
61.9564490705
31
0.0000000000
11
-35.1755316705
21
61.9047566456
31
0.0000000000
11
-35.1717546033
21
61.8320429653
31
0.0000000000
11
-35.1683817445
21
61.7406814667
31
0.0000000000
11
-35.1656019692
21
61.6354253140
31
0.0000000000
11
-35.1635189009
21
61.5224158116
31
0.0000000000
11
-35.1621504215
21
61.4084822181
31
0.0000000000
11
-35.1614355537
21
61.3011942911
31
0.0000000000
11
-35.1612309347
21
61.2042131335
31
0.0000000000
0
SPLINE
5
3DD
100
AcDbEntity
8
0
100
AcDbSpline
62
9
6
CONTINUOUS
70
0
71
3
72
8
73
4
74
2
42
0.0000001000
43
0.0000001000
44
0.0000000001
12
-0.1161130396
22
-0.2466366059
32
0.0000000000
13
-0.1138011340
23
-0.2416454760
33
0.0000000000
40
0.0000000000
40
0.0000000000
40
0.0000000000
40
0.0000000000
40
1.0000000000
40
1.0000000000
40
1.0000000000
40
1.0000000000
10
-35.0717384554
20
-59.9074535377
30
0.0000000000
10
-35.1104428019
20
-59.9896657397
30
0.0000000000
10
-35.1474072887
20
-60.0681743550
30
0.0000000000
10
-35.1853410000
20
-60.1487228470
30
0.0000000000
11
-35.0717384554
21
-59.9074535377
31
0.0000000000
11
-35.1853410000
21
-60.1487228470
31
0.0000000000
0
SPLINE
5
3DE
100
AcDbEntity
8
0
100
AcDbSpline
62
9
6
CONTINUOUS
70
0
71
3
72
9
73
5
74
3
42
0.0000001000
43
0.0000001000
44
0.0000000001
12
-0.4844745865
22
-1.0287339673
32
0.0000000000
13
-0.0000000031
23
0.0000000014
33
0.0000000000
40
0.0000000000
40
0.0000000000
40
0.0000000000
40
0.0000000000
40
0.5355428830
40
1.0000000000
40
1.0000000000
40
1.0000000000
40
1.0000000000
10
-35.1853410000
20
-60.1487228470
30
0.0000000000
10
-35.2718266390
20
-60.3323665652
30
0.0000000000
10
-35.4427255220
20
-60.6950770579
30
0.0000000000
10
-35.7431316353
20
-61.3320816565
30
0.0000000000
10
-35.7431316358
20
-61.3320816563
30
0.0000000000
11
-35.1853410000
21
-60.1487228470
31
0.0000000000
11
-35.4920174739
21
-60.7995298557
31
0.0000000000
11
-35.7431316358
21
-61.3320816563
31
0.0000000000
0
SPLINE
5
3DF
100
AcDbEntity
8
0
100
AcDbSpline
62
9
6
CONTINUOUS
70
0
71
3
72
9
73
5
74
3
42
0.0000001000
43
0.0000001000
44
0.0000000001
12
-0.7522857609
22
1.5972862764
32
0.0000000000
13
0.0000000026
23
0.0000000012
33
0.0000000000
40
0.0000000000
40
0.0000000000
40
0.0000000000
40
0.0000000000
40
0.6665964743
40
1.0000000000
40
1.0000000000
40
1.0000000000
40
1.0000000000
10
-35.1867452332
20
62.0015537100
30
0.0000000000
10
-35.3539022452
20
62.3564688434
30
0.0000000000
10
-35.5210856618
20
62.7114405755
30
0.0000000000
10
-35.9396367960
20
63.5985540326
30
0.0000000000
10
-35.9396367957
20
63.5985540328
30
0.0000000000
11
-35.1867452332
21
62.0015537100
31
0.0000000000
11
-35.6884854587
21
63.0661722865
31
0.0000000000
11
-35.9396367957
21
63.5985540328
31
0.0000000000
0
SPLINE
5
3E0
100
AcDbEntity
8
0
100
AcDbSpline
62
9
6
CONTINUOUS
70
0
71
3
72
9
73
5
74
3
42
0.0000001000
43
0.0000001000
44
0.0000000001
12
-0.4844753245
22
1.0287355348
32
0.0000000000
13
-0.0000000034
23
-0.0000000016
33
0.0000000000
40
0.0000000000
40
0.0000000000
40
0.0000000000
40
0.0000000000
40
0.5355443948
40
1.0000000000
40
1.0000000000
40
1.0000000000
40
1.0000000000
10
-35.1853409084
20
62.6151427185
30
0.0000000000
10
-35.2718269232
20
62.7987872349
30
0.0000000000
10
-35.4427259372
20
63.1614980053
30
0.0000000000
10
-35.7431320012
20
63.7985024987
30
0.0000000000
10
-35.7431320018
20
63.7985024984
30
0.0000000000
11
-35.1853409084
21
62.6151427185
31
0.0000000000
11
-35.4920185732
21
63.2659522539
31
0.0000000000
11
-35.7431320018
21
63.7985024984
31
0.0000000000
0
SPLINE
5
3E1
100
AcDbEntity
8
0
100
AcDbSpline
62
9
6
CONTINUOUS
70
0
71
3
72
8
73
4
74
2
42
0.0000001000
43
0.0000001000
44
0.0000000001
12
-0.1161210759
22
0.2466536789
32
0.0000000000
13
-0.1138083144
23
0.2416607230
33
0.0000000000
40
0.0000000000
40
0.0000000000
40
0.0000000000
40
0.0000000000
40
1.0000000000
40
1.0000000000
40
1.0000000000
40
1.0000000000
10
-35.0717310028
20
62.3738577738
30
0.0000000000
10
-35.1104380282
20
62.4560756667
30
0.0000000000
10
-35.1474048036
20
62.5345891441
30
0.0000000000
10
-35.1853409084
20
62.6151427185
30
0.0000000000
11
-35.0717310028
21
62.3738577738
31
0.0000000000
11
-35.1853409084
21
62.6151427185
31
0.0000000000
0
SPLINE
5
3E2
100
AcDbEntity
8
0
100
AcDbSpline
62
9
6
CONTINUOUS
70
0
71
3
72
11
73
7
74
5
42
0.0000001000
43
0.0000001000
44
0.0000000001
12
-0.0000005542
22
-0.0000004630
32
0.0000000000
13
0.1229036931
23
-0.2611117915
33
0.0000000000
40
0.0000000000
40
0.0000000000
40
0.0000000000
40
0.0000000000
40
0.0067162714
40
0.1108591492
40
0.4607094185
40
1.0000000000
40
1.0000000000
40
1.0000000000
40
1.0000000000
10
-35.9709648633
20
62.5019346456
30
0.0000000000
10
-35.9709648645
20
62.5019346445
30
0.0000000000
10
-35.9706066512
20
62.5011727921
30
0.0000000000
10
-35.9431885285
20
62.4428638783
30
0.0000000000
10
-35.9126653911
20
62.3779728723
30
0.0000000000
10
-35.8746814705
20
62.2972507189
30
0.0000000000
10
-35.8525878691
20
62.2503123422
30
0.0000000000
11
-35.9709648633
21
62.5019346456
31
0.0000000000
11
-35.9708985598
21
62.5017936307
31
0.0000000000
11
-35.9584988947
21
62.4754242698
31
0.0000000000
11
-35.9168362734
21
62.3868446799
31
0.0000000000
11
-35.8525878691
21
62.2503123422
31
0.0000000000
0
SPLINE
5
3E3
100
AcDbEntity
8
0
100
AcDbSpline
62
9
6
CONTINUOUS
70
0
71
3
72
14
73
10
74
8
42
0.0000001000
43
0.0000001000
44
0.0000000001
12
0.6178534801
22
-1.3126442746
32
0.0000000000
13
0.6045136795
23
-1.2700621952
33
0.0000000000
40
0.0000000000
40
0.0000000000
40
0.0000000000
40
0.0000000000
40
0.1305684291
40
0.2749663708
40
0.4276176837
40
0.5846083456
40
0.7423276383
40
0.8981168945
40
1.0000000000
40
1.0000000000
40
1.0000000000
40
1.0000000000
10
-35.8525878691
20
62.2503123422
30
0.0000000000
10
-35.8256971497
20
62.1931823753
30
0.0000000000
10
-35.7720149557
20
62.0791794952
30
0.0000000000
10
-35.6860041519
20
61.8966517521
30
0.0000000000
10
-35.5953435175
20
61.7044543775
30
0.0000000000
10
-35.5017111541
20
61.5062197089
30
0.0000000000
10
-35.4073732680
20
61.3068397685
30
0.0000000000
10
-35.3239161849
20
61.1308565827
30
0.0000000000
10
-35.2720446933
20
61.0217458266
30
0.0000000000
10
-35.2515147829
20
60.9786131997
30
0.0000000000
11
-35.8525878691
21
62.2503123422
31
0.0000000000
11
-35.7743486391
21
62.0841543304
31
0.0000000000
11
-35.6877669947
21
61.9004233777
31
0.0000000000
11
-35.5961597750
21
61.7062271103
31
0.0000000000
11
-35.5018443369
21
61.5065596739
31
0.0000000000
11
-35.4069540815
21
61.3060303411
31
0.0000000000
11
-35.3130484906
21
61.1080385450
31
0.0000000000
11
-35.2515147829
21
60.9786131997
31
0.0000000000
0
SPLINE
5
3E4
100
AcDbEntity
8
0
100
AcDbSpline
62
9
6
CONTINUOUS
70
0
71
3
72
27
73
23
74
21
42
0.0000001000
43
0.0000001000
44
0.0000000001
12
-1.4798044635
22
3.1051860519
32
0.0000000000
13
1.4783121310
23
-3.1058823216
33
0.0000000000
40
0.0000000000
40
0.0000000000
40
0.0000000000
40
0.0000000000
40
0.0619327386
40
0.1254512005
40
0.1897456938
40
0.2536618704
40
0.3156653007
40
0.3737627021
40
0.4254912659
40
0.4683041526
40
0.4982044297
40
0.5102819183
40
0.5187531977
40
0.5472110185
40
0.5910784558
40
0.6444706994
40
0.7035181287
40
0.7659405393
40
0.8301374032
40
0.8946322200
40
0.9583378032
40
1.0000000000
40
1.0000000000
40
1.0000000000
40
1.0000000000
10
-35.2210998827
20
60.9147514491
30
0.0000000000
10
-35.2516493304
20
60.9788556745
30
0.0000000000
10
-35.3134317473
20
61.1087501089
30
0.0000000000
10
-35.4066599457
20
61.3053342488
30
0.0000000000
10
-35.5006681790
20
61.5040137553
30
0.0000000000
10
-35.5938738586
20
61.7013412492
30
0.0000000000
10
-35.6836857023
20
61.8917346504
30
0.0000000000
10
-35.7683545667
20
62.0714101608
30
0.0000000000
10
-35.8407853199
20
62.2252210068
30
0.0000000000
10
-35.9074005789
20
62.3667835605
30
0.0000000000
10
-35.9364115401
20
62.4284522668
30
0.0000000000
10
-35.9790431935
20
62.5191144152
30
0.0000000000
10
-35.9431885285
20
62.4428638783
30
0.0000000000
10
-35.9126653911
20
62.3779728723
30
0.0000000000
10
-35.8466408274
20
62.2376596853
30
0.0000000000
10
-35.7720149557
20
62.0791794952
30
0.0000000000
10
-35.6860041519
20
61.8966517521
30
0.0000000000
10
-35.5953435175
20
61.7044543775
30
0.0000000000
10
-35.5017111541
20
61.5062197089
30
0.0000000000
10
-35.4073732680
20
61.3068397685
30
0.0000000000
10
-35.3239161849
20
61.1308565827
30
0.0000000000
10
-35.2720446933
20
61.0217458266
30
0.0000000000
10
-35.2515147829
20
60.9786131997
30
0.0000000000
11
-35.2210998827
21
60.9147514491
31
0.0000000000
11
-35.3126156673
21
61.1071272411
31
0.0000000000
11
-35.4062466351
21
61.3045369082
31
0.0000000000
11
-35.5008435540
21
61.5044427282
31
0.0000000000
11
-35.5947481287
21
61.7032364468
31
0.0000000000
11
-35.6857421158
21
61.8961284938
31
0.0000000000
11
-35.7709326681
21
62.0769024415
31
0.0000000000
11
-35.8467365602
21
62.2378818326
31
0.0000000000
11
-35.9094435946
21
62.3711305311
31
0.0000000000
11
-35.9532200559
21
62.4641990290
31
0.0000000000
11
-35.9708985598
21
62.5017936307
31
0.0000000000
11
-35.9584988947
21
62.4754242698
31
0.0000000000
11
-35.9168362734
21
62.3868446799
31
0.0000000000
11
-35.8525878691
21
62.2503123422
31
0.0000000000
11
-35.7743486391
21
62.0841543304
31
0.0000000000
11
-35.6877669947
21
61.9004233777
31
0.0000000000
11
-35.5961597750
21
61.7062271103
31
0.0000000000
11
-35.5018443369
21
61.5065596739
31
0.0000000000
11
-35.4069540815
21
61.3060303411
31
0.0000000000
11
-35.3130484906
21
61.1080385450
31
0.0000000000
11
-35.2515147829
21
60.9786131997
31
0.0000000000
0
SPLINE
5
3E5
100
AcDbEntity
8
0
100
AcDbSpline
62
7
6
CONTINUOUS
70
0
71
3
72
25
73
21
74
19
42
0.0000001000
43
0.0000001000
44
0.0000000001
12
-0.0012034332
22
-0.9970163665
32
0.0000000000
13
-0.0737319895
23
-1.1677461746
33
0.0000000000
40
0.0000000000
40
0.0000000000
40
0.0000000000
40
0.0000000000
40
0.0867276131
40
0.1721969389
40
0.2568845759
40
0.3409348647
40
0.4231631133
40
0.5020523720
40
0.5763123579
40
0.6455594508
40
0.7096366971
40
0.7683537837
40
0.8213869561
40
0.8683791020
40
0.9089470301
40
0.9426032221
40
0.9688340856
40
0.9872659393
40
0.9980847375
40
1.0000000000
40
1.0000000000
40
1.0000000000
40
1.0000000000
10
-26.4703584949
20
-74.6523793694
30
0.0000000000
10
-26.4703932852
20
-74.6812023193
30
0.0000000000
10
-26.4702067065
20
-74.7384300206
30
0.0000000000
10
-26.4701350308
20
-74.8238027185
30
0.0000000000
10
-26.4700156951
20
-74.9082856392
30
0.0000000000
10
-26.4699201440
20
-74.9916914409
30
0.0000000000
10
-26.4698330967
20
-75.0731702078
30
0.0000000000
10
-26.4697627632
20
-75.1513953581
30
0.0000000000
10
-26.4697113308
20
-75.2253061411
30
0.0000000000
10
-26.4696801536
20
-75.2942951233
30
0.0000000000
10
-26.4696685757
20
-75.3581159424
30
0.0000000000
10
-26.4696796026
20
-75.4165569636
30
0.0000000000
10
-26.4697037918
20
-75.4692918828
30
0.0000000000
10
-26.4697690601
20
-75.5160829324
30
0.0000000000
10
-26.4697882511
20
-75.5561692523
30
0.0000000000
10
-26.4700082408
20
-75.5901130683
30
0.0000000000
10
-26.4697492666
20
-75.6147063687
30
0.0000000000
10
-26.4706302863
20
-75.6363324896
30
0.0000000000
10
-26.4694489223
20
-75.6415020862
30
0.0000000000
10
-26.4705302740
20
-75.6498573268
30
0.0000000000
10
-26.4705773460
20
-75.6506028403
30
0.0000000000
11
-26.4703584949
21
-74.6523793694
31
0.0000000000
11
-26.4702404842
21
-74.7388482016
31
0.0000000000
11
-26.4701266376
21
-74.8240625042
31
0.0000000000
11
-26.4700191664
21
-74.9084974575
31
0.0000000000
11
-26.4699205414
21
-74.9922969741
31
0.0000000000
11
-26.4698342714
21
-75.0742798981
31
0.0000000000
11
-26.4697641248
21
-75.1529338061
31
0.0000000000
11
-26.4697132870
21
-75.2269722639
31
0.0000000000
11
-26.4696826106
21
-75.2960127923
31
0.0000000000
11
-26.4696723654
21
-75.3598989013
31
0.0000000000
11
-26.4696827254
21
-75.4184408394
31
0.0000000000
11
-26.4697134811
21
-75.4713158099
31
0.0000000000
11
-26.4697643273
21
-75.5181677549
31
0.0000000000
11
-26.4698343919
21
-75.5586146120
31
0.0000000000
11
-26.4699205359
21
-75.5921703001
31
0.0000000000
11
-26.4700190535
21
-75.6183227339
31
0.0000000000
11
-26.4701264874
21
-75.6366992930
31
0.0000000000
11
-26.4702403744
21
-75.6474852185
31
0.0000000000
11
-26.4705773460
21
-75.6506028403
31
0.0000000000
0
SPLINE
5
3E6
100
AcDbEntity
8
0
100
AcDbSpline
62
7
6
CONTINUOUS
70
0
71
3
72
14
73
10
74
8
42
0.0000001000
43
0.0000001000
44
0.0000000001
12
-0.0721942642
22
0.1645522724
32
0.0000000000
13
0.0001717909
23
-0.1797939242
33
0.0000000000
40
0.0000000000
40
0.0000000000
40
0.0000000000
40
0.0000000000
40
0.0196000170
40
0.0796276500
40
0.1818959913
40
0.3274368009
40
0.5141767240
40
0.7392661152
40
1.0000000000
40
1.0000000000
40
1.0000000000
40
1.0000000000
10
-26.4703584999
20
78.1174252828
30
0.0000000000
10
-26.4708301695
20
78.1185003586
30
0.0000000000
10
-26.4693876192
20
78.1081904119
30
0.0000000000
10
-26.4706302863
20
78.1027525558
30
0.0000000000
10
-26.4697492666
20
78.0811264349
30
0.0000000000
10
-26.4700082408
20
78.0565331345
30
0.0000000000
10
-26.4697882511
20
78.0225893185
30
0.0000000000
10
-26.4697690601
20
77.9825029985
30
0.0000000000
10
-26.4697284117
20
77.9533619988
30
0.0000000000
10
-26.4697134811
20
77.9377358760
30
0.0000000000
11
-26.4703584999
21
78.1174252828
31
0.0000000000
11
-26.4702403744
21
78.1139052846
31
0.0000000000
11
-26.4701264874
21
78.1031193591
31
0.0000000000
11
-26.4700190535
21
78.0847428000
31
0.0000000000
11
-26.4699205359
21
78.0585903663
31
0.0000000000
11
-26.4698343919
21
78.0250346781
31
0.0000000000
11
-26.4697643273
21
77.9845878210
31
0.0000000000
11
-26.4697134811
21
77.9377358760
31
0.0000000000
0
SPLINE
5
3E7
100
AcDbEntity
8
0
100
AcDbSpline
62
7
6
CONTINUOUS
70
0
71
3
72
18
73
14
74
12
42
0.0000001000
43
0.0000001000
44
0.0000000001
12
0.0007829249
22
-0.8193982120
32
0.0000000000
13
0.0009884843
23
-0.8189362385
33
0.0000000000
40
0.0000000000
40
0.0000000000
40
0.0000000000
40
0.0000000000
40
0.0645653940
40
0.1360506862
40
0.2140617209
40
0.2983668007
40
0.3887748421
40
0.4848188054
40
0.5849278319
40
0.6872551068
40
0.7903583231
40
0.8944132088
40
1.0000000000
40
1.0000000000
40
1.0000000000
40
1.0000000000
10
-26.4697134811
20
77.9377358760
30
0.0000000000
10
-26.4696966311
20
77.9201009532
30
0.0000000000
10
-26.4696796026
20
77.8829770298
30
0.0000000000
10
-26.4696685757
20
77.8245360086
30
0.0000000000
10
-26.4696801536
20
77.7607151895
30
0.0000000000
10
-26.4697113308
20
77.6917262073
30
0.0000000000
10
-26.4697627632
20
77.6178154242
30
0.0000000000
10
-26.4698330967
20
77.5395902740
30
0.0000000000
10
-26.4699201440
20
77.4581115070
30
0.0000000000
10
-26.4700156951
20
77.3747057053
30
0.0000000000
10
-26.4701350308
20
77.2902227847
30
0.0000000000
10
-26.4702067065
20
77.2048500868
30
0.0000000000
10
-26.4703932852
20
77.1476223855
30
0.0000000000
10
-26.4703584949
20
77.1187994356
30
0.0000000000
11
-26.4697134811
21
77.9377358760
31
0.0000000000
11
-26.4696827254
21
77.8848609055
31
0.0000000000
11
-26.4696723654
21
77.8263189675
31
0.0000000000
11
-26.4696826106
21
77.7624328585
31
0.0000000000
11
-26.4697132870
21
77.6933923300
31
0.0000000000
11
-26.4697641248
21
77.6193538723
31
0.0000000000
11
-26.4698342714
21
77.5406999642
31
0.0000000000
11
-26.4699205414
21
77.4587170403
31
0.0000000000
11
-26.4700191664
21
77.3749175236
31
0.0000000000
11
-26.4701266376
21
77.2904825704
31
0.0000000000
11
-26.4702404842
21
77.2052682677
31
0.0000000000
11
-26.4703584949
21
77.1187994356
31
0.0000000000
0
ENDSEC
0
SECTION
2
OBJECTS
0
DICTIONARY
5
C
100
AcDbDictionary
280
0
281
1
3
ACAD_GROUP
350
D
3
ACAD_MLINESTYLE
350
17
3
ACAD_LAYOUT
350
1A
3
ACAD_PLOTSETTINGS
350
19
3
ACAD_PLOTSTYLENAME
350
E
0
DICTIONARY
5
D
102
{ACAD_REACTORS
330
C
102
}
100
AcDbDictionary
280
0
281
1
0
ACDBDICTIONARYWDFLT
5
E
102
{ACAD_REACTORS
330
C
102
}
100
AcDbDictionary
281
1
3
Normal
350
F
100
AcDbDictionaryWithDefault
340
F
0
DICTIONARY
5
17
102
{ACAD_REACTORS
330
C
102
}
100
AcDbDictionary
280
0
281
1
3
Standard
350
18
0
DICTIONARY
5
19
102
{ACAD_REACTORS
330
C
102
}
100
AcDbDictionary
281
1
0
DICTIONARY
5
1A
102
{ACAD_REACTORS
330
C
102
}
100
AcDbDictionary
281
1
3
Layout1
350
1E
3
Model
350
22
0
ACDBPLACEHOLDER
5
F
102
{ACAD_REACTORS
330
E
102
}
0
MLINESTYLE
5
18
102
{ACAD_REACTORS
330
17
102
}
100
AcDbMlineStyle
2
STANDARD
70
0
3

62
256
51
90.0
52
90.0
71
2
49
0.5
62
256
6
BYLAYER
49
-0.5
62
256
6
BYLAYER
0
LAYOUT
5
1E
102
{ACAD_REACTORS
330
1A
102
}
100
AcDbPlotSettings
1

2

4

6

40
0.0
41
0.0
42
0.0
43
0.0
44
0.0
45
0.0
46
0.0
47
0.0
48
0.0
49
0.0
140
0.0
141
0.0
142
1.0
143
1.0
70
0
72
0
73
0
74
0
7

75
0
147
1.0
148
0.0
149
0.0
100
AcDbLayout
1
Layout1
70
0
71
0
10
0.0
20
0.0
11
0.0
21
0.0
12
0.0
22
0.0
32
0.0
14
0.0
24
0.0
34
0.0
15
0.0
25
0.0
35
0.0
146
0.0
13
0.0
23
0.0
33
0.0
16
0.0
26
0.0
36
0.0
17
0.0
27
0.0
37
0.0
76
0
330
1B
331
0
345
0
346
0
0
LAYOUT
5
22
102
{ACAD_REACTORS
330
1A
102
}
100
AcDbPlotSettings
1

2

4

6

40
0.0
41
0.0
42
0.0
43
0.0
44
0.0
45
0.0
46
0.0
47
0.0
48
0.0
49
0.0
140
0.0
141
0.0
142
1.0
143
1.0
70
0
72
0
73
0
74
0
7

75
0
147
1.0
148
0.0
149
0.0
100
AcDbLayout
1
Model
70
0
71
0
10
0.0
20
0.0
11
0.0
21
0.0
12
0.0
22
0.0
32
0.0
14
0.0
24
0.0
34
0.0
15
0.0
25
0.0
35
0.0
146
0.0
13
0.0
23
0.0
33
0.0
16
0.0
26
0.0
36
0.0
17
0.0
27
0.0
37
0.0
76
0
330
1F
331
0
345
0
346
0
0
ENDSEC
0
EOF
