  0
SECTION
  2
HEADER
  9
$ACADVER
  1
AC1015
  9
$DWGCODEPAGE
  3
ANSI_1252
  9
$EXTMAX
 10
297.0
 20
210.0
 30
0.0
  9
$EXTMIN
 10
0.0
 20
0.0
 30
0.0
  9
$LIMMIN
 10
0.0
 20
0.0
  9
$LIMMAX
 10
297.0
 20
210.0
  9
$VIEWCTR
 10
148.5
 20
105.0
  9
$VIEWSIZE
 40
210.0
  9
$CLAYER
  8
0
  9
$LTSCALE
 40
16.335
  9
$CELTYPE
  6
BYLAYER
  9
$DIMSCALE
 40
1.0
  9
$DIMASZ
 40
3.0
  9
$DIMEXO
 40
0.5
  9
$DIMDLI
 40
11.286
  9
$DIMEXE
 40
1.5
  9
$DIMCEN
 40
2.673
  9
$DIMLFAC
 40
1.0
  9
$DIMBLK
  1
_FILLED
  9
$DIMTXT
 40
3.0
  9
$DIMTOL
 70
1
  9
$DIMLIM
 70
0
  9
$DIMTFAC
 40
1.0
  9
$DIMTP
 40
0.01
  9
$DIMTM
 40
0.01
  9
$DIMGAP
 40
0.625
  9
$DIMDSEP
 70
44
  9
$PDMODE
 70
3
  9
$PDSIZE
 40
3.0
  9
$HANDSEED
  5
584
  9
$TILEMODE
 70
1
  9
$MEASUREMENT
 70
1
  9
$INSUNITS
 70
4
  0
ENDSEC
  0
SECTION
  2
CLASSES
  0
CLASS
  1
ACDBDICTIONARYWDFLT
  2
AcDbDictionaryWithDefault
  3
AutoCAD 2000
 90
0
280
0
281
0
  0
CLASS
  1
ACDBPLACEHOLDER
  2
AcDbPlaceHolder
  3
AutoCAD 2000
 90
0
280
0
281
0
  0
CLASS
  1
LAYOUT
  2
AcDbLayout
  3
AutoCAD 2000
 90
0
280
0
281
0
  0
ENDSEC
  0
SECTION
  2
TABLES
  0
TABLE
  2
VPORT
  5
8
100
AcDbSymbolTable
 70
2
  0
VPORT
  5
1F4
100
AcDbSymbolTableRecord
100
AcDbViewportTableRecord
  2
*ACTIVE
 70
0
 10
0.0
 20
0.0
 11
1.0
 21
1.0
 12
148.5
 22
105.0
 13
0.0
 23
0.0
 14
1.0
 24
1.0
 15
0.0
 25
0.0
 16
0.0
 26
0.0
 36
1.0
 17
0.0
 27
0.0
 37
0.0
 40
210.0
 41
1.4142857143
 42
50.0
 43
0.0
 44
0.0
 50
0.0
 51
0.0
 71
0
 72
100
 73
1
 74
1
 75
0
 76
0
 77
0
 78
0
  0
ENDTAB
  0
TABLE
  2
LTYPE
  5
5
100
AcDbSymbolTable
 70
6
  0
LTYPE
  5
14
100
AcDbSymbolTableRecord
100
AcDbLinetypeTableRecord
  2
BYBLOCK
 70
0
  3

 72
65
 73
0
 40
0.0
  0
LTYPE
  5
15
100
AcDbSymbolTableRecord
100
AcDbLinetypeTableRecord
  2
BYLAYER
 70
0
  3

 72
65
 73
0
 40
0.0
  0
LTYPE
  5
16
100
AcDbSymbolTableRecord
100
AcDbLinetypeTableRecord
  2
CONTINUOUS
 70
64
  3
Solid line
 72
65
 73
0
 40
0.0
  0
LTYPE
  5
1F5
100
AcDbSymbolTableRecord
100
AcDbLinetypeTableRecord
  2
CENTER
 70
64
  3
____ _ ____ _ ____ _ ____ _ ____ _ ____ _ ____
 72
65
 73
4
 40
0.6
 49
0.375
 74
0
 49
-0.075
 74
0
 49
0.075
 74
0
 49
-0.075
 74
0
  0
LTYPE
  5
1F6
100
AcDbSymbolTableRecord
100
AcDbLinetypeTableRecord
  2
HIDDEN
 70
64
  3
- - - - - - - - - - - - - - - - - - - -
 72
65
 73
2
 40
0.2
 49
0.1
 74
0
 49
-0.1
 74
0
  0
LTYPE
  5
1F7
100
AcDbSymbolTableRecord
100
AcDbLinetypeTableRecord
  2
PHANTOM
 70
64
  3
_____ _ _ _____ _ _ _____ _ _ _____
 72
65
 73
6
 40
0.8
 49
0.45
 74
0
 49
-0.05
 74
0
 49
0.1
 74
0
 49
-0.05
 74
0
 49
0.1
 74
0
 49
-0.05
 74
0
  0
LTYPE
  5
1F8
100
AcDbSymbolTableRecord
100
AcDbLinetypeTableRecord
  2
DOT
 70
64
  3
. . . . . . . . . . . . . . . . . . . .
 72
65
 73
2
 40
0.2
 49
0.1
 74
0
 49
-0.1
 74
0
  0
LTYPE
  5
1F9
100
AcDbSymbolTableRecord
100
AcDbLinetypeTableRecord
  2
DASHED
 70
64
  3
- - - - - - - - - - - - - - - - - - - -
 72
65
 73
2
 40
0.2
 49
0.1
 74
0
 49
-0.1
 74
0
  0
ENDTAB
  0
TABLE
  2
LAYER
  5
2
100
AcDbSymbolTable
 70
36
  0
LAYER
  5
10
100
AcDbSymbolTableRecord
100
AcDbLayerTableRecord
  2
0
 70
0
 62
7
  6
CONTINUOUS
370
-3
390
F
  0
LAYER
  5
1FA
100
AcDbSymbolTableRecord
100
AcDbLayerTableRecord
  2
DEFAULT_1
 70
0
 62
7
  6
CENTER
370
-3
390
F
  0
LAYER
  5
1FB
100
AcDbSymbolTableRecord
100
AcDbLayerTableRecord
  2
DEFAULT_2
 70
0
 62
7
  6
HIDDEN
370
-3
390
F
  0
LAYER
  5
1FC
100
AcDbSymbolTableRecord
100
AcDbLayerTableRecord
  2
DEFAULT_3
 70
0
 62
7
  6
PHANTOM
370
-3
390
F
  0
LAYER
  5
1FD
100
AcDbSymbolTableRecord
100
AcDbLayerTableRecord
  2
ASSI
 70
0
 62
7
  6
CONTINUOUS
370
-3
390
F
  0
LAYER
  5
1FE
100
AcDbSymbolTableRecord
100
AcDbLayerTableRecord
  2
COORDINATE
 70
0
 62
7
  6
CONTINUOUS
370
-3
390
F
  0
LAYER
  5
1FF
100
AcDbSymbolTableRecord
100
AcDbLayerTableRecord
  2
COPY_PUBLISH
 70
0
 62
7
  6
CONTINUOUS
370
-3
390
F
  0
LAYER
  5
200
100
AcDbSymbolTableRecord
100
AcDbLayerTableRecord
  2
COSMETIC
 70
0
 62
7
  6
CONTINUOUS
370
-3
390
F
  0
LAYER
  5
201
100
AcDbSymbolTableRecord
100
AcDbLayerTableRecord
  2
CRV_ROUND_OLD
 70
0
 62
7
  6
CONTINUOUS
370
-3
390
F
  0
LAYER
  5
202
100
AcDbSymbolTableRecord
100
AcDbLayerTableRecord
  2
CURVE
 70
0
 62
7
  6
CONTINUOUS
370
-3
390
F
  0
LAYER
  5
203
100
AcDbSymbolTableRecord
100
AcDbLayerTableRecord
  2
DRAFT
 70
0
 62
7
  6
CONTINUOUS
370
-3
390
F
  0
LAYER
  5
204
100
AcDbSymbolTableRecord
100
AcDbLayerTableRecord
  2
FILLET_G
 70
0
 62
7
  6
CONTINUOUS
370
-3
390
F
  0
LAYER
  5
205
100
AcDbSymbolTableRecord
100
AcDbLayerTableRecord
  2
IMPORT_IGES
 70
0
 62
7
  6
CONTINUOUS
370
-3
390
F
  0
LAYER
  5
206
100
AcDbSymbolTableRecord
100
AcDbLayerTableRecord
  2
INTF_1
 70
0
 62
7
  6
CONTINUOUS
370
-3
390
F
  0
LAYER
  5
207
100
AcDbSymbolTableRecord
100
AcDbLayerTableRecord
  2
INTF_BLANK
 70
0
 62
7
  6
CONTINUOUS
370
-3
390
F
  0
LAYER
  5
208
100
AcDbSymbolTableRecord
100
AcDbLayerTableRecord
  2
INTF_CYAN
 70
0
 62
7
  6
CONTINUOUS
370
-3
390
F
  0
LAYER
  5
209
100
AcDbSymbolTableRecord
100
AcDbLayerTableRecord
  2
LAYER_3158
 70
0
 62
7
  6
CONTINUOUS
370
-3
390
F
  0
LAYER
  5
20A
100
AcDbSymbolTableRecord
100
AcDbLayerTableRecord
  2
NONE
 70
0
 62
7
  6
CONTINUOUS
370
-3
390
F
  0
LAYER
  5
20B
100
AcDbSymbolTableRecord
100
AcDbLayerTableRecord
  2
PELLE_ESTERNA
 70
0
 62
7
  6
CONTINUOUS
370
-3
390
F
  0
LAYER
  5
20C
100
AcDbSymbolTableRecord
100
AcDbLayerTableRecord
  2
PELLE_INTERNA
 70
0
 62
7
  6
CONTINUOUS
370
-3
390
F
  0
LAYER
  5
20D
100
AcDbSymbolTableRecord
100
AcDbLayerTableRecord
  2
PIANI
 70
0
 62
7
  6
CONTINUOUS
370
-3
390
F
  0
LAYER
  5
20E
100
AcDbSymbolTableRecord
100
AcDbLayerTableRecord
  2
PUNTI
 70
0
 62
7
  6
CONTINUOUS
370
-3
390
F
  0
LAYER
  5
20F
100
AcDbSymbolTableRecord
100
AcDbLayerTableRecord
  2
RACCORDO
 70
0
 62
7
  6
CONTINUOUS
370
-3
390
F
  0
LAYER
  5
210
100
AcDbSymbolTableRecord
100
AcDbLayerTableRecord
  2
SHELL
 70
0
 62
7
  6
CONTINUOUS
370
-3
390
F
  0
LAYER
  5
211
100
AcDbSymbolTableRecord
100
AcDbLayerTableRecord
  2
SNAPLINE
 70
0
 62
7
  6
CONTINUOUS
370
-3
390
F
  0
LAYER
  5
212
100
AcDbSymbolTableRecord
100
AcDbLayerTableRecord
  2
SOLIDI
 70
0
 62
7
  6
CONTINUOUS
370
-3
390
F
  0
LAYER
  5
213
100
AcDbSymbolTableRecord
100
AcDbLayerTableRecord
  2
SOLIDO_1
 70
0
 62
7
  6
CONTINUOUS
370
-3
390
F
  0
LAYER
  5
214
100
AcDbSymbolTableRecord
100
AcDbLayerTableRecord
  2
SRF_COSTRUZIONE
 70
0
 62
7
  6
CONTINUOUS
370
-3
390
F
  0
LAYER
  5
215
100
AcDbSymbolTableRecord
100
AcDbLayerTableRecord
  2
SUPERFICI
 70
0
 62
7
  6
CONTINUOUS
370
-3
390
F
  0
LAYER
  5
216
100
AcDbSymbolTableRecord
100
AcDbLayerTableRecord
  2
SUP_TAGLIO_APPOGGI
 70
0
 62
7
  6
CONTINUOUS
370
-3
390
F
  0
LAYER
  5
217
100
AcDbSymbolTableRecord
100
AcDbLayerTableRecord
  2
TRASH
 70
0
 62
7
  6
CONTINUOUS
370
-3
390
F
  0
LAYER
  5
218
100
AcDbSymbolTableRecord
100
AcDbLayerTableRecord
  2
XSEC_DATUMS
 70
0
 62
7
  6
CONTINUOUS
370
-3
390
F
  0
ENDTAB
  0
TABLE
  2
STYLE
  5
3
100
AcDbSymbolTable
 70
1
  0
STYLE
  5
11
100
AcDbSymbolTableRecord
100
AcDbTextStyleTableRecord
  2
STANDARD
 70
0
 40
0.0
 41
0.8
 50
0.0
 71
0
 42
0.2
  3
txt
  4

  0
STYLE
  5
219
100
AcDbSymbolTableRecord
100
AcDbTextStyleTableRecord
  2
TEXTSTYLE_1
 70
0
 40
0.0
 41
0.8
 50
0.0
 71
0
 42
0.2
  3
gdt
  4

  0
ENDTAB
  0
TABLE
  2
VIEW
  5
6
100
AcDbSymbolTable
 70
0
  0
ENDTAB
  0
TABLE
  2
UCS
  5
7
100
AcDbSymbolTable
 70
0
  0
ENDTAB
  0
TABLE
  2
APPID
  5
9
100
AcDbSymbolTable
 70
1
  0
APPID
  5
21A
100
AcDbSymbolTableRecord
100
AcDbRegAppTableRecord
  2
ACAD
 70
0
  0
ENDTAB
  0
TABLE
  2
BLOCK_RECORD
  5
1
100
AcDbSymbolTable
 70
0
  0
BLOCK_RECORD
  5
21B
100
AcDbSymbolTableRecord
100
AcDbBlockTableRecord
  2
*Model_Space
  0
BLOCK_RECORD
  5
21C
100
AcDbSymbolTableRecord
100
AcDbBlockTableRecord
  2
*Paper_Space
  0
BLOCK_RECORD
  5
21D
100
AcDbSymbolTableRecord
100
AcDbBlockTableRecord
  2
_FILLED
  0
BLOCK_RECORD
  5
21E
100
AcDbSymbolTableRecord
100
AcDbBlockTableRecord
  2
*D0
  0
BLOCK_RECORD
  5
21F
100
AcDbSymbolTableRecord
100
AcDbBlockTableRecord
  2
*D1
  0
BLOCK_RECORD
  5
220
100
AcDbSymbolTableRecord
100
AcDbBlockTableRecord
  2
*D2
  0
ENDTAB
  0
TABLE
  2
DIMSTYLE
  5
A
100
AcDbSymbolTable
 70
1
100
AcDbDimStyleTable
 71
0
  0
DIMSTYLE
105
221
100
AcDbSymbolTableRecord
100
AcDbDimStyleTableRecord
  2
STANDARD
 70
0
  3

  4

 40
1.0
 41
3.0
 42
0.5
 43
0.38
 44
1.5
 45
0.0
 46
0.0
 47
0.01
 48
0.01
140
3.0
141
0.09
142
0.0
143
25.4
144
1.0
145
0.0
146
1.0
147
0.625
 71
1.0
 72
0.0
 73
0
 74
0
 75
0
 76
0
 77
1
 78
8
170
0
171
2
172
0
173
0
174
0
175
0
176
0
177
0
178
0
270
2
271
2
272
2
273
2
274
2
275
0
280
0
281
0
282
0
283
1
284
8
285
0
286
0
287
3
288
0
340
11
278
44
341
21D
342
21D
343
21D
344
21D
  0
DIMSTYLE
105
222
100
AcDbSymbolTableRecord
100
AcDbDimStyleTableRecord
  2
DIMSTYLE_1
 70
0
  3

  4

 40
1.0
 41
3.0
 42
0.5
 43
0.38
 44
1.5
 45
0.0
 46
0.0
 47
0.0
 48
0.0
140
3.0
141
0.09
142
0.0
143
25.4
144
1.0
145
0.0
146
1.0
147
0.75
 71
0.0
 72
0.0
 73
0
 74
0
 75
0
 76
0
 77
1
 78
8
170
0
171
2
172
0
173
0
174
0
175
0
176
0
177
0
178
0
270
2
271
2
272
2
273
2
274
2
275
0
280
0
281
0
282
0
283
1
284
8
285
0
286
0
287
3
288
0
340
11
278
44
341
21D
342
21D
343
21D
344
21D
  0
DIMSTYLE
105
223
100
AcDbSymbolTableRecord
100
AcDbDimStyleTableRecord
  2
DIMSTYLE_2
 70
0
  3

  4

 40
1.0
 41
3.0
 42
0.5
 43
0.38
 44
1.5
 45
0.0
 46
0.0
 47
0.0
 48
0.0
140
3.0
141
0.09
142
0.0
143
25.4
144
1.0
145
0.0
146
1.0
147
0.75
 71
0.0
 72
0.0
 73
0
 74
0
 75
0
 76
0
 77
1
 78
8
170
0
171
2
172
0
173
0
174
0
175
0
176
0
177
0
178
0
270
2
271
0
272
0
273
2
274
2
275
0
280
0
281
0
282
0
283
1
284
8
285
0
286
0
287
3
288
0
340
11
278
44
341
21D
342
21D
343
21D
344
21D
  0
ENDTAB
  0
ENDSEC
  0
SECTION
  2
BLOCKS
  0
BLOCK
  5
20
100
AcDbEntity
  8
0
100
AcDbBlockBegin
  2
*Model_Space
 70
0
 10
0.0
 20
0.0
 30
0.0
  3
*Model_Space
  1

  0
ENDBLK
  5
21
100
AcDbEntity
  8
0
100
AcDbBlockEnd
  0
BLOCK
  5
1C
100
AcDbEntity
  8
0
100
AcDbBlockBegin
  2
*Paper_Space
 70
0
 10
0.0
 20
0.0
 30
0.0
  3
*Paper_Space
  1

  0
ENDBLK
  5
1D
100
AcDbEntity
  8
0
100
AcDbBlockEnd
  0
BLOCK
  5
224
100
AcDbEntity
  8
0
100
AcDbBlockBegin
  2
_FILLED
 70
64
 10
0.0
 20
0.0
  3
_FILLED
  1

  0
SOLID
  5
225
100
AcDbEntity
  8
0
  6
BYBLOCK
 62
0
100
AcDbTrace
 10
0.0
 20
0.0
 11
-1.0
 21
0.3166666667
 12
-1.0
 22
-0.3166666667
 13
-1.0
 23
-0.3166666667
  0
ENDBLK
  5
226
100
AcDbEntity
  8
0
  6
BYBLOCK
 62
0
100
AcDbBlockEnd
  0
BLOCK
  5
227
100
AcDbEntity
  8
0
100
AcDbBlockBegin
 62
7
  6
CONTINUOUS
  2
*D0
 70
65
 10
0.0
 20
0.0
  3
*D0
  1

  0
MTEXT
  5
228
100
AcDbEntity
  8
0
100
AcDbMText
 62
7
  6
CONTINUOUS
  7
STANDARD
 71
2
 72
1
 10
12.9191284734
 20
60.2303693713
 30
0.0
 11
1.0
 21
0.0
 31
0.0
 44
0.9
  1
95
 40
3.0
 41
4.5
  0
LINE
  5
229
100
AcDbEntity
  8
0
100
AcDbLine
 62
7
  6
CONTINUOUS
 10
-34.5808715279
 20
0.5053693714
 11
-34.5808715279
 21
57.9803693713
  0
LINE
  5
22A
100
AcDbEntity
  8
0
100
AcDbLine
 62
7
  6
CONTINUOUS
 10
60.4191284746
 20
0.5053693718
 11
60.4191284746
 21
57.9803693713
  0
LINE
  5
22B
100
AcDbEntity
  8
0
100
AcDbLine
 62
7
  6
CONTINUOUS
 10
-34.5808715279
 20
56.4803693713
 11
12.9191284734
 21
56.4803693713
  0
LINE
  5
22C
100
AcDbEntity
  8
0
100
AcDbLine
 62
7
  6
CONTINUOUS
 10
60.4191284746
 20
56.4803693713
 11
12.9191284734
 21
56.4803693713
  0
INSERT
  5
22D
100
AcDbEntity
  8
0
100
AcDbBlockReference
 62
7
  6
CONTINUOUS
  2
_FILLED
 10
-34.5808715279
 20
56.4803693713
 41
3.0
 42
3.0
 43
3.0
 50
180.0
  0
INSERT
  5
22E
100
AcDbEntity
  8
0
100
AcDbBlockReference
 62
7
  6
CONTINUOUS
  2
_FILLED
 10
60.4191284746
 20
56.4803693713
 41
3.0
 42
3.0
 43
3.0
  0
ENDBLK
  5
22F
100
AcDbEntity
  8
0
  6
BYBLOCK
 62
0
100
AcDbBlockEnd
  0
BLOCK
  5
230
100
AcDbEntity
  8
0
100
AcDbBlockBegin
 62
7
  6
CONTINUOUS
  2
*D1
 70
65
 10
0.0
 20
0.0
  3
*D1
  1

  0
MTEXT
  5
231
100
AcDbEntity
  8
0
100
AcDbMText
 62
7
  6
CONTINUOUS
  7
STANDARD
 71
2
 72
1
 10
65.5941284721
 20
0.0053693766
 30
0.0
 11
0.0
 21
1.0
 31
0.0
 44
0.9
  1
95
 40
3.0
 41
4.5
  0
LINE
  5
232
100
AcDbEntity
  8
0
100
AcDbLine
 62
7
  6
CONTINUOUS
 10
13.419128472
 20
47.5053693713
 11
70.8441284721
 21
47.5053693713
  0
LINE
  5
233
100
AcDbEntity
  8
0
100
AcDbLine
 62
7
  6
CONTINUOUS
 10
13.4191284748
 20
-47.494630618
 11
70.8441284721
 21
-47.494630618
  0
LINE
  5
234
100
AcDbEntity
  8
0
100
AcDbLine
 62
7
  6
CONTINUOUS
 10
69.3441284721
 20
47.5053693713
 11
69.3441284721
 21
0.0053693766
  0
LINE
  5
235
100
AcDbEntity
  8
0
100
AcDbLine
 62
7
  6
CONTINUOUS
 10
69.3441284721
 20
-47.494630618
 11
69.3441284721
 21
0.0053693766
  0
INSERT
  5
236
100
AcDbEntity
  8
0
100
AcDbBlockReference
 62
7
  6
CONTINUOUS
  2
_FILLED
 10
69.3441284721
 20
47.5053693713
 41
3.0
 42
3.0
 43
3.0
 50
90.0
  0
INSERT
  5
237
100
AcDbEntity
  8
0
100
AcDbBlockReference
 62
7
  6
CONTINUOUS
  2
_FILLED
 10
69.3441284721
 20
-47.494630618
 41
3.0
 42
3.0
 43
3.0
 50
270.0
  0
ENDBLK
  5
238
100
AcDbEntity
  8
0
  6
BYBLOCK
 62
0
100
AcDbBlockEnd
  0
BLOCK
  5
239
100
AcDbEntity
  8
0
100
AcDbBlockBegin
 62
7
  6
CONTINUOUS
  2
*D2
 70
65
 10
0.0
 20
0.0
  3
*D2
  1

  0
MTEXT
  5
23A
100
AcDbEntity
  8
0
100
AcDbMText
 62
7
  6
CONTINUOUS
  7
STANDARD
 71
2
 72
1
 10
-54.0673920635
 20
60.2303693713
 30
0.0
 11
1.0
 21
0.0
 31
0.0
 44
0.9
  1
9
 40
3.0
 41
2.3571428571
  0
LINE
  5
23B
100
AcDbEntity
  8
0
100
AcDbLine
 62
7
  6
CONTINUOUS
 10
-49.5499359769
 20
47.7985207757
 11
-49.5499359769
 21
57.9803693713
  0
LINE
  5
23C
100
AcDbEntity
  8
0
100
AcDbLine
 62
7
  6
CONTINUOUS
 10
-58.58484815
 20
27.7780241164
 11
-58.58484815
 21
57.9803693713
  0
LINE
  5
23D
100
AcDbEntity
  8
0
100
AcDbLine
 62
7
  6
CONTINUOUS
 10
-49.5499359769
 20
56.4803693713
 11
-54.0673920635
 21
56.4803693713
  0
LINE
  5
23E
100
AcDbEntity
  8
0
100
AcDbLine
 62
7
  6
CONTINUOUS
 10
-58.58484815
 20
56.4803693713
 11
-54.0673920635
 21
56.4803693713
  0
INSERT
  5
23F
100
AcDbEntity
  8
0
100
AcDbBlockReference
 62
7
  6
CONTINUOUS
  2
_FILLED
 10
-49.5499359769
 20
56.4803693713
 41
3.0
 42
3.0
 43
3.0
  0
INSERT
  5
240
100
AcDbEntity
  8
0
100
AcDbBlockReference
 62
7
  6
CONTINUOUS
  2
_FILLED
 10
-58.58484815
 20
56.4803693713
 41
3.0
 42
3.0
 43
3.0
 50
180.0
  0
ENDBLK
  5
241
100
AcDbEntity
  8
0
  6
BYBLOCK
 62
0
100
AcDbBlockEnd
  0
ENDSEC
  0
SECTION
  2
ENTITIES
  0
DIMENSION
  5
242
100
AcDbEntity
  8
0
100
AcDbDimension
 62
7
  6
CONTINUOUS
  2
*D0
 10
60.4191284746
 20
56.4803693713
 11
12.9191284734
 21
56.4803693713
 70
160
 71
2
 42
95.0000000025
  3
DIMSTYLE_1
100
AcDbAlignedDimension
 13
-34.5808715279
 23
0.0053693714
 14
60.4191284746
 24
0.0053693718
100
AcDbRotatedDimension
  0
DIMENSION
  5
243
100
AcDbEntity
  8
0
100
AcDbDimension
 62
7
  6
CONTINUOUS
  2
*D1
 10
69.3441284721
 20
-47.494630618
 11
69.3441284721
 21
0.0053693766
 70
160
 71
2
 42
94.9999999893
  3
DIMSTYLE_1
100
AcDbAlignedDimension
 13
12.919128472
 23
47.5053693713
 14
12.9191284748
 24
-47.494630618
 50
270.0
100
AcDbRotatedDimension
  0
DIMENSION
  5
244
100
AcDbEntity
  8
0
100
AcDbDimension
 62
7
  6
CONTINUOUS
  2
*D2
 10
-58.58484815
 20
56.4803693713
 11
-54.0673920635
 21
56.4803693713
 70
160
 71
2
 42
9.0349121731
  3
DIMSTYLE_2
100
AcDbAlignedDimension
 13
-49.5499359769
 23
47.2985207757
 14
-58.58484815
 24
27.2780241164
 50
180.0
100
AcDbRotatedDimension
  0
LINE
  5
245
100
AcDbEntity
  8
0
100
AcDbLine
 62
253
  6
CONTINUOUS
 10
-32.1424222036
 20
-35.825840574
 11
-32.1925823546
 21
-35.1387120054
  0
LINE
  5
246
100
AcDbEntity
  8
0
100
AcDbLine
 62
253
  6
CONTINUOUS
 10
-32.1925823546
 20
-35.1387120054
 11
-32.2871443427
 21
-33.7562166964
  0
LINE
  5
247
100
AcDbEntity
  8
0
100
AcDbLine
 62
253
  6
CONTINUOUS
 10
-32.2871443427
 20
-33.7562166964
 11
-32.3788372869
 21
-32.3750673668
  0
LINE
  5
248
100
AcDbEntity
  8
0
100
AcDbLine
 62
253
  6
CONTINUOUS
 10
-32.3788372869
 20
-32.3750673668
 11
-32.4659161872
 21
-31.00302055
  0
LINE
  5
249
100
AcDbEntity
  8
0
100
AcDbLine
 62
253
  6
CONTINUOUS
 10
-32.4659161872
 20
-31.00302055
 11
-32.5489550203
 21
-29.6444306968
  0
LINE
  5
24A
100
AcDbEntity
  8
0
100
AcDbLine
 62
253
  6
CONTINUOUS
 10
-32.5489550203
 20
-29.6444306968
 11
-32.6279897159
 21
-28.286050402
  0
LINE
  5
24B
100
AcDbEntity
  8
0
100
AcDbLine
 62
253
  6
CONTINUOUS
 10
-32.6279897159
 20
-28.286050402
 11
-32.7046329976
 21
-26.9019168559
  0
LINE
  5
24C
100
AcDbEntity
  8
0
100
AcDbLine
 62
253
  6
CONTINUOUS
 10
-32.7046329976
 20
-26.9019168559
 11
-32.7787811909
 21
-25.4926384456
  0
LWPOLYLINE
  5
24D
100
AcDbEntity
  8
0
100
AcDbPolyline
 62
253
  6
CONTINUOUS
 90
3
 70
0
 10
-32.7787811909
 20
-25.4926384456
 10
-32.8486388996
 20
-24.0897100731
 10
-32.8818609479
 20
-23.3920073009
  0
LWPOLYLINE
  5
24E
100
AcDbEntity
  8
0
100
AcDbPolyline
 62
253
  6
CONTINUOUS
 90
16
 70
0
 10
-32.8818735096
 20
-23.3919145028
 10
-32.9699345675
 20
-21.4314224986
 10
-33.0479659611
 20
-19.5316421214
 10
-33.1166764038
 20
-17.6930358495
 10
-33.1765889772
 20
-15.9175518704
 10
-33.2284380848
 20
-14.2023298218
 10
-33.273096089
 20
-12.5395361856
 10
-33.3111005323
 20
-10.9272066607
 10
-33.342871472
 20
-9.3670043673
 10
-33.368987304
 20
-7.85657416
 10
-33.3899906061
 20
-6.3889091762
 10
-33.4061551363
 20
-4.9707819977
 10
-33.4177818748
 20
-3.6205247656
 10
-33.4254028643
 20
-2.3441940912
 10
-33.4295997343
 20
-1.1355798055
 10
-33.4308715324
 20
0.0053695535
  0
LWPOLYLINE
  5
24F
100
AcDbEntity
  8
0
100
AcDbPolyline
 62
253
  6
CONTINUOUS
 90
16
 70
0
 10
-32.8818735096
 20
23.4026532454
 10
-32.9699345675
 20
21.4421612412
 10
-33.0479659611
 20
19.542380864
 10
-33.1166764038
 20
17.7037745921
 10
-33.1765889772
 20
15.9282906131
 10
-33.2284380848
 20
14.2130685644
 10
-33.273096089
 20
12.5502749283
 10
-33.3111005323
 20
10.9379454034
 10
-33.342871472
 20
9.3777431099
 10
-33.368987304
 20
7.8673129026
 10
-33.3899906063
 20
6.3996479053
 10
-33.4061551366
 20
4.9815207133
 10
-33.4177818748
 20
3.6312635082
 10
-33.4254028639
 20
2.3549329148
 10
-33.4295997339
 20
1.1463187506
 10
-33.4308715324
 20
0.0053695535
  0
LINE
  5
250
100
AcDbEntity
  8
SUPERFICI
100
AcDbLine
 62
253
  6
CONTINUOUS
 10
-32.8142548028
 20
24.8010069262
 11
-32.8818609479
 21
23.4027460435
  0
LINE
  5
251
100
AcDbEntity
  8
SUPERFICI
100
AcDbLine
 62
253
  6
CONTINUOUS
 10
-32.7421788096
 20
26.2082216913
 11
-32.8142548028
 21
24.8010069262
  0
LINE
  5
252
100
AcDbEntity
  8
SUPERFICI
100
AcDbLine
 62
253
  6
CONTINUOUS
 10
-32.6665154631
 20
27.6106843778
 11
-32.7421788096
 21
26.2082216913
  0
LINE
  5
253
100
AcDbEntity
  8
SUPERFICI
100
AcDbLine
 62
253
  6
CONTINUOUS
 10
-32.588867041
 20
28.9754000466
 11
-32.6665154631
 21
27.6106843778
  0
LINE
  5
254
100
AcDbEntity
  8
SUPERFICI
100
AcDbLine
 62
253
  6
CONTINUOUS
 10
-32.5079639857
 20
30.3351670435
 11
-32.588867041
 21
28.9754000466
  0
LINE
  5
255
100
AcDbEntity
  8
SUPERFICI
100
AcDbLine
 62
253
  6
CONTINUOUS
 10
-32.3788372869
 20
32.3858061094
 11
-32.5079639857
 21
30.3351670435
  0
LWPOLYLINE
  5
256
100
AcDbEntity
  8
SUPERFICI
100
AcDbPolyline
 62
253
  6
CONTINUOUS
 90
4
 70
0
 10
-32.1424222036
 20
35.8365793166
 10
-32.1925823546
 20
35.149450748
 10
-32.2405906262
 20
34.4590543517
 10
-32.3788372869
 20
32.3858061094
  0
LINE
  5
257
100
AcDbEntity
  8
SUPERFICI
100
AcDbLine
 62
253
  6
CONTINUOUS
 10
48.5040133393
 20
-45.0748394976
 11
49.0716908253
 21
-45.0328939914
  0
LINE
  5
258
100
AcDbEntity
  8
SUPERFICI
100
AcDbLine
 62
253
  6
CONTINUOUS
 10
46.2087566109
 20
-45.2328463771
 11
48.5040133393
 21
-45.0748394976
  0
LINE
  5
259
100
AcDbEntity
  8
SUPERFICI
100
AcDbLine
 62
253
  6
CONTINUOUS
 10
43.9528689483
 20
-45.3783891338
 11
46.2087566109
 21
-45.2328463771
  0
LWPOLYLINE
  5
25A
100
AcDbEntity
  8
SUPERFICI
100
AcDbPolyline
 62
253
  6
CONTINUOUS
 90
70
 70
0
 10
49.0716908253
 20
-45.0328939914
 10
49.2477171531
 20
-45.02236484
 10
49.4343904016
 20
-45.0069801616
 10
49.6312115101
 20
-44.9865403299
 10
49.8397774591
 20
-44.960727159
 10
50.0573315427
 20
-44.929368241
 10
50.2770677681
 20
-44.8925431579
 10
50.497950932
 20
-44.8497659342
 10
50.7203538865
 20
-44.8011344631
 10
50.9400709722
 20
-44.747778135
 10
51.1568526762
 20
-44.6894046645
 10
51.370709544
 20
-44.6260530318
 10
51.578272371
 20
-44.5595500754
 10
51.779306626
 20
-44.4899663854
 10
51.9742594527
 20
-44.4171976377
 10
52.1611602691
 20
-44.3430082045
 10
52.3392757455
 20
-44.2679723638
 10
52.5098793183
 20
-44.1916798012
 10
52.6741236219
 20
-44.1144923239
 10
52.8301970268
 20
-44.0375854433
 10
52.9803749504
 20
-43.9599535079
 10
53.1315104474
 20
-43.8784420881
 10
53.2849038111
 20
-43.7920170732
 10
53.4387822694
 20
-43.7013105627
 10
53.594883366
 20
-43.605347609
 10
53.7522686296
 20
-43.5041227242
 10
53.9112339091
 20
-43.3970672459
 10
54.0749922033
 20
-43.2820881618
 10
54.2456935258
 20
-43.156543489
 10
54.4197827676
 20
-43.0218330762
 10
54.5920988536
 20
-42.8820553628
 10
54.7616860939
 20
-42.7377819241
 10
54.9292218214
 20
-42.5879077098
 10
55.092684217
 20
-42.4345531881
 10
55.2515483011
 20
-42.2783747478
 10
55.4065061362
 20
-42.1185201107
 10
55.5575854091
 20
-41.9550447473
 10
55.7048408162
 20
-41.7879490317
 10
55.8483687734
 20
-41.6170133368
 10
55.988263322
 20
-41.4419630775
 10
56.1251364722
 20
-41.2621268058
 10
56.2584844331
 20
-41.077890886
 10
56.3868721367
 20
-40.8907297014
 10
56.5103302882
 20
-40.7012013838
 10
56.6292885875
 20
-40.5088819357
 10
56.7431104172
 20
-40.3140143909
 10
56.8521059435
 20
-40.1168151696
 10
56.9564700889
 20
-39.9173320269
 10
57.0554871777
 20
-39.7156859011
 10
57.1494673396
 20
-39.5120439334
 10
57.2386391209
 20
-39.3066502406
 10
57.322251271
 20
-39.0998798134
 10
57.4006265725
 20
-38.8917799445
 10
57.4739988581
 20
-38.682865914
 10
57.541576715
 20
-38.4743967726
 10
57.6035292124
 20
-38.2668495858
 10
57.6602659104
 20
-38.060538405
 10
57.7114230074
 20
-37.8566491974
 10
57.7571033662
 20
-37.6557799657
 10
57.7977225162
 20
-37.4582178447
 10
57.8333944509
 20
-37.2647541929
 10
57.8642006618
 20
-37.0754338754
 10
57.89046293
 20
-36.8910404338
 10
57.9126356128
 20
-36.7135066381
 10
57.9304825347
 20
-36.5434128742
 10
57.9445395836
 20
-36.3809872821
 10
57.9563682237
 20
-36.2276125075
 10
57.9665289291
 20
-36.0839419077
 10
57.9746115476
 20
-35.9499272196
 10
57.9806791479
 20
-35.825840574
  0
LWPOLYLINE
  5
25B
100
AcDbEntity
  8
0
100
AcDbPolyline
 62
253
  6
CONTINUOUS
 90
10
 70
0
 10
12.9191285792
 20
-46.3446305006
 10
16.369367262
 20
-46.332711701
 10
19.8189740704
 20
-46.296941389
 10
23.2679490044
 20
-46.2373195646
 10
26.7161336952
 20
-46.1538583974
 10
30.1636865115
 20
-46.0465457179
 10
33.6110825593
 20
-45.9153450173
 10
37.0584802073
 20
-45.7602441261
 10
40.505721087
 20
-45.5812552139
 10
43.9528051983
 20
-45.3783782808
  0
LWPOLYLINE
  5
25C
100
AcDbEntity
  8
0
100
AcDbPolyline
 62
253
  6
CONTINUOUS
 90
10
 70
0
 10
12.9191285792
 20
-46.3446306312
 10
9.4688898012
 20
-46.3327117736
 10
6.0192829215
 20
-46.296941418
 10
2.5703079399
 20
-46.2373195646
 10
-0.8778767668
 20
-46.1538583878
 10
-4.3254295751
 20
-46.046545713
 10
-7.772825615
 20
-45.9153450173
 10
-11.220223263
 20
-45.7602441261
 10
-14.6674641427
 20
-45.5812552139
 10
-18.114548254
 20
-45.3783782808
  0
LWPOLYLINE
  5
25D
100
AcDbEntity
  8
0
100
AcDbPolyline
 62
253
  6
CONTINUOUS
 90
70
 70
0
 10
-23.233433881
 20
-45.0328939914
 10
-23.4094602088
 20
-45.02236484
 10
-23.5961334573
 20
-45.0069801616
 10
-23.7929545658
 20
-44.9865403299
 10
-24.0015205148
 20
-44.960727159
 10
-24.2190745984
 20
-44.929368241
 10
-24.4388108239
 20
-44.8925431579
 10
-24.6596939877
 20
-44.8497659342
 10
-24.8820969422
 20
-44.8011344631
 10
-25.1018140279
 20
-44.747778135
 10
-25.3185957319
 20
-44.6894046645
 10
-25.5324525997
 20
-44.6260530318
 10
-25.7400154268
 20
-44.5595500754
 10
-25.9410496817
 20
-44.4899663854
 10
-26.1360025084
 20
-44.4171976377
 10
-26.3229033249
 20
-44.3430082045
 10
-26.5010188012
 20
-44.2679723638
 10
-26.671622374
 20
-44.1916798012
 10
-26.8358666776
 20
-44.1144923239
 10
-26.9919400825
 20
-44.0375854433
 10
-27.1421180062
 20
-43.9599535079
 10
-27.2932535031
 20
-43.8784420881
 10
-27.4466468668
 20
-43.7920170732
 10
-27.6005253251
 20
-43.7013105627
 10
-27.7566264217
 20
-43.605347609
 10
-27.9140116854
 20
-43.5041227242
 10
-28.0729769648
 20
-43.3970672459
 10
-28.236735259
 20
-43.2820881618
 10
-28.4074365815
 20
-43.156543489
 10
-28.5815258233
 20
-43.0218330762
 10
-28.7538419094
 20
-42.8820553628
 10
-28.9234291496
 20
-42.7377819241
 10
-29.0909648772
 20
-42.5879077098
 10
-29.2544272727
 20
-42.4345531881
 10
-29.4132913568
 20
-42.2783747478
 10
-29.568249192
 20
-42.1185201107
 10
-29.7193284648
 20
-41.9550447473
 10
-29.8665838719
 20
-41.7879490317
 10
-30.0101118291
 20
-41.6170133368
 10
-30.1500063777
 20
-41.4419630775
 10
-30.2868795279
 20
-41.2621268058
 10
-30.4202274888
 20
-41.077890886
 10
-30.5486151924
 20
-40.8907297014
 10
-30.6720733439
 20
-40.7012013838
 10
-30.7910316432
 20
-40.5088819357
 10
-30.9048534729
 20
-40.3140143909
 10
-31.0138489992
 20
-40.1168151696
 10
-31.1182131446
 20
-39.9173320269
 10
-31.2172302335
 20
-39.7156859011
 10
-31.3112103953
 20
-39.5120439334
 10
-31.4003821766
 20
-39.3066502406
 10
-31.4839943267
 20
-39.0998798134
 10
-31.5623696283
 20
-38.8917799445
 10
-31.6357419138
 20
-38.682865914
 10
-31.7033197707
 20
-38.4743967726
 10
-31.7652722681
 20
-38.2668495858
 10
-31.8220089661
 20
-38.060538405
 10
-31.8731660631
 20
-37.8566491974
 10
-31.9188464219
 20
-37.6557799657
 10
-31.9594655719
 20
-37.4582178447
 10
-31.9951375066
 20
-37.2647541929
 10
-32.0259437175
 20
-37.0754338754
 10
-32.0522059857
 20
-36.8910404338
 10
-32.0743786685
 20
-36.7135066381
 10
-32.0922255904
 20
-36.5434128742
 10
-32.1062826393
 20
-36.3809872821
 10
-32.1181112795
 20
-36.2276125075
 10
-32.1282719848
 20
-36.0839419077
 10
-32.1363546033
 20
-35.9499272196
 10
-32.1424222036
 20
-35.825840574
  0
LINE
  5
25E
100
AcDbEntity
  8
0
100
AcDbLine
 62
253
  6
CONTINUOUS
 10
-18.114612004
 20
-45.3783891338
 11
-19.7979805845
 21
-45.2706202879
  0
LWPOLYLINE
  5
25F
100
AcDbEntity
  8
0
100
AcDbPolyline
 62
253
  6
CONTINUOUS
 90
3
 70
0
 10
-19.7979805845
 20
-45.2706202879
 10
-22.665756395
 20
-45.0748394976
 10
-23.233433881
 20
-45.0328939914
  0
LWPOLYLINE
  5
260
100
AcDbEntity
  8
RACCORDO
100
AcDbPolyline
 62
253
  6
CONTINUOUS
 90
10
 70
0
 10
-19.4811184686
 20
24.6992698536
 10
-19.4925378498
 20
24.6709380152
 10
-19.5036995703
 20
24.6426883995
 10
-19.5146036302
 20
24.6145210065
 10
-19.5250046166
 20
24.5864054607
 10
-19.5351479423
 20
24.5583721377
 10
-19.5457698456
 20
24.5305121639
 10
-19.5571157393
 20
24.5028559149
 10
-19.5689402106
 20
24.4753730152
 10
-19.5812432595
 20
24.4480634647
  0
LWPOLYLINE
  5
261
100
AcDbEntity
  8
RACCORDO
100
AcDbPolyline
 62
253
  6
CONTINUOUS
 90
16
 70
0
 10
-19.5627599425
 20
-24.2143369042
 10
-19.5583137143
 20
-24.2276099155
 10
-19.554288515
 20
-24.2418915139
 10
-19.5506841025
 20
-24.2571820072
 10
-19.5474850618
 20
-24.2739622309
 10
-19.5447062949
 20
-24.291751841
 10
-19.5423931616
 20
-24.3091093367
 10
-19.5406308804
 20
-24.3255132594
 10
-19.5393340731
 20
-24.3414853764
 10
-19.538292394
 20
-24.3571489475
 10
-19.5358106544
 20
-24.3728237962
 10
-19.5335842386
 20
-24.3881899382
 10
-19.5364876875
 20
-24.4024118244
 10
-19.5461469961
 20
-24.4152063849
 10
-19.5609407486
 20
-24.4268419429
 10
-19.5808744833
 20
-24.4373032881
  0
LWPOLYLINE
  5
262
100
AcDbEntity
  8
RACCORDO
100
AcDbPolyline
 62
253
  6
CONTINUOUS
 90
5
 70
0
 10
-18.114548254
 20
-45.3783782808
 10
-18.2094267386
 20
-44.3227753078
 10
-18.3000052595
 20
-43.2940568289
 10
-18.3862838166
 20
-42.2922228441
 10
-18.4679831033
 20
-41.3187169986
  0
LWPOLYLINE
  5
263
100
AcDbEntity
  8
RACCORDO
100
AcDbPolyline
 62
253
  6
CONTINUOUS
 90
3
 70
0
 10
-18.4679831033
 20
-41.3187169986
 10
-18.6193197059
 20
-39.4480278549
 10
-18.6899431791
 20
-38.5452621957
  0
LINE
  5
264
100
AcDbEntity
  8
RACCORDO
100
AcDbLine
 62
253
  6
CONTINUOUS
 10
-18.6899431791
 20
-38.5452621957
 11
-18.8211972055
 21
-36.8068148968
  0
LINE
  5
265
100
AcDbEntity
  8
0
100
AcDbLine
 62
253
  6
CONTINUOUS
 10
-23.543260571
 20
46.174091255
 11
-23.5327637826
 21
46.0305345561
  0
LINE
  5
266
100
AcDbEntity
  8
RACCORDO
100
AcDbLine
 62
253
  6
CONTINUOUS
 10
-18.8211972055
 20
-36.8068148968
 11
-18.940097365
 21
-35.1573766171
  0
LINE
  5
267
100
AcDbEntity
  8
RACCORDO
100
AcDbLine
 62
253
  6
CONTINUOUS
 10
-18.940097365
 20
-35.1573766171
 11
-19.0483093273
 21
-33.5887859491
  0
LINE
  5
268
100
AcDbEntity
  8
RACCORDO
100
AcDbLine
 62
253
  6
CONTINUOUS
 10
-19.0483093273
 20
-33.5887859491
 11
-19.1466928095
 21
-32.0977063071
  0
LINE
  5
269
100
AcDbEntity
  8
RACCORDO
100
AcDbLine
 62
253
  6
CONTINUOUS
 10
-19.1466928095
 20
-32.0977063071
 11
-19.2364476058
 21
-30.6797320454
  0
LINE
  5
26A
100
AcDbEntity
  8
RACCORDO
100
AcDbLine
 62
253
  6
CONTINUOUS
 10
-19.2364476058
 20
-30.6797320454
 11
-19.3173411906
 21
-29.342132834
  0
LINE
  5
26B
100
AcDbEntity
  8
RACCORDO
100
AcDbLine
 62
253
  6
CONTINUOUS
 10
-19.3173411906
 20
-29.342132834
 11
-19.389855206
 21
-28.0793034893
  0
LINE
  5
26C
100
AcDbEntity
  8
RACCORDO
100
AcDbLine
 62
253
  6
CONTINUOUS
 10
-19.389855206
 20
-28.0793034893
 11
-19.4861147785
 21
-26.2761417613
  0
LINE
  5
26D
100
AcDbEntity
  8
RACCORDO
100
AcDbLine
 62
253
  6
CONTINUOUS
 10
-19.4861147785
 20
-26.2761417613
 11
-19.5683996673
 21
-24.6889730859
  0
LWPOLYLINE
  5
26E
100
AcDbEntity
  8
RACCORDO
100
AcDbPolyline
 62
253
  6
CONTINUOUS
 90
10
 70
0
 10
-19.5808744833
 20
-24.4373032881
 10
-19.7081654462
 20
-21.6830313711
 10
-19.8196835127
 20
-18.9424656174
 10
-19.9156446912
 20
-16.2158231078
 10
-19.9961412732
 20
-13.5092607503
 10
-20.0616472406
 20
-10.8169398286
 10
-20.1127007705
 20
-8.1209650551
 10
-20.1493196403
 20
-5.4154712792
 10
-20.1713258647
 20
-2.7066394359
 10
-20.1786717339
 20
0.0053693673
  0
LWPOLYLINE
  5
26F
100
AcDbEntity
  8
RACCORDO
100
AcDbPolyline
 62
253
  6
CONTINUOUS
 90
10
 70
0
 10
-19.5808744833
 20
24.4480420307
 10
-19.7081654462
 20
21.6937701137
 10
-19.8196835127
 20
18.95320436
 10
-19.9156446912
 20
16.2265618504
 10
-19.9961412732
 20
13.5199994933
 10
-20.0616472405
 20
10.8276785718
 10
-20.1127007705
 20
8.1317037977
 10
-20.1493196403
 20
5.42621002
 10
-20.1713258648
 20
2.717378174
 10
-20.1786717339
 20
0.0053693673
  0
LINE
  5
270
100
AcDbEntity
  8
RACCORDO
100
AcDbLine
 62
253
  6
CONTINUOUS
 10
-19.4036747192
 20
27.841619924
 11
-19.5812432595
 21
24.4480634647
  0
LINE
  5
271
100
AcDbEntity
  8
RACCORDO
100
AcDbLine
 62
253
  6
CONTINUOUS
 10
-19.3312648876
 20
29.1155936243
 11
-19.4036747192
 21
27.841619924
  0
LINE
  5
272
100
AcDbEntity
  8
RACCORDO
100
AcDbLine
 62
253
  6
CONTINUOUS
 10
-19.2502727843
 20
30.4663467387
 11
-19.3312648876
 21
29.1155936243
  0
LINE
  5
273
100
AcDbEntity
  8
RACCORDO
100
AcDbLine
 62
253
  6
CONTINUOUS
 10
-19.1601691972
 20
31.8995230207
 11
-19.2502727843
 21
30.4663467387
  0
LINE
  5
274
100
AcDbEntity
  8
RACCORDO
100
AcDbLine
 62
253
  6
CONTINUOUS
 10
-19.0611595931
 20
33.4088769893
 11
-19.1601691972
 21
31.8995230207
  0
LINE
  5
275
100
AcDbEntity
  8
RACCORDO
100
AcDbLine
 62
253
  6
CONTINUOUS
 10
-18.9520637523
 20
34.9983139939
 11
-19.0611595931
 21
33.4088769893
  0
LINE
  5
276
100
AcDbEntity
  8
RACCORDO
100
AcDbLine
 62
253
  6
CONTINUOUS
 10
-18.8319974222
 20
36.6712163872
 11
-18.9520637523
 21
34.9983139939
  0
LINE
  5
277
100
AcDbEntity
  8
0
100
AcDbLine
 62
253
  6
CONTINUOUS
 10
-23.5432605721
 20
-46.1633525126
 11
-23.5327334213
 21
-46.0193805743
  0
LINE
  5
278
100
AcDbEntity
  8
RACCORDO
100
AcDbLine
 62
253
  6
CONTINUOUS
 10
-18.6992062312
 20
38.4362319317
 11
-18.8319974222
 21
36.6712163872
  0
LWPOLYLINE
  5
279
100
AcDbEntity
  8
RACCORDO
100
AcDbPolyline
 62
253
  6
CONTINUOUS
 90
7
 70
0
 10
-18.114548254
 20
45.3891170234
 10
-18.2111935541
 20
44.3135587352
 10
-18.3033878215
 20
43.2658473956
 10
-18.391131056
 20
42.2459830048
 10
-18.4741314559
 20
41.2554606069
 10
-18.552680823
 20
40.2927851576
 10
-18.6992062312
 20
38.4362319317
  0
LINE
  5
27A
100
AcDbEntity
  8
RACCORDO
100
AcDbLine
 62
253
  6
CONTINUOUS
 10
-15.7920940655
 20
24.1240101157
 11
-15.8076987215
 21
24.0266494058
  0
LINE
  5
27B
100
AcDbEntity
  8
RACCORDO
100
AcDbLine
 62
253
  6
CONTINUOUS
 10
-15.775782576
 20
24.2207458724
 11
-15.7920940655
 21
24.1240101157
  0
LWPOLYLINE
  5
27C
100
AcDbEntity
  8
RACCORDO
100
AcDbPolyline
 62
253
  6
CONTINUOUS
 90
5
 70
0
 10
-15.7332109143
 20
24.4522867538
 10
-15.7418284432
 20
24.4077191032
 10
-15.7504200914
 20
24.3621430464
 10
-15.758960056
 20
24.3156954599
 10
-15.775782576
 20
24.2207458724
  0
LWPOLYLINE
  5
27D
100
AcDbEntity
  8
0
100
AcDbPolyline
 62
253
  6
CONTINUOUS
 90
6
 70
0
 10
-33.1056587169
 20
-36.4459836536
 10
-33.0789221062
 20
-36.3678185574
 10
-33.0254611453
 20
-36.2993135884
 10
-32.9480144969
 20
-36.2367824417
 10
-32.8486065816
 20
-36.1764742121
 10
-32.7300678187
 20
-36.1154808441
  0
LINE
  5
27E
100
AcDbEntity
  8
0
100
AcDbLine
 62
253
  6
CONTINUOUS
 10
-33.2495934219
 20
-36.4570195262
 11
-33.1056214836
 21
-36.4464923755
  0
LINE
  5
27F
100
AcDbEntity
  8
0
100
AcDbLine
 62
253
  6
CONTINUOUS
 10
59.0878503662
 20
-36.4570195262
 11
58.9438784279
 21
-36.4464923755
  0
LWPOLYLINE
  5
280
100
AcDbEntity
  8
SUPERFICI
100
AcDbPolyline
 62
253
  6
CONTINUOUS
 90
7
 70
0
 10
-33.1056587169
 20
36.4567223962
 10
-33.0789221062
 20
36.3785573
 10
-33.0254611453
 20
36.3100523311
 10
-32.9480144969
 20
36.2475211843
 10
-32.8486065816
 20
36.1872129547
 10
-32.7300678187
 20
36.1262195867
 10
-32.4534052597
 20
35.9944805597
  0
LINE
  5
281
100
AcDbEntity
  8
SUPERFICI
100
AcDbLine
 62
253
  6
CONTINUOUS
 10
-18.1771414845
 20
46.3928181396
 11
-18.1145794418
 21
45.3891150794
  0
LINE
  5
282
100
AcDbEntity
  8
0
100
AcDbLine
 62
253
  6
CONTINUOUS
 10
-18.1771414845
 20
-46.382079397
 11
-18.1145794418
 21
-45.3783763368
  0
LWPOLYLINE
  5
283
100
AcDbEntity
  8
RACCORDO
100
AcDbPolyline
 62
253
  6
CONTINUOUS
 90
7
 70
0
 10
-11.2417823975
 20
23.3218372919
 10
-11.2438448457
 20
23.3049501342
 10
-11.2456547884
 20
23.2879030221
 10
-11.2472104545
 20
23.2707023422
 10
-11.2485101084
 20
23.2533544165
 10
-11.2495520498
 20
23.2358655004
 10
-11.250334614
 20
23.2182417805
  0
LWPOLYLINE
  5
284
100
AcDbEntity
  8
RACCORDO
100
AcDbPolyline
 62
253
  6
CONTINUOUS
 90
7
 70
0
 10
-11.3408394351
 20
23.3767606382
 10
-11.3436726239
 20
23.3570087636
 10
-11.3462422336
 20
23.3370832728
 10
-11.3485424073
 20
23.3169876533
 10
-11.3505672986
 20
23.2967255469
 10
-11.3523110744
 20
23.2763007512
 10
-11.353767919
 20
23.2557172215
  0
LWPOLYLINE
  5
285
100
AcDbEntity
  8
RACCORDO
100
AcDbPolyline
 62
253
  6
CONTINUOUS
 90
16
 70
0
 10
-9.6137048403
 20
22.1812113632
 10
-9.6038272577
 20
22.2058003024
 10
-9.5927769903
 20
22.2303110167
 10
-9.5805336274
 20
22.2546750413
 10
-9.5671104424
 20
22.278768317
 10
-9.5524690096
 20
22.3025719898
 10
-9.5364956372
 20
22.3261577786
 10
-9.5191592381
 20
22.3494403238
 10
-9.5004449944
 20
22.3723093865
 10
-9.4802339682
 20
22.3947647832
 10
-9.4584989641
 20
22.4166921172
 10
-9.4352301312
 20
22.4379481956
 10
-9.4103187934
 20
22.4584525784
 10
-9.3837241375
 20
22.4780641289
 10
-9.3554877185
 20
22.4965968187
 10
-9.3256314862
 20
22.5138793718
  0
LWPOLYLINE
  5
286
100
AcDbEntity
  8
RACCORDO
100
AcDbPolyline
 62
253
  6
CONTINUOUS
 90
16
 70
0
 10
-9.9955427773
 20
22.3744083192
 10
-9.9827235964
 20
22.4043625522
 10
-9.9677396491
 20
22.4338527935
 10
-9.9505983863
 20
22.4628452632
 10
-9.931411271
 20
22.4913157077
 10
-9.9100836833
 20
22.5192173443
 10
-9.886313822
 20
22.5464800725
 10
-9.8601227142
 20
22.5731183553
 10
-9.8315077787
 20
22.5990363537
 10
-9.8001325835
 20
22.6239967884
 10
-9.7660107264
 20
22.6480166364
 10
-9.7291531299
 20
22.6709919931
 10
-9.6892224219
 20
22.6925114756
 10
-9.6461169201
 20
22.7124175112
 10
-9.599969142
 20
22.7307984056
 10
-9.5507947635
 20
22.7476203133
  0
LWPOLYLINE
  5
287
100
AcDbEntity
  8
RACCORDO
100
AcDbPolyline
 62
253
  6
CONTINUOUS
 90
10
 70
0
 10
-9.3256314862
 20
22.5138793718
 10
-9.2976095723
 20
22.5280088726
 10
-9.2689558589
 20
22.540484951
 10
-9.239758546
 20
22.5512937057
 10
-9.2101292076
 20
22.5604193579
 10
-9.1801316184
 20
22.5678670507
 10
-9.1497785172
 20
22.5736501237
 10
-9.1191285045
 20
22.5777651571
 10
-9.0882887994
 20
22.5802045391
 10
-9.0573420148
 20
22.5809705041
  0
LWPOLYLINE
  5
288
100
AcDbEntity
  8
RACCORDO
100
AcDbPolyline
 62
253
  6
CONTINUOUS
 90
10
 70
0
 10
-9.5507982499
 20
22.747621508
 10
-9.4987004879
 20
22.7730904196
 10
-9.445830833
 20
22.7955631952
 10
-9.392189285
 20
22.8150398346
 10
-9.3376586301
 20
22.8315201423
 10
-9.2823560823
 20
22.8450043139
 10
-9.2266332832
 20
22.8554929368
 10
-9.1706074469
 20
22.8629862068
 10
-9.1141613594
 20
22.8674839282
 10
-9.0572950207
 20
22.8689861009
  0
LWPOLYLINE
  5
289
100
AcDbEntity
  8
SUPERFICI
100
AcDbPolyline
 62
253
  6
CONTINUOUS
 90
10
 70
0
 10
58.7201178922
 20
-23.3920073009
 10
57.2488199145
 20
-23.5267192587
 10
55.8024207298
 20
-23.654966232
 10
54.3638749144
 20
-23.7782952273
 10
52.940207751
 20
-23.8955555392
 10
51.519917972
 20
-24.0070229913
 10
50.0609829701
 20
-24.1162328196
 10
48.5462903801
 20
-24.225570513
 10
46.9955138519
 20
-24.33375652
 10
45.4191322069
 20
-24.437343649
  0
LWPOLYLINE
  5
28A
100
AcDbEntity
  8
RACCORDO
100
AcDbPolyline
 62
253
  6
CONTINUOUS
 90
10
 70
0
 10
-32.8818609479
 20
-23.3920073009
 10
-31.4105629696
 20
-23.5267192585
 10
-29.9641637846
 20
-23.6549662316
 10
-28.5256179691
 20
-23.7782952268
 10
-27.1019508061
 20
-23.8955555385
 10
-25.6816610281
 20
-24.0070229905
 10
-24.2227260269
 20
-24.1162328188
 10
-22.7080334369
 20
-24.2255705124
 10
-21.1572569084
 20
-24.3337565196
 10
-19.5808752626
 20
-24.437343649
  0
LWPOLYLINE
  5
28B
100
AcDbEntity
  8
RACCORDO
100
AcDbPolyline
 62
253
  6
CONTINUOUS
 90
16
 70
0
 10
-9.5510778116
 20
-22.7367733327
 10
-9.6001306495
 20
-22.7200009819
 10
-9.646201499
 20
-22.7016480118
 10
-9.6892746741
 20
-22.6817465341
 10
-9.7292486054
 20
-22.6601855571
 10
-9.7661935555
 20
-22.6371419656
 10
-9.800353759
 20
-22.6130916208
 10
-9.8316642105
 20
-22.588179041
 10
-9.8601665901
 20
-22.562350146
 10
-9.8862683027
 20
-22.535790973
 10
-9.9099962878
 20
-22.5085859584
 10
-9.9313047829
 20
-22.480730749
 10
-9.9504919293
 20
-22.4522750607
 10
-9.9676506766
 20
-22.4232587111
 10
-9.9826701305
 20
-22.3937125924
 10
-9.9955422132
 20
-22.363670674
  0
LWPOLYLINE
  5
28C
100
AcDbEntity
  8
RACCORDO
100
AcDbPolyline
 62
253
  6
CONTINUOUS
 90
16
 70
0
 10
-9.3256314748
 20
-22.5031406347
 10
-9.3554900584
 20
-22.4858564718
 10
-9.3837391602
 20
-22.467314768
 10
-9.4103556057
 20
-22.4476850993
 10
-9.4353115633
 20
-22.4271391172
 10
-9.4586299753
 20
-22.4058280169
 10
-9.4803769345
 20
-22.3838745534
 10
-9.5005405075
 20
-22.3614586698
 10
-9.5191829877
 20
-22.3386706171
 10
-9.5364654747
 20
-22.3154614905
 10
-9.5524100414
 20
-22.2919245278
 10
-9.5670355003
 20
-22.2681572148
 10
-9.5804596962
 20
-22.2440759384
 10
-9.5927194127
 20
-22.2196939854
 10
-9.6037955464
 20
-22.1951371492
 10
-9.6137048396
 20
-22.1704726247
  0
LWPOLYLINE
  5
28D
100
AcDbEntity
  8
RACCORDO
100
AcDbPolyline
 62
253
  6
CONTINUOUS
 90
7
 70
0
 10
-9.6137048396
 20
-22.1704726247
 10
-9.6251303261
 20
-22.1372085906
 10
-9.6344881691
 20
-22.1034436992
 10
-9.6417712732
 20
-22.0693012446
 10
-9.6469799675
 20
-22.0349032324
 10
-9.6501218019
 20
-22.0003699531
 10
-9.6512113205
 20
-21.9658195763
  0
LWPOLYLINE
  5
28E
100
AcDbEntity
  8
RACCORDO
100
AcDbPolyline
 62
253
  6
CONTINUOUS
 90
7
 70
0
 10
-9.9955347016
 20
-22.3636680885
 10
-10.0162901763
 20
-22.3020886704
 10
-10.0332962052
 20
-22.2400516863
 10
-10.0465476657
 20
-22.1775679721
 10
-10.0560396411
 20
-22.1146480027
 10
-10.0617674289
 20
-22.0513018703
 10
-10.0637265453
 20
-21.9875392698
  0
LWPOLYLINE
  5
28F
100
AcDbEntity
  8
RACCORDO
100
AcDbPolyline
 62
253
  6
CONTINUOUS
 90
25
 70
0
 10
-11.2417830803
 20
-23.3111034473
 10
-11.226182678
 20
-23.3955130458
 10
-11.2058700507
 20
-23.4780660399
 10
-11.1808451984
 20
-23.5587624298
 10
-11.1509097178
 20
-23.6379071306
 10
-11.1162620122
 20
-23.7151952272
 10
-11.0774972914
 20
-23.7897119735
 10
-11.0345735605
 20
-23.8613656202
 10
-10.9875328144
 20
-23.9302479166
 10
-10.9370962475
 20
-23.995719366
 10
-10.8832655959
 20
-24.0576952765
 10
-10.8260391235
 20
-24.1162603398
 10
-10.766132816
 20
-24.1710291344
 10
-10.7035473983
 20
-24.2219563148
 10
-10.6382821456
 20
-24.2690872265
 10
-10.5710508689
 20
-24.3121724835
 10
-10.5018533243
 20
-24.3511746841
 10
-10.4306897558
 20
-24.3861312301
 10
-10.3582747067
 20
-24.4169049407
 10
-10.2846372532
 20
-24.4434592549
 10
-10.2097483191
 20
-24.4658307336
 10
-10.1342352184
 20
-24.4839918795
 10
-10.0583070558
 20
-24.4979335268
 10
-9.9817547266
 20
-24.5076648411
 10
-9.9045782308
 20
-24.5131858227
  0
LWPOLYLINE
  5
290
100
AcDbEntity
  8
RACCORDO
100
AcDbPolyline
 62
253
  6
CONTINUOUS
 90
25
 70
0
 10
-11.3408394388
 20
-23.3660218667
 10
-11.3244794393
 20
-23.4560062272
 10
-11.3028111537
 20
-23.5445884072
 10
-11.2759511644
 20
-23.6314622144
 10
-11.244003785
 20
-23.716386706
 10
-11.2071419416
 20
-23.7990153746
 10
-11.1656392128
 20
-23.8789164129
 10
-11.1197202064
 20
-23.9558231238
 10
-11.0695904035
 20
-24.0295328497
 10
-11.0155547116
 20
-24.0997632464
 10
-10.9578925452
 20
-24.1663032631
 10
-10.896834532
 20
-24.2290225028
 10
-10.8326312689
 20
-24.287797172
 10
-10.7655476679
 20
-24.3424956102
 10
-10.6958441758
 20
-24.3930068058
 10
-10.6237608747
 20
-24.4392577007
 10
-10.549557308
 20
-24.4811670062
 10
-10.4735002105
 20
-24.5186630553
 10
-10.3958348335
 20
-24.5517039546
 10
-10.3168607275
 20
-24.5802368062
 10
-10.2367982432
 20
-24.6042526331
 10
-10.155762098
 20
-24.6237712492
 10
-10.0739527279
 20
-24.6387791416
 10
-9.9916634997
 20
-24.6492552096
 10
-9.9091395138
 20
-24.6552044025
  0
LWPOLYLINE
  5
291
100
AcDbEntity
  8
RACCORDO
100
AcDbPolyline
 62
253
  6
CONTINUOUS
 90
7
 70
0
 10
-11.3537682394
 20
-23.2449735259
 10
-11.3523135793
 20
-23.2655306541
 10
-11.3505716814
 20
-23.2859399996
 10
-11.3485479149
 20
-23.3061975695
 10
-11.3462476731
 20
-23.326299516
 10
-11.3436763705
 20
-23.3462421354
 10
-11.3408394388
 20
-23.3660218667
  0
LINE
  5
292
100
AcDbEntity
  8
RACCORDO
100
AcDbLine
 62
253
  6
CONTINUOUS
 10
-11.3598376244
 20
-23.1472535522
 11
-11.3537682326
 21
-23.2449735256
  0
LINE
  5
293
100
AcDbEntity
  8
RACCORDO
100
AcDbLine
 62
253
  6
CONTINUOUS
 10
-11.3655449489
 20
-23.0473035006
 11
-11.3598376244
 21
-23.1472535522
  0
LINE
  5
294
100
AcDbEntity
  8
RACCORDO
100
AcDbLine
 62
253
  6
CONTINUOUS
 10
-11.3708599868
 20
-22.945682668
 11
-11.3655449489
 21
-23.0473035006
  0
LINE
  5
295
100
AcDbEntity
  8
RACCORDO
100
AcDbLine
 62
253
  6
CONTINUOUS
 10
-11.375666653
 20
-22.8446277109
 11
-11.3708599868
 21
-22.945682668
  0
LWPOLYLINE
  5
296
100
AcDbEntity
  8
RACCORDO
100
AcDbPolyline
 62
253
  6
CONTINUOUS
 90
7
 70
0
 10
-11.2503345933
 20
-23.2075030299
 10
-11.2495531599
 20
-23.2251136549
 10
-11.2485118727
 20
-23.2425951593
 10
-11.2472123887
 20
-23.259941256
 10
-11.2456564036
 20
-23.2771455787
 10
-11.2438456521
 20
-23.2942016837
 10
-11.2417819083
 20
-23.3111030526
  0
LINE
  5
297
100
AcDbEntity
  8
RACCORDO
100
AcDbLine
 62
253
  6
CONTINUOUS
 10
-11.2548033497
 20
-23.0721019031
 11
-11.2503345933
 21
-23.2075030299
  0
LINE
  5
298
100
AcDbEntity
  8
RACCORDO
100
AcDbLine
 62
253
  6
CONTINUOUS
 10
-11.2585205871
 20
-22.9333187586
 11
-11.2548033497
 21
-23.0721019031
  0
LWPOLYLINE
  5
299
100
AcDbEntity
  8
RACCORDO
100
AcDbPolyline
 62
253
  6
CONTINUOUS
 90
3
 70
0
 10
-11.2614115319
 20
-22.7941535033
 10
-11.2605857733
 20
-22.8404450499
 10
-11.2585205871
 20
-22.9333187586
  0
LWPOLYLINE
  5
29A
100
AcDbEntity
  8
RACCORDO
100
AcDbPolyline
 62
253
  6
CONTINUOUS
 90
19
 70
0
 10
-11.7507480419
 20
0.0053691529
 10
-11.7479455095
 20
-1.6281046257
 10
-11.7407981543
 20
-3.2124031608
 10
-11.7295503255
 20
-4.7473283181
 10
-11.7142830735
 20
-6.2304490054
 10
-11.6953766206
 20
-7.6638526194
 10
-11.6734883606
 20
-9.0541686861
 10
-11.6488252798
 20
-10.4019527377
 10
-11.6215297426
 20
-11.7064510182
 10
-11.5921145668
 20
-12.972385052
 10
-11.5607170773
 20
-14.2000095745
 10
-11.5274623671
 20
-15.3889662616
 10
-11.492808811
 20
-16.5430977007
 10
-11.456831718
 20
-17.6614703356
 10
-11.4195828193
 20
-18.7447806064
 10
-11.3813909493
 20
-19.7991447972
 10
-11.342326397
 20
-20.8263809518
 10
-11.3022980833
 20
-21.8245180422
 10
-11.2614124482
 20
-22.7941538099
  0
LINE
  5
29B
100
AcDbEntity
  8
RACCORDO
100
AcDbLine
 62
253
  6
CONTINUOUS
 10
-10.0637265453
 20
-21.9875392698
 11
-10.077857996
 21
-14.6932138902
  0
LINE
  5
29C
100
AcDbEntity
  8
RACCORDO
100
AcDbLine
 62
253
  6
CONTINUOUS
 10
-9.6512113703
 20
-21.9658196255
 11
-9.6627330522
 21
-16.27343504
  0
LWPOLYLINE
  5
29D
100
AcDbEntity
  8
RACCORDO
100
AcDbPolyline
 62
253
  6
CONTINUOUS
 90
19
 70
0
 10
-11.8667677547
 20
0.0053691529
 10
-11.8643244888
 20
-1.6284007093
 10
-11.8571000281
 20
-3.2126491997
 10
-11.8455652222
 20
-4.7473647889
 10
-11.8302225586
 20
-6.230414291
 10
-11.8114793528
 20
-7.6639158521
 10
-11.7895867609
 20
-9.0542373646
 10
-11.7648883897
 20
-10.4019745895
 10
-11.7377465195
 20
-11.7065260932
 10
-11.7083328327
 20
-12.9724641123
 10
-11.6769287237
 20
-14.2000974083
 10
-11.64382867
 20
-15.3891176486
 10
-11.6091486922
 20
-16.5431710419
 10
-11.5731521509
 20
-17.6614897708
 10
-11.5360556499
 20
-18.7448460299
 10
-11.4978292721
 20
-19.7991947907
 10
-11.4585666135
 20
-20.8265221755
 10
-11.4185278576
 20
-21.8248470315
 10
-11.375666653
 20
-22.8446277109
  0
LINE
  5
29E
100
AcDbEntity
  8
RACCORDO
100
AcDbLine
 62
253
  6
CONTINUOUS
 10
-10.077857996
 20
-14.6932138902
 11
-10.0846353453
 21
-9.8287330494
  0
LINE
  5
29F
100
AcDbEntity
  8
RACCORDO
100
AcDbLine
 62
253
  6
CONTINUOUS
 10
-9.6627330522
 20
-16.27343504
 11
-9.6697997146
 21
-11.4516883275
  0
LINE
  5
2A0
100
AcDbEntity
  8
RACCORDO
100
AcDbLine
 62
253
  6
CONTINUOUS
 10
-10.0846353453
 20
-9.8287330494
 11
-10.0893508504
 21
-3.7164477544
  0
LINE
  5
2A1
100
AcDbEntity
  8
RACCORDO
100
AcDbLine
 62
253
  6
CONTINUOUS
 10
-9.6697997146
 20
-11.4516883275
 11
-9.6753096822
 21
-5.1453083904
  0
LINE
  5
2A2
100
AcDbEntity
  8
RACCORDO
100
AcDbLine
 62
253
  6
CONTINUOUS
 10
-9.6753096822
 20
-5.1453083904
 11
-9.6767310913
 21
1.1371431551
  0
LINE
  5
2A3
100
AcDbEntity
  8
RACCORDO
100
AcDbLine
 62
7
  6
CONTINUOUS
 10
-9.5808715279
 20
-21.8954529078
 11
-9.5808715279
 21
21.9061916505
  0
LINE
  5
2A4
100
AcDbEntity
  8
RACCORDO
100
AcDbLine
 62
253
  6
CONTINUOUS
 10
-10.0893508504
 20
-3.7164477544
 11
-10.0897711814
 21
2.3559917576
  0
LINE
  5
2A5
100
AcDbEntity
  8
RACCORDO
100
AcDbLine
 62
253
  6
CONTINUOUS
 10
-9.6767310913
 20
1.1371431551
 11
-9.6744780079
 21
6.5412965352
  0
LINE
  5
2A6
100
AcDbEntity
  8
RACCORDO
100
AcDbLine
 62
253
  6
CONTINUOUS
 10
-10.0897711814
 20
2.3559917576
 11
-10.0864477037
 21
8.0759125882
  0
LINE
  5
2A7
100
AcDbEntity
  8
RACCORDO
100
AcDbLine
 62
253
  6
CONTINUOUS
 10
-10.0864477037
 20
8.0759125882
 11
-10.0807309997
 21
12.8646126435
  0
LINE
  5
2A8
100
AcDbEntity
  8
RACCORDO
100
AcDbLine
 62
253
  6
CONTINUOUS
 10
-9.6744780079
 20
6.5412965352
 11
-9.6631181831
 21
16.0613184861
  0
LINE
  5
2A9
100
AcDbEntity
  8
RACCORDO
100
AcDbLine
 62
253
  6
CONTINUOUS
 10
-10.0807309997
 20
12.8646126435
 11
-10.0637265453
 21
21.9982780124
  0
LINE
  5
2AA
100
AcDbEntity
  8
RACCORDO
100
AcDbLine
 62
253
  6
CONTINUOUS
 10
-9.6631181831
 20
16.0613184861
 11
-9.6512114468
 21
21.9765220749
  0
LWPOLYLINE
  5
2AB
100
AcDbEntity
  8
RACCORDO
100
AcDbPolyline
 62
253
  6
CONTINUOUS
 90
10
 70
0
 10
-10.0637265453
 20
21.9982780124
 10
-10.06286267
 20
22.040472844
 10
-10.0602969828
 20
22.0827193008
 10
-10.0560308003
 20
22.1250145067
 10
-10.050038299
 20
22.1675493451
 10
-10.0423481419
 20
22.2101267711
 10
-10.0330433302
 20
22.2521621802
 10
-10.022152397
 20
22.2934589049
 10
-10.0096495545
 20
22.3342078496
 10
-9.9955362151
 20
22.374406063
  0
LINE
  5
2AC
100
AcDbEntity
  8
RACCORDO
100
AcDbLine
 62
253
  6
CONTINUOUS
 10
-11.2596131096
 20
22.8975999721
 11
-11.2614114363
 21
22.8049016631
  0
LWPOLYLINE
  5
2AD
100
AcDbEntity
  8
RACCORDO
100
AcDbPolyline
 62
253
  6
CONTINUOUS
 90
10
 70
0
 10
-9.6512114581
 20
21.9765220862
 10
-9.6507173162
 20
21.9994669488
 10
-9.6493138566
 20
22.0224989961
 10
-9.6469868111
 20
22.0455830833
 10
-9.6437114346
 20
22.0687553734
 10
-9.6394823173
 20
22.0919049414
 10
-9.6343419424
 20
22.1147788368
 10
-9.6283274441
 20
22.1372730545
 10
-9.6214420716
 20
22.1594275512
 10
-9.6137048403
 20
22.1812113632
  0
LWPOLYLINE
  5
2AE
100
AcDbEntity
  8
RACCORDO
100
AcDbPolyline
 62
253
  6
CONTINUOUS
 90
7
 70
0
 10
-9.90911196
 20
-24.6224961395
 10
-9.9093213384
 20
-24.6315490419
 10
-9.9094503206
 20
-24.6393119822
 10
-9.9094967202
 20
-24.6456533776
 10
-9.9094597507
 20
-24.6504657405
 10
-9.9093400389
 20
-24.6536675009
 10
-9.9091396138
 20
-24.6552043884
  0
LINE
  5
2AF
100
AcDbEntity
  8
RACCORDO
100
AcDbLine
 62
253
  6
CONTINUOUS
 10
-11.2561399898
 20
23.0368028102
 11
-11.2596131096
 21
22.8975999721
  0
LWPOLYLINE
  5
2B0
100
AcDbEntity
  8
RACCORDO
100
AcDbPolyline
 62
253
  6
CONTINUOUS
 90
3
 70
0
 10
-11.250334614
 20
23.2182417805
 10
-11.2518577535
 20
23.1736121819
 10
-11.2561399898
 20
23.0368028102
  0
LWPOLYLINE
  5
2B1
100
AcDbEntity
  8
RACCORDO
100
AcDbPolyline
 62
253
  6
CONTINUOUS
 90
18
 70
0
 10
-11.4182521061
 20
21.8422814193
 10
-11.4580975495
 20
20.8492137561
 10
-11.4972416622
 20
19.8257047659
 10
-11.5354311589
 20
18.7732982059
 10
-11.5725467579
 20
17.6904446276
 10
-11.6085696176
 20
16.5725001048
 10
-11.6432663315
 20
15.4192564402
 10
-11.676391403
 20
14.2309174531
 10
-11.7078378262
 20
13.0034561817
 10
-11.7373105303
 20
11.7370324064
 10
-11.7645202745
 20
10.4314857102
 10
-11.7892909309
 20
9.0823083944
 10
-11.811256202
 20
7.6901040013
 10
-11.8300683329
 20
6.2542745714
 10
-11.8454720695
 20
4.7685103177
 10
-11.857056
 20
3.2307124737
 10
-11.8643130839
 20
1.6429948868
 10
-11.8667677547
 20
0.0053691529
  0
LWPOLYLINE
  5
2B2
100
AcDbEntity
  8
RACCORDO
100
AcDbPolyline
 62
253
  6
CONTINUOUS
 90
19
 70
0
 10
-11.2614120786
 20
22.8049018768
 10
-11.302032533
 20
21.8419403175
 10
-11.3418650627
 20
20.8490572453
 10
-11.3808029487
 20
19.825654962
 10
-11.4189530969
 20
18.7732450873
 10
-11.4562236332
 20
17.6904339419
 10
-11.4922291165
 20
16.5724268175
 10
-11.5268998947
 20
15.4191033387
 10
-11.560181209
 20
14.2308280858
 10
-11.5916188807
 20
13.0033771061
 10
-11.6210918062
 20
11.7369581265
 10
-11.6484573147
 20
10.4314641195
 10
-11.6731920716
 20
9.0822396282
 10
-11.6951520079
 20
7.6900412564
 10
-11.7141292948
 20
6.2543098863
 10
-11.7294570574
 20
4.7684737541
 10
-11.7407507038
 20
3.2304654106
 10
-11.7479298633
 20
1.6426974945
 10
-11.750748042
 20
0.0053691529
  0
LINE
  5
2B3
100
AcDbEntity
  8
RACCORDO
100
AcDbLine
 62
253
  6
CONTINUOUS
 10
-11.3756655591
 20
22.8553876104
 11
-11.4182521061
 21
21.8422814193
  0
LINE
  5
2B4
100
AcDbEntity
  8
RACCORDO
100
AcDbLine
 62
253
  6
CONTINUOUS
 10
-11.3708588037
 20
22.9564453089
 11
-11.3756655591
 21
22.8553876104
  0
LINE
  5
2B5
100
AcDbEntity
  8
RACCORDO
100
AcDbLine
 62
253
  6
CONTINUOUS
 10
-11.3655476713
 20
23.0579946792
 11
-11.3708588037
 21
22.9564453089
  0
LINE
  5
2B6
100
AcDbEntity
  8
RACCORDO
100
AcDbLine
 62
253
  6
CONTINUOUS
 10
-11.3598412413
 20
23.1579276977
 11
-11.3655476713
 21
23.0579946792
  0
LINE
  5
2B7
100
AcDbEntity
  8
RACCORDO
100
AcDbLine
 62
253
  6
CONTINUOUS
 10
-11.3537679313
 20
23.255717222
 11
-11.3598412413
 21
23.1579276977
  0
LWPOLYLINE
  5
2B8
100
AcDbEntity
  8
0
100
AcDbPolyline
 62
253
  6
CONTINUOUS
 90
4
 70
0
 10
-23.3847157902
 20
-45.6461316161
 10
-23.3182927292
 20
-45.3648762873
 10
-23.2786021739
 20
-45.2043981204
 10
-23.2334455368
 20
-45.0328881436
  0
LWPOLYLINE
  5
2B9
100
AcDbEntity
  8
0
100
AcDbPolyline
 62
7
  6
CONTINUOUS
 90
22
 70
0
 10
14.9353351361
 20
-23.1469285465
 10
14.9768207598
 20
-23.1407927556
 10
15.0182966858
 20
-23.1350105637
 10
15.0597629141
 20
-23.1295819709
 10
15.101186134
 20
-23.1244396821
 10
15.1425996562
 20
-23.1196509923
 10
15.1841034121
 20
-23.1154177864
 10
15.2257039528
 20
-23.1117292869
 10
15.2673947274
 20
-23.1085962713
 10
15.3092560142
 20
-23.1062529574
 10
15.3513471119
 20
-23.1046864227
 10
15.393608722
 20
-23.1039095897
 10
15.4359432275
 20
-23.1041954431
 10
15.4783800323
 20
-23.1055447684
 10
15.5208897327
 20
-23.1079567801
 10
15.5632865002
 20
-23.1117021069
 10
15.6056483825
 20
-23.1167900906
 10
15.6478973319
 20
-23.1232113894
 10
15.6896133773
 20
-23.1312086056
 10
15.7306565281
 20
-23.1408626069
 10
15.7711667749
 20
-23.1520925258
 10
15.8111441176
 20
-23.1648983622
  0
LWPOLYLINE
  5
2BA
100
AcDbEntity
  8
RACCORDO
100
AcDbPolyline
 62
253
  6
CONTINUOUS
 90
25
 70
0
 10
35.7473964538
 20
-24.6552044027
 10
35.8299228292
 20
-24.6492550091
 10
35.9122061247
 20
-24.6387797079
 10
35.9940014589
 20
-24.623774942
 10
36.0750110386
 20
-24.6042644774
 10
36.1550399094
 20
-24.5802624025
 10
36.2339879571
 20
-24.5517446986
 10
36.3116392933
 20
-24.5187170807
 10
36.3876893187
 20
-24.4812329536
 10
36.4618922583
 20
-24.4393333047
 10
36.5339843588
 20
-24.3930864642
 10
36.6037017354
 20
-24.342574713
 10
36.6707939272
 20
-24.287878604
 10
36.73499686
 20
-24.229114194
 10
36.796051126
 20
-24.1664102816
 10
36.8537102364
 20
-24.099887354
 10
36.9077427988
 20
-24.0296772191
 10
36.9578708703
 20
-23.9559896611
 10
37.0037948803
 20
-23.8790979545
 10
37.0453085709
 20
-23.7992026004
 10
37.0821851761
 20
-23.7165705938
 10
37.1141516633
 20
-23.6316270223
 10
37.1410329419
 20
-23.5447155005
 10
37.1627210156
 20
-23.4560784736
 10
37.1790963663
 20
-23.3660219941
  0
LWPOLYLINE
  5
2BB
100
AcDbEntity
  8
RACCORDO
100
AcDbPolyline
 62
253
  6
CONTINUOUS
 90
25
 70
0
 10
35.742835175
 20
-24.5131858227
 10
35.8200045237
 20
-24.507664136
 10
35.8965437104
 20
-24.4979359875
 10
35.9724527353
 20
-24.484001377
 10
36.0479363731
 20
-24.4658523766
 10
36.1227898489
 20
-24.4434969142
 10
36.1963988389
 20
-24.4169587742
 10
36.2687971035
 20
-24.3862010588
 10
36.3399508822
 20
-24.3512606657
 10
36.4091445689
 20
-24.3122720721
 10
36.4763806933
 20
-24.2691947534
 10
36.5416567257
 20
-24.2220692342
 10
36.60424947
 20
-24.1711515654
 10
36.6641548643
 20
-24.116399445
 10
36.7213769705
 20
-24.0578551749
 10
36.7752047782
 20
-23.9959017119
 10
36.8256404414
 20
-23.9304567231
 10
36.8726818061
 20
-23.8616025414
 10
36.9156113991
 20
-23.7899691229
 10
36.954388793
 20
-23.7154688742
 10
36.9890544151
 20
-23.6381893887
 10
37.0190120743
 20
-23.5590234027
 10
37.04406304
 20
-23.4782684951
 10
37.0644060427
 20
-23.3956270871
 10
37.0800410825
 20
-23.3110991786
  0
LINE
  5
2BC
100
AcDbEntity
  8
RACCORDO
100
AcDbLine
 62
7
  6
CONTINUOUS
 10
-19.5683952574
 20
-24.6889733853
 11
-17.4435976067
 21
-24.5568628795
  0
LINE
  5
2BD
100
AcDbEntity
  8
RACCORDO
100
AcDbLine
 62
7
  6
CONTINUOUS
 10
-17.4435976067
 20
-24.5568628795
 11
-16.5204194266
 21
-24.5033852497
  0
LINE
  5
2BE
100
AcDbEntity
  8
RACCORDO
100
AcDbLine
 62
7
  6
CONTINUOUS
 10
-16.5204194266
 20
-24.5033852497
 11
-15.9009460874
 21
-24.4695615948
  0
LINE
  5
2BF
100
AcDbEntity
  8
RACCORDO
100
AcDbLine
 62
253
  6
CONTINUOUS
 10
39.2177790096
 20
-24.5687224465
 11
41.5183994196
 21
-24.4445339284
  0
LWPOLYLINE
  5
2C0
100
AcDbEntity
  8
RACCORDO
100
AcDbPolyline
 62
253
  6
CONTINUOUS
 90
10
 70
0
 10
36.776507446
 20
-25.1842067914
 10
37.7369491653
 20
-25.1366176353
 10
38.6951886297
 20
-25.0872938403
 10
39.6512258393
 20
-25.0362354063
 10
40.605883025
 20
-24.9833892385
 10
41.5583379559
 20
-24.9288084319
 10
42.5061239392
 20
-24.8726522707
 10
43.448418744
 20
-24.81497385
 10
44.3860446012
 20
-24.7557200747
 10
45.3190015109
 20
-24.6948909451
  0
LINE
  5
2C1
100
AcDbEntity
  8
RACCORDO
100
AcDbLine
 62
253
  6
CONTINUOUS
 10
37.3728536282
 20
-24.660912187
 11
39.2177790096
 21
-24.5687224465
  0
LINE
  5
2C2
100
AcDbEntity
  8
RACCORDO
100
AcDbLine
 62
7
  6
CONTINUOUS
 10
-15.9058892734
 20
-24.4690488948
 11
-15.5562041984
 21
-24.4514862848
  0
LWPOLYLINE
  5
2C3
100
AcDbEntity
  8
RACCORDO
100
AcDbPolyline
 62
7
  6
CONTINUOUS
 90
13
 70
0
 10
-15.9010242487
 20
-24.4678109845
 10
-16.1878756909
 20
-24.4776958744
 10
-16.4776366389
 20
-24.4828381368
 10
-16.7701746786
 20
-24.4829936428
 10
-17.0645712554
 20
-24.4778956339
 10
-17.3614614388
 20
-24.4673718874
 10
-17.6630322139
 20
-24.4511910922
 10
-17.9699582742
 20
-24.4291010904
 10
-18.2812038993
 20
-24.4006606452
 10
-18.5963452144
 20
-24.3652618083
 10
-18.9150897848
 20
-24.3225234461
 10
-19.2372983798
 20
-24.2722911008
 10
-19.5627599411
 20
-24.214336902
  0
LWPOLYLINE
  5
2C4
100
AcDbEntity
  8
0
100
AcDbPolyline
 62
7
  6
CONTINUOUS
 90
28
 70
0
 10
15.4797506166
 20
-23.8833024602
 10
15.4958422178
 20
-23.8827868123
 10
15.5118637808
 20
-23.8816983572
 10
15.5278153056
 20
-23.8800370948
 10
15.5437162826
 20
-23.8778688492
 10
15.5595472214
 20
-23.8751277964
 10
15.5752496502
 20
-23.8716164645
 10
15.5909151216
 20
-23.8673334932
 10
15.6064520829
 20
-23.8622802428
 10
15.6215274044
 20
-23.8562633227
 10
15.636153899
 20
-23.8492500994
 10
15.6503187538
 20
-23.8412732063
 10
15.6636504005
 20
-23.8322371527
 10
15.6760724051
 20
-23.8220152876
 10
15.6876612016
 20
-23.810734262
 10
15.6982745238
 20
-23.7986785375
 10
15.7078421957
 20
-23.7858208925
 10
15.7164343933
 20
-23.7721885487
 10
15.7241193774
 20
-23.7581476334
 10
15.7308867737
 20
-23.7437685432
 10
15.7367469566
 20
-23.7289808815
 10
15.7417993092
 20
-23.7139395855
 10
15.7460756511
 20
-23.6986737431
 10
15.7495441627
 20
-23.6831542664
 10
15.752208769
 20
-23.6674488287
 10
15.7540707782
 20
-23.6515799878
 10
15.7551288821
 20
-23.6355251858
 10
15.7553830806
 20
-23.6192844228
  0
LINE
  5
2C5
100
AcDbEntity
  8
0
100
AcDbLine
 62
7
  6
CONTINUOUS
 10
10.1168524721
 20
-24.8269316287
 11
10.4295444721
 21
-24.8269316287
  0
LINE
  5
2C6
100
AcDbEntity
  8
0
100
AcDbLine
 62
7
  6
CONTINUOUS
 10
11.1076264721
 20
-24.8269316287
 11
11.4624544721
 21
-24.8269316287
  0
LINE
  5
2C7
100
AcDbEntity
  8
0
100
AcDbLine
 62
7
  6
CONTINUOUS
 10
11.6534694721
 20
-24.8269316287
 11
11.9929244721
 21
-24.8269316287
  0
LINE
  5
2C8
100
AcDbEntity
  8
0
100
AcDbLine
 62
7
  6
CONTINUOUS
 10
12.4857524721
 20
-24.8269316287
 11
12.5355164721
 21
-24.8269316287
  0
LINE
  5
2C9
100
AcDbEntity
  8
0
100
AcDbLine
 62
7
  6
CONTINUOUS
 10
13.0303084721
 20
-24.8269316287
 11
13.3774244721
 21
-24.8269316287
  0
LINE
  5
2CA
100
AcDbEntity
  8
0
100
AcDbLine
 62
7
  6
CONTINUOUS
 10
13.4331414721
 20
-24.8269316287
 11
13.7841194721
 21
-24.8269316287
  0
LINE
  5
2CB
100
AcDbEntity
  8
0
100
AcDbLine
 62
7
  6
CONTINUOUS
 10
14.4571664721
 20
-24.8269316287
 11
14.8311404721
 21
-24.8269316287
  0
LINE
  5
2CC
100
AcDbEntity
  8
0
100
AcDbLine
 62
7
  6
CONTINUOUS
 10
14.9353351361
 20
-24.8269313154
 11
15.2887354681
 21
-24.8269313154
  0
LINE
  5
2CD
100
AcDbEntity
  8
0
100
AcDbLine
 62
7
  6
CONTINUOUS
 10
15.8321056873
 20
-24.8269313154
 11
16.1734090306
 21
-24.8269313154
  0
LINE
  5
2CE
100
AcDbEntity
  8
0
100
AcDbLine
 62
7
  6
CONTINUOUS
 10
13.8820304721
 20
-24.4875786287
 11
14.3652474721
 21
-24.4875786287
  0
LINE
  5
2CF
100
AcDbEntity
  8
0
100
AcDbLine
 62
7
  6
CONTINUOUS
 10
14.2943344721
 20
-24.2249886287
 11
13.9546124721
 21
-24.2249886287
  0
LINE
  5
2D0
100
AcDbEntity
  8
0
100
AcDbLine
 62
7
  6
CONTINUOUS
 10
15.2887354681
 20
-24.1616989128
 11
15.4789857912
 21
-24.1616989128
  0
LINE
  5
2D1
100
AcDbEntity
  8
0
100
AcDbLine
 62
7
  6
CONTINUOUS
 10
15.4797506166
 20
-23.8833024602
 11
15.2769699038
 21
-23.8833024602
  0
LINE
  5
2D2
100
AcDbEntity
  8
0
100
AcDbLine
 62
7
  6
CONTINUOUS
 10
14.3095804721
 20
-23.1270686287
 11
13.9663264721
 21
-23.1270686287
  0
LINE
  5
2D3
100
AcDbEntity
  8
0
100
AcDbLine
 62
7
  6
CONTINUOUS
 10
13.2184674721
 20
-23.1270686287
 11
12.8674004721
 21
-23.1270686287
  0
LINE
  5
2D4
100
AcDbEntity
  8
0
100
AcDbLine
 62
7
  6
CONTINUOUS
 10
12.1614914721
 20
-23.1270686287
 11
11.8069564721
 21
-23.1270686287
  0
LINE
  5
2D5
100
AcDbEntity
  8
0
100
AcDbLine
 62
7
  6
CONTINUOUS
 10
10.9759484721
 20
-23.1270686287
 11
10.6213624721
 21
-23.1270686287
  0
LINE
  5
2D6
100
AcDbEntity
  8
0
100
AcDbLine
 62
7
  6
CONTINUOUS
 10
9.9634154721
 20
-23.1270686287
 11
9.5779624721
 21
-23.1270686287
  0
LINE
  5
2D7
100
AcDbEntity
  8
0
100
AcDbLine
 62
7
  6
CONTINUOUS
 10
11.4624544721
 20
-23.1269666287
 11
11.1076264721
 21
-23.1269666287
  0
LINE
  5
2D8
100
AcDbEntity
  8
RACCORDO
100
AcDbLine
 62
253
  6
CONTINUOUS
 10
34.895551965
 20
-22.8582473583
 11
-9.0572950207
 21
-22.8582473583
  0
LINE
  5
2D9
100
AcDbEntity
  8
RACCORDO
100
AcDbLine
 62
253
  6
CONTINUOUS
 10
34.8955990382
 20
-22.5702318424
 11
-9.057281974
 21
-22.5702318424
  0
LINE
  5
2DA
100
AcDbEntity
  8
RACCORDO
100
AcDbLine
 62
7
  6
CONTINUOUS
 10
34.8199507513
 20
-22.4946306287
 11
-8.981693807
 21
-22.4946306287
  0
LWPOLYLINE
  5
2DB
100
AcDbEntity
  8
RACCORDO
100
AcDbPolyline
 62
253
  6
CONTINUOUS
 90
10
 70
0
 10
-9.0572819959
 20
-22.5702318643
 10
-9.0883548663
 20
-22.5694618849
 10
-9.1192689935
 20
-22.5670110498
 10
-9.1499417789
 20
-22.5628850801
 10
-9.1802391631
 20
-22.5571055412
 10
-9.2101325431
 20
-22.5496804574
 10
-9.239692628
 20
-22.540577436
 10
-9.2688811745
 20
-22.5297758655
 10
-9.2975575957
 20
-22.5172939304
 10
-9.3256314748
 20
-22.5031406347
  0
LWPOLYLINE
  5
2DC
100
AcDbEntity
  8
RACCORDO
100
AcDbPolyline
 62
253
  6
CONTINUOUS
 90
10
 70
0
 10
-9.0572950207
 20
-22.8582473583
 10
-9.1144043101
 20
-22.8567095319
 10
-9.1709926148
 20
-22.8521927174
 10
-9.2270599349
 20
-22.8446969146
 10
-9.282660253
 20
-22.8342367249
 10
-9.3377395865
 20
-22.820797547
 10
-9.3921359875
 20
-22.804335577
 10
-9.4457954733
 20
-22.7848362136
 10
-9.4987720266
 20
-22.7623140581
 10
-9.5510656474
 20
-22.7367691104
  0
LWPOLYLINE
  5
2DD
100
AcDbEntity
  8
RACCORDO
100
AcDbPolyline
 62
253
  6
CONTINUOUS
 90
13
 70
0
 10
-9.9091395138
 20
-24.6552044027
 10
-6.1063379048
 20
-24.8107723665
 10
-2.3024993777
 20
-24.9380666431
 10
1.5021712457
 20
-25.0370804669
 10
5.3074732296
 20
-25.1078085187
 10
9.1131975462
 20
-25.1502468429
 10
12.9191268865
 20
-25.1643931621
 10
16.7250563254
 20
-25.1502468658
 10
20.5307809255
 20
-25.1078085601
 10
24.33608336
 20
-25.037080519
 10
28.140754595
 20
-24.9380666945
 10
31.9445939003
 20
-24.8107724019
 10
35.7473964538
 20
-24.6552044029
  0
LWPOLYLINE
  5
2DE
100
AcDbEntity
  8
RACCORDO
100
AcDbPolyline
 62
253
  6
CONTINUOUS
 90
13
 70
0
 10
-9.9045782308
 20
-24.5131858227
 10
-6.1021995531
 20
-24.6687307302
 10
-2.299191747
 20
-24.7959966437
 10
1.5044451877
 20
-24.8949835633
 10
5.3089209317
 20
-24.9656938134
 10
9.1140258042
 20
-25.0081250695
 10
12.9191307631
 20
-25.0222703583
 10
16.7242360933
 20
-25.0081250222
 10
20.52934151
 20
-24.9656937188
 10
24.3338171162
 20
-24.8949834472
 10
28.1374529463
 20
-24.7959965406
 10
31.9404589659
 20
-24.6687306657
 10
35.742835175
 20
-24.5131858227
  0
LINE
  5
2DF
100
AcDbEntity
  8
RACCORDO
100
AcDbLine
 62
253
  6
CONTINUOUS
 10
-13.7708805958
 20
-24.5483207956
 11
-11.5345967251
 21
-24.6609121267
  0
LINE
  5
2E0
100
AcDbEntity
  8
RACCORDO
100
AcDbLine
 62
253
  6
CONTINUOUS
 10
-15.5562041984
 20
-24.4514862848
 11
-13.7708805958
 21
-24.5483207956
  0
LWPOLYLINE
  5
2E1
100
AcDbEntity
  8
ASSI
100
AcDbPolyline
 62
253
  6
CONTINUOUS
 90
40
 70
0
 10
-19.5627599425
 20
-24.2143369042
 10
-19.4226564077
 20
-24.2228946883
 10
-19.2786673087
 20
-24.2303459053
 10
-19.1308335616
 20
-24.2365863145
 10
-18.9795325403
 20
-24.2415060897
 10
-18.824466389
 20
-24.2450124599
 10
-18.6646748248
 20
-24.2469970956
 10
-18.5001463727
 20
-24.2473264938
 10
-18.3309983973
 20
-24.2458643613
 10
-18.1564852964
 20
-24.2424435899
 10
-17.9762445508
 20
-24.2368898205
 10
-17.7907665122
 20
-24.2290516585
 10
-17.6005879556
 20
-24.2187885339
 10
-17.4051723169
 20
-24.2059171685
 10
-17.2051685673
 20
-24.1903342467
 10
-17.0028535943
 20
-24.1721162947
 10
-16.7982163692
 20
-24.1512050008
 10
-16.5913064264
 20
-24.1275602031
 10
-16.3844286397
 20
-24.1014456958
 10
-16.1780091936
 20
-24.0729585407
 10
-15.9715889131
 20
-24.0420853325
 10
-15.7661014907
 20
-24.0090340767
 10
-15.5619819672
 20
-23.9739552195
 10
-15.358737461
 20
-23.9368453761
 10
-15.1559031069
 20
-23.8976988829
 10
-14.9537618408
 20
-23.856635746
 10
-14.7519841436
 20
-23.8136544516
 10
-14.5492051738
 20
-23.7685194856
 10
-14.3456108134
 20
-23.721301715
 10
-14.1409934159
 20
-23.671985623
 10
-13.9334284469
 20
-23.6201282463
 10
-13.7230334912
 20
-23.5657485915
 10
-13.509695511
 20
-23.5088160311
 10
-13.2911783279
 20
-23.4487258751
 10
-13.0673788004
 20
-23.3854054886
 10
-12.8384248025
 20
-23.3188644981
 10
-12.6024547811
 20
-23.2485501009
 10
-12.3588615556
 20
-23.1742440819
 10
-12.108274801
 20
-23.0961073639
 10
-11.8506923794
 20
-23.0141453435
  0
LINE
  5
2E2
100
AcDbEntity
  8
RACCORDO
100
AcDbLine
 62
253
  6
CONTINUOUS
 10
41.5184003425
 20
-24.4445341152
 11
42.4164499228
 21
-24.4979558127
  0
LINE
  5
2E3
100
AcDbEntity
  8
RACCORDO
100
AcDbLine
 62
253
  6
CONTINUOUS
 10
42.4164499228
 20
-24.4979558127
 11
43.6651452375
 21
-24.576986207
  0
LWPOLYLINE
  5
2E4
100
AcDbEntity
  8
RACCORDO
100
AcDbPolyline
 62
253
  6
CONTINUOUS
 90
10
 70
0
 10
-19.5683996673
 20
-24.6889730859
 10
-18.6309600971
 20
-24.7503293351
 10
-17.6872279841
 20
-24.8101618292
 10
-16.7372033281
 20
-24.8684705681
 10
-15.7796513631
 20
-24.9253339756
 10
-14.8158068552
 20
-24.980673628
 10
-13.8493741032
 20
-25.0342542538
 10
-12.8815878734
 20
-25.0859974292
 10
-11.9112133994
 20
-25.135981578
 10
-10.9382506813
 20
-25.1842067002
  0
LINE
  5
2E5
100
AcDbEntity
  8
RACCORDO
100
AcDbLine
 62
253
  6
CONTINUOUS
 10
43.6651452375
 20
-24.576986207
 11
45.0942942793
 21
-24.6704322888
  0
LWPOLYLINE
  5
2E6
100
AcDbEntity
  8
RACCORDO
100
AcDbPolyline
 62
253
  6
CONTINUOUS
 90
3
 70
0
 10
45.0942942793
 20
-24.6704322888
 10
45.174102715
 20
-24.6760770593
 10
45.1823528881
 20
-24.6766853236
  0
LWPOLYLINE
  5
2E7
100
AcDbEntity
  8
0
100
AcDbPolyline
 62
7
  6
CONTINUOUS
 90
7
 70
0
 10
15.5549366933
 20
-23.4066494661
 10
15.5099820826
 20
-23.4024910743
 10
15.464478197
 20
-23.4006632066
 10
15.4184250362
 20
-23.4011658631
 10
15.3718226005
 20
-23.4039990438
 10
15.3246708896
 20
-23.4091627487
 10
15.2769699038
 20
-23.4166569777
  0
LWPOLYLINE
  5
2E8
100
AcDbEntity
  8
SUPERFICI
100
AcDbPolyline
 62
253
  6
CONTINUOUS
 90
3
 70
0
 10
-23.3182927292
 20
45.3756150299
 10
-23.2786021739
 20
45.215136863
 10
-23.2334455368
 20
45.0436268862
  0
LINE
  5
2E9
100
AcDbEntity
  8
RACCORDO
100
AcDbLine
 62
253
  6
CONTINUOUS
 10
-9.9045782308
 20
24.5239245654
 11
-9.9058453241
 21
24.5486714396
  0
LINE
  5
2EA
100
AcDbEntity
  8
RACCORDO
100
AcDbLine
 62
253
  6
CONTINUOUS
 10
-9.9407604663
 20
25.3574999743
 11
-9.9091395095
 21
24.6659431453
  0
LINE
  5
2EB
100
AcDbEntity
  8
RACCORDO
100
AcDbLine
 62
253
  6
CONTINUOUS
 10
-9.9058453241
 20
24.5486714396
 11
-9.9070268575
 21
24.5746001027
  0
LINE
  5
2EC
100
AcDbEntity
  8
RACCORDO
100
AcDbLine
 62
253
  6
CONTINUOUS
 10
-9.9070268575
 20
24.5746001027
 11
-9.9080430705
 21
24.5999602099
  0
LWPOLYLINE
  5
2ED
100
AcDbEntity
  8
RACCORDO
100
AcDbPolyline
 62
253
  6
CONTINUOUS
 90
9
 70
0
 10
-9.9080430705
 20
24.5999602099
 10
-9.9088253631
 20
24.6230397975
 10
-9.9091115636
 20
24.6332285237
 10
-9.9093209262
 20
24.6422808509
 10
-9.9094499025
 20
24.6500433569
 10
-9.9094963067
 20
24.6563844801
 10
-9.9094593526
 20
24.6611967488
 10
-9.9093396664
 20
24.664398603
 10
-9.9091392767
 20
24.6659357766
  0
LINE
  5
2EE
100
AcDbEntity
  8
RACCORDO
100
AcDbLine
 62
253
  6
CONTINUOUS
 10
-9.0572950207
 20
22.8689861009
 11
-9.0572950207
 21
22.580970585
  0
LINE
  5
2EF
100
AcDbEntity
  8
RACCORDO
100
AcDbLine
 62
253
  6
CONTINUOUS
 10
-9.0572950207
 20
-22.8582473583
 11
-9.0572950207
 21
-22.5702318424
  0
LINE
  5
2F0
100
AcDbEntity
  8
RACCORDO
100
AcDbLine
 62
253
  6
CONTINUOUS
 10
-9.9084675127
 20
-24.601153504
 11
-9.90911196
 21
-24.6224961395
  0
LINE
  5
2F1
100
AcDbEntity
  8
RACCORDO
100
AcDbLine
 62
253
  6
CONTINUOUS
 10
-9.9075604875
 20
-24.5767249854
 11
-9.9084675127
 21
-24.601153504
  0
LINE
  5
2F2
100
AcDbEntity
  8
RACCORDO
100
AcDbLine
 62
253
  6
CONTINUOUS
 10
-9.9064521206
 20
-24.5508598314
 11
-9.9075604875
 21
-24.5767249854
  0
LINE
  5
2F3
100
AcDbEntity
  8
RACCORDO
100
AcDbLine
 62
253
  6
CONTINUOUS
 10
-9.9407604664
 20
-25.3467612317
 11
-9.9091395138
 21
-24.6552044027
  0
LWPOLYLINE
  5
2F4
100
AcDbEntity
  8
RACCORDO
100
AcDbPolyline
 62
253
  6
CONTINUOUS
 90
3
 70
0
 10
-9.9045782308
 20
-24.5131858227
 10
-9.9052172413
 20
-24.5253042817
 10
-9.9064521206
 20
-24.5508598314
  0
LWPOLYLINE
  5
2F5
100
AcDbEntity
  8
ASSI
100
AcDbPolyline
 62
253
  6
CONTINUOUS
 90
19
 70
0
 10
-15.9058892734
 20
-24.4690488948
 10
-15.687452747
 20
-24.4342459239
 10
-15.4704327891
 20
-24.3974687169
 10
-15.2548293996
 20
-24.3587172739
 10
-15.0412669455
 20
-24.3180642631
 10
-14.8291210598
 20
-24.2754370162
 10
-14.6165186422
 20
-24.2306175286
 10
-14.4035001148
 20
-24.1836617212
 10
-14.1900250555
 20
-24.134513673
 10
-13.9740990965
 20
-24.0827876174
 10
-13.7558574778
 20
-24.0285748988
 10
-13.5351649596
 20
-23.9717841728
 10
-13.3096214547
 20
-23.9117556385
 10
-13.079185294
 20
-23.8485184328
 10
-12.8438981467
 20
-23.782043419
 10
-12.6014849333
 20
-23.7115833858
 10
-12.3511872938
 20
-23.6368892627
 10
-12.0937635882
 20
-23.5582101203
 10
-11.8292138165
 20
-23.4755459584
  0
LWPOLYLINE
  5
2F6
100
AcDbEntity
  8
RACCORDO
100
AcDbPolyline
 62
253
  6
CONTINUOUS
 90
13
 70
0
 10
-11.2417809128
 20
-23.3111122563
 10
-11.2547597861
 20
-23.3131008413
 10
-11.2675148182
 20
-23.3157837172
 10
-11.2798261049
 20
-23.3191146296
 10
-11.2914813922
 20
-23.3230361515
 10
-11.302279736
 20
-23.3274806737
 10
-11.3120349665
 20
-23.33237157
 10
-11.3205788977
 20
-23.3376245183
 10
-11.3277642272
 20
-23.3431489548
 10
-11.3334670756
 20
-23.3488496349
 10
-11.3375891225
 20
-23.3546282755
 10
-11.3400593012
 20
-23.3603852495
 10
-11.3408350245
 20
-23.3660213031
  0
LWPOLYLINE
  5
2F7
100
AcDbEntity
  8
RACCORDO
100
AcDbPolyline
 62
253
  6
CONTINUOUS
 90
13
 70
0
 10
-11.2503345817
 20
-23.207502926
 10
-11.2634065764
 20
-23.208381082
 10
-11.2763173221
 20
-23.209807661
 10
-11.2888451962
 20
-23.2117581746
 10
-11.3007751482
 20
-23.2141991409
 10
-11.3119023916
 20
-23.2170886587
 10
-11.3220359188
 20
-23.2203771274
 10
-11.3310017802
 20
-23.2240080979
 10
-11.3386460701
 20
-23.2279192419
 10
-11.3448375685
 20
-23.2320434215
 10
-11.3494699936
 20
-23.2363098423
 10
-11.3524638264
 20
-23.2406452677
 10
-11.3537676755
 20
-23.2449752771
  0
LWPOLYLINE
  5
2F8
100
AcDbEntity
  8
RACCORDO
100
AcDbPolyline
 62
253
  6
CONTINUOUS
 90
13
 70
0
 10
-11.2614100418
 20
-22.7941855456
 10
-11.2753539065
 20
-22.7948547742
 10
-11.2893523136
 20
-22.7954210062
 10
-11.3031299542
 20
-22.7958731056
 10
-11.3164158613
 20
-22.7962021808
 10
-11.3289487388
 20
-22.7964017598
 10
-11.3404821007
 20
-22.7964679174
 10
-11.3507891184
 20
-22.7963993524
 10
-11.3596670823
 20
-22.7961974134
 10
-11.366941388
 20
-22.7958660718
 10
-11.3724689707
 20
-22.7954118442
 10
-11.3761411184
 20
-22.7948436639
 10
-11.3778856105
 20
-22.7941727055
  0
LINE
  5
2F9
100
AcDbEntity
  8
RACCORDO
100
AcDbLine
 62
253
  6
CONTINUOUS
 10
-11.8389478463
 20
-23.2675693459
 11
-11.3537682394
 21
-23.2449735259
  0
LINE
  5
2FA
100
AcDbEntity
  8
0
100
AcDbLine
 62
253
  6
CONTINUOUS
 10
-33.5112911037
 20
-23.422532003
 11
-32.8818755093
 21
-23.3918941674
  0
LINE
  5
2FB
100
AcDbEntity
  8
0
100
AcDbLine
 62
253
  6
CONTINUOUS
 10
-33.8864146109
 20
-23.4390156769
 11
-33.5112911037
 21
-23.422532003
  0
LWPOLYLINE
  5
2FC
100
AcDbEntity
  8
RACCORDO
100
AcDbPolyline
 62
253
  6
CONTINUOUS
 90
14
 70
0
 10
-9.9773483952
 20
-21.9862965645
 10
-9.936072246
 20
-21.9854256291
 10
-9.8965166284
 20
-21.9843971829
 10
-9.8589988912
 20
-21.9832194767
 10
-9.8238200334
 20
-21.9819019593
 10
-9.7912622898
 20
-21.9804552008
 10
-9.7615868662
 20
-21.9788908084
 10
-9.735031844
 20
-21.9772213329
 10
-9.7118102702
 20
-21.9754601682
 10
-9.6921084479
 20
-21.9736214439
 10
-9.6760844418
 20
-21.9717199118
 10
-9.6638668103
 20
-21.9697708274
 10
-9.6555535733
 20
-21.967789828
 10
-9.6512114269
 20
-21.9657928069
  0
LINE
  5
2FD
100
AcDbEntity
  8
RACCORDO
100
AcDbLine
 62
253
  6
CONTINUOUS
 10
-10.0637265326
 20
-21.987539273
 11
-9.9773483952
 21
-21.9862965645
  0
LWPOLYLINE
  5
2FE
100
AcDbEntity
  8
RACCORDO
100
AcDbPolyline
 62
253
  6
CONTINUOUS
 90
15
 70
0
 10
35.9019836658
 20
-21.9875392256
 10
35.8156054587
 20
-21.9862965279
 10
35.7743292678
 20
-21.9854255974
 10
35.7347736053
 20
-21.9843971556
 10
35.697255821
 20
-21.9832194535
 10
35.6620769149
 20
-21.9819019398
 10
35.6295191229
 20
-21.9804551847
 10
35.5998436515
 20
-21.9788907952
 10
35.5732885832
 20
-21.9772213223
 10
35.5500669656
 20
-21.97546016
 10
35.5303651027
 20
-21.9736214377
 10
35.5143410598
 20
-21.9717199073
 10
35.5021233958
 20
-21.9697708246
 10
35.4938101312
 20
-21.9677898267
 10
35.4894679623
 20
-21.9657928069
  0
LINE
  5
2FF
100
AcDbEntity
  8
RACCORDO
100
AcDbLine
 62
253
  6
CONTINUOUS
 10
37.6772046971
 20
-23.2675693415
 11
37.1920248664
 21
-23.2449784789
  0
LINE
  5
300
100
AcDbEntity
  8
SUPERFICI
100
AcDbLine
 62
253
  6
CONTINUOUS
 10
59.7246715552
 20
-23.4390156769
 11
59.2152083514
 21
-23.4162809816
  0
LWPOLYLINE
  5
301
100
AcDbEntity
  8
RACCORDO
100
AcDbPolyline
 62
253
  6
CONTINUOUS
 90
13
 70
0
 10
37.0996681231
 20
-22.7941852267
 10
37.1136114598
 20
-22.7948544236
 10
37.1276093304
 20
-22.7954206333
 10
37.1413864631
 20
-22.7958727212
 10
37.154671927
 20
-22.7962017968
 10
37.1672044598
 20
-22.7964013887
 10
37.1787376061
 20
-22.7964675719
 10
37.1890445634
 20
-22.7963990449
 10
37.1979226427
 20
-22.7961971553
 10
37.2051972542
 20
-22.7958658732
 10
37.2107253407
 20
-22.7954117133
 10
37.214398191
 20
-22.794843607
 10
37.2161435774
 20
-22.794172726
  0
LINE
  5
302
100
AcDbEntity
  8
SUPERFICI
100
AcDbLine
 62
253
  6
CONTINUOUS
 10
59.2152083514
 20
-23.4162809816
 11
58.7201324536
 21
-23.3918941674
  0
LWPOLYLINE
  5
303
100
AcDbEntity
  8
RACCORDO
100
AcDbPolyline
 62
253
  6
CONTINUOUS
 90
13
 70
0
 10
37.0885913663
 20
-23.2075013959
 10
37.1016637425
 20
-23.2083795745
 10
37.1145748569
 20
-23.2098062112
 10
37.1271030651
 20
-23.211756815
 10
37.1390332961
 20
-23.2141978999
 10
37.1501607442
 20
-23.21708756
 10
37.160294385
 20
-23.2203761886
 10
37.169260255
 20
-23.2240073301
 10
37.1769044374
 20
-23.2279186487
 10
37.1830957051
 20
-23.2320429992
 10
37.1877277729
 20
-23.2363095789
 10
37.1907211223
 20
-23.2406451437
 10
37.1920243666
 20
-23.2449752653
  0
LINE
  5
304
100
AcDbEntity
  8
RACCORDO
100
AcDbLine
 62
253
  6
CONTINUOUS
 10
45.1823528881
 20
-24.6766853236
 11
45.2192410304
 21
-24.6795103029
  0
LINE
  5
305
100
AcDbEntity
  8
RACCORDO
100
AcDbLine
 62
253
  6
CONTINUOUS
 10
45.2192410304
 20
-24.6795103029
 11
45.2385189499
 21
-24.6810900588
  0
LINE
  5
306
100
AcDbEntity
  8
RACCORDO
100
AcDbLine
 62
253
  6
CONTINUOUS
 10
45.2385189499
 20
-24.6810900588
 11
45.2501132963
 21
-24.6820946826
  0
LINE
  5
307
100
AcDbEntity
  8
RACCORDO
100
AcDbLine
 62
253
  6
CONTINUOUS
 10
45.2501132963
 20
-24.6820946826
 11
45.2603696547
 21
-24.6830324807
  0
LWPOLYLINE
  5
308
100
AcDbEntity
  8
RACCORDO
100
AcDbPolyline
 62
253
  6
CONTINUOUS
 90
16
 70
0
 10
45.2603696547
 20
-24.6830324807
 10
45.2697797081
 20
-24.6839472699
 10
45.2742128115
 20
-24.6844000324
 10
45.2787217931
 20
-24.684889478
 10
45.2834524122
 20
-24.685425465
 10
45.2882589053
 20
-24.6859981176
 10
45.2929487845
 20
-24.6866149462
 10
45.2975779953
 20
-24.6872860915
 10
45.3020905861
 20
-24.6880014064
 10
45.3061262232
 20
-24.6887379913
 10
45.3096409436
 20
-24.6894354595
 10
45.3126787106
 20
-24.6901542264
 10
45.3150110709
 20
-24.6910525937
 10
45.3165618557
 20
-24.6921833108
 10
45.3174071944
 20
-24.6934935915
 10
45.3175470638
 20
-24.6949834085
  0
LWPOLYLINE
  5
309
100
AcDbEntity
  8
RACCORDO
100
AcDbPolyline
 62
253
  6
CONTINUOUS
 90
13
 70
0
 10
37.0800378428
 20
-23.311112217
 10
37.0930171079
 20
-23.3131006367
 10
37.1057725838
 20
-23.3157834001
 10
37.1180843457
 20
-23.3191142519
 10
37.1297401188
 20
-23.323035763
 10
37.1405389388
 20
-23.3274803204
 10
37.1502946168
 20
-23.3323712928
 10
37.1588389489
 20
-23.337624352
 10
37.1660246172
 20
-23.3431489268
 10
37.1717277292
 20
-23.3488497649
 10
37.1758499539
 20
-23.3546285745
 10
37.1783202176
 20
-23.3603857197
 10
37.179095929
 20
-23.3660219383
  0
LINE
  5
30A
100
AcDbEntity
  8
RACCORDO
100
AcDbLine
 62
253
  6
CONTINUOUS
 10
41.5982543978
 20
-23.995319092
 11
42.0598583961
 21
-24.0737580808
  0
LINE
  5
30B
100
AcDbEntity
  8
RACCORDO
100
AcDbLine
 62
253
  6
CONTINUOUS
 10
42.0598583961
 20
-24.0737580808
 11
42.4701855634
 21
-24.1455433575
  0
LINE
  5
30C
100
AcDbEntity
  8
RACCORDO
100
AcDbLine
 62
253
  6
CONTINUOUS
 10
42.4701855634
 20
-24.1455433575
 11
43.093473061
 21
-24.2577264947
  0
LINE
  5
30D
100
AcDbEntity
  8
RACCORDO
100
AcDbLine
 62
253
  6
CONTINUOUS
 10
43.093473061
 20
-24.2577264947
 11
43.9455318857
 21
-24.415504169
  0
LINE
  5
30E
100
AcDbEntity
  8
RACCORDO
100
AcDbLine
 62
253
  6
CONTINUOUS
 10
43.9455318857
 20
-24.415504169
 11
45.0234832191
 21
-24.6197026748
  0
LINE
  5
30F
100
AcDbEntity
  8
RACCORDO
100
AcDbLine
 62
253
  6
CONTINUOUS
 10
45.0234832191
 20
-24.6197026748
 11
45.1122300527
 21
-24.6370964642
  0
LWPOLYLINE
  5
310
100
AcDbEntity
  8
RACCORDO
100
AcDbPolyline
 62
253
  6
CONTINUOUS
 90
3
 70
0
 10
45.1122300527
 20
-24.6370964642
 10
45.1613642296
 20
-24.6469669719
 10
45.1700658657
 20
-24.6487453468
  0
LWPOLYLINE
  5
311
100
AcDbEntity
  8
0
100
AcDbPolyline
 62
7
  6
CONTINUOUS
 90
51
 70
0
 10
15.8111441176
 20
-23.1648983622
 10
15.8314239018
 20
-23.1732373206
 10
15.8516487576
 20
-23.1832257365
 10
15.8718186849
 20
-23.1948636098
 10
15.8920330092
 20
-23.2081221774
 10
15.9121924051
 20
-23.2230302024
 10
15.9319988962
 20
-23.239673974
 10
15.9515734083
 20
-23.2580997499
 10
15.9707950157
 20
-23.2782612724
 10
15.9890029655
 20
-23.3001060574
 10
16.0062405883
 20
-23.3239579858
 10
16.0224645535
 20
-23.3494931766
 10
16.0368841167
 20
-23.3756875025
 10
16.0492339078
 20
-23.4025620913
 10
16.0597792969
 20
-23.4300958152
 10
16.0685256493
 20
-23.4572011628
 10
16.0752922413
 20
-23.48365392
 10
16.0802597967
 20
-23.509678301
 10
16.0839758516
 20
-23.5348594371
 10
16.0864942049
 20
-23.5590437945
 10
16.0877610577
 20
-23.582384907
 10
16.0881625493
 20
-23.6049285076
 10
16.0877637539
 20
-23.6266674168
 10
16.0864995974
 20
-23.6476088141
 10
16.0845609974
 20
-23.6678199707
 10
16.0819593505
 20
-23.6873116528
 10
16.0786832602
 20
-23.7060730942
 10
16.0748894541
 20
-23.724139267
 10
16.0705831198
 20
-23.7415073655
 10
16.0657590697
 20
-23.7581801954
 10
16.0605584693
 20
-23.7742011456
 10
16.0549903877
 20
-23.789567176
 10
16.0490457558
 20
-23.8042813268
 10
16.0428385314
 20
-23.8183961076
 10
16.036379805
 20
-23.8319139741
 10
16.0296584862
 20
-23.8448324706
 10
16.0227552618
 20
-23.8571967405
 10
16.0156730146
 20
-23.8690133789
 10
16.0084088619
 20
-23.8802757906
 10
16.0010348414
 20
-23.8910093344
 10
15.9935505283
 20
-23.9012023589
 10
15.9859563475
 20
-23.9108665154
 10
15.9783256118
 20
-23.9200621162
 10
15.9706564458
 20
-23.928775672
 10
15.9629507251
 20
-23.937020672
 10
15.9552873883
 20
-23.9448978965
 10
15.9476760219
 20
-23.9524112214
 10
15.9401070396
 20
-23.9595567708
 10
15.9326306215
 20
-23.966423696
 10
15.9252575099
 20
-23.973020318
 10
15.9179769626
 20
-23.979338316
  0
LWPOLYLINE
  5
312
100
AcDbEntity
  8
0
100
AcDbPolyline
 62
7
  6
CONTINUOUS
 90
21
 70
0
 10
15.8475806549
 20
-24.0334504371
 10
15.8675962656
 20
-24.0435793082
 10
15.885913522
 20
-24.0545806096
 10
15.9025324241
 20
-24.0664543414
 10
15.9172542822
 20
-24.0793909468
 10
15.9302777859
 20
-24.0931999825
 10
15.9421990047
 20
-24.1073101187
 10
15.953091066
 20
-24.1215975147
 10
15.9628808423
 20
-24.1361860112
 10
15.9719450203
 20
-24.1508758011
 10
15.9803472553
 20
-24.1656531414
 10
15.9880238919
 20
-24.1805317752
 10
15.9951606501
 20
-24.1953531241
 10
16.0017730104
 20
-24.2100832725
 10
16.0078454923
 20
-24.224756136
 10
16.0135173743
 20
-24.2393148827
 10
16.018789491
 20
-24.2537232897
 10
16.0236610078
 20
-24.2680175799
 10
16.0282686991
 20
-24.2822495906
 10
16.0326037275
 20
-24.2964199508
 10
16.0366749305
 20
-24.3105280315
  0
LINE
  5
313
100
AcDbEntity
  8
RACCORDO
100
AcDbLine
 62
253
  6
CONTINUOUS
 10
35.3893228911
 20
22.7475077322
 11
36.1053125289
 21
22.9943004747
  0
LINE
  5
314
100
AcDbEntity
  8
RACCORDO
100
AcDbLine
 62
253
  6
CONTINUOUS
 10
35.8337916486
 20
22.3744068203
 11
36.5159254413
 21
22.6083271738
  0
LINE
  5
315
100
AcDbEntity
  8
RACCORDO
100
AcDbLine
 62
253
  6
CONTINUOUS
 10
36.1053125289
 20
22.9943004747
 11
36.4807620154
 21
23.122007135
  0
LWPOLYLINE
  5
316
100
AcDbEntity
  8
RACCORDO
100
AcDbPolyline
 62
253
  6
CONTINUOUS
 90
3
 70
0
 10
36.5159254413
 20
22.6083271738
 10
36.9501987729
 20
22.7550050662
 10
37.099669395
 20
22.8048925855
  0
LINE
  5
317
100
AcDbEntity
  8
RACCORDO
100
AcDbLine
 62
253
  6
CONTINUOUS
 10
36.4807620154
 20
23.122007135
 11
37.0800400164
 21
23.3218422626
  0
LINE
  5
318
100
AcDbEntity
  8
RACCORDO
100
AcDbLine
 62
253
  6
CONTINUOUS
 10
45.1700658657
 20
-24.6487453468
 11
45.1941518018
 21
-24.6537385786
  0
LINE
  5
319
100
AcDbEntity
  8
RACCORDO
100
AcDbLine
 62
253
  6
CONTINUOUS
 10
45.1941518018
 20
-24.6537385786
 11
45.21562578
 21
-24.6583084238
  0
LINE
  5
31A
100
AcDbEntity
  8
RACCORDO
100
AcDbLine
 62
253
  6
CONTINUOUS
 10
45.21562578
 20
-24.6583084238
 11
45.2287657
 21
-24.6611835195
  0
LINE
  5
31B
100
AcDbEntity
  8
RACCORDO
100
AcDbLine
 62
253
  6
CONTINUOUS
 10
45.2287657
 20
-24.6611835195
 11
45.2410802309
 21
-24.6639492058
  0
LWPOLYLINE
  5
31C
100
AcDbEntity
  8
RACCORDO
100
AcDbPolyline
 62
253
  6
CONTINUOUS
 90
3
 70
0
 10
45.2410802309
 20
-24.6639492058
 10
45.2523306312
 20
-24.6665611377
 10
45.2575331904
 20
-24.6678057042
  0
LWPOLYLINE
  5
31D
100
AcDbEntity
  8
RACCORDO
100
AcDbPolyline
 62
253
  6
CONTINUOUS
 90
16
 70
0
 10
45.2575331904
 20
-24.6678057042
 10
45.2671845205
 20
-24.6701824761
 10
45.2716331152
 20
-24.671315164
 10
45.2760607928
 20
-24.6724841336
 10
45.2805198192
 20
-24.6736917286
 10
45.284957923
 20
-24.6749356092
 10
45.2894297817
 20
-24.6762752755
 10
45.2940868104
 20
-24.6777640899
 10
45.2987776403
 20
-24.6793485304
 10
45.3031026569
 20
-24.6809280915
 10
45.3069453481
 20
-24.682403463
 10
45.3104219873
 20
-24.6838746162
 10
45.3134820022
 20
-24.6855403298
 10
45.316108466
 20
-24.6874670334
 10
45.3183181196
 20
-24.6895887731
 10
45.3201108936
 20
-24.6919057332
  0
LWPOLYLINE
  5
31E
100
AcDbEntity
  8
ASSI
100
AcDbPolyline
 62
253
  6
CONTINUOUS
 90
10
 70
0
 10
37.6668941333
 20
-23.4878077066
 10
38.1109613874
 20
-23.6262651076
 10
38.5502560588
 20
-23.7567878322
 10
38.9847781474
 20
-23.8793758802
 10
39.4135382839
 20
-23.9941678454
 10
39.8375258377
 20
-24.1010251341
 10
40.2597089173
 20
-24.1995319648
 10
40.6810768922
 20
-24.2895497439
 10
41.100640393
 20
-24.3712170651
 10
41.5183994196
 20
-24.4445339284
  0
LWPOLYLINE
  5
31F
100
AcDbEntity
  8
ASSI
100
AcDbPolyline
 62
253
  6
CONTINUOUS
 90
10
 70
0
 10
37.689563538
 20
-23.0008127974
 10
38.1450330034
 20
-23.1447567274
 10
38.5940081356
 20
-23.2811279179
 10
39.0366867355
 20
-23.4094230072
 10
39.4721420796
 20
-23.5289731841
 10
39.9015866376
 20
-23.6397195598
 10
40.328442335
 20
-23.742034967
 10
40.7539703231
 20
-23.8357373183
 10
41.1772029522
 20
-23.9202621652
 10
41.5982543978
 20
-23.995319092
  0
LINE
  5
320
100
AcDbEntity
  8
RACCORDO
100
AcDbLine
 62
253
  6
CONTINUOUS
 10
37.0800410825
 20
-23.3110991786
 11
36.7278282803
 21
-23.1942909367
  0
LINE
  5
321
100
AcDbEntity
  8
RACCORDO
100
AcDbLine
 62
253
  6
CONTINUOUS
 10
37.0996690288
 20
-22.7941632141
 11
36.6967240607
 21
-22.6589365026
  0
LINE
  5
322
100
AcDbEntity
  8
RACCORDO
100
AcDbLine
 62
253
  6
CONTINUOUS
 10
36.7278282803
 20
-23.1942909367
 11
36.365291079
 21
-23.0721703037
  0
LWPOLYLINE
  5
323
100
AcDbEntity
  8
RACCORDO
100
AcDbPolyline
 62
253
  6
CONTINUOUS
 90
3
 70
0
 10
36.6967240607
 20
-22.6589365026
 10
35.9843594855
 20
-22.415538807
 10
35.8337930883
 20
-22.3636672775
  0
LWPOLYLINE
  5
324
100
AcDbEntity
  8
RACCORDO
100
AcDbPolyline
 62
253
  6
CONTINUOUS
 90
3
 70
0
 10
36.365291079
 20
-23.0721703037
 10
35.5943565379
 20
-22.8079307262
 10
35.3890558737
 20
-22.7368826198
  0
LWPOLYLINE
  5
325
100
AcDbEntity
  8
SUPERFICI
100
AcDbPolyline
 62
253
  6
CONTINUOUS
 90
6
 70
0
 10
49.3708326052
 20
46.0301309215
 10
49.3369958185
 20
46.0008411749
 10
49.3071643844
 20
45.9472768903
 10
49.2794060283
 20
45.871144095
 10
49.2518606915
 20
45.7737533943
 10
49.2229727345
 20
45.6568703587
  0
LWPOLYLINE
  5
326
100
AcDbEntity
  8
SUPERFICI
100
AcDbPolyline
 62
253
  6
CONTINUOUS
 90
4
 70
0
 10
58.5683247629
 20
36.1262195867
 10
58.2916622039
 20
35.9944805597
 10
58.1393211321
 20
35.9196031534
 10
57.9806643582
 20
35.8365723964
  0
LWPOLYLINE
  5
327
100
AcDbEntity
  8
RACCORDO
100
AcDbPolyline
 62
253
  6
CONTINUOUS
 90
16
 70
0
 10
35.8337822581
 20
22.3744452489
 10
35.7925567808
 20
22.3581104983
 10
35.7523761317
 20
22.341728529
 10
35.7135682764
 20
22.325433055
 10
35.676449975
 20
22.3093570844
 10
35.6413241974
 20
22.2936318335
 10
35.6084776498
 20
22.2783856558
 10
35.5781784348
 20
22.2637429946
 10
35.5506738629
 20
22.2498233673
 10
35.526188434
 20
22.2367403893
 10
35.5049220049
 20
22.2246008475
 10
35.4870481581
 20
22.2135038278
 10
35.4727127848
 20
22.203539907
 10
35.4620328943
 20
22.1947904131
 10
35.455095659
 20
22.1873267617
 10
35.4519577025
 20
22.1812098728
  0
LWPOLYLINE
  5
328
100
AcDbEntity
  8
RACCORDO
100
AcDbPolyline
 62
253
  6
CONTINUOUS
 90
16
 70
0
 10
35.8337812548
 20
-22.3637066853
 10
35.7925557528
 20
-22.3473718057
 10
35.7523751132
 20
-22.3309897337
 10
35.7135673016
 20
-22.3146941833
 10
35.6764490783
 20
-22.2986181622
 10
35.6413234128
 20
-22.2828928861
 10
35.6084770107
 20
-22.2676467081
 10
35.5781779736
 20
-22.2530040704
 10
35.5506736111
 20
-22.2390844892
 10
35.5261884215
 20
-22.2260015787
 10
35.5049222601
 20
-22.2138621242
 10
35.4870487076
 20
-22.20276521
 10
35.472713653
 20
-22.192801411
 10
35.4620341036
 20
-22.1840520534
 10
35.4550972289
 20
-22.1765885506
 10
35.4519596503
 20
-22.1704718209
  0
LWPOLYLINE
  5
329
100
AcDbEntity
  8
SUPERFICI
100
AcDbPolyline
 62
253
  6
CONTINUOUS
 90
3
 70
0
 10
58.2916622039
 20
-35.9837418171
 10
58.1393211321
 20
-35.9088644108
 10
57.9806643582
 20
-35.8258336538
  0
LWPOLYLINE
  5
32A
100
AcDbEntity
  8
SUPERFICI
100
AcDbPolyline
 62
253
  6
CONTINUOUS
 90
7
 70
0
 10
49.3708326052
 20
-46.0193921789
 10
49.3369958185
 20
-45.9901024323
 10
49.3071643844
 20
-45.9365381477
 10
49.2794060283
 20
-45.8604053524
 10
49.2518606915
 20
-45.7630146516
 10
49.2229727345
 20
-45.6461316161
 10
49.1565496735
 20
-45.3648762873
  0
LINE
  5
32B
100
AcDbEntity
  8
0
100
AcDbLine
 62
7
  6
CONTINUOUS
 10
12.0694964721
 20
-23.7169526287
 11
12.4857524721
 21
-24.8269316287
  0
LINE
  5
32C
100
AcDbEntity
  8
0
100
AcDbLine
 62
7
  6
CONTINUOUS
 10
12.5125724721
 20
-24.0708376287
 11
12.1614914721
 21
-23.1270686287
  0
LINE
  5
32D
100
AcDbEntity
  8
0
100
AcDbLine
 62
7
  6
CONTINUOUS
 10
9.5779624721
 20
-23.1270686287
 11
10.1168524721
 21
-24.8269316287
  0
LINE
  5
32E
100
AcDbEntity
  8
0
100
AcDbLine
 62
7
  6
CONTINUOUS
 10
10.2874404721
 20
-24.2971366287
 11
9.9634154721
 21
-23.1270686287
  0
LWPOLYLINE
  5
32F
100
AcDbEntity
  8
RACCORDO
100
AcDbPolyline
 62
253
  6
CONTINUOUS
 90
13
 70
0
 10
-9.5508563476
 20
-22.7368537058
 10
-9.5275792633
 20
-22.7013779895
 10
-9.5045031704
 20
-22.6680328861
 10
-9.4818273018
 20
-22.6371062923
 10
-9.4597474346
 20
-22.6088652238
 10
-9.4384542003
 20
-22.5835535101
 10
-9.4181314388
 20
-22.561389689
 10
-9.3989546108
 20
-22.5425651203
 10
-9.3810892832
 20
-22.5272423331
 10
-9.3646896996
 20
-22.5155536228
 10
-9.3498974487
 20
-22.5075999089
 10
-9.3368402415
 20
-22.5034498638
 10
-9.3256308092
 20
-22.5031393194
  0
LWPOLYLINE
  5
330
100
AcDbEntity
  8
RACCORDO
100
AcDbPolyline
 62
253
  6
CONTINUOUS
 90
13
 70
0
 10
-9.5508564012
 20
22.7475970208
 10
-9.5275793435
 20
22.7121209785
 10
-9.5045032746
 20
22.6787755438
 10
-9.481827429
 20
22.6478486169
 10
-9.4597475856
 20
22.6196072174
 10
-9.4384543776
 20
22.594295178
 10
-9.4181316463
 20
22.5721310402
 10
-9.3989548539
 20
22.5533061666
 10
-9.3810895688
 20
22.5379830894
 10
-9.3646900358
 20
22.5262941067
 10
-9.3498978445
 20
22.5183401404
 10
-9.3368407072
 20
22.5141898648
 10
-9.3256313556
 20
22.5138791137
  0
LWPOLYLINE
  5
331
100
AcDbEntity
  8
0
100
AcDbPolyline
 62
7
  6
CONTINUOUS
 90
16
 70
0
 10
15.6769178376
 20
-24.3113966559
 10
15.6709127422
 20
-24.2969801196
 10
15.663864681
 20
-24.282872886
 10
15.6557736542
 20
-24.2690749551
 10
15.6466534058
 20
-24.2555100832
 10
15.6364901916
 20
-24.2422545141
 10
15.6252427796
 20
-24.2295369788
 10
15.6128646925
 20
-24.2172417445
 10
15.5994024075
 20
-24.2054845442
 10
15.5849541245
 20
-24.1948413082
 10
15.5695069873
 20
-24.185275424
 10
15.5530738521
 20
-24.1768235042
 10
15.535791488
 20
-24.1701713164
 10
15.5177054847
 20
-24.1655474498
 10
15.4987702524
 20
-24.1627233153
 10
15.4789857912
 20
-24.1616989128
  0
LINE
  5
332
100
AcDbEntity
  8
0
100
AcDbLine
 62
7
  6
CONTINUOUS
 10
14.8311404721
 20
-24.8269316287
 11
14.3095804721
 21
-23.1270686287
  0
LWPOLYLINE
  5
333
100
AcDbEntity
  8
0
100
AcDbPolyline
 62
7
  6
CONTINUOUS
 90
8
 70
0
 10
15.8321056873
 20
-24.8269313154
 10
15.7785807149
 20
-24.6436647383
 10
15.7619216699
 20
-24.5848843389
 10
15.7457233361
 20
-24.5272964517
 10
15.729202143
 20
-24.4711307703
 10
15.7120969004
 20
-24.4164638596
 10
15.6946687987
 20
-24.3632191547
 10
15.6769178376
 20
-24.3113966559
  0
LINE
  5
334
100
AcDbEntity
  8
0
100
AcDbLine
 62
7
  6
CONTINUOUS
 10
14.3652474721
 20
-24.4875786287
 11
14.4571664721
 21
-24.8269316287
  0
LINE
  5
335
100
AcDbEntity
  8
0
100
AcDbLine
 62
7
  6
CONTINUOUS
 10
14.1312864721
 20
-23.5941476287
 11
14.2943344721
 21
-24.2249886287
  0
LINE
  5
336
100
AcDbEntity
  8
0
100
AcDbLine
 62
7
  6
CONTINUOUS
 10
13.3774244721
 20
-24.8269316287
 11
13.2184674721
 21
-23.1270686287
  0
LINE
  5
337
100
AcDbEntity
  8
0
100
AcDbLine
 62
7
  6
CONTINUOUS
 10
12.9574074721
 20
-23.7215796287
 11
13.0303084721
 21
-24.8269316287
  0
LINE
  5
338
100
AcDbEntity
  8
0
100
AcDbLine
 62
7
  6
CONTINUOUS
 10
11.1076264721
 20
-23.1269666287
 11
11.1076264721
 21
-24.8269316287
  0
LINE
  5
339
100
AcDbEntity
  8
0
100
AcDbLine
 62
7
  6
CONTINUOUS
 10
11.4624544721
 20
-24.8269316287
 11
11.4624544721
 21
-23.1269666287
  0
LINE
  5
33A
100
AcDbEntity
  8
ASSI
100
AcDbLine
 62
253
  6
CONTINUOUS
 10
12.9191272731
 20
25.9053693713
 11
12.9191283651
 21
46.3553693738
  0
LINE
  5
33B
100
AcDbEntity
  8
0
100
AcDbLine
 62
253
  6
CONTINUOUS
 10
12.9191283651
 20
46.3553693716
 11
12.9191283696
 21
47.3610130763
  0
LINE
  5
33C
100
AcDbEntity
  8
0
100
AcDbLine
 62
253
  6
CONTINUOUS
 10
12.9191285792
 20
-46.344630629
 11
12.9191285747
 21
-47.3502743337
  0
LINE
  5
33D
100
AcDbEntity
  8
ASSI
100
AcDbLine
 62
253
  6
CONTINUOUS
 10
12.9191296712
 20
-25.8946306287
 11
12.9191285792
 21
-46.3446306312
  0
LINE
  5
33E
100
AcDbEntity
  8
RACCORDO
100
AcDbLine
 62
253
  6
CONTINUOUS
 10
-9.5808715279
 20
-21.8954529078
 11
-9.6512113703
 21
-21.9658196255
  0
LINE
  5
33F
100
AcDbEntity
  8
RACCORDO
100
AcDbLine
 62
253
  6
CONTINUOUS
 10
35.4191284721
 20
21.9061916505
 11
35.4894683146
 21
21.9765583681
  0
LINE
  5
340
100
AcDbEntity
  8
RACCORDO
100
AcDbLine
 62
253
  6
CONTINUOUS
 10
34.8199507513
 20
22.5053693713
 11
34.8955389185
 21
22.580970585
  0
LINE
  5
341
100
AcDbEntity
  8
RACCORDO
100
AcDbLine
 62
253
  6
CONTINUOUS
 10
-8.981693807
 20
-22.4946306287
 11
-9.057281974
 21
-22.5702318424
  0
LINE
  5
342
100
AcDbEntity
  8
ASSI
100
AcDbLine
 62
253
  6
CONTINUOUS
 10
-20.1786717339
 20
0.0053693673
 11
-12.3808715279
 21
0.0053691051
  0
LINE
  5
343
100
AcDbEntity
  8
0
100
AcDbLine
 62
253
  6
CONTINUOUS
 10
60.2747721771
 20
0.0053695764
 11
46.0169286781
 21
0.0053693753
  0
LINE
  5
344
100
AcDbEntity
  8
ASSI
100
AcDbLine
 62
253
  6
CONTINUOUS
 10
46.0169286781
 20
0.0053693753
 11
38.2191284721
 21
0.0053696375
  0
LINE
  5
345
100
AcDbEntity
  8
0
100
AcDbLine
 62
253
  6
CONTINUOUS
 10
-34.4365152329
 20
0.0053691663
 11
-20.1786717339
 21
0.0053693673
  0
LINE
  5
346
100
AcDbEntity
  8
RACCORDO
100
AcDbLine
 62
253
  6
CONTINUOUS
 10
-11.8667677536
 20
0.0053691529
 11
-9.6767458206
 21
0.0053693118
  0
LINE
  5
347
100
AcDbEntity
  8
RACCORDO
100
AcDbLine
 62
253
  6
CONTINUOUS
 10
35.5150027649
 20
0.0053694308
 11
37.7050246979
 21
0.0053695897
  0
LINE
  5
348
100
AcDbEntity
  8
RACCORDO
100
AcDbLine
 62
253
  6
CONTINUOUS
 10
34.8199507513
 20
-22.4946306287
 11
34.8955990382
 21
-22.5702318424
  0
LINE
  5
349
100
AcDbEntity
  8
RACCORDO
100
AcDbLine
 62
253
  6
CONTINUOUS
 10
-8.981693807
 20
22.5053693713
 11
-9.057342094
 21
22.580970585
  0
LINE
  5
34A
100
AcDbEntity
  8
RACCORDO
100
AcDbLine
 62
253
  6
CONTINUOUS
 10
-9.5808715279
 20
21.9061916505
 11
-9.6512114468
 21
21.9765220749
  0
LINE
  5
34B
100
AcDbEntity
  8
RACCORDO
100
AcDbLine
 62
253
  6
CONTINUOUS
 10
35.4191284721
 20
-21.8954529078
 11
35.4894683911
 21
-21.9657833323
  0
LWPOLYLINE
  5
34C
100
AcDbEntity
  8
0
100
AcDbPolyline
 62
7
  6
CONTINUOUS
 90
4
 70
0
 10
16.0366749305
 20
-24.3105280315
 10
16.0445701495
 20
-24.338723855
 10
16.0483941656
 20
-24.3528115977
 10
16.0942208623
 20
-24.5247299459
  0
LINE
  5
34D
100
AcDbEntity
  8
0
100
AcDbLine
 62
7
  6
CONTINUOUS
 10
16.0942208623
 20
-24.5247299459
 11
16.1734090306
 21
-24.8269313154
  0
LWPOLYLINE
  5
34E
100
AcDbEntity
  8
0
100
AcDbPolyline
 62
7
  6
CONTINUOUS
 90
16
 70
0
 10
15.7553830806
 20
-23.6192844228
 10
15.7542218124
 20
-23.5994300975
 10
15.7510905308
 20
-23.5797196329
 10
15.7459892356
 20
-23.5601530291
 10
15.7389364127
 20
-23.5404380848
 10
15.7299135762
 20
-23.5208670013
 10
15.7188652693
 20
-23.5023163821
 10
15.7055445345
 20
-23.4847992178
 10
15.6901983293
 20
-23.4683025177
 10
15.6735120682
 20
-23.4536639137
 10
15.6554063515
 20
-23.4411581017
 10
15.635960579
 20
-23.4305103857
 10
15.6160983654
 20
-23.4217343097
 10
15.5961275824
 20
-23.4148343885
 10
15.5757403583
 20
-23.4098061073
 10
15.5549366933
 20
-23.4066494661
  0
LINE
  5
34F
100
AcDbEntity
  8
0
100
AcDbLine
 62
7
  6
CONTINUOUS
 10
14.9353351361
 20
-23.1469285465
 11
14.9353351361
 21
-24.8269313154
  0
LINE
  5
350
100
AcDbEntity
  8
0
100
AcDbLine
 62
7
  6
CONTINUOUS
 10
15.2769699038
 20
-23.8833024602
 11
15.2769699038
 21
-23.4166569777
  0
LINE
  5
351
100
AcDbEntity
  8
0
100
AcDbLine
 62
7
  6
CONTINUOUS
 10
15.2887354681
 20
-24.8269313154
 11
15.2887354681
 21
-24.1616989128
  0
LINE
  5
352
100
AcDbEntity
  8
0
100
AcDbLine
 62
7
  6
CONTINUOUS
 10
15.8475806549
 20
-24.0334504371
 11
15.8475806549
 21
-24.0234057299
  0
LINE
  5
353
100
AcDbEntity
  8
0
100
AcDbLine
 62
7
  6
CONTINUOUS
 10
11.9929244721
 20
-24.8269316287
 11
12.0694964721
 21
-23.7169526287
  0
LINE
  5
354
100
AcDbEntity
  8
0
100
AcDbLine
 62
7
  6
CONTINUOUS
 10
11.8069564721
 20
-23.1270686287
 11
11.6534694721
 21
-24.8269316287
  0
LINE
  5
355
100
AcDbEntity
  8
0
100
AcDbLine
 62
7
  6
CONTINUOUS
 10
10.6213624721
 20
-23.1270686287
 11
10.2874404721
 21
-24.2971366287
  0
LINE
  5
356
100
AcDbEntity
  8
0
100
AcDbLine
 62
7
  6
CONTINUOUS
 10
13.9546124721
 20
-24.2249886287
 11
14.1312864721
 21
-23.5941476287
  0
LINE
  5
357
100
AcDbEntity
  8
0
100
AcDbLine
 62
7
  6
CONTINUOUS
 10
13.7841194721
 20
-24.8269316287
 11
13.8820304721
 21
-24.4875786287
  0
LINE
  5
358
100
AcDbEntity
  8
0
100
AcDbLine
 62
7
  6
CONTINUOUS
 10
13.9663264721
 20
-23.1270686287
 11
13.4331414721
 21
-24.8269316287
  0
LINE
  5
359
100
AcDbEntity
  8
0
100
AcDbLine
 62
7
  6
CONTINUOUS
 10
10.4295444721
 20
-24.8269316287
 11
10.9759484721
 21
-23.1270686287
  0
LINE
  5
35A
100
AcDbEntity
  8
0
100
AcDbLine
 62
7
  6
CONTINUOUS
 10
12.8674004721
 20
-23.1270686287
 11
12.5125724721
 21
-24.0708376287
  0
LINE
  5
35B
100
AcDbEntity
  8
0
100
AcDbLine
 62
7
  6
CONTINUOUS
 10
12.5355164721
 20
-24.8269316287
 11
12.9574074721
 21
-23.7215796287
  0
LWPOLYLINE
  5
35C
100
AcDbEntity
  8
RACCORDO
100
AcDbPolyline
 62
253
  6
CONTINUOUS
 90
13
 70
0
 10
35.3891133357
 20
22.7475924346
 10
35.3658362492
 20
22.7121167175
 10
35.3427601539
 20
22.6787716136
 10
35.3200842828
 20
22.6478450194
 10
35.2980044131
 20
22.6196039507
 10
35.2767111763
 20
22.5942922371
 10
35.2563884123
 20
22.5721284164
 10
35.2372115819
 20
22.5533038482
 10
35.219346252
 20
22.5379810618
 10
35.2029466663
 20
22.5262923526
 10
35.1881544135
 20
22.5183386401
 10
35.1750972046
 20
22.5141885965
 10
35.1638877709
 20
22.513878054
  0
LWPOLYLINE
  5
35D
100
AcDbEntity
  8
RACCORDO
100
AcDbPolyline
 62
253
  6
CONTINUOUS
 90
10
 70
0
 10
-19.4811184686
 20
24.6992698536
 10
-19.4816118048
 20
24.6995491328
 10
-19.4819272663
 20
24.7000003472
 10
-19.4820648532
 20
24.7006234969
 10
-19.4820153822
 20
24.7015023917
 10
-19.4817880365
 20
24.7025532218
 10
-19.4814103664
 20
24.7035245573
 10
-19.4808915553
 20
24.7043325883
 10
-19.4802224199
 20
24.7050611247
 10
-19.47940296
 20
24.7057101666
  0
LWPOLYLINE
  5
35E
100
AcDbEntity
  8
RACCORDO
100
AcDbPolyline
 62
253
  6
CONTINUOUS
 90
13
 70
0
 10
35.3891134249
 20
-22.7368583878
 10
35.3658363514
 20
-22.701382334
 10
35.342760267
 20
-22.6680368877
 10
35.3200844064
 20
-22.6371099495
 10
35.2980045488
 20
-22.6088685393
 10
35.2767113273
 20
-22.5835564901
 10
35.2563885834
 20
-22.5613923436
 10
35.2372117795
 20
-22.5425674627
 10
35.2193464839
 20
-22.5272443799
 10
35.2029469415
 20
-22.5155553933
 10
35.1881547421
 20
-22.5076014251
 10
35.1750975978
 20
-22.5034511497
 10
35.1638882403
 20
-22.5031404009
  0
LWPOLYLINE
  5
35F
100
AcDbEntity
  8
0
100
AcDbPolyline
 62
253
  6
CONTINUOUS
 90
6
 70
0
 10
-23.5325756609
 20
-46.0193921789
 10
-23.4987388742
 20
-45.9901024323
 10
-23.4689074402
 20
-45.9365381477
 10
-23.441149084
 20
-45.8604053524
 10
-23.4136037472
 20
-45.7630146516
 10
-23.3847157902
 20
-45.6461316161
  0
LWPOLYLINE
  5
360
100
AcDbEntity
  8
0
100
AcDbPolyline
 62
253
  6
CONTINUOUS
 90
4
 70
0
 10
-32.7300678187
 20
-36.1154808441
 10
-32.4534052597
 20
-35.9837418171
 10
-32.3010641878
 20
-35.9088644108
 10
-32.1424074139
 20
-35.8258336538
  0
LWPOLYLINE
  5
361
100
AcDbEntity
  8
RACCORDO
100
AcDbPolyline
 62
253
  6
CONTINUOUS
 90
16
 70
0
 10
-9.9955253123
 20
-22.3637065128
 10
-9.9542998355
 20
-22.3473717621
 10
-9.9141191869
 20
-22.3309897927
 10
-9.875311332
 20
-22.3146943186
 10
-9.838193031
 20
-22.2986183479
 10
-9.8030672537
 20
-22.2828930968
 10
-9.7702207064
 20
-22.2676469189
 10
-9.7399214915
 20
-22.2530042577
 10
-9.7124169197
 20
-22.2390846302
 10
-9.6879314908
 20
-22.2260016521
 10
-9.6666650616
 20
-22.2138621101
 10
-9.6487912146
 20
-22.2027650902
 10
-9.634455841
 20
-22.1928011692
 10
-9.6237759502
 20
-22.184051675
 10
-9.6168387144
 20
-22.1765880234
 10
-9.6137007573
 20
-22.1704711343
  0
LINE
  5
362
100
AcDbEntity
  8
RACCORDO
100
AcDbLine
 62
253
  6
CONTINUOUS
 10
-9.5510656474
 20
-22.7367691104
 11
-10.2198350986
 21
-22.9674172272
  0
LINE
  5
363
100
AcDbEntity
  8
RACCORDO
100
AcDbLine
 62
253
  6
CONTINUOUS
 10
-9.9955347016
 20
-22.3636680885
 11
-10.6773653066
 21
-22.5974852515
  0
LINE
  5
364
100
AcDbEntity
  8
RACCORDO
100
AcDbLine
 62
253
  6
CONTINUOUS
 10
-10.2198350986
 20
-22.9674172272
 11
-10.4992234606
 21
-23.0627104117
  0
LWPOLYLINE
  5
365
100
AcDbEntity
  8
RACCORDO
100
AcDbPolyline
 62
253
  6
CONTINUOUS
 90
3
 70
0
 10
-10.6773653066
 20
-22.5974852515
 10
-11.111814096
 20
-22.7442235511
 10
-11.2614124482
 20
-22.7941538099
  0
LINE
  5
366
100
AcDbEntity
  8
RACCORDO
100
AcDbLine
 62
253
  6
CONTINUOUS
 10
-11.2614120786
 20
22.8049018768
 11
-10.8579277391
 21
22.6694927553
  0
LWPOLYLINE
  5
367
100
AcDbEntity
  8
RACCORDO
100
AcDbPolyline
 62
253
  6
CONTINUOUS
 90
3
 70
0
 10
-10.8579277391
 20
22.6694927553
 10
-10.1458840675
 20
22.4262023232
 10
-9.9955362151
 20
22.374406063
  0
LWPOLYLINE
  5
368
100
AcDbEntity
  8
RACCORDO
100
AcDbPolyline
 62
253
  6
CONTINUOUS
 90
3
 70
0
 10
-10.526139962
 20
23.082606397
 10
-9.7558388464
 20
22.8185797185
 10
-9.5507982499
 20
22.747621508
  0
LWPOLYLINE
  5
369
100
AcDbEntity
  8
RACCORDO
100
AcDbPolyline
 62
253
  6
CONTINUOUS
 90
16
 70
0
 10
-9.9955244361
 20
22.3744455116
 10
-9.954298921
 20
22.3581106266
 10
-9.9141182678
 20
22.3417285488
 10
-9.8753104425
 20
22.3254329924
 10
-9.8381922056
 20
22.3093569652
 10
-9.8030665269
 20
22.2936316832
 10
-9.7702201122
 20
22.2783854993
 10
-9.7399210635
 20
22.263742856
 10
-9.7124166904
 20
22.2498232696
 10
-9.6879314916
 20
22.2367403544
 10
-9.6666653226
 20
22.2246008957
 10
-9.648791764
 20
22.2135039779
 10
-9.6344567052
 20
22.2035401761
 10
-9.6237771534
 20
22.1947908165
 10
-9.6168402784
 20
22.1873273125
 10
-9.6137027013
 20
22.1812105824
  0
LWPOLYLINE
  5
36A
100
AcDbEntity
  8
SUPERFICI
100
AcDbPolyline
 62
253
  6
CONTINUOUS
 90
3
 70
0
 10
-32.4534052597
 20
35.9944805597
 10
-32.3010641878
 20
35.9196031534
 10
-32.1424074139
 20
35.8365723964
  0
LWPOLYLINE
  5
36B
100
AcDbEntity
  8
SUPERFICI
100
AcDbPolyline
 62
253
  6
CONTINUOUS
 90
7
 70
0
 10
-23.5325756609
 20
46.0301309215
 10
-23.4987388742
 20
46.0008411749
 10
-23.4689074402
 20
45.9472768903
 10
-23.441149084
 20
45.871144095
 10
-23.4136037472
 20
45.7737533943
 10
-23.3847157902
 20
45.6568703587
 10
-23.3182927292
 20
45.3756150299
  0
LINE
  5
36C
100
AcDbEntity
  8
RACCORDO
100
AcDbLine
 62
253
  6
CONTINUOUS
 10
-10.4992234606
 20
-23.0627104117
 11
-10.9363102718
 21
-23.2098911237
  0
LINE
  5
36D
100
AcDbEntity
  8
RACCORDO
100
AcDbLine
 62
253
  6
CONTINUOUS
 10
-10.9363102718
 20
-23.2098911237
 11
-11.2417830803
 21
-23.3111034473
  0
LINE
  5
36E
100
AcDbEntity
  8
RACCORDO
100
AcDbLine
 62
253
  6
CONTINUOUS
 10
-16.2356728944
 20
24.09808586
 11
-16.6865853289
 21
24.1756307773
  0
LINE
  5
36F
100
AcDbEntity
  8
RACCORDO
100
AcDbLine
 62
253
  6
CONTINUOUS
 10
-16.6865853289
 20
24.1756307773
 11
-17.1933224751
 21
24.2651080062
  0
LINE
  5
370
100
AcDbEntity
  8
RACCORDO
100
AcDbLine
 62
253
  6
CONTINUOUS
 10
-17.1933224751
 20
24.2651080062
 11
-18.3950318757
 21
24.4841870277
  0
LINE
  5
371
100
AcDbEntity
  8
RACCORDO
100
AcDbLine
 62
253
  6
CONTINUOUS
 10
-18.3950318757
 20
24.4841870277
 11
-19.2446045372
 21
24.6430714372
  0
LINE
  5
372
100
AcDbEntity
  8
RACCORDO
100
AcDbLine
 62
253
  6
CONTINUOUS
 10
-19.2446045372
 20
24.6430714372
 11
-19.3044447523
 21
24.6547548465
  0
LINE
  5
373
100
AcDbEntity
  8
RACCORDO
100
AcDbLine
 62
253
  6
CONTINUOUS
 10
-19.3044447523
 20
24.6547548465
 11
-19.3368866755
 21
24.6612409686
  0
LINE
  5
374
100
AcDbEntity
  8
RACCORDO
100
AcDbLine
 62
253
  6
CONTINUOUS
 10
-19.3368866755
 20
24.6612409686
 11
-19.3603903282
 21
24.6660515587
  0
LINE
  5
375
100
AcDbEntity
  8
RACCORDO
100
AcDbLine
 62
253
  6
CONTINUOUS
 10
-19.3603903282
 20
24.6660515587
 11
-19.3766639462
 21
24.6694628053
  0
LINE
  5
376
100
AcDbEntity
  8
RACCORDO
100
AcDbLine
 62
253
  6
CONTINUOUS
 10
-19.3766639462
 20
24.6694628053
 11
-19.3918177427
 21
24.6727222664
  0
LINE
  5
377
100
AcDbEntity
  8
RACCORDO
100
AcDbLine
 62
253
  6
CONTINUOUS
 10
-19.3918177427
 20
24.6727222664
 11
-19.4013167423
 21
24.6748193964
  0
LINE
  5
378
100
AcDbEntity
  8
RACCORDO
100
AcDbLine
 62
253
  6
CONTINUOUS
 10
-19.4013167423
 20
24.6748193964
 11
-19.4103658933
 21
24.6768681278
  0
LINE
  5
379
100
AcDbEntity
  8
RACCORDO
100
AcDbLine
 62
253
  6
CONTINUOUS
 10
-19.4103658933
 20
24.6768681278
 11
-19.41897039
 21
24.6788734052
  0
LWPOLYLINE
  5
37A
100
AcDbEntity
  8
RACCORDO
100
AcDbPolyline
 62
253
  6
CONTINUOUS
 90
21
 70
0
 10
-19.41897039
 20
24.6788734052
 10
-19.4271286809
 20
24.6808415906
 10
-19.4310165936
 20
24.6818079441
 10
-19.4347674593
 20
24.6827608731
 10
-19.4383842047
 20
24.6837012061
 10
-19.4418560478
 20
24.6846282142
 10
-19.4451779137
 20
24.6855409035
 10
-19.4483548046
 20
24.6864404662
 10
-19.4513910536
 20
24.6873294512
 10
-19.4542779616
 20
24.6882036606
 10
-19.4570241658
 20
24.6890674618
 10
-19.4596600122
 20
24.6899362269
 10
-19.4621954587
 20
24.6908102605
 10
-19.4646205064
 20
24.6916893681
 10
-19.4669355736
 20
24.6925881522
 10
-19.4690287277
 20
24.693519962
 10
-19.4710118528
 20
24.6944715775
 10
-19.4732211435
 20
24.6954176062
 10
-19.4757687139
 20
24.6963494495
 10
-19.4785425419
 20
24.6972754554
 10
-19.4815426738
 20
24.6981954985
  0
LWPOLYLINE
  5
37B
100
AcDbEntity
  8
ASSI
100
AcDbPolyline
 62
253
  6
CONTINUOUS
 90
10
 70
0
 10
-11.8292138372
 20
23.4862841449
 10
-12.279767456
 20
23.6268199044
 10
-12.7253979421
 20
23.7591708056
 10
-13.1661052956
 20
23.8833368482
 10
-13.6009174388
 20
23.9994722754
 10
-14.0308064494
 20
24.1074228442
 10
-14.4586885602
 20
24.2067258255
 10
-14.885535849
 20
24.2972269764
 10
-15.310376238
 20
24.3790805399
 10
-15.7332097272
 20
24.4522865159
  0
LWPOLYLINE
  5
37C
100
AcDbEntity
  8
ASSI
100
AcDbPolyline
 62
253
  6
CONTINUOUS
 90
10
 70
0
 10
-11.8506923281
 20
23.0248836274
 10
-12.3118958664
 20
23.1705337253
 10
-12.7665329084
 20
23.3084327036
 10
-13.2148097116
 20
23.4380555902
 10
-13.6558517773
 20
23.5587277369
 10
-14.090832615
 20
23.6703622126
 10
-14.5230424688
 20
23.7732854857
 10
-14.9536987409
 20
23.8672996085
 10
-15.3818796377
 20
23.9518505419
 10
-15.8076987219
 20
24.0266494059
  0
LINE
  5
37D
100
AcDbEntity
  8
RACCORDO
100
AcDbLine
 62
253
  6
CONTINUOUS
 10
-11.24178415
 20
23.3218378689
 11
-10.888866017
 21
23.2047923388
  0
LINE
  5
37E
100
AcDbEntity
  8
RACCORDO
100
AcDbLine
 62
253
  6
CONTINUOUS
 10
-10.888866017
 20
23.2047923388
 11
-10.526139962
 21
23.082606397
  0
LINE
  5
37F
100
AcDbEntity
  8
RACCORDO
100
AcDbLine
 62
253
  6
CONTINUOUS
 10
35.742835175
 20
-24.5131858228
 11
35.7441022684
 21
-24.537932697
  0
LINE
  5
380
100
AcDbEntity
  8
RACCORDO
100
AcDbLine
 62
253
  6
CONTINUOUS
 10
35.7790174106
 20
-25.3467612317
 11
35.7473964538
 21
-24.6552044027
  0
LINE
  5
381
100
AcDbEntity
  8
RACCORDO
100
AcDbLine
 62
253
  6
CONTINUOUS
 10
35.7441022684
 20
-24.537932697
 11
35.7452838018
 21
-24.5638613601
  0
LINE
  5
382
100
AcDbEntity
  8
RACCORDO
100
AcDbLine
 62
253
  6
CONTINUOUS
 10
35.7452838018
 20
-24.5638613601
 11
35.7463000148
 21
-24.5892214673
  0
LWPOLYLINE
  5
383
100
AcDbEntity
  8
RACCORDO
100
AcDbPolyline
 62
253
  6
CONTINUOUS
 90
9
 70
0
 10
35.7463000148
 20
-24.5892214673
 10
35.7470823074
 20
-24.6123010549
 10
35.7473685079
 20
-24.6224897811
 10
35.7475778704
 20
-24.6315421083
 10
35.7477068467
 20
-24.6393046143
 10
35.747753251
 20
-24.6456457375
 10
35.7477162969
 20
-24.6504580062
 10
35.7475966107
 20
-24.6536598604
 10
35.7473962209
 20
-24.655197034
  0
LINE
  5
384
100
AcDbEntity
  8
RACCORDO
100
AcDbLine
 62
253
  6
CONTINUOUS
 10
35.4894683146
 20
21.9765583681
 11
35.5009899965
 21
16.2841737826
  0
LINE
  5
385
100
AcDbEntity
  8
RACCORDO
100
AcDbLine
 62
253
  6
CONTINUOUS
 10
35.5009899965
 20
16.2841737826
 11
35.5080566589
 21
11.46242707
  0
LINE
  5
386
100
AcDbEntity
  8
RACCORDO
100
AcDbLine
 62
253
  6
CONTINUOUS
 10
35.9019834895
 20
21.9982780124
 11
35.9245483715
 21
8.2426938761
  0
LINE
  5
387
100
AcDbEntity
  8
RACCORDO
100
AcDbLine
 62
253
  6
CONTINUOUS
 10
35.5080566589
 20
11.46242707
 11
35.5135666265
 21
5.1560471329
  0
LINE
  5
388
100
AcDbEntity
  8
RACCORDO
100
AcDbLine
 62
253
  6
CONTINUOUS
 10
35.9245483715
 20
8.2426938761
 11
35.9280182729
 21
2.3983655154
  0
LINE
  5
389
100
AcDbEntity
  8
RACCORDO
100
AcDbLine
 62
253
  6
CONTINUOUS
 10
34.895551965
 20
22.8689861009
 11
34.895551965
 21
22.580970585
  0
LINE
  5
38A
100
AcDbEntity
  8
RACCORDO
100
AcDbLine
 62
253
  6
CONTINUOUS
 10
34.895551965
 20
-22.8582473583
 11
34.895551965
 21
-22.5702318424
  0
LINE
  5
38B
100
AcDbEntity
  8
RACCORDO
100
AcDbLine
 62
7
  6
CONTINUOUS
 10
35.4191284721
 20
21.9061916505
 11
35.4191284721
 21
-21.8954529078
  0
LINE
  5
38C
100
AcDbEntity
  8
RACCORDO
100
AcDbLine
 62
253
  6
CONTINUOUS
 10
35.5135666265
 20
5.1560471329
 11
35.5149880355
 21
-1.1264044125
  0
LINE
  5
38D
100
AcDbEntity
  8
RACCORDO
100
AcDbLine
 62
253
  6
CONTINUOUS
 10
35.9280182729
 20
2.3983655154
 11
35.9276348618
 21
-3.647927643
  0
LINE
  5
38E
100
AcDbEntity
  8
RACCORDO
100
AcDbLine
 62
253
  6
CONTINUOUS
 10
35.5149880355
 20
-1.1264044125
 11
35.5127349522
 21
-6.5305577926
  0
LINE
  5
38F
100
AcDbEntity
  8
RACCORDO
100
AcDbLine
 62
253
  6
CONTINUOUS
 10
35.9276348618
 20
-3.647927643
 11
35.9231094087
 21
-9.6345177925
  0
LINE
  5
390
100
AcDbEntity
  8
RACCORDO
100
AcDbLine
 62
253
  6
CONTINUOUS
 10
35.5127349522
 20
-6.5305577926
 11
35.5062916124
 21
-12.8412778732
  0
LINE
  5
391
100
AcDbEntity
  8
RACCORDO
100
AcDbLine
 62
253
  6
CONTINUOUS
 10
35.9231094087
 20
-9.6345177925
 11
35.9137539812
 21
-16.0662028584
  0
LINE
  5
392
100
AcDbEntity
  8
RACCORDO
100
AcDbLine
 62
253
  6
CONTINUOUS
 10
35.5062916124
 20
-12.8412778732
 11
35.4957332405
 21
-19.1066673071
  0
LINE
  5
393
100
AcDbEntity
  8
RACCORDO
100
AcDbLine
 62
253
  6
CONTINUOUS
 10
35.4957332405
 20
-19.1066673071
 11
35.4894683911
 21
-21.9657833323
  0
LINE
  5
394
100
AcDbEntity
  8
RACCORDO
100
AcDbLine
 62
253
  6
CONTINUOUS
 10
35.9137539812
 20
-16.0662028584
 11
35.9019834895
 21
-21.9875392698
  0
LWPOLYLINE
  5
395
100
AcDbEntity
  8
RACCORDO
100
AcDbPolyline
 62
253
  6
CONTINUOUS
 90
10
 70
0
 10
35.9019834895
 20
-21.9875392698
 10
35.9011196144
 20
-22.0297340983
 10
35.8985539276
 20
-22.0719805519
 10
35.8942877457
 20
-22.1142757547
 10
35.8882952483
 20
-22.1568105906
 10
35.8806050954
 20
-22.1993880141
 10
35.871300279
 20
-22.2414234191
 10
35.8604093293
 20
-22.2827201373
 10
35.8479064617
 20
-22.323469074
 10
35.8337930883
 20
-22.3636672775
  0
LWPOLYLINE
  5
396
100
AcDbEntity
  8
RACCORDO
100
AcDbPolyline
 62
253
  6
CONTINUOUS
 90
10
 70
0
 10
35.4894684024
 20
-21.9657833436
 10
35.4889742605
 20
-21.9887282047
 10
35.4875708011
 20
-22.0117602505
 10
35.4852437559
 20
-22.0348443361
 10
35.4819683799
 20
-22.0580166249
 10
35.4777392632
 20
-22.0811661917
 10
35.4725988889
 20
-22.1040400851
 10
35.4665843913
 20
-22.1265343002
 10
35.4596990195
 20
-22.1486887935
 10
35.4519617892
 20
-22.1704726016
  0
LWPOLYLINE
  5
397
100
AcDbEntity
  8
RACCORDO
100
AcDbPolyline
 62
253
  6
CONTINUOUS
 90
7
 70
0
 10
35.7473689043
 20
24.6332348822
 10
35.7475782827
 20
24.6422877846
 10
35.7477072649
 20
24.6500507249
 10
35.7477536645
 20
24.6563921202
 10
35.747716695
 20
24.6612044831
 10
35.7475969832
 20
24.6644062435
 10
35.747396558
 20
24.665943131
  0
LINE
  5
398
100
AcDbEntity
  8
RACCORDO
100
AcDbLine
 62
253
  6
CONTINUOUS
 10
35.746724457
 20
24.6118922466
 11
35.7473689043
 21
24.6332348822
  0
LINE
  5
399
100
AcDbEntity
  8
RACCORDO
100
AcDbLine
 62
253
  6
CONTINUOUS
 10
35.7458174318
 20
24.587463728
 11
35.746724457
 21
24.6118922466
  0
LINE
  5
39A
100
AcDbEntity
  8
RACCORDO
100
AcDbLine
 62
253
  6
CONTINUOUS
 10
35.7447090648
 20
24.561598574
 11
35.7458174318
 21
24.587463728
  0
LINE
  5
39B
100
AcDbEntity
  8
RACCORDO
100
AcDbLine
 62
253
  6
CONTINUOUS
 10
35.7790174107
 20
25.3574999743
 11
35.7473964581
 21
24.6659431453
  0
LWPOLYLINE
  5
39C
100
AcDbEntity
  8
RACCORDO
100
AcDbPolyline
 62
253
  6
CONTINUOUS
 90
3
 70
0
 10
35.742835175
 20
24.5239245653
 10
35.7434741855
 20
24.5360430243
 10
35.7447090648
 20
24.561598574
  0
LWPOLYLINE
  5
39D
100
AcDbEntity
  8
0
100
AcDbPolyline
 62
7
  6
CONTINUOUS
 90
10
 70
0
 10
15.9179769626
 20
-23.979338316
 10
15.903787691
 20
-23.991403831
 10
15.8968789667
 20
-23.9971513482
 10
15.8899779115
 20
-24.0025301421
 10
15.8830852897
 20
-24.0076126876
 10
15.876200337
 20
-24.0123265098
 10
15.8692179114
 20
-24.0162998964
 10
15.8621029655
 20
-24.0194089432
 10
15.8548905467
 20
-24.0217775544
 10
15.8475806549
 20
-24.0234057299
  0
LWPOLYLINE
  5
39E
100
AcDbEntity
  8
ASSI
100
AcDbPolyline
 62
253
  6
CONTINUOUS
 90
19
 70
0
 10
41.7441456948
 20
24.4797875977
 10
41.5256927062
 20
24.444981931
 10
41.3086556894
 20
24.4082015524
 10
41.0930346444
 20
24.3694464619
 10
40.8794524434
 20
24.3287889666
 10
40.6672862143
 20
24.2861567595
 10
40.4546673401
 20
24.2413329193
 10
40.2416371981
 20
24.194373468
 10
40.0281544111
 20
24.1452223836
 10
39.8122262312
 20
24.0934946794
 10
39.5939879898
 20
24.0392816899
 10
39.3733043555
 20
23.9824920806
 10
39.1477765854
 20
23.9224668606
 10
38.9173686123
 20
23.8592369228
 10
38.6821165034
 20
23.7927713742
 10
38.4397297178
 20
23.722318545
 10
38.1894447421
 20
23.6476278786
 10
37.9320250896
 20
23.5689499316
 10
37.6674707606
 20
23.486284704
  0
LWPOLYLINE
  5
39F
100
AcDbEntity
  8
RACCORDO
100
AcDbPolyline
 62
253
  6
CONTINUOUS
 90
13
 70
0
 10
37.0800378621
 20
23.3218510183
 10
37.0930167354
 20
23.3238396038
 10
37.1057717674
 20
23.3265224801
 10
37.1180830539
 20
23.3298533929
 10
37.1297383408
 20
23.3337749153
 10
37.1405366841
 20
23.3382194378
 10
37.150291914
 20
23.3431103344
 10
37.1588358444
 20
23.348363283
 10
37.1660211731
 20
23.3538877196
 10
37.1717240205
 20
23.3595883998
 10
37.1758460663
 20
23.3653670404
 10
37.1783162439
 20
23.3711240143
 10
37.179091966
 20
23.3767600678
  0
LWPOLYLINE
  5
3A0
100
AcDbEntity
  8
RACCORDO
100
AcDbPolyline
 62
253
  6
CONTINUOUS
 90
13
 70
0
 10
37.088591551
 20
23.2182416775
 10
37.1016635436
 20
23.2191198343
 10
37.1145742868
 20
23.2205464137
 10
37.1271021581
 20
23.2224969275
 10
37.1390321074
 20
23.2249378935
 10
37.1501593479
 20
23.2278274109
 10
37.1602928725
 20
23.2311158788
 10
37.1692587315
 20
23.2347468482
 10
37.1769030192
 20
23.2386579909
 10
37.1830945158
 20
23.2427821691
 10
37.1877269396
 20
23.2470485883
 10
37.1907207716
 20
23.2513840121
 10
37.1920246205
 20
23.2557140197
  0
LINE
  5
3A1
100
AcDbEntity
  8
RACCORDO
100
AcDbLine
 62
7
  6
CONTINUOUS
 10
45.4066521996
 20
24.6997121246
 11
43.2818981522
 21
24.5676041299
  0
LINE
  5
3A2
100
AcDbEntity
  8
RACCORDO
100
AcDbLine
 62
7
  6
CONTINUOUS
 10
43.2818981522
 20
24.5676041299
 11
42.3587008571
 21
24.5141253906
  0
LINE
  5
3A3
100
AcDbEntity
  8
RACCORDO
100
AcDbLine
 62
7
  6
CONTINUOUS
 10
42.3587008571
 20
24.5141253906
 11
41.7392019813
 21
24.4803002761
  0
LWPOLYLINE
  5
3A4
100
AcDbEntity
  8
RACCORDO
100
AcDbPolyline
 62
253
  6
CONTINUOUS
 90
13
 70
0
 10
37.0996669907
 20
22.8049242933
 10
37.1136108556
 20
22.8055935219
 10
37.1276092627
 20
22.806159754
 10
37.1413869032
 20
22.8066118533
 10
37.1546728101
 20
22.8069409284
 10
37.1672056873
 20
22.8071405072
 10
37.1787390488
 20
22.8072066646
 10
37.189046066
 20
22.8071380994
 10
37.1979240293
 20
22.80693616
 10
37.2051983343
 20
22.8066048181
 10
37.2107259162
 20
22.8061505902
 10
37.2143980631
 20
22.8055824096
 10
37.2161425543
 20
22.8049114509
  0
LINE
  5
3A5
100
AcDbEntity
  8
RACCORDO
100
AcDbLine
 62
7
  6
CONTINUOUS
 10
41.7441456948
 20
24.4797875977
 11
41.3944625603
 21
24.4622251006
  0
LINE
  5
3A6
100
AcDbEntity
  8
SUPERFICI
100
AcDbLine
 62
253
  6
CONTINUOUS
 10
59.349548048
 20
23.4332707456
 11
58.7201324536
 21
23.40263291
  0
LINE
  5
3A7
100
AcDbEntity
  8
RACCORDO
100
AcDbLine
 62
253
  6
CONTINUOUS
 10
37.6772047906
 20
23.2783080885
 11
37.1920251842
 21
23.2557122685
  0
LINE
  5
3A8
100
AcDbEntity
  8
SUPERFICI
100
AcDbLine
 62
253
  6
CONTINUOUS
 10
59.7246715552
 20
23.4497544195
 11
59.349548048
 21
23.4332707456
  0
LWPOLYLINE
  5
3A9
100
AcDbEntity
  8
RACCORDO
100
AcDbPolyline
 62
253
  6
CONTINUOUS
 90
14
 70
0
 10
35.8156053395
 20
21.9970353072
 10
35.7743291903
 20
21.9961643718
 10
35.7347735727
 20
21.9951359255
 10
35.6972558355
 20
21.9939582193
 10
35.6620769777
 20
21.9926407019
 10
35.6295192341
 20
21.9911939435
 10
35.5998438105
 20
21.989629551
 10
35.5732887883
 20
21.9879600755
 10
35.5500672144
 20
21.9861989109
 10
35.5303653921
 20
21.9843601866
 10
35.5143413861
 20
21.9824586544
 10
35.5021237545
 20
21.98050957
 10
35.4938105176
 20
21.9785285707
 10
35.4894683712
 20
21.9765315495
  0
LINE
  5
3AA
100
AcDbEntity
  8
RACCORDO
100
AcDbLine
 62
253
  6
CONTINUOUS
 10
35.9019834769
 20
21.9982780156
 11
35.8156053395
 21
21.9970353072
  0
LINE
  5
3AB
100
AcDbEntity
  8
RACCORDO
100
AcDbLine
 62
7
  6
CONTINUOUS
 10
-8.981693807
 20
22.5053693713
 11
34.8199507513
 21
22.5053693713
  0
LINE
  5
3AC
100
AcDbEntity
  8
RACCORDO
100
AcDbLine
 62
253
  6
CONTINUOUS
 10
-9.057342094
 20
22.580970585
 11
34.8955389185
 21
22.580970585
  0
LINE
  5
3AD
100
AcDbEntity
  8
RACCORDO
100
AcDbLine
 62
253
  6
CONTINUOUS
 10
-9.0572950207
 20
22.8689861009
 11
34.895551965
 21
22.8689861009
  0
LWPOLYLINE
  5
3AE
100
AcDbEntity
  8
RACCORDO
100
AcDbPolyline
 62
253
  6
CONTINUOUS
 90
15
 70
0
 10
-10.0637267215
 20
21.9982779682
 10
-9.9773485144
 20
21.9970352706
 10
-9.9360723235
 20
21.99616434
 10
-9.896516661
 20
21.9951358982
 10
-9.8589988767
 20
21.9939581962
 10
-9.8238199707
 20
21.9926406824
 10
-9.7912621786
 20
21.9911939273
 10
-9.7615867072
 20
21.9896295378
 10
-9.7350316389
 20
21.987960065
 10
-9.7118100213
 20
21.9861989026
 10
-9.6921081584
 20
21.9843601803
 10
-9.6760841156
 20
21.9824586499
 10
-9.6638664515
 20
21.9805095672
 10
-9.6555531869
 20
21.9785285693
 10
-9.651211018
 20
21.9765315495
  0
LWPOLYLINE
  5
3AF
100
AcDbEntity
  8
RACCORDO
100
AcDbPolyline
 62
253
  6
CONTINUOUS
 90
10
 70
0
 10
34.8955389405
 20
22.5809706069
 10
34.9266118115
 20
22.5802006275
 10
34.9575259394
 20
22.5777497923
 10
34.9881987256
 20
22.5736238223
 10
35.0184961105
 20
22.5678442831
 10
35.0483894914
 20
22.5604191989
 10
35.0779495781
 20
22.5513161766
 10
35.1071381276
 20
22.5405146047
 10
35.1358145527
 20
22.5280326675
 10
35.1638884363
 20
22.5138793689
  0
LWPOLYLINE
  5
3B0
100
AcDbEntity
  8
RACCORDO
100
AcDbPolyline
 62
253
  6
CONTINUOUS
 90
10
 70
0
 10
34.895551965
 20
22.8689861009
 10
34.952661256
 20
22.8674482746
 10
35.0092495627
 20
22.8629314598
 10
35.0653168851
 20
22.8554356564
 10
35.1209171958
 20
22.8449754697
 10
35.1759965222
 20
22.8315362945
 10
35.2303929467
 20
22.8150743147
 10
35.2840524967
 20
22.7955749251
 10
35.3370291449
 20
22.7730527309
 10
35.3893228911
 20
22.7475077322
  0
LINE
  5
3B1
100
AcDbEntity
  8
SUPERFICI
100
AcDbLine
 62
253
  6
CONTINUOUS
 10
-33.8864146109
 20
23.4497544195
 11
-33.3769514071
 21
23.4270197242
  0
LINE
  5
3B2
100
AcDbEntity
  8
RACCORDO
100
AcDbLine
 62
253
  6
CONTINUOUS
 10
-11.353767919
 20
23.2557172215
 11
-11.8389478463
 21
23.2783080885
  0
LWPOLYLINE
  5
3B3
100
AcDbEntity
  8
RACCORDO
100
AcDbPolyline
 62
253
  6
CONTINUOUS
 90
13
 70
0
 10
-11.2614111688
 20
22.8049239899
 10
-11.2753545048
 20
22.8055931871
 10
-11.2893523749
 20
22.8061593971
 10
-11.3031295073
 20
22.8066114853
 10
-11.3164149711
 20
22.8069405613
 10
-11.3289475042
 20
22.8071401536
 10
-11.340480651
 20
22.8072063371
 10
-11.3507876091
 20
22.8071378105
 10
-11.3596656895
 20
22.8069359212
 10
-11.3669403023
 20
22.8066046395
 10
-11.3724683905
 20
22.8061504801
 10
-11.3761412427
 20
22.8055823741
 10
-11.3778866313
 20
22.8049114936
  0
LINE
  5
3B4
100
AcDbEntity
  8
SUPERFICI
100
AcDbLine
 62
253
  6
CONTINUOUS
 10
-33.3769514071
 20
23.4270197242
 11
-32.8818755093
 21
23.40263291
  0
LINE
  5
3B5
100
AcDbEntity
  8
RACCORDO
100
AcDbLine
 62
253
  6
CONTINUOUS
 10
-15.7332109143
 20
24.4522867536
 11
-16.5618915155
 21
24.5027868462
  0
LINE
  5
3B6
100
AcDbEntity
  8
RACCORDO
100
AcDbLine
 62
253
  6
CONTINUOUS
 10
-16.5618915155
 20
24.5027868462
 11
-17.8428459387
 21
24.5858398063
  0
LWPOLYLINE
  5
3B7
100
AcDbEntity
  8
RACCORDO
100
AcDbPolyline
 62
253
  6
CONTINUOUS
 90
13
 70
0
 10
-11.2503344293
 20
23.2182401335
 10
-11.2634068046
 20
23.2191183125
 10
-11.276317918
 20
23.2205449497
 10
-11.2888461251
 20
23.2224955538
 10
-11.3007763549
 20
23.2249366392
 10
-11.3119038018
 20
23.2278262997
 10
-11.3220374415
 20
23.2311149287
 10
-11.3310033105
 20
23.2347460706
 10
-11.338647492
 20
23.2386573896
 10
-11.3448387589
 20
23.2427817404
 10
-11.3494708261
 20
23.2470483205
 10
-11.3524641751
 20
23.2513838858
 10
-11.3537674192
 20
23.2557140077
  0
LINE
  5
3B8
100
AcDbEntity
  8
RACCORDO
100
AcDbLine
 62
253
  6
CONTINUOUS
 10
-17.8428459387
 20
24.5858398063
 11
-19.1414102966
 21
24.6727135695
  0
LINE
  5
3B9
100
AcDbEntity
  8
RACCORDO
100
AcDbLine
 62
253
  6
CONTINUOUS
 10
-19.1414102966
 20
24.6727135695
 11
-19.3119146404
 21
24.6846740159
  0
LINE
  5
3BA
100
AcDbEntity
  8
RACCORDO
100
AcDbLine
 62
253
  6
CONTINUOUS
 10
-19.3119146404
 20
24.6846740159
 11
-19.3614645761
 21
24.6884092376
  0
LINE
  5
3BB
100
AcDbEntity
  8
RACCORDO
100
AcDbLine
 62
253
  6
CONTINUOUS
 10
-19.3614645761
 20
24.6884092376
 11
-19.3880841689
 21
24.690549002
  0
LINE
  5
3BC
100
AcDbEntity
  8
RACCORDO
100
AcDbLine
 62
253
  6
CONTINUOUS
 10
-19.3880841689
 20
24.690549002
 11
-19.4025499997
 21
24.6917797406
  0
LINE
  5
3BD
100
AcDbEntity
  8
RACCORDO
100
AcDbLine
 62
253
  6
CONTINUOUS
 10
-19.4025499997
 20
24.6917797406
 11
-19.4159820051
 21
24.6929875548
  0
LINE
  5
3BE
100
AcDbEntity
  8
RACCORDO
100
AcDbLine
 62
253
  6
CONTINUOUS
 10
-19.4159820051
 20
24.6929875548
 11
-19.4243421011
 21
24.6937836216
  0
LINE
  5
3BF
100
AcDbEntity
  8
RACCORDO
100
AcDbLine
 62
253
  6
CONTINUOUS
 10
-19.4243421011
 20
24.6937836216
 11
-19.43218198
 21
24.6945712532
  0
LWPOLYLINE
  5
3C0
100
AcDbEntity
  8
RACCORDO
100
AcDbPolyline
 62
253
  6
CONTINUOUS
 90
21
 70
0
 10
-19.43218198
 20
24.6945712532
 10
-19.4394141622
 20
24.695344571
 10
-19.4428086258
 20
24.6957279827
 10
-19.4460541583
 20
24.6961099002
 10
-19.4491520897
 20
24.6964901425
 10
-19.4521068605
 20
24.6968696033
 10
-19.4549061873
 20
24.6972442269
 10
-19.4575623538
 20
24.6976180754
 10
-19.460116651
 20
24.6980042165
 10
-19.4625847598
 20
24.6984065984
 10
-19.4649509983
 20
24.6988212743
 10
-19.4672096128
 20
24.6992494676
 10
-19.4693647609
 20
24.6996713798
 10
-19.4714122844
 20
24.700106812
 10
-19.4733339536
 20
24.7006163823
 10
-19.47522688
 20
24.7012068436
 10
-19.4769939437
 20
24.7018714309
 10
-19.478325561
 20
24.702650481
 10
-19.4791185298
 20
24.7035574331
 10
-19.4794760326
 20
24.704578828
 10
-19.4793980578
 20
24.7057146513
  0
LWPOLYLINE
  5
3C1
100
AcDbEntity
  8
RACCORDO
100
AcDbPolyline
 62
253
  6
CONTINUOUS
 90
13
 70
0
 10
-11.2417809223
 20
23.3218508585
 10
-11.2547601887
 20
23.3238392785
 10
-11.2675156656
 20
23.326522042
 10
-11.2798274282
 20
23.3298528941
 10
-11.2914832017
 20
23.3337744056
 10
-11.3022820216
 20
23.3382189633
 10
-11.312037699
 20
23.343109936
 10
-11.3205820301
 20
23.3483629955
 10
-11.3277676969
 20
23.3538875707
 10
-11.3334708068
 20
23.3595884089
 10
-11.3375930291
 20
23.3653672186
 10
-11.3400632898
 20
23.3711243639
 10
-11.3408389978
 20
23.3767605823
  0
LINE
  5
3C2
100
AcDbEntity
  8
RACCORDO
100
AcDbLine
 62
253
  6
CONTINUOUS
 10
-15.8076987219
 20
24.0266494059
 11
-16.2356728944
 21
24.09808586
  0
LWPOLYLINE
  5
3C3
100
AcDbEntity
  8
RACCORDO
100
AcDbPolyline
 62
253
  6
CONTINUOUS
 90
7
 70
0
 10
37.1920251842
 20
23.2557122685
 10
37.1905705227
 20
23.2762694159
 10
37.1888286234
 20
23.2966787746
 10
37.1868048557
 20
23.3169363512
 10
37.1845046134
 20
23.3370382982
 10
37.1819333109
 20
23.3569809119
 10
37.1790963803
 20
23.3767606313
  0
LINE
  5
3C4
100
AcDbEntity
  8
RACCORDO
100
AcDbLine
 62
253
  6
CONTINUOUS
 10
37.1980945682
 20
23.1579923035
 11
37.1920251773
 21
23.2557122682
  0
LINE
  5
3C5
100
AcDbEntity
  8
RACCORDO
100
AcDbLine
 62
253
  6
CONTINUOUS
 10
37.2038018922
 20
23.0580422556
 11
37.1980945682
 21
23.1579923035
  0
LINE
  5
3C6
100
AcDbEntity
  8
RACCORDO
100
AcDbLine
 62
253
  6
CONTINUOUS
 10
37.2091169301
 20
22.9564214221
 11
37.2038018922
 21
23.0580422556
  0
LINE
  5
3C7
100
AcDbEntity
  8
RACCORDO
100
AcDbLine
 62
253
  6
CONTINUOUS
 10
37.2139235966
 20
22.8553664602
 11
37.2091169301
 21
22.9564214221
  0
LWPOLYLINE
  5
3C8
100
AcDbEntity
  8
RACCORDO
100
AcDbPolyline
 62
253
  6
CONTINUOUS
 90
7
 70
0
 10
37.0885915627
 20
23.2182417813
 10
37.0878101296
 20
23.2358524098
 10
37.0867688415
 20
23.2533339213
 10
37.0854693551
 20
23.2706800286
 10
37.0839133662
 20
23.2878843653
 10
37.0821026097
 20
23.3049404877
 10
37.0800388594
 20
23.3218418772
  0
LINE
  5
3C9
100
AcDbEntity
  8
RACCORDO
100
AcDbLine
 62
253
  6
CONTINUOUS
 10
37.0930603148
 20
23.0828406624
 11
37.0885915627
 21
23.2182417813
  0
LINE
  5
3CA
100
AcDbEntity
  8
RACCORDO
100
AcDbLine
 62
253
  6
CONTINUOUS
 10
37.0967775447
 20
22.9440575151
 11
37.0930603148
 21
23.0828406624
  0
LWPOLYLINE
  5
3CB
100
AcDbEntity
  8
RACCORDO
100
AcDbPolyline
 62
253
  6
CONTINUOUS
 90
3
 70
0
 10
37.0996684804
 20
22.8048922808
 10
37.0988427251
 20
22.8511838179
 10
37.0967775447
 20
22.9440575151
  0
LWPOLYLINE
  5
3CC
100
AcDbEntity
  8
RACCORDO
100
AcDbPolyline
 62
253
  6
CONTINUOUS
 90
19
 70
0
 10
37.5890049862
 20
0.0053695898
 10
37.5862024537
 20
1.6388433686
 10
37.5790550985
 20
3.223141904
 10
37.5678072698
 20
4.7580670615
 10
37.5525400178
 20
6.2411877491
 10
37.5336335649
 20
7.6745913634
 10
37.5117453048
 20
9.0649074303
 10
37.487082224
 20
10.4126914821
 10
37.4597866868
 20
11.7171897628
 10
37.4303715111
 20
12.9831237967
 10
37.3989740215
 20
14.2107483193
 10
37.3657193113
 20
15.3997050066
 10
37.3310657552
 20
16.5538364459
 10
37.2950886621
 20
17.6722090799
 10
37.2578397633
 20
18.7555193497
 10
37.2196478935
 20
19.8098835428
 10
37.1805833417
 20
20.8371197041
 10
37.1405550289
 20
21.8352568045
 10
37.099669395
 20
22.8048925855
  0
LWPOLYLINE
  5
3CD
100
AcDbEntity
  8
RACCORDO
100
AcDbPolyline
 62
253
  6
CONTINUOUS
 90
19
 70
0
 10
37.705024699
 20
0.0053695897
 10
37.7025814331
 20
1.6391394522
 10
37.6953569723
 20
3.2233879428
 10
37.6838221665
 20
4.7581035321
 10
37.6684795029
 20
6.2411530344
 10
37.6497362971
 20
7.6746545957
 10
37.6278437052
 20
9.0649761083
 10
37.6031453339
 20
10.4127133334
 10
37.5760034637
 20
11.7172648372
 10
37.5465897769
 20
12.9832028565
 10
37.515185668
 20
14.2108361526
 10
37.4820856143
 20
15.399856393
 10
37.4474056365
 20
16.5539097864
 10
37.4114090951
 20
17.6722285154
 10
37.3743125941
 20
18.7555847746
 10
37.3360862163
 20
19.8099335355
 10
37.2968235576
 20
20.8372609204
 10
37.2567848016
 20
21.8355857767
 10
37.2139235966
 20
22.8553664602
  0
LINE
  5
3CE
100
AcDbEntity
  8
RACCORDO
100
AcDbLine
 62
253
  6
CONTINUOUS
 10
37.0978700765
 20
-22.8868612323
 11
37.0996684055
 21
-22.7941630035
  0
LINE
  5
3CF
100
AcDbEntity
  8
RACCORDO
100
AcDbLine
 62
253
  6
CONTINUOUS
 10
37.0943969456
 20
-23.0260640557
 11
37.0978700765
 21
-22.8868612323
  0
LWPOLYLINE
  5
3D0
100
AcDbEntity
  8
RACCORDO
100
AcDbPolyline
 62
253
  6
CONTINUOUS
 90
3
 70
0
 10
37.088591551
 20
-23.2075030428
 10
37.0901146947
 20
-23.1628734424
 10
37.0943969456
 20
-23.0260640557
  0
LWPOLYLINE
  5
3D1
100
AcDbEntity
  8
RACCORDO
100
AcDbPolyline
 62
253
  6
CONTINUOUS
 90
18
 70
0
 10
37.2565090518
 20
-21.8315426526
 10
37.2963544948
 20
-20.8384749904
 10
37.3354986073
 20
-19.8149660011
 10
37.3736881039
 20
-18.762559442
 10
37.4108037029
 20
-17.6797058647
 10
37.4468265625
 20
-16.5617613428
 10
37.4815232763
 20
-15.4085176793
 10
37.5146483477
 20
-14.2201786933
 10
37.5460947709
 20
-12.9927174231
 10
37.5755674749
 20
-11.7262936492
 10
37.6027772191
 20
-10.4207469544
 10
37.6275478754
 20
-9.0715696401
 10
37.6495131464
 20
-7.6793652486
 10
37.6683252772
 20
-6.2435358205
 10
37.6837290138
 20
-4.7577715687
 10
37.6953129443
 20
-3.2199737266
 10
37.7025700282
 20
-1.6322561419
 10
37.705024699
 20
0.0053695897
  0
LWPOLYLINE
  5
3D2
100
AcDbEntity
  8
RACCORDO
100
AcDbPolyline
 62
253
  6
CONTINUOUS
 90
19
 70
0
 10
37.0996690288
 20
-22.7941632141
 10
37.140289481
 20
-21.8312016104
 10
37.180122009
 20
-20.8383185051
 10
37.2190598937
 20
-19.8149161999
 10
37.2572100414
 20
-18.7625063185
 10
37.2944805778
 20
-17.6796951776
 10
37.3304860613
 20
-16.5616880579
 10
37.3651568394
 20
-15.4083645801
 10
37.3984381537
 20
-14.2200893281
 10
37.4298758254
 20
-12.9926383495
 10
37.4593487508
 20
-11.7262193711
 10
37.4867142592
 20
-10.4207253654
 10
37.511449016
 20
-9.0715008754
 10
37.5334089524
 20
-7.679302505
 10
37.5523862391
 20
-6.2435711364
 10
37.5677140017
 20
-4.7577350059
 10
37.5790076481
 20
-3.2197266641
 10
37.5861868076
 20
-1.6319587499
 10
37.5890049863
 20
0.0053695898
  0
LINE
  5
3D3
100
AcDbEntity
  8
RACCORDO
100
AcDbLine
 62
253
  6
CONTINUOUS
 10
37.213922506
 20
-22.8446488417
 11
37.2565090518
 21
-21.8315426526
  0
LINE
  5
3D4
100
AcDbEntity
  8
RACCORDO
100
AcDbLine
 62
253
  6
CONTINUOUS
 10
37.2091157514
 20
-22.9457065424
 11
37.213922506
 21
-22.8446488417
  0
LINE
  5
3D5
100
AcDbEntity
  8
RACCORDO
100
AcDbLine
 62
253
  6
CONTINUOUS
 10
37.2038046188
 20
-23.0472559226
 11
37.2091157514
 21
-22.9457065424
  0
LINE
  5
3D6
100
AcDbEntity
  8
RACCORDO
100
AcDbLine
 62
253
  6
CONTINUOUS
 10
37.1980981887
 20
-23.1471889498
 11
37.2038046188
 21
-23.0472559226
  0
LINE
  5
3D7
100
AcDbEntity
  8
RACCORDO
100
AcDbLine
 62
253
  6
CONTINUOUS
 10
37.1920248786
 20
-23.2449784794
 11
37.1980981887
 21
-23.1471889498
  0
LWPOLYLINE
  5
3D8
100
AcDbEntity
  8
RACCORDO
100
AcDbPolyline
 62
253
  6
CONTINUOUS
 90
7
 70
0
 10
37.0800393208
 20
-23.3110986243
 10
37.0821017698
 20
-23.2942114621
 10
37.083911714
 20
-23.2771643428
 10
37.0854673822
 20
-23.2599636528
 10
37.0867670387
 20
-23.2426157141
 10
37.0878089833
 20
-23.2251267819
 10
37.088591551
 20
-23.2075030428
  0
LWPOLYLINE
  5
3D9
100
AcDbEntity
  8
RACCORDO
100
AcDbPolyline
 62
253
  6
CONTINUOUS
 90
7
 70
0
 10
37.1790963663
 20
-23.3660219941
 10
37.181929559
 20
-23.346270107
 10
37.1844991721
 20
-23.326344602
 10
37.1867993489
 20
-23.3062489668
 10
37.1888242427
 20
-23.2859868432
 10
37.1905680204
 20
-23.2655620288
 10
37.1920248664
 20
-23.2449784789
  0
LWPOLYLINE
  5
3DA
100
AcDbEntity
  8
SUPERFICI
100
AcDbPolyline
 62
253
  6
CONTINUOUS
 90
4
 70
0
 10
49.2229727345
 20
45.6568703587
 10
49.1565496735
 20
45.3756150299
 10
49.1168591182
 20
45.215136863
 10
49.071702481
 20
45.0436268862
  0
LWPOLYLINE
  5
3DB
100
AcDbEntity
  8
SUPERFICI
100
AcDbPolyline
 62
253
  6
CONTINUOUS
 90
10
 70
0
 10
-32.8818609479
 20
23.4027460435
 10
-31.4105629702
 20
23.5374580014
 10
-29.9641637856
 20
23.6657049746
 10
-28.5256179701
 20
23.7890339699
 10
-27.1019508067
 20
23.9062942818
 10
-25.6816610277
 20
24.0177617339
 10
-24.2227260259
 20
24.1269715622
 10
-22.7080334358
 20
24.2363092556
 10
-21.1572569076
 20
24.3444952626
 10
-19.5808752626
 20
24.4480823916
  0
LWPOLYLINE
  5
3DC
100
AcDbEntity
  8
RACCORDO
100
AcDbPolyline
 62
253
  6
CONTINUOUS
 90
25
 70
0
 10
-9.9091395095
 20
24.6659431453
 10
-9.9916658882
 20
24.6599937514
 10
-10.0739491869
 20
24.6495184495
 10
-10.1557445243
 20
24.6345136825
 10
-10.2367541072
 20
24.6150032165
 10
-10.316782981
 20
24.5910011399
 10
-10.3957310316
 20
24.5624834339
 10
-10.4733823704
 20
24.5294558134
 10
-10.5494323983
 20
24.4919716835
 10
-10.6236353403
 20
24.4500720315
 10
-10.6957274427
 20
24.4038251876
 10
-10.7654448211
 20
24.3533134326
 10
-10.8325370143
 20
24.2986173196
 10
-10.8967399482
 20
24.2398529052
 10
-10.9577942149
 20
24.1771489881
 10
-11.0154533255
 20
24.1106260557
 10
-11.0694858878
 20
24.0404159159
 10
-11.1196139586
 20
23.9667283527
 10
-11.1655379674
 20
23.8898366409
 10
-11.2070516562
 20
23.8099412819
 10
-11.243928259
 20
23.7273092705
 10
-11.2758947436
 20
23.642365693
 10
-11.3027760193
 20
23.5554541635
 10
-11.3244640892
 20
23.4668171277
 10
-11.3408394351
 20
23.3767606382
  0
LWPOLYLINE
  5
3DD
100
AcDbEntity
  8
RACCORDO
100
AcDbPolyline
 62
253
  6
CONTINUOUS
 90
25
 70
0
 10
-9.9045782308
 20
24.5239245653
 10
-9.9817475824
 20
24.5184028783
 10
-10.0582867721
 20
24.5086747292
 10
-10.1341957999
 20
24.4947401178
 10
-10.2096794404
 20
24.4765911161
 10
-10.2845329191
 20
24.4542356521
 10
-10.3581419116
 20
24.4276975101
 10
-10.4305401787
 20
24.3969397925
 10
-10.5016939597
 20
24.3619993968
 10
-10.5708876484
 20
24.3230108004
 10
-10.6381237747
 20
24.2799334786
 10
-10.7033998087
 20
24.232807956
 10
-10.7659925542
 20
24.1818902835
 10
-10.8258979495
 20
24.1271381591
 10
-10.8831200564
 20
24.0685938848
 10
-10.9369478643
 20
24.0066404175
 10
-10.9873835274
 20
23.9411954241
 10
-11.0344248915
 20
23.8723412377
 10
-11.0773544834
 20
23.8007078145
 10
-11.1161318757
 20
23.7262075601
 10
-11.1507974958
 20
23.6489280688
 10
-11.1807551525
 20
23.5697620801
 10
-11.2058061152
 20
23.4890071738
 10
-11.2261491143
 20
23.4063657701
 10
-11.24178415
 20
23.3218378689
  0
LINE
  5
3DE
100
AcDbEntity
  8
RACCORDO
100
AcDbLine
 62
253
  6
CONTINUOUS
 10
-13.8698896061
 20
24.5538517124
 11
-15.7332097272
 21
24.4522865159
  0
LWPOLYLINE
  5
3DF
100
AcDbEntity
  8
RACCORDO
100
AcDbPolyline
 62
253
  6
CONTINUOUS
 90
10
 70
0
 10
-10.9382432855
 20
25.1949491968
 10
-11.899496559
 20
25.147315151
 10
-12.8582733205
 20
25.0979612248
 10
-13.8145735701
 20
25.0468874183
 10
-14.7691738023
 20
24.9940425062
 10
-15.7212975226
 20
24.9394777138
 10
-16.6686152468
 20
24.8833467161
 10
-17.6103504805
 20
24.8257007382
 10
-18.5472797183
 20
24.766488555
 10
-19.47940296
 20
24.7057101666
  0
LWPOLYLINE
  5
3E0
100
AcDbEntity
  8
RACCORDO
100
AcDbPolyline
 62
253
  6
CONTINUOUS
 90
3
 70
0
 10
-11.5345964126
 20
24.6716513262
 10
-12.0020993075
 20
24.6489116011
 10
-13.8698896061
 20
24.5538517124
  0
LWPOLYLINE
  5
3E1
100
AcDbEntity
  8
RACCORDO
100
AcDbPolyline
 62
7
  6
CONTINUOUS
 90
13
 70
0
 10
41.739281193
 20
24.478549728
 10
42.02613866
 20
24.4884347126
 10
42.3159045004
 20
24.4935770294
 10
42.6084465995
 20
24.4937322619
 10
42.902846128
 20
24.4886339505
 10
43.1997382584
 20
24.4781098815
 10
43.5013105674
 20
24.4619285207
 10
43.8082386702
 20
24.4398380202
 10
44.1194858874
 20
24.4113968237
 10
44.4346252714
 20
24.3759976766
 10
44.7533635261
 20
24.3332595395
 10
45.0755624251
 20
24.2830282025
 10
45.4010110055
 20
24.2250760351
  0
LWPOLYLINE
  5
3E2
100
AcDbEntity
  8
RACCORDO
100
AcDbPolyline
 62
253
  6
CONTINUOUS
 90
13
 70
0
 10
35.742835175
 20
24.5239245653
 10
31.9404564974
 20
24.6794694728
 10
28.1374486913
 20
24.8067353863
 10
24.3338117566
 20
24.9057223059
 10
20.5293360126
 20
24.976432556
 10
16.7242311401
 20
25.0188638121
 10
12.9191261812
 20
25.0330091009
 10
9.114020851
 20
25.0188637648
 10
5.3089154343
 20
24.9764324614
 10
1.5044398281
 20
24.9057221899
 10
-2.299196002
 20
24.8067352832
 10
-6.1022020216
 20
24.6794694083
 10
-9.9045782308
 20
24.5239245653
  0
LWPOLYLINE
  5
3E3
100
AcDbEntity
  8
RACCORDO
100
AcDbPolyline
 62
253
  6
CONTINUOUS
 90
13
 70
0
 10
35.7473964581
 20
24.6659431453
 10
31.9445948491
 20
24.8215111091
 10
28.140756322
 20
24.9488053857
 10
24.3360856986
 20
25.0478192095
 10
20.5307837147
 20
25.1185472613
 10
16.7250593981
 20
25.1609855856
 10
12.9191300577
 20
25.1751319047
 10
9.1132006189
 20
25.1609856084
 10
5.3074760187
 20
25.1185473027
 10
1.5021735843
 20
25.0478192616
 10
-2.3024976507
 20
24.9488054371
 10
-6.106336956
 20
24.8215111445
 10
-9.9091395095
 20
24.6659431455
  0
LINE
  5
3E4
100
AcDbEntity
  8
RACCORDO
100
AcDbLine
 62
253
  6
CONTINUOUS
 10
39.6092185388
 20
24.5590551949
 11
37.3728536518
 21
24.6716508951
  0
LINE
  5
3E5
100
AcDbEntity
  8
RACCORDO
100
AcDbLine
 62
253
  6
CONTINUOUS
 10
41.3944625603
 20
24.4622251006
 11
39.6092185388
 21
24.5590551949
  0
LWPOLYLINE
  5
3E6
100
AcDbEntity
  8
ASSI
100
AcDbPolyline
 62
253
  6
CONTINUOUS
 90
40
 70
0
 10
45.4010110067
 20
24.225076037
 10
45.2604509469
 20
24.2336595226
 10
45.1160252137
 20
24.2411269273
 10
44.9677746199
 20
24.2473742721
 10
44.8160723461
 20
24.2522921572
 10
44.6606245065
 20
24.2557879498
 10
44.5004828255
 20
24.2577534913
 10
44.3356351271
 20
24.2580559504
 10
44.166198905
 20
24.2565598146
 10
43.991441517
 20
24.2530990567
 10
43.8110013896
 20
24.2475005092
 10
43.6253669085
 20
24.2396141812
 10
43.4350831361
 20
24.2293016761
 10
43.2396185572
 20
24.2163817086
 10
43.0396156794
 20
24.2007525711
 10
42.8373423951
 20
24.1824924274
 10
42.6327923068
 20
24.1615449935
 10
42.4260091528
 20
24.1378710462
 10
42.2192736516
 20
24.1117331587
 10
42.0130097172
 20
24.0832286758
 10
41.8067601107
 20
24.0523447621
 10
41.6014412655
 20
24.0192871412
 10
41.3974834526
 20
23.9842053142
 10
41.1943987325
 20
23.9470964037
 10
40.9917197977
 20
23.9079540075
 10
40.7897275397
 20
23.8668975077
 10
40.5880946673
 20
23.8239255474
 10
40.3854602705
 20
23.7788031349
 10
40.1820099291
 20
23.7316010043
 10
39.9775363585
 20
23.6823036199
 10
39.7701198356
 20
23.6304690065
 10
39.5598793335
 20
23.5761166172
 10
39.3467003732
 20
23.5192155127
 10
39.1283472659
 20
23.4591610542
 10
38.9047171142
 20
23.3958807499
 10
38.6759375067
 20
23.3293841883
 10
38.4401465657
 20
23.259118397
 10
38.1967370038
 20
23.1848651008
 10
37.9463386226
 20
23.1067852321
 10
37.6889493234
 20
23.0248840882
  0
LWPOLYLINE
  5
3E7
100
AcDbEntity
  8
RACCORDO
100
AcDbPolyline
 62
253
  6
CONTINUOUS
 90
10
 70
0
 10
45.4066566116
 20
24.6997118285
 10
44.4691433106
 20
24.7610725116
 10
43.5253641624
 20
24.8209078107
 10
42.5753191667
 20
24.8792177256
 10
41.6177845785
 20
24.9360799843
 10
40.653984143
 20
24.9914168589
 10
39.6875890958
 20
25.0449951657
 10
38.7198231821
 20
25.096737177
 10
37.7494626568
 20
25.1467206206
 10
36.7765075198
 20
25.1949454965
  0
LWPOLYLINE
  5
3E8
100
AcDbEntity
  8
RACCORDO
100
AcDbPolyline
 62
253
  6
CONTINUOUS
 90
10
 70
0
 10
58.7201178922
 20
23.4027460435
 10
57.2488199139
 20
23.5374580012
 10
55.8024207289
 20
23.6657049742
 10
54.3638749134
 20
23.7890339694
 10
52.9402077504
 20
23.9062942811
 10
51.5199179724
 20
24.0177617331
 10
50.0609829712
 20
24.1269715614
 10
48.5462903812
 20
24.236309255
 10
46.9955138527
 20
24.3444952622
 10
45.4191322069
 20
24.4480823916
  0
LWPOLYLINE
  5
3E9
100
AcDbEntity
  8
SUPERFICI
100
AcDbPolyline
 62
253
  6
CONTINUOUS
 90
3
 70
0
 10
49.1565496735
 20
-45.3648762873
 10
49.1168591182
 20
-45.2043981204
 10
49.071702481
 20
-45.0328881436
  0
LWPOLYLINE
  5
3EA
100
AcDbEntity
  8
RACCORDO
100
AcDbPolyline
 62
253
  6
CONTINUOUS
 90
25
 70
0
 10
37.0800400164
 20
23.3218422626
 10
37.0644396156
 20
23.406251836
 10
37.0441269892
 20
23.4888048111
 10
37.0191021374
 20
23.5695011878
 10
36.9891666566
 20
23.6486458835
 10
36.9545189503
 20
23.7259339809
 10
36.915754229
 20
23.8004507282
 10
36.8728304978
 20
23.8721043737
 10
36.8257897516
 20
23.9409866691
 10
36.7753531846
 20
24.0064581174
 10
36.7215225331
 20
24.0684340268
 10
36.6642960609
 20
24.1269990892
 10
36.6043897536
 20
24.1817678828
 10
36.5418043362
 20
24.2326950624
 10
36.4765390838
 20
24.2798259732
 10
36.4093078076
 20
24.3229112295
 10
36.3401102635
 20
24.3619134295
 10
36.2689466955
 20
24.3968699748
 10
36.1965316469
 20
24.4276436849
 10
36.1228941941
 20
24.4541979986
 10
36.0480052606
 20
24.476569477
 10
35.9724921606
 20
24.4947306226
 10
35.8965639987
 20
24.5086722696
 10
35.8200116701
 20
24.5184035838
 10
35.742835175
 20
24.5239245653
  0
LINE
  5
3EB
100
AcDbEntity
  8
SUPERFICI
100
AcDbLine
 62
253
  6
CONTINUOUS
 10
44.0153984288
 20
-46.382079397
 11
43.9528363861
 21
-45.3783763368
  0
LINE
  5
3EC
100
AcDbEntity
  8
SUPERFICI
100
AcDbLine
 62
253
  6
CONTINUOUS
 10
44.0153984288
 20
46.3928181396
 11
43.9528363861
 21
45.3891150794
  0
LINE
  5
3ED
100
AcDbEntity
  8
RACCORDO
100
AcDbLine
 62
253
  6
CONTINUOUS
 10
41.5815261227
 20
-24.0980759677
 11
41.5982543975
 21
-23.9953190918
  0
LINE
  5
3EE
100
AcDbEntity
  8
RACCORDO
100
AcDbLine
 62
253
  6
CONTINUOUS
 10
41.5640396694
 20
-24.2001721349
 11
41.5815261227
 21
-24.0980759677
  0
LWPOLYLINE
  5
3EF
100
AcDbEntity
  8
SUPERFICI
100
AcDbPolyline
 62
253
  6
CONTINUOUS
 90
6
 70
0
 10
58.9439156612
 20
36.4567223962
 10
58.9171790505
 20
36.3785573
 10
58.8637180896
 20
36.3100523311
 10
58.7862714412
 20
36.2475211843
 10
58.6868635259
 20
36.1872129547
 10
58.5683247629
 20
36.1262195867
  0
LWPOLYLINE
  5
3F0
100
AcDbEntity
  8
RACCORDO
100
AcDbPolyline
 62
253
  6
CONTINUOUS
 90
16
 70
0
 10
35.4519617892
 20
-22.1704726016
 10
35.442084217
 20
-22.1950615148
 10
35.4310339555
 20
-22.2195722191
 10
35.4187905919
 20
-22.2439362491
 10
35.4053673946
 20
-22.2680295492
 10
35.3907259387
 20
-22.2918332593
 10
35.3747525399
 20
-22.3154190829
 10
35.3574161127
 20
-22.3387016584
 10
35.3387018381
 20
-22.3615707487
 10
35.3184907847
 20
-22.3840261632
 10
35.296755758
 20
-22.4059535059
 10
35.2734869084
 20
-22.4272095847
 10
35.2485755686
 20
-22.4477139554
 10
35.2219809302
 20
-22.467325482
 10
35.1937445473
 20
-22.4858581408
 10
35.163888371
 20
-22.503140659
  0
LWPOLYLINE
  5
3F1
100
AcDbEntity
  8
RACCORDO
100
AcDbPolyline
 62
253
  6
CONTINUOUS
 90
16
 70
0
 10
35.8337995897
 20
-22.3636695055
 10
35.8209803984
 20
-22.3936237042
 10
35.8059964374
 20
-22.4231139324
 10
35.7888551574
 20
-22.4521064104
 10
35.7696680198
 20
-22.4805768923
 10
35.7483404053
 20
-22.508478588
 10
35.7245705168
 20
-22.5357413747
 10
35.6983793746
 20
-22.5623797094
 10
35.6697644044
 20
-22.5882977585
 10
35.638389198
 20
-22.6132582373
 10
35.6042673334
 20
-22.6372781308
 10
35.5674097531
 20
-22.6602535239
 10
35.527479169
 20
-22.6817730008
 10
35.4843739268
 20
-22.7016789773
 10
35.438226516
 20
-22.7200597667
 10
35.3890526114
 20
-22.7368815232
  0
LWPOLYLINE
  5
3F2
100
AcDbEntity
  8
RACCORDO
100
AcDbPolyline
 62
253
  6
CONTINUOUS
 90
10
 70
0
 10
35.163888371
 20
-22.503140659
 10
35.135866465
 20
-22.517270153
 10
35.1072127593
 20
-22.5297462256
 10
35.0780154537
 20
-22.5405549755
 10
35.0483861219
 20
-22.5496806237
 10
35.0183885387
 20
-22.5571283134
 10
34.9880354435
 20
-22.562911384
 10
34.9573854369
 20
-22.5670264158
 10
34.9265457379
 20
-22.5694657968
 10
34.895598959
 20
-22.5702317615
  0
LWPOLYLINE
  5
3F3
100
AcDbEntity
  8
RACCORDO
100
AcDbPolyline
 62
253
  6
CONTINUOUS
 90
10
 70
0
 10
35.3890558737
 20
-22.7368826198
 10
35.3369578127
 20
-22.7623515949
 10
35.2840879335
 20
-22.7848244182
 10
35.2304462362
 20
-22.8043010897
 10
35.1759155322
 20
-22.8207814082
 10
35.1206130101
 20
-22.834265575
 10
35.0648902357
 20
-22.8447541931
 10
35.0088643977
 20
-22.8522474635
 10
34.9524183075
 20
-22.8567451852
 10
34.895551965
 20
-22.8582473583
  0
LWPOLYLINE
  5
3F4
100
AcDbEntity
  8
RACCORDO
100
AcDbPolyline
 62
253
  6
CONTINUOUS
 90
16
 70
0
 10
35.3893350771
 20
22.7475119541
 10
35.4383877844
 20
22.7307396924
 10
35.4844585272
 20
22.7123867964
 10
35.5275316201
 20
22.6924853755
 10
35.5675054966
 20
22.6709244318
 10
35.6044504169
 20
22.6478808513
 10
35.6386106066
 20
22.6238305058
 10
35.6699210625
 20
22.5989179156
 10
35.6984234624
 20
22.5730889992
 10
35.724525197
 20
22.5465298006
 10
35.748253204
 20
22.5193247541
 10
35.7695617224
 20
22.4914695091
 10
35.7887488847
 20
22.4630137951
 10
35.8059076377
 20
22.4339974344
 10
35.8209270901
 20
22.4044513147
 10
35.8337991644
 20
22.3744094057
  0
LWPOLYLINE
  5
3F5
100
AcDbEntity
  8
RACCORDO
100
AcDbPolyline
 62
253
  6
CONTINUOUS
 90
16
 70
0
 10
35.1638884363
 20
22.5138793689
 10
35.1937470114
 20
22.49659521
 10
35.2219961012
 20
22.4780535137
 10
35.2486125318
 20
22.4584238565
 10
35.2735684669
 20
22.4378778949
 10
35.296886855
 20
22.4165668206
 10
35.3186338039
 20
22.3946133739
 10
35.3387973858
 20
22.3721974876
 10
35.3574398843
 20
22.3494094188
 10
35.3747223894
 20
22.3262002728
 10
35.3906669737
 20
22.3026632871
 10
35.4052924492
 20
22.2788959476
 10
35.4187166537
 20
22.2548146538
 10
35.4309763704
 20
22.2304326974
 10
35.4420524995
 20
22.2058758688
 10
35.4519617848
 20
22.1812113632
  0
LWPOLYLINE
  5
3F6
100
AcDbEntity
  8
RACCORDO
100
AcDbPolyline
 62
253
  6
CONTINUOUS
 90
7
 70
0
 10
35.4519617848
 20
22.1812113632
 10
35.463387271
 20
22.1479473301
 10
35.4727451138
 20
22.1141824396
 10
35.4800282177
 20
22.0800399858
 10
35.4852369119
 20
22.0456419742
 10
35.4883787462
 20
22.0111086954
 10
35.4894682648
 20
21.9765583189
  0
LWPOLYLINE
  5
3F7
100
AcDbEntity
  8
SUPERFICI
100
AcDbPolyline
 62
253
  6
CONTINUOUS
 90
7
 70
0
 10
58.9439156612
 20
-36.4459836536
 10
58.9171790505
 20
-36.3678185574
 10
58.8637180896
 20
-36.2993135884
 10
58.7862714412
 20
-36.2367824417
 10
58.6868635259
 20
-36.1764742121
 10
58.5683247629
 20
-36.1154808441
 10
58.2916622039
 20
-35.9837418171
  0
LWPOLYLINE
  5
3F8
100
AcDbEntity
  8
RACCORDO
100
AcDbPolyline
 62
253
  6
CONTINUOUS
 90
7
 70
0
 10
35.8337916486
 20
22.3744068203
 10
35.8545471224
 20
22.3128274052
 10
35.8715531507
 20
22.2507904235
 10
35.8848046106
 20
22.1883067114
 10
35.8942965856
 20
22.1253867436
 10
35.9000243732
 20
22.0620406123
 10
35.9019834895
 20
21.9982780124
  0
LWPOLYLINE
  5
3F9
100
AcDbEntity
  8
RACCORDO
100
AcDbPolyline
 62
253
  6
CONTINUOUS
 90
25
 70
0
 10
37.1790963803
 20
23.3767606313
 10
37.1627363797
 20
23.4667449893
 10
37.1410680933
 20
23.555327167
 10
37.1142081034
 20
23.6422009725
 10
37.0822607234
 20
23.7271254626
 10
37.0453988796
 20
23.8097541303
 10
37.0038961504
 20
23.8896551676
 10
36.9579771437
 20
23.9665618773
 10
36.9078473407
 20
24.0402716021
 10
36.8538116487
 20
24.1105019978
 10
36.7961494824
 20
24.1770420134
 10
36.7350914693
 20
24.2397612521
 10
36.6708882064
 20
24.2985359204
 10
36.6038046058
 20
24.3532343577
 10
36.534101114
 20
24.4037455525
 10
36.4620178134
 20
24.4499964467
 10
36.3878142471
 20
24.4919057515
 10
36.3117571502
 20
24.5294018
 10
36.2340917737
 20
24.5624426988
 10
36.1551176684
 20
24.5909755499
 10
36.0750551848
 20
24.6149913765
 10
35.9940190402
 20
24.6345099922
 10
35.9122096708
 20
24.6495178845
 10
35.8299204433
 20
24.6599939523
 10
35.747396458
 20
24.6659431451
  0
LWPOLYLINE
  5
3FA
100
AcDbEntity
  8
RACCORDO
100
AcDbPolyline
 62
253
  6
CONTINUOUS
 90
5
 70
0
 10
43.9528051983
 20
45.3891170234
 10
44.0476836829
 20
44.3335140504
 10
44.1382622038
 20
43.3047955715
 10
44.2245407609
 20
42.3029615868
 10
44.3062400476
 20
41.3294557412
  0
LWPOLYLINE
  5
3FB
100
AcDbEntity
  8
RACCORDO
100
AcDbPolyline
 62
253
  6
CONTINUOUS
 90
3
 70
0
 10
44.3062400476
 20
41.3294557412
 10
44.4575766502
 20
39.4587665975
 10
44.5282001234
 20
38.5560009383
  0
LINE
  5
3FC
100
AcDbEntity
  8
RACCORDO
100
AcDbLine
 62
253
  6
CONTINUOUS
 10
44.5282001234
 20
38.5560009383
 11
44.6594541498
 21
36.8175536394
  0
LINE
  5
3FD
100
AcDbEntity
  8
0
100
AcDbLine
 62
253
  6
CONTINUOUS
 10
49.381517519
 20
-46.1633524775
 11
49.370990389
 21
-46.0193805743
  0
LINE
  5
3FE
100
AcDbEntity
  8
RACCORDO
100
AcDbLine
 62
253
  6
CONTINUOUS
 10
44.6594541498
 20
36.8175536394
 11
44.7783543093
 21
35.1681153597
  0
LINE
  5
3FF
100
AcDbEntity
  8
RACCORDO
100
AcDbLine
 62
253
  6
CONTINUOUS
 10
44.7783543093
 20
35.1681153597
 11
44.8865662716
 21
33.5995246917
  0
LINE
  5
400
100
AcDbEntity
  8
RACCORDO
100
AcDbLine
 62
253
  6
CONTINUOUS
 10
44.8865662716
 20
33.5995246917
 11
44.9849497538
 21
32.1084450497
  0
LINE
  5
401
100
AcDbEntity
  8
RACCORDO
100
AcDbLine
 62
253
  6
CONTINUOUS
 10
44.9849497538
 20
32.1084450497
 11
45.0747045501
 21
30.690470788
  0
LINE
  5
402
100
AcDbEntity
  8
RACCORDO
100
AcDbLine
 62
253
  6
CONTINUOUS
 10
45.0747045501
 20
30.690470788
 11
45.1555981349
 21
29.3528715766
  0
LINE
  5
403
100
AcDbEntity
  8
RACCORDO
100
AcDbLine
 62
253
  6
CONTINUOUS
 10
45.1555981349
 20
29.3528715766
 11
45.2281121503
 21
28.0900422319
  0
LINE
  5
404
100
AcDbEntity
  8
RACCORDO
100
AcDbLine
 62
253
  6
CONTINUOUS
 10
45.2281121503
 20
28.0900422319
 11
45.3243717228
 21
26.2868805039
  0
LINE
  5
405
100
AcDbEntity
  8
RACCORDO
100
AcDbLine
 62
253
  6
CONTINUOUS
 10
45.3243717228
 20
26.2868805039
 11
45.4066566116
 21
24.6997118285
  0
LWPOLYLINE
  5
406
100
AcDbEntity
  8
RACCORDO
100
AcDbPolyline
 62
253
  6
CONTINUOUS
 90
10
 70
0
 10
45.4191314276
 20
24.4480420307
 10
45.5464223905
 20
21.6937701137
 10
45.657940457
 20
18.95320436
 10
45.7539016355
 20
16.2265618504
 10
45.8343982175
 20
13.519999493
 10
45.8999041848
 20
10.8276785712
 10
45.9509577148
 20
8.1317037977
 10
45.9875765846
 20
5.4262100218
 10
46.009582809
 20
2.7173781785
 10
46.0169286781
 20
0.0053693753
  0
LWPOLYLINE
  5
407
100
AcDbEntity
  8
RACCORDO
100
AcDbPolyline
 62
253
  6
CONTINUOUS
 90
10
 70
0
 10
45.4191314276
 20
-24.4373032881
 10
45.5464223905
 20
-21.6830313711
 10
45.657940457
 20
-18.9424656174
 10
45.7539016355
 20
-16.2158231078
 10
45.8343982175
 20
-13.5092607506
 10
45.8999041848
 20
-10.8169398292
 10
45.9509577148
 20
-8.1209650551
 10
45.9875765846
 20
-5.4154712774
 10
46.009582809
 20
-2.7066394314
 10
46.0169286781
 20
0.0053693753
  0
LINE
  5
408
100
AcDbEntity
  8
RACCORDO
100
AcDbLine
 62
253
  6
CONTINUOUS
 10
45.2419316635
 20
-27.8308811813
 11
45.4195002037
 21
-24.4373247221
  0
LINE
  5
409
100
AcDbEntity
  8
RACCORDO
100
AcDbLine
 62
253
  6
CONTINUOUS
 10
45.1695218319
 20
-29.1048548817
 11
45.2419316635
 21
-27.8308811813
  0
LINE
  5
40A
100
AcDbEntity
  8
RACCORDO
100
AcDbLine
 62
253
  6
CONTINUOUS
 10
45.0885297286
 20
-30.4556079961
 11
45.1695218319
 21
-29.1048548817
  0
LINE
  5
40B
100
AcDbEntity
  8
RACCORDO
100
AcDbLine
 62
253
  6
CONTINUOUS
 10
44.9984261415
 20
-31.8887842781
 11
45.0885297286
 21
-30.4556079961
  0
LINE
  5
40C
100
AcDbEntity
  8
RACCORDO
100
AcDbLine
 62
253
  6
CONTINUOUS
 10
44.8994165374
 20
-33.3981382467
 11
44.9984261415
 21
-31.8887842781
  0
LINE
  5
40D
100
AcDbEntity
  8
RACCORDO
100
AcDbLine
 62
253
  6
CONTINUOUS
 10
44.7903206965
 20
-34.9875752513
 11
44.8994165374
 21
-33.3981382467
  0
LINE
  5
40E
100
AcDbEntity
  8
RACCORDO
100
AcDbLine
 62
253
  6
CONTINUOUS
 10
44.6702543664
 20
-36.6604776446
 11
44.7903206965
 21
-34.9875752513
  0
LINE
  5
40F
100
AcDbEntity
  8
0
100
AcDbLine
 62
253
  6
CONTINUOUS
 10
49.381517515
 20
46.1740912549
 11
49.3710207268
 21
46.0305345561
  0
LINE
  5
410
100
AcDbEntity
  8
RACCORDO
100
AcDbLine
 62
253
  6
CONTINUOUS
 10
44.5374631755
 20
-38.4254931891
 11
44.6702543664
 21
-36.6604776446
  0
LWPOLYLINE
  5
411
100
AcDbEntity
  8
RACCORDO
100
AcDbPolyline
 62
253
  6
CONTINUOUS
 90
7
 70
0
 10
43.9528051983
 20
-45.3783782808
 10
44.0494504984
 20
-44.3028199926
 10
44.1416447657
 20
-43.255108653
 10
44.2293880003
 20
-42.2352442621
 10
44.3123884002
 20
-41.2447218642
 10
44.3909377673
 20
-40.282046415
 10
44.5374631755
 20
-38.4254931891
  0
LWPOLYLINE
  5
412
100
AcDbEntity
  8
RACCORDO
100
AcDbPolyline
 62
253
  6
CONTINUOUS
 90
5
 70
0
 10
41.5184003425
 20
-24.4445341167
 10
41.527638902
 20
-24.3975000621
 10
41.5368497005
 20
-24.3494009645
 10
41.5460050604
 20
-24.3003813572
 10
41.5640396694
 20
-24.2001721349
  0
LINE
  5
413
100
AcDbEntity
  8
0
100
AcDbLine
 62
253
  6
CONTINUOUS
 10
59.0878503662
 20
36.4677582688
 11
58.9438784279
 21
36.4572311181
  0
LINE
  5
414
100
AcDbEntity
  8
0
100
AcDbLine
 62
253
  6
CONTINUOUS
 10
-33.2495934219
 20
36.4677582688
 11
-33.1056214836
 21
36.4572311181
  0
LINE
  5
415
100
AcDbEntity
  8
RACCORDO
100
AcDbLine
 62
253
  6
CONTINUOUS
 10
45.3518308035
 20
-24.6065513689
 11
45.372677675
 21
-24.5493999732
  0
LINE
  5
416
100
AcDbEntity
  8
RACCORDO
100
AcDbLine
 62
253
  6
CONTINUOUS
 10
45.3190015109
 20
-24.6948909451
 11
45.3518308035
 21
-24.6065513689
  0
LWPOLYLINE
  5
417
100
AcDbEntity
  8
RACCORDO
100
AcDbPolyline
 62
253
  6
CONTINUOUS
 90
5
 70
0
 10
45.372677675
 20
-24.5493999732
 10
45.3835153292
 20
-24.5211608259
 10
45.3950324709
 20
-24.4930427425
 10
45.407027429
 20
-24.4650973746
 10
45.4195002037
 20
-24.4373247221
  0
LWPOLYLINE
  5
418
100
AcDbEntity
  8
RACCORDO
100
AcDbPolyline
 62
253
  6
CONTINUOUS
 90
16
 70
0
 10
45.4010110067
 20
24.225076037
 10
45.3965672349
 20
24.238349571
 10
45.3925438946
 20
24.2526315134
 10
45.388940744
 20
24.2679221715
 10
45.3857421759
 20
24.2847022945
 10
45.382963285
 20
24.3024916238
 10
45.3806500094
 20
24.3198489157
 10
45.3788877535
 20
24.3362528607
 10
45.377590953
 20
24.3522250773
 10
45.3765492824
 20
24.3678886361
 10
45.374067562
 20
24.3835632292
 10
45.371841167
 20
24.3989290039
 10
45.3747446307
 20
24.4131506169
 10
45.3844039456
 20
24.4259450667
 10
45.3991976985
 20
24.4375806081
 10
45.4191314276
 20
24.4480420307
  0
LINE
  5
419
100
AcDbEntity
  8
SUPERFICI
100
AcDbLine
 62
253
  6
CONTINUOUS
 10
57.9806791479
 20
35.8365793166
 11
58.0308392988
 21
35.149450748
  0
LINE
  5
41A
100
AcDbEntity
  8
SUPERFICI
100
AcDbLine
 62
253
  6
CONTINUOUS
 10
58.0308392988
 20
35.149450748
 11
58.125401287
 21
33.766955439
  0
LINE
  5
41B
100
AcDbEntity
  8
SUPERFICI
100
AcDbLine
 62
253
  6
CONTINUOUS
 10
58.125401287
 20
33.766955439
 11
58.2170942312
 21
32.3858061094
  0
LINE
  5
41C
100
AcDbEntity
  8
SUPERFICI
100
AcDbLine
 62
253
  6
CONTINUOUS
 10
58.2170942312
 20
32.3858061094
 11
58.3041731315
 21
31.0137592926
  0
LINE
  5
41D
100
AcDbEntity
  8
SUPERFICI
100
AcDbLine
 62
253
  6
CONTINUOUS
 10
58.3041731315
 20
31.0137592926
 11
58.3872119646
 21
29.6551694395
  0
LINE
  5
41E
100
AcDbEntity
  8
SUPERFICI
100
AcDbLine
 62
253
  6
CONTINUOUS
 10
58.3872119646
 20
29.6551694395
 11
58.4662466602
 21
28.2967891446
  0
LINE
  5
41F
100
AcDbEntity
  8
SUPERFICI
100
AcDbLine
 62
253
  6
CONTINUOUS
 10
58.4662466602
 20
28.2967891446
 11
58.5428899419
 21
26.9126555985
  0
LINE
  5
420
100
AcDbEntity
  8
SUPERFICI
100
AcDbLine
 62
253
  6
CONTINUOUS
 10
58.5428899419
 20
26.9126555985
 11
58.6170381351
 21
25.5033771882
  0
LWPOLYLINE
  5
421
100
AcDbEntity
  8
SUPERFICI
100
AcDbPolyline
 62
253
  6
CONTINUOUS
 90
3
 70
0
 10
58.6170381351
 20
25.5033771882
 10
58.6868958439
 20
24.1004488157
 10
58.7201178922
 20
23.4027460435
  0
LWPOLYLINE
  5
422
100
AcDbEntity
  8
0
100
AcDbPolyline
 62
253
  6
CONTINUOUS
 90
16
 70
0
 10
58.7201304539
 20
23.4026532454
 10
58.8081915118
 20
21.4421612412
 10
58.8862229054
 20
19.542380864
 10
58.9549333481
 20
17.7037745921
 10
59.0148459214
 20
15.9282906131
 10
59.066695029
 20
14.2130685644
 10
59.1113530333
 20
12.5502749283
 10
59.1493574766
 20
10.9379454034
 10
59.1811284163
 20
9.3777431099
 10
59.2072442483
 20
7.8673129026
 10
59.2282475504
 20
6.3996479188
 10
59.2444120806
 20
4.9815207403
 10
59.2560388191
 20
3.6312635082
 10
59.2636598085
 20
2.3549328338
 10
59.2678566786
 20
1.1463185481
 10
59.2691284767
 20
0.0053691891
  0
LWPOLYLINE
  5
423
100
AcDbEntity
  8
0
100
AcDbPolyline
 62
253
  6
CONTINUOUS
 90
16
 70
0
 10
58.7201304539
 20
-23.3919145028
 10
58.8081915118
 20
-21.4314224986
 10
58.8862229054
 20
-19.5316421214
 10
58.9549333481
 20
-17.6930358495
 10
59.0148459214
 20
-15.9175518704
 10
59.066695029
 20
-14.2023298218
 10
59.1113530333
 20
-12.5395361856
 10
59.1493574766
 20
-10.9272066607
 10
59.1811284163
 20
-9.3670043673
 10
59.2072442483
 20
-7.85657416
 10
59.2282475505
 20
-6.3889091627
 10
59.2444120809
 20
-4.9707819707
 10
59.2560388191
 20
-3.6205247656
 10
59.2636598082
 20
-2.3441941722
 10
59.2678566782
 20
-1.1355800079
 10
59.2691284767
 20
0.0053691891
  0
LINE
  5
424
100
AcDbEntity
  8
SUPERFICI
100
AcDbLine
 62
253
  6
CONTINUOUS
 10
58.6525117471
 20
-24.7902681836
 11
58.7201178922
 21
-23.3920073009
  0
LINE
  5
425
100
AcDbEntity
  8
SUPERFICI
100
AcDbLine
 62
253
  6
CONTINUOUS
 10
58.5804357539
 20
-26.1974829487
 11
58.6525117471
 21
-24.7902681836
  0
LINE
  5
426
100
AcDbEntity
  8
SUPERFICI
100
AcDbLine
 62
253
  6
CONTINUOUS
 10
58.5047724074
 20
-27.5999456352
 11
58.5804357539
 21
-26.1974829487
  0
LINE
  5
427
100
AcDbEntity
  8
SUPERFICI
100
AcDbLine
 62
253
  6
CONTINUOUS
 10
58.4271239853
 20
-28.964661304
 11
58.5047724074
 21
-27.5999456352
  0
LINE
  5
428
100
AcDbEntity
  8
SUPERFICI
100
AcDbLine
 62
253
  6
CONTINUOUS
 10
58.34622093
 20
-30.3244283009
 11
58.4271239853
 21
-28.964661304
  0
LINE
  5
429
100
AcDbEntity
  8
SUPERFICI
100
AcDbLine
 62
253
  6
CONTINUOUS
 10
58.2170942312
 20
-32.3750673668
 11
58.34622093
 21
-30.3244283009
  0
LWPOLYLINE
  5
42A
100
AcDbEntity
  8
SUPERFICI
100
AcDbPolyline
 62
253
  6
CONTINUOUS
 90
4
 70
0
 10
57.9806791479
 20
-35.825840574
 10
58.0308392988
 20
-35.1387120054
 10
58.0788475705
 20
-34.4483156091
 10
58.2170942312
 20
-32.3750673668
  0
LINE
  5
42B
100
AcDbEntity
  8
SUPERFICI
100
AcDbLine
 62
253
  6
CONTINUOUS
 10
-22.665756395
 20
45.0855782402
 11
-23.233433881
 21
45.043632734
  0
LINE
  5
42C
100
AcDbEntity
  8
SUPERFICI
100
AcDbLine
 62
253
  6
CONTINUOUS
 10
-19.7979805845
 20
45.2813590305
 11
-22.665756395
 21
45.0855782402
  0
LINE
  5
42D
100
AcDbEntity
  8
SUPERFICI
100
AcDbLine
 62
253
  6
CONTINUOUS
 10
-18.114612004
 20
45.3891278764
 11
-19.7979805845
 21
45.2813590305
  0
LWPOLYLINE
  5
42E
100
AcDbEntity
  8
SUPERFICI
100
AcDbPolyline
 62
253
  6
CONTINUOUS
 90
70
 70
0
 10
-23.233433881
 20
45.043632734
 10
-23.4094602088
 20
45.0331035826
 10
-23.5961334573
 20
45.0177189042
 10
-23.7929545658
 20
44.9972790725
 10
-24.0015205148
 20
44.9714659016
 10
-24.2190745984
 20
44.9401069836
 10
-24.4388108239
 20
44.9032819006
 10
-24.6596939877
 20
44.8605046768
 10
-24.8820969422
 20
44.8118732057
 10
-25.1018140279
 20
44.7585168777
 10
-25.3185957319
 20
44.7001434071
 10
-25.5324525997
 20
44.6367917745
 10
-25.7400154268
 20
44.5702888181
 10
-25.9410496817
 20
44.500705128
 10
-26.1360025084
 20
44.4279363803
 10
-26.3229033249
 20
44.3537469471
 10
-26.5010188012
 20
44.2787111064
 10
-26.671622374
 20
44.2024185438
 10
-26.8358666776
 20
44.1252310665
 10
-26.9919400825
 20
44.0483241859
 10
-27.1421180062
 20
43.9706922506
 10
-27.2932535031
 20
43.8891808308
 10
-27.4466468668
 20
43.8027558158
 10
-27.6005253251
 20
43.7120493053
 10
-27.7566264217
 20
43.6160863516
 10
-27.9140116854
 20
43.5148614668
 10
-28.0729769648
 20
43.4078059885
 10
-28.236735259
 20
43.2928269045
 10
-28.4074365815
 20
43.1672822316
 10
-28.5815258233
 20
43.0325718188
 10
-28.7538419094
 20
42.8927941055
 10
-28.9234291496
 20
42.7485206667
 10
-29.0909648772
 20
42.5986464524
 10
-29.2544272727
 20
42.4452919307
 10
-29.4132913568
 20
42.2891134904
 10
-29.568249192
 20
42.1292588534
 10
-29.7193284648
 20
41.9657834899
 10
-29.8665838719
 20
41.7986877743
 10
-30.0101118291
 20
41.6277520794
 10
-30.1500063777
 20
41.4527018202
 10
-30.2868795279
 20
41.2728655484
 10
-30.4202274888
 20
41.0886296286
 10
-30.5486151924
 20
40.901468444
 10
-30.6720733439
 20
40.7119401264
 10
-30.7910316432
 20
40.5196206784
 10
-30.9048534729
 20
40.3247531335
 10
-31.0138489992
 20
40.1275539122
 10
-31.1182131446
 20
39.9280707695
 10
-31.2172302335
 20
39.7264246437
 10
-31.3112103953
 20
39.522782676
 10
-31.4003821766
 20
39.3173889832
 10
-31.4839943267
 20
39.110618556
 10
-31.5623696283
 20
38.9025186871
 10
-31.6357419138
 20
38.6936046566
 10
-31.7033197707
 20
38.4851355152
 10
-31.7652722681
 20
38.2775883284
 10
-31.8220089661
 20
38.0712771476
 10
-31.8731660631
 20
37.86738794
 10
-31.9188464219
 20
37.6665187083
 10
-31.9594655719
 20
37.4689565873
 10
-31.9951375066
 20
37.2754929355
 10
-32.0259437175
 20
37.086172618
 10
-32.0522059857
 20
36.9017791765
 10
-32.0743786685
 20
36.7242453807
 10
-32.0922255904
 20
36.5541516168
 10
-32.1062826393
 20
36.3917260247
 10
-32.1181112795
 20
36.2383512501
 10
-32.1282719848
 20
36.0946806503
 10
-32.1363546033
 20
35.9606659622
 10
-32.1424222036
 20
35.8365793166
  0
LWPOLYLINE
  5
42F
100
AcDbEntity
  8
0
100
AcDbPolyline
 62
253
  6
CONTINUOUS
 90
10
 70
0
 10
12.9191283651
 20
46.3553692432
 10
9.4688896823
 20
46.3434504436
 10
6.0192828739
 20
46.3076801316
 10
2.5703079399
 20
46.2480583073
 10
-0.8778767509
 20
46.1645971401
 10
-4.3254295672
 20
46.0572844605
 10
-7.772825615
 20
45.9260837599
 10
-11.220223263
 20
45.7709828687
 10
-14.6674641427
 20
45.5919939566
 10
-18.114548254
 20
45.3891170234
  0
LWPOLYLINE
  5
430
100
AcDbEntity
  8
0
100
AcDbPolyline
 62
253
  6
CONTINUOUS
 90
10
 70
0
 10
12.9191283651
 20
46.3553693738
 10
16.369367143
 20
46.3434505162
 10
19.8189740228
 20
46.3076801607
 10
23.2679490044
 20
46.2480583073
 10
26.7161337111
 20
46.1645971304
 10
30.1636865194
 20
46.0572844557
 10
33.6110825593
 20
45.9260837599
 10
37.0584802073
 20
45.7709828687
 10
40.505721087
 20
45.5919939566
 10
43.9528051983
 20
45.3891170234
  0
LWPOLYLINE
  5
431
100
AcDbEntity
  8
SUPERFICI
100
AcDbPolyline
 62
253
  6
CONTINUOUS
 90
70
 70
0
 10
49.0716908253
 20
45.043632734
 10
49.2477171531
 20
45.0331035826
 10
49.4343904016
 20
45.0177189042
 10
49.6312115101
 20
44.9972790725
 10
49.8397774591
 20
44.9714659016
 10
50.0573315427
 20
44.9401069836
 10
50.2770677681
 20
44.9032819006
 10
50.497950932
 20
44.8605046768
 10
50.7203538865
 20
44.8118732057
 10
50.9400709722
 20
44.7585168777
 10
51.1568526762
 20
44.7001434071
 10
51.370709544
 20
44.6367917745
 10
51.578272371
 20
44.5702888181
 10
51.779306626
 20
44.500705128
 10
51.9742594527
 20
44.4279363803
 10
52.1611602691
 20
44.3537469471
 10
52.3392757455
 20
44.2787111064
 10
52.5098793183
 20
44.2024185438
 10
52.6741236219
 20
44.1252310665
 10
52.8301970268
 20
44.0483241859
 10
52.9803749504
 20
43.9706922506
 10
53.1315104474
 20
43.8891808308
 10
53.2849038111
 20
43.8027558158
 10
53.4387822694
 20
43.7120493053
 10
53.594883366
 20
43.6160863516
 10
53.7522686296
 20
43.5148614668
 10
53.9112339091
 20
43.4078059885
 10
54.0749922033
 20
43.2928269045
 10
54.2456935258
 20
43.1672822316
 10
54.4197827676
 20
43.0325718188
 10
54.5920988536
 20
42.8927941055
 10
54.7616860939
 20
42.7485206667
 10
54.9292218214
 20
42.5986464524
 10
55.092684217
 20
42.4452919307
 10
55.2515483011
 20
42.2891134904
 10
55.4065061362
 20
42.1292588534
 10
55.5575854091
 20
41.9657834899
 10
55.7048408162
 20
41.7986877743
 10
55.8483687734
 20
41.6277520794
 10
55.988263322
 20
41.4527018202
 10
56.1251364722
 20
41.2728655484
 10
56.2584844331
 20
41.0886296286
 10
56.3868721367
 20
40.901468444
 10
56.5103302882
 20
40.7119401264
 10
56.6292885875
 20
40.5196206784
 10
56.7431104172
 20
40.3247531335
 10
56.8521059435
 20
40.1275539122
 10
56.9564700889
 20
39.9280707695
 10
57.0554871777
 20
39.7264246437
 10
57.1494673396
 20
39.522782676
 10
57.2386391209
 20
39.3173889832
 10
57.322251271
 20
39.110618556
 10
57.4006265725
 20
38.9025186871
 10
57.4739988581
 20
38.6936046566
 10
57.541576715
 20
38.4851355152
 10
57.6035292124
 20
38.2775883284
 10
57.6602659104
 20
38.0712771476
 10
57.7114230074
 20
37.86738794
 10
57.7571033662
 20
37.6665187083
 10
57.7977225162
 20
37.4689565873
 10
57.8333944509
 20
37.2754929355
 10
57.8642006618
 20
37.086172618
 10
57.89046293
 20
36.9017791765
 10
57.9126356128
 20
36.7242453807
 10
57.9304825347
 20
36.5541516168
 10
57.9445395836
 20
36.3917260247
 10
57.9563682237
 20
36.2383512501
 10
57.9665289291
 20
36.0946806503
 10
57.9746115476
 20
35.9606659622
 10
57.9806791479
 20
35.8365793166
  0
LINE
  5
432
100
AcDbEntity
  8
SUPERFICI
100
AcDbLine
 62
253
  6
CONTINUOUS
 10
43.9528689483
 20
45.3891278764
 11
45.6362375288
 21
45.2813590305
  0
LWPOLYLINE
  5
433
100
AcDbEntity
  8
SUPERFICI
100
AcDbPolyline
 62
253
  6
CONTINUOUS
 90
4
 70
0
 10
45.6362375288
 20
45.2813590305
 10
47.9330107612
 20
45.1258577432
 10
48.5040133393
 20
45.0855782402
 10
49.0716908253
 20
45.043632734
  0
LINE
  5
434
100
AcDbEntity
  8
DRAFT
100
AcDbLine
 62
7
  6
CONTINUOUS
 10
-50.0237679988
 20
-47.3936844424
 11
-51.4499359769
 21
-47.468426739
  0
LINE
  5
435
100
AcDbEntity
  8
RACCORDO
100
AcDbLine
 62
253
  6
CONTINUOUS
 10
-50.0237679988
 20
-46.0626751115
 11
-51.4499359769
 21
-46.1372184026
  0
LINE
  5
436
100
AcDbEntity
  8
DRAFT
100
AcDbLine
 62
253
  6
CONTINUOUS
 10
-51.9499359769
 20
-45.6385496807
 11
-51.4499359769
 21
-45.664683801
  0
LINE
  5
437
100
AcDbEntity
  8
DRAFT
100
AcDbLine
 62
7
  6
CONTINUOUS
 10
-51.4499359769
 20
-46.9946306287
 11
-51.9499359769
 21
-46.968426739
  0
LINE
  5
438
100
AcDbEntity
  8
0
100
AcDbLine
 62
253
  6
CONTINUOUS
 10
-52.2999359769
 20
-46.1633524775
 11
-53.949935575
 21
-46.0193805743
  0
LINE
  5
439
100
AcDbEntity
  8
0
100
AcDbLine
 62
7
  6
CONTINUOUS
 10
-53.9546947514
 20
-47.3498579865
 11
-52.2999359769
 21
-47.4946306199
  0
LINE
  5
43A
100
AcDbEntity
  8
RACCORDO
100
AcDbLine
 62
253
  6
CONTINUOUS
 10
-51.9499359769
 20
-43.4705414247
 11
-52.2999359769
 21
-43.4522513108
  0
LINE
  5
43B
100
AcDbEntity
  8
DRAFT
100
AcDbLine
 62
7
  6
CONTINUOUS
 10
-51.9499359769
 20
-44.7946306287
 11
-52.2999359769
 21
-44.7762879059
  0
LWPOLYLINE
  5
43C
100
AcDbEntity
  8
SUPERFICI
100
AcDbPolyline
 62
253
  6
CONTINUOUS
 90
10
 70
0
 10
-53.9499359769
 20
-46.0193921789
 10
-54.1667798225
 20
-45.9901024323
 10
-54.3745392602
 20
-45.9365381477
 10
-54.5691753714
 20
-45.8604053524
 10
-54.7475281171
 20
-45.7630146516
 10
-54.9056553029
 20
-45.6461316161
 10
-55.0394086356
 20
-45.5126013992
 10
-55.1465220523
 20
-45.3648762873
 10
-55.2259886052
 20
-45.2043981204
 10
-55.2767942697
 20
-45.0328881436
  0
LWPOLYLINE
  5
43D
100
AcDbEntity
  8
SUPERFICI
100
AcDbPolyline
 62
253
  6
CONTINUOUS
 90
10
 70
0
 10
-53.9499359769
 20
-46.382079397
 10
-54.1686473549
 20
-46.350677519
 10
-54.3782879679
 20
-46.2960482895
 10
-54.574841724
 20
-46.2194239584
 10
-54.7551338785
 20
-46.1216978934
 10
-54.9152590627
 20
-46.0042206934
 10
-55.0511195852
 20
-45.8693956762
 10
-55.1604032951
 20
-45.7193102016
 10
-55.2420015863
 20
-45.5551426022
 10
-55.2948070674
 20
-45.3783763368
  0
LINE
  5
43E
100
AcDbEntity
  8
RACCORDO
100
AcDbLine
 62
253
  6
CONTINUOUS
 10
-49.9817900053
 20
-36.4493677814
 11
-51.4499359769
 21
-36.4551086172
  0
LINE
  5
43F
100
AcDbEntity
  8
DRAFT
100
AcDbLine
 62
253
  6
CONTINUOUS
 10
-51.9499359769
 20
-36.4186462283
 11
-51.4499359769
 21
-36.4205571411
  0
LINE
  5
440
100
AcDbEntity
  8
RACCORDO
100
AcDbLine
 62
253
  6
CONTINUOUS
 10
-51.9499359769
 20
-36.26012263
 11
-52.2999359769
 21
-36.2587258731
  0
LINE
  5
441
100
AcDbEntity
  8
0
100
AcDbLine
 62
253
  6
CONTINUOUS
 10
-52.2999359769
 20
-36.4570195262
 11
-53.9499359769
 21
-36.4464923755
  0
LWPOLYLINE
  5
442
100
AcDbEntity
  8
SUPERFICI
100
AcDbPolyline
 62
253
  6
CONTINUOUS
 90
10
 70
0
 10
-53.9499359769
 20
36.4567223962
 10
-54.1601349023
 20
36.3785573
 10
-54.3618290735
 20
36.3100523311
 10
-54.551612232
 20
36.2475211843
 10
-54.7272177531
 20
36.1872129547
 10
-54.8846962722
 20
36.1262195867
 10
-55.019330074
 20
36.0626256735
 10
-55.1292114388
 20
35.9944805597
 10
-55.214279428
 20
35.9196031534
 10
-55.2741158858
 20
35.8365723964
  0
LWPOLYLINE
  5
443
100
AcDbEntity
  8
SUPERFICI
100
AcDbPolyline
 62
253
  6
CONTINUOUS
 90
10
 70
0
 10
-53.9499359769
 20
-36.4459836536
 10
-54.1601349023
 20
-36.3678185574
 10
-54.3618290735
 20
-36.2993135884
 10
-54.551612232
 20
-36.2367824417
 10
-54.7272177531
 20
-36.1764742121
 10
-54.8846962722
 20
-36.1154808441
 10
-55.019330074
 20
-36.0518869309
 10
-55.1292114388
 20
-35.9837418171
 10
-55.214279428
 20
-35.9088644108
 10
-55.2741158858
 20
-35.8258336538
  0
LWPOLYLINE
  5
444
100
AcDbEntity
  8
SUPERFICI
100
AcDbPolyline
 62
253
  6
CONTINUOUS
 90
10
 70
0
 10
-55.4573959673
 20
-23.3920073009
 10
-55.9552177938
 20
-23.5267192587
 10
-56.4021988003
 20
-23.654966232
 10
-56.7916161533
 20
-23.7782952273
 10
-57.1175230773
 20
-23.8955555392
 10
-57.3839070675
 20
-24.0070229913
 10
-57.5998231836
 20
-24.1162328196
 10
-57.7672350588
 20
-24.225570513
 10
-57.8850201678
 20
-24.33375652
 10
-57.9557687828
 20
-24.437343649
  0
LINE
  5
445
100
AcDbEntity
  8
0
100
AcDbLine
 62
7
  6
CONTINUOUS
 10
-48.8499359769
 20
-26.3446306287
 11
-49.5499359769
 21
-26.3487031096
  0
LINE
  5
446
100
AcDbEntity
  8
0
100
AcDbLine
 62
7
  6
CONTINUOUS
 10
-48.8499359769
 20
-27.1446306287
 11
-49.5499359769
 21
-27.1458523604
  0
LINE
  5
447
100
AcDbEntity
  8
0
100
AcDbLine
 62
253
  6
CONTINUOUS
 10
-48.8499359769
 20
-26.9222763422
 11
-49.5499359769
 21
-26.9225925497
  0
LINE
  5
448
100
AcDbEntity
  8
0
100
AcDbLine
 62
7
  6
CONTINUOUS
 10
-49.0499359769
 20
-25.1946306287
 11
-49.5499359769
 21
-25.1946306287
  0
LINE
  5
449
100
AcDbEntity
  8
0
100
AcDbLine
 62
7
  6
CONTINUOUS
 10
-49.3999359769
 20
-25.0446306287
 11
-49.1999359769
 21
-25.0446306287
  0
LINE
  5
44A
100
AcDbEntity
  8
0
100
AcDbLine
 62
7
  6
CONTINUOUS
 10
-49.0394687857
 20
-25.7862570454
 11
-49.5499359769
 21
-25.7637045409
  0
LINE
  5
44B
100
AcDbEntity
  8
DRAFT
100
AcDbLine
 62
7
  6
CONTINUOUS
 10
-58.1641099787
 20
-25.1737751277
 11
-58.34312854
 21
-25.1643931625
  0
LINE
  5
44C
100
AcDbEntity
  8
RACCORDO
100
AcDbLine
 62
253
  6
CONTINUOUS
 10
-58.0598591263
 20
-24.6576070385
 11
-58.1057520482
 21
-24.6552044027
  0
LWPOLYLINE
  5
44D
100
AcDbEntity
  8
SUPERFICI
100
AcDbPolyline
 62
253
  6
CONTINUOUS
 90
9
 70
0
 10
-53.9499359769
 20
-23.4390156769
 10
-54.4052763196
 20
-23.4353105285
 10
-54.6161060271
 20
-23.4320537656
 10
-54.8118105503
 20
-23.427801108
 10
-54.9889163954
 20
-23.422532003
 10
-55.1436376302
 20
-23.4162809816
 10
-55.2738911513
 20
-23.4090833423
 10
-55.3788103965
 20
-23.4009449236
 10
-55.457462314
 20
-23.3918941674
  0
LWPOLYLINE
  5
44E
100
AcDbEntity
  8
RACCORDO
100
AcDbPolyline
 62
253
  6
CONTINUOUS
 90
5
 70
0
 10
-58.1547651316
 20
24.6500507249
 10
-58.1433947383
 20
24.6563921202
 10
-58.1312975862
 20
24.6612044831
 10
-58.1186787236
 20
24.6644062435
 10
-58.105752042
 20
24.665943131
  0
LWPOLYLINE
  5
44F
100
AcDbEntity
  8
RACCORDO
100
AcDbPolyline
 62
253
  6
CONTINUOUS
 90
5
 70
0
 10
-58.1547619601
 20
-24.6393046143
 10
-58.1433921961
 20
-24.6456457375
 10
-58.1312957404
 20
-24.6504580062
 10
-58.1186776081
 20
-24.6536598604
 10
-58.1057516559
 20
-24.655197034
  0
LINE
  5
450
100
AcDbEntity
  8
0
100
AcDbLine
 62
7
  6
CONTINUOUS
 10
-49.0394687857
 20
-14.2545636223
 11
-49.5499359769
 21
-14.2813160742
  0
LINE
  5
451
100
AcDbEntity
  8
0
100
AcDbLine
 62
7
  6
CONTINUOUS
 10
-48.8499359769
 20
-13.7446306287
 11
-49.5499359769
 21
-13.7463175055
  0
LINE
  5
452
100
AcDbEntity
  8
0
100
AcDbLine
 62
7
  6
CONTINUOUS
 10
-48.8499359769
 20
-13.439188079
 11
-49.5499359769
 21
-13.4393616908
  0
LINE
  5
453
100
AcDbEntity
  8
0
100
AcDbLine
 62
253
  6
CONTINUOUS
 10
-48.8499359769
 20
-13.2844083766
 11
-49.5499359769
 21
-13.2855884788
  0
LINE
  5
454
100
AcDbEntity
  8
0
100
AcDbLine
 62
7
  6
CONTINUOUS
 10
-48.8499359769
 20
-10.4446306287
 11
-49.5499359769
 21
-10.4457218466
  0
LINE
  5
455
100
AcDbEntity
  8
0
100
AcDbLine
 62
7
  6
CONTINUOUS
 10
-48.8499359769
 20
-10.0116179268
 11
-49.5499359769
 21
-10.0127091448
  0
LINE
  5
456
100
AcDbEntity
  8
0
100
AcDbLine
 62
7
  6
CONTINUOUS
 10
-48.8499359769
 20
-9.939188079
 11
-49.5499359769
 21
-9.9393616908
  0
LINE
  5
457
100
AcDbEntity
  8
0
100
AcDbLine
 62
7
  6
CONTINUOUS
 10
-48.8499359769
 20
-12.5500731784
 11
-49.5499359769
 21
-12.5498995666
  0
LINE
  5
458
100
AcDbEntity
  8
0
100
AcDbLine
 62
7
  6
CONTINUOUS
 10
-48.8499359769
 20
-12.4776433306
 11
-49.5499359769
 21
-12.4765521126
  0
LINE
  5
459
100
AcDbEntity
  8
0
100
AcDbLine
 62
7
  6
CONTINUOUS
 10
-48.8499359769
 20
-12.0446306287
 11
-49.5499359769
 21
-12.0435394107
  0
LINE
  5
45A
100
AcDbEntity
  8
0
100
AcDbLine
 62
253
  6
CONTINUOUS
 10
-48.8499359769
 20
-12.7048528808
 11
-49.5499359769
 21
-12.7036727786
  0
LINE
  5
45B
100
AcDbEntity
  8
0
100
AcDbLine
 62
253
  6
CONTINUOUS
 10
-48.8499359769
 20
-9.7844083766
 11
-49.5499359769
 21
-9.7855884788
  0
LINE
  5
45C
100
AcDbEntity
  8
0
100
AcDbLine
 62
7
  6
CONTINUOUS
 10
-48.8499359769
 20
-9.0500731784
 11
-49.5499359769
 21
-9.0498995666
  0
LINE
  5
45D
100
AcDbEntity
  8
0
100
AcDbLine
 62
253
  6
CONTINUOUS
 10
-48.8499359769
 20
-9.2048528808
 11
-49.5499359769
 21
-9.2036727786
  0
LINE
  5
45E
100
AcDbEntity
  8
0
100
AcDbLine
 62
7
  6
CONTINUOUS
 10
-48.8499359769
 20
-8.7446306287
 11
-49.5499359769
 21
-8.7429437519
  0
LINE
  5
45F
100
AcDbEntity
  8
0
100
AcDbLine
 62
7
  6
CONTINUOUS
 10
-49.0394687857
 20
-8.2346976351
 11
-49.5499359769
 21
-8.2079451832
  0
LWPOLYLINE
  5
460
100
AcDbEntity
  8
RACCORDO
100
AcDbPolyline
 62
7
  6
CONTINUOUS
 90
8
 70
0
 10
-57.9429752143
 20
24.6997121246
 10
-57.9531988076
 20
24.6809095381
 10
-57.9619288601
 20
24.6619803193
 10
-57.9691678779
 20
24.6429779445
 10
-57.9749155314
 20
24.6239063495
 10
-57.9791792946
 20
24.6048675495
 10
-57.9819930135
 20
24.5860595516
 10
-57.9832032043
 20
24.5717492467
  0
LINE
  5
461
100
AcDbEntity
  8
0
100
AcDbLine
 62
7
  6
CONTINUOUS
 10
-49.1999359769
 20
25.0553693713
 11
-49.0499359769
 21
25.2053693713
  0
LINE
  5
462
100
AcDbEntity
  8
0
100
AcDbLine
 62
7
  6
CONTINUOUS
 10
-49.1999359769
 20
-25.0446306287
 11
-49.0499359769
 21
-25.1946306287
  0
LWPOLYLINE
  5
463
100
AcDbEntity
  8
0
100
AcDbPolyline
 62
7
  6
CONTINUOUS
 90
22
 70
0
 10
-55.3060301681
 20
46.3553693716
 10
-55.2885075354
 20
46.4247855035
 10
-55.2665923236
 20
46.4927733282
 10
-55.2402695821
 20
46.5592174703
 10
-55.2096058948
 20
46.6238650597
 10
-55.174557238
 20
46.6867428494
 10
-55.1348875516
 20
46.7481001405
 10
-55.0905544438
 20
46.8077696407
 10
-55.0415499037
 20
46.8655578462
 10
-54.9875837992
 20
46.9215664857
 10
-54.9286063384
 20
46.9755697972
 10
-54.8646361929
 20
47.0272959594
 10
-54.7954253671
 20
47.0766730879
 10
-54.7209572723
 20
47.1234141496
 10
-54.6413375794
 20
47.1671674792
 10
-54.5565005919
 20
47.2076789008
 10
-54.4665127813
 20
47.2446057218
 10
-54.3716420416
 20
47.2775279351
 10
-54.2721904669
 20
47.3060375061
 10
-54.1684943529
 20
47.3297301699
 10
-54.0609244057
 20
47.3481973308
 10
-53.9499359769
 20
47.3610130763
  0
LINE
  5
464
100
AcDbEntity
  8
0
100
AcDbLine
 62
253
  6
CONTINUOUS
 10
-53.9499359769
 20
0.0053695764
 11
-58.5522584969
 21
0.0053693753
  0
LINE
  5
465
100
AcDbEntity
  8
ASSI
100
AcDbLine
 62
253
  6
CONTINUOUS
 10
-58.5522584969
 20
0.0053693753
 11
-58.5861168788
 21
0.0053695927
  0
LINE
  5
466
100
AcDbEntity
  8
RACCORDO
100
AcDbLine
 62
7
  6
CONTINUOUS
 10
-49.5499359769
 20
-3.829651892
 11
-51.4499359769
 21
-3.4946306287
  0
LINE
  5
467
100
AcDbEntity
  8
RACCORDO
100
AcDbLine
 62
253
  6
CONTINUOUS
 10
-57.9547110212
 20
-24.667864987
 11
-57.951850816
 21
-24.6741323403
  0
LINE
  5
468
100
AcDbEntity
  8
RACCORDO
100
AcDbLine
 62
253
  6
CONTINUOUS
 10
-57.9512522982
 20
-24.6754489357
 11
-57.9509683628
 21
-24.6760770593
  0
LINE
  5
469
100
AcDbEntity
  8
RACCORDO
100
AcDbLine
 62
253
  6
CONTINUOUS
 10
-57.9504298732
 20
-24.6772779068
 11
-57.9501740391
 21
-24.677854046
  0
LWPOLYLINE
  5
46A
100
AcDbEntity
  8
RACCORDO
100
AcDbPolyline
 62
253
  6
CONTINUOUS
 90
3
 70
0
 10
-57.9569555458
 20
-24.6628524968
 10
-57.9564779591
 20
-24.6639309896
 10
-57.9551293975
 20
-24.6669403512
  0
LINE
  5
46B
100
AcDbEntity
  8
RACCORDO
100
AcDbLine
 62
253
  6
CONTINUOUS
 10
-57.9579491486
 20
-24.6605838709
 11
-57.9574463593
 21
-24.6617362722
  0
LINE
  5
46C
100
AcDbEntity
  8
RACCORDO
100
AcDbLine
 62
253
  6
CONTINUOUS
 10
-57.9499271358
 20
-24.6784145369
 11
-57.9496866698
 21
-24.6789658865
  0
LINE
  5
46D
100
AcDbEntity
  8
RACCORDO
100
AcDbLine
 62
253
  6
CONTINUOUS
 10
-57.9589781395
 20
-24.6581942854
 11
-57.9584601365
 21
-24.6594026117
  0
LWPOLYLINE
  5
46E
100
AcDbEntity
  8
RACCORDO
100
AcDbPolyline
 62
253
  6
CONTINUOUS
 90
22
 70
0
 10
-57.9494516962
 20
-24.6795103029
 10
-57.9492233004
 20
-24.6800455986
 10
-57.9490019985
 20
-24.6805716836
 10
-57.9487873361
 20
-24.6810900588
 10
-57.9485799072
 20
-24.6815992443
 10
-57.9483818229
 20
-24.6820946826
 10
-57.9481954448
 20
-24.6825704419
 10
-57.9480186017
 20
-24.6830324807
 10
-57.947846571
 20
-24.6834940727
 10
-57.9476808883
 20
-24.6839472699
 10
-57.9475200885
 20
-24.6844000324
 10
-57.9473547748
 20
-24.684889478
 10
-57.9471797239
 20
-24.685425465
 10
-57.9469999244
 20
-24.6859981176
 10
-57.9468211849
 20
-24.6866149462
 10
-57.9466411336
 20
-24.6872860915
 10
-57.9464619121
 20
-24.6880014064
 10
-57.9462962482
 20
-24.6887379913
 10
-57.9461484889
 20
-24.6894354595
 10
-57.9460144701
 20
-24.6901542264
 10
-57.9458938919
 20
-24.6910525937
 10
-57.945786167
 20
-24.6921833108
  0
LINE
  5
46F
100
AcDbEntity
  8
RACCORDO
100
AcDbLine
 62
253
  6
CONTINUOUS
 10
-57.9600348624
 20
-24.6556927055
 11
-57.9595035035
 21
-24.6569570311
  0
LINE
  5
470
100
AcDbEntity
  8
RACCORDO
100
AcDbLine
 62
253
  6
CONTINUOUS
 10
-57.9611125886
 20
-24.6530858185
 11
-57.9605711461
 21
-24.6544028269
  0
LWPOLYLINE
  5
471
100
AcDbEntity
  8
0
100
AcDbPolyline
 62
7
  6
CONTINUOUS
 90
22
 70
0
 10
-55.3060301681
 20
-46.344630629
 10
-55.2885075354
 20
-46.4140467608
 10
-55.2665923236
 20
-46.4820345856
 10
-55.2402695821
 20
-46.5484787277
 10
-55.2096058948
 20
-46.6131263171
 10
-55.174557238
 20
-46.6760041067
 10
-55.1348875516
 20
-46.7373613979
 10
-55.0905544438
 20
-46.7970308981
 10
-55.0415499037
 20
-46.8548191036
 10
-54.9875837992
 20
-46.9108277431
 10
-54.9286063384
 20
-46.9648310546
 10
-54.8646361929
 20
-47.0165572168
 10
-54.7954253671
 20
-47.0659343453
 10
-54.7209572723
 20
-47.1126754069
 10
-54.6413375794
 20
-47.1564287366
 10
-54.5565005919
 20
-47.1969401582
 10
-54.4665127813
 20
-47.2338669792
 10
-54.3716420416
 20
-47.2667891925
 10
-54.2721904669
 20
-47.2952987635
 10
-54.1684943529
 20
-47.3189914273
 10
-54.0609244057
 20
-47.3374585882
 10
-53.9499359769
 20
-47.3502743337
  0
LWPOLYLINE
  5
472
100
AcDbEntity
  8
RACCORDO
100
AcDbPolyline
 62
253
  6
CONTINUOUS
 90
28
 70
0
 10
-55.2947833853
 20
45.3891170234
 10
-55.5087358604
 20
44.3335140504
 10
-55.7089779034
 20
43.3047955715
 10
-55.8961657162
 20
42.3029615868
 10
-56.0706849974
 20
41.3294557412
 10
-56.2334253732
 20
40.3828343898
 10
-56.3856748659
 20
39.4587665975
 10
-56.528114991
 20
38.5560009383
 10
-56.6610127119
 20
37.6757888382
 10
-56.7849069617
 20
36.8175536394
 10
-56.9001630862
 20
35.9818460489
 10
-57.0072897276
 20
35.1681153597
 10
-57.1069682809
 20
34.374132793
 10
-57.1996054304
 20
33.5995246917
 10
-57.2855080911
 20
32.8446647129
 10
-57.3651318508
 20
32.1084450497
 10
-57.4388651288
 20
31.390137761
 10
-57.5069374184
 20
30.690470788
 10
-57.5695509149
 20
30.0105201469
 10
-57.6268105333
 20
29.3528715766
 10
-57.6792967436
 20
28.7149393384
 10
-57.7278321024
 20
28.0900422319
 10
-57.7730569583
 20
27.472298492
 10
-57.8147044669
 20
26.8675898839
 10
-57.8522671814
 20
26.2868805039
 10
-57.885843823
 20
25.7338250507
 10
-57.9159856218
 20
25.2047688256
 10
-57.9429748167
 20
24.6997118285
  0
LINE
  5
473
100
AcDbEntity
  8
RACCORDO
100
AcDbLine
 62
7
  6
CONTINUOUS
 10
-49.5499359769
 20
3.8403906347
 11
-51.4499359769
 21
3.5053693713
  0
LWPOLYLINE
  5
474
100
AcDbEntity
  8
RACCORDO
100
AcDbPolyline
 62
253
  6
CONTINUOUS
 90
26
 70
0
 10
-55.2947833853
 20
-45.3783782808
 10
-55.512697822
 20
-44.3028199926
 10
-55.7163993807
 20
-43.255108653
 10
-55.9065802625
 20
-42.2352442621
 10
-56.0836527069
 20
-41.2447218642
 10
-56.2485487029
 20
-40.282046415
 10
-56.4026088506
 20
-39.3427327817
 10
-56.5465448053
 20
-38.4254931891
 10
-56.6806432108
 20
-37.5316154125
 10
-56.8054722539
 20
-36.6604776446
 10
-56.9214164443
 20
-35.8126564435
 10
-57.0290087717
 20
-34.9875752513
 10
-57.1289623198
 20
-34.1828825867
 10
-57.2217075347
 20
-33.3981382467
 10
-57.3075595998
 20
-32.6337824344
 10
-57.3869797737
 20
-31.8887842781
 10
-57.4603612299
 20
-31.1625173091
 10
-57.5279610931
 20
-30.4556079961
 10
-57.5900200199
 20
-29.7689048733
 10
-57.6466819899
 20
-29.1048548817
 10
-57.6985217619
 20
-28.4610110804
 10
-57.7463435519
 20
-27.8308811813
 10
-57.7908179683
 20
-27.2081449565
 10
-57.8316643175
 20
-26.5991226339
 10
-57.8683113137
 20
-26.0162826096
 10
-57.9008612203
 20
-25.4637810155
  0
LINE
  5
475
100
AcDbEntity
  8
RACCORDO
100
AcDbLine
 62
253
  6
CONTINUOUS
 10
-57.9656821662
 20
-24.5539346722
 11
-57.964763871
 21
-24.5626004031
  0
LWPOLYLINE
  5
476
100
AcDbEntity
  8
ASSI
100
AcDbPolyline
 62
7
  6
CONTINUOUS
 90
10
 70
0
 10
-58.4131782677
 20
-25.8946306287
 10
-58.1797594439
 20
-28.3100487653
 10
-57.9181341363
 20
-30.6840614781
 10
-57.6281484397
 20
-33.0166687669
 10
-57.3117819379
 20
-35.3003953713
 10
-56.9692230571
 20
-37.5427165519
 10
-56.5976709409
 20
-39.7660580899
 10
-56.1958879385
 20
-41.977895246
 10
-55.7652664705
 20
-44.1707527598
 10
-55.3060289371
 20
-46.3446306312
  0
LINE
  5
477
100
AcDbEntity
  8
RACCORDO
100
AcDbLine
 62
253
  6
CONTINUOUS
 10
-57.9665678325
 20
-24.5448976076
 11
-57.9656821662
 21
-24.5539346722
  0
LWPOLYLINE
  5
478
100
AcDbEntity
  8
ASSI
100
AcDbPolyline
 62
7
  6
CONTINUOUS
 90
10
 70
0
 10
-58.4131782677
 20
25.9053693713
 10
-58.1797594439
 20
28.3207875079
 10
-57.9181341363
 20
30.6948002207
 10
-57.6281484397
 20
33.0274075095
 10
-57.3117819379
 20
35.3111341139
 10
-56.9692230571
 20
37.5534552945
 10
-56.5976709409
 20
39.7767968326
 10
-56.1958879385
 20
41.9886339887
 10
-55.7652664705
 20
44.1814915024
 10
-55.3060289371
 20
46.3553693738
  0
LINE
  5
479
100
AcDbEntity
  8
0
100
AcDbLine
 62
7
  6
CONTINUOUS
 10
-49.0394687857
 20
8.1454363777
 11
-49.5499359769
 21
8.1186839258
  0
LINE
  5
47A
100
AcDbEntity
  8
0
100
AcDbLine
 62
7
  6
CONTINUOUS
 10
-49.0394687857
 20
8.2454363777
 11
-49.5499359769
 21
8.2186839258
  0
LINE
  5
47B
100
AcDbEntity
  8
RACCORDO
100
AcDbLine
 62
253
  6
CONTINUOUS
 10
-57.9534645946
 20
-24.6412535342
 11
-57.9494588607
 21
-24.6639492058
  0
LINE
  5
47C
100
AcDbEntity
  8
RACCORDO
100
AcDbLine
 62
253
  6
CONTINUOUS
 10
-57.9549442015
 20
-24.6326094957
 11
-57.9534645946
 21
-24.6412535342
  0
LWPOLYLINE
  5
47D
100
AcDbEntity
  8
RACCORDO
100
AcDbPolyline
 62
253
  6
CONTINUOUS
 90
3
 70
0
 10
-57.9492277828
 20
-24.6652777088
 10
-57.9485887858
 20
-24.6690193049
 10
-57.9483937531
 20
-24.6701824761
  0
LINE
  5
47E
100
AcDbEntity
  8
RACCORDO
100
AcDbLine
 62
253
  6
CONTINUOUS
 10
-57.9561768134
 20
-24.6251788392
 11
-57.9549442015
 21
-24.6326094957
  0
LINE
  5
47F
100
AcDbEntity
  8
RACCORDO
100
AcDbLine
 62
253
  6
CONTINUOUS
 10
-57.9482062981
 20
-24.671315164
 11
-57.948016889
 21
-24.6724841336
  0
LINE
  5
480
100
AcDbEntity
  8
RACCORDO
100
AcDbLine
 62
253
  6
CONTINUOUS
 10
-57.9575180612
 20
-24.6167962548
 11
-57.9561768134
 21
-24.6251788392
  0
LWPOLYLINE
  5
481
100
AcDbEntity
  8
RACCORDO
100
AcDbPolyline
 62
253
  6
CONTINUOUS
 90
6
 70
0
 10
-57.9478238895
 20
-24.6736917286
 10
-57.9476289382
 20
-24.6749356092
 10
-57.9474273079
 20
-24.6762752755
 10
-57.9472117006
 20
-24.6777640899
 10
-57.946989343
 20
-24.6793485304
 10
-57.9467774392
 20
-24.6809280915
  0
LINE
  5
482
100
AcDbEntity
  8
RACCORDO
100
AcDbLine
 62
253
  6
CONTINUOUS
 10
-57.9584632347
 20
-24.6106684235
 11
-57.9575180612
 21
-24.6167962548
  0
LINE
  5
483
100
AcDbEntity
  8
RACCORDO
100
AcDbLine
 62
253
  6
CONTINUOUS
 10
-57.959434259
 20
-24.6041534126
 11
-57.9584632347
 21
-24.6106684235
  0
LINE
  5
484
100
AcDbEntity
  8
RACCORDO
100
AcDbLine
 62
253
  6
CONTINUOUS
 10
-57.960415249
 20
-24.5973134533
 11
-57.959434259
 21
-24.6041534126
  0
LINE
  5
485
100
AcDbEntity
  8
RACCORDO
100
AcDbLine
 62
253
  6
CONTINUOUS
 10
-57.9613974347
 20
-24.590164592
 11
-57.960415249
 21
-24.5973134533
  0
LINE
  5
486
100
AcDbEntity
  8
RACCORDO
100
AcDbLine
 62
253
  6
CONTINUOUS
 10
-57.9623739688
 20
-24.5827113039
 11
-57.9613974347
 21
-24.590164592
  0
LWPOLYLINE
  5
487
100
AcDbEntity
  8
RACCORDO
100
AcDbPolyline
 62
253
  6
CONTINUOUS
 90
6
 70
0
 10
-57.9465848617
 20
-24.682403463
 10
-57.9464030368
 20
-24.6838746162
 10
-57.9462231626
 20
-24.6855403298
 10
-57.9460423798
 20
-24.6874670334
 10
-57.945863757
 20
-24.6895887731
 10
-57.9456873728
 20
-24.6919057332
  0
LINE
  5
488
100
AcDbEntity
  8
RACCORDO
100
AcDbLine
 62
253
  6
CONTINUOUS
 10
-57.9633417274
 20
-24.5749272084
 11
-57.9623739688
 21
-24.5827113039
  0
LWPOLYLINE
  5
489
100
AcDbEntity
  8
RACCORDO
100
AcDbPolyline
 62
253
  6
CONTINUOUS
 90
3
 70
0
 10
-57.964763871
 20
-24.5626004031
 10
-57.9642948648
 20
-24.5667974179
 10
-57.9633417274
 20
-24.5749272084
  0
LINE
  5
48A
100
AcDbEntity
  8
RACCORDO
100
AcDbLine
 62
253
  6
CONTINUOUS
 10
-57.9456908649
 20
-24.6934935915
 11
-57.9456074379
 21
-24.6949834085
  0
LWPOLYLINE
  5
48B
100
AcDbEntity
  8
RACCORDO
100
AcDbPolyline
 62
253
  6
CONTINUOUS
 90
9
 70
0
 10
-57.9699220291
 20
-24.4990617794
 10
-57.9696049821
 20
-24.5048274479
 10
-57.9692824413
 20
-24.5101983088
 10
-57.9689409269
 20
-24.5154614024
 10
-57.968581941
 20
-24.5206185918
 10
-57.9682067042
 20
-24.5256722185
 10
-57.9678164084
 20
-24.5306257925
 10
-57.9674123725
 20
-24.5354811336
 10
-57.9665678325
 20
-24.5448976076
  0
LINE
  5
48C
100
AcDbEntity
  8
RACCORDO
100
AcDbLine
 62
7
  6
CONTINUOUS
 10
-57.9699354862
 20
-24.4988042331
 11
-57.9699220291
 21
-24.4990617794
  0
LINE
  5
48D
100
AcDbEntity
  8
RACCORDO
100
AcDbLine
 62
253
  6
CONTINUOUS
 10
-57.9008612203
 20
-25.4637810155
 11
-57.952641905
 21
-24.4979100623
  0
LINE
  5
48E
100
AcDbEntity
  8
RACCORDO
100
AcDbLine
 62
253
  6
CONTINUOUS
 10
-57.952641905
 20
-24.4979100623
 11
-57.9557744915
 21
-24.4373247221
  0
LINE
  5
48F
100
AcDbEntity
  8
SUPERFICI
100
AcDbLine
 62
7
  6
CONTINUOUS
 10
-58.0736752128
 20
-22.3780646466
 11
-57.9699219392
 21
-24.4990635032
  0
LWPOLYLINE
  5
490
100
AcDbEntity
  8
RACCORDO
100
AcDbPolyline
 62
253
  6
CONTINUOUS
 90
10
 70
0
 10
-57.9557888439
 20
-24.4373032881
 10
-58.0826860324
 20
-21.6830313711
 10
-58.1938221956
 20
-18.9424656174
 10
-58.2900702307
 20
-16.2158231078
 10
-58.3706123598
 20
-13.5092607506
 10
-58.4359937231
 20
-10.8169398292
 10
-58.4868246266
 20
-8.1209650551
 10
-58.5231939483
 20
-5.4154712774
 10
-58.5449967701
 20
-2.7066394314
 10
-58.5522584969
 20
0.0053693753
  0
LWPOLYLINE
  5
491
100
AcDbEntity
  8
RACCORDO
100
AcDbPolyline
 62
253
  6
CONTINUOUS
 90
3
 70
0
 10
-57.945564017
 20
-24.6948909451
 10
-57.9547553973
 20
-24.4650973746
 10
-57.9557744915
 20
-24.4373247221
  0
LWPOLYLINE
  5
492
100
AcDbEntity
  8
SUPERFICI
100
AcDbPolyline
 62
253
  6
CONTINUOUS
 90
3
 70
0
 10
-55.2943146406
 20
-44.1144923239
 10
-55.3023034882
 20
-43.8784420881
 10
-55.304925648
 20
-43.7920170732
  0
LWPOLYLINE
  5
493
100
AcDbEntity
  8
RACCORDO
100
AcDbPolyline
 62
7
  6
CONTINUOUS
 90
12
 70
0
 10
-58.1653379753
 20
25.1568265406
 10
-58.1644498721
 20
25.1164581258
 10
-58.1619923704
 20
25.0742251068
 10
-58.1580786826
 20
25.0304211974
 10
-58.1525955963
 20
24.9854580071
 10
-58.1452034736
 20
24.9399051656
 10
-58.1357909374
 20
24.8941984959
 10
-58.1244693649
 20
24.8485626412
 10
-58.11123325
 20
24.8032451986
 10
-58.0960807574
 20
24.7584926211
 10
-58.0790137223
 20
24.7145558176
 10
-58.0600321449
 20
24.6716508951
  0
LWPOLYLINE
  5
494
100
AcDbEntity
  8
RACCORDO
100
AcDbPolyline
 62
7
  6
CONTINUOUS
 90
9
 70
0
 10
-58.1640433562
 20
-25.216523313
 10
-58.1636875972
 20
-25.2457089549
 10
-58.1635894018
 20
-25.2716769336
 10
-58.1637483726
 20
-25.2943771734
 10
-58.1641649072
 20
-25.3136955059
 10
-58.1648401978
 20
-25.3295038566
 10
-58.165774642
 20
-25.3417729593
 10
-58.1669678423
 20
-25.3505223682
 10
-58.1684197987
 20
-25.3557542336
  0
LWPOLYLINE
  5
495
100
AcDbEntity
  8
0
100
AcDbPolyline
 62
7
  6
CONTINUOUS
 90
9
 70
0
 10
-58.5766589053
 20
-2.9922354739
 10
-58.5494072471
 20
-5.9862150079
 10
-58.5056362108
 20
-8.8947885523
 10
-58.4466256067
 20
-11.7172028555
 10
-58.3736406725
 20
-14.4537572636
 10
-58.2879047919
 20
-17.1058005259
 10
-58.1906829393
 20
-19.6735432896
 10
-58.0839611938
 20
-22.1534886028
 10
-58.0336060694
 20
-23.1971868252
  0
LWPOLYLINE
  5
496
100
AcDbEntity
  8
SUPERFICI
100
AcDbPolyline
 62
7
  6
CONTINUOUS
 90
9
 70
0
 10
-58.5861168788
 20
0.0053695917
 10
-58.5764679808
 20
-3.0232957695
 10
-58.5486613933
 20
-6.0475221415
 10
-58.5039938859
 20
-8.9855182145
 10
-58.4437683741
 20
-11.8365305747
 10
-58.3692740814
 20
-14.6008449937
 10
-58.2817597202
 20
-17.279782655
 10
-58.1825341107
 20
-19.8734622702
 10
-58.0736752128
 20
-22.3780646466
  0
LINE
  5
497
100
AcDbEntity
  8
0
100
AcDbLine
 62
7
  6
CONTINUOUS
 10
-58.5861168788
 20
0.0053691499
 11
-58.5766589053
 21
-2.9922354739
  0
LINE
  5
498
100
AcDbEntity
  8
SUPERFICI
100
AcDbLine
 62
7
  6
CONTINUOUS
 10
-58.576519967
 20
3.018238549
 11
-58.5861168788
 21
0.005369151
  0
LWPOLYLINE
  5
499
100
AcDbEntity
  8
RACCORDO
100
AcDbPolyline
 62
253
  6
CONTINUOUS
 90
46
 70
0
 10
-57.982418112
 20
-24.5458959088
 10
-57.9824397428
 20
-24.5496937556
 10
-57.9824052533
 20
-24.5534002988
 10
-57.9823186141
 20
-24.557021248
 10
-57.9821837263
 20
-24.5605559549
 10
-57.982004425
 20
-24.56400377
 10
-57.9817838754
 20
-24.5673705338
 10
-57.9815254455
 20
-24.5706558616
 10
-57.9812324594
 20
-24.5738591939
 10
-57.9809073854
 20
-24.576986207
 10
-57.98055313
 20
-24.5800366234
 10
-57.9801725637
 20
-24.5830100454
 10
-57.9797675455
 20
-24.5859120416
 10
-57.9793405828
 20
-24.5887423738
 10
-57.9788941397
 20
-24.5915008111
 10
-57.978429512
 20
-24.5941929842
 10
-57.9779488463
 20
-24.596818716
 10
-57.9774542467
 20
-24.5993778688
 10
-57.9769464911
 20
-24.6018761679
 10
-57.9764273996
 20
-24.6043135012
 10
-57.9758987586
 20
-24.6066897792
 10
-57.9753608809
 20
-24.6090107836
 10
-57.9748153038
 20
-24.6112764187
 10
-57.974263526
 20
-24.6134866595
 10
-57.9737054215
 20
-24.6156474057
 10
-57.973142259
 20
-24.6177586345
 10
-57.9725752971
 20
-24.6198203036
 10
-57.9720040466
 20
-24.6218382887
 10
-57.9714294372
 20
-24.6238129707
 10
-57.9708526164
 20
-24.6257439398
 10
-57.9702731335
 20
-24.6276358845
 10
-57.9696916517
 20
-24.6294894731
 10
-57.9691092445
 20
-24.6313040332
 10
-57.968525882
 20
-24.6330822415
 10
-57.9679422078
 20
-24.6348244757
 10
-57.9673591054
 20
-24.6365303747
 10
-57.9667767922
 20
-24.6382015071
 10
-57.966195951
 20
-24.6398379168
 10
-57.9656172796
 20
-24.6414395942
 10
-57.9650409379
 20
-24.6430080287
 10
-57.9644675603
 20
-24.6445432113
 10
-57.9638977565
 20
-24.6460451981
 10
-57.9633315749
 20
-24.6475155763
 10
-57.9627695695
 20
-24.6489543767
 10
-57.9622123002
 20
-24.6503616241
 10
-57.9616597545
 20
-24.6517388957
  0
LWPOLYLINE
  5
49A
100
AcDbEntity
  8
RACCORDO
100
AcDbPolyline
 62
7
  6
CONTINUOUS
 90
5
 70
0
 10
-57.9887683134
 20
24.4714158785
 10
-57.9890933157
 20
24.4619285207
 10
-57.9888506382
 20
24.4398380202
 10
-57.9873883735
 20
24.4113968237
 10
-57.9850957249
 20
24.3817421794
  0
LINE
  5
49B
100
AcDbEntity
  8
SUPERFICI
100
AcDbLine
 62
253
  6
CONTINUOUS
 10
-55.297028897
 20
44.0483241859
 11
-55.304925648
 21
43.8027558158
  0
LINE
  5
49C
100
AcDbEntity
  8
SUPERFICI
100
AcDbLine
 62
253
  6
CONTINUOUS
 10
-55.2705891878
 20
44.7585168777
 11
-55.2746730882
 21
44.6367917745
  0
LINE
  5
49D
100
AcDbEntity
  8
SUPERFICI
100
AcDbLine
 62
253
  6
CONTINUOUS
 10
-55.2746730882
 20
44.6367917745
 11
-55.297028897
 21
44.0483241859
  0
LINE
  5
49E
100
AcDbEntity
  8
RACCORDO
100
AcDbLine
 62
253
  6
CONTINUOUS
 10
-57.9678402361
 20
24.225076037
 11
-57.966052272
 21
24.2679221715
  0
LWPOLYLINE
  5
49F
100
AcDbEntity
  8
RACCORDO
100
AcDbPolyline
 62
253
  6
CONTINUOUS
 90
10
 70
0
 10
-57.9557888439
 20
24.4480420307
 10
-58.0826860324
 20
21.6937701137
 10
-58.1938221956
 20
18.95320436
 10
-58.2900702307
 20
16.2265618504
 10
-58.3706123598
 20
13.519999493
 10
-58.4359937231
 20
10.8276785712
 10
-58.4868246266
 20
8.1317037977
 10
-58.5231939483
 20
5.4262100218
 10
-58.5449967701
 20
2.7173781785
 10
-58.5522584969
 20
0.0053693753
  0
LWPOLYLINE
  5
4A0
100
AcDbEntity
  8
SUPERFICI
100
AcDbPolyline
 62
7
  6
CONTINUOUS
 90
9
 70
0
 10
-57.9829361083
 20
24.2581493279
 10
-58.0839611938
 20
22.1642273454
 10
-58.1906829393
 20
19.6842820323
 10
-58.2879047919
 20
17.1165392685
 10
-58.3736406725
 20
14.4644960062
 10
-58.4466256067
 20
11.7279415981
 10
-58.5056362108
 20
8.9055272949
 10
-58.5494072471
 20
5.9969537506
 10
-58.5766589053
 20
3.0029742165
  0
LINE
  5
4A1
100
AcDbEntity
  8
RACCORDO
100
AcDbLine
 62
253
  6
CONTINUOUS
 10
-57.966052272
 20
24.2679221715
 11
-57.9598842032
 21
24.3989290039
  0
LINE
  5
4A2
100
AcDbEntity
  8
SUPERFICI
100
AcDbLine
 62
7
  6
CONTINUOUS
 10
-57.9832062895
 20
24.5717642356
 11
-57.9887734637
 21
24.4714382581
  0
LWPOLYLINE
  5
4A3
100
AcDbEntity
  8
RACCORDO
100
AcDbPolyline
 62
253
  6
CONTINUOUS
 90
5
 70
0
 10
-57.9598842032
 20
24.3989290039
 10
-57.9590571045
 20
24.4131506169
 10
-57.9580831445
 20
24.4259450667
 10
-57.9569959726
 20
24.4375806081
 10
-57.9557888439
 20
24.4480420307
  0
LINE
  5
4A4
100
AcDbEntity
  8
0
100
AcDbLine
 62
7
  6
CONTINUOUS
 10
-48.8499359769
 20
8.7553693713
 11
-49.5499359769
 21
8.7536824945
  0
LINE
  5
4A5
100
AcDbEntity
  8
0
100
AcDbLine
 62
253
  6
CONTINUOUS
 10
-48.8499359769
 20
9.2155916234
 11
-49.5499359769
 21
9.2144115212
  0
LINE
  5
4A6
100
AcDbEntity
  8
0
100
AcDbLine
 62
7
  6
CONTINUOUS
 10
-48.8499359769
 20
9.060811921
 11
-49.5499359769
 21
9.0606383092
  0
LINE
  5
4A7
100
AcDbEntity
  8
0
100
AcDbLine
 62
7
  6
CONTINUOUS
 10
-48.8499359769
 20
9.9499268216
 11
-49.5499359769
 21
9.9501004334
  0
LINE
  5
4A8
100
AcDbEntity
  8
0
100
AcDbLine
 62
7
  6
CONTINUOUS
 10
-48.8499359769
 20
10.0223566694
 11
-49.5499359769
 21
10.0234478874
  0
LINE
  5
4A9
100
AcDbEntity
  8
0
100
AcDbLine
 62
7
  6
CONTINUOUS
 10
-48.8499359769
 20
10.4553693713
 11
-49.5499359769
 21
10.4564605893
  0
LINE
  5
4AA
100
AcDbEntity
  8
0
100
AcDbLine
 62
253
  6
CONTINUOUS
 10
-48.8499359769
 20
9.7951471192
 11
-49.5499359769
 21
9.7963272214
  0
LWPOLYLINE
  5
4AB
100
AcDbEntity
  8
RACCORDO
100
AcDbPolyline
 62
7
  6
CONTINUOUS
 90
4
 70
0
 10
-57.9850957249
 20
24.3817421794
 10
-57.9845910428
 20
24.3759976766
 10
-57.9804136807
 20
24.3332595395
 10
-57.97483771
 20
24.2830282025
  0
LINE
  5
4AC
100
AcDbEntity
  8
SUPERFICI
100
AcDbLine
 62
253
  6
CONTINUOUS
 10
-55.2660755394
 20
-36.0839419077
 11
-55.2741164459
 21
-35.825840574
  0
LINE
  5
4AD
100
AcDbEntity
  8
SUPERFICI
100
AcDbLine
 62
253
  6
CONTINUOUS
 10
-55.304925648
 20
-43.7920170732
 11
-55.3100070007
 21
-43.605347609
  0
LINE
  5
4AE
100
AcDbEntity
  8
SUPERFICI
100
AcDbLine
 62
253
  6
CONTINUOUS
 10
-55.2539029358
 20
-36.5434128742
 11
-55.2660755394
 21
-36.0839419077
  0
LINE
  5
4AF
100
AcDbEntity
  8
SUPERFICI
100
AcDbLine
 62
253
  6
CONTINUOUS
 10
-55.2741164459
 20
-35.825840574
 11
-55.3066119531
 21
-34.4483156091
  0
LINE
  5
4B0
100
AcDbEntity
  8
SUPERFICI
100
AcDbLine
 62
253
  6
CONTINUOUS
 10
-55.3100070007
 20
-43.605347609
 11
-55.3147119408
 21
-43.3970672459
  0
LINE
  5
4B1
100
AcDbEntity
  8
SUPERFICI
100
AcDbLine
 62
253
  6
CONTINUOUS
 10
-55.3105809017
 20
41.4527018202
 11
-55.259927259
 21
39.3173889832
  0
LINE
  5
4B2
100
AcDbEntity
  8
SUPERFICI
100
AcDbLine
 62
253
  6
CONTINUOUS
 10
-55.3066119531
 20
-34.4483156091
 11
-55.3349443756
 21
-33.0648017603
  0
LINE
  5
4B3
100
AcDbEntity
  8
SUPERFICI
100
AcDbLine
 62
253
  6
CONTINUOUS
 10
-55.3349443756
 20
-33.0648017603
 11
-55.3593564148
 21
-31.6865861674
  0
LINE
  5
4B4
100
AcDbEntity
  8
SUPERFICI
100
AcDbLine
 62
253
  6
CONTINUOUS
 10
-55.2472678435
 20
-36.8910404338
 11
-55.2539029358
 21
-36.5434128742
  0
LINE
  5
4B5
100
AcDbEntity
  8
SUPERFICI
100
AcDbLine
 62
253
  6
CONTINUOUS
 10
-55.259927259
 20
39.3173889832
 11
-55.2486377627
 21
38.6936046566
  0
LINE
  5
4B6
100
AcDbEntity
  8
SUPERFICI
100
AcDbLine
 62
253
  6
CONTINUOUS
 10
-55.3164243732
 20
41.7986877743
 11
-55.3105809017
 21
41.4527018202
  0
LINE
  5
4B7
100
AcDbEntity
  8
SUPERFICI
100
AcDbLine
 62
253
  6
CONTINUOUS
 10
-55.3147119408
 20
-43.3970672459
 11
-55.3187175351
 21
-43.156543489
  0
LINE
  5
4B8
100
AcDbEntity
  8
SUPERFICI
100
AcDbLine
 62
253
  6
CONTINUOUS
 10
-55.3593564148
 20
-31.6865861674
 11
-55.3910859817
 21
-29.6444306968
  0
LINE
  5
4B9
100
AcDbEntity
  8
SUPERFICI
100
AcDbLine
 62
253
  6
CONTINUOUS
 10
-55.3910859817
 20
-29.6444306968
 11
-55.4183947968
 21
-27.5999456352
  0
LINE
  5
4BA
100
AcDbEntity
  8
0
100
AcDbLine
 62
253
  6
CONTINUOUS
 10
-55.3060289371
 20
46.3553693738
 11
-55.2947833853
 21
45.3891170234
  0
LINE
  5
4BB
100
AcDbEntity
  8
SUPERFICI
100
AcDbLine
 62
253
  6
CONTINUOUS
 10
-55.4183947968
 20
-27.5999456352
 11
-55.4343722347
 21
-26.1974829487
  0
LINE
  5
4BC
100
AcDbEntity
  8
SUPERFICI
100
AcDbLine
 62
253
  6
CONTINUOUS
 10
-55.3203888824
 20
42.1292588534
 11
-55.3164243732
 21
41.7986877743
  0
LINE
  5
4BD
100
AcDbEntity
  8
SUPERFICI
100
AcDbLine
 62
253
  6
CONTINUOUS
 10
-55.2486377627
 20
38.6936046566
 11
-55.2437328893
 21
38.2775883284
  0
LINE
  5
4BE
100
AcDbEntity
  8
SUPERFICI
100
AcDbLine
 62
253
  6
CONTINUOUS
 10
-55.2428371915
 20
-37.2647541929
 11
-55.2472678435
 21
-36.8910404338
  0
LINE
  5
4BF
100
AcDbEntity
  8
SUPERFICI
100
AcDbLine
 62
253
  6
CONTINUOUS
 10
-55.4343722347
 20
-26.1974829487
 11
-55.4476312481
 21
-24.7902681836
  0
LINE
  5
4C0
100
AcDbEntity
  8
SUPERFICI
100
AcDbLine
 62
253
  6
CONTINUOUS
 10
-55.3187175351
 20
-43.156543489
 11
-55.3215776692
 21
-42.8820553628
  0
LINE
  5
4C1
100
AcDbEntity
  8
SUPERFICI
100
AcDbLine
 62
253
  6
CONTINUOUS
 10
-55.4476312481
 20
-24.7902681836
 11
-55.4573959673
 21
-23.3920073009
  0
LINE
  5
4C2
100
AcDbEntity
  8
0
100
AcDbLine
 62
253
  6
CONTINUOUS
 10
-55.4574918875
 20
-23.3919145028
 11
-55.4949822667
 21
-15.9175518704
  0
LINE
  5
4C3
100
AcDbEntity
  8
SUPERFICI
100
AcDbLine
 62
253
  6
CONTINUOUS
 10
-55.3223774186
 20
42.4452919307
 11
-55.3203888824
 21
42.1292588534
  0
LINE
  5
4C4
100
AcDbEntity
  8
SUPERFICI
100
AcDbLine
 62
253
  6
CONTINUOUS
 10
-55.2437328893
 20
38.2775883284
 11
-55.2413054793
 21
37.86738794
  0
LINE
  5
4C5
100
AcDbEntity
  8
SUPERFICI
100
AcDbLine
 62
253
  6
CONTINUOUS
 10
-53.9499355946
 20
-46.1466701655
 11
-53.9495834053
 21
-46.2279861985
  0
LINE
  5
4C6
100
AcDbEntity
  8
0
100
AcDbLine
 62
253
  6
CONTINUOUS
 10
-55.4949822667
 20
-15.9175518704
 11
-55.5085470048
 21
-12.5395361856
  0
LWPOLYLINE
  5
4C7
100
AcDbEntity
  8
SUPERFICI
100
AcDbPolyline
 62
253
  6
CONTINUOUS
 90
10
 70
0
 10
-55.294903578
 20
45.3891278764
 10
-55.2947707575
 20
45.3533480279
 10
-55.2944459247
 20
45.3175737005
 10
-55.2938758865
 20
45.2813590305
 10
-55.293099411
 20
45.2435851197
 10
-55.2919020713
 20
45.2043474804
 10
-55.289831551
 20
45.1650510902
 10
-55.2866523907
 20
45.1258577432
 10
-55.2823502515
 20
45.0855782402
 10
-55.2767858194
 20
45.043632734
  0
LINE
  5
4C8
100
AcDbEntity
  8
0
100
AcDbLine
 62
253
  6
CONTINUOUS
 10
-55.5085470048
 20
-12.5395361856
 11
-55.5186703978
 21
-9.3670043673
  0
LINE
  5
4C9
100
AcDbEntity
  8
SUPERFICI
100
AcDbLine
 62
253
  6
CONTINUOUS
 10
-55.2411466976
 20
-37.6557799657
 11
-55.2428371915
 21
-37.2647541929
  0
LINE
  5
4CA
100
AcDbEntity
  8
0
100
AcDbLine
 62
253
  6
CONTINUOUS
 10
-55.5186703978
 20
-9.3670043673
 11
-55.5257190921
 21
-6.3889091627
  0
LINE
  5
4CB
100
AcDbEntity
  8
SUPERFICI
100
AcDbLine
 62
253
  6
CONTINUOUS
 10
-55.3215776692
 20
-42.8820553628
 11
-55.3226022241
 21
-42.5879077098
  0
LINE
  5
4CC
100
AcDbEntity
  8
0
100
AcDbLine
 62
253
  6
CONTINUOUS
 10
-55.5257190921
 20
-6.3889091627
 11
-55.5311132289
 21
-2.3441941722
  0
LINE
  5
4CD
100
AcDbEntity
  8
SUPERFICI
100
AcDbLine
 62
253
  6
CONTINUOUS
 10
-53.9493197974
 20
23.4497569448
 11
-53.9499359769
 21
46.0301193266
  0
LINE
  5
4CE
100
AcDbEntity
  8
0
100
AcDbLine
 62
253
  6
CONTINUOUS
 10
-53.9493197322
 20
-23.4390182058
 11
-53.949735832
 21
-5.2083053009
  0
LINE
  5
4CF
100
AcDbEntity
  8
0
100
AcDbLine
 62
253
  6
CONTINUOUS
 10
-53.949735832
 20
-5.2083053009
 11
-53.9493197974
 21
23.4497569448
  0
LINE
  5
4D0
100
AcDbEntity
  8
0
100
AcDbLine
 62
253
  6
CONTINUOUS
 10
-53.9546903666
 20
-46.381975244
 11
-53.9546947514
 21
-47.3498579865
  0
LINE
  5
4D1
100
AcDbEntity
  8
SUPERFICI
100
AcDbLine
 62
253
  6
CONTINUOUS
 10
-53.9493197322
 20
-23.4390182058
 11
-53.9499355946
 21
-46.1466701655
  0
LINE
  5
4D2
100
AcDbEntity
  8
0
100
AcDbLine
 62
253
  6
CONTINUOUS
 10
-55.531113229
 20
2.3549328338
 11
-55.5311132289
 21
-2.3441941722
  0
LINE
  5
4D3
100
AcDbEntity
  8
0
100
AcDbLine
 62
253
  6
CONTINUOUS
 10
-55.5257190921
 20
6.3996479188
 11
-55.531113229
 21
2.3549328338
  0
LINE
  5
4D4
100
AcDbEntity
  8
SUPERFICI
100
AcDbLine
 62
253
  6
CONTINUOUS
 10
-55.3223116176
 20
42.7485206667
 11
-55.3223774186
 21
42.4452919307
  0
LINE
  5
4D5
100
AcDbEntity
  8
0
100
AcDbLine
 62
253
  6
CONTINUOUS
 10
-53.9499318327
 20
46.3931295278
 11
-53.9499359769
 21
47.3610130764
  0
LINE
  5
4D6
100
AcDbEntity
  8
SUPERFICI
100
AcDbLine
 62
253
  6
CONTINUOUS
 10
-55.2413054793
 20
37.86738794
 11
-55.2416574837
 21
37.4689565873
  0
LINE
  5
4D7
100
AcDbEntity
  8
0
100
AcDbLine
 62
253
  6
CONTINUOUS
 10
-55.51400281
 20
10.9379454034
 11
-55.5257190921
 21
6.3996479188
  0
LWPOLYLINE
  5
4D8
100
AcDbEntity
  8
SUPERFICI
100
AcDbPolyline
 62
253
  6
CONTINUOUS
 90
10
 70
0
 10
-55.294903578
 20
-45.3783891338
 10
-55.2947707575
 20
-45.3426092853
 10
-55.2944459247
 20
-45.3068349579
 10
-55.2938758865
 20
-45.2706202879
 10
-55.293099411
 20
-45.2328463771
 10
-55.2919020713
 20
-45.1936087378
 10
-55.289831551
 20
-45.1543123476
 10
-55.2866523907
 20
-45.1151190005
 10
-55.2823502515
 20
-45.0748394976
 10
-55.2767858194
 20
-45.0328939914
  0
LINE
  5
4D9
100
AcDbEntity
  8
0
100
AcDbLine
 62
253
  6
CONTINUOUS
 10
-55.4949822667
 20
15.9282906131
 11
-55.51400281
 21
10.9379454034
  0
LINE
  5
4DA
100
AcDbEntity
  8
SUPERFICI
100
AcDbLine
 62
253
  6
CONTINUOUS
 10
-55.2421755269
 20
-38.060538405
 11
-55.2411466976
 21
-37.6557799657
  0
LWPOLYLINE
  5
4DB
100
AcDbEntity
  8
SUPERFICI
100
AcDbPolyline
 62
253
  6
CONTINUOUS
 90
7
 70
0
 10
-53.9451770967
 20
46.0305345561
 10
-53.9450009966
 20
46.1988370842
 10
-53.9448248957
 20
46.239140354
 10
-53.9451770986
 20
46.2787244438
 10
-53.9462337063
 20
46.3175838905
 10
-53.9478186177
 20
46.3557196038
 10
-53.9499318327
 20
46.3931295278
  0
LINE
  5
4DC
100
AcDbEntity
  8
SUPERFICI
100
AcDbLine
 62
253
  6
CONTINUOUS
 10
-55.3226022241
 20
-42.5879077098
 11
-55.3216289923
 21
-42.2783747478
  0
LINE
  5
4DD
100
AcDbEntity
  8
0
100
AcDbLine
 62
253
  6
CONTINUOUS
 10
-55.4574918875
 20
23.4026532454
 11
-55.4949822667
 21
15.9282906131
  0
LINE
  5
4DE
100
AcDbEntity
  8
SUPERFICI
100
AcDbLine
 62
253
  6
CONTINUOUS
 10
-55.4476312481
 20
24.8010069262
 11
-55.4573959673
 21
23.4027460435
  0
LINE
  5
4DF
100
AcDbEntity
  8
SUPERFICI
100
AcDbLine
 62
253
  6
CONTINUOUS
 10
-55.3203702278
 20
43.0325718188
 11
-55.3223116176
 21
42.7485206667
  0
LWPOLYLINE
  5
4E0
100
AcDbEntity
  8
SUPERFICI
100
AcDbPolyline
 62
253
  6
CONTINUOUS
 90
5
 70
0
 10
-53.9495834053
 20
-46.2279861985
 10
-53.9499356143
 20
-46.2675702553
 10
-53.9509922281
 20
-46.3064296696
 10
-53.9525771455
 20
-46.3445653512
 10
-53.9546903666
 20
-46.381975244
  0
LINE
  5
4E1
100
AcDbEntity
  8
SUPERFICI
100
AcDbLine
 62
253
  6
CONTINUOUS
 10
-55.2416574837
 20
37.4689565873
 11
-55.2447281404
 21
37.086172618
  0
LINE
  5
4E2
100
AcDbEntity
  8
SUPERFICI
100
AcDbLine
 62
253
  6
CONTINUOUS
 10
-55.2458766454
 20
-38.4743967726
 11
-55.2421755269
 21
-38.060538405
  0
LINE
  5
4E3
100
AcDbEntity
  8
SUPERFICI
100
AcDbLine
 62
253
  6
CONTINUOUS
 10
-55.3216289923
 20
-42.2783747478
 11
-55.3186532569
 21
-41.9550447473
  0
LINE
  5
4E4
100
AcDbEntity
  8
SUPERFICI
100
AcDbLine
 62
253
  6
CONTINUOUS
 10
-55.4266652523
 20
26.9126555985
 11
-55.4476312481
 21
24.8010069262
  0
LINE
  5
4E5
100
AcDbEntity
  8
0
100
AcDbLine
 62
253
  6
CONTINUOUS
 10
-55.3060289657
 20
-46.3446305006
 11
-55.2947833853
 21
-45.3783782808
  0
LINE
  5
4E6
100
AcDbEntity
  8
SUPERFICI
100
AcDbLine
 62
253
  6
CONTINUOUS
 10
-55.3910859817
 20
29.6551694395
 11
-55.4266652523
 21
26.9126555985
  0
LINE
  5
4E7
100
AcDbEntity
  8
SUPERFICI
100
AcDbLine
 62
253
  6
CONTINUOUS
 10
-55.3168099884
 20
43.2928269045
 11
-55.3203702278
 21
43.0325718188
  0
LINE
  5
4E8
100
AcDbEntity
  8
SUPERFICI
100
AcDbLine
 62
253
  6
CONTINUOUS
 10
-55.3186532569
 20
-41.9550447473
 11
-55.3137246243
 21
-41.6170133368
  0
LINE
  5
4E9
100
AcDbEntity
  8
SUPERFICI
100
AcDbLine
 62
253
  6
CONTINUOUS
 10
-55.2519932737
 20
-38.8917799445
 11
-55.2458766454
 21
-38.4743967726
  0
LINE
  5
4EA
100
AcDbEntity
  8
SUPERFICI
100
AcDbLine
 62
253
  6
CONTINUOUS
 10
-55.3593564148
 20
31.69732491
 11
-55.3910859817
 21
29.6551694395
  0
LINE
  5
4EB
100
AcDbEntity
  8
SUPERFICI
100
AcDbLine
 62
253
  6
CONTINUOUS
 10
-55.2447281404
 20
37.086172618
 11
-55.2502980672
 21
36.7242453807
  0
LINE
  5
4EC
100
AcDbEntity
  8
SUPERFICI
100
AcDbLine
 62
253
  6
CONTINUOUS
 10
-55.3213699665
 20
33.766955439
 11
-55.3593564148
 21
31.69732491
  0
LINE
  5
4ED
100
AcDbEntity
  8
SUPERFICI
100
AcDbLine
 62
253
  6
CONTINUOUS
 10
-55.3124150066
 20
43.5148614668
 11
-55.3168099884
 21
43.2928269045
  0
LINE
  5
4EE
100
AcDbEntity
  8
SUPERFICI
100
AcDbLine
 62
253
  6
CONTINUOUS
 10
-55.3137246243
 20
-41.6170133368
 11
-55.3029453502
 21
-41.077890886
  0
LINE
  5
4EF
100
AcDbEntity
  8
SUPERFICI
100
AcDbLine
 62
253
  6
CONTINUOUS
 10
-55.2644978988
 20
-39.5120439334
 11
-55.2519932737
 21
-38.8917799445
  0
LWPOLYLINE
  5
4F0
100
AcDbEntity
  8
SUPERFICI
100
AcDbPolyline
 62
253
  6
CONTINUOUS
 90
3
 70
0
 10
-55.2741164459
 20
35.8365793166
 10
-55.290860561
 20
35.149450748
 10
-55.3213699665
 20
33.766955439
  0
LINE
  5
4F1
100
AcDbEntity
  8
SUPERFICI
100
AcDbLine
 62
253
  6
CONTINUOUS
 10
-55.2502980672
 20
36.7242453807
 11
-55.2579777921
 21
36.3917260247
  0
LINE
  5
4F2
100
AcDbEntity
  8
SUPERFICI
100
AcDbLine
 62
253
  6
CONTINUOUS
 10
-55.3029453502
 20
-41.077890886
 11
-55.2644978988
 21
-39.5120439334
  0
LWPOLYLINE
  5
4F3
100
AcDbEntity
  8
SUPERFICI
100
AcDbPolyline
 62
253
  6
CONTINUOUS
 90
3
 70
0
 10
-55.304925648
 20
43.8027558158
 10
-55.3075093725
 20
43.7120493053
 10
-55.3124150066
 20
43.5148614668
  0
LWPOLYLINE
  5
4F4
100
AcDbEntity
  8
SUPERFICI
100
AcDbPolyline
 62
253
  6
CONTINUOUS
 90
3
 70
0
 10
-55.2579777921
 20
36.3917260247
 10
-55.270087734
 20
35.9606659622
 10
-55.2741164459
 20
35.8365793166
  0
LINE
  5
4F5
100
AcDbEntity
  8
0
100
AcDbLine
 62
7
  6
CONTINUOUS
 10
-48.8499359769
 20
12.0553693713
 11
-49.5499359769
 21
12.0542781534
  0
LINE
  5
4F6
100
AcDbEntity
  8
0
100
AcDbLine
 62
7
  6
CONTINUOUS
 10
-48.8499359769
 20
12.4883820732
 11
-49.5499359769
 21
12.4872908552
  0
LINE
  5
4F7
100
AcDbEntity
  8
0
100
AcDbLine
 62
253
  6
CONTINUOUS
 10
-48.8499359769
 20
12.7155916234
 11
-49.5499359769
 21
12.7144115212
  0
LINE
  5
4F8
100
AcDbEntity
  8
0
100
AcDbLine
 62
7
  6
CONTINUOUS
 10
-48.8499359769
 20
12.560811921
 11
-49.5499359769
 21
12.5606383092
  0
LINE
  5
4F9
100
AcDbEntity
  8
0
100
AcDbLine
 62
7
  6
CONTINUOUS
 10
-48.8499359769
 20
13.4499268216
 11
-49.5499359769
 21
13.4501004334
  0
LINE
  5
4FA
100
AcDbEntity
  8
0
100
AcDbLine
 62
253
  6
CONTINUOUS
 10
-48.8499359769
 20
13.2951471192
 11
-49.5499359769
 21
13.2963272214
  0
LINE
  5
4FB
100
AcDbEntity
  8
0
100
AcDbLine
 62
7
  6
CONTINUOUS
 10
-48.8499359769
 20
13.7553693713
 11
-49.5499359769
 21
13.7570562481
  0
LINE
  5
4FC
100
AcDbEntity
  8
RACCORDO
100
AcDbLine
 62
7
  6
CONTINUOUS
 10
-57.97483771
 20
24.2830282025
 11
-57.9678402002
 21
24.2250760351
  0
LINE
  5
4FD
100
AcDbEntity
  8
0
100
AcDbLine
 62
7
  6
CONTINUOUS
 10
-52.2999359769
 20
47.5053693714
 11
-52.2999359769
 21
-47.4946306199
  0
LINE
  5
4FE
100
AcDbEntity
  8
DRAFT
100
AcDbLine
 62
7
  6
CONTINUOUS
 10
-51.9499359769
 20
-46.968426739
 11
-51.9499359769
 21
46.9791654817
  0
LINE
  5
4FF
100
AcDbEntity
  8
DRAFT
100
AcDbLine
 62
7
  6
CONTINUOUS
 10
-51.4499359769
 20
-47.468426739
 11
-51.4499359769
 21
47.4791654817
  0
LINE
  5
500
100
AcDbEntity
  8
RACCORDO
100
AcDbLine
 62
253
  6
CONTINUOUS
 10
-50.0237679988
 20
47.4044231851
 11
-50.0237679988
 21
3.7568412649
  0
LINE
  5
501
100
AcDbEntity
  8
RACCORDO
100
AcDbLine
 62
253
  6
CONTINUOUS
 10
-50.0237679988
 20
-3.7461025223
 11
-50.0237679988
 21
-47.3936844424
  0
LWPOLYLINE
  5
502
100
AcDbEntity
  8
RACCORDO
100
AcDbPolyline
 62
253
  6
CONTINUOUS
 90
17
 70
0
 10
-57.9710848322
 20
-24.4752908108
 10
-57.9718339977
 20
-24.4776618448
 10
-57.9733548039
 20
-24.4828758087
 10
-57.9747280232
 20
-24.4879955734
 10
-57.975962317
 20
-24.4930231433
 10
-57.9770648678
 20
-24.4979558127
 10
-57.9780428077
 20
-24.502791229
 10
-57.9789038174
 20
-24.5075323294
 10
-57.9796543568
 20
-24.5121768532
 10
-57.9803008652
 20
-24.5167230954
 10
-57.9808501015
 20
-24.5211751621
 10
-57.9813078426
 20
-24.5255314012
 10
-57.9816797932
 20
-24.5297904018
 10
-57.9819717339
 20
-24.5339569075
 10
-57.9821887746
 20
-24.5380296443
 10
-57.9823359507
 20
-24.5420075509
 10
-57.982418112
 20
-24.5458959088
  0
LWPOLYLINE
  5
503
100
AcDbEntity
  8
RACCORDO
100
AcDbPolyline
 62
253
  6
CONTINUOUS
 90
12
 70
0
 10
-58.1911501467
 20
-24.5131858228
 10
-58.1958645156
 20
-24.5253038889
 10
-58.1989628735
 20
-24.537932697
 10
-58.2003927083
 20
-24.5508582095
 10
-58.2001297867
 20
-24.5638613601
 10
-58.1981785646
 20
-24.576721767
 10
-58.1945721122
 20
-24.5892214673
 10
-58.1893715528
 20
-24.6011486118
 10
-58.1826650274
 20
-24.6123010549
 10
-58.1745662005
 20
-24.6224897811
 10
-58.1652123338
 20
-24.6315421083
 10
-58.1547619601
 20
-24.6393046143
  0
LINE
  5
504
100
AcDbEntity
  8
0
100
AcDbLine
 62
7
  6
CONTINUOUS
 10
-49.0394687857
 20
14.2653023649
 11
-49.5499359769
 21
14.2920548168
  0
LWPOLYLINE
  5
505
100
AcDbEntity
  8
RACCORDO
100
AcDbPolyline
 62
253
  6
CONTINUOUS
 90
12
 70
0
 10
-58.1911501469
 20
24.5239245653
 10
-58.1958656436
 20
24.5360430243
 10
-58.1989649929
 20
24.5486723836
 10
-58.2003956604
 20
24.561598574
 10
-58.2001333962
 20
24.5746024948
 10
-58.1981826456
 20
24.587463728
 10
-58.1945764742
 20
24.5999642738
 10
-58.189376007
 20
24.6118922466
 10
-58.1826693925
 20
24.6230454655
 10
-58.1745703089
 20
24.6332348822
 10
-58.1652160365
 20
24.6422877846
 10
-58.1547651316
 20
24.6500507249
  0
LWPOLYLINE
  5
506
100
AcDbEntity
  8
RACCORDO
100
AcDbPolyline
 62
7
  6
CONTINUOUS
 90
10
 70
0
 10
-58.1684197987
 20
25.3664929762
 10
-58.1669677244
 20
25.3612604553
 10
-58.1657744526
 20
25.3525097854
 10
-58.1648399832
 20
25.3402388716
 10
-58.1641647361
 20
25.3244277838
 10
-58.1637482915
 20
25.3051061103
 10
-58.1635893896
 20
25.2824037981
 10
-58.1636876103
 20
25.2564365075
 10
-58.1640433738
 20
25.2272545671
 10
-58.1653379753
 20
25.1568265406
  0
LWPOLYLINE
  5
507
100
AcDbEntity
  8
RACCORDO
100
AcDbPolyline
 62
253
  6
CONTINUOUS
 90
19
 70
0
 10
-49.5499359769
 20
45.5754285404
 10
-49.5517139725
 20
45.6174451526
 10
-49.5570353142
 20
45.6591629434
 10
-49.5658621566
 20
45.7002852166
 10
-49.5781317236
 20
45.7405195114
 10
-49.593756754
 20
45.7795796821
 10
-49.6126261231
 20
45.8171879336
 10
-49.6346056322
 20
45.8530767967
 10
-49.6595389635
 20
45.8869910303
 10
-49.6872487915
 20
45.918689437
 10
-49.7175380444
 20
45.9479465782
 10
-49.7501913055
 20
45.9745543776
 10
-49.7849763455
 20
45.998323601
 10
-49.8216457735
 20
46.0190852022
 10
-49.8599387973
 20
46.0366915249
 10
-49.8995830777
 20
46.0510173535
 10
-49.9402966652
 20
46.0619608028
 10
-49.9817900056
 20
46.0694440432
 10
-50.0237679988
 20
46.0734138542
  0
LINE
  5
508
100
AcDbEntity
  8
RACCORDO
100
AcDbLine
 62
7
  6
CONTINUOUS
 10
-49.5499359769
 20
46.9051084177
 11
-49.5499359769
 21
3.8403906347
  0
LINE
  5
509
100
AcDbEntity
  8
RACCORDO
100
AcDbLine
 62
7
  6
CONTINUOUS
 10
-49.5499359769
 20
-3.829651892
 11
-49.5499359769
 21
-46.8943696751
  0
LINE
  5
50A
100
AcDbEntity
  8
0
100
AcDbLine
 62
253
  6
CONTINUOUS
 10
-49.0499359769
 20
8.2454363777
 11
-49.0499359769
 21
8.1448878155
  0
LINE
  5
50B
100
AcDbEntity
  8
0
100
AcDbLine
 62
253
  6
CONTINUOUS
 10
-49.0394687857
 20
25.796995788
 11
-49.0394687857
 21
25.2056434644
  0
LINE
  5
50C
100
AcDbEntity
  8
0
100
AcDbLine
 62
253
  6
CONTINUOUS
 10
-49.0394687857
 20
-25.1949047217
 11
-49.0394687857
 21
-25.7862570454
  0
LINE
  5
50D
100
AcDbEntity
  8
0
100
AcDbLine
 62
7
  6
CONTINUOUS
 10
-48.8499359769
 20
-25.3946306287
 11
-48.8499359769
 21
-27.1446306287
  0
LINE
  5
50E
100
AcDbEntity
  8
0
100
AcDbLine
 62
7
  6
CONTINUOUS
 10
-48.8499359769
 20
-14.0548377153
 11
-48.8499359769
 21
-8.434423542
  0
LINE
  5
50F
100
AcDbEntity
  8
0
100
AcDbLine
 62
7
  6
CONTINUOUS
 10
-48.8499359769
 20
8.3451622847
 11
-48.8499359769
 21
14.065576458
  0
LINE
  5
510
100
AcDbEntity
  8
0
100
AcDbLine
 62
7
  6
CONTINUOUS
 10
-48.8499359769
 20
25.4053693713
 11
-48.8499359769
 21
27.1553693713
  0
LWPOLYLINE
  5
511
100
AcDbEntity
  8
RACCORDO
100
AcDbPolyline
 62
253
  6
CONTINUOUS
 90
19
 70
0
 10
-49.5499359769
 20
-45.5646897978
 10
-49.5517139725
 20
-45.6067064101
 10
-49.5570353142
 20
-45.6484242011
 10
-49.5658621567
 20
-45.6895464744
 10
-49.5781317237
 20
-45.7297807693
 10
-49.5937567542
 20
-45.76884094
 10
-49.6126261234
 20
-45.8064491915
 10
-49.6346056324
 20
-45.8423380544
 10
-49.6595389636
 20
-45.8762522878
 10
-49.6872487914
 20
-45.9079506943
 10
-49.7175380441
 20
-45.9372078353
 10
-49.7501913051
 20
-45.9638156346
 10
-49.7849763448
 20
-45.987584858
 10
-49.8216457728
 20
-46.0083464592
 10
-49.8599387967
 20
-46.025952782
 10
-49.8995830772
 20
-46.0402786107
 10
-49.9402966648
 20
-46.0512220601
 10
-49.9817900053
 20
-46.0587053006
 10
-50.0237679988
 20
-46.0626751115
  0
LINE
  5
512
100
AcDbEntity
  8
RACCORDO
100
AcDbLine
 62
253
  6
CONTINUOUS
 10
-58.1057520482
 20
-24.6552044027
 11
-57.9768059311
 21
-24.3583360019
  0
LWPOLYLINE
  5
513
100
AcDbEntity
  8
RACCORDO
100
AcDbPolyline
 62
7
  6
CONTINUOUS
 90
13
 70
0
 10
-58.060032161
 20
-24.660912187
 10
-58.0790015654
 20
-24.7037803992
 10
-58.0960605314
 20
-24.7476918937
 10
-58.1112090592
 20
-24.7924300059
 10
-58.1244467619
 20
-24.8377444789
 10
-58.1357740263
 20
-24.8833865817
 10
-58.1451920129
 20
-24.9291039908
 10
-58.1525881728
 20
-24.9746727386
 10
-58.1580750548
 20
-25.019654763
 10
-58.1619914657
 20
-25.0634728408
 10
-58.1644503412
 20
-25.1057136737
 10
-58.1653387456
 20
-25.1460864206
 10
-58.1640433562
 20
-25.216523313
  0
LINE
  5
514
100
AcDbEntity
  8
RACCORDO
100
AcDbLine
 62
253
  6
CONTINUOUS
 10
-58.164656679
 20
-25.1842067914
 11
-57.945564017
 21
-24.6948909451
  0
LWPOLYLINE
  5
515
100
AcDbEntity
  8
RACCORDO
100
AcDbPolyline
 62
7
  6
CONTINUOUS
 90
3
 70
0
 10
-58.1684197987
 20
-25.3557542336
 10
-58.4101042209
 20
-25.8880026563
 10
-58.4131782677
 20
-25.8946306287
  0
LINE
  5
516
100
AcDbEntity
  8
0
100
AcDbLine
 62
7
  6
CONTINUOUS
 10
-58.3374437456
 20
-24.8269313154
 11
-58.1460505219
 21
-24.4164638596
  0
LINE
  5
517
100
AcDbEntity
  8
RACCORDO
100
AcDbLine
 62
7
  6
CONTINUOUS
 10
-58.4285266526
 20
-25.0222703583
 11
-57.9903019387
 21
-24.0824409329
  0
LINE
  5
518
100
AcDbEntity
  8
RACCORDO
100
AcDbLine
 62
253
  6
CONTINUOUS
 10
-58.3431285482
 20
-25.1643931621
 11
-58.1057520441
 21
-24.6552044029
  0
LINE
  5
519
100
AcDbEntity
  8
RACCORDO
100
AcDbLine
 62
7
  6
CONTINUOUS
 10
-58.060032161
 20
-24.660912187
 11
-57.9713122889
 21
-24.4706409774
  0
LINE
  5
51A
100
AcDbEntity
  8
RACCORDO
100
AcDbLine
 62
7
  6
CONTINUOUS
 10
-57.9908397246
 20
24.0943330267
 11
-58.4285266526
 21
25.0330091009
  0
LINE
  5
51B
100
AcDbEntity
  8
RACCORDO
100
AcDbLine
 62
7
  6
CONTINUOUS
 10
-57.9864234635
 20
24.513787583
 11
-58.0600321449
 21
24.6716508951
  0
LINE
  5
51C
100
AcDbEntity
  8
RACCORDO
100
AcDbLine
 62
253
  6
CONTINUOUS
 10
-58.105752044
 20
24.6659431453
 11
-58.3431285482
 21
25.1751319047
  0
LINE
  5
51D
100
AcDbEntity
  8
RACCORDO
100
AcDbLine
 62
7
  6
CONTINUOUS
 10
-58.4131782677
 20
25.9053693713
 11
-58.4101042264
 21
25.8987414114
  0
LINE
  5
51E
100
AcDbEntity
  8
ASSI
100
AcDbLine
 62
253
  6
CONTINUOUS
 10
-57.9678402361
 20
24.225076037
 11
-57.9829361863
 21
24.2581478076
  0
LINE
  5
51F
100
AcDbEntity
  8
RACCORDO
100
AcDbLine
 62
7
  6
CONTINUOUS
 10
-58.4101042264
 20
25.8987414114
 11
-58.1684197987
 21
25.3664929762
  0
LINE
  5
520
100
AcDbEntity
  8
RACCORDO
100
AcDbLine
 62
253
  6
CONTINUOUS
 10
-57.9429748167
 20
24.6997118285
 11
-58.1646566798
 21
25.1949454965
  0
LINE
  5
521
100
AcDbEntity
  8
RACCORDO
100
AcDbLine
 62
253
  6
CONTINUOUS
 10
-57.9856964839
 20
24.3895127963
 11
-58.105752048
 21
24.6659431451
  0
LWPOLYLINE
  5
522
100
AcDbEntity
  8
SUPERFICI
100
AcDbPolyline
 62
253
  6
CONTINUOUS
 90
12
 70
0
 10
-55.2767858194
 20
-45.0328939914
 10
-55.2741875439
 20
-45.02236484
 10
-55.2720505892
 20
-45.0069801616
 10
-55.2703688247
 20
-44.9865403299
 10
-55.2690866559
 20
-44.960727159
 10
-55.2682401611
 20
-44.929368241
 10
-55.2679621621
 20
-44.8925431579
 10
-55.2683246343
 20
-44.8497659342
 10
-55.269235412
 20
-44.8011344631
 10
-55.2705891878
 20
-44.747778135
 10
-55.2724164812
 20
-44.6894046645
 10
-55.2943146406
 20
-44.1144923239
  0
LINE
  5
523
100
AcDbEntity
  8
DRAFT
100
AcDbLine
 62
7
  6
CONTINUOUS
 10
-58.1641099815
 20
25.1845138702
 11
-58.34312854
 21
25.1751319051
  0
LINE
  5
524
100
AcDbEntity
  8
RACCORDO
100
AcDbLine
 62
253
  6
CONTINUOUS
 10
-58.059859112
 20
24.6683457816
 11
-58.105752044
 21
24.6659431453
  0
LWPOLYLINE
  5
525
100
AcDbEntity
  8
SUPERFICI
100
AcDbPolyline
 62
253
  6
CONTINUOUS
 90
8
 70
0
 10
-54.4052763196
 20
23.4460492711
 10
-54.6161060271
 20
23.4427925082
 10
-54.8118105503
 20
23.4385398506
 10
-54.9889163954
 20
23.4332707456
 10
-55.1436376302
 20
23.4270197242
 10
-55.2738911513
 20
23.4198220849
 10
-55.3788103965
 20
23.4116836662
 10
-55.457462314
 20
23.40263291
  0
LINE
  5
526
100
AcDbEntity
  8
SUPERFICI
100
AcDbLine
 62
253
  6
CONTINUOUS
 10
-53.9499359769
 20
23.4497544195
 11
-54.4052763196
 21
23.4460492711
  0
LWPOLYLINE
  5
527
100
AcDbEntity
  8
SUPERFICI
100
AcDbPolyline
 62
253
  6
CONTINUOUS
 90
10
 70
0
 10
-55.2767858194
 20
45.043632734
 10
-55.2741875439
 20
45.0331035826
 10
-55.2720505892
 20
45.0177189042
 10
-55.2703688247
 20
44.9972790725
 10
-55.2690866559
 20
44.9714659016
 10
-55.2682401611
 20
44.9401069836
 10
-55.2679621621
 20
44.9032819006
 10
-55.2683246343
 20
44.8605046768
 10
-55.269235412
 20
44.8118732057
 10
-55.2705891878
 20
44.7585168777
  0
LINE
  5
528
100
AcDbEntity
  8
0
100
AcDbLine
 62
7
  6
CONTINUOUS
 10
-49.0394687857
 20
25.796995788
 11
-49.5499359769
 21
25.7744432835
  0
LINE
  5
529
100
AcDbEntity
  8
0
100
AcDbLine
 62
7
  6
CONTINUOUS
 10
-49.3999359769
 20
25.0553693713
 11
-49.1999359769
 21
25.0553693713
  0
LINE
  5
52A
100
AcDbEntity
  8
0
100
AcDbLine
 62
7
  6
CONTINUOUS
 10
-49.0499359769
 20
25.2053693713
 11
-49.5499359769
 21
25.2053693713
  0
LINE
  5
52B
100
AcDbEntity
  8
0
100
AcDbLine
 62
253
  6
CONTINUOUS
 10
-48.8499359769
 20
26.9330150848
 11
-49.5499359769
 21
26.9333312923
  0
LINE
  5
52C
100
AcDbEntity
  8
0
100
AcDbLine
 62
7
  6
CONTINUOUS
 10
-48.8499359769
 20
27.1553693713
 11
-49.5499359769
 21
27.156591103
  0
LINE
  5
52D
100
AcDbEntity
  8
0
100
AcDbLine
 62
7
  6
CONTINUOUS
 10
-48.8499359769
 20
26.3553693713
 11
-49.5499359769
 21
26.3594418522
  0
LWPOLYLINE
  5
52E
100
AcDbEntity
  8
RACCORDO
100
AcDbPolyline
 62
253
  6
CONTINUOUS
 90
10
 70
0
 10
-55.4573959673
 20
23.4027460435
 10
-55.955217794
 20
23.5374580012
 10
-56.4021988006
 20
23.6657049742
 10
-56.7916161536
 20
23.7890339694
 10
-57.1175230774
 20
23.9062942811
 10
-57.3839070675
 20
24.0177617331
 10
-57.5998231835
 20
24.1269715614
 10
-57.7672350587
 20
24.236309255
 10
-57.8850201677
 20
24.3444952622
 10
-57.9557687828
 20
24.4480823916
  0
LINE
  5
52F
100
AcDbEntity
  8
0
100
AcDbLine
 62
7
  6
CONTINUOUS
 10
-49.5499359769
 20
-25.1946306287
 11
-49.3999359769
 21
-25.0446306287
  0
LINE
  5
530
100
AcDbEntity
  8
0
100
AcDbLine
 62
7
  6
CONTINUOUS
 10
-49.5499359769
 20
25.2053693713
 11
-49.3999359769
 21
25.0553693713
  0
LWPOLYLINE
  5
531
100
AcDbEntity
  8
RACCORDO
100
AcDbPolyline
 62
253
  6
CONTINUOUS
 90
18
 70
0
 10
-49.5499359769
 20
-36.4132456334
 10
-49.5517139725
 20
-36.4163178655
 10
-49.5570353142
 20
-36.4193682479
 10
-49.5658621567
 20
-36.4223750865
 10
-49.5781317237
 20
-36.4253169965
 10
-49.5937567542
 20
-36.4281730552
 10
-49.6126261233
 20
-36.4309229503
 10
-49.6346056324
 20
-36.4335471247
 10
-49.6595389636
 20
-36.4360269152
 10
-49.6872487914
 20
-36.4383446856
 10
-49.7175380441
 20
-36.440483952
 10
-49.750191305
 20
-36.4424295
 10
-49.7849763448
 20
-36.4441674929
 10
-49.8216457728
 20
-36.44568557
 10
-49.8599387967
 20
-36.4469729349
 10
-49.8995830772
 20
-36.4480204317
 10
-49.9402966648
 20
-36.4488206109
 10
-49.9817900053
 20
-36.4493677814
  0
LWPOLYLINE
  5
532
100
AcDbEntity
  8
RACCORDO
100
AcDbPolyline
 62
253
  6
CONTINUOUS
 90
19
 70
0
 10
-49.5499359769
 20
36.423984376
 10
-49.5517139725
 20
36.4270566081
 10
-49.5570353142
 20
36.4301069906
 10
-49.5658621567
 20
36.4331138291
 10
-49.5781317237
 20
36.4360557391
 10
-49.5937567542
 20
36.4389117978
 10
-49.6126261234
 20
36.4416616929
 10
-49.6346056324
 20
36.4442858673
 10
-49.6595389636
 20
36.4467656578
 10
-49.6872487914
 20
36.4490834282
 10
-49.7175380441
 20
36.4512226947
 10
-49.7501913051
 20
36.4531682427
 10
-49.7849763448
 20
36.4549062355
 10
-49.8216457728
 20
36.4564243126
 10
-49.8599387967
 20
36.4577116775
 10
-49.8995830772
 20
36.4587591744
 10
-49.9402966648
 20
36.4595593535
 10
-49.9817900053
 20
36.460106524
 10
-51.4499359769
 20
36.4658473598
  0
LINE
  5
533
100
AcDbEntity
  8
0
100
AcDbLine
 62
253
  6
CONTINUOUS
 10
-52.2999359769
 20
36.4677582688
 11
-53.9499359769
 21
36.4572311181
  0
LINE
  5
534
100
AcDbEntity
  8
RACCORDO
100
AcDbLine
 62
253
  6
CONTINUOUS
 10
-51.9499359769
 20
36.2708613726
 11
-52.2999359769
 21
36.2694720422
  0
LINE
  5
535
100
AcDbEntity
  8
DRAFT
100
AcDbLine
 62
253
  6
CONTINUOUS
 10
-51.9499359769
 20
36.4293849709
 11
-51.4499359769
 21
36.4312958838
  0
LWPOLYLINE
  5
536
100
AcDbEntity
  8
SUPERFICI
100
AcDbPolyline
 62
253
  6
CONTINUOUS
 90
10
 70
0
 10
-53.9499359769
 20
46.3928181396
 10
-54.1686473549
 20
46.3614162616
 10
-54.3782879679
 20
46.3067870322
 10
-54.574841724
 20
46.2301627011
 10
-54.7551338785
 20
46.132436636
 10
-54.9152590627
 20
46.0149594361
 10
-55.0511195852
 20
45.8801344188
 10
-55.1604032951
 20
45.7300489442
 10
-55.2420015863
 20
45.5658813448
 10
-55.2948070674
 20
45.3891150794
  0
LWPOLYLINE
  5
537
100
AcDbEntity
  8
SUPERFICI
100
AcDbPolyline
 62
253
  6
CONTINUOUS
 90
10
 70
0
 10
-53.9499359769
 20
46.0301309215
 10
-54.1667798225
 20
46.0008411749
 10
-54.3745392602
 20
45.9472768903
 10
-54.5691753714
 20
45.871144095
 10
-54.7475281171
 20
45.7737533943
 10
-54.9056553029
 20
45.6568703587
 10
-55.0394086356
 20
45.5233401418
 10
-55.1465220523
 20
45.3756150299
 10
-55.2259886052
 20
45.215136863
 10
-55.2767942697
 20
45.0436268862
  0
LINE
  5
538
100
AcDbEntity
  8
0
100
AcDbLine
 62
253
  6
CONTINUOUS
 10
-52.2999359769
 20
46.1740912549
 11
-53.9451770967
 21
46.0305345561
  0
LINE
  5
539
100
AcDbEntity
  8
DRAFT
100
AcDbLine
 62
7
  6
CONTINUOUS
 10
-51.9499359769
 20
44.8053693713
 11
-52.2999359769
 21
44.7870266486
  0
LINE
  5
53A
100
AcDbEntity
  8
RACCORDO
100
AcDbLine
 62
253
  6
CONTINUOUS
 10
-51.9499359769
 20
43.4812801673
 11
-52.2999359769
 21
43.4629905859
  0
LINE
  5
53B
100
AcDbEntity
  8
DRAFT
100
AcDbLine
 62
253
  6
CONTINUOUS
 10
-51.9499359769
 20
45.6492884233
 11
-51.4499359769
 21
45.6754225436
  0
LINE
  5
53C
100
AcDbEntity
  8
SUPERFICI
100
AcDbLine
 62
7
  6
CONTINUOUS
 10
-52.2999359769
 20
47.5053693714
 11
-53.9499359769
 21
47.3610130764
  0
LINE
  5
53D
100
AcDbEntity
  8
DRAFT
100
AcDbLine
 62
7
  6
CONTINUOUS
 10
-51.4499359769
 20
47.0053693713
 11
-51.9499359769
 21
46.9791654817
  0
LINE
  5
53E
100
AcDbEntity
  8
RACCORDO
100
AcDbLine
 62
253
  6
CONTINUOUS
 10
-50.0237679988
 20
46.0734138542
 11
-51.4499359769
 21
46.1479571452
  0
LINE
  5
53F
100
AcDbEntity
  8
DRAFT
100
AcDbLine
 62
7
  6
CONTINUOUS
 10
-50.0237679988
 20
47.4044231851
 11
-51.4499359769
 21
47.4791654817
  0
ARC
  5
540
100
AcDbEntity
  8
0
100
AcDbCircle
 62
7
  6
CONTINUOUS
 10
-22.7775502619
 20
-35.6913093627
 40
10.5
100
AcDbArc
 50
184.1819940189
 51
265.8180057158
  0
ARC
  5
541
100
AcDbEntity
  8
0
100
AcDbCircle
 62
253
  6
CONTINUOUS
 10
-22.7775502619
 20
-35.6913093627
 40
10.3556437153
100
AcDbArc
 50
184.1819942287
 51
265.8180057361
  0
ARC
  5
542
100
AcDbEntity
  8
RACCORDO
100
AcDbCircle
 62
253
  6
CONTINUOUS
 10
-9.841437873
 20
-23.1745484836
 40
2.1744822834
100
AcDbArc
 50
208.9813998214
 51
267.382022322
  0
ARC
  5
543
100
AcDbEntity
  8
RACCORDO
100
AcDbCircle
 62
253
  6
CONTINUOUS
 10
-9.841437873
 20
-23.1745484836
 40
1.675167516
100
AcDbArc
 50
182.6662470766
 51
267.3820223219
  0
ARC
  5
544
100
AcDbEntity
  8
RACCORDO
100
AcDbCircle
 62
7
  6
CONTINUOUS
 10
-10.2140635254
 20
-23.7574786381
 40
1.6
100
AcDbArc
 50
182.7327994854
 51
267.3396656561
  0
ARC
  5
545
100
AcDbEntity
  8
0
100
AcDbCircle
 62
7
  6
CONTINUOUS
 10
-439.5808715332
 20
0.0053693718
 40
500.0000000078
100
AcDbArc
 50
355.8180057569
 51
4.1819942277
  0
ARC
  5
546
100
AcDbEntity
  8
RACCORDO
100
AcDbCircle
 62
7
  6
CONTINUOUS
 10
-461.7808715279
 20
0.0053693713
 40
500.0
100
AcDbArc
 50
2.6917046411
 51
2.7327994854
  0
ARC
  5
547
100
AcDbEntity
  8
ASSI
100
AcDbCircle
 62
7
  6
CONTINUOUS
 10
-461.7808715279
 20
0.0053693713
 40
500.0
100
AcDbArc
 50
357.3068898348
 51
2.6917046411
  0
ARC
  5
548
100
AcDbEntity
  8
RACCORDO
100
AcDbCircle
 62
7
  6
CONTINUOUS
 10
-461.7808715279
 20
0.0053693713
 40
500.0
100
AcDbArc
 50
357.2672005146
 51
357.3068898348
  0
ARC
  5
549
100
AcDbEntity
  8
RACCORDO
100
AcDbCircle
 62
253
  6
CONTINUOUS
 10
-462.0808715279
 20
0.0053693713
 40
499.975167516
100
AcDbArc
 50
357.3337529234
 51
2.6662470766
  0
ARC
  5
54A
100
AcDbEntity
  8
0
100
AcDbCircle
 62
253
  6
CONTINUOUS
 10
-439.5808714984
 20
0.0053693695
 40
499.8556442182
100
AcDbArc
 50
357.3117092643
 51
2.6882907357
  0
ARC
  5
54B
100
AcDbEntity
  8
SUPERFICI
100
AcDbCircle
 62
253
  6
CONTINUOUS
 10
-439.5808714984
 20
0.0053693695
 40
499.8556436754
100
AcDbArc
 50
2.6882907357
 51
4.1819942287
  0
ARC
  5
54C
100
AcDbEntity
  8
SUPERFICI
100
AcDbCircle
 62
253
  6
CONTINUOUS
 10
-439.5808714984
 20
0.0053693695
 40
499.8556436754
100
AcDbArc
 50
355.8180057713
 51
357.3117092643
  0
ARC
  5
54D
100
AcDbEntity
  8
0
100
AcDbCircle
 62
7
  6
CONTINUOUS
 10
-22.7775502619
 20
35.7020481053
 40
10.5
100
AcDbArc
 50
94.1819943459
 51
175.8180059998
  0
ARC
  5
54E
100
AcDbEntity
  8
SUPERFICI
100
AcDbCircle
 62
253
  6
CONTINUOUS
 10
-22.7775502619
 20
35.7020481053
 40
10.3556437153
100
AcDbArc
 50
94.1819942639
 51
175.8180057713
  0
ARC
  5
54F
100
AcDbEntity
  8
RACCORDO
100
AcDbCircle
 62
253
  6
CONTINUOUS
 10
-9.841437873
 20
23.1852872262
 40
2.1744822834
100
AcDbArc
 50
92.6179776781
 51
151.0186278338
  0
ARC
  5
550
100
AcDbEntity
  8
RACCORDO
100
AcDbCircle
 62
253
  6
CONTINUOUS
 10
-9.841437873
 20
23.1852872262
 40
1.675167516
100
AcDbArc
 50
92.6179776781
 51
177.3337529234
  0
ARC
  5
551
100
AcDbEntity
  8
RACCORDO
100
AcDbCircle
 62
7
  6
CONTINUOUS
 10
-10.2140635254
 20
23.7682173807
 40
1.6
100
AcDbArc
 50
92.6603343439
 51
177.2672005146
  0
ARC
  5
552
100
AcDbEntity
  8
RACCORDO
100
AcDbCircle
 62
253
  6
CONTINUOUS
 10
12.9191284721
 20
-474.5946306287
 40
500.4744822834
100
AcDbArc
 50
87.3820223219
 51
92.6179776781
  0
ARC
  5
553
100
AcDbEntity
  8
RACCORDO
100
AcDbCircle
 62
7
  6
CONTINUOUS
 10
12.9191284721
 20
-474.0946306287
 40
500.0
100
AcDbArc
 50
87.3396656561
 51
92.6603343439
  0
ARC
  5
554
100
AcDbEntity
  8
0
100
AcDbCircle
 62
7
  6
CONTINUOUS
 10
12.919128472
 20
-452.4946306238
 40
499.9999999951
100
AcDbArc
 50
85.8180057502
 51
94.1819942496
  0
ARC
  5
555
100
AcDbEntity
  8
RACCORDO
100
AcDbCircle
 62
253
  6
CONTINUOUS
 10
12.9191284721
 20
-474.5946306287
 40
499.975167516
100
AcDbArc
 50
87.3820223219
 51
92.6179776781
  0
ARC
  5
556
100
AcDbEntity
  8
SUPERFICI
100
AcDbCircle
 62
253
  6
CONTINUOUS
 10
12.9191284721
 20
-452.4946306275
 40
499.8560600516
100
AcDbArc
 50
93.566702279
 51
94.1819942639
  0
ARC
  5
557
100
AcDbEntity
  8
SUPERFICI
100
AcDbCircle
 62
253
  6
CONTINUOUS
 10
12.9191284721
 20
-452.4946306275
 40
499.8560600516
100
AcDbArc
 50
85.8180057361
 51
86.4338708425
  0
ARC
  5
558
100
AcDbEntity
  8
0
100
AcDbCircle
 62
253
  6
CONTINUOUS
 10
12.9191284721
 20
-452.4946306275
 40
499.8556382082
100
AcDbArc
 50
86.4338708425
 51
93.5661291575
  0
ARC
  5
559
100
AcDbEntity
  8
0
100
AcDbCircle
 62
7
  6
CONTINUOUS
 10
48.6158072061
 20
-35.6913093627
 40
10.5
100
AcDbArc
 50
274.1819971168
 51
355.818005963
  0
ARC
  5
55A
100
AcDbEntity
  8
SUPERFICI
100
AcDbCircle
 62
253
  6
CONTINUOUS
 10
48.6158072061
 20
-35.6913093627
 40
10.3556437153
100
AcDbArc
 50
274.1819942639
 51
355.8180057713
  0
ARC
  5
55B
100
AcDbEntity
  8
RACCORDO
100
AcDbCircle
 62
253
  6
CONTINUOUS
 10
35.6796948173
 20
-23.1745484836
 40
2.1744822834
100
AcDbArc
 50
272.6179776781
 51
331.018627763
  0
ARC
  5
55C
100
AcDbEntity
  8
RACCORDO
100
AcDbCircle
 62
253
  6
CONTINUOUS
 10
35.6796948173
 20
-23.1745484836
 40
1.675167516
100
AcDbArc
 50
272.6179776781
 51
357.3337529234
  0
ARC
  5
55D
100
AcDbEntity
  8
RACCORDO
100
AcDbCircle
 62
7
  6
CONTINUOUS
 10
36.0523204697
 20
-23.7574786381
 40
1.6
100
AcDbArc
 50
272.6603343439
 51
357.2672005146
  0
ARC
  5
55E
100
AcDbEntity
  8
RACCORDO
100
AcDbCircle
 62
253
  6
CONTINUOUS
 10
12.9191284721
 20
474.6053693713
 40
500.4744822834
100
AcDbArc
 50
267.3820223219
 51
272.6179776781
  0
ARC
  5
55F
100
AcDbEntity
  8
0
100
AcDbCircle
 62
7
  6
CONTINUOUS
 10
12.9191284748
 20
452.5053694184
 40
500.0000000364
100
AcDbArc
 50
265.8180057518
 51
274.181994307
  0
ARC
  5
560
100
AcDbEntity
  8
0
100
AcDbCircle
 62
7
  6
CONTINUOUS
 10
465.4191284776
 20
0.0053693714
 40
500.0000000055
100
AcDbArc
 50
175.8180057578
 51
184.1819942426
  0
ARC
  5
561
100
AcDbEntity
  8
RACCORDO
100
AcDbCircle
 62
7
  6
CONTINUOUS
 10
487.6191284721
 20
0.0053693713
 40
500.0
100
AcDbArc
 50
177.2672005146
 51
177.3082961078
  0
ARC
  5
562
100
AcDbEntity
  8
RACCORDO
100
AcDbCircle
 62
7
  6
CONTINUOUS
 10
487.6191284721
 20
0.0053693713
 40
500.0
100
AcDbArc
 50
182.6917046443
 51
182.7327994854
  0
ARC
  5
563
100
AcDbEntity
  8
ASSI
100
AcDbCircle
 62
7
  6
CONTINUOUS
 10
487.6191284721
 20
0.0053693713
 40
500.0
100
AcDbArc
 50
177.3082961078
 51
182.6917046443
  0
ARC
  5
564
100
AcDbEntity
  8
RACCORDO
100
AcDbCircle
 62
7
  6
CONTINUOUS
 10
12.9191284721
 20
474.1053693713
 40
500.0
100
AcDbArc
 50
267.3396656561
 51
272.6603343439
  0
ARC
  5
565
100
AcDbEntity
  8
RACCORDO
100
AcDbCircle
 62
253
  6
CONTINUOUS
 10
487.9191284721
 20
0.0053693713
 40
499.975167516
100
AcDbArc
 50
177.3337529234
 51
182.6662470766
  0
ARC
  5
566
100
AcDbEntity
  8
RACCORDO
100
AcDbCircle
 62
253
  6
CONTINUOUS
 10
12.9191284721
 20
474.6053693713
 40
499.975167516
100
AcDbArc
 50
267.3820223219
 51
272.6179776781
  0
ARC
  5
567
100
AcDbEntity
  8
SUPERFICI
100
AcDbCircle
 62
253
  6
CONTINUOUS
 10
12.9191284839
 20
452.5053695411
 40
499.8556438752
100
AcDbArc
 50
273.5661291571
 51
274.1819942639
  0
ARC
  5
568
100
AcDbEntity
  8
0
100
AcDbCircle
 62
253
  6
CONTINUOUS
 10
465.4191284736
 20
0.0053693714
 40
499.8555358775
100
AcDbArc
 50
177.3117092643
 51
184.1819942287
  0
ARC
  5
569
100
AcDbEntity
  8
SUPERFICI
100
AcDbCircle
 62
253
  6
CONTINUOUS
 10
465.4191284736
 20
0.0053693714
 40
499.8555358775
100
AcDbArc
 50
175.8180057713
 51
177.3117092643
  0
ARC
  5
56A
100
AcDbEntity
  8
0
100
AcDbCircle
 62
253
  6
CONTINUOUS
 10
12.9191284839
 20
452.5053695415
 40
499.8552220322
100
AcDbArc
 50
265.8180057361
 51
273.5661291571
  0
ARC
  5
56B
100
AcDbEntity
  8
0
100
AcDbCircle
 62
7
  6
CONTINUOUS
 10
48.6158072061
 20
35.7020481053
 40
10.5
100
AcDbArc
 50
4.1819933099
 51
85.8180056433
  0
ARC
  5
56C
100
AcDbEntity
  8
SUPERFICI
100
AcDbCircle
 62
253
  6
CONTINUOUS
 10
48.6158072061
 20
35.7020481053
 40
10.3556437153
100
AcDbArc
 50
4.1819942287
 51
85.8180057361
  0
ARC
  5
56D
100
AcDbEntity
  8
RACCORDO
100
AcDbCircle
 62
253
  6
CONTINUOUS
 10
35.6796948173
 20
23.1852872262
 40
2.1744822834
100
AcDbArc
 50
28.9813998169
 51
87.3820223219
  0
ARC
  5
56E
100
AcDbEntity
  8
RACCORDO
100
AcDbCircle
 62
253
  6
CONTINUOUS
 10
35.6796948173
 20
23.1852872262
 40
1.675167516
100
AcDbArc
 50
2.6662470766
 51
87.382022322
  0
ARC
  5
56F
100
AcDbEntity
  8
RACCORDO
100
AcDbCircle
 62
7
  6
CONTINUOUS
 10
36.0523204697
 20
23.7682173807
 40
1.6
100
AcDbArc
 50
2.7327994854
 51
87.3396656561
  0
ARC
  5
570
100
AcDbEntity
  8
RACCORDO
100
AcDbCircle
 62
7
  6
CONTINUOUS
 10
-58.8817541286
 20
24.3042586884
 40
0.8999999921
100
AcDbArc
 50
357.0632926017
 51
359.6107577151
  0
ARC
  5
571
100
AcDbEntity
  8
RACCORDO
100
AcDbCircle
 62
7
  6
CONTINUOUS
 10
-50.0499359769
 20
-46.8943696751
 40
0.5
100
AcDbArc
 50
273.0
 51
360.0
  0
ARC
  5
572
100
AcDbEntity
  8
RACCORDO
100
AcDbCircle
 62
7
  6
CONTINUOUS
 10
-50.0499359769
 20
46.9051084177
 40
0.5
100
AcDbArc
 50
0.0
 51
87.0
  0
ARC
  5
573
100
AcDbEntity
  8
0
100
AcDbCircle
 62
7
  6
CONTINUOUS
 10
-49.0499359769
 20
25.4053693713
 40
0.2
100
AcDbArc
 50
270.0
 51
360.0
  0
ARC
  5
574
100
AcDbEntity
  8
0
100
AcDbCircle
 62
7
  6
CONTINUOUS
 10
-49.0499359769
 20
-25.3946306287
 40
0.2
100
AcDbArc
 50
0.0
 51
90.0
  0
ARC
  5
575
100
AcDbEntity
  8
0
100
AcDbCircle
 62
7
  6
CONTINUOUS
 10
-49.0499359769
 20
14.065576458
 40
0.2
100
AcDbArc
 50
0.0
 51
87.0
  0
ARC
  5
576
100
AcDbEntity
  8
0
100
AcDbCircle
 62
7
  6
CONTINUOUS
 10
-49.0499359769
 20
8.4451622847
 40
0.2
100
AcDbArc
 50
273.0
 51
360.0
  0
ARC
  5
577
100
AcDbEntity
  8
0
100
AcDbCircle
 62
7
  6
CONTINUOUS
 10
-49.0499359769
 20
-8.434423542
 40
0.2
100
AcDbArc
 50
0.0
 51
87.0
  0
ARC
  5
578
100
AcDbEntity
  8
0
100
AcDbCircle
 62
7
  6
CONTINUOUS
 10
-49.0499359769
 20
-14.0548377153
 40
0.2
100
AcDbArc
 50
273.0
 51
360.0
  0
ARC
  5
579
100
AcDbEntity
  8
0
100
AcDbCircle
 62
7
  6
CONTINUOUS
 10
-49.0499359769
 20
8.3451622847
 40
0.2
100
AcDbArc
 50
273.0
 51
360.0
  0
ARC
  5
57A
100
AcDbEntity
  8
RACCORDO
100
AcDbCircle
 62
7
  6
CONTINUOUS
 10
-58.3378949526
 20
25.0752689512
 40
0.1
100
AcDbArc
 50
93.0
 51
204.9987508828
  0
ARC
  5
57B
100
AcDbEntity
  8
RACCORDO
100
AcDbCircle
 62
7
  6
CONTINUOUS
 10
-58.3378949526
 20
-25.0645302086
 40
0.1
100
AcDbArc
 50
155.0012491172
 51
267.0
  0
ELLIPSE
  5
57C
100
AcDbEntity
  8
RACCORDO
100
AcDbEllipse
 62
7
  6
CONTINUOUS
 10
-8.9800481203
 20
-21.8938072211
 30
0.0
 11
-0.4254277461
 21
-0.4254277461
 31
0.0
 40
0.9972646886
 41
-0.7840286355
 42
0.7840286355
  0
ELLIPSE
  5
57D
100
AcDbEntity
  8
RACCORDO
100
AcDbEllipse
 62
7
  6
CONTINUOUS
 10
34.8183050645
 20
-21.8938072211
 30
0.0
 11
0.4254277461
 21
-0.4254277461
 31
0.0
 40
0.9972646886
 41
-0.7840286355
 42
0.7840286355
  0
ELLIPSE
  5
57E
100
AcDbEntity
  8
RACCORDO
100
AcDbEllipse
 62
7
  6
CONTINUOUS
 10
34.8183050645
 20
21.9045459637
 30
0.0
 11
0.4254277461
 21
0.4254277461
 31
0.0
 40
0.9972646886
 41
-0.7840286355
 42
0.7840286355
  0
ELLIPSE
  5
57F
100
AcDbEntity
  8
RACCORDO
100
AcDbEllipse
 62
7
  6
CONTINUOUS
 10
-8.9800481203
 20
21.9045459637
 30
0.0
 11
-0.4254277461
 21
0.4254277461
 31
0.0
 40
0.9972646886
 41
-0.7840286355
 42
0.7840286355
  0
ELLIPSE
  5
580
100
AcDbEntity
  8
0
100
AcDbEllipse
 62
7
  6
CONTINUOUS
 10
-49.0499359769
 20
-25.9860690728
 30
0.0
 11
0.1417119467
 21
0.1422961243
 31
0.0
 40
0.9918061237
 41
-0.7833412615
 42
0.7350951877
  0
ELLIPSE
  5
581
100
AcDbEntity
  8
0
100
AcDbEllipse
 62
7
  6
CONTINUOUS
 10
-49.0499359769
 20
25.9968078154
 30
0.0
 11
-0.1417119467
 21
0.1422961243
 31
0.0
 40
0.9918061237
 41
-3.8766878413
 42
-2.358251392
  0
ENDSEC
  0
SECTION
  2
OBJECTS
  0
DICTIONARY
  5
C
100
AcDbDictionary
280
0
281
1
  3
ACAD_GROUP
350
D
  3
ACAD_MLINESTYLE
350
17
  3
ACAD_LAYOUT
350
1A
  3
ACAD_PLOTSETTINGS
350
19
  3
ACAD_PLOTSTYLENAME
350
E
  0
DICTIONARY
  5
D
102
{ACAD_REACTORS
330
C
102
}
100
AcDbDictionary
280
0
281
1
  0
ACDBDICTIONARYWDFLT
  5
E
102
{ACAD_REACTORS
330
C
102
}
100
AcDbDictionary
281
1
  3
Normal
350
F
100
AcDbDictionaryWithDefault
340
F
  0
DICTIONARY
  5
17
102
{ACAD_REACTORS
330
C
102
}
100
AcDbDictionary
280
0
281
1
  3
Standard
350
18
  0
DICTIONARY
  5
19
102
{ACAD_REACTORS
330
C
102
}
100
AcDbDictionary
281
1
  0
DICTIONARY
  5
1A
102
{ACAD_REACTORS
330
C
102
}
100
AcDbDictionary
281
1
  3
Model
350
582
  3
Layout1
350
583
  0
ACDBPLACEHOLDER
  5
F
102
{ACAD_REACTORS
330
E
102
}
  0
MLINESTYLE
  5
18
102
{ACAD_REACTORS
330
17
102
}
100
AcDbMlineStyle
  2
STANDARD
 70
0
  3

 62
256
 51
90.0
 52
90.0
 71
2
 49
0.5
 62
256
  6
BYLAYER
 49
-0.5
 62
256
  6
BYLAYER
  0
LAYOUT
  5
582
102
{ACAD_REACTORS
330
1A
102
}
100
AcDbPlotSettings
  1

  2
none_device
  4
ISO_A4_(297.00_x_210.00_MM)
  6

 40
0.0
 41
0.0
 42
0.0
 43
0.0
 44
297.0
 45
210.0
 46
0.0
 47
0.0
 48
0.0
 49
0.0
140
0.0
141
0.0
142
1.0
143
1.0
 70
1024
 72
1
 73
0
 74
0
  7

 75
0
147
1.0
148
0.0
149
0.0
100
AcDbLayout
  1
Model
 70
0
 71
0
 10
0.0
 20
0.0
 11
297.0
 21
210.0
 12
0.0
 22
0.0
 32
0.0
 14
0.0
 24
0.0
 34
0.0
 15
0.0
 25
0.0
 35
0.0
146
0.0
 13
0.0
 23
0.0
 33
0.0
 16
1.0
 26
0.0
 36
0.0
 17
0.0
 27
1.0
 37
0.0
 76
0
330
21B
345
0
346
0
  0
LAYOUT
  5
583
102
{ACAD_REACTORS
330
1A
102
}
100
AcDbPlotSettings
  1

  2
none_device
  4
ISO_A4_(297.00_x_210.00_MM)
  6

 40
0.0
 41
0.0
 42
0.0
 43
0.0
 44
297.0
 45
210.0
 46
0.0
 47
0.0
 48
0.0
 49
0.0
140
0.0
141
0.0
142
1.0
143
1.0
 70
0
 72
1
 73
0
 74
0
  7

 75
0
147
1.0
148
0.0
149
0.0
100
AcDbLayout
  1
Layout1
 70
0
 71
1
 10
0.0
 20
0.0
 11
297.0
 21
210.0
 12
0.0
 22
0.0
 32
0.0
 14
0.0
 24
0.0
 34
0.0
 15
0.0
 25
0.0
 35
0.0
146
0.0
 13
0.0
 23
0.0
 33
0.0
 16
1.0
 26
0.0
 36
0.0
 17
0.0
 27
1.0
 37
0.0
 76
0
330
21C
345
0
346
0
  0
ENDSEC
  0
EOF
